  0
SECTION
  2
HEADER
  9
$ACADVER
  1
AC1015
  9
$ACADMAINTVER
 70
     6
  9
$DWGCODEPAGE
  3
ANSI_1252
  9
$INSBASE
 10
0.0
 20
0.0
 30
0.0
  9
$EXTMIN
 10
0.0
 20
0.0
 30
0.0
  9
$EXTMAX
 10
297.0
 20
210.0
 30
0.0
  9
$LIMMIN
 10
0.0
 20
0.0
  9
$LIMMAX
 10
297.0
 20
210.0
  9
$ORTHOMODE
 70
     0
  9
$REGENMODE
 70
     1
  9
$FILLMODE
 70
     1
  9
$QTEXTMODE
 70
     0
  9
$MIRRTEXT
 70
     1
  9
$LTSCALE
 40
1.0
  9
$ATTMODE
 70
     1
  9
$TEXTSIZE
 40
2.0
  9
$TRACEWID
 40
1.0
  9
$TEXTSTYLE
  7
Standard
  9
$CLAYER
  8
0
  9
$CELTYPE
  6
ByLayer
  9
$CECOLOR
 62
   256
  9
$CELTSCALE
 40
1.0
  9
$DISPSILH
 70
     0
  9
$DIMSCALE
 40
1.0
  9
$DIMASZ
 40
3.0
  9
$DIMEXO
 40
0.0
  9
$DIMDLI
 40
3.75
  9
$DIMRND
 40
0.0
  9
$DIMDLE
 40
0.0
  9
$DIMEXE
 40
1.0
  9
$DIMTP
 40
0.0
  9
$DIMTM
 40
0.0
  9
$DIMTXT
 40
2.0
  9
$DIMCEN
 40
2.5
  9
$DIMTSZ
 40
0.0
  9
$DIMTOL
 70
     0
  9
$DIMLIM
 70
     0
  9
$DIMTIH
 70
     1
  9
$DIMTOH
 70
     1
  9
$DIMSE1
 70
     0
  9
$DIMSE2
 70
     0
  9
$DIMTAD
 70
     1
  9
$DIMZIN
 70
     0
  9
$DIMBLK
  1

  9
$DIMASO
 70
     1
  9
$DIMSHO
 70
     1
  9
$DIMPOST
  1

  9
$DIMAPOST
  1

  9
$DIMALT
 70
     0
  9
$DIMALTD
 70
     3
  9
$DIMALTF
 40
0.0393700787
  9
$DIMLFAC
 40
2.0
  9
$DIMTOFL
 70
     1
  9
$DIMTVP
 40
0.0
  9
$DIMTIX
 70
     0
  9
$DIMSOXD
 70
     0
  9
$DIMSAH
 70
     0
  9
$DIMBLK1
  1

  9
$DIMBLK2
  1

  9
$DIMSTYLE
  2
ISO-25
  9
$DIMCLRD
 70
     0
  9
$DIMCLRE
 70
     0
  9
$DIMCLRT
 70
     0
  9
$DIMTFAC
 40
1.0
  9
$DIMGAP
 40
1.524
  9
$DIMJUST
 70
     0
  9
$DIMSD1
 70
     0
  9
$DIMSD2
 70
     0
  9
$DIMTOLJ
 70
     0
  9
$DIMTZIN
 70
     0
  9
$DIMALTZ
 70
     0
  9
$DIMALTTZ
 70
     0
  9
$DIMUPT
 70
     0
  9
$DIMDEC
 70
     2
  9
$DIMTDEC
 70
     3
  9
$DIMALTU
 70
     2
  9
$DIMALTTD
 70
     3
  9
$DIMTXSTY
  7
Standard
  9
$DIMAUNIT
 70
     0
  9
$DIMADEC
 70
     2
  9
$DIMALTRND
 40
0.0
  9
$DIMAZIN
 70
     0
  9
$DIMDSEP
 70
    44
  9
$DIMATFIT
 70
     3
  9
$DIMFRAC
 70
     0
  9
$DIMLDRBLK
  1

  9
$DIMLUNIT
 70
     2
  9
$DIMLWD
 70
    -2
  9
$DIMLWE
 70
    -2
  9
$DIMTMOVE
 70
     0
  9
$LUNITS
 70
     2
  9
$LUPREC
 70
     2
  9
$SKETCHINC
 40
1.0
  9
$FILLETRAD
 40
10.0
  9
$AUNITS
 70
     0
  9
$AUPREC
 70
     2
  9
$MENU
  1
.
  9
$ELEVATION
 40
0.0
  9
$PELEVATION
 40
0.0
  9
$THICKNESS
 40
0.0
  9
$LIMCHECK
 70
     0
  9
$CHAMFERA
 40
0.0
  9
$CHAMFERB
 40
0.0
  9
$CHAMFERC
 40
0.0
  9
$CHAMFERD
 40
0.0
  9
$SKPOLY
 70
     0
  9
$TDCREATE
 40
2457674.66766081
  9
$TDUCREATE
 40
2457674.584327477
  9
$TDUPDATE
 40
2457674.667662315
  9
$TDUUPDATE
 40
2457674.584328982
  9
$TDINDWG
 40
0.0000000116
  9
$TDUSRTIMER
 40
0.0000000116
  9
$USRTIMER
 70
     1
  9
$ANGBASE
 50
0.0
  9
$ANGDIR
 70
     0
  9
$PDMODE
 70
     0
  9
$PDSIZE
 40
-1.0
  9
$PLINEWID
 40
0.0
  9
$SPLFRAME
 70
     0
  9
$SPLINETYPE
 70
     6
  9
$SPLINESEGS
 70
     8
  9
$HANDSEED
  5
2D5
  9
$SURFTAB1
 70
     6
  9
$SURFTAB2
 70
     6
  9
$SURFTYPE
 70
     6
  9
$SURFU
 70
     6
  9
$SURFV
 70
     6
  9
$UCSBASE
  2

  9
$UCSNAME
  2

  9
$UCSORG
 10
0.0
 20
0.0
 30
0.0
  9
$UCSXDIR
 10
1.0
 20
0.0
 30
0.0
  9
$UCSYDIR
 10
0.0
 20
1.0
 30
0.0
  9
$UCSORTHOREF
  2

  9
$UCSORTHOVIEW
 70
     0
  9
$UCSORGTOP
 10
0.0
 20
0.0
 30
0.0
  9
$UCSORGBOTTOM
 10
0.0
 20
0.0
 30
0.0
  9
$UCSORGLEFT
 10
0.0
 20
0.0
 30
0.0
  9
$UCSORGRIGHT
 10
0.0
 20
0.0
 30
0.0
  9
$UCSORGFRONT
 10
0.0
 20
0.0
 30
0.0
  9
$UCSORGBACK
 10
0.0
 20
0.0
 30
0.0
  9
$PUCSBASE
  2

  9
$PUCSNAME
  2

  9
$PUCSORG
 10
0.0
 20
0.0
 30
0.0
  9
$PUCSXDIR
 10
1.0
 20
0.0
 30
0.0
  9
$PUCSYDIR
 10
0.0
 20
1.0
 30
0.0
  9
$PUCSORTHOREF
  2

  9
$PUCSORTHOVIEW
 70
     0
  9
$PUCSORGTOP
 10
0.0
 20
0.0
 30
0.0
  9
$PUCSORGBOTTOM
 10
0.0
 20
0.0
 30
0.0
  9
$PUCSORGLEFT
 10
0.0
 20
0.0
 30
0.0
  9
$PUCSORGRIGHT
 10
0.0
 20
0.0
 30
0.0
  9
$PUCSORGFRONT
 10
0.0
 20
0.0
 30
0.0
  9
$PUCSORGBACK
 10
0.0
 20
0.0
 30
0.0
  9
$USERI1
 70
     0
  9
$USERI2
 70
     0
  9
$USERI3
 70
     0
  9
$USERI4
 70
     0
  9
$USERI5
 70
     0
  9
$USERR1
 40
0.0
  9
$USERR2
 40
0.0
  9
$USERR3
 40
0.0
  9
$USERR4
 40
0.0
  9
$USERR5
 40
0.0
  9
$WORLDVIEW
 70
     1
  9
$SHADEDGE
 70
     3
  9
$SHADEDIF
 70
    70
  9
$TILEMODE
 70
     1
  9
$MAXACTVP
 70
    64
  9
$PINSBASE
 10
0.0
 20
0.0
 30
0.0
  9
$PLIMCHECK
 70
     0
  9
$PEXTMIN
 10
1.0000000000E+20
 20
1.0000000000E+20
 30
1.0000000000E+20
  9
$PEXTMAX
 10
-1.0000000000E+20
 20
-1.0000000000E+20
 30
-1.0000000000E+20
  9
$PLIMMIN
 10
0.0
 20
0.0
  9
$PLIMMAX
 10
420.0
 20
297.0
  9
$UNITMODE
 70
     0
  9
$VISRETAIN
 70
     1
  9
$PLINEGEN
 70
     0
  9
$PSLTSCALE
 70
     1
  9
$TREEDEPTH
 70
  3020
  9
$CMLSTYLE
  2
Standard
  9
$CMLJUST
 70
     0
  9
$CMLSCALE
 40
20.0
  9
$PROXYGRAPHICS
 70
     1
  9
$MEASUREMENT
 70
     1
  9
$CELWEIGHT
370
    -1
  9
$ENDCAPS
280
     0
  9
$JOINSTYLE
280
     0
  9
$LWDISPLAY
290
     1
  9
$INSUNITS
 70
     4
  9
$HYPERLINKBASE
  1

  9
$STYLESHEET
  1

  9
$XEDIT
290
     1
  9
$CEPSNTYPE
380
     0
  9
$PSTYLEMODE
290
     1
  9
$FINGERPRINTGUID
  2
{0C669A9A-A5E9-467D-87F0-20CA5BD8A861}
  9
$VERSIONGUID
  2
{FAEB1C32-E019-11D5-929B-00C0DF256EC4}
  9
$EXTNAMES
290
     1
  9
$PSVPSCALE
 40
0.0
  9
$OLESTARTUP
290
     0
  0
ENDSEC
  0
SECTION
  2
CLASSES
  0
CLASS
  1
ACDBDICTIONARYWDFLT
  2
AcDbDictionaryWithDefault
  3
ObjectDBX Classes
 90
        0
280
     0
281
     0
  0
CLASS
  1
VISUALSTYLE
  2
AcDbVisualStyle
  3
ObjectDBX Classes
 90
     4095
280
     0
281
     0
  0
CLASS
  1
MATERIAL
  2
AcDbMaterial
  3
ObjectDBX Classes
 90
     1153
280
     0
281
     0
  0
CLASS
  1
SCALE
  2
AcDbScale
  3
ObjectDBX Classes
 90
     1153
280
     0
281
     0
  0
CLASS
  1
TABLESTYLE
  2
AcDbTableStyle
  3
ObjectDBX Classes
 90
     4095
280
     0
281
     0
  0
CLASS
  1
MLEADERSTYLE
  2
AcDbMLeaderStyle
  3
ACDB_MLEADERSTYLE_CLASS
 90
     4095
280
     0
281
     0
  0
CLASS
  1
SUN
  2
AcDbSun
  3
SCENEOE
 90
     1153
280
     0
281
     0
  0
CLASS
  1
ACDBPLACEHOLDER
  2
AcDbPlaceHolder
  3
ObjectDBX Classes
 90
        0
280
     0
281
     0
  0
CLASS
  1
LAYOUT
  2
AcDbLayout
  3
ObjectDBX Classes
 90
        0
280
     0
281
     0
  0
ENDSEC
  0
SECTION
  2
TABLES
  0
TABLE
  2
VPORT
  5
8
330
0
100
AcDbSymbolTable
 70
     1
  0
VPORT
  5
29
330
8
100
AcDbSymbolTableRecord
100
AcDbViewportTableRecord
  2
*Active
 70
     0
 10
0.0
 20
0.0
 11
1.0
 21
1.0
 12
148.5
 22
105.0
 13
0.0
 23
0.0
 14
10.0
 24
10.0
 15
10.0
 25
10.0
 16
0.0
 26
0.0
 36
1.0
 17
0.0
 27
0.0
 37
0.0
 40
210.0
 41
1.4142857143
 42
50.0
 43
0.0
 44
0.0
 50
0.0
 51
0.0
 71
     0
 72
  2000
 73
     1
 74
     3
 75
     0
 76
     0
 77
     0
 78
     0
281
     0
 65
     1
110
0.0
120
0.0
130
0.0
111
1.0
121
0.0
131
0.0
112
0.0
122
1.0
132
0.0
 79
     0
146
0.0
  0
ENDTAB
  0
TABLE
  2
LTYPE
  5
5
330
0
100
AcDbSymbolTable
 70
     6
  0
LTYPE
  5
14
330
5
100
AcDbSymbolTableRecord
100
AcDbLinetypeTableRecord
  2
ByBlock
 70
     0
  3

 72
    65
 73
     0
 40
0.0
  0
LTYPE
  5
15
330
5
100
AcDbSymbolTableRecord
100
AcDbLinetypeTableRecord
  2
ByLayer
 70
     0
  3

 72
    65
 73
     0
 40
0.0
  0
LTYPE
  5
16
330
5
100
AcDbSymbolTableRecord
100
AcDbLinetypeTableRecord
  2
Continuous
 70
     0
  3
Solid line
 72
    65
 73
     0
 40
0.0
  0
LTYPE
  5
6E
330
5
100
AcDbSymbolTableRecord
100
AcDbLinetypeTableRecord
  2
HIDDEN
 70
     0
  3
Hidden __ __ __ __ __ __ __ __ __ __ __ __ __ __
 72
    65
 73
     2
 40
1.905
 49
1.27
 74
     0
 49
-0.635
 74
     0
  0
LTYPE
  5
6F
330
5
100
AcDbSymbolTableRecord
100
AcDbLinetypeTableRecord
  2
PHANTOM
 70
     0
  3
Phantom ______  __  __  ______  __  __  ______
 72
    65
 73
     6
 40
12.7
 49
6.35
 74
     0
 49
-1.27
 74
     0
 49
1.27
 74
     0
 49
-1.27
 74
     0
 49
1.27
 74
     0
 49
-1.27
 74
     0
  0
LTYPE
  5
70
330
5
100
AcDbSymbolTableRecord
100
AcDbLinetypeTableRecord
  2
CENTER
 70
     0
  3
Center ____ _ ____ _ ____ _ ____ _ ____ _ ____
 72
    65
 73
     4
 40
10.16
 49
6.35
 74
     0
 49
-1.27
 74
     0
 49
1.27
 74
     0
 49
-1.27
 74
     0
  0
LTYPE
  5
71
330
5
100
AcDbSymbolTableRecord
100
AcDbLinetypeTableRecord
  2
CENTERX2
 70
     0
  3
Center (2x) ________  __  ________  __  _____
 72
    65
 73
     4
 40
20.32
 49
12.7
 74
     0
 49
-2.54
 74
     0
 49
2.54
 74
     0
 49
-2.54
 74
     0
  0
LTYPE
  5
72
330
5
100
AcDbSymbolTableRecord
100
AcDbLinetypeTableRecord
  2
DOT2
 70
     0
  3
Dot (.5x) ........................................
 72
    65
 73
     2
 40
0.635
 49
0.0
 74
     0
 49
-0.635
 74
     0
  0
ENDTAB
  0
TABLE
  2
LAYER
  5
2
330
0
100
AcDbSymbolTable
 70
     5
  0
LAYER
  5
10
330
2
100
AcDbSymbolTableRecord
100
AcDbLayerTableRecord
  2
0
 70
     0
 62
     7
  6
Continuous
370
    -3
390
F
  0
LAYER
  5
73
330
2
100
AcDbSymbolTableRecord
100
AcDbLayerTableRecord
  2
FORMAT
 70
     0
 62
     7
  6
Continuous
370
    -3
390
F
  0
LAYER
  5
74
330
2
100
AcDbSymbolTableRecord
100
AcDbLayerTableRecord
  2
VERMASSUNG
 70
     0
 62
     7
  6
Continuous
370
    -3
390
F
  0
LAYER
  5
75
330
2
100
AcDbSymbolTableRecord
100
AcDbLayerTableRecord
  2
KOPF_DÜNN
 70
     0
 62
     7
  6
Continuous
370
    -3
390
F
  0
LAYER
  5
76
330
2
100
AcDbSymbolTableRecord
100
AcDbLayerTableRecord
  2
KOPF_DICK
 70
     0
 62
     7
  6
Continuous
370
    15
390
F
  0
ENDTAB
  0
TABLE
  2
STYLE
  5
3
330
0
100
AcDbSymbolTable
 70
     2
  0
STYLE
  5
11
330
3
100
AcDbSymbolTableRecord
100
AcDbTextStyleTableRecord
  2
Standard
 70
     0
 40
0.0
 41
1.0
 50
0.0
 71
     0
 42
2.0
  3
txt
  4

  0
STYLE
  5
77
330
3
100
AcDbSymbolTableRecord
100
AcDbTextStyleTableRecord
  2
SLDTEXTSTYLE0
 70
     0
 40
0.0
 41
0.7
 50
0.0
 71
     0
 42
2.0
  3
TXT
  4

  0
ENDTAB
  0
TABLE
  2
VIEW
  5
6
330
0
100
AcDbSymbolTable
 70
     0
  0
ENDTAB
  0
TABLE
  2
UCS
  5
7
330
0
100
AcDbSymbolTable
 70
     0
  0
ENDTAB
  0
TABLE
  2
APPID
  5
9
330
0
100
AcDbSymbolTable
 70
     1
  0
APPID
  5
12
330
9
100
AcDbSymbolTableRecord
100
AcDbRegAppTableRecord
  2
ACAD
 70
     0
  0
ENDTAB
  0
TABLE
  2
DIMSTYLE
  5
A
330
0
100
AcDbSymbolTable
 70
     2
100
AcDbDimStyleTable
  0
DIMSTYLE
105
27
330
A
100
AcDbSymbolTableRecord
100
AcDbDimStyleTableRecord
  2
ISO-25
 70
     0
 41
2.5
 42
0.625
 43
3.75
 44
1.25
 73
     0
 74
     0
 77
     1
 78
     8
140
2.5
141
2.5
143
0.0393700787
147
0.625
171
     3
172
     1
178
     0
271
     2
272
     2
274
     3
278
    44
283
     0
284
     8
340
11
  0
DIMSTYLE
105
1F2
102
{ACAD_REACTORS
330
1F1
330
1FE
330
209
330
215
330
21F
330
229
102
}
330
A
100
AcDbSymbolTableRecord
100
AcDbDimStyleTableRecord
  2
SLDDIMSTYLE0
 70
     0
 41
3.0
 44
0.0
 45
0.000000001
 73
     0
 74
     0
 77
     1
 78
    12
 79
     3
140
2.0
147
0.5
173
     1
178
     0
271
     2
272
     3
276
     2
284
    12
340
77
  0
ENDTAB
  0
TABLE
  2
BLOCK_RECORD
  5
1
330
0
100
AcDbSymbolTable
 70
     7
  0
BLOCK_RECORD
  5
1F
330
1
100
AcDbSymbolTableRecord
100
AcDbBlockTableRecord
  2
*Model_Space
340
22
  0
BLOCK_RECORD
  5
1B
330
1
100
AcDbSymbolTableRecord
100
AcDbBlockTableRecord
  2
*Paper_Space
340
1E
  0
BLOCK_RECORD
  5
23
330
1
100
AcDbSymbolTableRecord
100
AcDbBlockTableRecord
  2
*Paper_Space0
340
26
  0
BLOCK_RECORD
  5
1F3
330
1
100
AcDbSymbolTableRecord
100
AcDbBlockTableRecord
  2
_D
340
0
  0
BLOCK_RECORD
  5
1FF
330
1
100
AcDbSymbolTableRecord
100
AcDbBlockTableRecord
  2
_D_1
340
0
  0
BLOCK_RECORD
  5
20A
330
1
100
AcDbSymbolTableRecord
100
AcDbBlockTableRecord
  2
_D_2
340
0
  0
BLOCK_RECORD
  5
216
330
1
100
AcDbSymbolTableRecord
100
AcDbBlockTableRecord
  2
_D_3
340
0
  0
BLOCK_RECORD
  5
220
330
1
100
AcDbSymbolTableRecord
100
AcDbBlockTableRecord
  2
_D_4
340
0
  0
BLOCK_RECORD
  5
22A
330
1
100
AcDbSymbolTableRecord
100
AcDbBlockTableRecord
  2
_D_5
340
0
  0
ENDTAB
  0
ENDSEC
  0
SECTION
  2
BLOCKS
  0
BLOCK
  5
20
330
1F
100
AcDbEntity
  8
0
100
AcDbBlockBegin
  2
*Model_Space
 70
     0
 10
0.0
 20
0.0
 30
0.0
  3
*Model_Space
  1

  0
ENDBLK
  5
21
330
1F
100
AcDbEntity
  8
0
100
AcDbBlockEnd
  0
BLOCK
  5
1C
330
1B
100
AcDbEntity
 67
     1
  8
0
100
AcDbBlockBegin
  2
*Paper_Space
 70
     0
 10
0.0
 20
0.0
 30
0.0
  3
*Paper_Space
  1

  0
ENDBLK
  5
1D
330
1B
100
AcDbEntity
 67
     1
  8
0
100
AcDbBlockEnd
  0
BLOCK
  5
24
330
23
100
AcDbEntity
  8
0
100
AcDbBlockBegin
  2
*Paper_Space0
 70
     0
 10
0.0
 20
0.0
 30
0.0
  3
*Paper_Space0
  1

  0
ENDBLK
  5
25
330
23
100
AcDbEntity
  8
0
100
AcDbBlockEnd
  0
BLOCK
  5
1F4
330
1F3
100
AcDbEntity
  8
0
100
AcDbBlockBegin
  2
_D
 70
     0
 10
0.0
 20
0.0
 30
0.0
  3
_D
  1

  0
SOLID
  5
1F6
330
1F3
100
AcDbEntity
  8
VERMASSUNG
100
AcDbTrace
 10
49.7056522744
 20
67.8804573437
 30
0.0
 11
50.1556522744
 21
70.8804573437
 31
0.0
 12
49.2556522744
 22
70.8804573437
 32
0.0
 13
49.2556522744
 23
70.8804573437
 33
0.0
  0
SOLID
  5
1F7
330
1F3
100
AcDbEntity
  8
VERMASSUNG
100
AcDbTrace
 10
49.7056522744
 20
165.3304573437
 30
0.0
 11
49.2556522744
 21
162.3304573437
 31
0.0
 12
50.1556522744
 22
162.3304573437
 32
0.0
 13
50.1556522744
 23
162.3304573437
 33
0.0
  0
LINE
  5
1F8
330
1F3
100
AcDbEntity
  8
VERMASSUNG
100
AcDbLine
 10
177.1179261648
 20
67.8804573437
 30
0.0
 11
48.7056522744
 21
67.8804573437
 31
0.0
  0
LINE
  5
1F9
330
1F3
100
AcDbEntity
  8
VERMASSUNG
100
AcDbLine
 10
177.1179261648
 20
165.3304573437
 30
0.0
 11
48.7056522744
 21
165.3304573437
 31
0.0
  0
LINE
  5
1FA
330
1F3
100
AcDbEntity
  8
VERMASSUNG
100
AcDbLine
 10
49.7056522744
 20
67.8804573437
 30
0.0
 11
49.7056522744
 21
165.3304573437
 31
0.0
  0
MTEXT
  5
1FB
330
1F3
100
AcDbEntity
  8
VERMASSUNG
100
AcDbMText
 10
46.9275170182
 20
107.1010217103
 30
0.0
 40
2.0
 41
0.0
 71
     1
 72
     1
  1
ISO 50
  7
SLDTEXTSTYLE0
 11
3.391901413832837E-15
 21
1.0
 31
0.0
 73
     1
 44
1.0
  0
MTEXT
  5
1FC
330
1F3
100
AcDbEntity
  8
VERMASSUNG
100
AcDbMText
 10
47.1275169695
 20
116.1010213229
 30
0.0
 40
2.0
 41
0.0
 71
     1
 72
     1
  1
%%c
  7
SLDTEXTSTYLE0
 11
3.391901413832837E-15
 21
1.0
 31
0.0
 73
     1
 44
1.0
  0
MTEXT
  5
1FD
330
1F3
100
AcDbEntity
  8
VERMASSUNG
100
AcDbMText
 10
47.1275166785
 20
119.7103646557
 30
0.0
 40
2.0
 41
0.0
 71
     1
 72
     1
  1
97.45
  7
SLDTEXTSTYLE0
 11
3.391901413832837E-15
 21
1.0
 31
0.0
 73
     1
 44
1.0
  0
ENDBLK
  5
1F5
330
1F3
100
AcDbEntity
  8
0
100
AcDbBlockEnd
  0
BLOCK
  5
200
330
1FF
100
AcDbEntity
  8
0
100
AcDbBlockBegin
  2
_D_1
 70
     0
 10
0.0
 20
0.0
 30
0.0
  3
_D_1
  1

  0
SOLID
  5
202
330
1FF
100
AcDbEntity
  8
VERMASSUNG
100
AcDbTrace
 10
251.0768318806
 20
130.6054573437
 30
0.0
 11
250.6268318806
 21
127.6054573437
 31
0.0
 12
251.5268318806
 22
127.6054573437
 32
0.0
 13
251.5268318806
 23
127.6054573437
 33
0.0
  0
SOLID
  5
203
330
1FF
100
AcDbEntity
  8
VERMASSUNG
100
AcDbTrace
 10
251.0768318806
 20
102.6054573437
 30
0.0
 11
251.5268318806
 21
105.6054573437
 31
0.0
 12
250.6268318806
 22
105.6054573437
 32
0.0
 13
250.6268318806
 23
105.6054573437
 33
0.0
  0
LINE
  5
204
330
1FF
100
AcDbEntity
  8
VERMASSUNG
100
AcDbLine
 10
242.6679261648
 20
130.6054573437
 30
0.0
 11
252.0768318806
 21
130.6054573437
 31
0.0
  0
LINE
  5
205
330
1FF
100
AcDbEntity
  8
VERMASSUNG
100
AcDbLine
 10
242.6679261648
 20
102.6054573437
 30
0.0
 11
252.0768318806
 21
102.6054573437
 31
0.0
  0
LINE
  5
206
330
1FF
100
AcDbEntity
  8
VERMASSUNG
100
AcDbLine
 10
251.0768318806
 20
130.6054573437
 30
0.0
 11
251.0768318806
 21
102.6054573437
 31
0.0
  0
MTEXT
  5
207
330
1FF
100
AcDbEntity
  8
VERMASSUNG
100
AcDbMText
 10
248.4986965757
 20
113.4004573864
 30
0.0
 40
2.0
 41
0.0
 71
     1
 72
     1
  1
%%c
  7
SLDTEXTSTYLE0
 11
-7.044195017643634E-15
 21
1.0
 31
0.0
 73
     1
 44
1.0
  0
MTEXT
  5
208
330
1FF
100
AcDbEntity
  8
VERMASSUNG
100
AcDbMText
 10
248.2986966244
 20
117.0104574007
 30
0.0
 40
2.0
 41
0.0
 71
     1
 72
     1
  1
28
  7
SLDTEXTSTYLE0
 11
-7.044195017643634E-15
 21
1.0
 31
0.0
 73
     1
 44
1.0
  0
ENDBLK
  5
201
330
1FF
100
AcDbEntity
  8
0
100
AcDbBlockEnd
  0
BLOCK
  5
20B
330
20A
100
AcDbEntity
  8
0
100
AcDbBlockBegin
  2
_D_2
 70
     0
 10
0.0
 20
0.0
 30
0.0
  3
_D_2
  1

  0
SOLID
  5
20D
330
20A
100
AcDbEntity
  8
VERMASSUNG
100
AcDbTrace
 10
257.0768318806
 20
141.6054573437
 30
0.0
 11
256.6268318806
 21
138.6054573437
 31
0.0
 12
257.5268318806
 22
138.6054573437
 32
0.0
 13
257.5268318806
 23
138.6054573437
 33
0.0
  0
SOLID
  5
20E
330
20A
100
AcDbEntity
  8
VERMASSUNG
100
AcDbTrace
 10
257.0768318806
 20
91.6054573437
 30
0.0
 11
257.5268318806
 21
94.6054573437
 31
0.0
 12
256.6268318806
 22
94.6054573437
 32
0.0
 13
256.6268318806
 23
94.6054573437
 33
0.0
  0
LINE
  5
20F
330
20A
100
AcDbEntity
  8
VERMASSUNG
100
AcDbLine
 10
243.1679261648
 20
141.6054573437
 30
0.0
 11
258.0768318806
 21
141.6054573437
 31
0.0
  0
LINE
  5
210
330
20A
100
AcDbEntity
  8
VERMASSUNG
100
AcDbLine
 10
243.1679261648
 20
91.6054573437
 30
0.0
 11
258.0768318806
 21
91.6054573437
 31
0.0
  0
LINE
  5
211
330
20A
100
AcDbEntity
  8
VERMASSUNG
100
AcDbLine
 10
257.0768318806
 20
141.6054573437
 30
0.0
 11
257.0768318806
 21
91.6054573437
 31
0.0
  0
MTEXT
  5
212
330
20A
100
AcDbEntity
  8
VERMASSUNG
100
AcDbMText
 10
254.2986966244
 20
111.5004573544
 30
0.0
 40
2.0
 41
0.0
 71
     1
 72
     1
  1
WH
  7
SLDTEXTSTYLE0
 11
-7.044195017643634E-15
 21
1.0
 31
0.0
 73
     1
 44
1.0
  0
MTEXT
  5
213
330
20A
100
AcDbEntity
  8
VERMASSUNG
100
AcDbMText
 10
254.4986965757
 20
115.3004574185
 30
0.0
 40
2.0
 41
0.0
 71
     1
 72
     1
  1
%%c
  7
SLDTEXTSTYLE0
 11
-7.044195017643634E-15
 21
1.0
 31
0.0
 73
     1
 44
1.0
  0
MTEXT
  5
214
330
20A
100
AcDbEntity
  8
VERMASSUNG
100
AcDbMText
 10
254.2986966244
 20
118.9104574328
 30
0.0
 40
2.0
 41
0.0
 71
     1
 72
     1
  1
50
  7
SLDTEXTSTYLE0
 11
-7.044195017643634E-15
 21
1.0
 31
0.0
 73
     1
 44
1.0
  0
ENDBLK
  5
20C
330
20A
100
AcDbEntity
  8
0
100
AcDbBlockEnd
  0
BLOCK
  5
217
330
216
100
AcDbEntity
  8
0
100
AcDbBlockBegin
  2
_D_3
 70
     0
 10
0.0
 20
0.0
 30
0.0
  3
_D_3
  1

  0
SOLID
  5
219
330
216
100
AcDbEntity
  8
VERMASSUNG
100
AcDbTrace
 10
243.6679261648
 20
171.0259085779
 30
0.0
 11
240.6679261648
 21
171.4759085779
 31
0.0
 12
240.6679261648
 22
170.5759085779
 32
0.0
 13
240.6679261648
 23
170.5759085779
 33
0.0
  0
SOLID
  5
21A
330
216
100
AcDbEntity
  8
VERMASSUNG
100
AcDbTrace
 10
177.7179261648
 20
171.0259085779
 30
0.0
 11
180.7179261648
 21
170.5759085779
 31
0.0
 12
180.7179261648
 22
171.4759085779
 32
0.0
 13
180.7179261648
 23
171.4759085779
 33
0.0
  0
LINE
  5
21B
330
216
100
AcDbEntity
  8
VERMASSUNG
100
AcDbLine
 10
243.6679261648
 20
141.1054573437
 30
0.0
 11
243.6679261648
 21
172.0259085779
 31
0.0
  0
LINE
  5
21C
330
216
100
AcDbEntity
  8
VERMASSUNG
100
AcDbLine
 10
177.7179261648
 20
162.9004442969
 30
0.0
 11
177.7179261648
 21
172.0259085779
 31
0.0
  0
LINE
  5
21D
330
216
100
AcDbEntity
  8
VERMASSUNG
100
AcDbLine
 10
243.6679261648
 20
171.0259085779
 30
0.0
 11
177.7179261648
 21
171.0259085779
 31
0.0
  0
MTEXT
  5
21E
330
216
100
AcDbEntity
  8
VERMASSUNG
100
AcDbMText
 10
207.5929263086
 20
173.6040441739
 30
0.0
 40
2.0
 41
0.0
 71
     1
 72
     1
  1
65.95
  7
SLDTEXTSTYLE0
 73
     1
 44
1.0
  0
ENDBLK
  5
218
330
216
100
AcDbEntity
  8
0
100
AcDbBlockEnd
  0
BLOCK
  5
221
330
220
100
AcDbEntity
  8
0
100
AcDbBlockBegin
  2
_D_4
 70
     0
 10
0.0
 20
0.0
 30
0.0
  3
_D_4
  1

  0
SOLID
  5
223
330
220
100
AcDbEntity
  8
VERMASSUNG
100
AcDbTrace
 10
243.6679261648
 20
177.0259085779
 30
0.0
 11
240.6679261648
 21
177.4759085779
 31
0.0
 12
240.6679261648
 22
176.5759085779
 32
0.0
 13
240.6679261648
 23
176.5759085779
 33
0.0
  0
SOLID
  5
224
330
220
100
AcDbEntity
  8
VERMASSUNG
100
AcDbTrace
 10
158.6679261648
 20
177.0259085779
 30
0.0
 11
161.6679261648
 21
176.5759085779
 31
0.0
 12
161.6679261648
 22
177.4759085779
 32
0.0
 13
161.6679261648
 23
177.4759085779
 33
0.0
  0
LINE
  5
225
330
220
100
AcDbEntity
  8
VERMASSUNG
100
AcDbLine
 10
243.6679261648
 20
141.1054573437
 30
0.0
 11
243.6679261648
 21
178.0259085779
 31
0.0
  0
LINE
  5
226
330
220
100
AcDbEntity
  8
VERMASSUNG
100
AcDbLine
 10
158.6679261648
 20
151.5304573437
 30
0.0
 11
158.6679261648
 21
178.0259085779
 31
0.0
  0
LINE
  5
227
330
220
100
AcDbEntity
  8
VERMASSUNG
100
AcDbLine
 10
243.6679261648
 20
177.0259085779
 30
0.0
 11
158.6679261648
 21
177.0259085779
 31
0.0
  0
MTEXT
  5
228
330
220
100
AcDbEntity
  8
VERMASSUNG
100
AcDbMText
 10
199.7679262147
 20
179.6040441739
 30
0.0
 40
2.0
 41
0.0
 71
     1
 72
     1
  1
85
  7
SLDTEXTSTYLE0
 73
     1
 44
1.0
  0
ENDBLK
  5
222
330
220
100
AcDbEntity
  8
0
100
AcDbBlockEnd
  0
BLOCK
  5
22B
330
22A
100
AcDbEntity
  8
0
100
AcDbBlockBegin
  2
_D_5
 70
     0
 10
0.0
 20
0.0
 30
0.0
  3
_D_5
  1

  0
SOLID
  5
22D
330
22A
100
AcDbEntity
  8
VERMASSUNG
100
AcDbTrace
 10
243.6679261648
 20
183.0259085779
 30
0.0
 11
240.6679261648
 21
183.4759085779
 31
0.0
 12
240.6679261648
 22
182.5759085779
 32
0.0
 13
240.6679261648
 23
182.5759085779
 33
0.0
  0
SOLID
  5
22E
330
22A
100
AcDbEntity
  8
VERMASSUNG
100
AcDbTrace
 10
57.0679261648
 20
183.0259085779
 30
0.0
 11
60.0679261648
 21
182.5759085779
 31
0.0
 12
60.0679261648
 22
183.4759085779
 32
0.0
 13
60.0679261648
 23
183.4759085779
 33
0.0
  0
LINE
  5
22F
330
22A
100
AcDbEntity
  8
VERMASSUNG
100
AcDbLine
 10
243.6679261648
 20
141.1054573437
 30
0.0
 11
243.6679261648
 21
184.0259085779
 31
0.0
  0
LINE
  5
230
330
22A
100
AcDbEntity
  8
VERMASSUNG
100
AcDbLine
 10
57.0679261648
 20
134.9843018711
 30
0.0
 11
57.0679261648
 21
184.0259085779
 31
0.0
  0
LINE
  5
231
330
22A
100
AcDbEntity
  8
VERMASSUNG
100
AcDbLine
 10
243.6679261648
 20
183.0259085779
 30
0.0
 11
57.0679261648
 21
183.0259085779
 31
0.0
  0
MTEXT
  5
232
330
22A
100
AcDbEntity
  8
VERMASSUNG
100
AcDbMText
 10
147.4679262017
 20
185.6040441739
 30
0.0
 40
2.0
 41
0.0
 71
     1
 72
     1
  1
186.6
  7
SLDTEXTSTYLE0
 73
     1
 44
1.0
  0
ENDBLK
  5
22C
330
22A
100
AcDbEntity
  8
0
100
AcDbBlockEnd
  0
ENDSEC
  0
SECTION
  2
ENTITIES
  0
MTEXT
  5
78
330
1F
100
AcDbEntity
  8
KOPF_DÜNN
100
AcDbMText
 10
13.8892156294
 20
23.8442973028
 30
0.0
 40
3.0
 41
0.0
 71
     1
 72
     1
  1
A14.450.050.085
  7
SLDTEXTSTYLE0
 73
     1
 44
1.0
  0
MTEXT
  5
79
330
1F
100
AcDbEntity
  8
VERMASSUNG
100
AcDbMText
 10
13.9329988022
 20
28.8834360957
 30
0.0
 40
3.0
 41
0.0
 71
     1
 72
     1
  1
Aufnahme_Master shank WH50
  7
SLDTEXTSTYLE0
 73
     1
 44
1.0
  0
MTEXT
  5
7A
330
1F
100
AcDbEntity
  8
VERMASSUNG
100
AcDbMText
 10
98.8601118557
 20
13.8365368761
 30
0.0
 40
2.0
 41
0.0
 71
     1
 72
     1
  1
Datum: 21.10.2011
  7
SLDTEXTSTYLE0
 73
     1
 44
1.0
  0
MTEXT
  5
7B
330
1F
100
AcDbEntity
  8
VERMASSUNG
100
AcDbMText
 10
13.933048693
 20
18.0482802738
 30
0.0
 40
2.0
 41
0.0
 71
     1
 72
     1
  1
DIN 69871 AD/B
  7
SLDTEXTSTYLE0
 73
     1
 44
1.0
  0
MTEXT
  5
7C
330
1F
100
AcDbEntity
  8
VERMASSUNG
100
AcDbMText
 10
13.9808475933
 20
13.9090974274
 30
0.0
 40
2.0
 41
0.0
 71
     1
 72
     1
  1
Gewicht: 3500g
  7
SLDTEXTSTYLE0
 73
     1
 44
1.0
  0
ARC
  5
7D
330
1F
100
AcDbEntity
  8
0
  6
Continuous
 62
     7
370
    15
100
AcDbCircle
 10
161.2679261648
 20
81.0804573437
 30
0.0
 40
0.6000000000000227
100
AcDbArc
 50
0.0
 51
90.0
  0
ARC
  5
7E
330
1F
100
AcDbEntity
  8
0
  6
Continuous
 62
     7
370
    15
100
AcDbCircle
 10
161.2679261648
 20
152.1304573437
 30
0.0
 40
0.6000000000000227
100
AcDbArc
 50
270.0
 51
0.0
  0
LINE
  5
7F
330
1F
100
AcDbEntity
  8
0
  6
Continuous
 62
     7
370
    15
100
AcDbLine
 10
158.6679261648
 20
151.5304562231
 30
0.0
 11
58.7793108546
 21
136.9633678873
 31
0.0
  0
LINE
  5
80
330
1F
100
AcDbEntity
  8
0
  6
Continuous
 62
     7
370
    15
100
AcDbLine
 10
58.7793108546
 20
96.2475468
 30
0.0
 11
158.6679261648
 21
81.6804584642
 31
0.0
  0
LINE
  5
81
330
1F
100
AcDbEntity
  8
0
  6
Continuous
 62
     7
370
    15
100
AcDbLine
 10
158.6679261648
 20
81.6804584642
 30
0.0
 11
161.2679261719
 21
81.6804584642
 31
0.0
  0
LINE
  5
82
330
1F
100
AcDbEntity
  8
0
  6
Continuous
 62
     7
370
    15
100
AcDbLine
 10
161.2679261719
 20
151.5304562231
 30
0.0
 11
158.6679261648
 21
151.5304562231
 31
0.0
  0
ARC
  5
83
330
1F
100
AcDbEntity
  8
0
  6
Continuous
 62
     7
370
    15
100
AcDbCircle
 10
180.7179261648
 20
88.6054573437
 30
0.0
 40
3.0
100
AcDbArc
 50
90.0
 51
180.0
  0
ARC
  5
84
330
1F
100
AcDbEntity
  8
0
  6
Continuous
 62
     7
370
    15
100
AcDbCircle
 10
180.7179261648
 20
144.6054573437
 30
0.0
 40
3.0
100
AcDbArc
 50
180.0
 51
270.0
  0
LINE
  5
85
330
1F
100
AcDbEntity
  8
0
  6
Continuous
 62
     7
370
    15
100
AcDbLine
 10
243.1679260456
 20
91.6054569711
 30
0.0
 11
243.6679270588
 21
92.1054579844
 31
0.0
  0
LINE
  5
86
330
1F
100
AcDbEntity
  8
0
  6
Continuous
 62
     7
370
    15
100
AcDbLine
 10
243.6679270588
 20
141.1054567029
 30
0.0
 11
243.1679260456
 21
141.6054577162
 31
0.0
  0
LINE
  5
87
330
1F
100
AcDbEntity
  8
0
  6
Continuous
 62
     7
370
    15
100
AcDbLine
 10
222.1853029453
 20
141.6054577162
 30
0.0
 11
180.717926892
 21
141.6054577162
 31
0.0
  0
LINE
  5
88
330
1F
100
AcDbEntity
  8
0
  6
Continuous
 62
     7
370
    15
100
AcDbLine
 10
243.1679260456
 20
141.6054577162
 30
0.0
 11
237.0326783978
 21
141.6054577162
 31
0.0
  0
LINE
  5
89
330
1F
100
AcDbEntity
  8
0
  6
Continuous
 62
     7
370
    15
100
AcDbLine
 10
180.717926892
 20
91.6054569711
 30
0.0
 11
243.1679260456
 21
91.6054569711
 31
0.0
  0
ARC
  5
8A
330
1F
100
AcDbEntity
  8
0
  6
Continuous
 62
     7
370
    15
100
AcDbCircle
 10
59.0679261648
 20
98.2266128163
 30
0.0
 40
2.000000000000007
100
AcDbArc
 50
180.0
 51
261.7028550302
  0
ARC
  5
8B
330
1F
100
AcDbEntity
  8
0
  6
Continuous
 62
     7
370
    15
100
AcDbCircle
 10
59.0679261648
 20
134.9843018711
 30
0.0
 40
1.999999999999993
100
AcDbArc
 50
98.2971449698
 51
180.0
  0
LINE
  5
8C
330
1F
100
AcDbEntity
  8
0
  6
Continuous
 62
     7
370
    15
100
AcDbLine
 10
235.2895554625
 20
141.2338283439
 30
0.0
 11
234.9179279529
 21
141.6054577162
 31
0.0
  0
LINE
  5
8D
330
1F
100
AcDbEntity
  8
0
  6
Continuous
 62
     7
370
    15
100
AcDbLine
 10
224.317927333
 20
141.6054577162
 30
0.0
 11
223.9464190327
 21
141.2339512785
 31
0.0
  0
ARC
  5
8E
330
1F
100
AcDbEntity
  8
0
  6
Continuous
 62
     7
370
    15
100
AcDbCircle
 10
172.8679261648
 20
102.1397153817
 30
0.0
 40
2.00000000000003
100
AcDbArc
 50
192.2156859337
 51
340.3453161116
  0
LINE
  5
8F
330
1F
100
AcDbEntity
  8
0
  6
Continuous
 62
     7
370
    15
100
AcDbLine
 10
162.4679262289
 20
69.8761981507
 30
0.0
 11
166.5347651117
 21
69.8761981507
 31
0.0
  0
LINE
  5
90
330
1F
100
AcDbEntity
  8
0
  6
Continuous
 62
     7
370
    15
100
AcDbLine
 10
166.5347651117
 20
146.4554578592
 30
0.0
 11
162.4679262289
 21
146.4554578592
 31
0.0
  0
LINE
  5
91
330
1F
100
AcDbEntity
  8
0
  6
Continuous
 62
     7
370
    15
100
AcDbLine
 10
166.5347651117
 20
69.8761981507
 30
0.0
 11
166.5347651117
 21
146.4554578592
 31
0.0
  0
LINE
  5
92
330
1F
100
AcDbEntity
  8
0
  6
Continuous
 62
     7
370
    15
100
AcDbLine
 10
173.0010876902
 20
102.3083100622
 30
0.0
 11
173.0010876902
 21
146.4554578592
 31
0.0
  0
LINE
  5
93
330
1F
100
AcDbEntity
  8
0
  6
Continuous
 62
     7
370
    15
100
AcDbLine
 10
177.1179255568
 20
146.4554578592
 30
0.0
 11
173.0010876902
 21
146.4554578592
 31
0.0
  0
LINE
  5
94
330
1F
100
AcDbEntity
  8
0
  6
Continuous
 62
     7
370
    15
100
AcDbLine
 10
173.0010876902
 20
69.8761981507
 30
0.0
 11
177.1179255568
 21
69.8761981507
 31
0.0
  0
LINE
  5
95
330
1F
100
AcDbEntity
  8
0
  6
Continuous
 62
     7
370
    15
100
AcDbLine
 10
173.0010876902
 20
69.8761981507
 30
0.0
 11
173.0010876902
 21
97.6165164789
 31
0.0
  0
SPLINE
  5
96
330
1F
100
AcDbEntity
  8
0
  6
Continuous
 62
     7
370
    15
100
AcDbSpline
210
0.0
220
0.0
230
1.0
 70
     8
 71
     3
 72
    34
 73
    30
 74
     0
 42
0.000000001
 43
0.00000001
 40
0.0
 40
0.0
 40
0.0
 40
0.0
 40
0.062499999999999
 40
0.062499999999999
 40
0.124999999999998
 40
0.124999999999998
 40
0.1874999999999971
 40
0.1874999999999971
 40
0.2499999999999966
 40
0.2499999999999966
 40
0.3124999999999962
 40
0.3124999999999962
 40
0.3749999999999957
 40
0.3749999999999957
 40
0.4999999999999958
 40
0.4999999999999958
 40
0.6249999999999958
 40
0.6249999999999958
 40
0.6874999999999964
 40
0.6874999999999964
 40
0.7499999999999971
 40
0.7499999999999971
 40
0.8124999999999979
 40
0.8124999999999979
 40
0.8749999999999986
 40
0.8749999999999986
 40
0.9374999999999992
 40
0.9374999999999992
 40
1.0
 40
1.0
 40
1.0
 40
1.0
 10
173.0010876722412
 20
97.61651695565817
 30
0.0
 10
173.1604795000291
 20
97.62435705158093
 30
0.0
 10
173.3164819834726
 20
97.64601569967137
 30
0.0
 10
173.6219914995498
 20
97.71586392716416
 30
0.0
 10
173.7728858345621
 20
97.76468962949242
 30
0.0
 10
174.0607851792529
 20
97.88761358289975
 30
0.0
 10
174.1967315822126
 20
97.96092109103407
 30
0.0
 10
174.4529141978046
 20
98.1309317148054
 30
0.0
 10
174.5740964855637
 20
98.22880550700687
 30
0.0
 10
174.7912425574365
 20
98.44138968243884
 30
0.0
 10
174.8882044303968
 20
98.55643562096843
 30
0.0
 10
175.0587668662224
 20
98.80429674108855
 30
0.0
 10
175.1320069194343
 20
98.93733023815415
 30
0.0
 10
175.3068873761832
 20
99.34683825428428
 30
0.0
 10
175.3679253371591
 20
99.64479890405934
 30
0.0
 10
175.3679269923822
 20
100.2362404599338
 30
0.0
 10
175.3068923827959
 20
100.5364140099104
 30
0.0
 10
175.132002615394
 20
100.9516452901781
 30
0.0
 10
175.0587589099696
 20
101.087000408425
 30
0.0
 10
174.8881981942329
 20
101.3398997398116
 30
0.0
 10
174.7912344786394
 20
101.4576650174194
 30
0.0
 10
174.5740741500523
 20
101.675795312788
 30
0.0
 10
174.4528928913655
 20
101.776498637935
 30
0.0
 10
174.1967226644267
 20
101.9517423307682
 30
0.0
 10
174.060779314764
 20
102.0274872998588
 30
0.0
 10
173.7728766115809
 20
102.1546556751611
 30
0.0
 10
173.6219864156641
 20
102.2052569474886
 30
0.0
 10
173.3164809119585
 20
102.2776860472364
 30
0.0
 10
173.160479513695
 20
102.3001718186334
 30
0.0
 10
173.0010876722412
 20
102.3083102785282
 30
0.0
  0
LINE
  5
97
330
1F
100
AcDbEntity
  8
0
  6
Continuous
 62
     7
370
    15
100
AcDbLine
 10
171.6779260435
 20
102.8081955915
 30
0.0
 11
171.6779260435
 21
146.4554578592
 31
0.0
  0
SPLINE
  5
98
330
1F
100
AcDbEntity
  8
0
  6
Continuous
 62
     7
370
    15
100
AcDbSpline
210
0.0
220
0.0
230
1.0
 70
    24
 71
     3
 72
     8
 73
     4
 74
     0
 42
0.000000001
 43
0.00000001
 40
0.0
 40
0.0
 40
0.0
 40
0.0
 40
1.0
 40
1.0
 40
1.0
 40
1.0
 10
173.0010876722412
 20
146.4554573436593
 30
0.0
 10
172.5544859522218
 20
146.4554573436593
 30
0.0
 10
172.1131262694829
 20
146.4554573436593
 30
0.0
 10
171.6779261647793
 20
146.4554573436593
 30
0.0
  0
SPLINE
  5
99
330
1F
100
AcDbEntity
  8
0
  6
Continuous
 62
     7
370
    15
100
AcDbSpline
210
0.0
220
0.0
230
1.0
 70
     8
 71
     3
 72
    10
 73
     6
 74
     0
 42
0.000000001
 43
0.00000001
 40
0.0
 40
0.0
 40
0.0
 40
0.0
 40
0.5
 40
0.5
 40
1.0
 40
1.0
 40
1.0
 40
1.0
 10
173.0010876722412
 20
102.3083102785282
 30
0.0
 10
172.7783606453677
 20
102.451798778822
 30
0.0
 10
172.5566747581427
 20
102.5665195245549
 30
0.0
 10
172.1154539202907
 20
102.7362799539128
 30
0.0
 10
171.8958952728918
 20
102.7916999483001
 30
0.0
 10
171.6779261647796
 20
102.8081952776698
 30
0.0
  0
SPLINE
  5
9A
330
1F
100
AcDbEntity
  8
0
  6
Continuous
 62
     7
370
    15
100
AcDbSpline
210
0.0
220
0.0
230
1.0
 70
     8
 71
     3
 72
    10
 73
     6
 74
     0
 42
0.000000001
 43
0.00000001
 40
0.0
 40
0.0
 40
0.0
 40
0.0
 40
0.5
 40
0.5
 40
1.0
 40
1.0
 40
1.0
 40
1.0
 10
162.0835861959333
 20
69.97200307646712
 30
0.0
 10
162.132236764513
 20
69.9440460851997
 30
0.0
 10
162.1896219764724
 20
69.92010380017291
 30
0.0
 10
162.3203350846385
 20
69.88598533707717
 30
0.0
 10
162.3930746183771
 20
69.87619800231332
 30
0.0
 10
162.4679261647793
 20
69.87619800231333
 30
0.0
  0
SPLINE
  5
9B
330
1F
100
AcDbEntity
  8
0
  6
Continuous
 62
     7
370
    15
100
AcDbSpline
210
0.0
220
0.0
230
1.0
 70
     8
 71
     3
 72
    10
 73
     6
 74
     0
 42
0.000000001
 43
0.00000001
 40
0.0
 40
0.0
 40
0.0
 40
0.0
 40
0.5
 40
0.5
 40
1.0
 40
1.0
 40
1.0
 40
1.0
 10
162.0835861959333
 20
69.9720030764671
 30
0.0
 10
162.0253981893511
 20
70.03958680664591
 30
0.0
 10
161.9729557228248
 20
70.12006304128768
 30
0.0
 10
161.8946034156461
 20
70.30309866427041
 30
0.0
 10
161.8679261647792
 20
70.40897436706602
 30
0.0
 10
161.8679261647792
 20
70.51648767628666
 30
0.0
  0
LINE
  5
9C
330
1F
100
AcDbEntity
  8
0
  6
Continuous
 62
     7
370
    15
100
AcDbLine
 10
161.8679260839
 20
70.5164861461
 30
0.0
 11
161.8679260839
 21
146.4554578592
 31
0.0
  0
SPLINE
  5
9D
330
1F
100
AcDbEntity
  8
0
  6
Continuous
 62
     7
370
    15
100
AcDbSpline
210
0.0
220
0.0
230
1.0
 70
    24
 71
     3
 72
    14
 73
    10
 74
     0
 42
0.000000001
 43
0.00000001
 40
0.0
 40
0.0
 40
0.0
 40
0.0
 40
0.25
 40
0.25
 40
0.5
 40
0.5
 40
0.75
 40
0.75
 40
1.0
 40
1.0
 40
1.0
 40
1.0
 10
162.4679261647793
 20
146.4554573436593
 30
0.0
 10
162.3789042124357
 20
146.4554573436593
 30
0.0
 10
162.289217513162
 20
146.4554573436593
 30
0.0
 10
162.1354906876048
 20
146.4554573436593
 30
0.0
 10
162.070285792978
 20
146.4554573436593
 30
0.0
 10
161.9676950988076
 20
146.4554573436593
 30
0.0
 10
161.9300576444917
 20
146.4554573436593
 30
0.0
 10
161.8799657291065
 20
146.4554573436593
 30
0.0
 10
161.8679261647793
 20
146.4554573436593
 30
0.0
 10
161.8679261647793
 20
146.4554573436593
 30
0.0
  0
SPLINE
  5
9E
330
1F
100
AcDbEntity
  8
0
  6
Continuous
 62
     7
370
    15
100
AcDbSpline
210
0.0
220
0.0
230
1.0
 70
     8
 71
     3
 72
     8
 73
     4
 74
     0
 42
0.000000001
 43
0.00000001
 40
0.0
 40
0.0
 40
0.0
 40
0.0
 40
1.0
 40
1.0
 40
1.0
 40
1.0
 10
167.8579261647793
 20
71.98571793482955
 30
0.0
 10
167.5681977187547
 20
71.46349792466603
 30
0.0
 10
167.278172568537
 20
70.94144454240606
 30
0.0
 10
166.9878783342752
 20
70.41954227668296
 30
0.0
  0
SPLINE
  5
9F
330
1F
100
AcDbEntity
  8
0
  6
Continuous
 62
     7
370
    15
100
AcDbSpline
210
0.0
220
0.0
230
1.0
 70
     8
 71
     3
 72
     8
 73
     4
 74
     0
 42
0.000000001
 43
0.00000001
 40
0.0
 40
0.0
 40
0.0
 40
0.0
 40
0.0011862984959113
 40
0.0011862984959113
 40
0.0011862984959113
 40
0.0011862984959113
 10
166.5347646573174
 20
69.87619800231334
 30
0.0
 10
166.6867894191882
 20
70.05710985193134
 30
0.0
 10
166.8378468644041
 20
70.23822218237216
 30
0.0
 10
166.9878783342752
 20
70.41954227668298
 30
0.0
  0
SPLINE
  5
A0
330
1F
100
AcDbEntity
  8
0
  6
Continuous
 62
     7
370
    15
100
AcDbSpline
210
0.0
220
0.0
230
1.0
 70
    24
 71
     3
 72
     8
 73
     4
 74
     0
 42
0.000000001
 43
0.00000001
 40
0.0
 40
0.0
 40
0.0
 40
0.0
 40
1.0
 40
1.0
 40
1.0
 40
1.0
 10
167.8579261647793
 20
146.4554573436593
 30
0.0
 10
167.4227260600756
 20
146.4554573436593
 30
0.0
 10
166.9813663773368
 20
146.4554573436593
 30
0.0
 10
166.5347646573174
 20
146.4554573436593
 30
0.0
  0
LINE
  5
A1
330
1F
100
AcDbEntity
  8
0
  6
Continuous
 62
     7
370
    15
100
AcDbLine
 10
167.8579258271
 20
71.985718288
 30
0.0
 11
167.8579258271
 21
146.4554578592
 31
0.0
  0
SPLINE
  5
A2
330
1F
100
AcDbEntity
  8
0
  6
Continuous
 62
     7
370
    15
100
AcDbSpline
210
0.0
220
0.0
230
1.0
 70
     8
 71
     3
 72
    12
 73
     8
 74
     0
 42
0.000000001
 43
0.00000001
 40
0.0
 40
0.0
 40
0.0
 40
0.0
 40
0.2499999999999992
 40
0.2499999999999992
 40
0.4999999999999984
 40
0.4999999999999984
 40
1.0
 40
1.0
 40
1.0
 40
1.0
 10
177.1179261647793
 20
69.87619800231334
 30
0.0
 10
177.2138989179542
 20
69.87619800231332
 30
0.0
 10
177.3063268821086
 20
69.89247132642193
 30
0.0
 10
177.4627569822181
 20
69.94584504841833
 30
0.0
 10
177.5262354069909
 20
69.98197330595266
 30
0.0
 10
177.6745145678181
 20
70.10267450223193
 30
0.0
 10
177.7179261647793
 20
70.19652408859712
 30
0.0
 10
177.7179261647793
 20
70.29082836354434
 30
0.0
  0
SPLINE
  5
A3
330
1F
100
AcDbEntity
  8
0
  6
Continuous
 62
     7
370
    15
100
AcDbSpline
210
0.0
220
0.0
230
1.0
 70
    24
 71
     3
 72
    12
 73
     8
 74
     0
 42
0.000000001
 43
0.00000001
 40
0.0
 40
0.0
 40
0.0
 40
0.0
 40
0.5
 40
0.5
 40
0.75
 40
0.75
 40
1.0
 40
1.0
 40
1.0
 40
1.0
 10
177.7179261647793
 20
146.4554573436593
 30
0.0
 10
177.7179261647793
 20
146.4554573436593
 30
0.0
 10
177.6697954763939
 20
146.4554573436593
 30
0.0
 10
177.5158984205909
 20
146.4554573436593
 30
0.0
 10
177.4504338555841
 20
146.4554573436593
 30
0.0
 10
177.2969045349739
 20
146.4554573436593
 30
0.0
 10
177.2085558742382
 20
146.4554573436593
 30
0.0
 10
177.1179261647791
 20
146.4554573436593
 30
0.0
  0
LINE
  5
A4
330
1F
100
AcDbEntity
  8
0
  6
Continuous
 62
     7
370
    15
100
AcDbLine
 10
177.7179264002
 20
70.2908266862
 30
0.0
 11
177.7179264002
 21
146.4554578592
 31
0.0
  0
SPLINE
  5
A5
330
1F
100
AcDbEntity
  8
0
  6
Continuous
 62
     7
370
    15
100
AcDbSpline
210
0.0
220
0.0
230
1.0
 70
     8
 71
     3
 72
    14
 73
    10
 74
     0
 42
0.000000001
 43
0.00000001
 40
0.0
 40
0.0
 40
0.0
 40
0.0
 40
0.25
 40
0.25
 40
0.5
 40
0.5
 40
0.75
 40
0.75
 40
1.0
 40
1.0
 40
1.0
 40
1.0
 10
171.6779261647793
 20
102.8538094996823
 30
0.0
 10
171.6779261647793
 20
102.8957858815358
 30
0.0
 10
171.6482832108081
 20
102.9236362691767
 30
0.0
 10
171.541628377078
 20
102.9371351444667
 30
0.0
 10
171.4653499824738
 20
102.9225196424291
 30
0.0
 10
171.2972984394073
 20
102.8504304382609
 30
0.0
 10
171.2061786327991
 20
102.7932928277781
 30
0.0
 10
171.0335015205464
 20
102.6510651271869
 30
0.0
 10
170.9525790810183
 20
102.5675013016748
 30
0.0
 10
170.8779261647793
 20
102.4741316297789
 30
0.0
  0
SPLINE
  5
A6
330
1F
100
AcDbEntity
  8
0
  6
Continuous
 62
     7
370
    15
100
AcDbSpline
210
0.0
220
0.0
230
1.0
 70
     8
 71
     3
 72
    10
 73
     6
 74
     0
 42
0.000000001
 43
0.00000001
 40
0.0
 40
0.0
 40
0.0
 40
0.0
 40
0.5
 40
0.5
 40
1.0
 40
1.0
 40
1.0
 40
1.0
 10
171.6779261647796
 20
98.67615407903826
 30
0.0
 10
171.8948169973003
 20
98.43911513958969
 30
0.0
 10
172.1139696339592
 20
98.23694490459621
 30
0.0
 10
172.5554541342281
 20
97.88619283307752
 30
0.0
 10
172.7786565995015
 20
97.73751674068066
 30
0.0
 10
173.0010876722412
 20
97.61651695565817
 30
0.0
  0
LINE
  5
A7
330
1F
100
AcDbEntity
  8
0
  6
Continuous
 62
     7
370
    15
100
AcDbLine
 10
171.6779260435
 20
98.7217691322
 30
0.0
 11
171.6779260435
 21
98.6761548152
 31
0.0
  0
SPLINE
  5
A8
330
1F
100
AcDbEntity
  8
0
  6
Continuous
 62
     7
370
    15
100
AcDbSpline
210
0.0
220
0.0
230
1.0
 70
     8
 71
     3
 72
    16
 73
    12
 74
     0
 42
0.000000001
 43
0.00000001
 40
0.0
 40
0.0
 40
0.0
 40
0.0
 40
0.2499999999999987
 40
0.2499999999999987
 40
0.4999999999999973
 40
0.4999999999999973
 40
0.6249999999999954
 40
0.6249999999999954
 40
0.7499999999999936
 40
0.7499999999999936
 40
1.0
 40
1.0
 40
1.0
 40
1.0
 10
170.8779261647793
 20
99.63016778672525
 30
0.0
 10
170.9519340550015
 20
99.53982020653959
 30
0.0
 10
171.0325520499904
 20
99.45186063373993
 30
0.0
 10
171.2063200354947
 20
99.27552570967835
 30
0.0
 10
171.2970711664362
 20
99.18991846901234
 30
0.0
 10
171.4231842638976
 20
99.06872277298737
 30
0.0
 10
171.4627610247609
 20
99.0301911939965
 30
0.0
 10
171.5352436814621
 20
98.95579520786718
 30
0.0
 10
171.5681716719309
 20
98.9197784199457
 30
0.0
 10
171.6479618419258
 20
98.82102574412869
 30
0.0
 10
171.6779261647793
 20
98.76426174234659
 30
0.0
 10
171.6779261647793
 20
98.72176830105103
 30
0.0
  0
SPLINE
  5
A9
330
1F
100
AcDbEntity
  8
0
  6
Continuous
 62
     7
370
    15
100
AcDbSpline
210
0.0
220
0.0
230
1.0
 70
     8
 71
     3
 72
    16
 73
    12
 74
     0
 42
0.000000001
 43
0.00000001
 40
0.0
 40
0.0
 40
0.0
 40
0.0
 40
0.2500000000000008
 40
0.2500000000000008
 40
0.5000000000000017
 40
0.5000000000000017
 40
0.7500000000000024
 40
0.7500000000000024
 40
0.8750000000000012
 40
0.8750000000000012
 40
1.0
 40
1.0
 40
1.0
 40
1.0
 10
170.8779261647793
 20
102.4741316297789
 30
0.0
 10
170.7125120582991
 20
102.2672453937535
 30
0.0
 10
170.5863147273236
 20
102.0413766959448
 30
0.0
 10
170.4119084289927
 20
101.5525074503319
 30
0.0
 10
170.3680783898958
 20
101.3007403969873
 30
0.0
 10
170.3677747169258
 20
100.788961072405
 30
0.0
 10
170.4116315769861
 20
100.5379063633223
 30
0.0
 10
170.5415533362533
 20
100.1770577951802
 30
0.0
 10
170.5956681476613
 20
100.0597850268316
 30
0.0
 10
170.7223451378048
 20
99.83729607549276
 30
0.0
 10
170.7952188581655
 20
99.7311354672495
 30
0.0
 10
170.8779261647793
 20
99.63016778672525
 30
0.0
  0
SPLINE
  5
AA
330
1F
100
AcDbEntity
  8
0
  6
Continuous
 62
     7
370
    15
100
AcDbSpline
210
0.0
220
0.0
230
1.0
 70
     8
 71
     3
 72
    14
 73
    10
 74
     0
 42
0.000000001
 43
0.00000001
 40
0.0
 40
0.0
 40
0.0
 40
0.0
 40
0.25
 40
0.25
 40
0.5
 40
0.5
 40
0.75
 40
0.75
 40
1.0
 40
1.0
 40
1.0
 40
1.0
 10
168.6579261647793
 20
72.95769107778956
 30
0.0
 10
168.55148115687
 20
72.95769107778955
 30
0.0
 10
168.4445824055965
 20
72.93512152835645
 30
0.0
 10
168.2483641501541
 20
72.84867843711451
 30
0.0
 10
168.1587058366896
 20
72.78437451944738
 30
0.0
 10
168.0132521238085
 20
72.62940500540442
 30
0.0
 10
167.9552163410823
 20
72.53663951916069
 30
0.0
 10
167.8779311866977
 20
72.33817263751729
 30
0.0
 10
167.8579261647793
 20
72.23114821572352
 30
0.0
 10
167.8579261647793
 20
72.12436585525269
 30
0.0
  0
SPLINE
  5
AB
330
1F
100
AcDbEntity
  8
0
  6
Continuous
 62
     7
370
    15
100
AcDbSpline
210
0.0
220
0.0
230
1.0
 70
    24
 71
     3
 72
    14
 73
    10
 74
     0
 42
0.000000001
 43
0.00000001
 40
0.0
 40
0.0
 40
0.0
 40
0.0
 40
0.25
 40
0.25
 40
0.5
 40
0.5
 40
0.75
 40
0.75
 40
1.0
 40
1.0
 40
1.0
 40
1.0
 10
168.6579261647793
 20
146.4554573436593
 30
0.0
 10
168.534944865233
 20
146.4554573436593
 30
0.0
 10
168.414754976831
 20
146.4554573436593
 30
0.0
 10
168.2097311471518
 20
146.4554573436593
 30
0.0
 10
168.1231366583497
 20
146.4554573436593
 30
0.0
 10
167.9880287715872
 20
146.4554573436593
 30
0.0
 10
167.9395056865592
 20
146.4554573436593
 30
0.0
 10
167.8738231778324
 20
146.4554573436593
 30
0.0
 10
167.8579261647793
 20
146.4554573436593
 30
0.0
 10
167.8579261647793
 20
146.4554573436593
 30
0.0
  0
SPLINE
  5
AC
330
1F
100
AcDbEntity
  8
0
  6
Continuous
 62
     7
370
    15
100
AcDbSpline
210
0.0
220
0.0
230
1.0
 70
    24
 71
     3
 72
    14
 73
    10
 74
     0
 42
0.000000001
 43
0.00000001
 40
0.0
 40
0.0
 40
0.0
 40
0.0
 40
0.25
 40
0.25
 40
0.5
 40
0.5
 40
0.75
 40
0.75
 40
1.0
 40
1.0
 40
1.0
 40
1.0
 10
171.6779261647793
 20
146.4554573436593
 30
0.0
 10
171.6779261647793
 20
146.4554573436593
 30
0.0
 10
171.6616451300035
 20
146.4554573436593
 30
0.0
 10
171.5969820674789
 20
146.4554573436593
 30
0.0
 10
171.5475022711902
 20
146.4554573436593
 30
0.0
 10
171.4135325140514
 20
146.4554573436593
 30
0.0
 10
171.327417787452
 20
146.4554573436593
 30
0.0
 10
171.121961671739
 20
146.4554573436593
 30
0.0
 10
171.0005411345461
 20
146.4554573436593
 30
0.0
 10
170.8779261647793
 20
146.4554573436593
 30
0.0
  0
LINE
  5
AD
330
1F
100
AcDbEntity
  8
0
  6
Continuous
 62
     7
370
    15
100
AcDbLine
 10
170.8779264711
 20
72.9576912304
 30
0.0
 11
168.6579263308
 21
72.9576912304
 31
0.0
  0
LINE
  5
AE
330
1F
100
AcDbEntity
  8
0
  6
Continuous
 62
     7
370
    15
100
AcDbLine
 10
170.8779264711
 20
146.4554578592
 30
0.0
 11
168.6579263308
 21
146.4554578592
 31
0.0
  0
SPLINE
  5
AF
330
1F
100
AcDbEntity
  8
0
  6
Continuous
 62
     7
370
    15
100
AcDbSpline
210
0.0
220
0.0
230
1.0
 70
     8
 71
     3
 72
     8
 73
     4
 74
     0
 42
0.000000001
 43
0.00000001
 40
0.0000000000000004
 40
0.0000000000000004
 40
0.0000000000000004
 40
0.0000000000000004
 40
0.0011862984959128
 40
0.0011862984959128
 40
0.0011862984959128
 40
0.0011862984959128
 10
172.5479739952794
 20
70.41954227668298
 30
0.0
 10
172.6980054651508
 20
70.23822218237194
 30
0.0
 10
172.8490629103702
 20
70.05710985193156
 30
0.0
 10
173.0010876722412
 20
69.87619800231334
 30
0.0
  0
SPLINE
  5
B0
330
1F
100
AcDbEntity
  8
0
  6
Continuous
 62
     7
370
    15
100
AcDbSpline
210
0.0
220
0.0
230
1.0
 70
     8
 71
     3
 72
     8
 73
     4
 74
     0
 42
0.000000001
 43
0.00000001
 40
0.0
 40
0.0
 40
0.0
 40
0.0
 40
1.0
 40
1.0
 40
1.0
 40
1.0
 10
172.5479739952825
 20
70.41954227668464
 30
0.0
 10
172.257679761021
 20
70.94144454240718
 30
0.0
 10
171.9676546108035
 20
71.46349792466658
 30
0.0
 10
171.6779261647793
 20
71.98571793482955
 30
0.0
  0
LINE
  5
B1
330
1F
100
AcDbEntity
  8
0
  6
Continuous
 62
     7
370
    15
100
AcDbLine
 10
171.6779260435
 20
71.985718288
 30
0.0
 11
171.6779260435
 21
98.6761548152
 31
0.0
  0
SPLINE
  5
B2
330
1F
100
AcDbEntity
  8
0
  6
Continuous
 62
     7
370
    15
100
AcDbSpline
210
0.0
220
0.0
230
1.0
 70
     8
 71
     3
 72
    14
 73
    10
 74
     0
 42
0.000000001
 43
0.00000001
 40
0.0
 40
0.0
 40
0.0
 40
0.0
 40
0.25
 40
0.25
 40
0.5
 40
0.5
 40
0.75
 40
0.75
 40
1.0
 40
1.0
 40
1.0
 40
1.0
 10
171.6779261647793
 20
72.1243658552527
 30
0.0
 10
171.6779261647793
 20
72.23142984159351
 30
0.0
 10
171.6579423385393
 20
72.33816916796803
 30
0.0
 10
171.5805072561058
 20
72.53691907015883
 30
0.0
 10
171.5225683339464
 20
72.62947328665135
 30
0.0
 10
171.3769305281856
 20
72.78457023005693
 30
0.0
 10
171.2881415318502
 20
72.84831038696979
 30
0.0
 10
171.0915931716457
 20
72.93505894405739
 30
0.0
 10
170.9854539419464
 20
72.95769107778955
 30
0.0
 10
170.8779261647793
 20
72.95769107778955
 30
0.0
  0
LINE
  5
B3
330
1F
100
AcDbEntity
  8
0
  6
Continuous
 62
     7
370
    15
100
AcDbLine
 10
158.6679261648
 20
81.6804584642
 30
0.0
 11
158.6679261648
 21
151.5304562231
 31
0.0
  0
LINE
  5
B4
330
1F
100
AcDbEntity
  8
0
  6
Continuous
 62
     7
370
    15
100
AcDbLine
 10
170.8779264711
 20
160.2532234569
 30
0.0
 11
168.6579263308
 21
160.2532234569
 31
0.0
  0
LINE
  5
B5
330
1F
100
AcDbEntity
  8
0
  6
Continuous
 62
     7
370
    15
100
AcDbLine
 10
168.6579263308
 20
150.9453397771
 30
0.0
 11
170.8779264711
 21
150.9453397771
 31
0.0
  0
SPLINE
  5
B6
330
1F
100
AcDbEntity
  8
0
  6
Continuous
 62
     7
370
    15
100
AcDbSpline
210
0.0
220
0.0
230
1.0
 70
     8
 71
     3
 72
    12
 73
     8
 74
     0
 42
0.000000001
 43
0.00000001
 40
0.0
 40
0.0
 40
0.0
 40
0.0
 40
0.4999999999999982
 40
0.4999999999999982
 40
0.7499999999999991
 40
0.7499999999999991
 40
1.0
 40
1.0
 40
1.0
 40
1.0
 10
177.7179261647793
 20
162.9004442968898
 30
0.0
 10
177.7179261647793
 20
163.020636903555
 30
0.0
 10
177.6639577345102
 20
163.13854420407
 30
0.0
 10
177.5028710935773
 20
163.2779237485533
 30
0.0
 10
177.4381086741042
 20
163.3160890461173
 30
0.0
 10
177.2860546725398
 20
163.3707413084507
 30
0.0
 10
177.2033248993906
 20
163.3853019984349
 30
0.0
 10
177.1179261647793
 20
163.3853019984349
 30
0.0
  0
SPLINE
  5
B7
330
1F
100
AcDbEntity
  8
0
  6
Continuous
 62
     7
370
    15
100
AcDbSpline
210
0.0
220
0.0
230
1.0
 70
     8
 71
     3
 72
    12
 73
     8
 74
     0
 42
0.000000001
 43
0.00000001
 40
0.0
 40
0.0
 40
0.0
 40
0.0
 40
0.2499999999999946
 40
0.2499999999999946
 40
0.4999999999999892
 40
0.4999999999999892
 40
1.0
 40
1.0
 40
1.0
 40
1.0
 10
177.1179261647798
 20
155.1165352953345
 30
0.0
 10
177.2074632229509
 20
155.1165352953344
 30
0.0
 10
177.2973624017395
 20
155.0897079965034
 30
0.0
 10
177.4507872607388
 20
154.9980010312439
 30
0.0
 10
177.5158363181165
 20
154.933746089645
 30
0.0
 10
177.6691555493808
 20
154.7143339435835
 30
0.0
 10
177.7179261647793
 20
154.5325186337866
 30
0.0
 10
177.7179261647793
 20
154.3545384583037
 30
0.0
  0
LINE
  5
B8
330
1F
100
AcDbEntity
  8
0
  6
Continuous
 62
     7
370
    15
100
AcDbLine
 10
177.7179264002
 20
154.3545391937
 30
0.0
 11
177.7179264002
 21
162.9004445454
 31
0.0
  0
SPLINE
  5
B9
330
1F
100
AcDbEntity
  8
0
  6
Continuous
 62
     7
370
    15
100
AcDbSpline
210
0.0
220
0.0
230
1.0
 70
     8
 71
     3
 72
    14
 73
    10
 74
     0
 42
0.000000001
 43
0.00000001
 40
0.0
 40
0.0
 40
0.0
 40
0.0
 40
0.25
 40
0.25
 40
0.5
 40
0.5
 40
0.75
 40
0.75
 40
1.0
 40
1.0
 40
1.0
 40
1.0
 10
171.6779261647793
 20
161.086548832066
 30
0.0
 10
171.6779261647793
 20
160.9792064599185
 30
0.0
 10
171.6579299727151
 20
160.8725774530707
 30
0.0
 10
171.5802318883704
 20
160.6734256739195
 30
0.0
 10
171.5222387434769
 20
160.580942775604
 30
0.0
 10
171.376192250654
 20
160.4257069404948
 30
0.0
 10
171.2868545114864
 20
160.3619729988825
 30
0.0
 10
171.0920994994259
 20
160.2761427324873
 30
0.0
 10
170.984569228217
 20
160.2532236095288
 30
0.0
 10
170.8779261647772
 20
160.2532236095291
 30
0.0
  0
SPLINE
  5
BA
330
1F
100
AcDbEntity
  8
0
  6
Continuous
 62
     7
370
    15
100
AcDbSpline
210
0.0
220
0.0
230
1.0
 70
     8
 71
     3
 72
    14
 73
    10
 74
     0
 42
0.000000001
 43
0.00000001
 40
0.0
 40
0.0
 40
0.0
 40
0.0
 40
0.25
 40
0.25
 40
0.5
 40
0.5
 40
0.75
 40
0.75
 40
1.0
 40
1.0
 40
1.0
 40
1.0
 10
170.8779261647793
 20
150.9453394051924
 30
0.0
 10
170.999252694765
 20
150.9453394051924
 30
0.0
 10
171.1209574033273
 20
150.9841209206256
 30
0.0
 10
171.3273972822134
 20
151.1152755423195
 30
0.0
 10
171.4133478206694
 20
151.2059276269066
 30
0.0
 10
171.5472595804177
 20
151.4080446618479
 30
0.0
 10
171.5968240172369
 20
151.5217796053871
 30
0.0
 10
171.6616780452048
 20
151.7547392224535
 30
0.0
 10
171.6779261647793
 20
151.8774374887827
 30
0.0
 10
171.6779261647793
 20
151.9985004453764
 30
0.0
  0
LINE
  5
BB
330
1F
100
AcDbEntity
  8
0
  6
Continuous
 62
     7
370
    15
100
AcDbLine
 10
177.1179255568
 20
163.3853022536
 30
0.0
 11
173.0010876902
 21
163.3853022536
 31
0.0
  0
LINE
  5
BC
330
1F
100
AcDbEntity
  8
0
  6
Continuous
 62
     7
370
    15
100
AcDbLine
 10
173.0010876902
 20
155.1165361484
 30
0.0
 11
177.1179255568
 21
155.1165361484
 31
0.0
  0
LINE
  5
BD
330
1F
100
AcDbEntity
  8
0
  6
Continuous
 62
     7
370
    15
100
AcDbLine
 10
173.0010876902
 20
155.1165361484
 30
0.0
 11
173.0010876902
 21
163.3853022536
 31
0.0
  0
LINE
  5
BE
330
1F
100
AcDbEntity
  8
0
  6
Continuous
 62
     7
370
    15
100
AcDbLine
 10
166.5347651117
 20
163.3853022536
 30
0.0
 11
162.4679262289
 21
163.3853022536
 31
0.0
  0
LINE
  5
BF
330
1F
100
AcDbEntity
  8
0
  6
Continuous
 62
     7
370
    15
100
AcDbLine
 10
166.5347651117
 20
155.1165361484
 30
0.0
 11
166.5347651117
 21
163.3853022536
 31
0.0
  0
LINE
  5
C0
330
1F
100
AcDbEntity
  8
0
  6
Continuous
 62
     7
370
    15
100
AcDbLine
 10
162.4679262289
 20
155.1165361484
 30
0.0
 11
166.5347651117
 21
155.1165361484
 31
0.0
  0
SPLINE
  5
C1
330
1F
100
AcDbEntity
  8
0
  6
Continuous
 62
     7
370
    15
100
AcDbSpline
210
0.0
220
0.0
230
1.0
 70
     8
 71
     3
 72
     8
 73
     4
 74
     0
 42
0.000000001
 43
0.00000001
 40
0.0
 40
0.0
 40
0.0
 40
0.0
 40
0.0012352705496723
 40
0.0012352705496723
 40
0.0012352705496723
 40
0.0012352705496723
 10
167.0912551426119
 20
162.6054905883284
 30
0.0
 10
166.90621989181
 20
162.8655921640567
 30
0.0
 10
166.7207130826392
 20
163.1255262426836
 30
0.0
 10
166.5347646573174
 20
163.3853019984349
 30
0.0
  0
SPLINE
  5
C2
330
1F
100
AcDbEntity
  8
0
  6
Continuous
 62
     7
370
    15
100
AcDbSpline
210
0.0
220
0.0
230
1.0
 70
     8
 71
     3
 72
     8
 73
     4
 74
     0
 42
0.000000001
 43
0.00000001
 40
0.0
 40
0.0
 40
0.0
 40
0.0
 40
1.0
 40
1.0
 40
1.0
 40
1.0
 10
167.8579261647793
 20
161.2251967524891
 30
0.0
 10
167.602594851474
 20
161.6854177727547
 30
0.0
 10
167.3470314533677
 20
162.1455122330631
 30
0.0
 10
167.0912551426119
 20
162.6054905883284
 30
0.0
  0
LINE
  5
C3
330
1F
100
AcDbEntity
  8
0
  6
Continuous
 62
     7
370
    15
100
AcDbLine
 10
167.8579258271
 20
152.1725919624
 30
0.0
 11
167.8579258271
 21
161.2251963993
 31
0.0
  0
SPLINE
  5
C4
330
1F
100
AcDbEntity
  8
0
  6
Continuous
 62
     7
370
    15
100
AcDbSpline
210
0.0
220
0.0
230
1.0
 70
     8
 71
     3
 72
     8
 73
     4
 74
     0
 42
0.000000001
 43
0.00000001
 40
0.0
 40
0.0
 40
0.0
 40
0.0
 40
1.0
 40
1.0
 40
1.0
 40
1.0
 10
166.5347646573174
 20
155.1165352953345
 30
0.0
 10
166.9816133852451
 20
154.1372993970782
 30
0.0
 10
167.4229797431409
 20
153.1560974043514
 30
0.0
 10
167.8579261647793
 20
152.1725930859689
 30
0.0
  0
SPLINE
  5
C5
330
1F
100
AcDbEntity
  8
0
  6
Continuous
 62
     7
370
    15
100
AcDbSpline
210
0.0
220
0.0
230
1.0
 70
     8
 71
     3
 72
    12
 73
     8
 74
     0
 42
0.000000001
 43
0.00000001
 40
0.0
 40
0.0
 40
0.0
 40
0.0
 40
0.2500000000000007
 40
0.2500000000000007
 40
0.5000000000000014
 40
0.5000000000000014
 40
1.0
 40
1.0
 40
1.0
 40
1.0
 10
168.6579261647793
 20
160.2532236095291
 30
0.0
 10
168.5515811849033
 20
160.2532236095291
 30
0.0
 10
168.4443048375007
 20
160.2759388473887
 30
0.0
 10
168.2489290481046
 20
160.361964014271
 30
0.0
 10
168.1603753120277
 20
160.4249427411994
 30
0.0
 10
167.9391173878964
 20
160.6601342516364
 30
0.0
 10
167.8579261647793
 20
160.8733104661218
 30
0.0
 10
167.8579261647793
 20
161.0865488320658
 30
0.0
  0
SPLINE
  5
C6
330
1F
100
AcDbEntity
  8
0
  6
Continuous
 62
     7
370
    15
100
AcDbSpline
210
0.0
220
0.0
230
1.0
 70
     8
 71
     3
 72
    12
 73
     8
 74
     0
 42
0.000000001
 43
0.00000001
 40
0.0
 40
0.0
 40
0.0
 40
0.0
 40
0.499999999999994
 40
0.499999999999994
 40
0.749999999999997
 40
0.749999999999997
 40
1.0
 40
1.0
 40
1.0
 40
1.0
 10
167.8579261647793
 20
151.9985004453764
 30
0.0
 10
167.8579261647793
 20
151.7560773493956
 30
0.0
 10
167.9208473062211
 20
151.5103068287942
 30
0.0
 10
168.1228762032235
 20
151.2053606493774
 30
0.0
 10
168.2091699278708
 20
151.1147677827789
 30
0.0
 10
168.4146437224375
 20
150.9843342198421
 30
0.0
 10
168.5345942830372
 20
150.9453394051924
 30
0.0
 10
168.6579261647793
 20
150.9453394051924
 30
0.0
  0
SPLINE
  5
C7
330
1F
100
AcDbEntity
  8
0
  6
Continuous
 62
     7
370
    15
100
AcDbSpline
210
0.0
220
0.0
230
1.0
 70
     8
 71
     3
 72
    12
 73
     8
 74
     0
 42
0.000000001
 43
0.00000001
 40
0.0
 40
0.0
 40
0.0
 40
0.0
 40
0.5000000000000003
 40
0.5000000000000003
 40
0.7500000000000001
 40
0.7500000000000001
 40
1.0
 40
1.0
 40
1.0
 40
1.0
 10
161.8679261647793
 20
154.3545384583037
 30
0.0
 10
161.8679261647793
 20
154.532898725543
 30
0.0
 10
161.9152382861552
 20
154.711671137247
 30
0.0
 10
162.0695983640366
 20
154.9334330025987
 30
0.0
 10
162.1344838989556
 20
154.9977250412151
 30
0.0
 10
162.2897165981839
 20
155.0903695253747
 30
0.0
 10
162.3787920108522
 20
155.1165352953345
 30
0.0
 10
162.4679261647793
 20
155.1165352953346
 30
0.0
  0
LINE
  5
C8
330
1F
100
AcDbEntity
  8
0
  6
Continuous
 62
     7
370
    15
100
AcDbLine
 10
171.6779260435
 20
151.9985016962
 30
0.0
 11
171.6779260435
 21
152.1725919624
 31
0.0
  0
SPLINE
  5
C9
330
1F
100
AcDbEntity
  8
0
  6
Continuous
 62
     7
370
    15
100
AcDbSpline
210
0.0
220
0.0
230
1.0
 70
     8
 71
     3
 72
     8
 73
     4
 74
     0
 42
0.000000001
 43
0.00000001
 40
0.0
 40
0.0
 40
0.0
 40
0.0
 40
1.0
 40
1.0
 40
1.0
 40
1.0
 10
171.6779261647793
 20
152.1725930859689
 30
0.0
 10
172.1128725864177
 20
153.1560974043514
 30
0.0
 10
172.5542389443135
 20
154.1372993970782
 30
0.0
 10
173.0010876722412
 20
155.1165352953345
 30
0.0
  0
LINE
  5
CA
330
1F
100
AcDbEntity
  8
0
  6
Continuous
 62
     7
370
    15
100
AcDbLine
 10
167.8579258271
 20
152.1725919624
 30
0.0
 11
167.8579258271
 21
151.9985016962
 31
0.0
  0
LINE
  5
CB
330
1F
100
AcDbEntity
  8
0
  6
Continuous
 62
     7
370
    15
100
AcDbLine
 10
177.7179264002
 20
154.3545391937
 30
0.0
 11
177.7179264002
 21
146.4554578592
 31
0.0
  0
LINE
  5
CC
330
1F
100
AcDbEntity
  8
0
  6
Continuous
 62
     7
370
    15
100
AcDbLine
 10
161.8679260839
 20
154.3545391937
 30
0.0
 11
161.8679260839
 21
146.4554578592
 31
0.0
  0
SPLINE
  5
CD
330
1F
100
AcDbEntity
  8
0
  6
Continuous
 62
     7
370
    15
100
AcDbSpline
210
0.0
220
0.0
230
1.0
 70
     8
 71
     3
 72
    10
 73
     6
 74
     0
 42
0.000000001
 43
0.00000001
 40
0.0
 40
0.0
 40
0.0
 40
0.0
 40
0.5
 40
0.5
 40
1.0
 40
1.0
 40
1.0
 40
1.0
 10
162.1577950837256
 20
163.3156216693821
 30
0.0
 10
162.0813419938068
 20
163.2453588981615
 30
0.0
 10
162.0124802715377
 20
163.1582639831198
 30
0.0
 10
161.9059680404648
 20
162.9490948548675
 30
0.0
 10
161.8679261647792
 20
162.8237773056279
 30
0.0
 10
161.8679261647792
 20
162.694427011032
 30
0.0
  0
SPLINE
  5
CE
330
1F
100
AcDbEntity
  8
0
  6
Continuous
 62
     7
370
    15
100
AcDbSpline
210
0.0
220
0.0
230
1.0
 70
     8
 71
     3
 72
     8
 73
     4
 74
     0
 42
0.000000001
 43
0.00000001
 40
0.0
 40
0.0
 40
0.0
 40
0.0
 40
1.0
 40
1.0
 40
1.0
 40
1.0
 10
162.4679261647793
 20
163.3853019984349
 30
0.0
 10
162.3568479794418
 20
163.3853019984349
 30
0.0
 10
162.2491839755396
 20
163.3601528228803
 30
0.0
 10
162.1577950837256
 20
163.3156216693821
 30
0.0
  0
LINE
  5
CF
330
1F
100
AcDbEntity
  8
0
  6
Continuous
 62
     7
370
    15
100
AcDbLine
 10
161.8679260839
 20
154.3545391937
 30
0.0
 11
161.8679260839
 21
162.6944285413
 31
0.0
  0
SPLINE
  5
D0
330
1F
100
AcDbEntity
  8
0
  6
Continuous
 62
     7
370
    15
100
AcDbSpline
210
0.0
220
0.0
230
1.0
 70
     8
 71
     3
 72
     8
 73
     4
 74
     0
 42
0.000000001
 43
0.00000001
 40
0.0
 40
0.0
 40
0.0
 40
0.0
 40
1.0
 40
1.0
 40
1.0
 40
1.0
 10
172.4445971869457
 20
162.6054905883267
 30
0.0
 10
172.1888208761903
 20
162.1455122330619
 30
0.0
 10
171.9332574780843
 20
161.6854177727541
 30
0.0
 10
171.6779261647793
 20
161.2251967524891
 30
0.0
  0
SPLINE
  5
D1
330
1F
100
AcDbEntity
  8
0
  6
Continuous
 62
     7
370
    15
100
AcDbSpline
210
0.0
220
0.0
230
1.0
 70
     8
 71
     3
 72
     8
 73
     4
 74
     0
 42
0.000000001
 43
0.00000001
 40
0.0
 40
0.0
 40
0.0
 40
0.0
 40
0.0012352705496738
 40
0.0012352705496738
 40
0.0012352705496738
 40
0.0012352705496738
 10
173.0010876722412
 20
163.3853019984349
 30
0.0
 10
172.8151392469191
 20
163.1255262426832
 30
0.0
 10
172.629632437748
 20
162.8655921640559
 30
0.0
 10
172.4445971869459
 20
162.6054905883273
 30
0.0
  0
LINE
  5
D2
330
1F
100
AcDbEntity
  8
0
  6
Continuous
 62
     7
370
    15
100
AcDbLine
 10
171.6779260435
 20
152.1725919624
 30
0.0
 11
171.6779260435
 21
161.2251963993
 31
0.0
  0
LINE
  5
D3
330
1F
100
AcDbEntity
  8
0
  6
Continuous
 62
     7
370
    15
100
AcDbLine
 10
243.6679270588
 20
116.6054573437
 30
0.0
 11
243.6679270588
 21
92.1054579844
 31
0.0
  0
LINE
  5
D4
330
1F
100
AcDbEntity
  8
0
  6
Continuous
 62
     7
370
    15
100
AcDbLine
 10
243.6679270588
 20
141.1054567029
 30
0.0
 11
243.6679270588
 21
116.6054573437
 31
0.0
  0
LINE
  5
D5
330
1F
100
AcDbEntity
  8
0
  6
Continuous
 62
     7
370
    15
100
AcDbLine
 10
243.1679260456
 20
116.6054573437
 30
0.0
 11
243.1679260456
 21
91.6054569711
 31
0.0
  0
LINE
  5
D6
330
1F
100
AcDbEntity
  8
0
  6
Continuous
 62
     7
370
    15
100
AcDbLine
 10
243.1679260456
 20
141.6054577162
 30
0.0
 11
243.1679260456
 21
116.6054573437
 31
0.0
  0
SPLINE
  5
D7
330
1F
100
AcDbEntity
  8
0
  6
Continuous
 62
     7
370
    15
100
AcDbSpline
210
0.0
220
0.0
230
1.0
 70
     8
 71
     3
 72
    21
 73
    17
 74
     0
 42
0.000000001
 43
0.00000001
 40
0.0
 40
0.0
 40
0.0
 40
0.0
 40
0.0536104477443322
 40
0.1390535463657923
 40
0.2297886891414613
 40
0.3321454669808306
 40
0.4467781731831014
 40
0.5068803021174813
 40
0.5686854016707305
 40
0.6294409869728106
 40
0.6920054727442759
 40
0.7517779450382083
 40
0.8135720326205487
 40
0.8685283089433785
 40
0.9256362378992506
 40
1.0
 40
1.0
 40
1.0
 40
1.0
 10
237.0326783978077
 20
141.5858980794763
 30
0.0
 10
237.0420953537279
 20
141.5879974460513
 30
0.0
 10
237.066520837412
 20
141.5934427347901
 30
0.0
 10
236.3680357654544
 20
141.435486297094
 30
0.0
 10
235.0927776594671
 20
141.184347234107
 30
0.0
 10
233.1874681571813
 20
140.8963545194864
 30
0.0
 10
231.1964551375415
 20
140.7351380120403
 30
0.0
 10
229.4435394329641
 20
140.7062136309901
 30
0.0
 10
228.0931560740508
 20
140.7437714610135
 30
0.0
 10
226.7684141255405
 20
140.8384972826498
 30
0.0
 10
225.53837707509
 20
140.9771385283553
 30
0.0
 10
224.4228554502564
 20
141.1435060858723
 30
0.0
 10
223.5034743855382
 20
141.3095334385749
 30
0.0
 10
222.7983705101364
 20
141.4530975404794
 30
0.0
 10
222.2329428479193
 20
141.5784580355645
 30
0.0
 10
222.2025141804353
 20
141.5858834424513
 30
0.0
 10
222.1853029452892
 20
141.5900834431266
 30
0.0
  0
SPLINE
  5
D8
330
1F
100
AcDbEntity
  8
0
  6
Continuous
 62
     7
370
    15
100
AcDbSpline
210
0.0
220
0.0
230
1.0
 70
    11
 71
     3
 72
    96
 73
    92
 74
     0
 42
0.000000001
 43
0.00000001
 40
0.0
 40
0.0
 40
0.0
 40
0.0
 40
0.03125
 40
0.03125
 40
0.0468750000000004
 40
0.0468750000000004
 40
0.0625000000000009
 40
0.0625000000000009
 40
0.0937500000000017
 40
0.0937500000000017
 40
0.1093750000000022
 40
0.1093750000000022
 40
0.1250000000000026
 40
0.1250000000000026
 40
0.1562500000000025
 40
0.1562500000000025
 40
0.1718750000000024
 40
0.1718750000000024
 40
0.1875000000000024
 40
0.1875000000000024
 40
0.2187500000000023
 40
0.2187500000000023
 40
0.2343750000000027
 40
0.2343750000000027
 40
0.2500000000000031
 40
0.2500000000000031
 40
0.2812500000000038
 40
0.2812500000000038
 40
0.2968750000000044
 40
0.2968750000000044
 40
0.3125000000000052
 40
0.3125000000000052
 40
0.3437500000000065
 40
0.3437500000000065
 40
0.3593750000000072
 40
0.3593750000000072
 40
0.3750000000000078
 40
0.3750000000000078
 40
0.3906250000000085
 40
0.3906250000000085
 40
0.4062500000000092
 40
0.4062500000000092
 40
0.4375000000000105
 40
0.4375000000000105
 40
0.4531250000000112
 40
0.4531250000000112
 40
0.4687500000000119
 40
0.4687500000000119
 40
0.5000000000000127
 40
0.5000000000000127
 40
0.5312500000000134
 40
0.5312500000000134
 40
0.5468750000000134
 40
0.5468750000000134
 40
0.5625000000000134
 40
0.5625000000000134
 40
0.5937500000000124
 40
0.5937500000000124
 40
0.6250000000000115
 40
0.6250000000000115
 40
0.6562500000000105
 40
0.6562500000000105
 40
0.6875000000000095
 40
0.6875000000000095
 40
0.7187500000000085
 40
0.7187500000000085
 40
0.7500000000000075
 40
0.7500000000000075
 40
0.7656250000000071
 40
0.7656250000000071
 40
0.7812500000000067
 40
0.7812500000000067
 40
0.8125000000000052
 40
0.8125000000000052
 40
0.8281250000000047
 40
0.8281250000000047
 40
0.8437500000000041
 40
0.8437500000000041
 40
0.8750000000000033
 40
0.8750000000000033
 40
0.8906250000000029
 40
0.8906250000000029
 40
0.9062500000000024
 40
0.9062500000000024
 40
0.921875000000002
 40
0.921875000000002
 40
0.9375000000000016
 40
0.9375000000000016
 40
0.9687500000000008
 40
0.9687500000000008
 40
1.0
 40
1.0
 40
1.0
 40
1.0
 10
224.6166648628597
 20
121.5204278893417
 30
0.0
 10
224.9804878531627
 20
121.8082904669272
 30
0.0
 10
225.3656823096134
 20
122.0575558499024
 30
0.0
 10
225.9728802415142
 20
122.3793150326165
 30
0.0
 10
226.1802231595765
 20
122.4777989807157
 30
0.0
 10
226.6048041911666
 20
122.6573574344306
 30
0.0
 10
226.8230385634033
 20
122.7387377118819
 30
0.0
 10
227.4853047590129
 20
122.9538178821319
 30
0.0
 10
227.9341709060904
 20
123.0582892933419
 30
0.0
 10
228.618102518237
 20
123.1593083443625
 30
0.0
 10
228.847862991006
 20
123.1836366280931
 30
0.0
 10
229.3110130308879
 20
123.2133217132442
 30
0.0
 10
229.5453317310781
 20
123.2186008284527
 30
0.0
 10
230.2416751542791
 20
123.2054094932733
 30
0.0
 10
230.7000578576521
 20
123.1586401616828
 30
0.0
 10
231.3790265603414
 20
123.0323292328991
 30
0.0
 10
231.6039070436237
 20
122.9808086621548
 30
0.0
 10
232.0507065615757
 20
122.8583373520797
 30
0.0
 10
232.2732827001861
 20
122.7870552170967
 30
0.0
 10
232.9237839125879
 20
122.5474928100102
 30
0.0
 10
233.3385351162628
 20
122.3529302018913
 30
0.0
 10
233.9320917783955
 20
122.0075817548202
 30
0.0
 10
234.12515140419
 20
121.8834887187509
 30
0.0
 10
234.5012253493164
 20
121.6163137231432
 30
0.0
 10
234.6845589100428
 20
121.4727853043085
 30
0.0
 10
235.2066295736734
 20
121.0221838920224
 30
0.0
 10
235.5219707469595
 20
120.6926110336604
 30
0.0
 10
235.9433083604044
 20
120.1513694608416
 30
0.0
 10
236.0750782929409
 20
119.9630848822637
 30
0.0
 10
236.3198766545211
 20
119.5693868516448
 30
0.0
 10
236.432087068413
 20
119.3649120925895
 30
0.0
 10
236.7301570418134
 20
118.7419576108539
 30
0.0
 10
236.8811247156117
 20
118.3090800202517
 30
0.0
 10
237.0308230141542
 20
117.6312783181845
 30
0.0
 10
237.0679182602132
 20
117.3987018961145
 30
0.0
 10
237.1131847242028
 20
116.9352561289576
 30
0.0
 10
237.1217010312818
 20
116.7040105743606
 30
0.0
 10
237.1111205261915
 20
116.2424535659743
 30
0.0
 10
237.0920228624928
 20
116.0121421406665
 30
0.0
 10
237.0259352982309
 20
115.552461863639
 30
0.0
 10
236.9784705142096
 20
115.3218044575063
 30
0.0
 10
236.7978118409449
 20
114.6484373441733
 30
0.0
 10
236.6267867532971
 20
114.2197427001437
 30
0.0
 10
236.2988656218115
 20
113.6049623946279
 30
0.0
 10
236.1777310591904
 20
113.4054527043357
 30
0.0
 10
235.9176382264006
 20
113.0241396135163
 30
0.0
 10
235.7780976026844
 20
112.8411992874926
 30
0.0
 10
235.3322597676738
 20
112.3143253262673
 30
0.0
 10
234.995466726097
 20
111.9898719615465
 30
0.0
 10
234.2748065708765
 20
111.4164119927103
 30
0.0
 10
233.8899784377307
 20
111.1651043669406
 30
0.0
 10
233.2772219061172
 20
110.8385624898147
 30
0.0
 10
233.0664846210384
 20
110.7380635446854
 30
0.0
 10
232.6406248734179
 20
110.5572670579533
 30
0.0
 10
232.4246498224287
 20
110.4764605939791
 30
0.0
 10
231.7678256867433
 20
110.2618685883644
 30
0.0
 10
231.3181495456407
 20
110.1556732939779
 30
0.0
 10
230.3946358711062
 20
110.0180501979841
 30
0.0
 10
229.93128518355
 20
109.9883963783901
 30
0.0
 10
229.0087204607507
 20
110.0046021705797
 30
0.0
 10
228.5482256500233
 20
110.0502914593698
 30
0.0
 10
227.6293596708327
 20
110.2205762449995
 30
0.0
 10
227.1842709155142
 20
110.3426899182974
 30
0.0
 10
226.3218747268934
 20
110.6593413515984
 30
0.0
 10
225.9037626398345
 20
110.8542820265543
 30
0.0
 10
225.1006438438657
 20
111.3214645054043
 30
0.0
 10
224.726769223829
 20
111.5870560044809
 30
0.0
 10
224.2076636777179
 20
112.0345302232182
 30
0.0
 10
224.041629391996
 20
112.1919279959366
 30
0.0
 10
223.7242693557192
 20
112.524190419398
 30
0.0
 10
223.5722123238468
 20
112.7000049354937
 30
0.0
 10
223.1451738515339
 20
113.2494315066165
 30
0.0
 10
222.9030592725583
 20
113.6387477317981
 30
0.0
 10
222.6060868186686
 20
114.2590105597707
 30
0.0
 10
222.5182129158831
 20
114.4718573019943
 30
0.0
 10
222.3662797455935
 20
114.9106657772405
 30
0.0
 10
222.3022612608692
 20
115.1374746831777
 30
0.0
 10
222.1533642735761
 20
115.8175330328139
 30
0.0
 10
222.1085170148057
 20
116.2768087702989
 30
0.0
 10
222.1250604098258
 20
116.974836769394
 30
0.0
 10
222.1449970090417
 20
117.2101920167077
 30
0.0
 10
222.2122004616618
 20
117.6708618942244
 30
0.0
 10
222.2593645951142
 20
117.8976425266536
 30
0.0
 10
222.3798405488924
 20
118.3443687626621
 30
0.0
 10
222.4531548174271
 20
118.5643136940515
 30
0.0
 10
222.6258381499433
 20
118.9974197987163
 30
0.0
 10
222.7249196554744
 20
119.2094302421856
 30
0.0
 10
223.0529454854389
 20
119.8211365012289
 30
0.0
 10
223.3141545601796
 20
120.2015119174617
 30
0.0
 10
223.9171344467073
 20
120.9110481109367
 30
0.0
 10
224.2528418725568
 20
121.2325653117562
 30
0.0
 10
224.6166648628597
 20
121.5204278893417
 30
0.0
  0
LINE
  5
D9
330
1F
100
AcDbEntity
  8
0
  6
Continuous
 62
     7
370
    15
100
AcDbLine
 10
57.0679273926
 20
98.226612859
 30
0.0
 11
57.0679273926
 21
134.9840745856
 31
0.0
  0
LINE
  5
DA
330
1F
100
AcDbEntity
  8
0
  6
Continuous
 62
     7
370
    15
100
AcDbLine
 10
226.1914652311
 20
140.9054570427
 30
0.0
 11
232.9996791207
 21
140.9054570427
 31
0.0
  0
LINE
  5
DB
330
1F
100
AcDbEntity
  8
0
  6
Continuous
 62
     7
370
    15
100
AcDbLine
 10
224.5342102372
 20
141.6054577162
 30
0.0
 11
234.9179279529
 21
141.6054577162
 31
0.0
  0
LINE
  5
DC
330
1F
100
AcDbEntity
  8
0
  6
Continuous
 62
     7
370
    15
100
AcDbLine
 10
224.317927333
 20
141.6054577162
 30
0.0
 11
224.5342102372
 21
141.6054577162
 31
0.0
  0
SPLINE
  5
DD
330
1F
100
AcDbEntity
  8
0
  6
Continuous
 62
     7
370
    15
100
AcDbSpline
210
0.0
220
0.0
230
1.0
 70
     8
 71
     3
 72
    10
 73
     6
 74
     0
 42
0.000000001
 43
0.00000001
 40
0.0
 40
0.0
 40
0.0
 40
0.0
 40
0.439126902867509
 40
0.7513757665529871
 40
1.0
 40
1.0
 40
1.0
 40
1.0
 10
227.230098518047
 20
114.0958233331656
 30
0.0
 10
227.7121684954685
 20
113.9794175360353
 30
0.0
 10
228.5370227607208
 20
113.780239361164
 30
0.0
 10
229.7360757226544
 20
113.4907060387408
 30
0.0
 10
230.3328705687557
 20
113.3465981889453
 30
0.0
 10
230.5974182211491
 20
113.2827179567283
 30
0.0
  0
SPLINE
  5
DE
330
1F
100
AcDbEntity
  8
0
  6
Continuous
 62
     7
370
    15
100
AcDbSpline
210
0.0
220
0.0
230
1.0
 70
     8
 71
     3
 72
    10
 73
     6
 74
     0
 42
0.000000001
 43
0.00000001
 40
0.0
 40
0.0
 40
0.0
 40
0.0
 40
0.4391283772856966
 40
0.7513760919468718
 40
1.0
 40
1.0
 40
1.0
 40
1.0
 10
230.5974182211491
 20
113.2827179567283
 30
0.0
 10
230.9392651672195
 20
113.6420011785602
 30
0.0
 10
231.5241866518431
 20
114.2567572204966
 30
0.0
 10
232.3744546464646
 20
115.1504026697101
 30
0.0
 10
232.7976519088987
 20
115.5951872676615
 30
0.0
 10
232.9852473460766
 20
115.792351967222
 30
0.0
  0
SPLINE
  5
DF
330
1F
100
AcDbEntity
  8
0
  6
Continuous
 62
     7
370
    15
100
AcDbSpline
210
0.0
220
0.0
230
1.0
 70
     8
 71
     3
 72
    11
 73
     7
 74
     0
 42
0.000000001
 43
0.00000001
 40
0.0
 40
0.0
 40
0.0
 40
0.0
 40
0.1849308712491195
 40
0.5198461600439296
 40
0.8714436082207537
 40
1.0
 40
1.0
 40
1.0
 40
1.0
 10
232.9852473460766
 20
115.792351967222
 30
0.0
 10
232.9282354249268
 20
115.9857515750304
 30
0.0
 10
232.7679732248612
 20
116.5294036045379
 30
0.0
 10
232.4688248857186
 20
117.5442365249663
 30
0.0
 10
232.1925385715575
 20
118.4814746168361
 30
0.0
 10
232.0452041001072
 20
118.9812748397038
 30
0.0
 10
232.005756767902
 20
119.1150913541531
 30
0.0
  0
SPLINE
  5
E0
330
1F
100
AcDbEntity
  8
0
  6
Continuous
 62
     7
370
    15
100
AcDbSpline
210
0.0
220
0.0
230
1.0
 70
     8
 71
     3
 72
    10
 73
     6
 74
     0
 42
0.000000001
 43
0.00000001
 40
0.0
 40
0.0
 40
0.0
 40
0.0
 40
0.4391288602008199
 40
0.7513757483694943
 40
0.9999999999999999
 40
0.9999999999999999
 40
0.9999999999999999
 40
0.9999999999999999
 10
232.005756767902
 20
119.1150913541531
 30
0.0
 10
231.5236841754515
 20
119.2314966626474
 30
0.0
 10
230.6988291323206
 20
119.4306731088142
 30
0.0
 10
229.4997775508885
 20
119.7202096302833
 30
0.0
 10
228.9029847521865
 20
119.864316642192
 30
0.0
 10
228.6384370647999
 20
119.9281967305904
 30
0.0
  0
SPLINE
  5
E1
330
1F
100
AcDbEntity
  8
0
  6
Continuous
 62
     7
370
    15
100
AcDbSpline
210
0.0
220
0.0
230
1.0
 70
     8
 71
     3
 72
    10
 73
     6
 74
     0
 42
0.000000001
 43
0.00000001
 40
0.0
 40
0.0
 40
0.0
 40
0.0
 40
0.4391277957679227
 40
0.7513750969336251
 40
0.9999999999999999
 40
0.9999999999999999
 40
0.9999999999999999
 40
0.9999999999999999
 10
228.6384370647999
 20
119.9281967305904
 30
0.0
 10
228.2965898895337
 20
119.5689136658919
 30
0.0
 10
227.7116680127417
 20
118.9541578928205
 30
0.0
 10
226.8614010493991
 20
118.0605097812101
 30
0.0
 10
226.4381987261235
 20
117.6157271378618
 30
0.0
 10
226.2506004892918
 20
117.4185627200966
 30
0.0
  0
SPLINE
  5
E2
330
1F
100
AcDbEntity
  8
0
  6
Continuous
 62
     7
370
    15
100
AcDbSpline
210
0.0
220
0.0
230
1.0
 70
     8
 71
     3
 72
    11
 73
     7
 74
     0
 42
0.000000001
 43
0.00000001
 40
0.0
 40
0.0
 40
0.0
 40
0.0
 40
0.128556296377298
 40
0.4801535642213162
 40
0.8150692319735838
 40
1.0
 40
1.0
 40
1.0
 40
1.0
 10
226.2506004892918
 20
117.4185627200966
 30
0.0
 10
226.2900478713145
 20
117.2847462493547
 30
0.0
 10
226.4373825535598
 20
116.7849461058466
 30
0.0
 10
226.7136658889045
 20
115.8477064245136
 30
0.0
 10
227.0128254141124
 20
114.8328759335799
 30
0.0
 10
227.1730869096051
 20
114.2892230383981
 30
0.0
 10
227.230098518047
 20
114.0958233331656
 30
0.0
  0
CIRCLE
  5
E3
330
1F
100
AcDbEntity
  8
0
  6
Continuous
 62
     7
370
    15
100
AcDbCircle
 10
229.6179261648
 20
116.6054573437
 30
0.0
 40
3.600000000000001
  0
CIRCLE
  5
E4
330
1F
100
AcDbEntity
  8
0
  6
Continuous
 62
     7
370
    15
100
AcDbCircle
 10
229.6179261648
 20
116.6054573437
 30
0.0
 40
6.0
  0
CIRCLE
  5
E5
330
1F
100
AcDbEntity
  8
0
  6
Continuous
 62
     7
370
    15
100
AcDbCircle
 10
229.6179261648
 20
116.6054573437
 30
0.0
 40
5.300000000000004
  0
ARC
  5
E6
330
1F
100
AcDbEntity
  8
0
  6
Continuous
 62
     7
370
    15
100
AcDbCircle
 10
229.6179261648
 20
116.6054573437
 30
0.0
 40
3.000000000000009
100
AcDbArc
 50
196.4246870373
 51
256.4246870373
  0
ARC
  5
E7
330
1F
100
AcDbEntity
  8
0
  6
Continuous
 62
     7
370
    15
100
AcDbCircle
 10
229.6179261648
 20
116.6054573437
 30
0.0
 40
3.0
100
AcDbArc
 50
76.4246870373
 51
136.4246870373
  0
ARC
  5
E8
330
1F
100
AcDbEntity
  8
0
  6
Continuous
 62
     7
370
    15
100
AcDbCircle
 10
229.6179261648
 20
116.6054573437
 30
0.0
 40
3.000000000000002
100
AcDbArc
 50
136.4246870373
 51
196.4246870373
  0
ARC
  5
E9
330
1F
100
AcDbEntity
  8
0
  6
Continuous
 62
     7
370
    15
100
AcDbCircle
 10
229.6179261648
 20
116.6054573437
 30
0.0
 40
2.999999999999998
100
AcDbArc
 50
16.4246870373
 51
76.4246870373
  0
ARC
  5
EA
330
1F
100
AcDbEntity
  8
0
  6
Continuous
 62
     7
370
    15
100
AcDbCircle
 10
229.6179261648
 20
116.6054573437
 30
0.0
 40
3.000000000000009
100
AcDbArc
 50
316.4246870373
 51
16.4246870373
  0
ARC
  5
EB
330
1F
100
AcDbEntity
  8
0
  6
Continuous
 62
     7
370
    15
100
AcDbCircle
 10
229.6179261648
 20
116.6054573437
 30
0.0
 40
3.000000000000009
100
AcDbArc
 50
256.4246870373
 51
316.4246870373
  0
ARC
  5
EC
330
1F
100
AcDbEntity
  8
0
  6
Continuous
 62
     7
370
    15
100
AcDbCircle
 10
172.7337756341
 20
101.4165861011
 30
0.0
 40
2.369707250905888
100
AcDbArc
 50
185.6203299175
 51
252.2890843555
  0
ARC
  5
ED
330
1F
100
AcDbEntity
  8
0
  6
Continuous
 62
     7
370
    15
100
AcDbCircle
 10
172.884634001
 20
101.5237497097
 30
0.0
 40
2.520135433679688
100
AcDbArc
 50
249.7622145608
 51
339.9433461867
  0
ARC
  5
EE
330
1F
100
AcDbEntity
  8
0
  6
Continuous
 62
     7
370
    15
100
AcDbCircle
 10
172.696825611
 20
101.3215404714
 30
0.0
 40
2.181399248729519
100
AcDbArc
 50
159.26752016
 51
253.0470182115
  0
ARC
  5
EF
330
1F
100
AcDbEntity
  8
0
  6
Continuous
 62
     7
370
    15
100
AcDbCircle
 10
172.885357072
 20
101.4537254698
 30
0.0
 40
2.36706418702047
100
AcDbArc
 50
249.6127475989
 51
345.549823666
  0
ARC
  5
F0
330
1F
100
AcDbEntity
  8
0
  6
Continuous
 62
     7
370
    15
100
AcDbCircle
 10
172.7150241949
 20
101.3120913206
 30
0.0
 40
1.837698945659598
100
AcDbArc
 50
124.9990245476
 51
253.2004850097
  0
ARC
  5
F1
330
1F
100
AcDbEntity
  8
0
  6
Continuous
 62
     7
370
    15
100
AcDbCircle
 10
172.8917515921
 20
101.3996343805
 30
0.0
 40
1.977824793145184
100
AcDbArc
 50
249.0286405794
 51
357.659602652
  0
LWPOLYLINE
  5
F2
330
1F
100
AcDbEntity
  8
0
  6
HIDDEN
 62
     7
370
     0
100
AcDbPolyline
 90
       21
 70
   128
 43
0.0
 10
172.8679262572
 20
100.7481407901
 10
173.6404685774
 20
100.8631200125
 10
174.3373893671
 20
101.1968035777
 10
174.8904683166
 20
101.7165281405
 10
175.2455667131
 20
102.3714192738
 10
175.3679257356
 20
103.0973721822
 10
175.2455667131
 20
103.8233241593
 10
174.8904683166
 20
104.4782152926
 10
174.3373893671
 20
104.9979398554
 10
173.6404685774
 20
105.3316234206
 10
172.8679262572
 20
105.4466035744
 10
172.095383937
 20
105.3316234206
 10
171.3984631472
 20
104.9979398554
 10
170.8453832664
 20
104.4782152926
 10
170.4902848699
 20
103.8233241593
 10
170.3679258474
 20
103.0973721822
 10
170.4902848699
 20
102.3714192738
 10
170.8453832664
 20
101.7165281405
 10
171.3984631472
 20
101.1968035777
 10
172.095383937
 20
100.8631200125
 10
172.8679262572
 20
100.7481407901
  0
LWPOLYLINE
  5
F3
330
1F
100
AcDbEntity
  8
0
  6
HIDDEN
 62
     7
370
     0
100
AcDbPolyline
 90
       23
 70
   128
 43
0.0
 10
162.1396571402
 20
102.7005971005
 10
162.3449651063
 20
101.8718224545
 10
162.6672325195
 20
101.1101905783
 10
163.0803509154
 20
100.477403455
 10
163.5508518205
 20
100.024726667
 10
164.0406180643
 20
99.7888319721
 10
164.5099720456
 20
99.7888319721
 10
164.9208892607
 20
100.024726667
 10
165.240079584
 20
100.477403455
 10
165.4416839131
 20
101.1101905783
 10
165.5093701095
 20
101.8718224545
 10
165.4376540803
 20
102.7005971005
 10
165.2323458814
 20
103.5293717464
 10
164.9100784682
 20
104.2910045539
 10
164.4969600723
 20
104.9237907459
 10
164.0264591672
 20
105.3764684652
 10
163.5366929234
 20
105.6123622288
 10
163.0673389421
 20
105.6123622288
 10
162.656421727
 20
105.3764684652
 10
162.3372316365
 20
104.9237907459
 10
162.1356270746
 20
104.2910045539
 10
162.067941111
 20
103.5293717464
 10
162.1396571402
 20
102.7005971005
  0
LWPOLYLINE
  5
F4
330
1F
100
AcDbEntity
  8
0
  6
HIDDEN
 62
     7
370
     0
100
AcDbPolyline
 90
       19
 70
   128
 43
0.0
 10
162.9026890271
 20
102.7648592894
 10
163.0900082648
 20
102.0605726694
 10
163.3939593569
 20
101.4412338441
 10
163.7778817215
 20
100.9815441971
 10
164.1954681375
 20
100.7369481554
 10
164.5963517488
 20
100.7369481554
 10
164.9321806156
 20
100.9815441971
 10
165.1624477938
 20
101.4412338441
 10
165.2593803131
 20
102.0605726694
 10
165.2112868153
 20
102.7648592894
 10
165.0239675776
 20
103.4691449781
 10
164.7200160199
 20
104.0884838035
 10
164.336094121
 20
104.5481743818
 10
163.9185072393
 20
104.7927694922
 10
163.517623628
 20
104.7927694922
 10
163.1817952268
 20
104.5481743818
 10
162.9515275829
 20
104.0884838035
 10
162.8545950637
 20
103.4691449781
 10
162.9026890271
 20
102.7648592894
  0
ELLIPSE
  5
F5
330
1F
100
AcDbEntity
  8
0
  6
HIDDEN
 62
     7
370
     0
100
AcDbEllipse
 10
172.8679261648
 20
104.8749472323
 30
0.0
 11
1.760776919379055
 21
2.232245799914452
 31
0.0
210
0.0
220
0.0
230
1.0
 40
0.5126701559
 41
1.100887047646266
 42
4.029627027608257
  0
ARC
  5
F6
330
1F
100
AcDbEntity
  8
0
  6
HIDDEN
 62
     7
370
     0
100
AcDbCircle
 10
172.1713266962
 20
106.0524871135
 30
0.0
 40
0.7945949542258096
100
AcDbArc
 50
53.4208190544
 51
99.1663888759
  0
ELLIPSE
  5
F7
330
1F
100
AcDbEntity
  8
0
  6
HIDDEN
 62
     7
370
     0
100
AcDbEllipse
 10
172.8679261648
 20
104.8749472323
 30
0.0
 11
1.760776919379055
 21
-1.388886188042932
 31
0.0
210
0.0
220
0.0
230
1.0
 40
0.8239737799
 41
2.549926265248557
 42
4.885930273856119
  0
ARC
  5
F8
330
1F
100
AcDbEntity
  8
0
  6
HIDDEN
 62
     7
370
     0
100
AcDbCircle
 10
173.1139789267
 20
104.0354696683
 30
0.0
 40
1.353195702694798
100
AcDbArc
 50
217.8001040701
 51
249.7155767561
  0
LWPOLYLINE
  5
F9
330
1F
100
AcDbEntity
  8
0
  6
HIDDEN
 62
     7
370
     0
100
AcDbPolyline
 90
       19
 70
   128
 43
0.0
 10
172.8679262572
 20
101.173811086
 10
173.586168746
 20
101.2928192099
 10
174.2177805402
 20
101.6354881754
 10
174.6865794533
 20
102.1604886805
 10
174.936023029
 20
102.8044963782
 10
174.936023029
 20
103.4898352404
 10
174.6865794533
 20
104.1338429381
 10
174.2177805402
 20
104.6588434433
 10
173.586168746
 20
105.0015124088
 10
172.8679262572
 20
105.1205205326
 10
172.1496837684
 20
105.0015124088
 10
171.5180719741
 20
104.6588434433
 10
171.0492730611
 20
104.1338429381
 10
170.7998294853
 20
103.4898352404
 10
170.7998294853
 20
102.8044963782
 10
171.0492730611
 20
102.1604886805
 10
171.5180719741
 20
101.6354881754
 10
172.1496837684
 20
101.2928192099
 10
172.8679262572
 20
101.173811086
  0
SPLINE
  5
FA
330
1F
100
AcDbEntity
  8
0
  6
HIDDEN
 62
     7
370
     0
100
AcDbSpline
210
0.0
220
0.0
230
1.0
 70
    11
 71
     3
 72
    62
 73
    58
 74
     0
 42
0.000000001
 43
0.00000001
 40
0.0
 40
0.0
 40
0.0
 40
0.0
 40
0.0312500000000001
 40
0.0312500000000001
 40
0.0625000000000002
 40
0.0625000000000002
 40
0.1250000000000008
 40
0.1250000000000008
 40
0.1875000000000014
 40
0.1875000000000014
 40
0.2187500000000016
 40
0.2187500000000016
 40
0.2500000000000018
 40
0.2500000000000018
 40
0.2812500000000021
 40
0.2812500000000021
 40
0.3125000000000023
 40
0.3125000000000023
 40
0.3437500000000025
 40
0.3437500000000025
 40
0.3750000000000028
 40
0.3750000000000028
 40
0.4375000000000032
 40
0.4375000000000032
 40
0.4687500000000033
 40
0.4687500000000033
 40
0.5000000000000033
 40
0.5000000000000033
 40
0.5312500000000033
 40
0.5312500000000033
 40
0.5625000000000033
 40
0.5625000000000033
 40
0.5937500000000033
 40
0.5937500000000033
 40
0.6250000000000033
 40
0.6250000000000033
 40
0.6562500000000031
 40
0.6562500000000031
 40
0.6875000000000029
 40
0.6875000000000029
 40
0.7187500000000027
 40
0.7187500000000027
 40
0.7500000000000024
 40
0.7500000000000024
 40
0.7812500000000023
 40
0.7812500000000023
 40
0.8125000000000021
 40
0.8125000000000021
 40
0.8750000000000014
 40
0.8750000000000014
 40
0.9062500000000011
 40
0.9062500000000011
 40
0.9375000000000008
 40
0.9375000000000008
 40
0.9687500000000004
 40
0.9687500000000004
 40
1.0
 40
1.0
 40
1.0
 40
1.0
 10
172.8679261647793
 20
113.3683627084316
 30
0.0
 10
172.7267279407994
 20
113.3683627084316
 30
0.0
 10
172.5884500637856
 20
113.3788306448151
 30
0.0
 10
172.3172839925778
 20
113.4198541257505
 30
0.0
 10
172.1830806651183
 20
113.4509805791662
 30
0.0
 10
171.8040174853281
 20
113.572354567078
 30
0.0
 10
171.5750105636343
 20
113.6925093410861
 30
0.0
 10
171.1939799446316
 20
114.0012882401089
 30
0.0
 10
171.0383568677099
 20
114.1934574082728
 30
0.0
 10
170.8792863911413
 20
114.523441720111
 30
0.0
 10
170.8375592459979
 20
114.6429410834231
 30
0.0
 10
170.7822885448558
 20
114.8895254825788
 30
0.0
 10
170.7682086133661
 20
115.016697413016
 30
0.0
 10
170.7676520470449
 20
115.2791866057121
 30
0.0
 10
170.7816413244655
 20
115.4143289744092
 30
0.0
 10
170.8361228437011
 20
115.6788140677689
 30
0.0
 10
170.876973301856
 20
115.8109639720149
 30
0.0
 10
170.9835872687154
 20
116.0676597229367
 30
0.0
 10
171.0483394109885
 20
116.1903976073907
 30
0.0
 10
171.1998979529411
 20
116.424768356149
 30
0.0
 10
171.2872360761141
 20
116.5365858571625
 30
0.0
 10
171.5730124970757
 20
116.8417693222908
 30
0.0
 10
171.8025488455415
 20
117.0125836414707
 30
0.0
 10
172.1788669815357
 20
117.1890940044447
 30
0.0
 10
172.3111998898964
 20
117.2355788116384
 30
0.0
 10
172.5852325488872
 20
117.2986825243785
 30
0.0
 10
172.7232577085094
 20
117.3146402141228
 30
0.0
 10
173.0013290897281
 20
117.3154860829845
 30
0.0
 10
173.1430420283984
 20
117.2997614080114
 30
0.0
 10
173.4154642840788
 20
117.2383209655122
 30
0.0
 10
173.5472924285759
 20
117.1929993218259
 30
0.0
 10
173.8026913241805
 20
117.0744515188248
 30
0.0
 10
173.9228573273698
 20
117.0027644356085
 30
0.0
 10
174.1480287399261
 20
116.8380358696101
 30
0.0
 10
174.2541798012604
 20
116.7437765965752
 30
0.0
 10
174.4456270899626
 20
116.5402119224315
 30
0.0
 10
174.5315611038822
 20
116.4307446321924
 30
0.0
 10
174.6839734219222
 20
116.1966470297084
 30
0.0
 10
174.7501569122097
 20
116.0717528068105
 30
0.0
 10
174.8563386107608
 20
115.8180210552758
 30
0.0
 10
174.8973186739765
 20
115.6878513704921
 30
0.0
 10
174.9533988147739
 20
115.4207876753632
 30
0.0
 10
174.9676229902152
 20
115.286834445348
 30
0.0
 10
174.9682196740867
 20
115.0253777028799
 30
0.0
 10
174.9544511065882
 20
114.8952603334925
 30
0.0
 10
174.8996010396462
 20
114.6470694780086
 30
0.0
 10
174.8591045263697
 20
114.5297139869279
 30
0.0
 10
174.6996420551936
 20
114.1959648651882
 30
0.0
 10
174.5449736308794
 20
114.0041252932622
 30
0.0
 10
174.2566655995348
 20
113.7700027252925
 30
0.0
 10
174.1526407841869
 20
113.7018463159292
 30
0.0
 10
173.9282215260081
 20
113.5831353767052
 30
0.0
 10
173.8062907381477
 20
113.5322134403368
 30
0.0
 10
173.5538335867216
 20
113.4512636055152
 30
0.0
 10
173.4229470568045
 20
113.4207282865162
 30
0.0
 10
173.1510061390917
 20
113.3791702577718
 30
0.0
 10
173.0091243887591
 20
113.3683627084316
 30
0.0
 10
172.8679261647793
 20
113.3683627084316
 30
0.0
  0
SPLINE
  5
FB
330
1F
100
AcDbEntity
  8
0
  6
HIDDEN
 62
     7
370
     0
100
AcDbSpline
210
0.0
220
0.0
230
1.0
 70
     8
 71
     3
 72
     8
 73
     4
 74
     0
 42
0.000000001
 43
0.00000001
 40
0.0
 40
0.0
 40
0.0
 40
0.0
 40
1.0
 40
1.0
 40
1.0
 40
1.0
 10
172.0447459886199
 20
106.8369353081807
 30
0.0
 10
172.2561733786211
 20
106.8294257983982
 30
0.0
 10
172.4586419251539
 20
106.7753022687636
 30
0.0
 10
172.6448525242912
 20
106.6905739815384
 30
0.0
  0
SPLINE
  5
FC
330
1F
100
AcDbEntity
  8
0
  6
HIDDEN
 62
     7
370
     0
100
AcDbSpline
210
0.0
220
0.0
230
1.0
 70
     8
 71
     3
 72
     8
 73
     4
 74
     0
 42
0.000000001
 43
0.00000001
 40
0.0
 40
0.0
 40
0.0
 40
0.0
 40
1.0
 40
1.0
 40
1.0
 40
1.0
 10
172.6448525242912
 20
102.7661952136042
 30
0.0
 10
172.4583281750068
 20
102.8885156295046
 30
0.0
 10
172.2557732764812
 20
103.0296007901693
 30
0.0
 10
172.0447459886199
 20
103.2060844259542
 30
0.0
  0
CIRCLE
  5
FD
330
1F
100
AcDbEntity
  8
0
  6
HIDDEN
 62
     7
370
     0
100
AcDbCircle
 10
229.6179261648
 20
116.6054573437
 30
0.0
 40
5.500000000000014
  0
LINE
  5
FE
330
1F
100
AcDbEntity
  8
0
  6
HIDDEN
 62
     7
370
     0
100
AcDbLine
 10
215.1679251813
 20
116.6054573437
 30
0.0
 11
215.1679251813
 21
103.1054569935
 31
0.0
  0
LINE
  5
FF
330
1F
100
AcDbEntity
  8
0
  6
HIDDEN
 62
     7
370
     0
100
AcDbLine
 10
215.1679251813
 20
130.1054576938
 30
0.0
 11
215.1679251813
 21
116.6054573437
 31
0.0
  0
LINE
  5
100
330
1F
100
AcDbEntity
  8
0
  6
HIDDEN
 62
     7
370
     0
100
AcDbLine
 10
220.0339515232
 20
116.6054573437
 30
0.0
 11
220.0339515232
 21
102.6054569115
 31
0.0
  0
LINE
  5
101
330
1F
100
AcDbEntity
  8
0
  6
HIDDEN
 62
     7
370
     0
100
AcDbLine
 10
220.0339515232
 20
130.6054577758
 30
0.0
 11
220.0339515232
 21
116.6054573437
 31
0.0
  0
SPLINE
  5
102
330
1F
100
AcDbEntity
  8
0
  6
HIDDEN
 62
     7
370
     0
100
AcDbSpline
210
0.0
220
0.0
230
1.0
 70
     8
 71
     3
 72
    12
 73
     8
 74
     0
 42
0.000000001
 43
0.00000001
 40
0.0
 40
0.0
 40
0.0
 40
0.0
 40
0.2033283815743289
 40
0.40625681979961
 40
0.619319683965008
 40
0.8402929064547935
 40
1.0
 40
1.0
 40
1.0
 40
1.0
 10
229.6179276429745
 20
129.4798501362419
 30
0.0
 10
230.2089480110756
 20
129.5043880841133
 30
0.0
 10
231.3898262206126
 20
129.5534157141446
 30
0.0
 10
232.9833366169215
 20
129.8917670798724
 30
0.0
 10
234.2403185849115
 20
130.2710848310904
 30
0.0
 10
235.0198971385894
 20
130.5665031053705
 30
0.0
 10
235.0496039603287
 20
130.5786498992307
 30
0.0
 10
235.0620668851467
 20
130.583745852611
 30
0.0
  0
LINE
  5
103
330
1F
100
AcDbEntity
  8
0
  6
HIDDEN
 62
     7
370
     0
100
AcDbLine
 10
230.1275250041
 20
129.5141134938
 30
0.0
 11
229.0259790145
 21
129.5075765406
 31
0.0
  0
SPLINE
  5
104
330
1F
100
AcDbEntity
  8
0
  6
HIDDEN
 62
     7
370
     0
100
AcDbSpline
210
0.0
220
0.0
230
1.0
 70
     8
 71
     3
 72
    13
 73
     9
 74
     0
 42
0.000000001
 43
0.00000001
 40
0.0
 40
0.0
 40
0.0
 40
0.0
 40
0.1360292404833006
 40
0.3345626965478672
 40
0.5418425228315886
 40
0.7613501549919852
 40
0.9613482023733656
 40
1.0
 40
1.0
 40
1.0
 40
1.0
 10
224.1820138417812
 20
130.5804666658258
 30
0.0
 10
224.1816127549318
 20
130.5804717965096
 30
0.0
 10
224.1806262854238
 20
130.5804844153803
 30
0.0
 10
224.816286551606
 20
130.3376642756454
 30
0.0
 10
225.9466004398002
 20
129.9716222832047
 30
0.0
 10
227.4991776102913
 20
129.6169004428308
 30
0.0
 10
228.8149166968747
 20
129.4864008372093
 30
0.0
 10
229.5059996490191
 20
129.4807632082514
 30
0.0
 10
229.6179276429745
 20
129.4798501362419
 30
0.0
  0
LINE
  5
105
330
1F
100
AcDbEntity
  8
0
  6
HIDDEN
 62
     7
370
     0
100
AcDbLine
 10
162.0394989852
 20
81.3054558416
 30
0.0
 11
161.8679260839
 21
81.3054558416
 31
0.0
  0
ELLIPSE
  5
106
330
1F
100
AcDbEntity
  8
0
  6
HIDDEN
 62
     7
370
     0
100
AcDbEllipse
 10
162.03949904
 20
79.3054573437
 30
0.0
 11
0.0
 21
2.000000000000014
 31
0.0
210
0.0
220
0.0
230
1.0
 40
0.4142135624
 41
4.712388980384695
 42
6.283185307179586
  0
LINE
  5
107
330
1F
100
AcDbEntity
  8
0
  6
HIDDEN
 62
     7
370
     0
100
AcDbLine
 10
161.8679260839
 20
154.1054588338
 30
0.0
 11
162.0394989852
 21
154.1054588338
 31
0.0
  0
ELLIPSE
  5
108
330
1F
100
AcDbEntity
  8
0
  6
HIDDEN
 62
     7
370
     0
100
AcDbEllipse
 10
162.03949904
 20
156.1054573437
 30
0.0
 11
0.0
 21
2.0
 31
0.0
210
0.0
220
0.0
230
1.0
 40
0.4142135624
 41
3.141592653589793
 42
4.712388980384695
  0
LINE
  5
109
330
1F
100
AcDbEntity
  8
0
  6
HIDDEN
 62
     7
370
     0
100
AcDbLine
 10
162.867926015
 20
70.4195429166
 30
0.0
 11
162.0835861661
 21
69.9720014413
 31
0.0
  0
LINE
  5
10A
330
1F
100
AcDbEntity
  8
0
  6
HIDDEN
 62
     7
370
     0
100
AcDbLine
 10
162.157795113
 20
163.3156206985
 30
0.0
 11
162.867926015
 21
162.6054909607
 31
0.0
  0
LINE
  5
10B
330
1F
100
AcDbEntity
  8
0
  6
HIDDEN
 62
     7
370
     0
100
AcDbLine
 10
162.0394989852
 20
154.1054588338
 30
0.0
 11
177.7179264002
 21
154.1054588338
 31
0.0
  0
LINE
  5
10C
330
1F
100
AcDbEntity
  8
0
  6
HIDDEN
 62
     7
370
     0
100
AcDbLine
 10
177.7179264002
 20
81.3054558416
 30
0.0
 11
162.0394989852
 21
81.3054558416
 31
0.0
  0
LINE
  5
10D
330
1F
100
AcDbEntity
  8
0
  6
HIDDEN
 62
     7
370
     0
100
AcDbLine
 10
162.867926015
 20
162.6054909607
 30
0.0
 11
167.0912554958
 21
162.6054909607
 31
0.0
  0
LINE
  5
10E
330
1F
100
AcDbEntity
  8
0
  6
HIDDEN
 62
     7
370
     0
100
AcDbLine
 10
172.4445973062
 20
162.6054909607
 30
0.0
 11
177.7179264002
 21
162.6054909607
 31
0.0
  0
LINE
  5
10F
330
1F
100
AcDbEntity
  8
0
  6
HIDDEN
 62
     7
370
     0
100
AcDbLine
 10
162.867926015
 20
162.6054909607
 30
0.0
 11
162.867926015
 21
156.1054591616
 31
0.0
  0
LINE
  5
110
330
1F
100
AcDbEntity
  8
0
  6
HIDDEN
 62
     7
370
     0
100
AcDbLine
 10
166.98787869
 20
70.4195429166
 30
0.0
 11
162.867926015
 21
70.4195429166
 31
0.0
  0
LINE
  5
111
330
1F
100
AcDbEntity
  8
0
  6
HIDDEN
 62
     7
370
     0
100
AcDbLine
 10
177.7179264002
 20
70.4195429166
 30
0.0
 11
172.5479741119
 21
70.4195429166
 31
0.0
  0
LINE
  5
112
330
1F
100
AcDbEntity
  8
0
  6
HIDDEN
 62
     7
370
     0
100
AcDbLine
 10
162.867926015
 20
70.4195429166
 30
0.0
 11
162.867926015
 21
79.3054555138
 31
0.0
  0
LINE
  5
113
330
1F
100
AcDbEntity
  8
0
  6
HIDDEN
 62
     7
370
     0
100
AcDbLine
 10
67.0679253065
 20
104.1054571574
 30
0.0
 11
67.0679253065
 21
129.1054575299
 31
0.0
  0
LINE
  5
114
330
1F
100
AcDbEntity
  8
0
  6
HIDDEN
 62
     7
370
     0
100
AcDbLine
 10
70.3525286638
 20
106.1054574852
 30
0.0
 11
70.3525286638
 21
127.1054572021
 31
0.0
  0
LINE
  5
115
330
1F
100
AcDbEntity
  8
0
  6
HIDDEN
 62
     7
370
     0
100
AcDbLine
 10
119.0679263794
 20
106.1054574852
 30
0.0
 11
119.0679263794
 21
127.1054572021
 31
0.0
  0
LINE
  5
116
330
1F
100
AcDbEntity
  8
0
  6
HIDDEN
 62
     7
370
     0
100
AcDbLine
 10
122.8233058476
 20
112.3554571127
 30
0.0
 11
122.8233058476
 21
120.8554575746
 31
0.0
  0
LINE
  5
117
330
1F
100
AcDbEntity
  8
0
  6
HIDDEN
 62
     7
370
     0
100
AcDbLine
 10
229.617927643
 20
139.6054573884
 30
0.0
 11
235.1179238879
 21
139.6054573884
 31
0.0
  0
LINE
  5
118
330
1F
100
AcDbEntity
  8
0
  6
HIDDEN
 62
     7
370
     0
100
AcDbLine
 10
224.1179239475
 20
139.6054573884
 30
0.0
 11
229.617927643
 21
139.6054573884
 31
0.0
  0
SPLINE
  5
119
330
1F
100
AcDbEntity
  8
0
  6
HIDDEN
 62
     7
370
     0
100
AcDbSpline
210
0.0
220
0.0
230
1.0
 70
    11
 71
     3
 72
    62
 73
    58
 74
     0
 42
0.000000001
 43
0.00000001
 40
0.0
 40
0.0
 40
0.0
 40
0.0
 40
0.0312500000000001
 40
0.0312500000000001
 40
0.0625000000000003
 40
0.0625000000000003
 40
0.1250000000000002
 40
0.1250000000000002
 40
0.1875000000000001
 40
0.1875000000000001
 40
0.2187499999999999
 40
0.2187499999999999
 40
0.2499999999999998
 40
0.2499999999999998
 40
0.2812499999999996
 40
0.2812499999999996
 40
0.3124999999999995
 40
0.3124999999999995
 40
0.3437499999999993
 40
0.3437499999999993
 40
0.3749999999999992
 40
0.3749999999999992
 40
0.437499999999999
 40
0.437499999999999
 40
0.4687499999999991
 40
0.4687499999999991
 40
0.4999999999999992
 40
0.4999999999999992
 40
0.5312499999999992
 40
0.5312499999999992
 40
0.5624999999999992
 40
0.5624999999999992
 40
0.5937499999999993
 40
0.5937499999999993
 40
0.6249999999999993
 40
0.6249999999999993
 40
0.6562499999999993
 40
0.6562499999999993
 40
0.6874999999999993
 40
0.6874999999999993
 40
0.7187499999999994
 40
0.7187499999999994
 40
0.7499999999999996
 40
0.7499999999999996
 40
0.7812499999999997
 40
0.7812499999999997
 40
0.8124999999999998
 40
0.8124999999999998
 40
0.8749999999999999
 40
0.8749999999999999
 40
0.9062499999999999
 40
0.9062499999999999
 40
0.9374999999999999
 40
0.9374999999999999
 40
0.96875
 40
0.96875
 40
1.0
 40
1.0
 40
1.0
 40
1.0
 10
172.8679261647792
 20
115.8958429715862
 30
0.0
 10
173.0091243887591
 20
115.8958429715862
 30
0.0
 10
173.1474022657729
 20
115.9118543815777
 30
0.0
 10
173.4185683369808
 20
115.9735839472007
 30
0.0
 10
173.5527716644403
 20
116.0201217106554
 30
0.0
 10
173.9318348442305
 20
116.1970980393904
 30
0.0
 10
174.1608417659243
 20
116.3675243330995
 30
0.0
 10
174.541872384927
 20
116.7734106105229
 30
0.0
 10
174.6974954618487
 20
117.0130810518588
 30
0.0
 10
174.8565659384173
 20
117.3935578791755
 30
0.0
 10
174.8982930835607
 20
117.5268266144806
 30
0.0
 10
174.9535637847027
 20
117.7918078501094
 30
0.0
 10
174.9676437161925
 20
117.9237731648272
 30
0.0
 10
174.9682002825137
 20
118.1864504746414
 30
0.0
 10
174.9542110050931
 20
118.316830338599
 30
0.0
 10
174.8997294858574
 20
118.5631742693222
 30
0.0
 10
174.8588790277025
 20
118.681828539305
 30
0.0
 10
174.7522650608431
 20
118.9046548060603
 30
0.0
 10
174.6875129185701
 20
119.0073399170448
 30
0.0
 10
174.5359543766175
 20
119.1974631699582
 30
0.0
 10
174.4486162534445
 20
119.2849699611775
 30
0.0
 10
174.1628398324829
 20
119.5172374566261
 30
0.0
 10
173.9333034840171
 20
119.6376861992687
 30
0.0
 10
173.5569853480229
 20
119.7587827915704
 30
0.0
 10
173.4246524396622
 20
119.7898909250066
 30
0.0
 10
173.1506197806713
 20
119.8318381645622
 30
0.0
 10
173.0125946210492
 20
119.8422683991719
 30
0.0
 10
172.7345232398305
 20
119.8428242980387
 30
0.0
 10
172.5928103011601
 20
119.8325458392086
 30
0.0
 10
172.3203880454798
 20
119.7917226545154
 30
0.0
 10
172.1885599009827
 20
119.7614293186407
 30
0.0
 10
171.9331610053781
 20
119.6801621283498
 30
0.0
 10
171.8129950021888
 20
119.6302142774915
 30
0.0
 10
171.5878235896325
 20
119.5118930662935
 30
0.0
 10
171.4816725282981
 20
119.442599957211
 30
0.0
 10
171.2902252395959
 20
119.2877853086172
 30
0.0
 10
171.2042912256764
 20
119.2021993207466
 30
0.0
 10
171.0518789076364
 20
119.0125156486695
 30
0.0
 10
170.9856954173489
 20
118.908094387599
 30
0.0
 10
170.8795137187978
 20
118.6880630477916
 30
0.0
 10
170.838533655582
 20
118.5714145616822
 30
0.0
 10
170.7824535147847
 20
118.3230131806929
 30
0.0
 10
170.7682293393434
 20
118.1939031918887
 30
0.0
 10
170.7676326554719
 20
117.9326481260566
 30
0.0
 10
170.7814012229703
 20
117.7978418353839
 30
0.0
 10
170.8362512899124
 20
117.5313867210295
 30
0.0
 10
170.8767478031889
 20
117.4006527863309
 30
0.0
 10
171.036210274365
 20
117.0162373323273
 30
0.0
 10
171.1908786986792
 20
116.7770783004505
 30
0.0
 10
171.4791867300238
 20
116.4694189410067
 30
0.0
 10
171.5832115453717
 20
116.3767458242424
 30
0.0
 10
171.8076308035504
 20
116.2116029816028
 30
0.0
 10
171.9295615914109
 20
116.1385621129236
 30
0.0
 10
172.1820187428369
 20
116.0205401966512
 30
0.0
 10
172.3129052727541
 20
115.9748924910335
 30
0.0
 10
172.5848461904669
 20
115.9123720515663
 30
0.0
 10
172.7267279407994
 20
115.8958429715862
 30
0.0
 10
172.8679261647793
 20
115.8958429715862
 30
0.0
  0
SPLINE
  5
11A
330
1F
100
AcDbEntity
  8
0
  6
HIDDEN
 62
     7
370
     0
100
AcDbSpline
210
0.0
220
0.0
230
1.0
 70
     8
 71
     3
 72
     8
 73
     4
 74
     0
 42
0.000000001
 43
0.00000001
 40
0.0
 40
0.0
 40
0.0
 40
0.0
 40
1.0
 40
1.0
 40
1.0
 40
1.0
 10
172.0447459886198
 20
126.373979379138
 30
0.0
 10
172.256173378621
 20
126.3814888889205
 30
0.0
 10
172.4586419251538
 20
126.4356124185551
 30
0.0
 10
172.6448525242911
 20
126.5203407057803
 30
0.0
  0
ELLIPSE
  5
11B
330
1F
100
AcDbEntity
  8
0
  6
HIDDEN
 62
     7
370
     0
100
AcDbEllipse
 10
172.8679261648
 20
128.335967455
 30
0.0
 11
-1.760776919379055
 21
2.232245799914438
 31
0.0
210
0.0
220
0.0
230
1.0
 40
0.5126701559
 41
5.395150933160712
 42
8.323890913123108
  0
SPLINE
  5
11C
330
1F
100
AcDbEntity
  8
0
  6
HIDDEN
 62
     7
370
     0
100
AcDbSpline
210
0.0
220
0.0
230
1.0
 70
     8
 71
     3
 72
     8
 73
     4
 74
     0
 42
0.000000001
 43
0.00000001
 40
0.0
 40
0.0
 40
0.0
 40
0.0
 40
1.0
 40
1.0
 40
1.0
 40
1.0
 10
172.644852524292
 20
130.444719473715
 30
0.0
 10
172.4583281750072
 20
130.3223990578143
 30
0.0
 10
172.255773276481
 20
130.1813138971492
 30
0.0
 10
172.0447459886192
 20
130.0048302613638
 30
0.0
  0
ELLIPSE
  5
11D
330
1F
100
AcDbEntity
  8
0
  6
HIDDEN
 62
     7
370
     0
100
AcDbEllipse
 10
172.8679261648
 20
128.335967455
 30
0.0
 11
1.760776919379055
 21
1.388886188042932
 31
0.0
210
0.0
220
0.0
230
1.0
 40
0.8239737799
 41
1.397255033323921
 42
3.733259041931035
  0
LWPOLYLINE
  5
11E
330
1F
100
AcDbEntity
  8
0
  6
HIDDEN
 62
     7
370
     0
100
AcDbPolyline
 90
       19
 70
   128
 43
0.0
 10
172.8679262572
 20
128.0903941547
 10
173.586168746
 20
128.2094022786
 10
174.2177805402
 20
128.552071244
 10
174.6865794533
 20
129.0770717492
 10
174.936023029
 20
129.7210794469
 10
174.936023029
 20
130.4064183091
 10
174.6865794533
 20
131.0504260068
 10
174.2177805402
 20
131.575426512
 10
173.586168746
 20
131.9180954774
 10
172.8679262572
 20
132.0371036013
 10
172.1496837684
 20
131.9180954774
 10
171.5180719741
 20
131.575426512
 10
171.0492730611
 20
131.0504260068
 10
170.7998294853
 20
130.4064183091
 10
170.7998294853
 20
129.7210794469
 10
171.0492730611
 20
129.0770717492
 10
171.5180719741
 20
128.552071244
 10
172.1496837684
 20
128.2094022786
 10
172.8679262572
 20
128.0903941547
  0
LINE
  5
11F
330
1F
100
AcDbEntity
  8
0
  6
HIDDEN
 62
     7
370
     0
100
AcDbLine
 10
167.8579258271
 20
151.9985016962
 30
0.0
 11
167.8579258271
 21
146.4554578592
 31
0.0
  0
LINE
  5
120
330
1F
100
AcDbEntity
  8
0
  6
HIDDEN
 62
     7
370
     0
100
AcDbLine
 10
171.6779260435
 20
151.9985016962
 30
0.0
 11
171.6779260435
 21
146.4554578592
 31
0.0
  0
SPLINE
  5
121
330
1F
100
AcDbEntity
  8
0
  6
HIDDEN
 62
     7
370
     0
100
AcDbSpline
210
0.0
220
0.0
230
1.0
 70
     8
 71
     3
 72
    14
 73
    10
 74
     0
 42
0.000000001
 43
0.00000001
 40
0.0
 40
0.0
 40
0.0
 40
0.0
 40
0.25
 40
0.25
 40
0.5
 40
0.5
 40
0.75
 40
0.75
 40
1.0
 40
1.0
 40
1.0
 40
1.0
 10
170.8779261647791
 20
133.5807469005932
 30
0.0
 10
170.9523517169137
 20
133.6716043553748
 30
0.0
 10
171.0342299765271
 20
133.7608149385805
 30
0.0
 10
171.2072161227027
 20
133.9362392573724
 30
0.0
 10
171.2978879425638
 20
134.0217742129992
 30
0.0
 10
171.4652514919081
 20
134.1826258259377
 30
0.0
 10
171.5417023168746
 20
134.2583579148341
 30
0.0
 10
171.647995401713
 20
134.3899489384096
 30
0.0
 10
171.6779261647793
 20
134.4469491133158
 30
0.0
 10
171.6779261647793
 20
134.4891463862679
 30
0.0
  0
SPLINE
  5
122
330
1F
100
AcDbEntity
  8
0
  6
HIDDEN
 62
     7
370
     0
100
AcDbSpline
210
0.0
220
0.0
230
1.0
 70
     8
 71
     3
 72
    14
 73
    10
 74
     0
 42
0.000000001
 43
0.00000001
 40
0.0
 40
0.0
 40
0.0
 40
0.0
 40
0.25
 40
0.25
 40
0.5
 40
0.5
 40
0.75
 40
0.75
 40
1.0
 40
1.0
 40
1.0
 40
1.0
 10
171.6779261647793
 20
130.3571051876364
 30
0.0
 10
171.6779261647793
 20
130.3146047699819
 30
0.0
 10
171.6482127059625
 20
130.2873328634992
 30
0.0
 10
171.5421313390704
 20
130.2737800895321
 30
0.0
 10
171.4657644099059
 20
130.288225646673
 30
0.0
 10
171.2970048653773
 20
130.3606018106929
 30
0.0
 10
171.2062080529055
 20
130.4176747458103
 30
0.0
 10
171.0346431126981
 20
130.5588326793272
 30
0.0
 10
170.9525818724036
 20
130.6434098944108
 30
0.0
 10
170.8779261647791
 20
130.73678305754
 30
0.0
  0
LINE
  5
123
330
1F
100
AcDbEntity
  8
0
  6
HIDDEN
 62
     7
370
     0
100
AcDbLine
 10
171.6779260435
 20
102.8081955915
 30
0.0
 11
171.6779260435
 21
98.6761548152
 31
0.0
  0
LINE
  5
124
330
1F
100
AcDbEntity
  8
0
  6
HIDDEN
 62
     7
370
     0
100
AcDbLine
 10
166.5347651117
 20
155.1165361484
 30
0.0
 11
166.5347651117
 21
146.4554578592
 31
0.0
  0
LINE
  5
125
330
1F
100
AcDbEntity
  8
0
  6
HIDDEN
 62
     7
370
     0
100
AcDbLine
 10
173.0010876902
 20
102.3083100622
 30
0.0
 11
173.0010876902
 21
97.6165164789
 31
0.0
  0
LINE
  5
126
330
1F
100
AcDbEntity
  8
0
  6
HIDDEN
 62
     7
370
     0
100
AcDbLine
 10
173.0010876902
 20
155.1165361484
 30
0.0
 11
173.0010876902
 21
146.4554578592
 31
0.0
  0
ARC
  5
127
330
1F
100
AcDbEntity
  8
0
  6
HIDDEN
 62
     7
370
     0
100
AcDbCircle
 10
173.1139789267
 20
129.175445019
 30
0.0
 40
1.353195702694798
100
AcDbArc
 50
110.2844232439
 51
142.1998959299
  0
ARC
  5
128
330
1F
100
AcDbEntity
  8
0
  6
HIDDEN
 62
     7
370
     0
100
AcDbCircle
 10
172.1713266962
 20
127.1584275739
 30
0.0
 40
0.7945949542257815
100
AcDbArc
 50
260.8336111241
 51
306.5791809456
  0
LWPOLYLINE
  5
129
330
1F
100
AcDbEntity
  8
0
  6
HIDDEN
 62
     7
370
     0
100
AcDbPolyline
 90
       19
 70
   128
 43
0.0
 10
162.9026890271
 20
129.3184090932
 10
163.0900082648
 20
128.7971171146
 10
163.3939593569
 20
128.4747109344
 10
163.7778817215
 20
128.390078858
 10
164.1954681375
 20
128.553428181
 10
164.5963517488
 20
128.9450558429
 10
164.9321806156
 20
129.517726094
 10
165.1624477938
 20
130.2023664643
 10
165.2593803131
 20
130.9164003064
 10
165.2112868153
 20
131.5737026339
 10
165.0239675776
 20
132.0949946125
 10
164.7200160199
 20
132.4173998614
 10
164.336094121
 20
132.5020328691
 10
163.9185072393
 20
132.3386844774
 10
163.517623628
 20
131.9470558842
 10
163.1817952268
 20
131.3743856331
 10
162.9515275829
 20
130.6897452628
 10
162.8545950637
 20
129.9757114207
 10
162.9026890271
 20
129.3184090932
  0
LWPOLYLINE
  5
12A
330
1F
100
AcDbEntity
  8
0
  6
HIDDEN
 62
     7
370
     0
100
AcDbPolyline
 90
       23
 70
   128
 43
0.0
 10
162.1396571402
 20
128.8993930971
 10
162.3449651063
 20
128.2711862182
 10
162.6672325195
 20
127.8243804877
 10
163.0803509154
 20
127.5951736202
 10
163.5508518205
 20
127.6021333938
 10
164.0406180643
 20
127.844698221
 10
164.5099720456
 20
128.3032144015
 10
164.9208892607
 20
128.9405379971
 10
165.240079584
 20
129.7050355529
 10
165.4416839131
 20
130.534772255
 10
165.5093701095
 20
131.3625271027
 10
165.4376540803
 20
132.1212420767
 10
165.2323458814
 20
132.7494480242
 10
164.9100784682
 20
133.1962537547
 10
164.4969600723
 20
133.4254615535
 10
164.0264591672
 20
133.4185008486
 10
163.5366929234
 20
133.1759360214
 10
163.0673389421
 20
132.7174198409
 10
162.656421727
 20
132.0800971766
 10
162.3372316365
 20
131.3155996208
 10
162.1356270746
 20
130.4858629187
 10
162.067941111
 20
129.6581071397
 10
162.1396571402
 20
128.8993930971
  0
LWPOLYLINE
  5
12B
330
1F
100
AcDbEntity
  8
0
  6
HIDDEN
 62
     7
370
     0
100
AcDbPolyline
 90
       21
 70
   128
 43
0.0
 10
172.8679262572
 20
127.764311113
 10
173.6404685774
 20
127.8792912667
 10
174.3373893671
 20
128.212974832
 10
174.8904683166
 20
128.7326993947
 10
175.2455667131
 20
129.387590528
 10
175.3679257356
 20
130.1135425051
 10
175.2455667131
 20
130.8394954135
 10
174.8904683166
 20
131.4943865468
 10
174.3373893671
 20
132.0141111096
 10
173.6404685774
 20
132.3477946748
 10
172.8679262572
 20
132.4627738973
 10
172.095383937
 20
132.3477946748
 10
171.3984631472
 20
132.0141111096
 10
170.8453832664
 20
131.4943865468
 10
170.4902848699
 20
130.8394954135
 10
170.3679258474
 20
130.1135425051
 10
170.4902848699
 20
129.387590528
 10
170.8453832664
 20
128.7326993947
 10
171.3984631472
 20
128.212974832
 10
172.095383937
 20
127.8792912667
 10
172.8679262572
 20
127.764311113
  0
SPLINE
  5
12C
330
1F
100
AcDbEntity
  8
0
  6
HIDDEN
 62
     7
370
     0
100
AcDbSpline
210
0.0
220
0.0
230
1.0
 70
     8
 71
     3
 72
    34
 73
    30
 74
     0
 42
0.000000001
 43
0.00000001
 40
0.0
 40
0.0
 40
0.0
 40
0.0
 40
0.0624999999999998
 40
0.0624999999999998
 40
0.1249999999999996
 40
0.1249999999999996
 40
0.1874999999999994
 40
0.1874999999999994
 40
0.2499999999999986
 40
0.2499999999999986
 40
0.3124999999999978
 40
0.3124999999999978
 40
0.3749999999999971
 40
0.3749999999999971
 40
0.4999999999999964
 40
0.4999999999999964
 40
0.6249999999999971
 40
0.6249999999999971
 40
0.6874999999999976
 40
0.6874999999999976
 40
0.749999999999998
 40
0.749999999999998
 40
0.8124999999999986
 40
0.8124999999999986
 40
0.874999999999999
 40
0.874999999999999
 40
0.9374999999999994
 40
0.9374999999999994
 40
1.0
 40
1.0
 40
1.0
 40
1.0
 10
173.0010876722412
 20
135.5943977316605
 30
0.0
 10
173.1604795000291
 20
135.5865576357377
 30
0.0
 10
173.3164819834726
 20
135.5648989876473
 30
0.0
 10
173.6219914995499
 20
135.4950507601545
 30
0.0
 10
173.7728858345621
 20
135.4462250578262
 30
0.0
 10
174.0607851792529
 20
135.3233011044189
 30
0.0
 10
174.1967315822126
 20
135.2499935962846
 30
0.0
 10
174.4529141978046
 20
135.0799829725132
 30
0.0
 10
174.5740964855637
 20
134.9821091803118
 30
0.0
 10
174.7912425574365
 20
134.7695250048798
 30
0.0
 10
174.8882044303968
 20
134.6544790663502
 30
0.0
 10
175.0587668662224
 20
134.4066179462301
 30
0.0
 10
175.1320069194343
 20
134.2735844491645
 30
0.0
 10
175.3068873761832
 20
133.8640764330344
 30
0.0
 10
175.3679253371591
 20
133.5661157832593
 30
0.0
 10
175.3679269923822
 20
132.9746742273849
 30
0.0
 10
175.3068923827959
 20
132.6745006774083
 30
0.0
 10
175.132002615394
 20
132.2592693971405
 30
0.0
 10
175.0587589099696
 20
132.1239142788937
 30
0.0
 10
174.888198194233
 20
131.8710149475071
 30
0.0
 10
174.7912344786394
 20
131.7532496698993
 30
0.0
 10
174.5740741500523
 20
131.5351193745307
 30
0.0
 10
174.4528928913655
 20
131.4344160493837
 30
0.0
 10
174.1967226644268
 20
131.2591723565505
 30
0.0
 10
174.060779314764
 20
131.1834273874599
 30
0.0
 10
173.7728766115809
 20
131.0562590121576
 30
0.0
 10
173.6219864156641
 20
131.0056577398301
 30
0.0
 10
173.3164809119585
 20
130.9332286400823
 30
0.0
 10
173.160479513695
 20
130.9107428686853
 30
0.0
 10
173.0010876722412
 20
130.9026044087904
 30
0.0
  0
SPLINE
  5
12D
330
1F
100
AcDbEntity
  8
0
  6
HIDDEN
 62
     7
370
     0
100
AcDbSpline
210
0.0
220
0.0
230
1.0
 70
     8
 71
     3
 72
    10
 73
     6
 74
     0
 42
0.000000001
 43
0.00000001
 40
0.0
 40
0.0
 40
0.0
 40
0.0
 40
0.5
 40
0.5
 40
1.0
 40
1.0
 40
1.0
 40
1.0
 10
173.0010876722412
 20
130.9026044087904
 30
0.0
 10
172.7783606453677
 20
130.7591159084967
 30
0.0
 10
172.5566747581427
 20
130.6443951627638
 30
0.0
 10
172.1154539202907
 20
130.4746347334059
 30
0.0
 10
171.8958952728918
 20
130.4192147390185
 30
0.0
 10
171.6779261647796
 20
130.4027194096489
 30
0.0
  0
SPLINE
  5
12E
330
1F
100
AcDbEntity
  8
0
  6
HIDDEN
 62
     7
370
     0
100
AcDbSpline
210
0.0
220
0.0
230
1.0
 70
     8
 71
     3
 72
    10
 73
     6
 74
     0
 42
0.000000001
 43
0.00000001
 40
0.0
 40
0.0
 40
0.0
 40
0.0
 40
0.5
 40
0.5
 40
1.0
 40
1.0
 40
1.0
 40
1.0
 10
171.6779261647796
 20
134.5347606082804
 30
0.0
 10
171.8948169973004
 20
134.771799547729
 30
0.0
 10
172.1139696339592
 20
134.9739697827224
 30
0.0
 10
172.5554541342281
 20
135.3247218542411
 30
0.0
 10
172.7786565995015
 20
135.473397946638
 30
0.0
 10
173.0010876722412
 20
135.5943977316605
 30
0.0
  0
SPLINE
  5
12F
330
1F
100
AcDbEntity
  8
0
  6
HIDDEN
 62
     7
370
     0
100
AcDbSpline
210
0.0
220
0.0
230
1.0
 70
     8
 71
     3
 72
    16
 73
    12
 74
     0
 42
0.000000001
 43
0.00000001
 40
0.0
 40
0.0
 40
0.0
 40
0.0
 40
0.2499999999999998
 40
0.2499999999999998
 40
0.4999999999999997
 40
0.4999999999999997
 40
0.7499999999999996
 40
0.7499999999999996
 40
0.8749999999999998
 40
0.8749999999999998
 40
1.0
 40
1.0
 40
1.0
 40
1.0
 10
170.8779261647793
 20
130.7367830575398
 30
0.0
 10
170.7125120582992
 20
130.9436692935651
 30
0.0
 10
170.5863147273235
 20
131.1695379913741
 30
0.0
 10
170.4119084289927
 20
131.6584072369868
 30
0.0
 10
170.3680783898958
 20
131.9101742903314
 30
0.0
 10
170.3677747169258
 20
132.4219536149136
 30
0.0
 10
170.4116315769861
 20
132.6730083239963
 30
0.0
 10
170.5415533362533
 20
133.0338568921383
 30
0.0
 10
170.5956681476612
 20
133.1511296604869
 30
0.0
 10
170.7223451378046
 20
133.3736186118257
 30
0.0
 10
170.7952188581655
 20
133.4797792200692
 30
0.0
 10
170.8779261647793
 20
133.5807469005934
 30
0.0
  0
LINE
  5
130
330
1F
100
AcDbEntity
  8
0
  6
HIDDEN
 62
     7
370
     0
100
AcDbLine
 10
223.8627713644
 20
140.9054570427
 30
0.0
 11
226.1914652311
 21
140.9054570427
 31
0.0
  0
LINE
  5
131
330
1F
100
AcDbEntity
  8
0
  6
HIDDEN
 62
     7
370
     0
100
AcDbLine
 10
232.9996791207
 20
140.9054570427
 30
0.0
 11
235.6179249012
 21
140.9054570427
 31
0.0
  0
LINE
  5
132
330
1F
100
AcDbEntity
  8
0
  6
HIDDEN
 62
     7
370
     0
100
AcDbLine
 10
223.6179229342
 20
140.9054570427
 30
0.0
 11
223.8627713644
 21
140.9054570427
 31
0.0
  0
LINE
  5
133
330
1F
100
AcDbEntity
  8
0
  6
HIDDEN
 62
     7
370
     0
100
AcDbLine
 10
223.8627713644
 20
133.5025713374
 30
0.0
 11
235.6179249012
 21
133.5025713374
 31
0.0
  0
LINE
  5
134
330
1F
100
AcDbEntity
  8
0
  6
HIDDEN
 62
     7
370
     0
100
AcDbLine
 10
223.6179229342
 20
133.5025713374
 30
0.0
 11
223.8627713644
 21
133.5025713374
 31
0.0
  0
LINE
  5
135
330
1F
100
AcDbEntity
  8
0
  6
HIDDEN
 62
     7
370
     0
100
AcDbLine
 10
226.2417566501
 20
125.1054578056
 30
0.0
 11
233.1377309286
 21
125.1054578056
 31
0.0
  0
LINE
  5
136
330
1F
100
AcDbEntity
  8
0
  6
HIDDEN
 62
     7
370
     0
100
AcDbLine
 10
226.0981243574
 20
125.1054578056
 30
0.0
 11
226.2417566501
 21
125.1054578056
 31
0.0
  0
SPLINE
  5
137
330
1F
100
AcDbEntity
  8
0
  6
HIDDEN
 62
     7
370
     0
100
AcDbSpline
210
0.0
220
0.0
230
1.0
 70
     8
 71
     3
 72
    10
 73
     6
 74
     0
 42
0.000000001
 43
0.00000001
 40
0.0
 40
0.0
 40
0.0
 40
0.0
 40
0.439126902867509
 40
0.7513757665529871
 40
1.0
 40
1.0
 40
1.0
 40
1.0
 10
227.230098518047
 20
141.4695591261005
 30
0.0
 10
227.7121684954685
 20
141.2640856504171
 30
0.0
 10
228.5370227607208
 20
140.9125066665521
 30
0.0
 10
229.7360757226544
 20
141.0687974643326
 30
0.0
 10
230.3328705687557
 20
141.3464715541122
 30
0.0
 10
230.5974182211491
 20
141.4695591261005
 30
0.0
  0
SPLINE
  5
138
330
1F
100
AcDbEntity
  8
0
  6
HIDDEN
 62
     7
370
     0
100
AcDbSpline
210
0.0
220
0.0
230
1.0
 70
     8
 71
     3
 72
    10
 73
     6
 74
     0
 42
0.000000001
 43
0.00000001
 40
0.0
 40
0.0
 40
0.0
 40
0.0
 40
0.4391283772856966
 40
0.7513760919468718
 40
1.0
 40
1.0
 40
1.0
 40
1.0
 10
230.5974182211491
 20
141.4695591261005
 30
0.0
 10
230.9392651672195
 20
141.2640854148746
 30
0.0
 10
231.5241866518431
 20
140.9125070561882
 30
0.0
 10
232.3744546464646
 20
141.0687977206878
 30
0.0
 10
232.7976519088987
 20
141.3464715202726
 30
0.0
 10
232.9852473460766
 20
141.4695591261005
 30
0.0
  0
SPLINE
  5
139
330
1F
100
AcDbEntity
  8
0
  6
HIDDEN
 62
     7
370
     0
100
AcDbSpline
210
0.0
220
0.0
230
1.0
 70
     8
 71
     3
 72
    11
 73
     7
 74
     0
 42
0.000000001
 43
0.00000001
 40
0.0
 40
0.0
 40
0.0
 40
0.0
 40
0.1849308712491195
 40
0.5198461600439296
 40
0.8714436082207537
 40
1.0
 40
1.0
 40
1.0
 40
1.0
 10
232.9852473460766
 20
141.4695591261005
 30
0.0
 10
232.9282354249268
 20
141.3759536315612
 30
0.0
 10
232.7679732248612
 20
141.1128258121411
 30
0.0
 10
232.4688248857186
 20
140.9184193439091
 30
0.0
 10
232.1925385715575
 20
141.156478929989
 30
0.0
 10
232.0452041001072
 20
141.4034382392626
 30
0.0
 10
232.005756767902
 20
141.4695591261005
 30
0.0
  0
SPLINE
  5
13A
330
1F
100
AcDbEntity
  8
0
  6
HIDDEN
 62
     7
370
     0
100
AcDbSpline
210
0.0
220
0.0
230
1.0
 70
     8
 71
     3
 72
    10
 73
     6
 74
     0
 42
0.000000001
 43
0.00000001
 40
0.0
 40
0.0
 40
0.0
 40
0.0
 40
0.4391288602008199
 40
0.7513757483694943
 40
0.9999999999999999
 40
0.9999999999999999
 40
0.9999999999999999
 40
0.9999999999999999
 10
232.005756767902
 20
141.4695591261005
 30
0.0
 10
231.5236841754515
 20
141.264085232299
 30
0.0
 10
230.6988291323206
 20
140.9125071086137
 30
0.0
 10
229.4997775508885
 20
141.0687983478128
 30
0.0
 10
228.9029847521865
 20
141.3464715216008
 30
0.0
 10
228.6384370647999
 20
141.4695591261005
 30
0.0
  0
SPLINE
  5
13B
330
1F
100
AcDbEntity
  8
0
  6
HIDDEN
 62
     7
370
     0
100
AcDbSpline
210
0.0
220
0.0
230
1.0
 70
     8
 71
     3
 72
    10
 73
     6
 74
     0
 42
0.000000001
 43
0.00000001
 40
0.0
 40
0.0
 40
0.0
 40
0.0
 40
0.4391277957679227
 40
0.7513750969336251
 40
0.9999999999999999
 40
0.9999999999999999
 40
0.9999999999999999
 40
0.9999999999999999
 10
228.6384370647999
 20
141.4695591261005
 30
0.0
 10
228.2965898895337
 20
141.2640853047952
 30
0.0
 10
227.7116680127417
 20
140.9125067577561
 30
0.0
 10
226.8614010493991
 20
141.068798665321
 30
0.0
 10
226.4381987261235
 20
141.3464715575153
 30
0.0
 10
226.2506004892918
 20
141.4695591261005
 30
0.0
  0
SPLINE
  5
13C
330
1F
100
AcDbEntity
  8
0
  6
HIDDEN
 62
     7
370
     0
100
AcDbSpline
210
0.0
220
0.0
230
1.0
 70
     8
 71
     3
 72
    11
 73
     7
 74
     0
 42
0.000000001
 43
0.00000001
 40
0.0
 40
0.0
 40
0.0
 40
0.0
 40
0.128556296377298
 40
0.4801535642213162
 40
0.8150692319735838
 40
1.0
 40
1.0
 40
1.0
 40
1.0
 10
226.2506004892918
 20
141.4695591261005
 30
0.0
 10
226.2900478713145
 20
141.4034382343073
 30
0.0
 10
226.4373825535598
 20
141.1564788650767
 30
0.0
 10
226.7136658889045
 20
140.9184194231975
 30
0.0
 10
227.0128254141124
 20
141.1128254979927
 30
0.0
 10
227.1730869096051
 20
141.3759536242899
 30
0.0
 10
227.230098518047
 20
141.4695591261005
 30
0.0
  0
LINE
  5
13D
330
1F
100
AcDbEntity
  8
0
  6
HIDDEN
 62
     7
370
     0
100
AcDbLine
 10
230.5974182211
 20
134.6054565688
 30
0.0
 11
228.9137583696
 21
134.6054565688
 31
0.0
  0
LINE
  5
13E
330
1F
100
AcDbEntity
  8
0
  6
HIDDEN
 62
     7
370
     0
100
AcDbLine
 10
226.7403495037
 20
133.6054582675
 30
0.0
 11
232.6179262721
 21
133.6054582675
 31
0.0
  0
LINE
  5
13F
330
1F
100
AcDbEntity
  8
0
  6
HIDDEN
 62
     7
370
     0
100
AcDbLine
 10
226.7403495037
 20
133.6054582675
 30
0.0
 11
226.6179290139
 21
133.6054582675
 31
0.0
  0
LINE
  5
140
330
1F
100
AcDbEntity
  8
0
  6
HIDDEN
 62
     7
370
     0
100
AcDbLine
 10
231.7913365089
 20
134.6054565688
 30
0.0
 11
230.5974182211
 21
134.6054565688
 31
0.0
  0
LINE
  5
141
330
1F
100
AcDbEntity
  8
0
  6
HIDDEN
 62
     7
370
     0
100
AcDbLine
 10
230.5974182211
 20
134.6054565688
 30
0.0
 11
230.5974182211
 21
141.4695591261
 31
0.0
  0
LINE
  5
142
330
1F
100
AcDbEntity
  8
0
  6
HIDDEN
 62
     7
370
     0
100
AcDbLine
 10
228.9137583696
 20
134.6054565688
 30
0.0
 11
227.230098518
 21
134.6054565688
 31
0.0
  0
LINE
  5
143
330
1F
100
AcDbEntity
  8
0
  6
HIDDEN
 62
     7
370
     0
100
AcDbLine
 10
227.230098518
 20
134.6054565688
 30
0.0
 11
226.7403495037
 21
134.6054565688
 31
0.0
  0
LINE
  5
144
330
1F
100
AcDbEntity
  8
0
  6
HIDDEN
 62
     7
370
     0
100
AcDbLine
 10
227.230098518
 20
134.6054565688
 30
0.0
 11
227.230098518
 21
141.4695591261
 31
0.0
  0
LINE
  5
145
330
1F
100
AcDbEntity
  8
0
  6
HIDDEN
 62
     7
370
     0
100
AcDbLine
 10
232.9852473461
 20
134.6054565688
 30
0.0
 11
231.7913365089
 21
134.6054565688
 31
0.0
  0
LINE
  5
146
330
1F
100
AcDbEntity
  8
0
  6
HIDDEN
 62
     7
370
     0
100
AcDbLine
 10
226.7403495037
 20
134.6054565688
 30
0.0
 11
226.2506004893
 21
134.6054565688
 31
0.0
  0
LINE
  5
147
330
1F
100
AcDbEntity
  8
0
  6
HIDDEN
 62
     7
370
     0
100
AcDbLine
 10
232.0057567679
 20
134.6054565688
 30
0.0
 11
232.0057567679
 21
141.4695591261
 31
0.0
  0
LINE
  5
148
330
1F
100
AcDbEntity
  8
0
  6
HIDDEN
 62
     7
370
     0
100
AcDbLine
 10
232.9852473461
 20
134.6054565688
 30
0.0
 11
232.9852473461
 21
141.4695591261
 31
0.0
  0
LINE
  5
149
330
1F
100
AcDbEntity
  8
0
  6
HIDDEN
 62
     7
370
     0
100
AcDbLine
 10
228.6384370648
 20
134.6054565688
 30
0.0
 11
228.6384370648
 21
141.4695591261
 31
0.0
  0
LINE
  5
14A
330
1F
100
AcDbEntity
  8
0
  6
HIDDEN
 62
     7
370
     0
100
AcDbLine
 10
226.2506004893
 20
134.6054565688
 30
0.0
 11
226.2506004893
 21
141.4695591261
 31
0.0
  0
LWPOLYLINE
  5
14B
330
1F
100
AcDbEntity
  8
0
  6
HIDDEN
 62
     7
370
     0
100
AcDbPolyline
 90
       19
 70
   128
 43
0.0
 10
172.7331955456
 20
128.1542959218
 10
173.4170824759
 20
128.2229632666
 10
174.0347337448
 20
128.5072867354
 10
174.5116509967
 20
128.9729722371
 10
174.7903101616
 20
129.5638526385
 10
174.8371016704
 20
130.208656617
 10
174.6463817083
 20
130.829614081
 10
174.2411539429
 20
131.3518262063
 10
173.6702941828
 20
131.7123076474
 10
173.0026569687
 20
131.867577747
 10
172.3187700384
 20
131.7989104023
 10
171.7011187696
 20
131.5145869335
 10
171.2242015176
 20
131.0489014318
 10
170.9455423527
 20
130.4580219617
 10
170.8987508439
 20
129.8132170518
 10
171.089470806
 20
129.1922595878
 10
171.4946985715
 20
128.6700474625
 10
172.0655583315
 20
128.3095660215
 10
172.7331955456
 20
128.1542959218
  0
LWPOLYLINE
  5
14C
330
1F
100
AcDbEntity
  8
0
  6
HIDDEN
 62
     7
370
     0
100
AcDbPolyline
 90
       21
 70
   128
 43
0.0
 10
172.6978444033
 20
127.7697546934
 10
173.4769208827
 20
127.8350785901
 10
174.1963852667
 20
128.123435617
 10
174.7858118736
 20
128.6065973868
 10
175.1875006132
 20
129.2372704079
 10
175.3621347719
 20
129.9537182381
 10
175.2926171296
 20
130.6858113562
 10
174.9857537918
 20
131.3618863528
 10
174.4715836369
 20
131.9157653083
 10
173.8004362681
 20
132.2932303478
 10
173.038008111
 20
132.4573312481
 10
172.2589307003
 20
132.3920064201
 10
171.5394663163
 20
132.1036503245
 10
170.9500415721
 20
131.6204885547
 10
170.5483519011
 20
130.9898155337
 10
170.3737186738
 20
130.2733677035
 10
170.4432353847
 20
129.5412745853
 10
170.7500977912
 20
128.8651995887
 10
171.2642688774
 20
128.3113206332
 10
171.9354162463
 20
127.9338555937
 10
172.6978444033
 20
127.7697546934
  0
LWPOLYLINE
  5
14D
330
1F
100
AcDbEntity
  8
0
  6
HIDDEN
 62
     7
370
     0
100
AcDbPolyline
 90
       21
 70
   128
 43
0.0
 10
172.6978444033
 20
128.3682896351
 10
173.4769208827
 20
128.4336144631
 10
174.1963852667
 20
128.7219705587
 10
174.7858118736
 20
129.2051332598
 10
175.1875006132
 20
129.8358053496
 10
175.3621347719
 20
130.5522531798
 10
175.2926171296
 20
131.2843462979
 10
174.9857537918
 20
131.9604212945
 10
174.4715836369
 20
132.51430025
 10
173.8004362681
 20
132.8917652895
 10
173.038008111
 20
133.0558661898
 10
172.2589307003
 20
132.9905413618
 10
171.5394663163
 20
132.7021852662
 10
170.9500415721
 20
132.2190234964
 10
170.5483519011
 20
131.5883504753
 10
170.3737186738
 20
130.8719026451
 10
170.4432353847
 20
130.139809527
 10
170.7500977912
 20
129.4637345304
 10
171.2642688774
 20
128.9098555749
 10
171.9354162463
 20
128.5323914667
 10
172.6978444033
 20
128.3682896351
  0
LWPOLYLINE
  5
14E
330
1F
100
AcDbEntity
  8
0
  6
HIDDEN
 62
     7
370
     0
100
AcDbPolyline
 90
       19
 70
   128
 43
0.0
 10
172.7318609603
 20
130.0170165082
 10
173.4225223311
 20
130.0863646497
 10
174.0462905266
 20
130.373504438
 10
174.5279305153
 20
130.8438027804
 10
174.8093501203
 20
131.4405346816
 10
174.8566054278
 20
132.0917256703
 10
174.6639967435
 20
132.7188335886
 10
174.2547549777
 20
133.2462173482
 10
173.6782411583
 20
133.61026948
 10
173.003991554
 20
133.7670781245
 10
172.3133301832
 20
133.6977318456
 10
171.6895619877
 20
133.4105920573
 10
171.2079210677
 20
132.9402927836
 10
170.9265014627
 20
132.3435608824
 10
170.8792461552
 20
131.6923689624
 10
171.0718557709
 20
131.0652619754
 10
171.4810975366
 20
130.5378772845
 10
172.057611356
 20
130.1738251527
 10
172.7318609603
 20
130.0170165082
  0
LWPOLYLINE
  5
14F
330
1F
100
AcDbEntity
  8
0
  6
HIDDEN
 62
     7
370
     0
100
AcDbPolyline
 90
       19
 70
   128
 43
0.0
 10
172.7318609603
 20
128.5992408698
 10
173.4225223311
 20
128.66858808
 10
174.0462905266
 20
128.9557278683
 10
174.5279305153
 20
129.4260262107
 10
174.8093501203
 20
130.0227590432
 10
174.8566054278
 20
130.6739500319
 10
174.6639967435
 20
131.3010570188
 10
174.2547549777
 20
131.8284417098
 10
173.6782411583
 20
132.1924938416
 10
173.003991554
 20
132.3493034174
 10
172.3133301832
 20
132.2799552759
 10
171.6895619877
 20
131.9928154876
 10
171.2079210677
 20
131.5225171452
 10
170.9265014627
 20
130.9257843127
 10
170.8792461552
 20
130.274593324
 10
171.0718557709
 20
129.647486337
 10
171.4810975366
 20
129.1201016461
 10
172.057611356
 20
128.7560495143
 10
172.7318609603
 20
128.5992408698
  0
LWPOLYLINE
  5
150
330
1F
100
AcDbEntity
  8
0
  6
HIDDEN
 62
     7
370
     0
100
AcDbPolyline
 90
       21
 70
   128
 43
0.0
 10
172.6978444033
 20
128.6042830502
 10
173.4769208827
 20
128.6696078782
 10
174.1963852667
 20
128.9579649051
 10
174.7858118736
 20
129.4411266749
 10
175.1875006132
 20
130.071799696
 10
175.3621347719
 20
130.7882475262
 10
175.2926171296
 20
131.5203406443
 10
174.9857537918
 20
132.1964156409
 10
174.4715836369
 20
132.7502936651
 10
173.8004362681
 20
133.1277587046
 10
173.038008111
 20
133.2918614676
 10
172.2589307003
 20
133.2265366395
 10
171.5394663163
 20
132.9381786813
 10
170.9500415721
 20
132.4550178429
 10
170.5483519011
 20
131.8243448218
 10
170.3737186738
 20
131.1078969916
 10
170.4432353847
 20
130.3758038734
 10
170.7500977912
 20
129.6997288769
 10
171.2642688774
 20
129.1458499213
 10
171.9354162463
 20
128.7683848818
 10
172.6978444033
 20
128.6042830502
  0
LWPOLYLINE
  5
151
330
1F
100
AcDbEntity
  8
0
  6
HIDDEN
 62
     7
370
     0
100
AcDbPolyline
 90
       20
 70
   128
 43
0.0
 10
172.7114510261
 20
128.6172666182
 10
173.4650074043
 20
128.6863567834
 10
174.1538610779
 20
128.9816270178
 10
174.7033637487
 20
129.4710798716
 10
175.0539694451
 20
130.1016755929
 10
175.1676820689
 20
130.8050802504
 10
175.0321802222
 20
131.5050678854
 10
174.6621489995
 20
132.1257850682
 10
174.0976846316
 20
132.5999651631
 10
173.3999573164
 20
132.8762271037
 10
172.6445764773
 20
132.9246298005
 10
171.9133997806
 20
132.7399317702
 10
171.2856594943
 20
132.3421452721
 10
170.8293831446
 20
131.7743765717
 10
170.5940137156
 20
131.0981534948
 10
170.6050592013
 20
130.3867543643
 10
170.8613209896
 20
129.7172712689
 10
171.335028904
 20
129.1622533058
 10
171.9748503067
 20
128.7818434243
 10
172.7114510261
 20
128.6172666182
  0
LWPOLYLINE
  5
152
330
1F
100
AcDbEntity
  8
0
  6
HIDDEN
 62
     7
370
     0
100
AcDbPolyline
 90
       21
 70
   128
 43
0.0
 10
172.6978444033
 20
128.8402773966
 10
173.4769208827
 20
128.9056022247
 10
174.1963852667
 20
129.1939583202
 10
174.7858118736
 20
129.6771210214
 10
175.1875006132
 20
130.3077931111
 10
175.3621347719
 20
131.0242409413
 10
175.2926171296
 20
131.7563340594
 10
174.9857537918
 20
132.432409056
 10
174.4715836369
 20
132.9862889429
 10
173.8004362681
 20
133.3637521197
 10
173.038008111
 20
133.5278548827
 10
172.2589307003
 20
133.4625300547
 10
171.5394663163
 20
133.1741739591
 10
170.9500415721
 20
132.691011258
 10
170.5483519011
 20
132.0603391682
 10
170.3737186738
 20
131.3438904067
 10
170.4432353847
 20
130.6117972886
 10
170.7500977912
 20
129.935722292
 10
171.2642688774
 20
129.3818433364
 10
171.9354162463
 20
129.0043792283
 10
172.6978444033
 20
128.8402773966
  0
LWPOLYLINE
  5
153
330
1F
100
AcDbEntity
  8
0
  6
HIDDEN
 62
     7
370
     0
100
AcDbPolyline
 90
       20
 70
   128
 43
0.0
 10
172.7114510261
 20
128.8532609647
 10
173.4650074043
 20
128.9223511299
 10
174.1538610779
 20
129.2176204329
 10
174.7033637487
 20
129.707074218
 10
175.0539694451
 20
130.3376699393
 10
175.1676820689
 20
131.0410745968
 10
175.0321802222
 20
131.7410622319
 10
174.6621489995
 20
132.3617794146
 10
174.0976846316
 20
132.8359604408
 10
173.3999573164
 20
133.1122205188
 10
172.6445764773
 20
133.1606250783
 10
171.9133997806
 20
132.9759251853
 10
171.2856594943
 20
132.5781386872
 10
170.8293831446
 20
132.0103699868
 10
170.5940137156
 20
131.3341469099
 10
170.6050592013
 20
130.6227487107
 10
170.8613209896
 20
129.9532656153
 10
171.335028904
 20
129.3982467209
 10
171.9748503067
 20
129.0178377708
 10
172.7114510261
 20
128.8532609647
  0
LWPOLYLINE
  5
154
330
1F
100
AcDbEntity
  8
0
  6
HIDDEN
 62
     7
370
     0
100
AcDbPolyline
 90
       21
 70
   128
 43
0.0
 10
172.6978444033
 20
129.0762708118
 10
173.4769208827
 20
129.1415956398
 10
174.1963852667
 20
129.4299526667
 10
174.7858118736
 20
129.9131144365
 10
175.1875006132
 20
130.5437874575
 10
175.3621347719
 20
131.2602352877
 10
175.2926171296
 20
131.9923284059
 10
174.9857537918
 20
132.6684024711
 10
174.4715836369
 20
133.222282358
 10
173.8004362681
 20
133.5997473975
 10
173.038008111
 20
133.7638482978
 10
172.2589307003
 20
133.6985234698
 10
171.5394663163
 20
133.4101673742
 10
170.9500415721
 20
132.9270046731
 10
170.5483519011
 20
132.2963335147
 10
170.3737186738
 20
131.5798847531
 10
170.4432353847
 20
130.847791635
 10
170.7500977912
 20
130.1717166384
 10
171.2642688774
 20
129.6178376829
 10
171.9354162463
 20
129.2403726434
 10
172.6978444033
 20
129.0762708118
  0
LWPOLYLINE
  5
155
330
1F
100
AcDbEntity
  8
0
  6
HIDDEN
 62
     7
370
     0
100
AcDbPolyline
 90
       20
 70
   128
 43
0.0
 10
172.7114510261
 20
129.0892543798
 10
173.4650074043
 20
129.158344545
 10
174.1538610779
 20
129.4536147793
 10
174.7033637487
 20
129.9430676331
 10
175.0539694451
 20
130.5736642857
 10
175.1676820689
 20
131.277068012
 10
175.0321802222
 20
131.977055647
 10
174.6621489995
 20
132.5977728297
 10
174.0976846316
 20
133.071953856
 10
173.3999573164
 20
133.3482139339
 10
172.6445764773
 20
133.3966184934
 10
171.9133997806
 20
133.2119186004
 10
171.2856594943
 20
132.8141321023
 10
170.8293831446
 20
132.2463643332
 10
170.5940137156
 20
131.5701412564
 10
170.6050592013
 20
130.8587421258
 10
170.8613209896
 20
130.1892590304
 10
171.335028904
 20
129.6342410674
 10
171.9748503067
 20
129.2538311859
 10
172.7114510261
 20
129.0892543798
  0
LWPOLYLINE
  5
156
330
1F
100
AcDbEntity
  8
0
  6
HIDDEN
 62
     7
370
     0
100
AcDbPolyline
 90
       21
 70
   128
 43
0.0
 10
172.6978444033
 20
129.3122651582
 10
173.4769208827
 20
129.3775899862
 10
174.1963852667
 20
129.6659460818
 10
174.7858118736
 20
130.1491087829
 10
175.1875006132
 20
130.7797808727
 10
175.3621347719
 20
131.4962287029
 10
175.2926171296
 20
132.228321821
 10
174.9857537918
 20
132.9043977489
 10
174.4715836369
 20
133.4582757731
 10
173.8004362681
 20
133.8357408126
 10
173.038008111
 20
133.9998417129
 10
172.2589307003
 20
133.9345168849
 10
171.5394663163
 20
133.6461607893
 10
170.9500415721
 20
133.1629980882
 10
170.5483519011
 20
132.5323269298
 10
170.3737186738
 20
131.8158781682
 10
170.4432353847
 20
131.0837850501
 10
170.7500977912
 20
130.4077100535
 10
171.2642688774
 20
129.853831098
 10
171.9354162463
 20
129.4763669898
 10
172.6978444033
 20
129.3122651582
  0
LWPOLYLINE
  5
157
330
1F
100
AcDbEntity
  8
0
  6
HIDDEN
 62
     7
370
     0
100
AcDbPolyline
 90
       20
 70
   128
 43
0.0
 10
172.7114510261
 20
129.3252487262
 10
173.4650074043
 20
129.3943388914
 10
174.1538610779
 20
129.6896081944
 10
174.7033637487
 20
130.1790619796
 10
175.0539694451
 20
130.8096577009
 10
175.1676820689
 20
131.5130623584
 10
175.0321802222
 20
132.2130499934
 10
174.6621489995
 20
132.8337662449
 10
174.0976846316
 20
133.3079472711
 10
173.3999573164
 20
133.5842092117
 10
172.6445764773
 20
133.6326119085
 10
171.9133997806
 20
133.4479138782
 10
171.2856594943
 20
133.0501255174
 10
170.8293831446
 20
132.4823577484
 10
170.5940137156
 20
131.8061346715
 10
170.6050592013
 20
131.0947364723
 10
170.8613209896
 20
130.4252533769
 10
171.335028904
 20
129.8702344825
 10
171.9748503067
 20
129.4898255323
 10
172.7114510261
 20
129.3252487262
  0
LWPOLYLINE
  5
158
330
1F
100
AcDbEntity
  8
0
  6
HIDDEN
 62
     7
370
     0
100
AcDbPolyline
 90
       21
 70
   128
 43
0.0
 10
172.6978444033
 20
129.5003764858
 10
173.4769208827
 20
129.5657013138
 10
174.1963852667
 20
129.8540574094
 10
174.7858118736
 20
130.3372191792
 10
175.1875006132
 20
130.9678922003
 10
175.3621347719
 20
131.6843400305
 10
175.2926171296
 20
132.4164331486
 10
174.9857537918
 20
133.0925081452
 10
174.4715836369
 20
133.6463861694
 10
173.8004362681
 20
134.0238512089
 10
173.038008111
 20
134.1879539718
 10
172.2589307003
 20
134.1226291438
 10
171.5394663163
 20
133.8342730482
 10
170.9500415721
 20
133.3511103471
 10
170.5483519011
 20
132.720437326
 10
170.3737186738
 20
132.0039894958
 10
170.4432353847
 20
131.2718963777
 10
170.7500977912
 20
130.5958213811
 10
171.2642688774
 20
130.0419424256
 10
171.9354162463
 20
129.6644783174
 10
172.6978444033
 20
129.5003764858
  0
LWPOLYLINE
  5
159
330
1F
100
AcDbEntity
  8
0
  6
HIDDEN
 62
     7
370
     0
100
AcDbPolyline
 90
       21
 70
   128
 43
0.0
 10
172.7073690393
 20
129.6795107951
 10
173.4428177126
 20
129.741177388
 10
174.1219921508
 20
130.0133862128
 10
174.6784098916
 20
130.4694911992
 10
175.0576034658
 20
131.0648466056
 10
175.2224587374
 20
131.7411730592
 10
175.1568340235
 20
132.4322693576
 10
174.8671554499
 20
133.0704842289
 10
174.3817780637
 20
133.5933454861
 10
173.7482151487
 20
133.9496713658
 10
173.0284834751
 20
134.1045838376
 10
172.2930348017
 20
134.0429172446
 10
171.6138603636
 20
133.7707084199
 10
171.0574426227
 20
133.3146043648
 10
170.6782481172
 20
132.7192489584
 10
170.5133937769
 20
132.0429225047
 10
170.5790184908
 20
131.3518262063
 10
170.8686961331
 20
130.7136113351
 10
171.3540735193
 20
130.1907500779
 10
171.9876364343
 20
129.8344232668
 10
172.7073690393
 20
129.6795107951
  0
ARC
  5
15A
330
1F
100
AcDbEntity
  8
0
  6
HIDDEN
 62
     7
370
     0
100
AcDbCircle
 10
172.8528176863
 20
101.285340399
 30
0.0
 40
2.479408675144692
100
AcDbArc
 50
345.3788411692
 51
182.3307801969
  0
ARC
  5
15B
330
1F
100
AcDbEntity
  8
0
  6
HIDDEN
 62
     7
370
     0
100
AcDbCircle
 10
172.8483134934
 20
101.2256859221
 30
0.0
 40
2.357285514969218
100
AcDbArc
 50
351.1507649568
 51
158.3919933761
  0
ARC
  5
15C
330
1F
100
AcDbEntity
  8
0
  6
HIDDEN
 62
     7
370
     0
100
AcDbCircle
 10
172.8735461724
 20
101.2316303725
 30
0.0
 40
1.996287435241683
100
AcDbArc
 50
2.5046012683
 51
127.4021823473
  0
LWPOLYLINE
  5
15D
330
1F
100
AcDbEntity
  8
0
  6
HIDDEN
 62
     7
370
     0
100
AcDbPolyline
 90
       21
 70
   128
 43
0.0
 10
172.0128762074
 20
99.347304978
 10
171.3287722789
 20
99.7036420335
 10
170.7953321286
 20
100.2411865224
 10
170.4647722193
 20
100.9073243072
 10
170.3694494911
 20
101.6368479063
 10
170.518694865
 20
102.3583453675
 10
170.8978996151
 20
103.0011926373
 10
171.4699440174
 20
103.5024621119
 10
172.1788332336
 20
103.8130870615
 10
172.9551753499
 20
103.9026616668
 10
173.7229763069
 20
103.7624165942
 10
174.4070802354
 20
103.40608047
 10
174.9405194544
 20
102.8685341184
 10
175.2710812264
 20
102.202397265
 10
175.3664039545
 20
101.4728736659
 10
175.2171576493
 20
100.7513762047
 10
174.8379528993
 20
100.1085289349
 10
174.2659084969
 20
99.6072594603
 10
173.5570192807
 20
99.296635442
 10
172.7806771644
 20
99.2070608368
 10
172.0128762074
 20
99.347304978
  0
LWPOLYLINE
  5
15E
330
1F
100
AcDbEntity
  8
0
  6
HIDDEN
 62
     7
370
     0
100
AcDbPolyline
 90
       19
 70
   128
 43
0.0
 10
172.1838856586
 20
100.9705983629
 10
171.5823509269
 20
101.2969505568
 10
171.135875816
 20
101.7969506388
 10
170.8983103283
 20
102.4102908154
 10
170.8983103283
 20
103.0629952033
 10
171.135875816
 20
103.67633538
 10
171.5823509269
 20
104.1763354619
 10
172.1838856586
 20
104.5026876559
 10
172.8679262572
 20
104.6160277506
 10
173.5519668557
 20
104.5026876559
 10
174.1535015874
 20
104.1763354619
 10
174.5999776297
 20
103.67633538
 10
174.8375412547
 20
103.0629952033
 10
174.8375412547
 20
102.4102908154
 10
174.5999776297
 20
101.7969506388
 10
174.1535015874
 20
101.2969505568
 10
173.5519668557
 20
100.9705983629
 10
172.8679262572
 20
100.8572582682
 10
172.1838856586
 20
100.9705983629
  0
LWPOLYLINE
  5
15F
330
1F
100
AcDbEntity
  8
0
  6
HIDDEN
 62
     7
370
     0
100
AcDbPolyline
 90
       21
 70
   128
 43
0.0
 10
172.0128762074
 20
99.5832983931
 10
171.3287722789
 20
99.9396354487
 10
170.7953321286
 20
100.4771818002
 10
170.4647722193
 20
101.1433186536
 10
170.3694494911
 20
101.8728422528
 10
170.518694865
 20
102.594339714
 10
170.8978996151
 20
103.2371860524
 10
171.4699440174
 20
103.7384564584
 10
172.1788332336
 20
104.049081408
 10
172.9551753499
 20
104.1386550819
 10
173.7229763069
 20
103.9984100093
 10
174.4070802354
 20
103.6420748164
 10
174.9405194544
 20
103.1045284649
 10
175.2710812264
 20
102.4383906802
 10
175.3664039545
 20
101.7088680123
 10
175.2171576493
 20
100.9873705511
 10
174.8379528993
 20
100.3445242127
 10
174.2659084969
 20
99.8432528754
 10
173.5570192807
 20
99.5326288571
 10
172.7806771644
 20
99.4430542519
 10
172.0128762074
 20
99.5832983931
  0
LWPOLYLINE
  5
160
330
1F
100
AcDbEntity
  8
0
  6
HIDDEN
 62
     7
370
     0
100
AcDbPolyline
 90
       20
 70
   128
 43
0.0
 10
172.0812799879
 20
99.6984303524
 10
171.4221317791
 20
100.0484921565
 10
170.9196581044
 20
100.5807038923
 10
170.6283096694
 20
101.2373943408
 10
170.5796583094
 20
101.9473983501
 10
170.7789762416
 20
102.6337765684
 10
171.2046642326
 20
103.2221498494
 10
171.8105920129
 20
103.6487579872
 10
172.5310994782
 20
103.8673719918
 10
173.2881064065
 20
103.8543018108
 10
173.9995809742
 20
103.6109630545
 10
174.5884236418
 20
103.1637261217
 10
174.9908220493
 20
102.5610551765
 10
175.163172605
 20
101.8682601457
 10
175.0867985659
 20
101.1604140108
 10
174.7699738019
 20
100.5142260869
 10
174.2470333823
 20
99.9997169306
 10
173.5746454918
 20
99.6726457556
 10
172.8256730833
 20
99.5684531113
 10
172.0812799879
 20
99.6984303524
  0
LWPOLYLINE
  5
161
330
1F
100
AcDbEntity
  8
0
  6
HIDDEN
 62
     7
370
     0
100
AcDbPolyline
 90
       21
 70
   128
 43
0.0
 10
172.0128762074
 20
99.8192936709
 10
171.3287722789
 20
100.1756288638
 10
170.7953321286
 20
100.7131752153
 10
170.4647722193
 20
101.379313
 10
170.3694494911
 20
102.1088356679
 10
170.518694865
 20
102.8303331291
 10
170.8978996151
 20
103.4731803988
 10
171.4699440174
 20
103.9744498735
 10
172.1788332336
 20
104.2850748231
 10
172.9551753499
 20
104.3746494283
 10
173.7229763069
 20
104.2344043558
 10
174.4070802354
 20
103.8780682315
 10
174.9405194544
 20
103.3405228113
 10
175.2710812264
 20
102.6743850266
 10
175.3664039545
 20
101.9448614274
 10
175.2171576493
 20
101.2233639662
 10
174.8379528993
 20
100.5805176278
 10
174.2659084969
 20
100.0792481532
 10
173.5570192807
 20
99.7686222722
 10
172.7806771644
 20
99.679047667
 10
172.0128762074
 20
99.8192936709
  0
LWPOLYLINE
  5
162
330
1F
100
AcDbEntity
  8
0
  6
HIDDEN
 62
     7
370
     0
100
AcDbPolyline
 90
       20
 70
   128
 43
0.0
 10
172.0812799879
 20
99.9344237675
 10
171.4221317791
 20
100.2844855716
 10
170.9196581044
 20
100.8166991701
 10
170.6283096694
 20
101.473387756
 10
170.5796583094
 20
102.1833917653
 10
170.7789762416
 20
102.8697699835
 10
171.2046642326
 20
103.4581432646
 10
171.8105920129
 20
103.8847514023
 10
172.5310994782
 20
104.1033663382
 10
173.2881064065
 20
104.0902952259
 10
173.9995809742
 20
103.8469574009
 10
174.5884236418
 20
103.3997195368
 10
174.9908220493
 20
102.7970495229
 10
175.163172605
 20
102.1042535608
 10
175.0867985659
 20
101.3964083572
 10
174.7699738019
 20
100.7502195021
 10
174.2470333823
 20
100.2357122084
 10
173.5746454918
 20
99.9086391707
 10
172.8256730833
 20
99.8044465264
 10
172.0812799879
 20
99.9344237675
  0
LWPOLYLINE
  5
163
330
1F
100
AcDbEntity
  8
0
  6
HIDDEN
 62
     7
370
     0
100
AcDbPolyline
 90
       21
 70
   128
 43
0.0
 10
172.0128762074
 20
100.055287086
 10
171.3287722789
 20
100.4116222789
 10
170.7953321286
 20
100.9491686304
 10
170.4647722193
 20
101.6153064152
 10
170.3694494911
 20
102.3448300143
 10
170.518694865
 20
103.0663274755
 10
170.8978996151
 20
103.709173814
 10
171.4699440174
 20
104.2104442199
 10
172.1788332336
 20
104.5210691695
 10
172.9551753499
 20
104.6106428434
 10
173.7229763069
 20
104.4703977709
 10
174.4070802354
 20
104.114062578
 10
174.9405194544
 20
103.5765162264
 10
175.2710812264
 20
102.9103784417
 10
175.3664039545
 20
102.1808557739
 10
175.2171576493
 20
101.4593583127
 10
174.8379528993
 20
100.8165110429
 10
174.2659084969
 20
100.3152415683
 10
173.5570192807
 20
100.0046156873
 10
172.7806771644
 20
99.9150429448
 10
172.0128762074
 20
100.055287086
  0
LWPOLYLINE
  5
164
330
1F
100
AcDbEntity
  8
0
  6
HIDDEN
 62
     7
370
     0
100
AcDbPolyline
 90
       20
 70
   128
 43
0.0
 10
172.0812799879
 20
100.1704171826
 10
171.4221317791
 20
100.5204789867
 10
170.9196581044
 20
101.0526925852
 10
170.6283096694
 20
101.7093821024
 10
170.5796583094
 20
102.4193861117
 10
170.7789762416
 20
103.1057643299
 10
171.2046642326
 20
103.694137611
 10
171.8105920129
 20
104.1207457488
 10
172.5310994782
 20
104.3393597533
 10
173.2881064065
 20
104.3262895723
 10
173.9995809742
 20
104.0829508161
 10
174.5884236418
 20
103.6357138832
 10
174.9908220493
 20
103.033042938
 10
175.163172605
 20
102.3402479072
 10
175.0867985659
 20
101.6324027037
 10
174.7699738019
 20
100.9862129172
 10
174.2470333823
 20
100.4717056235
 10
173.5746454918
 20
100.1446325858
 10
172.8256730833
 20
100.0404399415
 10
172.0812799879
 20
100.1704171826
  0
LWPOLYLINE
  5
165
330
1F
100
AcDbEntity
  8
0
  6
HIDDEN
 62
     7
370
     0
100
AcDbPolyline
 90
       21
 70
   128
 43
0.0
 10
172.0128762074
 20
100.2912805011
 10
171.3287722789
 20
100.6476175567
 10
170.7953321286
 20
101.1851629769
 10
170.4647722193
 20
101.8513007616
 10
170.3694494911
 20
102.5808234294
 10
170.518694865
 20
103.3023208906
 10
170.8978996151
 20
103.9451681604
 10
171.4699440174
 20
104.446437635
 10
172.1788332336
 20
104.7570625847
 10
172.9551753499
 20
104.8466371899
 10
173.7229763069
 20
104.7063921173
 10
174.4070802354
 20
104.3500559931
 10
174.9405194544
 20
103.8125105729
 10
175.2710812264
 20
103.1463727882
 10
175.3664039545
 20
102.416849189
 10
175.2171576493
 20
101.6953517278
 10
174.8379528993
 20
101.0525053894
 10
174.2659084969
 20
100.5512349834
 10
173.5570192807
 20
100.2406109651
 10
172.7806771644
 20
100.1510363599
 10
172.0128762074
 20
100.2912805011
  0
LWPOLYLINE
  5
166
330
1F
100
AcDbEntity
  8
0
  6
HIDDEN
 62
     7
370
     0
100
AcDbPolyline
 90
       20
 70
   128
 43
0.0
 10
172.0812799879
 20
100.4064105978
 10
171.4221317791
 20
100.7564742645
 10
170.9196581044
 20
101.2886860003
 10
170.6283096694
 20
101.9453755175
 10
170.5796583094
 20
102.6553795268
 10
170.7789762416
 20
103.341757745
 10
171.2046642326
 20
103.9301310261
 10
171.8105920129
 20
104.3567391639
 10
172.5310994782
 20
104.5753540998
 10
173.2881064065
 20
104.5622829874
 10
173.9995809742
 20
104.3189451625
 10
174.5884236418
 20
103.8717072984
 10
174.9908220493
 20
103.2690372845
 10
175.163172605
 20
102.5762413224
 10
175.0867985659
 20
101.8683961188
 10
174.7699738019
 20
101.2222072636
 10
174.2470333823
 20
100.7076990386
 10
173.5746454918
 20
100.3806278636
 10
172.8256730833
 20
100.2764333566
 10
172.0812799879
 20
100.4064105978
  0
LWPOLYLINE
  5
167
330
1F
100
AcDbEntity
  8
0
  6
HIDDEN
 62
     7
370
     0
100
AcDbPolyline
 90
       21
 70
   128
 43
0.0
 10
172.0128762074
 20
100.8898154428
 10
171.3287722789
 20
101.2461524983
 10
170.7953321286
 20
101.7836979186
 10
170.4647722193
 20
102.4498357033
 10
170.3694494911
 20
103.1793583711
 10
170.518694865
 20
103.9008558323
 10
170.8978996151
 20
104.5437031021
 10
171.4699440174
 20
105.0449725767
 10
172.1788332336
 20
105.3555984577
 10
172.9551753499
 20
105.4451721316
 10
173.7229763069
 20
105.304927059
 10
174.4070802354
 20
104.9485918661
 10
174.9405194544
 20
104.4110455145
 10
175.2710812264
 20
103.7449077298
 10
175.3664039545
 20
103.015385062
 10
175.2171576493
 20
102.2938876008
 10
174.8379528993
 20
101.651040331
 10
174.2659084969
 20
101.1497708564
 10
173.5570192807
 20
100.8391459068
 10
172.7806771644
 20
100.7495713015
 10
172.0128762074
 20
100.8898154428
  0
LWPOLYLINE
  5
168
330
1F
100
AcDbEntity
  8
0
  6
HIDDEN
 62
     7
370
     0
100
AcDbPolyline
 90
       19
 70
   128
 43
0.0
 10
172.1905949064
 20
101.4512539436
 10
171.5949591719
 20
101.7744051819
 10
171.1528622084
 20
102.2695009192
 10
170.9176278212
 20
102.8768266146
 10
170.9176278212
 20
103.5231290912
 10
171.1528622084
 20
104.1304538553
 10
171.5949591719
 20
104.6255505239
 10
172.1905949064
 20
104.9487017622
 10
172.8679262572
 20
105.060930789
 10
173.5452576079
 20
104.9487017622
 10
174.1408933424
 20
104.6255505239
 10
174.5829903059
 20
104.1304538553
 10
174.8182237618
 20
103.5231290912
 10
174.8182237618
 20
102.8768266146
 10
174.5829903059
 20
102.2695009192
 10
174.1408933424
 20
101.7744051819
 10
173.5452576079
 20
101.4512539436
 10
172.8679262572
 20
101.3390249168
 10
172.1905949064
 20
101.4512539436
  0
LWPOLYLINE
  5
169
330
1F
100
AcDbEntity
  8
0
  6
HIDDEN
 62
     7
370
     0
100
AcDbPolyline
 90
       21
 70
   128
 43
0.0
 10
166.0872385376
 20
127.4226898854
 10
165.6764121265
 20
127.5173485806
 10
165.3413977013
 20
127.8425701489
 10
165.1149894581
 20
128.3665201222
 10
165.0193491489
 20
129.0379096349
 10
165.063838894
 20
129.7910199096
 10
165.2441038289
 20
130.5521302452
 10
165.5424986505
 20
131.2467376297
 10
165.9298138232
 20
131.8068499272
 10
166.368136602
 20
132.1776392465
 10
166.8145604902
 20
132.3228091528
 10
167.2253873669
 20
132.2281504576
 10
167.5604017921
 20
131.9029288893
 10
167.7868100353
 20
131.378978916
 10
167.8824503445
 20
130.7075894033
 10
167.8379601338
 20
129.9544791286
 10
167.6576951989
 20
129.1933697244
 10
167.3593003773
 20
128.4987614085
 10
166.9719856702
 20
127.938649111
 10
166.5336624258
 20
127.567860723
 10
166.0872385376
 20
127.4226898854
  0
LWPOLYLINE
  5
16A
330
1F
100
AcDbEntity
  8
0
  6
HIDDEN
 62
     7
370
     0
100
AcDbPolyline
 90
       18
 70
   128
 43
0.0
 10
166.8107010894
 20
128.0105770161
 10
166.4771460467
 20
128.1057227929
 10
166.223019781
 20
128.4196446245
 10
166.0826429263
 20
128.9099459132
 10
166.0749748819
 20
129.5104077612
 10
166.2010508128
 20
130.1399352555
 10
166.4438428827
 20
130.7135070269
 10
166.7705620178
 20
131.1536584576
 10
167.1370821544
 20
131.4009460216
 10
167.4939025663
 20
131.4219706287
 10
167.7928328984
 20
131.2138945391
 10
167.9935012483
 20
130.8048176174
 10
168.0688051977
 20
130.2499887129
 10
168.0085765668
 20
129.6243411084
 10
167.8209476643
 20
129.0123718386
 10
167.5312588461
 20
128.496730194
 10
167.178635905
 20
128.1470567515
 10
166.8107010894
 20
128.0105770161
  0
LWPOLYLINE
  5
16B
330
1F
100
AcDbEntity
  8
0
  6
HIDDEN
 62
     7
370
     0
100
AcDbPolyline
 90
       21
 70
   128
 43
0.0
 10
163.6354517662
 20
128.0098561724
 10
163.2246253551
 20
128.1045148676
 10
162.8896109298
 20
128.4297364359
 10
162.663202221
 20
128.9536864092
 10
162.5675621447
 20
129.6250759219
 10
162.6120521226
 20
130.3781861966
 10
162.7923170575
 20
131.1392965322
 10
163.0907114134
 20
131.8339039167
 10
163.4780270518
 20
132.3940162142
 10
163.9163498305
 20
132.7648055335
 10
164.3627737187
 20
132.9099763711
 10
164.7736001298
 20
132.8153167446
 10
165.1086145551
 20
132.4900951763
 10
165.3350232639
 20
131.9661461343
 10
165.4306635731
 20
131.2947556903
 10
165.3861733623
 20
130.5416454156
 10
165.2059084275
 20
129.7805360114
 10
164.9075140715
 20
129.0859276955
 10
164.5201984332
 20
128.525815398
 10
164.0818756544
 20
128.15502701
 10
163.6354517662
 20
128.0098561724
  0
LINE
  5
16C
330
1F
100
AcDbEntity
  8
0
  6
HIDDEN
 62
     7
370
     0
100
AcDbLine
 10
164.8384090052
 20
130.7843741556
 30
0.0
 11
165.6369193927
 21
131.5325102364
 31
0.0
  0
LINE
  5
16D
330
1F
100
AcDbEntity
  8
0
  6
HIDDEN
 62
     7
370
     0
100
AcDbLine
 10
164.8384090052
 20
130.7843741556
 30
0.0
 11
163.2001050287
 21
131.1767235925
 31
0.0
  0
LINE
  5
16E
330
1F
100
AcDbEntity
  8
0
  6
HIDDEN
 62
     7
370
     0
100
AcDbLine
 10
164.6284493156
 20
129.3698320692
 30
0.0
 11
164.8384090052
 21
130.7843741556
 31
0.0
  0
LINE
  5
16F
330
1F
100
AcDbEntity
  8
0
  6
HIDDEN
 62
     7
370
     0
100
AcDbLine
 10
164.6284493156
 20
129.3698320692
 30
0.0
 11
162.9901453391
 21
129.7621815061
 31
0.0
  0
LINE
  5
170
330
1F
100
AcDbEntity
  8
0
  6
HIDDEN
 62
     7
370
     0
100
AcDbLine
 10
164.6284493156
 20
129.3698320692
 30
0.0
 11
165.216999548
 21
128.7034251322
 31
0.0
  0
LINE
  5
171
330
1F
100
AcDbEntity
  8
0
  6
HIDDEN
 62
     7
370
     0
100
AcDbLine
 10
162.9901453391
 20
129.7621815061
 30
0.0
 11
163.5786955715
 21
129.0957745691
 31
0.0
  0
LINE
  5
172
330
1F
100
AcDbEntity
  8
0
  6
HIDDEN
 62
     7
370
     0
100
AcDbLine
 10
162.9901453391
 20
129.7621815061
 30
0.0
 11
163.2001050287
 21
131.1767235925
 31
0.0
  0
LINE
  5
173
330
1F
100
AcDbEntity
  8
0
  6
HIDDEN
 62
     7
370
     0
100
AcDbLine
 10
163.2001050287
 20
131.1767235925
 30
0.0
 11
163.9986154162
 21
131.9248596733
 31
0.0
  0
LWPOLYLINE
  5
174
330
1F
100
AcDbEntity
  8
0
  6
HIDDEN
 62
     7
370
     0
100
AcDbPolyline
 90
       19
 70
   128
 43
0.0
 10
163.4897258603
 20
128.4963679095
 10
163.1177947395
 20
128.5948468899
 10
162.8267787867
 20
128.9243590613
 10
162.6517800153
 20
129.4451611643
 10
162.6139045232
 20
130.0944373538
 10
162.7177218445
 20
130.7938745772
 10
162.950709416
 20
131.4591108417
 10
163.2847655103
 20
132.0099080508
 10
163.6795983188
 20
132.3798321714
 10
164.0875846618
 20
132.5242672642
 10
164.4595162482
 20
132.4257873525
 10
164.7505317353
 20
132.0962751811
 10
164.9255309724
 20
131.5754730781
 10
164.9634064645
 20
130.9261968886
 10
164.8595891432
 20
130.2267596652
 10
164.6266015717
 20
129.5615243321
 10
164.2925454774
 20
129.0107261916
 10
163.8977126688
 20
128.640802071
 10
163.4897258603
 20
128.4963679095
  0
LINE
  5
175
330
1F
100
AcDbEntity
  8
0
  6
HIDDEN
 62
     7
370
     0
100
AcDbLine
 10
166.2254700907
 20
130.8661042308
 30
0.0
 11
164.5871656486
 21
131.2584536677
 31
0.0
  0
LINE
  5
176
330
1F
100
AcDbEntity
  8
0
  6
HIDDEN
 62
     7
370
     0
100
AcDbLine
 10
164.5871656486
 20
131.2584536677
 30
0.0
 11
163.9986154162
 21
131.9248596733
 31
0.0
  0
LINE
  5
177
330
1F
100
AcDbEntity
  8
0
  6
HIDDEN
 62
     7
370
     0
100
AcDbLine
 10
165.6369193927
 20
131.5325102364
 30
0.0
 11
163.9986154162
 21
131.9248596733
 31
0.0
  0
LINE
  5
178
330
1F
100
AcDbEntity
  8
0
  6
HIDDEN
 62
     7
370
     0
100
AcDbLine
 10
166.2254700907
 20
130.8661042308
 30
0.0
 11
165.6369193927
 21
131.5325102364
 31
0.0
  0
LINE
  5
179
330
1F
100
AcDbEntity
  8
0
  6
HIDDEN
 62
     7
370
     0
100
AcDbLine
 10
166.0155099355
 20
129.451561213
 30
0.0
 11
164.377205959
 21
129.8439106499
 31
0.0
  0
LINE
  5
17A
330
1F
100
AcDbEntity
  8
0
  6
HIDDEN
 62
     7
370
     0
100
AcDbLine
 10
164.377205959
 20
129.8439106499
 30
0.0
 11
163.5786955715
 21
129.0957745691
 31
0.0
  0
LINE
  5
17B
330
1F
100
AcDbEntity
  8
0
  6
HIDDEN
 62
     7
370
     0
100
AcDbLine
 10
165.216999548
 20
128.7034251322
 30
0.0
 11
163.5786955715
 21
129.0957745691
 31
0.0
  0
LINE
  5
17C
330
1F
100
AcDbEntity
  8
0
  6
HIDDEN
 62
     7
370
     0
100
AcDbLine
 10
166.0155099355
 20
129.451561213
 30
0.0
 11
165.216999548
 21
128.7034251322
 31
0.0
  0
LINE
  5
17D
330
1F
100
AcDbEntity
  8
0
  6
HIDDEN
 62
     7
370
     0
100
AcDbLine
 10
164.377205959
 20
129.8439106499
 30
0.0
 11
164.5871656486
 21
131.2584536677
 31
0.0
  0
LINE
  5
17E
330
1F
100
AcDbEntity
  8
0
  6
HIDDEN
 62
     7
370
     0
100
AcDbLine
 10
166.0155099355
 20
129.451561213
 30
0.0
 11
166.2254700907
 21
130.8661042308
 31
0.0
  0
LWPOLYLINE
  5
17F
330
1F
100
AcDbEntity
  8
0
  6
HIDDEN
 62
     7
370
     0
100
AcDbPolyline
 90
       19
 70
   128
 43
0.0
 10
163.4897258603
 20
104.7145467778
 10
163.1177947395
 20
104.6160677974
 10
162.8267787867
 20
104.286555626
 10
162.6517800153
 20
103.765753523
 10
162.6139045232
 20
103.1164773335
 10
162.7177218445
 20
102.4170401101
 10
162.950709416
 20
101.7518038457
 10
163.2847655103
 20
101.2010066365
 10
163.6795983188
 20
100.8310825159
 10
164.0875846618
 20
100.6866474231
 10
164.4595162482
 20
100.7851273348
 10
164.7505317353
 20
101.1146395062
 10
164.9255309724
 20
101.6354416092
 10
164.9634064645
 20
102.2847177987
 10
164.8595891432
 20
102.9841550221
 10
164.6266015717
 20
103.6493903553
 10
164.2925454774
 20
104.2001884957
 10
163.8977126688
 20
104.5701126163
 10
163.4897258603
 20
104.7145467778
  0
LWPOLYLINE
  5
180
330
1F
100
AcDbEntity
  8
0
  6
HIDDEN
 62
     7
370
     0
100
AcDbPolyline
 90
       21
 70
   128
 43
0.0
 10
163.6354517662
 20
105.2010585149
 10
163.2246253551
 20
105.1063998198
 10
162.8896109298
 20
104.7811782514
 10
162.663202221
 20
104.2572282781
 10
162.5675621447
 20
103.5858387654
 10
162.6120521226
 20
102.8327284907
 10
162.7923170575
 20
102.0716181551
 10
163.0907114134
 20
101.3770107706
 10
163.4780270518
 20
100.8168984731
 10
163.9163498305
 20
100.4461091538
 10
164.3627737187
 20
100.3009383162
 10
164.7736001298
 20
100.3955979427
 10
165.1086145551
 20
100.720819511
 10
165.3350232639
 20
101.244768553
 10
165.4306635731
 20
101.916158997
 10
165.3861733623
 20
102.6692692717
 10
165.2059084275
 20
103.430378676
 10
164.9075140715
 20
104.1249869918
 10
164.5201984332
 20
104.6850992893
 10
164.0818756544
 20
105.0558876773
 10
163.6354517662
 20
105.2010585149
  0
LWPOLYLINE
  5
181
330
1F
100
AcDbEntity
  8
0
  6
HIDDEN
 62
     7
370
     0
100
AcDbPolyline
 90
       21
 70
   128
 43
0.0
 10
166.0872385376
 20
105.7882248019
 10
165.6764121265
 20
105.6935661068
 10
165.3413977013
 20
105.3683445384
 10
165.1149894581
 20
104.8443945651
 10
165.0193491489
 20
104.1730050524
 10
165.063838894
 20
103.4198947777
 10
165.2441038289
 20
102.6587844421
 10
165.5424986505
 20
101.9641770576
 10
165.9298138232
 20
101.4040647601
 10
166.368136602
 20
101.0332754408
 10
166.8145604902
 20
100.8881055345
 10
167.2253873669
 20
100.9827642297
 10
167.5604017921
 20
101.307985798
 10
167.7868100353
 20
101.8319357713
 10
167.8824503445
 20
102.503325284
 10
167.8379601338
 20
103.2564355587
 10
167.6576951989
 20
104.017544963
 10
167.3593003773
 20
104.7121532788
 10
166.9719856702
 20
105.2722655763
 10
166.5336624258
 20
105.6430539643
 10
166.0872385376
 20
105.7882248019
  0
LINE
  5
182
330
1F
100
AcDbEntity
  8
0
  6
HIDDEN
 62
     7
370
     0
100
AcDbLine
 10
163.2001050287
 20
102.0341910948
 30
0.0
 11
163.9986154162
 21
101.286055014
 31
0.0
  0
LINE
  5
183
330
1F
100
AcDbEntity
  8
0
  6
HIDDEN
 62
     7
370
     0
100
AcDbLine
 10
164.5871656486
 20
101.9524610197
 30
0.0
 11
163.9986154162
 21
101.286055014
 31
0.0
  0
LINE
  5
184
330
1F
100
AcDbEntity
  8
0
  6
HIDDEN
 62
     7
370
     0
100
AcDbLine
 10
164.377205959
 20
103.3670040374
 30
0.0
 11
164.5871656486
 21
101.9524610197
 31
0.0
  0
LINE
  5
185
330
1F
100
AcDbEntity
  8
0
  6
HIDDEN
 62
     7
370
     0
100
AcDbLine
 10
164.377205959
 20
103.3670040374
 30
0.0
 11
163.5786955715
 21
104.1151401182
 31
0.0
  0
LINE
  5
186
330
1F
100
AcDbEntity
  8
0
  6
HIDDEN
 62
     7
370
     0
100
AcDbLine
 10
162.9901453391
 20
103.4487331813
 30
0.0
 11
163.5786955715
 21
104.1151401182
 31
0.0
  0
LINE
  5
187
330
1F
100
AcDbEntity
  8
0
  6
HIDDEN
 62
     7
370
     0
100
AcDbLine
 10
162.9901453391
 20
103.4487331813
 30
0.0
 11
163.2001050287
 21
102.0341910948
 31
0.0
  0
LINE
  5
188
330
1F
100
AcDbEntity
  8
0
  6
HIDDEN
 62
     7
370
     0
100
AcDbLine
 10
166.0155099355
 20
103.7593534743
 30
0.0
 11
164.377205959
 21
103.3670040374
 31
0.0
  0
LINE
  5
189
330
1F
100
AcDbEntity
  8
0
  6
HIDDEN
 62
     7
370
     0
100
AcDbLine
 10
166.2254700907
 20
102.3448104565
 30
0.0
 11
164.5871656486
 21
101.9524610197
 31
0.0
  0
LWPOLYLINE
  5
18A
330
1F
100
AcDbEntity
  8
0
  6
HIDDEN
 62
     7
370
     0
100
AcDbPolyline
 90
       18
 70
   128
 43
0.0
 10
166.8107010894
 20
105.2003376712
 10
166.4771460467
 20
105.1051918944
 10
166.223019781
 20
104.7912700628
 10
166.0826429263
 20
104.3009687742
 10
166.0749748819
 20
103.7005069261
 10
166.2010508128
 20
103.0709794318
 10
166.4438428827
 20
102.4974076604
 10
166.7705620178
 20
102.0572562297
 10
167.1370821544
 20
101.8099686657
 10
167.4939025663
 20
101.7889440586
 10
167.7928328984
 20
101.9970201482
 10
167.9935012483
 20
102.4060970699
 10
168.0688051977
 20
102.9609259745
 10
168.0085765668
 20
103.5865735789
 10
167.8209476643
 20
104.1985428487
 10
167.5312588461
 20
104.7141844933
 10
167.178635905
 20
105.0638579359
 10
166.8107010894
 20
105.2003376712
  0
LINE
  5
18B
330
1F
100
AcDbEntity
  8
0
  6
HIDDEN
 62
     7
370
     0
100
AcDbLine
 10
164.6284493156
 20
103.8410826181
 30
0.0
 11
165.216999548
 21
104.5074895551
 31
0.0
  0
LINE
  5
18C
330
1F
100
AcDbEntity
  8
0
  6
HIDDEN
 62
     7
370
     0
100
AcDbLine
 10
164.6284493156
 20
103.8410826181
 30
0.0
 11
162.9901453391
 21
103.4487331813
 31
0.0
  0
LINE
  5
18D
330
1F
100
AcDbEntity
  8
0
  6
HIDDEN
 62
     7
370
     0
100
AcDbLine
 10
165.216999548
 20
104.5074895551
 30
0.0
 11
163.5786955715
 21
104.1151401182
 31
0.0
  0
LINE
  5
18E
330
1F
100
AcDbEntity
  8
0
  6
HIDDEN
 62
     7
370
     0
100
AcDbLine
 10
164.8384090052
 20
102.4265405317
 30
0.0
 11
165.6369193927
 21
101.6784044509
 31
0.0
  0
LINE
  5
18F
330
1F
100
AcDbEntity
  8
0
  6
HIDDEN
 62
     7
370
     0
100
AcDbLine
 10
164.6284493156
 20
103.8410826181
 30
0.0
 11
164.8384090052
 21
102.4265405317
 31
0.0
  0
LINE
  5
190
330
1F
100
AcDbEntity
  8
0
  6
HIDDEN
 62
     7
370
     0
100
AcDbLine
 10
166.2254700907
 20
102.3448104565
 30
0.0
 11
165.6369193927
 21
101.6784044509
 31
0.0
  0
LINE
  5
191
330
1F
100
AcDbEntity
  8
0
  6
HIDDEN
 62
     7
370
     0
100
AcDbLine
 10
166.0155099355
 20
103.7593534743
 30
0.0
 11
166.2254700907
 21
102.3448104565
 31
0.0
  0
LINE
  5
192
330
1F
100
AcDbEntity
  8
0
  6
HIDDEN
 62
     7
370
     0
100
AcDbLine
 10
166.0155099355
 20
103.7593534743
 30
0.0
 11
165.216999548
 21
104.5074895551
 31
0.0
  0
LINE
  5
193
330
1F
100
AcDbEntity
  8
0
  6
HIDDEN
 62
     7
370
     0
100
AcDbLine
 10
164.8384090052
 20
102.4265405317
 30
0.0
 11
163.2001050287
 21
102.0341910948
 31
0.0
  0
LINE
  5
194
330
1F
100
AcDbEntity
  8
0
  6
HIDDEN
 62
     7
370
     0
100
AcDbLine
 10
165.6369193927
 20
101.6784044509
 30
0.0
 11
163.9986154162
 21
101.286055014
 31
0.0
  0
LINE
  5
195
330
1F
100
AcDbEntity
  8
0
  6
HIDDEN
 62
     7
370
     0
100
AcDbLine
 10
175.3679257356
 20
99.9411441912
 30
0.0
 11
175.3679257356
 21
103.0973721822
 31
0.0
  0
LINE
  5
196
330
1F
100
AcDbEntity
  8
0
  6
HIDDEN
 62
     7
370
     0
100
AcDbLine
 10
170.3679258474
 20
103.0973721822
 30
0.0
 11
170.3679258474
 21
101.0437127729
 31
0.0
  0
LINE
  5
197
330
1F
100
AcDbEntity
  8
0
  6
HIDDEN
 62
     7
370
     0
100
AcDbLine
 10
161.8679260839
 20
99.1557803532
 30
0.0
 11
164.4873539456
 21
99.783095025
 31
0.0
  0
LINE
  5
198
330
1F
100
AcDbEntity
  8
0
  6
HIDDEN
 62
     7
370
     0
100
AcDbLine
 10
163.0899570421
 20
105.6181001072
 30
0.0
 11
161.8679260839
 21
105.3254413014
 31
0.0
  0
LINE
  5
199
330
1F
100
AcDbEntity
  8
0
  6
HIDDEN
 62
     7
370
     0
100
AcDbLine
 10
164.5460766279
 20
100.7226076504
 30
0.0
 11
172.0152259343
 21
102.5113570099
 31
0.0
  0
LINE
  5
19A
330
1F
100
AcDbEntity
  8
0
  6
HIDDEN
 62
     7
370
     0
100
AcDbLine
 10
172.0152259343
 20
106.8301195805
 30
0.0
 11
163.5678987489
 21
104.8071109285
 31
0.0
  0
LINE
  5
19B
330
1F
100
AcDbEntity
  8
0
  6
HIDDEN
 62
     7
370
     0
100
AcDbLine
 10
174.9679264151
 20
103.147166275
 30
0.0
 11
174.9679264151
 21
115.1564560891
 31
0.0
  0
LINE
  5
19C
330
1F
100
AcDbEntity
  8
0
  6
HIDDEN
 62
     7
370
     0
100
AcDbLine
 10
170.7679260992
 20
103.4952164223
 30
0.0
 11
170.7679260992
 21
103.147166275
 31
0.0
  0
LINE
  5
19D
330
1F
100
AcDbEntity
  8
0
  6
HIDDEN
 62
     7
370
     0
100
AcDbLine
 10
170.7679260992
 20
115.1547390796
 30
0.0
 11
170.7679260992
 21
105.2488409509
 31
0.0
  0
ARC
  5
19E
330
1F
100
AcDbEntity
  8
0
  6
HIDDEN
 62
     7
370
     0
100
AcDbCircle
 10
242.6679261648
 20
131.6054573437
 30
0.0
 40
1.0
100
AcDbArc
 50
270.0
 51
0.0
  0
ARC
  5
19F
330
1F
100
AcDbEntity
  8
0
  6
HIDDEN
 62
     7
370
     0
100
AcDbCircle
 10
242.6679261648
 20
101.6054573437
 30
0.0
 40
1.0
100
AcDbArc
 50
0.0
 51
90.0
  0
LINE
  5
1A0
330
1F
100
AcDbEntity
  8
0
  6
HIDDEN
 62
     7
370
     0
100
AcDbLine
 10
218.0362720512
 20
131.1054569264
 30
0.0
 11
216.1679272079
 21
131.1054569264
 31
0.0
  0
LINE
  5
1A1
330
1F
100
AcDbEntity
  8
0
  6
HIDDEN
 62
     7
370
     0
100
AcDbLine
 10
216.1679272079
 20
102.1054577609
 30
0.0
 11
218.0362720512
 21
102.1054577609
 31
0.0
  0
ARC
  5
1A2
330
1F
100
AcDbEntity
  8
0
  6
HIDDEN
 62
     7
370
     0
100
AcDbCircle
 10
218.0362736672
 20
130.1054573437
 30
0.0
 40
1.0
100
AcDbArc
 50
75.0
 51
90.0
  0
ARC
  5
1A3
330
1F
100
AcDbEntity
  8
0
  6
HIDDEN
 62
     7
370
     0
100
AcDbCircle
 10
218.0362736672
 20
103.1054573437
 30
0.0
 40
1.000000000000002
100
AcDbArc
 50
270.0
 51
285.0
  0
ARC
  5
1A4
330
1F
100
AcDbEntity
  8
0
  6
HIDDEN
 62
     7
370
     0
100
AcDbCircle
 10
216.1679261648
 20
130.1054573437
 30
0.0
 40
1.0
100
AcDbArc
 50
90.0
 51
180.0
  0
ARC
  5
1A5
330
1F
100
AcDbEntity
  8
0
  6
HIDDEN
 62
     7
370
     0
100
AcDbCircle
 10
216.1679261648
 20
103.1054573437
 30
0.0
 40
1.0
100
AcDbArc
 50
180.0
 51
270.0
  0
LINE
  5
1A6
330
1F
100
AcDbEntity
  8
0
  6
HIDDEN
 62
     7
370
     0
100
AcDbLine
 10
218.2950940453
 20
102.1395311286
 30
0.0
 11
220.0339515232
 21
102.6054569115
 31
0.0
  0
LINE
  5
1A7
330
1F
100
AcDbEntity
  8
0
  6
HIDDEN
 62
     7
370
     0
100
AcDbLine
 10
220.0339515232
 20
130.6054577758
 30
0.0
 11
218.2950940453
 21
131.0713835587
 31
0.0
  0
LINE
  5
1A8
330
1F
100
AcDbEntity
  8
0
  6
HIDDEN
 62
     7
370
     0
100
AcDbLine
 10
224.1820138418
 20
130.6054577758
 30
0.0
 11
220.0339515232
 21
130.6054577758
 31
0.0
  0
LINE
  5
1A9
330
1F
100
AcDbEntity
  8
0
  6
HIDDEN
 62
     7
370
     0
100
AcDbLine
 10
242.6679250323
 20
130.6054577758
 30
0.0
 11
235.0620668851
 21
130.6054577758
 31
0.0
  0
LINE
  5
1AA
330
1F
100
AcDbEntity
  8
0
  6
HIDDEN
 62
     7
370
     0
100
AcDbLine
 10
220.0339515232
 20
102.6054569115
 30
0.0
 11
242.6679250323
 21
102.6054569115
 31
0.0
  0
ARC
  5
1AB
330
1F
100
AcDbEntity
  8
0
  6
HIDDEN
 62
     7
370
     0
100
AcDbCircle
 10
58.2679261648
 20
102.9054573437
 30
0.0
 40
1.200000000000003
100
AcDbArc
 50
90.0
 51
180.0
  0
ARC
  5
1AC
330
1F
100
AcDbEntity
  8
0
  6
HIDDEN
 62
     7
370
     0
100
AcDbCircle
 10
58.2679261648
 20
130.3054573437
 30
0.0
 40
1.200000000000003
100
AcDbArc
 50
180.0
 51
270.0
  0
ARC
  5
1AD
330
1F
100
AcDbEntity
  8
0
  6
HIDDEN
 62
     7
370
     0
100
AcDbCircle
 10
67.9602985955
 20
104.2804573437
 30
0.0
 40
0.400000000000006
100
AcDbArc
 50
255.0
 51
270.0
  0
ARC
  5
1AE
330
1F
100
AcDbEntity
  8
0
  6
HIDDEN
 62
     7
370
     0
100
AcDbCircle
 10
67.9602985955
 20
128.9304573437
 30
0.0
 40
0.400000000000006
100
AcDbArc
 50
90.0
 51
105.0
  0
LINE
  5
1AF
330
1F
100
AcDbEntity
  8
0
  6
HIDDEN
 62
     7
370
     0
100
AcDbLine
 10
67.9602962457
 20
103.8804570739
 30
0.0
 11
68.8369837128
 21
103.8804570739
 31
0.0
  0
LINE
  5
1B0
330
1F
100
AcDbEntity
  8
0
  6
HIDDEN
 62
     7
370
     0
100
AcDbLine
 10
68.8369837128
 20
129.3304576134
 30
0.0
 11
67.9602962457
 21
129.3304576134
 31
0.0
  0
ARC
  5
1B1
330
1F
100
AcDbEntity
  8
0
  6
HIDDEN
 62
     7
370
     0
100
AcDbCircle
 10
68.8369860571
 20
104.2804573437
 30
0.0
 40
0.4000000000000069
100
AcDbArc
 50
270.0
 51
330.0
  0
ARC
  5
1B2
330
1F
100
AcDbEntity
  8
0
  6
HIDDEN
 62
     7
370
     0
100
AcDbCircle
 10
68.8369860571
 20
128.9304573437
 30
0.0
 40
0.4000000000000069
100
AcDbArc
 50
30.0
 51
90.0
  0
LINE
  5
1B3
330
1F
100
AcDbEntity
  8
0
  6
HIDDEN
 62
     7
370
     0
100
AcDbLine
 10
67.8567704283
 20
129.3168277075
 30
0.0
 11
67.0679253065
 21
129.1054575299
 31
0.0
  0
LINE
  5
1B4
330
1F
100
AcDbEntity
  8
0
  6
HIDDEN
 62
     7
370
     0
100
AcDbLine
 10
67.0679253065
 20
104.1054571574
 30
0.0
 11
67.8567704283
 21
103.8940869798
 31
0.0
  0
LINE
  5
1B5
330
1F
100
AcDbEntity
  8
0
  6
HIDDEN
 62
     7
370
     0
100
AcDbLine
 10
69.1833984577
 20
104.0804576655
 30
0.0
 11
70.3525286638
 21
106.1054574852
 31
0.0
  0
LINE
  5
1B6
330
1F
100
AcDbEntity
  8
0
  6
HIDDEN
 62
     7
370
     0
100
AcDbLine
 10
70.3525286638
 20
127.1054572021
 30
0.0
 11
69.1833984577
 21
129.1304570218
 31
0.0
  0
LINE
  5
1B7
330
1F
100
AcDbEntity
  8
0
  6
HIDDEN
 62
     7
370
     0
100
AcDbLine
 10
58.2679253542
 20
104.1054571574
 30
0.0
 11
67.0679253065
 21
104.1054571574
 31
0.0
  0
LINE
  5
1B8
330
1F
100
AcDbEntity
  8
0
  6
HIDDEN
 62
     7
370
     0
100
AcDbLine
 10
67.0679253065
 20
129.1054575299
 30
0.0
 11
58.2679253542
 21
129.1054575299
 31
0.0
  0
LINE
  5
1B9
330
1F
100
AcDbEntity
  8
0
  6
HIDDEN
 62
     7
370
     0
100
AcDbLine
 10
70.3525286638
 20
106.1054574852
 30
0.0
 11
119.0679263794
 21
106.1054574852
 31
0.0
  0
LINE
  5
1BA
330
1F
100
AcDbEntity
  8
0
  6
HIDDEN
 62
     7
370
     0
100
AcDbLine
 10
119.0679263794
 20
127.1054572021
 30
0.0
 11
70.3525286638
 21
127.1054572021
 31
0.0
  0
LINE
  5
1BB
330
1F
100
AcDbEntity
  8
0
  6
HIDDEN
 62
     7
370
     0
100
AcDbLine
 10
119.0679263794
 20
106.1054574852
 30
0.0
 11
122.8233058476
 21
112.3554571127
 31
0.0
  0
LINE
  5
1BC
330
1F
100
AcDbEntity
  8
0
  6
HIDDEN
 62
     7
370
     0
100
AcDbLine
 10
122.8233058476
 20
120.8554575746
 30
0.0
 11
119.0679263794
 21
127.1054572021
 31
0.0
  0
LINE
  5
1BD
330
1F
100
AcDbEntity
  8
0
  6
HIDDEN
 62
     7
370
     0
100
AcDbLine
 10
222.117927345
 20
141.6054577162
 30
0.0
 11
224.1179239475
 21
139.6054573884
 31
0.0
  0
LINE
  5
1BE
330
1F
100
AcDbEntity
  8
0
  6
HIDDEN
 62
     7
370
     0
100
AcDbLine
 10
235.1179238879
 20
139.6054573884
 30
0.0
 11
237.117927941
 21
141.6054577162
 31
0.0
  0
LINE
  5
1BF
330
1F
100
AcDbEntity
  8
0
  6
HIDDEN
 62
     7
370
     0
100
AcDbLine
 10
224.1179239475
 20
139.6054573884
 30
0.0
 11
224.1179239475
 21
130.5805281331
 31
0.0
  0
LINE
  5
1C0
330
1F
100
AcDbEntity
  8
0
  6
HIDDEN
 62
     7
370
     0
100
AcDbLine
 10
235.1179238879
 20
130.5838846197
 30
0.0
 11
235.1179238879
 21
139.6054573884
 31
0.0
  0
LINE
  5
1C1
330
1F
100
AcDbEntity
  8
0
  6
HIDDEN
 62
     7
370
     0
100
AcDbLine
 10
122.8233058476
 20
112.3554571127
 30
0.0
 11
215.1679251813
 21
112.3554571127
 31
0.0
  0
LINE
  5
1C2
330
1F
100
AcDbEntity
  8
0
  6
HIDDEN
 62
     7
370
     0
100
AcDbLine
 10
215.1679251813
 20
120.8554575746
 30
0.0
 11
122.8233058476
 21
120.8554575746
 31
0.0
  0
LINE
  5
1C3
330
1F
100
AcDbEntity
  8
0
  6
HIDDEN
 62
     7
370
     0
100
AcDbLine
 10
174.9679264151
 20
118.0561756078
 30
0.0
 11
174.9679264151
 21
130.0637484123
 31
0.0
  0
LINE
  5
1C4
330
1F
100
AcDbEntity
  8
0
  6
HIDDEN
 62
     7
370
     0
100
AcDbLine
 10
170.7679260992
 20
127.9620737364
 30
0.0
 11
170.7679260992
 21
118.0544585982
 31
0.0
  0
LINE
  5
1C5
330
1F
100
AcDbEntity
  8
0
  6
HIDDEN
 62
     7
370
     0
100
AcDbLine
 10
170.7679260992
 20
130.0637484123
 30
0.0
 11
170.7679260992
 21
129.715698265
 31
0.0
  0
LINE
  5
1C6
330
1F
100
AcDbEntity
  8
0
  6
HIDDEN
 62
     7
370
     0
100
AcDbLine
 10
163.5678987489
 20
128.4038037588
 30
0.0
 11
172.0152259343
 21
126.3807951068
 31
0.0
  0
LINE
  5
1C7
330
1F
100
AcDbEntity
  8
0
  6
HIDDEN
 62
     7
370
     0
100
AcDbLine
 10
172.0152259343
 20
130.6995576774
 30
0.0
 11
164.5460766279
 21
132.488307037
 31
0.0
  0
LINE
  5
1C8
330
1F
100
AcDbEntity
  8
0
  6
HIDDEN
 62
     7
370
     0
100
AcDbLine
 10
161.8679260839
 20
127.885473386
 30
0.0
 11
163.0899570421
 21
127.5928145801
 31
0.0
  0
LINE
  5
1C9
330
1F
100
AcDbEntity
  8
0
  6
HIDDEN
 62
     7
370
     0
100
AcDbLine
 10
164.4873539456
 20
133.4278196623
 30
0.0
 11
161.8679260839
 21
134.0551343342
 31
0.0
  0
LINE
  5
1CA
330
1F
100
AcDbEntity
  8
0
  6
HIDDEN
 62
     7
370
     0
100
AcDbLine
 10
175.3679257356
 20
130.1135425051
 30
0.0
 11
175.3679257356
 21
133.2697704961
 31
0.0
  0
LINE
  5
1CB
330
1F
100
AcDbEntity
  8
0
  6
HIDDEN
 62
     7
370
     0
100
AcDbLine
 10
170.3679258474
 20
132.1672019144
 30
0.0
 11
170.3679258474
 21
130.1135425051
 31
0.0
  0
LINE
  5
1CC
330
1F
100
AcDbEntity
  8
0
  6
HIDDEN
 62
     7
370
     0
100
AcDbLine
 10
235.6179249012
 20
140.9054570427
 30
0.0
 11
235.2895554625
 21
141.2338283439
 31
0.0
  0
LINE
  5
1CD
330
1F
100
AcDbEntity
  8
0
  6
HIDDEN
 62
     7
370
     0
100
AcDbLine
 10
223.9464190327
 20
141.2339512785
 30
0.0
 11
223.6179229342
 21
140.9054570427
 31
0.0
  0
LINE
  5
1CE
330
1F
100
AcDbEntity
  8
0
  6
HIDDEN
 62
     7
370
     0
100
AcDbLine
 10
223.6179229342
 20
140.9054570427
 30
0.0
 11
223.6179229342
 21
133.5025713374
 31
0.0
  0
LINE
  5
1CF
330
1F
100
AcDbEntity
  8
0
  6
HIDDEN
 62
     7
370
     0
100
AcDbLine
 10
235.6179249012
 20
133.5025713374
 30
0.0
 11
235.6179249012
 21
140.9054570427
 31
0.0
  0
LINE
  5
1D0
330
1F
100
AcDbEntity
  8
0
  6
HIDDEN
 62
     7
370
     0
100
AcDbLine
 10
223.6179229342
 20
133.5025713374
 30
0.0
 11
225.8083489262
 21
125.3278120016
 31
0.0
  0
LINE
  5
1D1
330
1F
100
AcDbEntity
  8
0
  6
HIDDEN
 62
     7
370
     0
100
AcDbLine
 10
233.4275063597
 20
125.3278120016
 30
0.0
 11
235.6179249012
 21
133.5025713374
 31
0.0
  0
ARC
  5
1D2
330
1F
100
AcDbEntity
  8
0
  6
HIDDEN
 62
     7
370
     0
100
AcDbCircle
 10
226.0981242612
 20
125.4054573437
 30
0.0
 40
0.3000000000000256
100
AcDbArc
 50
195.0
 51
270.0
  0
ARC
  5
1D3
330
1F
100
AcDbEntity
  8
0
  6
HIDDEN
 62
     7
370
     0
100
AcDbCircle
 10
233.1377280684
 20
125.4054573437
 30
0.0
 40
0.3000000000000279
100
AcDbArc
 50
270.0
 51
345.0
  0
LINE
  5
1D4
330
1F
100
AcDbEntity
  8
0
  6
HIDDEN
 62
     7
370
     0
100
AcDbLine
 10
226.0179263078
 20
141.6054577162
 30
0.0
 11
226.4637765013
 21
141.1596037974
 31
0.0
  0
LINE
  5
1D5
330
1F
100
AcDbEntity
  8
0
  6
HIDDEN
 62
     7
370
     0
100
AcDbLine
 10
232.7633616053
 20
141.1508940687
 30
0.0
 11
233.2179289781
 21
141.6054577162
 31
0.0
  0
LINE
  5
1D6
330
1F
100
AcDbEntity
  8
0
  6
HIDDEN
 62
     7
370
     0
100
AcDbLine
 10
226.6179290139
 20
134.6054565688
 30
0.0
 11
226.6179290139
 21
133.6054582675
 31
0.0
  0
LINE
  5
1D7
330
1F
100
AcDbEntity
  8
0
  6
HIDDEN
 62
     7
370
     0
100
AcDbLine
 10
232.6179262721
 20
133.6054582675
 30
0.0
 11
232.6179262721
 21
134.6054565688
 31
0.0
  0
LINE
  5
1D8
330
1F
100
AcDbEntity
  8
0
  6
HIDDEN
 62
     7
370
     0
100
AcDbLine
 10
226.6179290139
 20
133.6054582675
 30
0.0
 11
229.617927643
 21
132.5135458787
 31
0.0
  0
LINE
  5
1D9
330
1F
100
AcDbEntity
  8
0
  6
HIDDEN
 62
     7
370
     0
100
AcDbLine
 10
229.617927643
 20
132.5135458787
 30
0.0
 11
232.6179262721
 21
133.6054582675
 31
0.0
  0
LINE
  5
1DA
330
1F
100
AcDbEntity
  8
0
  6
HIDDEN
 62
     7
370
     0
100
AcDbLine
 10
175.3679257356
 20
130.1135425051
 30
0.0
 11
175.3679257356
 21
130.7120783781
 31
0.0
  0
LINE
  5
1DB
330
1F
100
AcDbEntity
  8
0
  6
HIDDEN
 62
     7
370
     0
100
AcDbLine
 10
170.3679258474
 20
130.7120783781
 30
0.0
 11
170.3679258474
 21
130.1135425051
 31
0.0
  0
LINE
  5
1DC
330
1F
100
AcDbEntity
  8
0
  6
HIDDEN
 62
     7
370
     0
100
AcDbLine
 10
174.867926585
 20
130.4742716779
 30
0.0
 11
174.867926585
 21
131.8920473163
 31
0.0
  0
LINE
  5
1DD
330
1F
100
AcDbEntity
  8
0
  6
HIDDEN
 62
     7
370
     0
100
AcDbLine
 10
170.8679259293
 20
131.8920473163
 30
0.0
 11
170.8679259293
 21
130.4742716779
 31
0.0
  0
LINE
  5
1DE
330
1F
100
AcDbEntity
  8
0
  6
HIDDEN
 62
     7
370
     0
100
AcDbLine
 10
175.3679257356
 20
131.6560539012
 30
0.0
 11
175.3679257356
 21
131.8441652288
 31
0.0
  0
LINE
  5
1DF
330
1F
100
AcDbEntity
  8
0
  6
HIDDEN
 62
     7
370
     0
100
AcDbLine
 10
170.3679258474
 20
131.8441652288
 30
0.0
 11
170.3679258474
 21
131.6560539012
 31
0.0
  0
LINE
  5
1E0
330
1F
100
AcDbEntity
  8
0
  6
HIDDEN
 62
     7
370
     0
100
AcDbLine
 10
170.3679258474
 20
101.5548607861
 30
0.0
 11
170.3679258474
 21
101.3667494585
 31
0.0
  0
LINE
  5
1E1
330
1F
100
AcDbEntity
  8
0
  6
HIDDEN
 62
     7
370
     0
100
AcDbLine
 10
175.3679257356
 20
101.3667494585
 30
0.0
 11
175.3679257356
 21
101.5548607861
 31
0.0
  0
LINE
  5
1E2
330
1F
100
AcDbEntity
  8
0
  6
HIDDEN
 62
     7
370
     0
100
AcDbLine
 10
170.8679259293
 20
102.7366430094
 30
0.0
 11
170.8679259293
 21
101.318867371
 31
0.0
  0
LINE
  5
1E3
330
1F
100
AcDbEntity
  8
0
  6
HIDDEN
 62
     7
370
     0
100
AcDbLine
 10
174.867926585
 20
101.318867371
 30
0.0
 11
174.867926585
 21
102.7366430094
 31
0.0
  0
LINE
  5
1E4
330
1F
100
AcDbEntity
  8
0
  6
HIDDEN
 62
     7
370
     0
100
AcDbLine
 10
170.3679258474
 20
103.0973721822
 30
0.0
 11
170.3679258474
 21
102.4988363092
 31
0.0
  0
LINE
  5
1E5
330
1F
100
AcDbEntity
  8
0
  6
HIDDEN
 62
     7
370
     0
100
AcDbLine
 10
175.3679257356
 20
102.4988363092
 30
0.0
 11
175.3679257356
 21
103.0973721822
 31
0.0
  0
CIRCLE
  5
1E6
330
1F
100
AcDbEntity
  8
0
  6
HIDDEN
 62
     7
370
     0
100
AcDbCircle
 10
172.8679261648
 20
131.0711993056
 30
0.0
 40
1.99999999999998
  0
ARC
  5
1E7
330
1F
100
AcDbEntity
  8
0
  6
HIDDEN
 62
     7
370
     0
100
AcDbCircle
 10
172.8679261648
 20
102.1397153817
 30
0.0
 40
2.00000000000003
100
AcDbArc
 50
71.1182787691
 51
192.2156859337
  0
ARC
  5
1E8
330
1F
100
AcDbEntity
  8
0
  6
HIDDEN
 62
     7
370
     0
100
AcDbCircle
 10
172.8679261648
 20
102.1397153817
 30
0.0
 40
2.000000000000007
100
AcDbArc
 50
340.3453161116
 51
71.1182787691
  0
LINE
  5
1E9
330
1F
100
AcDbEntity
  8
0
  6
HIDDEN
 62
     7
370
     0
100
AcDbLine
 10
166.8419721075
 20
127.8035942992
 30
0.0
 11
167.339014309
 21
128.2772100126
 31
0.0
  0
LINE
  5
1EA
330
1F
100
AcDbEntity
  8
0
  6
HIDDEN
 62
     7
370
     0
100
AcDbLine
 10
167.9654311859
 20
130.892891862
 30
0.0
 11
167.7368529611
 21
131.5402821233
 31
0.0
  0
LINE
  5
1EB
330
1F
100
AcDbEntity
  8
0
  6
HIDDEN
 62
     7
370
     0
100
AcDbLine
 10
163.4168643043
 20
128.0286642318
 30
0.0
 11
165.8686510757
 21
127.4414979448
 31
0.0
  0
LINE
  5
1EC
330
1F
100
AcDbEntity
  8
0
  6
HIDDEN
 62
     7
370
     0
100
AcDbLine
 10
167.0331484177
 20
132.3040020247
 30
0.0
 11
164.5813611806
 21
132.8911673804
 31
0.0
  0
LINE
  5
1ED
330
1F
100
AcDbEntity
  8
0
  6
HIDDEN
 62
     7
370
     0
100
AcDbLine
 10
164.5813611806
 20
100.3197473069
 30
0.0
 11
167.0331484177
 21
100.9069126626
 31
0.0
  0
LINE
  5
1EE
330
1F
100
AcDbEntity
  8
0
  6
HIDDEN
 62
     7
370
     0
100
AcDbLine
 10
165.8686510757
 20
105.7694167425
 30
0.0
 11
163.4168643043
 21
105.1822504555
 31
0.0
  0
LINE
  5
1EF
330
1F
100
AcDbEntity
  8
0
  6
HIDDEN
 62
     7
370
     0
100
AcDbLine
 10
167.7368529611
 20
101.670632564
 30
0.0
 11
167.9654311859
 21
102.3180228253
 31
0.0
  0
LINE
  5
1F0
330
1F
100
AcDbEntity
  8
0
  6
HIDDEN
 62
     7
370
     0
100
AcDbLine
 10
167.339014309
 20
104.9337046747
 30
0.0
 11
166.8419721075
 21
105.4073203882
 31
0.0
  0
DIMENSION
  5
1F1
330
1F
100
AcDbEntity
  8
VERMASSUNG
100
AcDbDimension
  2
_D
 10
49.7056522744
 20
165.3304573437
 30
0.0
 11
49.7056522744
 21
116.6054573437
 31
0.0
 70
   160
  1
ISO 50 %%c<>
 71
     2
 42
-1.0
  3
SLDDIMSTYLE0
100
AcDbAlignedDimension
 13
177.1179261648
 23
67.8804573437
 33
0.0
 14
177.1179261648
 24
165.3304573437
 34
0.0
 50
90.0
100
AcDbRotatedDimension
  0
DIMENSION
  5
1FE
330
1F
100
AcDbEntity
  8
VERMASSUNG
100
AcDbDimension
  2
_D_1
 10
251.0768318806
 20
102.6054573437
 30
0.0
 11
251.0768318806
 21
116.6054573437
 31
0.0
 70
   160
  1
%%c<>
 71
     2
 42
-1.0
  3
SLDDIMSTYLE0
100
AcDbAlignedDimension
 13
242.6679261648
 23
130.6054573437
 33
0.0
 14
242.6679261648
 24
102.6054573437
 34
0.0
 50
90.0
100
AcDbRotatedDimension
  0
DIMENSION
  5
209
330
1F
100
AcDbEntity
  8
VERMASSUNG
100
AcDbDimension
  2
_D_2
 10
257.0768318806
 20
91.6054573437
 30
0.0
 11
257.0768318806
 21
116.6054573437
 31
0.0
 70
   160
  1
WH%%c<>
 71
     2
 42
-1.0
  3
SLDDIMSTYLE0
100
AcDbAlignedDimension
 13
243.1679261648
 23
141.6054573437
 33
0.0
 14
243.1679261648
 24
91.6054573437
 34
0.0
 50
90.0
100
AcDbRotatedDimension
  0
DIMENSION
  5
215
330
1F
100
AcDbEntity
  8
VERMASSUNG
100
AcDbDimension
  2
_D_3
 10
177.7179261648
 20
171.0259085779
 30
0.0
 11
210.6929261648
 21
171.0259085779
 31
0.0
 70
   160
  1
<>
 71
     2
 42
-1.0
  3
SLDDIMSTYLE0
100
AcDbAlignedDimension
 13
243.6679261648
 23
141.1054573437
 33
0.0
 14
177.7179261648
 24
162.9004442969
 34
0.0
100
AcDbRotatedDimension
  0
DIMENSION
  5
21F
330
1F
100
AcDbEntity
  8
VERMASSUNG
100
AcDbDimension
  2
_D_4
 10
158.6679261648
 20
177.0259085779
 30
0.0
 11
201.1679261648
 21
177.0259085779
 31
0.0
 70
   160
  1
<>
 71
     2
 42
-1.0
  3
SLDDIMSTYLE0
100
AcDbAlignedDimension
 13
243.6679261648
 23
141.1054573437
 33
0.0
 14
158.6679261648
 24
151.5304573437
 34
0.0
100
AcDbRotatedDimension
  0
DIMENSION
  5
229
330
1F
100
AcDbEntity
  8
VERMASSUNG
100
AcDbDimension
  2
_D_5
 10
57.0679261648
 20
183.0259085779
 30
0.0
 11
150.3679261648
 21
183.0259085779
 31
0.0
 70
   160
  1
<>
 71
     2
 42
-1.0
  3
SLDDIMSTYLE0
100
AcDbAlignedDimension
 13
243.6679261648
 23
141.1054573437
 33
0.0
 14
57.0679261648
 24
134.9843018711
 34
0.0
100
AcDbRotatedDimension
  0
LINE
  5
233
330
1F
100
AcDbEntity
  8
VERMASSUNG
  6
CENTERX2
370
     0
100
AcDbLine
 10
174.4619043867
 20
127.9542334489
 30
0.0
 11
163.7886554738
 21
130.5103173462
 31
0.0
  0
LINE
  5
234
330
1F
100
AcDbEntity
  8
VERMASSUNG
  6
CENTERX2
370
     0
100
AcDbLine
 10
163.7886554738
 20
130.5103173462
 30
0.0
 11
161.6436538277
 21
131.0240132425
 31
0.0
  0
LINE
  5
235
330
1F
100
AcDbEntity
  8
VERMASSUNG
  6
CENTERX2
370
     0
100
AcDbLine
 10
229.6179261648
 20
127.4798526045
 30
0.0
 11
229.6179261648
 21
141.6054573437
 31
0.0
  0
LINE
  5
236
330
1F
100
AcDbEntity
  8
VERMASSUNG
  6
CENTERX2
370
     0
100
AcDbLine
 10
245.5476258269
 20
116.6054573437
 30
0.0
 11
53.2761968415
 21
116.6054573437
 31
0.0
  0
LINE
  5
237
330
1F
100
AcDbEntity
  8
0
  6
Continuous
 62
     7
370
    15
100
AcDbLine
 10
270.0902549453
 20
16.2112055449
 30
0.0
 11
270.2670032678
 21
16.3132733547
 31
0.0
  0
LINE
  5
238
330
1F
100
AcDbEntity
  8
0
  6
Continuous
 62
     7
370
    15
100
AcDbLine
 10
278.9276532827
 20
31.315584871
 30
0.0
 11
278.9276532827
 21
31.5196873125
 31
0.0
  0
LINE
  5
239
330
1F
100
AcDbEntity
  8
0
  6
Continuous
 62
     7
370
    15
100
AcDbLine
 10
276.3383102779
 20
37.2427473782
 30
0.0
 11
254.2589013346
 21
49.9889188513
 31
0.0
  0
LINE
  5
23A
330
1F
100
AcDbEntity
  8
0
  6
Continuous
 62
     7
370
    15
100
AcDbLine
 10
241.759917551
 20
28.3376971701
 30
0.0
 11
263.8393264943
 21
15.5915256971
 31
0.0
  0
SPLINE
  5
23B
330
1F
100
AcDbEntity
  8
0
  6
Continuous
 62
     7
370
    15
100
AcDbSpline
210
0.0
220
0.0
230
1.0
 70
     8
 71
     3
 72
    24
 73
    20
 74
     0
 42
0.000000001
 43
0.00000001
 40
0.0
 40
0.0
 40
0.0
 40
0.0
 40
0.0215162846187582
 40
0.0876343264087606
 40
0.1534672081153406
 40
0.2169378901298747
 40
0.2788029482000129
 40
0.3400298318646943
 40
0.4011283277709863
 40
0.4622645971982036
 40
0.5235293120340434
 40
0.584923972129842
 40
0.6464139797512177
 40
0.7079515576985198
 40
0.7694825158457487
 40
0.8309374040343614
 40
0.8922624614083767
 40
0.953408354389423
 40
1.0
 40
1.0
 40
1.0
 40
1.0
 10
266.5356414932907
 20
20.40931299478199
 30
0.0
 10
266.4790231676707
 20
20.43231459656296
 30
0.0
 10
266.248420676766
 20
20.52599851616683
 30
0.0
 10
265.9221003463948
 20
20.82385798449885
 30
0.0
 10
265.563046164206
 20
21.30885844113592
 30
0.0
 10
265.3034912456055
 20
21.925742795711
 30
0.0
 10
265.1448552605282
 20
22.64054695990485
 30
0.0
 10
265.0910790651228
 20
23.44069779909599
 30
0.0
 10
265.1434773120628
 20
24.30997457962851
 30
0.0
 10
265.3024811057578
 20
25.23026338723868
 30
0.0
 10
265.5659165397123
 20
26.18088334164143
 30
0.0
 10
265.9289758163448
 20
27.14013560911092
 30
0.0
 10
266.3840677773388
 20
28.08567933149083
 30
0.0
 10
266.9210536097643
 20
28.99544773147702
 30
0.0
 10
267.5273962002522
 20
29.84794467654176
 30
0.0
 10
268.188638388642
 20
30.62408943869754
 30
0.0
 10
268.8882816806698
 20
31.30337001458074
 30
0.0
 10
269.5533269013213
 20
31.83579936761641
 30
0.0
 10
269.9782584065544
 20
32.09718246463411
 30
0.0
 10
270.1620221936188
 20
32.21021891213459
 30
0.0
  0
SPLINE
  5
23C
330
1F
100
AcDbEntity
  8
0
  6
Continuous
 62
     7
370
    15
100
AcDbSpline
210
0.0
220
0.0
230
1.0
 70
     8
 71
     3
 72
    13
 73
     9
 74
     0
 42
0.000000001
 43
0.00000001
 40
0.0
 40
0.0
 40
0.0
 40
0.0
 40
0.0970872351150612
 40
0.2824263912982845
 40
0.467705142911459
 40
0.6538945198483788
 40
0.8432647524854056
 40
1.0
 40
1.0
 40
1.0
 40
1.0
 10
270.1620221936188
 20
32.21021891213459
 30
0.0
 10
270.2867363911375
 20
32.27890598010639
 30
0.0
 10
270.6495295091736
 20
32.47871639507127
 30
0.0
 10
271.2371454820475
 20
32.71142587829657
 30
0.0
 10
271.8981632138823
 20
32.86205930687292
 30
0.0
 10
272.5041130806344
 20
32.87632594456279
 30
0.0
 10
273.0198656930293
 20
32.78428491869359
 30
0.0
 10
273.2985858083546
 20
32.63017110796429
 30
0.0
 10
273.424805324566
 20
32.56038005392061
 30
0.0
  0
SPLINE
  5
23D
330
1F
100
AcDbEntity
  8
0
  6
Continuous
 62
     7
370
    15
100
AcDbSpline
210
0.0
220
0.0
230
1.0
 70
     8
 71
     3
 72
    10
 73
     6
 74
     0
 42
0.000000001
 43
0.00000001
 40
0.0
 40
0.0
 40
0.0
 40
0.0
 40
0.134195124446517
 40
0.6045542330645128
 40
1.0
 40
1.0
 40
1.0
 40
1.0
 10
226.0061169670449
 20
42.81540010421524
 30
0.0
 10
225.945085107296
 20
42.64498894039914
 30
0.0
 10
225.6701342153379
 20
41.87728004731238
 30
0.0
 10
225.3027285263087
 20
40.60713311231066
 30
0.0
 10
225.0509933450486
 20
39.52150299734387
 30
0.0
 10
224.9360163858874
 20
39.02565474614656
 30
0.0
  0
SPLINE
  5
23E
330
1F
100
AcDbEntity
  8
0
  6
Continuous
 62
     7
370
    15
100
AcDbSpline
210
0.0
220
0.0
230
1.0
 70
     8
 71
     3
 72
    19
 73
    15
 74
     0
 42
0.000000001
 43
0.00000001
 40
0.0
 40
0.0
 40
0.0
 40
0.0
 40
0.0322518670420541
 40
0.1267981326814274
 40
0.2214319228444567
 40
0.3161097108905252
 40
0.4107995680169471
 40
0.5054797862936263
 40
0.6001421720025398
 40
0.6947836094698621
 40
0.7894041357995022
 40
0.884005857290241
 40
0.9785918871585876
 40
1.0
 40
1.0
 40
1.0
 40
1.0
 10
245.9368457405428
 20
64.69780521762263
 30
0.0
 10
245.7839698789171
 20
64.66164105249037
 30
0.0
 10
245.1829388204383
 20
64.5194617298863
 30
0.0
 10
244.1073135577367
 20
64.12575029781433
 30
0.0
 10
242.7203257659294
 20
63.51959711475688
 30
0.0
 10
241.3242579694564
 20
62.76930198209965
 30
0.0
 10
239.9306783219293
 20
61.89242509396041
 30
0.0
 10
238.5480561715892
 20
60.89152839049731
 30
0.0
 10
237.1853407511815
 20
59.77432733673204
 30
0.0
 10
235.8516892937193
 20
58.54741709783583
 30
0.0
 10
234.5538109077592
 20
57.22088166107077
 30
0.0
 10
233.3067605829324
 20
55.79593884279761
 30
0.0
 10
232.4061281418181
 20
54.69273512754563
 30
0.0
 10
231.9440232064757
 20
54.04620461278274
 30
0.0
 10
231.8587361879308
 20
53.92687963746831
 30
0.0
  0
LINE
  5
23F
330
1F
100
AcDbEntity
  8
0
  6
Continuous
 62
     7
370
    15
100
AcDbLine
 10
240.1959000278
 20
62.0375733481
 30
0.0
 11
209.4346169787
 21
73.1227203542
 31
0.0
  0
LINE
  5
240
330
1F
100
AcDbEntity
  8
0
  6
Continuous
 62
     7
370
    15
100
AcDbLine
 10
199.3107575983
 20
55.5857819538
 30
0.0
 11
228.7782687168
 21
30.7036595155
 31
0.0
  0
SPLINE
  5
241
330
1F
100
AcDbEntity
  8
0
  6
Continuous
 62
     7
370
    15
100
AcDbSpline
210
0.0
220
0.0
230
1.0
 70
     8
 71
     3
 72
    14
 73
    10
 74
     0
 42
0.000000001
 43
0.00000001
 40
0.0
 40
0.0
 40
0.0
 40
0.0
 40
0.0718682301769682
 40
0.2310719587163526
 40
0.3904124157253073
 40
0.5498192464565831
 40
0.7092401407880957
 40
0.8686424675518253
 40
1.0
 40
1.0
 40
1.0
 40
1.0
 10
242.3804324307375
 20
18.0962228194784
 30
0.0
 10
242.58322504536
 20
18.14632508630827
 30
0.0
 10
243.2352473166563
 20
18.30741474865282
 30
0.0
 10
244.3627776361697
 20
18.73018000653522
 30
0.0
 10
245.7514405088123
 20
19.35526124580474
 30
0.0
 10
247.1478536598331
 20
20.12133234161884
 30
0.0
 10
248.5399191968015
 20
21.01690588947695
 30
0.0
 10
249.841788586608
 20
21.96472348340678
 30
0.0
 10
250.6650053856227
 20
22.66557527992385
 30
0.0
 10
251.0369127310231
 20
22.98220138798389
 30
0.0
  0
LINE
  5
242
330
1F
100
AcDbEntity
  8
0
  6
Continuous
 62
     7
370
    15
100
AcDbLine
 10
233.1008346828
 20
19.6392153168
 30
0.0
 11
234.5563566691
 21
18.7989603594
 31
0.0
  0
LINE
  5
243
330
1F
100
AcDbEntity
  8
0
  6
Continuous
 62
     7
370
    15
100
AcDbLine
 10
229.3767997345
 20
21.7890549318
 30
0.0
 11
230.8146444105
 21
20.9590048685
 31
0.0
  0
LINE
  5
244
330
1F
100
AcDbEntity
  8
0
  6
Continuous
 62
     7
370
    15
100
AcDbLine
 10
224.9449172735
 20
27.8546356879
 30
0.0
 11
224.9892784779
 21
27.7087698623
 31
0.0
  0
LINE
  5
245
330
1F
100
AcDbEntity
  8
0
  6
Continuous
 62
     7
370
    15
100
AcDbLine
 10
263.3638343105
 20
54.8860332775
 30
0.0
 11
263.3122412996
 21
55.0518883191
 31
0.0
  0
SPLINE
  5
246
330
1F
100
AcDbEntity
  8
0
  6
Continuous
 62
     7
370
    15
100
AcDbSpline
210
0.0
220
0.0
230
1.0
 70
     8
 71
     3
 72
    26
 73
    22
 74
     0
 42
0.000000001
 43
0.00000001
 40
0.0
 40
0.0
 40
0.0
 40
0.0
 40
0.0206098635346963
 40
0.0728944510643923
 40
0.1258585040611578
 40
0.1800156137396773
 40
0.2354401611125397
 40
0.2918299514627566
 40
0.3487416667418533
 40
0.4057939356565405
 40
0.4627674603426434
 40
0.5196158025351038
 40
0.5763503990457023
 40
0.6330092550266897
 40
0.6896415235028057
 40
0.7462991724022513
 40
0.8030217144057956
 40
0.8598660589598679
 40
0.9168873020481363
 40
0.9741306256673679
 40
1.0
 40
1.0
 40
1.0
 40
1.0
 10
209.4859531572611
 20
73.08392077603041
 30
0.0
 10
209.3890810285679
 20
73.12552259884984
 30
0.0
 10
209.0464567005297
 20
73.27266292477174
 30
0.0
 10
208.3943512994871
 20
73.37550749834897
 30
0.0
 10
207.5488081200103
 20
73.39392992648453
 30
0.0
 10
206.661899959172
 20
73.25895571286061
 30
0.0
 10
205.7476297993534
 20
72.9816271413714
 30
0.0
 10
204.8177301359975
 20
72.56039921512792
 30
0.0
 10
203.8888687463558
 20
72.00248244023167
 30
0.0
 10
202.9776848498356
 20
71.31821728002734
 30
0.0
 10
202.0993680592334
 20
70.5207259417285
 30
0.0
 10
201.2671269977261
 20
69.62401881711509
 30
0.0
 10
200.4926745797545
 20
68.6425762799947
 30
0.0
 10
199.7868551246016
 20
67.59149791654842
 30
0.0
 10
199.159728427315
 20
66.48648616398084
 30
0.0
 10
198.6205028348194
 20
65.3437937199374
 30
0.0
 10
198.1775876511588
 20
64.18003411358599
 30
0.0
 10
197.837773875399
 20
63.01149666175165
 30
0.0
 10
197.6092324336343
 20
61.8553806741191
 30
0.0
 10
197.5123128797711
 20
60.93232216826902
 30
0.0
 10
197.5042475415467
 20
60.40522315053801
 30
0.0
 10
197.5017371519338
 20
60.24116011160329
 30
0.0
  0
SPLINE
  5
247
330
1F
100
AcDbEntity
  8
0
  6
Continuous
 62
     7
370
    15
100
AcDbSpline
210
0.0
220
0.0
230
1.0
 70
     8
 71
     3
 72
    13
 73
     9
 74
     0
 42
0.000000001
 43
0.00000001
 40
0.0
 40
0.0
 40
0.0
 40
0.0
 40
0.1013708038922181
 40
0.2925452651573772
 40
0.4837075735181394
 40
0.673017314708729
 40
0.8585816591153959
 40
1.0
 40
1.0
 40
1.0
 40
1.0
 10
197.5017371519338
 20
60.24116011160329
 30
0.0
 10
197.5051930596924
 20
60.05039393396985
 30
0.0
 10
197.5151664387405
 20
59.49986321036852
 30
0.0
 10
197.6270176486046
 20
58.63597069376737
 30
0.0
 10
197.8786388007122
 20
57.68714217095851
 30
0.0
 10
198.2605161822993
 20
56.84178080588617
 30
0.0
 10
198.7123694242047
 20
56.15172288183863
 30
0.0
 10
199.0850506717769
 20
55.8086385487785
 30
0.0
 10
199.2462334073811
 20
55.66025632749469
 30
0.0
  0
LINE
  5
248
330
1F
100
AcDbEntity
  8
0
  6
Continuous
 62
     7
370
    15
100
AcDbLine
 10
269.1365752106
 20
29.239025338
 30
0.0
 11
271.6697091367
 21
29.7551332746
 31
0.0
  0
LINE
  5
249
330
1F
100
AcDbEntity
  8
0
  6
Continuous
 62
     7
370
    15
100
AcDbLine
 10
267.4198359477
 20
40.3281024014
 30
0.0
 11
267.1723063539
 21
40.4710448294
 31
0.0
  0
LINE
  5
24A
330
1F
100
AcDbEntity
  8
0
  6
Continuous
 62
     7
370
    15
100
AcDbLine
 10
263.4240329275
 20
40.4710440177
 30
0.0
 11
263.1765037818
 21
40.3281035591
 31
0.0
  0
LINE
  5
24B
330
1F
100
AcDbEntity
  8
0
  6
Continuous
 62
     7
370
    15
100
AcDbLine
 10
262.2981695205
 20
39.1036900972
 30
0.0
 11
262.2981695205
 21
38.7770735668
 31
0.0
  0
LINE
  5
24C
330
1F
100
AcDbEntity
  8
0
  6
Continuous
 62
     7
370
    15
100
AcDbLine
 10
268.298168862
 20
38.7770737569
 30
0.0
 11
268.298168862
 21
39.1036902873
 31
0.0
  0
LWPOLYLINE
  5
24D
330
1F
100
AcDbEntity
  8
0
  6
Continuous
 62
     7
370
    15
100
AcDbPolyline
 90
       53
 70
   128
 43
0.0
 10
270.2655954397
 20
36.3177100008
 10
269.221499711
 20
35.6420364542
 10
268.1926292021
 20
34.8303540217
 10
267.1939874501
 20
33.8945005145
 10
266.2401364382
 20
32.8481219757
 10
265.3449857789
 20
31.7064764536
 10
264.5215884827
 20
30.486212678
 10
263.7819521211
 20
29.2051249243
 10
263.1368616775
 20
27.8818933317
 10
262.5957238014
 20
26.5358141436
 10
262.1664304905
 20
25.186516448
 10
261.8552412101
 20
23.8536760647
 10
261.6666933321
 20
22.556728003
 10
261.6035375967
 20
21.3145857627
 10
261.6666933321
 20
20.1453615824
 10
261.8552412101
 20
19.066106267
 10
262.1664304905
 20
18.092557379
 10
262.5957238014
 20
17.23891119
 10
263.1368616775
 20
16.5176164946
 10
263.7819521211
 20
15.9391904747
 10
264.5215884827
 20
15.5120686869
 10
265.3449857789
 20
15.2424791938
 10
266.2401364382
 20
15.1343526239
 10
267.1939874501
 20
15.1892670218
 10
268.1926292021
 20
15.4064207389
 10
269.221499711
 20
15.7826469106
 10
270.2655954397
 20
16.3124606328
 10
271.3096911683
 20
16.9881341794
 10
272.3385616772
 20
17.7998166119
 10
273.3372034292
 20
18.7356701192
 10
274.2910544411
 20
19.782048658
 10
275.1862051004
 20
20.9236941801
 10
276.0096023966
 20
22.1439579556
 10
276.7492387582
 20
23.4250457093
 10
277.3943292019
 20
24.7482773019
 10
277.9354670779
 20
26.0943564901
 10
278.3647603888
 20
27.4436541856
 10
278.6759496692
 20
28.776494569
 10
278.8644975472
 20
30.0734426307
 10
278.9276532827
 20
31.315584871
 10
278.8644975472
 20
32.4848090513
 10
278.6759496692
 20
33.5640643666
 10
278.3647603888
 20
34.5376132546
 10
277.9354670779
 20
35.3912594436
 10
277.3943292019
 20
36.112554139
 10
276.7492387582
 20
36.690980159
 10
276.0096023966
 20
37.1181019467
 10
275.1862051004
 20
37.3876914398
 10
274.2910544411
 20
37.4958180098
 10
273.3372034292
 20
37.4409036119
 10
272.3385616772
 20
37.2237498948
 10
271.3096911683
 20
36.847523723
 10
270.2655954397
 20
36.3177100008
  0
LWPOLYLINE
  5
24E
330
1F
100
AcDbEntity
  8
0
  6
Continuous
 62
     7
370
    15
100
AcDbPolyline
 90
       28
 70
   128
 43
0.0
 10
270.0888183861
 20
36.6238968383
 10
269.0434213735
 20
35.9487618215
 10
268.0126993667
 20
35.139823503
 10
267.0111218233
 20
34.2084379907
 10
266.0527479277
 20
33.1676789366
 10
265.1510319089
 20
32.0321582283
 10
264.3186316508
 20
30.8178143604
 10
263.5672317087
 20
29.5416939135
 10
262.9073813069
 20
28.2217127835
 10
262.3483422156
 20
26.8763991601
 10
261.8979623095
 20
25.5246380225
 10
261.5625636159
 20
24.1854053684
 10
261.3468553867
 20
22.8775017752
 10
261.2538656094
 20
21.6192871231
 10
261.2848982023
 20
20.4284231593
 10
261.4395191844
 20
19.3216280121
 10
261.7155573346
 20
18.3144384034
 10
262.1091377768
 20
17.4209925576
 10
262.6147353228
 20
16.6538331173
 10
263.2252521799
 20
16.0237285229
 10
263.9321187082
 20
15.5395252829
 10
264.7254122885
 20
15.2080192544
 10
265.5939959453
 20
15.033864945
 10
266.5256770563
 20
15.0195066758
 10
267.5073769277
 20
15.1651464363
 10
268.5253145276
 20
15.4687396844
 10
269.5652002636
 20
15.9260235602
 10
270.0902549453
 20
16.2112055449
  0
LWPOLYLINE
  5
24F
330
1F
100
AcDbEntity
  8
0
  6
Continuous
 62
     7
370
    15
100
AcDbPolyline
 90
       15
 70
   128
 43
0.0
 10
278.9276532827
 20
31.5196873125
 10
278.9237711628
 20
31.8199064727
 10
278.8307813855
 20
32.9707574133
 10
278.6150731563
 20
34.0296095863
 10
278.2796744628
 20
34.9815991515
 10
277.8292945567
 20
35.813362718
 10
277.2702554653
 20
36.5132235454
 10
276.6104050635
 20
37.0713576179
 10
275.8590051214
 20
37.4799301579
 10
275.0266048633
 20
37.7332051447
 10
274.1248888445
 20
37.8276266981
 10
273.1665149489
 20
37.7618708051
 10
272.1649374055
 20
37.5368595005
 10
271.1342153987
 20
37.1557515208
 10
270.0888183861
 20
36.6238968383
  0
SPLINE
  5
250
330
1F
100
AcDbEntity
  8
0
  6
Continuous
 62
     7
370
    15
100
AcDbSpline
210
0.0
220
0.0
230
1.0
 70
    11
 71
     3
 72
    96
 73
    92
 74
     0
 42
0.000000001
 43
0.00000001
 40
0.0
 40
0.0
 40
0.0
 40
0.0
 40
0.03125
 40
0.03125
 40
0.0468750000000004
 40
0.0468750000000004
 40
0.0625000000000009
 40
0.0625000000000009
 40
0.0937500000000017
 40
0.0937500000000017
 40
0.1093750000000022
 40
0.1093750000000022
 40
0.1250000000000026
 40
0.1250000000000026
 40
0.1562500000000025
 40
0.1562500000000025
 40
0.1718750000000024
 40
0.1718750000000024
 40
0.1875000000000024
 40
0.1875000000000024
 40
0.2187500000000023
 40
0.2187500000000023
 40
0.2343750000000027
 40
0.2343750000000027
 40
0.2500000000000031
 40
0.2500000000000031
 40
0.2812500000000038
 40
0.2812500000000038
 40
0.2968750000000044
 40
0.2968750000000044
 40
0.3125000000000052
 40
0.3125000000000052
 40
0.3437500000000065
 40
0.3437500000000065
 40
0.3593750000000072
 40
0.3593750000000072
 40
0.3750000000000078
 40
0.3750000000000078
 40
0.3906250000000085
 40
0.3906250000000085
 40
0.4062500000000092
 40
0.4062500000000092
 40
0.4375000000000105
 40
0.4375000000000105
 40
0.4531250000000112
 40
0.4531250000000112
 40
0.4687500000000119
 40
0.4687500000000119
 40
0.5000000000000127
 40
0.5000000000000127
 40
0.5312500000000134
 40
0.5312500000000134
 40
0.5468750000000134
 40
0.5468750000000134
 40
0.5625000000000134
 40
0.5625000000000134
 40
0.5937500000000124
 40
0.5937500000000124
 40
0.6250000000000115
 40
0.6250000000000115
 40
0.6562500000000105
 40
0.6562500000000105
 40
0.6875000000000095
 40
0.6875000000000095
 40
0.7187500000000085
 40
0.7187500000000085
 40
0.7500000000000075
 40
0.7500000000000075
 40
0.7656250000000071
 40
0.7656250000000071
 40
0.7812500000000067
 40
0.7812500000000067
 40
0.8125000000000052
 40
0.8125000000000052
 40
0.8281250000000047
 40
0.8281250000000047
 40
0.8437500000000041
 40
0.8437500000000041
 40
0.8750000000000033
 40
0.8750000000000033
 40
0.8906250000000029
 40
0.8906250000000029
 40
0.9062500000000024
 40
0.9062500000000024
 40
0.921875000000002
 40
0.921875000000002
 40
0.9375000000000016
 40
0.9375000000000016
 40
0.9687500000000008
 40
0.9687500000000008
 40
1.0
 40
1.0
 40
1.0
 40
1.0
 10
265.2676615962749
 20
41.21420730477163
 30
0.0
 10
265.4980672384026
 20
41.17513830195989
 30
0.0
 10
265.7223826658269
 20
41.12488435958644
 30
0.0
 10
266.0508186034147
 20
41.03605436566693
 30
0.0
 10
266.1589447288807
 20
41.00417572625727
 30
0.0
 10
266.3725402923015
 20
40.93616374225366
 30
0.0
 10
266.4784700675701
 20
40.89985693271628
 30
0.0
 10
266.7886588499445
 20
40.78608679185513
 30
0.0
 10
266.9842932198196
 20
40.70435468042366
 30
0.0
 10
267.2618151882308
 20
40.57423893530332
 30
0.0
 10
267.3516491296028
 20
40.52959792240374
 30
0.0
 10
267.5258926590618
 20
40.43781336970282
 30
0.0
 10
267.6106032790747
 20
40.3904731578796
 30
0.0
 10
267.8521340160856
 20
40.2471318789955
 30
0.0
 10
267.9976613192928
 20
40.14929936291117
 30
0.0
 10
268.1930553490949
 20
39.99875459820412
 30
0.0
 10
268.2543473339657
 20
39.94792980229738
 30
0.0
 10
268.3690146715256
 20
39.84479219620432
 30
0.0
 10
268.4225051794845
 20
39.79231070956099
 30
0.0
 10
268.56779398743
 20
39.63526290923773
 30
0.0
 10
268.6456424119588
 20
39.53024063157154
 30
0.0
 10
268.733397267967
 20
39.3705110433851
 30
0.0
 10
268.757780639602
 20
39.31689629811542
 30
0.0
 10
268.7962822324363
 20
39.20854493050742
 30
0.0
 10
268.8103554753152
 20
39.15368090343542
 30
0.0
 10
268.8356236714512
 20
38.99050334527397
 30
0.0
 10
268.8305920109388
 20
38.88242452660776
 30
0.0
 10
268.7881995595566
 20
38.71926893291501
 30
0.0
 10
268.7682186148305
 20
38.6647114084421
 30
0.0
 10
268.7155746319836
 20
38.55487933654328
 30
0.0
 10
268.6829542599202
 20
38.49989658476436
 30
0.0
 10
268.5680902404471
 20
38.33801032957844
 30
0.0
 10
268.4684200335192
 20
38.23270733954631
 30
0.0
 10
268.2817072846192
 20
38.07768605597087
 30
0.0
 10
268.2125942520433
 20
38.02612307591843
 30
0.0
 10
268.0647455415326
 20
37.92654479766587
 30
0.0
 10
267.9859988608883
 20
37.87841396399031
 30
0.0
 10
267.8190730421724
 20
37.78537206959002
 30
0.0
 10
267.7308936131093
 20
37.74046112613287
 30
0.0
 10
267.5450066101566
 20
37.6539453135025
 30
0.0
 10
267.4466755668284
 20
37.61213081920322
 30
0.0
 10
267.1447318543227
 20
37.49495365067382
 30
0.0
 10
266.9326989097825
 20
37.42684174095984
 30
0.0
 10
266.5994036204135
 20
37.34004893369752
 30
0.0
 10
266.4860387576217
 20
37.31382775932302
 30
0.0
 10
266.2592675185831
 20
37.26777537597259
 30
0.0
 10
266.1452532854008
 20
37.24777999846535
 30
0.0
 10
265.8013477317716
 20
37.19691151880501
 30
0.0
 10
265.5675618228074
 20
37.1751112483142
 30
0.0
 10
265.1100212651122
 20
37.15833559843607
 30
0.0
 10
264.88511331067
 20
37.16296920699983
 30
0.0
 10
264.5530211734813
 20
37.19040979603455
 30
0.0
 10
264.4429825490158
 20
37.20306090901991
 30
0.0
 10
264.2284971804359
 20
37.23496626800016
 30
0.0
 10
264.1235690695551
 20
37.25424328687814
 30
0.0
 10
263.8154769381807
 20
37.32207340004128
 30
0.0
 10
263.6189467074297
 20
37.38056186162896
 30
0.0
 10
263.2437782043261
 20
37.52578824552049
 30
0.0
 10
263.0694747892455
 20
37.61094929144958
 30
0.0
 10
262.7490285162339
 20
37.80436786318207
 30
0.0
 10
262.6023726175162
 20
37.91283361522882
 30
0.0
 10
262.3377091983984
 20
38.15375852607043
 30
0.0
 10
262.2235202630728
 20
38.28271993240761
 30
0.0
 10
262.030570354431
 20
38.55591843506469
 30
0.0
 10
261.9516673449986
 20
38.70045191825365
 30
0.0
 10
261.8328959210577
 20
39.0028835302348
 30
0.0
 10
261.7946120564983
 20
39.15652254838318
 30
0.0
 10
261.7692865578326
 20
39.38892773779618
 30
0.0
 10
261.7662330893773
 20
39.46672312245678
 30
0.0
 10
261.7715018788943
 20
39.62269925949084
 30
0.0
 10
261.7799014179935
 20
39.70128177998822
 30
0.0
 10
261.8231721452959
 20
39.9343554968729
 30
0.0
 10
261.875215786413
 20
40.08378494498488
 30
0.0
 10
261.9895161943161
 20
40.29699285496542
 30
0.0
 10
262.0337007654316
 20
40.36623083931263
 30
0.0
 10
262.1351265021765
 20
40.50056011428671
 30
0.0
 10
262.1926816075524
 20
40.56581286446488
 30
0.0
 10
262.3804755081609
 20
40.74880707946797
 30
0.0
 10
262.5269981019689
 20
40.85597324561649
 30
0.0
 10
262.7796372411793
 20
40.99350727950969
 30
0.0
 10
262.8698965391106
 20
41.035593960375
 30
0.0
 10
263.0565279447842
 20
41.10961542313444
 30
0.0
 10
263.153382045597
 20
41.14188027124171
 30
0.0
 10
263.353918302948
 20
41.19739170556451
 30
0.0
 10
263.4576010874039
 20
41.22063720520417
 30
0.0
 10
263.6717799969048
 20
41.25834481668593
 30
0.0
 10
263.7817676102601
 20
41.27265962658753
 30
0.0
 10
264.1140130765781
 20
41.30233104352075
 30
0.0
 10
264.3408474487139
 20
41.30497501081405
 30
0.0
 10
264.804891959007
 20
41.28036138934488
 30
0.0
 10
265.0372559541473
 20
41.25327630758337
 30
0.0
 10
265.2676615962749
 20
41.21420730477163
 30
0.0
  0
LINE
  5
251
330
1F
100
AcDbEntity
  8
0
  6
Continuous
 62
     7
370
    15
100
AcDbLine
 10
266.4123257414
 20
20.4568455204
 30
0.0
 11
266.5465838688
 21
20.3850703209
 31
0.0
  0
SPLINE
  5
252
330
1F
100
AcDbEntity
  8
0
  6
Continuous
 62
     7
370
    15
100
AcDbSpline
210
0.0
220
0.0
230
1.0
 70
     8
 71
     3
 72
    12
 73
     8
 74
     0
 42
0.000000001
 43
0.00000001
 40
0.0
 40
0.0
 40
0.0
 40
0.0
 40
0.2499999999999992
 40
0.2499999999999992
 40
0.4999999999999984
 40
0.4999999999999984
 40
1.0
 40
1.0
 40
1.0
 40
1.0
 10
230.2153288995273
 20
35.99558672726788
 30
0.0
 10
230.2492603918168
 20
35.9759984937164
 30
0.0
 10
230.2876921008441
 20
35.94881130477999
 30
0.0
 10
230.361868953509
 20
35.88958737724416
 30
0.0
 10
230.3970852337645
 20
35.85815469822739
 30
0.0
 10
230.4921841510225
 20
35.76616198142542
 30
0.0
 10
230.5407133077843
 20
35.70930531590078
 30
0.0
 10
230.5740549039394
 20
35.66107650989844
 30
0.0
  0
ARC
  5
253
330
1F
100
AcDbEntity
  8
0
  6
Continuous
 62
     7
370
    15
100
AcDbCircle
 10
254.2906216599
 20
51.2661056322
 30
0.0
 40
10.86942928536297
100
AcDbArc
 50
73.9805689162
 51
106.2233053919
  0
SPLINE
  5
254
330
1F
100
AcDbEntity
  8
0
  6
Continuous
 62
     7
370
    15
100
AcDbSpline
210
0.0
220
0.0
230
1.0
 70
     8
 71
     3
 72
    12
 73
     8
 74
     0
 42
0.000000001
 43
0.00000001
 40
0.0
 40
0.0
 40
0.0
 40
0.0
 40
0.5
 40
0.5
 40
0.75
 40
0.75
 40
1.0
 40
1.0
 40
1.0
 40
1.0
 10
257.5023177231378
 20
61.27989244810975
 30
0.0
 10
257.5023177231378
 20
61.35257544530254
 30
0.0
 10
257.4853009550675
 20
61.43615829204284
 30
0.0
 10
257.4308901291861
 20
61.55760246991852
 30
0.0
 10
257.4077449102642
 20
61.59731734759988
 30
0.0
 10
257.353464098407
 20
61.66604711946566
 30
0.0
 10
257.3222281298495
 20
61.69495671537133
 30
0.0
 10
257.2901856887818
 20
61.71345442286493
 30
0.0
  0
LWPOLYLINE
  5
255
330
1F
100
AcDbEntity
  8
0
  6
Continuous
 62
     7
370
    15
100
AcDbPolyline
 90
       17
 70
   128
 43
0.0
 10
230.6542308709
 20
36.0250432097
 10
231.0281814185
 20
37.5170488609
 10
231.5984072054
 20
39.3894907365
 10
232.2805776562
 20
41.264749509
 10
233.0697141743
 20
43.1291471996
 10
233.960065032
 20
44.9690903132
 10
234.9451356634
 20
46.7711595707
 10
236.0177433235
 20
48.5222144671
 10
237.1700651621
 20
50.2094841423
 10
238.3936981513
 20
51.8206650953
 10
239.679719013
 20
53.3440067304
 10
241.0187494149
 20
54.7684007053
 10
242.401024459
 20
56.0834600132
 10
243.8164641337
 20
57.2795936915
 10
245.2547457541
 20
58.3480790587
 10
246.7053808873
 20
59.2811243742
 10
247.1472403594
 20
59.5368766671
  0
LWPOLYLINE
  5
256
330
1F
100
AcDbEntity
  8
0
  6
Continuous
 62
     7
370
    15
100
AcDbPolyline
 90
       12
 70
   128
 43
0.0
 10
240.2262898812
 20
56.8375812503
 10
241.6766469029
 20
58.110184561
 10
243.1542788624
 20
59.2513335982
 10
244.6480046208
 20
60.25239262
 10
246.1465211258
 20
61.1057870748
 10
247.6384888585
 20
61.8050605319
 10
249.1126180198
 20
62.3449183536
 10
250.5577534421
 20
62.7212782336
 10
251.9629599938
 20
62.9312906027
 10
253.3176044859
 20
62.9733661408
 10
254.6114356855
 20
62.8471885066
 10
255.8346636699
 20
62.5537099578
  0
LINE
  5
257
330
1F
100
AcDbEntity
  8
0
  6
Continuous
 62
     7
370
    15
100
AcDbLine
 10
257.2901856561
 20
61.7134550005
 30
0.0
 11
255.8346636699
 21
62.5537099578
 31
0.0
  0
LINE
  5
258
330
1F
100
AcDbEntity
  8
0
  6
Continuous
 62
     7
370
    15
100
AcDbLine
 10
228.7598067508
 20
36.8358418697
 30
0.0
 11
230.215328737
 21
35.9955869124
 31
0.0
  0
ARC
  5
259
330
1F
100
AcDbEntity
  8
0
  6
Continuous
 62
     7
370
    15
100
AcDbCircle
 10
268.0925306224
 20
27.6047410048
 30
0.0
 40
40.40144044883967
100
AcDbArc
 50
136.9528122493
 51
166.7921386576
  0
SPLINE
  5
25A
330
1F
100
AcDbEntity
  8
0
  6
Continuous
 62
     7
370
    15
100
AcDbSpline
210
0.0
220
0.0
230
1.0
 70
     8
 71
     3
 72
    34
 73
    30
 74
     0
 42
0.000000001
 43
0.00000001
 40
0.0
 40
0.0
 40
0.0
 40
0.0
 40
0.062499999999999
 40
0.062499999999999
 40
0.124999999999998
 40
0.124999999999998
 40
0.1874999999999971
 40
0.1874999999999971
 40
0.2499999999999966
 40
0.2499999999999966
 40
0.3124999999999962
 40
0.3124999999999962
 40
0.3749999999999957
 40
0.3749999999999957
 40
0.4999999999999958
 40
0.4999999999999958
 40
0.6249999999999958
 40
0.6249999999999958
 40
0.6874999999999964
 40
0.6874999999999964
 40
0.7499999999999971
 40
0.7499999999999971
 40
0.8124999999999979
 40
0.8124999999999979
 40
0.8749999999999986
 40
0.8749999999999986
 40
0.9374999999999992
 40
0.9374999999999992
 40
1.0
 40
1.0
 40
1.0
 40
1.0
 10
238.5674905140594
 20
55.18278361830018
 30
0.0
 10
238.6266159277028
 20
55.15320613444195
 30
0.0
 10
238.6894286231333
 20
55.12953011224643
 30
0.0
 10
238.8221376260579
 20
55.09345060182669
 30
0.0
 10
238.892749322429
 20
55.08100271168745
 30
0.0
 10
239.0379972924063
 20
55.06829281796207
 30
0.0
 10
239.1119797221685
 20
55.06795063806473
 30
0.0
 10
239.2626617869934
 20
55.07895698288736
 30
0.0
 10
239.3401098067935
 20
55.09054364687283
 30
0.0
 10
239.4920423927686
 20
55.12471818961163
 30
0.0
 10
239.5669984733531
 20
55.14723059200162
 30
0.0
 10
239.7149335402618
 20
55.20304266459969
 30
0.0
 10
239.7878622533522
 20
55.23648751080597
 30
0.0
 10
239.9944747793622
 20
55.3488497701253
 30
0.0
 10
240.1213999554114
 20
55.44288717114603
 30
0.0
 10
240.3305067080383
 20
55.65148848632194
 30
0.0
 10
240.4150550912362
 20
55.76841258046564
 30
0.0
 10
240.5000286480102
 20
55.94693783043829
 30
0.0
 10
240.5219883486082
 20
56.00815440936498
 30
0.0
 10
240.551099445348
 20
56.12896039187883
 30
0.0
 10
240.5584539081277
 20
56.18856091832399
 30
0.0
 10
240.5587968431721
 20
56.30630220845724
 30
0.0
 10
240.5515568003368
 20
56.36475359659433
 30
0.0
 10
240.5229449498148
 20
56.4755162209858
 30
0.0
 10
240.5016616082553
 20
56.52842866570843
 30
0.0
 10
240.4448334416483
 20
56.62934687301768
 30
0.0
 10
240.4093759526743
 20
56.6768618876488
 30
0.0
 10
240.3269709997878
 20
56.76312186553221
 30
0.0
 10
240.2797660972119
 20
56.80236741795229
 30
0.0
 10
240.2262899513231
 20
56.8375805460659
 30
0.0
  0
LINE
  5
25B
330
1F
100
AcDbEntity
  8
0
  6
Continuous
 62
     7
370
    15
100
AcDbLine
 10
263.2122169499
 20
54.4105888919
 30
0.0
 11
263.3164987898
 21
54.5912107166
 31
0.0
  0
LINE
  5
25C
330
1F
100
AcDbEntity
  8
0
  6
Continuous
 62
     7
370
    15
100
AcDbLine
 10
260.9141086683
 20
53.0839192199
 30
0.0
 11
263.2122169499
 21
54.4105888919
 31
0.0
  0
ARC
  5
25D
330
1F
100
AcDbEntity
  8
0
  6
Continuous
 62
     7
370
    15
100
AcDbCircle
 10
261.7422117659
 20
51.7893169369
 30
0.0
 40
1.536798559128075
100
AcDbArc
 50
122.6053519586
 51
177.394632491
  0
LINE
  5
25E
330
1F
100
AcDbEntity
  8
0
  6
Continuous
 62
     7
370
    15
100
AcDbLine
 10
260.2070017713
 20
46.5551542323
 30
0.0
 11
260.2070017713
 21
51.8591745316
 31
0.0
  0
LINE
  5
25F
330
1F
100
AcDbEntity
  8
0
  6
Continuous
 62
     7
370
    15
100
AcDbLine
 10
230.6195624538
 20
25.1027008477
 30
0.0
 11
230.5740543942
 21
24.9843322247
 31
0.0
  0
LINE
  5
260
330
1F
100
AcDbEntity
  8
0
  6
Continuous
 62
     7
370
    15
100
AcDbLine
 10
230.6195624538
 20
25.1027008477
 30
0.0
 11
233.7612069811
 21
26.916333629
 31
0.0
  0
ARC
  5
261
330
1F
100
AcDbEntity
  8
0
  6
Continuous
 62
     7
370
    15
100
AcDbCircle
 10
232.9331038835
 20
28.210935912
 30
0.0
 40
1.536798559128278
100
AcDbArc
 50
302.6053519586
 51
357.394632491
  0
LINE
  5
262
330
1F
100
AcDbEntity
  8
0
  6
Continuous
 62
     7
370
    15
100
AcDbLine
 10
234.4683138782
 20
37.0005462857
 30
0.0
 11
234.4683138782
 21
28.1410783174
 31
0.0
  0
ARC
  5
263
330
1F
100
AcDbEntity
  8
0
  6
Continuous
 62
     7
370
    15
100
AcDbCircle
 10
234.0372403951
 20
37.0704748327
 30
0.0
 40
0.4367085406723138
100
AcDbArc
 50
350.7857695821
 51
129.2035248725
  0
LINE
  5
264
330
1F
100
AcDbEntity
  8
0
  6
Continuous
 62
     7
370
    15
100
AcDbLine
 10
233.7612069811
 20
37.4088827284
 30
0.0
 11
230.6195624538
 21
35.5952499471
 31
0.0
  0
LINE
  5
265
330
1F
100
AcDbEntity
  8
0
  6
Continuous
 62
     7
370
    15
100
AcDbLine
 10
230.5740543942
 20
35.6610760828
 30
0.0
 11
230.6195624538
 21
35.5952499471
 31
0.0
  0
LINE
  5
266
330
1F
100
AcDbEntity
  8
0
  6
Continuous
 62
     7
370
    15
100
AcDbLine
 10
257.5023179887
 20
58.0549316625
 30
0.0
 11
257.5023179887
 21
61.2798928055
 31
0.0
  0
LINE
  5
267
330
1F
100
AcDbEntity
  8
0
  6
Continuous
 62
     7
370
    15
100
AcDbLine
 10
260.295064977
 20
59.6671501819
 30
0.0
 11
257.5023179887
 21
58.0549316625
 31
0.0
  0
SPLINE
  5
268
330
1F
100
AcDbEntity
  8
0
  6
Continuous
 62
     7
370
    15
100
AcDbSpline
210
0.0
220
0.0
230
1.0
 70
     8
 71
     3
 72
    15
 73
    11
 74
     0
 42
0.000000001
 43
0.00000001
 40
0.0
 40
0.0
 40
0.0
 40
0.0
 40
0.0876269844858177
 40
0.2439666489172806
 40
0.3929127746707419
 40
0.5338408268712911
 40
0.6769503519038307
 40
0.8291720464040033
 40
0.9852849704892129
 40
1.0
 40
1.0
 40
1.0
 40
1.0
 10
271.3952235052516
 20
32.72767249330566
 30
0.0
 10
271.512091400261
 20
32.59129529387005
 30
0.0
 10
271.8374691235588
 20
32.21160074509304
 30
0.0
 10
272.1481078536024
 20
31.51300900868601
 30
0.0
 10
272.2343351602597
 20
30.73755134005134
 30
0.0
 10
272.0232189612705
 20
30.07827224690188
 30
0.0
 10
271.5727855114002
 20
29.57695309055414
 30
0.0
 10
270.9414011892612
 20
29.33109877070339
 30
0.0
 10
270.4133087918667
 20
29.28959409588078
 30
0.0
 10
270.1656706999372
 20
29.43207671048829
 30
0.0
 10
270.1443392857627
 20
29.44435008750059
 30
0.0
  0
SPLINE
  5
269
330
1F
100
AcDbEntity
  8
0
  6
Continuous
 62
     7
370
    15
100
AcDbSpline
210
0.0
220
0.0
230
1.0
 70
     8
 71
     3
 72
     8
 73
     4
 74
     0
 42
0.000000001
 43
0.00000001
 40
0.0
 40
0.0
 40
0.0
 40
0.0
 40
1.0
 40
1.0
 40
1.0
 40
1.0
 10
227.6872524272987
 20
37.92735565479935
 30
0.0
 10
227.4001852976265
 20
37.879903655076
 30
0.0
 10
227.113072179041
 20
37.83254622237321
 30
0.0
 10
226.8259173526434
 20
37.78527455346114
 30
0.0
  0
SPLINE
  5
26A
330
1F
100
AcDbEntity
  8
0
  6
Continuous
 62
     7
370
    15
100
AcDbSpline
210
0.0
220
0.0
230
1.0
 70
     8
 71
     3
 72
     8
 73
     4
 74
     0
 42
0.000000001
 43
0.00000001
 40
0.0
 40
0.0
 40
0.0
 40
0.0
 40
0.0011862984959113
 40
0.0011862984959113
 40
0.0011862984959113
 40
0.0011862984959113
 10
226.4736162653679
 20
38.15563145312332
 30
0.0
 10
226.5913271332124
 20
38.03208150201087
 30
0.0
 10
226.7087668836485
 20
37.90862645289558
 30
0.0
 10
226.8259173526434
 20
37.78527455346114
 30
0.0
  0
LWPOLYLINE
  5
26B
330
1F
100
AcDbEntity
  8
0
  6
Continuous
 62
     7
370
    15
100
AcDbPolyline
 90
       23
 70
   128
 43
0.0
 10
226.4736164785
 20
38.1556314214
 10
226.9684178458
 20
40.1020456567
 10
227.5881411551
 20
42.0637072384
 10
228.3279579579
 20
44.0253248513
 10
229.1821007214
 20
45.97160917
 10
230.1439102437
 20
47.8873880635
 10
231.2058909711
 20
49.7577297859
 10
232.3597649991
 20
51.568053238
 10
233.5965379269
 20
53.3042503958
 10
234.9065686628
 20
54.9527859244
 10
236.2796464743
 20
56.5008100997
 10
237.7050680374
 20
57.9362565208
 10
239.1717227186
 20
59.2479354483
 10
240.668178679
 20
60.4256245771
 10
242.1827707083
 20
61.4601425548
 10
243.7036932435
 20
62.3434254952
 10
245.2190908373
 20
63.0685883289
 10
246.7171515061
 20
63.6299802141
 10
248.1861980209
 20
64.0232235487
 10
249.6147796099
 20
64.2452532208
 10
250.9917599561
 20
64.2943385111
 10
252.306407089
 20
64.1700984843
 10
253.5484733976
 20
63.8734995095
  0
LINE
  5
26C
330
1F
100
AcDbEntity
  8
0
  6
Continuous
 62
     7
370
    15
100
AcDbLine
 10
253.8589175348
 20
62.8966693785
 30
0.0
 11
253.5484733976
 21
63.8734995095
 31
0.0
  0
LWPOLYLINE
  5
26D
330
1F
100
AcDbEntity
  8
0
  6
Continuous
 62
     7
370
    15
100
AcDbPolyline
 90
       22
 70
   128
 43
0.0
 10
227.6872524328
 20
37.9273556291
 10
228.1617614097
 20
39.8242842656
 10
228.7612054993
 20
41.7372477066
 10
229.4806890819
 20
43.6506265035
 10
230.3143366233
 20
45.5487959768
 10
231.2553427245
 20
47.4162592916
 10
232.2960234883
 20
49.2377676067
 10
233.4278810564
 20
50.9984485862
 10
234.6416740735
 20
52.6839254057
 10
235.9274921035
 20
54.2804357573
 10
237.2748366298
 20
55.7749455318
 10
238.6727050201
 20
57.1552505223
 10
240.1096846979
 20
58.4100794582
 10
241.5740423758
 20
59.5291881043
 10
243.053821067
 20
60.5034395989
 10
244.5369384965
 20
61.3248764752
 10
246.0112846483
 20
61.9867937037
 10
247.4648214521
 20
62.4837871151
 10
248.8856806189
 20
62.8117961906
 10
250.2622608994
 20
62.9681449994
 10
251.5833215973
 20
62.9515551174
 10
251.8782836824
 20
62.9232488671
  0
LINE
  5
26E
330
1F
100
AcDbEntity
  8
0
  6
Continuous
 62
     7
370
    15
100
AcDbLine
 10
225.0357718025
 20
38.9856814848
 30
0.0
 11
226.4736164785
 21
38.1556314214
 31
0.0
  0
ARC
  5
26F
330
1F
100
AcDbEntity
  8
0
  6
Continuous
 62
     7
370
    15
100
AcDbCircle
 10
249.1110698573
 20
54.2562392764
 30
0.0
 40
10.86939031458862
100
AcDbArc
 50
73.9805380809
 51
106.2228094608
  0
LINE
  5
270
330
1F
100
AcDbEntity
  8
0
  6
Continuous
 62
     7
370
    15
100
AcDbLine
 10
253.5484733976
 20
63.8734995095
 30
0.0
 11
252.1106287215
 21
64.7035495728
 31
0.0
  0
LINE
  5
271
330
1F
100
AcDbEntity
  8
0
  6
Continuous
 62
     7
370
    15
100
AcDbLine
 10
228.9398432704
 20
37.6010136276
 30
0.0
 11
228.3137396527
 21
37.9624555526
 31
0.0
  0
SPLINE
  5
272
330
1F
100
AcDbEntity
  8
0
  6
Continuous
 62
     7
370
    15
100
AcDbSpline
210
0.0
220
0.0
230
1.0
 70
     8
 71
     3
 72
    11
 73
     7
 74
     0
 42
0.000000001
 43
0.00000001
 40
0.0
 40
0.0
 40
0.0
 40
0.0
 40
0.3165694752064712
 40
0.6331520400060429
 40
0.9494411625907934
 40
1.0
 40
1.0
 40
1.0
 40
1.0
 10
239.5342659582367
 20
55.94510230055307
 30
0.0
 10
239.400675778033
 20
55.89792363763301
 30
0.0
 10
239.1334898939057
 20
55.80356436103784
 30
0.0
 10
238.817539694707
 20
55.54374866184465
 30
0.0
 10
238.6368370037503
 20
55.32055727637217
 30
0.0
 10
238.6019020402003
 20
55.19180809887436
 30
0.0
 10
238.5970873176595
 20
55.17406393932723
 30
0.0
  0
SPLINE
  5
273
330
1F
100
AcDbEntity
  8
0
  6
Continuous
 62
     7
370
    15
100
AcDbSpline
210
0.0
220
0.0
230
1.0
 70
     8
 71
     3
 72
    14
 73
    10
 74
     0
 42
0.000000001
 43
0.00000001
 40
0.0
 40
0.0
 40
0.0
 40
0.0
 40
0.25
 40
0.25
 40
0.5
 40
0.5
 40
0.75
 40
0.75
 40
1.0
 40
1.0
 40
1.0
 40
1.0
 10
228.3137395400325
 20
37.9624557220314
 30
0.0
 10
228.2761055465744
 20
37.98418136401144
 30
0.0
 10
228.2303315898853
 20
38.00139312512294
 30
0.0
 10
228.1303957123753
 20
38.02379845875544
 30
0.0
 10
228.0759618435355
 20
38.02897334235527
 30
0.0
 10
227.9697461930435
 20
38.02703114804051
 30
0.0
 10
227.9164298930934
 20
38.01994274512228
 30
0.0
 10
227.8189368257927
 20
37.99520930883759
 30
0.0
 10
227.7740251352631
 20
37.97744847285155
 30
0.0
 10
227.7362718696631
 20
37.95565397652955
 30
0.0
  0
LINE
  5
274
330
1F
100
AcDbEntity
  8
0
  6
Continuous
 62
     7
370
    15
100
AcDbLine
 10
227.7362718518
 20
37.9556539374
 30
0.0
 11
227.6872524328
 21
37.9273556291
 31
0.0
  0
SPLINE
  5
275
330
1F
100
AcDbEntity
  8
0
  6
Continuous
 62
     7
370
    15
100
AcDbSpline
210
0.0
220
0.0
230
1.0
 70
     8
 71
     3
 72
    10
 73
     6
 74
     0
 42
0.000000001
 43
0.00000001
 40
0.0
 40
0.0
 40
0.0
 40
0.0
 40
0.5
 40
0.5
 40
1.0
 40
1.0
 40
1.0
 40
1.0
 10
224.9337592370129
 20
39.01512966370804
 30
0.0
 10
224.9410755214352
 20
39.01949766360122
 30
0.0
 10
224.9528993816436
 20
39.02002971618949
 30
0.0
 10
224.9870507459213
 20
39.01079966655118
 30
0.0
 10
225.0093077093142
 20
39.00095878923488
 30
0.0
 10
225.0357717273358
 20
38.98568143681856
 30
0.0
  0
ARC
  5
276
330
1F
100
AcDbEntity
  8
0
  6
Continuous
 62
     7
370
    15
100
AcDbCircle
 10
264.7541330501
 20
29.5065069463
 30
0.0
 40
40.9204549468728
100
AcDbArc
 50
143.5835897407
 51
160.8037648338
  0
SPLINE
  5
277
330
1F
100
AcDbEntity
  8
0
  6
Continuous
 62
     7
370
    15
100
AcDbSpline
210
0.0
220
0.0
230
1.0
 70
     8
 71
     3
 72
    14
 73
    10
 74
     0
 42
0.000000001
 43
0.00000001
 40
0.0
 40
0.0
 40
0.0
 40
0.0
 40
0.25
 40
0.25
 40
0.5
 40
0.5
 40
0.75
 40
0.75
 40
1.0
 40
1.0
 40
1.0
 40
1.0
 10
239.9513448132624
 20
56.25155410969132
 30
0.0
 10
239.9661857053916
 20
56.21303609085572
 30
0.0
 10
239.9655519374876
 20
56.17511745270225
 30
0.0
 10
239.9326163325272
 20
56.10917650293298
 30
0.0
 10
239.9004804871852
 20
56.08090294539102
 30
0.0
 10
239.8155779117808
 20
56.03298391920353
 30
0.0
 10
239.7631609992877
 20
56.01310682175578
 30
0.0
 10
239.6518253349925
 20
55.9772498957394
 30
0.0
 10
239.5936706582816
 20
55.96137787205598
 30
0.0
 10
239.5342657025502
 20
55.94510252650124
 30
0.0
  0
LINE
  5
278
330
1F
100
AcDbEntity
  8
0
  6
Continuous
 62
     7
370
    15
100
AcDbLine
 10
239.9352178185
 20
56.2934099523
 30
0.0
 11
239.9513449149
 21
56.2515544626
 31
0.0
  0
SPLINE
  5
279
330
1F
100
AcDbEntity
  8
0
  6
Continuous
 62
     7
370
    15
100
AcDbSpline
210
0.0
220
0.0
230
1.0
 70
     8
 71
     3
 72
    10
 73
     6
 74
     0
 42
0.000000001
 43
0.00000001
 40
0.0
 40
0.0
 40
0.0
 40
0.0
 40
0.5
 40
0.5
 40
1.0
 40
1.0
 40
1.0
 40
1.0
 10
240.2262899513231
 20
56.8375805460659
 30
0.0
 10
240.1982749015852
 20
56.76555444337787
 30
0.0
 10
240.1604570131354
 20
56.68460795807442
 30
0.0
 10
240.0644812653004
 20
56.50421292173451
 30
0.0
 10
240.0064494880008
 20
56.40488671475971
 30
0.0
 10
239.9352177504107
 20
56.29341025319564
 30
0.0
  0
LINE
  5
27A
330
1F
100
AcDbEntity
  8
0
  6
Continuous
 62
     7
370
    15
100
AcDbLine
 10
230.6195624538
 20
35.5952499471
 30
0.0
 11
228.7917082931
 21
36.6504476935
 31
0.0
  0
SPLINE
  5
27B
330
1F
100
AcDbEntity
  8
0
  6
Continuous
 62
     7
370
    15
100
AcDbSpline
210
0.0
220
0.0
230
1.0
 70
     8
 71
     3
 72
     8
 73
     4
 74
     0
 42
0.000000001
 43
0.00000001
 40
0.0000000000000004
 40
0.0000000000000004
 40
0.0000000000000004
 40
0.0000000000000004
 40
0.0011862984959128
 40
0.0011862984959128
 40
0.0011862984959128
 40
0.0011862984959128
 10
228.7917080256143
 20
36.6504477534226
 30
0.0
 10
228.7806458263567
 20
36.71255619834139
 30
0.0
 10
228.7700198197829
 20
36.77434898564301
 30
0.0
 10
228.7598066919655
 20
36.8358418123609
 30
0.0
  0
LINE
  5
27C
330
1F
100
AcDbEntity
  8
0
  6
Continuous
 62
     7
370
    15
100
AcDbLine
 10
228.8644925255
 20
37.4356225887
 30
0.0
 11
228.844599213
 21
37.2062768323
 31
0.0
  0
ARC
  5
27D
330
1F
100
AcDbEntity
  8
0
  6
Continuous
 62
     7
370
    15
100
AcDbCircle
 10
244.8472756875
 20
35.7789766512
 30
0.0
 40
16.06296283248049
100
AcDbArc
 50
176.9225000953
 51
185.727139394
  0
LINE
  5
27E
330
1F
100
AcDbEntity
  8
0
  6
Continuous
 62
     7
370
    15
100
AcDbLine
 10
227.8657051528
 20
36.5354947779
 30
0.0
 11
227.9274779448
 21
37.9956409462
 31
0.0
  0
ARC
  5
27F
330
1F
100
AcDbEntity
  8
0
  6
Continuous
 62
     7
370
    15
100
AcDbCircle
 10
239.7006928746
 20
36.2606353949
 30
0.0
 40
11.83817900076273
100
AcDbArc
 50
178.6695844123
 51
203.7430473282
  0
LINE
  5
280
330
1F
100
AcDbEntity
  8
0
  6
Continuous
 62
     7
370
    15
100
AcDbLine
 10
209.4346169787
 20
73.1227203542
 30
0.0
 11
209.4843156863
 21
73.1043845427
 31
0.0
  0
LINE
  5
281
330
1F
100
AcDbEntity
  8
0
  6
Continuous
 62
     7
370
    15
100
AcDbLine
 10
199.3107575983
 20
55.5857819538
 30
0.0
 11
199.2491402228
 21
55.6390475146
 31
0.0
  0
LINE
  5
282
330
1F
100
AcDbEntity
  8
0
  6
Continuous
 62
     7
370
    15
100
AcDbLine
 10
225.3692944673
 20
38.6261651408
 30
0.0
 11
224.9337586484
 21
39.0151293105
 31
0.0
  0
LINE
  5
283
330
1F
100
AcDbEntity
  8
0
  6
Continuous
 62
     7
370
    15
100
AcDbLine
 10
226.8259177047
 20
37.7852744448
 30
0.0
 11
225.3692944673
 21
38.6261651408
 31
0.0
  0
LINE
  5
284
330
1F
100
AcDbEntity
  8
0
  6
Continuous
 62
     7
370
    15
100
AcDbLine
 10
228.8644925255
 20
37.4356225887
 30
0.0
 11
228.8644925255
 21
37.2904727515
 31
0.0
  0
LINE
  5
285
330
1F
100
AcDbEntity
  8
0
  6
Continuous
 62
     7
370
    15
100
AcDbLine
 10
228.8644925255
 20
36.6084295541
 30
0.0
 11
228.8644925255
 21
34.1760364296
 31
0.0
  0
LINE
  5
286
330
1F
100
AcDbEntity
  8
0
  6
Continuous
 62
     7
370
    15
100
AcDbLine
 10
228.8644925255
 20
37.6445122392
 30
0.0
 11
228.8644925255
 21
37.4356225887
 31
0.0
  0
LINE
  5
287
330
1F
100
AcDbEntity
  8
0
  6
Continuous
 62
     7
370
    15
100
AcDbLine
 10
228.8644925255
 20
34.1760364296
 30
0.0
 11
228.8644925255
 21
31.3060473869
 31
0.0
  0
LINE
  5
288
330
1F
100
AcDbEntity
  8
0
  6
Continuous
 62
     7
370
    15
100
AcDbLine
 10
228.7917082931
 20
26.1578985942
 30
0.0
 11
230.6195624538
 21
25.1027008477
 31
0.0
  0
SPLINE
  5
289
330
1F
100
AcDbEntity
  8
0
  6
Continuous
 62
     7
370
    15
100
AcDbSpline
210
0.0
220
0.0
230
1.0
 70
     8
 71
     3
 72
    14
 73
    10
 74
     0
 42
0.000000001
 43
0.00000001
 40
0.0
 40
0.0
 40
0.0
 40
0.0
 40
0.25
 40
0.25
 40
0.5
 40
0.5
 40
0.75
 40
0.75
 40
1.0
 40
1.0
 40
1.0
 40
1.0
 10
230.5740549039394
 20
24.98433257836194
 30
0.0
 10
230.557380060873
 20
24.94095996025535
 30
0.0
 10
230.537084817957
 20
24.9007296308095
 30
0.0
 10
230.4887878388867
 20
24.82695774313737
 30
0.0
 10
230.4605689910815
 20
24.79338813646025
 30
0.0
 10
230.3976436426584
 20
24.73983673079763
 30
0.0
 10
230.3624804666414
 20
24.71938070143798
 30
0.0
 10
230.2877974774329
 20
24.7019484079261
 30
0.0
 10
230.2492726022246
 20
24.705895716911
 30
0.0
 10
230.2153288995273
 20
24.72549099938082
 30
0.0
  0
LINE
  5
28A
330
1F
100
AcDbEntity
  8
0
  6
Continuous
 62
     7
370
    15
100
AcDbLine
 10
230.215328737
 20
24.725491123
 30
0.0
 11
228.7598067508
 21
25.5657460803
 31
0.0
  0
SPLINE
  5
28B
330
1F
100
AcDbEntity
  8
0
  6
Continuous
 62
     7
370
    15
100
AcDbSpline
210
0.0
220
0.0
230
1.0
 70
     8
 71
     3
 72
     8
 73
     4
 74
     0
 42
0.000000001
 43
0.00000001
 40
0.0
 40
0.0
 40
0.0
 40
0.0
 40
0.0011862984959113
 40
0.0011862984959113
 40
0.0011862984959113
 40
0.0011862984959113
 10
228.7598066919655
 20
25.56574608447384
 30
0.0
 10
228.7700198197829
 20
25.76314498636279
 30
0.0
 10
228.7806458263581
 20
25.96053082333957
 30
0.0
 10
228.7917080256157
 20
26.15789832068992
 30
0.0
  0
LWPOLYLINE
  5
28C
330
1F
100
AcDbEntity
  8
0
  6
Continuous
 62
     7
370
    15
100
AcDbPolyline
 90
       13
 70
   128
 43
0.0
 10
242.2424064409
 20
18.0995351647
 10
240.9764076372
 20
17.8248259004
 10
239.6079455642
 20
17.6729537452
 10
238.2918028766
 20
17.6841971116
 10
237.037639764
 20
17.8584763852
 10
235.8546600444
 20
18.1945100829
 10
234.7515466271
 20
18.6898338704
 10
233.7363949997
 20
19.3408108347
 10
232.8166572518
 20
20.1426653302
 10
231.9990808306
 20
21.0895092199
 10
231.2896690277
 20
22.1743958726
 10
230.693626979
 20
23.3893627533
 10
230.2419075934
 20
24.637944141
  0
SPLINE
  5
28D
330
1F
100
AcDbEntity
  8
0
  6
Continuous
 62
     7
370
    15
100
AcDbSpline
210
0.0
220
0.0
230
1.0
 70
     8
 71
     3
 72
     8
 73
     4
 74
     0
 42
0.000000001
 43
0.00000001
 40
0.0
 40
0.0
 40
0.0
 40
0.0
 40
1.0
 40
1.0
 40
1.0
 40
1.0
 10
229.0378263793651
 20
26.65513647527678
 30
0.0
 10
228.9556281985794
 20
26.48941614877331
 30
0.0
 10
228.8735938304275
 20
26.32366927343534
 30
0.0
 10
228.7917080256157
 20
26.15789832068992
 30
0.0
  0
LINE
  5
28E
330
1F
100
AcDbEntity
  8
0
  6
Continuous
 62
     7
370
    15
100
AcDbLine
 10
229.0868458804
 20
26.6834350471
 30
0.0
 11
229.0378264614
 21
26.6551367388
 31
0.0
  0
SPLINE
  5
28F
330
1F
100
AcDbEntity
  8
0
  6
Continuous
 62
     7
370
    15
100
AcDbSpline
210
0.0
220
0.0
230
1.0
 70
     8
 71
     3
 72
    12
 73
     8
 74
     0
 42
0.000000001
 43
0.00000001
 40
0.0
 40
0.0
 40
0.0
 40
0.0
 40
0.249999999999997
 40
0.249999999999997
 40
0.499999999999994
 40
0.499999999999994
 40
1.0
 40
1.0
 40
1.0
 40
1.0
 10
229.0986280671496
 20
27.01679978723791
 30
0.0
 10
229.1362268517242
 20
26.99509447091362
 30
0.0
 10
229.1664044109706
 20
26.96829260034044
 30
0.0
 10
229.2049941456515
 20
26.91066889551045
 30
0.0
 10
229.2138536308413
 20
26.87962076993908
 30
0.0
 10
229.208806197003
 20
26.78743179353378
 30
0.0
 10
229.1621039099277
 20
26.72688036655892
 30
0.0
 10
229.0868458217294
 20
26.68343479700698
 30
0.0
  0
LINE
  5
290
330
1F
100
AcDbEntity
  8
0
  6
Continuous
 62
     7
370
    15
100
AcDbLine
 10
228.3137396527
 20
27.4699064533
 30
0.0
 11
229.0986282294
 21
27.0167999225
 31
0.0
  0
SPLINE
  5
291
330
1F
100
AcDbEntity
  8
0
  6
Continuous
 62
     7
370
    15
100
AcDbSpline
210
0.0
220
0.0
230
1.0
 70
     8
 71
     3
 72
    10
 73
     6
 74
     0
 42
0.000000001
 43
0.00000001
 40
0.0
 40
0.0
 40
0.0
 40
0.0
 40
0.5
 40
0.5
 40
1.0
 40
1.0
 40
1.0
 40
1.0
 10
227.7362718696631
 20
27.46310454379767
 30
0.0
 10
227.8124092600017
 20
27.50705772367038
 30
0.0
 10
227.915917040686
 20
27.53354438984917
 30
0.0
 10
228.1304123327718
 20
27.5373724602365
 30
0.0
 10
228.23784257719
 20
27.5137206733331
 30
0.0
 10
228.3137395400325
 20
27.46990628929951
 30
0.0
  0
LINE
  5
292
330
1F
100
AcDbEntity
  8
0
  6
Continuous
 62
     7
370
    15
100
AcDbLine
 10
227.6872524328
 20
27.4348065298
 30
0.0
 11
227.7362718518
 21
27.463104838
 31
0.0
  0
SPLINE
  5
293
330
1F
100
AcDbEntity
  8
0
  6
Continuous
 62
     7
370
    15
100
AcDbSpline
210
0.0
220
0.0
230
1.0
 70
     8
 71
     3
 72
     8
 73
     4
 74
     0
 42
0.000000001
 43
0.00000001
 40
0.0
 40
0.0
 40
0.0
 40
0.0
 40
1.0
 40
1.0
 40
1.0
 40
1.0
 10
226.8259173526443
 20
27.29272512072941
 30
0.0
 10
227.1130721790416
 20
27.33999678964143
 30
0.0
 10
227.4001852976268
 20
27.38735422234417
 30
0.0
 10
227.6872524272987
 20
27.43480622206746
 30
0.0
  0
LINE
  5
294
330
1F
100
AcDbEntity
  8
0
  6
Continuous
 62
     7
370
    15
100
AcDbLine
 10
225.3692944673
 20
28.1336160415
 30
0.0
 11
226.8259177047
 21
27.2927253454
 31
0.0
  0
LINE
  5
295
330
1F
100
AcDbEntity
  8
0
  6
Continuous
 62
     7
370
    15
100
AcDbLine
 10
225.3692944673
 20
28.1336160415
 30
0.0
 11
228.5109389946
 21
29.9472488228
 31
0.0
  0
ARC
  5
296
330
1F
100
AcDbEntity
  8
0
  6
Continuous
 62
     7
370
    15
100
AcDbCircle
 10
238.3002289865
 20
28.0007446968
 30
0.0
 40
9.8462619657674
100
AcDbArc
 50
194.3179057184
 51
238.1256858466
  0
ELLIPSE
  5
297
330
1F
100
AcDbEntity
  8
0
  6
Continuous
 62
     7
370
    15
100
AcDbEllipse
 10
228.2180464757
 20
30.9328734671
 30
0.0
 11
-7.507462981948265E-5
 21
1.066811201853405
 31
0.0
210
0.0
220
0.0
230
1.0
 40
0.7174342186
 41
3.534193645557444
 42
5.104989972352354
  0
ARC
  5
298
330
1F
100
AcDbEntity
  8
0
  6
Continuous
 62
     7
370
    15
100
AcDbCircle
 10
238.3627606409
 20
30.4022633539
 30
0.0
 40
11.08026513689338
100
AcDbArc
 50
195.5342643695
 51
215.7345697398
  0
ARC
  5
299
330
1F
100
AcDbEntity
  8
0
  6
Continuous
 62
     7
370
    15
100
AcDbCircle
 10
235.7847990656
 20
29.2184476051
 30
0.0
 40
9.598989501195698
100
AcDbArc
 50
194.065870688
 51
246.8527503441
  0
SPLINE
  5
29A
330
1F
100
AcDbEntity
  8
0
  6
Continuous
 62
     7
370
    15
100
AcDbSpline
210
0.0
220
0.0
230
1.0
 70
     8
 71
     3
 72
     8
 73
     4
 74
     0
 42
0.000000001
 43
0.00000001
 40
0.0000000000000004
 40
0.0000000000000004
 40
0.0000000000000004
 40
0.0000000000000004
 40
0.0011862984959128
 40
0.0011862984959128
 40
0.0011862984959128
 40
0.0011862984959128
 10
226.8259173526447
 20
27.29272512072845
 30
0.0
 10
226.7087668836497
 20
27.15660107789367
 30
0.0
 10
226.5913271332126
 20
27.02087750273074
 30
0.0
 10
226.4736162653679
 20
26.88553572523626
 30
0.0
  0
LINE
  5
29B
330
1F
100
AcDbEntity
  8
0
  6
Continuous
 62
     7
370
    15
100
AcDbLine
 10
224.9337586484
 20
27.8821343339
 30
0.0
 11
225.3692944673
 21
28.1336160415
 31
0.0
  0
LINE
  5
29C
330
1F
100
AcDbEntity
  8
0
  6
Continuous
 62
     7
370
    15
100
AcDbLine
 10
226.4736164785
 20
26.885535632
 30
0.0
 11
225.0357718025
 21
27.7155856954
 31
0.0
  0
SPLINE
  5
29D
330
1F
100
AcDbEntity
  8
0
  6
Continuous
 62
     7
370
    15
100
AcDbSpline
210
0.0
220
0.0
230
1.0
 70
     8
 71
     3
 72
    10
 73
     6
 74
     0
 42
0.000000001
 43
0.00000001
 40
0.0
 40
0.0
 40
0.0
 40
0.0
 40
0.5
 40
0.5
 40
1.0
 40
1.0
 40
1.0
 40
1.0
 10
225.0357717273358
 20
27.7155857089315
 30
0.0
 10
225.0093622980551
 20
27.73083154793843
 30
0.0
 10
224.987078893846
 20
27.75468897035069
 30
0.0
 10
224.9529717590245
 20
27.81261506208497
 30
0.0
 10
224.9410717289696
 20
27.84651359356583
 30
0.0
 10
224.9337592370129
 20
27.88213463602018
 30
0.0
  0
ARC
  5
29E
330
1F
100
AcDbEntity
  8
0
  6
Continuous
 62
     7
370
    15
100
AcDbCircle
 10
234.57224649
 20
30.1399063672
 30
0.0
 40
9.835109896964784
100
AcDbArc
 50
194.9325993597
 51
238.1123668138
  0
ELLIPSE
  5
29F
330
1F
100
AcDbEntity
  8
0
  6
Continuous
 62
     7
370
    15
100
AcDbEllipse
 10
228.1573863039
 20
30.8978437114
 30
0.0
 11
0.3250094736511642
 21
1.213179526238665
 31
0.0
210
0.0
220
0.0
230
1.0
 40
0.5176380889
 41
3.619174351347739
 42
5.189970678142605
  0
SPLINE
  5
2A0
330
1F
100
AcDbEntity
  8
0
  6
Continuous
 62
     7
370
    15
100
AcDbSpline
210
0.0
220
0.0
230
1.0
 70
     8
 71
     3
 72
    12
 73
     8
 74
     0
 42
0.000000001
 43
0.00000001
 40
0.0
 40
0.0
 40
0.0
 40
0.0
 40
0.5000000000000003
 40
0.5000000000000003
 40
0.7500000000000001
 40
0.7500000000000001
 40
1.0
 40
1.0
 40
1.0
 40
1.0
 10
254.6912433928882
 20
62.90216701244099
 30
0.0
 10
254.7543032701178
 20
62.93857070469125
 30
0.0
 10
254.8342362233489
 20
62.96540201654282
 30
0.0
 10
254.9672154116555
 20
62.97915885805336
 30
0.0
 10
255.0128865807676
 20
62.97903772425443
 30
0.0
 10
255.1005243994051
 20
62.96626334263279
 30
0.0
 10
255.1412683102592
 20
62.95342335697803
 30
0.0
 10
255.1727819925978
 20
62.93523089540139
 30
0.0
  0
LINE
  5
2A1
330
1F
100
AcDbEntity
  8
0
  6
Continuous
 62
     7
370
    15
100
AcDbLine
 10
255.1727823169
 20
62.9352312669
 30
0.0
 11
255.832450631
 21
62.5544128551
 31
0.0
  0
LINE
  5
2A2
330
1F
100
AcDbEntity
  8
0
  6
Continuous
 62
     7
370
    15
100
AcDbLine
 10
257.5023176594
 20
60.4796166385
 30
0.0
 11
258.8968172652
 21
60.7853916519
 31
0.0
  0
LINE
  5
2A3
330
1F
100
AcDbEntity
  8
0
  6
Continuous
 62
     7
370
    15
100
AcDbLine
 10
258.8968172652
 20
60.7853916519
 30
0.0
 11
260.3523392514
 21
59.9451366945
 31
0.0
  0
SPLINE
  5
2A4
330
1F
100
AcDbEntity
  8
0
  6
Continuous
 62
     7
370
    15
100
AcDbSpline
210
0.0
220
0.0
230
1.0
 70
     8
 71
     3
 72
    12
 73
     8
 74
     0
 42
0.000000001
 43
0.00000001
 40
0.0
 40
0.0
 40
0.0
 40
0.0
 40
0.2499999999999946
 40
0.2499999999999946
 40
0.4999999999999892
 40
0.4999999999999892
 40
1.0
 40
1.0
 40
1.0
 40
1.0
 10
260.3523391647894
 20
59.94513618585061
 30
0.0
 10
260.3839952952895
 20
59.92686149070069
 30
0.0
 10
260.4062945722997
 20
59.90303737990239
 30
0.0
 10
260.4281151428916
 20
59.85300547745469
 30
0.0
 10
260.4283959052178
 20
59.82661426904079
 30
0.0
 10
260.405028531097
 20
59.75053903904588
 30
0.0
 10
260.357990128292
 20
59.70347598409546
 30
0.0
 10
260.2950646337916
 20
59.66714986934349
 30
0.0
  0
LINE
  5
2A5
330
1F
100
AcDbEntity
  8
0
  6
Continuous
 62
     7
370
    15
100
AcDbLine
 10
254.6912436243
 20
62.9021673895
 30
0.0
 11
254.5994530566
 21
62.8491778227
 31
0.0
  0
SPLINE
  5
2A6
330
1F
100
AcDbEntity
  8
0
  6
Continuous
 62
     7
370
    15
100
AcDbSpline
210
0.0
220
0.0
230
1.0
 70
     8
 71
     3
 72
    10
 73
     6
 74
     0
 42
0.000000001
 43
0.00000001
 40
0.0
 40
0.0
 40
0.0
 40
0.0
 40
0.403890055881665
 40
0.8088426875932694
 40
1.0
 40
1.0
 40
1.0
 40
1.0
 10
263.3164987897986
 20
54.59121071663202
 30
0.0
 10
263.3347395543103
 20
54.62997454272494
 30
0.0
 10
263.3712690721247
 20
54.70760417688359
 30
0.0
 10
263.3852095860894
 20
54.81498412016988
 30
0.0
 10
263.3671610398436
 20
54.86824079520017
 30
0.0
 10
263.3613733296615
 20
54.8853188576733
 30
0.0
  0
ARC
  5
2A7
330
1F
100
AcDbEntity
  8
0
  6
Continuous
 62
     7
370
    15
100
AcDbCircle
 10
253.0232827394
 20
52.277883842
 30
0.0
 40
10.60668825138491
100
AcDbArc
 50
15.7413341421
 51
46.2919137943
  0
LWPOLYLINE
  5
2A8
330
1F
100
AcDbEntity
  8
0
  6
Continuous
 62
     7
370
    15
100
AcDbPolyline
 90
        3
 70
   128
 43
0.0
 10
257.5023173301
 20
61.1606064249
 10
257.5407723781
 20
61.1131423275
 10
257.9210278308
 20
60.6068611771
  0
LWPOLYLINE
  5
2A9
330
1F
100
AcDbEntity
  8
0
  6
Continuous
 62
     7
370
    15
100
AcDbPolyline
 90
        8
 70
   128
 43
0.0
 10
269.2844316236
 20
31.5965953734
 10
269.4494681456
 20
31.2951774378
 10
269.6510301803
 20
30.7514762679
 10
269.7283696473
 20
30.2284774261
 10
269.6739132848
 20
29.7773773055
 10
269.4929979376
 20
29.4423289922
 10
269.203325282
 20
29.2561339365
 10
269.1365752106
 20
29.239025338
  0
LWPOLYLINE
  5
2AA
330
1F
100
AcDbEntity
  8
0
  6
Continuous
 62
     7
370
    15
100
AcDbPolyline
 90
       19
 70
   128
 43
0.0
 10
262.6636020418
 20
39.9320635649
 10
262.3895180402
 20
39.5278046051
 10
262.2981940513
 20
39.0968977011
 10
262.3953688789
 20
38.6664179176
 10
262.6749381447
 20
38.263412995
 10
263.1193338568
 20
37.9132064138
 10
263.7006361977
 20
37.6378007779
 10
264.3823142218
 20
37.4545043561
 10
265.1215406395
 20
37.3748312516
 10
265.8718657547
 20
37.4037883463
 10
266.5861429667
 20
37.5395568611
 10
267.2194914178
 20
37.7736059434
 10
267.7321163539
 20
38.0912289796
 10
268.0918099892
 20
38.4724672413
 10
268.2759652107
 20
38.8933696958
 10
268.2730177302
 20
39.3274855169
 10
268.083147824
 20
39.7475404782
 10
267.718286343
 20
40.1271405413
 10
267.4198359477
 20
40.3281024014
  0
LWPOLYLINE
  5
2AB
330
1F
100
AcDbEntity
  8
0
  6
Continuous
 62
     7
370
    15
100
AcDbPolyline
 90
        3
 70
   128
 43
0.0
 10
263.1765037818
 20
40.3281035591
 10
263.1032270312
 20
40.2842719888
 10
262.6636020418
 20
39.9320635649
  0
LWPOLYLINE
  5
2AC
330
1F
100
AcDbEntity
  8
0
  6
Continuous
 62
     7
370
    15
100
AcDbPolyline
 90
       25
 70
   128
 43
0.0
 10
262.9709697884
 20
40.121208676
 10
262.7222055883
 20
39.7485616307
 10
262.6489886099
 20
39.3514440153
 10
262.7563116907
 20
38.9569169234
 10
263.0368542853
 20
38.5918704198
 10
263.4715048558
 20
38.281177912
 10
264.030640424
 20
38.0460138991
 10
264.6761541471
 20
37.9024058584
 10
265.3640576394
 20
37.8601392142
 10
266.0474697758
 20
37.9220952723
 10
266.6798196882
 20
38.0840503955
 10
267.2180130213
 20
38.3349679587
 10
267.6253712283
 20
38.6577493061
 10
267.8741354284
 20
39.0303963514
 10
267.9473497726
 20
39.4275154875
 10
267.840029326
 20
39.8220410587
 10
267.5594840972
 20
40.1870890829
 10
267.1248335267
 20
40.4977815908
 10
266.5657005927
 20
40.732944083
 10
265.9201868696
 20
40.8765521237
 10
265.2322833773
 20
40.9188187679
 10
264.5488686067
 20
40.8568642304
 10
263.9165186943
 20
40.6949091073
 10
263.3783279953
 20
40.4439900234
 10
262.9709697884
 20
40.121208676
  0
LWPOLYLINE
  5
2AD
330
1F
100
AcDbEntity
  8
0
  6
Continuous
 62
     7
370
    15
100
AcDbPolyline
 90
       21
 70
   128
 43
0.0
 10
263.7174304821
 20
39.8865028626
 10
263.5287439804
 20
39.5801862975
 10
263.5132632454
 20
39.2552007413
 10
263.6724988135
 20
38.9433609765
 10
263.990869604
 20
38.6751885909
 10
264.4372048121
 20
38.4769377682
 10
264.9678186529
 20
38.3680120346
 10
265.5307702396
 20
38.3590742936
 10
266.070955037
 20
38.4509988403
 10
266.5354908847
 20
38.6347902623
 10
266.8789105346
 20
38.8924551195
 10
267.0675970363
 20
39.1987716846
 10
267.0830777713
 20
39.5237572408
 10
266.923839569
 20
39.8355985263
 10
266.6054714126
 20
40.1037693912
 10
266.1591335704
 20
40.3020217346
 10
265.6285197296
 20
40.4109474682
 10
265.0655681429
 20
40.4198852092
 10
264.5253859797
 20
40.3279591418
 10
264.060850132
 20
40.1441677198
 10
263.7174304821
 20
39.8865028626
  0
SPLINE
  5
2AE
330
1F
100
AcDbEntity
  8
0
  6
Continuous
 62
     7
370
    15
100
AcDbSpline
210
0.0
220
0.0
230
1.0
 70
     8
 71
     3
 72
     9
 73
     5
 74
     0
 42
0.000000001
 43
0.00000001
 40
0.0
 40
0.0
 40
0.0
 40
0.0
 40
0.6250207536656548
 40
1.0
 40
1.0
 40
1.0
 40
1.0
 10
263.5666558115066
 20
39.30913499434735
 30
0.0
 10
263.6966983462254
 20
39.09734092326951
 30
0.0
 10
263.9047594929253
 20
38.75848166165989
 30
0.0
 10
264.1248197005116
 20
38.61438422873744
 30
0.0
 10
264.2073377113006
 20
38.56035068194146
 30
0.0
  0
SPLINE
  5
2AF
330
1F
100
AcDbEntity
  8
0
  6
Continuous
 62
     7
370
    15
100
AcDbSpline
210
0.0
220
0.0
230
1.0
 70
     8
 71
     3
 72
    10
 73
     6
 74
     0
 42
0.000000001
 43
0.00000001
 40
0.0
 40
0.0
 40
0.0
 40
0.0
 40
0.3593752221874239
 40
0.8284791184269171
 40
1.0
 40
1.0
 40
1.0
 40
1.0
 10
266.4035716151283
 20
38.57212013500363
 30
0.0
 10
266.4796379304738
 20
38.62083782405534
 30
0.0
 10
266.6549960241559
 20
38.73314826057262
 30
0.0
 10
266.8718628879066
 20
39.06474039128244
 30
0.0
 10
266.9963539638176
 20
39.29674052545274
 30
0.0
 10
267.0296852051741
 20
39.3588562426653
 30
0.0
  0
SPLINE
  5
2B0
330
1F
100
AcDbEntity
  8
0
  6
Continuous
 62
     7
370
    15
100
AcDbSpline
210
0.0
220
0.0
230
1.0
 70
     8
 71
     3
 72
    10
 73
     6
 74
     0
 42
0.000000001
 43
0.00000001
 40
0.0
 40
0.0
 40
0.0
 40
0.0
 40
0.4391288602008199
 40
0.7513757483694943
 40
0.9999999999999999
 40
0.9999999999999999
 40
0.9999999999999999
 40
0.9999999999999999
 10
267.0296852051741
 20
39.3588562426653
 30
0.0
 10
266.9004022971023
 20
39.39711788590181
 30
0.0
 10
266.6791915077241
 20
39.4625858462803
 30
0.0
 10
266.3576293744785
 20
39.83021878454629
 30
0.0
 10
266.1975807796843
 20
40.09480367778575
 30
0.0
 10
266.1266340696798
 20
40.21208947911607
 30
0.0
  0
SPLINE
  5
2B1
330
1F
100
AcDbEntity
  8
0
  6
Continuous
 62
     7
370
    15
100
AcDbSpline
210
0.0
220
0.0
230
1.0
 70
     8
 71
     3
 72
    10
 73
     6
 74
     0
 42
0.000000001
 43
0.00000001
 40
0.0
 40
0.0
 40
0.0
 40
0.0
 40
0.4391277957679227
 40
0.7513750969336251
 40
0.9999999999999999
 40
0.9999999999999999
 40
0.9999999999999999
 40
0.9999999999999999
 10
266.1266340696798
 20
40.21208947911607
 30
0.0
 10
265.8787470960929
 20
40.12464189828878
 30
0.0
 10
265.4545969953647
 20
39.97501362343587
 30
0.0
 10
264.8380299077083
 20
40.02996880364648
 30
0.0
 10
264.5311508797745
 20
40.13892984097119
 30
0.0
 10
264.395116738668
 20
40.1872303756357
 30
0.0
  0
SPLINE
  5
2B2
330
1F
100
AcDbEntity
  8
0
  6
Continuous
 62
     7
370
    15
100
AcDbSpline
210
0.0
220
0.0
230
1.0
 70
     8
 71
     3
 72
    11
 73
     7
 74
     0
 42
0.000000001
 43
0.00000001
 40
0.0
 40
0.0
 40
0.0
 40
0.0
 40
0.128556296377298
 40
0.4801535642213162
 40
0.8150692319735838
 40
1.0
 40
1.0
 40
1.0
 40
1.0
 10
264.395116738668
 20
40.1872303756357
 30
0.0
 10
264.3617522273842
 20
40.12487166858134
 30
0.0
 10
264.2371368684877
 20
39.89196393635713
 30
0.0
 10
264.0034535113294
 20
39.54708880270778
 30
0.0
 10
263.7504256148479
 20
39.35827102277415
 30
0.0
 10
263.6148762855635
 20
39.32202809506865
 30
0.0
 10
263.5666558115066
 20
39.30913499434735
 30
0.0
  0
LINE
  5
2B3
330
1F
100
AcDbEntity
  8
0
  6
Continuous
 62
     7
370
    15
100
AcDbLine
 10
266.1266340697
 20
38.4669647876
 30
0.0
 11
266.1266340697
 21
40.2120894791
 31
0.0
  0
LINE
  5
2B4
330
1F
100
AcDbEntity
  8
0
  6
Continuous
 62
     7
370
    15
100
AcDbLine
 10
264.3951167387
 20
38.4905966004
 30
0.0
 11
264.3951167387
 21
40.1872303756
 31
0.0
  0
ARC
  5
2B5
330
1F
100
AcDbEntity
  8
0
  6
Continuous
 62
     7
370
    15
100
AcDbCircle
 10
240.0715118281
 20
54.1645628002
 30
0.0
 40
1.557574315952428
100
AcDbArc
 50
79.5861017376
 51
142.8221932109
  0
ARC
  5
2B6
330
1F
100
AcDbEntity
  8
0
  6
Continuous
 62
     7
370
    15
100
AcDbCircle
 10
240.0394199284
 20
54.2482281928
 30
0.0
 40
1.463439891085696
100
AcDbArc
 50
78.2685922876
 51
144.4072601206
  0
ARC
  5
2B7
330
1F
100
AcDbEntity
  8
0
  6
Continuous
 62
     7
370
    15
100
AcDbCircle
 10
240.0110437192
 20
54.3218573834
 30
0.0
 40
1.249547245185477
100
AcDbArc
 50
80.705870252
 51
142.2259793291
  0
LWPOLYLINE
  5
2B8
330
1F
100
AcDbEntity
  8
0
  6
Continuous
 62
     7
370
     0
100
AcDbPolyline
 90
        8
 70
   128
 43
0.0
 10
239.1705745463
 20
34.0607572358
 10
239.2326133902
 20
32.8893856131
 10
239.4178593261
 20
31.8060860857
 10
239.7237117618
 20
30.8260661592
 10
240.1458776455
 20
29.9630825349
 10
240.6784294182
 20
29.2292497528
 10
241.3138925997
 20
28.6348697445
 10
241.759917551
 20
28.3376971701
  0
LWPOLYLINE
  5
2B9
330
1F
100
AcDbEntity
  8
0
  6
Continuous
 62
     7
370
     0
100
AcDbPolyline
 90
       21
 70
   128
 43
0.0
 10
254.2589013346
 20
49.9889188513
 10
253.5786518582
 20
50.3041561462
 10
252.7277860121
 20
50.5179640812
 10
251.8106847472
 20
50.5723781749
 10
250.8402216208
 20
50.4666339049
 10
249.8300204371
 20
50.2022158422
 10
248.7942617173
 20
49.7828356637
 10
247.7474853626
 20
49.2143798296
 10
246.7043858677
 20
48.5048301462
 10
245.6796060727
 20
47.6641454615
 10
244.6875314912
 20
46.7041269643
 10
243.7420887756
 20
45.6382524098
 10
242.8565502318
 20
44.4814841812
 10
242.0433465462
 20
43.2500607969
 10
241.3138925997
 20
41.9612670778
 10
240.6784294182
 20
40.6331968971
 10
240.1458776455
 20
39.2844929261
 10
239.7237117618
 20
37.9340869475
 10
239.4178593261
 20
36.6009373155
 10
239.2326133902
 20
35.303757383
 10
239.1705745463
 20
34.0607572358
  0
LWPOLYLINE
  5
2BA
330
1F
100
AcDbEntity
  8
0
  6
Continuous
 62
     7
370
     0
100
AcDbPolyline
 90
       42
 70
   128
 43
0.0
 10
270.2655954397
 20
32.4391412691
 10
269.4560503803
 20
31.900029507
 10
268.6654802931
 20
31.2300115933
 10
267.9124157151
 20
30.4447918671
 10
267.2145073677
 20
29.5627747733
 10
266.5881143197
 20
28.6046354778
 10
266.0479181623
 20
27.592830593
 10
265.6065807309
 20
26.5510762475
 10
265.2744467717
 20
25.5037908846
 10
265.0593009395
 20
24.4755213259
 10
264.9661863681
 20
23.4903696605
 10
264.9972851446
 20
22.571426783
 10
265.151868919
 20
21.7402321839
 10
265.4263143792
 20
21.0162685733
 10
265.8141882041
 20
20.4165045257
 10
266.3063991866
 20
19.9549982408
 10
266.8914102856
 20
19.6425666748
 10
267.5555096165
 20
19.4865334213
 10
268.2831309982
 20
19.4905557712
 10
269.0572196919
 20
19.654539269
 10
269.8596317264
 20
19.974640479
 10
270.6715591529
 20
20.4433562054
 10
271.4739711874
 20
21.0497002105
 10
272.2480598811
 20
21.7794604947
 10
272.9756812628
 20
22.6155319101
 10
273.6397805938
 20
23.5383179303
 10
274.2247916927
 20
24.526188934
 10
274.7170026752
 20
25.5559899229
 10
275.1048765001
 20
26.6035835563
 10
275.3793219603
 20
27.6444151506
 10
275.5339057347
 20
28.6540883766
 10
275.5650045112
 20
29.6089371372
 10
275.4718899398
 20
30.4865810068
 10
275.2567441076
 20
31.266448475
 10
274.9246101484
 20
31.9302601311
 10
274.483272717
 20
32.4624571245
 10
273.9430765596
 20
32.8505648017
 10
273.3166835116
 20
33.0854860782
 10
272.6187751642
 20
33.1617153457
 10
271.8657105862
 20
33.0774652173
 10
271.075140499
 20
32.8347103373
 10
270.2655954397
 20
32.4391412691
  0
LWPOLYLINE
  5
2BB
330
1F
100
AcDbEntity
  8
0
  6
Continuous
 62
     7
370
     0
100
AcDbPolyline
 90
       22
 70
   128
 43
0.0
 10
266.5465838688
 20
20.3850703209
 10
266.629751784
 20
20.3460353713
 10
267.2665704148
 20
20.1610645969
 10
267.9719056625
 20
20.1407658226
 10
268.7274892556
 20
20.2856649591
 10
269.5137521324
 20
20.5920091997
 10
270.3103305327
 20
21.0518641219
 10
271.0965934095
 20
21.6533196758
 10
271.8521770026
 20
22.3807987868
 10
272.5575122504
 20
23.2154603039
 10
273.1943308811
 20
24.1356862191
 10
273.7461401416
 20
25.1176435567
 10
274.1986484636
 20
26.1359004518
 10
274.5401357303
 20
27.1640842005
 10
274.7617576893
 20
28.1755654579
 10
274.8577744663
 20
29.1441472439
 10
274.8256997268
 20
30.044744212
 10
274.666363566
 20
30.8540309866
 10
274.3838927531
 20
31.5510474922
 10
273.9856037176
 20
32.1177415069
 10
273.4818112421
 20
32.5394361746
 10
273.4343568541
 20
32.5683136924
  0
LWPOLYLINE
  5
2BC
330
1F
100
AcDbEntity
  8
0
  6
Continuous
 62
     7
370
     0
100
AcDbPolyline
 90
       19
 70
   128
 43
0.0
 10
230.215328737
 20
35.9955869124
 10
230.7101301044
 20
37.9420011477
 10
231.3298534136
 20
39.9036627293
 10
232.0696702164
 20
41.8652803423
 10
232.92381298
 20
43.811564661
 10
233.8856225023
 20
45.7273435545
 10
234.9476032296
 20
47.5976852769
 10
236.1014772576
 20
49.408008729
 10
237.3382501854
 20
51.1442058867
 10
238.6482809213
 20
52.7927414153
 10
240.0213587328
 20
54.3407655907
 10
241.446780296
 20
55.7762120118
 10
242.9134349772
 20
57.0878909393
 10
244.4098909376
 20
58.2655800681
 10
245.9244829668
 20
59.3000980458
 10
247.4454055021
 20
60.1833809861
 10
248.9608030959
 20
60.9085438199
 10
250.4588637646
 20
61.4699357051
 10
251.2539021586
 20
61.7027156019
  0
LINE
  5
2BD
330
1F
100
AcDbEntity
  8
0
  6
Continuous
 62
     7
370
     0
100
AcDbLine
 10
230.5740543942
 20
35.6610760828
 30
0.0
 11
230.6542308709
 21
36.0250432097
 31
0.0
  0
LWPOLYLINE
  5
2BE
330
1F
100
AcDbEntity
  8
0
  6
Continuous
 62
     7
370
     0
100
AcDbPolyline
 90
        9
 70
   128
 43
0.0
 10
247.1472403594
 20
59.5368766671
 10
248.1577908803
 20
60.0719246067
 10
249.6013838268
 20
60.7147149917
 10
251.0256325221
 20
61.2048069086
 10
252.4201502379
 20
61.5386255406
 10
253.7747677298
 20
61.7137360792
 10
255.0796065008
 20
61.7288632045
 10
256.3251512414
 20
61.5838964015
 10
257.5023179887
 20
61.2798928055
  0
LWPOLYLINE
  5
2BF
330
1F
100
AcDbEntity
  8
0
  6
Continuous
 62
     7
370
     0
100
AcDbPolyline
 90
       19
 70
   128
 43
0.0
 10
250.9805824802
 20
23.0147204461
 10
249.8592461485
 20
22.0973859321
 10
248.4030400991
 20
21.0390459663
 10
246.9360031997
 20
20.1202479084
 10
245.4690613263
 20
19.3478344983
 10
244.0131394389
 20
18.7275574433
 10
242.5790804059
 20
18.2640351191
 10
241.177564667
 20
17.9607214016
 10
239.8190301524
 20
17.8198746466
 10
238.5135940815
 20
17.8425444843
 10
237.2709792054
 20
18.0285611794
 10
236.10044005
 20
18.3765386807
 10
235.0106937691
 20
18.8838879345
 10
234.0098562651
 20
19.5468271579
 10
233.1053822619
 20
20.3604225286
 10
232.3040060356
 20
21.318611765
 10
231.6116979507
 20
22.4142604046
 10
231.0336117765
 20
23.6392081968
 10
230.5740543942
 20
24.9843322247
  0
ARC
  5
2C0
330
1F
100
AcDbEntity
  8
0
  6
Continuous
 62
     7
370
     0
100
AcDbCircle
 10
253.1363593871
 20
51.9687394221
 30
0.0
 40
10.51249703684973
100
AcDbArc
 50
14.4456939373
 51
47.0804331381
  0
LWPOLYLINE
  5
2C1
330
1F
100
AcDbEntity
  8
0
  6
Continuous
 62
     7
370
     0
100
AcDbPolyline
 90
       27
 70
   128
 43
0.0
 10
237.049253855
 20
34.0607572358
 10
237.1115001404
 20
35.3766211155
 10
237.2974553288
 20
36.7478048573
 10
237.6047809285
 20
38.1570647093
 10
238.0296126004
 20
39.5866791117
 10
238.5666069144
 20
41.0186693222
 10
239.2090124721
 20
42.4350274524
 10
239.9487489325
 20
43.8179419382
 10
240.7765150129
 20
45.150021486
 10
241.6819001124
 20
46.4145154058
 10
242.6535193137
 20
47.595520445
 10
243.6791533233
 20
48.6781862902
 10
244.7459042178
 20
49.6488967328
 10
245.8403573633
 20
50.4954452731
 10
246.9487490972
 20
51.2071859142
 10
248.0571408311
 20
51.7751671294
 10
249.1515939765
 20
52.1922472938
 10
250.2183448711
 20
52.4531812177
 10
251.2439788807
 20
52.5546871942
 10
252.2155980819
 20
52.4954898064
 10
253.1209831815
 20
52.276331272
 10
253.9487492619
 20
51.8999700976
 10
254.6884857222
 20
51.3711371492
 10
255.33089128
 20
50.6964846883
 10
255.8678855939
 20
49.8844949157
 10
256.2927172658
 20
48.945380721
 10
256.3508772826
 20
48.7812468393
  0
LWPOLYLINE
  5
2C2
330
1F
100
AcDbEntity
  8
0
  6
Continuous
 62
     7
370
     0
100
AcDbPolyline
 90
       13
 70
   128
 43
0.0
 10
243.8518931697
 20
27.1300249681
 10
243.6791533233
 20
27.0980471721
 10
242.6535193137
 20
26.9965411956
 10
241.6819001124
 20
27.0557385835
 10
240.7765150129
 20
27.2748971179
 10
239.9487489325
 20
27.6512582923
 10
239.2090124721
 20
28.1800912406
 10
238.5666069144
 20
28.8547437015
 10
238.0296126004
 20
29.6667334742
 10
237.6047809285
 20
30.6058476688
 10
237.2974553288
 20
31.6602769361
 10
237.1115001404
 20
32.8167613875
 10
237.049253855
 20
34.0607572358
  0
LWPOLYLINE
  5
2C3
330
1F
100
AcDbEntity
  8
0
  6
Continuous
 62
     7
370
     0
100
AcDbPolyline
 90
       19
 70
   128
 43
0.0
 10
225.0357718025
 20
38.9856814848
 10
225.5305731698
 20
40.9320957201
 10
226.150296479
 20
42.8937573017
 10
226.8901132818
 20
44.8553749147
 10
227.7442560454
 20
46.8016592333
 10
228.7060655677
 20
48.7174381269
 10
229.768046295
 20
50.5877798493
 10
230.9219203231
 20
52.3981033014
 10
232.1586932508
 20
54.1343004591
 10
233.4687239868
 20
55.7828359877
 10
234.8418017982
 20
57.3308601631
 10
236.2672233614
 20
58.7663065842
 10
237.7338780426
 20
60.0779855117
 10
239.230334003
 20
61.2556746405
 10
240.7449260322
 20
62.2901926182
 10
242.2658485675
 20
63.1734755585
 10
243.7812461613
 20
63.8986383923
 10
245.27930683
 20
64.4600302775
 10
246.0744515789
 20
64.6928381114
  0
LWPOLYLINE
  5
2C4
330
1F
100
AcDbEntity
  8
0
  6
Continuous
 62
     7
370
     0
100
AcDbPolyline
 90
       19
 70
   128
 43
0.0
 10
228.3137396527
 20
37.9624555526
 10
228.7899226497
 20
39.8335016775
 10
229.3896262059
 20
41.7193424247
 10
230.1078980666
 20
43.6044016972
 10
230.9388060628
 20
45.4731110951
 10
231.8754868437
 20
47.3100369075
 10
232.910204487
 20
49.1000067245
 10
234.0344130606
 20
50.8282368085
 10
235.2388277454
 20
52.4804560436
 10
236.5135012267
 20
54.043014674
 10
237.8479046949
 20
55.5030086324
 10
239.2310183954
 20
56.8483804829
 10
240.6514182274
 20
58.0680180828
 10
242.0973732083
 20
59.151848871
 10
243.5569407981
 20
60.0909207535
 10
245.0180660927
 20
60.8774760961
 10
246.4686815107
 20
61.5050214405
 10
247.8968062345
 20
61.968372742
 10
248.3296161731
 20
62.0772190092
  0
LINE
  5
2C5
330
1F
100
AcDbEntity
  8
0
  6
Continuous
 62
     7
370
     0
100
AcDbLine
 10
239.5342659582
 20
55.9451023006
 30
0.0
 11
239.8944927676
 21
56.2835902664
 31
0.0
  0
LWPOLYLINE
  5
2C6
330
1F
100
AcDbEntity
  8
0
  6
Continuous
 62
     7
370
     0
100
AcDbPolyline
 90
       21
 70
   128
 43
0.0
 10
227.7362718518
 20
37.9556539374
 10
228.2110100021
 20
39.8488768167
 10
228.8104804336
 20
41.757959613
 10
229.5297783066
 20
43.6672874416
 10
230.3630215017
 20
45.5612470302
 10
231.3033967173
 20
47.4243491496
 10
232.3432121536
 20
49.2413556056
 10
233.4739640254
 20
50.9974088919
 10
234.6864063678
 20
52.6781470136
 10
235.970622159
 20
54.2698236331
 10
237.3161095898
 20
55.7594225125
 10
238.71186504
 20
57.1347616885
 10
240.1464736283
 20
58.3845928947
 10
241.6082028904
 20
59.4986967058
 10
243.0850985561
 20
60.4679576006
 10
244.5650824662
 20
61.2844524275
 10
246.0360510255
 20
61.9415041987
 10
247.4859745603
 20
62.4337364057
 10
248.9029950711
 20
62.7571248887
 10
250.2755239858
 20
62.9090253697
 10
251.5757351645
 20
62.8895659362
  0
LWPOLYLINE
  5
2C7
330
1F
100
AcDbEntity
  8
0
  6
Continuous
 62
     7
370
     0
100
AcDbPolyline
 90
        3
 70
   128
 43
0.0
 10
228.7853957324
 20
35.8831505865
 10
228.7849439709
 20
36.0048295038
 10
228.7972087038
 20
36.6472729168
  0
LWPOLYLINE
  5
2C8
330
1F
100
AcDbEntity
  8
0
  6
Continuous
 62
     7
370
     0
100
AcDbPolyline
 90
       18
 70
   128
 43
0.0
 10
197.6999900004
 20
59.8961360031
 10
197.7642106023
 20
61.0410286281
 10
197.955727199
 20
62.2396386733
 10
198.2711212861
 20
63.4705762545
 10
198.704764942
 20
64.7118756439
 10
199.2489196104
 20
65.9413854737
 10
199.8938753818
 20
67.1371652095
 10
200.6281228737
 20
68.2778765818
 10
201.438559026
 20
69.3431639892
 10
202.3107218723
 20
70.3140158856
 10
203.2290477007
 20
71.1731082953
 10
204.1771487135
 20
71.9051107311
 10
205.1381062232
 20
72.4969603964
 10
206.0947718749
 20
72.9380953934
 10
207.0300739106
 20
73.2206444537
 10
207.9273218696
 20
73.3395648148
 10
208.7705041476
 20
73.2927341488
 10
209.4346169787
 20
73.1227203542
  0
ARC
  5
2C9
330
1F
100
AcDbEntity
  8
0
  6
Continuous
 62
     7
370
     0
100
AcDbCircle
 10
203.0981801025
 20
59.4501206071
 30
0.0
 40
5.416584358434971
100
AcDbArc
 50
175.2767713466
 51
224.7160200036
  0
LINE
  5
2CA
330
1F
100
AcDbEntity
  8
0
  6
Continuous
 62
     7
370
     0
100
AcDbLine
 10
234.4683138782
 20
37.0005462857
 30
0.0
 11
233.7610923943
 21
37.408816558
 31
0.0
  0
LINE
  5
2CB
330
1F
100
AcDbEntity
  8
0
  6
Continuous
 62
     7
370
     0
100
AcDbLine
 10
228.9251527064
 20
31.3410771479
 30
0.0
 11
234.4683138782
 21
28.1410783174
 31
0.0
  0
LINE
  5
2CC
330
1F
100
AcDbEntity
  8
0
  6
Continuous
 62
     7
370
     0
100
AcDbLine
 10
228.8644925255
 20
31.3060473869
 30
0.0
 11
228.9251527064
 21
31.3410771479
 31
0.0
  0
LINE
  5
2CD
330
1F
100
AcDbEntity
  8
0
  6
Continuous
 62
     7
370
     0
100
AcDbLine
 10
230.2419075934
 20
24.637944141
 30
0.0
 11
230.215328737
 21
24.725491123
 31
0.0
  0
LINE
  5
2CE
330
1F
100
AcDbEntity
  8
0
  6
Continuous
 62
     7
370
     0
100
AcDbLine
 10
233.7612069811
 20
26.916333629
 30
0.0
 11
228.5109389946
 21
29.9472488228
 31
0.0
  0
LINE
  5
2CF
330
1F
100
AcDbEntity
  8
0
  6
Continuous
 62
     7
370
     0
100
AcDbLine
 10
229.1818300596
 20
26.7488764761
 30
0.0
 11
229.0986282294
 21
27.0167999225
 31
0.0
  0
LWPOLYLINE
  5
2D0
330
1F
100
AcDbEntity
  8
0
  6
Continuous
 62
     7
370
     0
100
AcDbPolyline
 90
        3
 70
   128
 43
0.0
 10
228.7850928843
 20
26.1599527272
 10
228.7761788258
 20
26.1809081186
 10
228.3137396527
 20
27.4699064533
  0
ARC
  5
2D1
330
1F
100
AcDbEntity
  8
0
  6
Continuous
 62
     7
370
     0
100
AcDbCircle
 10
238.4749138016
 20
30.4709226746
 30
0.0
 40
11.15192355892258
100
AcDbArc
 50
195.6471844777
 51
214.1548056384
  0
LINE
  5
2D2
330
1F
100
AcDbEntity
  8
0
  6
Continuous
 62
     7
370
     0
100
AcDbLine
 10
225.0692719616
 20
27.6055698076
 30
0.0
 11
225.0357718025
 21
27.7155856954
 31
0.0
  0
LWPOLYLINE
  5
2D3
330
1F
100
AcDbEntity
  8
0
  6
Continuous
 62
     7
370
     0
100
AcDbPolyline
 90
       10
 70
   128
 43
0.0
 10
269.1469858115
 20
31.4870103445
 10
269.3706933809
 20
31.0403515932
 10
269.5206334286
 20
30.5135637637
 10
269.5386643772
 20
30.0305581276
 10
269.4228343008
 20
29.6436747027
 10
269.1856897893
 20
29.3948413978
 10
268.852935152
 20
29.3110197114
 10
268.4606270177
 20
29.4012944272
 10
268.0512757515
 20
29.6558842779
 10
267.6929643189
 20
30.0176880256
  0
OLE2FRAME
  5
2D4
330
1F
100
AcDbEntity
  8
0
100
AcDbOle2Frame
 70
     2
  3
Paintbrush-Bild
 10
13.8511154363
 20
38.264191557
 30
0.0
 11
51.6290888628
 21
31.9806341108
 31
0.0
 71
     2
 72
     0
 73
     1
 90
    12928
310
80552BED0767C5B32B40DDAF6807D121434000000000000000006FFBDDFB85D0
310
4940DDAF6807D121434000000000000000006FFBDDFB85D04940416F4BD60AFB
310
3F4000000000000000002BED0767C5B32B40416F4BD60AFB3F40000000000000
310
0000000000000100000000010000010000000100000000000100000000320000
310
D0CF11E0A1B11AE1000000000000000000000000000000003E000300FEFF0900
310
0600000000000000000000000100000001000000000000000010000002000000
310
01000000FEFFFFFF0000000000000000FFFFFFFFFFFFFFFFFFFFFFFFFFFFFFFF
310
FFFFFFFFFFFFFFFFFFFFFFFFFFFFFFFFFFFFFFFFFFFFFFFFFFFFFFFFFFFFFFFF
310
FFFFFFFFFFFFFFFFFFFFFFFFFFFFFFFFFFFFFFFFFFFFFFFFFFFFFFFFFFFFFFFF
310
FFFFFFFFFFFFFFFFFFFFFFFFFFFFFFFFFFFFFFFFFFFFFFFFFFFFFFFFFFFFFFFF
310
FFFFFFFFFFFFFFFFFFFFFFFFFFFFFFFFFFFFFFFFFFFFFFFFFFFFFFFFFFFFFFFF
310
FFFFFFFFFFFFFFFFFFFFFFFFFFFFFFFFFFFFFFFFFFFFFFFFFFFFFFFFFFFFFFFF
310
FFFFFFFFFFFFFFFFFFFFFFFFFFFFFFFFFFFFFFFFFFFFFFFFFFFFFFFFFFFFFFFF
310
FFFFFFFFFFFFFFFFFFFFFFFFFFFFFFFFFFFFFFFFFFFFFFFFFFFFFFFFFFFFFFFF
310
FFFFFFFFFFFFFFFFFFFFFFFFFFFFFFFFFFFFFFFFFFFFFFFFFFFFFFFFFFFFFFFF
310
FFFFFFFFFFFFFFFFFFFFFFFFFFFFFFFFFFFFFFFFFFFFFFFFFFFFFFFFFFFFFFFF
310
FFFFFFFFFFFFFFFFFFFFFFFFFFFFFFFFFFFFFFFFFFFFFFFFFFFFFFFFFFFFFFFF
310
FFFFFFFFFFFFFFFFFFFFFFFFFFFFFFFFFFFFFFFFFFFFFFFFFFFFFFFFFFFFFFFF
310
FFFFFFFFFFFFFFFFFFFFFFFFFFFFFFFFFFFFFFFFFFFFFFFFFFFFFFFFFFFFFFFF
310
FFFFFFFFFFFFFFFFFFFFFFFFFFFFFFFFFFFFFFFFFFFFFFFFFFFFFFFFFFFFFFFF
310
FDFFFFFFFEFFFFFFFEFFFFFFFEFFFFFF05000000060000000700000008000000
310
090000000A0000000B0000000C0000000D0000000E0000000F00000010000000
310
11000000120000001300000014000000150000001600000017000000FEFFFFFF
310
FFFFFFFFFFFFFFFFFFFFFFFFFFFFFFFFFFFFFFFFFFFFFFFFFFFFFFFFFFFFFFFF
310
FFFFFFFFFFFFFFFFFFFFFFFFFFFFFFFFFFFFFFFFFFFFFFFFFFFFFFFFFFFFFFFF
310
FFFFFFFFFFFFFFFFFFFFFFFFFFFFFFFFFFFFFFFFFFFFFFFFFFFFFFFFFFFFFFFF
310
FFFFFFFFFFFFFFFFFFFFFFFFFFFFFFFFFFFFFFFFFFFFFFFFFFFFFFFFFFFFFFFF
310
FFFFFFFFFFFFFFFFFFFFFFFFFFFFFFFFFFFFFFFFFFFFFFFFFFFFFFFFFFFFFFFF
310
FFFFFFFFFFFFFFFFFFFFFFFFFFFFFFFFFFFFFFFFFFFFFFFFFFFFFFFFFFFFFFFF
310
FFFFFFFFFFFFFFFFFFFFFFFFFFFFFFFFFFFFFFFFFFFFFFFFFFFFFFFFFFFFFFFF
310
FFFFFFFFFFFFFFFFFFFFFFFFFFFFFFFFFFFFFFFFFFFFFFFFFFFFFFFFFFFFFFFF
310
FFFFFFFFFFFFFFFFFFFFFFFFFFFFFFFFFFFFFFFFFFFFFFFFFFFFFFFFFFFFFFFF
310
FFFFFFFFFFFFFFFFFFFFFFFFFFFFFFFFFFFFFFFFFFFFFFFFFFFFFFFFFFFFFFFF
310
FFFFFFFFFFFFFFFFFFFFFFFFFFFFFFFFFFFFFFFFFFFFFFFFFFFFFFFFFFFFFFFF
310
FFFFFFFFFFFFFFFFFFFFFFFFFFFFFFFFFFFFFFFFFFFFFFFFFFFFFFFFFFFFFFFF
310
FFFFFFFFFFFFFFFFFFFFFFFFFFFFFFFFFFFFFFFFFFFFFFFFFFFFFFFFFFFFFFFF
310
52006F006F007400200045006E00740072007900000000000000000000000000
310
0000000000000000000000000000000000000000000000000000000000000000
310
16000500FFFFFFFFFFFFFFFF020000000A00030000000000C000000000000046
310
000000000000000000000000609A3E1F9124D20103000000C000000000000000
310
01004F006C006500000000000000000000000000000000000000000000000000
310
0000000000000000000000000000000000000000000000000000000000000000
310
0A000200FFFFFFFFFFFFFFFFFFFFFFFF00000000000000000000000000000000
310
0000000000000000000000000000000000000000000000001400000000000000
310
010043006F006D0070004F0062006A0000000000000000000000000000000000
310
0000000000000000000000000000000000000000000000000000000000000000
310
120002010100000003000000FFFFFFFF00000000000000000000000000000000
310
0000000000000000000000000000000000000000010000004D00000000000000
310
01004F006C006500310030004E00610074006900760065000000000000000000
310
0000000000000000000000000000000000000000000000000000000000000000
310
1A000200FFFFFFFFFFFFFFFFFFFFFFFF00000000000000000000000000000000
310
0000000000000000000000000000000000000000040000002426000000000000
310
FEFFFFFF02000000FEFFFFFFFFFFFFFFFFFFFFFFFFFFFFFFFFFFFFFFFFFFFFFF
310
FFFFFFFFFFFFFFFFFFFFFFFFFFFFFFFFFFFFFFFFFFFFFFFFFFFFFFFFFFFFFFFF
310
FFFFFFFFFFFFFFFFFFFFFFFFFFFFFFFFFFFFFFFFFFFFFFFFFFFFFFFFFFFFFFFF
310
FFFFFFFFFFFFFFFFFFFFFFFFFFFFFFFFFFFFFFFFFFFFFFFFFFFFFFFFFFFFFFFF
310
FFFFFFFFFFFFFFFFFFFFFFFFFFFFFFFFFFFFFFFFFFFFFFFFFFFFFFFFFFFFFFFF
310
FFFFFFFFFFFFFFFFFFFFFFFFFFFFFFFFFFFFFFFFFFFFFFFFFFFFFFFFFFFFFFFF
310
FFFFFFFFFFFFFFFFFFFFFFFFFFFFFFFFFFFFFFFFFFFFFFFFFFFFFFFFFFFFFFFF
310
FFFFFFFFFFFFFFFFFFFFFFFFFFFFFFFFFFFFFFFFFFFFFFFFFFFFFFFFFFFFFFFF
310
FFFFFFFFFFFFFFFFFFFFFFFFFFFFFFFFFFFFFFFFFFFFFFFFFFFFFFFFFFFFFFFF
310
FFFFFFFFFFFFFFFFFFFFFFFFFFFFFFFFFFFFFFFFFFFFFFFFFFFFFFFFFFFFFFFF
310
FFFFFFFFFFFFFFFFFFFFFFFFFFFFFFFFFFFFFFFFFFFFFFFFFFFFFFFFFFFFFFFF
310
FFFFFFFFFFFFFFFFFFFFFFFFFFFFFFFFFFFFFFFFFFFFFFFFFFFFFFFFFFFFFFFF
310
FFFFFFFFFFFFFFFFFFFFFFFFFFFFFFFFFFFFFFFFFFFFFFFFFFFFFFFFFFFFFFFF
310
FFFFFFFFFFFFFFFFFFFFFFFFFFFFFFFFFFFFFFFFFFFFFFFFFFFFFFFFFFFFFFFF
310
FFFFFFFFFFFFFFFFFFFFFFFFFFFFFFFFFFFFFFFFFFFFFFFFFFFFFFFFFFFFFFFF
310
FFFFFFFFFFFFFFFFFFFFFFFFFFFFFFFFFFFFFFFFFFFFFFFFFFFFFFFFFFFFFFFF
310
0100000200000000000000000000000000000000000000000000000000000000
310
0000000000000000000000000000000000000000000000000000000000000000
310
0100FEFF030A0000FFFFFFFF0A00030000000000C00000000000004607000000
310
5042727573680007000000504272757368000700000050427275736800F439B2
310
7100000000000000000000000000000000000000000000000000000000000000
310
0000000000000000000000000000000000000000000000000000000000000000
310
0000000000000000000000000000000000000000000000000000000000000000
310
0000000000000000000000000000000000000000000000000000000000000000
310
0000000000000000000000000000000000000000000000000000000000000000
310
0000000000000000000000000000000000000000000000000000000000000000
310
0000000000000000000000000000000000000000000000000000000000000000
310
0000000000000000000000000000000000000000000000000000000000000000
310
0000000000000000000000000000000000000000000000000000000000000000
310
0000000000000000000000000000000000000000000000000000000000000000
310
0000000000000000000000000000000000000000000000000000000000000000
310
0000000000000000000000000000000000000000000000000000000000000000
310
20260000424D0E260000000000003E00000028000000B40200006E0000000100
310
01000000000000000000130B0000130B00000200000002000000000000FFFFFF
310
FFFFFFFFFFFFFFFFFFFFFFFFFFFFFFFFFFFFFFFFFFFFFFFFFFFFFFFFFFFFFFFF
310
FFFFFFFFFFFFFFFFFFFFFFFFFFFFFFFFFFFFFFFFFFFFFFFFFFFFFFFFFFFFFFFF
310
FFFFFFFFFFFFFFFFFFFFFFFFFFFFFFFFFFFFFFFFFFFFFFFFF000FFFFFFFFFFFF
310
FFFFFFFFFFFFFFFFFFFFFFFFFFFFFFFFFFFFFFFFFFFFFFFFFFFFFFFFFFFFFFFF
310
FFFFFFFFFFFFFFFFFFFFFFFFFFFFFFFFFFFFFFFFFFFFFFFFFFFFFFFFFFFFFFFF
310
FFFFFFFFFFFFFFFFFFFFFFFFFFFFFFFFF000FFFFFFFFFFFFFFFFFFFFFFFFFFFF
310
FFFFFFFFFFFFFFFFFFFFFFFFFFFFFFFFFFFFFFFFFFFFFFFFFFFFFFFFFFFFFFFF
310
FFFFFFFFFFFFFFFFFFFFFFFFFFFFFFFFFFFFFFFFFFFFFFFFFFFFFFFFFFFFFFFF
310
FFFFFFFFFFFFFFFFF000FFFFFFFFFFFFFFFFFFFFFFFFFFFFFFFFFFFFFFFFFFFF
310
FFFFFFFFFFFFFFFFFFFFFFFFFFFFFFFFFFFFFFFFFFFFFFFFFFFFFFFFFFFFFFFF
310
FFFFFFFFFFFFFFFFFFFFFFFFFFFFFFFFFFFFFFFFFFFFFFFFFFFFFFFFFFFFFFFF
310
F000FFFFFFFFFFFFFFFFFFFFFFFFFFFFFFFFFFFFFFFFFFFFFFFFFFFFFFFFFFFF
310
FFFFFFFFFFFFFFFFFFFFFFFFFFFFFFFFFFFFFFFFFFFFFFFFFFFFFFFFFFFFFFFF
310
FFFFFFFFFFFFFFFFFFFFFFFFFFFFFFFFFFFFFFFFFFFFFFFFF000FFFFFFFFFFFF
310
FFFFFFFFFFFFFFFFFFFFFFFFFFFFFFFFFFFFFFFFFFFFFFFFFFFFFFFFFFFFFFFF
310
FFFFFFFFFFFFFFFFFFFFFFFFFFFFFFFFFFFFFFFFFFFFFFFFFFFFFFFFFFFFFFFF
310
FFFFFFFFFFFFFFFFFFFFFFFFFFFFFFFFF000FFFFFFFFFFFFFFFFFFFFFFFFFFFF
310
FFFFFFFFFFFFFFFFFFFFFFFFFFFFFFFFFFFFFFFFFFFFFFFFFFFFFFFFFFFFFFFF
310
FFFFFFFFFFFFFFFFFFFFFFFFFFFFFFFFFFFFFFFFFFFFFFFFFFFFFFFFFFFFFFFF
310
FFFFFFFFFFFFFFFFF000FFFFFFFFFFFFFFFFFFFFFFFFFFFFFFFFFFFFFFFFFFFF
310
FFFFFFFFFFFFFFFFFFFFFFFFFFFFFFFFFFFFFFFFFFFFFFFFFFFFFFFFFFFFFFFF
310
FFFFFFFFFFFFFFFFFFFFFFFFFFFFFFFFFFFFFFFFFFFFFFFFFFFFFFFFFFFFFFFF
310
F000FFFFFFFFFFFFFFFFFFFFFFFFFFFFFFFFFFFFFFFFFFFFFFFFFFFFFFFFFFFF
310
FFFFFFFFFFFFFFFFFFFFFFFFFFFFFFFFFFFFFFFFFFFFFFFFFFFFFFFFFFFFFFFF
310
FFFFFFFFFFFFFFFFFFFFFFFFFFFFFFFFFFFFFFFFFFFFFFFFF000FFFFFFFFFFFF
310
FFFFFFFFFFFFFFFFFFFFFFFFFFFFFFFFFFFFFFFFFFFFFFFFFFFFFFFFFFFFFFFF
310
FFFFFFFFFFFFFFFFFFFFFFFFFFFFFFFFFFFFFFFFFFFFFFFFFFFFFFFFFFFFFFFF
310
FFFFFFFFFFFFFFFFFFFFFFFFFFFFFFFFF000FFFFFFFFFFFFFFFFFFFFFFFFFFFF
310
FFFFFFFFFFFFFFFFFFFFFFFFFFFFFFFFFFFFFFFFFFFFFFFFFFFFFFFFFFFFFFFF
310
FFFFFFFFFFFFFFFFFFFFFFFFFFFFFFFFFFFFFFFFFFFFFFFFFFFFFFFFFFFFFFFF
310
FFFFFFFFFFFFFFFFF000FFFFFFFFFFFFFFFFFFFFFFFFFFFFFFFFFFFFFFFFFFFF
310
FFFFFFFFFFFFFFFFFFFFFFFFFFFFFFFFFFFFFFFFFFFFFFFFFFFFFFFFFFFFFFFF
310
FFFFFFFFFFFFFFFFFFFFFFFFFFFFFFFFFFFFFFFFFFFFFFFFFFFFFFFFFFFFFFFF
310
F000FFFFFFFFFFFFFFFFFFFFFFFFFFFFFFFFFFFFFFFFFFFFFFFFFFFFFFFFFFFF
310
FFFFFFFFFFFFFFFFFFFFFFFFFFFFFFFFFFFFFFFFFFFFFFFFFFFFFFFFFFFFFFFF
310
FFFFFFFFFFFFFFFFFFFFFFFFFFFFFFFFFFFFFFFFFFFFFFFFF000FFFFFFFFFFFF
310
FFFFFFFFFFFFFFFFFFFFFFFFFFFFFFFFFFFFFFFFFFFFFFFFFFFFFFFFFFFFFFFF
310
FFFFFFFFFFFFFFFFFFFFFFFFFFFFFFFFFFFFFFFFFFFFFFFFFFFFFFFFFFFFFFFF
310
FFFFFFFFFFFFFFFFFFFFFFFFFFFFFFFFF000FFFFFFFFFFFFFFFFFFFFFFFFFFFF
310
FFFFFFFFFFFFFFFFFFFFFFFFFFFFFFFFFFFFFFFFFFFFFFFFFFFFFFFFFFFFFFFF
310
FFFFFFFFFFFFFFFFFFFFFFFFFFFFFFFFFFFFFFFFFFFFFFFFFFFFFFFFFFFFFFFF
310
FFFFFFFFFFFFFFFFF000FFFFFFFFFFFFFFFFFFFFFFFFFFFFFFFFFFFFFFFFFFFF
310
FFFFFFFFFFFFFFFFFFFFFFFFFFFFFFFFFFFFFFFFFFFFFFFFFFFFFFFFFFFFFFFF
310
FFFFFFFFFFFFFFFFFFFFFFFFFFFFFFFFFFFFFFFFFFFFFFFFFFFFFFFFFFFFFFFF
310
F000FFFFFFFFFFFFFFFFFFFFFFFFFFFFFFFFFFFFFFFFFFFFFFFFFFFFFFFFFFFF
310
FFFFFFFFFFFFFFFFFFFFFFFFFFFFFFFFFFFFFFFFFFFFFFFFFFFFFFFFFFFFFFFF
310
FFFFFFFFFFFFFFFFFFFFFFFFFFFFFFFFFFFFFFFFFFFFFFFFF000FFFFFFFFFFFF
310
FFFFFFFFFFFFFFFFFFFFFFFFFFFFFFFFFFFFFFFFFFFFFFFFFFFFFFFFFFFFFFFF
310
FFFFFFFFFFFFFFFFFFFFFFFFFFFFFFFFFFFFFFFFFFFFFFFFFFFFFFFFFFFFFFFF
310
FFFFFFFFFFFFFFFFFFFFFFFFFFFFFFFFF000FFFFFFFFFFFFFFFFFFFFFFFFFFFF
310
FFFFFFFFFFFFFFFFFFFFFFFFFFFFFFFFFFFFFFFFFFFFFFFFFFFFFFFFFFFFFFFF
310
FFFFFFFFFFFFFFFFFFFFFFFFFFFFFFFFFFFFFFFFFFFFFFFFFFFFFFFFFFFFFFFF
310
FFFFFFFFFFFFFFFFF000FFFFF80003FFFFFFFFFFFFFFFFFFFFFFFFFFFFFFFFFF
310
FFFFF00007FFFFFFFFFF00007FFFFFF800000000000000007FFFFFFFFFFFFFFF
310
FFFFFFFC001FFFFFFFFFFFFFFC001FFFFFFFFFFFFFFFFFFFFFFFFFFE0007FFFF
310
F000FFFF8000007FFFFFFFF8000FFFFFC0007FFFFF80007FFFFF0000007FFFFF
310
FFF8000007FFFFF800000000000000007FFFFFF0001FFFFFFFFFFFC00001FFFF
310
FFFFFFFFC00001FFFFFFFF000000000003FFFFE000007FFFF000FFFE0000000F
310
FFFFFFF0000FFFFF80007FFFFF80007FFFFC0000001FFFFFFFC0000001FFFFF8
310
00000000000000007FFFFFF0001FFFFFFFFFFE0000003FFFFFFFFFFE0000003F
310
FFFFFF000000000003FFFF0000000FFFF000FFF800000003FFFFFFF00007FFFF
310
80007FFFFF80007FFFF000000007FFFFFF000000003FFFF80000000000000000
310
7FFFFFF0001FFFFFFFFFF80000000FFFFFFFFFF80000000FFFFFFF0000000000
310
03FFFC00000003FFF000FFE000000000FFFFFFF00007FFFF80003FFFFF80007F
310
FFC000000001FFFFFC000000001FFFF800000000000000007FFFFFF0001FFFFF
310
FFFFE000000003FFFFFFFFE000000003FFFFFF000000000003FFF000000000FF
310
F000FF80000000007FFFFFF00007FFFF80003FFFFF80007FFF8000000000FFFF
310
F80000000007FFF800000000000000007FFFFFF0001FFFFFFFFFC000000001FF
310
FFFFFFC000000001FFFFFF000000000003FFC0000000007FF000FF0000000000
310
3FFFFFE00007FFFF00003FFFFF80007FFE00000000003FFFF00000000003FFF8
310
00000000000000007FFFFFF0001FFFFFFFFF8000000000FFFFFFFF8000000000
310
FFFFFF000000000003FF80000000003FF000FE00000000001FFFFFE00003FFFF
310
00003FFFFF80007FFC00000000001FFFE00000000001FFF8000001FFFE000000
310
7FFFFFF0001FFFFFFFFE00000000003FFFFFFE00000000003FFFFF0000000000
310
03FF00000000001FF000FC00000000000FFFFFE00003FFFF00001FFFFF80007F
310
F800000000001FFFC00000000000FFF8000001FFFE0000007FFFFFF0001FFFFF
310
FFFC00000000001FFFFFFC00000000001FFFFF000000000003FE00000000000F
310
F000F8000000000007FFFFE00003FFFF00001FFFFF80007FF800000000000FFF
310
800000000000FFF8000001FFFE0000007FFFFFF0001FFFFFFFF800000000000F
310
FFFFF800000000000FFFFF000000000003FC000000000007F000F80000000000
310
03FFFFC00003FFFE00001FFFFF80007FF0000000000007FF0000000000007FF8
310
000001FFFE0000007FFFFFF0001FFFFFFFF0000000000007FFFFF00000000000
310
07FFFF000000000003F8000000000003F000F0000000000003FFFFC00001FFFE
310
00001FFFFF80007FE0000000000007FE0000000000003FF8000001FFFE000000
310
7FFFFFF0001FFFFFFFF0000000000007FFFFF0000000000007FFFF0000000000
310
03F800001F800003F000E00001FFF00001FFFFC00001FFFE00000FFFFF80007F
310
E00001FFE00003FE00001FFF00003FF8000001FFFE0000007FFFFFF0001FFFFF
310
FFE000003E000003FFFFE000003E000003FFFF000000000003F00001FFF80001
310
F000E00007FFFC0001FFFFC00001FFFE00000FFFFF80007FC0000FFFFC0003FC
310
0000FFFFC0001FF8000001FFFE0000007FFFFFF0001FFFFFFFC00003FFE00001
310
FFFFC00003FFE00001FFFF0001FFFFFFFFF00007FFFE0001F000E0000FFFFF00
310
00FFFF800001FFFC00000FFFFF80007FC0001FFFFE0001FC0001FFFFE0001FF8
310
000001FFFE0000007FFFFFF0001FFFFFFF80000FFFF80000FFFF80000FFFF800
310
00FFFF0003FFFFFFFFE0000FFFFF8000F000C0003FFFFF8000FFFF800000FFFC
310
000007FFFF80007F80003FFFFF0001FC0003FFFFF0001FF8000001FFFE000000
310
7FFFFFF0001FFFFFFF80003FFFFE0000FFFF80003FFFFE0000FFFF0003FFFFFF
310
FFE0003FFFFF8000F000C0003FFFFF8000FFFF800000FFFC000007FFFF80007F
310
80007FFFFF8001F80007FFFFF8000FF8000001FFFE0000007FFFFFF0001FFFFF
310
FF00007FFFFF00007FFF00007FFFFF00007FFF0003FFFFFFFFE0003FFFFFC000
310
F000C0007FFFFFC000FFFF000000FFFC000007FFFF80007F8000FFFFFF8000F8
310
000FFFFFF8000FF8000001FFFE0000007FFFFFF0001FFFFFFF0000FFFFFF8000
310
7FFF0000FFFFFF80007FFF0003FFFFFFFFC0007FFFFFC00070008000FFFFFFC0
310
00FFFF000000FFF8000007FFFF80007F8000FFFFFF8000F8000FFFFFF8000FF8
310
000001FFFE0000007FFFFFF0001FFFFFFE0001FFFFFFC0003FFE0001FFFFFFC0
310
003FFF0003FFFFFFFFC0007FFFFFE00070008000FFFFFFC0007FFF0000007FF8
310
000003FFFF80007F0001FFFFFF8000F8000FFFFFF8000FF8000001FFFE000000
310
7FFFFFF0001FFFFFFE0001FFFFFFC0003FFE0001FFFFFFC0003FFF0003FFFFFF
310
FFC000FFFFFFE00070008000FFFFFFC0007FFF0000007FF8000003FFFF80007F
310
0001FFFFFF8000F8001FFFFFF8000FF8000001FFFE0000007FFFFFF0001FFFFF
310
FE0003FFFFFFE0003FFE0003FFFFFFE0003FFF0003FFFFFFFFC000FFFFFFE000
310
70008000FFFFFFC0007FFE0000007FF8000003FFFF80007F0001FFFFFF8000F0
310
001FFFFFF8000FF8000001FFFE0000007FFFFFF0001FFFFFFC0003FFFFFFE000
310
1FFC0003FFFFFFE0001FFF0003FFFFFFFFC000FFFFFFC00070008000FFFFFF80
310
007FFE0000007FF0000003FFFF80007F0001FFFFFF0000F0001FFFFFF8000FF8
310
000001FFFE0000007FFFFFF0001FFFFFFC0007FFFFFFF0001FFC0007FFFFFFF0
310
001FFF0003FFFFFFFFC000FFFFFFC00070008001FFFFFF0000FFFE0000003FF0
310
000001FFFF80007F0001FFFFFF0000F8001FFFFFF0000FF8000001FFFE000000
310
7FFFFFF0001FFFFFFC0007FFFFFFF0001FFC0007FFFFFFF0001FFF0003FFFFFF
310
FFC001FFFFFF80007000FFFFFFFFFE0000FFFE0008003FF0008001FFFF80007F
310
FFFFFFFFFC0000FFFFFFFFFFE0000FF8000001FFFE0000007FFFFFF0001FFFFF
310
F8000FFFFFFFF8000FF8000FFFFFFFF8000FFF0003FFFFFFFFFFFFFFFFFF0000
310
7000FFFFFFFFFC0000FFFC0008003FF0008001FFFF80007FFFFFFFFFF80001FF
310
FFFFFFFF80000FF8000001FFFE0000007FFFFFF0001FFFFFF8000FFFFFFFF800
310
0FF8000FFFFFFFF8000FFF0003FFFFFFFFFFFFFFFFFE0000F000FFFFFFFFE000
310
00FFFC000C003FE000C001FFFF80007FFFFFFFFFC00001FFFFFFFFFE00001FF8
310
000001FFFE0000007FFFFFF0001FFFFFF8000FFFFFFFF8000FF8000FFFFFFFF8
310
000FFF0003FFFFFFFFFFFFFFFFF00000F000FFFFFFFE000001FFFC000C001FE0
310
00C000FFFF80007FFFFFFFFE000001FFFFFFFFE000001FF80FFFFFFFFFFFFFC0
310
7FFFFFF0001FFFFFF8000FFFFFFFF8000FF8000FFFFFFFF8000FFF0003FFFFFF
310
FFFFFFFFFF800000F000FFFFFFC0000001FFFC001C001FE001C000FFFF80007F
310
FFFFFF80000003FFFFFFF80000001FF80FFFFFFFFFFFFFC07FFFFFF0001FFFFF
310
F8001FFFFFFFFC000FF8001FFFFFFFFC000FFF0003FFFFFFFFFFFFFFF0000001
310
F000FFFFF800000001FFF8001C001FE001C000FFFF80007FFFFFF800000003FF
310
FFFF800000003FF80FFFFFFFFFFFFFC07FFFFFF0001FFFFFF8001FFFFFFFFC00
310
0FF8001FFFFFFFFC000FFF0003FFFFFFFFFFFFFE00000001F000FFFFC0000000
310
03FFF8001E001FC001E000FFFF80007FFFFF8000000007FFFFFC000000003FF8
310
0FFFFFFFFFFFFFC07FFFFFF0001FFFFFF8001FFFFFFFFC000FF8001FFFFFFFFC
310
000FFF0003FFFFFFFFFFFFE000000003F000FFFE0000000007FFF8001E000FC0
310
01E0007FFF80007FFFFE0000000007FFFFE0000000007FF80FFFFFFFFFFFFFC0
310
7FFFFFF0001FFFFFF0001FFFFFFFFC0007F0001FFFFFFFFC0007FF0003FFFFFF
310
FFFFFF0000000003F000FFF80000000007FFF8001E000FC003E0007FFF80007F
310
FFF0000000000FFFFF8000000000FFF80FFFFFFFFFFFFFC07FFFFFF0001FFFFF
310
F0001FFFFFFFFC0007F0001FFFFFFFFC0007FF0003FFFFFFFFFFFC0000000007
310
F000FFE0000000000FFFF0003E000FC003E0007FFF80007FFFC0000000001FFF
310
FE0000000001FFF80FFFFFFFFFFFFFC07FFFFFF0001FFFFFF0001FFFFFFFFC00
310
07F0001FFFFFFFFC0007FF0003FFFFFFFFFFF0000000000FF000FFC000000000
310
1FFFF0003F000F8003F0003FFF80007FFF80000000003FFFF80000000003FFF8
310
0FFFFFFFFFFFFFC07FFFFFF0001FFFFFF0001FFFFFFFFC0007F0001FFFFFFFFC
310
0007FF0003FFFFFFFFFFE0000000001FF000FF00000000007FFFF0003F000780
310
03F0003FFF80007FFF00000000007FFFF00000000007FFF80FFFFFFFFFFFFFC0
310
7FFFFFF0001FFFFFF0001FFFFFFFFC0007F0001FFFFFFFFC0007FF0003FFFFFF
310
FFFF80000000007FF000FE0000000000FFFFE0003F00078007F0003FFF80007F
310
FE0000000001FFFFE0000000001FFFF80FFFFFFFFFFFFFC07FFFFFF0001FFFFF
310
F0001FFFFFFFFC0007F0001FFFFFFFFC0007FF0003FFFFFFFFFF0000000000FF
310
F000FC0000000003FFFFE0007F00078007F0003FFF80007FFC0000000007FFFF
310
C0000000007FFFF80FFFFFFFFFFFFFC07FFFFFF0001FFFFFF8001FFFFFFFFC00
310
0FF8001FFFFFFFFC000FFF0003FFFFFFFFFE0000000003FFF000FC000000000F
310
FFFFE0007F80070007F8001FFF80007FF8000000001FFFFF8000000001FFFFF8
310
0FFFFFFFFFFFFFC07FFFFFF0001FFFFFF8001FFFFFFFFC000FF8001FFFFFFFFC
310
000FFF0003FFFFFFFFFC000000000FFFF000F8000000007FFFFFE0007F800700
310
07F8001FFF80007FF000000000FFFFFF800000000FFFFFF80FFFFFFFFFFFFFC0
310
7FFFFFF0001FFFFFF8000FFFFFFFF8000FF8000FFFFFFFF8000FFF0003FFFFFF
310
FFFC000000007FFFF000F800000007FFFFFFC0007F8003000FF8001FFF80007F
310
F000000007FFFFFF000000007FFFFFF80FFFFFFFFFFFFFC07FFFFFF0001FFFFF
310
F8000FFFFFFFF8000FF8000FFFFFFFF8000FFF0003FFFFFFFFF80000000FFFFF
310
F000F0000000FFFFFFFFC000FF8003000FF8001FFF80007FE0000000FFFFFFFF
310
0000000FFFFFFFF8000001FFFE0000007FFFFFF0001FFFFFF8000FFFFFFFF800
310
0FF8000FFFFFFFF8000FFF0003FFFFFFFFF8000000FFFFFFF000F000000FFFFF
310
FFFFC000FFC002000FF8000FFF80007FE000001FFFFFFFFE000001FFFFFFFFF8
310
000001FFFE0000007FFFFFF0001FFFFFF8000FFFFFFFF8000FF8000FFFFFFFF8
310
000FFF0003FFFFFFFFF000001FFFFFFFF000E00000FFFFFFFFFFC000FFC00200
310
0FFC000FFF80007FE00001FFFFFFFFFE00001FFFFFFFFFF8000001FFFE000000
310
7FFFFFF0001FFFFFFC000FFFFFFFF8001FFC000FFFFFFFF8001FFF0003FFFFFF
310
FFF00001FFFFFFFFF000E00007FFFFFFFFFF8000FFC000001FFC000FFF80007F
310
C0000FFFFFFFFFFE0000FFFFFFFFFFF8000001FFFE0000007FFFFFF0001FFFFF
310
FC0007FFFFFFF0001FFC0007FFFFFFF0001FFF0003FFFFFFFFF00007FFFFFFFF
310
F000E0001FFFFFFFFFFF8000FFC000001FFC000FFF80007FC0003FFFFFFFFFFE
310
0001FFFFFFFFFFF8000001FFFE0000007FFFFFF0001FFFFFFC0007FFFFFFF000
310
1FFC0007FFFFFFF0001FFF0003FFFFFFFFF0001FFFFFFFFFF000E0003FFFFF00
310
03FF8001FFE000001FFC0007FF80007FC0007FFFFF0007FC0003FFFFF0003FF8
310
000001FFFE0000007FFFFFF0001FFFFFFC0003FFFFFFE0001FFC0003FFFFFFE0
310
001FFF0003FFFFFFFFF0003FFFFFFFFFF000E0003FFFFF0001FF8001FFE00000
310
1FFE0007FF80007FC0007FFFFE0003FC0007FFFFE0003FF8000001FFFE000000
310
7FFFFFF0001FFFFFFE0003FFFFFFE0003FFE0003FFFFFFE0003FFF0003FFFFFF
310
FFF0003FFFFF8001F000E0003FFFFF0001FF0001FFE000001FFE0007FF80007F
310
C0007FFFFE0003FC0007FFFFE0003FF8000001FFFE0000007FFFFFF0001FFFFF
310
FE0001FFFFFFC0003FFE0001FFFFFFC0003FFF0003FFFFFFFFF0003FFFFF0001
310
F000E0003FFFFF0003FF0001FFE000003FFE0007FF80007FC0007FFFFE0003FC
310
0007FFFFE0003FF8000001FFFE0000007FFFFFF0001FFFFFFF0001FFFFFFC000
310
7FFF0001FFFFFFC0007FFF0003FFFFFFFFF0003FFFFF0001F000E0003FFFFE00
310
03FF0003FFF000003FFE0003FF80007FC0007FFFFC0003FE0007FFFFE0003FF8
310
000001FFFE0000007FFFFFF0001FFFFFFF0000FFFFFF80007FFF0000FFFFFF80
310
007FFF0003FFFFFFFFF0003FFFFF0001F000E0003FFFFE0003FF0003FFF00000
310
3FFF0003FF80007FC0007FFFFC0007FE0007FFFFC0003FF8000001FFFE000000
310
7FFFFFF0001FFFFFFF80007FFFFF0000FFFF80007FFFFF0000FFFF0003FFFFFF
310
FFF0003FFFFF0003F000E0003FFFFC0003FE0003FFF000003FFF0003FF80007F
310
E0003FFFF80007FE0003FFFFC0007FF8000001FFFE0000007FFFFFF0001FFFFF
310
FF80003FFFFE0000FFFF80003FFFFE0000FFFF0003FFFFFFFFF0001FFFFE0003
310
F000F0001FFFF80003FE0003FFF000007FFF0001FF80007FE0003FFFF00007FE
310
0001FFFF80007FF8000001FFFE0000007FFFFFF0001FFFFFFFC0000FFFF80001
310
FFFFC0000FFFF80001FFFF0003FFFFFFFFF0001FFFFC0003F000F0000FFFF000
310
07FE0007FFF800007FFF0001FF80007FE0001FFFE00007FF0000FFFE00007FF8
310
000001FFFE0000007FFFFFF0001FFFFFFFC00003FFE00001FFFFC00003FFE000
310
01FFFF0003FFFFFFFFF8000FFFF80003F000F00003FFC00007FC0007FFF80000
310
7FFF8001FF80007FF00007FF80000FFF00007FF80000FFF8000001FFFE000000
310
7F80000000000001FFE000003E000003FFFFE000003E000003FFFF0003FFFFFF
310
FFF80003FFE00007F000F800000000000FFC0007FFF800007FFF8001FF80007F
310
F000000000000FFF000000000000FFF8000001FFFE0000007F80000000000001
310
FFF0000000000007FFFFF0000000000007FFFF0003FFFFFFFFFC00007E000007
310
F000F800000000000FFC0007FFF80000FFFF8000FF80007FF800000000001FFF
310
800000000001FFF8000001FFFE0000007F80000000000001FFF800000000000F
310
FFFFF800000000000FFFFF0003FFFFFFFFFC00000000000FF000FC0000000000
310
1FFC0007FFFC0000FFFF8000FF80007FF800000000003FFFC00000000001FFF8
310
000001FFFE0000007F80000000000001FFF800000000000FFFFFF80000000000
310
0FFFFF0003FFFFFFFFFE00000000001FF000FE00000000003FF8000FFFFC0000
310
FFFF8000FF80007FFC00000000003FFFC00000000003FFF8000001FFFE000000
310
7F80000000000001FFFC00000000001FFFFFFC00000000001FFFFF0003FFFFFF
310
FFFF00000000001FF000FF00000000003FF8000FFFFC0000FFFFC000FF80007F
310
FE00000000007FFFE00000000007FFF8000001FFFE0000007F80000000000001
310
FFFE00000000003FFFFFFE00000000003FFFFF0003FFFFFFFFFF80000000003F
310
F000FF80000000007FF8000FFFFC0001FFFFC0007F80007FFF0000000000FFFF
310
F0000000000FFFF800000000000000007F80000000000001FFFF8000000000FF
310
FFFFFF8000000000FFFFFF0003FFFFFFFFFFC0000000007FF000FFC000000000
310
FFF8000FFFFE0001FFFFC0007F80007FFF8000000001FFFFF8000000001FFFF8
310
00000000000000007F80000000000001FFFFC000000001FFFFFFFFC000000001
310
FFFFFF0003FFFFFFFFFFE000000000FFF000FFE000000003FFF0001FFFFE0001
310
FFFFC0007F80007FFFC000000007FFFFFE000000003FFFF80000000000000000
310
7F80000000000001FFFFE000000003FFFFFFFFE000000003FFFFFF0003FFFFFF
310
FFFFF000000003FFF000FFF80000000FFFF0001FFFFE0001FFFFE0007F80007F
310
FFF00000000FFFFFFF00000000FFFFF800000000000000007F80000000000001
310
FFFFF80000000FFFFFFFFFF80000000FFFFFFF0003FFFFFFFFFFFC0000000FFF
310
F000FFFE0000003FFFF0001FFFFE0003FFFFE0003F80007FFFFC0000003FFFFF
310
FFC0000003FFFFF800000000000000007F80000000000001FFFFFE0000003FFF
310
FFFFFFFE0000003FFFFFFF0003FFFFFFFFFFFF0000003FFFF000FFFF800000FF
310
FFF0001FFFFF0003FFFFE0003F80007FFFFF000001FFFFFFFFF800001FFFFFF8
310
00000000000000007F80000000000001FFFFFFC00001FFFFFFFFFFFFC00001FF
310
FFFFFF0003FFFFFFFFFFFFC00000FFFFF000FFFFF8000FFFFFFFFFFFFFFFFFFF
310
FFFFFFFFFFFFFFFFFFFFF0001FFFFFFFFFFF0000FFFFFFF80000000000000000
310
7FFFFFFFFFFFFFFFFFFFFFFC001FFFFFFFFFFFFFFC001FFFFFFFFFFFFFFFFFFF
310
FFFFFFFC001FFFFFF000FFFFFFFFFFFFFFFFFFFFFFFFFFFFFFFFFFFFFFFFFFFF
310
FFFFFFFFFFFFFFFFFFFFFFFFFFFFFFFFFFFFFFFFFFFFFFFFFFFFFFFFFFFFFFFF
310
FFFFFFFFFFFFFFFFFFFFFFFFFFFFFFFFFFFFFFFFFFFFFFFFFFFFFFFFFFFFFFFF
310
F000FFFFFFFFFFFFFFFFFFFFFFFFFFFFFFFFFFFFFFFFFFFFFFFFFFFFFFFFFFFF
310
FFFFFFFFFFFFFFFFFFFFFFFFFFFFFFFFFFFFFFFFFFFFFFFFFFFFFFFFFFFFFFFF
310
FFFFFFFFFFFFFFFFFFFFFFFFFFFFFFFFFFFFFFFFFFFFFFFFF000FFFFFFFFFFFF
310
FFFFFFFFFFFFFFFFFFFFFFFFFFFFFFFFFFFFFFFFFFFFFFFFFFFFFFFFFFFFFFFF
310
FFFFFFFFFFFFFFFFFFFFFFFFFFFFFFFFFFFFFFFFFFFFFFFFFFFFFFFFFFFFFFFF
310
FFFFFFFFFFFFFFFFFFFFFFFFFFFFFFFFF000FFFFFFFFFFFFFFFFFFFFFFFFFFFF
310
FFFFFFFFFFFFFFFFFFFFFFFFFFFFFFFFFFFFFFFFFFFFFFFFFFFFFFFFFFFFFFFF
310
FFFFFFFFFFFFFFFFFFFFFFFFFFFFFFFFFFFFFFFFFFFFFFFFFFFFFFFFFFFFFFFF
310
FFFFFFFFFFFFFFFFF000FFFFFFFFFFFFFFFFFFFFFFFFFFFFFFFFFFFFFFFFFFFF
310
FFFFFFFFFFFFFFFFFFFFFFFFFFFFFFFFFFFFFFFFFFFFFFFFFFFFFFFFFFFFFFFF
310
FFFFFFFFFFFFFFFFFFFFFFFFFFFFFFFFFFFFFFFFFFFFFFFFFFFFFFFFFFFFFFFF
310
F000FFFFFFFFFFFFFFFFFFFFFFFFFFFFFFFFFFFFFFFFFFFFFFFFFFFFFFFFFFFF
310
FFFFFFFFFFFFFFFFFFFFFFFFFFFFFFFFFFFFFFFFFFFFFFFFFFFFFFFFFFFFFFFF
310
FFFFFFFFFFFFFFFFFFFFFFFFFFFFFFFFFFFFFFFFFFFFFFFFF000FFFFFFFFFFFF
310
FFFFFFFFFFFFFFFFFFFFFFFFFFFFFFFFFFFFFFFFFFFFFFFFFFFFFFFFFFFFFFFF
310
FFFFFFFFFFFFFFFFFFFFFFFFFFFFFFFFFFFFFFFFFFFFFFFFFFFFFFFFFFFFFFFF
310
FFFFFFFFFFFFFFFFFFFFFFFFFFFFFFFFF000FFFFFFFFFFFFFFFFFFFFFFFFFFFF
310
FFFFFFFFFFFFFFFFFFFFFFFFFFFFFFFFFFFFFFFFFFFFFFFFFFFFFFFFFFFFFFFF
310
FFFFFFFFFFFFFFFFFFFFFFFFFFFFFFFFFFFFFFFFFFFFFFFFFFFFFFFFFFFFFFFF
310
FFFFFFFFFFFFFFFFF000FFFFFFFFFFFFFFFFFFFFFFFFFFFFFFFFFFFFFFFFFFFF
310
FFFFFFFFFFFFFFFFFFFFFFFFFFFFFFFFFFFFFFFFFFFFFFFFFFFFFFFFFFFFFFFF
310
FFFFFFFFFFFFFFFFFFFFFFFFFFFFFFFFFFFFFFFFFFFFFFFFFFFFFFFFFFFFFFFF
310
F000FFFFFFFFFFFFFFFFFFFFFFFFFFFFFFFFFFFFFFFFFFFFFFFFFFFFFFFFFFFF
310
FFFFFFFFFFFFFFFFFFFFFFFFFFFFFFFFFFFFFFFFFFFFFFFFFFFFFFFFFFFFFFFF
310
FFFFFFFFFFFFFFFFFFFFFFFFFFFFFFFFFFFFFFFFFFFFFFFFF000FFFFFFFFFFFF
310
FFFFFFFFFFFFFFFFFFFFFFFFFFFFFFFFFFFFFFFFFFFFFFFFFFFFFFFFFFFFFFFF
310
FFFFFFFFFFFFFFFFFFFFFFFFFFFFFFFFFFFFFFFFFFFFFFFFFFFFFFFFFFFFFFFF
310
FFFFFFFFFFFFFFFFFFFFFFFFFFFFFFFFF000FFFFFFFFFFFFFFFFFFFFFFFFFFFF
310
FFFFFFFFFFFFFFFFFFFFFFFFFFFFFFFFFFFFFFFFFFFFFFFFFFFFFFFFFFFFFFFF
310
FFFFFFFFFFFFFFFFFFFFFFFFFFFFFFFFFFFFFFFFFFFFFFFFFFFFFFFFFFFFFFFF
310
FFFFFFFFFFFFFFFFF000FFFFFFFFFFFFFFFFFFFFFFFFFFFFFFFFFFFFFFFFFFFF
310
FFFFFFFFFFFFFFFFFFFFFFFFFFFFFFFFFFFFFFFFFFFFFFFFFFFFFFFFFFFFFFFF
310
FFFFFFFFFFFFFFFFFFFFFFFFFFFFFFFFFFFFFFFFFFFFFFFFFFFFFFFFFFFFFFFF
310
F000FFFFFFFFFFFFFFFFFFFFFFFFFFFFFFFFFFFFFFFFFFFFFFFFFFFFFFFFFFFF
310
FFFFFFFFFFFFFFFFFFFFFFFFFFFFFFFFFFFFFFFFFFFFFFFFFFFFFFFFFFFFFFFF
310
FFFFFFFFFFFFFFFFFFFFFFFFFFFFFFFFFFFFFFFFFFFFFFFFF000FFFFFFFFFFFF
310
FFFFFFFFFFFFFFFFFFFFFFFFFFFFFFFFFFFFFFFFFFFFFFFFFFFFFFFFFFFFFFFF
310
FFFFFFFFFFFFFFFFFFFFFFFFFFFFFFFFFFFFFFFFFFFFFFFFFFFFFFFFFFFFFFFF
310
FFFFFFFFFFFFFFFFFFFFFFFFFFFFFFFFF000FFFFFFFFFFFFFFFFFFFFFFFFFFFF
310
FFFFFFFFFFFFFFFFFFFFFFFFFFFFFFFFFFFFFFFFFFFFFFFFFFFFFFFFFFFFFFFF
310
FFFFFFFFFFFFFFFFFFFFFFFFFFFFFFFFFFFFFFFFFFFFFFFFFFFFFFFFFFFFFFFF
310
FFFFFFFFFFFFFFFFF000FFFFFFFFFFFFFFFFFFFFFFFFFFFFFFFFFFFFFFFFFFFF
310
FFFFFFFFFFFFFFFFFFFFFFFFFFFFFFFFFFFFFFFFFFFFFFFFFFFFFFFFFFFFFFFF
310
FFFFFFFFFFFFFFFFFFFFFFFFFFFFFFFFFFFFFFFFFFFFFFFFFFFFFFFFFFFFFFFF
310
F000FFFFFFFFFFFFFFFFFFFFFFFFFFFFFFFFFFFFFFFFFFFFFFFFFFFFFFFFFFFF
310
FFFFFFFFFFFFFFFFFFFFFFFFFFFFFFFFFFFFFFFFFFFFFFFFFFFFFFFFFFFFFFFF
310
FFFFFFFFFFFFFFFFFFFFFFFFFFFFFFFFFFFFFFFFFFFFFFFFF000FFFFFFFFFFFF
310
FFFFFFFFFFFFFFFFFFFFFFFFFFFFFFFFFFFFFFFFFFFFFFFFFFFFFFFFFFFFFFFF
310
FFFFFFFFFFFFFFFFFFFFFFFFFFFFFFFFFFFFFFFFFFFFFFFFFFFFFFFFFFFFFFFF
310
FFFFFFFFFFFFFFFFFFFFFFFFFFFFFFFFF000FFFFFFFFFFFFFFFFFFFFFFFFFFFF
310
FFFFFFFFFFFFFFFFFFFFFFFFFFFFFFFFFFFFFFFFFFFFFFFFFFFFFFFFFFFFFFFF
310
FFFFFFFFFFFFFFFFFFFFFFFFFFFFFFFFFFFFFFFFFFFFFFFFFFFFFFFFFFFFFFFF
310
FFFFFFFFFFFFFFFFF000FFFFFFFFFFFFFFFFFFFFFFFFFFFFFFFFFFFFFFFFFFFF
310
FFFFFFFFFFFFFFFFFFFFFFFFFFFFFFFFFFFFFFFFFFFFFFFFFFFFFFFFFFFFFFFF
310
FFFFFFFFFFFFFFFFFFFFFFFFFFFFFFFFFFFFFFFFFFFFFFFFFFFFFFFFFFFFFFFF
310
F000FFFFFFFFFFFFFFFFFFFFFFFFFFFFFFFFFFFFFFFFFFFFFFFFFFFFFFFFFFFF
310
FFFFFFFFFFFFFFFFFFFFFFFFFFFFFFFFFFFFFFFFFFFFFFFFFFFFFFFFFFFFFFFF
310
FFFFFFFFFFFFFFFFFFFFFFFFFFFFFFFFFFFFFFFFFFFFFFFFF000FFFFFFFFFFFF
310
FFFFFFFFFFFFFFFFFFFFFFFFFFFFFFFFFFFFFFFFFFFFFFFFFFFFFFFFFFFFFFFF
310
FFFFFFFFFFFFFFFFFFFFFFFFFFFFFFFFFFFFFFFFFFFFFFFFFFFFFFFFFFFFFFFF
310
FFFFFFFFFFFFFFFFFFFFFFFFFFFFFFFFF0000000000000000000000000000000
310
0000000000000000000000000000000000000000000000000000000000000000
310
0000000000000000000000000000000000000000000000000000000000000000
310
0000000000000000000000000000000000000000000000000000000000000000
310
0000000000000000000000000000000000000000000000000000000000000000
310
0000000000000000000000000000000000000000000000000000000000000000
310
0000000000000000000000000000000000000000000000000000000000000000
310
0000000000000000000000000000000000000000000000000000000000000000
310
0000000000000000000000000000000000000000000000000000000000000000
310
0000000000000000000000000000000000000000000000000000000000000000
310
0000000000000000000000000000000000000000000000000000000000000000
310
0000000000000000000000000000000000000000000000000000000000000000
310
0000000000000000000000000000000000000000000000000000000000000000
310
0000000000000000000000000000000000000000000000000000000000000000
310
0000000000000000000000000000000000000000000000000000000000000000
310
0000000000000000000000000000000000000000000000000000000000000000
  1
OLE
  0
ENDSEC
  0
SECTION
  2
OBJECTS
  0
DICTIONARY
  5
C
330
0
100
AcDbDictionary
281
     1
  3
ACAD_GROUP
350
D
  3
ACAD_LAYOUT
350
1A
  3
ACAD_MLINESTYLE
350
17
  3
ACAD_PLOTSETTINGS
350
19
  3
ACAD_PLOTSTYLENAME
350
E
  3
ACAD_SCALELIST
350
47
  0
DICTIONARY
  5
D
102
{ACAD_REACTORS
330
C
102
}
330
C
100
AcDbDictionary
281
     1
  0
DICTIONARY
  5
1A
102
{ACAD_REACTORS
330
C
102
}
330
C
100
AcDbDictionary
281
     1
  3
Layout1
350
1E
  3
Layout2
350
26
  3
Model
350
22
  0
DICTIONARY
  5
17
102
{ACAD_REACTORS
330
C
102
}
330
C
100
AcDbDictionary
281
     1
  3
Standard
350
18
  0
DICTIONARY
  5
19
102
{ACAD_REACTORS
330
C
102
}
330
C
100
AcDbDictionary
281
     1
  0
ACDBDICTIONARYWDFLT
  5
E
102
{ACAD_REACTORS
330
C
102
}
330
C
100
AcDbDictionary
281
     1
  3
Normal
350
F
100
AcDbDictionaryWithDefault
340
F
  0
DICTIONARY
  5
47
102
{ACAD_REACTORS
330
C
102
}
330
C
100
AcDbDictionary
281
     1
  3
A0
350
48
  3
A1
350
49
  3
A2
350
4A
  3
A3
350
4B
  3
A4
350
4C
  3
A5
350
4D
  3
A6
350
4E
  3
A7
350
4F
  3
A8
350
50
  3
A9
350
51
  3
B0
350
52
  3
B1
350
53
  3
B2
350
54
  3
B3
350
55
  3
B4
350
56
  3
B5
350
57
  3
B6
350
58
  3
B7
350
59
  3
B8
350
5A
  3
B9
350
5B
  3
C0
350
5C
  3
C1
350
5D
  3
C2
350
5E
  3
C3
350
5F
  3
C4
350
60
  3
C5
350
61
  3
C6
350
62
  3
C7
350
63
  3
C8
350
64
  3
C9
350
65
  3
D0
350
66
  3
D1
350
67
  3
D2
350
68
  0
LAYOUT
  5
1E
102
{ACAD_REACTORS
330
1A
102
}
330
1A
100
AcDbPlotSettings
  1

  2
none_device
  4

  6

 40
0.0
 41
0.0
 42
0.0
 43
0.0
 44
0.0
 45
0.0
 46
0.0
 47
0.0
 48
0.0
 49
0.0
140
0.0
141
0.0
142
1.0
143
1.0
 70
   688
 72
     1
 73
     0
 74
     5
  7

 75
    16
147
1.0
148
0.0
149
0.0
100
AcDbLayout
  1
Layout1
 70
     1
 71
     1
 10
0.0
 20
0.0
 11
420.0
 21
297.0
 12
0.0
 22
0.0
 32
0.0
 14
1.0000000000E+20
 24
1.0000000000E+20
 34
1.0000000000E+20
 15
-1.0000000000E+20
 25
-1.0000000000E+20
 35
-1.0000000000E+20
146
0.0
 13
0.0
 23
0.0
 33
0.0
 16
1.0
 26
0.0
 36
0.0
 17
0.0
 27
1.0
 37
0.0
 76
     0
330
1B
  0
LAYOUT
  5
26
102
{ACAD_REACTORS
330
1A
102
}
330
1A
100
AcDbPlotSettings
  1

  2
none_device
  4

  6

 40
0.0
 41
0.0
 42
0.0
 43
0.0
 44
0.0
 45
0.0
 46
0.0
 47
0.0
 48
0.0
 49
0.0
140
0.0
141
0.0
142
1.0
143
1.0
 70
   688
 72
     1
 73
     0
 74
     5
  7

 75
    16
147
1.0
148
0.0
149
0.0
100
AcDbLayout
  1
Layout2
 70
     1
 71
     2
 10
0.0
 20
0.0
 11
0.0
 21
0.0
 12
0.0
 22
0.0
 32
0.0
 14
0.0
 24
0.0
 34
0.0
 15
0.0
 25
0.0
 35
0.0
146
0.0
 13
0.0
 23
0.0
 33
0.0
 16
1.0
 26
0.0
 36
0.0
 17
0.0
 27
1.0
 37
0.0
 76
     0
330
23
  0
LAYOUT
  5
22
102
{ACAD_REACTORS
330
1A
102
}
330
1A
100
AcDbPlotSettings
  1

  2
none_device
  4
Letter_(8.50_x_11.00_Inches)
  6

 40
6.35
 41
6.35
 42
6.35000508
 43
6.35000508
 44
215.9
 45
279.4
 46
0.0
 47
0.0
 48
0.0
 49
0.0
140
0.0
141
0.0
142
1.0
143
1.0
 70
  1712
 72
     1
 73
     0
 74
     0
  7

 75
     0
147
1.0
148
0.0
149
0.0
100
AcDbLayout
  1
Model
 70
     1
 71
     0
 10
0.0
 20
0.0
 11
297.0
 21
210.0
 12
0.0
 22
0.0
 32
0.0
 14
0.0
 24
0.0
 34
0.0
 15
297.0
 25
210.0
 35
0.0
146
0.0
 13
0.0
 23
0.0
 33
0.0
 16
1.0
 26
0.0
 36
0.0
 17
0.0
 27
1.0
 37
0.0
 76
     0
330
1F
331
29
  0
MLINESTYLE
  5
18
102
{ACAD_REACTORS
330
17
102
}
330
17
100
AcDbMlineStyle
  2
Standard
 70
     0
  3

 62
   256
 51
90.0
 52
90.0
 71
     2
 49
0.5
 62
   256
  6
BYLAYER
 49
-0.5
 62
   256
  6
BYLAYER
  0
ACDBPLACEHOLDER
  5
F
102
{ACAD_REACTORS
330
E
102
}
330
E
  0
SCALE
  5
48
102
{ACAD_REACTORS
330
47
102
}
330
47
100
AcDbScale
 70
     0
300
1:1
140
1.0
141
1.0
290
     1
  0
SCALE
  5
49
102
{ACAD_REACTORS
330
47
102
}
330
47
100
AcDbScale
 70
     0
300
1:2
140
1.0
141
2.0
290
     0
  0
SCALE
  5
4A
102
{ACAD_REACTORS
330
47
102
}
330
47
100
AcDbScale
 70
     0
300
1:4
140
1.0
141
4.0
290
     0
  0
SCALE
  5
4B
102
{ACAD_REACTORS
330
47
102
}
330
47
100
AcDbScale
 70
     0
300
1:5
140
1.0
141
5.0
290
     0
  0
SCALE
  5
4C
102
{ACAD_REACTORS
330
47
102
}
330
47
100
AcDbScale
 70
     0
300
1:8
140
1.0
141
8.0
290
     0
  0
SCALE
  5
4D
102
{ACAD_REACTORS
330
47
102
}
330
47
100
AcDbScale
 70
     0
300
1:10
140
1.0
141
10.0
290
     0
  0
SCALE
  5
4E
102
{ACAD_REACTORS
330
47
102
}
330
47
100
AcDbScale
 70
     0
300
1:16
140
1.0
141
16.0
290
     0
  0
SCALE
  5
4F
102
{ACAD_REACTORS
330
47
102
}
330
47
100
AcDbScale
 70
     0
300
1:20
140
1.0
141
20.0
290
     0
  0
SCALE
  5
50
102
{ACAD_REACTORS
330
47
102
}
330
47
100
AcDbScale
 70
     0
300
1:30
140
1.0
141
30.0
290
     0
  0
SCALE
  5
51
102
{ACAD_REACTORS
330
47
102
}
330
47
100
AcDbScale
 70
     0
300
1:40
140
1.0
141
40.0
290
     0
  0
SCALE
  5
52
102
{ACAD_REACTORS
330
47
102
}
330
47
100
AcDbScale
 70
     0
300
1:50
140
1.0
141
50.0
290
     0
  0
SCALE
  5
53
102
{ACAD_REACTORS
330
47
102
}
330
47
100
AcDbScale
 70
     0
300
1:100
140
1.0
141
100.0
290
     0
  0
SCALE
  5
54
102
{ACAD_REACTORS
330
47
102
}
330
47
100
AcDbScale
 70
     0
300
2:1
140
2.0
141
1.0
290
     0
  0
SCALE
  5
55
102
{ACAD_REACTORS
330
47
102
}
330
47
100
AcDbScale
 70
     0
300
4:1
140
4.0
141
1.0
290
     0
  0
SCALE
  5
56
102
{ACAD_REACTORS
330
47
102
}
330
47
100
AcDbScale
 70
     0
300
8:1
140
8.0
141
1.0
290
     0
  0
SCALE
  5
57
102
{ACAD_REACTORS
330
47
102
}
330
47
100
AcDbScale
 70
     0
300
10:1
140
10.0
141
1.0
290
     0
  0
SCALE
  5
58
102
{ACAD_REACTORS
330
47
102
}
330
47
100
AcDbScale
 70
     0
300
100:1
140
100.0
141
1.0
290
     0
  0
SCALE
  5
59
102
{ACAD_REACTORS
330
47
102
}
330
47
100
AcDbScale
 70
     0
300
1/128" = 1'-0"
140
0.0078125
141
12.0
290
     0
  0
SCALE
  5
5A
102
{ACAD_REACTORS
330
47
102
}
330
47
100
AcDbScale
 70
     0
300
1/64" = 1'-0"
140
0.015625
141
12.0
290
     0
  0
SCALE
  5
5B
102
{ACAD_REACTORS
330
47
102
}
330
47
100
AcDbScale
 70
     0
300
1/32" = 1'-0"
140
0.03125
141
12.0
290
     0
  0
SCALE
  5
5C
102
{ACAD_REACTORS
330
47
102
}
330
47
100
AcDbScale
 70
     0
300
1/16" = 1'-0"
140
0.0625
141
12.0
290
     0
  0
SCALE
  5
5D
102
{ACAD_REACTORS
330
47
102
}
330
47
100
AcDbScale
 70
     0
300
3/32" = 1'-0"
140
0.09375
141
12.0
290
     0
  0
SCALE
  5
5E
102
{ACAD_REACTORS
330
47
102
}
330
47
100
AcDbScale
 70
     0
300
1/8" = 1'-0"
140
0.125
141
12.0
290
     0
  0
SCALE
  5
5F
102
{ACAD_REACTORS
330
47
102
}
330
47
100
AcDbScale
 70
     0
300
3/16" = 1'-0"
140
0.1875
141
12.0
290
     0
  0
SCALE
  5
60
102
{ACAD_REACTORS
330
47
102
}
330
47
100
AcDbScale
 70
     0
300
1/4" = 1'-0"
140
0.25
141
12.0
290
     0
  0
SCALE
  5
61
102
{ACAD_REACTORS
330
47
102
}
330
47
100
AcDbScale
 70
     0
300
3/8" = 1'-0"
140
0.375
141
12.0
290
     0
  0
SCALE
  5
62
102
{ACAD_REACTORS
330
47
102
}
330
47
100
AcDbScale
 70
     0
300
1/2" = 1'-0"
140
0.5
141
12.0
290
     0
  0
SCALE
  5
63
102
{ACAD_REACTORS
330
47
102
}
330
47
100
AcDbScale
 70
     0
300
3/4" = 1'-0"
140
0.75
141
12.0
290
     0
  0
SCALE
  5
64
102
{ACAD_REACTORS
330
47
102
}
330
47
100
AcDbScale
 70
     0
300
1" = 1'-0"
140
1.0
141
12.0
290
     0
  0
SCALE
  5
65
102
{ACAD_REACTORS
330
47
102
}
330
47
100
AcDbScale
 70
     0
300
1-1/2" = 1'-0"
140
1.5
141
12.0
290
     0
  0
SCALE
  5
66
102
{ACAD_REACTORS
330
47
102
}
330
47
100
AcDbScale
 70
     0
300
3" = 1'-0"
140
3.0
141
12.0
290
     0
  0
SCALE
  5
67
102
{ACAD_REACTORS
330
47
102
}
330
47
100
AcDbScale
 70
     0
300
6" = 1'-0"
140
6.0
141
12.0
290
     0
  0
SCALE
  5
68
102
{ACAD_REACTORS
330
47
102
}
330
47
100
AcDbScale
 70
     0
300
1'-0" = 1'-0"
140
12.0
141
12.0
290
     0
  0
ENDSEC
  0
EOF
