  0
SECTION
  2
HEADER
  9
$ACADVER
  1
AC1015
  9
$ACADMAINTVER
 70
     6
  9
$DWGCODEPAGE
  3
ANSI_1252
  9
$INSBASE
 10
0.0
 20
0.0
 30
0.0
  9
$EXTMIN
 10
0.0
 20
0.0
 30
0.0
  9
$EXTMAX
 10
297.0
 20
210.0
 30
0.0
  9
$LIMMIN
 10
0.0
 20
0.0
  9
$LIMMAX
 10
297.0
 20
210.0
  9
$ORTHOMODE
 70
     0
  9
$REGENMODE
 70
     1
  9
$FILLMODE
 70
     1
  9
$QTEXTMODE
 70
     0
  9
$MIRRTEXT
 70
     1
  9
$LTSCALE
 40
1.0
  9
$ATTMODE
 70
     1
  9
$TEXTSIZE
 40
2.0
  9
$TRACEWID
 40
1.0
  9
$TEXTSTYLE
  7
Standard
  9
$CLAYER
  8
0
  9
$CELTYPE
  6
ByLayer
  9
$CECOLOR
 62
   256
  9
$CELTSCALE
 40
1.0
  9
$DISPSILH
 70
     0
  9
$DIMSCALE
 40
1.0
  9
$DIMASZ
 40
3.0
  9
$DIMEXO
 40
0.0
  9
$DIMDLI
 40
3.75
  9
$DIMRND
 40
0.0
  9
$DIMDLE
 40
0.0
  9
$DIMEXE
 40
1.0
  9
$DIMTP
 40
0.0
  9
$DIMTM
 40
0.0
  9
$DIMTXT
 40
2.0
  9
$DIMCEN
 40
2.5
  9
$DIMTSZ
 40
0.0
  9
$DIMTOL
 70
     0
  9
$DIMLIM
 70
     0
  9
$DIMTIH
 70
     1
  9
$DIMTOH
 70
     1
  9
$DIMSE1
 70
     0
  9
$DIMSE2
 70
     0
  9
$DIMTAD
 70
     1
  9
$DIMZIN
 70
     0
  9
$DIMBLK
  1

  9
$DIMASO
 70
     1
  9
$DIMSHO
 70
     1
  9
$DIMPOST
  1

  9
$DIMAPOST
  1

  9
$DIMALT
 70
     0
  9
$DIMALTD
 70
     3
  9
$DIMALTF
 40
0.0393700787
  9
$DIMLFAC
 40
1.0
  9
$DIMTOFL
 70
     1
  9
$DIMTVP
 40
0.0
  9
$DIMTIX
 70
     0
  9
$DIMSOXD
 70
     0
  9
$DIMSAH
 70
     0
  9
$DIMBLK1
  1

  9
$DIMBLK2
  1

  9
$DIMSTYLE
  2
ISO-25
  9
$DIMCLRD
 70
     0
  9
$DIMCLRE
 70
     0
  9
$DIMCLRT
 70
     0
  9
$DIMTFAC
 40
1.0
  9
$DIMGAP
 40
1.524
  9
$DIMJUST
 70
     0
  9
$DIMSD1
 70
     0
  9
$DIMSD2
 70
     0
  9
$DIMTOLJ
 70
     0
  9
$DIMTZIN
 70
     0
  9
$DIMALTZ
 70
     0
  9
$DIMALTTZ
 70
     0
  9
$DIMUPT
 70
     0
  9
$DIMDEC
 70
     2
  9
$DIMTDEC
 70
     3
  9
$DIMALTU
 70
     2
  9
$DIMALTTD
 70
     3
  9
$DIMTXSTY
  7
Standard
  9
$DIMAUNIT
 70
     0
  9
$DIMADEC
 70
     2
  9
$DIMALTRND
 40
0.0
  9
$DIMAZIN
 70
     0
  9
$DIMDSEP
 70
    44
  9
$DIMATFIT
 70
     3
  9
$DIMFRAC
 70
     0
  9
$DIMLDRBLK
  1

  9
$DIMLUNIT
 70
     2
  9
$DIMLWD
 70
    -2
  9
$DIMLWE
 70
    -2
  9
$DIMTMOVE
 70
     0
  9
$LUNITS
 70
     2
  9
$LUPREC
 70
     2
  9
$SKETCHINC
 40
1.0
  9
$FILLETRAD
 40
10.0
  9
$AUNITS
 70
     0
  9
$AUPREC
 70
     2
  9
$MENU
  1
.
  9
$ELEVATION
 40
0.0
  9
$PELEVATION
 40
0.0
  9
$THICKNESS
 40
0.0
  9
$LIMCHECK
 70
     0
  9
$CHAMFERA
 40
0.0
  9
$CHAMFERB
 40
0.0
  9
$CHAMFERC
 40
0.0
  9
$CHAMFERD
 40
0.0
  9
$SKPOLY
 70
     0
  9
$TDCREATE
 40
2457674.669281319
  9
$TDUCREATE
 40
2457674.585947986
  9
$TDUPDATE
 40
2457674.669282708
  9
$TDUUPDATE
 40
2457674.585949375
  9
$TDINDWG
 40
0.0000000116
  9
$TDUSRTIMER
 40
0.0000000116
  9
$USRTIMER
 70
     1
  9
$ANGBASE
 50
0.0
  9
$ANGDIR
 70
     0
  9
$PDMODE
 70
     0
  9
$PDSIZE
 40
-1.0
  9
$PLINEWID
 40
0.0
  9
$SPLFRAME
 70
     0
  9
$SPLINETYPE
 70
     6
  9
$SPLINESEGS
 70
     8
  9
$HANDSEED
  5
2D0
  9
$SURFTAB1
 70
     6
  9
$SURFTAB2
 70
     6
  9
$SURFTYPE
 70
     6
  9
$SURFU
 70
     6
  9
$SURFV
 70
     6
  9
$UCSBASE
  2

  9
$UCSNAME
  2

  9
$UCSORG
 10
0.0
 20
0.0
 30
0.0
  9
$UCSXDIR
 10
1.0
 20
0.0
 30
0.0
  9
$UCSYDIR
 10
0.0
 20
1.0
 30
0.0
  9
$UCSORTHOREF
  2

  9
$UCSORTHOVIEW
 70
     0
  9
$UCSORGTOP
 10
0.0
 20
0.0
 30
0.0
  9
$UCSORGBOTTOM
 10
0.0
 20
0.0
 30
0.0
  9
$UCSORGLEFT
 10
0.0
 20
0.0
 30
0.0
  9
$UCSORGRIGHT
 10
0.0
 20
0.0
 30
0.0
  9
$UCSORGFRONT
 10
0.0
 20
0.0
 30
0.0
  9
$UCSORGBACK
 10
0.0
 20
0.0
 30
0.0
  9
$PUCSBASE
  2

  9
$PUCSNAME
  2

  9
$PUCSORG
 10
0.0
 20
0.0
 30
0.0
  9
$PUCSXDIR
 10
1.0
 20
0.0
 30
0.0
  9
$PUCSYDIR
 10
0.0
 20
1.0
 30
0.0
  9
$PUCSORTHOREF
  2

  9
$PUCSORTHOVIEW
 70
     0
  9
$PUCSORGTOP
 10
0.0
 20
0.0
 30
0.0
  9
$PUCSORGBOTTOM
 10
0.0
 20
0.0
 30
0.0
  9
$PUCSORGLEFT
 10
0.0
 20
0.0
 30
0.0
  9
$PUCSORGRIGHT
 10
0.0
 20
0.0
 30
0.0
  9
$PUCSORGFRONT
 10
0.0
 20
0.0
 30
0.0
  9
$PUCSORGBACK
 10
0.0
 20
0.0
 30
0.0
  9
$USERI1
 70
     0
  9
$USERI2
 70
     0
  9
$USERI3
 70
     0
  9
$USERI4
 70
     0
  9
$USERI5
 70
     0
  9
$USERR1
 40
0.0
  9
$USERR2
 40
0.0
  9
$USERR3
 40
0.0
  9
$USERR4
 40
0.0
  9
$USERR5
 40
0.0
  9
$WORLDVIEW
 70
     1
  9
$SHADEDGE
 70
     3
  9
$SHADEDIF
 70
    70
  9
$TILEMODE
 70
     1
  9
$MAXACTVP
 70
    64
  9
$PINSBASE
 10
0.0
 20
0.0
 30
0.0
  9
$PLIMCHECK
 70
     0
  9
$PEXTMIN
 10
1.0000000000E+20
 20
1.0000000000E+20
 30
1.0000000000E+20
  9
$PEXTMAX
 10
-1.0000000000E+20
 20
-1.0000000000E+20
 30
-1.0000000000E+20
  9
$PLIMMIN
 10
0.0
 20
0.0
  9
$PLIMMAX
 10
420.0
 20
297.0
  9
$UNITMODE
 70
     0
  9
$VISRETAIN
 70
     1
  9
$PLINEGEN
 70
     0
  9
$PSLTSCALE
 70
     1
  9
$TREEDEPTH
 70
  3020
  9
$CMLSTYLE
  2
Standard
  9
$CMLJUST
 70
     0
  9
$CMLSCALE
 40
20.0
  9
$PROXYGRAPHICS
 70
     1
  9
$MEASUREMENT
 70
     1
  9
$CELWEIGHT
370
    -1
  9
$ENDCAPS
280
     0
  9
$JOINSTYLE
280
     0
  9
$LWDISPLAY
290
     1
  9
$INSUNITS
 70
     4
  9
$HYPERLINKBASE
  1

  9
$STYLESHEET
  1

  9
$XEDIT
290
     1
  9
$CEPSNTYPE
380
     0
  9
$PSTYLEMODE
290
     1
  9
$FINGERPRINTGUID
  2
{897F685D-5C1D-4DD2-BE9C-5EE2E5AE1AA5}
  9
$VERSIONGUID
  2
{FAEB1C32-E019-11D5-929B-00C0DF256EC4}
  9
$EXTNAMES
290
     1
  9
$PSVPSCALE
 40
0.0
  9
$OLESTARTUP
290
     0
  0
ENDSEC
  0
SECTION
  2
CLASSES
  0
CLASS
  1
ACDBDICTIONARYWDFLT
  2
AcDbDictionaryWithDefault
  3
ObjectDBX Classes
 90
        0
280
     0
281
     0
  0
CLASS
  1
VISUALSTYLE
  2
AcDbVisualStyle
  3
ObjectDBX Classes
 90
     4095
280
     0
281
     0
  0
CLASS
  1
MATERIAL
  2
AcDbMaterial
  3
ObjectDBX Classes
 90
     1153
280
     0
281
     0
  0
CLASS
  1
SCALE
  2
AcDbScale
  3
ObjectDBX Classes
 90
     1153
280
     0
281
     0
  0
CLASS
  1
TABLESTYLE
  2
AcDbTableStyle
  3
ObjectDBX Classes
 90
     4095
280
     0
281
     0
  0
CLASS
  1
MLEADERSTYLE
  2
AcDbMLeaderStyle
  3
ACDB_MLEADERSTYLE_CLASS
 90
     4095
280
     0
281
     0
  0
CLASS
  1
SUN
  2
AcDbSun
  3
SCENEOE
 90
     1153
280
     0
281
     0
  0
CLASS
  1
ACDBPLACEHOLDER
  2
AcDbPlaceHolder
  3
ObjectDBX Classes
 90
        0
280
     0
281
     0
  0
CLASS
  1
LAYOUT
  2
AcDbLayout
  3
ObjectDBX Classes
 90
        0
280
     0
281
     0
  0
ENDSEC
  0
SECTION
  2
TABLES
  0
TABLE
  2
VPORT
  5
8
330
0
100
AcDbSymbolTable
 70
     1
  0
VPORT
  5
29
330
8
100
AcDbSymbolTableRecord
100
AcDbViewportTableRecord
  2
*Active
 70
     0
 10
0.0
 20
0.0
 11
1.0
 21
1.0
 12
148.5
 22
105.0
 13
0.0
 23
0.0
 14
10.0
 24
10.0
 15
10.0
 25
10.0
 16
0.0
 26
0.0
 36
1.0
 17
0.0
 27
0.0
 37
0.0
 40
210.0
 41
1.4142857143
 42
50.0
 43
0.0
 44
0.0
 50
0.0
 51
0.0
 71
     0
 72
  2000
 73
     1
 74
     3
 75
     0
 76
     0
 77
     0
 78
     0
281
     0
 65
     1
110
0.0
120
0.0
130
0.0
111
1.0
121
0.0
131
0.0
112
0.0
122
1.0
132
0.0
 79
     0
146
0.0
  0
ENDTAB
  0
TABLE
  2
LTYPE
  5
5
330
0
100
AcDbSymbolTable
 70
     6
  0
LTYPE
  5
14
330
5
100
AcDbSymbolTableRecord
100
AcDbLinetypeTableRecord
  2
ByBlock
 70
     0
  3

 72
    65
 73
     0
 40
0.0
  0
LTYPE
  5
15
330
5
100
AcDbSymbolTableRecord
100
AcDbLinetypeTableRecord
  2
ByLayer
 70
     0
  3

 72
    65
 73
     0
 40
0.0
  0
LTYPE
  5
16
330
5
100
AcDbSymbolTableRecord
100
AcDbLinetypeTableRecord
  2
Continuous
 70
     0
  3
Solid line
 72
    65
 73
     0
 40
0.0
  0
LTYPE
  5
6E
330
5
100
AcDbSymbolTableRecord
100
AcDbLinetypeTableRecord
  2
HIDDEN
 70
     0
  3
Hidden __ __ __ __ __ __ __ __ __ __ __ __ __ __
 72
    65
 73
     2
 40
1.905
 49
1.27
 74
     0
 49
-0.635
 74
     0
  0
LTYPE
  5
6F
330
5
100
AcDbSymbolTableRecord
100
AcDbLinetypeTableRecord
  2
PHANTOM
 70
     0
  3
Phantom ______  __  __  ______  __  __  ______
 72
    65
 73
     6
 40
12.7
 49
6.35
 74
     0
 49
-1.27
 74
     0
 49
1.27
 74
     0
 49
-1.27
 74
     0
 49
1.27
 74
     0
 49
-1.27
 74
     0
  0
LTYPE
  5
70
330
5
100
AcDbSymbolTableRecord
100
AcDbLinetypeTableRecord
  2
CENTER
 70
     0
  3
Center ____ _ ____ _ ____ _ ____ _ ____ _ ____
 72
    65
 73
     4
 40
10.16
 49
6.35
 74
     0
 49
-1.27
 74
     0
 49
1.27
 74
     0
 49
-1.27
 74
     0
  0
LTYPE
  5
71
330
5
100
AcDbSymbolTableRecord
100
AcDbLinetypeTableRecord
  2
CENTERX2
 70
     0
  3
Center (2x) ________  __  ________  __  _____
 72
    65
 73
     4
 40
20.32
 49
12.7
 74
     0
 49
-2.54
 74
     0
 49
2.54
 74
     0
 49
-2.54
 74
     0
  0
LTYPE
  5
72
330
5
100
AcDbSymbolTableRecord
100
AcDbLinetypeTableRecord
  2
DOT2
 70
     0
  3
Dot (.5x) ........................................
 72
    65
 73
     2
 40
0.635
 49
0.0
 74
     0
 49
-0.635
 74
     0
  0
ENDTAB
  0
TABLE
  2
LAYER
  5
2
330
0
100
AcDbSymbolTable
 70
     5
  0
LAYER
  5
10
330
2
100
AcDbSymbolTableRecord
100
AcDbLayerTableRecord
  2
0
 70
     0
 62
     7
  6
Continuous
370
    -3
390
F
  0
LAYER
  5
73
330
2
100
AcDbSymbolTableRecord
100
AcDbLayerTableRecord
  2
FORMAT
 70
     0
 62
     7
  6
Continuous
370
    -3
390
F
  0
LAYER
  5
74
330
2
100
AcDbSymbolTableRecord
100
AcDbLayerTableRecord
  2
VERMASSUNG
 70
     0
 62
     7
  6
Continuous
370
    -3
390
F
  0
LAYER
  5
75
330
2
100
AcDbSymbolTableRecord
100
AcDbLayerTableRecord
  2
KOPF_DÜNN
 70
     0
 62
     7
  6
Continuous
370
    -3
390
F
  0
LAYER
  5
76
330
2
100
AcDbSymbolTableRecord
100
AcDbLayerTableRecord
  2
KOPF_DICK
 70
     0
 62
     7
  6
Continuous
370
    15
390
F
  0
ENDTAB
  0
TABLE
  2
STYLE
  5
3
330
0
100
AcDbSymbolTable
 70
     2
  0
STYLE
  5
11
330
3
100
AcDbSymbolTableRecord
100
AcDbTextStyleTableRecord
  2
Standard
 70
     0
 40
0.0
 41
1.0
 50
0.0
 71
     0
 42
2.0
  3
txt
  4

  0
STYLE
  5
77
330
3
100
AcDbSymbolTableRecord
100
AcDbTextStyleTableRecord
  2
SLDTEXTSTYLE0
 70
     0
 40
0.0
 41
0.7
 50
0.0
 71
     0
 42
2.0
  3
TXT
  4

  0
ENDTAB
  0
TABLE
  2
VIEW
  5
6
330
0
100
AcDbSymbolTable
 70
     0
  0
ENDTAB
  0
TABLE
  2
UCS
  5
7
330
0
100
AcDbSymbolTable
 70
     0
  0
ENDTAB
  0
TABLE
  2
APPID
  5
9
330
0
100
AcDbSymbolTable
 70
     1
  0
APPID
  5
12
330
9
100
AcDbSymbolTableRecord
100
AcDbRegAppTableRecord
  2
ACAD
 70
     0
  0
ENDTAB
  0
TABLE
  2
DIMSTYLE
  5
A
330
0
100
AcDbSymbolTable
 70
     2
100
AcDbDimStyleTable
  0
DIMSTYLE
105
27
330
A
100
AcDbSymbolTableRecord
100
AcDbDimStyleTableRecord
  2
ISO-25
 70
     0
 41
2.5
 42
0.625
 43
3.75
 44
1.25
 73
     0
 74
     0
 77
     1
 78
     8
140
2.5
141
2.5
143
0.0393700787
147
0.625
171
     3
172
     1
178
     0
271
     2
272
     2
274
     3
278
    44
283
     0
284
     8
340
11
  0
DIMSTYLE
105
1EF
102
{ACAD_REACTORS
330
1EE
330
1FB
330
207
330
212
330
21C
330
226
102
}
330
A
100
AcDbSymbolTableRecord
100
AcDbDimStyleTableRecord
  2
SLDDIMSTYLE0
 70
     0
 41
3.0
 44
0.0
 45
0.000000001
 73
     0
 74
     0
 77
     1
 78
    12
 79
     3
140
2.0
147
0.5
173
     1
178
     0
271
     2
272
     3
276
     2
284
    12
340
77
  0
ENDTAB
  0
TABLE
  2
BLOCK_RECORD
  5
1
330
0
100
AcDbSymbolTable
 70
     7
  0
BLOCK_RECORD
  5
1F
330
1
100
AcDbSymbolTableRecord
100
AcDbBlockTableRecord
  2
*Model_Space
340
22
  0
BLOCK_RECORD
  5
1B
330
1
100
AcDbSymbolTableRecord
100
AcDbBlockTableRecord
  2
*Paper_Space
340
1E
  0
BLOCK_RECORD
  5
23
330
1
100
AcDbSymbolTableRecord
100
AcDbBlockTableRecord
  2
*Paper_Space0
340
26
  0
BLOCK_RECORD
  5
1F0
330
1
100
AcDbSymbolTableRecord
100
AcDbBlockTableRecord
  2
_D
340
0
  0
BLOCK_RECORD
  5
1FC
330
1
100
AcDbSymbolTableRecord
100
AcDbBlockTableRecord
  2
_D_1
340
0
  0
BLOCK_RECORD
  5
208
330
1
100
AcDbSymbolTableRecord
100
AcDbBlockTableRecord
  2
_D_2
340
0
  0
BLOCK_RECORD
  5
213
330
1
100
AcDbSymbolTableRecord
100
AcDbBlockTableRecord
  2
_D_3
340
0
  0
BLOCK_RECORD
  5
21D
330
1
100
AcDbSymbolTableRecord
100
AcDbBlockTableRecord
  2
_D_4
340
0
  0
BLOCK_RECORD
  5
227
330
1
100
AcDbSymbolTableRecord
100
AcDbBlockTableRecord
  2
_D_5
340
0
  0
ENDTAB
  0
ENDSEC
  0
SECTION
  2
BLOCKS
  0
BLOCK
  5
20
330
1F
100
AcDbEntity
  8
0
100
AcDbBlockBegin
  2
*Model_Space
 70
     0
 10
0.0
 20
0.0
 30
0.0
  3
*Model_Space
  1

  0
ENDBLK
  5
21
330
1F
100
AcDbEntity
  8
0
100
AcDbBlockEnd
  0
BLOCK
  5
1C
330
1B
100
AcDbEntity
 67
     1
  8
0
100
AcDbBlockBegin
  2
*Paper_Space
 70
     0
 10
0.0
 20
0.0
 30
0.0
  3
*Paper_Space
  1

  0
ENDBLK
  5
1D
330
1B
100
AcDbEntity
 67
     1
  8
0
100
AcDbBlockEnd
  0
BLOCK
  5
24
330
23
100
AcDbEntity
  8
0
100
AcDbBlockBegin
  2
*Paper_Space0
 70
     0
 10
0.0
 20
0.0
 30
0.0
  3
*Paper_Space0
  1

  0
ENDBLK
  5
25
330
23
100
AcDbEntity
  8
0
100
AcDbBlockEnd
  0
BLOCK
  5
1F1
330
1F0
100
AcDbEntity
  8
0
100
AcDbBlockBegin
  2
_D
 70
     0
 10
0.0
 20
0.0
 30
0.0
  3
_D
  1

  0
SOLID
  5
1F3
330
1F0
100
AcDbEntity
  8
VERMASSUNG
100
AcDbTrace
 10
65.3093250101
 20
67.8882490201
 30
0.0
 11
65.7593250101
 21
70.8882490201
 31
0.0
 12
64.8593250101
 22
70.8882490201
 32
0.0
 13
64.8593250101
 23
70.8882490201
 33
0.0
  0
SOLID
  5
1F4
330
1F0
100
AcDbEntity
  8
VERMASSUNG
100
AcDbTrace
 10
65.3093250101
 20
165.3382490201
 30
0.0
 11
64.8593250101
 21
162.3382490201
 31
0.0
 12
65.7593250101
 22
162.3382490201
 32
0.0
 13
65.7593250101
 23
162.3382490201
 33
0.0
  0
LINE
  5
1F5
330
1F0
100
AcDbEntity
  8
VERMASSUNG
100
AcDbLine
 10
195.3593250101
 20
67.8882490201
 30
0.0
 11
64.3093250101
 21
67.8882490201
 31
0.0
  0
LINE
  5
1F6
330
1F0
100
AcDbEntity
  8
VERMASSUNG
100
AcDbLine
 10
195.3593250101
 20
165.3382490201
 30
0.0
 11
64.3093250101
 21
165.3382490201
 31
0.0
  0
LINE
  5
1F7
330
1F0
100
AcDbEntity
  8
VERMASSUNG
100
AcDbLine
 10
65.3093250101
 20
67.8882490201
 30
0.0
 11
65.3093250101
 21
165.3382490201
 31
0.0
  0
MTEXT
  5
1F8
330
1F0
100
AcDbEntity
  8
VERMASSUNG
100
AcDbMText
 10
62.5311897539
 20
107.1088133867
 30
0.0
 40
2.0
 41
0.0
 71
     1
 72
     1
  1
ISO 50
  7
SLDTEXTSTYLE0
 11
3.391901413832837E-15
 21
1.0
 31
0.0
 73
     1
 44
1.0
  0
MTEXT
  5
1F9
330
1F0
100
AcDbEntity
  8
VERMASSUNG
100
AcDbMText
 10
62.7311897052
 20
116.1088129993
 30
0.0
 40
2.0
 41
0.0
 71
     1
 72
     1
  1
%%c
  7
SLDTEXTSTYLE0
 11
3.391901413832837E-15
 21
1.0
 31
0.0
 73
     1
 44
1.0
  0
MTEXT
  5
1FA
330
1F0
100
AcDbEntity
  8
VERMASSUNG
100
AcDbMText
 10
62.7311894142
 20
119.7181563321
 30
0.0
 40
2.0
 41
0.0
 71
     1
 72
     1
  1
97.45
  7
SLDTEXTSTYLE0
 11
3.391901413832837E-15
 21
1.0
 31
0.0
 73
     1
 44
1.0
  0
ENDBLK
  5
1F2
330
1F0
100
AcDbEntity
  8
0
100
AcDbBlockEnd
  0
BLOCK
  5
1FD
330
1FC
100
AcDbEntity
  8
0
100
AcDbBlockBegin
  2
_D_1
 70
     0
 10
0.0
 20
0.0
 30
0.0
  3
_D_1
  1

  0
SOLID
  5
1FF
330
1FC
100
AcDbEntity
  8
VERMASSUNG
100
AcDbTrace
 10
236.7413287074
 20
91.6132490201
 30
0.0
 11
237.1913287074
 21
94.6132490201
 31
0.0
 12
236.2913287074
 22
94.6132490201
 32
0.0
 13
236.2913287074
 23
94.6132490201
 33
0.0
  0
SOLID
  5
200
330
1FC
100
AcDbEntity
  8
VERMASSUNG
100
AcDbTrace
 10
236.7413287074
 20
141.6132490201
 30
0.0
 11
236.2913287074
 21
138.6132490201
 31
0.0
 12
237.1913287074
 22
138.6132490201
 32
0.0
 13
237.1913287074
 23
138.6132490201
 33
0.0
  0
LINE
  5
201
330
1FC
100
AcDbEntity
  8
VERMASSUNG
100
AcDbLine
 10
222.4093250101
 20
91.6132490201
 30
0.0
 11
237.7413287074
 21
91.6132490201
 31
0.0
  0
LINE
  5
202
330
1FC
100
AcDbEntity
  8
VERMASSUNG
100
AcDbLine
 10
222.4093250101
 20
141.6132490201
 30
0.0
 11
237.7413287074
 21
141.6132490201
 31
0.0
  0
LINE
  5
203
330
1FC
100
AcDbEntity
  8
VERMASSUNG
100
AcDbLine
 10
236.7413287074
 20
91.6132490201
 30
0.0
 11
236.7413287074
 21
141.6132490201
 31
0.0
  0
MTEXT
  5
204
330
1FC
100
AcDbEntity
  8
VERMASSUNG
100
AcDbMText
 10
233.9631934512
 20
110.9086022642
 30
0.0
 40
2.0
 41
0.0
 71
     1
 72
     1
  1
WH
  7
SLDTEXTSTYLE0
 11
6.123233995736766E-17
 21
1.0
 31
0.0
 73
     1
 44
1.0
  0
MTEXT
  5
205
330
1FC
100
AcDbEntity
  8
VERMASSUNG
100
AcDbMText
 10
234.1631934025
 20
115.9086021524
 30
0.0
 40
2.0
 41
0.0
 71
     1
 72
     1
  1
%%c
  7
SLDTEXTSTYLE0
 11
6.123233995736766E-17
 21
1.0
 31
0.0
 73
     1
 44
1.0
  0
MTEXT
  5
206
330
1FC
100
AcDbEntity
  8
VERMASSUNG
100
AcDbMText
 10
234.1631931114
 20
119.5185157554
 30
0.0
 40
2.0
 41
0.0
 71
     1
 72
     1
  1
50
  7
SLDTEXTSTYLE0
 11
6.123233995736766E-17
 21
1.0
 31
0.0
 73
     1
 44
1.0
  0
ENDBLK
  5
1FE
330
1FC
100
AcDbEntity
  8
0
100
AcDbBlockEnd
  0
BLOCK
  5
209
330
208
100
AcDbEntity
  8
0
100
AcDbBlockBegin
  2
_D_2
 70
     0
 10
0.0
 20
0.0
 30
0.0
  3
_D_2
  1

  0
SOLID
  5
20B
330
208
100
AcDbEntity
  8
VERMASSUNG
100
AcDbTrace
 10
230.7413287074
 20
130.6132490201
 30
0.0
 11
230.2913287074
 21
127.6132490201
 31
0.0
 12
231.1913287074
 22
127.6132490201
 32
0.0
 13
231.1913287074
 23
127.6132490201
 33
0.0
  0
SOLID
  5
20C
330
208
100
AcDbEntity
  8
VERMASSUNG
100
AcDbTrace
 10
230.7413287074
 20
102.6132490201
 30
0.0
 11
231.1913287074
 21
105.6132490201
 31
0.0
 12
230.2913287074
 22
105.6132490201
 32
0.0
 13
230.2913287074
 23
105.6132490201
 33
0.0
  0
LINE
  5
20D
330
208
100
AcDbEntity
  8
VERMASSUNG
100
AcDbLine
 10
221.9093250101
 20
130.6132490201
 30
0.0
 11
231.7413287074
 21
130.6132490201
 31
0.0
  0
LINE
  5
20E
330
208
100
AcDbEntity
  8
VERMASSUNG
100
AcDbLine
 10
221.9093250101
 20
102.6132490201
 30
0.0
 11
231.7413287074
 21
102.6132490201
 31
0.0
  0
LINE
  5
20F
330
208
100
AcDbEntity
  8
VERMASSUNG
100
AcDbLine
 10
230.7413287074
 20
130.6132490201
 30
0.0
 11
230.7413287074
 21
102.6132490201
 31
0.0
  0
MTEXT
  5
210
330
208
100
AcDbEntity
  8
VERMASSUNG
100
AcDbMText
 10
228.1631931697
 20
113.409072913
 30
0.0
 40
2.0
 41
0.0
 71
     1
 72
     1
  1
%%c
  7
SLDTEXTSTYLE0
 11
-7.044195017643634E-15
 21
1.0
 31
0.0
 73
     1
 44
1.0
  0
MTEXT
  5
211
330
208
100
AcDbEntity
  8
VERMASSUNG
100
AcDbMText
 10
228.1631931114
 20
117.0180451066
 30
0.0
 40
2.0
 41
0.0
 71
     1
 72
     1
  1
28
  7
SLDTEXTSTYLE0
 11
-7.044195017643634E-15
 21
1.0
 31
0.0
 73
     1
 44
1.0
  0
ENDBLK
  5
20A
330
208
100
AcDbEntity
  8
0
100
AcDbBlockEnd
  0
BLOCK
  5
214
330
213
100
AcDbEntity
  8
0
100
AcDbBlockBegin
  2
_D_3
 70
     0
 10
0.0
 20
0.0
 30
0.0
  3
_D_3
  1

  0
SOLID
  5
216
330
213
100
AcDbEntity
  8
VERMASSUNG
100
AcDbTrace
 10
222.9093250101
 20
169.4202864575
 30
0.0
 11
219.9093250101
 21
169.8702864575
 31
0.0
 12
219.9093250101
 22
168.9702864575
 32
0.0
 13
219.9093250101
 23
168.9702864575
 33
0.0
  0
SOLID
  5
217
330
213
100
AcDbEntity
  8
VERMASSUNG
100
AcDbTrace
 10
195.9593250101
 20
169.4202864575
 30
0.0
 11
198.9593250101
 21
168.9702864575
 31
0.0
 12
198.9593250101
 22
169.8702864575
 32
0.0
 13
198.9593250101
 23
169.8702864575
 33
0.0
  0
LINE
  5
218
330
213
100
AcDbEntity
  8
VERMASSUNG
100
AcDbLine
 10
222.9093250101
 20
141.1132490201
 30
0.0
 11
222.9093250101
 21
170.4202864575
 31
0.0
  0
LINE
  5
219
330
213
100
AcDbEntity
  8
VERMASSUNG
100
AcDbLine
 10
195.9593250101
 20
162.9082359733
 30
0.0
 11
195.9593250101
 21
170.4202864575
 31
0.0
  0
LINE
  5
21A
330
213
100
AcDbEntity
  8
VERMASSUNG
100
AcDbLine
 10
222.9093250101
 20
169.4202864575
 30
0.0
 11
195.9593250101
 21
169.4202864575
 31
0.0
  0
MTEXT
  5
21B
330
213
100
AcDbEntity
  8
VERMASSUNG
100
AcDbMText
 10
206.3349326312
 20
171.9984220535
 30
0.0
 40
2.0
 41
0.0
 71
     1
 72
     1
  1
26.95
  7
SLDTEXTSTYLE0
 73
     1
 44
1.0
  0
ENDBLK
  5
215
330
213
100
AcDbEntity
  8
0
100
AcDbBlockEnd
  0
BLOCK
  5
21E
330
21D
100
AcDbEntity
  8
0
100
AcDbBlockBegin
  2
_D_4
 70
     0
 10
0.0
 20
0.0
 30
0.0
  3
_D_4
  1

  0
SOLID
  5
220
330
21D
100
AcDbEntity
  8
VERMASSUNG
100
AcDbTrace
 10
222.9093250101
 20
175.4202864575
 30
0.0
 11
219.9093250101
 21
175.8702864575
 31
0.0
 12
219.9093250101
 22
174.9702864575
 32
0.0
 13
219.9093250101
 23
174.9702864575
 33
0.0
  0
SOLID
  5
221
330
21D
100
AcDbEntity
  8
VERMASSUNG
100
AcDbTrace
 10
176.9093250101
 20
175.4202864575
 30
0.0
 11
179.9093250101
 21
174.9702864575
 31
0.0
 12
179.9093250101
 22
175.8702864575
 32
0.0
 13
179.9093250101
 23
175.8702864575
 33
0.0
  0
LINE
  5
222
330
21D
100
AcDbEntity
  8
VERMASSUNG
100
AcDbLine
 10
222.9093250101
 20
141.1132490201
 30
0.0
 11
222.9093250101
 21
176.4202864575
 31
0.0
  0
LINE
  5
223
330
21D
100
AcDbEntity
  8
VERMASSUNG
100
AcDbLine
 10
176.9093250101
 20
151.5382490201
 30
0.0
 11
176.9093250101
 21
176.4202864575
 31
0.0
  0
LINE
  5
224
330
21D
100
AcDbEntity
  8
VERMASSUNG
100
AcDbLine
 10
222.9093250101
 20
175.4202864575
 30
0.0
 11
176.9093250101
 21
175.4202864575
 31
0.0
  0
MTEXT
  5
225
330
21D
100
AcDbEntity
  8
VERMASSUNG
100
AcDbMText
 10
198.4103662048
 20
177.9984220535
 30
0.0
 40
2.0
 41
0.0
 71
     1
 72
     1
  1
46
  7
SLDTEXTSTYLE0
 73
     1
 44
1.0
  0
ENDBLK
  5
21F
330
21D
100
AcDbEntity
  8
0
100
AcDbBlockEnd
  0
BLOCK
  5
228
330
227
100
AcDbEntity
  8
0
100
AcDbBlockBegin
  2
_D_5
 70
     0
 10
0.0
 20
0.0
 30
0.0
  3
_D_5
  1

  0
SOLID
  5
22A
330
227
100
AcDbEntity
  8
VERMASSUNG
100
AcDbTrace
 10
222.9093250101
 20
181.4202864575
 30
0.0
 11
219.9093250101
 21
181.8702864575
 31
0.0
 12
219.9093250101
 22
180.9702864575
 32
0.0
 13
219.9093250101
 23
180.9702864575
 33
0.0
  0
SOLID
  5
22B
330
227
100
AcDbEntity
  8
VERMASSUNG
100
AcDbTrace
 10
75.3093250101
 20
181.4202864575
 30
0.0
 11
78.3093250101
 21
180.9702864575
 31
0.0
 12
78.3093250101
 22
181.8702864575
 32
0.0
 13
78.3093250101
 23
181.8702864575
 33
0.0
  0
LINE
  5
22C
330
227
100
AcDbEntity
  8
VERMASSUNG
100
AcDbLine
 10
222.9093250101
 20
141.1132490201
 30
0.0
 11
222.9093250101
 21
182.4202864575
 31
0.0
  0
LINE
  5
22D
330
227
100
AcDbEntity
  8
VERMASSUNG
100
AcDbLine
 10
75.3093250101
 20
134.9920935475
 30
0.0
 11
75.3093250101
 21
182.4202864575
 31
0.0
  0
LINE
  5
22E
330
227
100
AcDbEntity
  8
VERMASSUNG
100
AcDbLine
 10
222.9093250101
 20
181.4202864575
 30
0.0
 11
75.3093250101
 21
181.4202864575
 31
0.0
  0
MTEXT
  5
22F
330
227
100
AcDbEntity
  8
VERMASSUNG
100
AcDbMText
 10
146.1103044128
 20
183.9984220535
 30
0.0
 40
2.0
 41
0.0
 71
     1
 72
     1
  1
147.6
  7
SLDTEXTSTYLE0
 73
     1
 44
1.0
  0
ENDBLK
  5
229
330
227
100
AcDbEntity
  8
0
100
AcDbBlockEnd
  0
ENDSEC
  0
SECTION
  2
ENTITIES
  0
MTEXT
  5
78
330
1F
100
AcDbEntity
  8
KOPF_DÜNN
100
AcDbMText
 10
13.8892156294
 20
23.8442973028
 30
0.0
 40
3.0
 41
0.0
 71
     1
 72
     1
  1
A14.450.050.046
  7
SLDTEXTSTYLE0
 73
     1
 44
1.0
  0
MTEXT
  5
79
330
1F
100
AcDbEntity
  8
VERMASSUNG
100
AcDbMText
 10
13.9329988022
 20
28.8834360957
 30
0.0
 40
3.0
 41
0.0
 71
     1
 72
     1
  1
Aufnahme_Master shank WH50
  7
SLDTEXTSTYLE0
 73
     1
 44
1.0
  0
MTEXT
  5
7A
330
1F
100
AcDbEntity
  8
VERMASSUNG
100
AcDbMText
 10
98.8601118557
 20
13.8365368761
 30
0.0
 40
2.0
 41
0.0
 71
     1
 72
     1
  1
Datum: 01.09.2011
  7
SLDTEXTSTYLE0
 73
     1
 44
1.0
  0
MTEXT
  5
7B
330
1F
100
AcDbEntity
  8
VERMASSUNG
100
AcDbMText
 10
13.933048693
 20
18.0482802738
 30
0.0
 40
2.0
 41
0.0
 71
     1
 72
     1
  1
DIN 69871 AD/B
  7
SLDTEXTSTYLE0
 73
     1
 44
1.0
  0
MTEXT
  5
7C
330
1F
100
AcDbEntity
  8
VERMASSUNG
100
AcDbMText
 10
13.9808475933
 20
13.9090974274
 30
0.0
 40
2.0
 41
0.0
 71
     1
 72
     1
  1
Gewicht: 2917g
  7
SLDTEXTSTYLE0
 73
     1
 44
1.0
  0
LINE
  5
7D
330
1F
100
AcDbEntity
  8
0
  6
Continuous
 62
     7
370
    15
100
AcDbLine
 10
214.4829941159
 20
141.2895794077
 30
0.0
 11
214.1593259936
 21
141.6132493926
 31
0.0
  0
LINE
  5
7E
330
1F
100
AcDbEntity
  8
0
  6
Continuous
 62
     7
370
    15
100
AcDbLine
 10
203.5593253737
 20
141.6132493926
 30
0.0
 11
203.23422674
 21
141.2881507589
 31
0.0
  0
ARC
  5
7F
330
1F
100
AcDbEntity
  8
0
  6
Continuous
 62
     7
370
    15
100
AcDbCircle
 10
179.5093250101
 20
81.0882490201
 30
0.0
 40
0.6000000000000085
100
AcDbArc
 50
0.0
 51
90.0
  0
ARC
  5
80
330
1F
100
AcDbEntity
  8
0
  6
Continuous
 62
     7
370
    15
100
AcDbCircle
 10
179.5093250101
 20
152.1382490201
 30
0.0
 40
0.6000000000000227
100
AcDbArc
 50
270.0
 51
0.0
  0
LINE
  5
81
330
1F
100
AcDbEntity
  8
0
  6
Continuous
 62
     7
370
    15
100
AcDbLine
 10
176.9093250101
 20
81.6882501407
 30
0.0
 11
179.5093250172
 21
81.6882501407
 31
0.0
  0
LINE
  5
82
330
1F
100
AcDbEntity
  8
0
  6
Continuous
 62
     7
370
    15
100
AcDbLine
 10
179.5093250172
 20
151.5382478995
 30
0.0
 11
176.9093250101
 21
151.5382478995
 31
0.0
  0
LINE
  5
83
330
1F
100
AcDbEntity
  8
0
  6
Continuous
 62
     7
370
    15
100
AcDbLine
 10
176.9093250101
 20
151.5382478995
 30
0.0
 11
77.0207096999
 21
136.9711595638
 31
0.0
  0
LINE
  5
84
330
1F
100
AcDbEntity
  8
0
  6
Continuous
 62
     7
370
    15
100
AcDbLine
 10
77.0207096999
 20
96.2553384764
 30
0.0
 11
176.9093250101
 21
81.6882501407
 31
0.0
  0
ARC
  5
85
330
1F
100
AcDbEntity
  8
0
  6
Continuous
 62
     7
370
    15
100
AcDbCircle
 10
198.9593250101
 20
88.6132490201
 30
0.0
 40
3.0
100
AcDbArc
 50
90.0
 51
180.0
  0
ARC
  5
86
330
1F
100
AcDbEntity
  8
0
  6
Continuous
 62
     7
370
    15
100
AcDbCircle
 10
198.9593250101
 20
144.6132490201
 30
0.0
 40
3.0
100
AcDbArc
 50
180.0
 51
270.0
  0
LINE
  5
87
330
1F
100
AcDbEntity
  8
0
  6
Continuous
 62
     7
370
    15
100
AcDbLine
 10
201.6331416732
 20
141.6132493926
 30
0.0
 11
198.9593257373
 21
141.6132493926
 31
0.0
  0
LINE
  5
88
330
1F
100
AcDbEntity
  8
0
  6
Continuous
 62
     7
370
    15
100
AcDbLine
 10
222.4093240863
 20
141.6132493926
 30
0.0
 11
216.0249439245
 21
141.6132493926
 31
0.0
  0
LINE
  5
89
330
1F
100
AcDbEntity
  8
0
  6
Continuous
 62
     7
370
    15
100
AcDbLine
 10
198.9593257373
 20
91.6132486476
 30
0.0
 11
222.4093240863
 21
91.6132486476
 31
0.0
  0
LINE
  5
8A
330
1F
100
AcDbEntity
  8
0
  6
Continuous
 62
     7
370
    15
100
AcDbLine
 10
222.4093240863
 20
91.6132486476
 30
0.0
 11
222.9093250995
 21
92.1132496608
 31
0.0
  0
LINE
  5
8B
330
1F
100
AcDbEntity
  8
0
  6
Continuous
 62
     7
370
    15
100
AcDbLine
 10
222.9093250995
 20
141.1132483793
 30
0.0
 11
222.4093240863
 21
141.6132493926
 31
0.0
  0
ARC
  5
8C
330
1F
100
AcDbEntity
  8
0
  6
Continuous
 62
     7
370
    15
100
AcDbCircle
 10
77.3093250101
 20
98.2344044927
 30
0.0
 40
1.99999999999999
100
AcDbArc
 50
180.0
 51
261.7028550302
  0
ARC
  5
8D
330
1F
100
AcDbEntity
  8
0
  6
Continuous
 62
     7
370
    15
100
AcDbCircle
 10
77.3093250101
 20
134.9920935475
 30
0.0
 40
1.99999999999999
100
AcDbArc
 50
98.2971449698
 51
180.0
  0
ARC
  5
8E
330
1F
100
AcDbEntity
  8
0
  6
Continuous
 62
     7
370
    15
100
AcDbCircle
 10
191.1093250101
 20
102.1475070581
 30
0.0
 40
2.000000000000007
100
AcDbArc
 50
192.2156859339
 51
340.3453161116
  0
SPLINE
  5
8F
330
1F
100
AcDbEntity
  8
0
  6
Continuous
 62
     7
370
    15
100
AcDbSpline
210
0.0
220
0.0
230
1.0
 70
     8
 71
     3
 72
    11
 73
     7
 74
     0
 42
0.000000001
 43
0.00000001
 40
0.0
 40
0.0
 40
0.0
 40
0.0
 40
0.1849312330242593
 40
0.5198466777147479
 40
0.8714439765687151
 40
1.0
 40
1.0
 40
1.0
 40
1.0
 10
212.0869693523251
 20
117.8711509149521
 30
0.0
 10
211.9296291447667
 20
117.9972383329992
 30
0.0
 10
211.4873415828843
 20
118.3516734616767
 30
0.0
 10
210.661732451049
 20
119.0132972196728
 30
0.0
 10
209.8992460492289
 20
119.6243323336523
 30
0.0
 10
209.4926372890461
 20
119.9501792188267
 30
0.0
 10
209.383772051891
 20
120.0374213097616
 30
0.0
  0
SPLINE
  5
90
330
1F
100
AcDbEntity
  8
0
  6
Continuous
 62
     7
370
    15
100
AcDbSpline
210
0.0
220
0.0
230
1.0
 70
     8
 71
     3
 72
    11
 73
     7
 74
     0
 42
0.000000001
 43
0.00000001
 40
0.0
 40
0.0
 40
0.0
 40
0.0
 40
0.2164557248140584
 40
0.4403111487548106
 40
0.7519005348311271
 40
1.0
 40
1.0
 40
1.0
 40
1.0
 10
209.383772051891
 20
120.0374213097616
 30
0.0
 10
209.1626747106066
 20
119.9512539032499
 30
0.0
 10
208.7129216518171
 20
119.7759733936725
 30
0.0
 10
207.8783019096356
 20
119.4506971428214
 30
0.0
 10
206.9830207981003
 20
119.1017825278793
 30
0.0
 10
206.4100953715092
 20
118.878497376321
 30
0.0
 10
206.1561283832394
 20
118.7795192984863
 30
0.0
  0
SPLINE
  5
91
330
1F
100
AcDbEntity
  8
0
  6
Continuous
 62
     7
370
    15
100
AcDbSpline
210
0.0
220
0.0
230
1.0
 70
     8
 71
     3
 72
    11
 73
     7
 74
     0
 42
0.000000001
 43
0.00000001
 40
0.0
 40
0.0
 40
0.0
 40
0.0
 40
0.2164553397939685
 40
0.4403112361899889
 40
0.7519004349233149
 40
1.0
 40
1.0
 40
1.0
 40
1.0
 10
206.1561283832394
 20
118.7795192984863
 30
0.0
 10
206.1202029229393
 20
118.544960213222
 30
0.0
 10
206.0471237193933
 20
118.0678225233382
 30
0.0
 10
205.9115106207277
 20
117.1823825482199
 30
0.0
 10
205.7660407870476
 20
116.2325884975432
 30
0.0
 10
205.6729482127519
 20
115.6247781075262
 30
0.0
 10
205.6316820150219
 20
115.3553471252321
 30
0.0
  0
SPLINE
  5
92
330
1F
100
AcDbEntity
  8
0
  6
Continuous
 62
     7
370
    15
100
AcDbSpline
210
0.0
220
0.0
230
1.0
 70
     8
 71
     3
 72
    11
 73
     7
 74
     0
 42
0.000000001
 43
0.00000001
 40
0.0
 40
0.0
 40
0.0
 40
0.0
 40
0.1285560201277437
 40
0.4801532902266696
 40
0.8150691238334115
 40
0.9999999999999999
 40
0.9999999999999999
 40
0.9999999999999999
 40
0.9999999999999999
 10
205.6316820150219
 20
115.3553471252321
 30
0.0
 10
205.7405472592459
 20
115.2681050413634
 30
0.0
 10
206.147156029131
 20
114.9422581959634
 30
0.0
 10
206.9096423240541
 20
114.3312223439456
 30
0.0
 10
207.7352533656682
 20
113.6696005143551
 30
0.0
 10
208.1775398164727
 20
113.3151642879078
 30
0.0
 10
208.334879315456
 20
113.1890767304226
 30
0.0
  0
CIRCLE
  5
93
330
1F
100
AcDbEntity
  8
0
  6
Continuous
 62
     7
370
    15
100
AcDbCircle
 10
208.8593250101
 20
116.6132490201
 30
0.0
 40
3.599999999999993
  0
SPLINE
  5
94
330
1F
100
AcDbEntity
  8
0
  6
Continuous
 62
     7
370
    15
100
AcDbSpline
210
0.0
220
0.0
230
1.0
 70
     8
 71
     3
 72
    11
 73
     7
 74
     0
 42
0.000000001
 43
0.00000001
 40
0.0
 40
0.0
 40
0.0
 40
0.0
 40
0.216455194372947
 40
0.4403111663174551
 40
0.7519003635548841
 40
0.9999999999999999
 40
0.9999999999999999
 40
0.9999999999999999
 40
0.9999999999999999
 10
211.5625229841076
 20
114.4469787416979
 30
0.0
 10
211.5984466888399
 20
114.6815379010334
 30
0.0
 10
211.6715223587258
 20
115.1586759864309
 30
0.0
 10
211.8071403347495
 20
116.0441151957272
 30
0.0
 10
211.9526078038816
 20
116.9939097522208
 30
0.0
 10
212.0457022972064
 20
117.6017199666322
 30
0.0
 10
212.0869693523251
 20
117.8711509149521
 30
0.0
  0
SPLINE
  5
95
330
1F
100
AcDbEntity
  8
0
  6
Continuous
 62
     7
370
    15
100
AcDbSpline
210
0.0
220
0.0
230
1.0
 70
     8
 71
     3
 72
    11
 73
     7
 74
     0
 42
0.000000001
 43
0.00000001
 40
0.0
 40
0.0
 40
0.0
 40
0.0
 40
0.216454823057471
 40
0.4403107049470841
 40
0.7519005499234532
 40
1.0
 40
1.0
 40
1.0
 40
1.0
 10
208.334879315456
 20
113.1890767304226
 30
0.0
 10
208.5559753266405
 20
113.2752442909344
 30
0.0
 10
209.0057271001077
 20
113.4505256673279
 30
0.0
 10
209.8403477986364
 20
113.7758006321622
 30
0.0
 10
210.7356300812942
 20
114.1247152391293
 30
0.0
 10
211.3085559962074
 20
114.348000638513
 30
0.0
 10
211.5625229841076
 20
114.4469787416979
 30
0.0
  0
CIRCLE
  5
96
330
1F
100
AcDbEntity
  8
0
  6
Continuous
 62
     7
370
    15
100
AcDbCircle
 10
208.8593250101
 20
116.6132490201
 30
0.0
 40
5.300000000000015
  0
ARC
  5
97
330
1F
100
AcDbEntity
  8
0
  6
Continuous
 62
     7
370
    15
100
AcDbCircle
 10
208.8593250101
 20
116.6132490201
 30
0.0
 40
2.999999999999999
100
AcDbArc
 50
51.2922367735
 51
111.2922367735
  0
ARC
  5
98
330
1F
100
AcDbEntity
  8
0
  6
Continuous
 62
     7
370
    15
100
AcDbCircle
 10
208.8593250101
 20
116.6132490201
 30
0.0
 40
3.000000000000017
100
AcDbArc
 50
231.2922367735
 51
291.2922367735
  0
ARC
  5
99
330
1F
100
AcDbEntity
  8
0
  6
Continuous
 62
     7
370
    15
100
AcDbCircle
 10
208.8593250101
 20
116.6132490201
 30
0.0
 40
3.000000000000004
100
AcDbArc
 50
291.2922367735
 51
351.2922367735
  0
ARC
  5
9A
330
1F
100
AcDbEntity
  8
0
  6
Continuous
 62
     7
370
    15
100
AcDbCircle
 10
208.8593250101
 20
116.6132490201
 30
0.0
 40
3.000000000000004
100
AcDbArc
 50
351.2922367735
 51
51.2922367735
  0
ARC
  5
9B
330
1F
100
AcDbEntity
  8
0
  6
Continuous
 62
     7
370
    15
100
AcDbCircle
 10
208.8593250101
 20
116.6132490201
 30
0.0
 40
3.000000000000017
100
AcDbArc
 50
171.2922367735
 51
231.2922367735
  0
ARC
  5
9C
330
1F
100
AcDbEntity
  8
0
  6
Continuous
 62
     7
370
    15
100
AcDbCircle
 10
208.8593250101
 20
116.6132490201
 30
0.0
 40
3.000000000000002
100
AcDbArc
 50
111.2922367735
 51
171.2922367735
  0
LINE
  5
9D
330
1F
100
AcDbEntity
  8
0
  6
Continuous
 62
     7
370
    15
100
AcDbLine
 10
205.9439656502
 20
140.9132487191
 30
0.0
 11
211.7398877805
 21
140.9132487191
 31
0.0
  0
LINE
  5
9E
330
1F
100
AcDbEntity
  8
0
  6
Continuous
 62
     7
370
    15
100
AcDbLine
 10
205.544977746
 20
141.6132493926
 30
0.0
 11
214.1593259936
 21
141.6132493926
 31
0.0
  0
LINE
  5
9F
330
1F
100
AcDbEntity
  8
0
  6
Continuous
 62
     7
370
    15
100
AcDbLine
 10
203.5593253737
 20
141.6132493926
 30
0.0
 11
205.544977746
 21
141.6132493926
 31
0.0
  0
LINE
  5
A0
330
1F
100
AcDbEntity
  8
0
  6
Continuous
 62
     7
370
    15
100
AcDbLine
 10
191.2424865356
 20
102.3161017386
 30
0.0
 11
191.2424865356
 21
146.4632495357
 31
0.0
  0
LINE
  5
A1
330
1F
100
AcDbEntity
  8
0
  6
Continuous
 62
     7
370
    15
100
AcDbLine
 10
195.3593244022
 20
146.4632495357
 30
0.0
 11
191.2424865356
 21
146.4632495357
 31
0.0
  0
LINE
  5
A2
330
1F
100
AcDbEntity
  8
0
  6
Continuous
 62
     7
370
    15
100
AcDbLine
 10
191.2424865356
 20
69.8839898271
 30
0.0
 11
195.3593244022
 21
69.8839898271
 31
0.0
  0
LINE
  5
A3
330
1F
100
AcDbEntity
  8
0
  6
Continuous
 62
     7
370
    15
100
AcDbLine
 10
191.2424865356
 20
69.8839898271
 30
0.0
 11
191.2424865356
 21
97.6243081553
 31
0.0
  0
SPLINE
  5
A4
330
1F
100
AcDbEntity
  8
0
  6
Continuous
 62
     7
370
    15
100
AcDbSpline
210
0.0
220
0.0
230
1.0
 70
     8
 71
     3
 72
    34
 73
    30
 74
     0
 42
0.000000001
 43
0.00000001
 40
0.0
 40
0.0
 40
0.0
 40
0.0
 40
0.0624999999999986
 40
0.0624999999999986
 40
0.1249999999999972
 40
0.1249999999999972
 40
0.1874999999999958
 40
0.1874999999999958
 40
0.2499999999999949
 40
0.2499999999999949
 40
0.312499999999994
 40
0.312499999999994
 40
0.3749999999999932
 40
0.3749999999999932
 40
0.4999999999999923
 40
0.4999999999999923
 40
0.6249999999999928
 40
0.6249999999999928
 40
0.6874999999999938
 40
0.6874999999999938
 40
0.7499999999999947
 40
0.7499999999999947
 40
0.8124999999999956
 40
0.8124999999999956
 40
0.874999999999997
 40
0.874999999999997
 40
0.9374999999999986
 40
0.9374999999999986
 40
1.0
 40
1.0
 40
1.0
 40
1.0
 10
191.2424865176029
 20
97.62430863209092
 30
0.0
 10
191.4018783453908
 20
97.63214872801369
 30
0.0
 10
191.5578808288344
 20
97.65380737610413
 30
0.0
 10
191.8633903449116
 20
97.72365560359691
 30
0.0
 10
192.0142846799238
 20
97.77248130592517
 30
0.0
 10
192.3021840246146
 20
97.89540525933249
 30
0.0
 10
192.4381304275744
 20
97.96871276746681
 30
0.0
 10
192.6943130431664
 20
98.13872339123814
 30
0.0
 10
192.8154953309255
 20
98.2365971834396
 30
0.0
 10
193.0326414027982
 20
98.44918135887157
 30
0.0
 10
193.1296032757586
 20
98.56422729740117
 30
0.0
 10
193.3001657115842
 20
98.8120884175213
 30
0.0
 10
193.3734057647961
 20
98.94512191458689
 30
0.0
 10
193.5482862215449
 20
99.35462993071702
 30
0.0
 10
193.6093241825209
 20
99.65259058049212
 30
0.0
 10
193.6093258377439
 20
100.2440321363665
 30
0.0
 10
193.5482912281577
 20
100.5442056863431
 30
0.0
 10
193.3734014607557
 20
100.9594369666109
 30
0.0
 10
193.3001577553313
 20
101.0947920848577
 30
0.0
 10
193.1295970395947
 20
101.3476914162444
 30
0.0
 10
193.0326333240012
 20
101.4654566938521
 30
0.0
 10
192.815472995414
 20
101.6835869892208
 30
0.0
 10
192.6942917367272
 20
101.7842903143677
 30
0.0
 10
192.4381215097885
 20
101.959534007201
 30
0.0
 10
192.3021781601258
 20
102.0352789762916
 30
0.0
 10
192.0142754569426
 20
102.1624473515938
 30
0.0
 10
191.8633852610259
 20
102.2130486239213
 30
0.0
 10
191.5578797573203
 20
102.2854777236692
 30
0.0
 10
191.4018783590568
 20
102.3079634950661
 30
0.0
 10
191.2424865176029
 20
102.316101954961
 30
0.0
  0
SPLINE
  5
A5
330
1F
100
AcDbEntity
  8
0
  6
Continuous
 62
     7
370
    15
100
AcDbSpline
210
0.0
220
0.0
230
1.0
 70
     8
 71
     3
 72
     8
 73
     4
 74
     0
 42
0.000000001
 43
0.00000001
 40
0.0
 40
0.0
 40
0.0
 40
0.0
 40
1.0
 40
1.0
 40
1.0
 40
1.0
 10
186.099325010141
 20
71.9935096112623
 30
0.0
 10
185.8095965641165
 20
71.47128960109877
 30
0.0
 10
185.5195714138987
 20
70.94923621883878
 30
0.0
 10
185.2292771796369
 20
70.42733395311568
 30
0.0
  0
SPLINE
  5
A6
330
1F
100
AcDbEntity
  8
0
  6
Continuous
 62
     7
370
    15
100
AcDbSpline
210
0.0
220
0.0
230
1.0
 70
     8
 71
     3
 72
     8
 73
     4
 74
     0
 42
0.000000001
 43
0.00000001
 40
0.0
 40
0.0
 40
0.0
 40
0.0
 40
0.0011862984959112
 40
0.0011862984959112
 40
0.0011862984959112
 40
0.0011862984959112
 10
184.7761635026791
 20
69.88398967874606
 30
0.0
 10
184.92818826455
 20
70.06490152836406
 30
0.0
 10
185.0792457097658
 20
70.24601385880489
 30
0.0
 10
185.2292771796369
 20
70.42733395311568
 30
0.0
  0
LINE
  5
A7
330
1F
100
AcDbEntity
  8
0
  6
Continuous
 62
     7
370
    15
100
AcDbLine
 10
184.7761639571
 20
69.8839898271
 30
0.0
 11
184.7761639571
 21
146.4632495357
 31
0.0
  0
SPLINE
  5
A8
330
1F
100
AcDbEntity
  8
0
  6
Continuous
 62
     7
370
    15
100
AcDbSpline
210
0.0
220
0.0
230
1.0
 70
    24
 71
     3
 72
     8
 73
     4
 74
     0
 42
0.000000001
 43
0.00000001
 40
0.0
 40
0.0
 40
0.0
 40
0.0
 40
1.0
 40
1.0
 40
1.0
 40
1.0
 10
186.099325010141
 20
146.4632490200921
 30
0.0
 10
185.6641249054374
 20
146.4632490200921
 30
0.0
 10
185.2227652226985
 20
146.4632490200921
 30
0.0
 10
184.7761635026791
 20
146.4632490200921
 30
0.0
  0
LINE
  5
A9
330
1F
100
AcDbEntity
  8
0
  6
Continuous
 62
     7
370
    15
100
AcDbLine
 10
186.0993246725
 20
71.9935099645
 30
0.0
 11
186.0993246725
 21
146.4632495357
 31
0.0
  0
LINE
  5
AA
330
1F
100
AcDbEntity
  8
0
  6
Continuous
 62
     7
370
    15
100
AcDbLine
 10
180.7093250742
 20
69.8839898271
 30
0.0
 11
184.7761639571
 21
69.8839898271
 31
0.0
  0
LINE
  5
AB
330
1F
100
AcDbEntity
  8
0
  6
Continuous
 62
     7
370
    15
100
AcDbLine
 10
184.7761639571
 20
146.4632495357
 30
0.0
 11
180.7093250742
 21
146.4632495357
 31
0.0
  0
SPLINE
  5
AC
330
1F
100
AcDbEntity
  8
0
  6
Continuous
 62
     7
370
    15
100
AcDbSpline
210
0.0
220
0.0
230
1.0
 70
     8
 71
     3
 72
    12
 73
     8
 74
     0
 42
0.000000001
 43
0.00000001
 40
0.0
 40
0.0
 40
0.0
 40
0.0
 40
0.249999999999996
 40
0.249999999999996
 40
0.499999999999992
 40
0.499999999999992
 40
1.0
 40
1.0
 40
1.0
 40
1.0
 10
195.359325010141
 20
69.88398967874606
 30
0.0
 10
195.4552977633159
 20
69.88398967874606
 30
0.0
 10
195.5477257274704
 20
69.90026300285466
 30
0.0
 10
195.7041558275798
 20
69.95363672485105
 30
0.0
 10
195.7676342523527
 20
69.98976498238541
 30
0.0
 10
195.9159134131798
 20
70.11046617866471
 30
0.0
 10
195.959325010141
 20
70.20431576502986
 30
0.0
 10
195.959325010141
 20
70.29862003997708
 30
0.0
  0
SPLINE
  5
AD
330
1F
100
AcDbEntity
  8
0
  6
Continuous
 62
     7
370
    15
100
AcDbSpline
210
0.0
220
0.0
230
1.0
 70
    24
 71
     3
 72
    12
 73
     8
 74
     0
 42
0.000000001
 43
0.00000001
 40
0.0
 40
0.0
 40
0.0
 40
0.0
 40
0.5
 40
0.5
 40
0.75
 40
0.75
 40
1.0
 40
1.0
 40
1.0
 40
1.0
 10
195.959325010141
 20
146.4632490200921
 30
0.0
 10
195.959325010141
 20
146.4632490200921
 30
0.0
 10
195.9111943217557
 20
146.4632490200921
 30
0.0
 10
195.7572972659526
 20
146.4632490200921
 30
0.0
 10
195.6918327009458
 20
146.4632490200921
 30
0.0
 10
195.5383033803357
 20
146.4632490200921
 30
0.0
 10
195.4499547195999
 20
146.4632490200921
 30
0.0
 10
195.3593250101409
 20
146.4632490200921
 30
0.0
  0
LINE
  5
AE
330
1F
100
AcDbEntity
  8
0
  6
Continuous
 62
     7
370
    15
100
AcDbLine
 10
195.9593252456
 20
70.2986183627
 30
0.0
 11
195.9593252456
 21
146.4632495357
 31
0.0
  0
LINE
  5
AF
330
1F
100
AcDbEntity
  8
0
  6
Continuous
 62
     7
370
    15
100
AcDbLine
 10
189.9193248888
 20
102.8159872679
 30
0.0
 11
189.9193248888
 21
146.4632495357
 31
0.0
  0
SPLINE
  5
B0
330
1F
100
AcDbEntity
  8
0
  6
Continuous
 62
     7
370
    15
100
AcDbSpline
210
0.0
220
0.0
230
1.0
 70
    24
 71
     3
 72
     8
 73
     4
 74
     0
 42
0.000000001
 43
0.00000001
 40
0.0
 40
0.0
 40
0.0
 40
0.0
 40
1.0
 40
1.0
 40
1.0
 40
1.0
 10
191.2424865176029
 20
146.4632490200921
 30
0.0
 10
190.7958847975836
 20
146.4632490200921
 30
0.0
 10
190.3545251148447
 20
146.4632490200921
 30
0.0
 10
189.9193250101411
 20
146.4632490200921
 30
0.0
  0
SPLINE
  5
B1
330
1F
100
AcDbEntity
  8
0
  6
Continuous
 62
     7
370
    15
100
AcDbSpline
210
0.0
220
0.0
230
1.0
 70
     8
 71
     3
 72
    10
 73
     6
 74
     0
 42
0.000000001
 43
0.00000001
 40
0.0
 40
0.0
 40
0.0
 40
0.0
 40
0.5
 40
0.5
 40
1.0
 40
1.0
 40
1.0
 40
1.0
 10
191.2424865176029
 20
102.316101954961
 30
0.0
 10
191.0197594907295
 20
102.4595904552548
 30
0.0
 10
190.7980736035044
 20
102.5743112009876
 30
0.0
 10
190.3568527656524
 20
102.7440716303455
 30
0.0
 10
190.1372941182536
 20
102.7994916247329
 30
0.0
 10
189.9193250101413
 20
102.8159869541025
 30
0.0
  0
SPLINE
  5
B2
330
1F
100
AcDbEntity
  8
0
  6
Continuous
 62
     7
370
    15
100
AcDbSpline
210
0.0
220
0.0
230
1.0
 70
     8
 71
     3
 72
    10
 73
     6
 74
     0
 42
0.000000001
 43
0.00000001
 40
0.0
 40
0.0
 40
0.0
 40
0.0
 40
0.5
 40
0.5
 40
1.0
 40
1.0
 40
1.0
 40
1.0
 10
180.3249850412951
 20
69.97979475289983
 30
0.0
 10
180.3736356098747
 20
69.95183776163243
 30
0.0
 10
180.4310208218342
 20
69.92789547660561
 30
0.0
 10
180.5617339300002
 20
69.8937770135099
 30
0.0
 10
180.6344734637388
 20
69.88398967874606
 30
0.0
 10
180.709325010141
 20
69.88398967874606
 30
0.0
  0
SPLINE
  5
B3
330
1F
100
AcDbEntity
  8
0
  6
Continuous
 62
     7
370
    15
100
AcDbSpline
210
0.0
220
0.0
230
1.0
 70
     8
 71
     3
 72
    10
 73
     6
 74
     0
 42
0.000000001
 43
0.00000001
 40
0.0
 40
0.0
 40
0.0
 40
0.0
 40
0.5
 40
0.5
 40
1.0
 40
1.0
 40
1.0
 40
1.0
 10
180.3249850412951
 20
69.97979475289982
 30
0.0
 10
180.2667970347129
 20
70.04737848307863
 30
0.0
 10
180.2143545681866
 20
70.1278547177204
 30
0.0
 10
180.1360022610079
 20
70.31089034070315
 30
0.0
 10
180.109325010141
 20
70.41676604349878
 30
0.0
 10
180.109325010141
 20
70.5242793527194
 30
0.0
  0
LINE
  5
B4
330
1F
100
AcDbEntity
  8
0
  6
Continuous
 62
     7
370
    15
100
AcDbLine
 10
180.1093249293
 20
70.5242778225
 30
0.0
 11
180.1093249293
 21
146.4632495357
 31
0.0
  0
SPLINE
  5
B5
330
1F
100
AcDbEntity
  8
0
  6
Continuous
 62
     7
370
    15
100
AcDbSpline
210
0.0
220
0.0
230
1.0
 70
    24
 71
     3
 72
    14
 73
    10
 74
     0
 42
0.000000001
 43
0.00000001
 40
0.0
 40
0.0
 40
0.0
 40
0.0
 40
0.25
 40
0.25
 40
0.5
 40
0.5
 40
0.75
 40
0.75
 40
1.0
 40
1.0
 40
1.0
 40
1.0
 10
180.709325010141
 20
146.4632490200921
 30
0.0
 10
180.6203030577974
 20
146.4632490200921
 30
0.0
 10
180.5306163585238
 20
146.4632490200921
 30
0.0
 10
180.3768895329665
 20
146.4632490200921
 30
0.0
 10
180.3116846383398
 20
146.4632490200921
 30
0.0
 10
180.2090939441693
 20
146.4632490200921
 30
0.0
 10
180.1714564898534
 20
146.4632490200921
 30
0.0
 10
180.1213645744683
 20
146.4632490200921
 30
0.0
 10
180.109325010141
 20
146.4632490200921
 30
0.0
 10
180.109325010141
 20
146.4632490200921
 30
0.0
  0
SPLINE
  5
B6
330
1F
100
AcDbEntity
  8
0
  6
Continuous
 62
     7
370
    15
100
AcDbSpline
210
0.0
220
0.0
230
1.0
 70
     8
 71
     3
 72
    14
 73
    10
 74
     0
 42
0.000000001
 43
0.00000001
 40
0.0
 40
0.0
 40
0.0
 40
0.0
 40
0.25
 40
0.25
 40
0.5
 40
0.5
 40
0.75
 40
0.75
 40
1.0
 40
1.0
 40
1.0
 40
1.0
 10
189.919325010141
 20
102.861601176115
 30
0.0
 10
189.919325010141
 20
102.9035775579686
 30
0.0
 10
189.8896820561698
 20
102.9314279456095
 30
0.0
 10
189.7830272224398
 20
102.9449268208995
 30
0.0
 10
189.7067488278356
 20
102.9303113188618
 30
0.0
 10
189.5386972847691
 20
102.8582221146936
 30
0.0
 10
189.4475774781608
 20
102.8010845042109
 30
0.0
 10
189.2749003659082
 20
102.6588568036196
 30
0.0
 10
189.1939779263801
 20
102.5752929781076
 30
0.0
 10
189.119325010141
 20
102.4819233062116
 30
0.0
  0
SPLINE
  5
B7
330
1F
100
AcDbEntity
  8
0
  6
Continuous
 62
     7
370
    15
100
AcDbSpline
210
0.0
220
0.0
230
1.0
 70
     8
 71
     3
 72
    10
 73
     6
 74
     0
 42
0.000000001
 43
0.00000001
 40
0.0
 40
0.0
 40
0.0
 40
0.0
 40
0.5
 40
0.5
 40
1.0
 40
1.0
 40
1.0
 40
1.0
 10
189.9193250101413
 20
98.683945755471
 30
0.0
 10
190.1362158426621
 20
98.44690681602245
 30
0.0
 10
190.355368479321
 20
98.24473658102896
 30
0.0
 10
190.7968529795898
 20
97.89398450951026
 30
0.0
 10
191.0200554448633
 20
97.74530841711342
 30
0.0
 10
191.2424865176029
 20
97.6243086320909
 30
0.0
  0
LINE
  5
B8
330
1F
100
AcDbEntity
  8
0
  6
Continuous
 62
     7
370
    15
100
AcDbLine
 10
189.9193248888
 20
98.7295608087
 30
0.0
 11
189.9193248888
 21
98.6839464916
 31
0.0
  0
SPLINE
  5
B9
330
1F
100
AcDbEntity
  8
0
  6
Continuous
 62
     7
370
    15
100
AcDbSpline
210
0.0
220
0.0
230
1.0
 70
     8
 71
     3
 72
    16
 73
    12
 74
     0
 42
0.000000001
 43
0.00000001
 40
0.0
 40
0.0
 40
0.0
 40
0.0
 40
0.2500000000000029
 40
0.2500000000000029
 40
0.5000000000000059
 40
0.5000000000000059
 40
0.6250000000000073
 40
0.6250000000000073
 40
0.7500000000000089
 40
0.7500000000000089
 40
1.0
 40
1.0
 40
1.0
 40
1.0
 10
189.119325010141
 20
99.637959463158
 30
0.0
 10
189.1933329003632
 20
99.54761188297235
 30
0.0
 10
189.2739508953522
 20
99.45965231017267
 30
0.0
 10
189.4477188808565
 20
99.2833173861111
 30
0.0
 10
189.5384700117979
 20
99.1977101454451
 30
0.0
 10
189.6645831092594
 20
99.07651444942012
 30
0.0
 10
189.7041598701226
 20
99.03798287042925
 30
0.0
 10
189.7766425268238
 20
98.96358688429993
 30
0.0
 10
189.8095705172927
 20
98.92757009637846
 30
0.0
 10
189.8893606872876
 20
98.82881742056145
 30
0.0
 10
189.919325010141
 20
98.77205341877934
 30
0.0
 10
189.919325010141
 20
98.7295599774838
 30
0.0
  0
SPLINE
  5
BA
330
1F
100
AcDbEntity
  8
0
  6
Continuous
 62
     7
370
    15
100
AcDbSpline
210
0.0
220
0.0
230
1.0
 70
     8
 71
     3
 72
    16
 73
    12
 74
     0
 42
0.000000001
 43
0.00000001
 40
0.0
 40
0.0
 40
0.0
 40
0.0
 40
0.2499999999999992
 40
0.2499999999999992
 40
0.4999999999999983
 40
0.4999999999999983
 40
0.7499999999999976
 40
0.7499999999999976
 40
0.8749999999999988
 40
0.8749999999999988
 40
1.0
 40
1.0
 40
1.0
 40
1.0
 10
189.119325010141
 20
102.4819233062116
 30
0.0
 10
188.9539109036609
 20
102.2750370701863
 30
0.0
 10
188.8277135726853
 20
102.0491683723775
 30
0.0
 10
188.6533072743544
 20
101.5602991267646
 30
0.0
 10
188.6094772352576
 20
101.3085320734201
 30
0.0
 10
188.6091735622876
 20
100.7967527488377
 30
0.0
 10
188.6530304223479
 20
100.545698039755
 30
0.0
 10
188.7829521816151
 20
100.1848494716129
 30
0.0
 10
188.8370669930231
 20
100.0675767032643
 30
0.0
 10
188.9637439831665
 20
99.84508775192552
 30
0.0
 10
189.0366177035272
 20
99.73892714368225
 30
0.0
 10
189.119325010141
 20
99.637959463158
 30
0.0
  0
SPLINE
  5
BB
330
1F
100
AcDbEntity
  8
0
  6
Continuous
 62
     7
370
    15
100
AcDbSpline
210
0.0
220
0.0
230
1.0
 70
     8
 71
     3
 72
    14
 73
    10
 74
     0
 42
0.000000001
 43
0.00000001
 40
0.0
 40
0.0
 40
0.0
 40
0.0
 40
0.25
 40
0.25
 40
0.5
 40
0.5
 40
0.75
 40
0.75
 40
1.0
 40
1.0
 40
1.0
 40
1.0
 10
186.899325010141
 20
72.96548275422231
 30
0.0
 10
186.7928800022318
 20
72.9654827542223
 30
0.0
 10
186.6859812509583
 20
72.94291320478919
 30
0.0
 10
186.4897629955158
 20
72.85647011354726
 30
0.0
 10
186.4001046820513
 20
72.79216619588014
 30
0.0
 10
186.2546509691703
 20
72.63719668183717
 30
0.0
 10
186.1966151864441
 20
72.54443119559343
 30
0.0
 10
186.1193300320595
 20
72.34596431395005
 30
0.0
 10
186.099325010141
 20
72.23893989215627
 30
0.0
 10
186.099325010141
 20
72.13215753168545
 30
0.0
  0
SPLINE
  5
BC
330
1F
100
AcDbEntity
  8
0
  6
Continuous
 62
     7
370
    15
100
AcDbSpline
210
0.0
220
0.0
230
1.0
 70
    24
 71
     3
 72
    14
 73
    10
 74
     0
 42
0.000000001
 43
0.00000001
 40
0.0
 40
0.0
 40
0.0
 40
0.0
 40
0.25
 40
0.25
 40
0.5
 40
0.5
 40
0.75
 40
0.75
 40
1.0
 40
1.0
 40
1.0
 40
1.0
 10
186.899325010141
 20
146.4632490200921
 30
0.0
 10
186.7763437105948
 20
146.4632490200921
 30
0.0
 10
186.6561538221927
 20
146.4632490200921
 30
0.0
 10
186.4511299925135
 20
146.4632490200921
 30
0.0
 10
186.3645355037115
 20
146.4632490200921
 30
0.0
 10
186.229427616949
 20
146.4632490200921
 30
0.0
 10
186.1809045319209
 20
146.4632490200921
 30
0.0
 10
186.1152220231941
 20
146.4632490200921
 30
0.0
 10
186.099325010141
 20
146.4632490200921
 30
0.0
 10
186.099325010141
 20
146.4632490200921
 30
0.0
  0
SPLINE
  5
BD
330
1F
100
AcDbEntity
  8
0
  6
Continuous
 62
     7
370
    15
100
AcDbSpline
210
0.0
220
0.0
230
1.0
 70
    24
 71
     3
 72
    14
 73
    10
 74
     0
 42
0.000000001
 43
0.00000001
 40
0.0
 40
0.0
 40
0.0
 40
0.0
 40
0.25
 40
0.25
 40
0.5
 40
0.5
 40
0.75
 40
0.75
 40
1.0
 40
1.0
 40
1.0
 40
1.0
 10
189.919325010141
 20
146.4632490200921
 30
0.0
 10
189.919325010141
 20
146.4632490200921
 30
0.0
 10
189.9030439753652
 20
146.4632490200921
 30
0.0
 10
189.8383809128406
 20
146.4632490200921
 30
0.0
 10
189.788901116552
 20
146.4632490200921
 30
0.0
 10
189.6549313594132
 20
146.4632490200921
 30
0.0
 10
189.5688166328137
 20
146.4632490200921
 30
0.0
 10
189.3633605171007
 20
146.4632490200921
 30
0.0
 10
189.2419399799079
 20
146.4632490200921
 30
0.0
 10
189.119325010141
 20
146.4632490200921
 30
0.0
  0
LINE
  5
BE
330
1F
100
AcDbEntity
  8
0
  6
Continuous
 62
     7
370
    15
100
AcDbLine
 10
189.1193253165
 20
72.9654829068
 30
0.0
 11
186.8993251761
 21
72.9654829068
 31
0.0
  0
LINE
  5
BF
330
1F
100
AcDbEntity
  8
0
  6
Continuous
 62
     7
370
    15
100
AcDbLine
 10
189.1193253165
 20
146.4632495357
 30
0.0
 11
186.8993251761
 21
146.4632495357
 31
0.0
  0
SPLINE
  5
C0
330
1F
100
AcDbEntity
  8
0
  6
Continuous
 62
     7
370
    15
100
AcDbSpline
210
0.0
220
0.0
230
1.0
 70
     8
 71
     3
 72
     8
 73
     4
 74
     0
 42
0.000000001
 43
0.00000001
 40
0.0000000000000004
 40
0.0000000000000004
 40
0.0000000000000004
 40
0.0000000000000004
 40
0.0011862984959127
 40
0.0011862984959127
 40
0.0011862984959127
 40
0.0011862984959127
 10
190.7893728406412
 20
70.42733395311568
 30
0.0
 10
190.9394043105125
 20
70.24601385880466
 30
0.0
 10
191.0904617557319
 20
70.06490152836429
 30
0.0
 10
191.2424865176029
 20
69.88398967874606
 30
0.0
  0
SPLINE
  5
C1
330
1F
100
AcDbEntity
  8
0
  6
Continuous
 62
     7
370
    15
100
AcDbSpline
210
0.0
220
0.0
230
1.0
 70
     8
 71
     3
 72
     8
 73
     4
 74
     0
 42
0.000000001
 43
0.00000001
 40
0.0
 40
0.0
 40
0.0
 40
0.0
 40
1.0
 40
1.0
 40
1.0
 40
1.0
 10
190.7893728406442
 20
70.42733395311735
 30
0.0
 10
190.4990786063827
 20
70.94923621883991
 30
0.0
 10
190.2090534561653
 20
71.47128960109933
 30
0.0
 10
189.9193250101411
 20
71.9935096112623
 30
0.0
  0
LINE
  5
C2
330
1F
100
AcDbEntity
  8
0
  6
Continuous
 62
     7
370
    15
100
AcDbLine
 10
189.9193248888
 20
71.9935099645
 30
0.0
 11
189.9193248888
 21
98.6839464916
 31
0.0
  0
SPLINE
  5
C3
330
1F
100
AcDbEntity
  8
0
  6
Continuous
 62
     7
370
    15
100
AcDbSpline
210
0.0
220
0.0
230
1.0
 70
     8
 71
     3
 72
    14
 73
    10
 74
     0
 42
0.000000001
 43
0.00000001
 40
0.0
 40
0.0
 40
0.0
 40
0.0
 40
0.25
 40
0.25
 40
0.5
 40
0.5
 40
0.75
 40
0.75
 40
1.0
 40
1.0
 40
1.0
 40
1.0
 10
189.919325010141
 20
72.13215753168546
 30
0.0
 10
189.919325010141
 20
72.23922151802627
 30
0.0
 10
189.8993411839011
 20
72.34596084440079
 30
0.0
 10
189.8219061014676
 20
72.54471074659158
 30
0.0
 10
189.7639671793081
 20
72.63726496308409
 30
0.0
 10
189.6183293735474
 20
72.79236190648967
 30
0.0
 10
189.529540377212
 20
72.85610206340255
 30
0.0
 10
189.3329920170075
 20
72.94285062049013
 30
0.0
 10
189.2268527873081
 20
72.9654827542223
 30
0.0
 10
189.119325010141
 20
72.9654827542223
 30
0.0
  0
LINE
  5
C4
330
1F
100
AcDbEntity
  8
0
  6
Continuous
 62
     7
370
    15
100
AcDbLine
 10
176.9093250101
 20
81.6882501407
 30
0.0
 11
176.9093250101
 21
151.5382478995
 31
0.0
  0
SPLINE
  5
C5
330
1F
100
AcDbEntity
  8
0
  6
Continuous
 62
     7
370
    15
100
AcDbSpline
210
0.0
220
0.0
230
1.0
 70
     8
 71
     3
 72
    10
 73
     6
 74
     0
 42
0.000000001
 43
0.00000001
 40
0.0
 40
0.0
 40
0.0
 40
0.0
 40
0.5
 40
0.5
 40
1.0
 40
1.0
 40
1.0
 40
1.0
 10
180.3991939290874
 20
163.3234133458149
 30
0.0
 10
180.3227408391685
 20
163.2531505745943
 30
0.0
 10
180.2538791168995
 20
163.1660556595525
 30
0.0
 10
180.1473668858266
 20
162.9568865313003
 30
0.0
 10
180.109325010141
 20
162.8315689820607
 30
0.0
 10
180.109325010141
 20
162.7022186874648
 30
0.0
  0
SPLINE
  5
C6
330
1F
100
AcDbEntity
  8
0
  6
Continuous
 62
     7
370
    15
100
AcDbSpline
210
0.0
220
0.0
230
1.0
 70
     8
 71
     3
 72
     8
 73
     4
 74
     0
 42
0.000000001
 43
0.00000001
 40
0.0
 40
0.0
 40
0.0
 40
0.0
 40
1.0
 40
1.0
 40
1.0
 40
1.0
 10
180.709325010141
 20
163.3930936748676
 30
0.0
 10
180.5982468248036
 20
163.3930936748676
 30
0.0
 10
180.4905828209013
 20
163.3679444993131
 30
0.0
 10
180.3991939290874
 20
163.3234133458149
 30
0.0
  0
SPLINE
  5
C7
330
1F
100
AcDbEntity
  8
0
  6
Continuous
 62
     7
370
    15
100
AcDbSpline
210
0.0
220
0.0
230
1.0
 70
     8
 71
     3
 72
    12
 73
     8
 74
     0
 42
0.000000001
 43
0.00000001
 40
0.0
 40
0.0
 40
0.0
 40
0.0
 40
0.5
 40
0.5
 40
0.75
 40
0.75
 40
1.0
 40
1.0
 40
1.0
 40
1.0
 10
180.109325010141
 20
154.3623301347364
 30
0.0
 10
180.109325010141
 20
154.5406904019758
 30
0.0
 10
180.156637131517
 20
154.7194628136797
 30
0.0
 10
180.3109972093984
 20
154.9412246790314
 30
0.0
 10
180.3758827443174
 20
155.0055167176479
 30
0.0
 10
180.5311154435457
 20
155.0981612018075
 30
0.0
 10
180.6201908562139
 20
155.1243269717673
 30
0.0
 10
180.709325010141
 20
155.1243269717673
 30
0.0
  0
LINE
  5
C8
330
1F
100
AcDbEntity
  8
0
  6
Continuous
 62
     7
370
    15
100
AcDbLine
 10
180.1093249293
 20
154.3623308701
 30
0.0
 11
180.1093249293
 21
162.7022202177
 31
0.0
  0
LINE
  5
C9
330
1F
100
AcDbEntity
  8
0
  6
Continuous
 62
     7
370
    15
100
AcDbLine
 10
189.1193253165
 20
160.2610151334
 30
0.0
 11
186.8993251761
 21
160.2610151334
 31
0.0
  0
LINE
  5
CA
330
1F
100
AcDbEntity
  8
0
  6
Continuous
 62
     7
370
    15
100
AcDbLine
 10
186.8993251761
 20
150.9531314535
 30
0.0
 11
189.1193253165
 21
150.9531314535
 31
0.0
  0
LINE
  5
CB
330
1F
100
AcDbEntity
  8
0
  6
Continuous
 62
     7
370
    15
100
AcDbLine
 10
180.7093250742
 20
155.1243278248
 30
0.0
 11
184.7761639571
 21
155.1243278248
 31
0.0
  0
SPLINE
  5
CC
330
1F
100
AcDbEntity
  8
0
  6
Continuous
 62
     7
370
    15
100
AcDbSpline
210
0.0
220
0.0
230
1.0
 70
     8
 71
     3
 72
     8
 73
     4
 74
     0
 42
0.000000001
 43
0.00000001
 40
0.0
 40
0.0
 40
0.0
 40
0.0
 40
1.0
 40
1.0
 40
1.0
 40
1.0
 10
184.7761635026791
 20
155.1243269717672
 30
0.0
 10
185.2230122306068
 20
154.145091073511
 30
0.0
 10
185.6643785885027
 20
153.1638890807841
 30
0.0
 10
186.099325010141
 20
152.1803847624017
 30
0.0
  0
LINE
  5
CD
330
1F
100
AcDbEntity
  8
0
  6
Continuous
 62
     7
370
    15
100
AcDbLine
 10
186.0993246725
 20
152.1803836389
 30
0.0
 11
186.0993246725
 21
152.0062933726
 31
0.0
  0
SPLINE
  5
CE
330
1F
100
AcDbEntity
  8
0
  6
Continuous
 62
     7
370
    15
100
AcDbSpline
210
0.0
220
0.0
230
1.0
 70
     8
 71
     3
 72
    12
 73
     8
 74
     0
 42
0.000000001
 43
0.00000001
 40
0.0
 40
0.0
 40
0.0
 40
0.0
 40
0.499999999999994
 40
0.499999999999994
 40
0.749999999999997
 40
0.749999999999997
 40
1.0
 40
1.0
 40
1.0
 40
1.0
 10
186.099325010141
 20
152.0062921218091
 30
0.0
 10
186.099325010141
 20
151.7638690258284
 30
0.0
 10
186.1622461515828
 20
151.518098505227
 30
0.0
 10
186.3642750485853
 20
151.2131523258101
 30
0.0
 10
186.4505687732325
 20
151.1225594592117
 30
0.0
 10
186.6560425677992
 20
150.9921258962749
 30
0.0
 10
186.7759931283989
 20
150.9531310816252
 30
0.0
 10
186.899325010141
 20
150.9531310816251
 30
0.0
  0
SPLINE
  5
CF
330
1F
100
AcDbEntity
  8
0
  6
Continuous
 62
     7
370
    15
100
AcDbSpline
210
0.0
220
0.0
230
1.0
 70
     8
 71
     3
 72
    14
 73
    10
 74
     0
 42
0.000000001
 43
0.00000001
 40
0.0
 40
0.0
 40
0.0
 40
0.0
 40
0.25
 40
0.25
 40
0.5
 40
0.5
 40
0.75
 40
0.75
 40
1.0
 40
1.0
 40
1.0
 40
1.0
 10
189.119325010141
 20
150.9531310816251
 30
0.0
 10
189.2406515401268
 20
150.9531310816251
 30
0.0
 10
189.362356248689
 20
150.9919125970583
 30
0.0
 10
189.5687961275751
 20
151.1230672187522
 30
0.0
 10
189.6547466660312
 20
151.2137193033394
 30
0.0
 10
189.7886584257795
 20
151.4158363382806
 30
0.0
 10
189.8382228625986
 20
151.5295712818198
 30
0.0
 10
189.9030768905666
 20
151.7625308988863
 30
0.0
 10
189.919325010141
 20
151.8852291652155
 30
0.0
 10
189.919325010141
 20
152.0062921218091
 30
0.0
  0
LINE
  5
D0
330
1F
100
AcDbEntity
  8
0
  6
Continuous
 62
     7
370
    15
100
AcDbLine
 10
189.9193248888
 20
152.0062933726
 30
0.0
 11
189.9193248888
 21
152.1803836389
 31
0.0
  0
SPLINE
  5
D1
330
1F
100
AcDbEntity
  8
0
  6
Continuous
 62
     7
370
    15
100
AcDbSpline
210
0.0
220
0.0
230
1.0
 70
     8
 71
     3
 72
     8
 73
     4
 74
     0
 42
0.000000001
 43
0.00000001
 40
0.0
 40
0.0
 40
0.0
 40
0.0
 40
1.0
 40
1.0
 40
1.0
 40
1.0
 10
189.9193250101411
 20
152.1803847624017
 30
0.0
 10
190.3542714317794
 20
153.1638890807841
 30
0.0
 10
190.7956377896753
 20
154.145091073511
 30
0.0
 10
191.2424865176029
 20
155.1243269717672
 30
0.0
  0
LINE
  5
D2
330
1F
100
AcDbEntity
  8
0
  6
Continuous
 62
     7
370
    15
100
AcDbLine
 10
191.2424865356
 20
155.1243278248
 30
0.0
 11
195.3593244022
 21
155.1243278248
 31
0.0
  0
SPLINE
  5
D3
330
1F
100
AcDbEntity
  8
0
  6
Continuous
 62
     7
370
    15
100
AcDbSpline
210
0.0
220
0.0
230
1.0
 70
     8
 71
     3
 72
    12
 73
     8
 74
     0
 42
0.000000001
 43
0.00000001
 40
0.0
 40
0.0
 40
0.0
 40
0.0
 40
0.2499999999999946
 40
0.2499999999999946
 40
0.4999999999999892
 40
0.4999999999999892
 40
1.0
 40
1.0
 40
1.0
 40
1.0
 10
195.3593250101415
 20
155.1243269717673
 30
0.0
 10
195.4488620683126
 20
155.1243269717672
 30
0.0
 10
195.5387612471013
 20
155.0974996729362
 30
0.0
 10
195.6921861061006
 20
155.0057927076767
 30
0.0
 10
195.7572351634783
 20
154.9415377660778
 30
0.0
 10
195.9105543947425
 20
154.7221256200162
 30
0.0
 10
195.959325010141
 20
154.5403103102194
 30
0.0
 10
195.959325010141
 20
154.3623301347364
 30
0.0
  0
LINE
  5
D4
330
1F
100
AcDbEntity
  8
0
  6
Continuous
 62
     7
370
    15
100
AcDbLine
 10
180.1093249293
 20
154.3623308701
 30
0.0
 11
180.1093249293
 21
146.4632495357
 31
0.0
  0
LINE
  5
D5
330
1F
100
AcDbEntity
  8
0
  6
Continuous
 62
     7
370
    15
100
AcDbLine
 10
195.9593252456
 20
154.3623308701
 30
0.0
 11
195.9593252456
 21
146.4632495357
 31
0.0
  0
SPLINE
  5
D6
330
1F
100
AcDbEntity
  8
0
  6
Continuous
 62
     7
370
    15
100
AcDbSpline
210
0.0
220
0.0
230
1.0
 70
     8
 71
     3
 72
    12
 73
     8
 74
     0
 42
0.000000001
 43
0.00000001
 40
0.0
 40
0.0
 40
0.0
 40
0.0
 40
0.2500000000000007
 40
0.2500000000000007
 40
0.5000000000000014
 40
0.5000000000000014
 40
1.0
 40
1.0
 40
1.0
 40
1.0
 10
186.899325010141
 20
160.2610152859619
 30
0.0
 10
186.7929800302651
 20
160.2610152859619
 30
0.0
 10
186.6857036828625
 20
160.2837305238214
 30
0.0
 10
186.4903278934664
 20
160.3697556907038
 30
0.0
 10
186.4017741573895
 20
160.4327344176321
 30
0.0
 10
186.1805162332582
 20
160.6679259280692
 30
0.0
 10
186.0993250101411
 20
160.8811021425545
 30
0.0
 10
186.099325010141
 20
161.0943405084986
 30
0.0
  0
SPLINE
  5
D7
330
1F
100
AcDbEntity
  8
0
  6
Continuous
 62
     7
370
    15
100
AcDbSpline
210
0.0
220
0.0
230
1.0
 70
     8
 71
     3
 72
    14
 73
    10
 74
     0
 42
0.000000001
 43
0.00000001
 40
0.0
 40
0.0
 40
0.0
 40
0.0
 40
0.25
 40
0.25
 40
0.5
 40
0.5
 40
0.75
 40
0.75
 40
1.0
 40
1.0
 40
1.0
 40
1.0
 10
189.919325010141
 20
161.0943405084987
 30
0.0
 10
189.919325010141
 20
160.9869981363512
 30
0.0
 10
189.8993288180768
 20
160.8803691295034
 30
0.0
 10
189.8216307337322
 20
160.6812173503522
 30
0.0
 10
189.7636375888386
 20
160.5887344520368
 30
0.0
 10
189.6175910960158
 20
160.4334986169276
 30
0.0
 10
189.5282533568481
 20
160.3697646753152
 30
0.0
 10
189.3334983447877
 20
160.28393440892
 30
0.0
 10
189.2259680735788
 20
160.2610152859616
 30
0.0
 10
189.1193250101389
 20
160.2610152859619
 30
0.0
  0
SPLINE
  5
D8
330
1F
100
AcDbEntity
  8
0
  6
Continuous
 62
     7
370
    15
100
AcDbSpline
210
0.0
220
0.0
230
1.0
 70
     8
 71
     3
 72
     8
 73
     4
 74
     0
 42
0.000000001
 43
0.00000001
 40
0.0
 40
0.0
 40
0.0
 40
0.0
 40
0.0012352705496723
 40
0.0012352705496723
 40
0.0012352705496723
 40
0.0012352705496723
 10
185.3326539879737
 20
162.6132822647612
 30
0.0
 10
185.1476187371717
 20
162.8733838404895
 30
0.0
 10
184.962111928001
 20
163.1333179191163
 30
0.0
 10
184.7761635026791
 20
163.3930936748676
 30
0.0
  0
SPLINE
  5
D9
330
1F
100
AcDbEntity
  8
0
  6
Continuous
 62
     7
370
    15
100
AcDbSpline
210
0.0
220
0.0
230
1.0
 70
     8
 71
     3
 72
     8
 73
     4
 74
     0
 42
0.000000001
 43
0.00000001
 40
0.0
 40
0.0
 40
0.0
 40
0.0
 40
1.0
 40
1.0
 40
1.0
 40
1.0
 10
186.099325010141
 20
161.2329884289219
 30
0.0
 10
185.8439936968357
 20
161.6932094491875
 30
0.0
 10
185.5884302987294
 20
162.1533039094958
 30
0.0
 10
185.3326539879737
 20
162.6132822647612
 30
0.0
  0
LINE
  5
DA
330
1F
100
AcDbEntity
  8
0
  6
Continuous
 62
     7
370
    15
100
AcDbLine
 10
184.7761639571
 20
155.1243278248
 30
0.0
 11
184.7761639571
 21
163.39309393
 31
0.0
  0
LINE
  5
DB
330
1F
100
AcDbEntity
  8
0
  6
Continuous
 62
     7
370
    15
100
AcDbLine
 10
186.0993246725
 20
152.1803836389
 30
0.0
 11
186.0993246725
 21
161.2329880757
 31
0.0
  0
LINE
  5
DC
330
1F
100
AcDbEntity
  8
0
  6
Continuous
 62
     7
370
    15
100
AcDbLine
 10
184.7761639571
 20
163.39309393
 30
0.0
 11
180.7093250742
 21
163.39309393
 31
0.0
  0
SPLINE
  5
DD
330
1F
100
AcDbEntity
  8
0
  6
Continuous
 62
     7
370
    15
100
AcDbSpline
210
0.0
220
0.0
230
1.0
 70
     8
 71
     3
 72
    12
 73
     8
 74
     0
 42
0.000000001
 43
0.00000001
 40
0.0
 40
0.0
 40
0.0
 40
0.0
 40
0.4999999999999977
 40
0.4999999999999977
 40
0.7499999999999988
 40
0.7499999999999988
 40
1.0
 40
1.0
 40
1.0
 40
1.0
 10
195.959325010141
 20
162.9082359733225
 30
0.0
 10
195.959325010141
 20
163.0284285799877
 30
0.0
 10
195.905356579872
 20
163.1463358805027
 30
0.0
 10
195.7442699389391
 20
163.2857154249861
 30
0.0
 10
195.679507519466
 20
163.32388072255
 30
0.0
 10
195.5274535179015
 20
163.3785329848835
 30
0.0
 10
195.4447237447523
 20
163.3930936748676
 30
0.0
 10
195.359325010141
 20
163.3930936748676
 30
0.0
  0
LINE
  5
DE
330
1F
100
AcDbEntity
  8
0
  6
Continuous
 62
     7
370
    15
100
AcDbLine
 10
195.9593252456
 20
154.3623308701
 30
0.0
 11
195.9593252456
 21
162.9082362218
 31
0.0
  0
LINE
  5
DF
330
1F
100
AcDbEntity
  8
0
  6
Continuous
 62
     7
370
    15
100
AcDbLine
 10
195.3593244022
 20
163.39309393
 30
0.0
 11
191.2424865356
 21
163.39309393
 31
0.0
  0
LINE
  5
E0
330
1F
100
AcDbEntity
  8
0
  6
Continuous
 62
     7
370
    15
100
AcDbLine
 10
191.2424865356
 20
155.1243278248
 30
0.0
 11
191.2424865356
 21
163.39309393
 31
0.0
  0
SPLINE
  5
E1
330
1F
100
AcDbEntity
  8
0
  6
Continuous
 62
     7
370
    15
100
AcDbSpline
210
0.0
220
0.0
230
1.0
 70
     8
 71
     3
 72
     8
 73
     4
 74
     0
 42
0.000000001
 43
0.00000001
 40
0.0
 40
0.0
 40
0.0
 40
0.0
 40
1.0
 40
1.0
 40
1.0
 40
1.0
 10
190.6859960323075
 20
162.6132822647595
 30
0.0
 10
190.430219721552
 20
162.1533039094947
 30
0.0
 10
190.1746563234461
 20
161.6932094491869
 30
0.0
 10
189.9193250101411
 20
161.2329884289219
 30
0.0
  0
SPLINE
  5
E2
330
1F
100
AcDbEntity
  8
0
  6
Continuous
 62
     7
370
    15
100
AcDbSpline
210
0.0
220
0.0
230
1.0
 70
     8
 71
     3
 72
     8
 73
     4
 74
     0
 42
0.000000001
 43
0.00000001
 40
0.0
 40
0.0
 40
0.0
 40
0.0
 40
0.0012352705496738
 40
0.0012352705496738
 40
0.0012352705496738
 40
0.0012352705496738
 10
191.2424865176029
 20
163.3930936748676
 30
0.0
 10
191.0565380922808
 20
163.1333179191159
 30
0.0
 10
190.8710312831098
 20
162.8733838404887
 30
0.0
 10
190.6859960323076
 20
162.61328226476
 30
0.0
  0
LINE
  5
E3
330
1F
100
AcDbEntity
  8
0
  6
Continuous
 62
     7
370
    15
100
AcDbLine
 10
189.9193248888
 20
152.1803836389
 30
0.0
 11
189.9193248888
 21
161.2329880757
 31
0.0
  0
SPLINE
  5
E4
330
1F
100
AcDbEntity
  8
0
  6
Continuous
 62
     7
370
    15
100
AcDbSpline
210
0.0
220
0.0
230
1.0
 70
     8
 71
     3
 72
    23
 73
    19
 74
     0
 42
0.000000001
 43
0.00000001
 40
0.0
 40
0.0
 40
0.0
 40
0.0
 40
0.0521421399396259
 40
0.1381329735269141
 40
0.2291164373519645
 40
0.3313382946427749
 40
0.3878767932537705
 40
0.4458750201541668
 40
0.5057317309164446
 40
0.5672821419980973
 40
0.6278284927736565
 40
0.690178468642766
 40
0.749740564460199
 40
0.8113081855045765
 40
0.8662114187362491
 40
0.9232403327308445
 40
0.9706132727914794
 40
1.0
 40
1.0
 40
1.0
 40
1.0
 10
216.0249439245068
 20
141.5943863851948
 30
0.0
 10
216.0360934525677
 20
141.5968259030478
 30
0.0
 10
216.065630358154
 20
141.6032885809392
 30
0.0
 10
215.3972931533899
 20
141.4558978534217
 30
0.0
 10
214.1677916798875
 20
141.2195245940273
 30
0.0
 10
212.6687793075035
 20
140.9990340669248
 30
0.0
 10
211.2255194082014
 20
140.8605091080931
 30
0.0
 10
210.002135971085
 20
140.7893241853149
 30
0.0
 10
208.7134921586385
 20
140.7675760668195
 30
0.0
 10
207.4099266824259
 20
140.8018177509444
 30
0.0
 10
206.1298440677806
 20
140.8896830175554
 30
0.0
 10
204.9407181462752
 20
141.0189737146059
 30
0.0
 10
203.860545349047
 20
141.1748786619432
 30
0.0
 10
202.9723934889252
 20
141.3301587394006
 30
0.0
 10
202.2758643226887
 20
141.4681310903741
 30
0.0
 10
201.8408048411748
 20
141.5614772846075
 30
0.0
 10
201.624247751607
 20
141.6098840155131
 30
0.0
 10
201.630679382781
 20
141.6084518806154
 30
0.0
 10
201.6331416731678
 20
141.6079036010428
 30
0.0
  0
SPLINE
  5
E5
330
1F
100
AcDbEntity
  8
0
  6
Continuous
 62
     7
370
    15
100
AcDbSpline
210
0.0
220
0.0
230
1.0
 70
    11
 71
     3
 72
    95
 73
    91
 74
     0
 42
0.000000001
 43
0.00000001
 40
0.0
 40
0.0
 40
0.0
 40
0.0
 40
0.0312500000000006
 40
0.0312500000000006
 40
0.0468750000000008
 40
0.0468750000000008
 40
0.0625000000000011
 40
0.0625000000000011
 40
0.0937500000000015
 40
0.0937500000000015
 40
0.1093750000000016
 40
0.1093750000000016
 40
0.1250000000000019
 40
0.1250000000000019
 40
0.1562500000000026
 40
0.1562500000000026
 40
0.171875000000003
 40
0.171875000000003
 40
0.1875000000000033
 40
0.1875000000000033
 40
0.2187500000000035
 40
0.2187500000000035
 40
0.2343750000000039
 40
0.2343750000000039
 40
0.2500000000000042
 40
0.2500000000000042
 40
0.2812500000000046
 40
0.2812500000000046
 40
0.2968750000000049
 40
0.2968750000000049
 40
0.3125000000000052
 40
0.3125000000000052
 40
0.3437500000000056
 40
0.3437500000000056
 40
0.3593750000000057
 40
0.3593750000000057
 40
0.3750000000000058
 40
0.390625000000006
 40
0.390625000000006
 40
0.4062500000000061
 40
0.4062500000000061
 40
0.4375000000000062
 40
0.4375000000000062
 40
0.4531250000000063
 40
0.4531250000000063
 40
0.4687500000000064
 40
0.4687500000000064
 40
0.5000000000000062
 40
0.5000000000000062
 40
0.5312500000000062
 40
0.5312500000000062
 40
0.5468750000000059
 40
0.5468750000000059
 40
0.5625000000000057
 40
0.5625000000000057
 40
0.5937500000000051
 40
0.5937500000000051
 40
0.6250000000000044
 40
0.6250000000000044
 40
0.6562500000000039
 40
0.6562500000000039
 40
0.6875000000000033
 40
0.6875000000000033
 40
0.7187500000000027
 40
0.7187500000000027
 40
0.7500000000000021
 40
0.7500000000000021
 40
0.765625000000002
 40
0.765625000000002
 40
0.7812500000000019
 40
0.7812500000000019
 40
0.8125000000000014
 40
0.8125000000000014
 40
0.8281250000000013
 40
0.8281250000000013
 40
0.8437500000000012
 40
0.8437500000000012
 40
0.8750000000000009
 40
0.8750000000000009
 40
0.8906250000000008
 40
0.8906250000000008
 40
0.9062500000000007
 40
0.9062500000000007
 40
0.9218750000000006
 40
0.9218750000000006
 40
0.9375000000000004
 40
0.9375000000000004
 40
0.9687500000000002
 40
0.9687500000000002
 40
1.0
 40
1.0
 40
1.0
 40
1.0
 10
204.0095948164413
 20
121.3701885887916
 30
0.0
 10
204.3607365795212
 20
121.6505730430541
 30
0.0
 10
204.7327852532381
 20
121.8935492779149
 30
0.0
 10
205.3196312531898
 20
122.2074164329385
 30
0.0
 10
205.5200836427564
 20
122.3035294038736
 30
0.0
 10
205.9306712648186
 20
122.4788519700455
 30
0.0
 10
206.1417941985499
 20
122.5583664389426
 30
0.0
 10
206.7823190798341
 20
122.7685657051696
 30
0.0
 10
207.2166257702141
 20
122.8708843623328
 30
0.0
 10
207.8786254307884
 20
122.9702123997634
 30
0.0
 10
208.1010597649282
 20
122.9942350344448
 30
0.0
 10
208.5495273943095
 20
123.0238234720162
 30
0.0
 10
208.7763833424773
 20
123.0293092911338
 30
0.0
 10
209.4503704534817
 20
123.0175374335712
 30
0.0
 10
209.8941809429096
 20
122.9727613221146
 30
0.0
 10
210.5517674635447
 20
122.8509228586157
 30
0.0
 10
210.7696003146828
 20
122.801141635841
 30
0.0
 10
211.2024653583596
 20
122.6826479187552
 30
0.0
 10
211.4179658004243
 20
122.6136622841972
 30
0.0
 10
212.0476269259294
 20
122.3817744541578
 30
0.0
 10
212.4491972360117
 20
122.193266676068
 30
0.0
 10
213.0240067309922
 20
121.8583940818359
 30
0.0
 10
213.2109891513537
 20
121.7380269531666
 30
0.0
 10
213.5752598457785
 20
121.4787913586681
 30
0.0
 10
213.752596342936
 20
121.3396853966655
 30
0.0
 10
214.2575671511165
 20
120.9030174338802
 30
0.0
 10
214.5626849914011
 20
120.5835352470382
 30
0.0
 10
214.970491150912
 20
120.0587083873894
 30
0.0
 10
215.0980536709201
 20
119.8761102202396
 30
0.0
 10
215.3350847442082
 20
119.4942521946881
 30
0.0
 10
215.4433847959083
 20
119.296581987287
 30
0.0
 10
215.7316350993028
 20
118.693616386566
 30
0.0
 10
215.8779294702294
 20
118.2744511514238
 30
0.0
 10
216.0234773768246
 20
117.6177968693112
 30
0.0
 10
216.0596326527401
 20
117.3925465539977
 30
0.0
 10
216.10407161185
 20
116.9443327056637
 30
0.0
 10
216.1214098101975
 20
116.4968339283783
 30
0.0
 10
216.0856146246754
 20
116.0507377609735
 30
0.0
 10
216.0229294886123
 20
115.6053507556591
 30
0.0
 10
215.9777047577427
 20
115.3818864907598
 30
0.0
 10
215.8052020708741
 20
114.7295696132677
 30
0.0
 10
215.6413727455259
 20
114.3138080700408
 30
0.0
 10
215.3264300280837
 20
113.7170181572521
 30
0.0
 10
215.2100205313917
 20
113.5233144138926
 30
0.0
 10
214.9598617263124
 20
113.1529214968317
 30
0.0
 10
214.8255577030851
 20
112.9751403469121
 30
0.0
 10
214.3961695875005
 20
112.4629235385897
 30
0.0
 10
214.0714148301184
 20
112.1471903115557
 30
0.0
 10
213.37589513314
 20
111.5888073357074
 30
0.0
 10
213.0042296480881
 20
111.3439285103632
 30
0.0
 10
212.4120675154847
 20
111.0255137725682
 30
0.0
 10
212.208345746621
 20
110.9274674664259
 30
0.0
 10
211.7965835033397
 20
110.7510114335612
 30
0.0
 10
211.5877178193757
 20
110.6721040517056
 30
0.0
 10
210.9524015433543
 20
110.4624257177562
 30
0.0
 10
210.5173027028733
 20
110.3584673255114
 30
0.0
 10
209.6234367199306
 20
110.223239061035
 30
0.0
 10
209.175072330695
 20
110.1937297249603
 30
0.0
 10
208.2819270032272
 20
110.2081297164987
 30
0.0
 10
207.8357248418027
 20
110.2519405045809
 30
0.0
 10
206.9463079332162
 20
110.4161574531201
 30
0.0
 10
206.5153991735841
 20
110.5342236375562
 30
0.0
 10
205.6803439969761
 20
110.8408368811738
 30
0.0
 10
205.2750636033475
 20
111.0299845277227
 30
0.0
 10
204.4979708292692
 20
111.4826595269308
 30
0.0
 10
204.1361590856852
 20
111.740104182314
 30
0.0
 10
203.6337494118011
 20
112.1739779667523
 30
0.0
 10
203.4730454636227
 20
112.326610379197
 30
0.0
 10
203.1658556887098
 20
112.6488460385016
 30
0.0
 10
203.0185762727169
 20
112.8194936123521
 30
0.0
 10
202.6058306478096
 20
113.3515326076402
 30
0.0
 10
202.3716597755376
 20
113.7286035868227
 30
0.0
 10
202.0841796140863
 20
114.3294689497931
 30
0.0
 10
201.9990624768253
 20
114.5356768885975
 30
0.0
 10
201.8517734446509
 20
114.9608343813838
 30
0.0
 10
201.7897550273692
 20
115.1802243452349
 30
0.0
 10
201.6451438194926
 20
115.8380479029171
 30
0.0
 10
201.6009814642038
 20
116.2825691068275
 30
0.0
 10
201.6154187319788
 20
116.9585950630563
 30
0.0
 10
201.6341029018812
 20
117.1864274316179
 30
0.0
 10
201.6977603947104
 20
117.6324031205029
 30
0.0
 10
201.742649776571
 20
117.8520554346079
 30
0.0
 10
201.8576583243103
 20
118.2849321675598
 30
0.0
 10
201.9277796023957
 20
118.4981560189915
 30
0.0
 10
202.0932063719187
 20
118.9182114480212
 30
0.0
 10
202.1882170714356
 20
119.1238816110348
 30
0.0
 10
202.5031083343059
 20
119.7175788495705
 30
0.0
 10
202.7542488966176
 20
120.0870877427011
 30
0.0
 10
203.334790105271
 20
120.776863040212
 30
0.0
 10
203.6584530533613
 20
121.0898041345292
 30
0.0
 10
204.0095948164413
 20
121.3701885887916
 30
0.0
  0
LINE
  5
E6
330
1F
100
AcDbEntity
  8
0
  6
Continuous
 62
     7
370
    15
100
AcDbLine
 10
222.4093240863
 20
116.6132490201
 30
0.0
 11
222.4093240863
 21
91.6132486476
 31
0.0
  0
LINE
  5
E7
330
1F
100
AcDbEntity
  8
0
  6
Continuous
 62
     7
370
    15
100
AcDbLine
 10
222.4093240863
 20
141.6132493926
 30
0.0
 11
222.4093240863
 21
116.6132490201
 31
0.0
  0
CIRCLE
  5
E8
330
1F
100
AcDbEntity
  8
0
  6
Continuous
 62
     7
370
    15
100
AcDbCircle
 10
208.8593250101
 20
116.6132490201
 30
0.0
 40
5.500000000000028
  0
LINE
  5
E9
330
1F
100
AcDbEntity
  8
0
  6
Continuous
 62
     7
370
    15
100
AcDbLine
 10
222.9093250995
 20
116.6132490201
 30
0.0
 11
222.9093250995
 21
92.1132496608
 31
0.0
  0
LINE
  5
EA
330
1F
100
AcDbEntity
  8
0
  6
Continuous
 62
     7
370
    15
100
AcDbLine
 10
222.9093250995
 20
141.1132483793
 30
0.0
 11
222.9093250995
 21
116.6132490201
 31
0.0
  0
LINE
  5
EB
330
1F
100
AcDbEntity
  8
0
  6
Continuous
 62
     7
370
    15
100
AcDbLine
 10
75.309326238
 20
98.2344045354
 30
0.0
 11
75.309326238
 21
134.9920935048
 31
0.0
  0
ARC
  5
EC
330
1F
100
AcDbEntity
  8
0
  6
Continuous
 62
     7
370
    15
100
AcDbCircle
 10
190.9624553167
 20
101.4140946399
 30
0.0
 40
2.356059287371988
100
AcDbArc
 50
185.4017539361
 51
252.5076603369
  0
ARC
  5
ED
330
1F
100
AcDbEntity
  8
0
  6
Continuous
 62
     7
370
    15
100
AcDbCircle
 10
191.1211568825
 20
101.5420684598
 30
0.0
 40
2.528339291156964
100
AcDbArc
 50
249.9484111729
 51
339.7571495746
  0
ARC
  5
EE
330
1F
100
AcDbEntity
  8
0
  6
Continuous
 62
     7
370
    15
100
AcDbCircle
 10
190.9404667139
 20
101.3304333989
 30
0.0
 40
2.183107218796937
100
AcDbArc
 50
159.3153835038
 51
252.9991548677
  0
ARC
  5
EF
330
1F
100
AcDbEntity
  8
0
  6
Continuous
 62
     7
370
    15
100
AcDbCircle
 10
191.1240632339
 20
101.4666718747
 30
0.0
 40
2.37096192333371
100
AcDbArc
 50
249.7171366798
 51
345.4454345851
  0
ARC
  5
F0
330
1F
100
AcDbEntity
  8
0
  6
Continuous
 62
     7
370
    15
100
AcDbCircle
 10
190.9548232048
 20
101.3196505355
 30
0.0
 40
1.837014598414578
100
AcDbArc
 50
124.7922920042
 51
253.2461581738
  0
ARC
  5
F1
330
1F
100
AcDbEntity
  8
0
  6
Continuous
 62
     7
370
    15
100
AcDbCircle
 10
191.1298389258
 20
101.4124589015
 30
0.0
 40
1.981345107956124
100
AcDbArc
 50
249.1701466721
 51
357.5180965593
  0
CIRCLE
  5
F2
330
1F
100
AcDbEntity
  8
0
  6
HIDDEN
 62
     7
370
     0
100
AcDbCircle
 10
208.8593250101
 20
116.6132490201
 30
0.0
 40
6.000000000000017
  0
LINE
  5
F3
330
1F
100
AcDbEntity
  8
0
  6
HIDDEN
 62
     7
370
     0
100
AcDbLine
 10
205.1072337842
 20
140.9132487191
 30
0.0
 11
205.9439656502
 21
140.9132487191
 31
0.0
  0
LINE
  5
F4
330
1F
100
AcDbEntity
  8
0
  6
HIDDEN
 62
     7
370
     0
100
AcDbLine
 10
211.7398877805
 20
140.9132487191
 30
0.0
 11
214.8593266672
 21
140.9132487191
 31
0.0
  0
LINE
  5
F5
330
1F
100
AcDbEntity
  8
0
  6
HIDDEN
 62
     7
370
     0
100
AcDbLine
 10
202.8593247002
 20
140.9132487191
 30
0.0
 11
205.1072337842
 21
140.9132487191
 31
0.0
  0
LINE
  5
F6
330
1F
100
AcDbEntity
  8
0
  6
HIDDEN
 62
     7
370
     0
100
AcDbLine
 10
205.1072337842
 20
133.5103630139
 30
0.0
 11
214.8593266672
 21
133.5103630139
 31
0.0
  0
LINE
  5
F7
330
1F
100
AcDbEntity
  8
0
  6
HIDDEN
 62
     7
370
     0
100
AcDbLine
 10
202.8593247002
 20
133.5103630139
 30
0.0
 11
205.1072337842
 21
133.5103630139
 31
0.0
  0
LINE
  5
F8
330
1F
100
AcDbEntity
  8
0
  6
HIDDEN
 62
     7
370
     0
100
AcDbLine
 10
206.6582230097
 20
125.113249482
 30
0.0
 11
212.379125244
 21
125.113249482
 31
0.0
  0
LINE
  5
F9
330
1F
100
AcDbEntity
  8
0
  6
HIDDEN
 62
     7
370
     0
100
AcDbLine
 10
205.3395223981
 20
125.113249482
 30
0.0
 11
206.6582230097
 21
125.113249482
 31
0.0
  0
SPLINE
  5
FA
330
1F
100
AcDbEntity
  8
0
  6
HIDDEN
 62
     7
370
     0
100
AcDbSpline
210
0.0
220
0.0
230
1.0
 70
     8
 71
     3
 72
    11
 73
     7
 74
     0
 42
0.000000001
 43
0.00000001
 40
0.0
 40
0.0
 40
0.0
 40
0.0
 40
0.2164548521125096
 40
0.4403107640506159
 40
0.7519007078807013
 40
1.0
 40
1.0
 40
1.0
 40
1.0
 10
208.334879315456
 20
141.4773508025332
 30
0.0
 10
208.5559753205165
 20
141.3686927590084
 30
0.0
 10
209.0057270815262
 20
141.1476614183028
 30
0.0
 10
209.840347951905
 20
140.9634308209385
 30
0.0
 10
210.7356295498457
 20
141.0745079021388
 30
0.0
 10
211.3085559264311
 20
141.3536240659551
 30
0.0
 10
211.5625229841076
 20
141.4773508025332
 30
0.0
  0
SPLINE
  5
FB
330
1F
100
AcDbEntity
  8
0
  6
HIDDEN
 62
     7
370
     0
100
AcDbSpline
210
0.0
220
0.0
230
1.0
 70
     8
 71
     3
 72
    11
 73
     7
 74
     0
 42
0.000000001
 43
0.00000001
 40
0.0
 40
0.0
 40
0.0
 40
0.0
 40
0.2164552234279857
 40
0.4403112254209477
 40
0.7519005215120664
 40
1.0
 40
1.0
 40
1.0
 40
1.0
 10
211.5625229841076
 20
141.4773508025332
 30
0.0
 10
211.5984466878448
 20
141.3686927865744
 30
0.0
 10
211.6715223557065
 20
141.1476616495062
 30
0.0
 10
211.807140359654
 20
140.9634307962472
 30
0.0
 10
211.9526077175285
 20
141.0745083766903
 30
0.0
 10
212.0457022858689
 20
141.3536240766431
 30
0.0
 10
212.0869693523251
 20
141.4773508025332
 30
0.0
  0
SPLINE
  5
FC
330
1F
100
AcDbEntity
  8
0
  6
HIDDEN
 62
     7
370
     0
100
AcDbSpline
210
0.0
220
0.0
230
1.0
 70
     8
 71
     3
 72
    11
 73
     7
 74
     0
 42
0.000000001
 43
0.00000001
 40
0.0
 40
0.0
 40
0.0
 40
0.0
 40
0.1849312330242593
 40
0.5198466777147479
 40
0.8714439765687151
 40
1.0
 40
1.0
 40
1.0
 40
1.0
 10
212.0869693523251
 20
141.4773508025332
 30
0.0
 10
211.9296291447667
 20
141.3837453165616
 30
0.0
 10
211.4873415828843
 20
141.120617773948
 30
0.0
 10
210.661732451049
 20
140.9262110668257
 30
0.0
 10
209.8992460492289
 20
141.1642701066005
 30
0.0
 10
209.4926372890461
 20
141.4112299033464
 30
0.0
 10
209.383772051891
 20
141.4773508025332
 30
0.0
  0
SPLINE
  5
FD
330
1F
100
AcDbEntity
  8
0
  6
HIDDEN
 62
     7
370
     0
100
AcDbSpline
210
0.0
220
0.0
230
1.0
 70
     8
 71
     3
 72
    11
 73
     7
 74
     0
 42
0.000000001
 43
0.00000001
 40
0.0
 40
0.0
 40
0.0
 40
0.0
 40
0.216455753869201
 40
0.4403112078583672
 40
0.7519006927884043
 40
0.9999999999999999
 40
0.9999999999999999
 40
0.9999999999999999
 40
0.9999999999999999
 10
209.383772051891
 20
141.4773508025332
 30
0.0
 10
209.1626747167306
 20
141.3686928383645
 30
0.0
 10
208.7129216703987
 20
141.1476623571169
 30
0.0
 10
207.878301756367
 20
140.9634305142056
 30
0.0
 10
206.9830213295486
 20
141.0745082363929
 30
0.0
 10
206.4100954412856
 20
141.3536240954243
 30
0.0
 10
206.1561283832394
 20
141.4773508025332
 30
0.0
  0
SPLINE
  5
FE
330
1F
100
AcDbEntity
  8
0
  6
HIDDEN
 62
     7
370
     0
100
AcDbSpline
210
0.0
220
0.0
230
1.0
 70
     8
 71
     3
 72
    11
 73
     7
 74
     0
 42
0.000000001
 43
0.00000001
 40
0.0
 40
0.0
 40
0.0
 40
0.0
 40
0.216455368849039
 40
0.4403112952935158
 40
0.7519005928805497
 40
1.0
 40
1.0
 40
1.0
 40
1.0
 10
206.1561283832394
 20
141.4773508025332
 30
0.0
 10
206.1202029239344
 20
141.3686927978405
 30
0.0
 10
206.0471237224126
 20
141.1476617971095
 30
0.0
 10
205.9115105958237
 20
140.9634307513011
 30
0.0
 10
205.7660408734004
 20
141.0745083385796
 30
0.0
 10
205.6729482240895
 20
141.3536240788958
 30
0.0
 10
205.631682015022
 20
141.4773508025332
 30
0.0
  0
SPLINE
  5
FF
330
1F
100
AcDbEntity
  8
0
  6
HIDDEN
 62
     7
370
     0
100
AcDbSpline
210
0.0
220
0.0
230
1.0
 70
     8
 71
     3
 72
    11
 73
     7
 74
     0
 42
0.000000001
 43
0.00000001
 40
0.0
 40
0.0
 40
0.0
 40
0.0
 40
0.1285560201277437
 40
0.4801532902266696
 40
0.8150691238334115
 40
0.9999999999999999
 40
0.9999999999999999
 40
0.9999999999999999
 40
0.9999999999999999
 10
205.6316820150219
 20
141.4773508025332
 30
0.0
 10
205.7405472592459
 20
141.4112298990992
 30
0.0
 10
206.147156029131
 20
141.1642700966327
 30
0.0
 10
206.9096423240541
 20
140.9262112138708
 30
0.0
 10
207.7352533656682
 20
141.1206171821294
 30
0.0
 10
208.1775398164727
 20
141.3837452987609
 30
0.0
 10
208.334879315456
 20
141.4773508025332
 30
0.0
  0
LINE
  5
100
330
1F
100
AcDbEntity
  8
0
  6
HIDDEN
 62
     7
370
     0
100
AcDbLine
 10
206.9832806652
 20
133.613249944
 30
0.0
 11
211.8593243128
 21
133.613249944
 31
0.0
  0
LINE
  5
101
330
1F
100
AcDbEntity
  8
0
  6
HIDDEN
 62
     7
370
     0
100
AcDbLine
 10
205.8593251919
 20
133.613249944
 30
0.0
 11
206.9832806652
 21
133.613249944
 31
0.0
  0
LINE
  5
102
330
1F
100
AcDbEntity
  8
0
  6
HIDDEN
 62
     7
370
     0
100
AcDbLine
 10
209.9487011498
 20
134.6132482452
 30
0.0
 11
208.3348793155
 21
134.6132482452
 31
0.0
  0
LINE
  5
103
330
1F
100
AcDbEntity
  8
0
  6
HIDDEN
 62
     7
370
     0
100
AcDbLine
 10
208.3348793155
 20
134.6132482452
 30
0.0
 11
206.9832806652
 21
134.6132482452
 31
0.0
  0
LINE
  5
104
330
1F
100
AcDbEntity
  8
0
  6
HIDDEN
 62
     7
370
     0
100
AcDbLine
 10
208.3348793155
 20
134.6132482452
 30
0.0
 11
208.3348793155
 21
141.4773508025
 31
0.0
  0
LINE
  5
105
330
1F
100
AcDbEntity
  8
0
  6
HIDDEN
 62
     7
370
     0
100
AcDbLine
 10
211.5625229841
 20
134.6132482452
 30
0.0
 11
209.9487011498
 21
134.6132482452
 31
0.0
  0
LINE
  5
106
330
1F
100
AcDbEntity
  8
0
  6
HIDDEN
 62
     7
370
     0
100
AcDbLine
 10
211.8247461682
 20
134.6132482452
 30
0.0
 11
211.5625229841
 21
134.6132482452
 31
0.0
  0
LINE
  5
107
330
1F
100
AcDbEntity
  8
0
  6
HIDDEN
 62
     7
370
     0
100
AcDbLine
 10
211.5625229841
 20
134.6132482452
 30
0.0
 11
211.5625229841
 21
141.4773508025
 31
0.0
  0
LINE
  5
108
330
1F
100
AcDbEntity
  8
0
  6
HIDDEN
 62
     7
370
     0
100
AcDbLine
 10
206.9832806652
 20
134.6132482452
 30
0.0
 11
205.631682015
 21
134.6132482452
 31
0.0
  0
LINE
  5
109
330
1F
100
AcDbEntity
  8
0
  6
HIDDEN
 62
     7
370
     0
100
AcDbLine
 10
206.1561283832
 20
134.6132482452
 30
0.0
 11
206.1561283832
 21
141.4773508025
 31
0.0
  0
LINE
  5
10A
330
1F
100
AcDbEntity
  8
0
  6
HIDDEN
 62
     7
370
     0
100
AcDbLine
 10
205.631682015
 20
134.6132482452
 30
0.0
 11
205.631682015
 21
141.4773508025
 31
0.0
  0
LINE
  5
10B
330
1F
100
AcDbEntity
  8
0
  6
HIDDEN
 62
     7
370
     0
100
AcDbLine
 10
212.0869693523
 20
134.6132482452
 30
0.0
 11
211.8247461682
 21
134.6132482452
 31
0.0
  0
LINE
  5
10C
330
1F
100
AcDbEntity
  8
0
  6
HIDDEN
 62
     7
370
     0
100
AcDbLine
 10
209.3837720519
 20
134.6132482452
 30
0.0
 11
209.3837720519
 21
141.4773508025
 31
0.0
  0
LINE
  5
10D
330
1F
100
AcDbEntity
  8
0
  6
HIDDEN
 62
     7
370
     0
100
AcDbLine
 10
212.0869693523
 20
134.6132482452
 30
0.0
 11
212.0869693523
 21
141.4773508025
 31
0.0
  0
LWPOLYLINE
  5
10E
330
1F
100
AcDbEntity
  8
0
  6
HIDDEN
 62
     7
370
     0
100
AcDbPolyline
 90
       23
 70
   128
 43
0.0
 10
191.1093251025
 20
100.7559324665
 10
191.813656426
 20
100.8510931445
 10
192.460927478
 20
101.1288638277
 10
192.9986992097
 20
101.5667437626
 10
193.3834043508
 20
102.1292570097
 10
193.5838789856
 20
102.7708330242
 10
193.5838789856
 20
103.4394937618
 10
193.3834043508
 20
104.0810697762
 10
192.9986992097
 20
104.6435830234
 10
192.460927478
 20
105.0814629583
 10
191.813656426
 20
105.3592345728
 10
191.1093251025
 20
105.4543952508
 10
190.404993779
 20
105.3592345728
 10
189.757722727
 20
105.0814629583
 10
189.2199509954
 20
104.6435830234
 10
188.8352449229
 20
104.0810697762
 10
188.6347712195
 20
103.4394937618
 10
188.6347712195
 20
102.7708330242
 10
188.8352449229
 20
102.1292570097
 10
189.2199509954
 20
101.5667437626
 10
189.757722727
 20
101.1288638277
 10
190.404993779
 20
100.8510931445
 10
191.1093251025
 20
100.7559324665
  0
LWPOLYLINE
  5
10F
330
1F
100
AcDbEntity
  8
0
  6
HIDDEN
 62
     7
370
     0
100
AcDbPolyline
 90
       25
 70
   128
 43
0.0
 10
180.3810559856
 20
102.7083887769
 10
180.5644909097
 20
101.9470195336
 10
180.8478015652
 20
101.2375352023
 10
181.2116809366
 20
100.6282872571
 10
181.6313311635
 20
100.1607968522
 10
182.0781536577
 20
99.8669180138
 10
182.5216983622
 20
99.7666816277
 10
182.9317378057
 20
99.8669180138
 10
183.2803295171
 20
100.1607968522
 10
183.5437168544
 20
100.6282872571
 10
183.7039509034
 20
101.2375352023
 10
183.7501114411
 20
101.9470195336
 10
183.6790529257
 20
102.7083887769
 10
183.4956177687
 20
103.4697589515
 10
183.2123071132
 20
104.1792423515
 10
182.8484277418
 20
104.7884902967
 10
182.428777515
 20
105.2559816329
 10
181.9819550207
 20
105.54985954
 10
181.5384103162
 20
105.650095926
 10
181.128370407
 20
105.54985954
 10
180.7797791613
 20
105.2559816329
 10
180.5163915912
 20
104.7884902967
 10
180.3561580079
 20
104.1792423515
 10
180.3099974701
 20
103.4697589515
 10
180.3810559856
 20
102.7083887769
  0
LWPOLYLINE
  5
110
330
1F
100
AcDbEntity
  8
0
  6
HIDDEN
 62
     7
370
     0
100
AcDbPolyline
 90
       21
 70
   128
 43
0.0
 10
181.1440878725
 20
102.7726509659
 10
181.3069314873
 20
102.1363248168
 10
181.5668258993
 20
101.5622864528
 10
181.8983306354
 20
101.1067272214
 10
182.2689951574
 20
100.8142407103
 10
182.6425374662
 20
100.7134548439
 10
182.9823915092
 20
100.8142407103
 10
183.2552899783
 20
101.1067272214
 10
183.4345206795
 20
101.5622864528
 10
183.5025384268
 20
102.1363248168
 10
183.4526856607
 20
102.7726509659
 10
183.2898415802
 20
103.408977115
 10
183.0299471682
 20
103.9830145476
 10
182.6984428978
 20
104.438573779
 10
182.32777791
 20
104.7310612215
 10
181.9542360669
 20
104.8318452252
 10
181.6143820239
 20
104.7310612215
 10
181.3414830891
 20
104.438573779
 10
181.162252388
 20
103.9830145476
 10
181.0942346407
 20
103.408977115
 10
181.1440878725
 20
102.7726509659
  0
ELLIPSE
  5
111
330
1F
100
AcDbEntity
  8
0
  6
HIDDEN
 62
     7
370
     0
100
AcDbEllipse
 10
191.1093250101
 20
104.8827389088
 30
0.0
 11
1.760776919379055
 21
2.232245799914452
 31
0.0
210
0.0
220
0.0
230
1.0
 40
0.5126701559
 41
1.100887047646255
 42
4.029627027608242
  0
ARC
  5
112
330
1F
100
AcDbEntity
  8
0
  6
HIDDEN
 62
     7
370
     0
100
AcDbCircle
 10
190.4127255416
 20
106.0602787899
 30
0.0
 40
0.7945949542257933
100
AcDbArc
 50
53.4208190544
 51
99.1663888759
  0
ELLIPSE
  5
113
330
1F
100
AcDbEntity
  8
0
  6
HIDDEN
 62
     7
370
     0
100
AcDbEllipse
 10
191.1093250101
 20
104.8827389088
 30
0.0
 11
1.760776919379026
 21
-1.388886188042946
 31
0.0
210
0.0
220
0.0
230
1.0
 40
0.8239737799
 41
2.549926265248577
 42
4.885930273856131
  0
ARC
  5
114
330
1F
100
AcDbEntity
  8
0
  6
HIDDEN
 62
     7
370
     0
100
AcDbCircle
 10
191.3553777721
 20
104.0432613447
 30
0.0
 40
1.353195702694776
100
AcDbArc
 50
217.8001040701
 51
249.7155767561
  0
LWPOLYLINE
  5
115
330
1F
100
AcDbEntity
  8
0
  6
HIDDEN
 62
     7
370
     0
100
AcDbPolyline
 90
       21
 70
   128
 43
0.0
 10
191.1093251025
 20
101.1816027625
 10
191.758260428
 20
101.2781855701
 10
192.3436739659
 20
101.5584801374
 10
192.8082605069
 20
101.9950487701
 10
193.1065445011
 20
102.5451577319
 10
193.2093252605
 20
103.1549579514
 10
193.1065445011
 20
103.7647572396
 10
192.8082605069
 20
104.3148662014
 10
192.3436739659
 20
104.7514348341
 10
191.758260428
 20
105.0317294015
 10
191.1093251025
 20
105.1283122091
 10
190.4603897771
 20
105.0317294015
 10
189.8749762392
 20
104.7514348341
 10
189.4103896981
 20
104.3148662014
 10
189.1121066352
 20
103.7647572396
 10
189.0093249446
 20
103.1549579514
 10
189.1121066352
 20
102.5451577319
 10
189.4103896981
 20
101.9950487701
 10
189.8749762392
 20
101.5584801374
 10
190.4603897771
 20
101.2781855701
 10
191.1093251025
 20
101.1816027625
  0
SPLINE
  5
116
330
1F
100
AcDbEntity
  8
0
  6
HIDDEN
 62
     7
370
     0
100
AcDbSpline
210
0.0
220
0.0
230
1.0
 70
     8
 71
     3
 72
     8
 73
     4
 74
     0
 42
0.000000001
 43
0.00000001
 40
0.0
 40
0.0
 40
0.0
 40
0.0
 40
1.0
 40
1.0
 40
1.0
 40
1.0
 10
190.2861448339817
 20
106.8447269846135
 30
0.0
 10
190.4975722239829
 20
106.837217474831
 30
0.0
 10
190.7000407705156
 20
106.7830939451963
 30
0.0
 10
190.886251369653
 20
106.6983656579712
 30
0.0
  0
SPLINE
  5
117
330
1F
100
AcDbEntity
  8
0
  6
HIDDEN
 62
     7
370
     0
100
AcDbSpline
210
0.0
220
0.0
230
1.0
 70
     8
 71
     3
 72
     8
 73
     4
 74
     0
 42
0.000000001
 43
0.00000001
 40
0.0
 40
0.0
 40
0.0
 40
0.0
 40
1.0
 40
1.0
 40
1.0
 40
1.0
 10
190.8862513696529
 20
102.7739868900369
 30
0.0
 10
190.6997270203685
 20
102.8963073059374
 30
0.0
 10
190.4971721218429
 20
103.0373924666021
 30
0.0
 10
190.2861448339817
 20
103.2138761023869
 30
0.0
  0
SPLINE
  5
118
330
1F
100
AcDbEntity
  8
0
  6
HIDDEN
 62
     7
370
     0
100
AcDbSpline
210
0.0
220
0.0
230
1.0
 70
    11
 71
     3
 72
    62
 73
    58
 74
     0
 42
0.000000001
 43
0.00000001
 40
0.0
 40
0.0
 40
0.0
 40
0.0
 40
0.03125
 40
0.03125
 40
0.0624999999999999
 40
0.0624999999999999
 40
0.1249999999999995
 40
0.1249999999999995
 40
0.1874999999999991
 40
0.1874999999999991
 40
0.218749999999999
 40
0.218749999999999
 40
0.2499999999999989
 40
0.2499999999999989
 40
0.2812499999999988
 40
0.2812499999999988
 40
0.3124999999999987
 40
0.3124999999999987
 40
0.3437499999999986
 40
0.3437499999999986
 40
0.3749999999999986
 40
0.3749999999999986
 40
0.4374999999999983
 40
0.4374999999999983
 40
0.4687499999999984
 40
0.4687499999999984
 40
0.4999999999999984
 40
0.4999999999999984
 40
0.5312499999999986
 40
0.5312499999999986
 40
0.5624999999999986
 40
0.5624999999999986
 40
0.5937499999999987
 40
0.5937499999999987
 40
0.6249999999999987
 40
0.6249999999999987
 40
0.6562499999999988
 40
0.6562499999999988
 40
0.6874999999999988
 40
0.6874999999999988
 40
0.7187499999999989
 40
0.7187499999999989
 40
0.7499999999999989
 40
0.7499999999999989
 40
0.7812499999999991
 40
0.7812499999999991
 40
0.8124999999999993
 40
0.8124999999999993
 40
0.8749999999999998
 40
0.8749999999999998
 40
0.9062499999999998
 40
0.9062499999999998
 40
0.9374999999999999
 40
0.9374999999999999
 40
0.9687499999999999
 40
0.9687499999999999
 40
1.0
 40
1.0
 40
1.0
 40
1.0
 10
191.109325010141
 20
113.3761543848643
 30
0.0
 10
191.2505232341209
 20
113.3761543848643
 30
0.0
 10
191.3888011111347
 20
113.3866223212479
 30
0.0
 10
191.6599671823425
 20
113.4276458021833
 30
0.0
 10
191.7941705098021
 20
113.4587722555989
 30
0.0
 10
192.1732336895923
 20
113.5801462435107
 30
0.0
 10
192.402240611286
 20
113.7003010175188
 30
0.0
 10
192.7832712302888
 20
114.0090799165417
 30
0.0
 10
192.9388943072104
 20
114.2012490847055
 30
0.0
 10
193.097964783779
 20
114.5312333965438
 30
0.0
 10
193.1396919289224
 20
114.6507327598559
 30
0.0
 10
193.1949626300645
 20
114.8973171590116
 30
0.0
 10
193.2090425615543
 20
115.0244890894487
 30
0.0
 10
193.2095991278755
 20
115.2869782821449
 30
0.0
 10
193.1956098504549
 20
115.4221206508419
 30
0.0
 10
193.1411283312192
 20
115.6866057442017
 30
0.0
 10
193.1002778730643
 20
115.8187556484477
 30
0.0
 10
192.9936639062049
 20
116.0754513993695
 30
0.0
 10
192.9289117639318
 20
116.1981892838235
 30
0.0
 10
192.7773532219792
 20
116.4325600325818
 30
0.0
 10
192.6900150988062
 20
116.5443775335953
 30
0.0
 10
192.4042386778447
 20
116.8495609987236
 30
0.0
 10
192.1747023293789
 20
117.0203753179034
 30
0.0
 10
191.7983841933846
 20
117.1968856808774
 30
0.0
 10
191.6660512850239
 20
117.2433704880712
 30
0.0
 10
191.3920186260331
 20
117.3064742008113
 30
0.0
 10
191.253993466411
 20
117.3224318905556
 30
0.0
 10
190.9759220851922
 20
117.3232777594173
 30
0.0
 10
190.8342091465219
 20
117.3075530844442
 30
0.0
 10
190.5617868908415
 20
117.246112641945
 30
0.0
 10
190.4299587463445
 20
117.2007909982586
 30
0.0
 10
190.1745598507399
 20
117.0822431952576
 30
0.0
 10
190.0543938475506
 20
117.0105561120412
 30
0.0
 10
189.8292224349943
 20
116.8458275460429
 30
0.0
 10
189.7230713736599
 20
116.751568273008
 30
0.0
 10
189.5316240849577
 20
116.5480035988643
 30
0.0
 10
189.4456900710382
 20
116.4385363086251
 30
0.0
 10
189.2932777529981
 20
116.2044387061411
 30
0.0
 10
189.2270942627107
 20
116.0795444832433
 30
0.0
 10
189.1209125641596
 20
115.8258127317085
 30
0.0
 10
189.0799325009438
 20
115.6956430469248
 30
0.0
 10
189.0238523601464
 20
115.4285793517959
 30
0.0
 10
189.0096281847052
 20
115.2946261217807
 30
0.0
 10
189.0090315008337
 20
115.0331693793126
 30
0.0
 10
189.0228000683321
 20
114.9030520099252
 30
0.0
 10
189.0776501352742
 20
114.6548611544414
 30
0.0
 10
189.1181466485506
 20
114.5375056633606
 30
0.0
 10
189.2776091197268
 20
114.2037565416209
 30
0.0
 10
189.432277544041
 20
114.011916969695
 30
0.0
 10
189.7205855753856
 20
113.7777944017252
 30
0.0
 10
189.8246103907334
 20
113.709637992362
 30
0.0
 10
190.0490296489122
 20
113.5909270531379
 30
0.0
 10
190.1709604367727
 20
113.5400051167696
 30
0.0
 10
190.4234175881987
 20
113.4590552819479
 30
0.0
 10
190.5543041181159
 20
113.428519962949
 30
0.0
 10
190.8262450358287
 20
113.3869619342045
 30
0.0
 10
190.9681267861612
 20
113.3761543848643
 30
0.0
 10
191.109325010141
 20
113.3761543848643
 30
0.0
  0
LINE
  5
119
330
1F
100
AcDbEntity
  8
0
  6
HIDDEN
 62
     7
370
     0
100
AcDbLine
 10
194.4093250846
 20
116.6132490201
 30
0.0
 11
194.4093250846
 21
103.1132486699
 31
0.0
  0
LINE
  5
11A
330
1F
100
AcDbEntity
  8
0
  6
HIDDEN
 62
     7
370
     0
100
AcDbLine
 10
194.4093250846
 20
130.1132493703
 30
0.0
 11
194.4093250846
 21
116.6132490201
 31
0.0
  0
LINE
  5
11B
330
1F
100
AcDbEntity
  8
0
  6
HIDDEN
 62
     7
370
     0
100
AcDbLine
 10
199.2753495639
 20
116.6132490201
 30
0.0
 11
199.2753495639
 21
102.613248588
 31
0.0
  0
LINE
  5
11C
330
1F
100
AcDbEntity
  8
0
  6
HIDDEN
 62
     7
370
     0
100
AcDbLine
 10
199.2753495639
 20
130.6132494522
 30
0.0
 11
199.2753495639
 21
116.6132490201
 31
0.0
  0
SPLINE
  5
11D
330
1F
100
AcDbEntity
  8
0
  6
HIDDEN
 62
     7
370
     0
100
AcDbSpline
210
0.0
220
0.0
230
1.0
 70
     8
 71
     3
 72
    17
 73
    13
 74
     0
 42
0.000000001
 43
0.00000001
 40
0.0
 40
0.0
 40
0.0
 40
0.0
 40
0.1019734664220847
 40
0.2037854864933469
 40
0.3098463745190906
 40
0.420352888971582
 40
0.5259146119847802
 40
0.6244885305910949
 40
0.7250957054022636
 40
0.8331709695266696
 40
0.9431577330288122
 40
1.0
 40
1.0
 40
1.0
 40
1.0
 10
203.3593257134758
 20
130.6132494522257
 30
0.0
 10
203.4156186670464
 20
130.5906449686501
 30
0.0
 10
203.5281154501022
 20
130.5454717893514
 30
0.0
 10
204.3997898636976
 20
130.2253883998664
 30
0.0
 10
205.7143651311685
 20
129.8383100100758
 30
0.0
 10
207.425967252901
 20
129.5230199396481
 30
0.0
 10
209.2811940045321
 20
129.4521523195527
 30
0.0
 10
211.01668864128
 20
129.6347231921022
 30
0.0
 10
212.5338045802767
 20
129.9807216931922
 30
0.0
 10
213.6903612243409
 20
130.3543148255764
 30
0.0
 10
214.328965687207
 20
130.6011803270745
 30
0.0
 10
214.2967973141541
 20
130.5887754835333
 30
0.0
 10
214.2858368521534
 20
130.5845488844438
 30
0.0
  0
LINE
  5
11E
330
1F
100
AcDbEntity
  8
0
  6
HIDDEN
 62
     7
370
     0
100
AcDbLine
 10
180.2808978306
 20
81.3132475181
 30
0.0
 11
180.1093249293
 21
81.3132475181
 31
0.0
  0
ELLIPSE
  5
11F
330
1F
100
AcDbEntity
  8
0
  6
HIDDEN
 62
     7
370
     0
100
AcDbEllipse
 10
180.2808978854
 20
79.3132490201
 30
0.0
 11
0.0
 21
2.0
 31
0.0
210
0.0
220
0.0
230
1.0
 40
0.4142135624
 41
4.712388980384702
 42
6.283185307179586
  0
LINE
  5
120
330
1F
100
AcDbEntity
  8
0
  6
HIDDEN
 62
     7
370
     0
100
AcDbLine
 10
180.1093249293
 20
154.1132505102
 30
0.0
 11
180.2808978306
 21
154.1132505102
 31
0.0
  0
ELLIPSE
  5
121
330
1F
100
AcDbEntity
  8
0
  6
HIDDEN
 62
     7
370
     0
100
AcDbEllipse
 10
180.2808978854
 20
156.1132490201
 30
0.0
 11
0.0
 21
2.0
 31
0.0
210
0.0
220
0.0
230
1.0
 40
0.4142135624
 41
3.141592653589793
 42
4.712388980384695
  0
LINE
  5
122
330
1F
100
AcDbEntity
  8
0
  6
HIDDEN
 62
     7
370
     0
100
AcDbLine
 10
181.1093248604
 20
70.4273345931
 30
0.0
 11
180.3249850115
 21
69.9797931178
 31
0.0
  0
LINE
  5
123
330
1F
100
AcDbEntity
  8
0
  6
HIDDEN
 62
     7
370
     0
100
AcDbLine
 10
180.3991939584
 20
163.323412375
 30
0.0
 11
181.1093248604
 21
162.6132826371
 31
0.0
  0
LINE
  5
124
330
1F
100
AcDbEntity
  8
0
  6
HIDDEN
 62
     7
370
     0
100
AcDbLine
 10
181.1093248604
 20
162.6132826371
 30
0.0
 11
185.3326543411
 21
162.6132826371
 31
0.0
  0
LINE
  5
125
330
1F
100
AcDbEntity
  8
0
  6
HIDDEN
 62
     7
370
     0
100
AcDbLine
 10
190.6859961515
 20
162.6132826371
 30
0.0
 11
195.9593252456
 21
162.6132826371
 31
0.0
  0
LINE
  5
126
330
1F
100
AcDbEntity
  8
0
  6
HIDDEN
 62
     7
370
     0
100
AcDbLine
 10
181.1093248604
 20
162.6132826371
 30
0.0
 11
181.1093248604
 21
156.113250838
 31
0.0
  0
LINE
  5
127
330
1F
100
AcDbEntity
  8
0
  6
HIDDEN
 62
     7
370
     0
100
AcDbLine
 10
195.9593252456
 20
81.3132475181
 30
0.0
 11
180.2808978306
 21
81.3132475181
 31
0.0
  0
LINE
  5
128
330
1F
100
AcDbEntity
  8
0
  6
HIDDEN
 62
     7
370
     0
100
AcDbLine
 10
185.2292775353
 20
70.4273345931
 30
0.0
 11
181.1093248604
 21
70.4273345931
 31
0.0
  0
LINE
  5
129
330
1F
100
AcDbEntity
  8
0
  6
HIDDEN
 62
     7
370
     0
100
AcDbLine
 10
195.9593252456
 20
70.4273345931
 30
0.0
 11
190.7893729573
 21
70.4273345931
 31
0.0
  0
LINE
  5
12A
330
1F
100
AcDbEntity
  8
0
  6
HIDDEN
 62
     7
370
     0
100
AcDbLine
 10
181.1093248604
 20
70.4273345931
 30
0.0
 11
181.1093248604
 21
79.3132471902
 31
0.0
  0
LINE
  5
12B
330
1F
100
AcDbEntity
  8
0
  6
HIDDEN
 62
     7
370
     0
100
AcDbLine
 10
180.2808978306
 20
154.1132505102
 30
0.0
 11
195.9593252456
 21
154.1132505102
 31
0.0
  0
LINE
  5
12C
330
1F
100
AcDbEntity
  8
0
  6
HIDDEN
 62
     7
370
     0
100
AcDbLine
 10
85.3093241518
 20
104.1132488338
 30
0.0
 11
85.3093241518
 21
129.1132492064
 31
0.0
  0
LINE
  5
12D
330
1F
100
AcDbEntity
  8
0
  6
HIDDEN
 62
     7
370
     0
100
AcDbLine
 10
88.5939275091
 20
106.1132491617
 30
0.0
 11
88.5939275091
 21
127.1132488785
 31
0.0
  0
LINE
  5
12E
330
1F
100
AcDbEntity
  8
0
  6
HIDDEN
 62
     7
370
     0
100
AcDbLine
 10
137.3093252247
 20
106.1132491617
 30
0.0
 11
137.3093252247
 21
127.1132488785
 31
0.0
  0
LINE
  5
12F
330
1F
100
AcDbEntity
  8
0
  6
HIDDEN
 62
     7
370
     0
100
AcDbLine
 10
141.0647046929
 20
120.8632492511
 30
0.0
 11
141.0647046929
 21
112.3632487891
 31
0.0
  0
LINE
  5
130
330
1F
100
AcDbEntity
  8
0
  6
HIDDEN
 62
     7
370
     0
100
AcDbLine
 10
203.3593257135
 20
139.8632495714
 30
0.0
 11
214.3593256539
 21
139.8632495714
 31
0.0
  0
SPLINE
  5
131
330
1F
100
AcDbEntity
  8
0
  6
HIDDEN
 62
     7
370
     0
100
AcDbSpline
210
0.0
220
0.0
230
1.0
 70
    11
 71
     3
 72
    62
 73
    58
 74
     0
 42
0.000000001
 43
0.00000001
 40
0.0
 40
0.0
 40
0.0
 40
0.0
 40
0.0312499999999999
 40
0.0312499999999999
 40
0.0624999999999998
 40
0.0624999999999998
 40
0.1249999999999999
 40
0.1249999999999999
 40
0.1875
 40
0.1875
 40
0.2187500000000001
 40
0.2187500000000001
 40
0.2500000000000002
 40
0.2500000000000002
 40
0.2812500000000003
 40
0.2812500000000003
 40
0.3125000000000005
 40
0.3125000000000005
 40
0.3437500000000007
 40
0.3437500000000007
 40
0.3750000000000008
 40
0.3750000000000008
 40
0.4375000000000012
 40
0.4375000000000012
 40
0.4687500000000012
 40
0.4687500000000012
 40
0.5000000000000011
 40
0.5000000000000011
 40
0.5312500000000011
 40
0.5312500000000011
 40
0.5625000000000011
 40
0.5625000000000011
 40
0.5937500000000011
 40
0.5937500000000011
 40
0.6250000000000011
 40
0.6250000000000011
 40
0.6562500000000008
 40
0.6562500000000008
 40
0.6875000000000004
 40
0.6875000000000004
 40
0.7187500000000001
 40
0.7187500000000001
 40
0.7499999999999998
 40
0.7499999999999998
 40
0.7812499999999996
 40
0.7812499999999996
 40
0.8124999999999993
 40
0.8124999999999993
 40
0.8749999999999992
 40
0.8749999999999992
 40
0.9062499999999994
 40
0.9062499999999994
 40
0.9374999999999997
 40
0.9374999999999997
 40
0.9687499999999999
 40
0.9687499999999999
 40
1.0
 40
1.0
 40
1.0
 40
1.0
 10
191.109325010141
 20
115.903634648019
 30
0.0
 10
190.9681267861612
 20
115.903634648019
 30
0.0
 10
190.8298489091474
 20
115.9196460580105
 30
0.0
 10
190.5586828379396
 20
115.9813756236334
 30
0.0
 10
190.42447951048
 20
116.0279133870881
 30
0.0
 10
190.0454163306898
 20
116.2048897158231
 30
0.0
 10
189.816409408996
 20
116.3753160095323
 30
0.0
 10
189.4353787899933
 20
116.7812022869556
 30
0.0
 10
189.2797557130717
 20
117.0208727282916
 30
0.0
 10
189.120685236503
 20
117.4013495556082
 30
0.0
 10
189.0789580913597
 20
117.5346182909133
 30
0.0
 10
189.0236873902176
 20
117.7995995265421
 30
0.0
 10
189.0096074587278
 20
117.93156484126
 30
0.0
 10
189.0090508924066
 20
118.1942421510742
 30
0.0
 10
189.0230401698272
 20
118.3246220150318
 30
0.0
 10
189.0775216890629
 20
118.5709659457549
 30
0.0
 10
189.1183721472178
 20
118.6896202157378
 30
0.0
 10
189.2249861140772
 20
118.9124464824931
 30
0.0
 10
189.2897382563502
 20
119.0151315934775
 30
0.0
 10
189.4412967983028
 20
119.2052548463909
 30
0.0
 10
189.5286349214759
 20
119.2927616376102
 30
0.0
 10
189.8144113424374
 20
119.5250291330589
 30
0.0
 10
190.0439476909032
 20
119.6454778757014
 30
0.0
 10
190.4202658268975
 20
119.7665744680031
 30
0.0
 10
190.5525987352582
 20
119.7976826014394
 30
0.0
 10
190.826631394249
 20
119.839629840995
 30
0.0
 10
190.9646565538711
 20
119.8500600756046
 30
0.0
 10
191.2427279350898
 20
119.8506159744714
 30
0.0
 10
191.3844408737602
 20
119.8403375156414
 30
0.0
 10
191.6568631294405
 20
119.7995143309482
 30
0.0
 10
191.7886912739376
 20
119.7692209950735
 30
0.0
 10
192.0440901695422
 20
119.6879538047826
 30
0.0
 10
192.1642561727315
 20
119.6380059539242
 30
0.0
 10
192.3894275852878
 20
119.5196847427262
 30
0.0
 10
192.4955786466222
 20
119.4503916336437
 30
0.0
 10
192.6870259353244
 20
119.2955769850499
 30
0.0
 10
192.7729599492439
 20
119.2099909971793
 30
0.0
 10
192.925372267284
 20
119.0203073251023
 30
0.0
 10
192.9915557575714
 20
118.9158860640317
 30
0.0
 10
193.0977374561225
 20
118.6958547242244
 30
0.0
 10
193.1387175193383
 20
118.5792062381149
 30
0.0
 10
193.1947976601356
 20
118.3308048571256
 30
0.0
 10
193.2090218355769
 20
118.2016948683215
 30
0.0
 10
193.2096185194484
 20
117.9404398024893
 30
0.0
 10
193.19584995195
 20
117.8056335118167
 30
0.0
 10
193.1409998850079
 20
117.5391783974622
 30
0.0
 10
193.1005033717315
 20
117.4084444627636
 30
0.0
 10
192.9410409005553
 20
117.0240290087601
 30
0.0
 10
192.7863724762412
 20
116.7848699768833
 30
0.0
 10
192.4980644448965
 20
116.4772106174394
 30
0.0
 10
192.3940396295487
 20
116.3845375006751
 30
0.0
 10
192.1696203713699
 20
116.2193946580355
 30
0.0
 10
192.0476895835094
 20
116.1463537893564
 30
0.0
 10
191.7952324320834
 20
116.028331873084
 30
0.0
 10
191.6643459021662
 20
115.9826841674663
 30
0.0
 10
191.3924049844534
 20
115.9201637279991
 30
0.0
 10
191.2505232341209
 20
115.903634648019
 30
0.0
 10
191.109325010141
 20
115.903634648019
 30
0.0
  0
SPLINE
  5
132
330
1F
100
AcDbEntity
  8
0
  6
HIDDEN
 62
     7
370
     0
100
AcDbSpline
210
0.0
220
0.0
230
1.0
 70
     8
 71
     3
 72
     8
 73
     4
 74
     0
 42
0.000000001
 43
0.00000001
 40
0.0
 40
0.0
 40
0.0
 40
0.0
 40
1.0
 40
1.0
 40
1.0
 40
1.0
 10
190.2861448339816
 20
126.3817710555708
 30
0.0
 10
190.4975722239828
 20
126.3892805653532
 30
0.0
 10
190.7000407705156
 20
126.4434040949879
 30
0.0
 10
190.8862513696529
 20
126.528132382213
 30
0.0
  0
ELLIPSE
  5
133
330
1F
100
AcDbEntity
  8
0
  6
HIDDEN
 62
     7
370
     0
100
AcDbEllipse
 10
191.1093250101
 20
128.3437591314
 30
0.0
 11
-1.760776919379055
 21
2.232245799914466
 31
0.0
210
0.0
220
0.0
230
1.0
 40
0.5126701559
 41
5.395150933160736
 42
8.323890913123128
  0
SPLINE
  5
134
330
1F
100
AcDbEntity
  8
0
  6
HIDDEN
 62
     7
370
     0
100
AcDbSpline
210
0.0
220
0.0
230
1.0
 70
     8
 71
     3
 72
     8
 73
     4
 74
     0
 42
0.000000001
 43
0.00000001
 40
0.0
 40
0.0
 40
0.0
 40
0.0
 40
1.0
 40
1.0
 40
1.0
 40
1.0
 10
190.8862513696537
 20
130.4525111501477
 30
0.0
 10
190.6997270203689
 20
130.330190734247
 30
0.0
 10
190.4971721218428
 20
130.189105573582
 30
0.0
 10
190.286144833981
 20
130.0126219377966
 30
0.0
  0
ELLIPSE
  5
135
330
1F
100
AcDbEntity
  8
0
  6
HIDDEN
 62
     7
370
     0
100
AcDbEllipse
 10
191.1093250101
 20
128.3437591314
 30
0.0
 11
1.760776919379055
 21
1.38888618804296
 31
0.0
210
0.0
220
0.0
230
1.0
 40
0.8239737799
 41
1.397255033323902
 42
3.733259041931021
  0
LWPOLYLINE
  5
136
330
1F
100
AcDbEntity
  8
0
  6
HIDDEN
 62
     7
370
     0
100
AcDbPolyline
 90
       21
 70
   128
 43
0.0
 10
191.1093251025
 20
128.0981858311
 10
191.758260428
 20
128.1947686387
 10
192.3436739659
 20
128.4750632061
 10
192.8082605069
 20
128.9116318388
 10
193.1065445011
 20
129.4617408006
 10
193.2093252605
 20
130.0715400888
 10
193.1065445011
 20
130.6813403083
 10
192.8082605069
 20
131.2314492701
 10
192.3436739659
 20
131.6680179028
 10
191.758260428
 20
131.9483124701
 10
191.1093251025
 20
132.0448952777
 10
190.4603897771
 20
131.9483124701
 10
189.8749762392
 20
131.6680179028
 10
189.4103896981
 20
131.2314492701
 10
189.1121066352
 20
130.6813403083
 10
189.0093249446
 20
130.0715400888
 10
189.1121066352
 20
129.4617408006
 10
189.4103896981
 20
128.9116318388
 10
189.8749762392
 20
128.4750632061
 10
190.4603897771
 20
128.1947686387
 10
191.1093251025
 20
128.0981858311
  0
LINE
  5
137
330
1F
100
AcDbEntity
  8
0
  6
HIDDEN
 62
     7
370
     0
100
AcDbLine
 10
186.0993246725
 20
152.0062933726
 30
0.0
 11
186.0993246725
 21
146.4632495357
 31
0.0
  0
LINE
  5
138
330
1F
100
AcDbEntity
  8
0
  6
HIDDEN
 62
     7
370
     0
100
AcDbLine
 10
189.9193248888
 20
152.0062933726
 30
0.0
 11
189.9193248888
 21
146.4632495357
 31
0.0
  0
SPLINE
  5
139
330
1F
100
AcDbEntity
  8
0
  6
HIDDEN
 62
     7
370
     0
100
AcDbSpline
210
0.0
220
0.0
230
1.0
 70
     8
 71
     3
 72
    14
 73
    10
 74
     0
 42
0.000000001
 43
0.00000001
 40
0.0
 40
0.0
 40
0.0
 40
0.0
 40
0.25
 40
0.25
 40
0.5
 40
0.5
 40
0.75
 40
0.75
 40
1.0
 40
1.0
 40
1.0
 40
1.0
 10
189.1193250101408
 20
133.5885385770259
 30
0.0
 10
189.1937505622755
 20
133.6793960318075
 30
0.0
 10
189.2756288218889
 20
133.7686066150133
 30
0.0
 10
189.4486149680645
 20
133.9440309338052
 30
0.0
 10
189.5392867879255
 20
134.0295658894319
 30
0.0
 10
189.7066503372699
 20
134.1904175023704
 30
0.0
 10
189.7831011622363
 20
134.2661495912668
 30
0.0
 10
189.8893942470748
 20
134.3977406148423
 30
0.0
 10
189.9193250101411
 20
134.4547407897486
 30
0.0
 10
189.9193250101411
 20
134.4969380627007
 30
0.0
  0
SPLINE
  5
13A
330
1F
100
AcDbEntity
  8
0
  6
HIDDEN
 62
     7
370
     0
100
AcDbSpline
210
0.0
220
0.0
230
1.0
 70
     8
 71
     3
 72
    14
 73
    10
 74
     0
 42
0.000000001
 43
0.00000001
 40
0.0
 40
0.0
 40
0.0
 40
0.0
 40
0.25
 40
0.25
 40
0.5
 40
0.5
 40
0.75
 40
0.75
 40
1.0
 40
1.0
 40
1.0
 40
1.0
 10
189.919325010141
 20
130.3648968640692
 30
0.0
 10
189.919325010141
 20
130.3223964464146
 30
0.0
 10
189.8896115513243
 20
130.295124539932
 30
0.0
 10
189.7835301844322
 20
130.2815717659648
 30
0.0
 10
189.7071632552676
 20
130.2960173231058
 30
0.0
 10
189.5384037107391
 20
130.3683934871256
 30
0.0
 10
189.4476068982672
 20
130.4254664222431
 30
0.0
 10
189.2760419580599
 20
130.56662435576
 30
0.0
 10
189.1939807177654
 20
130.6512015708435
 30
0.0
 10
189.1193250101409
 20
130.7445747339728
 30
0.0
  0
LINE
  5
13B
330
1F
100
AcDbEntity
  8
0
  6
HIDDEN
 62
     7
370
     0
100
AcDbLine
 10
189.9193248888
 20
102.8159872679
 30
0.0
 11
189.9193248888
 21
98.6839464916
 31
0.0
  0
LINE
  5
13C
330
1F
100
AcDbEntity
  8
0
  6
HIDDEN
 62
     7
370
     0
100
AcDbLine
 10
191.2424865356
 20
102.3161017386
 30
0.0
 11
191.2424865356
 21
97.6243081553
 31
0.0
  0
LINE
  5
13D
330
1F
100
AcDbEntity
  8
0
  6
HIDDEN
 62
     7
370
     0
100
AcDbLine
 10
191.2424865356
 20
155.1243278248
 30
0.0
 11
191.2424865356
 21
146.4632495357
 31
0.0
  0
LINE
  5
13E
330
1F
100
AcDbEntity
  8
0
  6
HIDDEN
 62
     7
370
     0
100
AcDbLine
 10
184.7761639571
 20
155.1243278248
 30
0.0
 11
184.7761639571
 21
146.4632495357
 31
0.0
  0
ARC
  5
13F
330
1F
100
AcDbEntity
  8
0
  6
HIDDEN
 62
     7
370
     0
100
AcDbCircle
 10
191.3553777721
 20
129.1832366955
 30
0.0
 40
1.353195702694776
100
AcDbArc
 50
110.2844232439
 51
142.1998959299
  0
ARC
  5
140
330
1F
100
AcDbEntity
  8
0
  6
HIDDEN
 62
     7
370
     0
100
AcDbCircle
 10
190.4127255416
 20
127.1662192503
 30
0.0
 40
0.794594954225782
100
AcDbArc
 50
260.8336111241
 51
306.5791809456
  0
LWPOLYLINE
  5
141
330
1F
100
AcDbEntity
  8
0
  6
HIDDEN
 62
     7
370
     0
100
AcDbPolyline
 90
       21
 70
   128
 43
0.0
 10
181.1440878725
 20
129.3262007697
 10
181.3069314873
 20
128.8489584861
 10
181.5668258993
 20
128.5288135571
 10
181.8983306354
 20
128.3971049873
 10
182.2689951574
 20
128.4667241437
 10
182.6425374662
 20
128.7308574704
 10
182.9823915092
 20
129.1636486588
 10
183.2552899783
 20
129.7227337075
 10
183.4345206795
 20
130.3533843769
 10
183.5025384268
 20
130.9938698126
 10
183.4526856607
 20
131.5814943103
 10
183.2898415802
 20
132.0587365938
 10
183.0299471682
 20
132.3788805915
 10
182.6984428978
 20
132.5105900927
 10
182.32777791
 20
132.4409700049
 10
181.9542360669
 20
132.1768376095
 10
181.6143820239
 20
131.7440464212
 10
181.3414830891
 20
131.1849613724
 10
181.162252388
 20
130.5543097718
 10
181.0942346407
 20
129.913824336
 10
181.1440878725
 20
129.3262007697
  0
LWPOLYLINE
  5
142
330
1F
100
AcDbEntity
  8
0
  6
HIDDEN
 62
     7
370
     0
100
AcDbPolyline
 90
       25
 70
   128
 43
0.0
 10
180.3810559856
 20
128.9071847735
 10
180.5644909097
 20
128.3250150321
 10
180.8478015652
 20
127.8923002122
 10
181.2116809366
 20
127.6385306431
 10
181.6313311635
 20
127.5809991224
 10
182.0781536577
 20
127.7236274494
 10
182.5216983622
 20
128.0566944791
 10
182.9317378057
 20
128.5575029491
 10
183.2803295171
 20
129.1919236122
 10
183.5437168544
 20
129.9167216806
 10
183.7039509034
 20
130.6825025989
 10
183.7501114411
 20
131.4370815692
 10
183.6790529257
 20
132.1290337531
 10
183.4956177687
 20
132.7112025632
 10
183.2123071132
 20
133.1439173831
 10
182.8484277418
 20
133.3976878835
 10
182.428777515
 20
133.4552194042
 10
181.9819550207
 20
133.3125910772
 10
181.5384103162
 20
132.9795240475
 10
181.128370407
 20
132.4787146462
 10
180.7797791613
 20
131.8442949144
 10
180.5163915912
 20
131.119496846
 10
180.3561580079
 20
130.3537149964
 10
180.3099974701
 20
129.5991369573
 10
180.3810559856
 20
128.9071847735
  0
LWPOLYLINE
  5
143
330
1F
100
AcDbEntity
  8
0
  6
HIDDEN
 62
     7
370
     0
100
AcDbPolyline
 90
       23
 70
   128
 43
0.0
 10
191.1093251025
 20
127.7721027894
 10
191.813656426
 20
127.8672634674
 10
192.460927478
 20
128.1450350819
 10
192.9986992097
 20
128.5829150168
 10
193.3834043508
 20
129.145428264
 10
193.5838789856
 20
129.7870042784
 10
193.5838789856
 20
130.455665016
 10
193.3834043508
 20
131.0972410304
 10
192.9986992097
 20
131.6597542776
 10
192.460927478
 20
132.0976342125
 10
191.813656426
 20
132.3754048957
 10
191.1093251025
 20
132.4705655737
 10
190.404993779
 20
132.3754048957
 10
189.757722727
 20
132.0976342125
 10
189.2199509954
 20
131.6597542776
 10
188.8352449229
 20
131.0972410304
 10
188.6347712195
 20
130.455665016
 10
188.6347712195
 20
129.7870042784
 10
188.8352449229
 20
129.145428264
 10
189.2199509954
 20
128.5829150168
 10
189.757722727
 20
128.1450350819
 10
190.404993779
 20
127.8672634674
 10
191.1093251025
 20
127.7721027894
  0
SPLINE
  5
144
330
1F
100
AcDbEntity
  8
0
  6
HIDDEN
 62
     7
370
     0
100
AcDbSpline
210
0.0
220
0.0
230
1.0
 70
     8
 71
     3
 72
    34
 73
    30
 74
     0
 42
0.000000001
 43
0.00000001
 40
0.0
 40
0.0
 40
0.0
 40
0.0
 40
0.0624999999999983
 40
0.0624999999999983
 40
0.1249999999999966
 40
0.1249999999999966
 40
0.1874999999999949
 40
0.1874999999999949
 40
0.2499999999999937
 40
0.2499999999999937
 40
0.3124999999999935
 40
0.3124999999999935
 40
0.3749999999999933
 40
0.3749999999999933
 40
0.4999999999999938
 40
0.4999999999999938
 40
0.6249999999999942
 40
0.6249999999999942
 40
0.6874999999999952
 40
0.6874999999999952
 40
0.7499999999999961
 40
0.7499999999999961
 40
0.8124999999999971
 40
0.8124999999999971
 40
0.8749999999999981
 40
0.8749999999999981
 40
0.937499999999999
 40
0.937499999999999
 40
1.0
 40
1.0
 40
1.0
 40
1.0
 10
191.2424865176029
 20
135.6021894080933
 30
0.0
 10
191.4018783453908
 20
135.5943493121705
 30
0.0
 10
191.5578808288344
 20
135.57269066408
 30
0.0
 10
191.8633903449116
 20
135.5028424365872
 30
0.0
 10
192.0142846799238
 20
135.454016734259
 30
0.0
 10
192.3021840246146
 20
135.3310927808517
 30
0.0
 10
192.4381304275744
 20
135.2577852727174
 30
0.0
 10
192.6943130431664
 20
135.087774648946
 30
0.0
 10
192.8154953309255
 20
134.9899008567446
 30
0.0
 10
193.0326414027983
 20
134.7773166813126
 30
0.0
 10
193.1296032757586
 20
134.662270742783
 30
0.0
 10
193.3001657115842
 20
134.4144096226629
 30
0.0
 10
193.3734057647961
 20
134.2813761255973
 30
0.0
 10
193.5482862215449
 20
133.8718681094671
 30
0.0
 10
193.6093241825209
 20
133.5739074596921
 30
0.0
 10
193.6093258377439
 20
132.9824659038176
 30
0.0
 10
193.5482912281577
 20
132.682292353841
 30
0.0
 10
193.3734014607557
 20
132.2670610735733
 30
0.0
 10
193.3001577553313
 20
132.1317059553265
 30
0.0
 10
193.1295970395947
 20
131.8788066239398
 30
0.0
 10
193.0326333240012
 20
131.761041346332
 30
0.0
 10
192.815472995414
 20
131.5429110509634
 30
0.0
 10
192.6942917367272
 20
131.4422077258164
 30
0.0
 10
192.4381215097885
 20
131.2669640329832
 30
0.0
 10
192.3021781601258
 20
131.1912190638926
 30
0.0
 10
192.0142754569427
 20
131.0640506885903
 30
0.0
 10
191.8633852610259
 20
131.0134494162629
 30
0.0
 10
191.5578797573203
 20
130.941020316515
 30
0.0
 10
191.4018783590568
 20
130.918534545118
 30
0.0
 10
191.2424865176029
 20
130.9103960852232
 30
0.0
  0
SPLINE
  5
145
330
1F
100
AcDbEntity
  8
0
  6
HIDDEN
 62
     7
370
     0
100
AcDbSpline
210
0.0
220
0.0
230
1.0
 70
     8
 71
     3
 72
    10
 73
     6
 74
     0
 42
0.000000001
 43
0.00000001
 40
0.0
 40
0.0
 40
0.0
 40
0.0
 40
0.5
 40
0.5
 40
1.0
 40
1.0
 40
1.0
 40
1.0
 10
191.2424865176029
 20
130.9103960852232
 30
0.0
 10
191.0197594907295
 20
130.7669075849294
 30
0.0
 10
190.7980736035044
 20
130.6521868391966
 30
0.0
 10
190.3568527656524
 20
130.4824264098387
 30
0.0
 10
190.1372941182536
 20
130.4270064154513
 30
0.0
 10
189.9193250101413
 20
130.4105110860816
 30
0.0
  0
SPLINE
  5
146
330
1F
100
AcDbEntity
  8
0
  6
HIDDEN
 62
     7
370
     0
100
AcDbSpline
210
0.0
220
0.0
230
1.0
 70
     8
 71
     3
 72
    10
 73
     6
 74
     0
 42
0.000000001
 43
0.00000001
 40
0.0
 40
0.0
 40
0.0
 40
0.0
 40
0.5
 40
0.5
 40
1.0
 40
1.0
 40
1.0
 40
1.0
 10
189.9193250101414
 20
134.5425522847131
 30
0.0
 10
190.1362158426621
 20
134.7795912241617
 30
0.0
 10
190.355368479321
 20
134.9817614591552
 30
0.0
 10
190.7968529795898
 20
135.3325135306739
 30
0.0
 10
191.0200554448633
 20
135.4811896230707
 30
0.0
 10
191.2424865176029
 20
135.6021894080933
 30
0.0
  0
SPLINE
  5
147
330
1F
100
AcDbEntity
  8
0
  6
HIDDEN
 62
     7
370
     0
100
AcDbSpline
210
0.0
220
0.0
230
1.0
 70
     8
 71
     3
 72
    16
 73
    12
 74
     0
 42
0.000000001
 43
0.00000001
 40
0.0
 40
0.0
 40
0.0
 40
0.0
 40
0.2500000000000002
 40
0.2500000000000002
 40
0.5000000000000003
 40
0.5000000000000003
 40
0.7500000000000004
 40
0.7500000000000004
 40
0.8750000000000002
 40
0.8750000000000002
 40
1.0
 40
1.0
 40
1.0
 40
1.0
 10
189.1193250101411
 20
130.7445747339725
 30
0.0
 10
188.9539109036609
 20
130.9514609699978
 30
0.0
 10
188.8277135726852
 20
131.1773296678068
 30
0.0
 10
188.6533072743544
 20
131.6661989134196
 30
0.0
 10
188.6094772352576
 20
131.9179659667642
 30
0.0
 10
188.6091735622876
 20
132.4297452913464
 30
0.0
 10
188.6530304223479
 20
132.6808000004291
 30
0.0
 10
188.782952181615
 20
133.0416485685711
 30
0.0
 10
188.837066993023
 20
133.1589213369196
 30
0.0
 10
188.9637439831664
 20
133.3814102882585
 30
0.0
 10
189.0366177035273
 20
133.4875708965019
 30
0.0
 10
189.1193250101411
 20
133.5885385770262
 30
0.0
  0
ARC
  5
148
330
1F
100
AcDbEntity
  8
0
  6
HIDDEN
 62
     7
370
     0
100
AcDbCircle
 10
191.0954956892
 20
101.3050127651
 30
0.0
 40
2.481198093993734
100
AcDbArc
 50
345.1059197262
 51
182.6037016399
  0
ARC
  5
149
330
1F
100
AcDbEntity
  8
0
  6
HIDDEN
 62
     7
370
     0
100
AcDbCircle
 10
191.0917631956
 20
101.2410111306
 30
0.0
 40
2.35643076625275
100
AcDbArc
 50
350.9620987549
 51
158.5806595779
  0
ARC
  5
14A
330
1F
100
AcDbEntity
  8
0
  6
HIDDEN
 62
     7
370
     0
100
AcDbCircle
 10
191.1075368171
 20
101.2233822811
 30
0.0
 40
2.004450982804701
100
AcDbArc
 50
2.9533992742
 51
126.8073677924
  0
LWPOLYLINE
  5
14B
330
1F
100
AcDbEntity
  8
0
  6
HIDDEN
 62
     7
370
     0
100
AcDbPolyline
 90
       23
 70
   128
 43
0.0
 10
190.2542750528
 20
99.3550966544
 10
189.6270553758
 20
99.6708857877
 10
189.1199204316
 20
100.1399352266
 10
188.7739555156
 20
100.7242451472
 10
188.6171878492
 20
101.3764764233
 10
188.6623188099
 20
102.0437904684
 10
188.9056920251
 20
102.6721268011
 10
189.3275895333
 20
103.2105793295
 10
189.8938327273
 20
103.6155267669
 10
190.5585483825
 20
103.8541632755
 10
191.2678846335
 20
103.9071545986
 10
191.9643751523
 20
103.7702082707
 10
192.5915957605
 20
103.4544191374
 10
193.0987288421
 20
102.9853696985
 10
193.4446946895
 20
102.4010607092
 10
193.6014623558
 20
101.7488294331
 10
193.5563304638
 20
101.0815144567
 10
193.3129591113
 20
100.4531781239
 10
192.8910606718
 20
99.9147265268
 10
192.3248165464
 20
99.5097781582
 10
191.6601008913
 20
99.2711416496
 10
190.9507655716
 20
99.2181512577
 10
190.2542750528
 20
99.3550966544
  0
LWPOLYLINE
  5
14C
330
1F
100
AcDbEntity
  8
0
  6
HIDDEN
 62
     7
370
     0
100
AcDbPolyline
 90
       20
 70
   128
 43
0.0
 10
190.425284504
 20
100.9783900393
 10
189.85211227
 20
101.2827918915
 10
189.4151785588
 20
101.7455856366
 10
189.1618318101
 20
102.3166204853
 10
189.1195264822
 20
102.9340147091
 10
189.2928465446
 20
103.5308658196
 10
189.6630100152
 20
104.0424943952
 10
190.1899038991
 20
104.4134578718
 10
190.8164316034
 20
104.6035575731
 10
191.474698781
 20
104.5921917124
 10
192.0933726421
 20
104.3805933608
 10
192.605409137
 20
103.9916916801
 10
192.9553219294
 20
103.4676299481
 10
193.1051922208
 20
102.8651992841
 10
193.038779608
 20
102.2496816752
 10
192.7632794892
 20
101.6877775131
 10
192.308549135
 20
101.2403794615
 10
191.72386296
 20
100.9559693797
 10
191.0725834956
 20
100.8653665943
 10
190.425284504
 20
100.9783900393
  0
LWPOLYLINE
  5
14D
330
1F
100
AcDbEntity
  8
0
  6
HIDDEN
 62
     7
370
     0
100
AcDbPolyline
 90
       23
 70
   128
 43
0.0
 10
190.2542750528
 20
99.5910900695
 10
189.6270553758
 20
99.9068810655
 10
189.1199204316
 20
100.3759286417
 10
188.7739555156
 20
100.9602385623
 10
188.6171878492
 20
101.6124698384
 10
188.6623188099
 20
102.2797848148
 10
188.9056920251
 20
102.9081202162
 10
189.3275895333
 20
103.446573676
 10
189.8938327273
 20
103.8515211133
 10
190.5585483825
 20
104.0901566906
 10
191.2678846335
 20
104.1431480138
 10
191.9643751523
 20
104.0062016858
 10
192.5915957605
 20
103.6904125525
 10
193.0987288421
 20
103.221364045
 10
193.4446946895
 20
102.6370550556
 10
193.6014623558
 20
101.9848228483
 10
193.5563304638
 20
101.3175078718
 10
193.3129591113
 20
100.6891715391
 10
192.8910606718
 20
100.150719942
 10
192.3248165464
 20
99.7457715733
 10
191.6601008913
 20
99.5071369274
 10
190.9507655716
 20
99.4541446729
 10
190.2542750528
 20
99.5910900695
  0
LWPOLYLINE
  5
14E
330
1F
100
AcDbEntity
  8
0
  6
HIDDEN
 62
     7
370
     0
100
AcDbPolyline
 90
       22
 70
   128
 43
0.0
 10
190.3226788333
 20
99.7062220288
 10
189.7205750635
 20
100.0143352015
 10
189.2418678096
 20
100.4755317284
 10
188.9290924361
 20
101.0488296909
 10
188.8100396087
 20
101.6832904009
 10
188.8952891519
 20
102.3225381089
 10
189.1772656878
 20
102.9097742451
 10
189.6309138453
 20
103.3928186683
 10
190.2159250518
 20
103.7287523089
 10
190.8803194007
 20
103.8877253471
 10
191.5650612852
 20
103.8556124134
 10
192.2093092641
 20
103.6352670802
 10
192.7558195954
 20
103.2462666793
 10
193.1560293948
 20
102.7231772481
 10
193.3743835604
 20
102.1124773709
 10
193.3914751923
 20
101.4684296263
 10
193.2057880973
 20
100.8482600613
 10
192.8338215863
 20
100.3070759637
 10
192.3086264348
 20
99.8929615183
 10
191.6768665602
 20
99.6427132798
 10
190.9946792936
 20
99.5785656435
 10
190.3226788333
 20
99.7062220288
  0
LWPOLYLINE
  5
14F
330
1F
100
AcDbEntity
  8
0
  6
HIDDEN
 62
     7
370
     0
100
AcDbPolyline
 90
       23
 70
   128
 43
0.0
 10
190.2542750528
 20
99.8270853473
 10
189.6270553758
 20
100.1428744806
 10
189.1199204316
 20
100.6119239194
 10
188.7739555156
 20
101.1962319775
 10
188.6171878492
 20
101.8484641848
 10
188.6623188099
 20
102.5157791613
 10
188.9056920251
 20
103.1441145627
 10
189.3275895333
 20
103.6825670911
 10
189.8938327273
 20
104.0875145284
 10
190.5585483825
 20
104.326151037
 10
191.2678846335
 20
104.3791423602
 10
191.9643751523
 20
104.2421960322
 10
192.5915957605
 20
103.9264068989
 10
193.0987288421
 20
103.4573574601
 10
193.4446946895
 20
102.8730484707
 10
193.6014623558
 20
102.2208171947
 10
193.5563304638
 20
101.5535022182
 10
193.3129591113
 20
100.9251668168
 10
192.8910606718
 20
100.3867133571
 10
192.3248165464
 20
99.9817649884
 10
191.6601008913
 20
99.7431303425
 10
190.9507655716
 20
99.690138088
 10
190.2542750528
 20
99.8270853473
  0
LWPOLYLINE
  5
150
330
1F
100
AcDbEntity
  8
0
  6
HIDDEN
 62
     7
370
     0
100
AcDbPolyline
 90
       22
 70
   128
 43
0.0
 10
190.3226788333
 20
99.942215444
 10
189.7205750635
 20
100.2503286166
 10
189.2418678096
 20
100.7115251435
 10
188.9290924361
 20
101.284823106
 10
188.8100396087
 20
101.919283816
 10
188.8952891519
 20
102.5585324554
 10
189.1772656878
 20
103.1457676603
 10
189.6309138453
 20
103.6288130147
 10
190.2159250518
 20
103.9647466553
 10
190.8803194007
 20
104.1237196935
 10
191.5650612852
 20
104.0916067598
 10
192.2093092641
 20
103.8712604953
 10
192.7558195954
 20
103.4822610257
 10
193.1560293948
 20
102.9591715945
 10
193.3743835604
 20
102.348470786
 10
193.3914751923
 20
101.7044230415
 10
193.2057880973
 20
101.0842544077
 10
192.8338215863
 20
100.5430693788
 10
192.3086264348
 20
100.1289549334
 10
191.6768665602
 20
99.878706695
 10
190.9946792936
 20
99.8145609213
 10
190.3226788333
 20
99.942215444
  0
LWPOLYLINE
  5
151
330
1F
100
AcDbEntity
  8
0
  6
HIDDEN
 62
     7
370
     0
100
AcDbPolyline
 90
       23
 70
   128
 43
0.0
 10
190.2542750528
 20
100.0630787624
 10
189.6270553758
 20
100.3788678957
 10
189.1199204316
 20
100.8479173345
 10
188.7739555156
 20
101.4322263239
 10
188.6171878492
 20
102.0844575999
 10
188.6623188099
 20
102.7517725764
 10
188.9056920251
 20
103.3801079778
 10
189.3275895333
 20
103.9185614375
 10
189.8938327273
 20
104.3235088749
 10
190.5585483825
 20
104.5621444521
 10
191.2678846335
 20
104.6151357753
 10
191.9643751523
 20
104.4781894473
 10
192.5915957605
 20
104.162400314
 10
193.0987288421
 20
103.6933518065
 10
193.4446946895
 20
103.1090428172
 10
193.6014623558
 20
102.4568106098
 10
193.5563304638
 20
101.7894956334
 10
193.3129591113
 20
101.1611602319
 10
192.8910606718
 20
100.6227067722
 10
192.3248165464
 20
100.2177602662
 10
191.6601008913
 20
99.9791237576
 10
190.9507655716
 20
99.9261333657
 10
190.2542750528
 20
100.0630787624
  0
LWPOLYLINE
  5
152
330
1F
100
AcDbEntity
  8
0
  6
HIDDEN
 62
     7
370
     0
100
AcDbPolyline
 90
       22
 70
   128
 43
0.0
 10
190.3226788333
 20
100.1782088591
 10
189.7205750635
 20
100.4863238944
 10
189.2418678096
 20
100.9475185586
 10
188.9290924361
 20
101.5208174525
 10
188.8100396087
 20
102.1552781625
 10
188.8952891519
 20
102.7945258705
 10
189.1772656878
 20
103.3817620067
 10
189.6309138453
 20
103.8648064299
 10
190.2159250518
 20
104.2007400705
 10
190.8803194007
 20
104.3597131087
 10
191.5650612852
 20
104.327600175
 10
192.2093092641
 20
104.1072548417
 10
192.7558195954
 20
103.7182544408
 10
193.1560293948
 20
103.1951650096
 10
193.3743835604
 20
102.5844651325
 10
193.3914751923
 20
101.9404173879
 10
193.2057880973
 20
101.3202487541
 10
192.8338215863
 20
100.779062794
 10
192.3086264348
 20
100.3649483485
 10
191.6768665602
 20
100.1147001101
 10
190.9946792936
 20
100.0505543364
 10
190.3226788333
 20
100.1782088591
  0
LWPOLYLINE
  5
153
330
1F
100
AcDbEntity
  8
0
  6
HIDDEN
 62
     7
370
     0
100
AcDbPolyline
 90
       23
 70
   128
 43
0.0
 10
190.2542750528
 20
100.2990721775
 10
189.6270553758
 20
100.6148613108
 10
189.1199204316
 20
101.0839107497
 10
188.7739555156
 20
101.668219739
 10
188.6171878492
 20
102.3204519464
 10
188.6623188099
 20
102.9877669228
 10
188.9056920251
 20
103.6161023242
 10
189.3275895333
 20
104.1545548527
 10
189.8938327273
 20
104.55950229
 10
190.5585483825
 20
104.7981387986
 10
191.2678846335
 20
104.8511301218
 10
191.9643751523
 20
104.7141837938
 10
192.5915957605
 20
104.3983946605
 10
193.0987288421
 20
103.9293452216
 10
193.4446946895
 20
103.3450362323
 10
193.6014623558
 20
102.6928049562
 10
193.5563304638
 20
102.0254899798
 10
193.3129591113
 20
101.3971536471
 10
192.8910606718
 20
100.85870205
 10
192.3248165464
 20
100.4537536813
 10
191.6601008913
 20
100.2151171727
 10
190.9507655716
 20
100.1621267809
 10
190.2542750528
 20
100.2990721775
  0
LWPOLYLINE
  5
154
330
1F
100
AcDbEntity
  8
0
  6
HIDDEN
 62
     7
370
     0
100
AcDbPolyline
 90
       22
 70
   128
 43
0.0
 10
190.3226788333
 20
100.4142022742
 10
189.7205750635
 20
100.7223173095
 10
189.2418678096
 20
101.1835129051
 10
188.9290924361
 20
101.7568108676
 10
188.8100396087
 20
102.3912715776
 10
188.8952891519
 20
103.0305202169
 10
189.1772656878
 20
103.6177554218
 10
189.6309138453
 20
104.1008007763
 10
190.2159250518
 20
104.4367344169
 10
190.8803194007
 20
104.5957074551
 10
191.5650612852
 20
104.5635945214
 10
192.2093092641
 20
104.3432482569
 10
192.7558195954
 20
103.9542487873
 10
193.1560293948
 20
103.4311593561
 10
193.3743835604
 20
102.8204585476
 10
193.3914751923
 20
102.176410803
 10
193.2057880973
 20
101.5562421693
 10
192.8338215863
 20
101.0150571404
 10
192.3086264348
 20
100.6009417636
 10
191.6768665602
 20
100.3506935252
 10
190.9946792936
 20
100.2865477515
 10
190.3226788333
 20
100.4142022742
  0
LWPOLYLINE
  5
155
330
1F
100
AcDbEntity
  8
0
  6
HIDDEN
 62
     7
370
     0
100
AcDbPolyline
 90
       23
 70
   128
 43
0.0
 10
190.2542750528
 20
100.8976071192
 10
189.6270553758
 20
101.2133971838
 10
189.1199204316
 20
101.6824456913
 10
188.7739555156
 20
102.2667546807
 10
188.6171878492
 20
102.918986888
 10
188.6623188099
 20
103.5863018645
 10
188.9056920251
 20
104.2146372659
 10
189.3275895333
 20
104.7530907257
 10
189.8938327273
 20
105.158038163
 10
190.5585483825
 20
105.3966737403
 10
191.2678846335
 20
105.4496650634
 10
191.9643751523
 20
105.3127187354
 10
192.5915957605
 20
104.9969296021
 10
193.0987288421
 20
104.5278810946
 10
193.4446946895
 20
103.9435721053
 10
193.6014623558
 20
103.2913398979
 10
193.5563304638
 20
102.6240249215
 10
193.3129591113
 20
101.9956895201
 10
192.8910606718
 20
101.4572360603
 10
192.3248165464
 20
101.052288623
 10
191.6601008913
 20
100.8136521144
 10
190.9507655716
 20
100.7606617225
 10
190.2542750528
 20
100.8976071192
  0
LWPOLYLINE
  5
156
330
1F
100
AcDbEntity
  8
0
  6
HIDDEN
 62
     7
370
     0
100
AcDbPolyline
 90
       20
 70
   128
 43
0.0
 10
190.4319937518
 20
101.4590456201
 10
189.8644429808
 20
101.7604625834
 10
189.4317942848
 20
102.2187170623
 10
189.1809323048
 20
102.784150937
 10
189.1390414154
 20
103.3954906328
 10
189.3106618142
 20
103.9864874495
 10
189.6771949893
 20
104.4930980591
 10
190.1989218956
 20
104.8604237897
 10
190.8193047335
 20
105.0486589832
 10
191.4711159831
 20
105.0374048812
 10
192.0837213462
 20
104.8278815163
 10
192.5907352185
 20
104.4427936016
 10
192.9372170186
 20
103.9238718389
 10
193.0856176829
 20
103.3273494853
 10
193.0198551333
 20
102.7178687094
 10
192.7470577126
 20
102.1614761142
 10
192.2967874622
 20
101.7184655232
 10
191.7178363716
 20
101.4368447525
 10
191.0729439175
 20
101.3471304489
 10
190.4319937518
 20
101.4590456201
  0
LWPOLYLINE
  5
157
330
1F
100
AcDbEntity
  8
0
  6
HIDDEN
 62
     7
370
     0
100
AcDbPolyline
 90
       20
 70
   128
 43
0.0
 10
190.9745943909
 20
128.1620875983
 10
191.6234337902
 20
128.221576759
 10
192.2165624043
 20
128.4758147834
 10
192.6897050058
 20
128.8972522182
 10
192.9915876305
 20
129.4402188672
 10
193.0894994354
 20
130.0458756326
 10
192.9728270685
 20
130.64859035
 10
192.6542160278
 20
131.1830502985
 10
192.1681923037
 20
131.5913383899
 10
191.5674240505
 20
131.8292093514
 10
190.9170125788
 20
131.8708860366
 10
190.2874422437
 20
131.7118533937
 10
189.7469352176
 20
131.3693446157
 10
189.3540642401
 20
130.8804747699
 10
189.1514028599
 20
130.2982221408
 10
189.1609125948
 20
129.6856819702
 10
189.3815634018
 20
129.1092324121
 10
189.7894445052
 20
128.6313400654
 10
190.3403544044
 20
128.3037939159
 10
190.9745943909
 20
128.1620875983
  0
LWPOLYLINE
  5
158
330
1F
100
AcDbEntity
  8
0
  6
HIDDEN
 62
     7
370
     0
100
AcDbPolyline
 90
       23
 70
   128
 43
0.0
 10
190.9392432487
 20
127.7775463698
 10
191.6488318881
 20
127.8274578093
 10
192.3147135591
 20
128.0632062865
 10
192.8829414016
 20
128.4656922383
 10
193.3074810719
 20
129.0023081986
 10
193.5539406901
 20
129.629580961
 10
193.6023508375
 20
130.2966929091
 10
193.4487906462
 20
130.9495975314
 10
193.1057007229
 20
131.5354022248
 10
192.6008773213
 20
132.0066477222
 10
191.9752166783
 20
132.3251563175
 10
191.2794069564
 20
132.4651229246
 10
190.5698173856
 20
132.4152114851
 10
189.9039366459
 20
132.1794630079
 10
189.3357088035
 20
131.7769770561
 10
188.9111682018
 20
131.2403610958
 10
188.6647095149
 20
130.6130883334
 10
188.6162993675
 20
129.9459763853
 10
188.7698595589
 20
129.2930708317
 10
189.1129485508
 20
128.7072670696
 10
189.6177728837
 20
128.2360215722
 10
190.2434335267
 20
127.9175139083
 10
190.9392432487
 20
127.7775463698
  0
LWPOLYLINE
  5
159
330
1F
100
AcDbEntity
  8
0
  6
HIDDEN
 62
     7
370
     0
100
AcDbPolyline
 90
       23
 70
   128
 43
0.0
 10
190.9392432487
 20
128.3760813115
 10
191.6488318881
 20
128.4259936823
 10
192.3147135591
 20
128.6617412282
 10
192.8829414016
 20
129.06422718
 10
193.3074810719
 20
129.6008431403
 10
193.5539406901
 20
130.2281159027
 10
193.6023508375
 20
130.8952278508
 10
193.4487906462
 20
131.5481334044
 10
193.1057007229
 20
132.1339371664
 10
192.6008773213
 20
132.6051826639
 10
191.9752166783
 20
132.9236912591
 10
191.2794069564
 20
133.0636578662
 10
190.5698173856
 20
133.0137464268
 10
189.9039366459
 20
132.7779988809
 10
189.3357088035
 20
132.3755129291
 10
188.9111682018
 20
131.8388960375
 10
188.6647095149
 20
131.2116232751
 10
188.6162993675
 20
130.544511327
 10
188.7698595589
 20
129.8916067047
 10
189.1129485508
 20
129.3058020113
 10
189.6177728837
 20
128.8345574452
 10
190.2434335267
 20
128.5160488499
 10
190.9392432487
 20
128.3760813115
  0
LWPOLYLINE
  5
15A
330
1F
100
AcDbEntity
  8
0
  6
HIDDEN
 62
     7
370
     0
100
AcDbPolyline
 90
       20
 70
   128
 43
0.0
 10
190.9732598057
 20
130.0248081846
 10
191.628526262
 20
130.0848868726
 10
192.2275296589
 20
130.3416431932
 10
192.7053586757
 20
130.7672548158
 10
193.0102308458
 20
131.3155989213
 10
193.1091130888
 20
131.9272552667
 10
192.991285882
 20
132.5359406931
 10
192.6695176577
 20
133.0756942792
 10
192.1786799273
 20
133.4880261732
 10
191.5719614541
 20
133.7282515181
 10
190.9151080241
 20
133.7703417106
 10
190.279301553
 20
133.6097351326
 10
189.7334412849
 20
133.2638326151
 10
189.3366783103
 20
132.7701217545
 10
189.13200993
 20
132.1821014447
 10
189.1416146597
 20
131.5634937076
 10
189.3644503495
 20
130.9813342107
 10
189.7763705989
 20
130.4987098141
 10
190.3327380484
 20
130.1679189367
 10
190.9732598057
 20
130.0248081846
  0
LWPOLYLINE
  5
15B
330
1F
100
AcDbEntity
  8
0
  6
HIDDEN
 62
     7
370
     0
100
AcDbPolyline
 90
       20
 70
   128
 43
0.0
 10
190.9732598057
 20
128.6070325462
 10
191.628526262
 20
128.6671112342
 10
192.2275296589
 20
128.9238675548
 10
192.7053586757
 20
129.3494791774
 10
193.0102308458
 20
129.8978232829
 10
193.1091130888
 20
130.5094796283
 10
192.991285882
 20
131.1181641234
 10
192.6695176577
 20
131.6579177095
 10
192.1786799273
 20
132.0702496035
 10
191.5719614541
 20
132.310476811
 10
190.9151080241
 20
132.3525670035
 10
190.279301553
 20
132.1919585628
 10
189.7334412849
 20
131.8460569767
 10
189.3366783103
 20
131.3523451848
 10
189.13200993
 20
130.764324875
 10
189.1416146597
 20
130.1457180692
 10
189.3644503495
 20
129.5635585723
 10
189.7763705989
 20
129.0809332443
 10
190.3327380484
 20
128.7501432983
 10
190.9732598057
 20
128.6070325462
  0
LWPOLYLINE
  5
15C
330
1F
100
AcDbEntity
  8
0
  6
HIDDEN
 62
     7
370
     0
100
AcDbPolyline
 90
       23
 70
   128
 43
0.0
 10
190.9392432487
 20
128.6120747266
 10
191.6488318881
 20
128.6619870974
 10
192.3147135591
 20
128.8977355747
 10
192.8829414016
 20
129.3002215264
 10
193.3074810719
 20
129.8368374867
 10
193.5539406901
 20
130.4641102491
 10
193.6023508375
 20
131.1312221972
 10
193.4487906462
 20
131.7841268195
 10
193.1057007229
 20
132.3699305816
 10
192.6008773213
 20
132.841176079
 10
191.9752166783
 20
133.1596846743
 10
191.2794069564
 20
133.299653144
 10
190.5698173856
 20
133.2497398419
 10
189.9039366459
 20
133.013992296
 10
189.3357088035
 20
132.6115063442
 10
188.9111682018
 20
132.0748903839
 10
188.6647095149
 20
131.4476176215
 10
188.6162993675
 20
130.7805056734
 10
188.7698595589
 20
130.1276001198
 10
189.1129485508
 20
129.5417963577
 10
189.6177728837
 20
129.0705508603
 10
190.2434335267
 20
128.7520431964
 10
190.9392432487
 20
128.6120747266
  0
LWPOLYLINE
  5
15D
330
1F
100
AcDbEntity
  8
0
  6
HIDDEN
 62
     7
370
     0
100
AcDbPolyline
 90
       22
 70
   128
 43
0.0
 10
190.9528498715
 20
128.6250582946
 10
191.6361677637
 20
128.67751597
 10
192.2726736581
 20
128.9169077812
 10
192.8058111286
 20
129.3219623206
 10
193.1882065898
 20
129.8566895587
 10
193.3858872568
 20
130.4735771431
 10
193.381282798
 20
131.1178102208
 10
193.1748067206
 20
131.7321478439
 10
192.7848023539
 20
132.262001471
 10
192.2459251424
 20
132.6602927459
 10
191.6060553109
 20
132.8916295482
 10
190.9220491713
 20
132.9354613138
 10
190.2546839034
 20
132.787887664
 10
189.6632568156
 20
132.4620253457
 10
189.2003187155
 20
131.9868254526
 10
188.9070051899
 20
131.4045141501
 10
188.8093765071
 20
130.7668319954
 10
188.9161088681
 20
130.130438791
 10
189.2177186152
 20
129.5518816499
 10
189.6874050787
 20
129.0825667841
 10
190.2834356939
 20
128.7641960246
 10
190.9528498715
 20
128.6250582946
  0
LWPOLYLINE
  5
15E
330
1F
100
AcDbEntity
  8
0
  6
HIDDEN
 62
     7
370
     0
100
AcDbPolyline
 90
       23
 70
   128
 43
0.0
 10
190.9392432487
 20
128.8480690731
 10
191.6488318881
 20
128.8979814438
 10
192.3147135591
 20
129.1337299211
 10
192.8829414016
 20
129.5362149416
 10
193.3074810719
 20
130.0728309019
 10
193.5539406901
 20
130.7001036642
 10
193.6023508375
 20
131.3672156123
 10
193.4487906462
 20
132.0201211659
 10
193.1057007229
 20
132.6059258593
 10
192.6008773213
 20
133.0771694941
 10
191.9752166783
 20
133.3956780894
 10
191.2794069564
 20
133.5356465591
 10
190.5698173856
 20
133.485733257
 10
189.9039366459
 20
133.2499857111
 10
189.3357088035
 20
132.8474997593
 10
188.9111682018
 20
132.3108847303
 10
188.6647095149
 20
131.6836110367
 10
188.6162993675
 20
131.0165000198
 10
188.7698595589
 20
130.3635944663
 10
189.1129485508
 20
129.7777897729
 10
189.6177728837
 20
129.3065452067
 10
190.2434335267
 20
128.9880366115
 10
190.9392432487
 20
128.8480690731
  0
LWPOLYLINE
  5
15F
330
1F
100
AcDbEntity
  8
0
  6
HIDDEN
 62
     7
370
     0
100
AcDbPolyline
 90
       22
 70
   128
 43
0.0
 10
190.9528498715
 20
128.8610526411
 10
191.6361677637
 20
128.9135093851
 10
192.2726736581
 20
129.1529011963
 10
192.8058111286
 20
129.5579566671
 10
193.1882065898
 20
130.0926839052
 10
193.3858872568
 20
130.7095705582
 10
193.381282798
 20
131.3538045673
 10
193.1748067206
 20
131.9681412591
 10
192.7848023539
 20
132.4979948862
 10
192.2459251424
 20
132.8962861611
 10
191.6060553109
 20
133.1276248259
 10
190.9220491713
 20
133.171454729
 10
190.2546839034
 20
133.0238810791
 10
189.6632568156
 20
132.6980187608
 10
189.2003187155
 20
132.222819799
 10
188.9070051899
 20
131.6405084966
 10
188.8093765071
 20
131.0028254105
 10
188.9161088681
 20
130.3664322061
 10
189.2177186152
 20
129.787875065
 10
189.6874050787
 20
129.3185611306
 10
190.2834356939
 20
129.0001903711
 10
190.9528498715
 20
128.8610526411
  0
LWPOLYLINE
  5
160
330
1F
100
AcDbEntity
  8
0
  6
HIDDEN
 62
     7
370
     0
100
AcDbPolyline
 90
       23
 70
   128
 43
0.0
 10
190.9392432487
 20
129.0840624882
 10
191.6488318881
 20
129.1339748589
 10
192.3147135591
 20
129.3697233362
 10
192.8829414016
 20
129.772209288
 10
193.3074810719
 20
130.3088252483
 10
193.5539406901
 20
130.9360980107
 10
193.6023508375
 20
131.6032099588
 10
193.4487906462
 20
132.2561155124
 10
193.1057007229
 20
132.8419192744
 10
192.6008773213
 20
133.3131647719
 10
191.9752166783
 20
133.6316715045
 10
191.2794069564
 20
133.7716399742
 10
190.5698173856
 20
133.7217285348
 10
189.9039366459
 20
133.4859791262
 10
189.3357088035
 20
133.0834931744
 10
188.9111682018
 20
132.5468781454
 10
188.6647095149
 20
131.9196053831
 10
188.6162993675
 20
131.252493435
 10
188.7698595589
 20
130.5995878814
 10
189.1129485508
 20
130.0137841193
 10
189.6177728837
 20
129.5425386218
 10
190.2434335267
 20
129.2240309579
 10
190.9392432487
 20
129.0840624882
  0
LWPOLYLINE
  5
161
330
1F
100
AcDbEntity
  8
0
  6
HIDDEN
 62
     7
370
     0
100
AcDbPolyline
 90
       22
 70
   128
 43
0.0
 10
190.9528498715
 20
129.0970460562
 10
191.6361677637
 20
129.1495037315
 10
192.2726736581
 20
129.3888955427
 10
192.8058111286
 20
129.7939500822
 10
193.1882065898
 20
130.3286773203
 10
193.3858872568
 20
130.9455649046
 10
193.381282798
 20
131.5897979824
 10
193.1748067206
 20
132.2041356055
 10
192.7848023539
 20
132.7339883013
 10
192.2459251424
 20
133.1322795762
 10
191.6060553109
 20
133.3636182411
 10
190.9220491713
 20
133.4074481441
 10
190.2546839034
 20
133.2598763568
 10
189.6632568156
 20
132.9340121759
 10
189.2003187155
 20
132.4588141454
 10
188.9070051899
 20
131.876502843
 10
188.8093765071
 20
131.2388197569
 10
188.9161088681
 20
130.6024265526
 10
189.2177186152
 20
130.0238694115
 10
189.6874050787
 20
129.5545545457
 10
190.2834356939
 20
129.2361837862
 10
190.9528498715
 20
129.0970460562
  0
LWPOLYLINE
  5
162
330
1F
100
AcDbEntity
  8
0
  6
HIDDEN
 62
     7
370
     0
100
AcDbPolyline
 90
       23
 70
   128
 43
0.0
 10
190.9392432487
 20
129.3200568346
 10
191.6488318881
 20
129.3699692054
 10
192.3147135591
 20
129.6057176827
 10
192.8829414016
 20
130.0082027031
 10
193.3074810719
 20
130.5448186634
 10
193.5539406901
 20
131.1720914258
 10
193.6023508375
 20
131.8392033739
 10
193.4487906462
 20
132.4921089275
 10
193.1057007229
 20
133.0779126896
 10
192.6008773213
 20
133.549158187
 10
191.9752166783
 20
133.8676667823
 10
191.2794069564
 20
134.0076333893
 10
190.5698173856
 20
133.9577219499
 10
189.9039366459
 20
133.721974404
 10
189.3357088035
 20
133.3194884522
 10
188.9111682018
 20
132.7828715606
 10
188.6647095149
 20
132.1555987982
 10
188.6162993675
 20
131.4884877814
 10
188.7698595589
 20
130.8355822278
 10
189.1129485508
 20
130.2497775344
 10
189.6177728837
 20
129.7785329683
 10
190.2434335267
 20
129.460024373
 10
190.9392432487
 20
129.3200568346
  0
LWPOLYLINE
  5
163
330
1F
100
AcDbEntity
  8
0
  6
HIDDEN
 62
     7
370
     0
100
AcDbPolyline
 90
       22
 70
   128
 43
0.0
 10
190.9528498715
 20
129.3330404026
 10
191.6361677637
 20
129.3854971467
 10
192.2726736581
 20
129.6248889579
 10
192.8058111286
 20
130.0299444286
 10
193.1882065898
 20
130.5646716667
 10
193.3858872568
 20
131.1815583197
 10
193.381282798
 20
131.8257923288
 10
193.1748067206
 20
132.4401299519
 10
192.7848023539
 20
132.969983579
 10
192.2459251424
 20
133.3682748539
 10
191.6060553109
 20
133.5996116562
 10
190.9220491713
 20
133.6434415592
 10
190.2546839034
 20
133.4958697719
 10
189.6632568156
 20
133.170005591
 10
189.2003187155
 20
132.6948075606
 10
188.9070051899
 20
132.1124962581
 10
188.8093765071
 20
131.474813172
 10
188.9161088681
 20
130.8384199677
 10
189.2177186152
 20
130.2598628266
 10
189.6874050787
 20
129.7905488921
 10
190.2834356939
 20
129.4721781326
 10
190.9528498715
 20
129.3330404026
  0
LWPOLYLINE
  5
164
330
1F
100
AcDbEntity
  8
0
  6
HIDDEN
 62
     7
370
     0
100
AcDbPolyline
 90
       23
 70
   128
 43
0.0
 10
190.9392432487
 20
129.5081681622
 10
191.6488318881
 20
129.5580796016
 10
192.3147135591
 20
129.7938280789
 10
192.8829414016
 20
130.1963140307
 10
193.3074810719
 20
130.732929991
 10
193.5539406901
 20
131.3602027534
 10
193.6023508375
 20
132.0273147015
 10
193.4487906462
 20
132.6802193237
 10
193.1057007229
 20
133.2660249485
 10
192.6008773213
 20
133.7372685833
 10
191.9752166783
 20
134.0557771785
 10
191.2794069564
 20
134.1957456483
 10
190.5698173856
 20
134.1458323462
 10
189.9039366459
 20
133.9100848002
 10
189.3357088035
 20
133.5075988485
 10
188.9111682018
 20
132.9709838195
 10
188.6647095149
 20
132.3437101258
 10
188.6162993675
 20
131.6765981777
 10
188.7698595589
 20
131.0236935554
 10
189.1129485508
 20
130.437888862
 10
189.6177728837
 20
129.9666433645
 10
190.2434335267
 20
129.6481357006
 10
190.9392432487
 20
129.5081681622
  0
LWPOLYLINE
  5
165
330
1F
100
AcDbEntity
  8
0
  6
HIDDEN
 62
     7
370
     0
100
AcDbPolyline
 90
       22
 70
   128
 43
0.0
 10
190.9487678846
 20
129.6873024715
 10
191.649911291
 20
129.7411282597
 10
192.3030217355
 20
129.9867655201
 10
192.8500657147
 20
130.4023868455
 10
193.2424393659
 20
130.9510643644
 10
193.4452739721
 20
131.5840433402
 10
193.4405521667
 20
132.2450830651
 10
193.2286874568
 20
132.8754468871
 10
192.828511185
 20
133.4191232039
 10
192.2755756592
 20
133.8278043134
 10
191.6190137332
 20
134.0651760859
 10
190.9171643844
 20
134.1101496531
 10
190.2323889723
 20
133.9587277783
 10
189.6255335947
 20
133.6243643476
 10
189.1505190348
 20
133.136768551
 10
188.8495537629
 20
132.5392673774
 10
188.7493779128
 20
131.8849490074
 10
188.8588949284
 20
131.2319540469
 10
189.1683715573
 20
130.6383038921
 10
189.6503114318
 20
130.1567467911
 10
190.2618904775
 20
129.8300704969
 10
190.9487678846
 20
129.6873024715
  0
LWPOLYLINE
  5
166
330
1F
100
AcDbEntity
  8
0
  6
HIDDEN
 62
     7
370
     0
100
AcDbPolyline
 90
       23
 70
   128
 43
0.0
 10
184.86870855
 20
127.6353240995
 10
184.4606435103
 20
127.4490158124
 10
184.0713460175
 20
127.459694357
 10
183.7323543793
 20
127.6664963974
 10
183.4711314356
 20
128.0526674403
 10
183.3088405607
 20
128.5869215665
 10
183.2586287698
 20
129.2259764908
 10
183.3245645454
 20
129.9180609224
 10
183.501306287
 20
130.6071064485
 10
183.77453491
 20
131.2372886626
 10
184.122115205
 20
131.7575561864
 10
184.5158881685
 20
132.1257582916
 10
184.9239536738
 20
132.31206751
 10
185.3132511666
 20
132.3013871027
 10
185.6522423392
 20
132.0945859937
 10
185.9134652829
 20
131.7084149508
 10
186.0757566234
 20
131.1741608245
 10
186.1259679487
 20
130.5351059003
 10
186.0600321731
 20
129.8430214686
 10
185.8832904315
 20
129.1539768739
 10
185.6100618085
 20
128.5237937285
 10
185.2624819791
 20
128.0035262046
 10
184.86870855
 20
127.6353240995
  0
LWPOLYLINE
  5
167
330
1F
100
AcDbEntity
  8
0
  6
HIDDEN
 62
     7
370
     0
100
AcDbPolyline
 90
       19
 70
   128
 43
0.0
 10
185.4301498448
 20
128.1617579101
 10
185.0820047026
 20
128.0209307609
 10
184.7609563908
 20
128.0866532637
 10
184.5057288362
 20
128.3509998633
 10
184.3471055096
 20
128.7820848687
 10
184.3042190364
 20
129.3279144032
 10
184.382241982
 20
129.9226523427
 10
184.571763332
 20
130.4945644973
 10
184.849924705
 20
130.9746705977
 10
185.1831752053
 20
131.305062869
 10
185.5313203474
 20
131.4458900182
 10
185.8523686593
 20
131.3801665841
 10
186.1075957483
 20
131.1158209158
 10
186.2662195405
 20
130.6847359104
 10
186.3091060137
 20
130.1389063759
 10
186.2310835337
 20
129.5441684363
 10
186.0415612524
 20
128.9722562818
 10
185.7634003451
 20
128.4921501813
 10
185.4301498448
 20
128.1617579101
  0
LWPOLYLINE
  5
168
330
1F
100
AcDbEntity
  8
0
  6
HIDDEN
 62
     7
370
     0
100
AcDbPolyline
 90
       23
 70
   128
 43
0.0
 10
182.4169217786
 20
128.2224903865
 10
182.0088567389
 20
128.0361820994
 10
181.6195592461
 20
128.046860644
 10
181.2805676078
 20
128.2536626844
 10
181.0193446642
 20
128.6398337273
 10
180.8570537893
 20
129.1740878535
 10
180.8068419984
 20
129.8131427778
 10
180.872777774
 20
130.5052272094
 10
181.0495195156
 20
131.1942727355
 10
181.3227481386
 20
131.8244549496
 10
181.6703284336
 20
132.3447215421
 10
182.0641013971
 20
132.7129255099
 10
182.4721664367
 20
132.8992328657
 10
182.8614639295
 20
132.888554321
 10
183.2004555678
 20
132.6817522807
 10
183.4616785115
 20
132.2955812378
 10
183.6239693863
 20
131.7613280429
 10
183.6741811773
 20
131.1222721873
 10
183.6082454016
 20
130.4301877556
 10
183.43150366
 20
129.7411431609
 10
183.1582750371
 20
129.1109600155
 10
182.810694742
 20
128.5906924916
 10
182.4169217786
 20
128.2224903865
  0
LINE
  5
169
330
1F
100
AcDbEntity
  8
0
  6
HIDDEN
 62
     7
370
     0
100
AcDbLine
 10
182.9059089711
 20
130.281843902
 30
0.0
 11
183.5665081805
 21
131.4220369844
 31
0.0
  0
LINE
  5
16A
330
1F
100
AcDbEntity
  8
0
  6
HIDDEN
 62
     7
370
     0
100
AcDbLine
 10
181.2676049946
 20
130.6741933389
 30
0.0
 11
181.9282037383
 21
131.8143854899
 31
0.0
  0
LWPOLYLINE
  5
16B
330
1F
100
AcDbEntity
  8
0
  6
HIDDEN
 62
     7
370
     0
100
AcDbPolyline
 90
       21
 70
   128
 43
0.0
 10
182.1750633595
 20
128.6725399135
 10
181.806494779
 20
128.512893529
 10
181.4598099506
 20
128.5495308278
 10
181.1689444063
 20
128.7788671492
 10
180.9623700744
 20
129.1784510998
 10
180.8603087617
 20
129.7091717882
 10
180.8727498343
 20
130.3190753845
 10
180.9984760536
 20
130.9484631805
 10
181.2251799917
 20
131.5357235311
 10
181.5306710256
 20
132.0233733444
 10
181.8850453189
 20
132.3636776818
 10
182.2536138995
 20
132.5233249975
 10
182.6002987279
 20
132.4866867675
 10
182.8911642721
 20
132.2573504461
 10
183.0977381384
 20
131.8577664955
 10
183.1997999167
 20
131.3270467384
 10
183.1873588441
 20
130.7171422107
 10
183.0616326248
 20
130.0877553461
 10
182.8349282211
 20
129.5004940642
 10
182.5294376528
 20
129.0128442509
 10
182.1750633595
 20
128.6725399135
  0
LINE
  5
16C
330
1F
100
AcDbEntity
  8
0
  6
HIDDEN
 62
     7
370
     0
100
AcDbLine
 10
181.3694553627
 20
129.3779161809
 30
0.0
 11
181.2676049946
 21
130.6741933389
 31
0.0
  0
LINE
  5
16D
330
1F
100
AcDbEntity
  8
0
  6
HIDDEN
 62
     7
370
     0
100
AcDbLine
 10
183.0077593392
 20
128.985566744
 30
0.0
 11
182.9059089711
 21
130.281843902
 31
0.0
  0
LINE
  5
16E
330
1F
100
AcDbEntity
  8
0
  6
HIDDEN
 62
     7
370
     0
100
AcDbLine
 10
182.9059089711
 20
130.281843902
 30
0.0
 11
181.2676049946
 21
130.6741933389
 31
0.0
  0
LINE
  5
16F
330
1F
100
AcDbEntity
  8
0
  6
HIDDEN
 62
     7
370
     0
100
AcDbLine
 10
182.6906533157
 20
131.6583023457
 30
0.0
 11
181.9282037383
 21
131.8143854899
 31
0.0
  0
LINE
  5
170
330
1F
100
AcDbEntity
  8
0
  6
HIDDEN
 62
     7
370
     0
100
AcDbLine
 10
184.3289572922
 20
131.2659529088
 30
0.0
 11
183.5665081805
 21
131.4220369844
 31
0.0
  0
LINE
  5
171
330
1F
100
AcDbEntity
  8
0
  6
HIDDEN
 62
     7
370
     0
100
AcDbLine
 10
183.5665081805
 20
131.4220369844
 30
0.0
 11
181.9282037383
 21
131.8143854899
 31
0.0
  0
LINE
  5
172
330
1F
100
AcDbEntity
  8
0
  6
HIDDEN
 62
     7
370
     0
100
AcDbLine
 10
183.7702089166
 20
128.8294826685
 30
0.0
 11
182.1319049401
 21
129.2218321053
 31
0.0
  0
LINE
  5
173
330
1F
100
AcDbEntity
  8
0
  6
HIDDEN
 62
     7
370
     0
100
AcDbLine
 10
183.0077593392
 20
128.985566744
 30
0.0
 11
181.3694553627
 21
129.3779161809
 31
0.0
  0
LINE
  5
174
330
1F
100
AcDbEntity
  8
0
  6
HIDDEN
 62
     7
370
     0
100
AcDbLine
 10
181.3694553627
 20
129.3779161809
 30
0.0
 11
182.1319049401
 21
129.2218321053
 31
0.0
  0
LINE
  5
175
330
1F
100
AcDbEntity
  8
0
  6
HIDDEN
 62
     7
370
     0
100
AcDbLine
 10
183.0077593392
 20
128.985566744
 30
0.0
 11
183.7702089166
 21
128.8294826685
 31
0.0
  0
LINE
  5
176
330
1F
100
AcDbEntity
  8
0
  6
HIDDEN
 62
     7
370
     0
100
AcDbLine
 10
184.4308076603
 20
129.9696757508
 30
0.0
 11
182.7925036838
 21
130.3620251877
 31
0.0
  0
LINE
  5
177
330
1F
100
AcDbEntity
  8
0
  6
HIDDEN
 62
     7
370
     0
100
AcDbLine
 10
182.7925036838
 20
130.3620251877
 30
0.0
 11
182.1319049401
 21
129.2218321053
 31
0.0
  0
LINE
  5
178
330
1F
100
AcDbEntity
  8
0
  6
HIDDEN
 62
     7
370
     0
100
AcDbLine
 10
184.4308076603
 20
129.9696757508
 30
0.0
 11
183.7702089166
 21
128.8294826685
 31
0.0
  0
LINE
  5
179
330
1F
100
AcDbEntity
  8
0
  6
HIDDEN
 62
     7
370
     0
100
AcDbLine
 10
184.3289572922
 20
131.2659529088
 30
0.0
 11
182.6906533157
 21
131.6583023457
 31
0.0
  0
LINE
  5
17A
330
1F
100
AcDbEntity
  8
0
  6
HIDDEN
 62
     7
370
     0
100
AcDbLine
 10
182.7925036838
 20
130.3620251877
 30
0.0
 11
182.6906533157
 21
131.6583023457
 31
0.0
  0
LINE
  5
17B
330
1F
100
AcDbEntity
  8
0
  6
HIDDEN
 62
     7
370
     0
100
AcDbLine
 10
184.4308076603
 20
129.9696757508
 30
0.0
 11
184.3289572922
 21
131.2659529088
 31
0.0
  0
LWPOLYLINE
  5
17C
330
1F
100
AcDbEntity
  8
0
  6
HIDDEN
 62
     7
370
     0
100
AcDbPolyline
 90
       21
 70
   128
 43
0.0
 10
182.1750633595
 20
104.5539581267
 10
181.806494779
 20
104.7136045111
 10
181.4598099506
 20
104.6769672124
 10
181.1689444063
 20
104.447630891
 10
180.9623700744
 20
104.0480469404
 10
180.8603087617
 20
103.517326252
 10
180.8727498343
 20
102.9074226556
 10
180.9984760536
 20
102.2780348597
 10
181.2251799917
 20
101.6907745091
 10
181.5306710256
 20
101.2031246958
 10
181.8850453189
 20
100.8628203584
 10
182.2536138995
 20
100.7031730426
 10
182.6002987279
 20
100.7398112727
 10
182.8911642721
 20
100.9691475941
 10
183.0977381384
 20
101.3687315447
 10
183.1997999167
 20
101.8994513018
 10
183.1873588441
 20
102.5093558295
 10
183.0616326248
 20
103.1387426941
 10
182.8349282211
 20
103.726003976
 10
182.5294376528
 20
104.2136537893
 10
182.1750633595
 20
104.5539581267
  0
LWPOLYLINE
  5
17D
330
1F
100
AcDbEntity
  8
0
  6
HIDDEN
 62
     7
370
     0
100
AcDbPolyline
 90
       23
 70
   128
 43
0.0
 10
182.4169217786
 20
105.0040076537
 10
182.0088567389
 20
105.1903159408
 10
181.6195592461
 20
105.1796373961
 10
181.2805676078
 20
104.9728353558
 10
181.0193446642
 20
104.5866643129
 10
180.8570537893
 20
104.0524101866
 10
180.8068419984
 20
103.4133552624
 10
180.872777774
 20
102.7212708307
 10
181.0495195156
 20
102.0322253047
 10
181.3227481386
 20
101.4020430906
 10
181.6703284336
 20
100.8817764981
 10
182.0641013971
 20
100.5135725303
 10
182.4721664367
 20
100.3272651745
 10
182.8614639295
 20
100.3379437191
 10
183.2004555678
 20
100.5447457595
 10
183.4616785115
 20
100.9309168024
 10
183.6239693863
 20
101.4651699973
 10
183.6741811773
 20
102.1042258529
 10
183.6082454016
 20
102.7963102845
 10
183.43150366
 20
103.4853548793
 10
183.1582750371
 20
104.1155380247
 10
182.810694742
 20
104.6358055485
 10
182.4169217786
 20
105.0040076537
  0
LWPOLYLINE
  5
17E
330
1F
100
AcDbEntity
  8
0
  6
HIDDEN
 62
     7
370
     0
100
AcDbPolyline
 90
       23
 70
   128
 43
0.0
 10
184.86870855
 20
105.5911739407
 10
184.4606435103
 20
105.7774822278
 10
184.0713460175
 20
105.7668036832
 10
183.7323543793
 20
105.5600016428
 10
183.4711314356
 20
105.1738305999
 10
183.3088405607
 20
104.6395764736
 10
183.2586287698
 20
104.0005215494
 10
183.3245645454
 20
103.3084371177
 10
183.501306287
 20
102.6193915917
 10
183.77453491
 20
101.9892093776
 10
184.122115205
 20
101.4689418538
 10
184.5158881685
 20
101.1007397486
 10
184.9239536738
 20
100.9144305302
 10
185.3132511666
 20
100.9251109375
 10
185.6522423392
 20
101.1319120465
 10
185.9134652829
 20
101.5180830894
 10
186.0757566234
 20
102.0523372157
 10
186.1259679487
 20
102.6913921399
 10
186.0600321731
 20
103.3834765716
 10
185.8832904315
 20
104.0725211663
 10
185.6100618085
 20
104.7027043117
 10
185.2624819791
 20
105.2229718355
 10
184.86870855
 20
105.5911739407
  0
LINE
  5
17F
330
1F
100
AcDbEntity
  8
0
  6
HIDDEN
 62
     7
370
     0
100
AcDbLine
 10
181.2676049946
 20
102.5523047013
 30
0.0
 11
181.9282037383
 21
101.4121125503
 31
0.0
  0
LINE
  5
180
330
1F
100
AcDbEntity
  8
0
  6
HIDDEN
 62
     7
370
     0
100
AcDbLine
 10
182.6906533157
 20
101.5681956945
 30
0.0
 11
181.9282037383
 21
101.4121125503
 31
0.0
  0
LINE
  5
181
330
1F
100
AcDbEntity
  8
0
  6
HIDDEN
 62
     7
370
     0
100
AcDbLine
 10
182.7925036838
 20
102.8644728525
 30
0.0
 11
182.6906533157
 21
101.5681956945
 31
0.0
  0
LINE
  5
182
330
1F
100
AcDbEntity
  8
0
  6
HIDDEN
 62
     7
370
     0
100
AcDbLine
 10
182.7925036838
 20
102.8644728525
 30
0.0
 11
182.1319049401
 21
104.0046659349
 31
0.0
  0
LINE
  5
183
330
1F
100
AcDbEntity
  8
0
  6
HIDDEN
 62
     7
370
     0
100
AcDbLine
 10
181.3694553627
 20
103.8485818593
 30
0.0
 11
182.1319049401
 21
104.0046659349
 31
0.0
  0
LINE
  5
184
330
1F
100
AcDbEntity
  8
0
  6
HIDDEN
 62
     7
370
     0
100
AcDbLine
 10
181.3694553627
 20
103.8485818593
 30
0.0
 11
181.2676049946
 21
102.5523047013
 31
0.0
  0
LINE
  5
185
330
1F
100
AcDbEntity
  8
0
  6
HIDDEN
 62
     7
370
     0
100
AcDbLine
 10
184.4308076603
 20
103.2568222893
 30
0.0
 11
182.7925036838
 21
102.8644728525
 31
0.0
  0
LWPOLYLINE
  5
186
330
1F
100
AcDbEntity
  8
0
  6
HIDDEN
 62
     7
370
     0
100
AcDbPolyline
 90
       19
 70
   128
 43
0.0
 10
185.4301498448
 20
105.0647401301
 10
185.0820047026
 20
105.2055672793
 10
184.7609563908
 20
105.1398447765
 10
184.5057288362
 20
104.8754981769
 10
184.3471055096
 20
104.4444131715
 10
184.3042190364
 20
103.898583637
 10
184.382241982
 20
103.3038456975
 10
184.571763332
 20
102.7319335429
 10
184.849924705
 20
102.2518274425
 10
185.1831752053
 20
101.9214351712
 10
185.5313203474
 20
101.780608022
 10
185.8523686593
 20
101.8463314561
 10
186.1075957483
 20
102.1106771244
 10
186.2662195405
 20
102.5417621298
 10
186.3091060137
 20
103.0875916643
 10
186.2310835337
 20
103.6823296038
 10
186.0415612524
 20
104.2542417584
 10
185.7634003451
 20
104.7343478588
 10
185.4301498448
 20
105.0647401301
  0
LINE
  5
187
330
1F
100
AcDbEntity
  8
0
  6
HIDDEN
 62
     7
370
     0
100
AcDbLine
 10
183.7702089166
 20
104.3970153717
 30
0.0
 11
182.1319049401
 21
104.0046659349
 31
0.0
  0
LINE
  5
188
330
1F
100
AcDbEntity
  8
0
  6
HIDDEN
 62
     7
370
     0
100
AcDbLine
 10
183.5665081805
 20
101.8044610558
 30
0.0
 11
181.9282037383
 21
101.4121125503
 31
0.0
  0
LINE
  5
189
330
1F
100
AcDbEntity
  8
0
  6
HIDDEN
 62
     7
370
     0
100
AcDbLine
 10
184.3289572922
 20
101.9605451314
 30
0.0
 11
183.5665081805
 21
101.8044610558
 31
0.0
  0
LINE
  5
18A
330
1F
100
AcDbEntity
  8
0
  6
HIDDEN
 62
     7
370
     0
100
AcDbLine
 10
184.3289572922
 20
101.9605451314
 30
0.0
 11
182.6906533157
 21
101.5681956945
 31
0.0
  0
LINE
  5
18B
330
1F
100
AcDbEntity
  8
0
  6
HIDDEN
 62
     7
370
     0
100
AcDbLine
 10
182.9059089711
 20
102.9446541382
 30
0.0
 11
183.5665081805
 21
101.8044610558
 31
0.0
  0
LINE
  5
18C
330
1F
100
AcDbEntity
  8
0
  6
HIDDEN
 62
     7
370
     0
100
AcDbLine
 10
183.0077593392
 20
104.2409312962
 30
0.0
 11
182.9059089711
 21
102.9446541382
 31
0.0
  0
LINE
  5
18D
330
1F
100
AcDbEntity
  8
0
  6
HIDDEN
 62
     7
370
     0
100
AcDbLine
 10
183.0077593392
 20
104.2409312962
 30
0.0
 11
183.7702089166
 21
104.3970153717
 31
0.0
  0
LINE
  5
18E
330
1F
100
AcDbEntity
  8
0
  6
HIDDEN
 62
     7
370
     0
100
AcDbLine
 10
184.4308076603
 20
103.2568222893
 30
0.0
 11
184.3289572922
 21
101.9605451314
 31
0.0
  0
LINE
  5
18F
330
1F
100
AcDbEntity
  8
0
  6
HIDDEN
 62
     7
370
     0
100
AcDbLine
 10
184.4308076603
 20
103.2568222893
 30
0.0
 11
183.7702089166
 21
104.3970153717
 31
0.0
  0
LINE
  5
190
330
1F
100
AcDbEntity
  8
0
  6
HIDDEN
 62
     7
370
     0
100
AcDbLine
 10
182.9059089711
 20
102.9446541382
 30
0.0
 11
181.2676049946
 21
102.5523047013
 31
0.0
  0
LINE
  5
191
330
1F
100
AcDbEntity
  8
0
  6
HIDDEN
 62
     7
370
     0
100
AcDbLine
 10
183.0077593392
 20
104.2409312962
 30
0.0
 11
181.3694553627
 21
103.8485818593
 31
0.0
  0
LINE
  5
192
330
1F
100
AcDbEntity
  8
0
  6
HIDDEN
 62
     7
370
     0
100
AcDbLine
 10
214.8593266672
 20
140.9132487191
 30
0.0
 11
214.4829941159
 21
141.2895794077
 31
0.0
  0
LINE
  5
193
330
1F
100
AcDbEntity
  8
0
  6
HIDDEN
 62
     7
370
     0
100
AcDbLine
 10
203.23422674
 20
141.2881507589
 30
0.0
 11
202.8593247002
 21
140.9132487191
 31
0.0
  0
LINE
  5
194
330
1F
100
AcDbEntity
  8
0
  6
HIDDEN
 62
     7
370
     0
100
AcDbLine
 10
202.8593247002
 20
140.9132487191
 30
0.0
 11
202.8593247002
 21
133.5103630139
 31
0.0
  0
LINE
  5
195
330
1F
100
AcDbEntity
  8
0
  6
HIDDEN
 62
     7
370
     0
100
AcDbLine
 10
214.8593266672
 20
133.5103630139
 30
0.0
 11
214.8593266672
 21
140.9132487191
 31
0.0
  0
LINE
  5
196
330
1F
100
AcDbEntity
  8
0
  6
HIDDEN
 62
     7
370
     0
100
AcDbLine
 10
202.8593247002
 20
133.5103630139
 30
0.0
 11
205.0497451043
 21
125.335603678
 31
0.0
  0
LINE
  5
197
330
1F
100
AcDbEntity
  8
0
  6
HIDDEN
 62
     7
370
     0
100
AcDbLine
 10
212.6689044004
 20
125.335603678
 30
0.0
 11
214.8593266672
 21
133.5103630139
 31
0.0
  0
ARC
  5
198
330
1F
100
AcDbEntity
  8
0
  6
HIDDEN
 62
     7
370
     0
100
AcDbCircle
 10
205.3395231065
 20
125.4132490201
 30
0.0
 40
0.3000000000000279
100
AcDbArc
 50
195.0
 51
270.0
  0
ARC
  5
199
330
1F
100
AcDbEntity
  8
0
  6
HIDDEN
 62
     7
370
     0
100
AcDbCircle
 10
212.3791269137
 20
125.4132490201
 30
0.0
 40
0.3000000000000256
100
AcDbArc
 50
270.0
 51
345.0
  0
LINE
  5
19A
330
1F
100
AcDbEntity
  8
0
  6
HIDDEN
 62
     7
370
     0
100
AcDbLine
 10
205.2593243485
 20
141.6132493926
 30
0.0
 11
205.8593251919
 21
141.0132485492
 31
0.0
  0
LINE
  5
19B
330
1F
100
AcDbEntity
  8
0
  6
HIDDEN
 62
     7
370
     0
100
AcDbLine
 10
211.8593243128
 20
141.0132485492
 30
0.0
 11
212.4593232935
 21
141.6132493926
 31
0.0
  0
LINE
  5
19C
330
1F
100
AcDbEntity
  8
0
  6
HIDDEN
 62
     7
370
     0
100
AcDbLine
 10
205.8593251919
 20
134.6132482452
 30
0.0
 11
205.8593251919
 21
133.613249944
 31
0.0
  0
LINE
  5
19D
330
1F
100
AcDbEntity
  8
0
  6
HIDDEN
 62
     7
370
     0
100
AcDbLine
 10
211.8593243128
 20
133.613249944
 30
0.0
 11
211.8593243128
 21
134.6132482452
 31
0.0
  0
LINE
  5
19E
330
1F
100
AcDbEntity
  8
0
  6
HIDDEN
 62
     7
370
     0
100
AcDbLine
 10
205.8593251919
 20
133.613249944
 30
0.0
 11
208.8593256837
 21
132.5213375552
 31
0.0
  0
LINE
  5
19F
330
1F
100
AcDbEntity
  8
0
  6
HIDDEN
 62
     7
370
     0
100
AcDbLine
 10
208.8593256837
 20
132.5213375552
 30
0.0
 11
211.8593243128
 21
133.613249944
 31
0.0
  0
LINE
  5
1A0
330
1F
100
AcDbEntity
  8
0
  6
HIDDEN
 62
     7
370
     0
100
AcDbLine
 10
193.609324581
 20
99.9489358677
 30
0.0
 11
193.609324581
 21
103.1051638586
 31
0.0
  0
LINE
  5
1A1
330
1F
100
AcDbEntity
  8
0
  6
HIDDEN
 62
     7
370
     0
100
AcDbLine
 10
188.6093246927
 20
103.1051638586
 30
0.0
 11
188.6093246927
 21
101.0515044494
 31
0.0
  0
LINE
  5
1A2
330
1F
100
AcDbEntity
  8
0
  6
HIDDEN
 62
     7
370
     0
100
AcDbLine
 10
180.1093249293
 20
99.1635720296
 30
0.0
 11
182.7287527909
 21
99.7908867015
 31
0.0
  0
LINE
  5
1A3
330
1F
100
AcDbEntity
  8
0
  6
HIDDEN
 62
     7
370
     0
100
AcDbLine
 10
181.3313558875
 20
105.6258917836
 30
0.0
 11
180.1093249293
 21
105.3332329778
 31
0.0
  0
LINE
  5
1A4
330
1F
100
AcDbEntity
  8
0
  6
HIDDEN
 62
     7
370
     0
100
AcDbLine
 10
182.7874754732
 20
100.7303993268
 30
0.0
 11
190.2566247797
 21
102.5191486863
 31
0.0
  0
LINE
  5
1A5
330
1F
100
AcDbEntity
  8
0
  6
HIDDEN
 62
     7
370
     0
100
AcDbLine
 10
190.2566247797
 20
106.837911257
 30
0.0
 11
181.8092975942
 21
104.8149026049
 31
0.0
  0
LINE
  5
1A6
330
1F
100
AcDbEntity
  8
0
  6
HIDDEN
 62
     7
370
     0
100
AcDbLine
 10
193.2093252605
 20
103.1549579514
 30
0.0
 11
193.2093252605
 21
115.162530756
 31
0.0
  0
LINE
  5
1A7
330
1F
100
AcDbEntity
  8
0
  6
HIDDEN
 62
     7
370
     0
100
AcDbLine
 10
189.0093249446
 20
103.5030080987
 30
0.0
 11
189.0093249446
 21
103.1549579514
 31
0.0
  0
LINE
  5
1A8
330
1F
100
AcDbEntity
  8
0
  6
HIDDEN
 62
     7
370
     0
100
AcDbLine
 10
189.0093249446
 20
115.1642477656
 30
0.0
 11
189.0093249446
 21
105.2566326274
 31
0.0
  0
ARC
  5
1A9
330
1F
100
AcDbEntity
  8
0
  6
HIDDEN
 62
     7
370
     0
100
AcDbCircle
 10
221.9093250101
 20
131.6132490201
 30
0.0
 40
1.000000000000028
100
AcDbArc
 50
270.0
 51
0.0
  0
ARC
  5
1AA
330
1F
100
AcDbEntity
  8
0
  6
HIDDEN
 62
     7
370
     0
100
AcDbCircle
 10
221.9093250101
 20
101.6132490201
 30
0.0
 40
1.000000000000028
100
AcDbArc
 50
0.0
 51
90.0
  0
LINE
  5
1AB
330
1F
100
AcDbEntity
  8
0
  6
HIDDEN
 62
     7
370
     0
100
AcDbLine
 10
197.2776719546
 20
131.1132486029
 30
0.0
 11
195.4093252486
 21
131.1132486029
 31
0.0
  0
LINE
  5
1AC
330
1F
100
AcDbEntity
  8
0
  6
HIDDEN
 62
     7
370
     0
100
AcDbLine
 10
195.4093252486
 20
102.1132494373
 30
0.0
 11
197.2776719546
 21
102.1132494373
 31
0.0
  0
ARC
  5
1AD
330
1F
100
AcDbEntity
  8
0
  6
HIDDEN
 62
     7
370
     0
100
AcDbCircle
 10
195.4093250101
 20
130.1132490201
 30
0.0
 40
1.0
100
AcDbArc
 50
90.0
 51
180.0
  0
ARC
  5
1AE
330
1F
100
AcDbEntity
  8
0
  6
HIDDEN
 62
     7
370
     0
100
AcDbCircle
 10
195.4093250101
 20
103.1132490201
 30
0.0
 40
1.0
100
AcDbArc
 50
180.0
 51
270.0
  0
ARC
  5
1AF
330
1F
100
AcDbEntity
  8
0
  6
HIDDEN
 62
     7
370
     0
100
AcDbCircle
 10
197.2776725126
 20
130.1132490201
 30
0.0
 40
1.000000000000023
100
AcDbArc
 50
75.0
 51
90.0
  0
ARC
  5
1B0
330
1F
100
AcDbEntity
  8
0
  6
HIDDEN
 62
     7
370
     0
100
AcDbCircle
 10
197.2776725126
 20
103.1132490201
 30
0.0
 40
1.0
100
AcDbArc
 50
270.0
 51
285.0
  0
LINE
  5
1B1
330
1F
100
AcDbEntity
  8
0
  6
HIDDEN
 62
     7
370
     0
100
AcDbLine
 10
197.536492086
 20
102.147322805
 30
0.0
 11
199.2753495639
 21
102.613248588
 31
0.0
  0
LINE
  5
1B2
330
1F
100
AcDbEntity
  8
0
  6
HIDDEN
 62
     7
370
     0
100
AcDbLine
 10
199.2753495639
 20
130.6132494522
 30
0.0
 11
197.536492086
 21
131.0791752351
 31
0.0
  0
LINE
  5
1B3
330
1F
100
AcDbEntity
  8
0
  6
HIDDEN
 62
     7
370
     0
100
AcDbLine
 10
203.3593257135
 20
130.6132494522
 30
0.0
 11
199.2753495639
 21
130.6132494522
 31
0.0
  0
LINE
  5
1B4
330
1F
100
AcDbEntity
  8
0
  6
HIDDEN
 62
     7
370
     0
100
AcDbLine
 10
221.9093267983
 20
130.6132494522
 30
0.0
 11
214.2858368522
 21
130.6132494522
 31
0.0
  0
LINE
  5
1B5
330
1F
100
AcDbEntity
  8
0
  6
HIDDEN
 62
     7
370
     0
100
AcDbLine
 10
199.2753495639
 20
102.613248588
 30
0.0
 11
221.9093267983
 21
102.613248588
 31
0.0
  0
ARC
  5
1B6
330
1F
100
AcDbEntity
  8
0
  6
HIDDEN
 62
     7
370
     0
100
AcDbCircle
 10
76.5093250101
 20
102.9132490201
 30
0.0
 40
1.200000000000003
100
AcDbArc
 50
90.0
 51
180.0
  0
ARC
  5
1B7
330
1F
100
AcDbEntity
  8
0
  6
HIDDEN
 62
     7
370
     0
100
AcDbCircle
 10
76.5093250101
 20
130.3132490201
 30
0.0
 40
1.200000000000017
100
AcDbArc
 50
180.0
 51
270.0
  0
ARC
  5
1B8
330
1F
100
AcDbEntity
  8
0
  6
HIDDEN
 62
     7
370
     0
100
AcDbCircle
 10
86.2016974409
 20
104.2882490201
 30
0.0
 40
0.4000000000000057
100
AcDbArc
 50
255.0
 51
270.0
  0
ARC
  5
1B9
330
1F
100
AcDbEntity
  8
0
  6
HIDDEN
 62
     7
370
     0
100
AcDbCircle
 10
86.2016974409
 20
128.9382490201
 30
0.0
 40
0.4000000000000341
100
AcDbArc
 50
90.0
 51
105.0
  0
LINE
  5
1BA
330
1F
100
AcDbEntity
  8
0
  6
HIDDEN
 62
     7
370
     0
100
AcDbLine
 10
86.2016950911
 20
103.8882487504
 30
0.0
 11
87.0783825582
 21
103.8882487504
 31
0.0
  0
LINE
  5
1BB
330
1F
100
AcDbEntity
  8
0
  6
HIDDEN
 62
     7
370
     0
100
AcDbLine
 10
87.0783825582
 20
129.3382492898
 30
0.0
 11
86.2016950911
 21
129.3382492898
 31
0.0
  0
ARC
  5
1BC
330
1F
100
AcDbEntity
  8
0
  6
HIDDEN
 62
     7
370
     0
100
AcDbCircle
 10
87.0783849025
 20
104.2882490201
 30
0.0
 40
0.4000000000000057
100
AcDbArc
 50
270.0
 51
330.0
  0
ARC
  5
1BD
330
1F
100
AcDbEntity
  8
0
  6
HIDDEN
 62
     7
370
     0
100
AcDbCircle
 10
87.0783849025
 20
128.9382490201
 30
0.0
 40
0.4000000000000341
100
AcDbArc
 50
30.0
 51
90.0
  0
LINE
  5
1BE
330
1F
100
AcDbEntity
  8
0
  6
HIDDEN
 62
     7
370
     0
100
AcDbLine
 10
86.0981692737
 20
129.3246193839
 30
0.0
 11
85.3093241518
 21
129.1132492064
 31
0.0
  0
LINE
  5
1BF
330
1F
100
AcDbEntity
  8
0
  6
HIDDEN
 62
     7
370
     0
100
AcDbLine
 10
85.3093241518
 20
104.1132488338
 30
0.0
 11
86.0981692737
 21
103.9018786563
 31
0.0
  0
LINE
  5
1C0
330
1F
100
AcDbEntity
  8
0
  6
HIDDEN
 62
     7
370
     0
100
AcDbLine
 10
87.424797303
 20
104.088249342
 30
0.0
 11
88.5939275091
 21
106.1132491617
 31
0.0
  0
LINE
  5
1C1
330
1F
100
AcDbEntity
  8
0
  6
HIDDEN
 62
     7
370
     0
100
AcDbLine
 10
88.5939275091
 20
127.1132488785
 30
0.0
 11
87.424797303
 21
129.1382486982
 31
0.0
  0
LINE
  5
1C2
330
1F
100
AcDbEntity
  8
0
  6
HIDDEN
 62
     7
370
     0
100
AcDbLine
 10
76.5093241995
 20
104.1132488338
 30
0.0
 11
85.3093241518
 21
104.1132488338
 31
0.0
  0
LINE
  5
1C3
330
1F
100
AcDbEntity
  8
0
  6
HIDDEN
 62
     7
370
     0
100
AcDbLine
 10
85.3093241518
 20
129.1132492064
 30
0.0
 11
76.5093241995
 21
129.1132492064
 31
0.0
  0
LINE
  5
1C4
330
1F
100
AcDbEntity
  8
0
  6
HIDDEN
 62
     7
370
     0
100
AcDbLine
 10
88.5939275091
 20
106.1132491617
 30
0.0
 11
137.3093252247
 21
106.1132491617
 31
0.0
  0
LINE
  5
1C5
330
1F
100
AcDbEntity
  8
0
  6
HIDDEN
 62
     7
370
     0
100
AcDbLine
 10
137.3093252247
 20
127.1132488785
 30
0.0
 11
88.5939275091
 21
127.1132488785
 31
0.0
  0
LINE
  5
1C6
330
1F
100
AcDbEntity
  8
0
  6
HIDDEN
 62
     7
370
     0
100
AcDbLine
 10
137.3093252247
 20
106.1132491617
 30
0.0
 11
141.0647046929
 21
112.3632487891
 31
0.0
  0
LINE
  5
1C7
330
1F
100
AcDbEntity
  8
0
  6
HIDDEN
 62
     7
370
     0
100
AcDbLine
 10
141.0647046929
 20
120.8632492511
 30
0.0
 11
137.3093252247
 21
127.1132488785
 31
0.0
  0
LINE
  5
1C8
330
1F
100
AcDbEntity
  8
0
  6
HIDDEN
 62
     7
370
     0
100
AcDbLine
 10
201.6093258923
 20
141.6132493926
 30
0.0
 11
203.3593257135
 21
139.8632495714
 31
0.0
  0
LINE
  5
1C9
330
1F
100
AcDbEntity
  8
0
  6
HIDDEN
 62
     7
370
     0
100
AcDbLine
 10
214.3593256539
 20
139.8632495714
 30
0.0
 11
216.1093254751
 21
141.6132493926
 31
0.0
  0
LINE
  5
1CA
330
1F
100
AcDbEntity
  8
0
  6
HIDDEN
 62
     7
370
     0
100
AcDbLine
 10
203.3593257135
 20
139.8632495714
 30
0.0
 11
203.3593257135
 21
130.6132494522
 31
0.0
  0
LINE
  5
1CB
330
1F
100
AcDbEntity
  8
0
  6
HIDDEN
 62
     7
370
     0
100
AcDbLine
 10
214.3593256539
 20
130.5845554037
 30
0.0
 11
214.3593256539
 21
139.8632495714
 31
0.0
  0
LINE
  5
1CC
330
1F
100
AcDbEntity
  8
0
  6
HIDDEN
 62
     7
370
     0
100
AcDbLine
 10
194.4093250846
 20
120.8632492511
 30
0.0
 11
141.0647046929
 21
120.8632492511
 31
0.0
  0
LINE
  5
1CD
330
1F
100
AcDbEntity
  8
0
  6
HIDDEN
 62
     7
370
     0
100
AcDbLine
 10
141.0647046929
 20
112.3632487891
 30
0.0
 11
194.4093250846
 21
112.3632487891
 31
0.0
  0
LINE
  5
1CE
330
1F
100
AcDbEntity
  8
0
  6
HIDDEN
 62
     7
370
     0
100
AcDbLine
 10
193.2093252605
 20
118.0622502746
 30
0.0
 11
193.2093252605
 21
130.0715400888
 31
0.0
  0
LINE
  5
1CF
330
1F
100
AcDbEntity
  8
0
  6
HIDDEN
 62
     7
370
     0
100
AcDbLine
 10
189.0093249446
 20
127.9698654128
 30
0.0
 11
189.0093249446
 21
118.0639672842
 31
0.0
  0
LINE
  5
1D0
330
1F
100
AcDbEntity
  8
0
  6
HIDDEN
 62
     7
370
     0
100
AcDbLine
 10
189.0093249446
 20
130.0715400888
 30
0.0
 11
189.0093249446
 21
129.7234899415
 31
0.0
  0
LINE
  5
1D1
330
1F
100
AcDbEntity
  8
0
  6
HIDDEN
 62
     7
370
     0
100
AcDbLine
 10
181.8092975942
 20
128.4115954353
 30
0.0
 11
190.2566247797
 21
126.3885867832
 31
0.0
  0
LINE
  5
1D2
330
1F
100
AcDbEntity
  8
0
  6
HIDDEN
 62
     7
370
     0
100
AcDbLine
 10
190.2566247797
 20
130.7073493538
 30
0.0
 11
182.7874754732
 21
132.4960987134
 31
0.0
  0
LINE
  5
1D3
330
1F
100
AcDbEntity
  8
0
  6
HIDDEN
 62
     7
370
     0
100
AcDbLine
 10
180.1093249293
 20
127.8932650624
 30
0.0
 11
181.3313558875
 21
127.6006062565
 31
0.0
  0
LINE
  5
1D4
330
1F
100
AcDbEntity
  8
0
  6
HIDDEN
 62
     7
370
     0
100
AcDbLine
 10
182.7287527909
 20
133.4356113387
 30
0.0
 11
180.1093249293
 21
134.0629260106
 31
0.0
  0
LINE
  5
1D5
330
1F
100
AcDbEntity
  8
0
  6
HIDDEN
 62
     7
370
     0
100
AcDbLine
 10
193.609324581
 20
130.1213341815
 30
0.0
 11
193.609324581
 21
133.2775621725
 31
0.0
  0
LINE
  5
1D6
330
1F
100
AcDbEntity
  8
0
  6
HIDDEN
 62
     7
370
     0
100
AcDbLine
 10
188.6093246927
 20
132.1749935908
 30
0.0
 11
188.6093246927
 21
130.1213341815
 31
0.0
  0
LINE
  5
1D7
330
1F
100
AcDbEntity
  8
0
  6
HIDDEN
 62
     7
370
     0
100
AcDbLine
 10
188.6093246927
 20
101.5626524625
 30
0.0
 11
188.6093246927
 21
101.3745411349
 31
0.0
  0
LINE
  5
1D8
330
1F
100
AcDbEntity
  8
0
  6
HIDDEN
 62
     7
370
     0
100
AcDbLine
 10
193.609324581
 20
101.3745411349
 30
0.0
 11
193.609324581
 21
101.5626524625
 31
0.0
  0
LINE
  5
1D9
330
1F
100
AcDbEntity
  8
0
  6
HIDDEN
 62
     7
370
     0
100
AcDbLine
 10
189.1093247747
 20
102.7444346858
 30
0.0
 11
189.1093247747
 21
101.3266590474
 31
0.0
  0
LINE
  5
1DA
330
1F
100
AcDbEntity
  8
0
  6
HIDDEN
 62
     7
370
     0
100
AcDbLine
 10
193.1093254304
 20
101.3266590474
 30
0.0
 11
193.1093254304
 21
102.7444346858
 31
0.0
  0
LINE
  5
1DB
330
1F
100
AcDbEntity
  8
0
  6
HIDDEN
 62
     7
370
     0
100
AcDbLine
 10
188.6093246927
 20
103.1051638586
 30
0.0
 11
188.6093246927
 21
102.5066279856
 31
0.0
  0
LINE
  5
1DC
330
1F
100
AcDbEntity
  8
0
  6
HIDDEN
 62
     7
370
     0
100
AcDbLine
 10
193.609324581
 20
102.5066279856
 30
0.0
 11
193.609324581
 21
103.1051638586
 31
0.0
  0
LINE
  5
1DD
330
1F
100
AcDbEntity
  8
0
  6
HIDDEN
 62
     7
370
     0
100
AcDbLine
 10
193.609324581
 20
130.1213341815
 30
0.0
 11
193.609324581
 21
130.7198700545
 31
0.0
  0
LINE
  5
1DE
330
1F
100
AcDbEntity
  8
0
  6
HIDDEN
 62
     7
370
     0
100
AcDbLine
 10
188.6093246927
 20
130.7198700545
 30
0.0
 11
188.6093246927
 21
130.1213341815
 31
0.0
  0
LINE
  5
1DF
330
1F
100
AcDbEntity
  8
0
  6
HIDDEN
 62
     7
370
     0
100
AcDbLine
 10
193.1093254304
 20
130.4820633544
 30
0.0
 11
193.1093254304
 21
131.8998389928
 31
0.0
  0
LINE
  5
1E0
330
1F
100
AcDbEntity
  8
0
  6
HIDDEN
 62
     7
370
     0
100
AcDbLine
 10
189.1093247747
 20
131.8998389928
 30
0.0
 11
189.1093247747
 21
130.4820633544
 31
0.0
  0
LINE
  5
1E1
330
1F
100
AcDbEntity
  8
0
  6
HIDDEN
 62
     7
370
     0
100
AcDbLine
 10
193.609324581
 20
131.6638455776
 30
0.0
 11
193.609324581
 21
131.8519569052
 31
0.0
  0
LINE
  5
1E2
330
1F
100
AcDbEntity
  8
0
  6
HIDDEN
 62
     7
370
     0
100
AcDbLine
 10
188.6093246927
 20
131.8519569052
 30
0.0
 11
188.6093246927
 21
131.6638455776
 31
0.0
  0
CIRCLE
  5
1E3
330
1F
100
AcDbEntity
  8
0
  6
HIDDEN
 62
     7
370
     0
100
AcDbCircle
 10
191.1093250101
 20
131.0789909821
 30
0.0
 40
1.999999999999982
  0
ARC
  5
1E4
330
1F
100
AcDbEntity
  8
0
  6
HIDDEN
 62
     7
370
     0
100
AcDbCircle
 10
191.1093250101
 20
102.1475070581
 30
0.0
 40
2.000000000000003
100
AcDbArc
 50
71.1182787691
 51
192.2156859339
  0
ARC
  5
1E5
330
1F
100
AcDbEntity
  8
0
  6
HIDDEN
 62
     7
370
     0
100
AcDbCircle
 10
191.1093250101
 20
102.1475070581
 30
0.0
 40
2.000000000000007
100
AcDbArc
 50
340.3453161116
 51
71.1182787691
  0
LINE
  5
1E6
330
1F
100
AcDbEntity
  8
0
  6
HIDDEN
 62
     7
370
     0
100
AcDbLine
 10
185.0833709529
 20
127.8113859756
 30
0.0
 11
185.5804131543
 21
128.285001689
 31
0.0
  0
LINE
  5
1E7
330
1F
100
AcDbEntity
  8
0
  6
HIDDEN
 62
     7
370
     0
100
AcDbLine
 10
186.2068300312
 20
130.9006835384
 30
0.0
 11
185.9782518065
 21
131.5480737997
 31
0.0
  0
LINE
  5
1E8
330
1F
100
AcDbEntity
  8
0
  6
HIDDEN
 62
     7
370
     0
100
AcDbLine
 10
181.6582631497
 20
128.0364559082
 30
0.0
 11
184.1100499211
 21
127.4492896212
 31
0.0
  0
LINE
  5
1E9
330
1F
100
AcDbEntity
  8
0
  6
HIDDEN
 62
     7
370
     0
100
AcDbLine
 10
185.274547263
 20
132.3117937012
 30
0.0
 11
182.822760026
 21
132.8989590568
 31
0.0
  0
LINE
  5
1EA
330
1F
100
AcDbEntity
  8
0
  6
HIDDEN
 62
     7
370
     0
100
AcDbLine
 10
182.822760026
 20
100.3275389833
 30
0.0
 11
185.274547263
 21
100.914704339
 31
0.0
  0
LINE
  5
1EB
330
1F
100
AcDbEntity
  8
0
  6
HIDDEN
 62
     7
370
     0
100
AcDbLine
 10
184.1100499211
 20
105.777208419
 30
0.0
 11
181.6582631497
 21
105.190042132
 31
0.0
  0
LINE
  5
1EC
330
1F
100
AcDbEntity
  8
0
  6
HIDDEN
 62
     7
370
     0
100
AcDbLine
 10
185.9782518065
 20
101.6784242405
 30
0.0
 11
186.2068300312
 21
102.3258145018
 31
0.0
  0
LINE
  5
1ED
330
1F
100
AcDbEntity
  8
0
  6
HIDDEN
 62
     7
370
     0
100
AcDbLine
 10
185.5804131543
 20
104.9414963512
 30
0.0
 11
185.0833709529
 21
105.4151120646
 31
0.0
  0
DIMENSION
  5
1EE
330
1F
100
AcDbEntity
  8
VERMASSUNG
100
AcDbDimension
  2
_D
 10
65.3093250101
 20
165.3382490201
 30
0.0
 11
65.3093250101
 21
116.6132490201
 31
0.0
 70
   160
  1
ISO 50 %%c<>
 71
     2
 42
-1.0
  3
SLDDIMSTYLE0
100
AcDbAlignedDimension
 13
195.3593250101
 23
67.8882490201
 33
0.0
 14
195.3593250101
 24
165.3382490201
 34
0.0
 50
90.0
100
AcDbRotatedDimension
  0
DIMENSION
  5
1FB
330
1F
100
AcDbEntity
  8
VERMASSUNG
100
AcDbDimension
  2
_D_1
 10
236.7413287074
 20
141.6132490201
 30
0.0
 11
236.7413287074
 21
116.6132490201
 31
0.0
 70
   160
  1
WH %%c<>
 71
     2
 42
-1.0
  3
SLDDIMSTYLE0
100
AcDbAlignedDimension
 13
222.4093250101
 23
91.6132490201
 33
0.0
 14
222.4093250101
 24
141.6132490201
 34
0.0
 50
90.0
100
AcDbRotatedDimension
  0
DIMENSION
  5
207
330
1F
100
AcDbEntity
  8
VERMASSUNG
100
AcDbDimension
  2
_D_2
 10
230.7413287074
 20
102.6132490201
 30
0.0
 11
230.7413287074
 21
116.6132490201
 31
0.0
 70
   160
  1
%%c<>
 71
     2
 42
-1.0
  3
SLDDIMSTYLE0
100
AcDbAlignedDimension
 13
221.9093250101
 23
130.6132490201
 33
0.0
 14
221.9093250101
 24
102.6132490201
 34
0.0
 50
90.0
100
AcDbRotatedDimension
  0
DIMENSION
  5
212
330
1F
100
AcDbEntity
  8
VERMASSUNG
100
AcDbDimension
  2
_D_3
 10
195.9593250101
 20
169.4202864575
 30
0.0
 11
209.4343250101
 21
169.4202864575
 31
0.0
 70
   160
  1
<>
 71
     2
 42
-1.0
  3
SLDDIMSTYLE0
100
AcDbAlignedDimension
 13
222.9093250101
 23
141.1132490201
 33
0.0
 14
195.9593250101
 24
162.9082359733
 34
0.0
100
AcDbRotatedDimension
  0
DIMENSION
  5
21C
330
1F
100
AcDbEntity
  8
VERMASSUNG
100
AcDbDimension
  2
_D_4
 10
176.9093250101
 20
175.4202864575
 30
0.0
 11
199.9093250101
 21
175.4202864575
 31
0.0
 70
   160
  1
<>
 71
     2
 42
-1.0
  3
SLDDIMSTYLE0
100
AcDbAlignedDimension
 13
222.9093250101
 23
141.1132490201
 33
0.0
 14
176.9093250101
 24
151.5382490201
 34
0.0
100
AcDbRotatedDimension
  0
DIMENSION
  5
226
330
1F
100
AcDbEntity
  8
VERMASSUNG
100
AcDbDimension
  2
_D_5
 10
75.3093250101
 20
181.4202864575
 30
0.0
 11
149.1093250101
 21
181.4202864575
 31
0.0
 70
   160
  1
<>
 71
     2
 42
-1.0
  3
SLDDIMSTYLE0
100
AcDbAlignedDimension
 13
222.9093250101
 23
141.1132490201
 33
0.0
 14
75.3093250101
 24
134.9920935475
 34
0.0
100
AcDbRotatedDimension
  0
LINE
  5
230
330
1F
100
AcDbEntity
  8
VERMASSUNG
  6
CENTERX2
370
     0
100
AcDbLine
 10
73.3093250101
 20
116.6132490201
 30
0.0
 11
224.4363418602
 21
116.6132490201
 31
0.0
  0
LINE
  5
231
330
1F
100
AcDbEntity
  8
0
  6
Continuous
 62
     7
370
    15
100
AcDbLine
 10
267.9650623119
 20
44.5454717586
 30
0.0
 11
267.8943397355
 21
44.5863121129
 31
0.0
  0
LINE
  5
232
330
1F
100
AcDbEntity
  8
0
  6
Continuous
 62
     7
370
    15
100
AcDbLine
 10
264.146064992
 20
44.5863120616
 30
0.0
 11
264.0753429434
 21
44.5454718219
 31
0.0
  0
LINE
  5
233
330
1F
100
AcDbEntity
  8
0
  6
Continuous
 62
     7
370
    15
100
AcDbLine
 10
269.8586072751
 20
34.0687665192
 30
0.0
 11
272.3761010984
 21
34.5816869196
 31
0.0
  0
SPLINE
  5
234
330
1F
100
AcDbEntity
  8
0
  6
Continuous
 62
     7
370
    15
100
AcDbSpline
210
0.0
220
0.0
230
1.0
 70
     8
 71
     3
 72
    30
 73
    26
 74
     0
 42
0.000000001
 43
0.00000001
 40
0.0
 40
0.0
 40
0.0
 40
0.0
 40
0.0013407528638974
 40
0.0484034340057714
 40
0.0955395728593443
 40
0.1427237226186022
 40
0.1899346243955055
 40
0.237156605007686
 40
0.2843772489715716
 40
0.3315909117569837
 40
0.3787951350025457
 40
0.4259892202587549
 40
0.4731735797109539
 40
0.5203493584533438
 40
0.5675180270316119
 40
0.6146813577984238
 40
0.6618412049927731
 40
0.7089994653357828
 40
0.7561581674135925
 40
0.8033186478695431
 40
0.8504829214787766
 40
0.8976528886921569
 40
0.9448305494009435
 40
0.99201784333452
 40
1.0
 40
1.0
 40
1.0
 40
1.0
 10
261.678980864066
 20
61.84873970706943
 30
0.0
 10
261.6672317333818
 20
61.8473149653696
 30
0.0
 10
261.2430683494982
 20
61.79587939308761
 30
0.0
 10
260.3764938691492
 20
61.57513689198445
 30
0.0
 10
259.0852096954991
 20
61.17809397536082
 30
0.0
 10
257.7725026067341
 20
60.64010582418628
 30
0.0
 10
256.4511623483967
 20
59.9839075328614
 30
0.0
 10
255.1277297470232
 20
59.20832151744065
 30
0.0
 10
253.8103382069196
 20
58.31948472281994
 30
0.0
 10
252.5065574402729
 20
57.32239683871447
 30
0.0
 10
251.2239251969022
 20
56.22310524693122
 30
0.0
 10
249.9698022023972
 20
55.02807484091454
 30
0.0
 10
248.7513818047087
 20
53.74434017833719
 30
0.0
 10
247.5756572306197
 20
52.37940018773039
 30
0.0
 10
246.4493801105241
 20
50.94121457020622
 30
0.0
 10
245.3790260349791
 20
49.43814860818078
 30
0.0
 10
244.3707667022711
 20
47.878925582291
 30
0.0
 10
243.4304145608502
 20
46.27258814888045
 30
0.0
 10
242.5634311502837
 20
44.62844759525827
 30
0.0
 10
241.774799089263
 20
42.95601027414415
 30
0.0
 10
241.0692965543728
 20
41.26500197723601
 30
0.0
 10
240.4503520304189
 20
39.56499997472395
 30
0.0
 10
239.9242195513694
 20
37.86650729411654
 30
0.0
 10
239.6061468468806
 20
36.64482492511301
 30
0.0
 10
239.4632400158976
 20
35.99278425290229
 30
0.0
 10
239.4425636324809
 20
35.898444165384
 30
0.0
  0
LINE
  5
235
330
1F
100
AcDbEntity
  8
0
  6
Continuous
 62
     7
370
    15
100
AcDbLine
 10
270.8122870098
 20
21.0409467261
 30
0.0
 11
270.9890353323
 21
21.1430145359
 31
0.0
  0
LINE
  5
236
330
1F
100
AcDbEntity
  8
0
  6
Continuous
 62
     7
370
    15
100
AcDbLine
 10
279.6496853471
 20
36.1453260522
 30
0.0
 11
279.6496853471
 21
36.3494284937
 31
0.0
  0
LINE
  5
237
330
1F
100
AcDbEntity
  8
0
  6
Continuous
 62
     7
370
    15
100
AcDbLine
 10
277.0603423424
 20
42.0724885594
 30
0.0
 11
268.7695159167
 21
46.858680778
 31
0.0
  0
LINE
  5
238
330
1F
100
AcDbEntity
  8
0
  6
Continuous
 62
     7
370
    15
100
AcDbLine
 10
256.2705321331
 20
25.2074590968
 30
0.0
 11
264.5613585588
 21
20.4212668783
 31
0.0
  0
SPLINE
  5
239
330
1F
100
AcDbEntity
  8
0
  6
Continuous
 62
     7
370
    15
100
AcDbSpline
210
0.0
220
0.0
230
1.0
 70
     8
 71
     3
 72
    25
 73
    21
 74
     0
 42
0.000000001
 43
0.00000001
 40
0.0
 40
0.0
 40
0.0
 40
0.0
 40
0.0481501986209113
 40
0.1117846317686014
 40
0.1736102387792671
 40
0.2334704380188169
 40
0.2922872587757316
 40
0.3507435999605591
 40
0.4091486923926931
 40
0.4676258994362432
 40
0.5262268075221532
 40
0.5849435793690787
 40
0.643743771104124
 40
0.7025856961370506
 40
0.761422879958884
 40
0.8201954805944244
 40
0.8788572358800991
 40
0.9373647896408138
 40
0.9926235992769864
 40
1.0
 40
1.0
 40
1.0
 40
1.0
 10
267.1922619781561
 20
25.26805153807955
 30
0.0
 10
267.0755884115926
 20
25.33424765458668
 30
0.0
 10
266.8047211659949
 20
25.48792736350167
 30
0.0
 10
266.463825357068
 20
25.87010724750672
 30
0.0
 10
266.1644585812556
 20
26.38894230144295
 30
0.0
 10
265.9564055719757
 20
27.01123496170093
 30
0.0
 10
265.8402067795969
 20
27.71713797996297
 30
0.0
 10
265.8183973300385
 20
28.49566156703111
 30
0.0
 10
265.8922256869645
 20
29.33257188409843
 30
0.0
 10
266.0616302450296
 20
30.21166233510116
 30
0.0
 10
266.3243995105276
 20
31.11506717253641
 30
0.0
 10
266.6761006024803
 20
32.024090095771
 30
0.0
 10
267.1100694637813
 20
32.9196575683245
 30
0.0
 10
267.6175837550516
 20
33.78291384156531
 30
0.0
 10
268.1880146854757
 20
34.59569332304991
 30
0.0
 10
268.809075348839
 20
35.34094476048028
 30
0.0
 10
269.4671307688672
 20
36.00349505919468
 30
0.0
 10
270.1353854263706
 20
36.55945804456496
 30
0.0
 10
270.6110330034229
 20
36.88057478265444
 30
0.0
 10
270.8552888269206
 20
37.0231673084981
 30
0.0
 10
270.8840542581008
 20
37.03996009333427
 30
0.0
  0
SPLINE
  5
23A
330
1F
100
AcDbEntity
  8
0
  6
Continuous
 62
     7
370
    15
100
AcDbSpline
210
0.0
220
0.0
230
1.0
 70
     8
 71
     3
 72
    13
 73
     9
 74
     0
 42
0.000000001
 43
0.00000001
 40
0.0
 40
0.0
 40
0.0
 40
0.0
 40
0.0946561859173145
 40
0.2753310461203737
 40
0.4559299946301994
 40
0.6372557771818242
 40
0.8211839044444145
 40
1.0
 40
1.0
 40
1.0
 40
1.0
 10
270.8840542581008
 20
37.03996009333427
 30
0.0
 10
271.0023637601968
 20
37.10528023641643
 30
0.0
 10
271.3464963561004
 20
37.29528010967621
 30
0.0
 10
271.9048006450742
 20
37.52175080078837
 30
0.0
 10
272.5358441857464
 20
37.67750985861481
 30
0.0
 10
273.1193982319112
 20
37.711134624015
 30
0.0
 10
273.6447020251738
 20
37.64036288865828
 30
0.0
 10
273.9401388360301
 20
37.50230201970933
 30
0.0
 10
274.0857754959066
 20
37.43424440781225
 30
0.0
  0
LINE
  5
23B
330
1F
100
AcDbEntity
  8
0
  6
Continuous
 62
     7
370
    15
100
AcDbLine
 10
254.7091883006
 20
58.906371977
 30
0.0
 11
223.9452315608
 21
69.9924822809
 31
0.0
  0
LINE
  5
23C
330
1F
100
AcDbEntity
  8
0
  6
Continuous
 62
     7
370
    15
100
AcDbLine
 10
213.8213721804
 20
52.4555438805
 30
0.0
 11
243.2888832989
 21
27.5734214422
 31
0.0
  0
SPLINE
  5
23D
330
1F
100
AcDbEntity
  8
0
  6
Continuous
 62
     7
370
    15
100
AcDbSpline
210
0.0
220
0.0
230
1.0
 70
     8
 71
     3
 72
    16
 73
    12
 74
     0
 42
0.000000001
 43
0.00000001
 40
0.0
 40
0.0
 40
0.0
 40
0.0
 40
0.0950725191539095
 40
0.2234675528480836
 40
0.352013549915197
 40
0.4806484482349683
 40
0.609324856533648
 40
0.7380065439964748
 40
0.8666725608772284
 40
0.995314287101863
 40
0.9999999999999999
 40
0.9999999999999999
 40
0.9999999999999999
 40
0.9999999999999999
 10
255.6187304623472
 20
14.68428082781957
 30
0.0
 10
255.9287697484826
 20
14.73828735499812
 30
0.0
 10
256.6575157749478
 20
14.86522946796428
 30
0.0
 10
257.8371019008213
 20
15.21576860904674
 30
0.0
 10
259.143687132875
 20
15.70939330782162
 30
0.0
 10
260.4634172510624
 20
16.33059836743989
 30
0.0
 10
261.7868196191689
 20
17.07100693095662
 30
0.0
 10
263.1075632492442
 20
17.92379706947898
 30
0.0
 10
264.4136421453152
 20
18.89750107962062
 30
0.0
 10
265.2958982932756
 20
19.60099631651961
 30
0.0
 10
265.7319388209861
 20
20.00430551794096
 30
0.0
 10
265.7472632038607
 20
20.01847957798045
 30
0.0
  0
LINE
  5
23E
330
1F
100
AcDbEntity
  8
0
  6
Continuous
 62
     7
370
    15
100
AcDbLine
 10
247.6114492649
 20
16.5089772435
 30
0.0
 11
249.0669712512
 21
15.6687222861
 31
0.0
  0
LINE
  5
23F
330
1F
100
AcDbEntity
  8
0
  6
Continuous
 62
     7
370
    15
100
AcDbLine
 10
243.8874143166
 20
18.6588168585
 30
0.0
 11
245.3252589926
 21
17.8287667951
 31
0.0
  0
SPLINE
  5
240
330
1F
100
AcDbEntity
  8
0
  6
Continuous
 62
     7
370
    15
100
AcDbSpline
210
0.0
220
0.0
230
1.0
 70
     8
 71
     3
 72
     9
 73
     5
 74
     0
 42
0.000000001
 43
0.00000001
 40
0.0
 40
0.0
 40
0.0
 40
0.0
 40
0.5021888757088718
 40
1.0
 40
1.0
 40
1.0
 40
1.0
 10
239.45526185232
 20
24.72404212250582
 30
0.0
 10
239.4934807741207
 20
24.58938621308104
 30
0.0
 10
239.5695854503678
 20
24.32124823564236
 30
0.0
 10
239.6693362363943
 20
24.07481531381513
 30
0.0
 10
239.718993287335
 20
23.95213826393797
 30
0.0
  0
SPLINE
  5
241
330
1F
100
AcDbEntity
  8
0
  6
Continuous
 62
     7
370
    15
100
AcDbSpline
210
0.0
220
0.0
230
1.0
 70
     8
 71
     3
 72
     9
 73
     5
 74
     0
 42
0.000000001
 43
0.00000001
 40
0.0
 40
0.0
 40
0.0
 40
0.0
 40
0.4730534090742253
 40
1.0
 40
1.0
 40
1.0
 40
1.0
 10
277.8745878454899
 20
51.75594842506988
 30
0.0
 10
277.8224511413465
 20
51.93470264964532
 30
0.0
 10
277.7122379959736
 20
52.31257589005863
 30
0.0
 10
277.568564300191
 20
52.65952224377111
 30
0.0
 10
277.4928559359927
 20
52.84234444209402
 30
0.0
  0
SPLINE
  5
242
330
1F
100
AcDbEntity
  8
0
  6
Continuous
 62
     7
370
    15
100
AcDbSpline
210
0.0
220
0.0
230
1.0
 70
     8
 71
     3
 72
    27
 73
    23
 74
     0
 42
0.000000001
 43
0.00000001
 40
0.0
 40
0.0
 40
0.0
 40
0.0
 40
0.0213577407876003
 40
0.0715478312616778
 40
0.1224903478605243
 40
0.1745605060799
 40
0.2277680798581999
 40
0.2818285998309278
 40
0.3363560486149114
 40
0.3910214839390844
 40
0.4456214611580622
 40
0.5001071013174755
 40
0.5544821087873828
 40
0.6087758132917942
 40
0.6630287403302776
 40
0.7172862646279169
 40
0.7715849304883001
 40
0.8259687208291655
 40
0.8804861815905362
 40
0.935181825778041
 40
0.9871352530318748
 40
1.0
 40
1.0
 40
1.0
 40
1.0
 10
223.8499065847217
 20
70.00758382048089
 30
0.0
 10
223.7485401714688
 20
70.04580089263621
 30
0.0
 10
223.4089655365322
 20
70.17382701005548
 30
0.0
 10
222.7767586965506
 20
70.25477730809513
 30
0.0
 10
221.9689121494894
 20
70.25408528074662
 30
0.0
 10
221.12440439388
 20
70.11536007828586
 30
0.0
 10
220.2555692827093
 20
69.8481028058967
 30
0.0
 10
219.3729855787391
 20
69.45123830567101
 30
0.0
 10
218.4910149598
 20
68.93106902445066
 30
0.0
 10
217.6239066543008
 20
68.29636427008676
 30
0.0
 10
216.7846828834766
 20
67.55818181300863
 30
0.0
 10
215.9847389110652
 20
66.72834075343634
 30
0.0
 10
215.2341945597605
 20
65.81902455475455
 30
0.0
 10
214.5424630097821
 20
64.8429283501555
 30
0.0
 10
213.9183144494347
 20
63.81325096197024
 30
0.0
 10
213.3698891632129
 20
62.74369568913382
 30
0.0
 10
212.9046096462448
 20
61.64825929245188
 30
0.0
 10
212.5291534051282
 20
60.54112549503467
 30
0.0
 10
212.2490673751895
 20
59.43611806236915
 30
0.0
 10
212.0737035236868
 20
58.36714115032322
 30
0.0
 10
212.016143998741
 20
57.59693007639919
 30
0.0
 10
212.012979755301
 20
57.1914078173969
 30
0.0
 10
212.0123517340447
 20
57.11092203829824
 30
0.0
  0
SPLINE
  5
243
330
1F
100
AcDbEntity
  8
0
  6
Continuous
 62
     7
370
    15
100
AcDbSpline
210
0.0
220
0.0
230
1.0
 70
     8
 71
     3
 72
    14
 73
    10
 74
     0
 42
0.000000001
 43
0.00000001
 40
0.0
 40
0.0
 40
0.0
 40
0.0
 40
0.0934067574517036
 40
0.2694937131269309
 40
0.4455968874352452
 40
0.6202205234854967
 40
0.7917995489089878
 40
0.9591705616803748
 40
1.0
 40
1.0
 40
1.0
 40
1.0
 10
212.0123517340447
 20
57.11092203829824
 30
0.0
 10
212.0154682079212
 20
56.92993808929863
 30
0.0
 10
212.0244597427926
 20
56.40776991043321
 30
0.0
 10
212.124690621658
 20
55.5854993213698
 30
0.0
 10
212.3518091414607
 20
54.67905473762266
 30
0.0
 10
212.6910737231145
 20
53.85668498257552
 30
0.0
 10
213.1442135581415
 20
53.14825657767704
 30
0.0
 10
213.539372181593
 20
52.67429091145122
 30
0.0
 10
213.8061884074011
 20
52.48035547261026
 30
0.0
 10
213.8585127735454
 20
52.44232349430929
 30
0.0
  0
ARC
  5
244
330
1F
100
AcDbEntity
  8
0
  6
Continuous
 62
     7
370
    15
100
AcDbCircle
 10
264.9692618194
 20
43.866727329
 30
0.0
 40
1.669346519664031
100
AcDbArc
 50
198.4983884347
 51
248.5090281464
  0
LWPOLYLINE
  5
245
330
1F
100
AcDbEntity
  8
0
  6
Continuous
 62
     7
370
    15
100
AcDbPolyline
 90
       19
 70
   128
 43
0.0
 10
267.8169051859
 20
42.3802422193
 10
267.9229868229
 20
42.4399824557
 10
268.3218977405
 20
42.7466084135
 10
268.5761843713
 20
43.1008711435
 10
268.6698698185
 20
43.4805106017
 10
268.5970663238
 20
43.8616732097
 10
268.3623498659
 20
44.2204085168
 10
267.9804663265
 20
44.5341768823
 10
267.4754129029
 20
44.7832618525
 10
266.8789232085
 20
44.9520131735
 10
266.2284768224
 20
45.0298274385
 10
265.5649438397
 20
45.0118153805
 10
264.9300167546
 20
44.8991084083
 10
264.3635896994
 20
44.6987887973
 10
263.9012533621
 20
44.4234433826
 10
263.5720592485
 20
44.0903724377
 10
263.3966904101
 20
43.7205047652
 10
263.386166128
 20
43.3370804329
 10
263.386166128
 20
43.3370804329
  0
LWPOLYLINE
  5
246
330
1F
100
AcDbEntity
  8
0
  6
Continuous
 62
     7
370
    15
100
AcDbPolyline
 90
       22
 70
   128
 43
0.0
 10
264.2310460514
 20
43.3908601348
 10
264.3686821006
 20
43.0914797176
 10
264.6530629395
 20
42.828819887
 10
265.0589201331
 20
42.6262192106
 10
265.5501923604
 20
42.501679054
 10
266.0832256938
 20
42.4662667261
 10
266.6106604934
 20
42.5231271328
 10
267.0856301427
 20
42.6672089718
 10
267.4659309321
 20
42.8857102796
 10
267.7177726342
 20
43.1592156137
 10
267.8187777624
 20
43.4634229263
 10
267.7599728659
 20
43.7713013233
 10
267.5465802438
 20
44.0554961015
 10
267.1975623559
 20
44.2907543014
 10
266.7439315449
 20
44.4561720098
 10
266.2259940273
 20
44.5370514876
 10
265.6897707866
 20
44.5262063404
 10
265.1829078062
 20
44.4246000844
 10
264.7504424378
 20
44.2412606958
 10
264.4308004637
 20
43.9924790373
 10
264.2523842106
 20
43.7003600505
 10
264.2310460514
 20
43.3908601348
  0
LINE
  5
247
330
1F
100
AcDbEntity
  8
0
  6
Continuous
 62
     7
370
    15
100
AcDbLine
 10
264.6241550582
 20
42.8574237212
 30
0.0
 11
264.7766565971
 21
42.7777957094
 31
0.0
  0
SPLINE
  5
248
330
1F
100
AcDbEntity
  8
0
  6
Continuous
 62
     7
370
    15
100
AcDbSpline
210
0.0
220
0.0
230
1.0
 70
     8
 71
     3
 72
     9
 73
     5
 74
     0
 42
0.000000001
 43
0.00000001
 40
0.0
 40
0.0
 40
0.0
 40
0.0
 40
0.33046916808388
 40
1.0
 40
1.0
 40
1.0
 40
1.0
 10
267.0938330554001
 20
42.67461237696066
 30
0.0
 10
267.1534871058435
 20
42.70396485439366
 30
0.0
 10
267.3340003161661
 20
42.79278547751924
 30
0.0
 10
267.4969695133173
 20
42.94519350098727
 30
0.0
 10
267.6060824154625
 20
43.04723537173052
 30
0.0
  0
SPLINE
  5
249
330
1F
100
AcDbEntity
  8
0
  6
Continuous
 62
     7
370
    15
100
AcDbSpline
210
0.0
220
0.0
230
1.0
 70
     8
 71
     3
 72
    11
 73
     7
 74
     0
 42
0.000000001
 43
0.00000001
 40
0.0
 40
0.0
 40
0.0
 40
0.0
 40
0.1849312330242593
 40
0.5198466777147479
 40
0.8714439765687151
 40
1.0
 40
1.0
 40
1.0
 40
1.0
 10
267.6060824154625
 20
43.04723537173052
 30
0.0
 10
267.5950328857653
 20
43.06686717513919
 30
0.0
 10
267.5639723601338
 20
43.12205270336311
 30
0.0
 10
267.5059947752053
 20
43.34622944698526
 30
0.0
 10
267.4524486588796
 20
43.72376043460794
 30
0.0
 10
267.4238950241397
 20
43.97408249368194
 30
0.0
 10
267.4162500874782
 20
44.04110360339441
 30
0.0
  0
SPLINE
  5
24A
330
1F
100
AcDbEntity
  8
0
  6
Continuous
 62
     7
370
    15
100
AcDbSpline
210
0.0
220
0.0
230
1.0
 70
     8
 71
     3
 72
    10
 73
     6
 74
     0
 42
0.000000001
 43
0.00000001
 40
0.0
 40
0.0
 40
0.0
 40
0.0
 40
0.439127803698393
 40
0.7513759803845729
 40
1.0
 40
1.0
 40
1.0
 40
1.0
 10
267.4162500874782
 20
44.04110360339441
 30
0.0
 10
267.189212797311
 20
44.0147699944166
 30
0.0
 10
266.8007373579364
 20
43.96971149186648
 30
0.0
 10
266.2360289051617
 20
44.1766752199671
 30
0.0
 10
265.9549618879531
 20
44.36129390465567
 30
0.0
 10
265.8303702036791
 20
44.44313187021369
 30
0.0
  0
SPLINE
  5
24B
330
1F
100
AcDbEntity
  8
0
  6
Continuous
 62
     7
370
    15
100
AcDbSpline
210
0.0
220
0.0
230
1.0
 70
     8
 71
     3
 72
    10
 73
     6
 74
     0
 42
0.000000001
 43
0.00000001
 40
0.0
 40
0.0
 40
0.0
 40
0.0
 40
0.4391278770180855
 40
0.7513758739264491
 40
1.0
 40
1.0
 40
1.0
 40
1.0
 10
265.8303702036791
 20
44.44313187021369
 30
0.0
 10
265.6305095552913
 20
44.27451448048742
 30
0.0
 10
265.2885352074873
 20
43.98599934584123
 30
0.0
 10
264.791423561207
 20
43.83906077541349
 30
0.0
 10
264.5440006714171
 20
43.84753533781694
 30
0.0
 10
264.4343227301823
 20
43.85129195289028
 30
0.0
  0
SPLINE
  5
24C
330
1F
100
AcDbEntity
  8
0
  6
Continuous
 62
     7
370
    15
100
AcDbSpline
210
0.0
220
0.0
230
1.0
 70
     8
 71
     3
 72
    11
 73
     7
 74
     0
 42
0.000000001
 43
0.00000001
 40
0.0
 40
0.0
 40
0.0
 40
0.0
 40
0.1285560201277437
 40
0.4801532902266696
 40
0.8150691238334115
 40
0.9999999999999999
 40
0.9999999999999999
 40
0.9999999999999999
 40
0.9999999999999999
 10
264.4343227301823
 20
43.85129195289028
 30
0.0
 10
264.4419676718413
 20
43.78427084144327
 30
0.0
 10
264.4705213240738
 20
43.53394878617154
 30
0.0
 10
264.5240671416698
 20
43.15641773383532
 30
0.0
 10
264.5820460836015
 20
42.93224069235878
 30
0.0
 10
264.6131058282874
 20
42.87705540120554
 30
0.0
 10
264.6241550581666
 20
42.8574237212264
 30
0.0
  0
LINE
  5
24D
330
1F
100
AcDbEntity
  8
0
  6
Continuous
 62
     7
370
    15
100
AcDbLine
 10
267.4162500875
 20
42.8900129784
 30
0.0
 11
267.4162500875
 21
44.0411036034
 31
0.0
  0
LINE
  5
24E
330
1F
100
AcDbEntity
  8
0
  6
Continuous
 62
     7
370
    15
100
AcDbLine
 10
265.8303702037
 20
42.4714242184
 30
0.0
 11
265.8303702037
 21
44.4431318702
 31
0.0
  0
LWPOLYLINE
  5
24F
330
1F
100
AcDbEntity
  8
0
  6
Continuous
 62
     7
370
    15
100
AcDbPolyline
 90
        8
 70
   128
 43
0.0
 10
270.3721587217
 20
34.5365953464
 10
270.318912764
 20
34.4198680417
 10
270.09353776
 20
34.166291123
 10
269.7802391616
 20
34.0572290274
 10
269.4068549623
 20
34.1023724265
 10
269.0065639514
 20
34.2977089045
 10
268.6149308253
 20
34.6258837576
 10
268.4195307916
 20
34.8483393168
  0
SPLINE
  5
250
330
1F
100
AcDbEntity
  8
0
  6
Continuous
 62
     7
370
    15
100
AcDbSpline
210
0.0
220
0.0
230
1.0
 70
     8
 71
     3
 72
    12
 73
     8
 74
     0
 42
0.000000001
 43
0.00000001
 40
0.0
 40
0.0
 40
0.0
 40
0.0
 40
0.249999999999996
 40
0.249999999999996
 40
0.499999999999992
 40
0.499999999999992
 40
1.0
 40
1.0
 40
1.0
 40
1.0
 10
244.7259434816382
 20
32.86534865396282
 30
0.0
 10
244.7598749739278
 20
32.84576042041134
 30
0.0
 10
244.798306682955
 20
32.81857323147494
 30
0.0
 10
244.87248353562
 20
32.7593493039391
 30
0.0
 10
244.9076998158754
 20
32.72791662492233
 30
0.0
 10
245.0027987331334
 20
32.63592390812036
 30
0.0
 10
245.0513278898953
 20
32.57906724259571
 30
0.0
 10
245.0846694860503
 20
32.53083843659337
 30
0.0
  0
ARC
  5
251
330
1F
100
AcDbEntity
  8
0
  6
Continuous
 62
     7
370
    15
100
AcDbCircle
 10
268.8691714797
 20
48.7866959115
 30
0.0
 40
10.2257650661831
100
AcDbArc
 50
73.3400810776
 51
100.6396977735
  0
SPLINE
  5
252
330
1F
100
AcDbEntity
  8
0
  6
Continuous
 62
     7
370
    15
100
AcDbSpline
210
0.0
220
0.0
230
1.0
 70
     8
 71
     3
 72
    12
 73
     8
 74
     0
 42
0.000000001
 43
0.00000001
 40
0.0
 40
0.0
 40
0.0
 40
0.0
 40
0.5
 40
0.5
 40
0.75
 40
0.75
 40
1.0
 40
1.0
 40
1.0
 40
1.0
 10
272.0129323052487
 20
58.1496543748047
 30
0.0
 10
272.0129323052487
 20
58.2223373719975
 30
0.0
 10
271.9959155371785
 20
58.3059202187378
 30
0.0
 10
271.941504711297
 20
58.42736439661348
 30
0.0
 10
271.9183594923751
 20
58.46707927429483
 30
0.0
 10
271.8640786805179
 20
58.53580904616062
 30
0.0
 10
271.8328427119604
 20
58.56471864206629
 30
0.0
 10
271.8008002708927
 20
58.58321634955989
 30
0.0
  0
ARC
  5
253
330
1F
100
AcDbEntity
  8
0
  6
Continuous
 62
     7
370
    15
100
AcDbCircle
 10
282.6204399867
 20
24.3364863374
 30
0.0
 40
38.42128894685685
100
AcDbArc
 50
126.6201618694
 51
166.7631334776
  0
LWPOLYLINE
  5
254
330
1F
100
AcDbEntity
  8
0
  6
Continuous
 62
     7
370
    15
100
AcDbPolyline
 90
       12
 70
   128
 43
0.0
 10
254.7369044633
 20
53.707343177
 10
256.187261485
 20
54.9799464877
 10
257.6648934446
 20
56.1210955249
 10
259.1586192029
 20
57.1221545467
 10
260.657135708
 20
57.9755490014
 10
262.1491034406
 20
58.6748224586
 10
263.6232326019
 20
59.2146802803
 10
265.0683680242
 20
59.5910401603
 10
266.4735745759
 20
59.8010525294
 10
267.8282190681
 20
59.8431280675
 10
269.1220502676
 20
59.7169504333
 10
270.345278252
 20
59.4234718845
  0
LINE
  5
255
330
1F
100
AcDbEntity
  8
0
  6
Continuous
 62
     7
370
    15
100
AcDbLine
 10
271.8008002382
 20
58.5832169272
 30
0.0
 11
270.345278252
 21
59.4234718845
 31
0.0
  0
LINE
  5
256
330
1F
100
AcDbEntity
  8
0
  6
Continuous
 62
     7
370
    15
100
AcDbLine
 10
243.2704213329
 20
33.7056037964
 30
0.0
 11
244.7259433192
 21
32.8653488391
 31
0.0
  0
ARC
  5
257
330
1F
100
AcDbEntity
  8
0
  6
Continuous
 62
     7
370
    15
100
AcDbCircle
 10
282.6031452045
 20
24.4745029315
 30
0.0
 40
40.40144044883878
100
AcDbArc
 50
136.9528122493
 51
166.7921386576
  0
SPLINE
  5
258
330
1F
100
AcDbEntity
  8
0
  6
Continuous
 62
     7
370
    15
100
AcDbSpline
210
0.0
220
0.0
230
1.0
 70
     8
 71
     3
 72
    34
 73
    30
 74
     0
 42
0.000000001
 43
0.00000001
 40
0.0
 40
0.0
 40
0.0
 40
0.0
 40
0.0624999999999986
 40
0.0624999999999986
 40
0.1249999999999972
 40
0.1249999999999972
 40
0.1874999999999958
 40
0.1874999999999958
 40
0.2499999999999949
 40
0.2499999999999949
 40
0.312499999999994
 40
0.312499999999994
 40
0.3749999999999932
 40
0.3749999999999932
 40
0.4999999999999923
 40
0.4999999999999923
 40
0.6249999999999928
 40
0.6249999999999928
 40
0.6874999999999938
 40
0.6874999999999938
 40
0.7499999999999947
 40
0.7499999999999947
 40
0.8124999999999956
 40
0.8124999999999956
 40
0.874999999999997
 40
0.874999999999997
 40
0.9374999999999986
 40
0.9374999999999986
 40
1.0
 40
1.0
 40
1.0
 40
1.0
 10
253.0781050961704
 20
52.05254554499516
 30
0.0
 10
253.1372305098137
 20
52.02296806113691
 30
0.0
 10
253.2000432052442
 20
51.99929203894138
 30
0.0
 10
253.3327522081689
 20
51.96321252852165
 30
0.0
 10
253.40336390454
 20
51.9507646383824
 30
0.0
 10
253.5486118745173
 20
51.93805474465702
 30
0.0
 10
253.6225943042795
 20
51.93771256475968
 30
0.0
 10
253.7732763691043
 20
51.94871890958231
 30
0.0
 10
253.8507243889045
 20
51.96030557356779
 30
0.0
 10
254.0026569748796
 20
51.99448011630659
 30
0.0
 10
254.0776130554641
 20
52.01699251869658
 30
0.0
 10
254.2255481223727
 20
52.07280459129465
 30
0.0
 10
254.2984768354631
 20
52.10624943750094
 30
0.0
 10
254.5050893614731
 20
52.21861169682025
 30
0.0
 10
254.6320145375224
 20
52.31264909784099
 30
0.0
 10
254.8411212901493
 20
52.52125041301689
 30
0.0
 10
254.9256696733472
 20
52.6381745071606
 30
0.0
 10
255.0106432301212
 20
52.81669975713325
 30
0.0
 10
255.0326029307191
 20
52.87791633605993
 30
0.0
 10
255.0617140274589
 20
52.99872231857378
 30
0.0
 10
255.0690684902387
 20
53.05832284501894
 30
0.0
 10
255.0694114252831
 20
53.1760641351522
 30
0.0
 10
255.0621713824477
 20
53.2345155232893
 30
0.0
 10
255.0335595319257
 20
53.34527814768076
 30
0.0
 10
255.0122761903662
 20
53.39819059240339
 30
0.0
 10
254.9554480237592
 20
53.49910879971264
 30
0.0
 10
254.9199905347853
 20
53.54662381434375
 30
0.0
 10
254.8375855818987
 20
53.63288379222718
 30
0.0
 10
254.7903806793229
 20
53.67212934464723
 30
0.0
 10
254.736904533434
 20
53.70734247276086
 30
0.0
  0
LINE
  5
259
330
1F
100
AcDbEntity
  8
0
  6
Continuous
 62
     7
370
    15
100
AcDbLine
 10
277.722831532
 20
51.2803508186
 30
0.0
 11
277.8271133719
 21
51.4609726433
 31
0.0
  0
LINE
  5
25A
330
1F
100
AcDbEntity
  8
0
  6
Continuous
 62
     7
370
    15
100
AcDbLine
 10
275.4247232505
 20
49.9536811466
 30
0.0
 11
277.722831532
 21
51.2803508186
 31
0.0
  0
ARC
  5
25B
330
1F
100
AcDbEntity
  8
0
  6
Continuous
 62
     7
370
    15
100
AcDbCircle
 10
276.2528263481
 20
48.6590788636
 30
0.0
 40
1.536798559128584
100
AcDbArc
 50
122.6053519586
 51
177.394632491
  0
LINE
  5
25C
330
1F
100
AcDbEntity
  8
0
  6
Continuous
 62
     7
370
    15
100
AcDbLine
 10
274.7176163534
 20
43.424916159
 30
0.0
 11
274.7176163534
 21
48.7289364583
 31
0.0
  0
LINE
  5
25D
330
1F
100
AcDbEntity
  8
0
  6
Continuous
 62
     7
370
    15
100
AcDbLine
 10
245.1301770359
 20
21.9724627744
 30
0.0
 11
245.0846689763
 21
21.8540941514
 31
0.0
  0
LINE
  5
25E
330
1F
100
AcDbEntity
  8
0
  6
Continuous
 62
     7
370
    15
100
AcDbLine
 10
245.1301770359
 20
21.9724627744
 30
0.0
 11
248.2718215632
 21
23.7860955557
 31
0.0
  0
ARC
  5
25F
330
1F
100
AcDbEntity
  8
0
  6
Continuous
 62
     7
370
    15
100
AcDbCircle
 10
247.4437184656
 20
25.0806978387
 30
0.0
 40
1.536798559128191
100
AcDbArc
 50
302.6053519586
 51
357.394632491
  0
LINE
  5
260
330
1F
100
AcDbEntity
  8
0
  6
Continuous
 62
     7
370
    15
100
AcDbLine
 10
248.9789284603
 20
33.8703082124
 30
0.0
 11
248.9789284603
 21
25.010840244
 31
0.0
  0
ARC
  5
261
330
1F
100
AcDbEntity
  8
0
  6
Continuous
 62
     7
370
    15
100
AcDbCircle
 10
248.5478549772
 20
33.9402367594
 30
0.0
 40
0.4367085406722723
100
AcDbArc
 50
350.7857695821
 51
129.2035248725
  0
LINE
  5
262
330
1F
100
AcDbEntity
  8
0
  6
Continuous
 62
     7
370
    15
100
AcDbLine
 10
248.2718215632
 20
34.2786446551
 30
0.0
 11
245.1301770359
 21
32.4650118738
 31
0.0
  0
LINE
  5
263
330
1F
100
AcDbEntity
  8
0
  6
Continuous
 62
     7
370
    15
100
AcDbLine
 10
245.0846689763
 20
32.5308380095
 30
0.0
 11
245.1301770359
 21
32.4650118738
 31
0.0
  0
LINE
  5
264
330
1F
100
AcDbEntity
  8
0
  6
Continuous
 62
     7
370
    15
100
AcDbLine
 10
272.0129325708
 20
54.9246935892
 30
0.0
 11
272.0129325708
 21
58.1496547322
 31
0.0
  0
LINE
  5
265
330
1F
100
AcDbEntity
  8
0
  6
Continuous
 62
     7
370
    15
100
AcDbLine
 10
274.8056795591
 20
56.5369121086
 30
0.0
 11
272.0129325708
 21
54.9246935892
 31
0.0
  0
SPLINE
  5
266
330
1F
100
AcDbEntity
  8
0
  6
Continuous
 62
     7
370
    15
100
AcDbSpline
210
0.0
220
0.0
230
1.0
 70
     8
 71
     3
 72
     8
 73
     4
 74
     0
 42
0.000000001
 43
0.00000001
 40
0.0
 40
0.0
 40
0.0
 40
0.0
 40
1.0
 40
1.0
 40
1.0
 40
1.0
 10
242.1978670094097
 20
34.79711758149431
 30
0.0
 10
241.9107998797374
 20
34.74966558177096
 30
0.0
 10
241.6236867611519
 20
34.70230814906817
 30
0.0
 10
241.3365319347543
 20
34.6550364801561
 30
0.0
  0
SPLINE
  5
267
330
1F
100
AcDbEntity
  8
0
  6
Continuous
 62
     7
370
    15
100
AcDbSpline
210
0.0
220
0.0
230
1.0
 70
     8
 71
     3
 72
     8
 73
     4
 74
     0
 42
0.000000001
 43
0.00000001
 40
0.0
 40
0.0
 40
0.0
 40
0.0
 40
0.0011862984959112
 40
0.0011862984959112
 40
0.0011862984959112
 40
0.0011862984959112
 10
240.9842308474788
 20
35.02539337981826
 30
0.0
 10
241.1019417153233
 20
34.90184342870581
 30
0.0
 10
241.2193814657594
 20
34.77838837959053
 30
0.0
 10
241.3365319347543
 20
34.6550364801561
 30
0.0
  0
LWPOLYLINE
  5
268
330
1F
100
AcDbEntity
  8
0
  6
Continuous
 62
     7
370
    15
100
AcDbPolyline
 90
       25
 70
   128
 43
0.0
 10
240.9842310606
 20
35.0253933481
 10
241.4329672396
 20
36.8088135293
 10
241.9869862462
 20
38.6061148269
 10
242.6426595001
 20
40.4055237146
 10
243.395690657
 20
42.1952534208
 10
244.2411485356
 20
43.9635803518
 10
245.1734934595
 20
45.6989216566
 10
246.186619404
 20
47.389908988
 10
247.2738895576
 20
49.0254653058
 10
248.4281817614
 20
50.5948782573
 10
249.6419346073
 20
52.0878678542
 10
250.9071974876
 20
53.4946533885
 10
252.2156826196
 20
54.8060184475
 10
253.5588183879
 20
56.0133751676
 10
254.9278071319
 20
57.1088128035
 10
256.3136810394
 20
58.0851573719
 10
257.7073620538
 20
58.9360138397
 10
259.0997208343
 20
59.6558062445
 10
260.481636807
 20
60.239821487
 10
261.8440580512
 20
60.6842347775
 10
263.178059478
 20
60.9861325743
 10
264.4749035187
 20
61.143538494
 10
265.7260946199
 20
61.1554219557
 10
266.9234371953
 20
61.0217042602
 10
268.0590879797
 20
60.7432614362
  0
LINE
  5
269
330
1F
100
AcDbEntity
  8
0
  6
Continuous
 62
     7
370
    15
100
AcDbLine
 10
268.3627458158
 20
59.7877848466
 30
0.0
 11
268.0590879797
 21
60.7432614362
 31
0.0
  0
LWPOLYLINE
  5
26A
330
1F
100
AcDbEntity
  8
0
  6
Continuous
 62
     7
370
    15
100
AcDbPolyline
 90
       24
 70
   128
 43
0.0
 10
242.1978670149
 20
34.7971175558
 10
242.6280019457
 20
36.535141749
 10
243.163432875
 20
38.2877318541
 10
243.8004838074
 20
40.0428599746
 10
244.5347846414
 20
41.7884845906
 10
245.3612975116
 20
43.5126281239
 10
246.2743510326
 20
45.203459825
 10
247.2676784951
 20
46.8493763786
 10
248.3344659388
 20
48.4390851699
 10
249.467391666
 20
49.9616780458
 10
250.6586828759
 20
51.4067058349
 10
251.9001650554
 20
52.7642555296
 10
253.1833196022
 20
54.025012449
 10
254.499341776
 20
55.1803225911
 10
255.8392014501
 20
56.222259643
 10
257.1937047668
 20
57.1436757835
 10
258.5535576875
 20
57.9382459741
 10
259.9094291304
 20
58.6005211381
 10
261.2520156726
 20
59.1259533445
 10
262.5721050173
 20
59.5109400519
 10
263.8606385556
 20
59.7528389314
 10
265.1087753274
 20
59.8499911024
 10
266.3079506321
 20
59.8017275907
 10
266.3888982645
 20
59.7930107938
  0
LINE
  5
26B
330
1F
100
AcDbEntity
  8
0
  6
Continuous
 62
     7
370
    15
100
AcDbLine
 10
239.5463863846
 20
35.8554434115
 30
0.0
 11
240.9842310606
 21
35.0253933481
 31
0.0
  0
ARC
  5
26C
330
1F
100
AcDbEntity
  8
0
  6
Continuous
 62
     7
370
    15
100
AcDbCircle
 10
263.6896299617
 20
51.7768820122
 30
0.0
 40
10.22567296009048
100
AcDbArc
 50
73.3400168049
 51
100.6386211219
  0
LINE
  5
26D
330
1F
100
AcDbEntity
  8
0
  6
Continuous
 62
     7
370
    15
100
AcDbLine
 10
268.0590879797
 20
60.7432614362
 30
0.0
 11
266.6212433036
 21
61.5733114995
 31
0.0
  0
LINE
  5
26E
330
1F
100
AcDbEntity
  8
0
  6
Continuous
 62
     7
370
    15
100
AcDbLine
 10
243.4504578525
 20
34.4707755543
 30
0.0
 11
242.8243542348
 21
34.8322174793
 31
0.0
  0
SPLINE
  5
26F
330
1F
100
AcDbEntity
  8
0
  6
Continuous
 62
     7
370
    15
100
AcDbSpline
210
0.0
220
0.0
230
1.0
 70
     8
 71
     3
 72
    11
 73
     7
 74
     0
 42
0.000000001
 43
0.00000001
 40
0.0
 40
0.0
 40
0.0
 40
0.0
 40
0.3165694752064712
 40
0.6331520400060429
 40
0.9494411625907934
 40
1.0
 40
1.0
 40
1.0
 40
1.0
 10
254.0448805403477
 20
52.81486422724803
 30
0.0
 10
253.9112903601439
 20
52.76768556432797
 30
0.0
 10
253.6441044760166
 20
52.67332628773281
 30
0.0
 10
253.3281542768179
 20
52.41351058853962
 30
0.0
 10
253.1474515858612
 20
52.19031920306713
 30
0.0
 10
253.1125166223112
 20
52.06157002556932
 30
0.0
 10
253.1077018997704
 20
52.04382586602218
 30
0.0
  0
SPLINE
  5
270
330
1F
100
AcDbEntity
  8
0
  6
Continuous
 62
     7
370
    15
100
AcDbSpline
210
0.0
220
0.0
230
1.0
 70
     8
 71
     3
 72
    14
 73
    10
 74
     0
 42
0.000000001
 43
0.00000001
 40
0.0
 40
0.0
 40
0.0
 40
0.0
 40
0.25
 40
0.25
 40
0.5
 40
0.5
 40
0.75
 40
0.75
 40
1.0
 40
1.0
 40
1.0
 40
1.0
 10
242.8243541221434
 20
34.83221764872636
 30
0.0
 10
242.7867201286854
 20
34.8539432907064
 30
0.0
 10
242.7409461719962
 20
34.87115505181791
 30
0.0
 10
242.6410102944863
 20
34.8935603854504
 30
0.0
 10
242.5865764256464
 20
34.89873526905023
 30
0.0
 10
242.4803607751544
 20
34.89679307473546
 30
0.0
 10
242.4270444752044
 20
34.88970467181723
 30
0.0
 10
242.3295514079037
 20
34.86497123553254
 30
0.0
 10
242.284639717374
 20
34.8472103995465
 30
0.0
 10
242.246886451774
 20
34.82541590322452
 30
0.0
  0
LINE
  5
271
330
1F
100
AcDbEntity
  8
0
  6
Continuous
 62
     7
370
    15
100
AcDbLine
 10
242.2468864339
 20
34.825415864
 30
0.0
 11
242.1978670149
 21
34.7971175558
 31
0.0
  0
SPLINE
  5
272
330
1F
100
AcDbEntity
  8
0
  6
Continuous
 62
     7
370
    15
100
AcDbSpline
210
0.0
220
0.0
230
1.0
 70
     8
 71
     3
 72
    10
 73
     6
 74
     0
 42
0.000000001
 43
0.00000001
 40
0.0
 40
0.0
 40
0.0
 40
0.0
 40
0.5
 40
0.5
 40
1.0
 40
1.0
 40
1.0
 40
1.0
 10
239.4443738191239
 20
35.88489159040298
 30
0.0
 10
239.4516901035461
 20
35.88925959029616
 30
0.0
 10
239.4635139637545
 20
35.88979164288443
 30
0.0
 10
239.4976653280323
 20
35.88056159324612
 30
0.0
 10
239.5199222914251
 20
35.87072071592982
 30
0.0
 10
239.5463863094467
 20
35.8554433635135
 30
0.0
  0
LWPOLYLINE
  5
273
330
1F
100
AcDbEntity
  8
0
  6
Continuous
 62
     7
370
    15
100
AcDbPolyline
 90
       56
 70
   128
 43
0.0
 10
270.9876275041
 20
41.147451182
 10
270.0002272716
 20
40.512237354
 10
269.0256992792
 20
39.7549050957
 10
268.0767481677
 20
38.8853278258
 10
267.1657446957
 20
37.9148402235
 10
266.3045653841
 20
36.8560962275
 10
265.5044367703
 20
35.7228962354
 10
264.7757898702
 20
34.5300141116
 10
264.1281245175
 20
33.2930013816
 10
263.569882265
 20
32.0279834392
 10
263.1083426637
 20
30.7514529006
 10
262.749520859
 20
29.4800498408
 10
262.4980951513
 20
28.2303498203
 10
262.3573444337
 20
27.0186448786
 10
262.3291020939
 20
25.8607307036
 10
262.413736917
 20
24.7717028292
 10
262.6101451823
 20
23.7657582508
 10
262.9157671274
 20
22.8560113909
 10
263.3266178994
 20
22.0543217572
 10
263.8373422144
 20
21.3711408936
 10
264.4412808703
 20
20.8153748257
 10
265.1305609676
 20
20.3942684618
 10
265.8961976542
 20
20.113313377
 10
266.7282083832
 20
19.9761696655
 10
267.6157472558
 20
19.9846271437
 10
268.5472438097
 20
20.1385744438
 10
269.5105543196
 20
20.4360057489
 10
270.4931209178
 20
20.8730419277
 10
271.4821340905
 20
21.4439870794
 10
272.4647006887
 20
22.1413981475
 10
273.4280111985
 20
22.9561814829
 10
274.3595077525
 20
23.8777172116
 10
275.2470466251
 20
24.8939903038
 10
276.0790573541
 20
25.9917531557
 10
276.8446940407
 20
27.1566935426
 10
277.533974138
 20
28.3736257673
 10
278.1379127939
 20
29.626684565
 10
278.6486371089
 20
30.8995351712
 10
279.0594878809
 20
32.1755830093
 10
279.365109826
 20
33.438193456
 10
279.5615180913
 20
34.6709061907
 10
279.6461529144
 20
35.8576513518
 10
279.6179105746
 20
36.9829576154
 10
279.4771598569
 20
38.0321552375
 10
279.2257341492
 20
38.9915653149
 10
278.8669123446
 20
39.8486815375
 10
278.4053727433
 20
40.592329795
 10
277.8471304908
 20
41.212814952
 10
277.1994651381
 20
41.7020491827
 10
276.4708182379
 20
42.0536535026
 10
275.6706896242
 20
42.2630446612
 10
274.8095103126
 20
42.3274921881
 10
273.8985068405
 20
42.2461575703
 10
272.9495557291
 20
42.0200992082
 10
271.9750277367
 20
41.6522653963
 10
270.9876275041
 20
41.147451182
  0
LWPOLYLINE
  5
274
330
1F
100
AcDbEntity
  8
0
  6
Continuous
 62
     7
370
    15
100
AcDbPolyline
 90
       29
 70
   128
 43
0.0
 10
270.8108504506
 20
41.4536380195
 10
269.80329925
 20
40.8054604751
 10
268.8088828842
 20
40.0326727242
 10
267.8405654605
 20
39.1453481627
 10
266.9109699599
 20
38.1550552885
 10
266.0322157417
 20
37.0747038182
 10
265.2157581876
 20
35.9183775904
 10
264.4722410232
 20
34.7011512129
 10
263.8113573652
 20
33.4388927354
 10
263.2417229512
 20
32.148058527
 10
262.7707635292
 20
30.845475794
 10
262.4046193682
 20
29.5481262372
 10
262.1480629403
 20
28.2729221036
 10
262.0044389929
 20
27.0364882239
 10
261.9756204267
 20
25.8549432415
 10
262.0619819535
 20
24.7436900592
 10
262.2623994378
 20
23.7172164088
 10
262.5742584579
 20
22.7889032128
 10
262.9934938186
 20
21.9708521937
 10
263.5146409175
 20
21.2737291662
 10
264.1309048924
 20
20.7066207784
 10
264.8342521589
 20
20.2769210045
 10
265.6155138018
 20
19.990231514
 10
266.4645044424
 20
19.8502892267
 10
267.3701562525
 20
19.8589193414
 10
268.3206630107
 20
20.0160082311
 10
269.3036328851
 20
20.3195095124
 10
270.3062518754
 20
20.7654653939
 10
270.8122870098
 20
21.0409467261
  0
LWPOLYLINE
  5
275
330
1F
100
AcDbEntity
  8
0
  6
Continuous
 62
     7
370
    15
100
AcDbPolyline
 90
       15
 70
   128
 43
0.0
 10
279.6496853471
 20
36.3494284937
 10
279.6172619083
 20
37.2041544681
 10
279.4736379609
 20
38.2747636678
 10
279.2170815329
 20
39.2537540548
 10
278.8509373719
 20
40.1283625616
 10
278.37997795
 20
40.8871871202
 10
277.810343536
 20
41.5203354335
 10
277.1494598779
 20
42.0195538811
 10
276.4059427135
 20
42.3783336132
 10
275.5894851594
 20
42.5919980141
 10
274.7107309413
 20
42.6577614602
 10
273.7811354407
 20
42.574766215
 10
272.812818017
 20
42.3440952763
 10
271.8184016512
 20
41.9687543299
 10
270.8108504506
 20
41.4536380195
  0
SPLINE
  5
276
330
1F
100
AcDbEntity
  8
0
  6
Continuous
 62
     7
370
    15
100
AcDbSpline
210
0.0
220
0.0
230
1.0
 70
    11
 71
     3
 72
    95
 73
    91
 74
     0
 42
0.000000001
 43
0.00000001
 40
0.0
 40
0.0
 40
0.0
 40
0.0
 40
0.0312500000000006
 40
0.0312500000000006
 40
0.0468750000000008
 40
0.0468750000000008
 40
0.0625000000000011
 40
0.0625000000000011
 40
0.0937500000000015
 40
0.0937500000000015
 40
0.1093750000000016
 40
0.1093750000000016
 40
0.1250000000000019
 40
0.1250000000000019
 40
0.1562500000000026
 40
0.1562500000000026
 40
0.171875000000003
 40
0.171875000000003
 40
0.1875000000000033
 40
0.1875000000000033
 40
0.2187500000000035
 40
0.2187500000000035
 40
0.2343750000000039
 40
0.2343750000000039
 40
0.2500000000000042
 40
0.2500000000000042
 40
0.2812500000000046
 40
0.2812500000000046
 40
0.2968750000000049
 40
0.2968750000000049
 40
0.3125000000000052
 40
0.3125000000000052
 40
0.3437500000000056
 40
0.3437500000000056
 40
0.3593750000000057
 40
0.3593750000000057
 40
0.3750000000000058
 40
0.390625000000006
 40
0.390625000000006
 40
0.4062500000000061
 40
0.4062500000000061
 40
0.4375000000000062
 40
0.4375000000000062
 40
0.4531250000000063
 40
0.4531250000000063
 40
0.4687500000000064
 40
0.4687500000000064
 40
0.5000000000000062
 40
0.5000000000000062
 40
0.5312500000000062
 40
0.5312500000000062
 40
0.5468750000000059
 40
0.5468750000000059
 40
0.5625000000000057
 40
0.5625000000000057
 40
0.5937500000000051
 40
0.5937500000000051
 40
0.6250000000000044
 40
0.6250000000000044
 40
0.6562500000000039
 40
0.6562500000000039
 40
0.6875000000000033
 40
0.6875000000000033
 40
0.7187500000000027
 40
0.7187500000000027
 40
0.7500000000000021
 40
0.7500000000000021
 40
0.765625000000002
 40
0.765625000000002
 40
0.7812500000000019
 40
0.7812500000000019
 40
0.8125000000000014
 40
0.8125000000000014
 40
0.8281250000000013
 40
0.8281250000000013
 40
0.8437500000000012
 40
0.8437500000000012
 40
0.8750000000000009
 40
0.8750000000000009
 40
0.8906250000000008
 40
0.8906250000000008
 40
0.9062500000000007
 40
0.9062500000000007
 40
0.9218750000000006
 40
0.9218750000000006
 40
0.9375000000000004
 40
0.9375000000000004
 40
0.9687500000000002
 40
0.9687500000000002
 40
1.0
 40
1.0
 40
1.0
 40
1.0
 10
265.9873958946087
 20
45.99348686010411
 30
0.0
 10
266.2106741299986
 20
45.9568582182137
 30
0.0
 10
266.4281182717255
 20
45.90929783787877
 30
0.0
 10
266.7465684616191
 20
45.82474059555666
 30
0.0
 10
266.8514201503569
 20
45.79432582098139
 30
0.0
 10
267.0585706839902
 20
45.72930421405674
 30
0.0
 10
267.1613265231227
 20
45.69452661352287
 30
0.0
 10
267.4621029299349
 20
45.58542284766789
 30
0.0
 10
267.6518286410371
 20
45.50682144340436
 30
0.0
 10
267.9209986300192
 20
45.38137622899669
 30
0.0
 10
268.0081343269813
 20
45.33828822496167
 30
0.0
 10
268.1771526703462
 20
45.2495972836531
 30
0.0
 10
268.2592978899464
 20
45.20381890360834
 30
0.0
 10
268.4934263381032
 20
45.06512946560816
 30
0.0
 10
268.6345062953983
 20
44.97029340096812
 30
0.0
 10
268.8239218375026
 20
44.82411681023714
 30
0.0
 10
268.8833370605051
 20
44.77472724213293
 30
0.0
 10
268.9944841089267
 20
44.67442660714966
 30
0.0
 10
269.0462849158928
 20
44.62339030570667
 30
0.0
 10
269.1869190131923
 20
44.470634126425
 30
0.0
 10
269.2622479937865
 20
44.36835950413484
 30
0.0
 10
269.3470784985746
 20
44.2126829086063
 30
0.0
 10
269.3706305608177
 20
44.16040778161014
 30
0.0
 10
269.4077660765279
 20
44.05473123783182
 30
0.0
 10
269.4212826118562
 20
44.00128266321501
 30
0.0
 10
269.4454313144328
 20
43.84232180508944
 30
0.0
 10
269.4403527510037
 20
43.73699567078673
 30
0.0
 10
269.3989796857005
 20
43.57800388725123
 30
0.0
 10
269.37952164605
 20
43.52483993341517
 30
0.0
 10
269.328317586028
 20
43.41782642664965
 30
0.0
 10
269.296720464462
 20
43.3644454671928
 30
0.0
 10
269.1854518040207
 20
43.20711133739414
 30
0.0
 10
269.0889773847831
 20
43.10477729662697
 30
0.0
 10
268.9082739927651
 20
42.95418166608963
 30
0.0
 10
268.8414188004416
 20
42.90412936977484
 30
0.0
 10
268.69866281932
 20
42.80764271802327
 30
0.0
 10
268.5465780881369
 20
42.71436507253171
 30
0.0
 10
268.376203766412
 20
42.62733152388882
 30
0.0
 10
268.196573138162
 20
42.54350726419123
 30
0.0
 10
268.1015772326928
 20
42.50302030010751
 30
0.0
 10
267.8099594790855
 20
42.38962937874419
 30
0.0
 10
267.6050431623438
 20
42.32371741527729
 30
0.0
 10
267.2826969996112
 20
42.23974940295871
 30
0.0
 10
267.1730554121231
 20
42.21439467833316
 30
0.0
 10
266.9536572467219
 20
42.16987175927891
 30
0.0
 10
266.843318475602
 20
42.15054659667347
 30
0.0
 10
266.5104108621553
 20
42.10140405735535
 30
0.0
 10
266.2839641636307
 20
42.0803762970393
 30
0.0
 10
265.8406426221789
 20
42.06429375661593
 30
0.0
 10
265.6226612907874
 20
42.06885898965438
 30
0.0
 10
265.3007237508622
 20
42.09551630226679
 30
0.0
 10
265.194032624771
 20
42.10779067779125
 30
0.0
 10
264.9860660588307
 20
42.13871599498542
 30
0.0
 10
264.8843229156888
 20
42.15738900797155
 30
0.0
 10
264.5855722063005
 20
42.22305738613025
 30
0.0
 10
264.3949866939465
 20
42.27963971211165
 30
0.0
 10
264.0311469335314
 20
42.42004779157405
 30
0.0
 10
263.8621930576726
 20
42.50230307977951
 30
0.0
 10
263.5515096646866
 20
42.68909505662477
 30
0.0
 10
263.409242830296
 20
42.79389151924892
 30
0.0
 10
263.1528459255632
 20
43.02633755910382
 30
0.0
 10
263.0422393723807
 20
43.15074206188957
 30
0.0
 10
262.8554069352403
 20
43.41430078785765
 30
0.0
 10
262.778992469692
 20
43.55387478808222
 30
0.0
 10
262.6642934654179
 20
43.84541594407062
 30
0.0
 10
262.6273941275182
 20
43.99354373628287
 30
0.0
 10
262.6031630314273
 20
44.21768047073984
 30
0.0
 10
262.6003093126014
 20
44.29271934541661
 30
0.0
 10
262.6056288360426
 20
44.44319815547421
 30
0.0
 10
262.613890727485
 20
44.51907525405405
 30
0.0
 10
262.6560673030584
 20
44.74366336266798
 30
0.0
 10
262.7065901203728
 20
44.8877624191656
 30
0.0
 10
262.8173885209316
 20
45.09357199337663
 30
0.0
 10
262.860200584387
 20
45.16044384535623
 30
0.0
 10
262.9584419207752
 20
45.29026648840477
 30
0.0
 10
263.0140811646477
 20
45.35326270763527
 30
0.0
 10
263.1955291310159
 20
45.53009573490077
 30
0.0
 10
263.3370773594
 20
45.63393600803482
 30
0.0
 10
263.5811929733266
 20
45.76764273428198
 30
0.0
 10
263.6683497313378
 20
45.80861308014002
 30
0.0
 10
263.8485322706916
 20
45.88084346065041
 30
0.0
 10
263.9420618842536
 20
45.91243651058596
 30
0.0
 10
264.1357685828982
 20
45.96700911786606
 30
0.0
 10
264.235946214147
 20
45.98998772327266
 30
0.0
 10
264.4429454305773
 20
46.02753629164717
 30
0.0
 10
264.5492521690115
 20
46.04195799902423
 30
0.0
 10
264.8704867143377
 20
46.07244663916555
 30
0.0
 10
265.0899194336791
 20
46.07628344965685
 30
0.0
 10
265.5390441415601
 20
46.05505115671552
 30
0.0
 10
265.7641176592187
 20
46.03011550199454
 30
0.0
 10
265.9873958946086
 20
45.99348686010411
 30
0.0
  0
SPLINE
  5
277
330
1F
100
AcDbEntity
  8
0
  6
Continuous
 62
     7
370
    15
100
AcDbSpline
210
0.0
220
0.0
230
1.0
 70
     8
 71
     3
 72
    14
 73
    10
 74
     0
 42
0.000000001
 43
0.00000001
 40
0.0
 40
0.0
 40
0.0
 40
0.0
 40
0.25
 40
0.25
 40
0.5
 40
0.5
 40
0.75
 40
0.75
 40
1.0
 40
1.0
 40
1.0
 40
1.0
 10
254.4619593953734
 20
53.12131603638628
 30
0.0
 10
254.4768002875025
 20
53.08279801755069
 30
0.0
 10
254.4761665195985
 20
53.04487937939721
 30
0.0
 10
254.4432309146381
 20
52.97893842962794
 30
0.0
 10
254.4110950692962
 20
52.95066487208598
 30
0.0
 10
254.3261924938917
 20
52.90274584589848
 30
0.0
 10
254.2737755813986
 20
52.88286874845074
 30
0.0
 10
254.1624399171035
 20
52.84701182243436
 30
0.0
 10
254.1042852403925
 20
52.83113979875094
 30
0.0
 10
254.0448802846612
 20
52.8148644531962
 30
0.0
  0
LINE
  5
278
330
1F
100
AcDbEntity
  8
0
  6
Continuous
 62
     7
370
    15
100
AcDbLine
 10
254.4458324006
 20
53.163171879
 30
0.0
 11
254.461959497
 21
53.1213163893
 31
0.0
  0
SPLINE
  5
279
330
1F
100
AcDbEntity
  8
0
  6
Continuous
 62
     7
370
    15
100
AcDbSpline
210
0.0
220
0.0
230
1.0
 70
     8
 71
     3
 72
    10
 73
     6
 74
     0
 42
0.000000001
 43
0.00000001
 40
0.0
 40
0.0
 40
0.0
 40
0.0
 40
0.5
 40
0.5
 40
1.0
 40
1.0
 40
1.0
 40
1.0
 10
254.736904533434
 20
53.70734247276086
 30
0.0
 10
254.7088894836961
 20
53.63531637007284
 30
0.0
 10
254.6710715952463
 20
53.55436988476938
 30
0.0
 10
254.5750958474113
 20
53.37397484842947
 30
0.0
 10
254.5170640701118
 20
53.27464864145467
 30
0.0
 10
254.4458323325217
 20
53.16317217989059
 30
0.0
  0
LINE
  5
27A
330
1F
100
AcDbEntity
  8
0
  6
Continuous
 62
     7
370
    15
100
AcDbLine
 10
245.1301770359
 20
32.4650118738
 30
0.0
 11
243.3023228752
 21
33.5202096202
 31
0.0
  0
SPLINE
  5
27B
330
1F
100
AcDbEntity
  8
0
  6
Continuous
 62
     7
370
    15
100
AcDbSpline
210
0.0
220
0.0
230
1.0
 70
     8
 71
     3
 72
     8
 73
     4
 74
     0
 42
0.000000001
 43
0.00000001
 40
0.0000000000000004
 40
0.0000000000000004
 40
0.0000000000000004
 40
0.0000000000000004
 40
0.0011862984959127
 40
0.0011862984959127
 40
0.0011862984959127
 40
0.0011862984959127
 10
243.3023226077253
 20
33.52020968011755
 30
0.0
 10
243.2912604084676
 20
33.58231812503634
 30
0.0
 10
243.2806344018938
 20
33.64411091233794
 30
0.0
 10
243.2704212740765
 20
33.70560373905585
 30
0.0
  0
LINE
  5
27C
330
1F
100
AcDbEntity
  8
0
  6
Continuous
 62
     7
370
    15
100
AcDbLine
 10
267.134359123
 20
25.2865859413
 30
0.0
 11
267.194886278
 21
25.2528326297
 31
0.0
  0
LINE
  5
27D
330
1F
100
AcDbEntity
  8
0
  6
Continuous
 62
     7
370
    15
100
AcDbLine
 10
274.1337903053
 20
37.4112704173
 30
0.0
 11
274.0802809298
 21
37.4412300715
 31
0.0
  0
LINE
  5
27E
330
1F
100
AcDbEntity
  8
0
  6
Continuous
 62
     7
370
    15
100
AcDbLine
 10
243.3751071076
 20
34.3053845154
 30
0.0
 11
243.3552137951
 21
34.076038759
 31
0.0
  0
ARC
  5
27F
330
1F
100
AcDbEntity
  8
0
  6
Continuous
 62
     7
370
    15
100
AcDbCircle
 10
259.3598346677
 20
32.6488601509
 30
0.0
 40
16.06490965703242
100
AcDbArc
 50
176.9111716473
 51
185.7268787979
  0
SPLINE
  5
280
330
1F
100
AcDbEntity
  8
0
  6
Continuous
 62
     7
370
    15
100
AcDbSpline
210
0.0
220
0.0
230
1.0
 70
     8
 71
     3
 72
    14
 73
    10
 74
     0
 42
0.000000001
 43
0.00000001
 40
0.0
 40
0.0
 40
0.0
 40
0.0
 40
0.1207503208228668
 40
0.276928850037054
 40
0.4240977608090034
 40
0.5650073059431268
 40
0.7102544974439008
 40
0.8647380163825212
 40
1.0
 40
1.0
 40
1.0
 40
1.0
 10
272.124065907763
 20
37.55807333838548
 30
0.0
 10
272.2776361324102
 20
37.36617024228767
 30
0.0
 10
272.6298341673445
 20
36.92605957956838
 30
0.0
 10
272.915280030157
 20
36.1713862115948
 30
0.0
 10
272.9338653943589
 20
35.4148476980111
 30
0.0
 10
272.6675057835122
 20
34.7845152891526
 30
0.0
 10
272.1740174928595
 20
34.33735174968239
 30
0.0
 10
271.5338058770504
 20
34.10998770865123
 30
0.0
 10
271.0853114528638
 20
34.2231930595154
 30
0.0
 10
270.8759406604902
 20
34.27604074888045
 30
0.0
  0
LWPOLYLINE
  5
281
330
1F
100
AcDbEntity
  8
0
  6
Continuous
 62
     7
370
    15
100
AcDbPolyline
 90
        3
 70
   128
 43
0.0
 10
242.3763197349
 20
33.4052567046
 10
242.4322314808
 20
34.7929231343
 10
242.4383085295
 20
34.8680199856
  0
ARC
  5
282
330
1F
100
AcDbEntity
  8
0
  6
Continuous
 62
     7
370
    15
100
AcDbCircle
 10
254.0944224112
 20
33.1072400694
 30
0.0
 40
11.72189166669037
100
AcDbArc
 50
178.543158738
 51
203.8694730025
  0
LWPOLYLINE
  5
283
330
1F
100
AcDbEntity
  8
0
  6
Continuous
 62
     7
370
    15
100
AcDbPolyline
 90
        8
 70
   128
 43
0.0
 10
264.0756589351
 20
44.6273081825
 10
263.6668036353
 20
44.3260424089
 10
263.3947199626
 20
43.97704548
 10
263.2752198176
 20
43.6006003498
 10
263.3152477992
 20
43.2185847837
 10
263.5124777634
 20
42.8531998342
 10
263.8554477432
 20
42.5256806373
 10
263.8953359486
 20
42.4969802046
  0
LWPOLYLINE
  5
284
330
1F
100
AcDbEntity
  8
0
  6
Continuous
 62
     7
370
    15
100
AcDbPolyline
 90
       14
 70
   128
 43
0.0
 10
268.1785487149
 20
42.5209763824
 10
268.3736001933
 20
42.6834524211
 10
268.6456851831
 20
43.0324485897
 10
268.7651846695
 20
43.4088941001
 10
268.7251573465
 20
43.790909286
 10
268.5279273822
 20
44.1562942356
 10
268.1849574025
 20
44.4838134324
 10
267.7161790799
 20
44.7544333977
 10
267.1488377179
 20
44.9524257526
 10
266.5159038412
 20
45.0662841874
 10
265.8541617704
 20
45.0893918493
 10
265.202069023
 20
45.020405884
 10
264.5975231067
 20
44.8633353231
 10
264.0756589351
 20
44.6273081825
  0
LINE
  5
285
330
1F
100
AcDbEntity
  8
0
  6
Continuous
 62
     7
370
    15
100
AcDbLine
 10
223.8690201805
 20
70.0189615255
 30
0.0
 11
223.9452315608
 21
69.9924822809
 31
0.0
  0
LINE
  5
286
330
1F
100
AcDbEntity
  8
0
  6
Continuous
 62
     7
370
    15
100
AcDbLine
 10
239.8799090495
 20
35.4959270675
 30
0.0
 11
239.4443732305
 21
35.8848912372
 31
0.0
  0
LINE
  5
287
330
1F
100
AcDbEntity
  8
0
  6
Continuous
 62
     7
370
    15
100
AcDbLine
 10
241.3365322868
 20
34.6550363715
 30
0.0
 11
239.8799090495
 21
35.4959270675
 31
0.0
  0
LINE
  5
288
330
1F
100
AcDbEntity
  8
0
  6
Continuous
 62
     7
370
    15
100
AcDbLine
 10
243.3751071076
 20
34.3053845154
 30
0.0
 11
243.3751071076
 21
34.1602346782
 31
0.0
  0
LINE
  5
289
330
1F
100
AcDbEntity
  8
0
  6
Continuous
 62
     7
370
    15
100
AcDbLine
 10
243.3751071076
 20
33.4781914808
 30
0.0
 11
243.3751071076
 21
31.0457983563
 31
0.0
  0
LINE
  5
28A
330
1F
100
AcDbEntity
  8
0
  6
Continuous
 62
     7
370
    15
100
AcDbLine
 10
243.3751071076
 20
34.5142741659
 30
0.0
 11
243.3751071076
 21
34.3053845154
 31
0.0
  0
LINE
  5
28B
330
1F
100
AcDbEntity
  8
0
  6
Continuous
 62
     7
370
    15
100
AcDbLine
 10
243.3751071076
 20
31.0457983563
 30
0.0
 11
243.3751071076
 21
28.1758093136
 31
0.0
  0
LINE
  5
28C
330
1F
100
AcDbEntity
  8
0
  6
Continuous
 62
     7
370
    15
100
AcDbLine
 10
243.3023228752
 20
23.0276605209
 30
0.0
 11
245.1301770359
 21
21.9724627744
 31
0.0
  0
SPLINE
  5
28D
330
1F
100
AcDbEntity
  8
0
  6
Continuous
 62
     7
370
    15
100
AcDbSpline
210
0.0
220
0.0
230
1.0
 70
     8
 71
     3
 72
    14
 73
    10
 74
     0
 42
0.000000001
 43
0.00000001
 40
0.0
 40
0.0
 40
0.0
 40
0.0
 40
0.25
 40
0.25
 40
0.5
 40
0.5
 40
0.75
 40
0.75
 40
1.0
 40
1.0
 40
1.0
 40
1.0
 10
245.0846694860503
 20
21.85409450505692
 30
0.0
 10
245.0679946429839
 20
21.81072188695033
 30
0.0
 10
245.047699400068
 20
21.77049155750448
 30
0.0
 10
244.9994024209976
 20
21.69671966983234
 30
0.0
 10
244.9711835731925
 20
21.66315006315524
 30
0.0
 10
244.9082582247693
 20
21.60959865749261
 30
0.0
 10
244.8730950487523
 20
21.58914262813295
 30
0.0
 10
244.7984120595439
 20
21.57171033462108
 30
0.0
 10
244.7598871843355
 20
21.57565764360597
 30
0.0
 10
244.7259434816382
 20
21.59525292607579
 30
0.0
  0
LINE
  5
28E
330
1F
100
AcDbEntity
  8
0
  6
Continuous
 62
     7
370
    15
100
AcDbLine
 10
244.7259433192
 20
21.5952530497
 30
0.0
 11
243.2704213329
 21
22.435508007
 31
0.0
  0
SPLINE
  5
28F
330
1F
100
AcDbEntity
  8
0
  6
Continuous
 62
     7
370
    15
100
AcDbSpline
210
0.0
220
0.0
230
1.0
 70
     8
 71
     3
 72
     8
 73
     4
 74
     0
 42
0.000000001
 43
0.00000001
 40
0.0
 40
0.0
 40
0.0
 40
0.0
 40
0.0011862984959112
 40
0.0011862984959112
 40
0.0011862984959112
 40
0.0011862984959112
 10
243.2704212740765
 20
22.43550801116882
 30
0.0
 10
243.2806344018938
 20
22.63290691305775
 30
0.0
 10
243.291260408469
 20
22.83029275003453
 30
0.0
 10
243.3023226077267
 20
23.02766024738486
 30
0.0
  0
ARC
  5
290
330
1F
100
AcDbEntity
  8
0
  6
Continuous
 62
     7
370
    15
100
AcDbCircle
 10
253.6088859367
 20
23.5446396385
 30
0.0
 40
9.047417781565038
100
AcDbArc
 50
197.2420777022
 51
282.0215976859
  0
SPLINE
  5
291
330
1F
100
AcDbEntity
  8
0
  6
Continuous
 62
     7
370
    15
100
AcDbSpline
210
0.0
220
0.0
230
1.0
 70
     8
 71
     3
 72
     8
 73
     4
 74
     0
 42
0.000000001
 43
0.00000001
 40
0.0
 40
0.0
 40
0.0
 40
0.0
 40
1.0
 40
1.0
 40
1.0
 40
1.0
 10
243.548440961476
 20
23.52489840197174
 30
0.0
 10
243.4662427806904
 20
23.35917807546826
 30
0.0
 10
243.3842084125384
 20
23.19343120013029
 30
0.0
 10
243.3023226077267
 20
23.02766024738487
 30
0.0
  0
LINE
  5
292
330
1F
100
AcDbEntity
  8
0
  6
Continuous
 62
     7
370
    15
100
AcDbLine
 10
243.5974604625
 20
23.5531969737
 30
0.0
 11
243.5484410435
 21
23.5248986655
 31
0.0
  0
SPLINE
  5
293
330
1F
100
AcDbEntity
  8
0
  6
Continuous
 62
     7
370
    15
100
AcDbSpline
210
0.0
220
0.0
230
1.0
 70
     8
 71
     3
 72
    12
 73
     8
 74
     0
 42
0.000000001
 43
0.00000001
 40
0.0
 40
0.0
 40
0.0
 40
0.0
 40
0.249999999999997
 40
0.249999999999997
 40
0.499999999999994
 40
0.499999999999994
 40
1.0
 40
1.0
 40
1.0
 40
1.0
 10
243.6092426492605
 20
23.88656171393286
 30
0.0
 10
243.6468414338351
 20
23.86485639760857
 30
0.0
 10
243.6770189930815
 20
23.8380545270354
 30
0.0
 10
243.7156087277625
 20
23.78043082220541
 30
0.0
 10
243.7244682129523
 20
23.74938269663403
 30
0.0
 10
243.7194207791139
 20
23.65719372022874
 30
0.0
 10
243.6727184920387
 20
23.59664229325388
 30
0.0
 10
243.5974604038403
 20
23.55319672370194
 30
0.0
  0
LINE
  5
294
330
1F
100
AcDbEntity
  8
0
  6
Continuous
 62
     7
370
    15
100
AcDbLine
 10
242.8243542348
 20
24.33966838
 30
0.0
 11
243.6092428115
 21
23.8865618492
 31
0.0
  0
SPLINE
  5
295
330
1F
100
AcDbEntity
  8
0
  6
Continuous
 62
     7
370
    15
100
AcDbSpline
210
0.0
220
0.0
230
1.0
 70
     8
 71
     3
 72
    10
 73
     6
 74
     0
 42
0.000000001
 43
0.00000001
 40
0.0
 40
0.0
 40
0.0
 40
0.0
 40
0.5
 40
0.5
 40
1.0
 40
1.0
 40
1.0
 40
1.0
 10
242.246886451774
 20
24.33286647049263
 30
0.0
 10
242.3230238421126
 20
24.37681965036534
 30
0.0
 10
242.4265316227969
 20
24.40330631654412
 30
0.0
 10
242.6410269148827
 20
24.40713438693146
 30
0.0
 10
242.7484571593009
 20
24.38348260002806
 30
0.0
 10
242.8243541221434
 20
24.33966821599448
 30
0.0
  0
LINE
  5
296
330
1F
100
AcDbEntity
  8
0
  6
Continuous
 62
     7
370
    15
100
AcDbLine
 10
242.1978670149
 20
24.3045684565
 30
0.0
 11
242.2468864339
 21
24.3328667647
 31
0.0
  0
SPLINE
  5
297
330
1F
100
AcDbEntity
  8
0
  6
Continuous
 62
     7
370
    15
100
AcDbSpline
210
0.0
220
0.0
230
1.0
 70
     8
 71
     3
 72
     8
 73
     4
 74
     0
 42
0.000000001
 43
0.00000001
 40
0.0
 40
0.0
 40
0.0
 40
0.0
 40
1.0
 40
1.0
 40
1.0
 40
1.0
 10
241.3365319347552
 20
24.16248704742436
 30
0.0
 10
241.6236867611525
 20
24.20975871633638
 30
0.0
 10
241.9107998797377
 20
24.25711614903912
 30
0.0
 10
242.1978670094097
 20
24.30456814876242
 30
0.0
  0
LINE
  5
298
330
1F
100
AcDbEntity
  8
0
  6
Continuous
 62
     7
370
    15
100
AcDbLine
 10
239.8799090495
 20
25.0033779682
 30
0.0
 11
241.3365322868
 21
24.1624872721
 31
0.0
  0
LINE
  5
299
330
1F
100
AcDbEntity
  8
0
  6
Continuous
 62
     7
370
    15
100
AcDbLine
 10
239.8799090495
 20
25.0033779682
 30
0.0
 11
243.0215535767
 21
26.8170107495
 31
0.0
  0
ARC
  5
29A
330
1F
100
AcDbEntity
  8
0
  6
Continuous
 62
     7
370
    15
100
AcDbCircle
 10
252.8493491617
 20
24.8987109578
 30
0.0
 40
9.890562528246683
100
AcDbArc
 50
194.4210541018
 51
238.0225374632
  0
ELLIPSE
  5
29B
330
1F
100
AcDbEntity
  8
0
  6
Continuous
 62
     7
370
    15
100
AcDbEllipse
 10
242.7286610578
 20
27.8026353938
 30
0.0
 11
-7.507462979106094E-5
 21
1.066811201853401
 31
0.0
210
0.0
220
0.0
230
1.0
 40
0.7174342186
 41
3.534193645557526
 42
5.10498997235236
  0
ARC
  5
29C
330
1F
100
AcDbEntity
  8
0
  6
Continuous
 62
     7
370
    15
100
AcDbCircle
 10
252.7080852486
 20
27.1927094786
 30
0.0
 40
10.899818617004
100
AcDbArc
 50
195.3652578774
 51
215.9035762319
  0
ARC
  5
29D
330
1F
100
AcDbEntity
  8
0
  6
Continuous
 62
     7
370
    15
100
AcDbCircle
 10
250.1042614845
 20
25.9251847918
 30
0.0
 40
9.37461282062447
100
AcDbArc
 50
193.3832905048
 51
247.5353305273
  0
SPLINE
  5
29E
330
1F
100
AcDbEntity
  8
0
  6
Continuous
 62
     7
370
    15
100
AcDbSpline
210
0.0
220
0.0
230
1.0
 70
     8
 71
     3
 72
     8
 73
     4
 74
     0
 42
0.000000001
 43
0.00000001
 40
0.0000000000000004
 40
0.0000000000000004
 40
0.0000000000000004
 40
0.0000000000000004
 40
0.0011862984959127
 40
0.0011862984959127
 40
0.0011862984959127
 40
0.0011862984959127
 10
241.3365319347556
 20
24.1624870474234
 30
0.0
 10
241.2193814657606
 20
24.02636300458864
 30
0.0
 10
241.1019417153235
 20
23.89063942942571
 30
0.0
 10
240.9842308474788
 20
23.75529765193124
 30
0.0
  0
LINE
  5
29F
330
1F
100
AcDbEntity
  8
0
  6
Continuous
 62
     7
370
    15
100
AcDbLine
 10
239.4443732305
 20
24.7518962606
 30
0.0
 11
239.8799090495
 21
25.0033779682
 31
0.0
  0
LINE
  5
2A0
330
1F
100
AcDbEntity
  8
0
  6
Continuous
 62
     7
370
    15
100
AcDbLine
 10
240.9842310606
 20
23.7552975587
 30
0.0
 11
239.5463863846
 21
24.5853476221
 31
0.0
  0
SPLINE
  5
2A1
330
1F
100
AcDbEntity
  8
0
  6
Continuous
 62
     7
370
    15
100
AcDbSpline
210
0.0
220
0.0
230
1.0
 70
     8
 71
     3
 72
    10
 73
     6
 74
     0
 42
0.000000001
 43
0.00000001
 40
0.0
 40
0.0
 40
0.0
 40
0.0
 40
0.5
 40
0.5
 40
1.0
 40
1.0
 40
1.0
 40
1.0
 10
239.5463863094467
 20
24.58534763562648
 30
0.0
 10
239.5199768801661
 20
24.6005934746334
 30
0.0
 10
239.497693475957
 20
24.62445089704565
 30
0.0
 10
239.4635863411355
 20
24.68237698877993
 30
0.0
 10
239.4516863110806
 20
24.71627552026079
 30
0.0
 10
239.4443738191239
 20
24.75189656271514
 30
0.0
  0
ARC
  5
2A2
330
1F
100
AcDbEntity
  8
0
  6
Continuous
 62
     7
370
    15
100
AcDbCircle
 10
248.981398239
 20
26.8927754791
 30
0.0
 40
9.682290367806617
100
AcDbArc
 50
198.3297077333
 51
238.2567644535
  0
ELLIPSE
  5
2A3
330
1F
100
AcDbEntity
  8
0
  6
Continuous
 62
     7
370
    15
100
AcDbEllipse
 10
242.668000886
 20
27.7676056381
 30
0.0
 11
0.3250094736511642
 21
1.213179526238665
 31
0.0
210
0.0
220
0.0
230
1.0
 40
0.5176380889
 41
3.619174351347722
 42
5.189970678142619
  0
SPLINE
  5
2A4
330
1F
100
AcDbEntity
  8
0
  6
Continuous
 62
     7
370
    15
100
AcDbSpline
210
0.0
220
0.0
230
1.0
 70
     8
 71
     3
 72
    12
 73
     8
 74
     0
 42
0.000000001
 43
0.00000001
 40
0.0
 40
0.0
 40
0.0
 40
0.0
 40
0.5
 40
0.5
 40
0.75
 40
0.75
 40
1.0
 40
1.0
 40
1.0
 40
1.0
 10
269.2018579749992
 20
59.77192893913595
 30
0.0
 10
269.2649178522287
 20
59.8083326313862
 30
0.0
 10
269.3448508054598
 20
59.83516394323778
 30
0.0
 10
269.4778299937665
 20
59.84892078474832
 30
0.0
 10
269.5235011628785
 20
59.84879965094939
 30
0.0
 10
269.611138981516
 20
59.83602526932775
 30
0.0
 10
269.6518828923701
 20
59.82318528367299
 30
0.0
 10
269.6833965747088
 20
59.80499282209635
 30
0.0
  0
LINE
  5
2A5
330
1F
100
AcDbEntity
  8
0
  6
Continuous
 62
     7
370
    15
100
AcDbLine
 10
269.683396899
 20
59.8049931936
 30
0.0
 11
270.3430652131
 21
59.4241747818
 31
0.0
  0
LINE
  5
2A6
330
1F
100
AcDbEntity
  8
0
  6
Continuous
 62
     7
370
    15
100
AcDbLine
 10
272.0129322415
 20
57.3493785652
 30
0.0
 11
273.4074318473
 21
57.6551535786
 31
0.0
  0
LINE
  5
2A7
330
1F
100
AcDbEntity
  8
0
  6
Continuous
 62
     7
370
    15
100
AcDbLine
 10
273.4074318473
 20
57.6551535786
 30
0.0
 11
274.8629538336
 21
56.8148986212
 31
0.0
  0
SPLINE
  5
2A8
330
1F
100
AcDbEntity
  8
0
  6
Continuous
 62
     7
370
    15
100
AcDbSpline
210
0.0
220
0.0
230
1.0
 70
     8
 71
     3
 72
    12
 73
     8
 74
     0
 42
0.000000001
 43
0.00000001
 40
0.0
 40
0.0
 40
0.0
 40
0.0
 40
0.2499999999999946
 40
0.2499999999999946
 40
0.4999999999999892
 40
0.4999999999999892
 40
1.0
 40
1.0
 40
1.0
 40
1.0
 10
274.8629537469004
 20
56.81489811254556
 30
0.0
 10
274.8946098774005
 20
56.79662341739564
 30
0.0
 10
274.9169091544106
 20
56.77279930659735
 30
0.0
 10
274.9387297250025
 20
56.72276740414965
 30
0.0
 10
274.9390104873287
 20
56.69637619573575
 30
0.0
 10
274.9156431132079
 20
56.62030096574083
 30
0.0
 10
274.8686047104029
 20
56.57323791079042
 30
0.0
 10
274.8056792159026
 20
56.53691179603845
 30
0.0
  0
LINE
  5
2A9
330
1F
100
AcDbEntity
  8
0
  6
Continuous
 62
     7
370
    15
100
AcDbLine
 10
269.2018582064
 20
59.7719293162
 30
0.0
 11
269.1100676387
 21
59.7189397494
 31
0.0
  0
SPLINE
  5
2AA
330
1F
100
AcDbEntity
  8
0
  6
Continuous
 62
     7
370
    15
100
AcDbSpline
210
0.0
220
0.0
230
1.0
 70
     8
 71
     3
 72
    10
 73
     6
 74
     0
 42
0.000000001
 43
0.00000001
 40
0.0
 40
0.0
 40
0.0
 40
0.0
 40
0.4037333664871734
 40
0.8085288965773424
 40
1.0
 40
1.0
 40
1.0
 40
1.0
 10
277.8271133719095
 20
51.46097264332698
 30
0.0
 10
277.8453549475386
 20
51.49973677470896
 30
0.0
 10
277.8818860897218
 20
51.57736702024886
 30
0.0
 10
277.8958219529482
 20
51.6847848510243
 30
0.0
 10
277.877759687353
 20
51.73807491567564
 30
0.0
 10
277.8719595943586
 20
51.75518723910073
 30
0.0
  0
ARC
  5
2AB
330
1F
100
AcDbEntity
  8
0
  6
Continuous
 62
     7
370
    15
100
AcDbCircle
 10
267.7794009284
 20
49.3440592957
 30
0.0
 40
10.29515235376513
100
AcDbArc
 50
20.4843045116
 51
46.5242575502
  0
LWPOLYLINE
  5
2AC
330
1F
100
AcDbEntity
  8
0
  6
Continuous
 62
     7
370
    15
100
AcDbPolyline
 90
        3
 70
   128
 43
0.0
 10
272.0129319122
 20
58.0303683516
 10
272.0513869602
 20
57.9829042542
 10
272.4377234129
 20
57.4679372865
  0
ARC
  5
2AD
330
1F
100
AcDbEntity
  8
0
  6
Continuous
 62
     7
370
    15
100
AcDbCircle
 10
254.5842122025
 20
51.0289483878
 30
0.0
 40
1.562487995951847
100
AcDbArc
 50
79.6969630873
 51
142.7113318612
  0
ARC
  5
2AE
330
1F
100
AcDbEntity
  8
0
  6
Continuous
 62
     7
370
    15
100
AcDbCircle
 10
254.5519737702
 20
51.1130258875
 30
0.0
 40
1.467909010259093
100
AcDbArc
 50
78.3821019919
 51
144.2937504163
  0
ARC
  5
2AF
330
1F
100
AcDbEntity
  8
0
  6
Continuous
 62
     7
370
    15
100
AcDbCircle
 10
254.5216583014
 20
51.1916193101
 30
0.0
 40
1.249547245185351
100
AcDbArc
 50
80.705870252
 51
142.2259793291
  0
ARC
  5
2B0
330
1F
100
AcDbEntity
  8
0
  6
Continuous
 62
     7
370
     0
100
AcDbCircle
 10
268.1253457981
 20
35.0823836213
 30
0.0
 40
2.312153358813211
100
AcDbArc
 50
346.3463611396
 51
35.6421748177
  0
LWPOLYLINE
  5
2B1
330
1F
100
AcDbEntity
  8
0
  6
Continuous
 62
     7
370
     0
100
AcDbPolyline
 90
       11
 70
   128
 43
0.0
 10
269.8689243627
 20
36.3169065562
 10
269.9964976047
 20
36.085373261
 10
270.1894485114
 20
35.5834764948
 10
270.2684554131
 20
35.0976182913
 10
270.2257830461
 20
34.6753586701
 10
270.0656092167
 20
34.3580309696
 10
269.8036138696
 20
34.1766968232
 10
269.4654420452
 20
34.149106962
 10
269.0841961415
 20
34.277962234
 10
268.6971952174
 20
34.5506493013
 10
268.4172920695
 20
34.8446160897
  0
LWPOLYLINE
  5
2B2
330
1F
100
AcDbEntity
  8
0
  6
Continuous
 62
     7
370
     0
100
AcDbPolyline
 90
       22
 70
   128
 43
0.0
 10
244.7259433192
 20
32.8653488391
 10
245.1746794982
 20
34.6487690203
 10
245.7286985048
 20
36.4460703178
 10
246.3843717587
 20
38.2454792056
 10
247.1374029156
 20
40.0352089118
 10
247.9828607942
 20
41.8035358428
 10
248.9152057181
 20
43.5388771476
 10
249.9283316626
 20
45.229864479
 10
251.0156018161
 20
46.8654207968
 10
252.1698940199
 20
48.4348337483
 10
253.3836468659
 20
49.9278233451
 10
254.6489097461
 20
51.3346088795
 10
255.9573948781
 20
52.6459739385
 10
257.3005306465
 20
53.8533306586
 10
258.6695193905
 20
54.9487682945
 10
260.055393298
 20
55.9251128629
 10
261.4490743124
 20
56.7759693307
 10
262.8414330928
 20
57.4957617354
 10
264.2233490655
 20
58.079776978
 10
265.5857703098
 20
58.5241902685
 10
266.9197717365
 20
58.8260880653
 10
266.9811645483
 20
58.8366561609
  0
LINE
  5
2B3
330
1F
100
AcDbEntity
  8
0
  6
Continuous
 62
     7
370
     0
100
AcDbLine
 10
245.0846689763
 20
32.5308380095
 30
0.0
 11
245.2199366524
 21
33.1340879808
 31
0.0
  0
LWPOLYLINE
  5
2B4
330
1F
100
AcDbEntity
  8
0
  6
Continuous
 62
     7
370
     0
100
AcDbPolyline
 90
       11
 70
   128
 43
0.0
 10
259.7018590295
 20
55.1737055902
 10
260.3084678365
 20
55.5839912619
 10
261.70045847
 20
56.4305973403
 10
263.0908342701
 20
57.1446867803
 10
264.4702828412
 20
57.7214737694
 10
265.8295648037
 20
58.1570998255
 10
267.1595761093
 20
58.4486423934
 10
268.4514086263
 20
58.5941528622
 10
269.6964094092
 20
58.5926527579
 10
270.8862406259
 20
58.4441561709
 10
272.0129325708
 20
58.1496547322
  0
LWPOLYLINE
  5
2B5
330
1F
100
AcDbEntity
  8
0
  6
Continuous
 62
     7
370
     0
100
AcDbPolyline
 90
       21
 70
   128
 43
0.0
 10
265.614092992
 20
19.9906031334
 10
265.5375618884
 20
19.924387495
 10
264.1887990218
 20
18.8274836899
 10
262.8221690196
 20
17.8472186029
 10
261.4466177818
 20
16.9900098351
 10
260.0711500455
 20
16.2614694023
 10
258.7047696316
 20
15.6663646777
 10
257.3564213188
 20
15.208592441
 10
256.0349315792
 20
14.8911477075
 10
254.748951218
 20
14.7161119079
 10
253.5068980803
 20
14.6846274182
 10
252.3169035446
 20
14.796901652
 10
251.1867568752
 20
15.0522007924
 10
250.1238568197
 20
15.4488522673
 10
249.1351602423
 20
15.9842592037
 10
248.2271406354
 20
16.6549175417
 10
247.4057407048
 20
17.4564365712
 10
246.6763381248
 20
18.3835693543
 10
246.0437086603
 20
19.4302484698
 10
245.5119919221
 20
20.5896194773
 10
245.0846689763
 20
21.8540941514
  0
ARC
  5
2B6
330
1F
100
AcDbEntity
  8
0
  6
Continuous
 62
     7
370
     0
100
AcDbCircle
 10
267.6469739692
 20
48.8385013488
 30
0.0
 40
10.51249703684862
100
AcDbArc
 50
14.4456939373
 51
47.0804331381
  0
LWPOLYLINE
  5
2B7
330
1F
100
AcDbEntity
  8
0
  6
Continuous
 62
     7
370
     0
100
AcDbPolyline
 90
       28
 70
   128
 43
0.0
 10
251.5598684371
 20
30.9305191625
 10
251.6159514045
 20
32.1779967136
 10
251.7835634941
 20
33.4760910463
 10
252.0608067807
 20
34.8100948912
 10
252.4445393484
 20
36.1648934876
 10
252.9304134864
 20
37.5251357792
 10
253.5129237626
 20
38.8754099811
 10
254.1854709025
 20
40.2004173398
 10
254.9404335704
 20
41.4851443715
 10
255.7692585903
 20
42.7150350979
 10
256.6625547884
 20
43.8761539673
 10
257.6102006646
 20
44.9553453511
 10
258.6014593095
 20
45.9403812528
 10
259.625098917
 20
46.8201016028
 10
260.6695215307
 20
47.5845372504
 10
261.7228933939
 20
48.2250285606
 10
262.7732793339
 20
48.7343174408
 10
263.8087781756
 20
49.1066346391
 10
264.8176571666
 20
49.3377598556
 10
265.7884851266
 20
49.4250757941
 10
266.7102627161
 20
49.3675924136
 10
267.572545419
 20
49.1659608897
 10
268.3655633984
 20
48.82246676
 10
269.0803311438
 20
48.3410012054
 10
269.7087505332
 20
47.7270190259
 10
270.2437007251
 20
46.987477604
 10
270.6791211341
 20
46.1307562887
 10
270.8614918647
 20
45.651008766
  0
LWPOLYLINE
  5
2B8
330
1F
100
AcDbEntity
  8
0
  6
Continuous
 62
     7
370
     0
100
AcDbPolyline
 90
       13
 70
   128
 43
0.0
 10
258.3625077518
 20
23.9997868948
 10
257.6102006646
 20
23.8912578719
 10
256.6625547884
 20
23.876320616
 10
255.7692585903
 20
24.0060616487
 10
254.9404335704
 20
24.2790113762
 10
254.1854709025
 20
24.6920770653
 10
253.5129237626
 20
25.2405780247
 10
252.9304134864
 20
25.9183001774
 10
252.4445393484
 20
26.71756413
 10
252.0608067807
 20
27.6293145343
 10
251.7835634941
 20
28.643220094
 10
251.6159514045
 20
29.7477936272
 10
251.5598684371
 20
30.9305191625
  0
LWPOLYLINE
  5
2B9
330
1F
100
AcDbEntity
  8
0
  6
Continuous
 62
     7
370
     0
100
AcDbPolyline
 90
       22
 70
   128
 43
0.0
 10
239.5463863846
 20
35.8554434115
 10
239.9951225636
 20
37.6388635927
 10
240.5491415702
 20
39.4361648902
 10
241.2048148241
 20
41.235573778
 10
241.957845981
 20
43.0253034842
 10
242.8033038596
 20
44.7936304152
 10
243.7356487835
 20
46.52897172
 10
244.748774728
 20
48.2199590514
 10
245.8360448815
 20
49.8555153692
 10
246.9903370853
 20
51.4249283207
 10
248.2040899313
 20
52.9179179175
 10
249.4693528116
 20
54.3247034519
 10
250.7778379435
 20
55.6360685109
 10
252.1209737119
 20
56.8434252309
 10
253.4899624559
 20
57.9388628669
 10
254.8758363634
 20
58.9152074353
 10
256.2695173778
 20
59.7660639031
 10
257.6618761583
 20
60.4858563078
 10
259.043792131
 20
61.0698715504
 10
260.4062133752
 20
61.5142848409
 10
261.740214802
 20
61.8161826377
 10
261.8018288847
 20
61.8267872148
  0
LWPOLYLINE
  5
2BA
330
1F
100
AcDbEntity
  8
0
  6
Continuous
 62
     7
370
     0
100
AcDbPolyline
 90
       20
 70
   128
 43
0.0
 10
242.8243542348
 20
34.8322174793
 10
243.2560762579
 20
36.5465637509
 10
243.7919102164
 20
38.2744304092
 10
244.4281379681
 20
40.0038253032
 10
245.1603419964
 20
41.7227441801
 10
245.9834409719
 20
43.4192566146
 10
246.8917213623
 20
45.0815873749
 10
247.8788808969
 20
46.6982000697
 10
248.9380661028
 20
48.2578728111
 10
250.0619256478
 20
49.7497807194
 10
251.2426603892
 20
51.163567402
 10
252.4720734236
 20
52.4894225161
 10
253.7416329775
 20
53.7181424096
 10
255.0425267376
 20
54.841199508
 10
256.3657255649
 20
55.8507973475
 10
257.7020456034
 20
56.7399307641
 10
259.0422116241
 20
57.5024270238
 10
260.3769218094
 20
58.132993869
 10
261.6969125371
 20
58.6272538749
 10
262.8402307552
 20
58.9469809359
  0
LINE
  5
2BB
330
1F
100
AcDbEntity
  8
0
  6
Continuous
 62
     7
370
     0
100
AcDbLine
 10
254.0448805403
 20
52.8148642272
 30
0.0
 11
254.4036114658
 21
53.1519684811
 31
0.0
  0
LWPOLYLINE
  5
2BC
330
1F
100
AcDbEntity
  8
0
  6
Continuous
 62
     7
370
     0
100
AcDbPolyline
 90
       23
 70
   128
 43
0.0
 10
242.2468864339
 20
34.825415864
 10
242.6772386844
 20
36.5600498932
 10
243.2127170289
 20
38.3091015601
 10
243.8496388865
 20
40.0605490523
 10
244.5836288875
 20
41.8023561738
 10
245.409642581
 20
43.5225529515
 10
246.3220019961
 20
45.2093147203
 10
247.3144364722
 20
46.8510518537
 10
248.3801261223
 20
48.4364782012
 10
249.5117466143
 20
49.9546992985
 10
250.7015211961
 20
51.3952804231
 10
251.9412720622
 20
52.748321876
 10
253.2224796221
 20
54.0045236152
 10
254.5363381479
 20
55.1552523615
 10
255.8738178422
 20
56.1926002432
 10
257.2257267404
 20
57.1094372622
 10
258.5827736441
 20
57.8994628334
 10
259.9356321224
 20
58.5572457743
 10
261.2750041443
 20
59.0782671223
 10
262.5916851919
 20
59.4589455569
 10
263.8766253821
 20
59.6966650794
 10
265.1209946208
 20
59.7897913331
 10
266.0863497467
 20
59.7593278629
  0
LWPOLYLINE
  5
2BD
330
1F
100
AcDbEntity
  8
0
  6
Continuous
 62
     7
370
     0
100
AcDbPolyline
 90
        8
 70
   128
 43
0.0
 10
253.6811891284
 20
30.9305191625
 10
253.7388032117
 20
29.8002961267
 10
253.910893404
 20
28.7513263644
 10
254.1952173612
 20
27.7972858704
 10
254.5880674776
 20
26.9506108422
 10
255.0843229112
 20
26.2223400694
 10
255.6775141208
 20
25.6219670173
 10
256.2705321331
 20
25.2074590968
  0
LWPOLYLINE
  5
2BE
330
1F
100
AcDbEntity
  8
0
  6
Continuous
 62
     7
370
     0
100
AcDbPolyline
 90
       22
 70
   128
 43
0.0
 10
268.7695159167
 20
46.858680778
 10
268.308229855
 20
47.0882846146
 10
267.509044277
 20
47.3385634929
 10
266.6448195263
 20
47.4414585984
 10
265.7268213238
 20
47.3956270371
 10
264.7670178927
 20
47.2016675961
 10
263.7779213318
 20
46.862109019
 10
262.7724262306
 20
46.3813761561
 10
261.7636406295
 20
45.7657380078
 10
260.7647157857
 20
45.0232193369
 10
259.7886737996
 20
44.1635003982
 10
258.8482393149
 20
43.1977893633
 10
257.9556721257
 20
42.1386747352
 10
257.122608384
 20
40.9999644774
 10
256.3599078181
 20
39.7965027573
 10
255.6775141208
 20
38.5439790825
 10
255.0843229112
 20
37.258722038
 10
254.5880674776
 20
35.9574869374
 10
254.1952173612
 20
34.6572368195
 10
253.910893404
 20
33.374922872
 10
253.7388032117
 20
32.127262003
 10
253.6811891284
 20
30.9305191625
  0
LWPOLYLINE
  5
2BF
330
1F
100
AcDbEntity
  8
0
  6
Continuous
 62
     7
370
     0
100
AcDbPolyline
 90
       44
 70
   128
 43
0.0
 10
270.9876275041
 20
37.2688824503
 10
270.2154606902
 20
36.7578582523
 10
269.4597512328
 20
36.1272020014
 10
268.7366059781
 20
35.390355364
 10
268.0614370079
 20
34.5630220686
 10
267.4486350015
 20
33.6628363747
 10
266.9112603781
 20
32.7089832504
 10
266.4607665438
 20
31.7217929765
 10
266.1067547482
 20
30.7223058999
 10
265.8567702652
 20
29.7318238743
 10
265.7161413782
 20
28.7714577528
 10
265.6878647941
 20
27.8616756832
 10
265.7725434104
 20
27.0218682719
 10
265.9683724859
 20
26.2699345133
 10
266.2711784946
 20
25.6219008415
 10
266.6745073713
 20
25.0915785335
 10
267.169762805
 20
24.6902709659
 10
267.7463893153
 20
24.4265307243
 10
268.3920974737
 20
24.3059793532
 10
269.0931246879
 20
24.3311864171
 10
269.8345299001
 20
24.5016141499
 10
270.6005113759
 20
24.8136301861
 10
271.3747436324
 20
25.260584954
 10
272.1407251082
 20
25.8329523052
 10
272.8821303203
 20
26.5185328097
 10
273.5831575345
 20
27.302714539
 10
274.228865693
 20
28.168784681
 10
274.8054922032
 20
29.0982837202
 10
275.300747637
 20
30.0714010404
 10
275.7040765137
 20
31.0673969572
 10
276.0068825224
 20
32.0650430051
 10
276.2027115978
 20
33.0430762015
 10
276.2873902141
 20
33.9806514621
 10
276.25911363
 20
34.8577860827
 10
276.1184847431
 20
35.6557855474
 10
275.86850026
 20
36.3576416324
 10
275.5144884645
 20
36.94839539
 10
275.0639946302
 20
37.4154565541
 10
274.5266200068
 20
37.7488701446
 10
273.9138180003
 20
37.941529702
 10
273.2386490302
 20
37.9893294972
 10
272.5155037755
 20
37.8912503954
 10
271.7597943181
 20
37.649383079
 10
270.9876275041
 20
37.2688824503
  0
LWPOLYLINE
  5
2C0
330
1F
100
AcDbEntity
  8
0
  6
Continuous
 62
     7
370
     0
100
AcDbPolyline
 90
       22
 70
   128
 43
0.0
 10
267.194886278
 20
25.2528326297
 10
267.4848351931
 20
25.1212440119
 10
268.1046612353
 20
24.9756131021
 10
268.7837745578
 20
24.9793675679
 10
269.506257399
 20
25.1324187406
 10
270.2551752457
 20
25.431179561
 10
271.0129741825
 20
25.8686475755
 10
271.7618920293
 20
26.4345688956
 10
272.4843748705
 20
27.1156786558
 10
273.163488193
 20
27.8960117424
 10
273.7833142352
 20
28.7572785678
 10
274.329324682
 20
29.6792916314
 10
274.7887217088
 20
30.6404392082
 10
275.150737125
 20
31.6181932155
 10
275.4068859139
 20
32.5896359988
 10
275.5511641253
 20
33.5319975813
 10
275.5801898037
 20
34.4231898514
 10
275.4932830021
 20
35.2423241692
 10
275.2924802693
 20
35.9702004855
 10
274.9824885521
 20
36.589758158
 10
274.5705735722
 20
37.0864750857
 10
274.1337903053
 20
37.4112704173
  0
LINE
  5
2C1
330
1F
100
AcDbEntity
  8
0
  6
Continuous
 62
     7
370
     0
100
AcDbLine
 10
243.295558553
 20
32.8745914305
 30
0.0
 11
243.308550319
 21
33.5360293322
 31
0.0
  0
LWPOLYLINE
  5
2C2
330
1F
100
AcDbEntity
  8
0
  6
Continuous
 62
     7
370
     0
100
AcDbPolyline
 90
        3
 70
   128
 43
0.0
 10
243.3307906842
 20
33.9713154438
 10
243.3514702988
 20
34.2622578602
 10
243.3751080954
 20
34.5364415832
  0
LINE
  5
2C3
330
1F
100
AcDbEntity
  8
0
  6
Continuous
 62
     7
370
     0
100
AcDbLine
 10
243.2960103145
 20
32.7529125132
 30
0.0
 11
243.295558553
 21
32.8745914305
 31
0.0
  0
LWPOLYLINE
  5
2C4
330
1F
100
AcDbEntity
  8
0
  6
Continuous
 62
     7
370
     0
100
AcDbPolyline
 90
       19
 70
   128
 43
0.0
 10
212.2106045825
 20
56.7658979298
 10
212.2673599239
 20
57.8403733421
 10
212.4367309859
 20
58.9634319562
 10
212.7160460535
 20
60.1173621766
 10
213.100900781
 20
61.2839662544
 10
213.5852253638
 20
62.4448457398
 10
214.1613823319
 20
63.5816933955
 10
214.8202847588
 20
64.6765796898
 10
215.5515414708
 20
65.7122385276
 10
216.3436203657
 20
66.6723368182
 10
217.1840296775
 20
67.5417323511
 10
218.0595155393
 20
68.3067144636
 10
218.9562713186
 20
68.955219945
 10
219.8601544427
 20
69.4770205657
 10
220.756910222
 20
69.8638872685
 10
221.6323960838
 20
70.1097196163
 10
222.4728053956
 20
70.210640021
 10
223.2648842905
 20
70.1650565565
 10
223.8690201805
 20
70.0189615255
  0
ARC
  5
2C5
330
1F
100
AcDbEntity
  8
0
  6
Continuous
 62
     7
370
     0
100
AcDbCircle
 10
217.6313523517
 20
56.3354698818
 30
0.0
 40
5.437809732037675
100
AcDbArc
 50
175.4600220549
 51
225.5211364412
  0
LINE
  5
2C6
330
1F
100
AcDbEntity
  8
0
  6
Continuous
 62
     7
370
     0
100
AcDbLine
 10
248.9789284603
 20
33.8703082124
 30
0.0
 11
248.2717069765
 21
34.2785784847
 31
0.0
  0
LINE
  5
2C7
330
1F
100
AcDbEntity
  8
0
  6
Continuous
 62
     7
370
     0
100
AcDbLine
 10
243.4357672886
 20
28.2108390746
 30
0.0
 11
248.9789284603
 21
25.010840244
 31
0.0
  0
LINE
  5
2C8
330
1F
100
AcDbEntity
  8
0
  6
Continuous
 62
     7
370
     0
100
AcDbLine
 10
243.3751071076
 20
28.1758093136
 30
0.0
 11
243.4357672886
 21
28.2108390746
 31
0.0
  0
LINE
  5
2C9
330
1F
100
AcDbEntity
  8
0
  6
Continuous
 62
     7
370
     0
100
AcDbLine
 10
244.9680506221
 20
20.8628988643
 30
0.0
 11
244.7259433192
 21
21.5952530497
 31
0.0
  0
LINE
  5
2CA
330
1F
100
AcDbEntity
  8
0
  6
Continuous
 62
     7
370
     0
100
AcDbLine
 10
248.2718215632
 20
23.7860955557
 30
0.0
 11
243.0215535767
 21
26.8170107495
 31
0.0
  0
LINE
  5
2CB
330
1F
100
AcDbEntity
  8
0
  6
Continuous
 62
     7
370
     0
100
AcDbLine
 10
243.6858433916
 20
23.6391753226
 30
0.0
 11
243.6092428115
 21
23.8865618492
 31
0.0
  0
LWPOLYLINE
  5
2CC
330
1F
100
AcDbEntity
  8
0
  6
Continuous
 62
     7
370
     0
100
AcDbPolyline
 90
        3
 70
   128
 43
0.0
 10
243.2953241935
 20
23.0306150779
 10
243.2694644677
 20
23.0917389488
 10
242.8243542348
 20
24.33966838
  0
ARC
  5
2CD
330
1F
100
AcDbEntity
  8
0
  6
Continuous
 62
     7
370
     0
100
AcDbCircle
 10
253.0318146569
 20
27.362170951
 30
0.0
 40
11.20229265050883
100
AcDbArc
 50
195.6891556714
 51
214.1128344446
  0
LINE
  5
2CE
330
1F
100
AcDbEntity
  8
0
  6
Continuous
 62
     7
370
     0
100
AcDbLine
 10
239.7903626368
 20
23.8478434066
 30
0.0
 11
239.5463863846
 21
24.5853476221
 31
0.0
  0
OLE2FRAME
  5
2CF
330
1F
100
AcDbEntity
  8
0
100
AcDbOle2Frame
 70
     2
  3
Paintbrush-Bild
 10
13.8511154363
 20
38.264191557
 30
0.0
 11
51.6290888628
 21
31.9806341108
 31
0.0
 71
     2
 72
     0
 73
     1
 90
    12928
310
80552BED0767C5B32B40DDAF6807D121434000000000000000006FFBDDFB85D0
310
4940DDAF6807D121434000000000000000006FFBDDFB85D04940416F4BD60AFB
310
3F4000000000000000002BED0767C5B32B40416F4BD60AFB3F40000000000000
310
0000000000000100000000010000010000000100000000000100000000320000
310
D0CF11E0A1B11AE1000000000000000000000000000000003E000300FEFF0900
310
0600000000000000000000000100000001000000000000000010000002000000
310
01000000FEFFFFFF0000000000000000FFFFFFFFFFFFFFFFFFFFFFFFFFFFFFFF
310
FFFFFFFFFFFFFFFFFFFFFFFFFFFFFFFFFFFFFFFFFFFFFFFFFFFFFFFFFFFFFFFF
310
FFFFFFFFFFFFFFFFFFFFFFFFFFFFFFFFFFFFFFFFFFFFFFFFFFFFFFFFFFFFFFFF
310
FFFFFFFFFFFFFFFFFFFFFFFFFFFFFFFFFFFFFFFFFFFFFFFFFFFFFFFFFFFFFFFF
310
FFFFFFFFFFFFFFFFFFFFFFFFFFFFFFFFFFFFFFFFFFFFFFFFFFFFFFFFFFFFFFFF
310
FFFFFFFFFFFFFFFFFFFFFFFFFFFFFFFFFFFFFFFFFFFFFFFFFFFFFFFFFFFFFFFF
310
FFFFFFFFFFFFFFFFFFFFFFFFFFFFFFFFFFFFFFFFFFFFFFFFFFFFFFFFFFFFFFFF
310
FFFFFFFFFFFFFFFFFFFFFFFFFFFFFFFFFFFFFFFFFFFFFFFFFFFFFFFFFFFFFFFF
310
FFFFFFFFFFFFFFFFFFFFFFFFFFFFFFFFFFFFFFFFFFFFFFFFFFFFFFFFFFFFFFFF
310
FFFFFFFFFFFFFFFFFFFFFFFFFFFFFFFFFFFFFFFFFFFFFFFFFFFFFFFFFFFFFFFF
310
FFFFFFFFFFFFFFFFFFFFFFFFFFFFFFFFFFFFFFFFFFFFFFFFFFFFFFFFFFFFFFFF
310
FFFFFFFFFFFFFFFFFFFFFFFFFFFFFFFFFFFFFFFFFFFFFFFFFFFFFFFFFFFFFFFF
310
FFFFFFFFFFFFFFFFFFFFFFFFFFFFFFFFFFFFFFFFFFFFFFFFFFFFFFFFFFFFFFFF
310
FFFFFFFFFFFFFFFFFFFFFFFFFFFFFFFFFFFFFFFFFFFFFFFFFFFFFFFFFFFFFFFF
310
FDFFFFFFFEFFFFFFFEFFFFFFFEFFFFFF05000000060000000700000008000000
310
090000000A0000000B0000000C0000000D0000000E0000000F00000010000000
310
11000000120000001300000014000000150000001600000017000000FEFFFFFF
310
FFFFFFFFFFFFFFFFFFFFFFFFFFFFFFFFFFFFFFFFFFFFFFFFFFFFFFFFFFFFFFFF
310
FFFFFFFFFFFFFFFFFFFFFFFFFFFFFFFFFFFFFFFFFFFFFFFFFFFFFFFFFFFFFFFF
310
FFFFFFFFFFFFFFFFFFFFFFFFFFFFFFFFFFFFFFFFFFFFFFFFFFFFFFFFFFFFFFFF
310
FFFFFFFFFFFFFFFFFFFFFFFFFFFFFFFFFFFFFFFFFFFFFFFFFFFFFFFFFFFFFFFF
310
FFFFFFFFFFFFFFFFFFFFFFFFFFFFFFFFFFFFFFFFFFFFFFFFFFFFFFFFFFFFFFFF
310
FFFFFFFFFFFFFFFFFFFFFFFFFFFFFFFFFFFFFFFFFFFFFFFFFFFFFFFFFFFFFFFF
310
FFFFFFFFFFFFFFFFFFFFFFFFFFFFFFFFFFFFFFFFFFFFFFFFFFFFFFFFFFFFFFFF
310
FFFFFFFFFFFFFFFFFFFFFFFFFFFFFFFFFFFFFFFFFFFFFFFFFFFFFFFFFFFFFFFF
310
FFFFFFFFFFFFFFFFFFFFFFFFFFFFFFFFFFFFFFFFFFFFFFFFFFFFFFFFFFFFFFFF
310
FFFFFFFFFFFFFFFFFFFFFFFFFFFFFFFFFFFFFFFFFFFFFFFFFFFFFFFFFFFFFFFF
310
FFFFFFFFFFFFFFFFFFFFFFFFFFFFFFFFFFFFFFFFFFFFFFFFFFFFFFFFFFFFFFFF
310
FFFFFFFFFFFFFFFFFFFFFFFFFFFFFFFFFFFFFFFFFFFFFFFFFFFFFFFFFFFFFFFF
310
FFFFFFFFFFFFFFFFFFFFFFFFFFFFFFFFFFFFFFFFFFFFFFFFFFFFFFFFFFFFFFFF
310
52006F006F007400200045006E00740072007900000000000000000000000000
310
0000000000000000000000000000000000000000000000000000000000000000
310
16000500FFFFFFFFFFFFFFFF020000000A00030000000000C000000000000046
310
0000000000000000000000008036B1729124D20103000000C000000000000000
310
01004F006C006500000000000000000000000000000000000000000000000000
310
0000000000000000000000000000000000000000000000000000000000000000
310
0A000200FFFFFFFFFFFFFFFFFFFFFFFF00000000000000000000000000000000
310
0000000000000000000000000000000000000000000000001400000000000000
310
010043006F006D0070004F0062006A0000000000000000000000000000000000
310
0000000000000000000000000000000000000000000000000000000000000000
310
120002010100000003000000FFFFFFFF00000000000000000000000000000000
310
0000000000000000000000000000000000000000010000004D00000000000000
310
01004F006C006500310030004E00610074006900760065000000000000000000
310
0000000000000000000000000000000000000000000000000000000000000000
310
1A000200FFFFFFFFFFFFFFFFFFFFFFFF00000000000000000000000000000000
310
0000000000000000000000000000000000000000040000002426000000000000
310
FEFFFFFF02000000FEFFFFFFFFFFFFFFFFFFFFFFFFFFFFFFFFFFFFFFFFFFFFFF
310
FFFFFFFFFFFFFFFFFFFFFFFFFFFFFFFFFFFFFFFFFFFFFFFFFFFFFFFFFFFFFFFF
310
FFFFFFFFFFFFFFFFFFFFFFFFFFFFFFFFFFFFFFFFFFFFFFFFFFFFFFFFFFFFFFFF
310
FFFFFFFFFFFFFFFFFFFFFFFFFFFFFFFFFFFFFFFFFFFFFFFFFFFFFFFFFFFFFFFF
310
FFFFFFFFFFFFFFFFFFFFFFFFFFFFFFFFFFFFFFFFFFFFFFFFFFFFFFFFFFFFFFFF
310
FFFFFFFFFFFFFFFFFFFFFFFFFFFFFFFFFFFFFFFFFFFFFFFFFFFFFFFFFFFFFFFF
310
FFFFFFFFFFFFFFFFFFFFFFFFFFFFFFFFFFFFFFFFFFFFFFFFFFFFFFFFFFFFFFFF
310
FFFFFFFFFFFFFFFFFFFFFFFFFFFFFFFFFFFFFFFFFFFFFFFFFFFFFFFFFFFFFFFF
310
FFFFFFFFFFFFFFFFFFFFFFFFFFFFFFFFFFFFFFFFFFFFFFFFFFFFFFFFFFFFFFFF
310
FFFFFFFFFFFFFFFFFFFFFFFFFFFFFFFFFFFFFFFFFFFFFFFFFFFFFFFFFFFFFFFF
310
FFFFFFFFFFFFFFFFFFFFFFFFFFFFFFFFFFFFFFFFFFFFFFFFFFFFFFFFFFFFFFFF
310
FFFFFFFFFFFFFFFFFFFFFFFFFFFFFFFFFFFFFFFFFFFFFFFFFFFFFFFFFFFFFFFF
310
FFFFFFFFFFFFFFFFFFFFFFFFFFFFFFFFFFFFFFFFFFFFFFFFFFFFFFFFFFFFFFFF
310
FFFFFFFFFFFFFFFFFFFFFFFFFFFFFFFFFFFFFFFFFFFFFFFFFFFFFFFFFFFFFFFF
310
FFFFFFFFFFFFFFFFFFFFFFFFFFFFFFFFFFFFFFFFFFFFFFFFFFFFFFFFFFFFFFFF
310
FFFFFFFFFFFFFFFFFFFFFFFFFFFFFFFFFFFFFFFFFFFFFFFFFFFFFFFFFFFFFFFF
310
0100000200000000000000000000000000000000000000000000000000000000
310
0000000000000000000000000000000000000000000000000000000000000000
310
0100FEFF030A0000FFFFFFFF0A00030000000000C00000000000004607000000
310
5042727573680007000000504272757368000700000050427275736800F439B2
310
7100000000000000000000000000000000000000000000000000000000000000
310
0000000000000000000000000000000000000000000000000000000000000000
310
0000000000000000000000000000000000000000000000000000000000000000
310
0000000000000000000000000000000000000000000000000000000000000000
310
0000000000000000000000000000000000000000000000000000000000000000
310
0000000000000000000000000000000000000000000000000000000000000000
310
0000000000000000000000000000000000000000000000000000000000000000
310
0000000000000000000000000000000000000000000000000000000000000000
310
0000000000000000000000000000000000000000000000000000000000000000
310
0000000000000000000000000000000000000000000000000000000000000000
310
0000000000000000000000000000000000000000000000000000000000000000
310
0000000000000000000000000000000000000000000000000000000000000000
310
20260000424D0E260000000000003E00000028000000B40200006E0000000100
310
01000000000000000000130B0000130B00000200000002000000000000FFFFFF
310
FFFFFFFFFFFFFFFFFFFFFFFFFFFFFFFFFFFFFFFFFFFFFFFFFFFFFFFFFFFFFFFF
310
FFFFFFFFFFFFFFFFFFFFFFFFFFFFFFFFFFFFFFFFFFFFFFFFFFFFFFFFFFFFFFFF
310
FFFFFFFFFFFFFFFFFFFFFFFFFFFFFFFFFFFFFFFFFFFFFFFFF000FFFFFFFFFFFF
310
FFFFFFFFFFFFFFFFFFFFFFFFFFFFFFFFFFFFFFFFFFFFFFFFFFFFFFFFFFFFFFFF
310
FFFFFFFFFFFFFFFFFFFFFFFFFFFFFFFFFFFFFFFFFFFFFFFFFFFFFFFFFFFFFFFF
310
FFFFFFFFFFFFFFFFFFFFFFFFFFFFFFFFF000FFFFFFFFFFFFFFFFFFFFFFFFFFFF
310
FFFFFFFFFFFFFFFFFFFFFFFFFFFFFFFFFFFFFFFFFFFFFFFFFFFFFFFFFFFFFFFF
310
FFFFFFFFFFFFFFFFFFFFFFFFFFFFFFFFFFFFFFFFFFFFFFFFFFFFFFFFFFFFFFFF
310
FFFFFFFFFFFFFFFFF000FFFFFFFFFFFFFFFFFFFFFFFFFFFFFFFFFFFFFFFFFFFF
310
FFFFFFFFFFFFFFFFFFFFFFFFFFFFFFFFFFFFFFFFFFFFFFFFFFFFFFFFFFFFFFFF
310
FFFFFFFFFFFFFFFFFFFFFFFFFFFFFFFFFFFFFFFFFFFFFFFFFFFFFFFFFFFFFFFF
310
F000FFFFFFFFFFFFFFFFFFFFFFFFFFFFFFFFFFFFFFFFFFFFFFFFFFFFFFFFFFFF
310
FFFFFFFFFFFFFFFFFFFFFFFFFFFFFFFFFFFFFFFFFFFFFFFFFFFFFFFFFFFFFFFF
310
FFFFFFFFFFFFFFFFFFFFFFFFFFFFFFFFFFFFFFFFFFFFFFFFF000FFFFFFFFFFFF
310
FFFFFFFFFFFFFFFFFFFFFFFFFFFFFFFFFFFFFFFFFFFFFFFFFFFFFFFFFFFFFFFF
310
FFFFFFFFFFFFFFFFFFFFFFFFFFFFFFFFFFFFFFFFFFFFFFFFFFFFFFFFFFFFFFFF
310
FFFFFFFFFFFFFFFFFFFFFFFFFFFFFFFFF000FFFFFFFFFFFFFFFFFFFFFFFFFFFF
310
FFFFFFFFFFFFFFFFFFFFFFFFFFFFFFFFFFFFFFFFFFFFFFFFFFFFFFFFFFFFFFFF
310
FFFFFFFFFFFFFFFFFFFFFFFFFFFFFFFFFFFFFFFFFFFFFFFFFFFFFFFFFFFFFFFF
310
FFFFFFFFFFFFFFFFF000FFFFFFFFFFFFFFFFFFFFFFFFFFFFFFFFFFFFFFFFFFFF
310
FFFFFFFFFFFFFFFFFFFFFFFFFFFFFFFFFFFFFFFFFFFFFFFFFFFFFFFFFFFFFFFF
310
FFFFFFFFFFFFFFFFFFFFFFFFFFFFFFFFFFFFFFFFFFFFFFFFFFFFFFFFFFFFFFFF
310
F000FFFFFFFFFFFFFFFFFFFFFFFFFFFFFFFFFFFFFFFFFFFFFFFFFFFFFFFFFFFF
310
FFFFFFFFFFFFFFFFFFFFFFFFFFFFFFFFFFFFFFFFFFFFFFFFFFFFFFFFFFFFFFFF
310
FFFFFFFFFFFFFFFFFFFFFFFFFFFFFFFFFFFFFFFFFFFFFFFFF000FFFFFFFFFFFF
310
FFFFFFFFFFFFFFFFFFFFFFFFFFFFFFFFFFFFFFFFFFFFFFFFFFFFFFFFFFFFFFFF
310
FFFFFFFFFFFFFFFFFFFFFFFFFFFFFFFFFFFFFFFFFFFFFFFFFFFFFFFFFFFFFFFF
310
FFFFFFFFFFFFFFFFFFFFFFFFFFFFFFFFF000FFFFFFFFFFFFFFFFFFFFFFFFFFFF
310
FFFFFFFFFFFFFFFFFFFFFFFFFFFFFFFFFFFFFFFFFFFFFFFFFFFFFFFFFFFFFFFF
310
FFFFFFFFFFFFFFFFFFFFFFFFFFFFFFFFFFFFFFFFFFFFFFFFFFFFFFFFFFFFFFFF
310
FFFFFFFFFFFFFFFFF000FFFFFFFFFFFFFFFFFFFFFFFFFFFFFFFFFFFFFFFFFFFF
310
FFFFFFFFFFFFFFFFFFFFFFFFFFFFFFFFFFFFFFFFFFFFFFFFFFFFFFFFFFFFFFFF
310
FFFFFFFFFFFFFFFFFFFFFFFFFFFFFFFFFFFFFFFFFFFFFFFFFFFFFFFFFFFFFFFF
310
F000FFFFFFFFFFFFFFFFFFFFFFFFFFFFFFFFFFFFFFFFFFFFFFFFFFFFFFFFFFFF
310
FFFFFFFFFFFFFFFFFFFFFFFFFFFFFFFFFFFFFFFFFFFFFFFFFFFFFFFFFFFFFFFF
310
FFFFFFFFFFFFFFFFFFFFFFFFFFFFFFFFFFFFFFFFFFFFFFFFF000FFFFFFFFFFFF
310
FFFFFFFFFFFFFFFFFFFFFFFFFFFFFFFFFFFFFFFFFFFFFFFFFFFFFFFFFFFFFFFF
310
FFFFFFFFFFFFFFFFFFFFFFFFFFFFFFFFFFFFFFFFFFFFFFFFFFFFFFFFFFFFFFFF
310
FFFFFFFFFFFFFFFFFFFFFFFFFFFFFFFFF000FFFFFFFFFFFFFFFFFFFFFFFFFFFF
310
FFFFFFFFFFFFFFFFFFFFFFFFFFFFFFFFFFFFFFFFFFFFFFFFFFFFFFFFFFFFFFFF
310
FFFFFFFFFFFFFFFFFFFFFFFFFFFFFFFFFFFFFFFFFFFFFFFFFFFFFFFFFFFFFFFF
310
FFFFFFFFFFFFFFFFF000FFFFFFFFFFFFFFFFFFFFFFFFFFFFFFFFFFFFFFFFFFFF
310
FFFFFFFFFFFFFFFFFFFFFFFFFFFFFFFFFFFFFFFFFFFFFFFFFFFFFFFFFFFFFFFF
310
FFFFFFFFFFFFFFFFFFFFFFFFFFFFFFFFFFFFFFFFFFFFFFFFFFFFFFFFFFFFFFFF
310
F000FFFFFFFFFFFFFFFFFFFFFFFFFFFFFFFFFFFFFFFFFFFFFFFFFFFFFFFFFFFF
310
FFFFFFFFFFFFFFFFFFFFFFFFFFFFFFFFFFFFFFFFFFFFFFFFFFFFFFFFFFFFFFFF
310
FFFFFFFFFFFFFFFFFFFFFFFFFFFFFFFFFFFFFFFFFFFFFFFFF000FFFFFFFFFFFF
310
FFFFFFFFFFFFFFFFFFFFFFFFFFFFFFFFFFFFFFFFFFFFFFFFFFFFFFFFFFFFFFFF
310
FFFFFFFFFFFFFFFFFFFFFFFFFFFFFFFFFFFFFFFFFFFFFFFFFFFFFFFFFFFFFFFF
310
FFFFFFFFFFFFFFFFFFFFFFFFFFFFFFFFF000FFFFFFFFFFFFFFFFFFFFFFFFFFFF
310
FFFFFFFFFFFFFFFFFFFFFFFFFFFFFFFFFFFFFFFFFFFFFFFFFFFFFFFFFFFFFFFF
310
FFFFFFFFFFFFFFFFFFFFFFFFFFFFFFFFFFFFFFFFFFFFFFFFFFFFFFFFFFFFFFFF
310
FFFFFFFFFFFFFFFFF000FFFFF80003FFFFFFFFFFFFFFFFFFFFFFFFFFFFFFFFFF
310
FFFFF00007FFFFFFFFFF00007FFFFFF800000000000000007FFFFFFFFFFFFFFF
310
FFFFFFFC001FFFFFFFFFFFFFFC001FFFFFFFFFFFFFFFFFFFFFFFFFFE0007FFFF
310
F000FFFF8000007FFFFFFFF8000FFFFFC0007FFFFF80007FFFFF0000007FFFFF
310
FFF8000007FFFFF800000000000000007FFFFFF0001FFFFFFFFFFFC00001FFFF
310
FFFFFFFFC00001FFFFFFFF000000000003FFFFE000007FFFF000FFFE0000000F
310
FFFFFFF0000FFFFF80007FFFFF80007FFFFC0000001FFFFFFFC0000001FFFFF8
310
00000000000000007FFFFFF0001FFFFFFFFFFE0000003FFFFFFFFFFE0000003F
310
FFFFFF000000000003FFFF0000000FFFF000FFF800000003FFFFFFF00007FFFF
310
80007FFFFF80007FFFF000000007FFFFFF000000003FFFF80000000000000000
310
7FFFFFF0001FFFFFFFFFF80000000FFFFFFFFFF80000000FFFFFFF0000000000
310
03FFFC00000003FFF000FFE000000000FFFFFFF00007FFFF80003FFFFF80007F
310
FFC000000001FFFFFC000000001FFFF800000000000000007FFFFFF0001FFFFF
310
FFFFE000000003FFFFFFFFE000000003FFFFFF000000000003FFF000000000FF
310
F000FF80000000007FFFFFF00007FFFF80003FFFFF80007FFF8000000000FFFF
310
F80000000007FFF800000000000000007FFFFFF0001FFFFFFFFFC000000001FF
310
FFFFFFC000000001FFFFFF000000000003FFC0000000007FF000FF0000000000
310
3FFFFFE00007FFFF00003FFFFF80007FFE00000000003FFFF00000000003FFF8
310
00000000000000007FFFFFF0001FFFFFFFFF8000000000FFFFFFFF8000000000
310
FFFFFF000000000003FF80000000003FF000FE00000000001FFFFFE00003FFFF
310
00003FFFFF80007FFC00000000001FFFE00000000001FFF8000001FFFE000000
310
7FFFFFF0001FFFFFFFFE00000000003FFFFFFE00000000003FFFFF0000000000
310
03FF00000000001FF000FC00000000000FFFFFE00003FFFF00001FFFFF80007F
310
F800000000001FFFC00000000000FFF8000001FFFE0000007FFFFFF0001FFFFF
310
FFFC00000000001FFFFFFC00000000001FFFFF000000000003FE00000000000F
310
F000F8000000000007FFFFE00003FFFF00001FFFFF80007FF800000000000FFF
310
800000000000FFF8000001FFFE0000007FFFFFF0001FFFFFFFF800000000000F
310
FFFFF800000000000FFFFF000000000003FC000000000007F000F80000000000
310
03FFFFC00003FFFE00001FFFFF80007FF0000000000007FF0000000000007FF8
310
000001FFFE0000007FFFFFF0001FFFFFFFF0000000000007FFFFF00000000000
310
07FFFF000000000003F8000000000003F000F0000000000003FFFFC00001FFFE
310
00001FFFFF80007FE0000000000007FE0000000000003FF8000001FFFE000000
310
7FFFFFF0001FFFFFFFF0000000000007FFFFF0000000000007FFFF0000000000
310
03F800001F800003F000E00001FFF00001FFFFC00001FFFE00000FFFFF80007F
310
E00001FFE00003FE00001FFF00003FF8000001FFFE0000007FFFFFF0001FFFFF
310
FFE000003E000003FFFFE000003E000003FFFF000000000003F00001FFF80001
310
F000E00007FFFC0001FFFFC00001FFFE00000FFFFF80007FC0000FFFFC0003FC
310
0000FFFFC0001FF8000001FFFE0000007FFFFFF0001FFFFFFFC00003FFE00001
310
FFFFC00003FFE00001FFFF0001FFFFFFFFF00007FFFE0001F000E0000FFFFF00
310
00FFFF800001FFFC00000FFFFF80007FC0001FFFFE0001FC0001FFFFE0001FF8
310
000001FFFE0000007FFFFFF0001FFFFFFF80000FFFF80000FFFF80000FFFF800
310
00FFFF0003FFFFFFFFE0000FFFFF8000F000C0003FFFFF8000FFFF800000FFFC
310
000007FFFF80007F80003FFFFF0001FC0003FFFFF0001FF8000001FFFE000000
310
7FFFFFF0001FFFFFFF80003FFFFE0000FFFF80003FFFFE0000FFFF0003FFFFFF
310
FFE0003FFFFF8000F000C0003FFFFF8000FFFF800000FFFC000007FFFF80007F
310
80007FFFFF8001F80007FFFFF8000FF8000001FFFE0000007FFFFFF0001FFFFF
310
FF00007FFFFF00007FFF00007FFFFF00007FFF0003FFFFFFFFE0003FFFFFC000
310
F000C0007FFFFFC000FFFF000000FFFC000007FFFF80007F8000FFFFFF8000F8
310
000FFFFFF8000FF8000001FFFE0000007FFFFFF0001FFFFFFF0000FFFFFF8000
310
7FFF0000FFFFFF80007FFF0003FFFFFFFFC0007FFFFFC00070008000FFFFFFC0
310
00FFFF000000FFF8000007FFFF80007F8000FFFFFF8000F8000FFFFFF8000FF8
310
000001FFFE0000007FFFFFF0001FFFFFFE0001FFFFFFC0003FFE0001FFFFFFC0
310
003FFF0003FFFFFFFFC0007FFFFFE00070008000FFFFFFC0007FFF0000007FF8
310
000003FFFF80007F0001FFFFFF8000F8000FFFFFF8000FF8000001FFFE000000
310
7FFFFFF0001FFFFFFE0001FFFFFFC0003FFE0001FFFFFFC0003FFF0003FFFFFF
310
FFC000FFFFFFE00070008000FFFFFFC0007FFF0000007FF8000003FFFF80007F
310
0001FFFFFF8000F8001FFFFFF8000FF8000001FFFE0000007FFFFFF0001FFFFF
310
FE0003FFFFFFE0003FFE0003FFFFFFE0003FFF0003FFFFFFFFC000FFFFFFE000
310
70008000FFFFFFC0007FFE0000007FF8000003FFFF80007F0001FFFFFF8000F0
310
001FFFFFF8000FF8000001FFFE0000007FFFFFF0001FFFFFFC0003FFFFFFE000
310
1FFC0003FFFFFFE0001FFF0003FFFFFFFFC000FFFFFFC00070008000FFFFFF80
310
007FFE0000007FF0000003FFFF80007F0001FFFFFF0000F0001FFFFFF8000FF8
310
000001FFFE0000007FFFFFF0001FFFFFFC0007FFFFFFF0001FFC0007FFFFFFF0
310
001FFF0003FFFFFFFFC000FFFFFFC00070008001FFFFFF0000FFFE0000003FF0
310
000001FFFF80007F0001FFFFFF0000F8001FFFFFF0000FF8000001FFFE000000
310
7FFFFFF0001FFFFFFC0007FFFFFFF0001FFC0007FFFFFFF0001FFF0003FFFFFF
310
FFC001FFFFFF80007000FFFFFFFFFE0000FFFE0008003FF0008001FFFF80007F
310
FFFFFFFFFC0000FFFFFFFFFFE0000FF8000001FFFE0000007FFFFFF0001FFFFF
310
F8000FFFFFFFF8000FF8000FFFFFFFF8000FFF0003FFFFFFFFFFFFFFFFFF0000
310
7000FFFFFFFFFC0000FFFC0008003FF0008001FFFF80007FFFFFFFFFF80001FF
310
FFFFFFFF80000FF8000001FFFE0000007FFFFFF0001FFFFFF8000FFFFFFFF800
310
0FF8000FFFFFFFF8000FFF0003FFFFFFFFFFFFFFFFFE0000F000FFFFFFFFE000
310
00FFFC000C003FE000C001FFFF80007FFFFFFFFFC00001FFFFFFFFFE00001FF8
310
000001FFFE0000007FFFFFF0001FFFFFF8000FFFFFFFF8000FF8000FFFFFFFF8
310
000FFF0003FFFFFFFFFFFFFFFFF00000F000FFFFFFFE000001FFFC000C001FE0
310
00C000FFFF80007FFFFFFFFE000001FFFFFFFFE000001FF80FFFFFFFFFFFFFC0
310
7FFFFFF0001FFFFFF8000FFFFFFFF8000FF8000FFFFFFFF8000FFF0003FFFFFF
310
FFFFFFFFFF800000F000FFFFFFC0000001FFFC001C001FE001C000FFFF80007F
310
FFFFFF80000003FFFFFFF80000001FF80FFFFFFFFFFFFFC07FFFFFF0001FFFFF
310
F8001FFFFFFFFC000FF8001FFFFFFFFC000FFF0003FFFFFFFFFFFFFFF0000001
310
F000FFFFF800000001FFF8001C001FE001C000FFFF80007FFFFFF800000003FF
310
FFFF800000003FF80FFFFFFFFFFFFFC07FFFFFF0001FFFFFF8001FFFFFFFFC00
310
0FF8001FFFFFFFFC000FFF0003FFFFFFFFFFFFFE00000001F000FFFFC0000000
310
03FFF8001E001FC001E000FFFF80007FFFFF8000000007FFFFFC000000003FF8
310
0FFFFFFFFFFFFFC07FFFFFF0001FFFFFF8001FFFFFFFFC000FF8001FFFFFFFFC
310
000FFF0003FFFFFFFFFFFFE000000003F000FFFE0000000007FFF8001E000FC0
310
01E0007FFF80007FFFFE0000000007FFFFE0000000007FF80FFFFFFFFFFFFFC0
310
7FFFFFF0001FFFFFF0001FFFFFFFFC0007F0001FFFFFFFFC0007FF0003FFFFFF
310
FFFFFF0000000003F000FFF80000000007FFF8001E000FC003E0007FFF80007F
310
FFF0000000000FFFFF8000000000FFF80FFFFFFFFFFFFFC07FFFFFF0001FFFFF
310
F0001FFFFFFFFC0007F0001FFFFFFFFC0007FF0003FFFFFFFFFFFC0000000007
310
F000FFE0000000000FFFF0003E000FC003E0007FFF80007FFFC0000000001FFF
310
FE0000000001FFF80FFFFFFFFFFFFFC07FFFFFF0001FFFFFF0001FFFFFFFFC00
310
07F0001FFFFFFFFC0007FF0003FFFFFFFFFFF0000000000FF000FFC000000000
310
1FFFF0003F000F8003F0003FFF80007FFF80000000003FFFF80000000003FFF8
310
0FFFFFFFFFFFFFC07FFFFFF0001FFFFFF0001FFFFFFFFC0007F0001FFFFFFFFC
310
0007FF0003FFFFFFFFFFE0000000001FF000FF00000000007FFFF0003F000780
310
03F0003FFF80007FFF00000000007FFFF00000000007FFF80FFFFFFFFFFFFFC0
310
7FFFFFF0001FFFFFF0001FFFFFFFFC0007F0001FFFFFFFFC0007FF0003FFFFFF
310
FFFF80000000007FF000FE0000000000FFFFE0003F00078007F0003FFF80007F
310
FE0000000001FFFFE0000000001FFFF80FFFFFFFFFFFFFC07FFFFFF0001FFFFF
310
F0001FFFFFFFFC0007F0001FFFFFFFFC0007FF0003FFFFFFFFFF0000000000FF
310
F000FC0000000003FFFFE0007F00078007F0003FFF80007FFC0000000007FFFF
310
C0000000007FFFF80FFFFFFFFFFFFFC07FFFFFF0001FFFFFF8001FFFFFFFFC00
310
0FF8001FFFFFFFFC000FFF0003FFFFFFFFFE0000000003FFF000FC000000000F
310
FFFFE0007F80070007F8001FFF80007FF8000000001FFFFF8000000001FFFFF8
310
0FFFFFFFFFFFFFC07FFFFFF0001FFFFFF8001FFFFFFFFC000FF8001FFFFFFFFC
310
000FFF0003FFFFFFFFFC000000000FFFF000F8000000007FFFFFE0007F800700
310
07F8001FFF80007FF000000000FFFFFF800000000FFFFFF80FFFFFFFFFFFFFC0
310
7FFFFFF0001FFFFFF8000FFFFFFFF8000FF8000FFFFFFFF8000FFF0003FFFFFF
310
FFFC000000007FFFF000F800000007FFFFFFC0007F8003000FF8001FFF80007F
310
F000000007FFFFFF000000007FFFFFF80FFFFFFFFFFFFFC07FFFFFF0001FFFFF
310
F8000FFFFFFFF8000FF8000FFFFFFFF8000FFF0003FFFFFFFFF80000000FFFFF
310
F000F0000000FFFFFFFFC000FF8003000FF8001FFF80007FE0000000FFFFFFFF
310
0000000FFFFFFFF8000001FFFE0000007FFFFFF0001FFFFFF8000FFFFFFFF800
310
0FF8000FFFFFFFF8000FFF0003FFFFFFFFF8000000FFFFFFF000F000000FFFFF
310
FFFFC000FFC002000FF8000FFF80007FE000001FFFFFFFFE000001FFFFFFFFF8
310
000001FFFE0000007FFFFFF0001FFFFFF8000FFFFFFFF8000FF8000FFFFFFFF8
310
000FFF0003FFFFFFFFF000001FFFFFFFF000E00000FFFFFFFFFFC000FFC00200
310
0FFC000FFF80007FE00001FFFFFFFFFE00001FFFFFFFFFF8000001FFFE000000
310
7FFFFFF0001FFFFFFC000FFFFFFFF8001FFC000FFFFFFFF8001FFF0003FFFFFF
310
FFF00001FFFFFFFFF000E00007FFFFFFFFFF8000FFC000001FFC000FFF80007F
310
C0000FFFFFFFFFFE0000FFFFFFFFFFF8000001FFFE0000007FFFFFF0001FFFFF
310
FC0007FFFFFFF0001FFC0007FFFFFFF0001FFF0003FFFFFFFFF00007FFFFFFFF
310
F000E0001FFFFFFFFFFF8000FFC000001FFC000FFF80007FC0003FFFFFFFFFFE
310
0001FFFFFFFFFFF8000001FFFE0000007FFFFFF0001FFFFFFC0007FFFFFFF000
310
1FFC0007FFFFFFF0001FFF0003FFFFFFFFF0001FFFFFFFFFF000E0003FFFFF00
310
03FF8001FFE000001FFC0007FF80007FC0007FFFFF0007FC0003FFFFF0003FF8
310
000001FFFE0000007FFFFFF0001FFFFFFC0003FFFFFFE0001FFC0003FFFFFFE0
310
001FFF0003FFFFFFFFF0003FFFFFFFFFF000E0003FFFFF0001FF8001FFE00000
310
1FFE0007FF80007FC0007FFFFE0003FC0007FFFFE0003FF8000001FFFE000000
310
7FFFFFF0001FFFFFFE0003FFFFFFE0003FFE0003FFFFFFE0003FFF0003FFFFFF
310
FFF0003FFFFF8001F000E0003FFFFF0001FF0001FFE000001FFE0007FF80007F
310
C0007FFFFE0003FC0007FFFFE0003FF8000001FFFE0000007FFFFFF0001FFFFF
310
FE0001FFFFFFC0003FFE0001FFFFFFC0003FFF0003FFFFFFFFF0003FFFFF0001
310
F000E0003FFFFF0003FF0001FFE000003FFE0007FF80007FC0007FFFFE0003FC
310
0007FFFFE0003FF8000001FFFE0000007FFFFFF0001FFFFFFF0001FFFFFFC000
310
7FFF0001FFFFFFC0007FFF0003FFFFFFFFF0003FFFFF0001F000E0003FFFFE00
310
03FF0003FFF000003FFE0003FF80007FC0007FFFFC0003FE0007FFFFE0003FF8
310
000001FFFE0000007FFFFFF0001FFFFFFF0000FFFFFF80007FFF0000FFFFFF80
310
007FFF0003FFFFFFFFF0003FFFFF0001F000E0003FFFFE0003FF0003FFF00000
310
3FFF0003FF80007FC0007FFFFC0007FE0007FFFFC0003FF8000001FFFE000000
310
7FFFFFF0001FFFFFFF80007FFFFF0000FFFF80007FFFFF0000FFFF0003FFFFFF
310
FFF0003FFFFF0003F000E0003FFFFC0003FE0003FFF000003FFF0003FF80007F
310
E0003FFFF80007FE0003FFFFC0007FF8000001FFFE0000007FFFFFF0001FFFFF
310
FF80003FFFFE0000FFFF80003FFFFE0000FFFF0003FFFFFFFFF0001FFFFE0003
310
F000F0001FFFF80003FE0003FFF000007FFF0001FF80007FE0003FFFF00007FE
310
0001FFFF80007FF8000001FFFE0000007FFFFFF0001FFFFFFFC0000FFFF80001
310
FFFFC0000FFFF80001FFFF0003FFFFFFFFF0001FFFFC0003F000F0000FFFF000
310
07FE0007FFF800007FFF0001FF80007FE0001FFFE00007FF0000FFFE00007FF8
310
000001FFFE0000007FFFFFF0001FFFFFFFC00003FFE00001FFFFC00003FFE000
310
01FFFF0003FFFFFFFFF8000FFFF80003F000F00003FFC00007FC0007FFF80000
310
7FFF8001FF80007FF00007FF80000FFF00007FF80000FFF8000001FFFE000000
310
7F80000000000001FFE000003E000003FFFFE000003E000003FFFF0003FFFFFF
310
FFF80003FFE00007F000F800000000000FFC0007FFF800007FFF8001FF80007F
310
F000000000000FFF000000000000FFF8000001FFFE0000007F80000000000001
310
FFF0000000000007FFFFF0000000000007FFFF0003FFFFFFFFFC00007E000007
310
F000F800000000000FFC0007FFF80000FFFF8000FF80007FF800000000001FFF
310
800000000001FFF8000001FFFE0000007F80000000000001FFF800000000000F
310
FFFFF800000000000FFFFF0003FFFFFFFFFC00000000000FF000FC0000000000
310
1FFC0007FFFC0000FFFF8000FF80007FF800000000003FFFC00000000001FFF8
310
000001FFFE0000007F80000000000001FFF800000000000FFFFFF80000000000
310
0FFFFF0003FFFFFFFFFE00000000001FF000FE00000000003FF8000FFFFC0000
310
FFFF8000FF80007FFC00000000003FFFC00000000003FFF8000001FFFE000000
310
7F80000000000001FFFC00000000001FFFFFFC00000000001FFFFF0003FFFFFF
310
FFFF00000000001FF000FF00000000003FF8000FFFFC0000FFFFC000FF80007F
310
FE00000000007FFFE00000000007FFF8000001FFFE0000007F80000000000001
310
FFFE00000000003FFFFFFE00000000003FFFFF0003FFFFFFFFFF80000000003F
310
F000FF80000000007FF8000FFFFC0001FFFFC0007F80007FFF0000000000FFFF
310
F0000000000FFFF800000000000000007F80000000000001FFFF8000000000FF
310
FFFFFF8000000000FFFFFF0003FFFFFFFFFFC0000000007FF000FFC000000000
310
FFF8000FFFFE0001FFFFC0007F80007FFF8000000001FFFFF8000000001FFFF8
310
00000000000000007F80000000000001FFFFC000000001FFFFFFFFC000000001
310
FFFFFF0003FFFFFFFFFFE000000000FFF000FFE000000003FFF0001FFFFE0001
310
FFFFC0007F80007FFFC000000007FFFFFE000000003FFFF80000000000000000
310
7F80000000000001FFFFE000000003FFFFFFFFE000000003FFFFFF0003FFFFFF
310
FFFFF000000003FFF000FFF80000000FFFF0001FFFFE0001FFFFE0007F80007F
310
FFF00000000FFFFFFF00000000FFFFF800000000000000007F80000000000001
310
FFFFF80000000FFFFFFFFFF80000000FFFFFFF0003FFFFFFFFFFFC0000000FFF
310
F000FFFE0000003FFFF0001FFFFE0003FFFFE0003F80007FFFFC0000003FFFFF
310
FFC0000003FFFFF800000000000000007F80000000000001FFFFFE0000003FFF
310
FFFFFFFE0000003FFFFFFF0003FFFFFFFFFFFF0000003FFFF000FFFF800000FF
310
FFF0001FFFFF0003FFFFE0003F80007FFFFF000001FFFFFFFFF800001FFFFFF8
310
00000000000000007F80000000000001FFFFFFC00001FFFFFFFFFFFFC00001FF
310
FFFFFF0003FFFFFFFFFFFFC00000FFFFF000FFFFF8000FFFFFFFFFFFFFFFFFFF
310
FFFFFFFFFFFFFFFFFFFFF0001FFFFFFFFFFF0000FFFFFFF80000000000000000
310
7FFFFFFFFFFFFFFFFFFFFFFC001FFFFFFFFFFFFFFC001FFFFFFFFFFFFFFFFFFF
310
FFFFFFFC001FFFFFF000FFFFFFFFFFFFFFFFFFFFFFFFFFFFFFFFFFFFFFFFFFFF
310
FFFFFFFFFFFFFFFFFFFFFFFFFFFFFFFFFFFFFFFFFFFFFFFFFFFFFFFFFFFFFFFF
310
FFFFFFFFFFFFFFFFFFFFFFFFFFFFFFFFFFFFFFFFFFFFFFFFFFFFFFFFFFFFFFFF
310
F000FFFFFFFFFFFFFFFFFFFFFFFFFFFFFFFFFFFFFFFFFFFFFFFFFFFFFFFFFFFF
310
FFFFFFFFFFFFFFFFFFFFFFFFFFFFFFFFFFFFFFFFFFFFFFFFFFFFFFFFFFFFFFFF
310
FFFFFFFFFFFFFFFFFFFFFFFFFFFFFFFFFFFFFFFFFFFFFFFFF000FFFFFFFFFFFF
310
FFFFFFFFFFFFFFFFFFFFFFFFFFFFFFFFFFFFFFFFFFFFFFFFFFFFFFFFFFFFFFFF
310
FFFFFFFFFFFFFFFFFFFFFFFFFFFFFFFFFFFFFFFFFFFFFFFFFFFFFFFFFFFFFFFF
310
FFFFFFFFFFFFFFFFFFFFFFFFFFFFFFFFF000FFFFFFFFFFFFFFFFFFFFFFFFFFFF
310
FFFFFFFFFFFFFFFFFFFFFFFFFFFFFFFFFFFFFFFFFFFFFFFFFFFFFFFFFFFFFFFF
310
FFFFFFFFFFFFFFFFFFFFFFFFFFFFFFFFFFFFFFFFFFFFFFFFFFFFFFFFFFFFFFFF
310
FFFFFFFFFFFFFFFFF000FFFFFFFFFFFFFFFFFFFFFFFFFFFFFFFFFFFFFFFFFFFF
310
FFFFFFFFFFFFFFFFFFFFFFFFFFFFFFFFFFFFFFFFFFFFFFFFFFFFFFFFFFFFFFFF
310
FFFFFFFFFFFFFFFFFFFFFFFFFFFFFFFFFFFFFFFFFFFFFFFFFFFFFFFFFFFFFFFF
310
F000FFFFFFFFFFFFFFFFFFFFFFFFFFFFFFFFFFFFFFFFFFFFFFFFFFFFFFFFFFFF
310
FFFFFFFFFFFFFFFFFFFFFFFFFFFFFFFFFFFFFFFFFFFFFFFFFFFFFFFFFFFFFFFF
310
FFFFFFFFFFFFFFFFFFFFFFFFFFFFFFFFFFFFFFFFFFFFFFFFF000FFFFFFFFFFFF
310
FFFFFFFFFFFFFFFFFFFFFFFFFFFFFFFFFFFFFFFFFFFFFFFFFFFFFFFFFFFFFFFF
310
FFFFFFFFFFFFFFFFFFFFFFFFFFFFFFFFFFFFFFFFFFFFFFFFFFFFFFFFFFFFFFFF
310
FFFFFFFFFFFFFFFFFFFFFFFFFFFFFFFFF000FFFFFFFFFFFFFFFFFFFFFFFFFFFF
310
FFFFFFFFFFFFFFFFFFFFFFFFFFFFFFFFFFFFFFFFFFFFFFFFFFFFFFFFFFFFFFFF
310
FFFFFFFFFFFFFFFFFFFFFFFFFFFFFFFFFFFFFFFFFFFFFFFFFFFFFFFFFFFFFFFF
310
FFFFFFFFFFFFFFFFF000FFFFFFFFFFFFFFFFFFFFFFFFFFFFFFFFFFFFFFFFFFFF
310
FFFFFFFFFFFFFFFFFFFFFFFFFFFFFFFFFFFFFFFFFFFFFFFFFFFFFFFFFFFFFFFF
310
FFFFFFFFFFFFFFFFFFFFFFFFFFFFFFFFFFFFFFFFFFFFFFFFFFFFFFFFFFFFFFFF
310
F000FFFFFFFFFFFFFFFFFFFFFFFFFFFFFFFFFFFFFFFFFFFFFFFFFFFFFFFFFFFF
310
FFFFFFFFFFFFFFFFFFFFFFFFFFFFFFFFFFFFFFFFFFFFFFFFFFFFFFFFFFFFFFFF
310
FFFFFFFFFFFFFFFFFFFFFFFFFFFFFFFFFFFFFFFFFFFFFFFFF000FFFFFFFFFFFF
310
FFFFFFFFFFFFFFFFFFFFFFFFFFFFFFFFFFFFFFFFFFFFFFFFFFFFFFFFFFFFFFFF
310
FFFFFFFFFFFFFFFFFFFFFFFFFFFFFFFFFFFFFFFFFFFFFFFFFFFFFFFFFFFFFFFF
310
FFFFFFFFFFFFFFFFFFFFFFFFFFFFFFFFF000FFFFFFFFFFFFFFFFFFFFFFFFFFFF
310
FFFFFFFFFFFFFFFFFFFFFFFFFFFFFFFFFFFFFFFFFFFFFFFFFFFFFFFFFFFFFFFF
310
FFFFFFFFFFFFFFFFFFFFFFFFFFFFFFFFFFFFFFFFFFFFFFFFFFFFFFFFFFFFFFFF
310
FFFFFFFFFFFFFFFFF000FFFFFFFFFFFFFFFFFFFFFFFFFFFFFFFFFFFFFFFFFFFF
310
FFFFFFFFFFFFFFFFFFFFFFFFFFFFFFFFFFFFFFFFFFFFFFFFFFFFFFFFFFFFFFFF
310
FFFFFFFFFFFFFFFFFFFFFFFFFFFFFFFFFFFFFFFFFFFFFFFFFFFFFFFFFFFFFFFF
310
F000FFFFFFFFFFFFFFFFFFFFFFFFFFFFFFFFFFFFFFFFFFFFFFFFFFFFFFFFFFFF
310
FFFFFFFFFFFFFFFFFFFFFFFFFFFFFFFFFFFFFFFFFFFFFFFFFFFFFFFFFFFFFFFF
310
FFFFFFFFFFFFFFFFFFFFFFFFFFFFFFFFFFFFFFFFFFFFFFFFF000FFFFFFFFFFFF
310
FFFFFFFFFFFFFFFFFFFFFFFFFFFFFFFFFFFFFFFFFFFFFFFFFFFFFFFFFFFFFFFF
310
FFFFFFFFFFFFFFFFFFFFFFFFFFFFFFFFFFFFFFFFFFFFFFFFFFFFFFFFFFFFFFFF
310
FFFFFFFFFFFFFFFFFFFFFFFFFFFFFFFFF000FFFFFFFFFFFFFFFFFFFFFFFFFFFF
310
FFFFFFFFFFFFFFFFFFFFFFFFFFFFFFFFFFFFFFFFFFFFFFFFFFFFFFFFFFFFFFFF
310
FFFFFFFFFFFFFFFFFFFFFFFFFFFFFFFFFFFFFFFFFFFFFFFFFFFFFFFFFFFFFFFF
310
FFFFFFFFFFFFFFFFF000FFFFFFFFFFFFFFFFFFFFFFFFFFFFFFFFFFFFFFFFFFFF
310
FFFFFFFFFFFFFFFFFFFFFFFFFFFFFFFFFFFFFFFFFFFFFFFFFFFFFFFFFFFFFFFF
310
FFFFFFFFFFFFFFFFFFFFFFFFFFFFFFFFFFFFFFFFFFFFFFFFFFFFFFFFFFFFFFFF
310
F000FFFFFFFFFFFFFFFFFFFFFFFFFFFFFFFFFFFFFFFFFFFFFFFFFFFFFFFFFFFF
310
FFFFFFFFFFFFFFFFFFFFFFFFFFFFFFFFFFFFFFFFFFFFFFFFFFFFFFFFFFFFFFFF
310
FFFFFFFFFFFFFFFFFFFFFFFFFFFFFFFFFFFFFFFFFFFFFFFFF000FFFFFFFFFFFF
310
FFFFFFFFFFFFFFFFFFFFFFFFFFFFFFFFFFFFFFFFFFFFFFFFFFFFFFFFFFFFFFFF
310
FFFFFFFFFFFFFFFFFFFFFFFFFFFFFFFFFFFFFFFFFFFFFFFFFFFFFFFFFFFFFFFF
310
FFFFFFFFFFFFFFFFFFFFFFFFFFFFFFFFF000FFFFFFFFFFFFFFFFFFFFFFFFFFFF
310
FFFFFFFFFFFFFFFFFFFFFFFFFFFFFFFFFFFFFFFFFFFFFFFFFFFFFFFFFFFFFFFF
310
FFFFFFFFFFFFFFFFFFFFFFFFFFFFFFFFFFFFFFFFFFFFFFFFFFFFFFFFFFFFFFFF
310
FFFFFFFFFFFFFFFFF000FFFFFFFFFFFFFFFFFFFFFFFFFFFFFFFFFFFFFFFFFFFF
310
FFFFFFFFFFFFFFFFFFFFFFFFFFFFFFFFFFFFFFFFFFFFFFFFFFFFFFFFFFFFFFFF
310
FFFFFFFFFFFFFFFFFFFFFFFFFFFFFFFFFFFFFFFFFFFFFFFFFFFFFFFFFFFFFFFF
310
F000FFFFFFFFFFFFFFFFFFFFFFFFFFFFFFFFFFFFFFFFFFFFFFFFFFFFFFFFFFFF
310
FFFFFFFFFFFFFFFFFFFFFFFFFFFFFFFFFFFFFFFFFFFFFFFFFFFFFFFFFFFFFFFF
310
FFFFFFFFFFFFFFFFFFFFFFFFFFFFFFFFFFFFFFFFFFFFFFFFF000FFFFFFFFFFFF
310
FFFFFFFFFFFFFFFFFFFFFFFFFFFFFFFFFFFFFFFFFFFFFFFFFFFFFFFFFFFFFFFF
310
FFFFFFFFFFFFFFFFFFFFFFFFFFFFFFFFFFFFFFFFFFFFFFFFFFFFFFFFFFFFFFFF
310
FFFFFFFFFFFFFFFFFFFFFFFFFFFFFFFFF0000000000000000000000000000000
310
0000000000000000000000000000000000000000000000000000000000000000
310
0000000000000000000000000000000000000000000000000000000000000000
310
0000000000000000000000000000000000000000000000000000000000000000
310
0000000000000000000000000000000000000000000000000000000000000000
310
0000000000000000000000000000000000000000000000000000000000000000
310
0000000000000000000000000000000000000000000000000000000000000000
310
0000000000000000000000000000000000000000000000000000000000000000
310
0000000000000000000000000000000000000000000000000000000000000000
310
0000000000000000000000000000000000000000000000000000000000000000
310
0000000000000000000000000000000000000000000000000000000000000000
310
0000000000000000000000000000000000000000000000000000000000000000
310
0000000000000000000000000000000000000000000000000000000000000000
310
0000000000000000000000000000000000000000000000000000000000000000
310
0000000000000000000000000000000000000000000000000000000000000000
310
0000000000000000000000000000000000000000000000000000000000000000
  1
OLE
  0
ENDSEC
  0
SECTION
  2
OBJECTS
  0
DICTIONARY
  5
C
330
0
100
AcDbDictionary
281
     1
  3
ACAD_GROUP
350
D
  3
ACAD_LAYOUT
350
1A
  3
ACAD_MLINESTYLE
350
17
  3
ACAD_PLOTSETTINGS
350
19
  3
ACAD_PLOTSTYLENAME
350
E
  3
ACAD_SCALELIST
350
47
  0
DICTIONARY
  5
D
102
{ACAD_REACTORS
330
C
102
}
330
C
100
AcDbDictionary
281
     1
  0
DICTIONARY
  5
1A
102
{ACAD_REACTORS
330
C
102
}
330
C
100
AcDbDictionary
281
     1
  3
Layout1
350
1E
  3
Layout2
350
26
  3
Model
350
22
  0
DICTIONARY
  5
17
102
{ACAD_REACTORS
330
C
102
}
330
C
100
AcDbDictionary
281
     1
  3
Standard
350
18
  0
DICTIONARY
  5
19
102
{ACAD_REACTORS
330
C
102
}
330
C
100
AcDbDictionary
281
     1
  0
ACDBDICTIONARYWDFLT
  5
E
102
{ACAD_REACTORS
330
C
102
}
330
C
100
AcDbDictionary
281
     1
  3
Normal
350
F
100
AcDbDictionaryWithDefault
340
F
  0
DICTIONARY
  5
47
102
{ACAD_REACTORS
330
C
102
}
330
C
100
AcDbDictionary
281
     1
  3
A0
350
48
  3
A1
350
49
  3
A2
350
4A
  3
A3
350
4B
  3
A4
350
4C
  3
A5
350
4D
  3
A6
350
4E
  3
A7
350
4F
  3
A8
350
50
  3
A9
350
51
  3
B0
350
52
  3
B1
350
53
  3
B2
350
54
  3
B3
350
55
  3
B4
350
56
  3
B5
350
57
  3
B6
350
58
  3
B7
350
59
  3
B8
350
5A
  3
B9
350
5B
  3
C0
350
5C
  3
C1
350
5D
  3
C2
350
5E
  3
C3
350
5F
  3
C4
350
60
  3
C5
350
61
  3
C6
350
62
  3
C7
350
63
  3
C8
350
64
  3
C9
350
65
  3
D0
350
66
  3
D1
350
67
  3
D2
350
68
  0
LAYOUT
  5
1E
102
{ACAD_REACTORS
330
1A
102
}
330
1A
100
AcDbPlotSettings
  1

  2
none_device
  4

  6

 40
0.0
 41
0.0
 42
0.0
 43
0.0
 44
0.0
 45
0.0
 46
0.0
 47
0.0
 48
0.0
 49
0.0
140
0.0
141
0.0
142
1.0
143
1.0
 70
   688
 72
     1
 73
     0
 74
     5
  7

 75
    16
147
1.0
148
0.0
149
0.0
100
AcDbLayout
  1
Layout1
 70
     1
 71
     1
 10
0.0
 20
0.0
 11
420.0
 21
297.0
 12
0.0
 22
0.0
 32
0.0
 14
1.0000000000E+20
 24
1.0000000000E+20
 34
1.0000000000E+20
 15
-1.0000000000E+20
 25
-1.0000000000E+20
 35
-1.0000000000E+20
146
0.0
 13
0.0
 23
0.0
 33
0.0
 16
1.0
 26
0.0
 36
0.0
 17
0.0
 27
1.0
 37
0.0
 76
     0
330
1B
  0
LAYOUT
  5
26
102
{ACAD_REACTORS
330
1A
102
}
330
1A
100
AcDbPlotSettings
  1

  2
none_device
  4

  6

 40
0.0
 41
0.0
 42
0.0
 43
0.0
 44
0.0
 45
0.0
 46
0.0
 47
0.0
 48
0.0
 49
0.0
140
0.0
141
0.0
142
1.0
143
1.0
 70
   688
 72
     1
 73
     0
 74
     5
  7

 75
    16
147
1.0
148
0.0
149
0.0
100
AcDbLayout
  1
Layout2
 70
     1
 71
     2
 10
0.0
 20
0.0
 11
0.0
 21
0.0
 12
0.0
 22
0.0
 32
0.0
 14
0.0
 24
0.0
 34
0.0
 15
0.0
 25
0.0
 35
0.0
146
0.0
 13
0.0
 23
0.0
 33
0.0
 16
1.0
 26
0.0
 36
0.0
 17
0.0
 27
1.0
 37
0.0
 76
     0
330
23
  0
LAYOUT
  5
22
102
{ACAD_REACTORS
330
1A
102
}
330
1A
100
AcDbPlotSettings
  1

  2
none_device
  4
Letter_(8.50_x_11.00_Inches)
  6

 40
6.35
 41
6.35
 42
6.35000508
 43
6.35000508
 44
215.9
 45
279.4
 46
0.0
 47
0.0
 48
0.0
 49
0.0
140
0.0
141
0.0
142
1.0
143
1.0
 70
  1712
 72
     1
 73
     0
 74
     0
  7

 75
     0
147
1.0
148
0.0
149
0.0
100
AcDbLayout
  1
Model
 70
     1
 71
     0
 10
0.0
 20
0.0
 11
297.0
 21
210.0
 12
0.0
 22
0.0
 32
0.0
 14
0.0
 24
0.0
 34
0.0
 15
297.0
 25
210.0
 35
0.0
146
0.0
 13
0.0
 23
0.0
 33
0.0
 16
1.0
 26
0.0
 36
0.0
 17
0.0
 27
1.0
 37
0.0
 76
     0
330
1F
331
29
  0
MLINESTYLE
  5
18
102
{ACAD_REACTORS
330
17
102
}
330
17
100
AcDbMlineStyle
  2
Standard
 70
     0
  3

 62
   256
 51
90.0
 52
90.0
 71
     2
 49
0.5
 62
   256
  6
BYLAYER
 49
-0.5
 62
   256
  6
BYLAYER
  0
ACDBPLACEHOLDER
  5
F
102
{ACAD_REACTORS
330
E
102
}
330
E
  0
SCALE
  5
48
102
{ACAD_REACTORS
330
47
102
}
330
47
100
AcDbScale
 70
     0
300
1:1
140
1.0
141
1.0
290
     1
  0
SCALE
  5
49
102
{ACAD_REACTORS
330
47
102
}
330
47
100
AcDbScale
 70
     0
300
1:2
140
1.0
141
2.0
290
     0
  0
SCALE
  5
4A
102
{ACAD_REACTORS
330
47
102
}
330
47
100
AcDbScale
 70
     0
300
1:4
140
1.0
141
4.0
290
     0
  0
SCALE
  5
4B
102
{ACAD_REACTORS
330
47
102
}
330
47
100
AcDbScale
 70
     0
300
1:5
140
1.0
141
5.0
290
     0
  0
SCALE
  5
4C
102
{ACAD_REACTORS
330
47
102
}
330
47
100
AcDbScale
 70
     0
300
1:8
140
1.0
141
8.0
290
     0
  0
SCALE
  5
4D
102
{ACAD_REACTORS
330
47
102
}
330
47
100
AcDbScale
 70
     0
300
1:10
140
1.0
141
10.0
290
     0
  0
SCALE
  5
4E
102
{ACAD_REACTORS
330
47
102
}
330
47
100
AcDbScale
 70
     0
300
1:16
140
1.0
141
16.0
290
     0
  0
SCALE
  5
4F
102
{ACAD_REACTORS
330
47
102
}
330
47
100
AcDbScale
 70
     0
300
1:20
140
1.0
141
20.0
290
     0
  0
SCALE
  5
50
102
{ACAD_REACTORS
330
47
102
}
330
47
100
AcDbScale
 70
     0
300
1:30
140
1.0
141
30.0
290
     0
  0
SCALE
  5
51
102
{ACAD_REACTORS
330
47
102
}
330
47
100
AcDbScale
 70
     0
300
1:40
140
1.0
141
40.0
290
     0
  0
SCALE
  5
52
102
{ACAD_REACTORS
330
47
102
}
330
47
100
AcDbScale
 70
     0
300
1:50
140
1.0
141
50.0
290
     0
  0
SCALE
  5
53
102
{ACAD_REACTORS
330
47
102
}
330
47
100
AcDbScale
 70
     0
300
1:100
140
1.0
141
100.0
290
     0
  0
SCALE
  5
54
102
{ACAD_REACTORS
330
47
102
}
330
47
100
AcDbScale
 70
     0
300
2:1
140
2.0
141
1.0
290
     0
  0
SCALE
  5
55
102
{ACAD_REACTORS
330
47
102
}
330
47
100
AcDbScale
 70
     0
300
4:1
140
4.0
141
1.0
290
     0
  0
SCALE
  5
56
102
{ACAD_REACTORS
330
47
102
}
330
47
100
AcDbScale
 70
     0
300
8:1
140
8.0
141
1.0
290
     0
  0
SCALE
  5
57
102
{ACAD_REACTORS
330
47
102
}
330
47
100
AcDbScale
 70
     0
300
10:1
140
10.0
141
1.0
290
     0
  0
SCALE
  5
58
102
{ACAD_REACTORS
330
47
102
}
330
47
100
AcDbScale
 70
     0
300
100:1
140
100.0
141
1.0
290
     0
  0
SCALE
  5
59
102
{ACAD_REACTORS
330
47
102
}
330
47
100
AcDbScale
 70
     0
300
1/128" = 1'-0"
140
0.0078125
141
12.0
290
     0
  0
SCALE
  5
5A
102
{ACAD_REACTORS
330
47
102
}
330
47
100
AcDbScale
 70
     0
300
1/64" = 1'-0"
140
0.015625
141
12.0
290
     0
  0
SCALE
  5
5B
102
{ACAD_REACTORS
330
47
102
}
330
47
100
AcDbScale
 70
     0
300
1/32" = 1'-0"
140
0.03125
141
12.0
290
     0
  0
SCALE
  5
5C
102
{ACAD_REACTORS
330
47
102
}
330
47
100
AcDbScale
 70
     0
300
1/16" = 1'-0"
140
0.0625
141
12.0
290
     0
  0
SCALE
  5
5D
102
{ACAD_REACTORS
330
47
102
}
330
47
100
AcDbScale
 70
     0
300
3/32" = 1'-0"
140
0.09375
141
12.0
290
     0
  0
SCALE
  5
5E
102
{ACAD_REACTORS
330
47
102
}
330
47
100
AcDbScale
 70
     0
300
1/8" = 1'-0"
140
0.125
141
12.0
290
     0
  0
SCALE
  5
5F
102
{ACAD_REACTORS
330
47
102
}
330
47
100
AcDbScale
 70
     0
300
3/16" = 1'-0"
140
0.1875
141
12.0
290
     0
  0
SCALE
  5
60
102
{ACAD_REACTORS
330
47
102
}
330
47
100
AcDbScale
 70
     0
300
1/4" = 1'-0"
140
0.25
141
12.0
290
     0
  0
SCALE
  5
61
102
{ACAD_REACTORS
330
47
102
}
330
47
100
AcDbScale
 70
     0
300
3/8" = 1'-0"
140
0.375
141
12.0
290
     0
  0
SCALE
  5
62
102
{ACAD_REACTORS
330
47
102
}
330
47
100
AcDbScale
 70
     0
300
1/2" = 1'-0"
140
0.5
141
12.0
290
     0
  0
SCALE
  5
63
102
{ACAD_REACTORS
330
47
102
}
330
47
100
AcDbScale
 70
     0
300
3/4" = 1'-0"
140
0.75
141
12.0
290
     0
  0
SCALE
  5
64
102
{ACAD_REACTORS
330
47
102
}
330
47
100
AcDbScale
 70
     0
300
1" = 1'-0"
140
1.0
141
12.0
290
     0
  0
SCALE
  5
65
102
{ACAD_REACTORS
330
47
102
}
330
47
100
AcDbScale
 70
     0
300
1-1/2" = 1'-0"
140
1.5
141
12.0
290
     0
  0
SCALE
  5
66
102
{ACAD_REACTORS
330
47
102
}
330
47
100
AcDbScale
 70
     0
300
3" = 1'-0"
140
3.0
141
12.0
290
     0
  0
SCALE
  5
67
102
{ACAD_REACTORS
330
47
102
}
330
47
100
AcDbScale
 70
     0
300
6" = 1'-0"
140
6.0
141
12.0
290
     0
  0
SCALE
  5
68
102
{ACAD_REACTORS
330
47
102
}
330
47
100
AcDbScale
 70
     0
300
1'-0" = 1'-0"
140
12.0
141
12.0
290
     0
  0
ENDSEC
  0
EOF
