  0
SECTION
  2
HEADER
  9
$ACADVER
  1
AC1015
  9
$ACADMAINTVER
 70
     6
  9
$DWGCODEPAGE
  3
ANSI_1252
  9
$INSBASE
 10
0.0
 20
0.0
 30
0.0
  9
$EXTMIN
 10
0.0
 20
0.0
 30
0.0
  9
$EXTMAX
 10
297.0
 20
210.0
 30
0.0
  9
$LIMMIN
 10
0.0
 20
0.0
  9
$LIMMAX
 10
297.0
 20
210.0
  9
$ORTHOMODE
 70
     0
  9
$REGENMODE
 70
     1
  9
$FILLMODE
 70
     1
  9
$QTEXTMODE
 70
     0
  9
$MIRRTEXT
 70
     1
  9
$LTSCALE
 40
1.0
  9
$ATTMODE
 70
     1
  9
$TEXTSIZE
 40
2.0
  9
$TRACEWID
 40
1.0
  9
$TEXTSTYLE
  7
Standard
  9
$CLAYER
  8
0
  9
$CELTYPE
  6
ByLayer
  9
$CECOLOR
 62
   256
  9
$CELTSCALE
 40
1.0
  9
$DISPSILH
 70
     0
  9
$DIMSCALE
 40
1.0
  9
$DIMASZ
 40
3.0
  9
$DIMEXO
 40
0.0
  9
$DIMDLI
 40
3.75
  9
$DIMRND
 40
0.0
  9
$DIMDLE
 40
0.0
  9
$DIMEXE
 40
1.0
  9
$DIMTP
 40
0.0
  9
$DIMTM
 40
0.0
  9
$DIMTXT
 40
2.0
  9
$DIMCEN
 40
2.5
  9
$DIMTSZ
 40
0.0
  9
$DIMTOL
 70
     0
  9
$DIMLIM
 70
     0
  9
$DIMTIH
 70
     1
  9
$DIMTOH
 70
     1
  9
$DIMSE1
 70
     0
  9
$DIMSE2
 70
     0
  9
$DIMTAD
 70
     1
  9
$DIMZIN
 70
     0
  9
$DIMBLK
  1

  9
$DIMASO
 70
     1
  9
$DIMSHO
 70
     1
  9
$DIMPOST
  1

  9
$DIMAPOST
  1

  9
$DIMALT
 70
     0
  9
$DIMALTD
 70
     3
  9
$DIMALTF
 40
0.0393700787
  9
$DIMLFAC
 40
2.0
  9
$DIMTOFL
 70
     1
  9
$DIMTVP
 40
0.0
  9
$DIMTIX
 70
     0
  9
$DIMSOXD
 70
     0
  9
$DIMSAH
 70
     0
  9
$DIMBLK1
  1

  9
$DIMBLK2
  1

  9
$DIMSTYLE
  2
ISO-25
  9
$DIMCLRD
 70
     0
  9
$DIMCLRE
 70
     0
  9
$DIMCLRT
 70
     0
  9
$DIMTFAC
 40
1.0
  9
$DIMGAP
 40
1.524
  9
$DIMJUST
 70
     0
  9
$DIMSD1
 70
     0
  9
$DIMSD2
 70
     0
  9
$DIMTOLJ
 70
     0
  9
$DIMTZIN
 70
     0
  9
$DIMALTZ
 70
     0
  9
$DIMALTTZ
 70
     0
  9
$DIMUPT
 70
     0
  9
$DIMDEC
 70
     2
  9
$DIMTDEC
 70
     3
  9
$DIMALTU
 70
     2
  9
$DIMALTTD
 70
     3
  9
$DIMTXSTY
  7
Standard
  9
$DIMAUNIT
 70
     0
  9
$DIMADEC
 70
     2
  9
$DIMALTRND
 40
0.0
  9
$DIMAZIN
 70
     0
  9
$DIMDSEP
 70
    44
  9
$DIMATFIT
 70
     3
  9
$DIMFRAC
 70
     0
  9
$DIMLDRBLK
  1

  9
$DIMLUNIT
 70
     2
  9
$DIMLWD
 70
    -2
  9
$DIMLWE
 70
    -2
  9
$DIMTMOVE
 70
     0
  9
$LUNITS
 70
     2
  9
$LUPREC
 70
     2
  9
$SKETCHINC
 40
1.0
  9
$FILLETRAD
 40
10.0
  9
$AUNITS
 70
     0
  9
$AUPREC
 70
     2
  9
$MENU
  1
.
  9
$ELEVATION
 40
0.0
  9
$PELEVATION
 40
0.0
  9
$THICKNESS
 40
0.0
  9
$LIMCHECK
 70
     0
  9
$CHAMFERA
 40
0.0
  9
$CHAMFERB
 40
0.0
  9
$CHAMFERC
 40
0.0
  9
$CHAMFERD
 40
0.0
  9
$SKPOLY
 70
     0
  9
$TDCREATE
 40
2457674.670656736
  9
$TDUCREATE
 40
2457674.587323403
  9
$TDUPDATE
 40
2457674.67065838
  9
$TDUUPDATE
 40
2457674.587325046
  9
$TDINDWG
 40
0.0000000116
  9
$TDUSRTIMER
 40
0.0000000116
  9
$USRTIMER
 70
     1
  9
$ANGBASE
 50
0.0
  9
$ANGDIR
 70
     0
  9
$PDMODE
 70
     0
  9
$PDSIZE
 40
-1.0
  9
$PLINEWID
 40
0.0
  9
$SPLFRAME
 70
     0
  9
$SPLINETYPE
 70
     6
  9
$SPLINESEGS
 70
     8
  9
$HANDSEED
  5
2DD
  9
$SURFTAB1
 70
     6
  9
$SURFTAB2
 70
     6
  9
$SURFTYPE
 70
     6
  9
$SURFU
 70
     6
  9
$SURFV
 70
     6
  9
$UCSBASE
  2

  9
$UCSNAME
  2

  9
$UCSORG
 10
0.0
 20
0.0
 30
0.0
  9
$UCSXDIR
 10
1.0
 20
0.0
 30
0.0
  9
$UCSYDIR
 10
0.0
 20
1.0
 30
0.0
  9
$UCSORTHOREF
  2

  9
$UCSORTHOVIEW
 70
     0
  9
$UCSORGTOP
 10
0.0
 20
0.0
 30
0.0
  9
$UCSORGBOTTOM
 10
0.0
 20
0.0
 30
0.0
  9
$UCSORGLEFT
 10
0.0
 20
0.0
 30
0.0
  9
$UCSORGRIGHT
 10
0.0
 20
0.0
 30
0.0
  9
$UCSORGFRONT
 10
0.0
 20
0.0
 30
0.0
  9
$UCSORGBACK
 10
0.0
 20
0.0
 30
0.0
  9
$PUCSBASE
  2

  9
$PUCSNAME
  2

  9
$PUCSORG
 10
0.0
 20
0.0
 30
0.0
  9
$PUCSXDIR
 10
1.0
 20
0.0
 30
0.0
  9
$PUCSYDIR
 10
0.0
 20
1.0
 30
0.0
  9
$PUCSORTHOREF
  2

  9
$PUCSORTHOVIEW
 70
     0
  9
$PUCSORGTOP
 10
0.0
 20
0.0
 30
0.0
  9
$PUCSORGBOTTOM
 10
0.0
 20
0.0
 30
0.0
  9
$PUCSORGLEFT
 10
0.0
 20
0.0
 30
0.0
  9
$PUCSORGRIGHT
 10
0.0
 20
0.0
 30
0.0
  9
$PUCSORGFRONT
 10
0.0
 20
0.0
 30
0.0
  9
$PUCSORGBACK
 10
0.0
 20
0.0
 30
0.0
  9
$USERI1
 70
     0
  9
$USERI2
 70
     0
  9
$USERI3
 70
     0
  9
$USERI4
 70
     0
  9
$USERI5
 70
     0
  9
$USERR1
 40
0.0
  9
$USERR2
 40
0.0
  9
$USERR3
 40
0.0
  9
$USERR4
 40
0.0
  9
$USERR5
 40
0.0
  9
$WORLDVIEW
 70
     1
  9
$SHADEDGE
 70
     3
  9
$SHADEDIF
 70
    70
  9
$TILEMODE
 70
     1
  9
$MAXACTVP
 70
    64
  9
$PINSBASE
 10
0.0
 20
0.0
 30
0.0
  9
$PLIMCHECK
 70
     0
  9
$PEXTMIN
 10
1.0000000000E+20
 20
1.0000000000E+20
 30
1.0000000000E+20
  9
$PEXTMAX
 10
-1.0000000000E+20
 20
-1.0000000000E+20
 30
-1.0000000000E+20
  9
$PLIMMIN
 10
0.0
 20
0.0
  9
$PLIMMAX
 10
420.0
 20
297.0
  9
$UNITMODE
 70
     0
  9
$VISRETAIN
 70
     1
  9
$PLINEGEN
 70
     0
  9
$PSLTSCALE
 70
     1
  9
$TREEDEPTH
 70
  3020
  9
$CMLSTYLE
  2
Standard
  9
$CMLJUST
 70
     0
  9
$CMLSCALE
 40
20.0
  9
$PROXYGRAPHICS
 70
     1
  9
$MEASUREMENT
 70
     1
  9
$CELWEIGHT
370
    -1
  9
$ENDCAPS
280
     0
  9
$JOINSTYLE
280
     0
  9
$LWDISPLAY
290
     1
  9
$INSUNITS
 70
     4
  9
$HYPERLINKBASE
  1

  9
$STYLESHEET
  1

  9
$XEDIT
290
     1
  9
$CEPSNTYPE
380
     0
  9
$PSTYLEMODE
290
     1
  9
$FINGERPRINTGUID
  2
{6DB9541D-6ACE-4CC2-9384-2A91A05B7513}
  9
$VERSIONGUID
  2
{FAEB1C32-E019-11D5-929B-00C0DF256EC4}
  9
$EXTNAMES
290
     1
  9
$PSVPSCALE
 40
0.0
  9
$OLESTARTUP
290
     0
  0
ENDSEC
  0
SECTION
  2
CLASSES
  0
CLASS
  1
ACDBDICTIONARYWDFLT
  2
AcDbDictionaryWithDefault
  3
ObjectDBX Classes
 90
        0
280
     0
281
     0
  0
CLASS
  1
VISUALSTYLE
  2
AcDbVisualStyle
  3
ObjectDBX Classes
 90
     4095
280
     0
281
     0
  0
CLASS
  1
MATERIAL
  2
AcDbMaterial
  3
ObjectDBX Classes
 90
     1153
280
     0
281
     0
  0
CLASS
  1
SCALE
  2
AcDbScale
  3
ObjectDBX Classes
 90
     1153
280
     0
281
     0
  0
CLASS
  1
TABLESTYLE
  2
AcDbTableStyle
  3
ObjectDBX Classes
 90
     4095
280
     0
281
     0
  0
CLASS
  1
MLEADERSTYLE
  2
AcDbMLeaderStyle
  3
ACDB_MLEADERSTYLE_CLASS
 90
     4095
280
     0
281
     0
  0
CLASS
  1
SUN
  2
AcDbSun
  3
SCENEOE
 90
     1153
280
     0
281
     0
  0
CLASS
  1
ACDBPLACEHOLDER
  2
AcDbPlaceHolder
  3
ObjectDBX Classes
 90
        0
280
     0
281
     0
  0
CLASS
  1
LAYOUT
  2
AcDbLayout
  3
ObjectDBX Classes
 90
        0
280
     0
281
     0
  0
ENDSEC
  0
SECTION
  2
TABLES
  0
TABLE
  2
VPORT
  5
8
330
0
100
AcDbSymbolTable
 70
     1
  0
VPORT
  5
29
330
8
100
AcDbSymbolTableRecord
100
AcDbViewportTableRecord
  2
*Active
 70
     0
 10
0.0
 20
0.0
 11
1.0
 21
1.0
 12
148.5
 22
105.0
 13
0.0
 23
0.0
 14
10.0
 24
10.0
 15
10.0
 25
10.0
 16
0.0
 26
0.0
 36
1.0
 17
0.0
 27
0.0
 37
0.0
 40
210.0
 41
1.4142857143
 42
50.0
 43
0.0
 44
0.0
 50
0.0
 51
0.0
 71
     0
 72
  2000
 73
     1
 74
     3
 75
     0
 76
     0
 77
     0
 78
     0
281
     0
 65
     1
110
0.0
120
0.0
130
0.0
111
1.0
121
0.0
131
0.0
112
0.0
122
1.0
132
0.0
 79
     0
146
0.0
  0
ENDTAB
  0
TABLE
  2
LTYPE
  5
5
330
0
100
AcDbSymbolTable
 70
     6
  0
LTYPE
  5
14
330
5
100
AcDbSymbolTableRecord
100
AcDbLinetypeTableRecord
  2
ByBlock
 70
     0
  3

 72
    65
 73
     0
 40
0.0
  0
LTYPE
  5
15
330
5
100
AcDbSymbolTableRecord
100
AcDbLinetypeTableRecord
  2
ByLayer
 70
     0
  3

 72
    65
 73
     0
 40
0.0
  0
LTYPE
  5
16
330
5
100
AcDbSymbolTableRecord
100
AcDbLinetypeTableRecord
  2
Continuous
 70
     0
  3
Solid line
 72
    65
 73
     0
 40
0.0
  0
LTYPE
  5
6E
330
5
100
AcDbSymbolTableRecord
100
AcDbLinetypeTableRecord
  2
HIDDEN
 70
     0
  3
Hidden __ __ __ __ __ __ __ __ __ __ __ __ __ __
 72
    65
 73
     2
 40
1.905
 49
1.27
 74
     0
 49
-0.635
 74
     0
  0
LTYPE
  5
6F
330
5
100
AcDbSymbolTableRecord
100
AcDbLinetypeTableRecord
  2
PHANTOM
 70
     0
  3
Phantom ______  __  __  ______  __  __  ______
 72
    65
 73
     6
 40
12.7
 49
6.35
 74
     0
 49
-1.27
 74
     0
 49
1.27
 74
     0
 49
-1.27
 74
     0
 49
1.27
 74
     0
 49
-1.27
 74
     0
  0
LTYPE
  5
70
330
5
100
AcDbSymbolTableRecord
100
AcDbLinetypeTableRecord
  2
CENTER
 70
     0
  3
Center ____ _ ____ _ ____ _ ____ _ ____ _ ____
 72
    65
 73
     4
 40
10.16
 49
6.35
 74
     0
 49
-1.27
 74
     0
 49
1.27
 74
     0
 49
-1.27
 74
     0
  0
LTYPE
  5
71
330
5
100
AcDbSymbolTableRecord
100
AcDbLinetypeTableRecord
  2
CENTERX2
 70
     0
  3
Center (2x) ________  __  ________  __  _____
 72
    65
 73
     4
 40
20.32
 49
12.7
 74
     0
 49
-2.54
 74
     0
 49
2.54
 74
     0
 49
-2.54
 74
     0
  0
LTYPE
  5
72
330
5
100
AcDbSymbolTableRecord
100
AcDbLinetypeTableRecord
  2
DOT2
 70
     0
  3
Dot (.5x) ........................................
 72
    65
 73
     2
 40
0.635
 49
0.0
 74
     0
 49
-0.635
 74
     0
  0
ENDTAB
  0
TABLE
  2
LAYER
  5
2
330
0
100
AcDbSymbolTable
 70
     5
  0
LAYER
  5
10
330
2
100
AcDbSymbolTableRecord
100
AcDbLayerTableRecord
  2
0
 70
     0
 62
     7
  6
Continuous
370
    -3
390
F
  0
LAYER
  5
73
330
2
100
AcDbSymbolTableRecord
100
AcDbLayerTableRecord
  2
FORMAT
 70
     0
 62
     7
  6
Continuous
370
    -3
390
F
  0
LAYER
  5
74
330
2
100
AcDbSymbolTableRecord
100
AcDbLayerTableRecord
  2
VERMASSUNG
 70
     0
 62
     7
  6
Continuous
370
    -3
390
F
  0
LAYER
  5
75
330
2
100
AcDbSymbolTableRecord
100
AcDbLayerTableRecord
  2
KOPF_DÜNN
 70
     0
 62
     7
  6
Continuous
370
    -3
390
F
  0
LAYER
  5
76
330
2
100
AcDbSymbolTableRecord
100
AcDbLayerTableRecord
  2
KOPF_DICK
 70
     0
 62
     7
  6
Continuous
370
    15
390
F
  0
ENDTAB
  0
TABLE
  2
STYLE
  5
3
330
0
100
AcDbSymbolTable
 70
     2
  0
STYLE
  5
11
330
3
100
AcDbSymbolTableRecord
100
AcDbTextStyleTableRecord
  2
Standard
 70
     0
 40
0.0
 41
1.0
 50
0.0
 71
     0
 42
2.0
  3
txt
  4

  0
STYLE
  5
77
330
3
100
AcDbSymbolTableRecord
100
AcDbTextStyleTableRecord
  2
SLDTEXTSTYLE0
 70
     0
 40
0.0
 41
0.7
 50
0.0
 71
     0
 42
2.0
  3
TXT
  4

  0
ENDTAB
  0
TABLE
  2
VIEW
  5
6
330
0
100
AcDbSymbolTable
 70
     0
  0
ENDTAB
  0
TABLE
  2
UCS
  5
7
330
0
100
AcDbSymbolTable
 70
     0
  0
ENDTAB
  0
TABLE
  2
APPID
  5
9
330
0
100
AcDbSymbolTable
 70
     1
  0
APPID
  5
12
330
9
100
AcDbSymbolTableRecord
100
AcDbRegAppTableRecord
  2
ACAD
 70
     0
  0
ENDTAB
  0
TABLE
  2
DIMSTYLE
  5
A
330
0
100
AcDbSymbolTable
 70
     2
100
AcDbDimStyleTable
  0
DIMSTYLE
105
27
330
A
100
AcDbSymbolTableRecord
100
AcDbDimStyleTableRecord
  2
ISO-25
 70
     0
 41
2.5
 42
0.625
 43
3.75
 44
1.25
 73
     0
 74
     0
 77
     1
 78
     8
140
2.5
141
2.5
143
0.0393700787
147
0.625
171
     3
172
     1
178
     0
271
     2
272
     2
274
     3
278
    44
283
     0
284
     8
340
11
  0
DIMSTYLE
105
1EF
102
{ACAD_REACTORS
330
1EE
330
1FB
330
206
330
212
330
21C
330
226
102
}
330
A
100
AcDbSymbolTableRecord
100
AcDbDimStyleTableRecord
  2
SLDDIMSTYLE0
 70
     0
 41
3.0
 44
0.0
 45
0.000000001
 73
     0
 74
     0
 77
     1
 78
    12
 79
     3
140
2.0
147
0.5
173
     1
178
     0
271
     2
272
     3
276
     2
284
    12
340
77
  0
ENDTAB
  0
TABLE
  2
BLOCK_RECORD
  5
1
330
0
100
AcDbSymbolTable
 70
     7
  0
BLOCK_RECORD
  5
1F
330
1
100
AcDbSymbolTableRecord
100
AcDbBlockTableRecord
  2
*Model_Space
340
22
  0
BLOCK_RECORD
  5
1B
330
1
100
AcDbSymbolTableRecord
100
AcDbBlockTableRecord
  2
*Paper_Space
340
1E
  0
BLOCK_RECORD
  5
23
330
1
100
AcDbSymbolTableRecord
100
AcDbBlockTableRecord
  2
*Paper_Space0
340
26
  0
BLOCK_RECORD
  5
1F0
330
1
100
AcDbSymbolTableRecord
100
AcDbBlockTableRecord
  2
_D
340
0
  0
BLOCK_RECORD
  5
1FC
330
1
100
AcDbSymbolTableRecord
100
AcDbBlockTableRecord
  2
_D_1
340
0
  0
BLOCK_RECORD
  5
207
330
1
100
AcDbSymbolTableRecord
100
AcDbBlockTableRecord
  2
_D_2
340
0
  0
BLOCK_RECORD
  5
213
330
1
100
AcDbSymbolTableRecord
100
AcDbBlockTableRecord
  2
_D_3
340
0
  0
BLOCK_RECORD
  5
21D
330
1
100
AcDbSymbolTableRecord
100
AcDbBlockTableRecord
  2
_D_4
340
0
  0
BLOCK_RECORD
  5
227
330
1
100
AcDbSymbolTableRecord
100
AcDbBlockTableRecord
  2
_D_5
340
0
  0
ENDTAB
  0
ENDSEC
  0
SECTION
  2
BLOCKS
  0
BLOCK
  5
20
330
1F
100
AcDbEntity
  8
0
100
AcDbBlockBegin
  2
*Model_Space
 70
     0
 10
0.0
 20
0.0
 30
0.0
  3
*Model_Space
  1

  0
ENDBLK
  5
21
330
1F
100
AcDbEntity
  8
0
100
AcDbBlockEnd
  0
BLOCK
  5
1C
330
1B
100
AcDbEntity
 67
     1
  8
0
100
AcDbBlockBegin
  2
*Paper_Space
 70
     0
 10
0.0
 20
0.0
 30
0.0
  3
*Paper_Space
  1

  0
ENDBLK
  5
1D
330
1B
100
AcDbEntity
 67
     1
  8
0
100
AcDbBlockEnd
  0
BLOCK
  5
24
330
23
100
AcDbEntity
  8
0
100
AcDbBlockBegin
  2
*Paper_Space0
 70
     0
 10
0.0
 20
0.0
 30
0.0
  3
*Paper_Space0
  1

  0
ENDBLK
  5
25
330
23
100
AcDbEntity
  8
0
100
AcDbBlockEnd
  0
BLOCK
  5
1F1
330
1F0
100
AcDbEntity
  8
0
100
AcDbBlockBegin
  2
_D
 70
     0
 10
0.0
 20
0.0
 30
0.0
  3
_D
  1

  0
SOLID
  5
1F3
330
1F0
100
AcDbEntity
  8
VERMASSUNG
100
AcDbTrace
 10
38.9468566173
 20
63.0400300148
 30
0.0
 11
39.3968566173
 21
66.0400300148
 31
0.0
 12
38.4968566173
 22
66.0400300148
 32
0.0
 13
38.4968566173
 23
66.0400300148
 33
0.0
  0
SOLID
  5
1F4
330
1F0
100
AcDbEntity
  8
VERMASSUNG
100
AcDbTrace
 10
38.9468566173
 20
160.4900300148
 30
0.0
 11
38.4968566173
 21
157.4900300148
 31
0.0
 12
39.3968566173
 22
157.4900300148
 32
0.0
 13
39.3968566173
 23
157.4900300148
 33
0.0
  0
LINE
  5
1F5
330
1F0
100
AcDbEntity
  8
VERMASSUNG
100
AcDbLine
 10
168.9968566173
 20
63.0400300148
 30
0.0
 11
37.9468566173
 21
63.0400300148
 31
0.0
  0
LINE
  5
1F6
330
1F0
100
AcDbEntity
  8
VERMASSUNG
100
AcDbLine
 10
168.9968566173
 20
160.4900300148
 30
0.0
 11
37.9468566173
 21
160.4900300148
 31
0.0
  0
LINE
  5
1F7
330
1F0
100
AcDbEntity
  8
VERMASSUNG
100
AcDbLine
 10
38.9468566173
 20
63.0400300148
 30
0.0
 11
38.9468566173
 21
160.4900300148
 31
0.0
  0
MTEXT
  5
1F8
330
1F0
100
AcDbEntity
  8
VERMASSUNG
100
AcDbMText
 10
36.1687213611
 20
102.2605943815
 30
0.0
 40
2.0
 41
0.0
 71
     1
 72
     1
  1
ISO 50
  7
SLDTEXTSTYLE0
 11
3.391901413832837E-15
 21
1.0
 31
0.0
 73
     1
 44
1.0
  0
MTEXT
  5
1F9
330
1F0
100
AcDbEntity
  8
VERMASSUNG
100
AcDbMText
 10
36.3687213124
 20
111.260593994
 30
0.0
 40
2.0
 41
0.0
 71
     1
 72
     1
  1
%%c
  7
SLDTEXTSTYLE0
 11
3.391901413832837E-15
 21
1.0
 31
0.0
 73
     1
 44
1.0
  0
MTEXT
  5
1FA
330
1F0
100
AcDbEntity
  8
VERMASSUNG
100
AcDbMText
 10
36.3687210213
 20
114.8699373269
 30
0.0
 40
2.0
 41
0.0
 71
     1
 72
     1
  1
97.45
  7
SLDTEXTSTYLE0
 11
3.391901413832837E-15
 21
1.0
 31
0.0
 73
     1
 44
1.0
  0
ENDBLK
  5
1F2
330
1F0
100
AcDbEntity
  8
0
100
AcDbBlockEnd
  0
BLOCK
  5
1FD
330
1FC
100
AcDbEntity
  8
0
100
AcDbBlockBegin
  2
_D_1
 70
     0
 10
0.0
 20
0.0
 30
0.0
  3
_D_1
  1

  0
SOLID
  5
1FF
330
1FC
100
AcDbEntity
  8
VERMASSUNG
100
AcDbTrace
 10
260.5468566173
 20
122.7650300148
 30
0.0
 11
260.0968566173
 21
119.7650300148
 31
0.0
 12
260.9968566173
 22
119.7650300148
 32
0.0
 13
260.9968566173
 23
119.7650300148
 33
0.0
  0
SOLID
  5
200
330
1FC
100
AcDbEntity
  8
VERMASSUNG
100
AcDbTrace
 10
260.5468566173
 20
100.7650300148
 30
0.0
 11
260.9968566173
 21
103.7650300148
 31
0.0
 12
260.0968566173
 22
103.7650300148
 32
0.0
 13
260.0968566173
 23
103.7650300148
 33
0.0
  0
LINE
  5
201
330
1FC
100
AcDbEntity
  8
VERMASSUNG
100
AcDbLine
 10
249.5468566173
 20
122.7650300148
 30
0.0
 11
261.5468566173
 21
122.7650300148
 31
0.0
  0
LINE
  5
202
330
1FC
100
AcDbEntity
  8
VERMASSUNG
100
AcDbLine
 10
249.5468566173
 20
100.7650300148
 30
0.0
 11
261.5468566173
 21
100.7650300148
 31
0.0
  0
LINE
  5
203
330
1FC
100
AcDbEntity
  8
VERMASSUNG
100
AcDbLine
 10
260.5468566173
 20
122.7650300148
 30
0.0
 11
260.5468566173
 21
100.7650300148
 31
0.0
  0
MTEXT
  5
204
330
1FC
100
AcDbEntity
  8
VERMASSUNG
100
AcDbMText
 10
257.9687213124
 20
108.5600300576
 30
0.0
 40
2.0
 41
0.0
 71
     1
 72
     1
  1
%%c
  7
SLDTEXTSTYLE0
 11
-7.044195017643634E-15
 21
1.0
 31
0.0
 73
     1
 44
1.0
  0
MTEXT
  5
205
330
1FC
100
AcDbEntity
  8
VERMASSUNG
100
AcDbMText
 10
257.7687213611
 20
112.1700300719
 30
0.0
 40
2.0
 41
0.0
 71
     1
 72
     1
  1
22
  7
SLDTEXTSTYLE0
 11
-7.044195017643634E-15
 21
1.0
 31
0.0
 73
     1
 44
1.0
  0
ENDBLK
  5
1FE
330
1FC
100
AcDbEntity
  8
0
100
AcDbBlockEnd
  0
BLOCK
  5
208
330
207
100
AcDbEntity
  8
0
100
AcDbBlockBegin
  2
_D_2
 70
     0
 10
0.0
 20
0.0
 30
0.0
  3
_D_2
  1

  0
SOLID
  5
20A
330
207
100
AcDbEntity
  8
VERMASSUNG
100
AcDbTrace
 10
266.6468566173
 20
131.7650300148
 30
0.0
 11
266.1968566173
 21
128.7650300148
 31
0.0
 12
267.0968566173
 22
128.7650300148
 32
0.0
 13
267.0968566173
 23
128.7650300148
 33
0.0
  0
SOLID
  5
20B
330
207
100
AcDbEntity
  8
VERMASSUNG
100
AcDbTrace
 10
266.6468566173
 20
91.7650300148
 30
0.0
 11
267.0968566173
 21
94.7650300148
 31
0.0
 12
266.1968566173
 22
94.7650300148
 32
0.0
 13
266.1968566173
 23
94.7650300148
 33
0.0
  0
LINE
  5
20C
330
207
100
AcDbEntity
  8
VERMASSUNG
100
AcDbLine
 10
250.1468566173
 20
131.7650300148
 30
0.0
 11
267.6468566173
 21
131.7650300148
 31
0.0
  0
LINE
  5
20D
330
207
100
AcDbEntity
  8
VERMASSUNG
100
AcDbLine
 10
250.1468566173
 20
91.7650300148
 30
0.0
 11
267.6468566173
 21
91.7650300148
 31
0.0
  0
LINE
  5
20E
330
207
100
AcDbEntity
  8
VERMASSUNG
100
AcDbLine
 10
266.6468566173
 20
131.7650300148
 30
0.0
 11
266.6468566173
 21
91.7650300148
 31
0.0
  0
MTEXT
  5
20F
330
207
100
AcDbEntity
  8
VERMASSUNG
100
AcDbMText
 10
263.8687213611
 20
106.5600301954
 30
0.0
 40
2.0
 41
0.0
 71
     1
 72
     1
  1
WH
  7
SLDTEXTSTYLE0
 11
-7.044195017643634E-15
 21
1.0
 31
0.0
 73
     1
 44
1.0
  0
MTEXT
  5
210
330
207
100
AcDbEntity
  8
VERMASSUNG
100
AcDbMText
 10
264.0687213124
 20
110.3600302595
 30
0.0
 40
2.0
 41
0.0
 71
     1
 72
     1
  1
%%c
  7
SLDTEXTSTYLE0
 11
-7.044195017643634E-15
 21
1.0
 31
0.0
 73
     1
 44
1.0
  0
MTEXT
  5
211
330
207
100
AcDbEntity
  8
VERMASSUNG
100
AcDbMText
 10
263.8687213611
 20
113.9700302738
 30
0.0
 40
2.0
 41
0.0
 71
     1
 72
     1
  1
40
  7
SLDTEXTSTYLE0
 11
-7.044195017643634E-15
 21
1.0
 31
0.0
 73
     1
 44
1.0
  0
ENDBLK
  5
209
330
207
100
AcDbEntity
  8
0
100
AcDbBlockEnd
  0
BLOCK
  5
214
330
213
100
AcDbEntity
  8
0
100
AcDbBlockBegin
  2
_D_3
 70
     0
 10
0.0
 20
0.0
 30
0.0
  3
_D_3
  1

  0
SOLID
  5
216
330
213
100
AcDbEntity
  8
VERMASSUNG
100
AcDbTrace
 10
250.5468566173
 20
166.6109474619
 30
0.0
 11
247.5468566173
 21
167.0609474619
 31
0.0
 12
247.5468566173
 22
166.1609474619
 32
0.0
 13
247.5468566173
 23
166.1609474619
 33
0.0
  0
SOLID
  5
217
330
213
100
AcDbEntity
  8
VERMASSUNG
100
AcDbTrace
 10
169.5968566173
 20
166.6109474619
 30
0.0
 11
172.5968566173
 21
166.1609474619
 31
0.0
 12
172.5968566173
 22
167.0609474619
 32
0.0
 13
172.5968566173
 23
167.0609474619
 33
0.0
  0
LINE
  5
218
330
213
100
AcDbEntity
  8
VERMASSUNG
100
AcDbLine
 10
250.5468566173
 20
131.3650300148
 30
0.0
 11
250.5468566173
 21
167.6109474619
 31
0.0
  0
LINE
  5
219
330
213
100
AcDbEntity
  8
VERMASSUNG
100
AcDbLine
 10
169.5968566173
 20
158.0600169681
 30
0.0
 11
169.5968566173
 21
167.6109474619
 31
0.0
  0
LINE
  5
21A
330
213
100
AcDbEntity
  8
VERMASSUNG
100
AcDbLine
 10
250.5468566173
 20
166.6109474619
 30
0.0
 11
169.5968566173
 21
166.6109474619
 31
0.0
  0
MTEXT
  5
21B
330
213
100
AcDbEntity
  8
VERMASSUNG
100
AcDbMText
 10
206.9718567611
 20
169.1890830578
 30
0.0
 40
2.0
 41
0.0
 71
     1
 72
     1
  1
80.95
  7
SLDTEXTSTYLE0
 73
     1
 44
1.0
  0
ENDBLK
  5
215
330
213
100
AcDbEntity
  8
0
100
AcDbBlockEnd
  0
BLOCK
  5
21E
330
21D
100
AcDbEntity
  8
0
100
AcDbBlockBegin
  2
_D_4
 70
     0
 10
0.0
 20
0.0
 30
0.0
  3
_D_4
  1

  0
SOLID
  5
220
330
21D
100
AcDbEntity
  8
VERMASSUNG
100
AcDbTrace
 10
250.5468566173
 20
172.6109474619
 30
0.0
 11
247.5468566173
 21
173.0609474619
 31
0.0
 12
247.5468566173
 22
172.1609474619
 32
0.0
 13
247.5468566173
 23
172.1609474619
 33
0.0
  0
SOLID
  5
221
330
21D
100
AcDbEntity
  8
VERMASSUNG
100
AcDbTrace
 10
150.5468566173
 20
172.6109474619
 30
0.0
 11
153.5468566173
 21
172.1609474619
 31
0.0
 12
153.5468566173
 22
173.0609474619
 32
0.0
 13
153.5468566173
 23
173.0609474619
 33
0.0
  0
LINE
  5
222
330
21D
100
AcDbEntity
  8
VERMASSUNG
100
AcDbLine
 10
250.5468566173
 20
131.3650300148
 30
0.0
 11
250.5468566173
 21
173.6109474619
 31
0.0
  0
LINE
  5
223
330
21D
100
AcDbEntity
  8
VERMASSUNG
100
AcDbLine
 10
150.5468566173
 20
146.6900300148
 30
0.0
 11
150.5468566173
 21
173.6109474619
 31
0.0
  0
LINE
  5
224
330
21D
100
AcDbEntity
  8
VERMASSUNG
100
AcDbLine
 10
250.5468566173
 20
172.6109474619
 30
0.0
 11
150.5468566173
 21
172.6109474619
 31
0.0
  0
MTEXT
  5
225
330
21D
100
AcDbEntity
  8
VERMASSUNG
100
AcDbMText
 10
198.6468565853
 20
175.1890830578
 30
0.0
 40
2.0
 41
0.0
 71
     1
 72
     1
  1
100
  7
SLDTEXTSTYLE0
 73
     1
 44
1.0
  0
ENDBLK
  5
21F
330
21D
100
AcDbEntity
  8
0
100
AcDbBlockEnd
  0
BLOCK
  5
228
330
227
100
AcDbEntity
  8
0
100
AcDbBlockBegin
  2
_D_5
 70
     0
 10
0.0
 20
0.0
 30
0.0
  3
_D_5
  1

  0
SOLID
  5
22A
330
227
100
AcDbEntity
  8
VERMASSUNG
100
AcDbTrace
 10
250.5468566173
 20
178.6109474619
 30
0.0
 11
247.5468566173
 21
179.0609474619
 31
0.0
 12
247.5468566173
 22
178.1609474619
 32
0.0
 13
247.5468566173
 23
178.1609474619
 33
0.0
  0
SOLID
  5
22B
330
227
100
AcDbEntity
  8
VERMASSUNG
100
AcDbTrace
 10
48.9468566173
 20
178.6109474619
 30
0.0
 11
51.9468566173
 21
178.1609474619
 31
0.0
 12
51.9468566173
 22
179.0609474619
 32
0.0
 13
51.9468566173
 23
179.0609474619
 33
0.0
  0
LINE
  5
22C
330
227
100
AcDbEntity
  8
VERMASSUNG
100
AcDbLine
 10
250.5468566173
 20
131.3650300148
 30
0.0
 11
250.5468566173
 21
179.6109474619
 31
0.0
  0
LINE
  5
22D
330
227
100
AcDbEntity
  8
VERMASSUNG
100
AcDbLine
 10
48.9468566173
 20
130.1438745422
 30
0.0
 11
48.9468566173
 21
179.6109474619
 31
0.0
  0
LINE
  5
22E
330
227
100
AcDbEntity
  8
VERMASSUNG
100
AcDbLine
 10
250.5468566173
 20
178.6109474619
 30
0.0
 11
48.9468566173
 21
178.6109474619
 31
0.0
  0
MTEXT
  5
22F
330
227
100
AcDbEntity
  8
VERMASSUNG
100
AcDbMText
 10
146.8468566542
 20
181.1890830578
 30
0.0
 40
2.0
 41
0.0
 71
     1
 72
     1
  1
201.6
  7
SLDTEXTSTYLE0
 73
     1
 44
1.0
  0
ENDBLK
  5
229
330
227
100
AcDbEntity
  8
0
100
AcDbBlockEnd
  0
ENDSEC
  0
SECTION
  2
ENTITIES
  0
MTEXT
  5
78
330
1F
100
AcDbEntity
  8
KOPF_DÜNN
100
AcDbMText
 10
13.8892156294
 20
23.8442973028
 30
0.0
 40
3.0
 41
0.0
 71
     1
 72
     1
  1
A14.450.040.100
  7
SLDTEXTSTYLE0
 73
     1
 44
1.0
  0
MTEXT
  5
79
330
1F
100
AcDbEntity
  8
VERMASSUNG
100
AcDbMText
 10
13.9329988022
 20
28.8834360957
 30
0.0
 40
3.0
 41
0.0
 71
     1
 72
     1
  1
Aufnahme_Master shank WH40
  7
SLDTEXTSTYLE0
 73
     1
 44
1.0
  0
MTEXT
  5
7A
330
1F
100
AcDbEntity
  8
VERMASSUNG
100
AcDbMText
 10
98.8601118557
 20
13.8365368761
 30
0.0
 40
2.0
 41
0.0
 71
     1
 72
     1
  1
Datum: 21.10.2011
  7
SLDTEXTSTYLE0
 73
     1
 44
1.0
  0
MTEXT
  5
7B
330
1F
100
AcDbEntity
  8
VERMASSUNG
100
AcDbMText
 10
13.933048693
 20
18.0482802738
 30
0.0
 40
2.0
 41
0.0
 71
     1
 72
     1
  1
DIN 69871 AD/B
  7
SLDTEXTSTYLE0
 73
     1
 44
1.0
  0
MTEXT
  5
7C
330
1F
100
AcDbEntity
  8
VERMASSUNG
100
AcDbMText
 10
13.9808475933
 20
13.9090974274
 30
0.0
 40
2.0
 41
0.0
 71
     1
 72
     1
  1
Gewicht: 3326g
  7
SLDTEXTSTYLE0
 73
     1
 44
1.0
  0
ARC
  5
7D
330
1F
100
AcDbEntity
  8
0
  6
Continuous
 62
     7
370
    15
100
AcDbCircle
 10
153.1468566173
 20
76.2400300148
 30
0.0
 40
0.6000000000000085
100
AcDbArc
 50
0.0
 51
90.0
  0
ARC
  5
7E
330
1F
100
AcDbEntity
  8
0
  6
Continuous
 62
     7
370
    15
100
AcDbCircle
 10
153.1468566173
 20
147.2900300148
 30
0.0
 40
0.5999999999999943
100
AcDbArc
 50
270.0
 51
0.0
  0
LINE
  5
7F
330
1F
100
AcDbEntity
  8
0
  6
Continuous
 62
     7
370
    15
100
AcDbLine
 10
150.5468566173
 20
76.8400311354
 30
0.0
 11
153.1468566244
 21
76.8400311354
 31
0.0
  0
LINE
  5
80
330
1F
100
AcDbEntity
  8
0
  6
Continuous
 62
     7
370
    15
100
AcDbLine
 10
153.1468566244
 20
146.6900288943
 30
0.0
 11
150.5468566173
 21
146.6900288943
 31
0.0
  0
LINE
  5
81
330
1F
100
AcDbEntity
  8
0
  6
Continuous
 62
     7
370
    15
100
AcDbLine
 10
150.5468566173
 20
146.6900288943
 30
0.0
 11
50.6582413071
 21
132.1229405585
 31
0.0
  0
LINE
  5
82
330
1F
100
AcDbEntity
  8
0
  6
Continuous
 62
     7
370
    15
100
AcDbLine
 10
50.6582413071
 20
91.4071194711
 30
0.0
 11
150.5468566173
 21
76.8400311354
 31
0.0
  0
ARC
  5
83
330
1F
100
AcDbEntity
  8
0
  6
Continuous
 62
     7
370
    15
100
AcDbCircle
 10
172.5968566173
 20
88.7650300148
 30
0.0
 40
3.0
100
AcDbArc
 50
90.0
 51
180.0
  0
ARC
  5
84
330
1F
100
AcDbEntity
  8
0
  6
Continuous
 62
     7
370
    15
100
AcDbCircle
 10
172.5968566173
 20
134.7650300148
 30
0.0
 40
3.0
100
AcDbArc
 50
180.0
 51
270.0
  0
ARC
  5
85
330
1F
100
AcDbEntity
  8
0
  6
Continuous
 62
     7
370
    15
100
AcDbCircle
 10
50.9468566173
 20
93.3861854874
 30
0.0
 40
1.999999999999993
100
AcDbArc
 50
180.0
 51
261.7028550302
  0
ARC
  5
86
330
1F
100
AcDbEntity
  8
0
  6
Continuous
 62
     7
370
    15
100
AcDbCircle
 10
50.9468566173
 20
130.1438745422
 30
0.0
 40
1.999999999999993
100
AcDbArc
 50
98.2971449698
 51
180.0
  0
LINE
  5
87
330
1F
100
AcDbEntity
  8
0
  6
Continuous
 62
     7
370
    15
100
AcDbLine
 10
250.1468587869
 20
91.7650304619
 30
0.0
 11
250.5468581074
 21
92.1650297824
 31
0.0
  0
LINE
  5
88
330
1F
100
AcDbEntity
  8
0
  6
Continuous
 62
     7
370
    15
100
AcDbLine
 10
250.5468581074
 20
131.3650302473
 30
0.0
 11
250.1468587869
 21
131.7650295678
 31
0.0
  0
LINE
  5
89
330
1F
100
AcDbEntity
  8
0
  6
Continuous
 62
     7
370
    15
100
AcDbLine
 10
232.5501892918
 20
131.7650295678
 30
0.0
 11
172.5968573445
 21
131.7650295678
 31
0.0
  0
LINE
  5
8A
330
1F
100
AcDbEntity
  8
0
  6
Continuous
 62
     7
370
    15
100
AcDbLine
 10
250.1468587869
 20
131.7650295678
 30
0.0
 11
244.4284040683
 21
131.7650295678
 31
0.0
  0
LINE
  5
8B
330
1F
100
AcDbEntity
  8
0
  6
Continuous
 62
     7
370
    15
100
AcDbLine
 10
172.5968573445
 20
91.7650304619
 30
0.0
 11
250.1468587869
 21
91.7650304619
 31
0.0
  0
LINE
  5
8C
330
1F
100
AcDbEntity
  8
0
  6
Continuous
 62
     7
370
    15
100
AcDbLine
 10
243.0846024507
 20
131.4772844198
 30
0.0
 11
242.7968535775
 21
131.7650295678
 31
0.0
  0
LINE
  5
8D
330
1F
100
AcDbEntity
  8
0
  6
Continuous
 62
     7
370
    15
100
AcDbLine
 10
234.1968570107
 20
131.7650295678
 30
0.0
 11
233.9128408783
 21
131.4810152981
 31
0.0
  0
ARC
  5
8E
330
1F
100
AcDbEntity
  8
0
  6
Continuous
 62
     7
370
    15
100
AcDbCircle
 10
164.7468566173
 20
97.2992880529
 30
0.0
 40
2.000000000000013
100
AcDbArc
 50
192.2156859338
 51
340.3453161116
  0
LINE
  5
8F
330
1F
100
AcDbEntity
  8
0
  6
Continuous
 62
     7
370
    15
100
AcDbLine
 10
154.3468566814
 20
65.0357708219
 30
0.0
 11
158.4136955642
 21
65.0357708219
 31
0.0
  0
LINE
  5
90
330
1F
100
AcDbEntity
  8
0
  6
Continuous
 62
     7
370
    15
100
AcDbLine
 10
158.4136955642
 20
141.6150305304
 30
0.0
 11
154.3468566814
 21
141.6150305304
 31
0.0
  0
LINE
  5
91
330
1F
100
AcDbEntity
  8
0
  6
Continuous
 62
     7
370
    15
100
AcDbLine
 10
158.4136955642
 20
65.0357708219
 30
0.0
 11
158.4136955642
 21
141.6150305304
 31
0.0
  0
LINE
  5
92
330
1F
100
AcDbEntity
  8
0
  6
Continuous
 62
     7
370
    15
100
AcDbLine
 10
164.8800181427
 20
97.4678827334
 30
0.0
 11
164.8800181427
 21
141.6150305304
 31
0.0
  0
LINE
  5
93
330
1F
100
AcDbEntity
  8
0
  6
Continuous
 62
     7
370
    15
100
AcDbLine
 10
168.9968560093
 20
141.6150305304
 30
0.0
 11
164.8800181427
 21
141.6150305304
 31
0.0
  0
LINE
  5
94
330
1F
100
AcDbEntity
  8
0
  6
Continuous
 62
     7
370
    15
100
AcDbLine
 10
164.8800181427
 20
65.0357708219
 30
0.0
 11
168.9968560093
 21
65.0357708219
 31
0.0
  0
LINE
  5
95
330
1F
100
AcDbEntity
  8
0
  6
Continuous
 62
     7
370
    15
100
AcDbLine
 10
164.8800181427
 20
65.0357708219
 30
0.0
 11
164.8800181427
 21
92.77608915
 31
0.0
  0
SPLINE
  5
96
330
1F
100
AcDbEntity
  8
0
  6
Continuous
 62
     7
370
    15
100
AcDbSpline
210
0.0
220
0.0
230
1.0
 70
     8
 71
     3
 72
    34
 73
    30
 74
     0
 42
0.000000001
 43
0.00000001
 40
0.0
 40
0.0
 40
0.0
 40
0.0
 40
0.0624999999999998
 40
0.0624999999999998
 40
0.1249999999999995
 40
0.1249999999999995
 40
0.1874999999999993
 40
0.1874999999999993
 40
0.2499999999999991
 40
0.2499999999999991
 40
0.3124999999999988
 40
0.3124999999999988
 40
0.3749999999999986
 40
0.3749999999999986
 40
0.5000000000000008
 40
0.5000000000000008
 40
0.625000000000003
 40
0.625000000000003
 40
0.6875000000000028
 40
0.6875000000000028
 40
0.7500000000000024
 40
0.7500000000000024
 40
0.8125000000000022
 40
0.8125000000000022
 40
0.8750000000000014
 40
0.8750000000000014
 40
0.9375000000000007
 40
0.9375000000000007
 40
1.0
 40
1.0
 40
1.0
 40
1.0
 10
164.8800181247528
 20
92.77608962682463
 30
0.0
 10
165.0394099525407
 20
92.7839297227474
 30
0.0
 10
165.1954124359842
 20
92.80558837083782
 30
0.0
 10
165.5009219520614
 20
92.87543659833062
 30
0.0
 10
165.6518162870736
 20
92.92426230065888
 30
0.0
 10
165.9397156317644
 20
93.0471862540662
 30
0.0
 10
166.0756620347242
 20
93.12049376220051
 30
0.0
 10
166.3318446503162
 20
93.29050438597183
 30
0.0
 10
166.4530269380753
 20
93.3883781781733
 30
0.0
 10
166.670173009948
 20
93.60096235360525
 30
0.0
 10
166.7671348829084
 20
93.71600829213484
 30
0.0
 10
166.9376973187339
 20
93.96386941225495
 30
0.0
 10
167.0109373719458
 20
94.09690290932056
 30
0.0
 10
167.1858178286947
 20
94.50641092545068
 30
0.0
 10
167.2468557896706
 20
94.80437157522573
 30
0.0
 10
167.2468574448937
 20
95.39581313110014
 30
0.0
 10
167.1858228353074
 20
95.69598668107672
 30
0.0
 10
167.0109330679055
 20
96.11121796134448
 30
0.0
 10
166.9376893624811
 20
96.2465730795913
 30
0.0
 10
166.7671286467445
 20
96.49947241097792
 30
0.0
 10
166.670164931151
 20
96.61723768858569
 30
0.0
 10
166.4530046025638
 20
96.83536798395431
 30
0.0
 10
166.331823343877
 20
96.93607130910125
 30
0.0
 10
166.0756531169383
 20
97.1113150019345
 30
0.0
 10
165.9397097672756
 20
97.18705997102509
 30
0.0
 10
165.6518070640925
 20
97.31422834632735
 30
0.0
 10
165.5009168681757
 20
97.36482961865481
 30
0.0
 10
165.1954113644701
 20
97.43725871840267
 30
0.0
 10
165.0394099662066
 20
97.45974448979965
 30
0.0
 10
164.8800181247528
 20
97.4678829496945
 30
0.0
  0
LINE
  5
97
330
1F
100
AcDbEntity
  8
0
  6
Continuous
 62
     7
370
    15
100
AcDbLine
 10
163.556856496
 20
97.9677682626
 30
0.0
 11
163.556856496
 21
141.6150305304
 31
0.0
  0
SPLINE
  5
98
330
1F
100
AcDbEntity
  8
0
  6
Continuous
 62
     7
370
    15
100
AcDbSpline
210
0.0
220
0.0
230
1.0
 70
    24
 71
     3
 72
     8
 73
     4
 74
     0
 42
0.000000001
 43
0.00000001
 40
0.0
 40
0.0
 40
0.0
 40
0.0
 40
1.0
 40
1.0
 40
1.0
 40
1.0
 10
164.8800181247528
 20
141.6150300148257
 30
0.0
 10
164.4334164047334
 20
141.6150300148257
 30
0.0
 10
163.9920567219945
 20
141.6150300148257
 30
0.0
 10
163.5568566172909
 20
141.6150300148257
 30
0.0
  0
SPLINE
  5
99
330
1F
100
AcDbEntity
  8
0
  6
Continuous
 62
     7
370
    15
100
AcDbSpline
210
0.0
220
0.0
230
1.0
 70
     8
 71
     3
 72
    10
 73
     6
 74
     0
 42
0.000000001
 43
0.00000001
 40
0.0
 40
0.0
 40
0.0
 40
0.0
 40
0.5
 40
0.5
 40
1.0
 40
1.0
 40
1.0
 40
1.0
 10
164.8800181247528
 20
97.4678829496945
 30
0.0
 10
164.6572910978794
 20
97.61137144998825
 30
0.0
 10
164.4356052106542
 20
97.72609219572115
 30
0.0
 10
163.9943843728023
 20
97.89585262507902
 30
0.0
 10
163.7748257254034
 20
97.95127261946638
 30
0.0
 10
163.5568566172912
 20
97.96776794883604
 30
0.0
  0
SPLINE
  5
9A
330
1F
100
AcDbEntity
  8
0
  6
Continuous
 62
     7
370
    15
100
AcDbSpline
210
0.0
220
0.0
230
1.0
 70
     8
 71
     3
 72
    10
 73
     6
 74
     0
 42
0.000000001
 43
0.00000001
 40
0.0
 40
0.0
 40
0.0
 40
0.0
 40
0.5
 40
0.5
 40
1.0
 40
1.0
 40
1.0
 40
1.0
 10
153.9625166484449
 20
65.13157574763348
 30
0.0
 10
154.0111672170246
 20
65.10361875636607
 30
0.0
 10
154.068552428984
 20
65.07967647133927
 30
0.0
 10
154.19926553715
 20
65.04555800824353
 30
0.0
 10
154.2720050708886
 20
65.03577067347967
 30
0.0
 10
154.3468566172909
 20
65.03577067347969
 30
0.0
  0
SPLINE
  5
9B
330
1F
100
AcDbEntity
  8
0
  6
Continuous
 62
     7
370
    15
100
AcDbSpline
210
0.0
220
0.0
230
1.0
 70
     8
 71
     3
 72
    10
 73
     6
 74
     0
 42
0.000000001
 43
0.00000001
 40
0.0
 40
0.0
 40
0.0
 40
0.0
 40
0.5
 40
0.5
 40
1.0
 40
1.0
 40
1.0
 40
1.0
 10
153.9625166484449
 20
65.13157574763346
 30
0.0
 10
153.9043286418627
 20
65.19915947781229
 30
0.0
 10
153.8518861753364
 20
65.27963571245404
 30
0.0
 10
153.7735338681578
 20
65.46267133543678
 30
0.0
 10
153.7468566172908
 20
65.5685470382324
 30
0.0
 10
153.7468566172908
 20
65.67606034745302
 30
0.0
  0
LINE
  5
9C
330
1F
100
AcDbEntity
  8
0
  6
Continuous
 62
     7
370
    15
100
AcDbLine
 10
153.7468565365
 20
65.6760588172
 30
0.0
 11
153.7468565365
 21
141.6150305304
 31
0.0
  0
SPLINE
  5
9D
330
1F
100
AcDbEntity
  8
0
  6
Continuous
 62
     7
370
    15
100
AcDbSpline
210
0.0
220
0.0
230
1.0
 70
    24
 71
     3
 72
    14
 73
    10
 74
     0
 42
0.000000001
 43
0.00000001
 40
0.0
 40
0.0
 40
0.0
 40
0.0
 40
0.25
 40
0.25
 40
0.5
 40
0.5
 40
0.75
 40
0.75
 40
1.0
 40
1.0
 40
1.0
 40
1.0
 10
154.3468566172909
 20
141.6150300148257
 30
0.0
 10
154.2578346649472
 20
141.6150300148257
 30
0.0
 10
154.1681479656737
 20
141.6150300148257
 30
0.0
 10
154.0144211401164
 20
141.6150300148257
 30
0.0
 10
153.9492162454896
 20
141.6150300148257
 30
0.0
 10
153.8466255513191
 20
141.6150300148257
 30
0.0
 10
153.8089880970033
 20
141.6150300148257
 30
0.0
 10
153.7588961816181
 20
141.6150300148257
 30
0.0
 10
153.7468566172909
 20
141.6150300148257
 30
0.0
 10
153.7468566172909
 20
141.6150300148257
 30
0.0
  0
SPLINE
  5
9E
330
1F
100
AcDbEntity
  8
0
  6
Continuous
 62
     7
370
    15
100
AcDbSpline
210
0.0
220
0.0
230
1.0
 70
     8
 71
     3
 72
     8
 73
     4
 74
     0
 42
0.000000001
 43
0.00000001
 40
0.0
 40
0.0
 40
0.0
 40
0.0
 40
1.0
 40
1.0
 40
1.0
 40
1.0
 10
159.7368566172909
 20
67.14529060599591
 30
0.0
 10
159.4471281712663
 20
66.62307059583239
 30
0.0
 10
159.1571030210486
 20
66.10101721357242
 30
0.0
 10
158.8668087867868
 20
65.57911494784932
 30
0.0
  0
SPLINE
  5
9F
330
1F
100
AcDbEntity
  8
0
  6
Continuous
 62
     7
370
    15
100
AcDbSpline
210
0.0
220
0.0
230
1.0
 70
     8
 71
     3
 72
     8
 73
     4
 74
     0
 42
0.000000001
 43
0.00000001
 40
0.0
 40
0.0
 40
0.0
 40
0.0
 40
0.0011862984959113
 40
0.0011862984959113
 40
0.0011862984959113
 40
0.0011862984959113
 10
158.413695109829
 20
65.0357706734797
 30
0.0
 10
158.5657198716999
 20
65.2166825230977
 30
0.0
 10
158.7167773169157
 20
65.39779485353853
 30
0.0
 10
158.8668087867868
 20
65.57911494784933
 30
0.0
  0
SPLINE
  5
A0
330
1F
100
AcDbEntity
  8
0
  6
Continuous
 62
     7
370
    15
100
AcDbSpline
210
0.0
220
0.0
230
1.0
 70
    24
 71
     3
 72
     8
 73
     4
 74
     0
 42
0.000000001
 43
0.00000001
 40
0.0
 40
0.0
 40
0.0
 40
0.0
 40
1.0
 40
1.0
 40
1.0
 40
1.0
 10
159.7368566172909
 20
141.6150300148257
 30
0.0
 10
159.3016565125873
 20
141.6150300148257
 30
0.0
 10
158.8602968298484
 20
141.6150300148257
 30
0.0
 10
158.413695109829
 20
141.6150300148257
 30
0.0
  0
LINE
  5
A1
330
1F
100
AcDbEntity
  8
0
  6
Continuous
 62
     7
370
    15
100
AcDbLine
 10
159.7368562796
 20
67.1452909592
 30
0.0
 11
159.7368562796
 21
141.6150305304
 31
0.0
  0
SPLINE
  5
A2
330
1F
100
AcDbEntity
  8
0
  6
Continuous
 62
     7
370
    15
100
AcDbSpline
210
0.0
220
0.0
230
1.0
 70
     8
 71
     3
 72
    12
 73
     8
 74
     0
 42
0.000000001
 43
0.00000001
 40
0.0
 40
0.0
 40
0.0
 40
0.0
 40
0.2499999999999992
 40
0.2499999999999992
 40
0.4999999999999984
 40
0.4999999999999984
 40
1.0
 40
1.0
 40
1.0
 40
1.0
 10
168.9968566172909
 20
65.0357706734797
 30
0.0
 10
169.0928293704658
 20
65.03577067347967
 30
0.0
 10
169.1852573346202
 20
65.0520439975883
 30
0.0
 10
169.3416874347297
 20
65.1054177195847
 30
0.0
 10
169.4051658595025
 20
65.14154597711904
 30
0.0
 10
169.5534450203297
 20
65.26224717339831
 30
0.0
 10
169.5968566172909
 20
65.35609675976347
 30
0.0
 10
169.5968566172909
 20
65.4504010347107
 30
0.0
  0
SPLINE
  5
A3
330
1F
100
AcDbEntity
  8
0
  6
Continuous
 62
     7
370
    15
100
AcDbSpline
210
0.0
220
0.0
230
1.0
 70
    24
 71
     3
 72
    12
 73
     8
 74
     0
 42
0.000000001
 43
0.00000001
 40
0.0
 40
0.0
 40
0.0
 40
0.0
 40
0.5
 40
0.5
 40
0.75
 40
0.75
 40
1.0
 40
1.0
 40
1.0
 40
1.0
 10
169.5968566172909
 20
141.6150300148257
 30
0.0
 10
169.5968566172909
 20
141.6150300148257
 30
0.0
 10
169.5487259289055
 20
141.6150300148257
 30
0.0
 10
169.3948288731025
 20
141.6150300148257
 30
0.0
 10
169.3293643080957
 20
141.6150300148257
 30
0.0
 10
169.1758349874856
 20
141.6150300148257
 30
0.0
 10
169.0874863267497
 20
141.6150300148257
 30
0.0
 10
168.9968566172907
 20
141.6150300148257
 30
0.0
  0
LINE
  5
A4
330
1F
100
AcDbEntity
  8
0
  6
Continuous
 62
     7
370
    15
100
AcDbLine
 10
169.5968568527
 20
65.4503993574
 30
0.0
 11
169.5968568527
 21
141.6150305304
 31
0.0
  0
SPLINE
  5
A5
330
1F
100
AcDbEntity
  8
0
  6
Continuous
 62
     7
370
    15
100
AcDbSpline
210
0.0
220
0.0
230
1.0
 70
     8
 71
     3
 72
    14
 73
    10
 74
     0
 42
0.000000001
 43
0.00000001
 40
0.0
 40
0.0
 40
0.0
 40
0.0
 40
0.25
 40
0.25
 40
0.5
 40
0.5
 40
0.75
 40
0.75
 40
1.0
 40
1.0
 40
1.0
 40
1.0
 10
163.5568566172909
 20
98.01338217084854
 30
0.0
 10
163.5568566172909
 20
98.05535855270207
 30
0.0
 10
163.5272136633197
 20
98.08320894034296
 30
0.0
 10
163.4205588295896
 20
98.09670781563298
 30
0.0
 10
163.3442804349854
 20
98.08209231359528
 30
0.0
 10
163.1762288919189
 20
98.01000310942709
 30
0.0
 10
163.0851090853106
 20
97.95286549894433
 30
0.0
 10
162.912431973058
 20
97.81063779835307
 30
0.0
 10
162.8315095335299
 20
97.727073972841
 30
0.0
 10
162.7568566172909
 20
97.63370430094507
 30
0.0
  0
SPLINE
  5
A6
330
1F
100
AcDbEntity
  8
0
  6
Continuous
 62
     7
370
    15
100
AcDbSpline
210
0.0
220
0.0
230
1.0
 70
     8
 71
     3
 72
    10
 73
     6
 74
     0
 42
0.000000001
 43
0.00000001
 40
0.0
 40
0.0
 40
0.0
 40
0.0
 40
0.5
 40
0.5
 40
1.0
 40
1.0
 40
1.0
 40
1.0
 10
163.5568566172912
 20
93.83572675020473
 30
0.0
 10
163.7737474498119
 20
93.59868781075618
 30
0.0
 10
163.9929000864708
 20
93.39651757576269
 30
0.0
 10
164.4343845867397
 20
93.04576550424399
 30
0.0
 10
164.6575870520131
 20
92.89708941184713
 30
0.0
 10
164.8800181247528
 20
92.77608962682463
 30
0.0
  0
LINE
  5
A7
330
1F
100
AcDbEntity
  8
0
  6
Continuous
 62
     7
370
    15
100
AcDbLine
 10
163.556856496
 20
93.8813418034
 30
0.0
 11
163.556856496
 21
93.8357274863
 31
0.0
  0
SPLINE
  5
A8
330
1F
100
AcDbEntity
  8
0
  6
Continuous
 62
     7
370
    15
100
AcDbSpline
210
0.0
220
0.0
230
1.0
 70
     8
 71
     3
 72
    16
 73
    12
 74
     0
 42
0.000000001
 43
0.00000001
 40
0.0
 40
0.0
 40
0.0
 40
0.0
 40
0.2500000000000047
 40
0.2500000000000047
 40
0.5000000000000094
 40
0.5000000000000094
 40
0.6250000000000083
 40
0.6250000000000083
 40
0.7500000000000072
 40
0.7500000000000072
 40
1.0
 40
1.0
 40
1.0
 40
1.0
 10
162.7568566172909
 20
94.78974045789178
 30
0.0
 10
162.8308645075131
 20
94.69939287770612
 30
0.0
 10
162.911482502502
 20
94.61143330490646
 30
0.0
 10
163.0852504880063
 20
94.43509838084486
 30
0.0
 10
163.1760016189478
 20
94.34949114017886
 30
0.0
 10
163.3021147164092
 20
94.22829544415386
 30
0.0
 10
163.3416914772725
 20
94.18976386516299
 30
0.0
 10
163.4141741339737
 20
94.11536787903367
 30
0.0
 10
163.4471021244426
 20
94.07935109111217
 30
0.0
 10
163.5268922944375
 20
93.98059841529519
 30
0.0
 10
163.5568566172909
 20
93.92383441351308
 30
0.0
 10
163.5568566172909
 20
93.88134097221753
 30
0.0
  0
SPLINE
  5
A9
330
1F
100
AcDbEntity
  8
0
  6
Continuous
 62
     7
370
    15
100
AcDbSpline
210
0.0
220
0.0
230
1.0
 70
     8
 71
     3
 72
    16
 73
    12
 74
     0
 42
0.000000001
 43
0.00000001
 40
0.0
 40
0.0
 40
0.0
 40
0.0
 40
0.2500000000000008
 40
0.2500000000000008
 40
0.5000000000000017
 40
0.5000000000000017
 40
0.7500000000000024
 40
0.7500000000000024
 40
0.8750000000000012
 40
0.8750000000000012
 40
1.0
 40
1.0
 40
1.0
 40
1.0
 10
162.7568566172909
 20
97.63370430094508
 30
0.0
 10
162.5914425108108
 20
97.42681806491976
 30
0.0
 10
162.4652451798352
 20
97.20094936711101
 30
0.0
 10
162.2908388815044
 20
96.71208012149819
 30
0.0
 10
162.2470088424075
 20
96.46031306815362
 30
0.0
 10
162.2467051694375
 20
95.94853374357137
 30
0.0
 10
162.2905620294978
 20
95.6974790344887
 30
0.0
 10
162.420483788765
 20
95.33663046634663
 30
0.0
 10
162.4745986001729
 20
95.21935769799809
 30
0.0
 10
162.6012755903164
 20
94.99686874665929
 30
0.0
 10
162.6741493106771
 20
94.89070813841602
 30
0.0
 10
162.7568566172909
 20
94.78974045789178
 30
0.0
  0
SPLINE
  5
AA
330
1F
100
AcDbEntity
  8
0
  6
Continuous
 62
     7
370
    15
100
AcDbSpline
210
0.0
220
0.0
230
1.0
 70
     8
 71
     3
 72
    14
 73
    10
 74
     0
 42
0.000000001
 43
0.00000001
 40
0.0
 40
0.0
 40
0.0
 40
0.0
 40
0.25
 40
0.25
 40
0.5
 40
0.5
 40
0.75
 40
0.75
 40
1.0
 40
1.0
 40
1.0
 40
1.0
 10
160.5368566172909
 20
68.11726374895592
 30
0.0
 10
160.4304116093816
 20
68.1172637489559
 30
0.0
 10
160.3235128581081
 20
68.0946941995228
 30
0.0
 10
160.1272946026657
 20
68.00825110828087
 30
0.0
 10
160.0376362892012
 20
67.94394719061376
 30
0.0
 10
159.8921825763201
 20
67.78897767657078
 30
0.0
 10
159.8341467935939
 20
67.69621219032705
 30
0.0
 10
159.7568616392093
 20
67.49774530868366
 30
0.0
 10
159.7368566172909
 20
67.39072088688988
 30
0.0
 10
159.7368566172909
 20
67.28393852641906
 30
0.0
  0
SPLINE
  5
AB
330
1F
100
AcDbEntity
  8
0
  6
Continuous
 62
     7
370
    15
100
AcDbSpline
210
0.0
220
0.0
230
1.0
 70
    24
 71
     3
 72
    14
 73
    10
 74
     0
 42
0.000000001
 43
0.00000001
 40
0.0
 40
0.0
 40
0.0
 40
0.0
 40
0.25
 40
0.25
 40
0.5
 40
0.5
 40
0.75
 40
0.75
 40
1.0
 40
1.0
 40
1.0
 40
1.0
 10
160.5368566172909
 20
141.6150300148257
 30
0.0
 10
160.4138753177446
 20
141.6150300148257
 30
0.0
 10
160.2936854293426
 20
141.6150300148257
 30
0.0
 10
160.0886615996634
 20
141.6150300148257
 30
0.0
 10
160.0020671108613
 20
141.6150300148257
 30
0.0
 10
159.8669592240988
 20
141.6150300148257
 30
0.0
 10
159.8184361390708
 20
141.6150300148257
 30
0.0
 10
159.752753630344
 20
141.6150300148257
 30
0.0
 10
159.7368566172909
 20
141.6150300148257
 30
0.0
 10
159.7368566172909
 20
141.6150300148257
 30
0.0
  0
SPLINE
  5
AC
330
1F
100
AcDbEntity
  8
0
  6
Continuous
 62
     7
370
    15
100
AcDbSpline
210
0.0
220
0.0
230
1.0
 70
    24
 71
     3
 72
    14
 73
    10
 74
     0
 42
0.000000001
 43
0.00000001
 40
0.0
 40
0.0
 40
0.0
 40
0.0
 40
0.25
 40
0.25
 40
0.5
 40
0.5
 40
0.75
 40
0.75
 40
1.0
 40
1.0
 40
1.0
 40
1.0
 10
163.5568566172909
 20
141.6150300148257
 30
0.0
 10
163.5568566172909
 20
141.6150300148257
 30
0.0
 10
163.5405755825151
 20
141.6150300148257
 30
0.0
 10
163.4759125199905
 20
141.6150300148257
 30
0.0
 10
163.4264327237018
 20
141.6150300148257
 30
0.0
 10
163.2924629665631
 20
141.6150300148257
 30
0.0
 10
163.2063482399636
 20
141.6150300148257
 30
0.0
 10
163.0008921242506
 20
141.6150300148257
 30
0.0
 10
162.8794715870577
 20
141.6150300148257
 30
0.0
 10
162.7568566172909
 20
141.6150300148257
 30
0.0
  0
LINE
  5
AD
330
1F
100
AcDbEntity
  8
0
  6
Continuous
 62
     7
370
    15
100
AcDbLine
 10
162.7568569237
 20
68.1172639015
 30
0.0
 11
160.5368567833
 21
68.1172639015
 31
0.0
  0
LINE
  5
AE
330
1F
100
AcDbEntity
  8
0
  6
Continuous
 62
     7
370
    15
100
AcDbLine
 10
162.7568569237
 20
141.6150305304
 30
0.0
 11
160.5368567833
 21
141.6150305304
 31
0.0
  0
SPLINE
  5
AF
330
1F
100
AcDbEntity
  8
0
  6
Continuous
 62
     7
370
    15
100
AcDbSpline
210
0.0
220
0.0
230
1.0
 70
     8
 71
     3
 72
     8
 73
     4
 74
     0
 42
0.000000001
 43
0.00000001
 40
0.0000000000000004
 40
0.0000000000000004
 40
0.0000000000000004
 40
0.0000000000000004
 40
0.0011862984959128
 40
0.0011862984959128
 40
0.0011862984959128
 40
0.0011862984959128
 10
164.426904447791
 20
65.57911494784933
 30
0.0
 10
164.5769359176624
 20
65.3977948535383
 30
0.0
 10
164.7279933628818
 20
65.21668252309793
 30
0.0
 10
164.8800181247528
 20
65.0357706734797
 30
0.0
  0
SPLINE
  5
B0
330
1F
100
AcDbEntity
  8
0
  6
Continuous
 62
     7
370
    15
100
AcDbSpline
210
0.0
220
0.0
230
1.0
 70
     8
 71
     3
 72
     8
 73
     4
 74
     0
 42
0.000000001
 43
0.00000001
 40
0.0
 40
0.0
 40
0.0
 40
0.0
 40
1.0
 40
1.0
 40
1.0
 40
1.0
 10
164.4269044477941
 20
65.579114947851
 30
0.0
 10
164.1366102135326
 20
66.10101721357354
 30
0.0
 10
163.8465850633152
 20
66.62307059583294
 30
0.0
 10
163.5568566172909
 20
67.14529060599591
 30
0.0
  0
LINE
  5
B1
330
1F
100
AcDbEntity
  8
0
  6
Continuous
 62
     7
370
    15
100
AcDbLine
 10
163.556856496
 20
67.1452909592
 30
0.0
 11
163.556856496
 21
93.8357274863
 31
0.0
  0
SPLINE
  5
B2
330
1F
100
AcDbEntity
  8
0
  6
Continuous
 62
     7
370
    15
100
AcDbSpline
210
0.0
220
0.0
230
1.0
 70
     8
 71
     3
 72
    14
 73
    10
 74
     0
 42
0.000000001
 43
0.00000001
 40
0.0
 40
0.0
 40
0.0
 40
0.0
 40
0.25
 40
0.25
 40
0.5
 40
0.5
 40
0.75
 40
0.75
 40
1.0
 40
1.0
 40
1.0
 40
1.0
 10
163.5568566172909
 20
67.28393852641908
 30
0.0
 10
163.5568566172909
 20
67.39100251275988
 30
0.0
 10
163.5368727910509
 20
67.4977418391344
 30
0.0
 10
163.4594377086174
 20
67.69649174132519
 30
0.0
 10
163.401498786458
 20
67.7890459578177
 30
0.0
 10
163.2558609806972
 20
67.94414290122329
 30
0.0
 10
163.1670719843618
 20
68.00788305813616
 30
0.0
 10
162.9705236241574
 20
68.09463161522375
 30
0.0
 10
162.864384394458
 20
68.1172637489559
 30
0.0
 10
162.7568566172909
 20
68.1172637489559
 30
0.0
  0
LINE
  5
B3
330
1F
100
AcDbEntity
  8
0
  6
Continuous
 62
     7
370
    15
100
AcDbLine
 10
150.5468566173
 20
76.8400311354
 30
0.0
 11
150.5468566173
 21
146.6900288943
 31
0.0
  0
SPLINE
  5
B4
330
1F
100
AcDbEntity
  8
0
  6
Continuous
 62
     7
370
    15
100
AcDbSpline
210
0.0
220
0.0
230
1.0
 70
     8
 71
     3
 72
     8
 73
     4
 74
     0
 42
0.000000001
 43
0.00000001
 40
0.0
 40
0.0
 40
0.0
 40
0.0
 40
1.0
 40
1.0
 40
1.0
 40
1.0
 10
164.3235276394573
 20
157.7650632594931
 30
0.0
 10
164.0677513287019
 20
157.3050849042283
 30
0.0
 10
163.8121879305959
 20
156.8449904439205
 30
0.0
 10
163.5568566172909
 20
156.3847694236555
 30
0.0
  0
SPLINE
  5
B5
330
1F
100
AcDbEntity
  8
0
  6
Continuous
 62
     7
370
    15
100
AcDbSpline
210
0.0
220
0.0
230
1.0
 70
     8
 71
     3
 72
     8
 73
     4
 74
     0
 42
0.000000001
 43
0.00000001
 40
0.0
 40
0.0
 40
0.0
 40
0.0
 40
0.0012352705496738
 40
0.0012352705496738
 40
0.0012352705496738
 40
0.0012352705496738
 10
164.8800181247528
 20
158.5448746696012
 30
0.0
 10
164.6940696994307
 20
158.2850989138496
 30
0.0
 10
164.5085628902596
 20
158.0251648352223
 30
0.0
 10
164.3235276394575
 20
157.7650632594936
 30
0.0
  0
LINE
  5
B6
330
1F
100
AcDbEntity
  8
0
  6
Continuous
 62
     7
370
    15
100
AcDbLine
 10
164.8800181427
 20
150.2761088196
 30
0.0
 11
164.8800181427
 21
158.5448749247
 31
0.0
  0
SPLINE
  5
B7
330
1F
100
AcDbEntity
  8
0
  6
Continuous
 62
     7
370
    15
100
AcDbSpline
210
0.0
220
0.0
230
1.0
 70
     8
 71
     3
 72
     8
 73
     4
 74
     0
 42
0.000000001
 43
0.00000001
 40
0.0
 40
0.0
 40
0.0
 40
0.0
 40
1.0
 40
1.0
 40
1.0
 40
1.0
 10
163.5568566172909
 20
147.3321657571353
 30
0.0
 10
163.9918030389293
 20
148.3156700755177
 30
0.0
 10
164.4331693968251
 20
149.2968720682446
 30
0.0
 10
164.8800181247528
 20
150.2761079665009
 30
0.0
  0
LINE
  5
B8
330
1F
100
AcDbEntity
  8
0
  6
Continuous
 62
     7
370
    15
100
AcDbLine
 10
163.556856496
 20
147.3321646336
 30
0.0
 11
163.556856496
 21
156.3847690705
 31
0.0
  0
LINE
  5
B9
330
1F
100
AcDbEntity
  8
0
  6
Continuous
 62
     7
370
    15
100
AcDbLine
 10
162.7568569237
 20
155.4127961281
 30
0.0
 11
160.5368567833
 21
155.4127961281
 31
0.0
  0
LINE
  5
BA
330
1F
100
AcDbEntity
  8
0
  6
Continuous
 62
     7
370
    15
100
AcDbLine
 10
160.5368567833
 20
146.1049124482
 30
0.0
 11
162.7568569237
 21
146.1049124482
 31
0.0
  0
SPLINE
  5
BB
330
1F
100
AcDbEntity
  8
0
  6
Continuous
 62
     7
370
    15
100
AcDbSpline
210
0.0
220
0.0
230
1.0
 70
     8
 71
     3
 72
    10
 73
     6
 74
     0
 42
0.000000001
 43
0.00000001
 40
0.0
 40
0.0
 40
0.0
 40
0.0
 40
0.5
 40
0.5
 40
1.0
 40
1.0
 40
1.0
 40
1.0
 10
154.0367255362372
 20
158.4751943405485
 30
0.0
 10
153.9602724463184
 20
158.4049315693279
 30
0.0
 10
153.8914107240493
 20
158.3178366542861
 30
0.0
 10
153.7848984929764
 20
158.1086675260339
 30
0.0
 10
153.7468566172908
 20
157.9833499767943
 30
0.0
 10
153.7468566172908
 20
157.8539996821984
 30
0.0
  0
SPLINE
  5
BC
330
1F
100
AcDbEntity
  8
0
  6
Continuous
 62
     7
370
    15
100
AcDbSpline
210
0.0
220
0.0
230
1.0
 70
     8
 71
     3
 72
     8
 73
     4
 74
     0
 42
0.000000001
 43
0.00000001
 40
0.0
 40
0.0
 40
0.0
 40
0.0
 40
1.0
 40
1.0
 40
1.0
 40
1.0
 10
154.3468566172909
 20
158.5448746696012
 30
0.0
 10
154.2357784319534
 20
158.5448746696012
 30
0.0
 10
154.1281144280512
 20
158.5197254940467
 30
0.0
 10
154.0367255362372
 20
158.4751943405485
 30
0.0
  0
SPLINE
  5
BD
330
1F
100
AcDbEntity
  8
0
  6
Continuous
 62
     7
370
    15
100
AcDbSpline
210
0.0
220
0.0
230
1.0
 70
     8
 71
     3
 72
    12
 73
     8
 74
     0
 42
0.000000001
 43
0.00000001
 40
0.0
 40
0.0
 40
0.0
 40
0.0
 40
0.5000000000000003
 40
0.5000000000000003
 40
0.7500000000000001
 40
0.7500000000000001
 40
1.0
 40
1.0
 40
1.0
 40
1.0
 10
153.7468566172909
 20
149.5141111294701
 30
0.0
 10
153.7468566172909
 20
149.6924713967094
 30
0.0
 10
153.7941687386669
 20
149.8712438084133
 30
0.0
 10
153.9485288165482
 20
150.0930056737651
 30
0.0
 10
154.0134143514672
 20
150.1572977123815
 30
0.0
 10
154.1686470506955
 20
150.2499421965411
 30
0.0
 10
154.2577224633638
 20
150.2761079665009
 30
0.0
 10
154.3468566172909
 20
150.2761079665009
 30
0.0
  0
LINE
  5
BE
330
1F
100
AcDbEntity
  8
0
  6
Continuous
 62
     7
370
    15
100
AcDbLine
 10
153.7468565365
 20
149.5141118649
 30
0.0
 11
153.7468565365
 21
157.8540012124
 31
0.0
  0
SPLINE
  5
BF
330
1F
100
AcDbEntity
  8
0
  6
Continuous
 62
     7
370
    15
100
AcDbSpline
210
0.0
220
0.0
230
1.0
 70
     8
 71
     3
 72
    12
 73
     8
 74
     0
 42
0.000000001
 43
0.00000001
 40
0.0
 40
0.0
 40
0.0
 40
0.0
 40
0.2500000000000007
 40
0.2500000000000007
 40
0.5000000000000014
 40
0.5000000000000014
 40
1.0
 40
1.0
 40
1.0
 40
1.0
 10
160.5368566172909
 20
155.4127962806955
 30
0.0
 10
160.4305116374149
 20
155.4127962806955
 30
0.0
 10
160.3232352900123
 20
155.435511518555
 30
0.0
 10
160.1278595006162
 20
155.5215366854374
 30
0.0
 10
160.0393057645393
 20
155.5845154123657
 30
0.0
 10
159.818047840408
 20
155.8197069228028
 30
0.0
 10
159.7368566172909
 20
156.0328831372881
 30
0.0
 10
159.7368566172909
 20
156.2461215032322
 30
0.0
  0
SPLINE
  5
C0
330
1F
100
AcDbEntity
  8
0
  6
Continuous
 62
     7
370
    15
100
AcDbSpline
210
0.0
220
0.0
230
1.0
 70
     8
 71
     3
 72
    12
 73
     8
 74
     0
 42
0.000000001
 43
0.00000001
 40
0.0
 40
0.0
 40
0.0
 40
0.0
 40
0.499999999999994
 40
0.499999999999994
 40
0.749999999999997
 40
0.749999999999997
 40
1.0
 40
1.0
 40
1.0
 40
1.0
 10
159.7368566172909
 20
147.1580731165427
 30
0.0
 10
159.7368566172909
 20
146.915650020562
 30
0.0
 10
159.7997777587327
 20
146.6698794999606
 30
0.0
 10
160.0018066557352
 20
146.3649333205437
 30
0.0
 10
160.0881003803824
 20
146.2743404539453
 30
0.0
 10
160.2935741749491
 20
146.1439068910085
 30
0.0
 10
160.4135247355488
 20
146.1049120763588
 30
0.0
 10
160.5368566172909
 20
146.1049120763587
 30
0.0
  0
LINE
  5
C1
330
1F
100
AcDbEntity
  8
0
  6
Continuous
 62
     7
370
    15
100
AcDbLine
 10
154.3468566814
 20
150.2761088196
 30
0.0
 11
158.4136955642
 21
150.2761088196
 31
0.0
  0
SPLINE
  5
C2
330
1F
100
AcDbEntity
  8
0
  6
Continuous
 62
     7
370
    15
100
AcDbSpline
210
0.0
220
0.0
230
1.0
 70
     8
 71
     3
 72
     8
 73
     4
 74
     0
 42
0.000000001
 43
0.00000001
 40
0.0
 40
0.0
 40
0.0
 40
0.0
 40
1.0
 40
1.0
 40
1.0
 40
1.0
 10
158.413695109829
 20
150.2761079665008
 30
0.0
 10
158.8605438377567
 20
149.2968720682446
 30
0.0
 10
159.3019101956525
 20
148.3156700755177
 30
0.0
 10
159.7368566172909
 20
147.3321657571353
 30
0.0
  0
LINE
  5
C3
330
1F
100
AcDbEntity
  8
0
  6
Continuous
 62
     7
370
    15
100
AcDbLine
 10
159.7368562796
 20
147.3321646336
 30
0.0
 11
159.7368562796
 21
147.1580743674
 31
0.0
  0
SPLINE
  5
C4
330
1F
100
AcDbEntity
  8
0
  6
Continuous
 62
     7
370
    15
100
AcDbSpline
210
0.0
220
0.0
230
1.0
 70
     8
 71
     3
 72
    14
 73
    10
 74
     0
 42
0.000000001
 43
0.00000001
 40
0.0
 40
0.0
 40
0.0
 40
0.0
 40
0.25
 40
0.25
 40
0.5
 40
0.5
 40
0.75
 40
0.75
 40
1.0
 40
1.0
 40
1.0
 40
1.0
 10
162.7568566172909
 20
146.1049120763587
 30
0.0
 10
162.8781831472766
 20
146.1049120763587
 30
0.0
 10
162.9998878558389
 20
146.1436935917919
 30
0.0
 10
163.206327734725
 20
146.2748482134858
 30
0.0
 10
163.292278273181
 20
146.365500298073
 30
0.0
 10
163.4261900329293
 20
146.5676173330142
 30
0.0
 10
163.4757544697485
 20
146.6813522765534
 30
0.0
 10
163.5406084977164
 20
146.9143118936199
 30
0.0
 10
163.5568566172909
 20
147.0370101599491
 30
0.0
 10
163.5568566172909
 20
147.1580731165427
 30
0.0
  0
LINE
  5
C5
330
1F
100
AcDbEntity
  8
0
  6
Continuous
 62
     7
370
    15
100
AcDbLine
 10
164.8800181427
 20
150.2761088196
 30
0.0
 11
168.9968560093
 21
150.2761088196
 31
0.0
  0
SPLINE
  5
C6
330
1F
100
AcDbEntity
  8
0
  6
Continuous
 62
     7
370
    15
100
AcDbSpline
210
0.0
220
0.0
230
1.0
 70
     8
 71
     3
 72
    12
 73
     8
 74
     0
 42
0.000000001
 43
0.00000001
 40
0.0
 40
0.0
 40
0.0
 40
0.0
 40
0.2499999999999946
 40
0.2499999999999946
 40
0.4999999999999892
 40
0.4999999999999892
 40
1.0
 40
1.0
 40
1.0
 40
1.0
 10
168.9968566172914
 20
150.2761079665009
 30
0.0
 10
169.0863936754625
 20
150.2761079665008
 30
0.0
 10
169.1762928542511
 20
150.2492806676698
 30
0.0
 10
169.3297177132504
 20
150.1575737024103
 30
0.0
 10
169.3947667706281
 20
150.0933187608114
 30
0.0
 10
169.5480860018924
 20
149.8739066147499
 30
0.0
 10
169.5968566172909
 20
149.692091304953
 30
0.0
 10
169.5968566172909
 20
149.5141111294701
 30
0.0
  0
LINE
  5
C7
330
1F
100
AcDbEntity
  8
0
  6
Continuous
 62
     7
370
    15
100
AcDbLine
 10
163.556856496
 20
147.1580743674
 30
0.0
 11
163.556856496
 21
147.3321646336
 31
0.0
  0
LINE
  5
C8
330
1F
100
AcDbEntity
  8
0
  6
Continuous
 62
     7
370
    15
100
AcDbLine
 10
169.5968568527
 20
149.5141118649
 30
0.0
 11
169.5968568527
 21
141.6150305304
 31
0.0
  0
LINE
  5
C9
330
1F
100
AcDbEntity
  8
0
  6
Continuous
 62
     7
370
    15
100
AcDbLine
 10
153.7468565365
 20
149.5141118649
 30
0.0
 11
153.7468565365
 21
141.6150305304
 31
0.0
  0
LINE
  5
CA
330
1F
100
AcDbEntity
  8
0
  6
Continuous
 62
     7
370
    15
100
AcDbLine
 10
168.9968560093
 20
158.5448749247
 30
0.0
 11
164.8800181427
 21
158.5448749247
 31
0.0
  0
SPLINE
  5
CB
330
1F
100
AcDbEntity
  8
0
  6
Continuous
 62
     7
370
    15
100
AcDbSpline
210
0.0
220
0.0
230
1.0
 70
     8
 71
     3
 72
    14
 73
    10
 74
     0
 42
0.000000001
 43
0.00000001
 40
0.0
 40
0.0
 40
0.0
 40
0.0
 40
0.25
 40
0.25
 40
0.5
 40
0.5
 40
0.75
 40
0.75
 40
1.0
 40
1.0
 40
1.0
 40
1.0
 10
163.5568566172909
 20
156.2461215032323
 30
0.0
 10
163.5568566172909
 20
156.1387791310848
 30
0.0
 10
163.5368604252267
 20
156.032150124237
 30
0.0
 10
163.459162340882
 20
155.8329983450859
 30
0.0
 10
163.4011691959885
 20
155.7405154467704
 30
0.0
 10
163.2551227031656
 20
155.5852796116612
 30
0.0
 10
163.1657849639979
 20
155.5215456700488
 30
0.0
 10
162.9710299519375
 20
155.4357154036536
 30
0.0
 10
162.8634996807286
 20
155.4127962806952
 30
0.0
 10
162.7568566172888
 20
155.4127962806955
 30
0.0
  0
SPLINE
  5
CC
330
1F
100
AcDbEntity
  8
0
  6
Continuous
 62
     7
370
    15
100
AcDbSpline
210
0.0
220
0.0
230
1.0
 70
     8
 71
     3
 72
     8
 73
     4
 74
     0
 42
0.000000001
 43
0.00000001
 40
0.0
 40
0.0
 40
0.0
 40
0.0
 40
0.0012352705496723
 40
0.0012352705496723
 40
0.0012352705496723
 40
0.0012352705496723
 10
158.9701855951235
 20
157.7650632594948
 30
0.0
 10
158.7851503443216
 20
158.0251648352231
 30
0.0
 10
158.5996435351508
 20
158.28509891385
 30
0.0
 10
158.413695109829
 20
158.5448746696012
 30
0.0
  0
SPLINE
  5
CD
330
1F
100
AcDbEntity
  8
0
  6
Continuous
 62
     7
370
    15
100
AcDbSpline
210
0.0
220
0.0
230
1.0
 70
     8
 71
     3
 72
     8
 73
     4
 74
     0
 42
0.000000001
 43
0.00000001
 40
0.0
 40
0.0
 40
0.0
 40
0.0
 40
1.0
 40
1.0
 40
1.0
 40
1.0
 10
159.7368566172909
 20
156.3847694236555
 30
0.0
 10
159.4815253039855
 20
156.8449904439211
 30
0.0
 10
159.2259619058793
 20
157.3050849042295
 30
0.0
 10
158.9701855951235
 20
157.7650632594948
 30
0.0
  0
LINE
  5
CE
330
1F
100
AcDbEntity
  8
0
  6
Continuous
 62
     7
370
    15
100
AcDbLine
 10
158.4136955642
 20
150.2761088196
 30
0.0
 11
158.4136955642
 21
158.5448749247
 31
0.0
  0
LINE
  5
CF
330
1F
100
AcDbEntity
  8
0
  6
Continuous
 62
     7
370
    15
100
AcDbLine
 10
159.7368562796
 20
147.3321646336
 30
0.0
 11
159.7368562796
 21
156.3847690705
 31
0.0
  0
SPLINE
  5
D0
330
1F
100
AcDbEntity
  8
0
  6
Continuous
 62
     7
370
    15
100
AcDbSpline
210
0.0
220
0.0
230
1.0
 70
     8
 71
     3
 72
    12
 73
     8
 74
     0
 42
0.000000001
 43
0.00000001
 40
0.0
 40
0.0
 40
0.0
 40
0.0
 40
0.4999999999999982
 40
0.4999999999999982
 40
0.7499999999999991
 40
0.7499999999999991
 40
1.0
 40
1.0
 40
1.0
 40
1.0
 10
169.5968566172909
 20
158.0600169680562
 30
0.0
 10
169.5968566172909
 20
158.1802095747213
 30
0.0
 10
169.5428881870218
 20
158.2981168752363
 30
0.0
 10
169.381801546089
 20
158.4374964197197
 30
0.0
 10
169.3170391266158
 20
158.4756617172836
 30
0.0
 10
169.1649851250513
 20
158.5303139796171
 30
0.0
 10
169.0822553519021
 20
158.5448746696012
 30
0.0
 10
168.9968566172909
 20
158.5448746696012
 30
0.0
  0
LINE
  5
D1
330
1F
100
AcDbEntity
  8
0
  6
Continuous
 62
     7
370
    15
100
AcDbLine
 10
169.5968568527
 20
149.5141118649
 30
0.0
 11
169.5968568527
 21
158.0600172165
 31
0.0
  0
LINE
  5
D2
330
1F
100
AcDbEntity
  8
0
  6
Continuous
 62
     7
370
    15
100
AcDbLine
 10
158.4136955642
 20
158.5448749247
 30
0.0
 11
154.3468566814
 21
158.5448749247
 31
0.0
  0
LINE
  5
D3
330
1F
100
AcDbEntity
  8
0
  6
Continuous
 62
     7
370
    15
100
AcDbLine
 10
48.9468578451
 20
93.3861855301
 30
0.0
 11
48.9468578451
 21
130.1438744995
 31
0.0
  0
LINE
  5
D4
330
1F
100
AcDbEntity
  8
0
  6
Continuous
 62
     7
370
    15
100
AcDbLine
 10
250.5468581074
 20
111.7650300148
 30
0.0
 11
250.5468581074
 21
92.1650297824
 31
0.0
  0
LINE
  5
D5
330
1F
100
AcDbEntity
  8
0
  6
Continuous
 62
     7
370
    15
100
AcDbLine
 10
250.5468581074
 20
131.3650302473
 30
0.0
 11
250.5468581074
 21
111.7650300148
 31
0.0
  0
LINE
  5
D6
330
1F
100
AcDbEntity
  8
0
  6
Continuous
 62
     7
370
    15
100
AcDbLine
 10
250.1468587869
 20
111.7650300148
 30
0.0
 11
250.1468587869
 21
91.7650304619
 31
0.0
  0
LINE
  5
D7
330
1F
100
AcDbEntity
  8
0
  6
Continuous
 62
     7
370
    15
100
AcDbLine
 10
250.1468587869
 20
131.7650295678
 30
0.0
 11
250.1468587869
 21
111.7650300148
 31
0.0
  0
SPLINE
  5
D8
330
1F
100
AcDbEntity
  8
0
  6
Continuous
 62
     7
370
    15
100
AcDbSpline
210
0.0
220
0.0
230
1.0
 70
     8
 71
     3
 72
    17
 73
    13
 74
     0
 42
0.000000001
 43
0.00000001
 40
0.0
 40
0.0
 40
0.0
 40
0.0
 40
0.0533981003562206
 40
0.1390047628192991
 40
0.2298814394915863
 40
0.3323881294413286
 40
0.4472048343252532
 40
0.5689111870680083
 40
0.6920174307789293
 40
0.8133229555862695
 40
0.9251084487431942
 40
1.0
 40
1.0
 40
1.0
 40
1.0
 10
244.4284040683102
 20
131.7493237438925
 30
0.0
 10
244.4362588995256
 20
131.7510771544897
 30
0.0
 10
244.4567064237407
 20
131.7556415944708
 30
0.0
 10
243.8997978935706
 20
131.6296766690364
 30
0.0
 10
242.8816151064177
 20
131.4289813171783
 30
0.0
 10
241.3584366942831
 20
131.198602358996
 30
0.0
 10
239.4168950193924
 20
131.0402238614026
 30
0.0
 10
237.2548312408719
 20
131.0522126593672
 30
0.0
 10
235.1835558021424
 20
131.2515566271173
 30
0.0
 10
233.5631438669572
 20
131.5280096685672
 30
0.0
 10
232.6109065470858
 20
131.7382663544148
 30
0.0
 10
232.5675736778104
 20
131.7486835669744
 30
0.0
 10
232.5501892917942
 20
131.7528627696761
 30
0.0
  0
SPLINE
  5
D9
330
1F
100
AcDbEntity
  8
0
  6
Continuous
 62
     7
370
    15
100
AcDbSpline
210
0.0
220
0.0
230
1.0
 70
    11
 71
     3
 72
    85
 73
    81
 74
     0
 42
0.000000001
 43
0.00000001
 40
0.0
 40
0.0
 40
0.0
 40
0.0
 40
0.0312500000000005
 40
0.0312500000000005
 40
0.062500000000001
 40
0.062500000000001
 40
0.0937500000000015
 40
0.0937500000000015
 40
0.1250000000000019
 40
0.1250000000000019
 40
0.1562500000000024
 40
0.1562500000000024
 40
0.1718750000000026
 40
0.1718750000000026
 40
0.1875000000000029
 40
0.1875000000000029
 40
0.2187500000000033
 40
0.2187500000000033
 40
0.234375000000003
 40
0.234375000000003
 40
0.2500000000000027
 40
0.2500000000000027
 40
0.2812500000000031
 40
0.2812500000000031
 40
0.2968750000000032
 40
0.2968750000000032
 40
0.3125000000000033
 40
0.3125000000000033
 40
0.3437500000000037
 40
0.3437500000000037
 40
0.3593750000000037
 40
0.3593750000000037
 40
0.3750000000000037
 40
0.3906250000000037
 40
0.3906250000000037
 40
0.4062500000000038
 40
0.4062500000000038
 40
0.437500000000004
 40
0.437500000000004
 40
0.4531250000000039
 40
0.4531250000000039
 40
0.4687500000000037
 40
0.4687500000000037
 40
0.5000000000000034
 40
0.5000000000000034
 40
0.5312500000000032
 40
0.5312500000000032
 40
0.562500000000003
 40
0.562500000000003
 40
0.5937500000000027
 40
0.5937500000000027
 40
0.6250000000000023
 40
0.6250000000000023
 40
0.6562500000000021
 40
0.6562500000000021
 40
0.6875000000000018
 40
0.6875000000000018
 40
0.7187500000000016
 40
0.7187500000000016
 40
0.7500000000000012
 40
0.7500000000000012
 40
0.7812500000000009
 40
0.7812500000000009
 40
0.8125000000000007
 40
0.8125000000000007
 40
0.8281250000000006
 40
0.8281250000000006
 40
0.8437500000000004
 40
0.8437500000000004
 40
0.8750000000000001
 40
0.8750000000000001
 40
0.8906250000000001
 40
0.8906250000000001
 40
0.90625
 40
0.90625
 40
0.9375
 40
0.9375
 40
0.96875
 40
0.96875
 40
1.0
 40
1.0
 40
1.0
 40
1.0
 10
234.4904886623951
 20
115.6927613457073
 30
0.0
 10
234.781278188978
 20
115.923390287352
 30
0.0
 10
235.0892061206598
 20
116.1231467438038
 30
0.0
 10
235.7364996475046
 20
116.4670629028837
 30
0.0
 10
236.0779520428006
 20
116.6118100583941
 30
0.0
 10
236.7841080325287
 20
116.8419649531984
 30
0.0
 10
237.1431086397985
 20
116.9259129989357
 30
0.0
 10
237.872525000189
 20
117.0344161606293
 30
0.0
 10
238.246222807567
 20
117.0588103431193
 30
0.0
 10
238.9889883798039
 20
117.0454970556716
 30
0.0
 10
239.3557336865129
 20
117.008456950976
 30
0.0
 10
239.8990251128707
 20
116.9079655573087
 30
0.0
 10
240.078978002842
 20
116.8669339401207
 30
0.0
 10
240.4365344619958
 20
116.7693246732145
 30
0.0
 10
240.6146563823379
 20
116.712484660614
 30
0.0
 10
241.1352569781871
 20
116.5213858951575
 30
0.0
 10
241.4672305457645
 20
116.366091816665
 30
0.0
 10
241.9423947637977
 20
116.0903309770933
 30
0.0
 10
242.0969588375951
 20
115.991226508405
 30
0.0
 10
242.3980721178144
 20
115.7778213083395
 30
0.0
 10
242.5448683131025
 20
115.6631704285374
 30
0.0
 10
242.9629404109712
 20
115.303189701522
 30
0.0
 10
243.2155348155702
 20
115.0398420910811
 30
0.0
 10
243.5531569397077
 20
114.6072770639155
 30
0.0
 10
243.6587686338908
 20
114.4567858064104
 30
0.0
 10
243.8550241985025
 20
114.1420862350756
 30
0.0
 10
243.9450069671276
 20
113.9786385682087
 30
0.0
 10
244.18413935306
 20
113.4806224094815
 30
0.0
 10
244.3054042547397
 20
113.13450374099
 30
0.0
 10
244.4259512325156
 20
112.5924541351378
 30
0.0
 10
244.4559016034852
 20
112.4064420316311
 30
0.0
 10
244.492664431123
 20
112.0357390405327
 30
0.0
 10
244.5068433013708
 20
111.6657686093011
 30
0.0
 10
244.4768363004418
 20
111.2972321290167
 30
0.0
 10
244.424512266844
 20
110.9294191666074
 30
0.0
 10
244.3868121582082
 20
110.7448353543664
 30
0.0
 10
244.2430619632837
 20
110.2059088951391
 30
0.0
 10
244.1067242510996
 20
109.8627563400857
 30
0.0
 10
243.8450613935497
 20
109.3705791500995
 30
0.0
 10
243.7483611149799
 20
109.2108305648624
 30
0.0
 10
243.5406803211578
 20
108.9054976737737
 30
0.0
 10
243.4292337368392
 20
108.758999623771
 30
0.0
 10
243.0730920132697
 20
108.3370488049166
 30
0.0
 10
242.8039705469664
 20
108.0771597485119
 30
0.0
 10
242.2279754230105
 20
107.6177171230742
 30
0.0
 10
241.9203409437966
 20
107.4163257374097
 30
0.0
 10
241.2671214281812
 20
107.0673001940365
 30
0.0
 10
240.9237828841906
 20
106.9215578377859
 30
0.0
 10
240.2234200439712
 20
106.691925593239
 30
0.0
 10
239.86376764976
 20
106.6065967915527
 30
0.0
 10
239.1250595696045
 20
106.4957392397823
 30
0.0
 10
238.7544256540939
 20
106.4716405306372
 30
0.0
 10
238.0163577479595
 20
106.4838521151671
 30
0.0
 10
237.6478916432478
 20
106.5200321275038
 30
0.0
 10
236.9126740486793
 20
106.6555019313474
 30
0.0
 10
236.5565003796518
 20
106.7528223909351
 30
0.0
 10
235.8663008893007
 20
107.0054191596094
 30
0.0
 10
235.5316105569372
 20
107.161029171991
 30
0.0
 10
234.8887183102726
 20
107.5340569542392
 30
0.0
 10
234.5893773443053
 20
107.7461885809264
 30
0.0
 10
234.0350960482962
 20
108.2228464855884
 30
0.0
 10
233.7787004974177
 20
108.4890913630417
 30
0.0
 10
233.3224701475777
 20
109.0745389310757
 30
0.0
 10
233.1283706010706
 20
109.3857251512762
 30
0.0
 10
232.890114785105
 20
109.8815978346685
 30
0.0
 10
232.8195786182997
 20
110.0517732063667
 30
0.0
 10
232.6975354921573
 20
110.402639434986
 30
0.0
 10
232.6460600510141
 20
110.5840080576013
 30
0.0
 10
232.5261511558589
 20
111.127868822375
 30
0.0
 10
232.4897268647878
 20
111.4952262854992
 30
0.0
 10
232.5021282041888
 20
112.0536498713799
 30
0.0
 10
232.5177965090923
 20
112.241960397996
 30
0.0
 10
232.5710155784624
 20
112.6105866331821
 30
0.0
 10
232.608481318544
 20
112.7920692378441
 30
0.0
 10
232.7522751126997
 20
113.3283518608122
 30
0.0
 10
232.8921790562483
 20
113.6787906870785
 30
0.0
 10
233.2411966930873
 20
114.3317764318729
 30
0.0
 10
233.4497679023463
 20
114.6363518303684
 30
0.0
 10
233.9314320555422
 20
115.2045823698853
 30
0.0
 10
234.1996991358121
 20
115.4621324040626
 30
0.0
 10
234.4904886623951
 20
115.6927613457073
 30
0.0
  0
LINE
  5
DA
330
1F
100
AcDbEntity
  8
0
  6
Continuous
 62
     7
370
    15
100
AcDbLine
 10
234.1968570107
 20
131.7650295678
 30
0.0
 11
242.7968535775
 21
131.7650295678
 31
0.0
  0
SPLINE
  5
DB
330
1F
100
AcDbEntity
  8
0
  6
Continuous
 62
     7
370
    15
100
AcDbSpline
210
0.0
220
0.0
230
1.0
 70
     8
 71
     3
 72
    10
 73
     6
 74
     0
 42
0.000000001
 43
0.00000001
 40
0.0
 40
0.0
 40
0.0
 40
0.0
 40
0.4391250832432787
 40
0.7513734423963604
 40
1.0
 40
1.0
 40
1.0
 40
1.0
 10
239.5901013367962
 20
109.0932993102201
 30
0.0
 10
239.8430896451973
 20
109.4200848065115
 30
0.0
 10
240.2759701692735
 20
109.9792374321374
 30
0.0
 10
240.9052299490512
 20
110.7920550595821
 30
0.0
 10
241.2184306252579
 20
111.1966110110509
 30
0.0
 10
241.3572672956776
 20
111.3759439613518
 30
0.0
  0
SPLINE
  5
DC
330
1F
100
AcDbEntity
  8
0
  6
Continuous
 62
     7
370
    15
100
AcDbSpline
210
0.0
220
0.0
230
1.0
 70
     8
 71
     3
 72
    11
 73
     7
 74
     0
 42
0.000000001
 43
0.00000001
 40
0.0
 40
0.0
 40
0.0
 40
0.0
 40
0.1849299580237556
 40
0.5198463704016207
 40
0.8714435492748492
 40
0.9999999999999999
 40
0.9999999999999999
 40
0.9999999999999999
 40
0.9999999999999999
 10
240.2640212529492
 20
114.0476746368536
 30
0.0
 10
240.0975320929593
 20
114.0703214376238
 30
0.0
 10
239.6295236293396
 20
114.1339826059246
 30
0.0
 10
238.7558964940251
 20
114.2528161552117
 30
0.0
 10
237.9490651313698
 20
114.3625656643462
 30
0.0
 10
237.5188067389949
 20
114.4210911038763
 30
0.0
 10
237.4036092513394
 20
114.4367607194313
 30
0.0
  0
SPLINE
  5
DD
330
1F
100
AcDbEntity
  8
0
  6
Continuous
 62
     7
370
    15
100
AcDbSpline
210
0.0
220
0.0
230
1.0
 70
     8
 71
     3
 72
    10
 73
     6
 74
     0
 42
0.000000001
 43
0.00000001
 40
0.0
 40
0.0
 40
0.0
 40
0.0
 40
0.4391250832432787
 40
0.7513734423963604
 40
1.0
 40
1.0
 40
1.0
 40
1.0
 10
237.4036092513394
 20
114.4367607194313
 30
0.0
 10
237.1506209429383
 20
114.1099752231399
 30
0.0
 10
236.717740418862
 20
113.550822597514
 30
0.0
 10
236.0884806390844
 20
112.7380049700693
 30
0.0
 10
235.7752799628777
 20
112.3334490186005
 30
0.0
 10
235.636443292458
 20
112.1541160682996
 30
0.0
  0
SPLINE
  5
DE
330
1F
100
AcDbEntity
  8
0
  6
Continuous
 62
     7
370
    15
100
AcDbSpline
210
0.0
220
0.0
230
1.0
 70
     8
 71
     3
 72
    11
 73
     7
 74
     0
 42
0.000000001
 43
0.00000001
 40
0.0
 40
0.0
 40
0.0
 40
0.0
 40
0.1285544989921397
 40
0.4801524650411254
 40
0.8150696375480608
 40
1.0
 40
1.0
 40
1.0
 40
1.0
 10
236.729696785767
 20
109.4823853927978
 30
0.0
 10
236.8448917532656
 20
109.4667157295277
 30
0.0
 10
237.2751462215138
 20
109.408189365188
 30
0.0
 10
238.0819770324832
 20
109.2984411988847
 30
0.0
 10
238.9556036235079
 20
109.1796068621951
 30
0.0
 10
239.4236121598166
 20
109.1159460006565
 30
0.0
 10
239.5901013367962
 20
109.0932993102201
 30
0.0
  0
CIRCLE
  5
DF
330
1F
100
AcDbEntity
  8
0
  6
Continuous
 62
     7
370
    15
100
AcDbCircle
 10
238.4968566173
 20
111.7650300148
 30
0.0
 40
2.999999999999998
  0
SPLINE
  5
E0
330
1F
100
AcDbEntity
  8
0
  6
Continuous
 62
     7
370
    15
100
AcDbSpline
210
0.0
220
0.0
230
1.0
 70
     8
 71
     3
 72
    10
 73
     6
 74
     0
 42
0.000000001
 43
0.00000001
 40
0.0
 40
0.0
 40
0.0
 40
0.0
 40
0.4391254905885994
 40
0.7513735727653122
 40
1.0
 40
1.0
 40
1.0
 40
1.0
 10
235.636443292458
 20
112.1541160682996
 30
0.0
 10
235.7929548747388
 20
111.7716288878637
 30
0.0
 10
236.0607568340373
 20
111.1171673148954
 30
0.0
 10
236.4500402455245
 20
110.1658002153232
 30
0.0
 10
236.6438043509276
 20
109.6922863057575
 30
0.0
 10
236.729696785767
 20
109.4823853927978
 30
0.0
  0
SPLINE
  5
E1
330
1F
100
AcDbEntity
  8
0
  6
Continuous
 62
     7
370
    15
100
AcDbSpline
210
0.0
220
0.0
230
1.0
 70
     8
 71
     3
 72
    10
 73
     6
 74
     0
 42
0.000000001
 43
0.00000001
 40
0.0
 40
0.0
 40
0.0
 40
0.0
 40
0.439125873978652
 40
0.751374228771761
 40
1.0
 40
1.0
 40
1.0
 40
1.0
 10
241.3572672956776
 20
111.3759439613518
 30
0.0
 10
241.2007560469652
 20
111.7584312520747
 30
0.0
 10
240.9329546584252
 20
112.4128930137513
 30
0.0
 10
240.54366844715
 20
113.3642582446496
 30
0.0
 10
240.3499107009482
 20
113.8377735261072
 30
0.0
 10
240.2640212529492
 20
114.0476746368536
 30
0.0
  0
CIRCLE
  5
E2
330
1F
100
AcDbEntity
  8
0
  6
Continuous
 62
     7
370
    15
100
AcDbCircle
 10
238.4968566173
 20
111.7650300148
 30
0.0
 40
4.300000000000006
  0
CIRCLE
  5
E3
330
1F
100
AcDbEntity
  8
0
  6
Continuous
 62
     7
370
    15
100
AcDbCircle
 10
238.4968566173
 20
111.7650300148
 30
0.0
 40
5.000000000000004
  0
ARC
  5
E4
330
1F
100
AcDbEntity
  8
0
  6
Continuous
 62
     7
370
    15
100
AcDbCircle
 10
238.4968566173
 20
111.7650300148
 30
0.0
 40
2.500000000000008
100
AcDbArc
 50
262.2539072209
 51
322.2539072209
  0
ARC
  5
E5
330
1F
100
AcDbEntity
  8
0
  6
Continuous
 62
     7
370
    15
100
AcDbCircle
 10
238.4968566173
 20
111.7650300148
 30
0.0
 40
2.499999999999995
100
AcDbArc
 50
202.2539072209
 51
262.2539072209
  0
ARC
  5
E6
330
1F
100
AcDbEntity
  8
0
  6
Continuous
 62
     7
370
    15
100
AcDbCircle
 10
238.4968566173
 20
111.7650300148
 30
0.0
 40
2.499999999999993
100
AcDbArc
 50
82.2539072209
 51
142.2539072209
  0
ARC
  5
E7
330
1F
100
AcDbEntity
  8
0
  6
Continuous
 62
     7
370
    15
100
AcDbCircle
 10
238.4968566173
 20
111.7650300148
 30
0.0
 40
2.500000000000016
100
AcDbArc
 50
322.2539072209
 51
22.2539072209
  0
ARC
  5
E8
330
1F
100
AcDbEntity
  8
0
  6
Continuous
 62
     7
370
    15
100
AcDbCircle
 10
238.4968566173
 20
111.7650300148
 30
0.0
 40
2.499999999999995
100
AcDbArc
 50
142.2539072209
 51
202.2539072209
  0
ARC
  5
E9
330
1F
100
AcDbEntity
  8
0
  6
Continuous
 62
     7
370
    15
100
AcDbCircle
 10
238.4968566173
 20
111.7650300148
 30
0.0
 40
2.500000000000016
100
AcDbArc
 50
22.2539072209
 51
82.2539072209
  0
ARC
  5
EA
330
1F
100
AcDbEntity
  8
0
  6
Continuous
 62
     7
370
    15
100
AcDbCircle
 10
164.6127060866
 20
96.5761587722
 30
0.0
 40
2.369707250905896
100
AcDbArc
 50
185.6203299175
 51
252.2890843555
  0
ARC
  5
EB
330
1F
100
AcDbEntity
  8
0
  6
Continuous
 62
     7
370
    15
100
AcDbCircle
 10
164.7635644535
 20
96.6833223809
 30
0.0
 40
2.520135433679694
100
AcDbArc
 50
249.7622145608
 51
339.9433461867
  0
ARC
  5
EC
330
1F
100
AcDbEntity
  8
0
  6
Continuous
 62
     7
370
    15
100
AcDbCircle
 10
164.5758995628
 20
96.48118362
 30
0.0
 40
2.181508509228087
100
AcDbArc
 50
159.2705855476
 51
253.043952824
  0
ARC
  5
ED
330
1F
100
AcDbEntity
  8
0
  6
Continuous
 62
     7
370
    15
100
AcDbCircle
 10
164.7672714791
 20
96.6075858185
 30
0.0
 40
2.362754037440149
100
AcDbArc
 50
249.4966647357
 51
345.6659065292
  0
ARC
  5
EE
330
1F
100
AcDbEntity
  8
0
  6
Continuous
 62
     7
370
    15
100
AcDbCircle
 10
164.5995672744
 20
96.472620271
 30
0.0
 40
1.840243652810648
100
AcDbArc
 50
124.5206457109
 51
253.0417995104
  0
ARC
  5
EF
330
1F
100
AcDbEntity
  8
0
  6
Continuous
 62
     7
370
    15
100
AcDbCircle
 10
164.7743164827
 20
96.5536834227
 30
0.0
 40
1.973975128216943
100
AcDbArc
 50
248.8727554591
 51
357.8154877723
  0
LWPOLYLINE
  5
F0
330
1F
100
AcDbEntity
  8
0
  6
HIDDEN
 62
     7
370
     0
100
AcDbPolyline
 90
       21
 70
   128
 43
0.0
 10
164.7468567097
 20
95.9077134612
 10
165.5193990299
 20
96.0226926836
 10
166.2163198196
 20
96.3563762489
 10
166.7693987691
 20
96.8761008117
 10
167.1244971656
 20
97.530991945
 10
167.2468561881
 20
98.2569448534
 10
167.1244971656
 20
98.9828968305
 10
166.7693987691
 20
99.6377879638
 10
166.2163198196
 20
100.1575125265
 10
165.5193990299
 20
100.4911960918
 10
164.7468567097
 20
100.6061762455
 10
163.9743143895
 20
100.4911960918
 10
163.2773935997
 20
100.1575125265
 10
162.7243137189
 20
99.6377879638
 10
162.3692153224
 20
98.9828968305
 10
162.2468562999
 20
98.2569448534
 10
162.3692153224
 20
97.530991945
 10
162.7243137189
 20
96.8761008117
 10
163.2773935997
 20
96.3563762489
 10
163.9743143895
 20
96.0226926836
 10
164.7468567097
 20
95.9077134612
  0
LWPOLYLINE
  5
F1
330
1F
100
AcDbEntity
  8
0
  6
HIDDEN
 62
     7
370
     0
100
AcDbPolyline
 90
       23
 70
   128
 43
0.0
 10
154.0185875927
 20
97.8601697716
 10
154.2238955588
 20
97.0313951257
 10
154.546162972
 20
96.2697632495
 10
154.9592813679
 20
95.6369761261
 10
155.429782273
 20
95.1842993382
 10
155.9195485168
 20
94.9484046433
 10
156.3889024981
 20
94.9484046433
 10
156.7998197132
 20
95.1842993382
 10
157.1190100365
 20
95.6369761261
 10
157.3206143656
 20
96.2697632495
 10
157.388300562
 20
97.0313951257
 10
157.3165845328
 20
97.8601697716
 10
157.1112763339
 20
98.6889444175
 10
156.7890089207
 20
99.4505772251
 10
156.3758905248
 20
100.0833634171
 10
155.9053896197
 20
100.5360411364
 10
155.4156233759
 20
100.7719349
 10
154.9462693946
 20
100.7719349
 10
154.5353521795
 20
100.5360411364
 10
154.216162089
 20
100.0833634171
 10
154.0145575271
 20
99.4505772251
 10
153.9468715635
 20
98.6889444175
 10
154.0185875927
 20
97.8601697716
  0
LWPOLYLINE
  5
F2
330
1F
100
AcDbEntity
  8
0
  6
HIDDEN
 62
     7
370
     0
100
AcDbPolyline
 90
       19
 70
   128
 43
0.0
 10
154.7816194796
 20
97.9244319606
 10
154.9689387174
 20
97.2201453406
 10
155.2728898094
 20
96.6008065152
 10
155.656812174
 20
96.1411168683
 10
156.07439859
 20
95.8965208265
 10
156.4752822013
 20
95.8965208265
 10
156.8111110681
 20
96.1411168683
 10
157.0413782464
 20
96.6008065152
 10
157.1383107656
 20
97.2201453406
 10
157.0902172678
 20
97.9244319606
 10
156.9028980301
 20
98.6287176493
 10
156.5989464724
 20
99.2480564746
 10
156.2150245735
 20
99.7077470529
 10
155.7974376918
 20
99.9523421633
 10
155.3965540805
 20
99.9523421633
 10
155.0607256794
 20
99.7077470529
 10
154.8304580354
 20
99.2480564746
 10
154.7335255162
 20
98.6287176493
 10
154.7816194796
 20
97.9244319606
  0
ELLIPSE
  5
F3
330
1F
100
AcDbEntity
  8
0
  6
HIDDEN
 62
     7
370
     0
100
AcDbEllipse
 10
164.7468566173
 20
100.0345199035
 30
0.0
 11
1.760776919379026
 21
2.232245799914424
 31
0.0
210
0.0
220
0.0
230
1.0
 40
0.5126701559
 41
1.10088704764627
 42
4.029627027608348
  0
ARC
  5
F4
330
1F
100
AcDbEntity
  8
0
  6
HIDDEN
 62
     7
370
     0
100
AcDbCircle
 10
164.0502571487
 20
101.2120597846
 30
0.0
 40
0.794594954225782
100
AcDbArc
 50
53.4208190544
 51
99.1663888759
  0
ELLIPSE
  5
F5
330
1F
100
AcDbEntity
  8
0
  6
HIDDEN
 62
     7
370
     0
100
AcDbEllipse
 10
164.7468566173
 20
100.0345199035
 30
0.0
 11
1.760776919379026
 21
-1.388886188042918
 31
0.0
210
0.0
220
0.0
230
1.0
 40
0.8239737799
 41
2.549926265248561
 42
4.885930273856026
  0
ARC
  5
F6
330
1F
100
AcDbEntity
  8
0
  6
HIDDEN
 62
     7
370
     0
100
AcDbCircle
 10
164.9929093792
 20
99.1950423395
 30
0.0
 40
1.353195702694778
100
AcDbArc
 50
217.8001040701
 51
249.7155767561
  0
LWPOLYLINE
  5
F7
330
1F
100
AcDbEntity
  8
0
  6
HIDDEN
 62
     7
370
     0
100
AcDbPolyline
 90
       19
 70
   128
 43
0.0
 10
164.7468567097
 20
96.3333837572
 10
165.4650991985
 20
96.4523918811
 10
166.0967109927
 20
96.7950608465
 10
166.5655099058
 20
97.3200613517
 10
166.8149534815
 20
97.9640690494
 10
166.8149534815
 20
98.6494079116
 10
166.5655099058
 20
99.2934156093
 10
166.0967109927
 20
99.8184161145
 10
165.4650991985
 20
100.1610850799
 10
164.7468567097
 20
100.2800932038
 10
164.0286142209
 20
100.1610850799
 10
163.3970024266
 20
99.8184161145
 10
162.9282035136
 20
99.2934156093
 10
162.6787599378
 20
98.6494079116
 10
162.6787599378
 20
97.9640690494
 10
162.9282035136
 20
97.3200613517
 10
163.3970024266
 20
96.7950608465
 10
164.0286142209
 20
96.4523918811
 10
164.7468567097
 20
96.3333837572
  0
SPLINE
  5
F8
330
1F
100
AcDbEntity
  8
0
  6
HIDDEN
 62
     7
370
     0
100
AcDbSpline
210
0.0
220
0.0
230
1.0
 70
    11
 71
     3
 72
    64
 73
    60
 74
     0
 42
0.000000001
 43
0.00000001
 40
0.0
 40
0.0
 40
0.0
 40
0.0
 40
0.0312500000000002
 40
0.0312500000000002
 40
0.0625000000000005
 40
0.0625000000000005
 40
0.0937500000000007
 40
0.0937500000000007
 40
0.125000000000001
 40
0.125000000000001
 40
0.1875000000000016
 40
0.1875000000000016
 40
0.2187500000000018
 40
0.2187500000000018
 40
0.2500000000000021
 40
0.2500000000000021
 40
0.2812500000000023
 40
0.2812500000000023
 40
0.3125000000000026
 40
0.3125000000000026
 40
0.3437500000000029
 40
0.3437500000000029
 40
0.3750000000000031
 40
0.3750000000000031
 40
0.4062500000000034
 40
0.4062500000000034
 40
0.4375000000000036
 40
0.4375000000000036
 40
0.5000000000000038
 40
0.5000000000000038
 40
0.5312500000000037
 40
0.5312500000000037
 40
0.5625000000000036
 40
0.5625000000000036
 40
0.5937500000000036
 40
0.5937500000000036
 40
0.6250000000000034
 40
0.6250000000000034
 40
0.656250000000003
 40
0.656250000000003
 40
0.6875000000000026
 40
0.6875000000000026
 40
0.7187500000000022
 40
0.7187500000000022
 40
0.7500000000000018
 40
0.7500000000000018
 40
0.812500000000001
 40
0.812500000000001
 40
0.8437500000000009
 40
0.8437500000000009
 40
0.8750000000000007
 40
0.8750000000000007
 40
0.9062500000000004
 40
0.9062500000000004
 40
0.9375000000000003
 40
0.9375000000000003
 40
0.9687500000000002
 40
0.9687500000000002
 40
1.0
 40
1.0
 40
1.0
 40
1.0
 10
164.7468566172909
 20
108.202109528174
 30
0.0
 10
164.6064455630174
 20
108.202109528174
 30
0.0
 10
164.4687350611323
 20
108.2130283934185
 30
0.0
 10
164.1983695899106
 20
108.2558369373135
 30
0.0
 10
164.0643110975613
 20
108.2883134229543
 30
0.0
 10
163.8109626755126
 20
108.372865767174
 30
0.0
 10
163.6910521018653
 20
108.4247593564542
 30
0.0
 10
163.4640890767716
 20
108.5487837884445
 30
0.0
 10
163.3580430817233
 20
108.620664412545
 30
0.0
 10
163.0708998967617
 20
108.860464392841
 30
0.0
 10
162.9149791048464
 20
109.058326208425
 30
0.0
 10
162.7567598660167
 20
109.3929633180607
 30
0.0
 10
162.7155090979105
 20
109.5131557299362
 30
0.0
 10
162.6607912276421
 20
109.7610163555092
 30
0.0
 10
162.6470141655156
 20
109.888118631866
 30
0.0
 10
162.6467017299921
 20
110.1488936639354
 30
0.0
 10
162.6606511615496
 20
110.2831372497675
 30
0.0
 10
162.7149207261655
 20
110.5451617745715
 30
0.0
 10
162.7551911435345
 20
110.6748008340352
 30
0.0
 10
162.8619358166973
 20
110.9294497844511
 30
0.0
 10
162.9267860132731
 20
111.0507349628743
 30
0.0
 10
163.0783912695469
 20
111.2814476561751
 30
0.0
 10
163.1661807509291
 20
111.3917630380992
 30
0.0
 10
163.3582131586975
 20
111.5921362019082
 30
0.0
 10
163.4626512194836
 20
111.6829447124676
 30
0.0
 10
163.6891426235518
 20
111.844833818714
 30
0.0
 10
163.8111225559644
 20
111.9153925560586
 30
0.0
 10
164.1888839283723
 20
112.085935454233
 30
0.0
 10
164.4679200309988
 20
112.1484571828991
 30
0.0
 10
164.8825788533799
 20
112.1489967744093
 30
0.0
 10
165.0228000474586
 20
112.1339288188306
 30
0.0
 10
165.2950482347245
 20
112.0745104779169
 30
0.0
 10
165.4265075575167
 20
112.0307469291008
 30
0.0
 10
165.6806059554612
 20
111.9165384364088
 30
0.0
 10
165.8026186849832
 20
111.8460058600794
 30
0.0
 10
166.0284013127538
 20
111.6850651220895
 30
0.0
 10
166.1340548863828
 20
111.5935524121877
 30
0.0
 10
166.3275543649765
 20
111.3918312835613
 30
0.0
 10
166.4136488894581
 20
111.2836592127797
 30
0.0
 10
166.5652984667946
 20
111.0535409147982
 30
0.0
 10
166.6314041614486
 20
110.930026186233
 30
0.0
 10
166.7374029207909
 20
110.6777803540306
 30
0.0
 10
166.7777305011621
 20
110.5490458877855
 30
0.0
 10
166.8325891493154
 20
110.2866296287817
 30
0.0
 10
166.8467584061499
 20
110.1522674504805
 30
0.0
 10
166.8470514721481
 20
109.7618232089471
 30
0.0
 10
166.7908087133117
 20
109.5077190819914
 30
0.0
 10
166.6324647912289
 20
109.1715486451379
 30
0.0
 10
166.566534609286
 20
109.0648206627125
 30
0.0
 10
166.4144102724228
 20
108.8701326119473
 30
0.0
 10
166.3282682692374
 20
108.7815664747654
 30
0.0
 10
166.1355149172578
 20
108.6204762036583
 30
0.0
 10
166.0292289789602
 20
108.5486042576155
 30
0.0
 10
165.8039603071585
 20
108.4254330234414
 30
0.0
 10
165.6840587043323
 20
108.3733051104448
 30
0.0
 10
165.4281805350068
 20
108.2879029635081
 30
0.0
 10
165.2966436070384
 20
108.2561285054663
 30
0.0
 10
165.0268202684286
 20
108.2132353180844
 30
0.0
 10
164.8872676715644
 20
108.202109528174
 30
0.0
 10
164.7468566172909
 20
108.202109528174
 30
0.0
  0
SPLINE
  5
F9
330
1F
100
AcDbEntity
  8
0
  6
HIDDEN
 62
     7
370
     0
100
AcDbSpline
210
0.0
220
0.0
230
1.0
 70
     8
 71
     3
 72
     8
 73
     4
 74
     0
 42
0.000000001
 43
0.00000001
 40
0.0
 40
0.0
 40
0.0
 40
0.0
 40
1.0
 40
1.0
 40
1.0
 40
1.0
 10
163.9236764411315
 20
101.996507979347
 30
0.0
 10
164.1351038311327
 20
101.9889984695645
 30
0.0
 10
164.3375723776655
 20
101.9348749399299
 30
0.0
 10
164.5237829768028
 20
101.8501466527047
 30
0.0
  0
SPLINE
  5
FA
330
1F
100
AcDbEntity
  8
0
  6
HIDDEN
 62
     7
370
     0
100
AcDbSpline
210
0.0
220
0.0
230
1.0
 70
     8
 71
     3
 72
     8
 73
     4
 74
     0
 42
0.000000001
 43
0.00000001
 40
0.0
 40
0.0
 40
0.0
 40
0.0
 40
1.0
 40
1.0
 40
1.0
 40
1.0
 10
164.5237829768029
 20
97.9257678847705
 30
0.0
 10
164.3372586275185
 20
98.04808830067101
 30
0.0
 10
164.1347037289927
 20
98.18917346133581
 30
0.0
 10
163.9236764411314
 20
98.36565709712075
 30
0.0
  0
LINE
  5
FB
330
1F
100
AcDbEntity
  8
0
  6
HIDDEN
 62
     7
370
     0
100
AcDbLine
 10
234.4904918426
 20
131.375561643
 30
0.0
 11
234.8256040567
 21
131.3339874032
 31
0.0
  0
SPLINE
  5
FC
330
1F
100
AcDbEntity
  8
0
  6
HIDDEN
 62
     7
370
     0
100
AcDbSpline
210
0.0
220
0.0
230
1.0
 70
     8
 71
     3
 72
     9
 73
     5
 74
     0
 42
0.000000001
 43
0.00000001
 40
0.0
 40
0.0
 40
0.0
 40
0.0
 40
0.0912780671624912
 40
1.0
 40
1.0
 40
1.0
 40
1.0
 10
233.6387116664242
 20
131.5251711639889
 30
0.0
 10
233.6579240124904
 20
131.5212356980534
 30
0.0
 10
233.868405529721
 20
131.4781205658217
 30
0.0
 10
234.1943232562182
 20
131.4243888403672
 30
0.0
 10
234.4904918425869
 20
131.3755616429576
 30
0.0
  0
CIRCLE
  5
FD
330
1F
100
AcDbEntity
  8
0
  6
HIDDEN
 62
     7
370
     0
100
AcDbCircle
 10
238.4968566173
 20
111.7650300148
 30
0.0
 40
4.5
  0
LINE
  5
FE
330
1F
100
AcDbEntity
  8
0
  6
HIDDEN
 62
     7
370
     0
100
AcDbLine
 10
153.9184294378
 20
76.4650285128
 30
0.0
 11
153.7468565365
 21
76.4650285128
 31
0.0
  0
ELLIPSE
  5
FF
330
1F
100
AcDbEntity
  8
0
  6
HIDDEN
 62
     7
370
     0
100
AcDbEllipse
 10
153.9184294925
 20
74.4650300148
 30
0.0
 11
0.0
 21
2.0
 31
0.0
210
0.0
220
0.0
230
1.0
 40
0.4142135624
 41
4.712388980384695
 42
6.283185307179586
  0
LINE
  5
100
330
1F
100
AcDbEntity
  8
0
  6
HIDDEN
 62
     7
370
     0
100
AcDbLine
 10
153.7468565365
 20
149.2650315049
 30
0.0
 11
153.9184294378
 21
149.2650315049
 31
0.0
  0
ELLIPSE
  5
101
330
1F
100
AcDbEntity
  8
0
  6
HIDDEN
 62
     7
370
     0
100
AcDbEllipse
 10
153.9184294925
 20
151.2650300148
 30
0.0
 11
0.0
 21
2.0
 31
0.0
210
0.0
220
0.0
230
1.0
 40
0.4142135624
 41
3.141592653589793
 42
4.712388980384695
  0
LINE
  5
102
330
1F
100
AcDbEntity
  8
0
  6
HIDDEN
 62
     7
370
     0
100
AcDbLine
 10
154.7468564675
 20
65.5791155878
 30
0.0
 11
153.9625166186
 21
65.1315741125
 31
0.0
  0
LINE
  5
103
330
1F
100
AcDbEntity
  8
0
  6
HIDDEN
 62
     7
370
     0
100
AcDbLine
 10
154.0367255655
 20
158.4751933697
 30
0.0
 11
154.7468564675
 21
157.7650636318
 31
0.0
  0
LINE
  5
104
330
1F
100
AcDbEntity
  8
0
  6
HIDDEN
 62
     7
370
     0
100
AcDbLine
 10
158.8668091425
 20
65.5791155878
 30
0.0
 11
154.7468564675
 21
65.5791155878
 31
0.0
  0
LINE
  5
105
330
1F
100
AcDbEntity
  8
0
  6
HIDDEN
 62
     7
370
     0
100
AcDbLine
 10
169.5968568527
 20
65.5791155878
 30
0.0
 11
164.4269045645
 21
65.5791155878
 31
0.0
  0
LINE
  5
106
330
1F
100
AcDbEntity
  8
0
  6
HIDDEN
 62
     7
370
     0
100
AcDbLine
 10
154.7468564675
 20
65.5791155878
 30
0.0
 11
154.7468564675
 21
74.465028185
 31
0.0
  0
LINE
  5
107
330
1F
100
AcDbEntity
  8
0
  6
HIDDEN
 62
     7
370
     0
100
AcDbLine
 10
154.7468564675
 20
157.7650636318
 30
0.0
 11
158.9701859483
 21
157.7650636318
 31
0.0
  0
LINE
  5
108
330
1F
100
AcDbEntity
  8
0
  6
HIDDEN
 62
     7
370
     0
100
AcDbLine
 10
164.3235277587
 20
157.7650636318
 30
0.0
 11
169.5968568527
 21
157.7650636318
 31
0.0
  0
LINE
  5
109
330
1F
100
AcDbEntity
  8
0
  6
HIDDEN
 62
     7
370
     0
100
AcDbLine
 10
154.7468564675
 20
157.7650636318
 30
0.0
 11
154.7468564675
 21
151.2650318328
 31
0.0
  0
LINE
  5
10A
330
1F
100
AcDbEntity
  8
0
  6
HIDDEN
 62
     7
370
     0
100
AcDbLine
 10
169.5968568527
 20
76.4650285128
 30
0.0
 11
153.9184294378
 21
76.4650285128
 31
0.0
  0
LINE
  5
10B
330
1F
100
AcDbEntity
  8
0
  6
HIDDEN
 62
     7
370
     0
100
AcDbLine
 10
153.9184294378
 20
149.2650315049
 30
0.0
 11
169.5968568527
 21
149.2650315049
 31
0.0
  0
LINE
  5
10C
330
1F
100
AcDbEntity
  8
0
  6
HIDDEN
 62
     7
370
     0
100
AcDbLine
 10
58.946855759
 20
99.2650298286
 30
0.0
 11
58.946855759
 21
124.2650302011
 31
0.0
  0
LINE
  5
10D
330
1F
100
AcDbEntity
  8
0
  6
HIDDEN
 62
     7
370
     0
100
AcDbLine
 10
62.2314591163
 20
101.2650301564
 30
0.0
 11
62.2314591163
 21
122.2650298733
 31
0.0
  0
LINE
  5
10E
330
1F
100
AcDbEntity
  8
0
  6
HIDDEN
 62
     7
370
     0
100
AcDbLine
 10
222.0468599552
 20
111.7650300148
 30
0.0
 11
222.0468599552
 21
101.2650301564
 31
0.0
  0
LINE
  5
10F
330
1F
100
AcDbEntity
  8
0
  6
HIDDEN
 62
     7
370
     0
100
AcDbLine
 10
222.0468599552
 20
122.2650298733
 30
0.0
 11
222.0468599552
 21
111.7650300148
 31
0.0
  0
LINE
  5
110
330
1F
100
AcDbEntity
  8
0
  6
HIDDEN
 62
     7
370
     0
100
AcDbLine
 10
225.9128842705
 20
111.7650300148
 30
0.0
 11
225.9128842705
 21
100.7650300744
 31
0.0
  0
LINE
  5
111
330
1F
100
AcDbEntity
  8
0
  6
HIDDEN
 62
     7
370
     0
100
AcDbLine
 10
225.9128842705
 20
122.7650299552
 30
0.0
 11
225.9128842705
 21
111.7650300148
 31
0.0
  0
SPLINE
  5
112
330
1F
100
AcDbEntity
  8
0
  6
HIDDEN
 62
     7
370
     0
100
AcDbSpline
210
0.0
220
0.0
230
1.0
 70
     8
 71
     3
 72
    12
 73
     8
 74
     0
 42
0.000000001
 43
0.00000001
 40
0.0
 40
0.0
 40
0.0
 40
0.0
 40
0.2023335956572487
 40
0.4042344787519891
 40
0.6170981028656025
 40
0.8386455576719178
 40
1.0
 40
1.0
 40
1.0
 40
1.0
 10
238.4968552940678
 20
121.8024596455821
 30
0.0
 10
238.9784992318045
 20
121.8233799381483
 30
0.0
 10
239.9407570589469
 20
121.8651757829429
 30
0.0
 10
241.2403219868313
 20
122.1531189524687
 30
0.0
 10
242.2703167907042
 20
122.4768533167643
 30
0.0
 10
242.914153982054
 20
122.7308073070684
 30
0.0
 10
242.9410084142832
 20
122.7422056247488
 30
0.0
 10
242.95232484277
 20
122.7470088634022
 30
0.0
  0
LINE
  5
113
330
1F
100
AcDbEntity
  8
0
  6
HIDDEN
 62
     7
370
     0
100
AcDbLine
 10
238.9307026022
 20
121.8329343829
 30
0.0
 11
238.0690355056
 21
121.8252248946
 31
0.0
  0
SPLINE
  5
114
330
1F
100
AcDbEntity
  8
0
  6
HIDDEN
 62
     7
370
     0
100
AcDbSpline
210
0.0
220
0.0
230
1.0
 70
     8
 71
     3
 72
    13
 73
     9
 74
     0
 42
0.000000001
 43
0.00000001
 40
0.0
 40
0.0
 40
0.0
 40
0.0
 40
0.1295023432374146
 40
0.3267597802958076
 40
0.5329364187332354
 40
0.752533938080122
 40
0.9700618719220913
 40
1.0
 40
1.0
 40
1.0
 40
1.0
 10
234.0513620727848
 20
122.7428793791064
 30
0.0
 10
234.0483845343339
 20
122.7439898956187
 30
0.0
 10
234.0408716215502
 20
122.7467919463193
 30
0.0
 10
234.5419991483829
 20
122.5467224255849
 30
0.0
 10
235.4472504787769
 20
122.2381381836631
 30
0.0
 10
236.7365976566032
 20
121.9223780402146
 30
0.0
 10
237.8391441757696
 20
121.8068449040333
 30
0.0
 10
238.4258735266401
 20
121.8029329132323
 30
0.0
 10
238.4968552940678
 20
121.8024596455821
 30
0.0
  0
LINE
  5
115
330
1F
100
AcDbEntity
  8
0
  6
HIDDEN
 62
     7
370
     0
100
AcDbLine
 10
110.9468568319
 20
101.2650301564
 30
0.0
 11
110.9468568319
 21
122.2650298733
 31
0.0
  0
LINE
  5
116
330
1F
100
AcDbEntity
  8
0
  6
HIDDEN
 62
     7
370
     0
100
AcDbLine
 10
114.1915027254
 20
106.6650298308
 30
0.0
 11
114.1915027254
 21
116.8650301989
 31
0.0
  0
LINE
  5
117
330
1F
100
AcDbEntity
  8
0
  6
HIDDEN
 62
     7
370
     0
100
AcDbLine
 10
238.4968552941
 20
130.2650302532
 30
0.0
 11
242.996856963
 21
130.2650302532
 31
0.0
  0
LINE
  5
118
330
1F
100
AcDbEntity
  8
0
  6
HIDDEN
 62
     7
370
     0
100
AcDbLine
 10
233.9968536251
 20
130.2650302532
 30
0.0
 11
238.4968552941
 21
130.2650302532
 31
0.0
  0
SPLINE
  5
119
330
1F
100
AcDbEntity
  8
0
  6
HIDDEN
 62
     7
370
     0
100
AcDbSpline
210
0.0
220
0.0
230
1.0
 70
    11
 71
     3
 72
    64
 73
    60
 74
     0
 42
0.000000001
 43
0.00000001
 40
0.0
 40
0.0
 40
0.0
 40
0.0
 40
0.0312500000000002
 40
0.0312500000000002
 40
0.0625000000000003
 40
0.0625000000000003
 40
0.0937500000000005
 40
0.0937500000000005
 40
0.1250000000000007
 40
0.1250000000000007
 40
0.187500000000001
 40
0.187500000000001
 40
0.2187500000000013
 40
0.2187500000000013
 40
0.2500000000000016
 40
0.2500000000000016
 40
0.2812500000000019
 40
0.2812500000000019
 40
0.3125000000000022
 40
0.3125000000000022
 40
0.3437500000000025
 40
0.3437500000000025
 40
0.3750000000000028
 40
0.3750000000000028
 40
0.4062500000000028
 40
0.4062500000000028
 40
0.4375000000000029
 40
0.4375000000000029
 40
0.5000000000000026
 40
0.5000000000000026
 40
0.5312500000000024
 40
0.5312500000000024
 40
0.5625000000000023
 40
0.5625000000000023
 40
0.5937500000000021
 40
0.5937500000000021
 40
0.625000000000002
 40
0.625000000000002
 40
0.6562500000000018
 40
0.6562500000000018
 40
0.6875000000000017
 40
0.6875000000000017
 40
0.7187500000000014
 40
0.7187500000000014
 40
0.7500000000000013
 40
0.7500000000000013
 40
0.8125000000000011
 40
0.8125000000000011
 40
0.8437500000000009
 40
0.8437500000000009
 40
0.8750000000000008
 40
0.8750000000000008
 40
0.9062500000000006
 40
0.9062500000000006
 40
0.9375000000000004
 40
0.9375000000000004
 40
0.9687500000000002
 40
0.9687500000000002
 40
1.0
 40
1.0
 40
1.0
 40
1.0
 10
164.7468566172909
 20
111.3812414941767
 30
0.0
 10
164.8872676715644
 20
111.3812414941767
 30
0.0
 10
165.0249781734495
 20
111.3965154816327
 30
0.0
 10
165.2953436446712
 20
111.4557059690314
 30
0.0
 10
165.4294021370205
 20
111.5004120689201
 30
0.0
 10
165.6827505590692
 20
111.6146916225631
 30
0.0
 10
165.8026611327165
 20
111.6840237439436
 30
0.0
 10
166.0296241578101
 20
111.8459275892437
 30
0.0
 10
166.1356701528586
 20
111.9381180528327
 30
0.0
 10
166.4228133378201
 20
112.2376827971144
 30
0.0
 10
166.5787341297354
 20
112.474852123959
 30
0.0
 10
166.7369533685651
 20
112.8511313634465
 30
0.0
 10
166.7782041366712
 20
112.9826460292133
 30
0.0
 10
166.8329220069398
 20
113.2456657596335
 30
0.0
 10
166.8466990690661
 20
113.3766797182035
 30
0.0
 10
166.8470115045897
 20
113.6375427519557
 30
0.0
 10
166.8330620730322
 20
113.7678265771903
 30
0.0
 10
166.7787925084163
 20
114.0148139727709
 30
0.0
 10
166.7385220910473
 20
114.1333875883975
 30
0.0
 10
166.6317774178845
 20
114.3599305684677
 30
0.0
 10
166.5669272213087
 20
114.464611410718
 30
0.0
 10
166.4153219650348
 20
114.6588850560717
 30
0.0
 10
166.3275324836526
 20
114.749151699974
 30
0.0
 10
166.1355000758843
 20
114.9095528350537
 30
0.0
 10
166.0310620150981
 20
114.9803541145734
 30
0.0
 10
165.80457061103
 20
115.1043916406431
 30
0.0
 10
165.6825906786174
 20
115.1572102001817
 30
0.0
 10
165.3048293062095
 20
115.2833960427961
 30
0.0
 10
165.025793203583
 20
115.3276912181294
 30
0.0
 10
164.6111343812019
 20
115.3280783942639
 30
0.0
 10
164.4709131871232
 20
115.3173085300864
 30
0.0
 10
164.1986649998573
 20
115.2743372329696
 30
0.0
 10
164.0672056770651
 20
115.242551436614
 30
0.0
 10
163.8131072791206
 20
115.1580680398252
 30
0.0
 10
163.6910945495986
 20
115.1052727777541
 30
0.0
 10
163.465311921828
 20
114.9819952730552
 30
0.0
 10
163.359658348199
 20
114.9106770176838
 30
0.0
 10
163.1661588696053
 20
114.7492157723416
 30
0.0
 10
163.0800643451237
 20
114.6607097679968
 30
0.0
 10
162.9284147677872
 20
114.4670109259153
 30
0.0
 10
162.8623090731332
 20
114.3604133004871
 30
0.0
 10
162.7563103137909
 20
114.1360678852763
 30
0.0
 10
162.7159827334197
 20
114.0184062240184
 30
0.0
 10
162.6611240852664
 20
113.771185582412
 30
0.0
 10
162.6469548284319
 20
113.6408452498999
 30
0.0
 10
162.6466617624336
 20
113.2504835543874
 30
0.0
 10
162.7029045212701
 20
112.9800741293343
 30
0.0
 10
162.8612484433529
 20
112.6022098273006
 30
0.0
 10
162.9271786252959
 20
112.4785967782722
 30
0.0
 10
163.0793029621591
 20
112.2473568996471
 30
0.0
 10
163.1654449653444
 20
112.1391129027849
 30
0.0
 10
163.358198317324
 20
111.9378913334685
 30
0.0
 10
163.4644842556216
 20
111.84568895186
 30
0.0
 10
163.6897529274233
 20
111.684907418924
 30
0.0
 10
163.8096545302494
 20
111.6152852392651
 30
0.0
 10
164.0655326995749
 20
111.4998574910539
 30
0.0
 10
164.1970696275434
 20
111.4561073112361
 30
0.0
 10
164.4668929661532
 20
111.3968033742943
 30
0.0
 10
164.6064455630174
 20
111.3812414941767
 30
0.0
 10
164.7468566172909
 20
111.3812414941767
 30
0.0
  0
SPLINE
  5
11A
330
1F
100
AcDbEntity
  8
0
  6
HIDDEN
 62
     7
370
     0
100
AcDbSpline
210
0.0
220
0.0
230
1.0
 70
     8
 71
     3
 72
     8
 73
     4
 74
     0
 42
0.000000001
 43
0.00000001
 40
0.0
 40
0.0
 40
0.0
 40
0.0
 40
1.0
 40
1.0
 40
1.0
 40
1.0
 10
163.9236764411314
 20
121.5335520503044
 30
0.0
 10
164.1351038311327
 20
121.5410615600869
 30
0.0
 10
164.3375723776654
 20
121.5951850897215
 30
0.0
 10
164.5237829768027
 20
121.6799133769467
 30
0.0
  0
ELLIPSE
  5
11B
330
1F
100
AcDbEntity
  8
0
  6
HIDDEN
 62
     7
370
     0
100
AcDbEllipse
 10
164.7468566173
 20
123.4955401262
 30
0.0
 11
-1.760776919379054
 21
2.232245799914409
 31
0.0
210
0.0
220
0.0
230
1.0
 40
0.5126701559
 41
5.395150933160618
 42
8.323890913123103
  0
SPLINE
  5
11C
330
1F
100
AcDbEntity
  8
0
  6
HIDDEN
 62
     7
370
     0
100
AcDbSpline
210
0.0
220
0.0
230
1.0
 70
     8
 71
     3
 72
     8
 73
     4
 74
     0
 42
0.000000001
 43
0.00000001
 40
0.0
 40
0.0
 40
0.0
 40
0.0
 40
1.0
 40
1.0
 40
1.0
 40
1.0
 10
164.5237829768038
 20
125.6042921448814
 30
0.0
 10
164.3372586275188
 20
125.4819717289806
 30
0.0
 10
164.1347037289925
 20
125.3408865683155
 30
0.0
 10
163.9236764411306
 20
125.16440293253
 30
0.0
  0
ELLIPSE
  5
11D
330
1F
100
AcDbEntity
  8
0
  6
HIDDEN
 62
     7
370
     0
100
AcDbEllipse
 10
164.7468566173
 20
123.4955401262
 30
0.0
 11
1.760776919379055
 21
1.388886188042903
 31
0.0
210
0.0
220
0.0
230
1.0
 40
0.8239737799
 41
1.39725503332406
 42
3.733259041931051
  0
LWPOLYLINE
  5
11E
330
1F
100
AcDbEntity
  8
0
  6
HIDDEN
 62
     7
370
     0
100
AcDbPolyline
 90
       19
 70
   128
 43
0.0
 10
164.7468567097
 20
123.2499668259
 10
165.4650991985
 20
123.3689749497
 10
166.0967109927
 20
123.7116439152
 10
166.5655099058
 20
124.2366444203
 10
166.8149534815
 20
124.880652118
 10
166.8149534815
 20
125.5659909803
 10
166.5655099058
 20
126.209998678
 10
166.0967109927
 20
126.7349991831
 10
165.4650991985
 20
127.0776681486
 10
164.7468567097
 20
127.1966762725
 10
164.0286142209
 20
127.0776681486
 10
163.3970024266
 20
126.7349991831
 10
162.9282035136
 20
126.209998678
 10
162.6787599378
 20
125.5659909803
 10
162.6787599378
 20
124.880652118
 10
162.9282035136
 20
124.2366444203
 10
163.3970024266
 20
123.7116439152
 10
164.0286142209
 20
123.3689749497
 10
164.7468567097
 20
123.2499668259
  0
LINE
  5
11F
330
1F
100
AcDbEntity
  8
0
  6
HIDDEN
 62
     7
370
     0
100
AcDbLine
 10
159.7368562796
 20
147.1580743674
 30
0.0
 11
159.7368562796
 21
141.6150305304
 31
0.0
  0
LINE
  5
120
330
1F
100
AcDbEntity
  8
0
  6
HIDDEN
 62
     7
370
     0
100
AcDbLine
 10
163.556856496
 20
147.1580743674
 30
0.0
 11
163.556856496
 21
141.6150305304
 31
0.0
  0
SPLINE
  5
121
330
1F
100
AcDbEntity
  8
0
  6
HIDDEN
 62
     7
370
     0
100
AcDbSpline
210
0.0
220
0.0
230
1.0
 70
     8
 71
     3
 72
    14
 73
    10
 74
     0
 42
0.000000001
 43
0.00000001
 40
0.0
 40
0.0
 40
0.0
 40
0.0
 40
0.25
 40
0.25
 40
0.5
 40
0.5
 40
0.75
 40
0.75
 40
1.0
 40
1.0
 40
1.0
 40
1.0
 10
162.7568566172907
 20
128.7403195717595
 30
0.0
 10
162.8312821694253
 20
128.8311770265412
 30
0.0
 10
162.9131604290388
 20
128.9203876097469
 30
0.0
 10
163.0861465752143
 20
129.0958119285388
 30
0.0
 10
163.1768183950754
 20
129.1813468841655
 30
0.0
 10
163.3441819444197
 20
129.342198497104
 30
0.0
 10
163.4206327693862
 20
129.4179305860005
 30
0.0
 10
163.5269258542247
 20
129.5495216095759
 30
0.0
 10
163.5568566172909
 20
129.6065217844822
 30
0.0
 10
163.5568566172909
 20
129.6487190574343
 30
0.0
  0
LINE
  5
122
330
1F
100
AcDbEntity
  8
0
  6
HIDDEN
 62
     7
370
     0
100
AcDbLine
 10
163.556856496
 20
97.9677682626
 30
0.0
 11
163.556856496
 21
93.8357274863
 31
0.0
  0
SPLINE
  5
123
330
1F
100
AcDbEntity
  8
0
  6
HIDDEN
 62
     7
370
     0
100
AcDbSpline
210
0.0
220
0.0
230
1.0
 70
     8
 71
     3
 72
    14
 73
    10
 74
     0
 42
0.000000001
 43
0.00000001
 40
0.0
 40
0.0
 40
0.0
 40
0.0
 40
0.25
 40
0.25
 40
0.5
 40
0.5
 40
0.75
 40
0.75
 40
1.0
 40
1.0
 40
1.0
 40
1.0
 10
163.5568566172909
 20
125.5166778588028
 30
0.0
 10
163.5568566172909
 20
125.4741774411482
 30
0.0
 10
163.5271431584742
 20
125.4469055346656
 30
0.0
 10
163.421061791582
 20
125.4333527606984
 30
0.0
 10
163.3446948624175
 20
125.4477983178394
 30
0.0
 10
163.175935317889
 20
125.5201744818593
 30
0.0
 10
163.0851385054171
 20
125.5772474169767
 30
0.0
 10
162.9135735652098
 20
125.7184053504936
 30
0.0
 10
162.8315123249153
 20
125.8029825655772
 30
0.0
 10
162.7568566172907
 20
125.8963557287064
 30
0.0
  0
LINE
  5
124
330
1F
100
AcDbEntity
  8
0
  6
HIDDEN
 62
     7
370
     0
100
AcDbLine
 10
158.4136955642
 20
150.2761088196
 30
0.0
 11
158.4136955642
 21
141.6150305304
 31
0.0
  0
LINE
  5
125
330
1F
100
AcDbEntity
  8
0
  6
HIDDEN
 62
     7
370
     0
100
AcDbLine
 10
164.8800181427
 20
97.4678827334
 30
0.0
 11
164.8800181427
 21
92.77608915
 31
0.0
  0
LINE
  5
126
330
1F
100
AcDbEntity
  8
0
  6
HIDDEN
 62
     7
370
     0
100
AcDbLine
 10
164.8800181427
 20
150.2761088196
 30
0.0
 11
164.8800181427
 21
141.6150305304
 31
0.0
  0
ARC
  5
127
330
1F
100
AcDbEntity
  8
0
  6
HIDDEN
 62
     7
370
     0
100
AcDbCircle
 10
164.9929093792
 20
124.3350176902
 30
0.0
 40
1.353195702694764
100
AcDbArc
 50
110.2844232439
 51
142.1998959299
  0
ARC
  5
128
330
1F
100
AcDbEntity
  8
0
  6
HIDDEN
 62
     7
370
     0
100
AcDbCircle
 10
164.0502571487
 20
122.318000245
 30
0.0
 40
0.7945949542257675
100
AcDbArc
 50
260.8336111241
 51
306.5791809456
  0
LWPOLYLINE
  5
129
330
1F
100
AcDbEntity
  8
0
  6
HIDDEN
 62
     7
370
     0
100
AcDbPolyline
 90
       19
 70
   128
 43
0.0
 10
154.7816194796
 20
124.4779817644
 10
154.9689387174
 20
123.9566897857
 10
155.2728898094
 20
123.6342836055
 10
155.656812174
 20
123.5496515292
 10
156.07439859
 20
123.7130008522
 10
156.4752822013
 20
124.1046285141
 10
156.8111110681
 20
124.6772987652
 10
157.0413782464
 20
125.3619391355
 10
157.1383107656
 20
126.0759729776
 10
157.0902172678
 20
126.733275305
 10
156.9028980301
 20
127.2545672837
 10
156.5989464724
 20
127.5769725326
 10
156.2150245735
 20
127.6616055402
 10
155.7974376918
 20
127.4982571486
 10
155.3965540805
 20
127.1066285554
 10
155.0607256794
 20
126.5339583042
 10
154.8304580354
 20
125.8493179339
 10
154.7335255162
 20
125.1352840918
 10
154.7816194796
 20
124.4779817644
  0
LWPOLYLINE
  5
12A
330
1F
100
AcDbEntity
  8
0
  6
HIDDEN
 62
     7
370
     0
100
AcDbPolyline
 90
       23
 70
   128
 43
0.0
 10
154.0185875927
 20
124.0589657682
 10
154.2238955588
 20
123.4307588893
 10
154.546162972
 20
122.9839531589
 10
154.9592813679
 20
122.7547462914
 10
155.429782273
 20
122.761706065
 10
155.9195485168
 20
123.0042708922
 10
156.3889024981
 20
123.4627870727
 10
156.7998197132
 20
124.1001106683
 10
157.1190100365
 20
124.864608224
 10
157.3206143656
 20
125.6943449262
 10
157.388300562
 20
126.5220997739
 10
157.3165845328
 20
127.2808147478
 10
157.1112763339
 20
127.9090206954
 10
156.7890089207
 20
128.3558264259
 10
156.3758905248
 20
128.5850342247
 10
155.9053896197
 20
128.5780735198
 10
155.4156233759
 20
128.3355086926
 10
154.9462693946
 20
127.8769925121
 10
154.5353521795
 20
127.2396698478
 10
154.216162089
 20
126.475172292
 10
154.0145575271
 20
125.6454355899
 10
153.9468715635
 20
124.8176798108
 10
154.0185875927
 20
124.0589657682
  0
LWPOLYLINE
  5
12B
330
1F
100
AcDbEntity
  8
0
  6
HIDDEN
 62
     7
370
     0
100
AcDbPolyline
 90
       21
 70
   128
 43
0.0
 10
164.7468567097
 20
122.9238837841
 10
165.5193990299
 20
123.0388639379
 10
166.2163198196
 20
123.3725475031
 10
166.7693987691
 20
123.8922720659
 10
167.1244971656
 20
124.5471631992
 10
167.2468561881
 20
125.2731151763
 10
167.1244971656
 20
125.9990680847
 10
166.7693987691
 20
126.653959218
 10
166.2163198196
 20
127.1736837807
 10
165.5193990299
 20
127.507367346
 10
164.7468567097
 20
127.6223465684
 10
163.9743143895
 20
127.507367346
 10
163.2773935997
 20
127.1736837807
 10
162.7243137189
 20
126.653959218
 10
162.3692153224
 20
125.9990680847
 10
162.2468562999
 20
125.2731151763
 10
162.3692153224
 20
124.5471631992
 10
162.7243137189
 20
123.8922720659
 10
163.2773935997
 20
123.3725475031
 10
163.9743143895
 20
123.0388639379
 10
164.7468567097
 20
122.9238837841
  0
SPLINE
  5
12C
330
1F
100
AcDbEntity
  8
0
  6
HIDDEN
 62
     7
370
     0
100
AcDbSpline
210
0.0
220
0.0
230
1.0
 70
     8
 71
     3
 72
    34
 73
    30
 74
     0
 42
0.000000001
 43
0.00000001
 40
0.0
 40
0.0
 40
0.0
 40
0.0
 40
0.0624999999999983
 40
0.0624999999999983
 40
0.1249999999999966
 40
0.1249999999999966
 40
0.1874999999999949
 40
0.1874999999999949
 40
0.2499999999999937
 40
0.2499999999999937
 40
0.3124999999999935
 40
0.3124999999999935
 40
0.3749999999999933
 40
0.3749999999999933
 40
0.4999999999999938
 40
0.4999999999999938
 40
0.6249999999999942
 40
0.6249999999999942
 40
0.6874999999999952
 40
0.6874999999999952
 40
0.7499999999999961
 40
0.7499999999999961
 40
0.8124999999999971
 40
0.8124999999999971
 40
0.8749999999999981
 40
0.8749999999999981
 40
0.937499999999999
 40
0.937499999999999
 40
1.0
 40
1.0
 40
1.0
 40
1.0
 10
164.8800181247528
 20
130.7539704028269
 30
0.0
 10
165.0394099525407
 20
130.7461303069041
 30
0.0
 10
165.1954124359842
 20
130.7244716588137
 30
0.0
 10
165.5009219520614
 20
130.6546234313208
 30
0.0
 10
165.6518162870737
 20
130.6057977289926
 30
0.0
 10
165.9397156317645
 20
130.4828737755853
 30
0.0
 10
166.0756620347242
 20
130.409566267451
 30
0.0
 10
166.3318446503162
 20
130.2395556436796
 30
0.0
 10
166.4530269380753
 20
130.1416818514782
 30
0.0
 10
166.6701730099481
 20
129.9290976760462
 30
0.0
 10
166.7671348829085
 20
129.8140517375166
 30
0.0
 10
166.937697318734
 20
129.5661906173965
 30
0.0
 10
167.0109373719459
 20
129.4331571203309
 30
0.0
 10
167.1858178286948
 20
129.0236491042008
 30
0.0
 10
167.2468557896707
 20
128.7256884544257
 30
0.0
 10
167.2468574448938
 20
128.1342468985513
 30
0.0
 10
167.1858228353075
 20
127.8340733485747
 30
0.0
 10
167.0109330679056
 20
127.4188420683069
 30
0.0
 10
166.9376893624812
 20
127.2834869500601
 30
0.0
 10
166.7671286467445
 20
127.0305876186734
 30
0.0
 10
166.670164931151
 20
126.9128223410657
 30
0.0
 10
166.4530046025639
 20
126.694692045697
 30
0.0
 10
166.3318233438771
 20
126.5939887205501
 30
0.0
 10
166.0756531169383
 20
126.4187450277168
 30
0.0
 10
165.9397097672756
 20
126.3430000586262
 30
0.0
 10
165.6518070640925
 20
126.215831683324
 30
0.0
 10
165.5009168681758
 20
126.1652304109965
 30
0.0
 10
165.1954113644701
 20
126.0928013112486
 30
0.0
 10
165.0394099662066
 20
126.0703155398516
 30
0.0
 10
164.8800181247528
 20
126.0621770799568
 30
0.0
  0
SPLINE
  5
12D
330
1F
100
AcDbEntity
  8
0
  6
HIDDEN
 62
     7
370
     0
100
AcDbSpline
210
0.0
220
0.0
230
1.0
 70
     8
 71
     3
 72
    10
 73
     6
 74
     0
 42
0.000000001
 43
0.00000001
 40
0.0
 40
0.0
 40
0.0
 40
0.0
 40
0.5
 40
0.5
 40
1.0
 40
1.0
 40
1.0
 40
1.0
 10
164.8800181247528
 20
126.0621770799568
 30
0.0
 10
164.6572910978794
 20
125.918688579663
 30
0.0
 10
164.4356052106542
 20
125.8039678339302
 30
0.0
 10
163.9943843728023
 20
125.6342074045723
 30
0.0
 10
163.7748257254035
 20
125.5787874101849
 30
0.0
 10
163.5568566172912
 20
125.5622920808153
 30
0.0
  0
SPLINE
  5
12E
330
1F
100
AcDbEntity
  8
0
  6
HIDDEN
 62
     7
370
     0
100
AcDbSpline
210
0.0
220
0.0
230
1.0
 70
     8
 71
     3
 72
    10
 73
     6
 74
     0
 42
0.000000001
 43
0.00000001
 40
0.0
 40
0.0
 40
0.0
 40
0.0
 40
0.5
 40
0.5
 40
1.0
 40
1.0
 40
1.0
 40
1.0
 10
163.5568566172912
 20
129.6943332794468
 30
0.0
 10
163.773747449812
 20
129.9313722188953
 30
0.0
 10
163.9929000864708
 20
130.1335424538888
 30
0.0
 10
164.4343845867397
 20
130.4842945254075
 30
0.0
 10
164.6575870520131
 20
130.6329706178043
 30
0.0
 10
164.8800181247528
 20
130.7539704028269
 30
0.0
  0
SPLINE
  5
12F
330
1F
100
AcDbEntity
  8
0
  6
HIDDEN
 62
     7
370
     0
100
AcDbSpline
210
0.0
220
0.0
230
1.0
 70
     8
 71
     3
 72
    16
 73
    12
 74
     0
 42
0.000000001
 43
0.00000001
 40
0.0
 40
0.0
 40
0.0
 40
0.0
 40
0.2500000000000002
 40
0.2500000000000002
 40
0.5000000000000003
 40
0.5000000000000003
 40
0.7500000000000004
 40
0.7500000000000004
 40
0.8750000000000002
 40
0.8750000000000002
 40
1.0
 40
1.0
 40
1.0
 40
1.0
 10
162.7568566172909
 20
125.8963557287062
 30
0.0
 10
162.5914425108108
 20
126.1032419647315
 30
0.0
 10
162.4652451798351
 20
126.3291106625404
 30
0.0
 10
162.2908388815043
 20
126.8179799081532
 30
0.0
 10
162.2470088424074
 20
127.0697469614978
 30
0.0
 10
162.2467051694374
 20
127.58152628608
 30
0.0
 10
162.2905620294977
 20
127.8325809951627
 30
0.0
 10
162.4204837887649
 20
128.1934295633047
 30
0.0
 10
162.4745986001728
 20
128.3107023316533
 30
0.0
 10
162.6012755903162
 20
128.5331912829921
 30
0.0
 10
162.6741493106771
 20
128.6393518912355
 30
0.0
 10
162.7568566172909
 20
128.7403195717598
 30
0.0
  0
LINE
  5
130
330
1F
100
AcDbEntity
  8
0
  6
HIDDEN
 62
     7
370
     0
100
AcDbLine
 10
233.4968600624
 20
131.0650307569
 30
0.0
 11
243.4968579763
 21
131.0650307569
 31
0.0
  0
LINE
  5
131
330
1F
100
AcDbEntity
  8
0
  6
HIDDEN
 62
     7
370
     0
100
AcDbLine
 10
233.4968600624
 20
124.5425289381
 30
0.0
 11
243.4968579763
 21
124.5425289381
 31
0.0
  0
LINE
  5
132
330
1F
100
AcDbEntity
  8
0
  6
HIDDEN
 62
     7
370
     0
100
AcDbLine
 10
235.6770564073
 20
117.265029985
 30
0.0
 11
241.3166616314
 21
117.265029985
 31
0.0
  0
SPLINE
  5
133
330
1F
100
AcDbEntity
  8
0
  6
HIDDEN
 62
     7
370
     0
100
AcDbSpline
210
0.0
220
0.0
230
1.0
 70
     8
 71
     3
 72
    10
 73
     6
 74
     0
 42
0.000000001
 43
0.00000001
 40
0.0
 40
0.0
 40
0.0
 40
0.0
 40
0.4391256411598906
 40
0.7513744919723304
 40
1.0
 40
1.0
 40
1.0
 40
1.0
 10
237.9799414628338
 20
131.6517807427176
 30
0.0
 10
237.6648242568642
 20
131.4805541073236
 30
0.0
 10
237.1256368162908
 20
131.1875734336343
 30
0.0
 10
236.3418420439338
 20
131.3178097210291
 30
0.0
 10
235.9517308198847
 20
131.5492066493393
 30
0.0
 10
235.7788015359234
 20
131.6517807427176
 30
0.0
  0
SPLINE
  5
134
330
1F
100
AcDbEntity
  8
0
  6
HIDDEN
 62
     7
370
     0
100
AcDbSpline
210
0.0
220
0.0
230
1.0
 70
     8
 71
     3
 72
    10
 73
     6
 74
     0
 42
0.000000001
 43
0.00000001
 40
0.0
 40
0.0
 40
0.0
 40
0.0
 40
0.4391256343326618
 40
0.7513740959658951
 40
0.9999999999999999
 40
0.9999999999999999
 40
0.9999999999999999
 40
0.9999999999999999
 10
235.7788015359234
 20
131.6517807427176
 30
0.0
 10
235.8528049371718
 20
131.4805540312398
 30
0.0
 10
235.9794298352969
 20
131.187573377224
 30
0.0
 10
236.163494661427
 20
131.317810116711
 30
0.0
 10
236.255110916628
 20
131.5492066585331
 30
0.0
 10
236.295722817738
 20
131.6517807427176
 30
0.0
  0
SPLINE
  5
135
330
1F
100
AcDbEntity
  8
0
  6
HIDDEN
 62
     7
370
     0
100
AcDbSpline
210
0.0
220
0.0
230
1.0
 70
     8
 71
     3
 72
    11
 73
     7
 74
     0
 42
0.000000001
 43
0.00000001
 40
0.0
 40
0.0
 40
0.0
 40
0.0
 40
0.1849306087122352
 40
0.5198452450809036
 40
0.8714434434710195
 40
1.0
 40
1.0
 40
1.0
 40
1.0
 10
236.295722817738
 20
131.6517807427176
 30
0.0
 10
236.4539267721941
 20
131.5737764082555
 30
0.0
 10
236.8986426256143
 20
131.3545039868417
 30
0.0
 10
237.7287891027988
 20
131.1924979939612
 30
0.0
 10
238.4954658982616
 20
131.3908815923078
 30
0.0
 10
238.9043121472214
 20
131.5966802447521
 30
0.0
 10
239.0137765758824
 20
131.6517807427176
 30
0.0
  0
SPLINE
  5
136
330
1F
100
AcDbEntity
  8
0
  6
HIDDEN
 62
     7
370
     0
100
AcDbSpline
210
0.0
220
0.0
230
1.0
 70
     8
 71
     3
 72
    10
 73
     6
 74
     0
 42
0.000000001
 43
0.00000001
 40
0.0
 40
0.0
 40
0.0
 40
0.0
 40
0.4391246247492013
 40
0.7513740414157664
 40
1.0
 40
1.0
 40
1.0
 40
1.0
 10
239.0137765758824
 20
131.6517807427176
 30
0.0
 10
239.3288909708717
 20
131.4805541984763
 30
0.0
 10
239.8680745263526
 20
131.1875731782985
 30
0.0
 10
240.6518686529158
 20
131.3178098012492
 30
0.0
 10
241.0419798016407
 20
131.5492066739777
 30
0.0
 10
241.2149090522122
 20
131.6517807427176
 30
0.0
  0
LINE
  5
137
330
1F
100
AcDbEntity
  8
0
  6
HIDDEN
 62
     7
370
     0
100
AcDbLine
 10
241.2149090522
 20
131.6517807427
 30
0.0
 11
241.0373915189
 21
131.3531484339
 31
0.0
  0
SPLINE
  5
138
330
1F
100
AcDbEntity
  8
0
  6
HIDDEN
 62
     7
370
     0
100
AcDbSpline
210
0.0
220
0.0
230
1.0
 70
     8
 71
     3
 72
    11
 73
     7
 74
     0
 42
0.000000001
 43
0.00000001
 40
0.0
 40
0.0
 40
0.0
 40
0.0
 40
0.128554702048326
 40
0.4801536742515818
 40
0.8150689976927914
 40
1.0
 40
1.0
 40
1.0
 40
1.0
 10
240.6979877703976
 20
131.6517807427176
 30
0.0
 10
240.588525891811
 20
131.596680173844
 30
0.0
 10
240.1796841897468
 20
131.3908787509751
 30
0.0
 10
239.4130072605419
 20
131.1924988125406
 30
0.0
 10
238.5828613049617
 20
131.3545038978492
 30
0.0
 10
238.1381454320551
 20
131.5737763820553
 30
0.0
 10
237.9799414628338
 20
131.6517807427176
 30
0.0
  0
LINE
  5
139
330
1F
100
AcDbEntity
  8
0
  6
HIDDEN
 62
     7
370
     0
100
AcDbLine
 10
235.9968576783
 20
123.7650301191
 30
0.0
 11
240.9968529099
 21
123.7650301191
 31
0.0
  0
LINE
  5
13A
330
1F
100
AcDbEntity
  8
0
  6
HIDDEN
 62
     7
370
     0
100
AcDbLine
 10
240.1143390888
 20
124.765030283
 30
0.0
 11
239.0137765759
 21
124.765030283
 31
0.0
  0
LINE
  5
13B
330
1F
100
AcDbEntity
  8
0
  6
HIDDEN
 62
     7
370
     0
100
AcDbLine
 10
239.0137765759
 20
124.765030283
 30
0.0
 11
237.6547459715
 21
124.765030283
 31
0.0
  0
LINE
  5
13C
330
1F
100
AcDbEntity
  8
0
  6
HIDDEN
 62
     7
370
     0
100
AcDbLine
 10
239.0137765759
 20
124.765030283
 30
0.0
 11
239.0137765759
 21
131.6517807427
 31
0.0
  0
LINE
  5
13D
330
1F
100
AcDbEntity
  8
0
  6
HIDDEN
 62
     7
370
     0
100
AcDbLine
 10
237.6547459715
 20
124.765030283
 30
0.0
 11
236.2957228177
 21
124.765030283
 31
0.0
  0
LINE
  5
13E
330
1F
100
AcDbEntity
  8
0
  6
HIDDEN
 62
     7
370
     0
100
AcDbLine
 10
241.2149090522
 20
124.765030283
 30
0.0
 11
240.1143390888
 21
124.765030283
 31
0.0
  0
LINE
  5
13F
330
1F
100
AcDbEntity
  8
0
  6
HIDDEN
 62
     7
370
     0
100
AcDbLine
 10
236.2957228177
 20
124.765030283
 30
0.0
 11
236.0372621768
 21
124.765030283
 31
0.0
  0
LINE
  5
140
330
1F
100
AcDbEntity
  8
0
  6
HIDDEN
 62
     7
370
     0
100
AcDbLine
 10
236.2957228177
 20
124.765030283
 30
0.0
 11
236.2957228177
 21
131.6517807427
 31
0.0
  0
LINE
  5
141
330
1F
100
AcDbEntity
  8
0
  6
HIDDEN
 62
     7
370
     0
100
AcDbLine
 10
240.6979877704
 20
124.765030283
 30
0.0
 11
240.6979877704
 21
131.6517807427
 31
0.0
  0
LINE
  5
142
330
1F
100
AcDbEntity
  8
0
  6
HIDDEN
 62
     7
370
     0
100
AcDbLine
 10
241.2149090522
 20
124.765030283
 30
0.0
 11
241.2149090522
 21
131.6517807427
 31
0.0
  0
LINE
  5
143
330
1F
100
AcDbEntity
  8
0
  6
HIDDEN
 62
     7
370
     0
100
AcDbLine
 10
236.0372621768
 20
124.765030283
 30
0.0
 11
235.7788015359
 21
124.765030283
 31
0.0
  0
LINE
  5
144
330
1F
100
AcDbEntity
  8
0
  6
HIDDEN
 62
     7
370
     0
100
AcDbLine
 10
237.9799414628
 20
124.765030283
 30
0.0
 11
237.9799414628
 21
131.6517807427
 31
0.0
  0
LINE
  5
145
330
1F
100
AcDbEntity
  8
0
  6
HIDDEN
 62
     7
370
     0
100
AcDbLine
 10
235.7788015359
 20
124.765030283
 30
0.0
 11
235.7788015359
 21
131.6517807427
 31
0.0
  0
LWPOLYLINE
  5
146
330
1F
100
AcDbEntity
  8
0
  6
HIDDEN
 62
     7
370
     0
100
AcDbPolyline
 90
       18
 70
   128
 43
0.0
 10
165.1274183967
 20
123.3442399535
 10
165.803783966
 20
123.5967475805
 10
166.3374066555
 20
124.0618007141
 10
166.6562151366
 20
124.67659096
 10
166.717155298
 20
125.3580881167
 10
166.5119961106
 20
126.0142514366
 10
166.0684444213
 20
126.5564627829
 10
165.4464047604
 20
126.9114931929
 10
164.7298880124
 20
127.0313944551
 10
164.0156623178
 20
126.8999727327
 10
163.4001884812
 20
126.5349771711
 10
162.9665898361
 20
125.9857036057
 10
162.7734260836
 20
125.3263328108
 10
162.8467854315
 20
124.645917851
 10
163.1767595389
 20
124.0363513935
 10
163.7187836894
 20
123.5799595598
 10
164.3996549972
 20
123.3383800718
 10
165.1274183967
 20
123.3442399535
  0
LWPOLYLINE
  5
147
330
1F
100
AcDbEntity
  8
0
  6
HIDDEN
 62
     7
370
     0
100
AcDbPolyline
 90
       21
 70
   128
 43
0.0
 10
165.2272701466
 20
122.9676680523
 10
165.9619011187
 20
123.22000711
 10
166.5775947475
 20
123.6733190599
 10
167.0140832865
 20
124.2832310382
 10
167.2286413812
 20
124.9900387484
 10
167.2002621197
 20
125.7245560992
 10
166.9317282939
 20
126.4148840565
 10
166.4493236893
 20
126.9934467855
 10
165.8002700859
 20
127.4036124233
 10
165.048100447
 20
127.6052288595
 10
164.2664432728
 20
127.5785632315
 10
163.5318123006
 20
127.3262241739
 10
162.9161177405
 20
126.8729122239
 10
162.4796292016
 20
126.2630002457
 10
162.2650729695
 20
125.5561925355
 10
162.2934503683
 20
124.8216742534
 10
162.5619841942
 20
124.1313472274
 10
163.0443887987
 20
123.552783567
 10
163.6934433335
 20
123.1426188606
 10
164.4456129723
 20
122.941001493
 10
165.2272701466
 20
122.9676680523
  0
LWPOLYLINE
  5
148
330
1F
100
AcDbEntity
  8
0
  6
HIDDEN
 62
     7
370
     0
100
AcDbPolyline
 90
       21
 70
   128
 43
0.0
 10
165.2272701466
 20
123.566202994
 10
165.9619011187
 20
123.8185429829
 10
166.5775947475
 20
124.2718549329
 10
167.0140832865
 20
124.8817659798
 10
167.2286413812
 20
125.5885736901
 10
167.2002621197
 20
126.3230919722
 10
166.9317282939
 20
127.0134189981
 10
166.4493236893
 20
127.5919817272
 10
165.8002700859
 20
128.0021473649
 10
165.048100447
 20
128.2037656638
 10
164.2664432728
 20
128.1770981732
 10
163.5318123006
 20
127.9247600469
 10
162.9161177405
 20
127.4714462343
 10
162.4796292016
 20
126.8615361187
 10
162.2650729695
 20
126.1547274771
 10
162.2934503683
 20
125.4202101264
 10
162.5619841942
 20
124.7298821691
 10
163.0443887987
 20
124.15131944
 10
163.6934433335
 20
123.7411538023
 10
164.4456129723
 20
123.5395364347
 10
165.2272701466
 20
123.566202994
  0
LWPOLYLINE
  5
149
330
1F
100
AcDbEntity
  8
0
  6
HIDDEN
 62
     7
370
     0
100
AcDbPolyline
 90
       18
 70
   128
 43
0.0
 10
165.1311874592
 20
125.2072622883
 10
165.8142520317
 20
125.4622705165
 10
166.3531590455
 20
125.9319299716
 10
166.6751265728
 20
126.5528101358
 10
166.7366702312
 20
127.2410565871
 10
166.529478898
 20
127.9037196073
 10
166.08153416
 20
128.4513000283
 10
165.4533338004
 20
128.8098480436
 10
164.729719443
 20
128.9309367421
 10
164.0084203535
 20
128.798213962
 10
163.3868500793
 20
128.4296020749
 10
162.9489571058
 20
127.874887723
 10
162.7538804167
 20
127.2089864943
 10
162.8279652649
 20
126.5218324843
 10
163.1612083146
 20
125.9062282625
 10
163.7086015397
 20
125.445315789
 10
164.3962165543
 20
125.2013437334
 10
165.1311874592
 20
125.2072622883
  0
LWPOLYLINE
  5
14A
330
1F
100
AcDbEntity
  8
0
  6
HIDDEN
 62
     7
370
     0
100
AcDbPolyline
 90
       18
 70
   128
 43
0.0
 10
165.1311874592
 20
123.7894857186
 10
165.8142520317
 20
124.0444948781
 10
166.3531590455
 20
124.5141543332
 10
166.6751265728
 20
125.1350335661
 10
166.7366702312
 20
125.8232809487
 10
166.529478898
 20
126.4859430376
 10
166.08153416
 20
127.0335243899
 10
165.4533338004
 20
127.3920714739
 10
164.729719443
 20
127.5131601724
 10
164.0084203535
 20
127.3804373923
 10
163.3868500793
 20
127.0118273679
 10
162.9489571058
 20
126.4571120846
 10
162.7538804167
 20
125.7912108559
 10
162.8279652649
 20
125.1040559146
 10
163.1612083146
 20
124.4884526241
 10
163.7086015397
 20
124.0275401506
 10
164.3962165543
 20
123.783568095
 10
165.1311874592
 20
123.7894857186
  0
LWPOLYLINE
  5
14B
330
1F
100
AcDbEntity
  8
0
  6
HIDDEN
 62
     7
370
     0
100
AcDbPolyline
 90
       21
 70
   128
 43
0.0
 10
165.2272701466
 20
123.8021964091
 10
165.9619011187
 20
124.0545363981
 10
166.5775947475
 20
124.507848348
 10
167.0140832865
 20
125.1177603263
 10
167.2286413812
 20
125.8245680365
 10
167.2002621197
 20
126.5590853873
 10
166.9317282939
 20
127.2494133446
 10
166.4493236893
 20
127.827977005
 10
165.8002700859
 20
128.23814078
 10
165.048100447
 20
128.4397590789
 10
164.2664432728
 20
128.413093451
 10
163.5318123006
 20
128.160753462
 10
162.9161177405
 20
127.7074415121
 10
162.4796292016
 20
127.0975295338
 10
162.2650729695
 20
126.3907218236
 10
162.2934503683
 20
125.6562035415
 10
162.5619841942
 20
124.9658765155
 10
163.0443887987
 20
124.3873128551
 10
163.6934433335
 20
123.9771481487
 10
164.4456129723
 20
123.7755307812
 10
165.2272701466
 20
123.8021964091
  0
LWPOLYLINE
  5
14C
330
1F
100
AcDbEntity
  8
0
  6
HIDDEN
 62
     7
370
     0
100
AcDbPolyline
 90
       20
 70
   128
 43
0.0
 10
165.1888372579
 20
123.8121131319
 10
165.8977795595
 20
124.0618910524
 10
166.4820019358
 20
124.5144467685
 10
166.8781940096
 20
125.1207377646
 10
167.0434218102
 20
125.8150638896
 10
166.9597834551
 20
126.5221835929
 10
166.6363388502
 20
127.1654695156
 10
166.108139252
 20
127.675212163
 10
165.4324237459
 20
127.9961719993
 10
164.6824166381
 20
128.0935697141
 10
163.9393925869
 20
127.9568478349
 10
163.2838690856
 20
127.6008255664
 10
162.7868836948
 20
127.0640820149
 10
162.5022920051
 20
126.4047810692
 10
162.4609338322
 20
125.6943691406
 10
162.667289769
 20
125.0098302844
 10
163.0989996919
 20
124.4253443438
 10
163.7092804738
 20
124.0042496356
 10
164.4319988989
 20
123.7921791035
 10
165.1888372579
 20
123.8121131319
  0
LWPOLYLINE
  5
14D
330
1F
100
AcDbEntity
  8
0
  6
HIDDEN
 62
     7
370
     0
100
AcDbPolyline
 90
       21
 70
   128
 43
0.0
 10
165.2272701466
 20
124.0381907556
 10
165.9619011187
 20
124.2905307445
 10
166.5775947475
 20
124.7438426945
 10
167.0140832865
 20
125.3537537414
 10
167.2286413812
 20
126.0605614516
 10
167.2002621197
 20
126.7950797337
 10
166.9317282939
 20
127.4854067597
 10
166.4493236893
 20
128.0639704201
 10
165.8002700859
 20
128.4741360578
 10
165.048100447
 20
128.675752494
 10
164.2664432728
 20
128.6490868661
 10
163.5318123006
 20
128.3967468771
 10
162.9161177405
 20
127.9434349272
 10
162.4796292016
 20
127.3335238803
 10
162.2650729695
 20
126.6267152387
 10
162.2934503683
 20
125.8921978879
 10
162.5619841942
 20
125.2018699306
 10
163.0443887987
 20
124.6233072016
 10
163.6934433335
 20
124.2131415638
 10
164.4456129723
 20
124.0115241963
 10
165.2272701466
 20
124.0381907556
  0
LWPOLYLINE
  5
14E
330
1F
100
AcDbEntity
  8
0
  6
HIDDEN
 62
     7
370
     0
100
AcDbPolyline
 90
       20
 70
   128
 43
0.0
 10
165.1888372579
 20
124.048106547
 10
165.8977795595
 20
124.2978853989
 10
166.4820019358
 20
124.7504401836
 10
166.8781940096
 20
125.356732111
 10
167.0434218102
 20
126.0510582361
 10
166.9597834551
 20
126.7581779394
 10
166.6363388502
 20
127.4014629308
 10
166.108139252
 20
127.9112055782
 10
165.4324237459
 20
128.2321654144
 10
164.6824166381
 20
128.3295631293
 10
163.9393925869
 20
128.1928431127
 10
163.2838690856
 20
127.8368208441
 10
162.7868836948
 20
127.3000763613
 10
162.5022920051
 20
126.6407754156
 10
162.4609338322
 20
125.930363487
 10
162.667289769
 20
125.2458246309
 10
163.0989996919
 20
124.6613386902
 10
163.7092804738
 20
124.2402439821
 10
164.4319988989
 20
124.0281725186
 10
165.1888372579
 20
124.048106547
  0
LWPOLYLINE
  5
14F
330
1F
100
AcDbEntity
  8
0
  6
HIDDEN
 62
     7
370
     0
100
AcDbPolyline
 90
       21
 70
   128
 43
0.0
 10
165.2272701466
 20
124.274185102
 10
165.9619011187
 20
124.5265241596
 10
166.5775947475
 20
124.9798361096
 10
167.0140832865
 20
125.5897480878
 10
167.2286413812
 20
126.2965557981
 10
167.2002621197
 20
127.0310731489
 10
166.9317282939
 20
127.7214001748
 10
166.4493236893
 20
128.2999638352
 10
165.8002700859
 20
128.7101294729
 10
165.048100447
 20
128.9117459092
 10
164.2664432728
 20
128.8850802812
 10
163.5318123006
 20
128.6327402923
 10
162.9161177405
 20
128.1794283423
 10
162.4796292016
 20
127.5695182267
 10
162.2650729695
 20
126.8627095851
 10
162.2934503683
 20
126.128191303
 10
162.5619841942
 20
125.4378642771
 10
163.0443887987
 20
124.8593006167
 10
163.6934433335
 20
124.4491359103
 10
164.4456129723
 20
124.2475185427
 10
165.2272701466
 20
124.274185102
  0
LWPOLYLINE
  5
150
330
1F
100
AcDbEntity
  8
0
  6
HIDDEN
 62
     7
370
     0
100
AcDbPolyline
 90
       20
 70
   128
 43
0.0
 10
165.1888372579
 20
124.2841008935
 10
165.8977795595
 20
124.533878814
 10
166.4820019358
 20
124.98643453
 10
166.8781940096
 20
125.5927255261
 10
167.0434218102
 20
126.2870516512
 10
166.9597834551
 20
126.9941713545
 10
166.6363388502
 20
127.6374582085
 10
166.108139252
 20
128.1472008559
 10
165.4324237459
 20
128.4681606922
 10
164.6824166381
 20
128.5655565444
 10
163.9393925869
 20
128.4288365278
 10
163.2838690856
 20
128.0728142592
 10
162.7868836948
 20
127.5360707078
 10
162.5022920051
 20
126.8767688307
 10
162.4609338322
 20
126.1663569021
 10
162.667289769
 20
125.481818046
 10
163.0989996919
 20
124.8973321054
 10
163.7092804738
 20
124.4762373972
 10
164.4319988989
 20
124.2641668651
 10
165.1888372579
 20
124.2841008935
  0
LWPOLYLINE
  5
151
330
1F
100
AcDbEntity
  8
0
  6
HIDDEN
 62
     7
370
     0
100
AcDbPolyline
 90
       21
 70
   128
 43
0.0
 10
165.2272701466
 20
124.5101785171
 10
165.9619011187
 20
124.7625185061
 10
166.5775947475
 20
125.215830456
 10
167.0140832865
 20
125.825741503
 10
167.2286413812
 20
126.5325501445
 10
167.2002621197
 20
127.2670674953
 10
166.9317282939
 20
127.9573954526
 10
166.4493236893
 20
128.5359572503
 10
165.8002700859
 20
128.946122888
 10
165.048100447
 20
129.1477411869
 10
164.2664432728
 20
129.1210736963
 10
163.5318123006
 20
128.86873557
 10
162.9161177405
 20
128.4154217574
 10
162.4796292016
 20
127.8055116418
 10
162.2650729695
 20
127.0987030003
 10
162.2934503683
 20
126.3641856495
 10
162.5619841942
 20
125.6738576922
 10
163.0443887987
 20
125.0952949631
 10
163.6934433335
 20
124.6851293254
 10
164.4456129723
 20
124.4835119578
 10
165.2272701466
 20
124.5101785171
  0
LWPOLYLINE
  5
152
330
1F
100
AcDbEntity
  8
0
  6
HIDDEN
 62
     7
370
     0
100
AcDbPolyline
 90
       20
 70
   128
 43
0.0
 10
165.1888372579
 20
124.5200943086
 10
165.8977795595
 20
124.7698731604
 10
166.4820019358
 20
125.2224279451
 10
166.8781940096
 20
125.8287198725
 10
167.0434218102
 20
126.5230459976
 10
166.9597834551
 20
127.2301657009
 10
166.6363388502
 20
127.8734516236
 10
166.108139252
 20
128.383194271
 10
165.4324237459
 20
128.7041541073
 10
164.6824166381
 20
128.8015518221
 10
163.9393925869
 20
128.6648299429
 10
163.2838690856
 20
128.3088076744
 10
162.7868836948
 20
127.7720641229
 10
162.5022920051
 20
127.1127631772
 10
162.4609338322
 20
126.4023512486
 10
162.667289769
 20
125.7178123924
 10
163.0989996919
 20
125.1333264518
 10
163.7092804738
 20
124.7122317436
 10
164.4319988989
 20
124.5001602802
 10
165.1888372579
 20
124.5200943086
  0
LWPOLYLINE
  5
153
330
1F
100
AcDbEntity
  8
0
  6
HIDDEN
 62
     7
370
     0
100
AcDbPolyline
 90
       21
 70
   128
 43
0.0
 10
165.2272701466
 20
124.6982898447
 10
165.9619011187
 20
124.9506289023
 10
166.5775947475
 20
125.4039408523
 10
167.0140832865
 20
126.0138528305
 10
167.2286413812
 20
126.7206605408
 10
167.2002621197
 20
127.4551778916
 10
166.9317282939
 20
128.1455058488
 10
166.4493236893
 20
128.7240695092
 10
165.8002700859
 20
129.134235147
 10
165.048100447
 20
129.3358515832
 10
164.2664432728
 20
129.3091859552
 10
163.5318123006
 20
129.0568459663
 10
162.9161177405
 20
128.6035340163
 10
162.4796292016
 20
127.9936220381
 10
162.2650729695
 20
127.2868143278
 10
162.2934503683
 20
126.5522969771
 10
162.5619841942
 20
125.8619690198
 10
163.0443887987
 20
125.2834062907
 10
163.6934433335
 20
124.873240653
 10
164.4456129723
 20
124.6716232854
 10
165.2272701466
 20
124.6982898447
  0
LWPOLYLINE
  5
154
330
1F
100
AcDbEntity
  8
0
  6
HIDDEN
 62
     7
370
     0
100
AcDbPolyline
 90
       20
 70
   128
 43
0.0
 10
165.2003670314
 20
124.8752774555
 10
165.9278035366
 20
125.1315718401
 10
166.5272660756
 20
125.5959330011
 10
166.9337939673
 20
126.2180406484
 10
167.1033337915
 20
126.9304800663
 10
167.0175105536
 20
127.6560455445
 10
166.6856281662
 20
128.3161129686
 10
166.1436505818
 20
128.8391530398
 10
165.4503079333
 20
129.1684873286
 10
164.6807356008
 20
129.2684238288
 10
163.9183279329
 20
129.1281368467
 10
163.2457044178
 20
128.7628274295
 10
162.7357540854
 20
128.2120805118
 10
162.4437378922
 20
127.5355808321
 10
162.4013003164
 20
126.8066365156
 10
162.613040229
 20
126.1042395491
 10
163.0560126358
 20
125.5045069265
 10
163.6822134459
 20
125.0724272686
 10
164.4237855652
 20
124.8548237491
 10
165.2003670314
 20
124.8752774555
  0
ARC
  5
155
330
1F
100
AcDbEntity
  8
0
  6
HIDDEN
 62
     7
370
     0
100
AcDbCircle
 10
164.7317481388
 20
96.4449130702
 30
0.0
 40
2.479408675144727
100
AcDbArc
 50
345.3788411692
 51
182.3307801969
  0
ARC
  5
156
330
1F
100
AcDbEntity
  8
0
  6
HIDDEN
 62
     7
370
     0
100
AcDbCircle
 10
164.7257801881
 20
96.3798816868
 30
0.0
 40
2.357911196368648
100
AcDbArc
 50
351.2853369874
 51
158.2574213455
  0
ARC
  5
157
330
1F
100
AcDbEntity
  8
0
  6
HIDDEN
 62
     7
370
     0
100
AcDbCircle
 10
164.7470711044
 20
96.3788474853
 30
0.0
 40
2.002264332056965
100
AcDbArc
 50
2.8510664868
 51
126.4780491783
  0
LWPOLYLINE
  5
158
330
1F
100
AcDbEntity
  8
0
  6
HIDDEN
 62
     7
370
     0
100
AcDbPolyline
 90
       21
 70
   128
 43
0.0
 10
163.89180666
 20
94.5068776491
 10
163.2077027314
 20
94.8632147047
 10
162.6742625811
 20
95.4007591936
 10
162.3437026718
 20
96.0668969783
 10
162.2483799436
 20
96.7964205775
 10
162.3976253175
 20
97.5179180387
 10
162.7768300676
 20
98.1607653085
 10
163.34887447
 20
98.6620347831
 10
164.0577636861
 20
98.9726597327
 10
164.8341058024
 20
99.0622343379
 10
165.6019067594
 20
98.9219892654
 10
166.2860106879
 20
98.5656531412
 10
166.8194499069
 20
98.0281067896
 10
167.1500116789
 20
97.3619699362
 10
167.2453344071
 20
96.6324463371
 10
167.0960881018
 20
95.9109488759
 10
166.7168833518
 20
95.2681016061
 10
166.1448389494
 20
94.7668321315
 10
165.4359497332
 20
94.4562081131
 10
164.6596076169
 20
94.3666335079
 10
163.89180666
 20
94.5068776491
  0
LWPOLYLINE
  5
159
330
1F
100
AcDbEntity
  8
0
  6
HIDDEN
 62
     7
370
     0
100
AcDbPolyline
 90
       18
 70
   128
 43
0.0
 10
164.0628161111
 20
96.1301710341
 10
163.430096043
 20
96.481629822
 10
162.9752110892
 20
97.0241363976
 10
162.7595968747
 20
97.6844217512
 10
162.8123730623
 20
98.3733108151
 10
163.1264122405
 20
98.9977663267
 10
163.6593010479
 20
99.4734505075
 10
164.3390706011
 20
99.7361207265
 10
165.0739139148
 20
99.7503019753
 10
165.7645855301
 20
99.5140775922
 10
166.3178079032
 20
99.0593528259
 10
166.6588656807
 20
98.4475400183
 10
166.7416937851
 20
97.7612670395
 10
166.5551088953
 20
97.0932200435
 10
166.1243107372
 20
96.533621836
 10
165.5074781009
 20
96.1580501753
 10
164.7879205846
 20
96.0172258201
 10
164.0628161111
 20
96.1301710341
  0
LWPOLYLINE
  5
15A
330
1F
100
AcDbEntity
  8
0
  6
HIDDEN
 62
     7
370
     0
100
AcDbPolyline
 90
       21
 70
   128
 43
0.0
 10
163.89180666
 20
94.7428710643
 10
163.2077027314
 20
95.0992081198
 10
162.6742625811
 20
95.6367544714
 10
162.3437026718
 20
96.3028913248
 10
162.2483799436
 20
97.0324149239
 10
162.3976253175
 20
97.7539123851
 10
162.7768300676
 20
98.3967587236
 10
163.34887447
 20
98.8980291295
 10
164.0577636861
 20
99.2086540792
 10
164.8341058024
 20
99.2982277531
 10
165.6019067594
 20
99.1579826805
 10
166.2860106879
 20
98.8016474876
 10
166.8194499069
 20
98.264101136
 10
167.1500116789
 20
97.5979633513
 10
167.2453344071
 20
96.8684406835
 10
167.0960881018
 20
96.1469432223
 10
166.7168833518
 20
95.5040968838
 10
166.1448389494
 20
95.0028255466
 10
165.4359497332
 20
94.6922015283
 10
164.6596076169
 20
94.602626923
 10
163.89180666
 20
94.7428710643
  0
LWPOLYLINE
  5
15B
330
1F
100
AcDbEntity
  8
0
  6
HIDDEN
 62
     7
370
     0
100
AcDbPolyline
 90
       20
 70
   128
 43
0.0
 10
163.9602104404
 20
94.8580030236
 10
163.3010622316
 20
95.2080648276
 10
162.7985885569
 20
95.7402765635
 10
162.5072401219
 20
96.396967012
 10
162.4585887619
 20
97.1069710213
 10
162.6579066941
 20
97.7933492395
 10
163.0835946852
 20
98.3817225206
 10
163.6895224654
 20
98.8083306584
 10
164.4100299307
 20
99.0269446629
 10
165.1670368591
 20
99.0138744819
 10
165.8785114267
 20
98.7705357257
 10
166.4673540943
 20
98.3232987929
 10
166.8697525018
 20
97.7206278476
 10
167.0421030575
 20
97.0278328169
 10
166.9657290184
 20
96.319986682
 10
166.6489042544
 20
95.6737987581
 10
166.1259638348
 20
95.1592896018
 10
165.4535759443
 20
94.8322184268
 10
164.7046035358
 20
94.7280257824
 10
163.9602104404
 20
94.8580030236
  0
LWPOLYLINE
  5
15C
330
1F
100
AcDbEntity
  8
0
  6
HIDDEN
 62
     7
370
     0
100
AcDbPolyline
 90
       21
 70
   128
 43
0.0
 10
163.89180666
 20
94.978866342
 10
163.2077027314
 20
95.3352015349
 10
162.6742625811
 20
95.8727478865
 10
162.3437026718
 20
96.5388856712
 10
162.2483799436
 20
97.268408339
 10
162.3976253175
 20
97.9899058002
 10
162.7768300676
 20
98.63275307
 10
163.34887447
 20
99.1340225446
 10
164.0577636861
 20
99.4446474943
 10
164.8341058024
 20
99.5342220995
 10
165.6019067594
 20
99.393977027
 10
166.2860106879
 20
99.0376409027
 10
166.8194499069
 20
98.5000954825
 10
167.1500116789
 20
97.8339576978
 10
167.2453344071
 20
97.1044340986
 10
167.0960881018
 20
96.3829366374
 10
166.7168833518
 20
95.740090299
 10
166.1448389494
 20
95.2388208243
 10
165.4359497332
 20
94.9281949434
 10
164.6596076169
 20
94.8386203382
 10
163.89180666
 20
94.978866342
  0
LWPOLYLINE
  5
15D
330
1F
100
AcDbEntity
  8
0
  6
HIDDEN
 62
     7
370
     0
100
AcDbPolyline
 90
       20
 70
   128
 43
0.0
 10
163.9602104404
 20
95.0939964387
 10
163.3010622316
 20
95.4440582428
 10
162.7985885569
 20
95.9762718412
 10
162.5072401219
 20
96.6329604271
 10
162.4585887619
 20
97.3429644364
 10
162.6579066941
 20
98.0293426547
 10
163.0835946852
 20
98.6177159357
 10
163.6895224654
 20
99.0443240735
 10
164.4100299307
 20
99.2629390094
 10
165.1670368591
 20
99.249867897
 10
165.8785114267
 20
99.0065300721
 10
166.4673540943
 20
98.559292208
 10
166.8697525018
 20
97.9566221941
 10
167.0421030575
 20
97.263826232
 10
166.9657290184
 20
96.5559810284
 10
166.6489042544
 20
95.9097921732
 10
166.1259638348
 20
95.3952848795
 10
165.4535759443
 20
95.0682118419
 10
164.7046035358
 20
94.9640191975
 10
163.9602104404
 20
95.0939964387
  0
LWPOLYLINE
  5
15E
330
1F
100
AcDbEntity
  8
0
  6
HIDDEN
 62
     7
370
     0
100
AcDbPolyline
 90
       21
 70
   128
 43
0.0
 10
163.89180666
 20
95.2148597571
 10
163.2077027314
 20
95.5711949501
 10
162.6742625811
 20
96.1087413016
 10
162.3437026718
 20
96.7748790863
 10
162.2483799436
 20
97.5044026855
 10
162.3976253175
 20
98.2259001467
 10
162.7768300676
 20
98.8687464851
 10
163.34887447
 20
99.3700168911
 10
164.0577636861
 20
99.6806418407
 10
164.8341058024
 20
99.7702155146
 10
165.6019067594
 20
99.6299704421
 10
166.2860106879
 20
99.2736352492
 10
166.8194499069
 20
98.7360888976
 10
167.1500116789
 20
98.0699511129
 10
167.2453344071
 20
97.3404284451
 10
167.0960881018
 20
96.6189309839
 10
166.7168833518
 20
95.9760837141
 10
166.1448389494
 20
95.4748142395
 10
165.4359497332
 20
95.1641883585
 10
164.6596076169
 20
95.0746156159
 10
163.89180666
 20
95.2148597571
  0
LWPOLYLINE
  5
15F
330
1F
100
AcDbEntity
  8
0
  6
HIDDEN
 62
     7
370
     0
100
AcDbPolyline
 90
       20
 70
   128
 43
0.0
 10
163.9602104404
 20
95.3299898538
 10
163.3010622316
 20
95.6800516579
 10
162.7985885569
 20
96.2122652564
 10
162.5072401219
 20
96.8689547736
 10
162.4585887619
 20
97.5789587829
 10
162.6579066941
 20
98.2653370011
 10
163.0835946852
 20
98.8537102822
 10
163.6895224654
 20
99.2803184199
 10
164.4100299307
 20
99.4989324245
 10
165.1670368591
 20
99.4858622435
 10
165.8785114267
 20
99.2425234872
 10
166.4673540943
 20
98.7952865544
 10
166.8697525018
 20
98.1926156092
 10
167.0421030575
 20
97.4998205784
 10
166.9657290184
 20
96.7919753748
 10
166.6489042544
 20
96.1457855883
 10
166.1259638348
 20
95.6312782946
 10
165.4535759443
 20
95.304205257
 10
164.7046035358
 20
95.2000126127
 10
163.9602104404
 20
95.3299898538
  0
LWPOLYLINE
  5
160
330
1F
100
AcDbEntity
  8
0
  6
HIDDEN
 62
     7
370
     0
100
AcDbPolyline
 90
       21
 70
   128
 43
0.0
 10
163.89180666
 20
95.4508531723
 10
163.2077027314
 20
95.8071902278
 10
162.6742625811
 20
96.344735648
 10
162.3437026718
 20
97.0108734328
 10
162.2483799436
 20
97.7403961006
 10
162.3976253175
 20
98.4618935618
 10
162.7768300676
 20
99.1047408316
 10
163.34887447
 20
99.6060103062
 10
164.0577636861
 20
99.9166352558
 10
164.8341058024
 20
100.0062098611
 10
165.6019067594
 20
99.8659647885
 10
166.2860106879
 20
99.5096286643
 10
166.8194499069
 20
98.972083244
 10
167.1500116789
 20
98.3059454593
 10
167.2453344071
 20
97.5764218602
 10
167.0960881018
 20
96.854924399
 10
166.7168833518
 20
96.2120780605
 10
166.1448389494
 20
95.7108076546
 10
165.4359497332
 20
95.4001836363
 10
164.6596076169
 20
95.310609031
 10
163.89180666
 20
95.4508531723
  0
LWPOLYLINE
  5
161
330
1F
100
AcDbEntity
  8
0
  6
HIDDEN
 62
     7
370
     0
100
AcDbPolyline
 90
       20
 70
   128
 43
0.0
 10
163.9602104404
 20
95.5659832689
 10
163.3010622316
 20
95.9160469356
 10
162.7985885569
 20
96.4482586715
 10
162.5072401219
 20
97.1049481887
 10
162.4585887619
 20
97.814952198
 10
162.6579066941
 20
98.5013304162
 10
163.0835946852
 20
99.0897036973
 10
163.6895224654
 20
99.5163118351
 10
164.4100299307
 20
99.7349267709
 10
165.1670368591
 20
99.7218556586
 10
165.8785114267
 20
99.4785178337
 10
166.4673540943
 20
99.0312799695
 10
166.8697525018
 20
98.4286099556
 10
167.0421030575
 20
97.7358139935
 10
166.9657290184
 20
97.0279687899
 10
166.6489042544
 20
96.3817799348
 10
166.1259638348
 20
95.8672717098
 10
165.4535759443
 20
95.5402005348
 10
164.7046035358
 20
95.4360060278
 10
163.9602104404
 20
95.5659832689
  0
LWPOLYLINE
  5
162
330
1F
100
AcDbEntity
  8
0
  6
HIDDEN
 62
     7
370
     0
100
AcDbPolyline
 90
       21
 70
   128
 43
0.0
 10
163.89180666
 20
96.0493881139
 10
163.2077027314
 20
96.4057251695
 10
162.6742625811
 20
96.9432705897
 10
162.3437026718
 20
97.6094083744
 10
162.2483799436
 20
98.3389310423
 10
162.3976253175
 20
99.0604285035
 10
162.7768300676
 20
99.7032757732
 10
163.34887447
 20
100.2045452479
 10
164.0577636861
 20
100.5151711288
 10
164.8341058024
 20
100.6047448027
 10
165.6019067594
 20
100.4644997302
 10
166.2860106879
 20
100.1081645373
 10
166.8194499069
 20
99.5706181857
 10
167.1500116789
 20
98.904480401
 10
167.2453344071
 20
98.1749577332
 10
167.0960881018
 20
97.453460272
 10
166.7168833518
 20
96.8106130022
 10
166.1448389494
 20
96.3093435276
 10
165.4359497332
 20
95.9987185779
 10
164.6596076169
 20
95.9091439727
 10
163.89180666
 20
96.0493881139
  0
LWPOLYLINE
  5
163
330
1F
100
AcDbEntity
  8
0
  6
HIDDEN
 62
     7
370
     0
100
AcDbPolyline
 90
       18
 70
   128
 43
0.0
 10
164.0695253589
 20
96.6108266148
 10
163.4430097618
 20
96.9588385779
 10
162.9925867745
 20
97.4960245076
 10
162.7790875935
 20
98.1498334441
 10
162.8313459658
 20
98.831966694
 10
163.1423052603
 20
99.4502978283
 10
163.6699674853
 20
99.9213170144
 10
164.3430697003
 20
100.1814102638
 10
165.0707064399
 20
100.1954527456
 10
165.7546045461
 20
99.961545493
 10
166.3024001026
 20
99.5112798992
 10
166.6401125693
 20
98.9054676029
 10
166.7221285605
 20
98.2259252924
 10
166.5373746508
 20
97.5644301507
 10
166.1108009719
 20
97.0103202272
 10
165.5000182071
 20
96.6384319472
 10
164.787517322
 20
96.4989896748
 10
164.0695253589
 20
96.6108266148
  0
LWPOLYLINE
  5
164
330
1F
100
AcDbEntity
  8
0
  6
HIDDEN
 62
     7
370
     0
100
AcDbPolyline
 90
       19
 70
   128
 43
0.0
 10
155.5117838287
 20
99.8503968004
 10
155.1215778307
 20
99.8382579419
 10
154.7972289116
 20
99.587531935
 10
154.5778577418
 20
99.1284616175
 10
154.489924127
 20
98.5164159793
 10
154.5440335029
 20
97.8252172354
 10
154.7336600923
 20
97.1382345888
 10
155.0359320098
 20
96.538327809
 10
155.4143903048
 20
96.0978560034
 10
155.823388064
 20
95.8699427429
 10
156.213594062
 20
95.8820816013
 10
156.5379429811
 20
96.1328085396
 10
156.7573141509
 20
96.591878857
 10
156.8452477657
 20
97.2039244953
 10
156.7911383898
 20
97.8951223078
 10
156.6015118004
 20
98.5821049544
 10
156.2992398829
 20
99.1820117343
 10
155.9207811223
 20
99.6224844712
 10
155.5117838287
 20
99.8503968004
  0
LWPOLYLINE
  5
165
330
1F
100
AcDbEntity
  8
0
  6
HIDDEN
 62
     7
370
     0
100
AcDbPolyline
 90
       21
 70
   128
 43
0.0
 10
155.6885027529
 20
100.3317713621
 10
155.258555358
 20
100.3318533185
 10
154.889247773
 20
100.0949239242
 10
154.6167306804
 20
99.6441740427
 10
154.4676790216
 20
99.0237269434
 10
154.456684293
 20
98.2943169657
 10
154.5848217064
 20
97.5273430231
 10
154.8395486751
 20
96.7978818226
 10
155.1959308998
 20
96.1773387972
 10
155.6190828995
 20
95.7264575991
 10
156.067583637
 20
95.4893708113
 10
156.4975310319
 20
95.4892888549
 10
156.866838617
 20
95.7262191805
 10
157.1393557095
 20
96.1769690621
 10
157.2884073683
 20
96.79741523
 10
157.299402097
 20
97.5268261391
 10
157.1712646836
 20
98.2938000816
 10
156.9165377149
 20
99.0232603508
 10
156.5601554901
 20
99.6438033763
 10
156.1370034904
 20
100.0946855056
 10
155.6885027529
 20
100.3317713621
  0
LWPOLYLINE
  5
166
330
1F
100
AcDbEntity
  8
0
  6
HIDDEN
 62
     7
370
     0
100
AcDbPolyline
 90
       21
 70
   128
 43
0.0
 10
158.1402895243
 20
100.9189385805
 10
157.7103421294
 20
100.9190196055
 10
157.3410345444
 20
100.6820902112
 10
157.0685174518
 20
100.2313403297
 10
156.9194662587
 20
99.6108932305
 10
156.9084710644
 20
98.8814832527
 10
157.0366084778
 20
98.1145093101
 10
157.2913354465
 20
97.3850481096
 10
157.6477176712
 20
96.7645050842
 10
158.0708696709
 20
96.3136229548
 10
158.5193708741
 20
96.0765380296
 10
158.9493178033
 20
96.0764560732
 10
159.3186253884
 20
96.3133854675
 10
159.5911424809
 20
96.7641353491
 10
159.7401941397
 20
97.3845824483
 10
159.7511893341
 20
98.1139924261
 10
159.623051455
 20
98.8809663686
 10
159.3683244863
 20
99.6104266378
 10
159.0119427272
 20
100.2309696633
 10
158.5887907275
 20
100.681852724
 10
158.1402895243
 20
100.9189385805
  0
LINE
  5
167
330
1F
100
AcDbEntity
  8
0
  6
HIDDEN
 62
     7
370
     0
100
AcDbLine
 10
155.0116221623
 20
97.353102814
 30
0.0
 11
155.7770170474
 21
96.4622890461
 31
0.0
  0
LINE
  5
168
330
1F
100
AcDbEntity
  8
0
  6
HIDDEN
 62
     7
370
     0
100
AcDbLine
 10
156.4329810643
 20
96.969356935
 30
0.0
 11
155.7770170474
 21
96.4622890461
 31
0.0
  0
LINE
  5
169
330
1F
100
AcDbEntity
  8
0
  6
HIDDEN
 62
     7
370
     0
100
AcDbLine
 10
156.3235497304
 20
98.3672376606
 30
0.0
 11
156.4329810643
 21
96.969356935
 31
0.0
  0
LINE
  5
16A
330
1F
100
AcDbEntity
  8
0
  6
HIDDEN
 62
     7
370
     0
100
AcDbLine
 10
156.3235497304
 20
98.3672376606
 30
0.0
 11
155.5581548453
 21
99.2580504972
 31
0.0
  0
LINE
  5
16B
330
1F
100
AcDbEntity
  8
0
  6
HIDDEN
 62
     7
370
     0
100
AcDbLine
 10
154.9021908284
 20
98.7509835395
 30
0.0
 11
155.5581548453
 21
99.2580504972
 31
0.0
  0
LINE
  5
16C
330
1F
100
AcDbEntity
  8
0
  6
HIDDEN
 62
     7
370
     0
100
AcDbLine
 10
154.9021908284
 20
98.7509835395
 30
0.0
 11
155.0116221623
 21
97.353102814
 31
0.0
  0
LINE
  5
16D
330
1F
100
AcDbEntity
  8
0
  6
HIDDEN
 62
     7
370
     0
100
AcDbLine
 10
157.9618537069
 20
98.7595870975
 30
0.0
 11
156.3235497304
 21
98.3672376606
 31
0.0
  0
LWPOLYLINE
  5
16E
330
1F
100
AcDbEntity
  8
0
  6
HIDDEN
 62
     7
370
     0
100
AcDbPolyline
 90
       17
 70
   128
 43
0.0
 10
158.8115155899
 20
100.3397090244
 10
158.4408641064
 20
100.3134941566
 10
158.146839516
 20
100.0332461554
 10
157.9742053726
 20
99.5416307706
 10
157.949242668
 20
98.9134909469
 10
158.0757525952
 20
98.2444558177
 10
158.3344749377
 20
97.6363804075
 10
158.6860217356
 20
97.1818372491
 10
159.0768726745
 20
96.9500282663
 10
159.447524158
 20
96.9762431342
 10
159.7415482828
 20
97.2564911354
 10
159.9141828918
 20
97.7481074515
 10
159.9391451308
 20
98.3762472752
 10
159.8126352036
 20
99.0452814731
 10
159.553912861
 20
99.6533578146
 10
159.2023665288
 20
100.1079000417
 10
158.8115155899
 20
100.3397090244
  0
LINE
  5
16F
330
1F
100
AcDbEntity
  8
0
  6
HIDDEN
 62
     7
370
     0
100
AcDbLine
 10
158.0712850408
 20
97.3617063719
 30
0.0
 11
156.4329810643
 21
96.969356935
 31
0.0
  0
LINE
  5
170
330
1F
100
AcDbEntity
  8
0
  6
HIDDEN
 62
     7
370
     0
100
AcDbLine
 10
156.5404948049
 20
99.1433320451
 30
0.0
 11
157.1964588219
 21
99.6503999341
 31
0.0
  0
LINE
  5
171
330
1F
100
AcDbEntity
  8
0
  6
HIDDEN
 62
     7
370
     0
100
AcDbLine
 10
156.5404948049
 20
99.1433320451
 30
0.0
 11
154.9021908284
 21
98.7509835395
 31
0.0
  0
LINE
  5
172
330
1F
100
AcDbEntity
  8
0
  6
HIDDEN
 62
     7
370
     0
100
AcDbLine
 10
157.1964588219
 20
99.6503999341
 30
0.0
 11
155.5581548453
 21
99.2580504972
 31
0.0
  0
LINE
  5
173
330
1F
100
AcDbEntity
  8
0
  6
HIDDEN
 62
     7
370
     0
100
AcDbLine
 10
156.6499261388
 20
97.7454522509
 30
0.0
 11
157.4153214895
 21
96.8546384829
 31
0.0
  0
LINE
  5
174
330
1F
100
AcDbEntity
  8
0
  6
HIDDEN
 62
     7
370
     0
100
AcDbLine
 10
156.5404948049
 20
99.1433320451
 30
0.0
 11
156.6499261388
 21
97.7454522509
 31
0.0
  0
LINE
  5
175
330
1F
100
AcDbEntity
  8
0
  6
HIDDEN
 62
     7
370
     0
100
AcDbLine
 10
158.0712850408
 20
97.3617063719
 30
0.0
 11
157.4153214895
 21
96.8546384829
 31
0.0
  0
LINE
  5
176
330
1F
100
AcDbEntity
  8
0
  6
HIDDEN
 62
     7
370
     0
100
AcDbLine
 10
157.9618537069
 20
98.7595870975
 30
0.0
 11
158.0712850408
 21
97.3617063719
 31
0.0
  0
LINE
  5
177
330
1F
100
AcDbEntity
  8
0
  6
HIDDEN
 62
     7
370
     0
100
AcDbLine
 10
157.9618537069
 20
98.7595870975
 30
0.0
 11
157.1964588219
 21
99.6503999341
 31
0.0
  0
LINE
  5
178
330
1F
100
AcDbEntity
  8
0
  6
HIDDEN
 62
     7
370
     0
100
AcDbLine
 10
156.6499261388
 20
97.7454522509
 30
0.0
 11
155.0116221623
 21
97.353102814
 31
0.0
  0
LINE
  5
179
330
1F
100
AcDbEntity
  8
0
  6
HIDDEN
 62
     7
370
     0
100
AcDbLine
 10
157.4153214895
 20
96.8546384829
 30
0.0
 11
155.7770170474
 21
96.4622890461
 31
0.0
  0
LWPOLYLINE
  5
17A
330
1F
100
AcDbEntity
  8
0
  6
HIDDEN
 62
     7
370
     0
100
AcDbPolyline
 90
       21
 70
   128
 43
0.0
 10
158.1402895243
 20
122.6111214492
 10
157.7103421294
 20
122.6110404241
 10
157.3410345444
 20
122.8479698184
 10
157.0685174518
 20
123.2987197
 10
156.9194662587
 20
123.9191667992
 10
156.9084710644
 20
124.648576777
 10
157.0366084778
 20
125.4155507195
 10
157.2913354465
 20
126.14501192
 10
157.6477176712
 20
126.7655549455
 10
158.0708696709
 20
127.2164370749
 10
158.5193708741
 20
127.453522
 10
158.9493178033
 20
127.4536039564
 10
159.3186253884
 20
127.2166745621
 10
159.5911424809
 20
126.7659246805
 10
159.7401941397
 20
126.1454775813
 10
159.7511893341
 20
125.4160676035
 10
159.623051455
 20
124.649093661
 10
159.3683244863
 20
123.9196333918
 10
159.0119427272
 20
123.2990903664
 10
158.5887907275
 20
122.8482073057
 10
158.1402895243
 20
122.6111214492
  0
LWPOLYLINE
  5
17B
330
1F
100
AcDbEntity
  8
0
  6
HIDDEN
 62
     7
370
     0
100
AcDbPolyline
 90
       17
 70
   128
 43
0.0
 10
158.8115155899
 20
123.1903510052
 10
158.4408641064
 20
123.216565873
 10
158.146839516
 20
123.4968138743
 10
157.9742053726
 20
123.9884292591
 10
157.949242668
 20
124.6165690827
 10
158.0757525952
 20
125.285604212
 10
158.3344749377
 20
125.8936796221
 10
158.6860217356
 20
126.3482227805
 10
159.0768726745
 20
126.5800317633
 10
159.447524158
 20
126.5538168955
 10
159.7415482828
 20
126.2735688943
 10
159.9141828918
 20
125.7819525781
 10
159.9391451308
 20
125.1538127545
 10
159.8126352036
 20
124.4847785565
 10
159.553912861
 20
123.8767022151
 10
159.2023665288
 20
123.422159988
 10
158.8115155899
 20
123.1903510052
  0
LWPOLYLINE
  5
17C
330
1F
100
AcDbEntity
  8
0
  6
HIDDEN
 62
     7
370
     0
100
AcDbPolyline
 90
       21
 70
   128
 43
0.0
 10
155.6885027529
 20
123.1982886675
 10
155.258555358
 20
123.1982067111
 10
154.889247773
 20
123.4351361054
 10
154.6167306804
 20
123.885885987
 10
154.4676790216
 20
124.5063330862
 10
154.456684293
 20
125.235743064
 10
154.5848217064
 20
126.0027170065
 10
154.8395486751
 20
126.7321782071
 10
155.1959308998
 20
127.3527212325
 10
155.6190828995
 20
127.8036024305
 10
156.067583637
 20
128.0406892184
 10
156.4975310319
 20
128.0407711747
 10
156.866838617
 20
127.8038408491
 10
157.1393557095
 20
127.3530909675
 10
157.2884073683
 20
126.7326447997
 10
157.299402097
 20
126.0032338905
 10
157.1712646836
 20
125.236259948
 10
156.9165377149
 20
124.5067996788
 10
156.5601554901
 20
123.8862566534
 10
156.1370034904
 20
123.435374524
 10
155.6885027529
 20
123.1982886675
  0
LINE
  5
17D
330
1F
100
AcDbEntity
  8
0
  6
HIDDEN
 62
     7
370
     0
100
AcDbLine
 10
156.6499261388
 20
125.7846077788
 30
0.0
 11
157.4153214895
 21
126.6754215467
 31
0.0
  0
LINE
  5
17E
330
1F
100
AcDbEntity
  8
0
  6
HIDDEN
 62
     7
370
     0
100
AcDbLine
 10
156.6499261388
 20
125.7846077788
 30
0.0
 11
155.0116221623
 21
126.1769572157
 31
0.0
  0
LINE
  5
17F
330
1F
100
AcDbEntity
  8
0
  6
HIDDEN
 62
     7
370
     0
100
AcDbLine
 10
156.5404948049
 20
124.3867279846
 30
0.0
 11
156.6499261388
 21
125.7846077788
 31
0.0
  0
LINE
  5
180
330
1F
100
AcDbEntity
  8
0
  6
HIDDEN
 62
     7
370
     0
100
AcDbLine
 10
154.9021908284
 20
124.7790764901
 30
0.0
 11
155.0116221623
 21
126.1769572157
 31
0.0
  0
LINE
  5
181
330
1F
100
AcDbEntity
  8
0
  6
HIDDEN
 62
     7
370
     0
100
AcDbLine
 10
155.0116221623
 20
126.1769572157
 30
0.0
 11
155.7770170474
 21
127.0677709836
 31
0.0
  0
LWPOLYLINE
  5
182
330
1F
100
AcDbEntity
  8
0
  6
HIDDEN
 62
     7
370
     0
100
AcDbPolyline
 90
       19
 70
   128
 43
0.0
 10
155.5117838287
 20
123.6796632293
 10
155.1215778307
 20
123.6918020877
 10
154.7972289116
 20
123.9425280947
 10
154.5778577418
 20
124.4015984121
 10
154.489924127
 20
125.0136440504
 10
154.5440335029
 20
125.7048427943
 10
154.7336600923
 20
126.3918254408
 10
155.0359320098
 20
126.9917322207
 10
155.4143903048
 20
127.4322040263
 10
155.823388064
 20
127.6601172868
 10
156.213594062
 20
127.6479784283
 10
156.5379429811
 20
127.3972514901
 10
156.7573141509
 20
126.9381811726
 10
156.8452477657
 20
126.3261355344
 10
156.7911383898
 20
125.6349377218
 10
156.6015118004
 20
124.9479550752
 10
156.2992398829
 20
124.3480482954
 10
155.9207811223
 20
123.9075755584
 10
155.5117838287
 20
123.6796632293
  0
LINE
  5
183
330
1F
100
AcDbEntity
  8
0
  6
HIDDEN
 62
     7
370
     0
100
AcDbLine
 10
154.9021908284
 20
124.7790764901
 30
0.0
 11
155.5581548453
 21
124.2720095325
 31
0.0
  0
LINE
  5
184
330
1F
100
AcDbEntity
  8
0
  6
HIDDEN
 62
     7
370
     0
100
AcDbLine
 10
156.5404948049
 20
124.3867279846
 30
0.0
 11
154.9021908284
 21
124.7790764901
 31
0.0
  0
LINE
  5
185
330
1F
100
AcDbEntity
  8
0
  6
HIDDEN
 62
     7
370
     0
100
AcDbLine
 10
156.5404948049
 20
124.3867279846
 30
0.0
 11
157.1964588219
 21
123.8796600956
 31
0.0
  0
LINE
  5
186
330
1F
100
AcDbEntity
  8
0
  6
HIDDEN
 62
     7
370
     0
100
AcDbLine
 10
158.0712850408
 20
126.1683536577
 30
0.0
 11
156.4329810643
 21
126.5607030946
 31
0.0
  0
LINE
  5
187
330
1F
100
AcDbEntity
  8
0
  6
HIDDEN
 62
     7
370
     0
100
AcDbLine
 10
156.4329810643
 20
126.5607030946
 30
0.0
 11
155.7770170474
 21
127.0677709836
 31
0.0
  0
LINE
  5
188
330
1F
100
AcDbEntity
  8
0
  6
HIDDEN
 62
     7
370
     0
100
AcDbLine
 10
157.4153214895
 20
126.6754215467
 30
0.0
 11
155.7770170474
 21
127.0677709836
 31
0.0
  0
LINE
  5
189
330
1F
100
AcDbEntity
  8
0
  6
HIDDEN
 62
     7
370
     0
100
AcDbLine
 10
158.0712850408
 20
126.1683536577
 30
0.0
 11
157.4153214895
 21
126.6754215467
 31
0.0
  0
LINE
  5
18A
330
1F
100
AcDbEntity
  8
0
  6
HIDDEN
 62
     7
370
     0
100
AcDbLine
 10
157.9618537069
 20
124.7704729322
 30
0.0
 11
156.3235497304
 21
125.1628223691
 31
0.0
  0
LINE
  5
18B
330
1F
100
AcDbEntity
  8
0
  6
HIDDEN
 62
     7
370
     0
100
AcDbLine
 10
157.1964588219
 20
123.8796600956
 30
0.0
 11
155.5581548453
 21
124.2720095325
 31
0.0
  0
LINE
  5
18C
330
1F
100
AcDbEntity
  8
0
  6
HIDDEN
 62
     7
370
     0
100
AcDbLine
 10
156.3235497304
 20
125.1628223691
 30
0.0
 11
155.5581548453
 21
124.2720095325
 31
0.0
  0
LINE
  5
18D
330
1F
100
AcDbEntity
  8
0
  6
HIDDEN
 62
     7
370
     0
100
AcDbLine
 10
157.9618537069
 20
124.7704729322
 30
0.0
 11
157.1964588219
 21
123.8796600956
 31
0.0
  0
LINE
  5
18E
330
1F
100
AcDbEntity
  8
0
  6
HIDDEN
 62
     7
370
     0
100
AcDbLine
 10
156.3235497304
 20
125.1628223691
 30
0.0
 11
156.4329810643
 21
126.5607030946
 31
0.0
  0
LINE
  5
18F
330
1F
100
AcDbEntity
  8
0
  6
HIDDEN
 62
     7
370
     0
100
AcDbLine
 10
157.9618537069
 20
124.7704729322
 30
0.0
 11
158.0712850408
 21
126.1683536577
 31
0.0
  0
LINE
  5
190
330
1F
100
AcDbEntity
  8
0
  6
HIDDEN
 62
     7
370
     0
100
AcDbLine
 10
167.2468561881
 20
95.1007168624
 30
0.0
 11
167.2468561881
 21
98.2569448534
 31
0.0
  0
LINE
  5
191
330
1F
100
AcDbEntity
  8
0
  6
HIDDEN
 62
     7
370
     0
100
AcDbLine
 10
162.2468562999
 20
98.2569448534
 30
0.0
 11
162.2468562999
 21
96.2032854441
 31
0.0
  0
LINE
  5
192
330
1F
100
AcDbEntity
  8
0
  6
HIDDEN
 62
     7
370
     0
100
AcDbLine
 10
153.7468565365
 20
94.3153530243
 30
0.0
 11
156.3662843981
 21
94.9426676962
 31
0.0
  0
LINE
  5
193
330
1F
100
AcDbEntity
  8
0
  6
HIDDEN
 62
     7
370
     0
100
AcDbLine
 10
154.9688874946
 20
100.7776727784
 30
0.0
 11
153.7468565365
 21
100.4850139725
 31
0.0
  0
LINE
  5
194
330
1F
100
AcDbEntity
  8
0
  6
HIDDEN
 62
     7
370
     0
100
AcDbLine
 10
156.4250070804
 20
95.8821803215
 30
0.0
 11
163.8941563868
 21
97.6709296811
 31
0.0
  0
LINE
  5
195
330
1F
100
AcDbEntity
  8
0
  6
HIDDEN
 62
     7
370
     0
100
AcDbLine
 10
163.8941563868
 20
101.9896922517
 30
0.0
 11
155.4468292014
 21
99.9666835997
 31
0.0
  0
LINE
  5
196
330
1F
100
AcDbEntity
  8
0
  6
HIDDEN
 62
     7
370
     0
100
AcDbLine
 10
166.8468568676
 20
98.3067389462
 30
0.0
 11
166.8468568676
 21
110.0243010442
 31
0.0
  0
LINE
  5
197
330
1F
100
AcDbEntity
  8
0
  6
HIDDEN
 62
     7
370
     0
100
AcDbLine
 10
162.6468565517
 20
98.6547890934
 30
0.0
 11
162.6468565517
 21
98.3067389462
 31
0.0
  0
LINE
  5
198
330
1F
100
AcDbEntity
  8
0
  6
HIDDEN
 62
     7
370
     0
100
AcDbLine
 10
162.6468565517
 20
110.0235899794
 30
0.0
 11
162.6468565517
 21
100.4084136221
 31
0.0
  0
ARC
  5
199
330
1F
100
AcDbEntity
  8
0
  6
HIDDEN
 62
     7
370
     0
100
AcDbCircle
 10
50.1468566173
 20
98.0650300148
 30
0.0
 40
1.200000000000003
100
AcDbArc
 50
90.0
 51
180.0
  0
ARC
  5
19A
330
1F
100
AcDbEntity
  8
0
  6
HIDDEN
 62
     7
370
     0
100
AcDbCircle
 10
50.1468566173
 20
125.4650300148
 30
0.0
 40
1.200000000000003
100
AcDbArc
 50
180.0
 51
270.0
  0
LINE
  5
19B
330
1F
100
AcDbEntity
  8
0
  6
HIDDEN
 62
     7
370
     0
100
AcDbLine
 10
59.8392266982
 20
99.0400297451
 30
0.0
 11
60.7159141653
 21
99.0400297451
 31
0.0
  0
LINE
  5
19C
330
1F
100
AcDbEntity
  8
0
  6
HIDDEN
 62
     7
370
     0
100
AcDbLine
 10
60.7159141653
 20
124.4900302845
 30
0.0
 11
59.8392266982
 21
124.4900302845
 31
0.0
  0
ARC
  5
19D
330
1F
100
AcDbEntity
  8
0
  6
HIDDEN
 62
     7
370
     0
100
AcDbCircle
 10
59.839229048
 20
99.4400300148
 30
0.0
 40
0.400000000000006
100
AcDbArc
 50
255.0
 51
270.0
  0
ARC
  5
19E
330
1F
100
AcDbEntity
  8
0
  6
HIDDEN
 62
     7
370
     0
100
AcDbCircle
 10
59.839229048
 20
124.0900300148
 30
0.0
 40
0.400000000000006
100
AcDbArc
 50
90.0
 51
105.0
  0
ARC
  5
19F
330
1F
100
AcDbEntity
  8
0
  6
HIDDEN
 62
     7
370
     0
100
AcDbCircle
 10
60.7159165096
 20
99.4400300148
 30
0.0
 40
0.3999999999999989
100
AcDbArc
 50
270.0
 51
330.0
  0
ARC
  5
1A0
330
1F
100
AcDbEntity
  8
0
  6
HIDDEN
 62
     7
370
     0
100
AcDbCircle
 10
60.7159165096
 20
124.0900300148
 30
0.0
 40
0.3999999999999989
100
AcDbArc
 50
30.0
 51
90.0
  0
LINE
  5
1A1
330
1F
100
AcDbEntity
  8
0
  6
HIDDEN
 62
     7
370
     0
100
AcDbLine
 10
59.7357008808
 20
124.4764003787
 30
0.0
 11
58.946855759
 21
124.2650302011
 31
0.0
  0
LINE
  5
1A2
330
1F
100
AcDbEntity
  8
0
  6
HIDDEN
 62
     7
370
     0
100
AcDbLine
 10
58.946855759
 20
99.2650298286
 30
0.0
 11
59.7357008808
 21
99.053659651
 31
0.0
  0
LINE
  5
1A3
330
1F
100
AcDbEntity
  8
0
  6
HIDDEN
 62
     7
370
     0
100
AcDbLine
 10
61.0623289102
 20
99.2400303367
 30
0.0
 11
62.2314591163
 21
101.2650301564
 31
0.0
  0
LINE
  5
1A4
330
1F
100
AcDbEntity
  8
0
  6
HIDDEN
 62
     7
370
     0
100
AcDbLine
 10
62.2314591163
 20
122.2650298733
 30
0.0
 11
61.0623289102
 21
124.290029693
 31
0.0
  0
LINE
  5
1A5
330
1F
100
AcDbEntity
  8
0
  6
HIDDEN
 62
     7
370
     0
100
AcDbLine
 10
50.1468558067
 20
99.2650298286
 30
0.0
 11
58.946855759
 21
99.2650298286
 31
0.0
  0
LINE
  5
1A6
330
1F
100
AcDbEntity
  8
0
  6
HIDDEN
 62
     7
370
     0
100
AcDbLine
 10
58.946855759
 20
124.2650302011
 30
0.0
 11
50.1468558067
 21
124.2650302011
 31
0.0
  0
ARC
  5
1A7
330
1F
100
AcDbEntity
  8
0
  6
HIDDEN
 62
     7
370
     0
100
AcDbCircle
 10
249.5468566173
 20
123.7650300148
 30
0.0
 40
1.000000000000028
100
AcDbArc
 50
270.0
 51
0.0
  0
ARC
  5
1A8
330
1F
100
AcDbEntity
  8
0
  6
HIDDEN
 62
     7
370
     0
100
AcDbCircle
 10
249.5468566173
 20
99.7650300148
 30
0.0
 40
1.000000000000028
100
AcDbArc
 50
0.0
 51
90.0
  0
LINE
  5
1A9
330
1F
100
AcDbEntity
  8
0
  6
HIDDEN
 62
     7
370
     0
100
AcDbLine
 10
223.9152047985
 20
123.2650300372
 30
0.0
 11
223.0468545311
 21
123.2650300372
 31
0.0
  0
LINE
  5
1AA
330
1F
100
AcDbEntity
  8
0
  6
HIDDEN
 62
     7
370
     0
100
AcDbLine
 10
223.0468545311
 20
100.2650299925
 30
0.0
 11
223.9152047985
 21
100.2650299925
 31
0.0
  0
ARC
  5
1AB
330
1F
100
AcDbEntity
  8
0
  6
HIDDEN
 62
     7
370
     0
100
AcDbCircle
 10
223.9152041197
 20
122.2650300148
 30
0.0
 40
1.0
100
AcDbArc
 50
75.0
 51
90.0
  0
ARC
  5
1AC
330
1F
100
AcDbEntity
  8
0
  6
HIDDEN
 62
     7
370
     0
100
AcDbCircle
 10
223.9152041197
 20
101.2650300148
 30
0.0
 40
1.0
100
AcDbArc
 50
270.0
 51
285.0
  0
ARC
  5
1AD
330
1F
100
AcDbEntity
  8
0
  6
HIDDEN
 62
     7
370
     0
100
AcDbCircle
 10
223.0468566173
 20
122.2650300148
 30
0.0
 40
1.0
100
AcDbArc
 50
90.0
 51
180.0
  0
ARC
  5
1AE
330
1F
100
AcDbEntity
  8
0
  6
HIDDEN
 62
     7
370
     0
100
AcDbCircle
 10
223.0468566173
 20
101.2650300148
 30
0.0
 40
1.0
100
AcDbArc
 50
180.0
 51
270.0
  0
LINE
  5
1AF
330
1F
100
AcDbEntity
  8
0
  6
HIDDEN
 62
     7
370
     0
100
AcDbLine
 10
224.1740230673
 20
100.2991042915
 30
0.0
 11
225.9128842705
 21
100.7650300744
 31
0.0
  0
LINE
  5
1B0
330
1F
100
AcDbEntity
  8
0
  6
HIDDEN
 62
     7
370
     0
100
AcDbLine
 10
225.9128842705
 20
122.7650299552
 30
0.0
 11
224.1740230673
 21
123.2309557381
 31
0.0
  0
LINE
  5
1B1
330
1F
100
AcDbEntity
  8
0
  6
HIDDEN
 62
     7
370
     0
100
AcDbLine
 10
234.0513620728
 20
122.7650299552
 30
0.0
 11
225.9128842705
 21
122.7650299552
 31
0.0
  0
LINE
  5
1B2
330
1F
100
AcDbEntity
  8
0
  6
HIDDEN
 62
     7
370
     0
100
AcDbLine
 10
249.5468560808
 20
122.7650299552
 30
0.0
 11
242.9523248428
 21
122.7650299552
 31
0.0
  0
LINE
  5
1B3
330
1F
100
AcDbEntity
  8
0
  6
HIDDEN
 62
     7
370
     0
100
AcDbLine
 10
225.9128842705
 20
100.7650300744
 30
0.0
 11
249.5468560808
 21
100.7650300744
 31
0.0
  0
LINE
  5
1B4
330
1F
100
AcDbEntity
  8
0
  6
HIDDEN
 62
     7
370
     0
100
AcDbLine
 10
62.2314591163
 20
101.2650301564
 30
0.0
 11
110.9468568319
 21
101.2650301564
 31
0.0
  0
LINE
  5
1B5
330
1F
100
AcDbEntity
  8
0
  6
HIDDEN
 62
     7
370
     0
100
AcDbLine
 10
110.9468568319
 20
122.2650298733
 30
0.0
 11
62.2314591163
 21
122.2650298733
 31
0.0
  0
LINE
  5
1B6
330
1F
100
AcDbEntity
  8
0
  6
HIDDEN
 62
     7
370
     0
100
AcDbLine
 10
110.9468568319
 20
101.2650301564
 30
0.0
 11
114.1915027254
 21
106.6650298308
 31
0.0
  0
LINE
  5
1B7
330
1F
100
AcDbEntity
  8
0
  6
HIDDEN
 62
     7
370
     0
100
AcDbLine
 10
114.1915027254
 20
116.8650301989
 30
0.0
 11
110.9468568319
 21
122.2650298733
 31
0.0
  0
LINE
  5
1B8
330
1F
100
AcDbEntity
  8
0
  6
HIDDEN
 62
     7
370
     0
100
AcDbLine
 10
232.4968580359
 20
131.7650295678
 30
0.0
 11
233.9968536251
 21
130.2650302532
 31
0.0
  0
LINE
  5
1B9
330
1F
100
AcDbEntity
  8
0
  6
HIDDEN
 62
     7
370
     0
100
AcDbLine
 10
242.996856963
 20
130.2650302532
 30
0.0
 11
244.4968600028
 21
131.7650295678
 31
0.0
  0
LINE
  5
1BA
330
1F
100
AcDbEntity
  8
0
  6
HIDDEN
 62
     7
370
     0
100
AcDbLine
 10
114.1915027254
 20
106.6650298308
 30
0.0
 11
169.5968568527
 21
106.6650298308
 31
0.0
  0
LINE
  5
1BB
330
1F
100
AcDbEntity
  8
0
  6
HIDDEN
 62
     7
370
     0
100
AcDbLine
 10
169.5968568527
 20
116.8650301989
 30
0.0
 11
114.1915027254
 21
116.8650301989
 31
0.0
  0
LINE
  5
1BC
330
1F
100
AcDbEntity
  8
0
  6
HIDDEN
 62
     7
370
     0
100
AcDbLine
 10
233.9968536251
 20
130.2650302532
 30
0.0
 11
233.9968536251
 21
122.7429147694
 31
0.0
  0
LINE
  5
1BD
330
1F
100
AcDbEntity
  8
0
  6
HIDDEN
 62
     7
370
     0
100
AcDbLine
 10
242.996856963
 20
122.747129004
 30
0.0
 11
242.996856963
 21
130.2650302532
 31
0.0
  0
LINE
  5
1BE
330
1F
100
AcDbEntity
  8
0
  6
HIDDEN
 62
     7
370
     0
100
AcDbLine
 10
222.0468599552
 20
115.1650300599
 30
0.0
 11
169.5968568527
 21
115.1650300599
 31
0.0
  0
LINE
  5
1BF
330
1F
100
AcDbEntity
  8
0
  6
HIDDEN
 62
     7
370
     0
100
AcDbLine
 10
169.5968568527
 20
108.3650299697
 30
0.0
 11
222.0468599552
 21
108.3650299697
 31
0.0
  0
LINE
  5
1C0
330
1F
100
AcDbEntity
  8
0
  6
HIDDEN
 62
     7
370
     0
100
AcDbLine
 10
166.8468568676
 20
113.5064700502
 30
0.0
 11
166.8468568676
 21
125.2233210835
 31
0.0
  0
LINE
  5
1C1
330
1F
100
AcDbEntity
  8
0
  6
HIDDEN
 62
     7
370
     0
100
AcDbLine
 10
162.6468565517
 20
123.1216464076
 30
0.0
 11
162.6468565517
 21
113.5057589854
 31
0.0
  0
LINE
  5
1C2
330
1F
100
AcDbEntity
  8
0
  6
HIDDEN
 62
     7
370
     0
100
AcDbLine
 10
162.6468565517
 20
125.2233210835
 30
0.0
 11
162.6468565517
 21
124.8752709362
 31
0.0
  0
LINE
  5
1C3
330
1F
100
AcDbEntity
  8
0
  6
HIDDEN
 62
     7
370
     0
100
AcDbLine
 10
155.4468292014
 20
123.56337643
 30
0.0
 11
163.8941563868
 21
121.540367778
 31
0.0
  0
LINE
  5
1C4
330
1F
100
AcDbEntity
  8
0
  6
HIDDEN
 62
     7
370
     0
100
AcDbLine
 10
163.8941563868
 20
125.8591303486
 30
0.0
 11
156.4250070804
 21
127.6478797081
 31
0.0
  0
LINE
  5
1C5
330
1F
100
AcDbEntity
  8
0
  6
HIDDEN
 62
     7
370
     0
100
AcDbLine
 10
153.7468565365
 20
123.0450460571
 30
0.0
 11
154.9688874946
 21
122.7523872513
 31
0.0
  0
LINE
  5
1C6
330
1F
100
AcDbEntity
  8
0
  6
HIDDEN
 62
     7
370
     0
100
AcDbLine
 10
156.3662843981
 20
128.5873923335
 30
0.0
 11
153.7468565365
 21
129.2147070053
 31
0.0
  0
LINE
  5
1C7
330
1F
100
AcDbEntity
  8
0
  6
HIDDEN
 62
     7
370
     0
100
AcDbLine
 10
167.2468561881
 20
125.2731151763
 30
0.0
 11
167.2468561881
 21
128.4293431673
 31
0.0
  0
LINE
  5
1C8
330
1F
100
AcDbEntity
  8
0
  6
HIDDEN
 62
     7
370
     0
100
AcDbLine
 10
162.2468562999
 20
127.3267745856
 30
0.0
 11
162.2468562999
 21
125.2731151763
 31
0.0
  0
LINE
  5
1C9
330
1F
100
AcDbEntity
  8
0
  6
HIDDEN
 62
     7
370
     0
100
AcDbLine
 10
243.4968579763
 20
131.0650307569
 30
0.0
 11
243.0846024507
 21
131.4772844198
 31
0.0
  0
LINE
  5
1CA
330
1F
100
AcDbEntity
  8
0
  6
HIDDEN
 62
     7
370
     0
100
AcDbLine
 10
233.9128408783
 20
131.4810152981
 30
0.0
 11
233.4968600624
 21
131.0650307569
 31
0.0
  0
LINE
  5
1CB
330
1F
100
AcDbEntity
  8
0
  6
HIDDEN
 62
     7
370
     0
100
AcDbLine
 10
233.4968600624
 20
131.0650307569
 30
0.0
 11
233.4968600624
 21
124.5425289381
 31
0.0
  0
LINE
  5
1CC
330
1F
100
AcDbEntity
  8
0
  6
HIDDEN
 62
     7
370
     0
100
AcDbLine
 10
243.4968579763
 20
124.5425289381
 30
0.0
 11
243.4968579763
 21
131.0650307569
 31
0.0
  0
LINE
  5
1CD
330
1F
100
AcDbEntity
  8
0
  6
HIDDEN
 62
     7
370
     0
100
AcDbLine
 10
233.4968600624
 20
124.5425289381
 30
0.0
 11
235.3872735256
 21
117.487384181
 31
0.0
  0
LINE
  5
1CE
330
1F
100
AcDbEntity
  8
0
  6
HIDDEN
 62
     7
370
     0
100
AcDbLine
 10
241.6064370626
 20
117.487384181
 30
0.0
 11
243.4968579763
 21
124.5425289381
 31
0.0
  0
ARC
  5
1CF
330
1F
100
AcDbEntity
  8
0
  6
HIDDEN
 62
     7
370
     0
100
AcDbCircle
 10
235.6770547137
 20
117.5650300148
 30
0.0
 40
0.3000000000000114
100
AcDbArc
 50
195.0
 51
270.0
  0
ARC
  5
1D0
330
1F
100
AcDbEntity
  8
0
  6
HIDDEN
 62
     7
370
     0
100
AcDbCircle
 10
241.3166585209
 20
117.5650300148
 30
0.0
 40
0.2999999999999972
100
AcDbArc
 50
270.0
 51
345.0
  0
LINE
  5
1D1
330
1F
100
AcDbEntity
  8
0
  6
HIDDEN
 62
     7
370
     0
100
AcDbLine
 10
235.496856665
 20
131.7650295678
 30
0.0
 11
235.9968576783
 21
131.2650304172
 31
0.0
  0
LINE
  5
1D2
330
1F
100
AcDbEntity
  8
0
  6
HIDDEN
 62
     7
370
     0
100
AcDbLine
 10
240.9968529099
 20
131.2650304172
 30
0.0
 11
241.4968539232
 21
131.7650295678
 31
0.0
  0
LINE
  5
1D3
330
1F
100
AcDbEntity
  8
0
  6
HIDDEN
 62
     7
370
     0
100
AcDbLine
 10
235.9968576783
 20
124.765030283
 30
0.0
 11
235.9968576783
 21
123.7650301191
 31
0.0
  0
LINE
  5
1D4
330
1F
100
AcDbEntity
  8
0
  6
HIDDEN
 62
     7
370
     0
100
AcDbLine
 10
240.9968529099
 20
123.7650301191
 30
0.0
 11
240.9968529099
 21
124.765030283
 31
0.0
  0
LINE
  5
1D5
330
1F
100
AcDbEntity
  8
0
  6
HIDDEN
 62
     7
370
     0
100
AcDbLine
 10
235.9968576783
 20
123.7650301191
 30
0.0
 11
238.4968552941
 21
122.8551046807
 31
0.0
  0
LINE
  5
1D6
330
1F
100
AcDbEntity
  8
0
  6
HIDDEN
 62
     7
370
     0
100
AcDbLine
 10
238.4968552941
 20
122.8551046807
 30
0.0
 11
240.9968529099
 21
123.7650301191
 31
0.0
  0
LINE
  5
1D7
330
1F
100
AcDbEntity
  8
0
  6
HIDDEN
 62
     7
370
     0
100
AcDbLine
 10
167.2468561881
 20
125.2731151763
 30
0.0
 11
167.2468561881
 21
125.8716510493
 31
0.0
  0
LINE
  5
1D8
330
1F
100
AcDbEntity
  8
0
  6
HIDDEN
 62
     7
370
     0
100
AcDbLine
 10
162.2468562999
 20
125.8716510493
 30
0.0
 11
162.2468562999
 21
125.2731151763
 31
0.0
  0
LINE
  5
1D9
330
1F
100
AcDbEntity
  8
0
  6
HIDDEN
 62
     7
370
     0
100
AcDbLine
 10
166.7468570375
 20
125.6338443491
 30
0.0
 11
166.7468570375
 21
127.0516199875
 31
0.0
  0
LINE
  5
1DA
330
1F
100
AcDbEntity
  8
0
  6
HIDDEN
 62
     7
370
     0
100
AcDbLine
 10
162.7468563819
 20
127.0516199875
 30
0.0
 11
162.7468563819
 21
125.6338443491
 31
0.0
  0
LINE
  5
1DB
330
1F
100
AcDbEntity
  8
0
  6
HIDDEN
 62
     7
370
     0
100
AcDbLine
 10
167.2468561881
 20
126.8156265724
 30
0.0
 11
167.2468561881
 21
127.0037379
 31
0.0
  0
LINE
  5
1DC
330
1F
100
AcDbEntity
  8
0
  6
HIDDEN
 62
     7
370
     0
100
AcDbLine
 10
162.2468562999
 20
127.0037379
 30
0.0
 11
162.2468562999
 21
126.8156265724
 31
0.0
  0
LINE
  5
1DD
330
1F
100
AcDbEntity
  8
0
  6
HIDDEN
 62
     7
370
     0
100
AcDbLine
 10
162.2468562999
 20
96.7144334573
 30
0.0
 11
162.2468562999
 21
96.5263221297
 31
0.0
  0
LINE
  5
1DE
330
1F
100
AcDbEntity
  8
0
  6
HIDDEN
 62
     7
370
     0
100
AcDbLine
 10
167.2468561881
 20
96.5263221297
 30
0.0
 11
167.2468561881
 21
96.7144334573
 31
0.0
  0
LINE
  5
1DF
330
1F
100
AcDbEntity
  8
0
  6
HIDDEN
 62
     7
370
     0
100
AcDbLine
 10
162.7468563819
 20
97.8962156806
 30
0.0
 11
162.7468563819
 21
96.4784400422
 31
0.0
  0
LINE
  5
1E0
330
1F
100
AcDbEntity
  8
0
  6
HIDDEN
 62
     7
370
     0
100
AcDbLine
 10
166.7468570375
 20
96.4784400422
 30
0.0
 11
166.7468570375
 21
97.8962156806
 31
0.0
  0
LINE
  5
1E1
330
1F
100
AcDbEntity
  8
0
  6
HIDDEN
 62
     7
370
     0
100
AcDbLine
 10
162.2468562999
 20
98.2569448534
 30
0.0
 11
162.2468562999
 21
97.6584089804
 31
0.0
  0
LINE
  5
1E2
330
1F
100
AcDbEntity
  8
0
  6
HIDDEN
 62
     7
370
     0
100
AcDbLine
 10
167.2468561881
 20
97.6584089804
 30
0.0
 11
167.2468561881
 21
98.2569448534
 31
0.0
  0
CIRCLE
  5
1E3
330
1F
100
AcDbEntity
  8
0
  6
HIDDEN
 62
     7
370
     0
100
AcDbCircle
 10
164.7468566173
 20
126.2307719768
 30
0.0
 40
2.000000000000012
  0
ARC
  5
1E4
330
1F
100
AcDbEntity
  8
0
  6
HIDDEN
 62
     7
370
     0
100
AcDbCircle
 10
164.7468566173
 20
97.2992880529
 30
0.0
 40
2.000000000000003
100
AcDbArc
 50
71.1182787691
 51
192.2156859338
  0
ARC
  5
1E5
330
1F
100
AcDbEntity
  8
0
  6
HIDDEN
 62
     7
370
     0
100
AcDbCircle
 10
164.7468566173
 20
97.2992880529
 30
0.0
 40
2.000000000000013
100
AcDbArc
 50
340.3453161116
 51
71.1182787691
  0
LINE
  5
1E6
330
1F
100
AcDbEntity
  8
0
  6
HIDDEN
 62
     7
370
     0
100
AcDbLine
 10
156.4602916331
 20
95.4793199781
 30
0.0
 11
158.9120788702
 21
96.0664853338
 31
0.0
  0
LINE
  5
1E7
330
1F
100
AcDbEntity
  8
0
  6
HIDDEN
 62
     7
370
     0
100
AcDbLine
 10
157.7475815282
 20
100.9289894137
 30
0.0
 11
155.2957947568
 21
100.3418231267
 31
0.0
  0
LINE
  5
1E8
330
1F
100
AcDbEntity
  8
0
  6
HIDDEN
 62
     7
370
     0
100
AcDbLine
 10
159.6157834136
 20
96.8302052352
 30
0.0
 11
159.8443616384
 21
97.4775954965
 31
0.0
  0
LINE
  5
1E9
330
1F
100
AcDbEntity
  8
0
  6
HIDDEN
 62
     7
370
     0
100
AcDbLine
 10
159.2179447615
 20
100.0932773459
 30
0.0
 11
158.72090256
 21
100.5668930593
 31
0.0
  0
LINE
  5
1EA
330
1F
100
AcDbEntity
  8
0
  6
HIDDEN
 62
     7
370
     0
100
AcDbLine
 10
158.72090256
 20
122.9631669703
 30
0.0
 11
159.2179447615
 21
123.4367826837
 31
0.0
  0
LINE
  5
1EB
330
1F
100
AcDbEntity
  8
0
  6
HIDDEN
 62
     7
370
     0
100
AcDbLine
 10
159.8443616384
 20
126.0524645332
 30
0.0
 11
159.6157834136
 21
126.6998547945
 31
0.0
  0
LINE
  5
1EC
330
1F
100
AcDbEntity
  8
0
  6
HIDDEN
 62
     7
370
     0
100
AcDbLine
 10
155.2957947568
 20
123.188236903
 30
0.0
 11
157.7475815282
 21
122.601070616
 31
0.0
  0
LINE
  5
1ED
330
1F
100
AcDbEntity
  8
0
  6
HIDDEN
 62
     7
370
     0
100
AcDbLine
 10
158.9120788702
 20
127.4635746959
 30
0.0
 11
156.4602916331
 21
128.0507400516
 31
0.0
  0
DIMENSION
  5
1EE
330
1F
100
AcDbEntity
  8
VERMASSUNG
100
AcDbDimension
  2
_D
 10
38.9468566173
 20
160.4900300148
 30
0.0
 11
38.9468566173
 21
111.7650300148
 31
0.0
 70
   160
  1
ISO 50 %%c<>
 71
     2
 42
-1.0
  3
SLDDIMSTYLE0
100
AcDbAlignedDimension
 13
168.9968566173
 23
63.0400300148
 33
0.0
 14
168.9968566173
 24
160.4900300148
 34
0.0
 50
90.0
100
AcDbRotatedDimension
  0
DIMENSION
  5
1FB
330
1F
100
AcDbEntity
  8
VERMASSUNG
100
AcDbDimension
  2
_D_1
 10
260.5468566173
 20
100.7650300148
 30
0.0
 11
260.5468566173
 21
111.7650300148
 31
0.0
 70
   160
  1
%%c<>
 71
     2
 42
-1.0
  3
SLDDIMSTYLE0
100
AcDbAlignedDimension
 13
249.5468566173
 23
122.7650300148
 33
0.0
 14
249.5468566173
 24
100.7650300148
 34
0.0
 50
90.0
100
AcDbRotatedDimension
  0
DIMENSION
  5
206
330
1F
100
AcDbEntity
  8
VERMASSUNG
100
AcDbDimension
  2
_D_2
 10
266.6468566173
 20
91.7650300148
 30
0.0
 11
266.6468566173
 21
111.7650300148
 31
0.0
 70
   160
  1
WH%%c<>
 71
     2
 42
-1.0
  3
SLDDIMSTYLE0
100
AcDbAlignedDimension
 13
250.1468566173
 23
131.7650300148
 33
0.0
 14
250.1468566173
 24
91.7650300148
 34
0.0
 50
90.0
100
AcDbRotatedDimension
  0
DIMENSION
  5
212
330
1F
100
AcDbEntity
  8
VERMASSUNG
100
AcDbDimension
  2
_D_3
 10
169.5968566173
 20
166.6109474619
 30
0.0
 11
210.0718566173
 21
166.6109474619
 31
0.0
 70
   160
  1
<>
 71
     2
 42
-1.0
  3
SLDDIMSTYLE0
100
AcDbAlignedDimension
 13
250.5468566173
 23
131.3650300148
 33
0.0
 14
169.5968566173
 24
158.0600169681
 34
0.0
100
AcDbRotatedDimension
  0
DIMENSION
  5
21C
330
1F
100
AcDbEntity
  8
VERMASSUNG
100
AcDbDimension
  2
_D_4
 10
150.5468566173
 20
172.6109474619
 30
0.0
 11
200.5468566173
 21
172.6109474619
 31
0.0
 70
   160
  1
<>
 71
     2
 42
-1.0
  3
SLDDIMSTYLE0
100
AcDbAlignedDimension
 13
250.5468566173
 23
131.3650300148
 33
0.0
 14
150.5468566173
 24
146.6900300148
 34
0.0
100
AcDbRotatedDimension
  0
DIMENSION
  5
226
330
1F
100
AcDbEntity
  8
VERMASSUNG
100
AcDbDimension
  2
_D_5
 10
48.9468566173
 20
178.6109474619
 30
0.0
 11
149.7468566173
 21
178.6109474619
 31
0.0
 70
   160
  1
<>
 71
     2
 42
-1.0
  3
SLDDIMSTYLE0
100
AcDbAlignedDimension
 13
250.5468566173
 23
131.3650300148
 33
0.0
 14
48.9468566173
 24
130.1438745422
 34
0.0
100
AcDbRotatedDimension
  0
LINE
  5
230
330
1F
100
AcDbEntity
  8
VERMASSUNG
  6
CENTERX2
370
     0
100
AcDbLine
 10
166.3408348392
 20
123.1138061201
 30
0.0
 11
155.6675859263
 21
125.6698900173
 31
0.0
  0
LINE
  5
231
330
1F
100
AcDbEntity
  8
VERMASSUNG
  6
CENTERX2
370
     0
100
AcDbLine
 10
155.6675859263
 20
125.6698900173
 30
0.0
 11
153.5225842802
 21
126.1835859137
 31
0.0
  0
LINE
  5
232
330
1F
100
AcDbEntity
  8
VERMASSUNG
  6
CENTERX2
370
     0
100
AcDbLine
 10
238.4968566173
 20
119.8024613001
 30
0.0
 11
238.4968566173
 21
132.2650300148
 31
0.0
  0
LINE
  5
233
330
1F
100
AcDbEntity
  8
VERMASSUNG
  6
CENTERX2
370
     0
100
AcDbLine
 10
45.7528716549
 20
111.7650300148
 30
0.0
 11
254.6611423316
 21
111.7650300148
 31
0.0
  0
LINE
  5
234
330
1F
100
AcDbEntity
  8
0
  6
Continuous
 62
     7
370
    15
100
AcDbLine
 10
269.2956437065
 20
18.3619701003
 30
0.0
 11
269.4370418375
 21
18.4436240438
 31
0.0
  0
LINE
  5
235
330
1F
100
AcDbEntity
  8
0
  6
Continuous
 62
     7
370
    15
100
AcDbLine
 10
276.365562113
 20
30.4454737131
 30
0.0
 11
276.365562113
 21
30.6087550581
 31
0.0
  0
LINE
  5
236
330
1F
100
AcDbEntity
  8
0
  6
Continuous
 62
     7
370
    15
100
AcDbLine
 10
274.2940879726
 20
35.1872029585
 30
0.0
 11
246.8760220221
 21
51.0153155208
 31
0.0
  0
LINE
  5
237
330
1F
100
AcDbEntity
  8
0
  6
Continuous
 62
     7
370
    15
100
AcDbLine
 10
236.8768349952
 20
33.6943387843
 30
0.0
 11
264.2949009457
 21
17.8662262219
 31
0.0
  0
SPLINE
  5
238
330
1F
100
AcDbEntity
  8
0
  6
Continuous
 62
     7
370
    15
100
AcDbSpline
210
0.0
220
0.0
230
1.0
 70
     8
 71
     3
 72
    22
 73
    18
 74
     0
 42
0.000000001
 43
0.00000001
 40
0.0
 40
0.0
 40
0.0
 40
0.0
 40
0.0590830807845144
 40
0.1283725944123798
 40
0.2020980692463561
 40
0.2732418095691421
 40
0.3434705623493052
 40
0.4135740641071797
 40
0.4838108183665399
 40
0.5542660741199228
 40
0.6249014161610731
 40
0.6956359129009194
 40
0.7663756498329525
 40
0.8369910559461837
 40
0.9073834870650034
 40
0.9774656289431326
 40
1.0
 40
1.0
 40
1.0
 40
1.0
 10
266.2917537615131
 20
21.92611097406829
 30
0.0
 10
266.1899370332738
 20
21.99359235716294
 30
0.0
 10
265.9687150288505
 20
22.14021233884584
 30
0.0
 10
265.6972191577571
 20
22.52032717565662
 30
0.0
 10
265.47563823804
 20
23.03746128005868
 30
0.0
 10
265.3493537973218
 20
23.67915776123973
 30
0.0
 10
265.3264314984197
 20
24.40156192641895
 30
0.0
 10
265.4090905664509
 20
25.18844038718041
 30
0.0
 10
265.5967980104875
 20
26.0183881536951
 30
0.0
 10
265.886001816003
 20
26.8677152084387
 30
0.0
 10
266.2695466520873
 20
27.71138809310371
 30
0.0
 10
266.7368265821206
 20
28.52421096511692
 30
0.0
 10
267.2739684059686
 20
29.28163629903034
 30
0.0
 10
267.8644750433954
 20
29.96153291246554
 30
0.0
 10
268.4891400051492
 20
30.54242154479255
 30
0.0
 10
268.9850408821724
 20
30.90837298065442
 30
0.0
 10
269.2643774173092
 20
31.07488285214257
 30
0.0
 10
269.3323423291056
 20
31.11539609443424
 30
0.0
  0
SPLINE
  5
239
330
1F
100
AcDbEntity
  8
0
  6
Continuous
 62
     7
370
    15
100
AcDbSpline
210
0.0
220
0.0
230
1.0
 70
     8
 71
     3
 72
    12
 73
     8
 74
     0
 42
0.000000001
 43
0.00000001
 40
0.0
 40
0.0
 40
0.0
 40
0.0
 40
0.1182504734401977
 40
0.3440794806874189
 40
0.5698509245358805
 40
0.7976715053580229
 40
1.0
 40
1.0
 40
1.0
 40
1.0
 10
269.3323423291056
 20
31.11539609443424
 30
0.0
 10
269.4415367281983
 20
31.17518148394367
 30
0.0
 10
269.7592652838714
 20
31.34914210479057
 30
0.0
 10
270.2699096284935
 20
31.54053540668342
 30
0.0
 10
270.8303455409572
 20
31.64018185511149
 30
0.0
 10
271.313400620677
 20
31.62404922227416
 30
0.0
 10
271.5710507342166
 20
31.52261084683892
 30
0.0
 10
271.6922411832733
 20
31.47489744938806
 30
0.0
  0
SPLINE
  5
23A
330
1F
100
AcDbEntity
  8
0
  6
Continuous
 62
     7
370
    15
100
AcDbSpline
210
0.0
220
0.0
230
1.0
 70
     8
 71
     3
 72
    10
 73
     6
 74
     0
 42
0.000000001
 43
0.00000001
 40
0.0
 40
0.0
 40
0.0
 40
0.0
 40
0.134195124446517
 40
0.6045542330645128
 40
1.0
 40
1.0
 40
1.0
 40
1.0
 10
219.8731360328984
 20
46.00691924609518
 30
0.0
 10
219.8121041731495
 20
45.83650808227907
 30
0.0
 10
219.5371532811914
 20
45.06879918919231
 30
0.0
 10
219.1697475921623
 20
43.7986522541906
 30
0.0
 10
218.9180124109021
 20
42.71302213922381
 30
0.0
 10
218.8030354517409
 20
42.21717388802649
 30
0.0
  0
SPLINE
  5
23B
330
1F
100
AcDbEntity
  8
0
  6
Continuous
 62
     7
370
    15
100
AcDbSpline
210
0.0
220
0.0
230
1.0
 70
     8
 71
     3
 72
    19
 73
    15
 74
     0
 42
0.000000001
 43
0.00000001
 40
0.0
 40
0.0
 40
0.0
 40
0.0
 40
0.0322518670420541
 40
0.1267981326814274
 40
0.2214319228444567
 40
0.3161097108905252
 40
0.4107995680169471
 40
0.5054797862936263
 40
0.6001421720025398
 40
0.6947836094698621
 40
0.7894041357995022
 40
0.884005857290241
 40
0.9785918871585876
 40
1.0
 40
1.0
 40
1.0
 40
1.0
 10
239.8038648063963
 20
67.88932435950255
 30
0.0
 10
239.6509889447706
 20
67.85316019437029
 30
0.0
 10
239.0499578862918
 20
67.71098087176624
 30
0.0
 10
237.9743326235902
 20
67.31726943969429
 30
0.0
 10
236.5873448317829
 20
66.71111625663681
 30
0.0
 10
235.19127703531
 20
65.96082112397958
 30
0.0
 10
233.7976973877828
 20
65.08394423584033
 30
0.0
 10
232.4150752374427
 20
64.08304753237726
 30
0.0
 10
231.0523598170351
 20
62.96584647861197
 30
0.0
 10
229.7187083595729
 20
61.73893623971577
 30
0.0
 10
228.4208299736127
 20
60.4124008029507
 30
0.0
 10
227.1737796487859
 20
58.98745798467755
 30
0.0
 10
226.2731472076716
 20
57.88425426942557
 30
0.0
 10
225.8110422723292
 20
57.23772375466267
 30
0.0
 10
225.7257552537844
 20
57.11839877934824
 30
0.0
  0
LINE
  5
23C
330
1F
100
AcDbEntity
  8
0
  6
Continuous
 62
     7
370
    15
100
AcDbLine
 10
234.0629190936
 20
65.22909249
 30
0.0
 11
203.3016360445
 21
76.3142394961
 31
0.0
  0
LINE
  5
23D
330
1F
100
AcDbEntity
  8
0
  6
Continuous
 62
     7
370
    15
100
AcDbLine
 10
193.1777766641
 20
58.7773010957
 30
0.0
 11
222.6452877826
 21
33.8951786574
 31
0.0
  0
SPLINE
  5
23E
330
1F
100
AcDbEntity
  8
0
  6
Continuous
 62
     7
370
    15
100
AcDbSpline
210
0.0
220
0.0
230
1.0
 70
     8
 71
     3
 72
     9
 73
     5
 74
     0
 42
0.000000001
 43
0.00000001
 40
0.0
 40
0.0
 40
0.0
 40
0.0
 40
0.23311123046199
 40
1.0
 40
1.0
 40
1.0
 40
1.0
 10
256.8081402421124
 20
45.28162663217257
 30
0.0
 10
256.848426018624
 20
45.4176245127892
 30
0.0
 10
257.0212438465417
 20
46.00102789643186
 30
0.0
 10
257.142534033522
 20
46.57620739556417
 30
0.0
 10
257.2355501157723
 20
47.01730609391723
 30
0.0
  0
SPLINE
  5
23F
330
1F
100
AcDbEntity
  8
0
  6
Continuous
 62
     7
370
    15
100
AcDbSpline
210
0.0
220
0.0
230
1.0
 70
     8
 71
     3
 72
    16
 73
    12
 74
     0
 42
0.000000001
 43
0.00000001
 40
0.0
 40
0.0
 40
0.0
 40
0.0
 40
0.058476804062537
 40
0.1880156172056834
 40
0.3176656817864281
 40
0.4473697524717549
 40
0.5770852662438731
 40
0.7067856721996378
 40
0.8364607590651122
 40
0.9661069454152532
 40
1.0
 40
1.0
 40
1.0
 40
1.0
 10
236.2474514965911
 20
21.28774196135833
 30
0.0
 10
236.4502442679386
 20
21.3378434789483
 30
0.0
 10
237.10226704314
 20
21.49893073232392
 30
0.0
 10
238.2297900018908
 20
21.92173117907303
 30
0.0
 10
239.6184840945229
 20
22.5466631680377
 30
0.0
 10
241.0147813107681
 20
23.31328850172466
 30
0.0
 10
242.4072794021709
 20
24.20679417953886
 30
0.0
 10
243.7885470218554
 20
25.22130811726737
 30
0.0
 10
245.1454279436807
 20
26.35901126305143
 30
0.0
 10
246.1550801756528
 20
27.27684130934253
 30
0.0
 10
246.6960852761271
 20
27.84361663087576
 30
0.0
 10
246.808207084301
 20
27.96107924596557
 30
0.0
  0
LINE
  5
240
330
1F
100
AcDbEntity
  8
0
  6
Continuous
 62
     7
370
    15
100
AcDbLine
 10
226.9678537487
 20
22.8307344586
 30
0.0
 11
228.4233757349
 21
21.9904795013
 31
0.0
  0
LINE
  5
241
330
1F
100
AcDbEntity
  8
0
  6
Continuous
 62
     7
370
    15
100
AcDbLine
 10
223.2438188003
 20
24.9805740737
 30
0.0
 11
224.6816634764
 21
24.1505240103
 31
0.0
  0
LINE
  5
242
330
1F
100
AcDbEntity
  8
0
  6
Continuous
 62
     7
370
    15
100
AcDbLine
 10
218.8119363393
 20
31.0461548297
 30
0.0
 11
218.8562975437
 21
30.9002890042
 31
0.0
  0
LINE
  5
243
330
1F
100
AcDbEntity
  8
0
  6
Continuous
 62
     7
370
    15
100
AcDbLine
 10
257.2308533763
 20
58.0775524194
 30
0.0
 11
257.1792603654
 21
58.243407461
 31
0.0
  0
SPLINE
  5
244
330
1F
100
AcDbEntity
  8
0
  6
Continuous
 62
     7
370
    15
100
AcDbSpline
210
0.0
220
0.0
230
1.0
 70
     8
 71
     3
 72
    26
 73
    22
 74
     0
 42
0.000000001
 43
0.00000001
 40
0.0
 40
0.0
 40
0.0
 40
0.0
 40
0.0206098635346963
 40
0.0728944510643923
 40
0.1258585040611578
 40
0.1800156137396773
 40
0.2354401611125397
 40
0.2918299514627566
 40
0.3487416667418533
 40
0.4057939356565405
 40
0.4627674603426434
 40
0.5196158025351038
 40
0.5763503990457023
 40
0.6330092550266897
 40
0.6896415235028057
 40
0.7462991724022513
 40
0.8030217144057956
 40
0.8598660589598679
 40
0.9168873020481363
 40
0.9741306256673679
 40
1.0
 40
1.0
 40
1.0
 40
1.0
 10
203.3529722231146
 20
76.27543991791035
 30
0.0
 10
203.2561000944214
 20
76.31704174072979
 30
0.0
 10
202.9134757663832
 20
76.46418206665166
 30
0.0
 10
202.2613703653406
 20
76.5670266402289
 30
0.0
 10
201.4158271858638
 20
76.58544906836448
 30
0.0
 10
200.5289190250255
 20
76.45047485474055
 30
0.0
 10
199.6146488652069
 20
76.17314628325134
 30
0.0
 10
198.684749201851
 20
75.75191835700784
 30
0.0
 10
197.7558878122094
 20
75.19400158211161
 30
0.0
 10
196.8447039156891
 20
74.50973642190728
 30
0.0
 10
195.9663871250869
 20
73.71224508360842
 30
0.0
 10
195.1341460635796
 20
72.81553795899501
 30
0.0
 10
194.359693645608
 20
71.83409542187464
 30
0.0
 10
193.6538741904551
 20
70.78301705842836
 30
0.0
 10
193.0267474931685
 20
69.67800530586076
 30
0.0
 10
192.4875219006729
 20
68.53531286181733
 30
0.0
 10
192.0446067170123
 20
67.37155325546591
 30
0.0
 10
191.7047929412525
 20
66.20301580363159
 30
0.0
 10
191.4762514994878
 20
65.04689981599903
 30
0.0
 10
191.3793319456246
 20
64.12384131014895
 30
0.0
 10
191.3712666074003
 20
63.59674229241794
 30
0.0
 10
191.3687562177873
 20
63.43267925348322
 30
0.0
  0
SPLINE
  5
245
330
1F
100
AcDbEntity
  8
0
  6
Continuous
 62
     7
370
    15
100
AcDbSpline
210
0.0
220
0.0
230
1.0
 70
     8
 71
     3
 72
    13
 73
     9
 74
     0
 42
0.000000001
 43
0.00000001
 40
0.0
 40
0.0
 40
0.0
 40
0.0
 40
0.1013708038922181
 40
0.2925452651573772
 40
0.4837075735181394
 40
0.673017314708729
 40
0.8585816591153959
 40
1.0
 40
1.0
 40
1.0
 40
1.0
 10
191.3687562177873
 20
63.43267925348322
 30
0.0
 10
191.372212125546
 20
63.24191307584978
 30
0.0
 10
191.382185504594
 20
62.69138235224844
 30
0.0
 10
191.4940367144581
 20
61.8274898356473
 30
0.0
 10
191.7456578665658
 20
60.87866131283844
 30
0.0
 10
192.1275352481528
 20
60.0332999477661
 30
0.0
 10
192.5793884900582
 20
59.34324202371856
 30
0.0
 10
192.9520697376304
 20
59.00015769065844
 30
0.0
 10
193.1132524732347
 20
58.85177546937462
 30
0.0
  0
LINE
  5
246
330
1F
100
AcDbEntity
  8
0
  6
Continuous
 62
     7
370
    15
100
AcDbLine
 10
267.8146879856
 20
28.6652739865
 30
0.0
 11
269.7127410152
 21
29.0519887106
 31
0.0
  0
LINE
  5
247
330
1F
100
AcDbEntity
  8
0
  6
Continuous
 62
     7
370
    15
100
AcDbLine
 10
266.9436502627
 20
37.8044674295
 30
0.0
 11
266.6961234677
 21
37.9474076714
 31
0.0
  0
LINE
  5
248
330
1F
100
AcDbEntity
  8
0
  6
Continuous
 62
     7
370
    15
100
AcDbLine
 10
263.6550702031
 20
37.9474076172
 30
0.0
 11
263.4075436916
 21
37.8044663984
 31
0.0
  0
LINE
  5
249
330
1F
100
AcDbEntity
  8
0
  6
Continuous
 62
     7
370
    15
100
AcDbLine
 10
262.6755971293
 20
36.7841225912
 30
0.0
 11
262.6755971293
 21
36.6616409171
 31
0.0
  0
LINE
  5
24A
330
1F
100
AcDbEntity
  8
0
  6
Continuous
 62
     7
370
    15
100
AcDbLine
 10
267.6755979525
 20
36.6616403468
 30
0.0
 11
267.6755979525
 21
36.784122021
 31
0.0
  0
LWPOLYLINE
  5
24B
330
1F
100
AcDbEntity
  8
0
  6
Continuous
 62
     7
370
    15
100
AcDbPolyline
 90
       47
 70
   128
 43
0.0
 10
269.4359155751
 20
34.4471739691
 10
268.4923288026
 20
33.8279207125
 10
267.5663194061
 20
33.0711396099
 10
266.6751368067
 20
32.1909269789
 10
265.8353824175
 20
31.2036795986
 10
265.0626993046
 20
30.1277893169
 10
264.3714807816
 20
28.9832964977
 10
263.7746033692
 20
27.791521411
 10
263.283184945
 20
26.5746645376
 10
262.9063802655
 20
25.3553934666
 10
262.6512087566
 20
24.1564214253
 10
262.5224237927
 20
23.0000826677
 10
262.5224237927
 20
21.9079174604
 10
262.6512087566
 20
20.9002706573
 10
262.9063802655
 20
19.9959133691
 10
263.283184945
 20
19.2116917208
 10
263.7746033692
 20
18.5622144829
 10
264.3714807816
 20
18.0595793878
 10
265.0626993046
 20
17.713150488
 10
265.8353824175
 20
17.5293811391
 10
266.6751368067
 20
17.5116935389
 10
267.5663194061
 20
17.6604184357
 10
268.4923288026
 20
17.9727850248
 10
269.4359155751
 20
18.4429738663
 10
270.3795023477
 20
19.0622271229
 10
271.3055117441
 20
19.8190082256
 10
272.1966943436
 20
20.6992208565
 10
273.0364487328
 20
21.6864682369
 10
273.8091318456
 20
22.7623585185
 10
274.5003503687
 20
23.9068513377
 10
275.0972277811
 20
25.0986264245
 10
275.5886462053
 20
26.3154832979
 10
275.9654508848
 20
27.5347543689
 10
276.2206223937
 20
28.7337264101
 10
276.3494073576
 20
29.8900651677
 10
276.3494073576
 20
30.982230375
 10
276.2206223937
 20
31.9898771782
 10
275.9654508848
 20
32.8942344664
 10
275.5886462053
 20
33.6784561147
 10
275.0972277811
 20
34.3279333525
 10
274.5003503687
 20
34.8305684476
 10
273.8091318456
 20
35.1769973474
 10
273.0364487328
 20
35.3607666963
 10
272.1966943436
 20
35.3784542965
 10
271.3055117441
 20
35.2297293997
 10
270.3795023477
 20
34.9173628107
 10
269.4359155751
 20
34.4471739691
  0
LWPOLYLINE
  5
24C
330
1F
100
AcDbEntity
  8
0
  6
Continuous
 62
     7
370
    15
100
AcDbPolyline
 90
       25
 70
   128
 43
0.0
 10
269.2944944591
 20
34.6921225266
 10
268.3520133828
 20
34.075183635
 10
267.4263508747
 20
33.3235427537
 10
266.5340253713
 20
32.4506118523
 10
265.6909606434
 20
31.471969135
 10
264.9122008111
 20
30.4050774106
 10
264.2116434685
 20
29.2689771757
 10
263.6017894365
 20
28.0839406276
 10
263.0935221511
 20
26.8711157884
 10
262.6959107578
 20
25.6521443911
 10
262.4160517325
 20
24.4487803315
 10
262.2589388179
 20
23.2824969021
 10
262.2273754382
 20
22.1741066873
 10
262.3219246488
 20
21.1433886325
 10
262.5408999174
 20
20.2087364733
 10
262.8803927821
 20
19.3868284543
 10
263.3343459507
 20
18.6923319067
 10
263.8946580086
 20
18.137640284
 10
264.5513302746
 20
17.7326519488
 10
265.2926442783
 20
17.4845937292
 10
266.1053711778
 20
17.3978923801
 10
266.9750085058
 20
17.4740952834
 10
267.8860368379
 20
17.7118418113
 10
268.8221992208
 20
18.1068907955
 10
269.2956437065
 20
18.3619701003
  0
LWPOLYLINE
  5
24D
330
1F
100
AcDbEntity
  8
0
  6
Continuous
 62
     7
370
    15
100
AcDbPolyline
 90
       13
 70
   128
 43
0.0
 10
276.365562113
 20
30.6087550581
 10
276.3300501004
 20
31.4055765408
 10
276.1729371858
 20
32.3904612603
 10
275.8930781604
 20
33.2707069669
 10
275.4954667672
 20
34.0306060213
 10
274.9871994818
 20
34.6565979438
 10
274.3773454498
 20
35.1375120142
 10
273.6767881071
 20
35.4647659581
 10
272.8980282749
 20
35.6325207188
 10
272.054963547
 20
35.6377816203
 10
271.1626380436
 20
35.4804554251
 10
270.2369755355
 20
35.1633491235
 10
269.2944944591
 20
34.6921225266
  0
SPLINE
  5
24E
330
1F
100
AcDbEntity
  8
0
  6
Continuous
 62
     7
370
    15
100
AcDbSpline
210
0.0
220
0.0
230
1.0
 70
    11
 71
     3
 72
    85
 73
    81
 74
     0
 42
0.000000001
 43
0.00000001
 40
0.0
 40
0.0
 40
0.0
 40
0.0
 40
0.0312500000000005
 40
0.0312500000000005
 40
0.062500000000001
 40
0.062500000000001
 40
0.0937500000000015
 40
0.0937500000000015
 40
0.1250000000000019
 40
0.1250000000000019
 40
0.1562500000000024
 40
0.1562500000000024
 40
0.1718750000000026
 40
0.1718750000000026
 40
0.1875000000000029
 40
0.1875000000000029
 40
0.2187500000000033
 40
0.2187500000000033
 40
0.234375000000003
 40
0.234375000000003
 40
0.2500000000000027
 40
0.2500000000000027
 40
0.2812500000000031
 40
0.2812500000000031
 40
0.2968750000000032
 40
0.2968750000000032
 40
0.3125000000000033
 40
0.3125000000000033
 40
0.3437500000000037
 40
0.3437500000000037
 40
0.3593750000000037
 40
0.3593750000000037
 40
0.3750000000000037
 40
0.3906250000000037
 40
0.3906250000000037
 40
0.4062500000000038
 40
0.4062500000000038
 40
0.437500000000004
 40
0.437500000000004
 40
0.4531250000000039
 40
0.4531250000000039
 40
0.4687500000000037
 40
0.4687500000000037
 40
0.5000000000000034
 40
0.5000000000000034
 40
0.5312500000000032
 40
0.5312500000000032
 40
0.562500000000003
 40
0.562500000000003
 40
0.5937500000000027
 40
0.5937500000000027
 40
0.6250000000000023
 40
0.6250000000000023
 40
0.6562500000000021
 40
0.6562500000000021
 40
0.6875000000000018
 40
0.6875000000000018
 40
0.7187500000000016
 40
0.7187500000000016
 40
0.7500000000000012
 40
0.7500000000000012
 40
0.7812500000000009
 40
0.7812500000000009
 40
0.8125000000000007
 40
0.8125000000000007
 40
0.8281250000000006
 40
0.8281250000000006
 40
0.8437500000000004
 40
0.8437500000000004
 40
0.8750000000000001
 40
0.8750000000000001
 40
0.8906250000000001
 40
0.8906250000000001
 40
0.90625
 40
0.90625
 40
0.9375
 40
0.9375
 40
0.96875
 40
0.96875
 40
1.0
 40
1.0
 40
1.0
 40
1.0
 10
265.1477944466136
 20
38.53026893084049
 30
0.0
 10
265.3321437139734
 20
38.49913123049991
 30
0.0
 10
265.5116372507493
 20
38.45903016706174
 30
0.0
 10
265.8620827959969
 20
38.36445804119271
 30
0.0
 10
266.0339802956894
 20
38.30960372978126
 30
0.0
 10
266.3650161835652
 20
38.18838644029285
 30
0.0
 10
266.5216221816946
 20
38.12305768221949
 30
0.0
 10
266.8178714697717
 20
37.98436293512891
 30
0.0
 10
266.9586182425576
 20
37.91030957015827
 30
0.0
 10
267.2165185711208
 20
37.75748223148612
 30
0.0
 10
267.3330869631889
 20
37.67924313428814
 30
0.0
 10
267.4896404161014
 20
37.55883920192548
 30
0.0
 10
267.5387565031195
 20
37.51818856197929
 30
0.0
 10
267.6306617143138
 20
37.43569447375585
 30
0.0
 10
267.6735413440135
 20
37.39371786991762
 30
0.0
 10
267.7900378333555
 20
37.26810484017705
 30
0.0
 10
267.8525034657698
 20
37.18409919543145
 30
0.0
 10
267.9230032063206
 20
37.05632910652309
 30
0.0
 10
267.9426111377479
 20
37.01344103868527
 30
0.0
 10
267.9736206268687
 20
36.92676597808745
 30
0.0
 10
267.9849857121504
 20
36.88287966889536
 30
0.0
 10
268.0055241132798
 20
36.7523501745173
 30
0.0
 10
268.0017222808947
 20
36.6658907527971
 30
0.0
 10
267.9681548956164
 20
36.53536374404057
 30
0.0
 10
267.9522875738355
 20
36.49171552206253
 30
0.0
 10
267.9104112936631
 20
36.40384220528497
 30
0.0
 10
267.8844375298001
 20
36.35985336429844
 30
0.0
 10
267.7929082941589
 20
36.23032628484219
 30
0.0
 10
267.713410482515
 20
36.14606223173512
 30
0.0
 10
267.5643867992146
 20
36.0219939722199
 30
0.0
 10
267.5092106445343
 20
35.98072287802865
 30
0.0
 10
267.3911449674875
 20
35.90101029895066
 30
0.0
 10
267.2653536547572
 20
35.82394489285927
 30
0.0
 10
267.1244472556754
 20
35.75201906249889
 30
0.0
 10
266.9759063962234
 20
35.68273130316402
 30
0.0
 10
266.897317162323
 20
35.64923702121646
 30
0.0
 10
266.6559545165688
 20
35.55535705848229
 30
0.0
 10
266.4864291068305
 20
35.5007676501826
 30
0.0
 10
266.2199064020591
 20
35.43116964816866
 30
0.0
 10
266.1292380367464
 20
35.41013411171149
 30
0.0
 10
265.9478603090254
 20
35.37317476236812
 30
0.0
 10
265.8566631089757
 20
35.35711875303525
 30
0.0
 10
265.5815658524065
 20
35.31624121945028
 30
0.0
 10
265.3945323884435
 20
35.29867280838629
 30
0.0
 10
265.0284498613972
 20
35.28499310210896
 30
0.0
 10
264.8484820409697
 20
35.28856855705455
 30
0.0
 10
264.494134902159
 20
35.31757074763158
 30
0.0
 10
264.3212186916043
 20
35.34309621751135
 30
0.0
 10
263.99241577615
 20
35.41518183553919
 30
0.0
 10
263.8350911655903
 20
35.46184082274807
 30
0.0
 10
263.5347243558913
 20
35.5777648567524
 30
0.0
 10
263.3951652980665
 20
35.6457652263668
 30
0.0
 10
263.1385363344796
 20
35.80026543473053
 30
0.0
 10
263.0210554598735
 20
35.88693524328252
 30
0.0
 10
262.8090125949619
 20
36.0794668312384
 30
0.0
 10
262.7174941650985
 20
36.18254528351353
 30
0.0
 10
262.5627782391168
 20
36.40095275963108
 30
0.0
 10
262.4994637847987
 20
36.51652650125292
 30
0.0
 10
262.4040522884036
 20
36.75836799251837
 30
0.0
 10
262.3732191308097
 20
36.88124746002635
 30
0.0
 10
262.3457751176097
 20
37.12912496911699
 30
0.0
 10
262.3492573804152
 20
37.25489660362513
 30
0.0
 10
262.3949425660307
 20
37.50356107539771
 30
0.0
 10
262.4363389565083
 20
37.62315765810798
 30
0.0
 10
262.527420273461
 20
37.79384265604232
 30
0.0
 10
262.562648052187
 20
37.84927915513879
 30
0.0
 10
262.6435492359138
 20
37.95684815024271
 30
0.0
 10
262.6894734106381
 20
38.00911015834792
 30
0.0
 10
262.8393630315901
 20
38.15569995578409
 30
0.0
 10
262.9563655766293
 20
38.2415832695747
 30
0.0
 10
263.1581826643978
 20
38.35185930770469
 30
0.0
 10
263.2303000718908
 20
38.38561775103395
 30
0.0
 10
263.3794449096225
 20
38.44501444109774
 30
0.0
 10
263.4568548392714
 20
38.47091638772294
 30
0.0
 10
263.6972981624081
 20
38.53779970154329
 30
0.0
 10
263.870660511229
 20
38.56807909525622
 30
0.0
 10
264.2249222041914
 20
38.60006849195083
 30
0.0
 10
264.4063469272344
 20
38.60234150691909
 30
0.0
 10
264.7775407556089
 20
38.58294388951568
 30
0.0
 10
264.9634451792538
 20
38.56140663118106
 30
0.0
 10
265.1477944466136
 20
38.53026893084049
 30
0.0
  0
LINE
  5
24F
330
1F
100
AcDbEntity
  8
0
  6
Continuous
 62
     7
370
    15
100
AcDbLine
 10
266.275071512
 20
21.9205279033
 30
0.0
 11
266.3325850027
 21
21.8859076617
 31
0.0
  0
LINE
  5
250
330
1F
100
AcDbEntity
  8
0
  6
Continuous
 62
     7
370
    15
100
AcDbLine
 10
271.8321379334
 20
31.4124450569
 30
0.0
 11
271.66650477
 21
31.4971822486
 31
0.0
  0
SPLINE
  5
251
330
1F
100
AcDbEntity
  8
0
  6
Continuous
 62
     7
370
    15
100
AcDbSpline
210
0.0
220
0.0
230
1.0
 70
     8
 71
     3
 72
    14
 73
    10
 74
     0
 42
0.000000001
 43
0.00000001
 40
0.0
 40
0.0
 40
0.0
 40
0.0
 40
0.0337572978945108
 40
0.2183238640128181
 40
0.393509443122325
 40
0.5584818440163621
 40
0.726052614384167
 40
0.9050846549900924
 40
1.0
 40
1.0
 40
1.0
 40
1.0
 10
270.1771502242707
 20
31.48667466880328
 30
0.0
 10
270.2079443119242
 20
31.4500819495761
 30
0.0
 10
270.4071037418725
 20
31.21342012073606
 30
0.0
 10
270.6131044809146
 20
30.72258826526607
 30
0.0
 10
270.6917393975813
 20
30.09162906289931
 30
0.0
 10
270.5186962725114
 20
29.54726148808771
 30
0.0
 10
270.1517532641084
 20
29.1493569728114
 30
0.0
 10
269.7181728226515
 20
28.92513592969706
 30
0.0
 10
269.420346395581
 20
28.9594893341328
 30
0.0
 10
269.3171576098406
 20
28.97139185777599
 30
0.0
  0
SPLINE
  5
252
330
1F
100
AcDbEntity
  8
0
  6
Continuous
 62
     7
370
    15
100
AcDbSpline
210
0.0
220
0.0
230
1.0
 70
     8
 71
     3
 72
    12
 73
     8
 74
     0
 42
0.000000001
 43
0.00000001
 40
0.0
 40
0.0
 40
0.0
 40
0.0
 40
0.2499999999999992
 40
0.2499999999999992
 40
0.4999999999999984
 40
0.4999999999999984
 40
1.0
 40
1.0
 40
1.0
 40
1.0
 10
224.0823479653808
 20
39.18710586914781
 30
0.0
 10
224.1162794576703
 20
39.16751763559633
 30
0.0
 10
224.1547111666976
 20
39.14033044665992
 30
0.0
 10
224.2288880193626
 20
39.0811065191241
 30
0.0
 10
224.264104299618
 20
39.04967384010733
 30
0.0
 10
224.359203216876
 20
38.95768112330535
 30
0.0
 10
224.4077323736379
 20
38.9008244577807
 30
0.0
 10
224.4410739697929
 20
38.85259565177837
 30
0.0
  0
ARC
  5
253
330
1F
100
AcDbEntity
  8
0
  6
Continuous
 62
     7
370
    15
100
AcDbCircle
 10
248.1576407257
 20
54.4576247741
 30
0.0
 40
10.86942928536257
100
AcDbArc
 50
73.9805689162
 51
106.2233053919
  0
SPLINE
  5
254
330
1F
100
AcDbEntity
  8
0
  6
Continuous
 62
     7
370
    15
100
AcDbSpline
210
0.0
220
0.0
230
1.0
 70
     8
 71
     3
 72
    12
 73
     8
 74
     0
 42
0.000000001
 43
0.00000001
 40
0.0
 40
0.0
 40
0.0
 40
0.0
 40
0.5
 40
0.5
 40
0.75
 40
0.75
 40
1.0
 40
1.0
 40
1.0
 40
1.0
 10
251.3693367889913
 20
64.47141158998967
 30
0.0
 10
251.3693367889913
 20
64.54409458718249
 30
0.0
 10
251.3523200209211
 20
64.62767743392277
 30
0.0
 10
251.2979091950396
 20
64.74912161179846
 30
0.0
 10
251.2747639761177
 20
64.7888364894798
 30
0.0
 10
251.2204831642605
 20
64.8575662613456
 30
0.0
 10
251.189247195703
 20
64.88647585725127
 30
0.0
 10
251.1572047546353
 20
64.90497356474486
 30
0.0
  0
LWPOLYLINE
  5
255
330
1F
100
AcDbEntity
  8
0
  6
Continuous
 62
     7
370
    15
100
AcDbPolyline
 90
       17
 70
   128
 43
0.0
 10
224.5212499368
 20
39.2165623516
 10
224.8952004844
 20
40.7085680028
 10
225.4654262713
 20
42.5810098784
 10
226.147596722
 20
44.4562686509
 10
226.9367332401
 20
46.3206663414
 10
227.8270840978
 20
48.1606094551
 10
228.8121547292
 20
49.9626787126
 10
229.8847623893
 20
51.713733609
 10
231.0370842279
 20
53.4010032842
 10
232.2607172171
 20
55.0121842372
 10
233.5467380788
 20
56.5355258723
 10
234.8857684807
 20
57.9599198472
 10
236.2680435248
 20
59.2749791551
 10
237.6834831996
 20
60.4711128334
 10
239.1217648199
 20
61.5395982006
 10
240.5723999532
 20
62.4726435161
 10
241.0142594252
 20
62.728395809
  0
LWPOLYLINE
  5
256
330
1F
100
AcDbEntity
  8
0
  6
Continuous
 62
     7
370
    15
100
AcDbPolyline
 90
       12
 70
   128
 43
0.0
 10
234.093308947
 20
60.0291003922
 10
235.5436659687
 20
61.3017037029
 10
237.0212979283
 20
62.44285274
 10
238.5150236867
 20
63.4439117619
 10
240.0135401917
 20
64.2973062166
 10
241.5055079243
 20
64.9965796738
 10
242.9796370857
 20
65.5364374955
 10
244.424772508
 20
65.9127973755
 10
245.8299790596
 20
66.1228097446
 10
247.1846235518
 20
66.1648852827
 10
248.4784547514
 20
66.0387076485
 10
249.7016827357
 20
65.7452290997
  0
LINE
  5
257
330
1F
100
AcDbEntity
  8
0
  6
Continuous
 62
     7
370
    15
100
AcDbLine
 10
251.157204722
 20
64.9049741423
 30
0.0
 11
249.7016827357
 21
65.7452290997
 31
0.0
  0
LINE
  5
258
330
1F
100
AcDbEntity
  8
0
  6
Continuous
 62
     7
370
    15
100
AcDbLine
 10
222.6268258166
 20
40.0273610116
 30
0.0
 11
224.0823478029
 21
39.1871060543
 31
0.0
  0
ARC
  5
259
330
1F
100
AcDbEntity
  8
0
  6
Continuous
 62
     7
370
    15
100
AcDbCircle
 10
261.9595496883
 20
30.7962601467
 30
0.0
 40
40.40144044883839
100
AcDbArc
 50
136.9528122493
 51
166.7921386576
  0
SPLINE
  5
25A
330
1F
100
AcDbEntity
  8
0
  6
Continuous
 62
     7
370
    15
100
AcDbSpline
210
0.0
220
0.0
230
1.0
 70
     8
 71
     3
 72
    34
 73
    30
 74
     0
 42
0.000000001
 43
0.00000001
 40
0.0
 40
0.0
 40
0.0
 40
0.0
 40
0.0624999999999998
 40
0.0624999999999998
 40
0.1249999999999995
 40
0.1249999999999995
 40
0.1874999999999993
 40
0.1874999999999993
 40
0.2499999999999991
 40
0.2499999999999991
 40
0.3124999999999988
 40
0.3124999999999988
 40
0.3749999999999986
 40
0.3749999999999986
 40
0.5000000000000008
 40
0.5000000000000008
 40
0.625000000000003
 40
0.625000000000003
 40
0.6875000000000028
 40
0.6875000000000028
 40
0.7500000000000024
 40
0.7500000000000024
 40
0.8125000000000022
 40
0.8125000000000022
 40
0.8750000000000014
 40
0.8750000000000014
 40
0.9375000000000007
 40
0.9375000000000007
 40
1.0
 40
1.0
 40
1.0
 40
1.0
 10
232.434509579913
 20
58.37430276018016
 30
0.0
 10
232.4936349935564
 20
58.34472527632194
 30
0.0
 10
232.5564476889868
 20
58.3210492541264
 30
0.0
 10
232.6891566919114
 20
58.28496974370667
 30
0.0
 10
232.7597683882826
 20
58.27252185356743
 30
0.0
 10
232.9050163582599
 20
58.25981195984204
 30
0.0
 10
232.9789987880221
 20
58.2594697799447
 30
0.0
 10
233.1296808528469
 20
58.27047612476732
 30
0.0
 10
233.207128872647
 20
58.28206278875281
 30
0.0
 10
233.3590614586221
 20
58.31623733149161
 30
0.0
 10
233.4340175392066
 20
58.3387497338816
 30
0.0
 10
233.5819526061153
 20
58.39456180647966
 30
0.0
 10
233.6548813192057
 20
58.42800665268594
 30
0.0
 10
233.8614938452156
 20
58.54036891200526
 30
0.0
 10
233.9884190212649
 20
58.63440631302598
 30
0.0
 10
234.1975257738918
 20
58.8430076282019
 30
0.0
 10
234.2820741570897
 20
58.95993172234559
 30
0.0
 10
234.3670477138637
 20
59.13845697231823
 30
0.0
 10
234.3890074144616
 20
59.19967355124492
 30
0.0
 10
234.4181185112014
 20
59.32047953375875
 30
0.0
 10
234.4254729739812
 20
59.3800800602039
 30
0.0
 10
234.4258159090256
 20
59.49782135033716
 30
0.0
 10
234.4185758661902
 20
59.55627273847426
 30
0.0
 10
234.3899640156683
 20
59.66703536286571
 30
0.0
 10
234.3686806741088
 20
59.71994780758834
 30
0.0
 10
234.3118525075018
 20
59.82086601489758
 30
0.0
 10
234.2763950185278
 20
59.8683810295287
 30
0.0
 10
234.1939900656413
 20
59.95464100741211
 30
0.0
 10
234.1467851630654
 20
59.99388655983218
 30
0.0
 10
234.0933090171766
 20
60.0290996879458
 30
0.0
  0
LINE
  5
25B
330
1F
100
AcDbEntity
  8
0
  6
Continuous
 62
     7
370
    15
100
AcDbLine
 10
257.0792360157
 20
57.6021080337
 30
0.0
 11
257.1835178557
 21
57.7827298585
 31
0.0
  0
LINE
  5
25C
330
1F
100
AcDbEntity
  8
0
  6
Continuous
 62
     7
370
    15
100
AcDbLine
 10
254.7811277342
 20
56.2754383618
 30
0.0
 11
257.0792360157
 21
57.6021080337
 31
0.0
  0
ARC
  5
25D
330
1F
100
AcDbEntity
  8
0
  6
Continuous
 62
     7
370
    15
100
AcDbCircle
 10
255.6092308318
 20
54.9808360788
 30
0.0
 40
1.536798559128321
100
AcDbArc
 50
122.6053519586
 51
177.394632491
  0
LINE
  5
25E
330
1F
100
AcDbEntity
  8
0
  6
Continuous
 62
     7
370
    15
100
AcDbLine
 10
254.0740208371
 20
46.860000346
 30
0.0
 11
254.0740208371
 21
55.0506936735
 31
0.0
  0
LINE
  5
25F
330
1F
100
AcDbEntity
  8
0
  6
Continuous
 62
     7
370
    15
100
AcDbLine
 10
257.0792360157
 20
47.1095589344
 30
0.0
 11
255.360480948
 21
46.1173427537
 31
0.0
  0
LINE
  5
260
330
1F
100
AcDbEntity
  8
0
  6
Continuous
 62
     7
370
    15
100
AcDbLine
 10
257.1835178557
 20
47.0493383592
 30
0.0
 11
257.0792360157
 21
47.1095589344
 31
0.0
  0
LINE
  5
261
330
1F
100
AcDbEntity
  8
0
  6
Continuous
 62
     7
370
    15
100
AcDbLine
 10
224.4865815197
 20
28.2942199896
 30
0.0
 11
224.44107346
 21
28.1758513666
 31
0.0
  0
LINE
  5
262
330
1F
100
AcDbEntity
  8
0
  6
Continuous
 62
     7
370
    15
100
AcDbLine
 10
224.4865815197
 20
28.2942199896
 30
0.0
 11
227.6282260469
 21
30.1078527709
 31
0.0
  0
ARC
  5
263
330
1F
100
AcDbEntity
  8
0
  6
Continuous
 62
     7
370
    15
100
AcDbCircle
 10
226.8001229493
 20
31.4024550539
 30
0.0
 40
1.536798559128166
100
AcDbArc
 50
302.6053519586
 51
357.394632491
  0
LINE
  5
264
330
1F
100
AcDbEntity
  8
0
  6
Continuous
 62
     7
370
    15
100
AcDbLine
 10
228.335332944
 20
40.1920654276
 30
0.0
 11
228.335332944
 21
31.3325974592
 31
0.0
  0
ARC
  5
265
330
1F
100
AcDbEntity
  8
0
  6
Continuous
 62
     7
370
    15
100
AcDbCircle
 10
227.904259461
 20
40.2619939746
 30
0.0
 40
0.4367085406723178
100
AcDbArc
 50
350.7857695821
 51
129.2035248725
  0
LINE
  5
266
330
1F
100
AcDbEntity
  8
0
  6
Continuous
 62
     7
370
    15
100
AcDbLine
 10
227.6282260469
 20
40.6004018703
 30
0.0
 11
224.4865815197
 21
38.7867690889
 31
0.0
  0
LINE
  5
267
330
1F
100
AcDbEntity
  8
0
  6
Continuous
 62
     7
370
    15
100
AcDbLine
 10
224.44107346
 20
38.8525952246
 30
0.0
 11
224.4865815197
 21
38.7867690889
 31
0.0
  0
LINE
  5
268
330
1F
100
AcDbEntity
  8
0
  6
Continuous
 62
     7
370
    15
100
AcDbLine
 10
251.3693370545
 20
61.2464508044
 30
0.0
 11
251.3693370545
 21
64.4714119474
 31
0.0
  0
LINE
  5
269
330
1F
100
AcDbEntity
  8
0
  6
Continuous
 62
     7
370
    15
100
AcDbLine
 10
254.1620840429
 20
62.8586693238
 30
0.0
 11
251.3693370545
 21
61.2464508044
 31
0.0
  0
SPLINE
  5
26A
330
1F
100
AcDbEntity
  8
0
  6
Continuous
 62
     7
370
    15
100
AcDbSpline
210
0.0
220
0.0
230
1.0
 70
     8
 71
     3
 72
     8
 73
     4
 74
     0
 42
0.000000001
 43
0.00000001
 40
0.0
 40
0.0
 40
0.0
 40
0.0
 40
1.0
 40
1.0
 40
1.0
 40
1.0
 10
221.5542714931523
 20
41.11887479667929
 30
0.0
 10
221.26720436348
 20
41.07142279695594
 30
0.0
 10
220.9800912448945
 20
41.02406536425315
 30
0.0
 10
220.6929364184969
 20
40.97679369534107
 30
0.0
  0
SPLINE
  5
26B
330
1F
100
AcDbEntity
  8
0
  6
Continuous
 62
     7
370
    15
100
AcDbSpline
210
0.0
220
0.0
230
1.0
 70
     8
 71
     3
 72
     8
 73
     4
 74
     0
 42
0.000000001
 43
0.00000001
 40
0.0
 40
0.0
 40
0.0
 40
0.0
 40
0.0011862984959113
 40
0.0011862984959113
 40
0.0011862984959113
 40
0.0011862984959113
 10
220.3406353312214
 20
41.34715059500326
 30
0.0
 10
220.4583461990659
 20
41.2236006438908
 30
0.0
 10
220.5757859495019
 20
41.10014559477552
 30
0.0
 10
220.6929364184969
 20
40.97679369534107
 30
0.0
  0
LWPOLYLINE
  5
26C
330
1F
100
AcDbEntity
  8
0
  6
Continuous
 62
     7
370
    15
100
AcDbPolyline
 90
       23
 70
   128
 43
0.0
 10
220.3406355443
 20
41.3471505633
 10
220.8354369117
 20
43.2935647986
 10
221.4551602209
 20
45.2552263802
 10
222.1949770237
 20
47.2168439932
 10
223.0491197873
 20
49.1631283119
 10
224.0109293096
 20
51.0789072054
 10
225.0729100369
 20
52.9492489278
 10
226.2267840649
 20
54.7595723799
 10
227.4635569927
 20
56.4957695377
 10
228.7735877286
 20
58.1443050662
 10
230.1466655401
 20
59.6923292416
 10
231.5720871033
 20
61.1277756627
 10
233.0387417845
 20
62.4394545902
 10
234.5351977449
 20
63.617143719
 10
236.0497897741
 20
64.6516616967
 10
237.5707123094
 20
65.534944637
 10
239.0861099032
 20
66.2601074708
 10
240.5841705719
 20
66.821499356
 10
242.0532170867
 20
67.2147426906
 10
243.4817986757
 20
67.4367723627
 10
244.858779022
 20
67.485857653
 10
246.1734261549
 20
67.3616176262
 10
247.4154924634
 20
67.0650186514
  0
LINE
  5
26D
330
1F
100
AcDbEntity
  8
0
  6
Continuous
 62
     7
370
    15
100
AcDbLine
 10
247.7259366007
 20
66.0881885204
 30
0.0
 11
247.4154924634
 21
67.0650186514
 31
0.0
  0
LWPOLYLINE
  5
26E
330
1F
100
AcDbEntity
  8
0
  6
Continuous
 62
     7
370
    15
100
AcDbPolyline
 90
       22
 70
   128
 43
0.0
 10
221.5542714986
 20
41.118874771
 10
222.0287804755
 20
43.0158034075
 10
222.6282245652
 20
44.9287668485
 10
223.3477081477
 20
46.8421456454
 10
224.1813556891
 20
48.7403151187
 10
225.1223617904
 20
50.6077784335
 10
226.1630425542
 20
52.4292867486
 10
227.2949001222
 20
54.1899677281
 10
228.5086931394
 20
55.8754445475
 10
229.7945111694
 20
57.4719548992
 10
231.1418556957
 20
58.9664646737
 10
232.5397240859
 20
60.3467696642
 10
233.9767037637
 20
61.6015986001
 10
235.4410614417
 20
62.7207072462
 10
236.9208401329
 20
63.6949587408
 10
238.4039575624
 20
64.5163956171
 10
239.8783037141
 20
65.1783128456
 10
241.331840518
 20
65.675306257
 10
242.7526996848
 20
66.0033153325
 10
244.1292799652
 20
66.1596641413
 10
245.4503406631
 20
66.1430742593
 10
245.7453027483
 20
66.114768009
  0
LINE
  5
26F
330
1F
100
AcDbEntity
  8
0
  6
Continuous
 62
     7
370
    15
100
AcDbLine
 10
218.9027908683
 20
42.1772006267
 30
0.0
 11
220.3406355443
 21
41.3471505633
 31
0.0
  0
ARC
  5
270
330
1F
100
AcDbEntity
  8
0
  6
Continuous
 62
     7
370
    15
100
AcDbCircle
 10
242.9780889231
 20
57.4477584183
 30
0.0
 40
10.86939031458805
100
AcDbArc
 50
73.9805380809
 51
106.2228094608
  0
LINE
  5
271
330
1F
100
AcDbEntity
  8
0
  6
Continuous
 62
     7
370
    15
100
AcDbLine
 10
247.4154924634
 20
67.0650186514
 30
0.0
 11
245.9776477874
 21
67.8950687147
 31
0.0
  0
LINE
  5
272
330
1F
100
AcDbEntity
  8
0
  6
Continuous
 62
     7
370
    15
100
AcDbLine
 10
222.8068623362
 20
40.7925327695
 30
0.0
 11
222.1807587185
 21
41.1539746945
 31
0.0
  0
SPLINE
  5
273
330
1F
100
AcDbEntity
  8
0
  6
Continuous
 62
     7
370
    15
100
AcDbSpline
210
0.0
220
0.0
230
1.0
 70
     8
 71
     3
 72
    11
 73
     7
 74
     0
 42
0.000000001
 43
0.00000001
 40
0.0
 40
0.0
 40
0.0
 40
0.0
 40
0.3165694752064712
 40
0.6331520400060429
 40
0.9494411625907934
 40
1.0
 40
1.0
 40
1.0
 40
1.0
 10
233.4012850240902
 20
59.136621442433
 30
0.0
 10
233.2676948438865
 20
59.08944277951294
 30
0.0
 10
233.0005089597592
 20
58.99508350291777
 30
0.0
 10
232.6845587605605
 20
58.73526780372459
 30
0.0
 10
232.5038560696038
 20
58.5120764182521
 30
0.0
 10
232.4689211060538
 20
58.3833272407543
 30
0.0
 10
232.464106383513
 20
58.36558308120715
 30
0.0
  0
SPLINE
  5
274
330
1F
100
AcDbEntity
  8
0
  6
Continuous
 62
     7
370
    15
100
AcDbSpline
210
0.0
220
0.0
230
1.0
 70
     8
 71
     3
 72
    14
 73
    10
 74
     0
 42
0.000000001
 43
0.00000001
 40
0.0
 40
0.0
 40
0.0
 40
0.0
 40
0.25
 40
0.25
 40
0.5
 40
0.5
 40
0.75
 40
0.75
 40
1.0
 40
1.0
 40
1.0
 40
1.0
 10
222.180758605886
 20
41.15397486391134
 30
0.0
 10
222.143124612428
 20
41.17570050589137
 30
0.0
 10
222.0973506557388
 20
41.19291226700287
 30
0.0
 10
221.9974147782289
 20
41.21531760063537
 30
0.0
 10
221.942980909389
 20
41.2204924842352
 30
0.0
 10
221.836765258897
 20
41.21855028992044
 30
0.0
 10
221.7834489589469
 20
41.21146188700222
 30
0.0
 10
221.6859558916462
 20
41.18672845071752
 30
0.0
 10
221.6410442011166
 20
41.16896761473147
 30
0.0
 10
221.6032909355166
 20
41.14717311840948
 30
0.0
  0
LINE
  5
275
330
1F
100
AcDbEntity
  8
0
  6
Continuous
 62
     7
370
    15
100
AcDbLine
 10
221.6032909176
 20
41.1471730792
 30
0.0
 11
221.5542714986
 21
41.118874771
 31
0.0
  0
SPLINE
  5
276
330
1F
100
AcDbEntity
  8
0
  6
Continuous
 62
     7
370
    15
100
AcDbSpline
210
0.0
220
0.0
230
1.0
 70
     8
 71
     3
 72
    10
 73
     6
 74
     0
 42
0.000000001
 43
0.00000001
 40
0.0
 40
0.0
 40
0.0
 40
0.0
 40
0.5
 40
0.5
 40
1.0
 40
1.0
 40
1.0
 40
1.0
 10
218.8007783028665
 20
42.20664880558797
 30
0.0
 10
218.8080945872887
 20
42.21101680548116
 30
0.0
 10
218.8199184474971
 20
42.21154885806942
 30
0.0
 10
218.8540698117748
 20
42.20231880843112
 30
0.0
 10
218.8763267751677
 20
42.19247793111481
 30
0.0
 10
218.9027907931893
 20
42.1772005786985
 30
0.0
  0
ARC
  5
277
330
1F
100
AcDbEntity
  8
0
  6
Continuous
 62
     7
370
    15
100
AcDbCircle
 10
258.621152116
 20
32.6980260882
 30
0.0
 40
40.92045494687057
100
AcDbArc
 50
143.5835897407
 51
160.8037648338
  0
SPLINE
  5
278
330
1F
100
AcDbEntity
  8
0
  6
Continuous
 62
     7
370
    15
100
AcDbSpline
210
0.0
220
0.0
230
1.0
 70
     8
 71
     3
 72
    14
 73
    10
 74
     0
 42
0.000000001
 43
0.00000001
 40
0.0
 40
0.0
 40
0.0
 40
0.0
 40
0.25
 40
0.25
 40
0.5
 40
0.5
 40
0.75
 40
0.75
 40
1.0
 40
1.0
 40
1.0
 40
1.0
 10
233.8183638791159
 20
59.4430732515712
 30
0.0
 10
233.833204771245
 20
59.4045552327356
 30
0.0
 10
233.8325710033411
 20
59.36663659458214
 30
0.0
 10
233.7996353983806
 20
59.30069564481287
 30
0.0
 10
233.7674995530387
 20
59.27242208727091
 30
0.0
 10
233.6825969776342
 20
59.2245030610834
 30
0.0
 10
233.6301800651411
 20
59.20462596363566
 30
0.0
 10
233.518844400846
 20
59.16876903761928
 30
0.0
 10
233.460689724135
 20
59.15289701393585
 30
0.0
 10
233.4012847684037
 20
59.13662166838112
 30
0.0
  0
LINE
  5
279
330
1F
100
AcDbEntity
  8
0
  6
Continuous
 62
     7
370
    15
100
AcDbLine
 10
233.8022368843
 20
59.4849290942
 30
0.0
 11
233.8183639808
 21
59.4430736045
 31
0.0
  0
SPLINE
  5
27A
330
1F
100
AcDbEntity
  8
0
  6
Continuous
 62
     7
370
    15
100
AcDbSpline
210
0.0
220
0.0
230
1.0
 70
     8
 71
     3
 72
    10
 73
     6
 74
     0
 42
0.000000001
 43
0.00000001
 40
0.0
 40
0.0
 40
0.0
 40
0.0
 40
0.5
 40
0.5
 40
1.0
 40
1.0
 40
1.0
 40
1.0
 10
234.0933090171766
 20
60.0290996879458
 30
0.0
 10
234.0652939674387
 20
59.95707358525777
 30
0.0
 10
234.0274760789888
 20
59.87612709995432
 30
0.0
 10
233.9315003311539
 20
59.69573206361441
 30
0.0
 10
233.8734685538543
 20
59.59640585663961
 30
0.0
 10
233.8022368162642
 20
59.48492939507553
 30
0.0
  0
LINE
  5
27B
330
1F
100
AcDbEntity
  8
0
  6
Continuous
 62
     7
370
    15
100
AcDbLine
 10
224.4865815197
 20
38.7867690889
 30
0.0
 11
222.658727359
 21
39.8419668354
 31
0.0
  0
SPLINE
  5
27C
330
1F
100
AcDbEntity
  8
0
  6
Continuous
 62
     7
370
    15
100
AcDbSpline
210
0.0
220
0.0
230
1.0
 70
     8
 71
     3
 72
     8
 73
     4
 74
     0
 42
0.000000001
 43
0.00000001
 40
0.0000000000000004
 40
0.0000000000000004
 40
0.0000000000000004
 40
0.0000000000000004
 40
0.0011862984959128
 40
0.0011862984959128
 40
0.0011862984959128
 40
0.0011862984959128
 10
222.6587270914679
 20
39.84196689530254
 30
0.0
 10
222.6476648922102
 20
39.90407534022132
 30
0.0
 10
222.6370388856364
 20
39.96586812752294
 30
0.0
 10
222.6268257578191
 20
40.02736095424083
 30
0.0
  0
LINE
  5
27D
330
1F
100
AcDbEntity
  8
0
  6
Continuous
 62
     7
370
    15
100
AcDbLine
 10
222.7315115913
 20
40.6271417306
 30
0.0
 11
222.7116182788
 21
40.3977959741
 31
0.0
  0
ARC
  5
27E
330
1F
100
AcDbEntity
  8
0
  6
Continuous
 62
     7
370
    15
100
AcDbCircle
 10
238.7142947533
 20
38.9704957931
 30
0.0
 40
16.0629628324856
100
AcDbArc
 50
176.9225000953
 51
185.727139394
  0
LINE
  5
27F
330
1F
100
AcDbEntity
  8
0
  6
Continuous
 62
     7
370
    15
100
AcDbLine
 10
221.7327242187
 20
39.7270139198
 30
0.0
 11
221.7944970106
 21
41.187160088
 31
0.0
  0
ARC
  5
280
330
1F
100
AcDbEntity
  8
0
  6
Continuous
 62
     7
370
    15
100
AcDbCircle
 10
233.5677119404
 20
39.4521545368
 30
0.0
 40
11.83817900076391
100
AcDbArc
 50
178.6695844123
 51
203.7430473282
  0
LINE
  5
281
330
1F
100
AcDbEntity
  8
0
  6
Continuous
 62
     7
370
    15
100
AcDbLine
 10
203.3016360445
 20
76.3142394961
 30
0.0
 11
203.3513347522
 21
76.2959036846
 31
0.0
  0
LINE
  5
282
330
1F
100
AcDbEntity
  8
0
  6
Continuous
 62
     7
370
    15
100
AcDbLine
 10
193.1777766641
 20
58.7773010957
 30
0.0
 11
193.1161592887
 21
58.8305666565
 31
0.0
  0
LINE
  5
283
330
1F
100
AcDbEntity
  8
0
  6
Continuous
 62
     7
370
    15
100
AcDbLine
 10
219.2363135332
 20
41.8176842827
 30
0.0
 11
218.8007777142
 21
42.2066484524
 31
0.0
  0
LINE
  5
284
330
1F
100
AcDbEntity
  8
0
  6
Continuous
 62
     7
370
    15
100
AcDbLine
 10
220.6929367705
 20
40.9767935867
 30
0.0
 11
219.2363135332
 21
41.8176842827
 31
0.0
  0
LINE
  5
285
330
1F
100
AcDbEntity
  8
0
  6
Continuous
 62
     7
370
    15
100
AcDbLine
 10
222.7315115913
 20
40.6271417306
 30
0.0
 11
222.7315115913
 21
40.4819918934
 31
0.0
  0
LINE
  5
286
330
1F
100
AcDbEntity
  8
0
  6
Continuous
 62
     7
370
    15
100
AcDbLine
 10
222.7315115913
 20
39.799948696
 30
0.0
 11
222.7315115913
 21
37.3675555715
 31
0.0
  0
LINE
  5
287
330
1F
100
AcDbEntity
  8
0
  6
Continuous
 62
     7
370
    15
100
AcDbLine
 10
222.7315115913
 20
40.8360313811
 30
0.0
 11
222.7315115913
 21
40.6271417306
 31
0.0
  0
LINE
  5
288
330
1F
100
AcDbEntity
  8
0
  6
Continuous
 62
     7
370
    15
100
AcDbLine
 10
222.7315115913
 20
37.3675555715
 30
0.0
 11
222.7315115913
 21
34.4975665288
 31
0.0
  0
LINE
  5
289
330
1F
100
AcDbEntity
  8
0
  6
Continuous
 62
     7
370
    15
100
AcDbLine
 10
222.658727359
 20
29.3494177361
 30
0.0
 11
224.4865815197
 21
28.2942199896
 31
0.0
  0
SPLINE
  5
28A
330
1F
100
AcDbEntity
  8
0
  6
Continuous
 62
     7
370
    15
100
AcDbSpline
210
0.0
220
0.0
230
1.0
 70
     8
 71
     3
 72
    14
 73
    10
 74
     0
 42
0.000000001
 43
0.00000001
 40
0.0
 40
0.0
 40
0.0
 40
0.0
 40
0.25
 40
0.25
 40
0.5
 40
0.5
 40
0.75
 40
0.75
 40
1.0
 40
1.0
 40
1.0
 40
1.0
 10
224.4410739697929
 20
28.17585172024187
 30
0.0
 10
224.4243991267265
 20
28.13247910213528
 30
0.0
 10
224.4041038838105
 20
28.09224877268944
 30
0.0
 10
224.3558069047401
 20
28.0184768850173
 30
0.0
 10
224.327588056935
 20
27.98490727834019
 30
0.0
 10
224.2646627085119
 20
27.93135587267757
 30
0.0
 10
224.2294995324949
 20
27.91089984331791
 30
0.0
 10
224.1548165432865
 20
27.89346754980604
 30
0.0
 10
224.1162916680781
 20
27.89741485879093
 30
0.0
 10
224.0823479653808
 20
27.91701014126075
 30
0.0
  0
LINE
  5
28B
330
1F
100
AcDbEntity
  8
0
  6
Continuous
 62
     7
370
    15
100
AcDbLine
 10
224.0823478029
 20
27.9170102649
 30
0.0
 11
222.6268258166
 21
28.7572652222
 31
0.0
  0
SPLINE
  5
28C
330
1F
100
AcDbEntity
  8
0
  6
Continuous
 62
     7
370
    15
100
AcDbSpline
210
0.0
220
0.0
230
1.0
 70
     8
 71
     3
 72
     8
 73
     4
 74
     0
 42
0.000000001
 43
0.00000001
 40
0.0
 40
0.0
 40
0.0
 40
0.0
 40
0.0011862984959113
 40
0.0011862984959113
 40
0.0011862984959113
 40
0.0011862984959113
 10
222.6268257578191
 20
28.75726522635377
 30
0.0
 10
222.6370388856364
 20
28.95466412824272
 30
0.0
 10
222.6476648922116
 20
29.15204996521951
 30
0.0
 10
222.6587270914692
 20
29.34941746256985
 30
0.0
  0
SPLINE
  5
28D
330
1F
100
AcDbEntity
  8
0
  6
Continuous
 62
     7
370
    15
100
AcDbSpline
210
0.0
220
0.0
230
1.0
 70
     8
 71
     3
 72
     9
 73
     5
 74
     0
 42
0.000000001
 43
0.00000001
 40
0.0
 40
0.0
 40
0.0
 40
0.0
 40
0.4529515425247135
 40
1.0
 40
1.0
 40
1.0
 40
1.0
 10
257.2427611781347
 20
47.01511921409874
 30
0.0
 10
257.239993827872
 20
47.01671964680876
 30
0.0
 10
257.2338842333502
 20
47.02025298881065
 30
0.0
 10
257.2013278014849
 20
47.03905354431816
 30
0.0
 10
257.1835178556521
 20
47.04933835920821
 30
0.0
  0
LWPOLYLINE
  5
28E
330
1F
100
AcDbEntity
  8
0
  6
Continuous
 62
     7
370
    15
100
AcDbPolyline
 90
       13
 70
   128
 43
0.0
 10
236.1094255068
 20
21.2910543066
 10
234.843426703
 20
21.0163450423
 10
233.47496463
 20
20.8644728871
 10
232.1588219425
 20
20.8757162535
 10
230.9046588299
 20
21.0499955271
 10
229.7216791103
 20
21.3860292248
 10
228.6185656929
 20
21.8813530123
 10
227.6034140655
 20
22.5323299766
 10
226.6836763177
 20
23.3341844721
 10
225.8660998965
 20
24.2810283618
 10
225.1566880936
 20
25.3659150144
 10
224.5606460449
 20
26.5808818951
 10
224.1089266592
 20
27.8294632829
  0
SPLINE
  5
28F
330
1F
100
AcDbEntity
  8
0
  6
Continuous
 62
     7
370
    15
100
AcDbSpline
210
0.0
220
0.0
230
1.0
 70
     8
 71
     3
 72
     8
 73
     4
 74
     0
 42
0.000000001
 43
0.00000001
 40
0.0
 40
0.0
 40
0.0
 40
0.0
 40
1.0
 40
1.0
 40
1.0
 40
1.0
 10
222.9048454452186
 20
29.84665561715671
 30
0.0
 10
222.8226472644329
 20
29.68093529065323
 30
0.0
 10
222.740612896281
 20
29.51518841531527
 30
0.0
 10
222.6587270914692
 20
29.34941746256985
 30
0.0
  0
LINE
  5
290
330
1F
100
AcDbEntity
  8
0
  6
Continuous
 62
     7
370
    15
100
AcDbLine
 10
222.9538649462
 20
29.8749541889
 30
0.0
 11
222.9048455272
 21
29.8466558807
 31
0.0
  0
SPLINE
  5
291
330
1F
100
AcDbEntity
  8
0
  6
Continuous
 62
     7
370
    15
100
AcDbSpline
210
0.0
220
0.0
230
1.0
 70
     8
 71
     3
 72
    12
 73
     8
 74
     0
 42
0.000000001
 43
0.00000001
 40
0.0
 40
0.0
 40
0.0
 40
0.0
 40
0.249999999999997
 40
0.249999999999997
 40
0.499999999999994
 40
0.499999999999994
 40
1.0
 40
1.0
 40
1.0
 40
1.0
 10
222.9656471330031
 20
30.20831892911784
 30
0.0
 10
223.0032459175777
 20
30.18661361279355
 30
0.0
 10
223.0334234768241
 20
30.15981174222037
 30
0.0
 10
223.072013211505
 20
30.10218803739038
 30
0.0
 10
223.0808726966949
 20
30.07113991181901
 30
0.0
 10
223.0758252628565
 20
29.97895093541371
 30
0.0
 10
223.0291229757812
 20
29.91839950843886
 30
0.0
 10
222.9538648875829
 20
29.87495393888691
 30
0.0
  0
LINE
  5
292
330
1F
100
AcDbEntity
  8
0
  6
Continuous
 62
     7
370
    15
100
AcDbLine
 10
222.1807587185
 20
30.6614255951
 30
0.0
 11
222.9656472953
 21
30.2083190644
 31
0.0
  0
SPLINE
  5
293
330
1F
100
AcDbEntity
  8
0
  6
Continuous
 62
     7
370
    15
100
AcDbSpline
210
0.0
220
0.0
230
1.0
 70
     8
 71
     3
 72
    10
 73
     6
 74
     0
 42
0.000000001
 43
0.00000001
 40
0.0
 40
0.0
 40
0.0
 40
0.0
 40
0.5
 40
0.5
 40
1.0
 40
1.0
 40
1.0
 40
1.0
 10
221.6032909355166
 20
30.6546236856776
 30
0.0
 10
221.6794283258552
 20
30.69857686555032
 30
0.0
 10
221.7829361065395
 20
30.7250635317291
 30
0.0
 10
221.9974313986253
 20
30.72889160211643
 30
0.0
 10
222.1048616430435
 20
30.70523981521303
 30
0.0
 10
222.180758605886
 20
30.66142543117945
 30
0.0
  0
LINE
  5
294
330
1F
100
AcDbEntity
  8
0
  6
Continuous
 62
     7
370
    15
100
AcDbLine
 10
221.5542714986
 20
30.6263256716
 30
0.0
 11
221.6032909176
 21
30.6546239799
 31
0.0
  0
SPLINE
  5
295
330
1F
100
AcDbEntity
  8
0
  6
Continuous
 62
     7
370
    15
100
AcDbSpline
210
0.0
220
0.0
230
1.0
 70
     8
 71
     3
 72
     8
 73
     4
 74
     0
 42
0.000000001
 43
0.00000001
 40
0.0
 40
0.0
 40
0.0
 40
0.0
 40
1.0
 40
1.0
 40
1.0
 40
1.0
 10
220.6929364184978
 20
30.48424426260934
 30
0.0
 10
220.9800912448951
 20
30.53151593152136
 30
0.0
 10
221.2672043634803
 20
30.5788733642241
 30
0.0
 10
221.5542714931523
 20
30.62632536394739
 30
0.0
  0
LINE
  5
296
330
1F
100
AcDbEntity
  8
0
  6
Continuous
 62
     7
370
    15
100
AcDbLine
 10
219.2363135332
 20
31.3251351834
 30
0.0
 11
220.6929367705
 21
30.4842444873
 31
0.0
  0
LINE
  5
297
330
1F
100
AcDbEntity
  8
0
  6
Continuous
 62
     7
370
    15
100
AcDbLine
 10
219.2363135332
 20
31.3251351834
 30
0.0
 11
222.3779580604
 21
33.1387679647
 31
0.0
  0
ARC
  5
298
330
1F
100
AcDbEntity
  8
0
  6
Continuous
 62
     7
370
    15
100
AcDbCircle
 10
232.1672480524
 20
31.1922638387
 30
0.0
 40
9.846261965767138
100
AcDbArc
 50
194.3179057184
 51
238.1256858466
  0
ELLIPSE
  5
299
330
1F
100
AcDbEntity
  8
0
  6
Continuous
 62
     7
370
    15
100
AcDbEllipse
 10
222.0850655415
 20
34.124392609
 30
0.0
 11
-7.507462981948264E-5
 21
1.066811201853398
 31
0.0
210
0.0
220
0.0
230
1.0
 40
0.7174342186
 41
3.534193645557427
 42
5.104989972352383
  0
ARC
  5
29A
330
1F
100
AcDbEntity
  8
0
  6
Continuous
 62
     7
370
    15
100
AcDbCircle
 10
232.2297797067
 20
33.5937824957
 30
0.0
 40
11.08026513689242
100
AcDbArc
 50
195.5342643695
 51
215.7345697398
  0
ARC
  5
29B
330
1F
100
AcDbEntity
  8
0
  6
Continuous
 62
     7
370
    15
100
AcDbCircle
 10
229.6518181314
 20
32.409966747
 30
0.0
 40
9.59898950119569
100
AcDbArc
 50
194.065870688
 51
246.8527503441
  0
SPLINE
  5
29C
330
1F
100
AcDbEntity
  8
0
  6
Continuous
 62
     7
370
    15
100
AcDbSpline
210
0.0
220
0.0
230
1.0
 70
     8
 71
     3
 72
     8
 73
     4
 74
     0
 42
0.000000001
 43
0.00000001
 40
0.0000000000000004
 40
0.0000000000000004
 40
0.0000000000000004
 40
0.0000000000000004
 40
0.0011862984959128
 40
0.0011862984959128
 40
0.0011862984959128
 40
0.0011862984959128
 10
220.6929364184983
 20
30.48424426260838
 30
0.0
 10
220.5757859495032
 20
30.3481202197736
 30
0.0
 10
220.4583461990661
 20
30.21239664461067
 30
0.0
 10
220.3406353312214
 20
30.07705486711619
 30
0.0
  0
LINE
  5
29D
330
1F
100
AcDbEntity
  8
0
  6
Continuous
 62
     7
370
    15
100
AcDbLine
 10
218.8007777142
 20
31.0736534758
 30
0.0
 11
219.2363135332
 21
31.3251351834
 31
0.0
  0
LINE
  5
29E
330
1F
100
AcDbEntity
  8
0
  6
Continuous
 62
     7
370
    15
100
AcDbLine
 10
220.3406355443
 20
30.0770547739
 30
0.0
 11
218.9027908683
 21
30.9071048373
 31
0.0
  0
SPLINE
  5
29F
330
1F
100
AcDbEntity
  8
0
  6
Continuous
 62
     7
370
    15
100
AcDbSpline
210
0.0
220
0.0
230
1.0
 70
     8
 71
     3
 72
    10
 73
     6
 74
     0
 42
0.000000001
 43
0.00000001
 40
0.0
 40
0.0
 40
0.0
 40
0.0
 40
0.5
 40
0.5
 40
1.0
 40
1.0
 40
1.0
 40
1.0
 10
218.9027907931893
 20
30.90710485081143
 30
0.0
 10
218.8763813639086
 20
30.92235068981836
 30
0.0
 10
218.8540979596996
 20
30.94620811223062
 30
0.0
 10
218.819990824878
 20
31.0041342039649
 30
0.0
 10
218.8080907948232
 20
31.03803273544576
 30
0.0
 10
218.8007783028664
 20
31.07365377790012
 30
0.0
  0
ARC
  5
2A0
330
1F
100
AcDbEntity
  8
0
  6
Continuous
 62
     7
370
    15
100
AcDbCircle
 10
228.4392655559
 20
33.3314255091
 30
0.0
 40
9.835109896964713
100
AcDbArc
 50
194.9325993597
 51
238.1123668138
  0
ELLIPSE
  5
2A1
330
1F
100
AcDbEntity
  8
0
  6
Continuous
 62
     7
370
    15
100
AcDbEllipse
 10
222.0244053697
 20
34.0893628533
 30
0.0
 11
0.3250094736511642
 21
1.213179526238669
 31
0.0
210
0.0
220
0.0
230
1.0
 40
0.5176380889
 41
3.619174351347721
 42
5.189970678142615
  0
SPLINE
  5
2A2
330
1F
100
AcDbEntity
  8
0
  6
Continuous
 62
     7
370
    15
100
AcDbSpline
210
0.0
220
0.0
230
1.0
 70
     8
 71
     3
 72
    12
 73
     8
 74
     0
 42
0.000000001
 43
0.00000001
 40
0.0
 40
0.0
 40
0.0
 40
0.0
 40
0.5000000000000003
 40
0.5000000000000003
 40
0.7500000000000001
 40
0.7500000000000001
 40
1.0
 40
1.0
 40
1.0
 40
1.0
 10
248.5582624587418
 20
66.09368615432092
 30
0.0
 10
248.6213223359713
 20
66.13008984657118
 30
0.0
 10
248.7012552892024
 20
66.15692115842276
 30
0.0
 10
248.8342344775091
 20
66.17067799993329
 30
0.0
 10
248.8799056466211
 20
66.17055686613436
 30
0.0
 10
248.9675434652586
 20
66.15778248451272
 30
0.0
 10
249.0082873761127
 20
66.14494249885797
 30
0.0
 10
249.0398010584513
 20
66.12675003728133
 30
0.0
  0
LINE
  5
2A3
330
1F
100
AcDbEntity
  8
0
  6
Continuous
 62
     7
370
    15
100
AcDbLine
 10
249.0398013827
 20
66.1267504088
 30
0.0
 11
249.6994696969
 21
65.745931997
 31
0.0
  0
LINE
  5
2A4
330
1F
100
AcDbEntity
  8
0
  6
Continuous
 62
     7
370
    15
100
AcDbLine
 10
251.3693367252
 20
63.6711357804
 30
0.0
 11
252.763836331
 21
63.9769107938
 31
0.0
  0
LINE
  5
2A5
330
1F
100
AcDbEntity
  8
0
  6
Continuous
 62
     7
370
    15
100
AcDbLine
 10
252.763836331
 20
63.9769107938
 30
0.0
 11
254.2193583173
 21
63.1366558364
 31
0.0
  0
SPLINE
  5
2A6
330
1F
100
AcDbEntity
  8
0
  6
Continuous
 62
     7
370
    15
100
AcDbSpline
210
0.0
220
0.0
230
1.0
 70
     8
 71
     3
 72
    12
 73
     8
 74
     0
 42
0.000000001
 43
0.00000001
 40
0.0
 40
0.0
 40
0.0
 40
0.0
 40
0.2499999999999946
 40
0.2499999999999946
 40
0.4999999999999892
 40
0.4999999999999892
 40
1.0
 40
1.0
 40
1.0
 40
1.0
 10
254.219358230643
 20
63.13665532773054
 30
0.0
 10
254.2510143611431
 20
63.11838063258062
 30
0.0
 10
254.2733136381532
 20
63.09455652178232
 30
0.0
 10
254.2951342087451
 20
63.04452461933463
 30
0.0
 10
254.2954149710713
 20
63.01813341092072
 30
0.0
 10
254.2720475969505
 20
62.94205818092581
 30
0.0
 10
254.2250091941455
 20
62.89499512597539
 30
0.0
 10
254.1620836996452
 20
62.85866901122342
 30
0.0
  0
LINE
  5
2A7
330
1F
100
AcDbEntity
  8
0
  6
Continuous
 62
     7
370
    15
100
AcDbLine
 10
248.5582626902
 20
66.0936865314
 30
0.0
 11
248.4664721225
 21
66.0406969646
 31
0.0
  0
SPLINE
  5
2A8
330
1F
100
AcDbEntity
  8
0
  6
Continuous
 62
     7
370
    15
100
AcDbSpline
210
0.0
220
0.0
230
1.0
 70
     8
 71
     3
 72
    10
 73
     6
 74
     0
 42
0.000000001
 43
0.00000001
 40
0.0
 40
0.0
 40
0.0
 40
0.0
 40
0.403890055881665
 40
0.8088426875932694
 40
1.0
 40
1.0
 40
1.0
 40
1.0
 10
257.1835178556521
 20
57.78272985851195
 30
0.0
 10
257.2017586201637
 20
57.82149368460488
 30
0.0
 10
257.2382881379781
 20
57.89912331876352
 30
0.0
 10
257.2522286519429
 20
58.00650326204981
 30
0.0
 10
257.2341801056971
 20
58.0597599370801
 30
0.0
 10
257.228392395515
 20
58.07683799955324
 30
0.0
  0
ARC
  5
2A9
330
1F
100
AcDbEntity
  8
0
  6
Continuous
 62
     7
370
    15
100
AcDbCircle
 10
246.8903018053
 20
55.4694029838
 30
0.0
 40
10.60668825138565
100
AcDbArc
 50
15.7413341421
 51
46.2919137943
  0
LWPOLYLINE
  5
2AA
330
1F
100
AcDbEntity
  8
0
  6
Continuous
 62
     7
370
    15
100
AcDbPolyline
 90
        3
 70
   128
 43
0.0
 10
251.369336396
 20
64.3521255668
 10
251.407791444
 20
64.3046614694
 10
251.7880468967
 20
63.7983803189
  0
LINE
  5
2AB
330
1F
100
AcDbEntity
  8
0
  6
Continuous
 62
     7
370
    15
100
AcDbLine
 10
257.0792360157
 20
47.1095589344
 30
0.0
 11
255.2148326348
 21
48.1858560966
 31
0.0
  0
LINE
  5
2AC
330
1F
100
AcDbEntity
  8
0
  6
Continuous
 62
     7
370
    15
100
AcDbLine
 10
254.4067461692
 20
48.0323160287
 30
0.0
 11
254.4557655882
 21
48.0606143369
 31
0.0
  0
SPLINE
  5
2AD
330
1F
100
AcDbEntity
  8
0
  6
Continuous
 62
     7
370
    15
100
AcDbSpline
210
0.0
220
0.0
230
1.0
 70
     8
 71
     3
 72
    10
 73
     6
 74
     0
 42
0.000000001
 43
0.00000001
 40
0.0
 40
0.0
 40
0.0
 40
0.0
 40
0.348286225286859
 40
0.7262043038763673
 40
0.9999999999999999
 40
0.9999999999999999
 40
0.9999999999999999
 40
0.9999999999999999
 10
254.0740208371055
 20
47.96114351763573
 30
0.0
 10
254.1166684967816
 20
47.96123114101042
 30
0.0
 10
254.2055922375397
 20
47.96141384267131
 30
0.0
 10
254.3215491922679
 20
47.98963701667128
 30
0.0
 10
254.381542142309
 20
48.01969019374573
 30
0.0
 10
254.4067461692245
 20
48.03231602867066
 30
0.0
  0
SPLINE
  5
2AE
330
1F
100
AcDbEntity
  8
0
  6
Continuous
 62
     7
370
    15
100
AcDbSpline
210
0.0
220
0.0
230
1.0
 70
     8
 71
     3
 72
     8
 73
     4
 74
     0
 42
0.000000001
 43
0.00000001
 40
0.0
 40
0.0
 40
0.0
 40
0.0
 40
1.0
 40
1.0
 40
1.0
 40
1.0
 10
254.4557657559788
 20
48.06061421754869
 30
0.0
 10
254.7087517096597
 20
48.10243262224652
 30
0.0
 10
254.961774972007
 20
48.1441778268219
 30
0.0
 10
255.2148324610117
 20
48.185855878219
 30
0.0
  0
LWPOLYLINE
  5
2AF
330
1F
100
AcDbEntity
  8
0
  6
Continuous
 62
     7
370
    15
100
AcDbPolyline
 90
        7
 70
   128
 43
0.0
 10
268.1407122981
 20
30.1833289572
 10
268.1538752857
 20
30.1497822769
 10
268.2824890281
 20
29.6603917261
 10
268.280386954
 20
29.2207020564
 10
268.1478245788
 20
28.8837451694
 10
267.9007913629
 20
28.6901627006
 10
267.8146879856
 20
28.6652739865
  0
LWPOLYLINE
  5
2B0
330
1F
100
AcDbEntity
  8
0
  6
Continuous
 62
     7
370
    15
100
AcDbPolyline
 90
       13
 70
   128
 43
0.0
 10
263.1856959917
 20
35.9104719159
 10
263.6677877793
 20
35.6329421771
 10
264.2617098086
 20
35.4407887528
 10
264.9234099795
 20
35.348264536
 10
265.6038114151
 20
35.3622326343
 10
266.2524565586
 20
35.4816544956
 10
266.8212359965
 20
35.6976743885
 10
267.2679639646
 20
35.9942723085
 10
267.55951162
 20
36.3494492989
 10
267.6742562504
 20
36.7368633691
 10
267.6036852215
 20
37.1277834113
 10
267.3530341268
 20
37.493215502
 10
266.9436502627
 20
37.8044674295
  0
LWPOLYLINE
  5
2B1
330
1F
100
AcDbEntity
  8
0
  6
Continuous
 62
     7
370
    15
100
AcDbPolyline
 90
        7
 70
   128
 43
0.0
 10
263.4075436916
 20
37.8044663984
 10
263.2890231376
 20
37.731091568
 10
262.9164131088
 20
37.4021412522
 10
262.7113577425
 20
37.0273545645
 10
262.6890617303
 20
36.6345296348
 10
262.8511823819
 20
36.2527983405
 10
263.1856959917
 20
35.9104719159
  0
LWPOLYLINE
  5
2B2
330
1F
100
AcDbEntity
  8
0
  6
Continuous
 62
     7
370
    15
100
AcDbPolyline
 90
       22
 70
   128
 43
0.0
 10
263.4642815566
 20
36.3185720316
 10
263.9239326169
 20
36.0607577959
 10
264.4948012256
 20
35.8926103268
 10
265.1261620864
 20
35.8290709096
 10
265.7619150275
 20
35.8757857763
 10
266.34556971
 20
36.0286047693
 10
266.8252686144
 20
36.273947599
 10
267.158384875
 20
36.5900165136
 10
267.3153226579
 20
36.9487256128
 10
267.28213753
 20
37.3182019957
 10
267.0617753667
 20
37.6656177514
 10
266.6738202116
 20
37.9601009658
 10
266.1527396257
 20
38.1754879832
 10
265.5448364495
 20
38.2926391149
 10
264.9041221987
 20
38.3011470266
 10
264.2875333555
 20
38.200252163
 10
263.749849885
 20
37.9989232551
 10
263.3388513007
 20
37.7150469819
 10
263.0910561488
 20
37.3738473802
 10
263.0284820729
 20
37.0056413817
 10
263.1566862829
 20
36.6431473847
 10
263.4642815566
 20
36.3185720316
  0
LWPOLYLINE
  5
2B3
330
1F
100
AcDbEntity
  8
0
  6
Continuous
 62
     7
370
    15
100
AcDbPolyline
 90
       19
 70
   128
 43
0.0
 10
263.9816550309
 20
36.5457217831
 10
264.364220987
 20
36.3415974818
 10
264.8446503613
 20
36.2253188394
 10
265.3649974933
 20
36.2109101245
 10
265.8624991606
 20
36.3001102448
 10
266.2771502798
 20
36.4821597398
 10
266.5589387274
 20
36.7351002303
 10
266.6738744592
 20
37.0284246638
 10
266.6080961526
 20
37.3267527715
 10
266.3695374168
 20
37.5941019472
 10
265.9869714607
 20
37.7982262485
 10
265.5065420864
 20
37.9145048909
 10
264.9861975886
 20
37.9289120851
 10
264.4886959212
 20
37.8397119648
 10
264.074044802
 20
37.6576624698
 10
263.7922563544
 20
37.4047219793
 10
263.6773179884
 20
37.1113990665
 10
263.743096295
 20
36.8130709588
 10
263.9816550309
 20
36.5457217831
  0
SPLINE
  5
2B4
330
1F
100
AcDbEntity
  8
0
  6
Continuous
 62
     7
370
    15
100
AcDbSpline
210
0.0
220
0.0
230
1.0
 70
     8
 71
     3
 72
    10
 73
     6
 74
     0
 42
0.000000001
 43
0.00000001
 40
0.0
 40
0.0
 40
0.0
 40
0.0
 40
0.3436119249296591
 40
0.7090345519287313
 40
1.0
 40
1.0
 40
1.0
 40
1.0
 10
266.1301949195112
 20
36.42033978088944
 30
0.0
 10
266.1837662932114
 20
36.44928756999852
 30
0.0
 10
266.2943094734447
 20
36.50902060366577
 30
0.0
 10
266.4647745020381
 20
36.79748660948395
 30
0.0
 10
266.56360890812
 20
37.02710161346985
 30
0.0
 10
266.6074204859696
 20
37.12888596186996
 30
0.0
  0
SPLINE
  5
2B5
330
1F
100
AcDbEntity
  8
0
  6
Continuous
 62
     7
370
    15
100
AcDbSpline
210
0.0
220
0.0
230
1.0
 70
     8
 71
     3
 72
    11
 73
     7
 74
     0
 42
0.000000001
 43
0.00000001
 40
0.0
 40
0.0
 40
0.0
 40
0.0
 40
0.1849299580237556
 40
0.5198463704016207
 40
0.8714435492748492
 40
0.9999999999999999
 40
0.9999999999999999
 40
0.9999999999999999
 40
0.9999999999999999
 10
266.6074204859696
 20
37.12888596186996
 30
0.0
 10
266.5565645321565
 20
37.13564212252196
 30
0.0
 10
266.4136061749193
 20
37.15463399182382
 30
0.0
 10
266.1467463433813
 20
37.2910556063614
 30
0.0
 10
265.9002906905479
 20
37.55912581015576
 30
0.0
 10
265.7688632446744
 20
37.74290896395205
 30
0.0
 10
265.7336748280347
 20
37.79211511069072
 30
0.0
  0
SPLINE
  5
2B6
330
1F
100
AcDbEntity
  8
0
  6
Continuous
 62
     7
370
    15
100
AcDbSpline
210
0.0
220
0.0
230
1.0
 70
     8
 71
     3
 72
    10
 73
     6
 74
     0
 42
0.000000001
 43
0.00000001
 40
0.0
 40
0.0
 40
0.0
 40
0.0
 40
0.4391250832432787
 40
0.7513734423963604
 40
1.0
 40
1.0
 40
1.0
 40
1.0
 10
265.7336748280347
 20
37.79211511069072
 30
0.0
 10
265.5286938336085
 20
37.70714614354776
 30
0.0
 10
265.1779571499504
 20
37.56175835365532
 30
0.0
 10
264.668105793129
 20
37.57746589674981
 30
0.0
 10
264.4143405037935
 20
37.65329228338661
 30
0.0
 10
264.3018505556039
 20
37.68690486423449
 30
0.0
  0
SPLINE
  5
2B7
330
1F
100
AcDbEntity
  8
0
  6
Continuous
 62
     7
370
    15
100
AcDbSpline
210
0.0
220
0.0
230
1.0
 70
     8
 71
     3
 72
    10
 73
     6
 74
     0
 42
0.000000001
 43
0.00000001
 40
0.0
 40
0.0
 40
0.0
 40
0.0
 40
0.4391254905885994
 40
0.7513735727653122
 40
1.0
 40
1.0
 40
1.0
 40
1.0
 10
264.3018505556039
 20
37.6869048642345
 30
0.0
 10
264.2219561166849
 20
37.5069872933466
 30
0.0
 10
264.0852512992665
 20
37.19913609604969
 30
0.0
 10
263.8865247055468
 20
36.97867864856992
 30
0.0
 10
263.7876182137674
 20
36.93695802504395
 30
0.0
 10
263.7437745958656
 20
36.9184639601592
 30
0.0
  0
SPLINE
  5
2B8
330
1F
100
AcDbEntity
  8
0
  6
Continuous
 62
     7
370
    15
100
AcDbSpline
210
0.0
220
0.0
230
1.0
 70
     8
 71
     3
 72
     9
 73
     5
 74
     0
 42
0.000000001
 43
0.00000001
 40
0.0
 40
0.0
 40
0.0
 40
0.0
 40
0.2810680857251333
 40
1.0
 40
1.0
 40
1.0
 40
1.0
 10
263.7437745958656
 20
36.9184639601592
 30
0.0
 10
263.7789338457066
 20
36.86869595326809
 30
0.0
 10
263.9040254218289
 20
36.69162851153877
 30
0.0
 10
264.0426757294413
 20
36.55938658998595
 30
0.0
 10
264.142355860508
 20
36.46431365217659
 30
0.0
  0
LINE
  5
2B9
330
1F
100
AcDbEntity
  8
0
  6
Continuous
 62
     7
370
    15
100
AcDbLine
 10
264.3018505556
 20
36.3660545871
 30
0.0
 11
264.3018505556
 21
37.6869048642
 31
0.0
  0
LINE
  5
2BA
330
1F
100
AcDbEntity
  8
0
  6
Continuous
 62
     7
370
    15
100
AcDbLine
 10
265.733674828
 20
36.2661444175
 30
0.0
 11
265.733674828
 21
37.7921151107
 31
0.0
  0
ARC
  5
2BB
330
1F
100
AcDbEntity
  8
0
  6
Continuous
 62
     7
370
    15
100
AcDbCircle
 10
233.938530894
 20
57.3560819421
 30
0.0
 40
1.557574315952555
100
AcDbArc
 50
79.5861017376
 51
142.8221932109
  0
ARC
  5
2BC
330
1F
100
AcDbEntity
  8
0
  6
Continuous
 62
     7
370
    15
100
AcDbCircle
 10
233.9064389943
 20
57.4397473347
 30
0.0
 40
1.463439891085831
100
AcDbArc
 50
78.2685922876
 51
144.4072601206
  0
ARC
  5
2BD
330
1F
100
AcDbEntity
  8
0
  6
Continuous
 62
     7
370
    15
100
AcDbCircle
 10
233.8780627851
 20
57.5133765253
 30
0.0
 40
1.249547245185337
100
AcDbArc
 50
80.705870252
 51
142.2259793291
  0
LWPOLYLINE
  5
2BE
330
1F
100
AcDbEntity
  8
0
  6
Continuous
 62
     7
370
     0
100
AcDbPolyline
 90
        7
 70
   128
 43
0.0
 10
234.8053608548
 20
38.2727866847
 10
234.8684527114
 20
37.2208664779
 10
235.0566015115
 20
36.2605615697
 10
235.3664506538
 20
35.4090091162
 10
235.79247034
 20
34.6814050156
 10
236.3270589909
 20
34.0907333642
 10
236.8768349952
 20
33.6943387843
  0
LWPOLYLINE
  5
2BF
330
1F
100
AcDbEntity
  8
0
  6
Continuous
 62
     7
370
     0
100
AcDbPolyline
 90
       19
 70
   128
 43
0.0
 10
246.8760220221
 20
51.0153155208
 10
246.44170698
 20
51.2258381436
 10
245.6812454654
 20
51.4338607393
 10
244.852886695
 20
51.4798677638
 10
243.9714131819
 20
51.3630377658
 10
243.0525546733
 20
51.0854565975
 10
242.1127080837
 20
50.6520766487
 10
241.1686451217
 20
50.0706324754
 10
240.2372124466
 20
49.3514996427
 10
239.3350318246
 20
48.5075109825
 10
238.4782021995
 20
47.5537268074
 10
237.6820143161
 20
46.5071690245
 10
236.9606756136
 20
45.3865121287
 10
236.3270589909
 20
44.2117552762
 10
235.79247034
 20
43.0038607064
 10
235.3664506538
 20
41.7843847459
 10
235.0566015115
 20
40.5750880875
 10
234.8684527114
 20
39.3975511986
 10
234.8053608548
 20
38.2727866847
  0
LWPOLYLINE
  5
2C0
330
1F
100
AcDbEntity
  8
0
  6
Continuous
 62
     7
370
     0
100
AcDbPolyline
 90
       37
 70
   128
 43
0.0
 10
269.4359155751
 20
31.3443188316
 10
268.6991887455
 20
30.8445848
 10
267.9848469961
 20
30.2111740256
 10
267.3145952131
 20
29.4633321203
 10
266.7087986385
 20
28.6237819431
 10
266.1858644144
 20
27.7180333006
 10
265.7616810796
 20
26.7736059491
 10
265.4491375025
 20
25.8191963623
 10
265.2577302241
 20
24.8838038064
 10
265.1932748511
 20
23.995849561
 10
265.2577302241
 20
23.1823139052
 10
265.4491375025
 20
22.4679154889
 10
265.7616810796
 20
21.8743610352
 10
266.1858644144
 20
21.4196853374
 10
266.7087986385
 20
21.1177036985
 10
267.3145952131
 20
20.9775913584
 10
267.9848469961
 20
21.0036056897
 10
268.6991887455
 20
21.1949563436
 10
269.4359155751
 20
21.5458290038
 10
270.1726424048
 20
22.0455630354
 10
270.8869841542
 20
22.6789738098
 10
271.5572359371
 20
23.4268157152
 10
272.1630325118
 20
24.2663658924
 10
272.6859667358
 20
25.1721145348
 10
273.1101500707
 20
26.1165418864
 10
273.4226936478
 20
27.0709514732
 10
273.6141009261
 20
28.0063440291
 10
273.6785562991
 20
28.8942982745
 10
273.6141009261
 20
29.7078339303
 10
273.4226936478
 20
30.4222323466
 10
273.1101500707
 20
31.0157868003
 10
272.6859667358
 20
31.4704624981
 10
272.1630325118
 20
31.7724441369
 10
271.5572359371
 20
31.912556477
 10
270.8869841542
 20
31.8865421457
 10
270.1726424048
 20
31.6951914918
 10
269.4359155751
 20
31.3443188316
  0
LWPOLYLINE
  5
2C1
330
1F
100
AcDbEntity
  8
0
  6
Continuous
 62
     7
370
     0
100
AcDbPolyline
 90
       19
 70
   128
 43
0.0
 10
266.3325850027
 20
21.8859076617
 10
266.7964133755
 20
21.696252033
 10
267.3949496616
 20
21.6288258926
 10
268.0477209568
 20
21.7227583772
 10
268.7337463625
 20
21.9750299463
 10
269.4309765737
 20
22.3775323797
 10
270.1170019793
 20
22.9173288843
 10
270.7697732746
 20
23.5770700948
 10
271.3683095606
 20
24.3355515216
 10
271.8933738469
 20
25.1683945769
 10
272.3280896133
 20
26.0488310297
 10
272.6584853443
 20
26.9485633706
 10
272.8739413509
 20
27.8386730477
 10
272.9675327086
 20
28.6905511702
 10
272.9362515152
 20
29.4768179103
 10
272.7811033682
 20
30.172202065
 10
272.5070744373
 20
30.7543530907
 10
272.1229724262
 20
31.20456054
 10
271.8321379334
 20
31.4124450569
  0
LWPOLYLINE
  5
2C2
330
1F
100
AcDbEntity
  8
0
  6
Continuous
 62
     7
370
     0
100
AcDbPolyline
 90
       19
 70
   128
 43
0.0
 10
224.0823478029
 20
39.1871060543
 10
224.5771491702
 20
41.1335202896
 10
225.1968724795
 20
43.0951818712
 10
225.9366892823
 20
45.0567994842
 10
226.7908320458
 20
47.0030838028
 10
227.7526415681
 20
48.9188626964
 10
228.8146222955
 20
50.7892044188
 10
229.9684963235
 20
52.5995278709
 10
231.2052692513
 20
54.3357250286
 10
232.5152999872
 20
55.9842605572
 10
233.8883777987
 20
57.5322847326
 10
235.3137993619
 20
58.9677311537
 10
236.780454043
 20
60.2794100812
 10
238.2769100034
 20
61.45709921
 10
239.7915020327
 20
62.4916171877
 10
241.3124245679
 20
63.374900128
 10
242.8278221617
 20
64.1000629618
 10
244.3258828305
 20
64.661454847
 10
245.1209212244
 20
64.8942347438
  0
LINE
  5
2C3
330
1F
100
AcDbEntity
  8
0
  6
Continuous
 62
     7
370
     0
100
AcDbLine
 10
224.44107346
 20
38.8525952246
 30
0.0
 11
224.5212499368
 21
39.2165623516
 31
0.0
  0
LWPOLYLINE
  5
2C4
330
1F
100
AcDbEntity
  8
0
  6
Continuous
 62
     7
370
     0
100
AcDbPolyline
 90
        9
 70
   128
 43
0.0
 10
241.0142594252
 20
62.728395809
 10
242.0248099462
 20
63.2634437486
 10
243.4684028926
 20
63.9062341336
 10
244.892651588
 20
64.3963260505
 10
246.2871693038
 20
64.7301446825
 10
247.6417867956
 20
64.9052552211
 10
248.9466255666
 20
64.9203823464
 10
250.1921703073
 20
64.7754155434
 10
251.3693370545
 20
64.4714119474
  0
LINE
  5
2C5
330
1F
100
AcDbEntity
  8
0
  6
Continuous
 62
     7
370
     0
100
AcDbLine
 10
257.1835178557
 20
47.0493383592
 30
0.0
 11
256.7593295817
 21
45.309803709
 31
0.0
  0
LWPOLYLINE
  5
2C6
330
1F
100
AcDbEntity
  8
0
  6
Continuous
 62
     7
370
     0
100
AcDbPolyline
 90
       21
 70
   128
 43
0.0
 10
246.7601425548
 20
27.988826212
 10
246.5629651095
 20
27.7916969906
 10
245.1607951066
 20
26.4789017365
 10
243.7262652143
 20
25.288905074
 10
242.270059165
 20
24.2305651082
 10
240.8030222656
 20
23.3117670503
 10
239.3360803921
 20
22.5393536402
 10
237.8801585047
 20
21.9190765852
 10
236.4460994718
 20
21.455554261
 10
235.0445837328
 20
21.1522405435
 10
233.6860492182
 20
21.0113937885
 10
232.3806131473
 20
21.0340636261
 10
231.1379982712
 20
21.2200803213
 10
229.9674591159
 20
21.5680578225
 10
228.877712835
 20
22.0754070764
 10
227.876875331
 20
22.7383462998
 10
226.9724013278
 20
23.5519416705
 10
226.1710251015
 20
24.5101309069
 10
225.4787170165
 20
25.6057795464
 10
224.9006308424
 20
26.8307273387
 10
224.44107346
 20
28.1758513666
  0
ARC
  5
2C7
330
1F
100
AcDbEntity
  8
0
  6
Continuous
 62
     7
370
     0
100
AcDbCircle
 10
247.0033784529
 20
55.160258564
 30
0.0
 40
10.51249703684874
100
AcDbArc
 50
14.4456939373
 51
47.0804331381
  0
LWPOLYLINE
  5
2C8
330
1F
100
AcDbEntity
  8
0
  6
Continuous
 62
     7
370
     0
100
AcDbPolyline
 90
       24
 70
   128
 43
0.0
 10
232.6840401636
 20
38.2727866847
 10
232.7481613252
 20
39.4867095775
 10
232.9395132858
 20
40.7555208194
 10
233.2550785944
 20
42.0592105385
 10
233.6898806302
 20
43.3772188517
 10
234.2370619691
 20
44.6887595296
 10
234.8879937026
 20
45.9731495517
 10
235.6324097803
 20
47.2101322906
 10
236.4585703291
 20
48.3802006933
 10
237.3534467047
 20
49.4649018293
 10
238.3029259689
 20
50.4471294596
 10
239.2920343013
 20
51.3113929342
 10
240.3051727581
 20
52.0440627998
 10
241.3263635679
 20
52.633583706
 10
242.3395020248
 20
53.070658604
 10
243.3286103572
 20
53.3483953018
 10
244.2780896213
 20
53.4624130956
 10
245.1729659969
 20
53.4109142305
 10
245.9991265458
 20
53.194710494
 10
246.7435426234
 20
52.8172122638
 10
247.3944743569
 20
52.2843720239
 10
247.9416556959
 20
51.6045934725
 10
248.3764577316
 20
50.7885969042
 10
248.6550464246
 20
49.9883065752
  0
LWPOLYLINE
  5
2C9
330
1F
100
AcDbEntity
  8
0
  6
Continuous
 62
     7
370
     0
100
AcDbPolyline
 90
       12
 70
   128
 43
0.0
 10
238.6558593978
 20
32.6673292683
 10
238.3029259689
 20
32.5858713719
 10
237.3534467047
 20
32.471853578
 10
236.4585703291
 20
32.5233524431
 10
235.6324097803
 20
32.7395561796
 10
234.8879937026
 20
33.1170544099
 10
234.2370619691
 20
33.6498946497
 10
233.6898806302
 20
34.3296732011
 10
233.2550785944
 20
35.1456697695
 10
232.9395132858
 20
36.0850155385
 10
232.7481613252
 20
37.1328965094
 10
232.6840401636
 20
38.2727866847
  0
LWPOLYLINE
  5
2CA
330
1F
100
AcDbEntity
  8
0
  6
Continuous
 62
     7
370
     0
100
AcDbPolyline
 90
       19
 70
   128
 43
0.0
 10
218.9027908683
 20
42.1772006267
 10
219.3975922357
 20
44.123614862
 10
220.0173155449
 20
46.0852764436
 10
220.7571323477
 20
48.0468940566
 10
221.6112751113
 20
49.9931783752
 10
222.5730846335
 20
51.9089572687
 10
223.6350653609
 20
53.7792989912
 10
224.7889393889
 20
55.5896224433
 10
226.0257123167
 20
57.325819601
 10
227.3357430526
 20
58.9743551296
 10
228.7088208641
 20
60.522379305
 10
230.1342424273
 20
61.957825726
 10
231.6008971084
 20
63.2695046536
 10
233.0973530689
 20
64.4471937824
 10
234.6119450981
 20
65.4817117601
 10
236.1328676333
 20
66.3649947004
 10
237.6482652271
 20
67.0901575342
 10
239.1463258959
 20
67.6515494194
 10
239.9414706448
 20
67.8843572532
  0
LWPOLYLINE
  5
2CB
330
1F
100
AcDbEntity
  8
0
  6
Continuous
 62
     7
370
     0
100
AcDbPolyline
 90
       19
 70
   128
 43
0.0
 10
222.1807587185
 20
41.1539746945
 10
222.6569417155
 20
43.0250208194
 10
223.2566452717
 20
44.9108615665
 10
223.9749171324
 20
46.7959208391
 10
224.8058251286
 20
48.664630237
 10
225.7425059096
 20
50.5015560494
 10
226.7772235529
 20
52.2915258663
 10
227.9014321264
 20
54.0197559504
 10
229.1058468113
 20
55.6719751855
 10
230.3805202925
 20
57.2345338159
 10
231.7149237607
 20
58.6945277743
 10
233.0980374612
 20
60.0398996247
 10
234.5184372933
 20
61.2595372246
 10
235.9643922742
 20
62.3433680129
 10
237.423959864
 20
63.2824398954
 10
238.8850851585
 20
64.068995238
 10
240.3357005766
 20
64.6965405823
 10
241.7638253003
 20
65.1598918839
 10
242.196635239
 20
65.2687381511
  0
LINE
  5
2CC
330
1F
100
AcDbEntity
  8
0
  6
Continuous
 62
     7
370
     0
100
AcDbLine
 10
233.4012850241
 20
59.1366214424
 30
0.0
 11
233.7615118334
 21
59.4751094083
 31
0.0
  0
LWPOLYLINE
  5
2CD
330
1F
100
AcDbEntity
  8
0
  6
Continuous
 62
     7
370
     0
100
AcDbPolyline
 90
       21
 70
   128
 43
0.0
 10
221.6032909176
 20
41.1471730792
 10
222.078029068
 20
43.0403959586
 10
222.6774994994
 20
44.9494787549
 10
223.3967973725
 20
46.8588065835
 10
224.2300405675
 20
48.7527661721
 10
225.1704157831
 20
50.6158682915
 10
226.2102312195
 20
52.4328747474
 10
227.3409830913
 20
54.1889280338
 10
228.5534254336
 20
55.8696661554
 10
229.8376412249
 20
57.461342775
 10
231.1831286556
 20
58.9509416544
 10
232.5788841058
 20
60.3262808304
 10
234.0134926941
 20
61.5761120366
 10
235.4752219563
 20
62.6902158477
 10
236.9521176219
 20
63.6594767424
 10
238.4321015321
 20
64.4759715694
 10
239.9030700913
 20
65.1330233405
 10
241.3529936261
 20
65.6252555476
 10
242.770014137
 20
65.9486440306
 10
244.1425430516
 20
66.1005445116
 10
245.4427542304
 20
66.0810850781
  0
LWPOLYLINE
  5
2CE
330
1F
100
AcDbEntity
  8
0
  6
Continuous
 62
     7
370
     0
100
AcDbPolyline
 90
        3
 70
   128
 43
0.0
 10
222.6524147983
 20
39.0746697284
 10
222.6519630367
 20
39.1963486457
 10
222.6642277697
 20
39.8387920587
  0
LWPOLYLINE
  5
2CF
330
1F
100
AcDbEntity
  8
0
  6
Continuous
 62
     7
370
     0
100
AcDbPolyline
 90
       18
 70
   128
 43
0.0
 10
191.5670090663
 20
63.087655145
 10
191.6312296682
 20
64.23254777
 10
191.8227462649
 20
65.4311578152
 10
192.1381403519
 20
66.6620953964
 10
192.5717840079
 20
67.9033947858
 10
193.1159386763
 20
69.1329046156
 10
193.7608944476
 20
70.3286843513
 10
194.4951419395
 20
71.4693957237
 10
195.3055780919
 20
72.5346831311
 10
196.1777409381
 20
73.5055350275
 10
197.0960667665
 20
74.3646274372
 10
198.0441677793
 20
75.096629873
 10
199.0051252891
 20
75.6884795383
 10
199.9617909408
 20
76.1296145353
 10
200.8970929765
 20
76.4121635956
 10
201.7943409354
 20
76.5310839567
 10
202.6375232135
 20
76.4842532907
 10
203.3016360445
 20
76.3142394961
  0
ARC
  5
2D0
330
1F
100
AcDbEntity
  8
0
  6
Continuous
 62
     7
370
     0
100
AcDbCircle
 10
196.9651991685
 20
62.641639749
 30
0.0
 40
5.416584358572806
100
AcDbArc
 50
175.2767713473
 51
224.7160200029
  0
LINE
  5
2D1
330
1F
100
AcDbEntity
  8
0
  6
Continuous
 62
     7
370
     0
100
AcDbLine
 10
228.335332944
 20
40.1920654276
 30
0.0
 11
227.6281114602
 21
40.6003356999
 31
0.0
  0
LINE
  5
2D2
330
1F
100
AcDbEntity
  8
0
  6
Continuous
 62
     7
370
     0
100
AcDbLine
 10
222.7921717723
 20
34.5325962898
 30
0.0
 11
228.335332944
 21
31.3325974592
 31
0.0
  0
LINE
  5
2D3
330
1F
100
AcDbEntity
  8
0
  6
Continuous
 62
     7
370
     0
100
AcDbLine
 10
222.7315115913
 20
34.4975665288
 30
0.0
 11
222.7921717723
 21
34.5325962898
 31
0.0
  0
LINE
  5
2D4
330
1F
100
AcDbEntity
  8
0
  6
Continuous
 62
     7
370
     0
100
AcDbLine
 10
224.1089266592
 20
27.8294632829
 30
0.0
 11
224.0823478029
 21
27.9170102649
 31
0.0
  0
LINE
  5
2D5
330
1F
100
AcDbEntity
  8
0
  6
Continuous
 62
     7
370
     0
100
AcDbLine
 10
227.6282260469
 20
30.1078527709
 30
0.0
 11
222.3779580604
 21
33.1387679647
 31
0.0
  0
LINE
  5
2D6
330
1F
100
AcDbEntity
  8
0
  6
Continuous
 62
     7
370
     0
100
AcDbLine
 10
223.0488491255
 20
29.940395618
 30
0.0
 11
222.9656472953
 21
30.2083190644
 31
0.0
  0
LWPOLYLINE
  5
2D7
330
1F
100
AcDbEntity
  8
0
  6
Continuous
 62
     7
370
     0
100
AcDbPolyline
 90
        3
 70
   128
 43
0.0
 10
222.6521119501
 20
29.3514718691
 10
222.6431978917
 20
29.3724272605
 10
222.1807587185
 20
30.6614255951
  0
ARC
  5
2D8
330
1F
100
AcDbEntity
  8
0
  6
Continuous
 62
     7
370
     0
100
AcDbCircle
 10
232.3419328674
 20
33.6624418165
 30
0.0
 40
11.15192355892272
100
AcDbArc
 50
195.6471844777
 51
214.1548056384
  0
LINE
  5
2D9
330
1F
100
AcDbEntity
  8
0
  6
Continuous
 62
     7
370
     0
100
AcDbLine
 10
218.9362910274
 20
30.7970889495
 30
0.0
 11
218.9027908683
 21
30.9071048373
 31
0.0
  0
LWPOLYLINE
  5
2DA
330
1F
100
AcDbEntity
  8
0
  6
Continuous
 62
     7
370
     0
100
AcDbPolyline
 90
        3
 70
   128
 43
0.0
 10
267.4559554138
 20
28.7492389845
 10
267.0941853054
 20
28.8911968634
 10
267.041327889
 20
28.9249234709
  0
LWPOLYLINE
  5
2DB
330
1F
100
AcDbEntity
  8
0
  6
Continuous
 62
     7
370
     0
100
AcDbPolyline
 90
        6
 70
   128
 43
0.0
 10
268.0028713593
 20
30.0525386212
 10
268.0858110888
 20
29.7557131648
 10
268.1101061128
 20
29.3195390253
 10
268.0007034308
 20
28.978918619
 10
267.772372879
 20
28.7798579145
 10
267.4559554138
 20
28.7492389845
  0
OLE2FRAME
  5
2DC
330
1F
100
AcDbEntity
  8
0
100
AcDbOle2Frame
 70
     2
  3
Paintbrush-Bild
 10
13.8511154363
 20
38.264191557
 30
0.0
 11
51.6290888628
 21
31.9806341108
 31
0.0
 71
     2
 72
     0
 73
     1
 90
    12928
310
80552BED0767C5B32B40DDAF6807D121434000000000000000006FFBDDFB85D0
310
4940DDAF6807D121434000000000000000006FFBDDFB85D04940416F4BD60AFB
310
3F4000000000000000002BED0767C5B32B40416F4BD60AFB3F40000000000000
310
0000000000000100000000010000010000000100000000000100000000320000
310
D0CF11E0A1B11AE1000000000000000000000000000000003E000300FEFF0900
310
0600000000000000000000000100000001000000000000000010000002000000
310
01000000FEFFFFFF0000000000000000FFFFFFFFFFFFFFFFFFFFFFFFFFFFFFFF
310
FFFFFFFFFFFFFFFFFFFFFFFFFFFFFFFFFFFFFFFFFFFFFFFFFFFFFFFFFFFFFFFF
310
FFFFFFFFFFFFFFFFFFFFFFFFFFFFFFFFFFFFFFFFFFFFFFFFFFFFFFFFFFFFFFFF
310
FFFFFFFFFFFFFFFFFFFFFFFFFFFFFFFFFFFFFFFFFFFFFFFFFFFFFFFFFFFFFFFF
310
FFFFFFFFFFFFFFFFFFFFFFFFFFFFFFFFFFFFFFFFFFFFFFFFFFFFFFFFFFFFFFFF
310
FFFFFFFFFFFFFFFFFFFFFFFFFFFFFFFFFFFFFFFFFFFFFFFFFFFFFFFFFFFFFFFF
310
FFFFFFFFFFFFFFFFFFFFFFFFFFFFFFFFFFFFFFFFFFFFFFFFFFFFFFFFFFFFFFFF
310
FFFFFFFFFFFFFFFFFFFFFFFFFFFFFFFFFFFFFFFFFFFFFFFFFFFFFFFFFFFFFFFF
310
FFFFFFFFFFFFFFFFFFFFFFFFFFFFFFFFFFFFFFFFFFFFFFFFFFFFFFFFFFFFFFFF
310
FFFFFFFFFFFFFFFFFFFFFFFFFFFFFFFFFFFFFFFFFFFFFFFFFFFFFFFFFFFFFFFF
310
FFFFFFFFFFFFFFFFFFFFFFFFFFFFFFFFFFFFFFFFFFFFFFFFFFFFFFFFFFFFFFFF
310
FFFFFFFFFFFFFFFFFFFFFFFFFFFFFFFFFFFFFFFFFFFFFFFFFFFFFFFFFFFFFFFF
310
FFFFFFFFFFFFFFFFFFFFFFFFFFFFFFFFFFFFFFFFFFFFFFFFFFFFFFFFFFFFFFFF
310
FFFFFFFFFFFFFFFFFFFFFFFFFFFFFFFFFFFFFFFFFFFFFFFFFFFFFFFFFFFFFFFF
310
FDFFFFFFFEFFFFFFFEFFFFFFFEFFFFFF05000000060000000700000008000000
310
090000000A0000000B0000000C0000000D0000000E0000000F00000010000000
310
11000000120000001300000014000000150000001600000017000000FEFFFFFF
310
FFFFFFFFFFFFFFFFFFFFFFFFFFFFFFFFFFFFFFFFFFFFFFFFFFFFFFFFFFFFFFFF
310
FFFFFFFFFFFFFFFFFFFFFFFFFFFFFFFFFFFFFFFFFFFFFFFFFFFFFFFFFFFFFFFF
310
FFFFFFFFFFFFFFFFFFFFFFFFFFFFFFFFFFFFFFFFFFFFFFFFFFFFFFFFFFFFFFFF
310
FFFFFFFFFFFFFFFFFFFFFFFFFFFFFFFFFFFFFFFFFFFFFFFFFFFFFFFFFFFFFFFF
310
FFFFFFFFFFFFFFFFFFFFFFFFFFFFFFFFFFFFFFFFFFFFFFFFFFFFFFFFFFFFFFFF
310
FFFFFFFFFFFFFFFFFFFFFFFFFFFFFFFFFFFFFFFFFFFFFFFFFFFFFFFFFFFFFFFF
310
FFFFFFFFFFFFFFFFFFFFFFFFFFFFFFFFFFFFFFFFFFFFFFFFFFFFFFFFFFFFFFFF
310
FFFFFFFFFFFFFFFFFFFFFFFFFFFFFFFFFFFFFFFFFFFFFFFFFFFFFFFFFFFFFFFF
310
FFFFFFFFFFFFFFFFFFFFFFFFFFFFFFFFFFFFFFFFFFFFFFFFFFFFFFFFFFFFFFFF
310
FFFFFFFFFFFFFFFFFFFFFFFFFFFFFFFFFFFFFFFFFFFFFFFFFFFFFFFFFFFFFFFF
310
FFFFFFFFFFFFFFFFFFFFFFFFFFFFFFFFFFFFFFFFFFFFFFFFFFFFFFFFFFFFFFFF
310
FFFFFFFFFFFFFFFFFFFFFFFFFFFFFFFFFFFFFFFFFFFFFFFFFFFFFFFFFFFFFFFF
310
FFFFFFFFFFFFFFFFFFFFFFFFFFFFFFFFFFFFFFFFFFFFFFFFFFFFFFFFFFFFFFFF
310
52006F006F007400200045006E00740072007900000000000000000000000000
310
0000000000000000000000000000000000000000000000000000000000000000
310
16000500FFFFFFFFFFFFFFFF020000000A00030000000000C000000000000046
310
000000000000000000000000208189B99124D20103000000C000000000000000
310
01004F006C006500000000000000000000000000000000000000000000000000
310
0000000000000000000000000000000000000000000000000000000000000000
310
0A000200FFFFFFFFFFFFFFFFFFFFFFFF00000000000000000000000000000000
310
0000000000000000000000000000000000000000000000001400000000000000
310
010043006F006D0070004F0062006A0000000000000000000000000000000000
310
0000000000000000000000000000000000000000000000000000000000000000
310
120002010100000003000000FFFFFFFF00000000000000000000000000000000
310
0000000000000000000000000000000000000000010000004D00000000000000
310
01004F006C006500310030004E00610074006900760065000000000000000000
310
0000000000000000000000000000000000000000000000000000000000000000
310
1A000200FFFFFFFFFFFFFFFFFFFFFFFF00000000000000000000000000000000
310
0000000000000000000000000000000000000000040000002426000000000000
310
FEFFFFFF02000000FEFFFFFFFFFFFFFFFFFFFFFFFFFFFFFFFFFFFFFFFFFFFFFF
310
FFFFFFFFFFFFFFFFFFFFFFFFFFFFFFFFFFFFFFFFFFFFFFFFFFFFFFFFFFFFFFFF
310
FFFFFFFFFFFFFFFFFFFFFFFFFFFFFFFFFFFFFFFFFFFFFFFFFFFFFFFFFFFFFFFF
310
FFFFFFFFFFFFFFFFFFFFFFFFFFFFFFFFFFFFFFFFFFFFFFFFFFFFFFFFFFFFFFFF
310
FFFFFFFFFFFFFFFFFFFFFFFFFFFFFFFFFFFFFFFFFFFFFFFFFFFFFFFFFFFFFFFF
310
FFFFFFFFFFFFFFFFFFFFFFFFFFFFFFFFFFFFFFFFFFFFFFFFFFFFFFFFFFFFFFFF
310
FFFFFFFFFFFFFFFFFFFFFFFFFFFFFFFFFFFFFFFFFFFFFFFFFFFFFFFFFFFFFFFF
310
FFFFFFFFFFFFFFFFFFFFFFFFFFFFFFFFFFFFFFFFFFFFFFFFFFFFFFFFFFFFFFFF
310
FFFFFFFFFFFFFFFFFFFFFFFFFFFFFFFFFFFFFFFFFFFFFFFFFFFFFFFFFFFFFFFF
310
FFFFFFFFFFFFFFFFFFFFFFFFFFFFFFFFFFFFFFFFFFFFFFFFFFFFFFFFFFFFFFFF
310
FFFFFFFFFFFFFFFFFFFFFFFFFFFFFFFFFFFFFFFFFFFFFFFFFFFFFFFFFFFFFFFF
310
FFFFFFFFFFFFFFFFFFFFFFFFFFFFFFFFFFFFFFFFFFFFFFFFFFFFFFFFFFFFFFFF
310
FFFFFFFFFFFFFFFFFFFFFFFFFFFFFFFFFFFFFFFFFFFFFFFFFFFFFFFFFFFFFFFF
310
FFFFFFFFFFFFFFFFFFFFFFFFFFFFFFFFFFFFFFFFFFFFFFFFFFFFFFFFFFFFFFFF
310
FFFFFFFFFFFFFFFFFFFFFFFFFFFFFFFFFFFFFFFFFFFFFFFFFFFFFFFFFFFFFFFF
310
FFFFFFFFFFFFFFFFFFFFFFFFFFFFFFFFFFFFFFFFFFFFFFFFFFFFFFFFFFFFFFFF
310
0100000200000000000000000000000000000000000000000000000000000000
310
0000000000000000000000000000000000000000000000000000000000000000
310
0100FEFF030A0000FFFFFFFF0A00030000000000C00000000000004607000000
310
5042727573680007000000504272757368000700000050427275736800F439B2
310
7100000000000000000000000000000000000000000000000000000000000000
310
0000000000000000000000000000000000000000000000000000000000000000
310
0000000000000000000000000000000000000000000000000000000000000000
310
0000000000000000000000000000000000000000000000000000000000000000
310
0000000000000000000000000000000000000000000000000000000000000000
310
0000000000000000000000000000000000000000000000000000000000000000
310
0000000000000000000000000000000000000000000000000000000000000000
310
0000000000000000000000000000000000000000000000000000000000000000
310
0000000000000000000000000000000000000000000000000000000000000000
310
0000000000000000000000000000000000000000000000000000000000000000
310
0000000000000000000000000000000000000000000000000000000000000000
310
0000000000000000000000000000000000000000000000000000000000000000
310
20260000424D0E260000000000003E00000028000000B40200006E0000000100
310
01000000000000000000130B0000130B00000200000002000000000000FFFFFF
310
FFFFFFFFFFFFFFFFFFFFFFFFFFFFFFFFFFFFFFFFFFFFFFFFFFFFFFFFFFFFFFFF
310
FFFFFFFFFFFFFFFFFFFFFFFFFFFFFFFFFFFFFFFFFFFFFFFFFFFFFFFFFFFFFFFF
310
FFFFFFFFFFFFFFFFFFFFFFFFFFFFFFFFFFFFFFFFFFFFFFFFF000FFFFFFFFFFFF
310
FFFFFFFFFFFFFFFFFFFFFFFFFFFFFFFFFFFFFFFFFFFFFFFFFFFFFFFFFFFFFFFF
310
FFFFFFFFFFFFFFFFFFFFFFFFFFFFFFFFFFFFFFFFFFFFFFFFFFFFFFFFFFFFFFFF
310
FFFFFFFFFFFFFFFFFFFFFFFFFFFFFFFFF000FFFFFFFFFFFFFFFFFFFFFFFFFFFF
310
FFFFFFFFFFFFFFFFFFFFFFFFFFFFFFFFFFFFFFFFFFFFFFFFFFFFFFFFFFFFFFFF
310
FFFFFFFFFFFFFFFFFFFFFFFFFFFFFFFFFFFFFFFFFFFFFFFFFFFFFFFFFFFFFFFF
310
FFFFFFFFFFFFFFFFF000FFFFFFFFFFFFFFFFFFFFFFFFFFFFFFFFFFFFFFFFFFFF
310
FFFFFFFFFFFFFFFFFFFFFFFFFFFFFFFFFFFFFFFFFFFFFFFFFFFFFFFFFFFFFFFF
310
FFFFFFFFFFFFFFFFFFFFFFFFFFFFFFFFFFFFFFFFFFFFFFFFFFFFFFFFFFFFFFFF
310
F000FFFFFFFFFFFFFFFFFFFFFFFFFFFFFFFFFFFFFFFFFFFFFFFFFFFFFFFFFFFF
310
FFFFFFFFFFFFFFFFFFFFFFFFFFFFFFFFFFFFFFFFFFFFFFFFFFFFFFFFFFFFFFFF
310
FFFFFFFFFFFFFFFFFFFFFFFFFFFFFFFFFFFFFFFFFFFFFFFFF000FFFFFFFFFFFF
310
FFFFFFFFFFFFFFFFFFFFFFFFFFFFFFFFFFFFFFFFFFFFFFFFFFFFFFFFFFFFFFFF
310
FFFFFFFFFFFFFFFFFFFFFFFFFFFFFFFFFFFFFFFFFFFFFFFFFFFFFFFFFFFFFFFF
310
FFFFFFFFFFFFFFFFFFFFFFFFFFFFFFFFF000FFFFFFFFFFFFFFFFFFFFFFFFFFFF
310
FFFFFFFFFFFFFFFFFFFFFFFFFFFFFFFFFFFFFFFFFFFFFFFFFFFFFFFFFFFFFFFF
310
FFFFFFFFFFFFFFFFFFFFFFFFFFFFFFFFFFFFFFFFFFFFFFFFFFFFFFFFFFFFFFFF
310
FFFFFFFFFFFFFFFFF000FFFFFFFFFFFFFFFFFFFFFFFFFFFFFFFFFFFFFFFFFFFF
310
FFFFFFFFFFFFFFFFFFFFFFFFFFFFFFFFFFFFFFFFFFFFFFFFFFFFFFFFFFFFFFFF
310
FFFFFFFFFFFFFFFFFFFFFFFFFFFFFFFFFFFFFFFFFFFFFFFFFFFFFFFFFFFFFFFF
310
F000FFFFFFFFFFFFFFFFFFFFFFFFFFFFFFFFFFFFFFFFFFFFFFFFFFFFFFFFFFFF
310
FFFFFFFFFFFFFFFFFFFFFFFFFFFFFFFFFFFFFFFFFFFFFFFFFFFFFFFFFFFFFFFF
310
FFFFFFFFFFFFFFFFFFFFFFFFFFFFFFFFFFFFFFFFFFFFFFFFF000FFFFFFFFFFFF
310
FFFFFFFFFFFFFFFFFFFFFFFFFFFFFFFFFFFFFFFFFFFFFFFFFFFFFFFFFFFFFFFF
310
FFFFFFFFFFFFFFFFFFFFFFFFFFFFFFFFFFFFFFFFFFFFFFFFFFFFFFFFFFFFFFFF
310
FFFFFFFFFFFFFFFFFFFFFFFFFFFFFFFFF000FFFFFFFFFFFFFFFFFFFFFFFFFFFF
310
FFFFFFFFFFFFFFFFFFFFFFFFFFFFFFFFFFFFFFFFFFFFFFFFFFFFFFFFFFFFFFFF
310
FFFFFFFFFFFFFFFFFFFFFFFFFFFFFFFFFFFFFFFFFFFFFFFFFFFFFFFFFFFFFFFF
310
FFFFFFFFFFFFFFFFF000FFFFFFFFFFFFFFFFFFFFFFFFFFFFFFFFFFFFFFFFFFFF
310
FFFFFFFFFFFFFFFFFFFFFFFFFFFFFFFFFFFFFFFFFFFFFFFFFFFFFFFFFFFFFFFF
310
FFFFFFFFFFFFFFFFFFFFFFFFFFFFFFFFFFFFFFFFFFFFFFFFFFFFFFFFFFFFFFFF
310
F000FFFFFFFFFFFFFFFFFFFFFFFFFFFFFFFFFFFFFFFFFFFFFFFFFFFFFFFFFFFF
310
FFFFFFFFFFFFFFFFFFFFFFFFFFFFFFFFFFFFFFFFFFFFFFFFFFFFFFFFFFFFFFFF
310
FFFFFFFFFFFFFFFFFFFFFFFFFFFFFFFFFFFFFFFFFFFFFFFFF000FFFFFFFFFFFF
310
FFFFFFFFFFFFFFFFFFFFFFFFFFFFFFFFFFFFFFFFFFFFFFFFFFFFFFFFFFFFFFFF
310
FFFFFFFFFFFFFFFFFFFFFFFFFFFFFFFFFFFFFFFFFFFFFFFFFFFFFFFFFFFFFFFF
310
FFFFFFFFFFFFFFFFFFFFFFFFFFFFFFFFF000FFFFFFFFFFFFFFFFFFFFFFFFFFFF
310
FFFFFFFFFFFFFFFFFFFFFFFFFFFFFFFFFFFFFFFFFFFFFFFFFFFFFFFFFFFFFFFF
310
FFFFFFFFFFFFFFFFFFFFFFFFFFFFFFFFFFFFFFFFFFFFFFFFFFFFFFFFFFFFFFFF
310
FFFFFFFFFFFFFFFFF000FFFFFFFFFFFFFFFFFFFFFFFFFFFFFFFFFFFFFFFFFFFF
310
FFFFFFFFFFFFFFFFFFFFFFFFFFFFFFFFFFFFFFFFFFFFFFFFFFFFFFFFFFFFFFFF
310
FFFFFFFFFFFFFFFFFFFFFFFFFFFFFFFFFFFFFFFFFFFFFFFFFFFFFFFFFFFFFFFF
310
F000FFFFFFFFFFFFFFFFFFFFFFFFFFFFFFFFFFFFFFFFFFFFFFFFFFFFFFFFFFFF
310
FFFFFFFFFFFFFFFFFFFFFFFFFFFFFFFFFFFFFFFFFFFFFFFFFFFFFFFFFFFFFFFF
310
FFFFFFFFFFFFFFFFFFFFFFFFFFFFFFFFFFFFFFFFFFFFFFFFF000FFFFFFFFFFFF
310
FFFFFFFFFFFFFFFFFFFFFFFFFFFFFFFFFFFFFFFFFFFFFFFFFFFFFFFFFFFFFFFF
310
FFFFFFFFFFFFFFFFFFFFFFFFFFFFFFFFFFFFFFFFFFFFFFFFFFFFFFFFFFFFFFFF
310
FFFFFFFFFFFFFFFFFFFFFFFFFFFFFFFFF000FFFFFFFFFFFFFFFFFFFFFFFFFFFF
310
FFFFFFFFFFFFFFFFFFFFFFFFFFFFFFFFFFFFFFFFFFFFFFFFFFFFFFFFFFFFFFFF
310
FFFFFFFFFFFFFFFFFFFFFFFFFFFFFFFFFFFFFFFFFFFFFFFFFFFFFFFFFFFFFFFF
310
FFFFFFFFFFFFFFFFF000FFFFF80003FFFFFFFFFFFFFFFFFFFFFFFFFFFFFFFFFF
310
FFFFF00007FFFFFFFFFF00007FFFFFF800000000000000007FFFFFFFFFFFFFFF
310
FFFFFFFC001FFFFFFFFFFFFFFC001FFFFFFFFFFFFFFFFFFFFFFFFFFE0007FFFF
310
F000FFFF8000007FFFFFFFF8000FFFFFC0007FFFFF80007FFFFF0000007FFFFF
310
FFF8000007FFFFF800000000000000007FFFFFF0001FFFFFFFFFFFC00001FFFF
310
FFFFFFFFC00001FFFFFFFF000000000003FFFFE000007FFFF000FFFE0000000F
310
FFFFFFF0000FFFFF80007FFFFF80007FFFFC0000001FFFFFFFC0000001FFFFF8
310
00000000000000007FFFFFF0001FFFFFFFFFFE0000003FFFFFFFFFFE0000003F
310
FFFFFF000000000003FFFF0000000FFFF000FFF800000003FFFFFFF00007FFFF
310
80007FFFFF80007FFFF000000007FFFFFF000000003FFFF80000000000000000
310
7FFFFFF0001FFFFFFFFFF80000000FFFFFFFFFF80000000FFFFFFF0000000000
310
03FFFC00000003FFF000FFE000000000FFFFFFF00007FFFF80003FFFFF80007F
310
FFC000000001FFFFFC000000001FFFF800000000000000007FFFFFF0001FFFFF
310
FFFFE000000003FFFFFFFFE000000003FFFFFF000000000003FFF000000000FF
310
F000FF80000000007FFFFFF00007FFFF80003FFFFF80007FFF8000000000FFFF
310
F80000000007FFF800000000000000007FFFFFF0001FFFFFFFFFC000000001FF
310
FFFFFFC000000001FFFFFF000000000003FFC0000000007FF000FF0000000000
310
3FFFFFE00007FFFF00003FFFFF80007FFE00000000003FFFF00000000003FFF8
310
00000000000000007FFFFFF0001FFFFFFFFF8000000000FFFFFFFF8000000000
310
FFFFFF000000000003FF80000000003FF000FE00000000001FFFFFE00003FFFF
310
00003FFFFF80007FFC00000000001FFFE00000000001FFF8000001FFFE000000
310
7FFFFFF0001FFFFFFFFE00000000003FFFFFFE00000000003FFFFF0000000000
310
03FF00000000001FF000FC00000000000FFFFFE00003FFFF00001FFFFF80007F
310
F800000000001FFFC00000000000FFF8000001FFFE0000007FFFFFF0001FFFFF
310
FFFC00000000001FFFFFFC00000000001FFFFF000000000003FE00000000000F
310
F000F8000000000007FFFFE00003FFFF00001FFFFF80007FF800000000000FFF
310
800000000000FFF8000001FFFE0000007FFFFFF0001FFFFFFFF800000000000F
310
FFFFF800000000000FFFFF000000000003FC000000000007F000F80000000000
310
03FFFFC00003FFFE00001FFFFF80007FF0000000000007FF0000000000007FF8
310
000001FFFE0000007FFFFFF0001FFFFFFFF0000000000007FFFFF00000000000
310
07FFFF000000000003F8000000000003F000F0000000000003FFFFC00001FFFE
310
00001FFFFF80007FE0000000000007FE0000000000003FF8000001FFFE000000
310
7FFFFFF0001FFFFFFFF0000000000007FFFFF0000000000007FFFF0000000000
310
03F800001F800003F000E00001FFF00001FFFFC00001FFFE00000FFFFF80007F
310
E00001FFE00003FE00001FFF00003FF8000001FFFE0000007FFFFFF0001FFFFF
310
FFE000003E000003FFFFE000003E000003FFFF000000000003F00001FFF80001
310
F000E00007FFFC0001FFFFC00001FFFE00000FFFFF80007FC0000FFFFC0003FC
310
0000FFFFC0001FF8000001FFFE0000007FFFFFF0001FFFFFFFC00003FFE00001
310
FFFFC00003FFE00001FFFF0001FFFFFFFFF00007FFFE0001F000E0000FFFFF00
310
00FFFF800001FFFC00000FFFFF80007FC0001FFFFE0001FC0001FFFFE0001FF8
310
000001FFFE0000007FFFFFF0001FFFFFFF80000FFFF80000FFFF80000FFFF800
310
00FFFF0003FFFFFFFFE0000FFFFF8000F000C0003FFFFF8000FFFF800000FFFC
310
000007FFFF80007F80003FFFFF0001FC0003FFFFF0001FF8000001FFFE000000
310
7FFFFFF0001FFFFFFF80003FFFFE0000FFFF80003FFFFE0000FFFF0003FFFFFF
310
FFE0003FFFFF8000F000C0003FFFFF8000FFFF800000FFFC000007FFFF80007F
310
80007FFFFF8001F80007FFFFF8000FF8000001FFFE0000007FFFFFF0001FFFFF
310
FF00007FFFFF00007FFF00007FFFFF00007FFF0003FFFFFFFFE0003FFFFFC000
310
F000C0007FFFFFC000FFFF000000FFFC000007FFFF80007F8000FFFFFF8000F8
310
000FFFFFF8000FF8000001FFFE0000007FFFFFF0001FFFFFFF0000FFFFFF8000
310
7FFF0000FFFFFF80007FFF0003FFFFFFFFC0007FFFFFC00070008000FFFFFFC0
310
00FFFF000000FFF8000007FFFF80007F8000FFFFFF8000F8000FFFFFF8000FF8
310
000001FFFE0000007FFFFFF0001FFFFFFE0001FFFFFFC0003FFE0001FFFFFFC0
310
003FFF0003FFFFFFFFC0007FFFFFE00070008000FFFFFFC0007FFF0000007FF8
310
000003FFFF80007F0001FFFFFF8000F8000FFFFFF8000FF8000001FFFE000000
310
7FFFFFF0001FFFFFFE0001FFFFFFC0003FFE0001FFFFFFC0003FFF0003FFFFFF
310
FFC000FFFFFFE00070008000FFFFFFC0007FFF0000007FF8000003FFFF80007F
310
0001FFFFFF8000F8001FFFFFF8000FF8000001FFFE0000007FFFFFF0001FFFFF
310
FE0003FFFFFFE0003FFE0003FFFFFFE0003FFF0003FFFFFFFFC000FFFFFFE000
310
70008000FFFFFFC0007FFE0000007FF8000003FFFF80007F0001FFFFFF8000F0
310
001FFFFFF8000FF8000001FFFE0000007FFFFFF0001FFFFFFC0003FFFFFFE000
310
1FFC0003FFFFFFE0001FFF0003FFFFFFFFC000FFFFFFC00070008000FFFFFF80
310
007FFE0000007FF0000003FFFF80007F0001FFFFFF0000F0001FFFFFF8000FF8
310
000001FFFE0000007FFFFFF0001FFFFFFC0007FFFFFFF0001FFC0007FFFFFFF0
310
001FFF0003FFFFFFFFC000FFFFFFC00070008001FFFFFF0000FFFE0000003FF0
310
000001FFFF80007F0001FFFFFF0000F8001FFFFFF0000FF8000001FFFE000000
310
7FFFFFF0001FFFFFFC0007FFFFFFF0001FFC0007FFFFFFF0001FFF0003FFFFFF
310
FFC001FFFFFF80007000FFFFFFFFFE0000FFFE0008003FF0008001FFFF80007F
310
FFFFFFFFFC0000FFFFFFFFFFE0000FF8000001FFFE0000007FFFFFF0001FFFFF
310
F8000FFFFFFFF8000FF8000FFFFFFFF8000FFF0003FFFFFFFFFFFFFFFFFF0000
310
7000FFFFFFFFFC0000FFFC0008003FF0008001FFFF80007FFFFFFFFFF80001FF
310
FFFFFFFF80000FF8000001FFFE0000007FFFFFF0001FFFFFF8000FFFFFFFF800
310
0FF8000FFFFFFFF8000FFF0003FFFFFFFFFFFFFFFFFE0000F000FFFFFFFFE000
310
00FFFC000C003FE000C001FFFF80007FFFFFFFFFC00001FFFFFFFFFE00001FF8
310
000001FFFE0000007FFFFFF0001FFFFFF8000FFFFFFFF8000FF8000FFFFFFFF8
310
000FFF0003FFFFFFFFFFFFFFFFF00000F000FFFFFFFE000001FFFC000C001FE0
310
00C000FFFF80007FFFFFFFFE000001FFFFFFFFE000001FF80FFFFFFFFFFFFFC0
310
7FFFFFF0001FFFFFF8000FFFFFFFF8000FF8000FFFFFFFF8000FFF0003FFFFFF
310
FFFFFFFFFF800000F000FFFFFFC0000001FFFC001C001FE001C000FFFF80007F
310
FFFFFF80000003FFFFFFF80000001FF80FFFFFFFFFFFFFC07FFFFFF0001FFFFF
310
F8001FFFFFFFFC000FF8001FFFFFFFFC000FFF0003FFFFFFFFFFFFFFF0000001
310
F000FFFFF800000001FFF8001C001FE001C000FFFF80007FFFFFF800000003FF
310
FFFF800000003FF80FFFFFFFFFFFFFC07FFFFFF0001FFFFFF8001FFFFFFFFC00
310
0FF8001FFFFFFFFC000FFF0003FFFFFFFFFFFFFE00000001F000FFFFC0000000
310
03FFF8001E001FC001E000FFFF80007FFFFF8000000007FFFFFC000000003FF8
310
0FFFFFFFFFFFFFC07FFFFFF0001FFFFFF8001FFFFFFFFC000FF8001FFFFFFFFC
310
000FFF0003FFFFFFFFFFFFE000000003F000FFFE0000000007FFF8001E000FC0
310
01E0007FFF80007FFFFE0000000007FFFFE0000000007FF80FFFFFFFFFFFFFC0
310
7FFFFFF0001FFFFFF0001FFFFFFFFC0007F0001FFFFFFFFC0007FF0003FFFFFF
310
FFFFFF0000000003F000FFF80000000007FFF8001E000FC003E0007FFF80007F
310
FFF0000000000FFFFF8000000000FFF80FFFFFFFFFFFFFC07FFFFFF0001FFFFF
310
F0001FFFFFFFFC0007F0001FFFFFFFFC0007FF0003FFFFFFFFFFFC0000000007
310
F000FFE0000000000FFFF0003E000FC003E0007FFF80007FFFC0000000001FFF
310
FE0000000001FFF80FFFFFFFFFFFFFC07FFFFFF0001FFFFFF0001FFFFFFFFC00
310
07F0001FFFFFFFFC0007FF0003FFFFFFFFFFF0000000000FF000FFC000000000
310
1FFFF0003F000F8003F0003FFF80007FFF80000000003FFFF80000000003FFF8
310
0FFFFFFFFFFFFFC07FFFFFF0001FFFFFF0001FFFFFFFFC0007F0001FFFFFFFFC
310
0007FF0003FFFFFFFFFFE0000000001FF000FF00000000007FFFF0003F000780
310
03F0003FFF80007FFF00000000007FFFF00000000007FFF80FFFFFFFFFFFFFC0
310
7FFFFFF0001FFFFFF0001FFFFFFFFC0007F0001FFFFFFFFC0007FF0003FFFFFF
310
FFFF80000000007FF000FE0000000000FFFFE0003F00078007F0003FFF80007F
310
FE0000000001FFFFE0000000001FFFF80FFFFFFFFFFFFFC07FFFFFF0001FFFFF
310
F0001FFFFFFFFC0007F0001FFFFFFFFC0007FF0003FFFFFFFFFF0000000000FF
310
F000FC0000000003FFFFE0007F00078007F0003FFF80007FFC0000000007FFFF
310
C0000000007FFFF80FFFFFFFFFFFFFC07FFFFFF0001FFFFFF8001FFFFFFFFC00
310
0FF8001FFFFFFFFC000FFF0003FFFFFFFFFE0000000003FFF000FC000000000F
310
FFFFE0007F80070007F8001FFF80007FF8000000001FFFFF8000000001FFFFF8
310
0FFFFFFFFFFFFFC07FFFFFF0001FFFFFF8001FFFFFFFFC000FF8001FFFFFFFFC
310
000FFF0003FFFFFFFFFC000000000FFFF000F8000000007FFFFFE0007F800700
310
07F8001FFF80007FF000000000FFFFFF800000000FFFFFF80FFFFFFFFFFFFFC0
310
7FFFFFF0001FFFFFF8000FFFFFFFF8000FF8000FFFFFFFF8000FFF0003FFFFFF
310
FFFC000000007FFFF000F800000007FFFFFFC0007F8003000FF8001FFF80007F
310
F000000007FFFFFF000000007FFFFFF80FFFFFFFFFFFFFC07FFFFFF0001FFFFF
310
F8000FFFFFFFF8000FF8000FFFFFFFF8000FFF0003FFFFFFFFF80000000FFFFF
310
F000F0000000FFFFFFFFC000FF8003000FF8001FFF80007FE0000000FFFFFFFF
310
0000000FFFFFFFF8000001FFFE0000007FFFFFF0001FFFFFF8000FFFFFFFF800
310
0FF8000FFFFFFFF8000FFF0003FFFFFFFFF8000000FFFFFFF000F000000FFFFF
310
FFFFC000FFC002000FF8000FFF80007FE000001FFFFFFFFE000001FFFFFFFFF8
310
000001FFFE0000007FFFFFF0001FFFFFF8000FFFFFFFF8000FF8000FFFFFFFF8
310
000FFF0003FFFFFFFFF000001FFFFFFFF000E00000FFFFFFFFFFC000FFC00200
310
0FFC000FFF80007FE00001FFFFFFFFFE00001FFFFFFFFFF8000001FFFE000000
310
7FFFFFF0001FFFFFFC000FFFFFFFF8001FFC000FFFFFFFF8001FFF0003FFFFFF
310
FFF00001FFFFFFFFF000E00007FFFFFFFFFF8000FFC000001FFC000FFF80007F
310
C0000FFFFFFFFFFE0000FFFFFFFFFFF8000001FFFE0000007FFFFFF0001FFFFF
310
FC0007FFFFFFF0001FFC0007FFFFFFF0001FFF0003FFFFFFFFF00007FFFFFFFF
310
F000E0001FFFFFFFFFFF8000FFC000001FFC000FFF80007FC0003FFFFFFFFFFE
310
0001FFFFFFFFFFF8000001FFFE0000007FFFFFF0001FFFFFFC0007FFFFFFF000
310
1FFC0007FFFFFFF0001FFF0003FFFFFFFFF0001FFFFFFFFFF000E0003FFFFF00
310
03FF8001FFE000001FFC0007FF80007FC0007FFFFF0007FC0003FFFFF0003FF8
310
000001FFFE0000007FFFFFF0001FFFFFFC0003FFFFFFE0001FFC0003FFFFFFE0
310
001FFF0003FFFFFFFFF0003FFFFFFFFFF000E0003FFFFF0001FF8001FFE00000
310
1FFE0007FF80007FC0007FFFFE0003FC0007FFFFE0003FF8000001FFFE000000
310
7FFFFFF0001FFFFFFE0003FFFFFFE0003FFE0003FFFFFFE0003FFF0003FFFFFF
310
FFF0003FFFFF8001F000E0003FFFFF0001FF0001FFE000001FFE0007FF80007F
310
C0007FFFFE0003FC0007FFFFE0003FF8000001FFFE0000007FFFFFF0001FFFFF
310
FE0001FFFFFFC0003FFE0001FFFFFFC0003FFF0003FFFFFFFFF0003FFFFF0001
310
F000E0003FFFFF0003FF0001FFE000003FFE0007FF80007FC0007FFFFE0003FC
310
0007FFFFE0003FF8000001FFFE0000007FFFFFF0001FFFFFFF0001FFFFFFC000
310
7FFF0001FFFFFFC0007FFF0003FFFFFFFFF0003FFFFF0001F000E0003FFFFE00
310
03FF0003FFF000003FFE0003FF80007FC0007FFFFC0003FE0007FFFFE0003FF8
310
000001FFFE0000007FFFFFF0001FFFFFFF0000FFFFFF80007FFF0000FFFFFF80
310
007FFF0003FFFFFFFFF0003FFFFF0001F000E0003FFFFE0003FF0003FFF00000
310
3FFF0003FF80007FC0007FFFFC0007FE0007FFFFC0003FF8000001FFFE000000
310
7FFFFFF0001FFFFFFF80007FFFFF0000FFFF80007FFFFF0000FFFF0003FFFFFF
310
FFF0003FFFFF0003F000E0003FFFFC0003FE0003FFF000003FFF0003FF80007F
310
E0003FFFF80007FE0003FFFFC0007FF8000001FFFE0000007FFFFFF0001FFFFF
310
FF80003FFFFE0000FFFF80003FFFFE0000FFFF0003FFFFFFFFF0001FFFFE0003
310
F000F0001FFFF80003FE0003FFF000007FFF0001FF80007FE0003FFFF00007FE
310
0001FFFF80007FF8000001FFFE0000007FFFFFF0001FFFFFFFC0000FFFF80001
310
FFFFC0000FFFF80001FFFF0003FFFFFFFFF0001FFFFC0003F000F0000FFFF000
310
07FE0007FFF800007FFF0001FF80007FE0001FFFE00007FF0000FFFE00007FF8
310
000001FFFE0000007FFFFFF0001FFFFFFFC00003FFE00001FFFFC00003FFE000
310
01FFFF0003FFFFFFFFF8000FFFF80003F000F00003FFC00007FC0007FFF80000
310
7FFF8001FF80007FF00007FF80000FFF00007FF80000FFF8000001FFFE000000
310
7F80000000000001FFE000003E000003FFFFE000003E000003FFFF0003FFFFFF
310
FFF80003FFE00007F000F800000000000FFC0007FFF800007FFF8001FF80007F
310
F000000000000FFF000000000000FFF8000001FFFE0000007F80000000000001
310
FFF0000000000007FFFFF0000000000007FFFF0003FFFFFFFFFC00007E000007
310
F000F800000000000FFC0007FFF80000FFFF8000FF80007FF800000000001FFF
310
800000000001FFF8000001FFFE0000007F80000000000001FFF800000000000F
310
FFFFF800000000000FFFFF0003FFFFFFFFFC00000000000FF000FC0000000000
310
1FFC0007FFFC0000FFFF8000FF80007FF800000000003FFFC00000000001FFF8
310
000001FFFE0000007F80000000000001FFF800000000000FFFFFF80000000000
310
0FFFFF0003FFFFFFFFFE00000000001FF000FE00000000003FF8000FFFFC0000
310
FFFF8000FF80007FFC00000000003FFFC00000000003FFF8000001FFFE000000
310
7F80000000000001FFFC00000000001FFFFFFC00000000001FFFFF0003FFFFFF
310
FFFF00000000001FF000FF00000000003FF8000FFFFC0000FFFFC000FF80007F
310
FE00000000007FFFE00000000007FFF8000001FFFE0000007F80000000000001
310
FFFE00000000003FFFFFFE00000000003FFFFF0003FFFFFFFFFF80000000003F
310
F000FF80000000007FF8000FFFFC0001FFFFC0007F80007FFF0000000000FFFF
310
F0000000000FFFF800000000000000007F80000000000001FFFF8000000000FF
310
FFFFFF8000000000FFFFFF0003FFFFFFFFFFC0000000007FF000FFC000000000
310
FFF8000FFFFE0001FFFFC0007F80007FFF8000000001FFFFF8000000001FFFF8
310
00000000000000007F80000000000001FFFFC000000001FFFFFFFFC000000001
310
FFFFFF0003FFFFFFFFFFE000000000FFF000FFE000000003FFF0001FFFFE0001
310
FFFFC0007F80007FFFC000000007FFFFFE000000003FFFF80000000000000000
310
7F80000000000001FFFFE000000003FFFFFFFFE000000003FFFFFF0003FFFFFF
310
FFFFF000000003FFF000FFF80000000FFFF0001FFFFE0001FFFFE0007F80007F
310
FFF00000000FFFFFFF00000000FFFFF800000000000000007F80000000000001
310
FFFFF80000000FFFFFFFFFF80000000FFFFFFF0003FFFFFFFFFFFC0000000FFF
310
F000FFFE0000003FFFF0001FFFFE0003FFFFE0003F80007FFFFC0000003FFFFF
310
FFC0000003FFFFF800000000000000007F80000000000001FFFFFE0000003FFF
310
FFFFFFFE0000003FFFFFFF0003FFFFFFFFFFFF0000003FFFF000FFFF800000FF
310
FFF0001FFFFF0003FFFFE0003F80007FFFFF000001FFFFFFFFF800001FFFFFF8
310
00000000000000007F80000000000001FFFFFFC00001FFFFFFFFFFFFC00001FF
310
FFFFFF0003FFFFFFFFFFFFC00000FFFFF000FFFFF8000FFFFFFFFFFFFFFFFFFF
310
FFFFFFFFFFFFFFFFFFFFF0001FFFFFFFFFFF0000FFFFFFF80000000000000000
310
7FFFFFFFFFFFFFFFFFFFFFFC001FFFFFFFFFFFFFFC001FFFFFFFFFFFFFFFFFFF
310
FFFFFFFC001FFFFFF000FFFFFFFFFFFFFFFFFFFFFFFFFFFFFFFFFFFFFFFFFFFF
310
FFFFFFFFFFFFFFFFFFFFFFFFFFFFFFFFFFFFFFFFFFFFFFFFFFFFFFFFFFFFFFFF
310
FFFFFFFFFFFFFFFFFFFFFFFFFFFFFFFFFFFFFFFFFFFFFFFFFFFFFFFFFFFFFFFF
310
F000FFFFFFFFFFFFFFFFFFFFFFFFFFFFFFFFFFFFFFFFFFFFFFFFFFFFFFFFFFFF
310
FFFFFFFFFFFFFFFFFFFFFFFFFFFFFFFFFFFFFFFFFFFFFFFFFFFFFFFFFFFFFFFF
310
FFFFFFFFFFFFFFFFFFFFFFFFFFFFFFFFFFFFFFFFFFFFFFFFF000FFFFFFFFFFFF
310
FFFFFFFFFFFFFFFFFFFFFFFFFFFFFFFFFFFFFFFFFFFFFFFFFFFFFFFFFFFFFFFF
310
FFFFFFFFFFFFFFFFFFFFFFFFFFFFFFFFFFFFFFFFFFFFFFFFFFFFFFFFFFFFFFFF
310
FFFFFFFFFFFFFFFFFFFFFFFFFFFFFFFFF000FFFFFFFFFFFFFFFFFFFFFFFFFFFF
310
FFFFFFFFFFFFFFFFFFFFFFFFFFFFFFFFFFFFFFFFFFFFFFFFFFFFFFFFFFFFFFFF
310
FFFFFFFFFFFFFFFFFFFFFFFFFFFFFFFFFFFFFFFFFFFFFFFFFFFFFFFFFFFFFFFF
310
FFFFFFFFFFFFFFFFF000FFFFFFFFFFFFFFFFFFFFFFFFFFFFFFFFFFFFFFFFFFFF
310
FFFFFFFFFFFFFFFFFFFFFFFFFFFFFFFFFFFFFFFFFFFFFFFFFFFFFFFFFFFFFFFF
310
FFFFFFFFFFFFFFFFFFFFFFFFFFFFFFFFFFFFFFFFFFFFFFFFFFFFFFFFFFFFFFFF
310
F000FFFFFFFFFFFFFFFFFFFFFFFFFFFFFFFFFFFFFFFFFFFFFFFFFFFFFFFFFFFF
310
FFFFFFFFFFFFFFFFFFFFFFFFFFFFFFFFFFFFFFFFFFFFFFFFFFFFFFFFFFFFFFFF
310
FFFFFFFFFFFFFFFFFFFFFFFFFFFFFFFFFFFFFFFFFFFFFFFFF000FFFFFFFFFFFF
310
FFFFFFFFFFFFFFFFFFFFFFFFFFFFFFFFFFFFFFFFFFFFFFFFFFFFFFFFFFFFFFFF
310
FFFFFFFFFFFFFFFFFFFFFFFFFFFFFFFFFFFFFFFFFFFFFFFFFFFFFFFFFFFFFFFF
310
FFFFFFFFFFFFFFFFFFFFFFFFFFFFFFFFF000FFFFFFFFFFFFFFFFFFFFFFFFFFFF
310
FFFFFFFFFFFFFFFFFFFFFFFFFFFFFFFFFFFFFFFFFFFFFFFFFFFFFFFFFFFFFFFF
310
FFFFFFFFFFFFFFFFFFFFFFFFFFFFFFFFFFFFFFFFFFFFFFFFFFFFFFFFFFFFFFFF
310
FFFFFFFFFFFFFFFFF000FFFFFFFFFFFFFFFFFFFFFFFFFFFFFFFFFFFFFFFFFFFF
310
FFFFFFFFFFFFFFFFFFFFFFFFFFFFFFFFFFFFFFFFFFFFFFFFFFFFFFFFFFFFFFFF
310
FFFFFFFFFFFFFFFFFFFFFFFFFFFFFFFFFFFFFFFFFFFFFFFFFFFFFFFFFFFFFFFF
310
F000FFFFFFFFFFFFFFFFFFFFFFFFFFFFFFFFFFFFFFFFFFFFFFFFFFFFFFFFFFFF
310
FFFFFFFFFFFFFFFFFFFFFFFFFFFFFFFFFFFFFFFFFFFFFFFFFFFFFFFFFFFFFFFF
310
FFFFFFFFFFFFFFFFFFFFFFFFFFFFFFFFFFFFFFFFFFFFFFFFF000FFFFFFFFFFFF
310
FFFFFFFFFFFFFFFFFFFFFFFFFFFFFFFFFFFFFFFFFFFFFFFFFFFFFFFFFFFFFFFF
310
FFFFFFFFFFFFFFFFFFFFFFFFFFFFFFFFFFFFFFFFFFFFFFFFFFFFFFFFFFFFFFFF
310
FFFFFFFFFFFFFFFFFFFFFFFFFFFFFFFFF000FFFFFFFFFFFFFFFFFFFFFFFFFFFF
310
FFFFFFFFFFFFFFFFFFFFFFFFFFFFFFFFFFFFFFFFFFFFFFFFFFFFFFFFFFFFFFFF
310
FFFFFFFFFFFFFFFFFFFFFFFFFFFFFFFFFFFFFFFFFFFFFFFFFFFFFFFFFFFFFFFF
310
FFFFFFFFFFFFFFFFF000FFFFFFFFFFFFFFFFFFFFFFFFFFFFFFFFFFFFFFFFFFFF
310
FFFFFFFFFFFFFFFFFFFFFFFFFFFFFFFFFFFFFFFFFFFFFFFFFFFFFFFFFFFFFFFF
310
FFFFFFFFFFFFFFFFFFFFFFFFFFFFFFFFFFFFFFFFFFFFFFFFFFFFFFFFFFFFFFFF
310
F000FFFFFFFFFFFFFFFFFFFFFFFFFFFFFFFFFFFFFFFFFFFFFFFFFFFFFFFFFFFF
310
FFFFFFFFFFFFFFFFFFFFFFFFFFFFFFFFFFFFFFFFFFFFFFFFFFFFFFFFFFFFFFFF
310
FFFFFFFFFFFFFFFFFFFFFFFFFFFFFFFFFFFFFFFFFFFFFFFFF000FFFFFFFFFFFF
310
FFFFFFFFFFFFFFFFFFFFFFFFFFFFFFFFFFFFFFFFFFFFFFFFFFFFFFFFFFFFFFFF
310
FFFFFFFFFFFFFFFFFFFFFFFFFFFFFFFFFFFFFFFFFFFFFFFFFFFFFFFFFFFFFFFF
310
FFFFFFFFFFFFFFFFFFFFFFFFFFFFFFFFF000FFFFFFFFFFFFFFFFFFFFFFFFFFFF
310
FFFFFFFFFFFFFFFFFFFFFFFFFFFFFFFFFFFFFFFFFFFFFFFFFFFFFFFFFFFFFFFF
310
FFFFFFFFFFFFFFFFFFFFFFFFFFFFFFFFFFFFFFFFFFFFFFFFFFFFFFFFFFFFFFFF
310
FFFFFFFFFFFFFFFFF000FFFFFFFFFFFFFFFFFFFFFFFFFFFFFFFFFFFFFFFFFFFF
310
FFFFFFFFFFFFFFFFFFFFFFFFFFFFFFFFFFFFFFFFFFFFFFFFFFFFFFFFFFFFFFFF
310
FFFFFFFFFFFFFFFFFFFFFFFFFFFFFFFFFFFFFFFFFFFFFFFFFFFFFFFFFFFFFFFF
310
F000FFFFFFFFFFFFFFFFFFFFFFFFFFFFFFFFFFFFFFFFFFFFFFFFFFFFFFFFFFFF
310
FFFFFFFFFFFFFFFFFFFFFFFFFFFFFFFFFFFFFFFFFFFFFFFFFFFFFFFFFFFFFFFF
310
FFFFFFFFFFFFFFFFFFFFFFFFFFFFFFFFFFFFFFFFFFFFFFFFF000FFFFFFFFFFFF
310
FFFFFFFFFFFFFFFFFFFFFFFFFFFFFFFFFFFFFFFFFFFFFFFFFFFFFFFFFFFFFFFF
310
FFFFFFFFFFFFFFFFFFFFFFFFFFFFFFFFFFFFFFFFFFFFFFFFFFFFFFFFFFFFFFFF
310
FFFFFFFFFFFFFFFFFFFFFFFFFFFFFFFFF000FFFFFFFFFFFFFFFFFFFFFFFFFFFF
310
FFFFFFFFFFFFFFFFFFFFFFFFFFFFFFFFFFFFFFFFFFFFFFFFFFFFFFFFFFFFFFFF
310
FFFFFFFFFFFFFFFFFFFFFFFFFFFFFFFFFFFFFFFFFFFFFFFFFFFFFFFFFFFFFFFF
310
FFFFFFFFFFFFFFFFF000FFFFFFFFFFFFFFFFFFFFFFFFFFFFFFFFFFFFFFFFFFFF
310
FFFFFFFFFFFFFFFFFFFFFFFFFFFFFFFFFFFFFFFFFFFFFFFFFFFFFFFFFFFFFFFF
310
FFFFFFFFFFFFFFFFFFFFFFFFFFFFFFFFFFFFFFFFFFFFFFFFFFFFFFFFFFFFFFFF
310
F000FFFFFFFFFFFFFFFFFFFFFFFFFFFFFFFFFFFFFFFFFFFFFFFFFFFFFFFFFFFF
310
FFFFFFFFFFFFFFFFFFFFFFFFFFFFFFFFFFFFFFFFFFFFFFFFFFFFFFFFFFFFFFFF
310
FFFFFFFFFFFFFFFFFFFFFFFFFFFFFFFFFFFFFFFFFFFFFFFFF000FFFFFFFFFFFF
310
FFFFFFFFFFFFFFFFFFFFFFFFFFFFFFFFFFFFFFFFFFFFFFFFFFFFFFFFFFFFFFFF
310
FFFFFFFFFFFFFFFFFFFFFFFFFFFFFFFFFFFFFFFFFFFFFFFFFFFFFFFFFFFFFFFF
310
FFFFFFFFFFFFFFFFFFFFFFFFFFFFFFFFF0000000000000000000000000000000
310
0000000000000000000000000000000000000000000000000000000000000000
310
0000000000000000000000000000000000000000000000000000000000000000
310
0000000000000000000000000000000000000000000000000000000000000000
310
0000000000000000000000000000000000000000000000000000000000000000
310
0000000000000000000000000000000000000000000000000000000000000000
310
0000000000000000000000000000000000000000000000000000000000000000
310
0000000000000000000000000000000000000000000000000000000000000000
310
0000000000000000000000000000000000000000000000000000000000000000
310
0000000000000000000000000000000000000000000000000000000000000000
310
0000000000000000000000000000000000000000000000000000000000000000
310
0000000000000000000000000000000000000000000000000000000000000000
310
0000000000000000000000000000000000000000000000000000000000000000
310
0000000000000000000000000000000000000000000000000000000000000000
310
0000000000000000000000000000000000000000000000000000000000000000
310
0000000000000000000000000000000000000000000000000000000000000000
  1
OLE
  0
ENDSEC
  0
SECTION
  2
OBJECTS
  0
DICTIONARY
  5
C
330
0
100
AcDbDictionary
281
     1
  3
ACAD_GROUP
350
D
  3
ACAD_LAYOUT
350
1A
  3
ACAD_MLINESTYLE
350
17
  3
ACAD_PLOTSETTINGS
350
19
  3
ACAD_PLOTSTYLENAME
350
E
  3
ACAD_SCALELIST
350
47
  0
DICTIONARY
  5
D
102
{ACAD_REACTORS
330
C
102
}
330
C
100
AcDbDictionary
281
     1
  0
DICTIONARY
  5
1A
102
{ACAD_REACTORS
330
C
102
}
330
C
100
AcDbDictionary
281
     1
  3
Layout1
350
1E
  3
Layout2
350
26
  3
Model
350
22
  0
DICTIONARY
  5
17
102
{ACAD_REACTORS
330
C
102
}
330
C
100
AcDbDictionary
281
     1
  3
Standard
350
18
  0
DICTIONARY
  5
19
102
{ACAD_REACTORS
330
C
102
}
330
C
100
AcDbDictionary
281
     1
  0
ACDBDICTIONARYWDFLT
  5
E
102
{ACAD_REACTORS
330
C
102
}
330
C
100
AcDbDictionary
281
     1
  3
Normal
350
F
100
AcDbDictionaryWithDefault
340
F
  0
DICTIONARY
  5
47
102
{ACAD_REACTORS
330
C
102
}
330
C
100
AcDbDictionary
281
     1
  3
A0
350
48
  3
A1
350
49
  3
A2
350
4A
  3
A3
350
4B
  3
A4
350
4C
  3
A5
350
4D
  3
A6
350
4E
  3
A7
350
4F
  3
A8
350
50
  3
A9
350
51
  3
B0
350
52
  3
B1
350
53
  3
B2
350
54
  3
B3
350
55
  3
B4
350
56
  3
B5
350
57
  3
B6
350
58
  3
B7
350
59
  3
B8
350
5A
  3
B9
350
5B
  3
C0
350
5C
  3
C1
350
5D
  3
C2
350
5E
  3
C3
350
5F
  3
C4
350
60
  3
C5
350
61
  3
C6
350
62
  3
C7
350
63
  3
C8
350
64
  3
C9
350
65
  3
D0
350
66
  3
D1
350
67
  3
D2
350
68
  0
LAYOUT
  5
1E
102
{ACAD_REACTORS
330
1A
102
}
330
1A
100
AcDbPlotSettings
  1

  2
none_device
  4

  6

 40
0.0
 41
0.0
 42
0.0
 43
0.0
 44
0.0
 45
0.0
 46
0.0
 47
0.0
 48
0.0
 49
0.0
140
0.0
141
0.0
142
1.0
143
1.0
 70
   688
 72
     1
 73
     0
 74
     5
  7

 75
    16
147
1.0
148
0.0
149
0.0
100
AcDbLayout
  1
Layout1
 70
     1
 71
     1
 10
0.0
 20
0.0
 11
420.0
 21
297.0
 12
0.0
 22
0.0
 32
0.0
 14
1.0000000000E+20
 24
1.0000000000E+20
 34
1.0000000000E+20
 15
-1.0000000000E+20
 25
-1.0000000000E+20
 35
-1.0000000000E+20
146
0.0
 13
0.0
 23
0.0
 33
0.0
 16
1.0
 26
0.0
 36
0.0
 17
0.0
 27
1.0
 37
0.0
 76
     0
330
1B
  0
LAYOUT
  5
26
102
{ACAD_REACTORS
330
1A
102
}
330
1A
100
AcDbPlotSettings
  1

  2
none_device
  4

  6

 40
0.0
 41
0.0
 42
0.0
 43
0.0
 44
0.0
 45
0.0
 46
0.0
 47
0.0
 48
0.0
 49
0.0
140
0.0
141
0.0
142
1.0
143
1.0
 70
   688
 72
     1
 73
     0
 74
     5
  7

 75
    16
147
1.0
148
0.0
149
0.0
100
AcDbLayout
  1
Layout2
 70
     1
 71
     2
 10
0.0
 20
0.0
 11
0.0
 21
0.0
 12
0.0
 22
0.0
 32
0.0
 14
0.0
 24
0.0
 34
0.0
 15
0.0
 25
0.0
 35
0.0
146
0.0
 13
0.0
 23
0.0
 33
0.0
 16
1.0
 26
0.0
 36
0.0
 17
0.0
 27
1.0
 37
0.0
 76
     0
330
23
  0
LAYOUT
  5
22
102
{ACAD_REACTORS
330
1A
102
}
330
1A
100
AcDbPlotSettings
  1

  2
none_device
  4
Letter_(8.50_x_11.00_Inches)
  6

 40
6.35
 41
6.35
 42
6.35000508
 43
6.35000508
 44
215.9
 45
279.4
 46
0.0
 47
0.0
 48
0.0
 49
0.0
140
0.0
141
0.0
142
1.0
143
1.0
 70
  1712
 72
     1
 73
     0
 74
     0
  7

 75
     0
147
1.0
148
0.0
149
0.0
100
AcDbLayout
  1
Model
 70
     1
 71
     0
 10
0.0
 20
0.0
 11
297.0
 21
210.0
 12
0.0
 22
0.0
 32
0.0
 14
0.0
 24
0.0
 34
0.0
 15
297.0
 25
210.0
 35
0.0
146
0.0
 13
0.0
 23
0.0
 33
0.0
 16
1.0
 26
0.0
 36
0.0
 17
0.0
 27
1.0
 37
0.0
 76
     0
330
1F
331
29
  0
MLINESTYLE
  5
18
102
{ACAD_REACTORS
330
17
102
}
330
17
100
AcDbMlineStyle
  2
Standard
 70
     0
  3

 62
   256
 51
90.0
 52
90.0
 71
     2
 49
0.5
 62
   256
  6
BYLAYER
 49
-0.5
 62
   256
  6
BYLAYER
  0
ACDBPLACEHOLDER
  5
F
102
{ACAD_REACTORS
330
E
102
}
330
E
  0
SCALE
  5
48
102
{ACAD_REACTORS
330
47
102
}
330
47
100
AcDbScale
 70
     0
300
1:1
140
1.0
141
1.0
290
     1
  0
SCALE
  5
49
102
{ACAD_REACTORS
330
47
102
}
330
47
100
AcDbScale
 70
     0
300
1:2
140
1.0
141
2.0
290
     0
  0
SCALE
  5
4A
102
{ACAD_REACTORS
330
47
102
}
330
47
100
AcDbScale
 70
     0
300
1:4
140
1.0
141
4.0
290
     0
  0
SCALE
  5
4B
102
{ACAD_REACTORS
330
47
102
}
330
47
100
AcDbScale
 70
     0
300
1:5
140
1.0
141
5.0
290
     0
  0
SCALE
  5
4C
102
{ACAD_REACTORS
330
47
102
}
330
47
100
AcDbScale
 70
     0
300
1:8
140
1.0
141
8.0
290
     0
  0
SCALE
  5
4D
102
{ACAD_REACTORS
330
47
102
}
330
47
100
AcDbScale
 70
     0
300
1:10
140
1.0
141
10.0
290
     0
  0
SCALE
  5
4E
102
{ACAD_REACTORS
330
47
102
}
330
47
100
AcDbScale
 70
     0
300
1:16
140
1.0
141
16.0
290
     0
  0
SCALE
  5
4F
102
{ACAD_REACTORS
330
47
102
}
330
47
100
AcDbScale
 70
     0
300
1:20
140
1.0
141
20.0
290
     0
  0
SCALE
  5
50
102
{ACAD_REACTORS
330
47
102
}
330
47
100
AcDbScale
 70
     0
300
1:30
140
1.0
141
30.0
290
     0
  0
SCALE
  5
51
102
{ACAD_REACTORS
330
47
102
}
330
47
100
AcDbScale
 70
     0
300
1:40
140
1.0
141
40.0
290
     0
  0
SCALE
  5
52
102
{ACAD_REACTORS
330
47
102
}
330
47
100
AcDbScale
 70
     0
300
1:50
140
1.0
141
50.0
290
     0
  0
SCALE
  5
53
102
{ACAD_REACTORS
330
47
102
}
330
47
100
AcDbScale
 70
     0
300
1:100
140
1.0
141
100.0
290
     0
  0
SCALE
  5
54
102
{ACAD_REACTORS
330
47
102
}
330
47
100
AcDbScale
 70
     0
300
2:1
140
2.0
141
1.0
290
     0
  0
SCALE
  5
55
102
{ACAD_REACTORS
330
47
102
}
330
47
100
AcDbScale
 70
     0
300
4:1
140
4.0
141
1.0
290
     0
  0
SCALE
  5
56
102
{ACAD_REACTORS
330
47
102
}
330
47
100
AcDbScale
 70
     0
300
8:1
140
8.0
141
1.0
290
     0
  0
SCALE
  5
57
102
{ACAD_REACTORS
330
47
102
}
330
47
100
AcDbScale
 70
     0
300
10:1
140
10.0
141
1.0
290
     0
  0
SCALE
  5
58
102
{ACAD_REACTORS
330
47
102
}
330
47
100
AcDbScale
 70
     0
300
100:1
140
100.0
141
1.0
290
     0
  0
SCALE
  5
59
102
{ACAD_REACTORS
330
47
102
}
330
47
100
AcDbScale
 70
     0
300
1/128" = 1'-0"
140
0.0078125
141
12.0
290
     0
  0
SCALE
  5
5A
102
{ACAD_REACTORS
330
47
102
}
330
47
100
AcDbScale
 70
     0
300
1/64" = 1'-0"
140
0.015625
141
12.0
290
     0
  0
SCALE
  5
5B
102
{ACAD_REACTORS
330
47
102
}
330
47
100
AcDbScale
 70
     0
300
1/32" = 1'-0"
140
0.03125
141
12.0
290
     0
  0
SCALE
  5
5C
102
{ACAD_REACTORS
330
47
102
}
330
47
100
AcDbScale
 70
     0
300
1/16" = 1'-0"
140
0.0625
141
12.0
290
     0
  0
SCALE
  5
5D
102
{ACAD_REACTORS
330
47
102
}
330
47
100
AcDbScale
 70
     0
300
3/32" = 1'-0"
140
0.09375
141
12.0
290
     0
  0
SCALE
  5
5E
102
{ACAD_REACTORS
330
47
102
}
330
47
100
AcDbScale
 70
     0
300
1/8" = 1'-0"
140
0.125
141
12.0
290
     0
  0
SCALE
  5
5F
102
{ACAD_REACTORS
330
47
102
}
330
47
100
AcDbScale
 70
     0
300
3/16" = 1'-0"
140
0.1875
141
12.0
290
     0
  0
SCALE
  5
60
102
{ACAD_REACTORS
330
47
102
}
330
47
100
AcDbScale
 70
     0
300
1/4" = 1'-0"
140
0.25
141
12.0
290
     0
  0
SCALE
  5
61
102
{ACAD_REACTORS
330
47
102
}
330
47
100
AcDbScale
 70
     0
300
3/8" = 1'-0"
140
0.375
141
12.0
290
     0
  0
SCALE
  5
62
102
{ACAD_REACTORS
330
47
102
}
330
47
100
AcDbScale
 70
     0
300
1/2" = 1'-0"
140
0.5
141
12.0
290
     0
  0
SCALE
  5
63
102
{ACAD_REACTORS
330
47
102
}
330
47
100
AcDbScale
 70
     0
300
3/4" = 1'-0"
140
0.75
141
12.0
290
     0
  0
SCALE
  5
64
102
{ACAD_REACTORS
330
47
102
}
330
47
100
AcDbScale
 70
     0
300
1" = 1'-0"
140
1.0
141
12.0
290
     0
  0
SCALE
  5
65
102
{ACAD_REACTORS
330
47
102
}
330
47
100
AcDbScale
 70
     0
300
1-1/2" = 1'-0"
140
1.5
141
12.0
290
     0
  0
SCALE
  5
66
102
{ACAD_REACTORS
330
47
102
}
330
47
100
AcDbScale
 70
     0
300
3" = 1'-0"
140
3.0
141
12.0
290
     0
  0
SCALE
  5
67
102
{ACAD_REACTORS
330
47
102
}
330
47
100
AcDbScale
 70
     0
300
6" = 1'-0"
140
6.0
141
12.0
290
     0
  0
SCALE
  5
68
102
{ACAD_REACTORS
330
47
102
}
330
47
100
AcDbScale
 70
     0
300
1'-0" = 1'-0"
140
12.0
141
12.0
290
     0
  0
ENDSEC
  0
EOF
