  0
SECTION
  2
HEADER
  9
$ACADVER
  1
AC1015
  9
$ACADMAINTVER
 70
     6
  9
$DWGCODEPAGE
  3
ANSI_1252
  9
$INSBASE
 10
0.0
 20
0.0
 30
0.0
  9
$EXTMIN
 10
0.0
 20
0.0
 30
0.0
  9
$EXTMAX
 10
297.0
 20
210.0
 30
0.0
  9
$LIMMIN
 10
0.0
 20
0.0
  9
$LIMMAX
 10
297.0
 20
210.0
  9
$ORTHOMODE
 70
     0
  9
$REGENMODE
 70
     1
  9
$FILLMODE
 70
     1
  9
$QTEXTMODE
 70
     0
  9
$MIRRTEXT
 70
     1
  9
$LTSCALE
 40
1.0
  9
$ATTMODE
 70
     1
  9
$TEXTSIZE
 40
2.0
  9
$TRACEWID
 40
1.0
  9
$TEXTSTYLE
  7
Standard
  9
$CLAYER
  8
0
  9
$CELTYPE
  6
ByLayer
  9
$CECOLOR
 62
   256
  9
$CELTSCALE
 40
1.0
  9
$DISPSILH
 70
     0
  9
$DIMSCALE
 40
1.0
  9
$DIMASZ
 40
3.0
  9
$DIMEXO
 40
0.0
  9
$DIMDLI
 40
3.75
  9
$DIMRND
 40
0.0
  9
$DIMDLE
 40
0.0
  9
$DIMEXE
 40
1.0
  9
$DIMTP
 40
0.0
  9
$DIMTM
 40
0.0
  9
$DIMTXT
 40
2.0
  9
$DIMCEN
 40
2.5
  9
$DIMTSZ
 40
0.0
  9
$DIMTOL
 70
     0
  9
$DIMLIM
 70
     0
  9
$DIMTIH
 70
     1
  9
$DIMTOH
 70
     1
  9
$DIMSE1
 70
     0
  9
$DIMSE2
 70
     0
  9
$DIMTAD
 70
     1
  9
$DIMZIN
 70
     0
  9
$DIMBLK
  1

  9
$DIMASO
 70
     1
  9
$DIMSHO
 70
     1
  9
$DIMPOST
  1

  9
$DIMAPOST
  1

  9
$DIMALT
 70
     0
  9
$DIMALTD
 70
     3
  9
$DIMALTF
 40
0.0393700787
  9
$DIMLFAC
 40
2.0
  9
$DIMTOFL
 70
     1
  9
$DIMTVP
 40
0.0
  9
$DIMTIX
 70
     0
  9
$DIMSOXD
 70
     0
  9
$DIMSAH
 70
     0
  9
$DIMBLK1
  1

  9
$DIMBLK2
  1

  9
$DIMSTYLE
  2
ISO-25
  9
$DIMCLRD
 70
     0
  9
$DIMCLRE
 70
     0
  9
$DIMCLRT
 70
     0
  9
$DIMTFAC
 40
1.0
  9
$DIMGAP
 40
1.524
  9
$DIMJUST
 70
     0
  9
$DIMSD1
 70
     0
  9
$DIMSD2
 70
     0
  9
$DIMTOLJ
 70
     0
  9
$DIMTZIN
 70
     0
  9
$DIMALTZ
 70
     0
  9
$DIMALTTZ
 70
     0
  9
$DIMUPT
 70
     0
  9
$DIMDEC
 70
     2
  9
$DIMTDEC
 70
     3
  9
$DIMALTU
 70
     2
  9
$DIMALTTD
 70
     3
  9
$DIMTXSTY
  7
Standard
  9
$DIMAUNIT
 70
     0
  9
$DIMADEC
 70
     2
  9
$DIMALTRND
 40
0.0
  9
$DIMAZIN
 70
     0
  9
$DIMDSEP
 70
    44
  9
$DIMATFIT
 70
     3
  9
$DIMFRAC
 70
     0
  9
$DIMLDRBLK
  1

  9
$DIMLUNIT
 70
     2
  9
$DIMLWD
 70
    -2
  9
$DIMLWE
 70
    -2
  9
$DIMTMOVE
 70
     0
  9
$LUNITS
 70
     2
  9
$LUPREC
 70
     2
  9
$SKETCHINC
 40
1.0
  9
$FILLETRAD
 40
10.0
  9
$AUNITS
 70
     0
  9
$AUPREC
 70
     2
  9
$MENU
  1
.
  9
$ELEVATION
 40
0.0
  9
$PELEVATION
 40
0.0
  9
$THICKNESS
 40
0.0
  9
$LIMCHECK
 70
     0
  9
$CHAMFERA
 40
0.0
  9
$CHAMFERB
 40
0.0
  9
$CHAMFERC
 40
0.0
  9
$CHAMFERD
 40
0.0
  9
$SKPOLY
 70
     0
  9
$TDCREATE
 40
2457674.672122176
  9
$TDUCREATE
 40
2457674.588788843
  9
$TDUPDATE
 40
2457674.672123611
  9
$TDUUPDATE
 40
2457674.588790278
  9
$TDINDWG
 40
0.0000000116
  9
$TDUSRTIMER
 40
0.0000000116
  9
$USRTIMER
 70
     1
  9
$ANGBASE
 50
0.0
  9
$ANGDIR
 70
     0
  9
$PDMODE
 70
     0
  9
$PDSIZE
 40
-1.0
  9
$PLINEWID
 40
0.0
  9
$SPLFRAME
 70
     0
  9
$SPLINETYPE
 70
     6
  9
$SPLINESEGS
 70
     8
  9
$HANDSEED
  5
2D0
  9
$SURFTAB1
 70
     6
  9
$SURFTAB2
 70
     6
  9
$SURFTYPE
 70
     6
  9
$SURFU
 70
     6
  9
$SURFV
 70
     6
  9
$UCSBASE
  2

  9
$UCSNAME
  2

  9
$UCSORG
 10
0.0
 20
0.0
 30
0.0
  9
$UCSXDIR
 10
1.0
 20
0.0
 30
0.0
  9
$UCSYDIR
 10
0.0
 20
1.0
 30
0.0
  9
$UCSORTHOREF
  2

  9
$UCSORTHOVIEW
 70
     0
  9
$UCSORGTOP
 10
0.0
 20
0.0
 30
0.0
  9
$UCSORGBOTTOM
 10
0.0
 20
0.0
 30
0.0
  9
$UCSORGLEFT
 10
0.0
 20
0.0
 30
0.0
  9
$UCSORGRIGHT
 10
0.0
 20
0.0
 30
0.0
  9
$UCSORGFRONT
 10
0.0
 20
0.0
 30
0.0
  9
$UCSORGBACK
 10
0.0
 20
0.0
 30
0.0
  9
$PUCSBASE
  2

  9
$PUCSNAME
  2

  9
$PUCSORG
 10
0.0
 20
0.0
 30
0.0
  9
$PUCSXDIR
 10
1.0
 20
0.0
 30
0.0
  9
$PUCSYDIR
 10
0.0
 20
1.0
 30
0.0
  9
$PUCSORTHOREF
  2

  9
$PUCSORTHOVIEW
 70
     0
  9
$PUCSORGTOP
 10
0.0
 20
0.0
 30
0.0
  9
$PUCSORGBOTTOM
 10
0.0
 20
0.0
 30
0.0
  9
$PUCSORGLEFT
 10
0.0
 20
0.0
 30
0.0
  9
$PUCSORGRIGHT
 10
0.0
 20
0.0
 30
0.0
  9
$PUCSORGFRONT
 10
0.0
 20
0.0
 30
0.0
  9
$PUCSORGBACK
 10
0.0
 20
0.0
 30
0.0
  9
$USERI1
 70
     0
  9
$USERI2
 70
     0
  9
$USERI3
 70
     0
  9
$USERI4
 70
     0
  9
$USERI5
 70
     0
  9
$USERR1
 40
0.0
  9
$USERR2
 40
0.0
  9
$USERR3
 40
0.0
  9
$USERR4
 40
0.0
  9
$USERR5
 40
0.0
  9
$WORLDVIEW
 70
     1
  9
$SHADEDGE
 70
     3
  9
$SHADEDIF
 70
    70
  9
$TILEMODE
 70
     1
  9
$MAXACTVP
 70
    64
  9
$PINSBASE
 10
0.0
 20
0.0
 30
0.0
  9
$PLIMCHECK
 70
     0
  9
$PEXTMIN
 10
1.0000000000E+20
 20
1.0000000000E+20
 30
1.0000000000E+20
  9
$PEXTMAX
 10
-1.0000000000E+20
 20
-1.0000000000E+20
 30
-1.0000000000E+20
  9
$PLIMMIN
 10
0.0
 20
0.0
  9
$PLIMMAX
 10
420.0
 20
297.0
  9
$UNITMODE
 70
     0
  9
$VISRETAIN
 70
     1
  9
$PLINEGEN
 70
     0
  9
$PSLTSCALE
 70
     1
  9
$TREEDEPTH
 70
  3020
  9
$CMLSTYLE
  2
Standard
  9
$CMLJUST
 70
     0
  9
$CMLSCALE
 40
20.0
  9
$PROXYGRAPHICS
 70
     1
  9
$MEASUREMENT
 70
     1
  9
$CELWEIGHT
370
    -1
  9
$ENDCAPS
280
     0
  9
$JOINSTYLE
280
     0
  9
$LWDISPLAY
290
     1
  9
$INSUNITS
 70
     4
  9
$HYPERLINKBASE
  1

  9
$STYLESHEET
  1

  9
$XEDIT
290
     1
  9
$CEPSNTYPE
380
     0
  9
$PSTYLEMODE
290
     1
  9
$FINGERPRINTGUID
  2
{7C6DBF5B-299C-4668-9757-D849896D5AEC}
  9
$VERSIONGUID
  2
{FAEB1C32-E019-11D5-929B-00C0DF256EC4}
  9
$EXTNAMES
290
     1
  9
$PSVPSCALE
 40
0.0
  9
$OLESTARTUP
290
     0
  0
ENDSEC
  0
SECTION
  2
CLASSES
  0
CLASS
  1
ACDBDICTIONARYWDFLT
  2
AcDbDictionaryWithDefault
  3
ObjectDBX Classes
 90
        0
280
     0
281
     0
  0
CLASS
  1
VISUALSTYLE
  2
AcDbVisualStyle
  3
ObjectDBX Classes
 90
     4095
280
     0
281
     0
  0
CLASS
  1
MATERIAL
  2
AcDbMaterial
  3
ObjectDBX Classes
 90
     1153
280
     0
281
     0
  0
CLASS
  1
SCALE
  2
AcDbScale
  3
ObjectDBX Classes
 90
     1153
280
     0
281
     0
  0
CLASS
  1
TABLESTYLE
  2
AcDbTableStyle
  3
ObjectDBX Classes
 90
     4095
280
     0
281
     0
  0
CLASS
  1
MLEADERSTYLE
  2
AcDbMLeaderStyle
  3
ACDB_MLEADERSTYLE_CLASS
 90
     4095
280
     0
281
     0
  0
CLASS
  1
SUN
  2
AcDbSun
  3
SCENEOE
 90
     1153
280
     0
281
     0
  0
CLASS
  1
ACDBPLACEHOLDER
  2
AcDbPlaceHolder
  3
ObjectDBX Classes
 90
        0
280
     0
281
     0
  0
CLASS
  1
LAYOUT
  2
AcDbLayout
  3
ObjectDBX Classes
 90
        0
280
     0
281
     0
  0
ENDSEC
  0
SECTION
  2
TABLES
  0
TABLE
  2
VPORT
  5
8
330
0
100
AcDbSymbolTable
 70
     1
  0
VPORT
  5
29
330
8
100
AcDbSymbolTableRecord
100
AcDbViewportTableRecord
  2
*Active
 70
     0
 10
0.0
 20
0.0
 11
1.0
 21
1.0
 12
148.5
 22
105.0
 13
0.0
 23
0.0
 14
10.0
 24
10.0
 15
10.0
 25
10.0
 16
0.0
 26
0.0
 36
1.0
 17
0.0
 27
0.0
 37
0.0
 40
210.0
 41
1.4142857143
 42
50.0
 43
0.0
 44
0.0
 50
0.0
 51
0.0
 71
     0
 72
  2000
 73
     1
 74
     3
 75
     0
 76
     0
 77
     0
 78
     0
281
     0
 65
     1
110
0.0
120
0.0
130
0.0
111
1.0
121
0.0
131
0.0
112
0.0
122
1.0
132
0.0
 79
     0
146
0.0
  0
ENDTAB
  0
TABLE
  2
LTYPE
  5
5
330
0
100
AcDbSymbolTable
 70
     6
  0
LTYPE
  5
14
330
5
100
AcDbSymbolTableRecord
100
AcDbLinetypeTableRecord
  2
ByBlock
 70
     0
  3

 72
    65
 73
     0
 40
0.0
  0
LTYPE
  5
15
330
5
100
AcDbSymbolTableRecord
100
AcDbLinetypeTableRecord
  2
ByLayer
 70
     0
  3

 72
    65
 73
     0
 40
0.0
  0
LTYPE
  5
16
330
5
100
AcDbSymbolTableRecord
100
AcDbLinetypeTableRecord
  2
Continuous
 70
     0
  3
Solid line
 72
    65
 73
     0
 40
0.0
  0
LTYPE
  5
6E
330
5
100
AcDbSymbolTableRecord
100
AcDbLinetypeTableRecord
  2
HIDDEN
 70
     0
  3
Hidden __ __ __ __ __ __ __ __ __ __ __ __ __ __
 72
    65
 73
     2
 40
1.905
 49
1.27
 74
     0
 49
-0.635
 74
     0
  0
LTYPE
  5
6F
330
5
100
AcDbSymbolTableRecord
100
AcDbLinetypeTableRecord
  2
PHANTOM
 70
     0
  3
Phantom ______  __  __  ______  __  __  ______
 72
    65
 73
     6
 40
12.7
 49
6.35
 74
     0
 49
-1.27
 74
     0
 49
1.27
 74
     0
 49
-1.27
 74
     0
 49
1.27
 74
     0
 49
-1.27
 74
     0
  0
LTYPE
  5
70
330
5
100
AcDbSymbolTableRecord
100
AcDbLinetypeTableRecord
  2
CENTER
 70
     0
  3
Center ____ _ ____ _ ____ _ ____ _ ____ _ ____
 72
    65
 73
     4
 40
10.16
 49
6.35
 74
     0
 49
-1.27
 74
     0
 49
1.27
 74
     0
 49
-1.27
 74
     0
  0
LTYPE
  5
71
330
5
100
AcDbSymbolTableRecord
100
AcDbLinetypeTableRecord
  2
CENTERX2
 70
     0
  3
Center (2x) ________  __  ________  __  _____
 72
    65
 73
     4
 40
20.32
 49
12.7
 74
     0
 49
-2.54
 74
     0
 49
2.54
 74
     0
 49
-2.54
 74
     0
  0
LTYPE
  5
72
330
5
100
AcDbSymbolTableRecord
100
AcDbLinetypeTableRecord
  2
DOT2
 70
     0
  3
Dot (.5x) ........................................
 72
    65
 73
     2
 40
0.635
 49
0.0
 74
     0
 49
-0.635
 74
     0
  0
ENDTAB
  0
TABLE
  2
LAYER
  5
2
330
0
100
AcDbSymbolTable
 70
     5
  0
LAYER
  5
10
330
2
100
AcDbSymbolTableRecord
100
AcDbLayerTableRecord
  2
0
 70
     0
 62
     7
  6
Continuous
370
    -3
390
F
  0
LAYER
  5
73
330
2
100
AcDbSymbolTableRecord
100
AcDbLayerTableRecord
  2
FORMAT
 70
     0
 62
     7
  6
Continuous
370
    -3
390
F
  0
LAYER
  5
74
330
2
100
AcDbSymbolTableRecord
100
AcDbLayerTableRecord
  2
VERMASSUNG
 70
     0
 62
     7
  6
Continuous
370
    -3
390
F
  0
LAYER
  5
75
330
2
100
AcDbSymbolTableRecord
100
AcDbLayerTableRecord
  2
KOPF_DÜNN
 70
     0
 62
     7
  6
Continuous
370
    -3
390
F
  0
LAYER
  5
76
330
2
100
AcDbSymbolTableRecord
100
AcDbLayerTableRecord
  2
KOPF_DICK
 70
     0
 62
     7
  6
Continuous
370
    15
390
F
  0
ENDTAB
  0
TABLE
  2
STYLE
  5
3
330
0
100
AcDbSymbolTable
 70
     2
  0
STYLE
  5
11
330
3
100
AcDbSymbolTableRecord
100
AcDbTextStyleTableRecord
  2
Standard
 70
     0
 40
0.0
 41
1.0
 50
0.0
 71
     0
 42
2.0
  3
txt
  4

  0
STYLE
  5
77
330
3
100
AcDbSymbolTableRecord
100
AcDbTextStyleTableRecord
  2
SLDTEXTSTYLE0
 70
     0
 40
0.0
 41
0.7
 50
0.0
 71
     0
 42
2.0
  3
TXT
  4

  0
ENDTAB
  0
TABLE
  2
VIEW
  5
6
330
0
100
AcDbSymbolTable
 70
     0
  0
ENDTAB
  0
TABLE
  2
UCS
  5
7
330
0
100
AcDbSymbolTable
 70
     0
  0
ENDTAB
  0
TABLE
  2
APPID
  5
9
330
0
100
AcDbSymbolTable
 70
     1
  0
APPID
  5
12
330
9
100
AcDbSymbolTableRecord
100
AcDbRegAppTableRecord
  2
ACAD
 70
     0
  0
ENDTAB
  0
TABLE
  2
DIMSTYLE
  5
A
330
0
100
AcDbSymbolTable
 70
     2
100
AcDbDimStyleTable
  0
DIMSTYLE
105
27
330
A
100
AcDbSymbolTableRecord
100
AcDbDimStyleTableRecord
  2
ISO-25
 70
     0
 41
2.5
 42
0.625
 43
3.75
 44
1.25
 73
     0
 74
     0
 77
     1
 78
     8
140
2.5
141
2.5
143
0.0393700787
147
0.625
171
     3
172
     1
178
     0
271
     2
272
     2
274
     3
278
    44
283
     0
284
     8
340
11
  0
DIMSTYLE
105
1E4
102
{ACAD_REACTORS
330
1E3
330
1F0
330
1FC
330
207
330
211
330
21B
102
}
330
A
100
AcDbSymbolTableRecord
100
AcDbDimStyleTableRecord
  2
SLDDIMSTYLE0
 70
     0
 41
3.0
 44
0.0
 45
0.000000001
 73
     0
 74
     0
 77
     1
 78
    12
 79
     3
140
2.0
147
0.5
173
     1
178
     0
271
     2
272
     3
276
     2
284
    12
340
77
  0
ENDTAB
  0
TABLE
  2
BLOCK_RECORD
  5
1
330
0
100
AcDbSymbolTable
 70
     7
  0
BLOCK_RECORD
  5
1F
330
1
100
AcDbSymbolTableRecord
100
AcDbBlockTableRecord
  2
*Model_Space
340
22
  0
BLOCK_RECORD
  5
1B
330
1
100
AcDbSymbolTableRecord
100
AcDbBlockTableRecord
  2
*Paper_Space
340
1E
  0
BLOCK_RECORD
  5
23
330
1
100
AcDbSymbolTableRecord
100
AcDbBlockTableRecord
  2
*Paper_Space0
340
26
  0
BLOCK_RECORD
  5
1E5
330
1
100
AcDbSymbolTableRecord
100
AcDbBlockTableRecord
  2
_D
340
0
  0
BLOCK_RECORD
  5
1F1
330
1
100
AcDbSymbolTableRecord
100
AcDbBlockTableRecord
  2
_D_1
340
0
  0
BLOCK_RECORD
  5
1FD
330
1
100
AcDbSymbolTableRecord
100
AcDbBlockTableRecord
  2
_D_2
340
0
  0
BLOCK_RECORD
  5
208
330
1
100
AcDbSymbolTableRecord
100
AcDbBlockTableRecord
  2
_D_3
340
0
  0
BLOCK_RECORD
  5
212
330
1
100
AcDbSymbolTableRecord
100
AcDbBlockTableRecord
  2
_D_4
340
0
  0
BLOCK_RECORD
  5
21C
330
1
100
AcDbSymbolTableRecord
100
AcDbBlockTableRecord
  2
_D_5
340
0
  0
ENDTAB
  0
ENDSEC
  0
SECTION
  2
BLOCKS
  0
BLOCK
  5
20
330
1F
100
AcDbEntity
  8
0
100
AcDbBlockBegin
  2
*Model_Space
 70
     0
 10
0.0
 20
0.0
 30
0.0
  3
*Model_Space
  1

  0
ENDBLK
  5
21
330
1F
100
AcDbEntity
  8
0
100
AcDbBlockEnd
  0
BLOCK
  5
1C
330
1B
100
AcDbEntity
 67
     1
  8
0
100
AcDbBlockBegin
  2
*Paper_Space
 70
     0
 10
0.0
 20
0.0
 30
0.0
  3
*Paper_Space
  1

  0
ENDBLK
  5
1D
330
1B
100
AcDbEntity
 67
     1
  8
0
100
AcDbBlockEnd
  0
BLOCK
  5
24
330
23
100
AcDbEntity
  8
0
100
AcDbBlockBegin
  2
*Paper_Space0
 70
     0
 10
0.0
 20
0.0
 30
0.0
  3
*Paper_Space0
  1

  0
ENDBLK
  5
25
330
23
100
AcDbEntity
  8
0
100
AcDbBlockEnd
  0
BLOCK
  5
1E6
330
1E5
100
AcDbEntity
  8
0
100
AcDbBlockBegin
  2
_D
 70
     0
 10
0.0
 20
0.0
 30
0.0
  3
_D
  1

  0
SOLID
  5
1E8
330
1E5
100
AcDbEntity
  8
VERMASSUNG
100
AcDbTrace
 10
63.671854148
 20
65.1949246801
 30
0.0
 11
64.121854148
 21
68.1949246801
 31
0.0
 12
63.221854148
 22
68.1949246801
 32
0.0
 13
63.221854148
 23
68.1949246801
 33
0.0
  0
SOLID
  5
1E9
330
1E5
100
AcDbEntity
  8
VERMASSUNG
100
AcDbTrace
 10
63.671854148
 20
162.6449246801
 30
0.0
 11
63.221854148
 21
159.6449246801
 31
0.0
 12
64.121854148
 22
159.6449246801
 32
0.0
 13
64.121854148
 23
159.6449246801
 33
0.0
  0
LINE
  5
1EA
330
1E5
100
AcDbEntity
  8
VERMASSUNG
100
AcDbLine
 10
189.9671775798
 20
65.1949246801
 30
0.0
 11
62.671854148
 21
65.1949246801
 31
0.0
  0
LINE
  5
1EB
330
1E5
100
AcDbEntity
  8
VERMASSUNG
100
AcDbLine
 10
189.9671775798
 20
162.6449246801
 30
0.0
 11
62.671854148
 21
162.6449246801
 31
0.0
  0
LINE
  5
1EC
330
1E5
100
AcDbEntity
  8
VERMASSUNG
100
AcDbLine
 10
63.671854148
 20
65.1949246801
 30
0.0
 11
63.671854148
 21
162.6449246801
 31
0.0
  0
MTEXT
  5
1ED
330
1E5
100
AcDbEntity
  8
VERMASSUNG
100
AcDbMText
 10
60.8937188918
 20
104.4154890467
 30
0.0
 40
2.0
 41
0.0
 71
     1
 72
     1
  1
ISO 50
  7
SLDTEXTSTYLE0
 11
3.391901413832837E-15
 21
1.0
 31
0.0
 73
     1
 44
1.0
  0
MTEXT
  5
1EE
330
1E5
100
AcDbEntity
  8
VERMASSUNG
100
AcDbMText
 10
61.0937188431
 20
113.4154886593
 30
0.0
 40
2.0
 41
0.0
 71
     1
 72
     1
  1
%%c
  7
SLDTEXTSTYLE0
 11
3.391901413832837E-15
 21
1.0
 31
0.0
 73
     1
 44
1.0
  0
MTEXT
  5
1EF
330
1E5
100
AcDbEntity
  8
VERMASSUNG
100
AcDbMText
 10
61.093718552
 20
117.0248319921
 30
0.0
 40
2.0
 41
0.0
 71
     1
 72
     1
  1
97.45
  7
SLDTEXTSTYLE0
 11
3.391901413832837E-15
 21
1.0
 31
0.0
 73
     1
 44
1.0
  0
ENDBLK
  5
1E7
330
1E5
100
AcDbEntity
  8
0
100
AcDbBlockEnd
  0
BLOCK
  5
1F2
330
1F1
100
AcDbEntity
  8
0
100
AcDbBlockBegin
  2
_D_1
 70
     0
 10
0.0
 20
0.0
 30
0.0
  3
_D_1
  1

  0
SOLID
  5
1F4
330
1F1
100
AcDbEntity
  8
VERMASSUNG
100
AcDbTrace
 10
232.9808262767
 20
93.9199246801
 30
0.0
 11
233.4308262767
 21
96.9199246801
 31
0.0
 12
232.5308262767
 22
96.9199246801
 32
0.0
 13
232.5308262767
 23
96.9199246801
 33
0.0
  0
SOLID
  5
1F5
330
1F1
100
AcDbEntity
  8
VERMASSUNG
100
AcDbTrace
 10
232.9808262767
 20
133.9199246801
 30
0.0
 11
232.5308262767
 21
130.9199246801
 31
0.0
 12
233.4308262767
 22
130.9199246801
 32
0.0
 13
233.4308262767
 23
130.9199246801
 33
0.0
  0
LINE
  5
1F6
330
1F1
100
AcDbEntity
  8
VERMASSUNG
100
AcDbLine
 10
217.1171775798
 20
93.9199246801
 30
0.0
 11
233.9808262767
 21
93.9199246801
 31
0.0
  0
LINE
  5
1F7
330
1F1
100
AcDbEntity
  8
VERMASSUNG
100
AcDbLine
 10
217.1171775798
 20
133.9199246801
 30
0.0
 11
233.9808262767
 21
133.9199246801
 31
0.0
  0
LINE
  5
1F8
330
1F1
100
AcDbEntity
  8
VERMASSUNG
100
AcDbLine
 10
232.9808262767
 20
93.9199246801
 30
0.0
 11
232.9808262767
 21
133.9199246801
 31
0.0
  0
MTEXT
  5
1F9
330
1F1
100
AcDbEntity
  8
VERMASSUNG
100
AcDbMText
 10
230.2026910205
 20
108.7149248607
 30
0.0
 40
2.0
 41
0.0
 71
     1
 72
     1
  1
WH
  7
SLDTEXTSTYLE0
 11
6.123233995736766E-17
 21
1.0
 31
0.0
 73
     1
 44
1.0
  0
MTEXT
  5
1FA
330
1F1
100
AcDbEntity
  8
VERMASSUNG
100
AcDbMText
 10
230.4026909718
 20
112.5149249248
 30
0.0
 40
2.0
 41
0.0
 71
     1
 72
     1
  1
%%c
  7
SLDTEXTSTYLE0
 11
6.123233995736766E-17
 21
1.0
 31
0.0
 73
     1
 44
1.0
  0
MTEXT
  5
1FB
330
1F1
100
AcDbEntity
  8
VERMASSUNG
100
AcDbMText
 10
230.2026910205
 20
116.1249249391
 30
0.0
 40
2.0
 41
0.0
 71
     1
 72
     1
  1
40
  7
SLDTEXTSTYLE0
 11
6.123233995736766E-17
 21
1.0
 31
0.0
 73
     1
 44
1.0
  0
ENDBLK
  5
1F3
330
1F1
100
AcDbEntity
  8
0
100
AcDbBlockEnd
  0
BLOCK
  5
1FE
330
1FD
100
AcDbEntity
  8
0
100
AcDbBlockBegin
  2
_D_2
 70
     0
 10
0.0
 20
0.0
 30
0.0
  3
_D_2
  1

  0
SOLID
  5
200
330
1FD
100
AcDbEntity
  8
VERMASSUNG
100
AcDbTrace
 10
226.9808262767
 20
102.9199246801
 30
0.0
 11
227.4308262767
 21
105.9199246801
 31
0.0
 12
226.5308262767
 22
105.9199246801
 32
0.0
 13
226.5308262767
 23
105.9199246801
 33
0.0
  0
SOLID
  5
201
330
1FD
100
AcDbEntity
  8
VERMASSUNG
100
AcDbTrace
 10
226.9808262767
 20
124.9199246801
 30
0.0
 11
226.5308262767
 21
121.9199246801
 31
0.0
 12
227.4308262767
 22
121.9199246801
 32
0.0
 13
227.4308262767
 23
121.9199246801
 33
0.0
  0
LINE
  5
202
330
1FD
100
AcDbEntity
  8
VERMASSUNG
100
AcDbLine
 10
216.5171775798
 20
102.9199246801
 30
0.0
 11
227.9808262767
 21
102.9199246801
 31
0.0
  0
LINE
  5
203
330
1FD
100
AcDbEntity
  8
VERMASSUNG
100
AcDbLine
 10
216.5171775798
 20
124.9199246801
 30
0.0
 11
227.9808262767
 21
124.9199246801
 31
0.0
  0
LINE
  5
204
330
1FD
100
AcDbEntity
  8
VERMASSUNG
100
AcDbLine
 10
226.9808262767
 20
102.9199246801
 30
0.0
 11
226.9808262767
 21
124.9199246801
 31
0.0
  0
MTEXT
  5
205
330
1FD
100
AcDbEntity
  8
VERMASSUNG
100
AcDbMText
 10
224.4026909718
 20
110.7149247229
 30
0.0
 40
2.0
 41
0.0
 71
     1
 72
     1
  1
%%c
  7
SLDTEXTSTYLE0
 11
6.123233995736766E-17
 21
1.0
 31
0.0
 73
     1
 44
1.0
  0
MTEXT
  5
206
330
1FD
100
AcDbEntity
  8
VERMASSUNG
100
AcDbMText
 10
224.2026910205
 20
114.3249247372
 30
0.0
 40
2.0
 41
0.0
 71
     1
 72
     1
  1
22
  7
SLDTEXTSTYLE0
 11
6.123233995736766E-17
 21
1.0
 31
0.0
 73
     1
 44
1.0
  0
ENDBLK
  5
1FF
330
1FD
100
AcDbEntity
  8
0
100
AcDbBlockEnd
  0
BLOCK
  5
209
330
208
100
AcDbEntity
  8
0
100
AcDbBlockBegin
  2
_D_3
 70
     0
 10
0.0
 20
0.0
 30
0.0
  3
_D_3
  1

  0
SOLID
  5
20B
330
208
100
AcDbEntity
  8
VERMASSUNG
100
AcDbTrace
 10
217.5171775798
 20
167.9008446033
 30
0.0
 11
214.5171775798
 21
168.3508446033
 31
0.0
 12
214.5171775798
 22
167.4508446033
 32
0.0
 13
214.5171775798
 23
167.4508446033
 33
0.0
  0
SOLID
  5
20C
330
208
100
AcDbEntity
  8
VERMASSUNG
100
AcDbTrace
 10
190.5671775798
 20
167.9008446033
 30
0.0
 11
193.5671775798
 21
167.4508446033
 31
0.0
 12
193.5671775798
 22
168.3508446033
 32
0.0
 13
193.5671775798
 23
168.3508446033
 33
0.0
  0
LINE
  5
20D
330
208
100
AcDbEntity
  8
VERMASSUNG
100
AcDbLine
 10
217.5171775798
 20
133.5199246801
 30
0.0
 11
217.5171775798
 21
168.9008446033
 31
0.0
  0
LINE
  5
20E
330
208
100
AcDbEntity
  8
VERMASSUNG
100
AcDbLine
 10
190.5671775798
 20
160.2149116333
 30
0.0
 11
190.5671775798
 21
168.9008446033
 31
0.0
  0
LINE
  5
20F
330
208
100
AcDbEntity
  8
VERMASSUNG
100
AcDbLine
 10
217.5171775798
 20
167.9008446033
 30
0.0
 11
190.5671775798
 21
167.9008446033
 31
0.0
  0
MTEXT
  5
210
330
208
100
AcDbEntity
  8
VERMASSUNG
100
AcDbMText
 10
200.9421777236
 20
170.4789801993
 30
0.0
 40
2.0
 41
0.0
 71
     1
 72
     1
  1
26.95
  7
SLDTEXTSTYLE0
 73
     1
 44
1.0
  0
ENDBLK
  5
20A
330
208
100
AcDbEntity
  8
0
100
AcDbBlockEnd
  0
BLOCK
  5
213
330
212
100
AcDbEntity
  8
0
100
AcDbBlockBegin
  2
_D_4
 70
     0
 10
0.0
 20
0.0
 30
0.0
  3
_D_4
  1

  0
SOLID
  5
215
330
212
100
AcDbEntity
  8
VERMASSUNG
100
AcDbTrace
 10
217.5171775798
 20
173.9008446033
 30
0.0
 11
214.5171775798
 21
174.3508446033
 31
0.0
 12
214.5171775798
 22
173.4508446033
 32
0.0
 13
214.5171775798
 23
173.4508446033
 33
0.0
  0
SOLID
  5
216
330
212
100
AcDbEntity
  8
VERMASSUNG
100
AcDbTrace
 10
171.5171775798
 20
173.9008446033
 30
0.0
 11
174.5171775798
 21
173.4508446033
 31
0.0
 12
174.5171775798
 22
174.3508446033
 32
0.0
 13
174.5171775798
 23
174.3508446033
 33
0.0
  0
LINE
  5
217
330
212
100
AcDbEntity
  8
VERMASSUNG
100
AcDbLine
 10
217.5171775798
 20
133.5199246801
 30
0.0
 11
217.5171775798
 21
174.9008446033
 31
0.0
  0
LINE
  5
218
330
212
100
AcDbEntity
  8
VERMASSUNG
100
AcDbLine
 10
171.5171775798
 20
148.8449246801
 30
0.0
 11
171.5171775798
 21
174.9008446033
 31
0.0
  0
LINE
  5
219
330
212
100
AcDbEntity
  8
VERMASSUNG
100
AcDbLine
 10
217.5171775798
 20
173.9008446033
 30
0.0
 11
171.5171775798
 21
173.9008446033
 31
0.0
  0
MTEXT
  5
21A
330
212
100
AcDbEntity
  8
VERMASSUNG
100
AcDbMText
 10
193.0171775668
 20
176.4789801993
 30
0.0
 40
2.0
 41
0.0
 71
     1
 72
     1
  1
46
  7
SLDTEXTSTYLE0
 73
     1
 44
1.0
  0
ENDBLK
  5
214
330
212
100
AcDbEntity
  8
0
100
AcDbBlockEnd
  0
BLOCK
  5
21D
330
21C
100
AcDbEntity
  8
0
100
AcDbBlockBegin
  2
_D_5
 70
     0
 10
0.0
 20
0.0
 30
0.0
  3
_D_5
  1

  0
SOLID
  5
21F
330
21C
100
AcDbEntity
  8
VERMASSUNG
100
AcDbTrace
 10
217.5171775798
 20
179.9008446033
 30
0.0
 11
214.5171775798
 21
180.3508446033
 31
0.0
 12
214.5171775798
 22
179.4508446033
 32
0.0
 13
214.5171775798
 23
179.4508446033
 33
0.0
  0
SOLID
  5
220
330
21C
100
AcDbEntity
  8
VERMASSUNG
100
AcDbTrace
 10
69.9171775798
 20
179.9008446033
 30
0.0
 11
72.9171775798
 21
179.4508446033
 31
0.0
 12
72.9171775798
 22
180.3508446033
 32
0.0
 13
72.9171775798
 23
180.3508446033
 33
0.0
  0
LINE
  5
221
330
21C
100
AcDbEntity
  8
VERMASSUNG
100
AcDbLine
 10
217.5171775798
 20
133.5199246801
 30
0.0
 11
217.5171775798
 21
180.9008446033
 31
0.0
  0
LINE
  5
222
330
21C
100
AcDbEntity
  8
VERMASSUNG
100
AcDbLine
 10
69.9171775798
 20
132.2987692075
 30
0.0
 11
69.9171775798
 21
180.9008446033
 31
0.0
  0
LINE
  5
223
330
21C
100
AcDbEntity
  8
VERMASSUNG
100
AcDbLine
 10
217.5171775798
 20
179.9008446033
 30
0.0
 11
69.9171775798
 21
179.9008446033
 31
0.0
  0
MTEXT
  5
224
330
21C
100
AcDbEntity
  8
VERMASSUNG
100
AcDbMText
 10
140.7171777866
 20
182.4789801993
 30
0.0
 40
2.0
 41
0.0
 71
     1
 72
     1
  1
147.6
  7
SLDTEXTSTYLE0
 73
     1
 44
1.0
  0
ENDBLK
  5
21E
330
21C
100
AcDbEntity
  8
0
100
AcDbBlockEnd
  0
ENDSEC
  0
SECTION
  2
ENTITIES
  0
MTEXT
  5
78
330
1F
100
AcDbEntity
  8
KOPF_DÜNN
100
AcDbMText
 10
13.8892156294
 20
23.8442973028
 30
0.0
 40
3.0
 41
0.0
 71
     1
 72
     1
  1
A14.450.040.046
  7
SLDTEXTSTYLE0
 73
     1
 44
1.0
  0
MTEXT
  5
79
330
1F
100
AcDbEntity
  8
VERMASSUNG
100
AcDbMText
 10
13.9329988022
 20
28.8834360957
 30
0.0
 40
3.0
 41
0.0
 71
     1
 72
     1
  1
Aufnahme_Master shank WH40
  7
SLDTEXTSTYLE0
 73
     1
 44
1.0
  0
MTEXT
  5
7A
330
1F
100
AcDbEntity
  8
VERMASSUNG
100
AcDbMText
 10
98.8601118557
 20
13.8365368761
 30
0.0
 40
2.0
 41
0.0
 71
     1
 72
     1
  1
Datum: 21.10.2011
  7
SLDTEXTSTYLE0
 73
     1
 44
1.0
  0
MTEXT
  5
7B
330
1F
100
AcDbEntity
  8
VERMASSUNG
100
AcDbMText
 10
13.933048693
 20
18.0482802738
 30
0.0
 40
2.0
 41
0.0
 71
     1
 72
     1
  1
DIN 69871 AD/B
  7
SLDTEXTSTYLE0
 73
     1
 44
1.0
  0
MTEXT
  5
7C
330
1F
100
AcDbEntity
  8
VERMASSUNG
100
AcDbMText
 10
13.9808475933
 20
13.9090974274
 30
0.0
 40
2.0
 41
0.0
 71
     1
 72
     1
  1
Gewicht: 2828g
  7
SLDTEXTSTYLE0
 73
     1
 44
1.0
  0
LINE
  5
7D
330
1F
100
AcDbEntity
  8
0
  6
Continuous
 62
     7
370
    15
100
AcDbLine
 10
210.1043826918
 20
133.5827184058
 30
0.0
 11
209.7671768646
 21
133.9199242331
 31
0.0
  0
LINE
  5
7E
330
1F
100
AcDbEntity
  8
0
  6
Continuous
 62
     7
370
    15
100
AcDbLine
 10
201.1671784351
 20
133.9199242331
 30
0.0
 11
200.8309411834
 21
133.5836888439
 31
0.0
  0
ARC
  5
7F
330
1F
100
AcDbEntity
  8
0
  6
Continuous
 62
     7
370
    15
100
AcDbCircle
 10
174.1171775798
 20
78.3949246801
 30
0.0
 40
0.6000000000000085
100
AcDbArc
 50
0.0
 51
90.0
  0
ARC
  5
80
330
1F
100
AcDbEntity
  8
0
  6
Continuous
 62
     7
370
    15
100
AcDbCircle
 10
174.1171775798
 20
149.4449246801
 30
0.0
 40
0.6000000000000227
100
AcDbArc
 50
270.0
 51
0.0
  0
LINE
  5
81
330
1F
100
AcDbEntity
  8
0
  6
Continuous
 62
     7
370
    15
100
AcDbLine
 10
171.5171775798
 20
78.9949258007
 30
0.0
 11
174.1171775869
 21
78.9949258007
 31
0.0
  0
LINE
  5
82
330
1F
100
AcDbEntity
  8
0
  6
Continuous
 62
     7
370
    15
100
AcDbLine
 10
174.1171775869
 20
148.8449235595
 30
0.0
 11
171.5171775798
 21
148.8449235595
 31
0.0
  0
LINE
  5
83
330
1F
100
AcDbEntity
  8
0
  6
Continuous
 62
     7
370
    15
100
AcDbLine
 10
171.5171775798
 20
148.8449235595
 30
0.0
 11
71.6285622696
 21
134.2778352238
 31
0.0
  0
LINE
  5
84
330
1F
100
AcDbEntity
  8
0
  6
Continuous
 62
     7
370
    15
100
AcDbLine
 10
71.6285622696
 20
93.5620141364
 30
0.0
 11
171.5171775798
 21
78.9949258007
 31
0.0
  0
ARC
  5
85
330
1F
100
AcDbEntity
  8
0
  6
Continuous
 62
     7
370
    15
100
AcDbCircle
 10
193.5671775798
 20
90.9199246801
 30
0.0
 40
3.0
100
AcDbArc
 50
90.0
 51
180.0
  0
ARC
  5
86
330
1F
100
AcDbEntity
  8
0
  6
Continuous
 62
     7
370
    15
100
AcDbCircle
 10
193.5671775798
 20
136.9199246801
 30
0.0
 40
3.0
100
AcDbArc
 50
180.0
 51
270.0
  0
ARC
  5
87
330
1F
100
AcDbEntity
  8
0
  6
Continuous
 62
     7
370
    15
100
AcDbCircle
 10
71.9171775798
 20
95.5410801527
 30
0.0
 40
2.000000000000004
100
AcDbArc
 50
180.0
 51
261.7028550302
  0
ARC
  5
88
330
1F
100
AcDbEntity
  8
0
  6
Continuous
 62
     7
370
    15
100
AcDbCircle
 10
71.9171775798
 20
132.2987692075
 30
0.0
 40
1.999999999999972
100
AcDbArc
 50
98.2971449698
 51
180.0
  0
LINE
  5
89
330
1F
100
AcDbEntity
  8
0
  6
Continuous
 62
     7
370
    15
100
AcDbLine
 10
217.1171783487
 20
93.9199251271
 30
0.0
 11
217.5171776692
 21
94.3199244476
 31
0.0
  0
LINE
  5
8A
330
1F
100
AcDbEntity
  8
0
  6
Continuous
 62
     7
370
    15
100
AcDbLine
 10
217.5171776692
 20
133.5199249126
 30
0.0
 11
217.1171783487
 21
133.9199242331
 31
0.0
  0
LINE
  5
8B
330
1F
100
AcDbEntity
  8
0
  6
Continuous
 62
     7
370
    15
100
AcDbLine
 10
199.2757330666
 20
133.9199242331
 30
0.0
 11
193.567178307
 21
133.9199242331
 31
0.0
  0
LINE
  5
8C
330
1F
100
AcDbEntity
  8
0
  6
Continuous
 62
     7
370
    15
100
AcDbLine
 10
217.1171783487
 20
133.9199242331
 30
0.0
 11
211.6482323984
 21
133.9199242331
 31
0.0
  0
LINE
  5
8D
330
1F
100
AcDbEntity
  8
0
  6
Continuous
 62
     7
370
    15
100
AcDbLine
 10
193.567178307
 20
93.9199251271
 30
0.0
 11
217.1171783487
 21
93.9199251271
 31
0.0
  0
ARC
  5
8E
330
1F
100
AcDbEntity
  8
0
  6
Continuous
 62
     7
370
    15
100
AcDbCircle
 10
185.7171775798
 20
99.4541827181
 30
0.0
 40
2.000000000000025
100
AcDbArc
 50
192.2156859336
 51
340.3453161116
  0
LINE
  5
8F
330
1F
100
AcDbEntity
  8
0
  6
Continuous
 62
     7
370
    15
100
AcDbLine
 10
203.7287904898
 20
133.2199254222
 30
0.0
 11
207.0514439623
 21
133.2199254222
 31
0.0
  0
LINE
  5
90
330
1F
100
AcDbEntity
  8
0
  6
Continuous
 62
     7
370
    15
100
AcDbLine
 10
201.1671784351
 20
133.9199242331
 30
0.0
 11
209.7671768646
 21
133.9199242331
 31
0.0
  0
SPLINE
  5
91
330
1F
100
AcDbEntity
  8
0
  6
Continuous
 62
     7
370
    15
100
AcDbSpline
210
0.0
220
0.0
230
1.0
 70
     8
 71
     3
 72
    10
 73
     6
 74
     0
 42
0.000000001
 43
0.00000001
 40
0.0
 40
0.0
 40
0.0
 40
0.0
 40
0.4391250602976793
 40
0.751374661373261
 40
1.0
 40
1.0
 40
1.0
 40
1.0
 10
207.5896105746561
 20
115.8766082636526
 30
0.0
 10
207.195094981982
 20
115.9996895995466
 30
0.0
 10
206.5200503383194
 20
116.2102906456725
 30
0.0
 10
205.538765764721
 20
116.5164291437274
 30
0.0
 10
205.0503586084398
 20
116.6688030350736
 30
0.0
 10
204.8338568786913
 20
116.7363475225379
 30
0.0
  0
SPLINE
  5
92
330
1F
100
AcDbEntity
  8
0
  6
Continuous
 62
     7
370
    15
100
AcDbSpline
210
0.0
220
0.0
230
1.0
 70
     8
 71
     3
 72
    10
 73
     6
 74
     0
 42
0.000000001
 43
0.00000001
 40
0.0
 40
0.0
 40
0.0
 40
0.0
 40
0.4391256352595893
 40
0.751374104607457
 40
1.0
 40
1.0
 40
1.0
 40
1.0
 10
204.8338568786913
 20
116.7363475225379
 30
0.0
 10
204.5300072482088
 20
116.4562268506987
 30
0.0
 10
204.010099673457
 20
115.9769211530007
 30
0.0
 10
203.2543322759846
 20
115.2801746501894
 30
0.0
 10
202.8781694782416
 20
114.9333883166692
 30
0.0
 10
202.7114230225617
 20
114.7796639389803
 30
0.0
  0
SPLINE
  5
93
330
1F
100
AcDbEntity
  8
0
  6
Continuous
 62
     7
370
    15
100
AcDbSpline
210
0.0
220
0.0
230
1.0
 70
     8
 71
     3
 72
    11
 73
     7
 74
     0
 42
0.000000001
 43
0.00000001
 40
0.0
 40
0.0
 40
0.0
 40
0.0
 40
0.1849308078237363
 40
0.5198464030548585
 40
0.8714439832839306
 40
1.0
 40
1.0
 40
1.0
 40
1.0
 10
202.7114230225617
 20
114.7796639389803
 30
0.0
 10
202.7482859544012
 20
114.615734361969
 30
0.0
 10
202.8519088323216
 20
114.1549230890042
 30
0.0
 10
203.0453331347795
 20
113.2947304386092
 30
0.0
 10
203.2239796783764
 20
112.5003088451987
 30
0.0
 10
203.3192383631164
 20
112.0766667578462
 30
0.0
 10
203.3447428623969
 20
111.9632410965373
 30
0.0
  0
SPLINE
  5
94
330
1F
100
AcDbEntity
  8
0
  6
Continuous
 62
     7
370
    15
100
AcDbSpline
210
0.0
220
0.0
230
1.0
 70
     8
 71
     3
 72
    10
 73
     6
 74
     0
 42
0.000000001
 43
0.00000001
 40
0.0
 40
0.0
 40
0.0
 40
0.0
 40
0.4391257304237599
 40
0.7513738238670628
 40
0.9999999999999999
 40
0.9999999999999999
 40
0.9999999999999999
 40
0.9999999999999999
 10
203.3447428623969
 20
111.9632410965373
 30
0.0
 10
203.7392598445432
 20
111.840160109803
 30
0.0
 10
204.4143050831125
 20
111.6295602172422
 30
0.0
 10
205.3955893779105
 20
111.3234189682204
 30
0.0
 10
205.8839972490485
 20
111.1710461552977
 30
0.0
 10
206.100500283652
 20
111.103501837652
 30
0.0
  0
SPLINE
  5
95
330
1F
100
AcDbEntity
  8
0
  6
Continuous
 62
     7
370
    15
100
AcDbSpline
210
0.0
220
0.0
230
1.0
 70
     8
 71
     3
 72
    10
 73
     6
 74
     0
 42
0.000000001
 43
0.00000001
 40
0.0
 40
0.0
 40
0.0
 40
0.0
 40
0.4391258213363511
 40
0.7513744229975692
 40
1.0
 40
1.0
 40
1.0
 40
1.0
 10
206.100500283652
 20
111.103501837652
 30
0.0
 10
206.4043498619823
 20
111.3836225486929
 30
0.0
 10
206.924257347498
 20
111.8629283134679
 30
0.0
 10
207.6800249155939
 20
112.5596741520566
 30
0.0
 10
208.0561865121408
 20
112.9064609732176
 30
0.0
 10
208.2229322771365
 20
113.0601854212096
 30
0.0
  0
SPLINE
  5
96
330
1F
100
AcDbEntity
  8
0
  6
Continuous
 62
     7
370
    15
100
AcDbSpline
210
0.0
220
0.0
230
1.0
 70
     8
 71
     3
 72
    11
 73
     7
 74
     0
 42
0.000000001
 43
0.00000001
 40
0.0
 40
0.0
 40
0.0
 40
0.0
 40
0.1285562658435863
 40
0.4801535365821547
 40
0.8150693489720826
 40
1.0
 40
1.0
 40
1.0
 40
1.0
 10
208.2229322771365
 20
113.0601854212096
 30
0.0
 10
208.1974262469637
 20
113.1736110412479
 30
0.0
 10
208.1021620409663
 20
113.5972521002274
 30
0.0
 10
207.9235266780568
 20
114.3916762002284
 30
0.0
 10
207.7300927683679
 20
115.2518667175245
 30
0.0
 10
207.6264725314485
 20
115.7126786205334
 30
0.0
 10
207.5896105746561
 20
115.8766082636526
 30
0.0
  0
CIRCLE
  5
97
330
1F
100
AcDbEntity
  8
0
  6
Continuous
 62
     7
370
    15
100
AcDbCircle
 10
205.4671775798
 20
113.9199246801
 30
0.0
 40
3.000000000000023
  0
CIRCLE
  5
98
330
1F
100
AcDbEntity
  8
0
  6
Continuous
 62
     7
370
    15
100
AcDbCircle
 10
205.4671775798
 20
113.9199246801
 30
0.0
 40
5.00000000000004
  0
CIRCLE
  5
99
330
1F
100
AcDbEntity
  8
0
  6
Continuous
 62
     7
370
    15
100
AcDbCircle
 10
205.4671775798
 20
113.9199246801
 30
0.0
 40
4.300000000000024
  0
ARC
  5
9A
330
1F
100
AcDbEntity
  8
0
  6
Continuous
 62
     7
370
    15
100
AcDbCircle
 10
205.4671775798
 20
113.9199246801
 30
0.0
 40
2.500000000000018
100
AcDbArc
 50
12.6731413935
 51
72.6731413935
  0
ARC
  5
9B
330
1F
100
AcDbEntity
  8
0
  6
Continuous
 62
     7
370
    15
100
AcDbCircle
 10
205.4671775798
 20
113.9199246801
 30
0.0
 40
2.500000000000011
100
AcDbArc
 50
252.6731413935
 51
312.6731413935
  0
ARC
  5
9C
330
1F
100
AcDbEntity
  8
0
  6
Continuous
 62
     7
370
    15
100
AcDbCircle
 10
205.4671775798
 20
113.9199246801
 30
0.0
 40
2.500000000000003
100
AcDbArc
 50
72.6731413935
 51
132.6731413935
  0
ARC
  5
9D
330
1F
100
AcDbEntity
  8
0
  6
Continuous
 62
     7
370
    15
100
AcDbCircle
 10
205.4671775798
 20
113.9199246801
 30
0.0
 40
2.500000000000018
100
AcDbArc
 50
312.6731413935
 51
12.6731413935
  0
ARC
  5
9E
330
1F
100
AcDbEntity
  8
0
  6
Continuous
 62
     7
370
    15
100
AcDbCircle
 10
205.4671775798
 20
113.9199246801
 30
0.0
 40
2.5
100
AcDbArc
 50
192.6731413935
 51
252.6731413935
  0
ARC
  5
9F
330
1F
100
AcDbEntity
  8
0
  6
Continuous
 62
     7
370
    15
100
AcDbCircle
 10
205.4671775798
 20
113.9199246801
 30
0.0
 40
2.49999999999999
100
AcDbArc
 50
132.6731413935
 51
192.6731413935
  0
SPLINE
  5
A0
330
1F
100
AcDbEntity
  8
0
  6
Continuous
 62
     7
370
    15
100
AcDbSpline
210
0.0
220
0.0
230
1.0
 70
     8
 71
     3
 72
     8
 73
     4
 74
     0
 42
0.000000001
 43
0.00000001
 40
0.0
 40
0.0
 40
0.0
 40
0.0
 40
1.0
 40
1.0
 40
1.0
 40
1.0
 10
180.7071775798136
 20
69.30018527126516
 30
0.0
 10
180.417449133789
 20
68.77796526110164
 30
0.0
 10
180.1274239835713
 20
68.25591187884167
 30
0.0
 10
179.8371297493095
 20
67.73400961311857
 30
0.0
  0
SPLINE
  5
A1
330
1F
100
AcDbEntity
  8
0
  6
Continuous
 62
     7
370
    15
100
AcDbSpline
210
0.0
220
0.0
230
1.0
 70
     8
 71
     3
 72
     8
 73
     4
 74
     0
 42
0.000000001
 43
0.00000001
 40
0.0
 40
0.0
 40
0.0
 40
0.0
 40
0.0011862984959113
 40
0.0011862984959113
 40
0.0011862984959113
 40
0.0011862984959113
 10
179.3840160723517
 20
67.19066533874896
 30
0.0
 10
179.5360408342225
 20
67.37157718836696
 30
0.0
 10
179.6870982794384
 20
67.55268951880777
 30
0.0
 10
179.8371297493095
 20
67.73400961311859
 30
0.0
  0
LINE
  5
A2
330
1F
100
AcDbEntity
  8
0
  6
Continuous
 62
     7
370
    15
100
AcDbLine
 10
179.3840165268
 20
67.1906654872
 30
0.0
 11
179.3840165268
 21
143.7699251957
 31
0.0
  0
SPLINE
  5
A3
330
1F
100
AcDbEntity
  8
0
  6
Continuous
 62
     7
370
    15
100
AcDbSpline
210
0.0
220
0.0
230
1.0
 70
    24
 71
     3
 72
     8
 73
     4
 74
     0
 42
0.000000001
 43
0.00000001
 40
0.0
 40
0.0
 40
0.0
 40
0.0
 40
1.0
 40
1.0
 40
1.0
 40
1.0
 10
180.7071775798136
 20
143.769924680095
 30
0.0
 10
180.27197747511
 20
143.769924680095
 30
0.0
 10
179.8306177923711
 20
143.769924680095
 30
0.0
 10
179.3840160723517
 20
143.769924680095
 30
0.0
  0
LINE
  5
A4
330
1F
100
AcDbEntity
  8
0
  6
Continuous
 62
     7
370
    15
100
AcDbLine
 10
180.7071772422
 20
69.3001856245
 30
0.0
 11
180.7071772422
 21
143.7699251957
 31
0.0
  0
LINE
  5
A5
330
1F
100
AcDbEntity
  8
0
  6
Continuous
 62
     7
370
    15
100
AcDbLine
 10
175.3171776439
 20
67.1906654872
 30
0.0
 11
179.3840165268
 21
67.1906654872
 31
0.0
  0
LINE
  5
A6
330
1F
100
AcDbEntity
  8
0
  6
Continuous
 62
     7
370
    15
100
AcDbLine
 10
179.3840165268
 20
143.7699251957
 30
0.0
 11
175.3171776439
 21
143.7699251957
 31
0.0
  0
LINE
  5
A7
330
1F
100
AcDbEntity
  8
0
  6
Continuous
 62
     7
370
    15
100
AcDbLine
 10
185.8503391052
 20
99.6227773986
 30
0.0
 11
185.8503391052
 21
143.7699251957
 31
0.0
  0
LINE
  5
A8
330
1F
100
AcDbEntity
  8
0
  6
Continuous
 62
     7
370
    15
100
AcDbLine
 10
189.9671769718
 20
143.7699251957
 30
0.0
 11
185.8503391052
 21
143.7699251957
 31
0.0
  0
LINE
  5
A9
330
1F
100
AcDbEntity
  8
0
  6
Continuous
 62
     7
370
    15
100
AcDbLine
 10
185.8503391052
 20
67.1906654872
 30
0.0
 11
189.9671769718
 21
67.1906654872
 31
0.0
  0
LINE
  5
AA
330
1F
100
AcDbEntity
  8
0
  6
Continuous
 62
     7
370
    15
100
AcDbLine
 10
185.8503391052
 20
67.1906654872
 30
0.0
 11
185.8503391052
 21
94.9309838153
 31
0.0
  0
SPLINE
  5
AB
330
1F
100
AcDbEntity
  8
0
  6
Continuous
 62
     7
370
    15
100
AcDbSpline
210
0.0
220
0.0
230
1.0
 70
     8
 71
     3
 72
    34
 73
    30
 74
     0
 42
0.000000001
 43
0.00000001
 40
0.0
 40
0.0
 40
0.0
 40
0.0
 40
0.0624999999999989
 40
0.0624999999999989
 40
0.1249999999999978
 40
0.1249999999999978
 40
0.1874999999999968
 40
0.1874999999999968
 40
0.2499999999999962
 40
0.2499999999999962
 40
0.3124999999999957
 40
0.3124999999999957
 40
0.3749999999999952
 40
0.3749999999999952
 40
0.499999999999995
 40
0.499999999999995
 40
0.6249999999999948
 40
0.6249999999999948
 40
0.6874999999999954
 40
0.6874999999999954
 40
0.749999999999996
 40
0.749999999999996
 40
0.8124999999999966
 40
0.8124999999999966
 40
0.8749999999999977
 40
0.8749999999999977
 40
0.9374999999999989
 40
0.9374999999999989
 40
1.0
 40
1.0
 40
1.0
 40
1.0
 10
185.8503390872755
 20
94.93098429209378
 30
0.0
 10
186.0097309150634
 20
94.93882438801654
 30
0.0
 10
186.1657333985069
 20
94.960483036107
 30
0.0
 10
186.4712429145842
 20
95.03033126359979
 30
0.0
 10
186.6221372495964
 20
95.07915696592805
 30
0.0
 10
186.9100365942872
 20
95.20208091933536
 30
0.0
 10
187.0459829972469
 20
95.27538842746966
 30
0.0
 10
187.302165612839
 20
95.44539905124101
 30
0.0
 10
187.4233479005981
 20
95.54327284344247
 30
0.0
 10
187.6404939724708
 20
95.75585701887442
 30
0.0
 10
187.7374558454312
 20
95.87090295740403
 30
0.0
 10
187.9080182812567
 20
96.11876407752416
 30
0.0
 10
187.9812583344687
 20
96.25179757458976
 30
0.0
 10
188.1561387912174
 20
96.66130559071989
 30
0.0
 10
188.2171767521935
 20
96.95926624049496
 30
0.0
 10
188.2171784074165
 20
97.5507077963694
 30
0.0
 10
188.1561437978303
 20
97.850881346346
 30
0.0
 10
187.9812540304283
 20
98.26611262661376
 30
0.0
 10
187.9080103250039
 20
98.4014677448606
 30
0.0
 10
187.7374496092673
 20
98.65436707624724
 30
0.0
 10
187.6404858936738
 20
98.772132353855
 30
0.0
 10
187.4233255650866
 20
98.99026264922364
 30
0.0
 10
187.3021443063998
 20
99.0909659743706
 30
0.0
 10
187.045974079461
 20
99.26620966720384
 30
0.0
 10
186.9100307297983
 20
99.34195463629445
 30
0.0
 10
186.6221280266152
 20
99.46912301159672
 30
0.0
 10
186.4712378306985
 20
99.51972428392416
 30
0.0
 10
186.1657323269928
 20
99.59215338367203
 30
0.0
 10
186.0097309287293
 20
99.614639155069
 30
0.0
 10
185.8503390872755
 20
99.62277761496384
 30
0.0
  0
LINE
  5
AC
330
1F
100
AcDbEntity
  8
0
  6
Continuous
 62
     7
370
    15
100
AcDbLine
 10
184.5271774585
 20
100.1226629279
 30
0.0
 11
184.5271774585
 21
143.7699251957
 31
0.0
  0
SPLINE
  5
AD
330
1F
100
AcDbEntity
  8
0
  6
Continuous
 62
     7
370
    15
100
AcDbSpline
210
0.0
220
0.0
230
1.0
 70
    24
 71
     3
 72
     8
 73
     4
 74
     0
 42
0.000000001
 43
0.00000001
 40
0.0
 40
0.0
 40
0.0
 40
0.0
 40
1.0
 40
1.0
 40
1.0
 40
1.0
 10
185.8503390872755
 20
143.769924680095
 30
0.0
 10
185.4037373672561
 20
143.769924680095
 30
0.0
 10
184.9623776845173
 20
143.769924680095
 30
0.0
 10
184.5271775798136
 20
143.769924680095
 30
0.0
  0
SPLINE
  5
AE
330
1F
100
AcDbEntity
  8
0
  6
Continuous
 62
     7
370
    15
100
AcDbSpline
210
0.0
220
0.0
230
1.0
 70
     8
 71
     3
 72
    10
 73
     6
 74
     0
 42
0.000000001
 43
0.00000001
 40
0.0
 40
0.0
 40
0.0
 40
0.0
 40
0.5
 40
0.5
 40
1.0
 40
1.0
 40
1.0
 40
1.0
 10
185.8503390872755
 20
99.62277761496384
 30
0.0
 10
185.6276120604021
 20
99.76626611525761
 30
0.0
 10
185.405926173177
 20
99.88098686099049
 30
0.0
 10
184.964705335325
 20
100.0507472903484
 30
0.0
 10
184.7451466879262
 20
100.1061672847357
 30
0.0
 10
184.5271775798139
 20
100.1226626141054
 30
0.0
  0
SPLINE
  5
AF
330
1F
100
AcDbEntity
  8
0
  6
Continuous
 62
     7
370
    15
100
AcDbSpline
210
0.0
220
0.0
230
1.0
 70
     8
 71
     3
 72
    10
 73
     6
 74
     0
 42
0.000000001
 43
0.00000001
 40
0.0
 40
0.0
 40
0.0
 40
0.0
 40
0.5
 40
0.5
 40
1.0
 40
1.0
 40
1.0
 40
1.0
 10
174.9328376109677
 20
67.28647041290273
 30
0.0
 10
174.9814881795473
 20
67.25851342163531
 30
0.0
 10
175.0388733915067
 20
67.23457113660852
 30
0.0
 10
175.1695864996728
 20
67.20045267351279
 30
0.0
 10
175.2423260334114
 20
67.19066533874893
 30
0.0
 10
175.3171775798136
 20
67.19066533874894
 30
0.0
  0
SPLINE
  5
B0
330
1F
100
AcDbEntity
  8
0
  6
Continuous
 62
     7
370
    15
100
AcDbSpline
210
0.0
220
0.0
230
1.0
 70
     8
 71
     3
 72
    10
 73
     6
 74
     0
 42
0.000000001
 43
0.00000001
 40
0.0
 40
0.0
 40
0.0
 40
0.0
 40
0.5
 40
0.5
 40
1.0
 40
1.0
 40
1.0
 40
1.0
 10
174.9328376109677
 20
67.28647041290272
 30
0.0
 10
174.8746496043854
 20
67.35405414308153
 30
0.0
 10
174.8222071378592
 20
67.43453037772329
 30
0.0
 10
174.7438548306805
 20
67.61756600070602
 30
0.0
 10
174.7171775798136
 20
67.72344170350163
 30
0.0
 10
174.7171775798136
 20
67.83095501272227
 30
0.0
  0
LINE
  5
B1
330
1F
100
AcDbEntity
  8
0
  6
Continuous
 62
     7
370
    15
100
AcDbLine
 10
174.717177499
 20
67.8309534825
 30
0.0
 11
174.717177499
 21
143.7699251957
 31
0.0
  0
SPLINE
  5
B2
330
1F
100
AcDbEntity
  8
0
  6
Continuous
 62
     7
370
    15
100
AcDbSpline
210
0.0
220
0.0
230
1.0
 70
    24
 71
     3
 72
    14
 73
    10
 74
     0
 42
0.000000001
 43
0.00000001
 40
0.0
 40
0.0
 40
0.0
 40
0.0
 40
0.25
 40
0.25
 40
0.5
 40
0.5
 40
0.75
 40
0.75
 40
1.0
 40
1.0
 40
1.0
 40
1.0
 10
175.3171775798136
 20
143.769924680095
 30
0.0
 10
175.22815562747
 20
143.769924680095
 30
0.0
 10
175.1384689281964
 20
143.769924680095
 30
0.0
 10
174.9847421026391
 20
143.769924680095
 30
0.0
 10
174.9195372080123
 20
143.769924680095
 30
0.0
 10
174.8169465138419
 20
143.769924680095
 30
0.0
 10
174.779309059526
 20
143.769924680095
 30
0.0
 10
174.7292171441408
 20
143.769924680095
 30
0.0
 10
174.7171775798136
 20
143.769924680095
 30
0.0
 10
174.7171775798136
 20
143.769924680095
 30
0.0
  0
SPLINE
  5
B3
330
1F
100
AcDbEntity
  8
0
  6
Continuous
 62
     7
370
    15
100
AcDbSpline
210
0.0
220
0.0
230
1.0
 70
     8
 71
     3
 72
    12
 73
     8
 74
     0
 42
0.000000001
 43
0.00000001
 40
0.0
 40
0.0
 40
0.0
 40
0.0
 40
0.2499999999999992
 40
0.2499999999999992
 40
0.4999999999999984
 40
0.4999999999999984
 40
1.0
 40
1.0
 40
1.0
 40
1.0
 10
189.9671775798136
 20
67.19066533874896
 30
0.0
 10
190.0631503329885
 20
67.19066533874893
 30
0.0
 10
190.155578297143
 20
67.20693866285754
 30
0.0
 10
190.3120083972524
 20
67.26031238485395
 30
0.0
 10
190.3754868220253
 20
67.29644064238828
 30
0.0
 10
190.5237659828524
 20
67.41714183866755
 30
0.0
 10
190.5671775798136
 20
67.51099142503273
 30
0.0
 10
190.5671775798136
 20
67.60529569997995
 30
0.0
  0
SPLINE
  5
B4
330
1F
100
AcDbEntity
  8
0
  6
Continuous
 62
     7
370
    15
100
AcDbSpline
210
0.0
220
0.0
230
1.0
 70
    24
 71
     3
 72
    12
 73
     8
 74
     0
 42
0.000000001
 43
0.00000001
 40
0.0
 40
0.0
 40
0.0
 40
0.0
 40
0.5
 40
0.5
 40
0.75
 40
0.75
 40
1.0
 40
1.0
 40
1.0
 40
1.0
 10
190.5671775798136
 20
143.769924680095
 30
0.0
 10
190.5671775798136
 20
143.769924680095
 30
0.0
 10
190.5190468914282
 20
143.769924680095
 30
0.0
 10
190.3651498356252
 20
143.769924680095
 30
0.0
 10
190.2996852706184
 20
143.769924680095
 30
0.0
 10
190.1461559500083
 20
143.769924680095
 30
0.0
 10
190.0578072892725
 20
143.769924680095
 30
0.0
 10
189.9671775798135
 20
143.769924680095
 30
0.0
  0
LINE
  5
B5
330
1F
100
AcDbEntity
  8
0
  6
Continuous
 62
     7
370
    15
100
AcDbLine
 10
190.5671778153
 20
67.6052940227
 30
0.0
 11
190.5671778153
 21
143.7699251957
 31
0.0
  0
SPLINE
  5
B6
330
1F
100
AcDbEntity
  8
0
  6
Continuous
 62
     7
370
    15
100
AcDbSpline
210
0.0
220
0.0
230
1.0
 70
     8
 71
     3
 72
    14
 73
    10
 74
     0
 42
0.000000001
 43
0.00000001
 40
0.0
 40
0.0
 40
0.0
 40
0.0
 40
0.25
 40
0.25
 40
0.5
 40
0.5
 40
0.75
 40
0.75
 40
1.0
 40
1.0
 40
1.0
 40
1.0
 10
184.5271775798136
 20
100.1682768361179
 30
0.0
 10
184.5271775798136
 20
100.2102532179714
 30
0.0
 10
184.4975346258424
 20
100.2381036056123
 30
0.0
 10
184.3908797921123
 20
100.2516024809023
 30
0.0
 10
184.3146013975082
 20
100.2369869788646
 30
0.0
 10
184.1465498544417
 20
100.1648977746965
 30
0.0
 10
184.0554300478334
 20
100.1077601642137
 30
0.0
 10
183.8827529355807
 20
99.96553246362247
 30
0.0
 10
183.8018304960526
 20
99.8819686381104
 30
0.0
 10
183.7271775798136
 20
99.78859896621451
 30
0.0
  0
SPLINE
  5
B7
330
1F
100
AcDbEntity
  8
0
  6
Continuous
 62
     7
370
    15
100
AcDbSpline
210
0.0
220
0.0
230
1.0
 70
     8
 71
     3
 72
    10
 73
     6
 74
     0
 42
0.000000001
 43
0.00000001
 40
0.0
 40
0.0
 40
0.0
 40
0.0
 40
0.5
 40
0.5
 40
1.0
 40
1.0
 40
1.0
 40
1.0
 10
184.5271775798139
 20
95.99062141547387
 30
0.0
 10
184.7440684123347
 20
95.7535824760253
 30
0.0
 10
184.9632210489935
 20
95.55141224103183
 30
0.0
 10
185.4047055492624
 20
95.20066016951311
 30
0.0
 10
185.6279080145358
 20
95.05198407711627
 30
0.0
 10
185.8503390872755
 20
94.93098429209378
 30
0.0
  0
LINE
  5
B8
330
1F
100
AcDbEntity
  8
0
  6
Continuous
 62
     7
370
    15
100
AcDbLine
 10
184.5271774585
 20
96.0362364687
 30
0.0
 11
184.5271774585
 21
95.9906221516
 31
0.0
  0
SPLINE
  5
B9
330
1F
100
AcDbEntity
  8
0
  6
Continuous
 62
     7
370
    15
100
AcDbSpline
210
0.0
220
0.0
230
1.0
 70
     8
 71
     3
 72
    16
 73
    12
 74
     0
 42
0.000000001
 43
0.00000001
 40
0.0
 40
0.0
 40
0.0
 40
0.0
 40
0.2500000000000014
 40
0.2500000000000014
 40
0.5000000000000028
 40
0.5000000000000028
 40
0.6250000000000047
 40
0.6250000000000047
 40
0.7500000000000067
 40
0.7500000000000067
 40
1.0
 40
1.0
 40
1.0
 40
1.0
 10
183.7271775798136
 20
96.94463512316086
 30
0.0
 10
183.8011854700358
 20
96.8542875429752
 30
0.0
 10
183.8818034650247
 20
96.76632797017555
 30
0.0
 10
184.055571450529
 20
96.58999304611396
 30
0.0
 10
184.1463225814705
 20
96.50438580544795
 30
0.0
 10
184.2724356789319
 20
96.38319010942298
 30
0.0
 10
184.3120124397952
 20
96.34465853043211
 30
0.0
 10
184.3844950964964
 20
96.2702625443028
 30
0.0
 10
184.4174230869653
 20
96.2342457563813
 30
0.0
 10
184.4972132569602
 20
96.1354930805643
 30
0.0
 10
184.5271775798136
 20
96.0787290787822
 30
0.0
 10
184.5271775798136
 20
96.03623563748664
 30
0.0
  0
SPLINE
  5
BA
330
1F
100
AcDbEntity
  8
0
  6
Continuous
 62
     7
370
    15
100
AcDbSpline
210
0.0
220
0.0
230
1.0
 70
     8
 71
     3
 72
    16
 73
    12
 74
     0
 42
0.000000001
 43
0.00000001
 40
0.0
 40
0.0
 40
0.0
 40
0.0
 40
0.2500000000000009
 40
0.2500000000000009
 40
0.5000000000000018
 40
0.5000000000000018
 40
0.7500000000000011
 40
0.7500000000000011
 40
0.8750000000000006
 40
0.8750000000000006
 40
1.0
 40
1.0
 40
1.0
 40
1.0
 10
183.7271775798136
 20
99.78859896621451
 30
0.0
 10
183.5617634733334
 20
99.58171273018915
 30
0.0
 10
183.4355661423579
 20
99.35584403238039
 30
0.0
 10
183.261159844027
 20
98.86697478676751
 30
0.0
 10
183.2173298049301
 20
98.61520773342292
 30
0.0
 10
183.2170261319602
 20
98.1034284088406
 30
0.0
 10
183.2608829920204
 20
97.85237369975788
 30
0.0
 10
183.3908047512876
 20
97.49152513161577
 30
0.0
 10
183.4449195626956
 20
97.37425236326722
 30
0.0
 10
183.5715965528391
 20
97.15176341192839
 30
0.0
 10
183.6444702731998
 20
97.04560280368511
 30
0.0
 10
183.7271775798136
 20
96.94463512316086
 30
0.0
  0
SPLINE
  5
BB
330
1F
100
AcDbEntity
  8
0
  6
Continuous
 62
     7
370
    15
100
AcDbSpline
210
0.0
220
0.0
230
1.0
 70
    24
 71
     3
 72
    14
 73
    10
 74
     0
 42
0.000000001
 43
0.00000001
 40
0.0
 40
0.0
 40
0.0
 40
0.0
 40
0.25
 40
0.25
 40
0.5
 40
0.5
 40
0.75
 40
0.75
 40
1.0
 40
1.0
 40
1.0
 40
1.0
 10
184.5271775798136
 20
143.769924680095
 30
0.0
 10
184.5271775798136
 20
143.769924680095
 30
0.0
 10
184.5108965450378
 20
143.769924680095
 30
0.0
 10
184.4462334825132
 20
143.769924680095
 30
0.0
 10
184.3967536862245
 20
143.769924680095
 30
0.0
 10
184.2627839290858
 20
143.769924680095
 30
0.0
 10
184.1766692024863
 20
143.769924680095
 30
0.0
 10
183.9712130867733
 20
143.769924680095
 30
0.0
 10
183.8497925495805
 20
143.769924680095
 30
0.0
 10
183.7271775798136
 20
143.769924680095
 30
0.0
  0
SPLINE
  5
BC
330
1F
100
AcDbEntity
  8
0
  6
Continuous
 62
     7
370
    15
100
AcDbSpline
210
0.0
220
0.0
230
1.0
 70
     8
 71
     3
 72
    14
 73
    10
 74
     0
 42
0.000000001
 43
0.00000001
 40
0.0
 40
0.0
 40
0.0
 40
0.0
 40
0.25
 40
0.25
 40
0.5
 40
0.5
 40
0.75
 40
0.75
 40
1.0
 40
1.0
 40
1.0
 40
1.0
 10
181.5071775798136
 20
70.27215841422517
 30
0.0
 10
181.4007325719043
 20
70.27215841422516
 30
0.0
 10
181.2938338206309
 20
70.24958886479206
 30
0.0
 10
181.0976155651884
 20
70.16314577355013
 30
0.0
 10
181.0079572517239
 20
70.098841855883
 30
0.0
 10
180.8625035388428
 20
69.94387234184003
 30
0.0
 10
180.8044677561167
 20
69.8511068555963
 30
0.0
 10
180.727182601732
 20
69.6526399739529
 30
0.0
 10
180.7071775798136
 20
69.54561555215913
 30
0.0
 10
180.7071775798136
 20
69.4388331916883
 30
0.0
  0
SPLINE
  5
BD
330
1F
100
AcDbEntity
  8
0
  6
Continuous
 62
     7
370
    15
100
AcDbSpline
210
0.0
220
0.0
230
1.0
 70
    24
 71
     3
 72
    14
 73
    10
 74
     0
 42
0.000000001
 43
0.00000001
 40
0.0
 40
0.0
 40
0.0
 40
0.0
 40
0.25
 40
0.25
 40
0.5
 40
0.5
 40
0.75
 40
0.75
 40
1.0
 40
1.0
 40
1.0
 40
1.0
 10
181.5071775798136
 20
143.769924680095
 30
0.0
 10
181.3841962802673
 20
143.769924680095
 30
0.0
 10
181.2640063918653
 20
143.769924680095
 30
0.0
 10
181.0589825621861
 20
143.769924680095
 30
0.0
 10
180.972388073384
 20
143.769924680095
 30
0.0
 10
180.8372801866216
 20
143.769924680095
 30
0.0
 10
180.7887571015935
 20
143.769924680095
 30
0.0
 10
180.7230745928667
 20
143.769924680095
 30
0.0
 10
180.7071775798136
 20
143.769924680095
 30
0.0
 10
180.7071775798136
 20
143.769924680095
 30
0.0
  0
LINE
  5
BE
330
1F
100
AcDbEntity
  8
0
  6
Continuous
 62
     7
370
    15
100
AcDbLine
 10
183.7271778862
 20
70.2721585668
 30
0.0
 11
181.5071777458
 21
70.2721585668
 31
0.0
  0
LINE
  5
BF
330
1F
100
AcDbEntity
  8
0
  6
Continuous
 62
     7
370
    15
100
AcDbLine
 10
183.7271778862
 20
143.7699251957
 30
0.0
 11
181.5071777458
 21
143.7699251957
 31
0.0
  0
SPLINE
  5
C0
330
1F
100
AcDbEntity
  8
0
  6
Continuous
 62
     7
370
    15
100
AcDbSpline
210
0.0
220
0.0
230
1.0
 70
     8
 71
     3
 72
     8
 73
     4
 74
     0
 42
0.000000001
 43
0.00000001
 40
0.0000000000000004
 40
0.0000000000000004
 40
0.0000000000000004
 40
0.0000000000000004
 40
0.0011862984959128
 40
0.0011862984959128
 40
0.0011862984959128
 40
0.0011862984959128
 10
185.3972254103138
 20
67.73400961311859
 30
0.0
 10
185.5472568801851
 20
67.55268951880755
 30
0.0
 10
185.6983143254045
 20
67.37157718836717
 30
0.0
 10
185.8503390872755
 20
67.19066533874896
 30
0.0
  0
SPLINE
  5
C1
330
1F
100
AcDbEntity
  8
0
  6
Continuous
 62
     7
370
    15
100
AcDbSpline
210
0.0
220
0.0
230
1.0
 70
     8
 71
     3
 72
     8
 73
     4
 74
     0
 42
0.000000001
 43
0.00000001
 40
0.0
 40
0.0
 40
0.0
 40
0.0
 40
1.0
 40
1.0
 40
1.0
 40
1.0
 10
185.3972254103168
 20
67.73400961312025
 30
0.0
 10
185.1069311760553
 20
68.2559118788428
 30
0.0
 10
184.8169060258379
 20
68.7779652611022
 30
0.0
 10
184.5271775798136
 20
69.30018527126516
 30
0.0
  0
LINE
  5
C2
330
1F
100
AcDbEntity
  8
0
  6
Continuous
 62
     7
370
    15
100
AcDbLine
 10
184.5271774585
 20
69.3001856245
 30
0.0
 11
184.5271774585
 21
95.9906221516
 31
0.0
  0
SPLINE
  5
C3
330
1F
100
AcDbEntity
  8
0
  6
Continuous
 62
     7
370
    15
100
AcDbSpline
210
0.0
220
0.0
230
1.0
 70
     8
 71
     3
 72
    14
 73
    10
 74
     0
 42
0.000000001
 43
0.00000001
 40
0.0
 40
0.0
 40
0.0
 40
0.0
 40
0.25
 40
0.25
 40
0.5
 40
0.5
 40
0.75
 40
0.75
 40
1.0
 40
1.0
 40
1.0
 40
1.0
 10
184.5271775798136
 20
69.43883319168832
 30
0.0
 10
184.5271775798136
 20
69.54589717802912
 30
0.0
 10
184.5071937535736
 20
69.65263650440365
 30
0.0
 10
184.4297586711401
 20
69.85138640659444
 30
0.0
 10
184.3718197489807
 20
69.94394062308696
 30
0.0
 10
184.2261819432199
 20
70.09903756649254
 30
0.0
 10
184.1373929468846
 20
70.1627777234054
 30
0.0
 10
183.9408445866801
 20
70.249526280493
 30
0.0
 10
183.8347053569807
 20
70.27215841422516
 30
0.0
 10
183.7271775798136
 20
70.27215841422516
 30
0.0
  0
LINE
  5
C4
330
1F
100
AcDbEntity
  8
0
  6
Continuous
 62
     7
370
    15
100
AcDbLine
 10
171.5171775798
 20
78.9949258007
 30
0.0
 11
171.5171775798
 21
148.8449235595
 31
0.0
  0
LINE
  5
C5
330
1F
100
AcDbEntity
  8
0
  6
Continuous
 62
     7
370
    15
100
AcDbLine
 10
189.9671769718
 20
160.69976959
 30
0.0
 11
185.8503391052
 21
160.69976959
 31
0.0
  0
LINE
  5
C6
330
1F
100
AcDbEntity
  8
0
  6
Continuous
 62
     7
370
    15
100
AcDbLine
 10
185.8503391052
 20
152.4310034848
 30
0.0
 11
189.9671769718
 21
152.4310034848
 31
0.0
  0
LINE
  5
C7
330
1F
100
AcDbEntity
  8
0
  6
Continuous
 62
     7
370
    15
100
AcDbLine
 10
185.8503391052
 20
152.4310034848
 30
0.0
 11
185.8503391052
 21
160.69976959
 31
0.0
  0
SPLINE
  5
C8
330
1F
100
AcDbEntity
  8
0
  6
Continuous
 62
     7
370
    15
100
AcDbSpline
210
0.0
220
0.0
230
1.0
 70
     8
 71
     3
 72
    12
 73
     8
 74
     0
 42
0.000000001
 43
0.00000001
 40
0.0
 40
0.0
 40
0.0
 40
0.0
 40
0.4999999999999982
 40
0.4999999999999982
 40
0.7499999999999991
 40
0.7499999999999991
 40
1.0
 40
1.0
 40
1.0
 40
1.0
 10
190.5671775798136
 20
160.2149116333254
 30
0.0
 10
190.5671775798136
 20
160.3351042399906
 30
0.0
 10
190.5132091495446
 20
160.4530115405056
 30
0.0
 10
190.3521225086117
 20
160.5923910849889
 30
0.0
 10
190.2873600891386
 20
160.6305563825529
 30
0.0
 10
190.1353060875741
 20
160.6852086448863
 30
0.0
 10
190.0525763144249
 20
160.6997693348705
 30
0.0
 10
189.9671775798136
 20
160.6997693348705
 30
0.0
  0
SPLINE
  5
C9
330
1F
100
AcDbEntity
  8
0
  6
Continuous
 62
     7
370
    15
100
AcDbSpline
210
0.0
220
0.0
230
1.0
 70
     8
 71
     3
 72
    12
 73
     8
 74
     0
 42
0.000000001
 43
0.00000001
 40
0.0
 40
0.0
 40
0.0
 40
0.0
 40
0.2499999999999946
 40
0.2499999999999946
 40
0.4999999999999892
 40
0.4999999999999892
 40
1.0
 40
1.0
 40
1.0
 40
1.0
 10
189.9671775798141
 20
152.4310026317702
 30
0.0
 10
190.0567146379852
 20
152.4310026317701
 30
0.0
 10
190.1466138167738
 20
152.4041753329391
 30
0.0
 10
190.3000386757731
 20
152.3124683676795
 30
0.0
 10
190.3650877331508
 20
152.2482134260807
 30
0.0
 10
190.5184069644151
 20
152.0288012800191
 30
0.0
 10
190.5671775798136
 20
151.8469859702222
 30
0.0
 10
190.5671775798136
 20
151.6690057947393
 30
0.0
  0
LINE
  5
CA
330
1F
100
AcDbEntity
  8
0
  6
Continuous
 62
     7
370
    15
100
AcDbLine
 10
190.5671778153
 20
151.6690065301
 30
0.0
 11
190.5671778153
 21
160.2149118818
 31
0.0
  0
SPLINE
  5
CB
330
1F
100
AcDbEntity
  8
0
  6
Continuous
 62
     7
370
    15
100
AcDbSpline
210
0.0
220
0.0
230
1.0
 70
     8
 71
     3
 72
    14
 73
    10
 74
     0
 42
0.000000001
 43
0.00000001
 40
0.0
 40
0.0
 40
0.0
 40
0.0
 40
0.25
 40
0.25
 40
0.5
 40
0.5
 40
0.75
 40
0.75
 40
1.0
 40
1.0
 40
1.0
 40
1.0
 10
184.5271775798136
 20
158.4010161685016
 30
0.0
 10
184.5271775798136
 20
158.2936737963541
 30
0.0
 10
184.5071813877494
 20
158.1870447895063
 30
0.0
 10
184.4294833034047
 20
157.9878930103551
 30
0.0
 10
184.3714901585112
 20
157.8954101120396
 30
0.0
 10
184.2254436656883
 20
157.7401742769305
 30
0.0
 10
184.1361059265207
 20
157.6764403353181
 30
0.0
 10
183.9413509144602
 20
157.5906100689229
 30
0.0
 10
183.8338206432514
 20
157.5676909459644
 30
0.0
 10
183.7271775798115
 20
157.5676909459647
 30
0.0
  0
SPLINE
  5
CC
330
1F
100
AcDbEntity
  8
0
  6
Continuous
 62
     7
370
    15
100
AcDbSpline
210
0.0
220
0.0
230
1.0
 70
     8
 71
     3
 72
    14
 73
    10
 74
     0
 42
0.000000001
 43
0.00000001
 40
0.0
 40
0.0
 40
0.0
 40
0.0
 40
0.25
 40
0.25
 40
0.5
 40
0.5
 40
0.75
 40
0.75
 40
1.0
 40
1.0
 40
1.0
 40
1.0
 10
183.7271775798136
 20
148.259806741628
 30
0.0
 10
183.8485041097994
 20
148.259806741628
 30
0.0
 10
183.9702088183616
 20
148.2985882570612
 30
0.0
 10
184.1766486972477
 20
148.429742878755
 30
0.0
 10
184.2625992357038
 20
148.5203949633422
 30
0.0
 10
184.3965109954521
 20
148.7225119982835
 30
0.0
 10
184.4460754322712
 20
148.8362469418227
 30
0.0
 10
184.5109294602392
 20
149.0692065588891
 30
0.0
 10
184.5271775798136
 20
149.1919048252184
 30
0.0
 10
184.5271775798136
 20
149.312967781812
 30
0.0
  0
SPLINE
  5
CD
330
1F
100
AcDbEntity
  8
0
  6
Continuous
 62
     7
370
    15
100
AcDbSpline
210
0.0
220
0.0
230
1.0
 70
     8
 71
     3
 72
    12
 73
     8
 74
     0
 42
0.000000001
 43
0.00000001
 40
0.0
 40
0.0
 40
0.0
 40
0.0
 40
0.5000000000000003
 40
0.5000000000000003
 40
0.7500000000000001
 40
0.7500000000000001
 40
1.0
 40
1.0
 40
1.0
 40
1.0
 10
174.7171775798136
 20
151.6690057947393
 30
0.0
 10
174.7171775798136
 20
151.8473660619786
 30
0.0
 10
174.7644897011896
 20
152.0261384736826
 30
0.0
 10
174.918849779071
 20
152.2479003390343
 30
0.0
 10
174.9837353139899
 20
152.3121923776507
 30
0.0
 10
175.1389680132182
 20
152.4048368618104
 30
0.0
 10
175.2280434258865
 20
152.4310026317702
 30
0.0
 10
175.3171775798136
 20
152.4310026317702
 30
0.0
  0
LINE
  5
CE
330
1F
100
AcDbEntity
  8
0
  6
Continuous
 62
     7
370
    15
100
AcDbLine
 10
175.3171776439
 20
152.4310034848
 30
0.0
 11
179.3840165268
 21
152.4310034848
 31
0.0
  0
SPLINE
  5
CF
330
1F
100
AcDbEntity
  8
0
  6
Continuous
 62
     7
370
    15
100
AcDbSpline
210
0.0
220
0.0
230
1.0
 70
     8
 71
     3
 72
     8
 73
     4
 74
     0
 42
0.000000001
 43
0.00000001
 40
0.0
 40
0.0
 40
0.0
 40
0.0
 40
1.0
 40
1.0
 40
1.0
 40
1.0
 10
179.3840160723517
 20
152.4310026317701
 30
0.0
 10
179.8308648002794
 20
151.4517667335138
 30
0.0
 10
180.2722311581753
 20
150.470564740787
 30
0.0
 10
180.7071775798136
 20
149.4870604224046
 30
0.0
  0
LINE
  5
D0
330
1F
100
AcDbEntity
  8
0
  6
Continuous
 62
     7
370
    15
100
AcDbLine
 10
180.7071772422
 20
149.4870592989
 30
0.0
 11
180.7071772422
 21
149.3129690326
 31
0.0
  0
SPLINE
  5
D1
330
1F
100
AcDbEntity
  8
0
  6
Continuous
 62
     7
370
    15
100
AcDbSpline
210
0.0
220
0.0
230
1.0
 70
     8
 71
     3
 72
    12
 73
     8
 74
     0
 42
0.000000001
 43
0.00000001
 40
0.0
 40
0.0
 40
0.0
 40
0.0
 40
0.499999999999994
 40
0.499999999999994
 40
0.749999999999997
 40
0.749999999999997
 40
1.0
 40
1.0
 40
1.0
 40
1.0
 10
180.7071775798136
 20
149.312967781812
 30
0.0
 10
180.7071775798136
 20
149.0705446858313
 30
0.0
 10
180.7700987212554
 20
148.8247741652299
 30
0.0
 10
180.9721276182579
 20
148.519827985813
 30
0.0
 10
181.0584213429051
 20
148.4292351192145
 30
0.0
 10
181.2638951374718
 20
148.2988015562777
 30
0.0
 10
181.3838456980715
 20
148.259806741628
 30
0.0
 10
181.5071775798136
 20
148.259806741628
 30
0.0
  0
LINE
  5
D2
330
1F
100
AcDbEntity
  8
0
  6
Continuous
 62
     7
370
    15
100
AcDbLine
 10
181.5071777458
 20
148.2598071135
 30
0.0
 11
183.7271778862
 21
148.2598071135
 31
0.0
  0
SPLINE
  5
D3
330
1F
100
AcDbEntity
  8
0
  6
Continuous
 62
     7
370
    15
100
AcDbSpline
210
0.0
220
0.0
230
1.0
 70
     8
 71
     3
 72
     8
 73
     4
 74
     0
 42
0.000000001
 43
0.00000001
 40
0.0
 40
0.0
 40
0.0
 40
0.0
 40
1.0
 40
1.0
 40
1.0
 40
1.0
 10
184.5271775798136
 20
149.4870604224046
 30
0.0
 10
184.962124001452
 20
150.470564740787
 30
0.0
 10
185.4034903593478
 20
151.4517667335138
 30
0.0
 10
185.8503390872755
 20
152.4310026317701
 30
0.0
  0
LINE
  5
D4
330
1F
100
AcDbEntity
  8
0
  6
Continuous
 62
     7
370
    15
100
AcDbLine
 10
184.5271774585
 20
149.3129690326
 30
0.0
 11
184.5271774585
 21
149.4870592989
 31
0.0
  0
LINE
  5
D5
330
1F
100
AcDbEntity
  8
0
  6
Continuous
 62
     7
370
    15
100
AcDbLine
 10
190.5671778153
 20
151.6690065301
 30
0.0
 11
190.5671778153
 21
143.7699251957
 31
0.0
  0
LINE
  5
D6
330
1F
100
AcDbEntity
  8
0
  6
Continuous
 62
     7
370
    15
100
AcDbLine
 10
174.717177499
 20
151.6690065301
 30
0.0
 11
174.717177499
 21
143.7699251957
 31
0.0
  0
SPLINE
  5
D7
330
1F
100
AcDbEntity
  8
0
  6
Continuous
 62
     7
370
    15
100
AcDbSpline
210
0.0
220
0.0
230
1.0
 70
     8
 71
     3
 72
    10
 73
     6
 74
     0
 42
0.000000001
 43
0.00000001
 40
0.0
 40
0.0
 40
0.0
 40
0.0
 40
0.5
 40
0.5
 40
1.0
 40
1.0
 40
1.0
 40
1.0
 10
175.00704649876
 20
160.6300890058177
 30
0.0
 10
174.9305934088412
 20
160.5598262345971
 30
0.0
 10
174.861731686572
 20
160.4727313195554
 30
0.0
 10
174.7552194554991
 20
160.2635621913031
 30
0.0
 10
174.7171775798136
 20
160.1382446420635
 30
0.0
 10
174.7171775798136
 20
160.0088943474676
 30
0.0
  0
SPLINE
  5
D8
330
1F
100
AcDbEntity
  8
0
  6
Continuous
 62
     7
370
    15
100
AcDbSpline
210
0.0
220
0.0
230
1.0
 70
     8
 71
     3
 72
     8
 73
     4
 74
     0
 42
0.000000001
 43
0.00000001
 40
0.0
 40
0.0
 40
0.0
 40
0.0
 40
1.0
 40
1.0
 40
1.0
 40
1.0
 10
175.3171775798136
 20
160.6997693348705
 30
0.0
 10
175.2060993944762
 20
160.6997693348705
 30
0.0
 10
175.0984353905739
 20
160.6746201593159
 30
0.0
 10
175.00704649876
 20
160.6300890058177
 30
0.0
  0
LINE
  5
D9
330
1F
100
AcDbEntity
  8
0
  6
Continuous
 62
     7
370
    15
100
AcDbLine
 10
174.717177499
 20
151.6690065301
 30
0.0
 11
174.717177499
 21
160.0088958777
 31
0.0
  0
LINE
  5
DA
330
1F
100
AcDbEntity
  8
0
  6
Continuous
 62
     7
370
    15
100
AcDbLine
 10
179.3840165268
 20
160.69976959
 30
0.0
 11
175.3171776439
 21
160.69976959
 31
0.0
  0
LINE
  5
DB
330
1F
100
AcDbEntity
  8
0
  6
Continuous
 62
     7
370
    15
100
AcDbLine
 10
179.3840165268
 20
152.4310034848
 30
0.0
 11
179.3840165268
 21
160.69976959
 31
0.0
  0
LINE
  5
DC
330
1F
100
AcDbEntity
  8
0
  6
Continuous
 62
     7
370
    15
100
AcDbLine
 10
183.7271778862
 20
157.5676907934
 30
0.0
 11
181.5071777458
 21
157.5676907934
 31
0.0
  0
SPLINE
  5
DD
330
1F
100
AcDbEntity
  8
0
  6
Continuous
 62
     7
370
    15
100
AcDbSpline
210
0.0
220
0.0
230
1.0
 70
     8
 71
     3
 72
    12
 73
     8
 74
     0
 42
0.000000001
 43
0.00000001
 40
0.0
 40
0.0
 40
0.0
 40
0.0
 40
0.2500000000000007
 40
0.2500000000000007
 40
0.5000000000000014
 40
0.5000000000000014
 40
1.0
 40
1.0
 40
1.0
 40
1.0
 10
181.5071775798136
 20
157.5676909459647
 30
0.0
 10
181.4008325999376
 20
157.5676909459647
 30
0.0
 10
181.2935562525351
 20
157.5904061838243
 30
0.0
 10
181.0981804631389
 20
157.6764313507066
 30
0.0
 10
181.009626727062
 20
157.739410077635
 30
0.0
 10
180.7883688029308
 20
157.9746015880721
 30
0.0
 10
180.7071775798136
 20
158.1877778025573
 30
0.0
 10
180.7071775798136
 20
158.4010161685014
 30
0.0
  0
SPLINE
  5
DE
330
1F
100
AcDbEntity
  8
0
  6
Continuous
 62
     7
370
    15
100
AcDbSpline
210
0.0
220
0.0
230
1.0
 70
     8
 71
     3
 72
     8
 73
     4
 74
     0
 42
0.000000001
 43
0.00000001
 40
0.0
 40
0.0
 40
0.0
 40
0.0
 40
1.0
 40
1.0
 40
1.0
 40
1.0
 10
185.2938486019801
 20
159.9199579247623
 30
0.0
 10
185.0380722912246
 20
159.4599795694976
 30
0.0
 10
184.7825088931187
 20
158.9998851091897
 30
0.0
 10
184.5271775798136
 20
158.5396640889247
 30
0.0
  0
SPLINE
  5
DF
330
1F
100
AcDbEntity
  8
0
  6
Continuous
 62
     7
370
    15
100
AcDbSpline
210
0.0
220
0.0
230
1.0
 70
     8
 71
     3
 72
     8
 73
     4
 74
     0
 42
0.000000001
 43
0.00000001
 40
0.0
 40
0.0
 40
0.0
 40
0.0
 40
0.0012352705496738
 40
0.0012352705496738
 40
0.0012352705496738
 40
0.0012352705496738
 10
185.8503390872755
 20
160.6997693348705
 30
0.0
 10
185.6643906619534
 20
160.4399935791188
 30
0.0
 10
185.4788838527824
 20
160.1800595004915
 30
0.0
 10
185.2938486019802
 20
159.9199579247629
 30
0.0
  0
LINE
  5
E0
330
1F
100
AcDbEntity
  8
0
  6
Continuous
 62
     7
370
    15
100
AcDbLine
 10
184.5271774585
 20
149.4870592989
 30
0.0
 11
184.5271774585
 21
158.5396637357
 31
0.0
  0
SPLINE
  5
E1
330
1F
100
AcDbEntity
  8
0
  6
Continuous
 62
     7
370
    15
100
AcDbSpline
210
0.0
220
0.0
230
1.0
 70
     8
 71
     3
 72
     8
 73
     4
 74
     0
 42
0.000000001
 43
0.00000001
 40
0.0
 40
0.0
 40
0.0
 40
0.0
 40
0.0012352705496723
 40
0.0012352705496723
 40
0.0012352705496723
 40
0.0012352705496723
 10
179.9405065576462
 20
159.919957924764
 30
0.0
 10
179.7554713068443
 20
160.1800595004923
 30
0.0
 10
179.5699644976735
 20
160.4399935791192
 30
0.0
 10
179.3840160723517
 20
160.6997693348705
 30
0.0
  0
SPLINE
  5
E2
330
1F
100
AcDbEntity
  8
0
  6
Continuous
 62
     7
370
    15
100
AcDbSpline
210
0.0
220
0.0
230
1.0
 70
     8
 71
     3
 72
     8
 73
     4
 74
     0
 42
0.000000001
 43
0.00000001
 40
0.0
 40
0.0
 40
0.0
 40
0.0
 40
1.0
 40
1.0
 40
1.0
 40
1.0
 10
180.7071775798136
 20
158.5396640889247
 30
0.0
 10
180.4518462665083
 20
158.9998851091903
 30
0.0
 10
180.196282868402
 20
159.4599795694987
 30
0.0
 10
179.9405065576462
 20
159.919957924764
 30
0.0
  0
LINE
  5
E3
330
1F
100
AcDbEntity
  8
0
  6
Continuous
 62
     7
370
    15
100
AcDbLine
 10
180.7071772422
 20
149.4870592989
 30
0.0
 11
180.7071772422
 21
158.5396637357
 31
0.0
  0
LINE
  5
E4
330
1F
100
AcDbEntity
  8
0
  6
Continuous
 62
     7
370
    15
100
AcDbLine
 10
69.9171788077
 20
95.5410801954
 30
0.0
 11
69.9171788077
 21
132.2987691648
 31
0.0
  0
LINE
  5
E5
330
1F
100
AcDbEntity
  8
0
  6
Continuous
 62
     7
370
    15
100
AcDbLine
 10
217.5171776692
 20
113.9199246801
 30
0.0
 11
217.5171776692
 21
94.3199244476
 31
0.0
  0
LINE
  5
E6
330
1F
100
AcDbEntity
  8
0
  6
Continuous
 62
     7
370
    15
100
AcDbLine
 10
217.5171776692
 20
133.5199249126
 30
0.0
 11
217.5171776692
 21
113.9199246801
 31
0.0
  0
LINE
  5
E7
330
1F
100
AcDbEntity
  8
0
  6
Continuous
 62
     7
370
    15
100
AcDbLine
 10
217.1171783487
 20
113.9199246801
 30
0.0
 11
217.1171783487
 21
93.9199251271
 31
0.0
  0
LINE
  5
E8
330
1F
100
AcDbEntity
  8
0
  6
Continuous
 62
     7
370
    15
100
AcDbLine
 10
217.1171783487
 20
133.9199242331
 30
0.0
 11
217.1171783487
 21
113.9199246801
 31
0.0
  0
SPLINE
  5
E9
330
1F
100
AcDbEntity
  8
0
  6
Continuous
 62
     7
370
    15
100
AcDbSpline
210
0.0
220
0.0
230
1.0
 70
     8
 71
     3
 72
    20
 73
    16
 74
     0
 42
0.000000001
 43
0.00000001
 40
0.0
 40
0.0
 40
0.0
 40
0.0
 40
0.0550319765323315
 40
0.1397431230931144
 40
0.230084718509989
 40
0.332498666675623
 40
0.4475876121858037
 40
0.5695866958328437
 40
0.6305538615847566
 40
0.6933353111562981
 40
0.7533358221060791
 40
0.8153756553036581
 40
0.8703845977535845
 40
0.9275774178386222
 40
1.0
 40
1.0
 40
1.0
 40
1.0
 10
211.6482323984438
 20
133.9036074615528
 30
0.0
 10
211.6541193061645
 20
133.9049391380857
 30
0.0
 10
211.6690679764121
 20
133.9083206745917
 30
0.0
 10
211.0815328359524
 20
133.7714521127093
 30
0.0
 10
210.0188295590507
 20
133.5556299861205
 30
0.0
 10
208.4303063862232
 20
133.3081976930388
 30
0.0
 10
206.4048634998356
 20
133.1382451513849
 30
0.0
 10
204.5344065161175
 20
133.1516909946886
 30
0.0
 10
203.0745198963999
 20
133.2612493712238
 30
0.0
 10
202.0489453728754
 20
133.3815180120791
 30
0.0
 10
201.1195190397818
 20
133.5255391198027
 30
0.0
 10
200.3546806233809
 20
133.6687696247868
 30
0.0
 10
199.770327517315
 20
133.7919625181384
 30
0.0
 10
199.308166813042
 20
133.8978975943782
 30
0.0
 10
199.2873592747852
 20
133.9031786783738
 30
0.0
 10
199.2757330666119
 20
133.9061294830849
 30
0.0
  0
SPLINE
  5
EA
330
1F
100
AcDbEntity
  8
0
  6
Continuous
 62
     7
370
    15
100
AcDbSpline
210
0.0
220
0.0
230
1.0
 70
    11
 71
     3
 72
    88
 73
    84
 74
     0
 42
0.000000001
 43
0.00000001
 40
0.0
 40
0.0
 40
0.0
 40
0.0
 40
0.03125
 40
0.03125
 40
0.0624999999999999
 40
0.0624999999999999
 40
0.0937499999999999
 40
0.0937499999999999
 40
0.1093749999999999
 40
0.1093749999999999
 40
0.1249999999999999
 40
0.1249999999999999
 40
0.1562500000000004
 40
0.1562500000000004
 40
0.1718750000000004
 40
0.1718750000000004
 40
0.1875000000000003
 40
0.1875000000000003
 40
0.2187500000000003
 40
0.2187500000000003
 40
0.2343750000000003
 40
0.2343750000000003
 40
0.2500000000000003
 40
0.2500000000000003
 40
0.2812500000000007
 40
0.2812500000000007
 40
0.2968750000000009
 40
0.2968750000000009
 40
0.3125000000000011
 40
0.3125000000000011
 40
0.3437500000000015
 40
0.3437500000000015
 40
0.3593750000000017
 40
0.3593750000000017
 40
0.3750000000000019
 40
0.3750000000000019
 40
0.3906250000000021
 40
0.3906250000000021
 40
0.4062500000000023
 40
0.4062500000000023
 40
0.4375000000000027
 40
0.4375000000000027
 40
0.4531250000000028
 40
0.4531250000000028
 40
0.4687500000000029
 40
0.4687500000000029
 40
0.5000000000000028
 40
0.5000000000000028
 40
0.5312500000000026
 40
0.5312500000000026
 40
0.5625000000000022
 40
0.5625000000000022
 40
0.593750000000002
 40
0.593750000000002
 40
0.6250000000000018
 40
0.6250000000000018
 40
0.6562500000000014
 40
0.6562500000000014
 40
0.6875000000000012
 40
0.6875000000000012
 40
0.718750000000001
 40
0.718750000000001
 40
0.7500000000000007
 40
0.7500000000000007
 40
0.7812500000000006
 40
0.7812500000000006
 40
0.8125000000000004
 40
0.8125000000000004
 40
0.8281250000000004
 40
0.8281250000000004
 40
0.8437500000000004
 40
0.8437500000000004
 40
0.8750000000000002
 40
0.8750000000000002
 40
0.8906250000000002
 40
0.8906250000000002
 40
0.9062500000000002
 40
0.9062500000000002
 40
0.9375000000000002
 40
0.9375000000000002
 40
0.9687500000000001
 40
0.9687500000000001
 40
1.0
 40
1.0
 40
1.0
 40
1.0
 10
201.3099314666209
 20
118.0049280424238
 30
0.0
 10
201.6134063744486
 20
118.2429207468584
 30
0.0
 10
201.9344717878247
 20
118.4488632679773
 30
0.0
 10
202.6088641328736
 20
118.8031195240877
 30
0.0
 10
202.9642412499894
 20
118.9519990437297
 30
0.0
 10
203.6993318987642
 20
119.1885346301504
 30
0.0
 10
204.0728580759484
 20
119.274584939474
 30
0.0
 10
204.6417917111341
 20
119.3575974704307
 30
0.0
 10
204.8328860234957
 20
119.3775387889434
 30
0.0
 10
205.2180237317382
 20
119.4017386684724
 30
0.0
 10
205.4129018954765
 20
119.4059378001549
 30
0.0
 10
205.9922876634602
 20
119.3945189045807
 30
0.0
 10
206.3735689892632
 20
119.3554881024215
 30
0.0
 10
206.9381805268667
 20
119.2505496364771
 30
0.0
 10
207.125159060795
 20
119.2077907571164
 30
0.0
 10
207.4966037202118
 20
119.1062361768858
 30
0.0
 10
207.6817538726122
 20
119.0471282378796
 30
0.0
 10
208.2231619767028
 20
118.8484148921289
 30
0.0
 10
208.5682922383871
 20
118.6871181606649
 30
0.0
 10
209.0621678937584
 20
118.4009797216265
 30
0.0
 10
209.2227973488193
 20
118.2981854331221
 30
0.0
 10
209.5356910671889
 20
118.0769200983919
 30
0.0
 10
209.6884397450748
 20
117.9579192993185
 30
0.0
 10
210.1236336810219
 20
117.5841067047598
 30
0.0
 10
210.3864630658691
 20
117.31074356277
 30
0.0
 10
210.7376327380604
 20
116.8618874370462
 30
0.0
 10
210.8474569514018
 20
116.7057527921983
 30
0.0
 10
211.0514897433084
 20
116.3793029213618
 30
0.0
 10
211.1453661646542
 20
116.2091456517159
 30
0.0
 10
211.3943843401248
 20
115.6911824012155
 30
0.0
 10
211.5203418032876
 20
115.3313896343614
 30
0.0
 10
211.6450425914789
 20
114.7682697489682
 30
0.0
 10
211.6759191182737
 20
114.5750489991943
 30
0.0
 10
211.7135055905084
 20
114.1891053832131
 30
0.0
 10
211.7204312308197
 20
113.9966275312824
 30
0.0
 10
211.7111322098696
 20
113.6126358533007
 30
0.0
 10
211.6949065097512
 20
113.4211220697531
 30
0.0
 10
211.6391295632837
 20
113.0390647540412
 30
0.0
 10
211.599165634763
 20
112.8473413377848
 30
0.0
 10
211.4471615597882
 20
112.2874466026368
 30
0.0
 10
211.3035584416667
 20
111.931442256354
 30
0.0
 10
211.0288269669707
 20
111.4214189163807
 30
0.0
 10
210.9273754070705
 20
111.2559199721692
 30
0.0
 10
210.7097124230583
 20
110.939775035105
 30
0.0
 10
210.593008242549
 20
110.7881729377569
 30
0.0
 10
210.2203638224436
 20
110.3517308319193
 30
0.0
 10
209.9391849346871
 20
110.0832360708203
 30
0.0
 10
209.3380405900308
 20
109.6089289053892
 30
0.0
 10
209.0172494549103
 20
109.4012048929917
 30
0.0
 10
208.3365997328773
 20
109.0415136514193
 30
0.0
 10
207.9791005123099
 20
108.8915012881102
 30
0.0
 10
207.2501193566377
 20
108.6554376948079
 30
0.0
 10
206.8759232032692
 20
108.567918815842
 30
0.0
 10
206.1076414565075
 20
108.4547341398143
 30
0.0
 10
205.7220528447587
 20
108.4305111930318
 30
0.0
 10
204.954639921945
 20
108.4445437578318
 30
0.0
 10
204.5717250400108
 20
108.4826336598104
 30
0.0
 10
203.8075489914788
 20
108.6240562873225
 30
0.0
 10
203.4370134973805
 20
108.7254333680134
 30
0.0
 10
202.7195330241403
 20
108.9879830626131
 30
0.0
 10
202.372076065327
 20
109.1493128216609
 30
0.0
 10
201.7031784445079
 20
109.5367235425497
 30
0.0
 10
201.3917814195706
 20
109.7569311181589
 30
0.0
 10
200.8152434942289
 20
110.251567552042
 30
0.0
 10
200.548953663485
 20
110.5272919988796
 30
0.0
 10
200.0735894693042
 20
111.1358090953191
 30
0.0
 10
199.8715170246673
 20
111.4591813135239
 30
0.0
 10
199.6237381999176
 20
111.9743603376466
 30
0.0
 10
199.5504372587546
 20
112.1511437668418
 30
0.0
 10
199.4237389726924
 20
112.515599019581
 30
0.0
 10
199.3702701560786
 20
112.7043127836376
 30
0.0
 10
199.2460570619873
 20
113.2703988007547
 30
0.0
 10
199.2089667612567
 20
113.6524884355161
 30
0.0
 10
199.2235314678484
 20
114.2328561480248
 30
0.0
 10
199.2404748030044
 20
114.4286476942517
 30
0.0
 10
199.2972990372371
 20
114.8119321908509
 30
0.0
 10
199.337072988906
 20
115.0005188025857
 30
0.0
 10
199.4891735581283
 20
115.557487218461
 30
0.0
 10
199.6365635091242
 20
115.9210264621448
 30
0.0
 10
200.0032267923511
 20
116.5978254736748
 30
0.0
 10
200.2219256194346
 20
116.9131601947372
 30
0.0
 10
200.7261258378093
 20
117.5009340031926
 30
0.0
 10
201.0064565587932
 20
117.7669353379892
 30
0.0
 10
201.3099314666209
 20
118.0049280424238
 30
0.0
  0
ARC
  5
EB
330
1F
100
AcDbEntity
  8
0
  6
Continuous
 62
     7
370
    15
100
AcDbCircle
 10
185.5703078864
 20
98.7207702999
 30
0.0
 40
2.356059287371927
100
AcDbArc
 50
185.4017539361
 51
252.5076603369
  0
ARC
  5
EC
330
1F
100
AcDbEntity
  8
0
  6
Continuous
 62
     7
370
    15
100
AcDbCircle
 10
185.7290094522
 20
98.8487441198
 30
0.0
 40
2.528339291156964
100
AcDbArc
 50
249.9484111729
 51
339.7571495746
  0
ARC
  5
ED
330
1F
100
AcDbEntity
  8
0
  6
Continuous
 62
     7
370
    15
100
AcDbCircle
 10
185.5483192836
 20
98.6371090589
 30
0.0
 40
2.183107218796913
100
AcDbArc
 50
159.3153835038
 51
252.9991548677
  0
ARC
  5
EE
330
1F
100
AcDbEntity
  8
0
  6
Continuous
 62
     7
370
    15
100
AcDbCircle
 10
185.7319158035
 20
98.7733475347
 30
0.0
 40
2.370961923333675
100
AcDbArc
 50
249.7171366798
 51
345.4454345851
  0
ARC
  5
EF
330
1F
100
AcDbEntity
  8
0
  6
Continuous
 62
     7
370
    15
100
AcDbCircle
 10
185.5626757745
 20
98.6263261955
 30
0.0
 40
1.837014598414573
100
AcDbArc
 50
124.7922920042
 51
253.2461581738
  0
ARC
  5
F0
330
1F
100
AcDbEntity
  8
0
  6
Continuous
 62
     7
370
    15
100
AcDbCircle
 10
185.7376914954
 20
98.7191345615
 30
0.0
 40
1.981345107956152
100
AcDbArc
 50
249.1701466721
 51
357.5180965593
  0
LINE
  5
F1
330
1F
100
AcDbEntity
  8
0
  6
HIDDEN
 62
     7
370
     0
100
AcDbLine
 10
200.4671777616
 20
133.2199254222
 30
0.0
 11
203.7287904898
 21
133.2199254222
 31
0.0
  0
LINE
  5
F2
330
1F
100
AcDbEntity
  8
0
  6
HIDDEN
 62
     7
370
     0
100
AcDbLine
 10
207.0514439623
 20
133.2199254222
 30
0.0
 11
210.4671775381
 21
133.2199254222
 31
0.0
  0
LINE
  5
F3
330
1F
100
AcDbEntity
  8
0
  6
HIDDEN
 62
     7
370
     0
100
AcDbLine
 10
200.4671777616
 20
126.6974236033
 30
0.0
 11
210.4671775381
 21
126.6974236033
 31
0.0
  0
SPLINE
  5
F4
330
1F
100
AcDbEntity
  8
0
  6
HIDDEN
 62
     7
370
     0
100
AcDbSpline
210
0.0
220
0.0
230
1.0
 70
     8
 71
     3
 72
    10
 73
     6
 74
     0
 42
0.000000001
 43
0.00000001
 40
0.0
 40
0.0
 40
0.0
 40
0.0
 40
0.4391252232187124
 40
0.7513743273705545
 40
1.0
 40
1.0
 40
1.0
 40
1.0
 10
202.9671772400671
 20
133.8066754079869
 30
0.0
 10
203.325079196078
 20
133.6354488141071
 30
0.0
 10
203.937474766278
 20
133.3424679967874
 30
0.0
 10
204.8276898058348
 20
133.4727043985065
 30
0.0
 10
205.2707693919947
 20
133.7041013242649
 30
0.0
 10
205.4671785811717
 20
133.8066754079869
 30
0.0
  0
SPLINE
  5
F5
330
1F
100
AcDbEntity
  8
0
  6
HIDDEN
 62
     7
370
     0
100
AcDbSpline
210
0.0
220
0.0
230
1.0
 70
     8
 71
     3
 72
    10
 73
     6
 74
     0
 42
0.000000001
 43
0.00000001
 40
0.0
 40
0.0
 40
0.0
 40
0.0
 40
0.4391257100694663
 40
0.7513740982574557
 40
1.0
 40
1.0
 40
1.0
 40
1.0
 10
205.4671785811717
 20
133.8066754079869
 30
0.0
 10
205.8250807205531
 20
133.6354486836119
 30
0.0
 10
206.4374757388261
 20
133.3424680571655
 30
0.0
 10
207.3276879591925
 20
133.4727048074561
 30
0.0
 10
207.7707669293778
 20
133.7041013226851
 30
0.0
 10
207.9671761969859
 20
133.8066754079869
 30
0.0
  0
LINE
  5
F6
330
1F
100
AcDbEntity
  8
0
  6
HIDDEN
 62
     7
370
     0
100
AcDbLine
 10
205.4671785812
 20
126.9199249483
 30
0.0
 11
205.4671785812
 21
133.806675408
 31
0.0
  0
LINE
  5
F7
330
1F
100
AcDbEntity
  8
0
  6
HIDDEN
 62
     7
370
     0
100
AcDbLine
 10
202.6473759691
 20
119.4199246503
 30
0.0
 11
208.2869774679
 21
119.4199246503
 31
0.0
  0
LINE
  5
F8
330
1F
100
AcDbEntity
  8
0
  6
HIDDEN
 62
     7
370
     0
100
AcDbLine
 10
206.7171773891
 20
126.9199249483
 30
0.0
 11
205.4671785812
 21
126.9199249483
 31
0.0
  0
LINE
  5
F9
330
1F
100
AcDbEntity
  8
0
  6
HIDDEN
 62
     7
370
     0
100
AcDbLine
 10
205.4671785812
 20
126.9199249483
 30
0.0
 11
204.217176048
 21
126.9199249483
 31
0.0
  0
LINE
  5
FA
330
1F
100
AcDbEntity
  8
0
  6
HIDDEN
 62
     7
370
     0
100
AcDbLine
 10
202.9671772401
 20
125.9199247844
 30
0.0
 11
207.967176197
 21
125.9199247844
 31
0.0
  0
LINE
  5
FB
330
1F
100
AcDbEntity
  8
0
  6
HIDDEN
 62
     7
370
     0
100
AcDbLine
 10
204.217176048
 20
126.9199249483
 30
0.0
 11
202.9671772401
 21
126.9199249483
 31
0.0
  0
LINE
  5
FC
330
1F
100
AcDbEntity
  8
0
  6
HIDDEN
 62
     7
370
     0
100
AcDbLine
 10
207.967176197
 20
126.9199249483
 30
0.0
 11
206.7171773891
 21
126.9199249483
 31
0.0
  0
LINE
  5
FD
330
1F
100
AcDbEntity
  8
0
  6
HIDDEN
 62
     7
370
     0
100
AcDbLine
 10
202.9671772401
 20
126.9199249483
 30
0.0
 11
202.9671772401
 21
133.806675408
 31
0.0
  0
LINE
  5
FE
330
1F
100
AcDbEntity
  8
0
  6
HIDDEN
 62
     7
370
     0
100
AcDbLine
 10
207.967176197
 20
126.9199249483
 30
0.0
 11
207.967176197
 21
133.806675408
 31
0.0
  0
LWPOLYLINE
  5
FF
330
1F
100
AcDbEntity
  8
0
  6
HIDDEN
 62
     7
370
     0
100
AcDbPolyline
 90
       23
 70
   128
 43
0.0
 10
185.7171776722
 20
98.0626081265
 10
186.4215089957
 20
98.1577688045
 10
187.0687800477
 20
98.4355394877
 10
187.6065517793
 20
98.8734194226
 10
187.9912569205
 20
99.4359326697
 10
188.1917315553
 20
100.0775086842
 10
188.1917315553
 20
100.7461694218
 10
187.9912569205
 20
101.3877454362
 10
187.6065517793
 20
101.9502586834
 10
187.0687800477
 20
102.3881386183
 10
186.4215089957
 20
102.6659102328
 10
185.7171776722
 20
102.7610709108
 10
185.0128463487
 20
102.6659102328
 10
184.3655752967
 20
102.3881386183
 10
183.8278035651
 20
101.9502586834
 10
183.4430974926
 20
101.3877454362
 10
183.2426237891
 20
100.7461694218
 10
183.2426237891
 20
100.0775086842
 10
183.4430974926
 20
99.4359326697
 10
183.8278035651
 20
98.8734194226
 10
184.3655752967
 20
98.4355394877
 10
185.0128463487
 20
98.1577688045
 10
185.7171776722
 20
98.0626081265
  0
LWPOLYLINE
  5
100
330
1F
100
AcDbEntity
  8
0
  6
HIDDEN
 62
     7
370
     0
100
AcDbPolyline
 90
       25
 70
   128
 43
0.0
 10
174.9889085552
 20
100.0150644369
 10
175.1723434794
 20
99.2536951936
 10
175.4556541349
 20
98.5442108623
 10
175.8195335063
 20
97.9349629171
 10
176.2391837331
 20
97.4674725122
 10
176.6860062274
 20
97.1735936738
 10
177.1295509319
 20
97.0733572877
 10
177.5395903754
 20
97.1735936738
 10
177.8881820868
 20
97.4674725122
 10
178.1515694241
 20
97.9349629171
 10
178.311803473
 20
98.5442108623
 10
178.3579640108
 20
99.2536951936
 10
178.2869054953
 20
100.0150644369
 10
178.1034703384
 20
100.7764346115
 10
177.8201596829
 20
101.4859180115
 10
177.4562803115
 20
102.0951659567
 10
177.0366300846
 20
102.5626572929
 10
176.5898075904
 20
102.8565352
 10
176.1462628859
 20
102.956771586
 10
175.7362229767
 20
102.8565352
 10
175.387631731
 20
102.5626572929
 10
175.1242441608
 20
102.0951659567
 10
174.9640105775
 20
101.4859180115
 10
174.9178500398
 20
100.7764346115
 10
174.9889085552
 20
100.0150644369
  0
LWPOLYLINE
  5
101
330
1F
100
AcDbEntity
  8
0
  6
HIDDEN
 62
     7
370
     0
100
AcDbPolyline
 90
       21
 70
   128
 43
0.0
 10
175.7519404421
 20
100.0793266259
 10
175.914784057
 20
99.4430004768
 10
176.174678469
 20
98.8689621128
 10
176.5061832051
 20
98.4134028814
 10
176.8768477271
 20
98.1209163703
 10
177.2503900359
 20
98.0201305039
 10
177.5902440789
 20
98.1209163703
 10
177.863142548
 20
98.4134028814
 10
178.0423732492
 20
98.8689621128
 10
178.1103909964
 20
99.4430004768
 10
178.0605382304
 20
100.0793266259
 10
177.8976941499
 20
100.715652775
 10
177.6377997379
 20
101.2896902076
 10
177.3062954674
 20
101.745249439
 10
176.9356304797
 20
102.0377368815
 10
176.5620886366
 20
102.1385208852
 10
176.2222345936
 20
102.0377368815
 10
175.9493356588
 20
101.745249439
 10
175.7701049576
 20
101.2896902076
 10
175.7020872104
 20
100.715652775
 10
175.7519404421
 20
100.0793266259
  0
ELLIPSE
  5
102
330
1F
100
AcDbEntity
  8
0
  6
HIDDEN
 62
     7
370
     0
100
AcDbEllipse
 10
185.7171775798
 20
102.1894145688
 30
0.0
 11
1.760776919379083
 21
2.232245799914438
 31
0.0
210
0.0
220
0.0
230
1.0
 40
0.5126701559
 41
1.100887047646283
 42
4.029627027608278
  0
ARC
  5
103
330
1F
100
AcDbEntity
  8
0
  6
HIDDEN
 62
     7
370
     0
100
AcDbCircle
 10
185.0205781112
 20
103.3669544499
 30
0.0
 40
0.7945949542257933
100
AcDbArc
 50
53.4208190544
 51
99.1663888759
  0
ELLIPSE
  5
104
330
1F
100
AcDbEntity
  8
0
  6
HIDDEN
 62
     7
370
     0
100
AcDbEllipse
 10
185.7171775798
 20
102.1894145688
 30
0.0
 11
1.760776919379083
 21
-1.388886188042946
 31
0.0
210
0.0
220
0.0
230
1.0
 40
0.8239737799
 41
2.549926265248549
 42
4.885930273856125
  0
ARC
  5
105
330
1F
100
AcDbEntity
  8
0
  6
HIDDEN
 62
     7
370
     0
100
AcDbCircle
 10
185.9632303417
 20
101.3499370047
 30
0.0
 40
1.353195702694764
100
AcDbArc
 50
217.8001040701
 51
249.7155767561
  0
LWPOLYLINE
  5
106
330
1F
100
AcDbEntity
  8
0
  6
HIDDEN
 62
     7
370
     0
100
AcDbPolyline
 90
       21
 70
   128
 43
0.0
 10
185.7171776722
 20
98.4882784225
 10
186.3661129976
 20
98.5848612301
 10
186.9515265356
 20
98.8651557974
 10
187.4161130766
 20
99.3017244301
 10
187.7143970708
 20
99.8518333919
 10
187.8171778302
 20
100.4616336114
 10
187.7143970708
 20
101.0714328996
 10
187.4161130766
 20
101.6215418614
 10
186.9515265356
 20
102.0581104941
 10
186.3661129976
 20
102.3384050615
 10
185.7171776722
 20
102.4349878691
 10
185.0682423468
 20
102.3384050615
 10
184.4828288088
 20
102.0581104941
 10
184.0182422678
 20
101.6215418614
 10
183.7199592049
 20
101.0714328996
 10
183.6171775142
 20
100.4616336114
 10
183.7199592049
 20
99.8518333919
 10
184.0182422678
 20
99.3017244301
 10
184.4828288088
 20
98.8651557974
 10
185.0682423468
 20
98.5848612301
 10
185.7171776722
 20
98.4882784225
  0
SPLINE
  5
107
330
1F
100
AcDbEntity
  8
0
  6
HIDDEN
 62
     7
370
     0
100
AcDbSpline
210
0.0
220
0.0
230
1.0
 70
    11
 71
     3
 72
    62
 73
    58
 74
     0
 42
0.000000001
 43
0.00000001
 40
0.0
 40
0.0
 40
0.0
 40
0.0
 40
0.0312500000000001
 40
0.0312500000000001
 40
0.0625000000000003
 40
0.0625000000000003
 40
0.1250000000000002
 40
0.1250000000000002
 40
0.1562500000000001
 40
0.1562500000000001
 40
0.1874999999999999
 40
0.1874999999999999
 40
0.2187499999999998
 40
0.2187499999999998
 40
0.2499999999999997
 40
0.2499999999999997
 40
0.3124999999999994
 40
0.3124999999999994
 40
0.3749999999999992
 40
0.3749999999999992
 40
0.4062499999999991
 40
0.4062499999999991
 40
0.4374999999999989
 40
0.4374999999999989
 40
0.4687499999999988
 40
0.4687499999999988
 40
0.4999999999999986
 40
0.4999999999999986
 40
0.5312499999999984
 40
0.5312499999999984
 40
0.5624999999999983
 40
0.5624999999999983
 40
0.5937499999999983
 40
0.5937499999999983
 40
0.6249999999999982
 40
0.6249999999999982
 40
0.6562499999999983
 40
0.6562499999999983
 40
0.6874999999999984
 40
0.6874999999999984
 40
0.7499999999999989
 40
0.7499999999999989
 40
0.7812499999999992
 40
0.7812499999999992
 40
0.8124999999999994
 40
0.8124999999999994
 40
0.8437499999999997
 40
0.8437499999999997
 40
0.8749999999999999
 40
0.8749999999999999
 40
0.9062499999999999
 40
0.9062499999999999
 40
0.9375
 40
0.9375
 40
0.96875
 40
0.96875
 40
1.0
 40
1.0
 40
1.0
 40
1.0
 10
185.7171775798136
 20
111.0320259643642
 30
0.0
 10
185.5743535081239
 20
111.0320259643642
 30
0.0
 10
185.434990273514
 20
111.0416364780137
 30
0.0
 10
185.1624302140638
 20
111.079305153365
 30
0.0
 10
185.0282660940598
 20
111.1078716327789
 30
0.0
 10
184.6515716950633
 20
111.2192785970971
 30
0.0
 10
184.4260438151738
 20
111.3296011973496
 30
0.0
 10
184.1425321084766
 20
111.5473465721977
 30
0.0
 10
184.055588824019
 20
111.6300508194395
 30
0.0
 10
183.9041953181056
 20
111.8113335530058
 30
0.0
 10
183.8392945605249
 20
111.9098602370694
 30
0.0
 10
183.7318079752347
 20
112.1251351796943
 30
0.0
 10
183.6891470552793
 20
112.2434346277336
 30
0.0
 10
183.632561475608
 20
112.4882643385331
 30
0.0
 10
183.6177801615182
 20
112.6158194414261
 30
0.0
 10
183.6160259961674
 20
113.0151252365417
 30
0.0
 10
183.6737935443234
 20
113.2930698256624
 30
0.0
 10
183.8870796520763
 20
113.8140128223729
 30
0.0
 10
184.0419033609817
 20
114.0581954613799
 30
0.0
 10
184.3243678134889
 20
114.3713080887056
 30
0.0
 10
184.4284312416384
 20
114.4684481240849
 30
0.0
 10
184.6505798761323
 20
114.6404657992851
 30
0.0
 10
184.7680798338008
 20
114.7152688825427
 30
0.0
 10
185.0177543069294
 20
114.8405473372628
 30
0.0
 10
185.1518161208865
 20
114.8913204030701
 30
0.0
 10
185.4251492330299
 20
114.9596804652861
 30
0.0
 10
185.5657358123551
 20
114.9779938725041
 30
0.0
 10
185.8511028992374
 20
114.97943193525
 30
0.0
 10
185.9909746969302
 20
114.9627002886927
 30
0.0
 10
186.2655849457975
 20
114.8969148455898
 30
0.0
 10
186.3998314752371
 20
114.8475390523967
 30
0.0
 10
186.6519713093554
 20
114.7237034323288
 30
0.0
 10
186.7725748268566
 20
114.6480520588726
 30
0.0
 10
186.9960637653154
 20
114.4770718964275
 30
0.0
 10
187.0992698493606
 20
114.3819049503991
 30
0.0
 10
187.2899416939377
 20
114.172989093199
 30
0.0
 10
187.3767609550834
 20
114.0595204248347
 30
0.0
 10
187.5281374637887
 20
113.8226331026744
 30
0.0
 10
187.5936384607931
 20
113.698250008886
 30
0.0
 10
187.7571852772741
 20
113.3059795490385
 30
0.0
 10
187.8160799517656
 20
113.0322943802754
 30
0.0
 10
187.817703621697
 20
112.6306972137295
 30
0.0
 10
187.8039153101432
 20
112.5020235553691
 30
0.0
 10
187.7487071614468
 20
112.2544312023927
 30
0.0
 10
187.7068763865594
 20
112.1357779410907
 30
0.0
 10
187.6001813997692
 20
111.9183101796693
 30
0.0
 10
187.534327262424
 20
111.817071842101
 30
0.0
 10
187.3823833198799
 20
111.6336710680478
 30
0.0
 10
187.2970026601427
 20
111.5518806239257
 30
0.0
 10
187.1073742265836
 20
111.4051562503263
 30
0.0
 10
187.002789411809
 20
111.3403649677508
 30
0.0
 10
186.7810628646174
 20
111.2302533871
 30
0.0
 10
186.6630813937661
 20
111.18417244918
 30
0.0
 10
186.4101841814259
 20
111.1087985545207
 30
0.0
 10
186.2768952113405
 20
111.0802103026222
 30
0.0
 10
186.0033008095936
 20
111.0419691809126
 30
0.0
 10
185.8600016515033
 20
111.0320259643642
 30
0.0
 10
185.7171775798136
 20
111.0320259643642
 30
0.0
  0
SPLINE
  5
108
330
1F
100
AcDbEntity
  8
0
  6
HIDDEN
 62
     7
370
     0
100
AcDbSpline
210
0.0
220
0.0
230
1.0
 70
     8
 71
     3
 72
     8
 73
     4
 74
     0
 42
0.000000001
 43
0.00000001
 40
0.0
 40
0.0
 40
0.0
 40
0.0
 40
1.0
 40
1.0
 40
1.0
 40
1.0
 10
184.8939974036542
 20
104.1514026446163
 30
0.0
 10
185.1054247936554
 20
104.1438931348338
 30
0.0
 10
185.3078933401882
 20
104.0897696051992
 30
0.0
 10
185.4941039393256
 20
104.005041317974
 30
0.0
  0
SPLINE
  5
109
330
1F
100
AcDbEntity
  8
0
  6
HIDDEN
 62
     7
370
     0
100
AcDbSpline
210
0.0
220
0.0
230
1.0
 70
     8
 71
     3
 72
     8
 73
     4
 74
     0
 42
0.000000001
 43
0.00000001
 40
0.0
 40
0.0
 40
0.0
 40
0.0
 40
1.0
 40
1.0
 40
1.0
 40
1.0
 10
185.4941039393255
 20
100.0806625500398
 30
0.0
 10
185.3075795900411
 20
100.2029829659402
 30
0.0
 10
185.1050246915155
 20
100.344068126605
 30
0.0
 10
184.8939974036543
 20
100.5205517623898
 30
0.0
  0
CIRCLE
  5
10A
330
1F
100
AcDbEntity
  8
0
  6
HIDDEN
 62
     7
370
     0
100
AcDbCircle
 10
205.4671775798
 20
113.9199246801
 30
0.0
 40
4.500000000000014
  0
LINE
  5
10B
330
1F
100
AcDbEntity
  8
0
  6
HIDDEN
 62
     7
370
     0
100
AcDbLine
 10
174.8887504003
 20
78.6199231781
 30
0.0
 11
174.717177499
 21
78.6199231781
 31
0.0
  0
ELLIPSE
  5
10C
330
1F
100
AcDbEntity
  8
0
  6
HIDDEN
 62
     7
370
     0
100
AcDbEllipse
 10
174.8887504551
 20
76.6199246801
 30
0.0
 11
0.0
 21
2.0
 31
0.0
210
0.0
220
0.0
230
1.0
 40
0.4142135624
 41
4.712388980384695
 42
6.283185307179586
  0
LINE
  5
10D
330
1F
100
AcDbEntity
  8
0
  6
HIDDEN
 62
     7
370
     0
100
AcDbLine
 10
174.717177499
 20
151.4199261702
 30
0.0
 11
174.8887504003
 21
151.4199261702
 31
0.0
  0
ELLIPSE
  5
10E
330
1F
100
AcDbEntity
  8
0
  6
HIDDEN
 62
     7
370
     0
100
AcDbEllipse
 10
174.8887504551
 20
153.4199246801
 30
0.0
 11
0.0
 21
2.0
 31
0.0
210
0.0
220
0.0
230
1.0
 40
0.4142135624
 41
3.141592653589793
 42
4.712388980384695
  0
LINE
  5
10F
330
1F
100
AcDbEntity
  8
0
  6
HIDDEN
 62
     7
370
     0
100
AcDbLine
 10
175.7171774301
 20
67.7340102531
 30
0.0
 11
174.9328375812
 21
67.2864687778
 31
0.0
  0
LINE
  5
110
330
1F
100
AcDbEntity
  8
0
  6
HIDDEN
 62
     7
370
     0
100
AcDbLine
 10
175.007046528
 20
160.630088035
 30
0.0
 11
175.7171774301
 21
159.9199582971
 31
0.0
  0
LINE
  5
111
330
1F
100
AcDbEntity
  8
0
  6
HIDDEN
 62
     7
370
     0
100
AcDbLine
 10
190.5671778153
 20
78.6199231781
 30
0.0
 11
174.8887504003
 21
78.6199231781
 31
0.0
  0
LINE
  5
112
330
1F
100
AcDbEntity
  8
0
  6
HIDDEN
 62
     7
370
     0
100
AcDbLine
 10
179.837130105
 20
67.7340102531
 30
0.0
 11
175.7171774301
 21
67.7340102531
 31
0.0
  0
LINE
  5
113
330
1F
100
AcDbEntity
  8
0
  6
HIDDEN
 62
     7
370
     0
100
AcDbLine
 10
190.5671778153
 20
67.7340102531
 30
0.0
 11
185.397225527
 21
67.7340102531
 31
0.0
  0
LINE
  5
114
330
1F
100
AcDbEntity
  8
0
  6
HIDDEN
 62
     7
370
     0
100
AcDbLine
 10
175.7171774301
 20
67.7340102531
 30
0.0
 11
175.7171774301
 21
76.6199228502
 31
0.0
  0
LINE
  5
115
330
1F
100
AcDbEntity
  8
0
  6
HIDDEN
 62
     7
370
     0
100
AcDbLine
 10
175.7171774301
 20
159.9199582971
 30
0.0
 11
179.9405069108
 21
159.9199582971
 31
0.0
  0
LINE
  5
116
330
1F
100
AcDbEntity
  8
0
  6
HIDDEN
 62
     7
370
     0
100
AcDbLine
 10
185.2938487212
 20
159.9199582971
 30
0.0
 11
190.5671778153
 21
159.9199582971
 31
0.0
  0
LINE
  5
117
330
1F
100
AcDbEntity
  8
0
  6
HIDDEN
 62
     7
370
     0
100
AcDbLine
 10
175.7171774301
 20
159.9199582971
 30
0.0
 11
175.7171774301
 21
153.419926498
 31
0.0
  0
LINE
  5
118
330
1F
100
AcDbEntity
  8
0
  6
HIDDEN
 62
     7
370
     0
100
AcDbLine
 10
174.8887504003
 20
151.4199261702
 30
0.0
 11
190.5671778153
 21
151.4199261702
 31
0.0
  0
LINE
  5
119
330
1F
100
AcDbEntity
  8
0
  6
HIDDEN
 62
     7
370
     0
100
AcDbLine
 10
79.9171767215
 20
101.4199244938
 30
0.0
 11
79.9171767215
 21
126.4199248664
 31
0.0
  0
LINE
  5
11A
330
1F
100
AcDbEntity
  8
0
  6
HIDDEN
 62
     7
370
     0
100
AcDbLine
 10
83.2017800788
 20
103.4199248217
 30
0.0
 11
83.2017800788
 21
124.4199245385
 31
0.0
  0
LINE
  5
11B
330
1F
100
AcDbEntity
  8
0
  6
HIDDEN
 62
     7
370
     0
100
AcDbLine
 10
189.0171776543
 20
113.9199246801
 30
0.0
 11
189.0171776543
 21
103.4199248217
 31
0.0
  0
LINE
  5
11C
330
1F
100
AcDbEntity
  8
0
  6
HIDDEN
 62
     7
370
     0
100
AcDbLine
 10
189.0171776543
 20
124.4199245385
 30
0.0
 11
189.0171776543
 21
113.9199246801
 31
0.0
  0
LINE
  5
11D
330
1F
100
AcDbEntity
  8
0
  6
HIDDEN
 62
     7
370
     0
100
AcDbLine
 10
192.8832038323
 20
113.9199246801
 30
0.0
 11
192.8832038323
 21
102.9199247397
 31
0.0
  0
LINE
  5
11E
330
1F
100
AcDbEntity
  8
0
  6
HIDDEN
 62
     7
370
     0
100
AcDbLine
 10
192.8832038323
 20
124.9199246205
 30
0.0
 11
192.8832038323
 21
113.9199246801
 31
0.0
  0
SPLINE
  5
11F
330
1F
100
AcDbEntity
  8
0
  6
HIDDEN
 62
     7
370
     0
100
AcDbSpline
210
0.0
220
0.0
230
1.0
 70
     8
 71
     3
 72
    12
 73
     8
 74
     0
 42
0.000000001
 43
0.00000001
 40
0.0
 40
0.0
 40
0.0
 40
0.0
 40
0.2023336541093959
 40
0.4042341375658419
 40
0.6170978231736223
 40
0.838645557920229
 40
1.0
 40
1.0
 40
1.0
 40
1.0
 10
205.4671785811717
 20
123.9573543108513
 30
0.0
 10
205.9488226006513
 20
123.9782745275996
 30
0.0
 10
206.9110795009434
 20
124.0200701735695
 30
0.0
 10
208.2106424113674
 20
124.3080140301748
 30
0.0
 10
209.2406352109635
 20
124.6317481090813
 30
0.0
 10
209.8844793070756
 20
124.8857018842984
 30
0.0
 10
209.9113296905288
 20
124.8971002663908
 30
0.0
 10
209.9226444045836
 20
124.9019035286715
 30
0.0
  0
LINE
  5
120
330
1F
100
AcDbEntity
  8
0
  6
HIDDEN
 62
     7
370
     0
100
AcDbLine
 10
205.9010184387
 20
123.9878290481
 30
0.0
 11
205.0393550674
 21
123.9801195599
 31
0.0
  0
SPLINE
  5
121
330
1F
100
AcDbEntity
  8
0
  6
HIDDEN
 62
     7
370
     0
100
AcDbSpline
210
0.0
220
0.0
230
1.0
 70
     8
 71
     3
 72
    15
 73
    11
 74
     0
 42
0.000000001
 43
0.00000001
 40
0.0
 40
0.0
 40
0.0
 40
0.0
 40
0.006540772295524
 40
0.1746020139267628
 40
0.3312622273464009
 40
0.4828000760293145
 40
0.6411902610225741
 40
0.8098901142706605
 40
0.9770003953560962
 40
1.0
 40
1.0
 40
1.0
 40
1.0
 10
201.476744471007
 20
124.7227328977992
 30
0.0
 10
201.4649208665444
 20
124.72668731635
 30
0.0
 10
201.1492967998789
 20
124.8322481601896
 30
0.0
 10
200.9464661398816
 20
124.9342192419463
 30
0.0
 10
200.9774814138106
 20
124.9135888839736
 30
0.0
 10
201.502270368527
 20
124.706059338422
 30
0.0
 10
202.4205260845986
 20
124.391728267737
 30
0.0
 10
203.706074726952
 20
124.0776449128489
 30
0.0
 10
204.8094865619875
 20
123.9617298866108
 30
0.0
 10
205.3961979017463
 20
123.9578265399969
 30
0.0
 10
205.4671785811717
 20
123.9573543108513
 30
0.0
  0
LINE
  5
122
330
1F
100
AcDbEntity
  8
0
  6
HIDDEN
 62
     7
370
     0
100
AcDbLine
 10
131.9171777944
 20
103.4199248217
 30
0.0
 11
131.9171777944
 21
124.4199245385
 31
0.0
  0
LINE
  5
123
330
1F
100
AcDbEntity
  8
0
  6
HIDDEN
 62
     7
370
     0
100
AcDbLine
 10
136.1832871119
 20
110.519924635
 30
0.0
 11
136.1832871119
 21
117.3199247252
 31
0.0
  0
LINE
  5
124
330
1F
100
AcDbEntity
  8
0
  6
HIDDEN
 62
     7
370
     0
100
AcDbLine
 10
205.4671785812
 20
132.1699244119
 30
0.0
 11
209.9671765248
 21
132.1699244119
 31
0.0
  0
LINE
  5
125
330
1F
100
AcDbEntity
  8
0
  6
HIDDEN
 62
     7
370
     0
100
AcDbLine
 10
200.9671769122
 20
132.1699244119
 30
0.0
 11
205.4671785812
 21
132.1699244119
 31
0.0
  0
SPLINE
  5
126
330
1F
100
AcDbEntity
  8
0
  6
HIDDEN
 62
     7
370
     0
100
AcDbSpline
210
0.0
220
0.0
230
1.0
 70
    11
 71
     3
 72
    62
 73
    58
 74
     0
 42
0.000000001
 43
0.00000001
 40
0.0
 40
0.0
 40
0.0
 40
0.0
 40
0.0312499999999996
 40
0.0312499999999996
 40
0.0624999999999992
 40
0.0624999999999992
 40
0.1249999999999986
 40
0.1249999999999986
 40
0.1562499999999985
 40
0.1562499999999985
 40
0.1874999999999984
 40
0.1874999999999984
 40
0.2187499999999983
 40
0.2187499999999983
 40
0.2499999999999981
 40
0.2499999999999981
 40
0.3124999999999979
 40
0.3124999999999979
 40
0.3749999999999976
 40
0.3749999999999976
 40
0.4062499999999977
 40
0.4062499999999977
 40
0.4374999999999978
 40
0.4374999999999978
 40
0.468749999999998
 40
0.468749999999998
 40
0.4999999999999981
 40
0.4999999999999981
 40
0.5312499999999982
 40
0.5312499999999982
 40
0.5624999999999983
 40
0.5624999999999983
 40
0.5937499999999986
 40
0.5937499999999986
 40
0.6249999999999987
 40
0.6249999999999987
 40
0.6562499999999988
 40
0.6562499999999988
 40
0.6874999999999989
 40
0.6874999999999989
 40
0.749999999999999
 40
0.749999999999999
 40
0.7812499999999992
 40
0.7812499999999992
 40
0.8124999999999993
 40
0.8124999999999993
 40
0.8437499999999994
 40
0.8437499999999994
 40
0.8749999999999996
 40
0.8749999999999996
 40
0.9062499999999997
 40
0.9062499999999997
 40
0.9374999999999999
 40
0.9374999999999999
 40
0.96875
 40
0.96875
 40
1.0
 40
1.0
 40
1.0
 40
1.0
 10
185.7171775798136
 20
112.8611143885249
 30
0.0
 10
185.8600016515033
 20
112.8611143885249
 30
0.0
 10
185.9993648861132
 20
112.8785745991783
 30
0.0
 10
186.2719249455634
 20
112.9450701942649
 30
0.0
 10
186.4060890655674
 20
112.9949020108727
 30
0.0
 10
186.7827834645639
 20
113.1813899748761
 30
0.0
 10
187.0083113444534
 20
113.35760256204
 30
0.0
 10
187.2918230511507
 20
113.6692690979232
 30
0.0
 10
187.3787663356083
 20
113.7830775915597
 30
0.0
 10
187.5301598415217
 20
114.0207810833156
 30
0.0
 10
187.5950605991023
 20
114.14475151866
 30
0.0
 10
187.7025471843926
 20
114.4030812098701
 30
0.0
 10
187.7452081043479
 20
114.5390400760539
 30
0.0
 10
187.8017936840192
 20
114.8074657114217
 30
0.0
 10
187.816574998109
 20
114.9413018293188
 30
0.0
 10
187.8183291634599
 20
115.3413487474522
 30
0.0
 10
187.7605616153038
 20
115.5943300768012
 30
0.0
 10
187.5472755075509
 20
116.0296909010989
 30
0.0
 10
187.3924517986455
 20
116.2136778130331
 30
0.0
 10
187.1099873461384
 20
116.4328865670963
 30
0.0
 10
187.0059239179888
 20
116.4977011037156
 30
0.0
 10
186.7837752834949
 20
116.6084697371203
 30
0.0
 10
186.6662753258264
 20
116.654442208338
 30
0.0
 10
186.4166008526978
 20
116.7294104767744
 30
0.0
 10
186.2825390387407
 20
116.7585654454056
 30
0.0
 10
186.0092059265973
 20
116.7973277828346
 30
0.0
 10
185.8686193472721
 20
116.807411788622
 30
0.0
 10
185.5832522603897
 20
116.8082104901919
 30
0.0
 10
185.4433804626971
 20
116.7990073614763
 30
0.0
 10
185.1687702138298
 20
116.7617664054416
 30
0.0
 10
185.0345236843901
 20
116.7334884533164
 30
0.0
 10
184.7823838502719
 20
116.6595830891461
 30
0.0
 10
184.6617803327707
 20
116.613210015984
 30
0.0
 10
184.4382913943118
 20
116.5033859688263
 30
0.0
 10
184.3350853102666
 20
116.4400838342158
 30
0.0
 10
184.1444134656896
 20
116.2942446515413
 30
0.0
 10
184.0575942045438
 20
116.2118231496896
 30
0.0
 10
183.9062176958385
 20
116.0313042425466
 30
0.0
 10
183.8407166988342
 20
115.9325764965515
 30
0.0
 10
183.6771698823532
 20
115.6058017468317
 30
0.0
 10
183.6182752078616
 20
115.3575676140699
 30
0.0
 10
183.6166515379302
 20
114.9566564376493
 30
0.0
 10
183.630439849484
 20
114.8221200173551
 30
0.0
 10
183.6856479981805
 20
114.5514863663912
 30
0.0
 10
183.7274787730678
 20
114.4154938970126
 30
0.0
 10
183.8341737598581
 20
114.1552198613678
 30
0.0
 10
183.9000278972032
 20
114.0281181722935
 30
0.0
 10
184.0519718397474
 20
113.7880023865445
 30
0.0
 10
184.1373524994846
 20
113.6756000726639
 30
0.0
 10
184.3269809330436
 20
113.4658979837864
 30
0.0
 10
184.4315657478183
 20
113.3686909753542
 30
0.0
 10
184.6532922950099
 20
113.1975739061397
 30
0.0
 10
184.7712737658611
 20
113.1225690107548
 30
0.0
 10
185.0241709782013
 20
112.9965070493505
 30
0.0
 10
185.1574599482867
 20
112.9466536857373
 30
0.0
 10
185.4310543500337
 20
112.8791758008548
 30
0.0
 10
185.5743535081239
 20
112.8611143885249
 30
0.0
 10
185.7171775798136
 20
112.8611143885249
 30
0.0
  0
SPLINE
  5
127
330
1F
100
AcDbEntity
  8
0
  6
HIDDEN
 62
     7
370
     0
100
AcDbSpline
210
0.0
220
0.0
230
1.0
 70
     8
 71
     3
 72
     8
 73
     4
 74
     0
 42
0.000000001
 43
0.00000001
 40
0.0
 40
0.0
 40
0.0
 40
0.0
 40
1.0
 40
1.0
 40
1.0
 40
1.0
 10
184.8939974036541
 20
123.6884467155736
 30
0.0
 10
185.1054247936554
 20
123.6959562253561
 30
0.0
 10
185.3078933401881
 20
123.7500797549907
 30
0.0
 10
185.4941039393255
 20
123.8348080422159
 30
0.0
  0
ELLIPSE
  5
128
330
1F
100
AcDbEntity
  8
0
  6
HIDDEN
 62
     7
370
     0
100
AcDbEllipse
 10
185.7171775798
 20
125.6504347914
 30
0.0
 11
-1.760776919379083
 21
2.232245799914466
 31
0.0
210
0.0
220
0.0
230
1.0
 40
0.5126701559
 41
5.395150933160712
 42
8.323890913123085
  0
SPLINE
  5
129
330
1F
100
AcDbEntity
  8
0
  6
HIDDEN
 62
     7
370
     0
100
AcDbSpline
210
0.0
220
0.0
230
1.0
 70
     8
 71
     3
 72
     8
 73
     4
 74
     0
 42
0.000000001
 43
0.00000001
 40
0.0
 40
0.0
 40
0.0
 40
0.0
 40
1.0
 40
1.0
 40
1.0
 40
1.0
 10
185.4941039393264
 20
127.7591868101506
 30
0.0
 10
185.3075795900415
 20
127.6368663942499
 30
0.0
 10
185.1050246915153
 20
127.4957812335848
 30
0.0
 10
184.8939974036535
 20
127.3192975977994
 30
0.0
  0
ELLIPSE
  5
12A
330
1F
100
AcDbEntity
  8
0
  6
HIDDEN
 62
     7
370
     0
100
AcDbEllipse
 10
185.7171775798
 20
125.6504347914
 30
0.0
 11
1.760776919379055
 21
1.388886188042946
 31
0.0
210
0.0
220
0.0
230
1.0
 40
0.8239737799
 41
1.397255033323951
 42
3.733259041931011
  0
LWPOLYLINE
  5
12B
330
1F
100
AcDbEntity
  8
0
  6
HIDDEN
 62
     7
370
     0
100
AcDbPolyline
 90
       21
 70
   128
 43
0.0
 10
185.7171776722
 20
125.4048614911
 10
186.3661129976
 20
125.5014442987
 10
186.9515265356
 20
125.7817388661
 10
187.4161130766
 20
126.2183074988
 10
187.7143970708
 20
126.7684164606
 10
187.8171778302
 20
127.3782157488
 10
187.7143970708
 20
127.9880159683
 10
187.4161130766
 20
128.5381249301
 10
186.9515265356
 20
128.9746935628
 10
186.3661129976
 20
129.2549881301
 10
185.7171776722
 20
129.3515709377
 10
185.0682423468
 20
129.2549881301
 10
184.4828288088
 20
128.9746935628
 10
184.0182422678
 20
128.5381249301
 10
183.7199592049
 20
127.9880159683
 10
183.6171775142
 20
127.3782157488
 10
183.7199592049
 20
126.7684164606
 10
184.0182422678
 20
126.2183074988
 10
184.4828288088
 20
125.7817388661
 10
185.0682423468
 20
125.5014442987
 10
185.7171776722
 20
125.4048614911
  0
LINE
  5
12C
330
1F
100
AcDbEntity
  8
0
  6
HIDDEN
 62
     7
370
     0
100
AcDbLine
 10
180.7071772422
 20
149.3129690326
 30
0.0
 11
180.7071772422
 21
143.7699251957
 31
0.0
  0
LINE
  5
12D
330
1F
100
AcDbEntity
  8
0
  6
HIDDEN
 62
     7
370
     0
100
AcDbLine
 10
184.5271774585
 20
149.3129690326
 30
0.0
 11
184.5271774585
 21
143.7699251957
 31
0.0
  0
SPLINE
  5
12E
330
1F
100
AcDbEntity
  8
0
  6
HIDDEN
 62
     7
370
     0
100
AcDbSpline
210
0.0
220
0.0
230
1.0
 70
     8
 71
     3
 72
    14
 73
    10
 74
     0
 42
0.000000001
 43
0.00000001
 40
0.0
 40
0.0
 40
0.0
 40
0.0
 40
0.25
 40
0.25
 40
0.5
 40
0.5
 40
0.75
 40
0.75
 40
1.0
 40
1.0
 40
1.0
 40
1.0
 10
183.7271775798134
 20
130.8952142370288
 30
0.0
 10
183.8016031319481
 20
130.9860716918104
 30
0.0
 10
183.8834813915615
 20
131.0752822750161
 30
0.0
 10
184.0564675377371
 20
131.250706593808
 30
0.0
 10
184.1471393575981
 20
131.3362415494348
 30
0.0
 10
184.3145029069425
 20
131.4970931623733
 30
0.0
 10
184.3909537319089
 20
131.5728252512697
 30
0.0
 10
184.4972468167474
 20
131.7044162748452
 30
0.0
 10
184.5271775798136
 20
131.7614164497514
 30
0.0
 10
184.5271775798136
 20
131.8036137227035
 30
0.0
  0
LINE
  5
12F
330
1F
100
AcDbEntity
  8
0
  6
HIDDEN
 62
     7
370
     0
100
AcDbLine
 10
184.5271774585
 20
100.1226629279
 30
0.0
 11
184.5271774585
 21
95.9906221516
 31
0.0
  0
SPLINE
  5
130
330
1F
100
AcDbEntity
  8
0
  6
HIDDEN
 62
     7
370
     0
100
AcDbSpline
210
0.0
220
0.0
230
1.0
 70
     8
 71
     3
 72
    14
 73
    10
 74
     0
 42
0.000000001
 43
0.00000001
 40
0.0
 40
0.0
 40
0.0
 40
0.0
 40
0.25
 40
0.25
 40
0.5
 40
0.5
 40
0.75
 40
0.75
 40
1.0
 40
1.0
 40
1.0
 40
1.0
 10
184.5271775798136
 20
127.671572524072
 30
0.0
 10
184.5271775798136
 20
127.6290721064175
 30
0.0
 10
184.4974641209969
 20
127.6018001999348
 30
0.0
 10
184.3913827541047
 20
127.5882474259677
 30
0.0
 10
184.3150158249402
 20
127.6026929831086
 30
0.0
 10
184.1462562804117
 20
127.6750691471285
 30
0.0
 10
184.0554594679398
 20
127.7321420822459
 30
0.0
 10
183.8838945277325
 20
127.8733000157628
 30
0.0
 10
183.801833287438
 20
127.9578772308464
 30
0.0
 10
183.7271775798134
 20
128.0512503939757
 30
0.0
  0
LINE
  5
131
330
1F
100
AcDbEntity
  8
0
  6
HIDDEN
 62
     7
370
     0
100
AcDbLine
 10
179.3840165268
 20
152.4310034848
 30
0.0
 11
179.3840165268
 21
143.7699251957
 31
0.0
  0
LINE
  5
132
330
1F
100
AcDbEntity
  8
0
  6
HIDDEN
 62
     7
370
     0
100
AcDbLine
 10
185.8503391052
 20
99.6227773986
 30
0.0
 11
185.8503391052
 21
94.9309838153
 31
0.0
  0
LINE
  5
133
330
1F
100
AcDbEntity
  8
0
  6
HIDDEN
 62
     7
370
     0
100
AcDbLine
 10
185.8503391052
 20
152.4310034848
 30
0.0
 11
185.8503391052
 21
143.7699251957
 31
0.0
  0
ARC
  5
134
330
1F
100
AcDbEntity
  8
0
  6
HIDDEN
 62
     7
370
     0
100
AcDbCircle
 10
185.9632303417
 20
126.4899123555
 30
0.0
 40
1.353195702694764
100
AcDbArc
 50
110.2844232439
 51
142.1998959299
  0
ARC
  5
135
330
1F
100
AcDbEntity
  8
0
  6
HIDDEN
 62
     7
370
     0
100
AcDbCircle
 10
185.0205781112
 20
124.4728949103
 30
0.0
 40
0.794594954225782
100
AcDbArc
 50
260.8336111241
 51
306.5791809456
  0
LWPOLYLINE
  5
136
330
1F
100
AcDbEntity
  8
0
  6
HIDDEN
 62
     7
370
     0
100
AcDbPolyline
 90
       21
 70
   128
 43
0.0
 10
175.7519404421
 20
126.6328764297
 10
175.914784057
 20
126.1556341461
 10
176.174678469
 20
125.8354892171
 10
176.5061832051
 20
125.7037806473
 10
176.8768477271
 20
125.7733998037
 10
177.2503900359
 20
126.0375331304
 10
177.5902440789
 20
126.4703243188
 10
177.863142548
 20
127.0294093675
 10
178.0423732492
 20
127.6600600369
 10
178.1103909964
 20
128.3005454726
 10
178.0605382304
 20
128.8881699703
 10
177.8976941499
 20
129.3654122538
 10
177.6377997379
 20
129.6855562515
 10
177.3062954674
 20
129.8172657527
 10
176.9356304797
 20
129.7476456649
 10
176.5620886366
 20
129.4835132695
 10
176.2222345936
 20
129.0507220812
 10
175.9493356588
 20
128.4916370324
 10
175.7701049576
 20
127.8609854318
 10
175.7020872104
 20
127.220499996
 10
175.7519404421
 20
126.6328764297
  0
LWPOLYLINE
  5
137
330
1F
100
AcDbEntity
  8
0
  6
HIDDEN
 62
     7
370
     0
100
AcDbPolyline
 90
       25
 70
   128
 43
0.0
 10
174.9889085552
 20
126.2138604335
 10
175.1723434794
 20
125.6316906921
 10
175.4556541349
 20
125.1989758722
 10
175.8195335063
 20
124.9452063031
 10
176.2391837331
 20
124.8876747824
 10
176.6860062274
 20
125.0303031094
 10
177.1295509319
 20
125.3633701391
 10
177.5395903754
 20
125.8641786091
 10
177.8881820868
 20
126.4985992722
 10
178.1515694241
 20
127.2233973406
 10
178.311803473
 20
127.9891782589
 10
178.3579640108
 20
128.7437572292
 10
178.2869054953
 20
129.4357094131
 10
178.1034703384
 20
130.0178782232
 10
177.8201596829
 20
130.4505930431
 10
177.4562803115
 20
130.7043635435
 10
177.0366300846
 20
130.7618950642
 10
176.5898075904
 20
130.6192667372
 10
176.1462628859
 20
130.2861997075
 10
175.7362229767
 20
129.7853903062
 10
175.387631731
 20
129.1509705744
 10
175.1242441608
 20
128.426172506
 10
174.9640105775
 20
127.6603906564
 10
174.9178500398
 20
126.9058126173
 10
174.9889085552
 20
126.2138604335
  0
LWPOLYLINE
  5
138
330
1F
100
AcDbEntity
  8
0
  6
HIDDEN
 62
     7
370
     0
100
AcDbPolyline
 90
       23
 70
   128
 43
0.0
 10
185.7171776722
 20
125.0787784494
 10
186.4215089957
 20
125.1739391274
 10
187.0687800477
 20
125.4517107419
 10
187.6065517793
 20
125.8895906768
 10
187.9912569205
 20
126.452103924
 10
188.1917315553
 20
127.0936799384
 10
188.1917315553
 20
127.762340676
 10
187.9912569205
 20
128.4039166904
 10
187.6065517793
 20
128.9664299376
 10
187.0687800477
 20
129.4043098725
 10
186.4215089957
 20
129.6820805557
 10
185.7171776722
 20
129.7772412337
 10
185.0128463487
 20
129.6820805557
 10
184.3655752967
 20
129.4043098725
 10
183.8278035651
 20
128.9664299376
 10
183.4430974926
 20
128.4039166904
 10
183.2426237891
 20
127.762340676
 10
183.2426237891
 20
127.0936799384
 10
183.4430974926
 20
126.452103924
 10
183.8278035651
 20
125.8895906768
 10
184.3655752967
 20
125.4517107419
 10
185.0128463487
 20
125.1739391274
 10
185.7171776722
 20
125.0787784494
  0
SPLINE
  5
139
330
1F
100
AcDbEntity
  8
0
  6
HIDDEN
 62
     7
370
     0
100
AcDbSpline
210
0.0
220
0.0
230
1.0
 70
     8
 71
     3
 72
    34
 73
    30
 74
     0
 42
0.000000001
 43
0.00000001
 40
0.0
 40
0.0
 40
0.0
 40
0.0
 40
0.062499999999999
 40
0.062499999999999
 40
0.124999999999998
 40
0.124999999999998
 40
0.1874999999999971
 40
0.1874999999999971
 40
0.2499999999999966
 40
0.2499999999999966
 40
0.3124999999999962
 40
0.3124999999999962
 40
0.3749999999999957
 40
0.3749999999999957
 40
0.4999999999999958
 40
0.4999999999999958
 40
0.6249999999999958
 40
0.6249999999999958
 40
0.6874999999999964
 40
0.6874999999999964
 40
0.7499999999999971
 40
0.7499999999999971
 40
0.8124999999999979
 40
0.8124999999999979
 40
0.8749999999999986
 40
0.8749999999999986
 40
0.9374999999999992
 40
0.9374999999999992
 40
1.0
 40
1.0
 40
1.0
 40
1.0
 10
185.8503390872755
 20
132.9088650680961
 30
0.0
 10
186.0097309150634
 20
132.9010249721734
 30
0.0
 10
186.1657333985069
 20
132.8793663240829
 30
0.0
 10
186.4712429145842
 20
132.8095180965901
 30
0.0
 10
186.6221372495964
 20
132.7606923942619
 30
0.0
 10
186.9100365942872
 20
132.6377684408545
 30
0.0
 10
187.0459829972469
 20
132.5644609327202
 30
0.0
 10
187.302165612839
 20
132.3944503089489
 30
0.0
 10
187.4233479005981
 20
132.2965765167474
 30
0.0
 10
187.6404939724708
 20
132.0839923413155
 30
0.0
 10
187.7374558454312
 20
131.9689464027858
 30
0.0
 10
187.9080182812567
 20
131.7210852826657
 30
0.0
 10
187.9812583344687
 20
131.5880517856001
 30
0.0
 10
188.1561387912175
 20
131.17854376947
 30
0.0
 10
188.2171767521934
 20
130.8805831196949
 30
0.0
 10
188.2171784074165
 20
130.2891415638205
 30
0.0
 10
188.1561437978303
 20
129.9889680138439
 30
0.0
 10
187.9812540304283
 20
129.5737367335761
 30
0.0
 10
187.9080103250039
 20
129.4383816153293
 30
0.0
 10
187.7374496092673
 20
129.1854822839427
 30
0.0
 10
187.6404858936738
 20
129.0677170063349
 30
0.0
 10
187.4233255650866
 20
128.8495867109662
 30
0.0
 10
187.3021443063998
 20
128.7488833858193
 30
0.0
 10
187.045974079461
 20
128.5736396929861
 30
0.0
 10
186.9100307297983
 20
128.4978947238955
 30
0.0
 10
186.6221280266152
 20
128.3707263485932
 30
0.0
 10
186.4712378306985
 20
128.3201250762657
 30
0.0
 10
186.1657323269928
 20
128.2476959765179
 30
0.0
 10
186.0097309287294
 20
128.2252102051209
 30
0.0
 10
185.8503390872755
 20
128.2170717452261
 30
0.0
  0
SPLINE
  5
13A
330
1F
100
AcDbEntity
  8
0
  6
HIDDEN
 62
     7
370
     0
100
AcDbSpline
210
0.0
220
0.0
230
1.0
 70
     8
 71
     3
 72
    10
 73
     6
 74
     0
 42
0.000000001
 43
0.00000001
 40
0.0
 40
0.0
 40
0.0
 40
0.0
 40
0.5
 40
0.5
 40
1.0
 40
1.0
 40
1.0
 40
1.0
 10
185.8503390872755
 20
128.2170717452261
 30
0.0
 10
185.6276120604021
 20
128.0735832449323
 30
0.0
 10
185.405926173177
 20
127.9588624991994
 30
0.0
 10
184.964705335325
 20
127.7891020698415
 30
0.0
 10
184.7451466879262
 20
127.7336820754542
 30
0.0
 10
184.5271775798139
 20
127.7171867460845
 30
0.0
  0
SPLINE
  5
13B
330
1F
100
AcDbEntity
  8
0
  6
HIDDEN
 62
     7
370
     0
100
AcDbSpline
210
0.0
220
0.0
230
1.0
 70
     8
 71
     3
 72
    10
 73
     6
 74
     0
 42
0.000000001
 43
0.00000001
 40
0.0
 40
0.0
 40
0.0
 40
0.0
 40
0.5
 40
0.5
 40
1.0
 40
1.0
 40
1.0
 40
1.0
 10
184.5271775798139
 20
131.849227944716
 30
0.0
 10
184.7440684123347
 20
132.0862668841646
 30
0.0
 10
184.9632210489936
 20
132.2884371191581
 30
0.0
 10
185.4047055492624
 20
132.6391891906768
 30
0.0
 10
185.6279080145358
 20
132.7878652830736
 30
0.0
 10
185.8503390872755
 20
132.9088650680961
 30
0.0
  0
SPLINE
  5
13C
330
1F
100
AcDbEntity
  8
0
  6
HIDDEN
 62
     7
370
     0
100
AcDbSpline
210
0.0
220
0.0
230
1.0
 70
     8
 71
     3
 72
    16
 73
    12
 74
     0
 42
0.000000001
 43
0.00000001
 40
0.0
 40
0.0
 40
0.0
 40
0.0
 40
0.2499999999999994
 40
0.2499999999999994
 40
0.4999999999999989
 40
0.4999999999999989
 40
0.7499999999999983
 40
0.7499999999999983
 40
0.8749999999999991
 40
0.8749999999999991
 40
1.0
 40
1.0
 40
1.0
 40
1.0
 10
183.7271775798136
 20
128.0512503939754
 30
0.0
 10
183.5617634733335
 20
128.2581366300007
 30
0.0
 10
183.4355661423578
 20
128.4840053278097
 30
0.0
 10
183.261159844027
 20
128.9728745734225
 30
0.0
 10
183.2173298049302
 20
129.224641626767
 30
0.0
 10
183.2170261319602
 20
129.7364209513492
 30
0.0
 10
183.2608829920204
 20
129.9874756604319
 30
0.0
 10
183.3908047512876
 20
130.3483242285739
 30
0.0
 10
183.4449195626955
 20
130.4655969969225
 30
0.0
 10
183.571596552839
 20
130.6880859482613
 30
0.0
 10
183.6444702731999
 20
130.7942465565048
 30
0.0
 10
183.7271775798136
 20
130.895214237029
 30
0.0
  0
LWPOLYLINE
  5
13D
330
1F
100
AcDbEntity
  8
0
  6
HIDDEN
 62
     7
370
     0
100
AcDbPolyline
 90
       20
 70
   128
 43
0.0
 10
185.5824469606
 20
125.4687632583
 10
186.2312863598
 20
125.528252419
 10
186.824414974
 20
125.7824904434
 10
187.2975575755
 20
126.2039278782
 10
187.5994402001
 20
126.7468945272
 10
187.6973520051
 20
127.3525512926
 10
187.5806796382
 20
127.95526601
 10
187.2620685975
 20
128.4897259585
 10
186.7760448734
 20
128.8980140499
 10
186.1752766202
 20
129.1358850114
 10
185.5248651485
 20
129.1775616966
 10
184.8952948133
 20
129.0185290537
 10
184.3547877873
 20
128.6760202758
 10
183.9619168098
 20
128.1871504299
 10
183.7592554296
 20
127.6048978008
 10
183.7687651644
 20
126.9923576302
 10
183.9894159715
 20
126.4159080721
 10
184.3972970749
 20
125.9380157254
 10
184.9482069741
 20
125.6104695759
 10
185.5824469606
 20
125.4687632583
  0
LWPOLYLINE
  5
13E
330
1F
100
AcDbEntity
  8
0
  6
HIDDEN
 62
     7
370
     0
100
AcDbPolyline
 90
       23
 70
   128
 43
0.0
 10
185.5470958183
 20
125.0842220298
 10
186.2566844578
 20
125.1341334693
 10
186.9225661288
 20
125.3698819465
 10
187.4907939712
 20
125.7723678983
 10
187.9153336416
 20
126.3089838586
 10
188.1617932598
 20
126.936256621
 10
188.2102034072
 20
127.6033685691
 10
188.0566432158
 20
128.2562731914
 10
187.7135532926
 20
128.8420778848
 10
187.208729891
 20
129.3133233822
 10
186.583069248
 20
129.6318319775
 10
185.8872595261
 20
129.7717985846
 10
185.1776699553
 20
129.7218871451
 10
184.5117892156
 20
129.4861386679
 10
183.9435613732
 20
129.0836527161
 10
183.5190207715
 20
128.5470367558
 10
183.2725620846
 20
127.9197639934
 10
183.2241519372
 20
127.2526520453
 10
183.3777121286
 20
126.5997464917
 10
183.7208011205
 20
126.0139427296
 10
184.2256254534
 20
125.5426972322
 10
184.8512860964
 20
125.2241895683
 10
185.5470958183
 20
125.0842220298
  0
LWPOLYLINE
  5
13F
330
1F
100
AcDbEntity
  8
0
  6
HIDDEN
 62
     7
370
     0
100
AcDbPolyline
 90
       23
 70
   128
 43
0.0
 10
185.5470958183
 20
125.6827569715
 10
186.2566844578
 20
125.7326693423
 10
186.9225661288
 20
125.9684168882
 10
187.4907939712
 20
126.37090284
 10
187.9153336416
 20
126.9075188003
 10
188.1617932598
 20
127.5347915627
 10
188.2102034072
 20
128.2019035108
 10
188.0566432158
 20
128.8548090644
 10
187.7135532926
 20
129.4406128264
 10
187.208729891
 20
129.9118583239
 10
186.583069248
 20
130.2303669191
 10
185.8872595261
 20
130.3703335262
 10
185.1776699553
 20
130.3204220868
 10
184.5117892156
 20
130.0846745409
 10
183.9435613732
 20
129.6821885891
 10
183.5190207715
 20
129.1455716975
 10
183.2725620846
 20
128.5182989351
 10
183.2241519372
 20
127.851186987
 10
183.3777121286
 20
127.1982823647
 10
183.7208011205
 20
126.6124776713
 10
184.2256254534
 20
126.1412331052
 10
184.8512860964
 20
125.8227245099
 10
185.5470958183
 20
125.6827569715
  0
LWPOLYLINE
  5
140
330
1F
100
AcDbEntity
  8
0
  6
HIDDEN
 62
     7
370
     0
100
AcDbPolyline
 90
       20
 70
   128
 43
0.0
 10
185.5811123754
 20
127.3314838446
 10
186.2363788317
 20
127.3915625326
 10
186.8353822286
 20
127.6483188532
 10
187.3132112454
 20
128.0739304758
 10
187.6180834154
 20
128.6222745813
 10
187.7169656585
 20
129.2339309267
 10
187.5991384516
 20
129.8426163531
 10
187.2773702274
 20
130.3823699392
 10
186.7865324969
 20
130.7947018332
 10
186.1798140238
 20
131.0349271781
 10
185.5229605938
 20
131.0770173706
 10
184.8871541227
 20
130.9164107926
 10
184.3412938545
 20
130.5705082751
 10
183.94453088
 20
130.0767974145
 10
183.7398624996
 20
129.4887771047
 10
183.7494672294
 20
128.8701693676
 10
183.9723029191
 20
128.2880098707
 10
184.3842231686
 20
127.8053854741
 10
184.9405906181
 20
127.4745945967
 10
185.5811123754
 20
127.3314838446
  0
LWPOLYLINE
  5
141
330
1F
100
AcDbEntity
  8
0
  6
HIDDEN
 62
     7
370
     0
100
AcDbPolyline
 90
       20
 70
   128
 43
0.0
 10
185.5811123754
 20
125.9137082062
 10
186.2363788317
 20
125.9737868942
 10
186.8353822286
 20
126.2305432148
 10
187.3132112454
 20
126.6561548374
 10
187.6180834154
 20
127.2044989429
 10
187.7169656585
 20
127.8161552883
 10
187.5991384516
 20
128.4248397834
 10
187.2773702274
 20
128.9645933695
 10
186.7865324969
 20
129.3769252635
 10
186.1798140238
 20
129.617152471
 10
185.5229605938
 20
129.6592426635
 10
184.8871541227
 20
129.4986342228
 10
184.3412938545
 20
129.1527326367
 10
183.94453088
 20
128.6590208448
 10
183.7398624996
 20
128.071000535
 10
183.7494672294
 20
127.4523937292
 10
183.9723029191
 20
126.8702342323
 10
184.3842231686
 20
126.3876089043
 10
184.9405906181
 20
126.0568189583
 10
185.5811123754
 20
125.9137082062
  0
LWPOLYLINE
  5
142
330
1F
100
AcDbEntity
  8
0
  6
HIDDEN
 62
     7
370
     0
100
AcDbPolyline
 90
       23
 70
   128
 43
0.0
 10
185.5470958183
 20
125.9187503866
 10
186.2566844578
 20
125.9686627574
 10
186.9225661288
 20
126.2044112347
 10
187.4907939712
 20
126.6068971864
 10
187.9153336416
 20
127.1435131467
 10
188.1617932598
 20
127.7707859091
 10
188.2102034072
 20
128.4378978572
 10
188.0566432158
 20
129.0908024795
 10
187.7135532926
 20
129.6766062416
 10
187.208729891
 20
130.147851739
 10
186.583069248
 20
130.4663603343
 10
185.8872595261
 20
130.606328804
 10
185.1776699553
 20
130.5564155019
 10
184.5117892156
 20
130.320667956
 10
183.9435613732
 20
129.9181820042
 10
183.5190207715
 20
129.3815660439
 10
183.2725620846
 20
128.7542932815
 10
183.2241519372
 20
128.0871813334
 10
183.3777121286
 20
127.4342757798
 10
183.7208011205
 20
126.8484720177
 10
184.2256254534
 20
126.3772265203
 10
184.8512860964
 20
126.0587188564
 10
185.5470958183
 20
125.9187503866
  0
LWPOLYLINE
  5
143
330
1F
100
AcDbEntity
  8
0
  6
HIDDEN
 62
     7
370
     0
100
AcDbPolyline
 90
       22
 70
   128
 43
0.0
 10
185.5607024411
 20
125.9317339546
 10
186.2440203334
 20
125.98419163
 10
186.8805262278
 20
126.2235834412
 10
187.4136636982
 20
126.6286379806
 10
187.7960591595
 20
127.1633652187
 10
187.9937398265
 20
127.7802528031
 10
187.9891353677
 20
128.4244858808
 10
187.7826592902
 20
129.038823504
 10
187.3926549236
 20
129.568677131
 10
186.8537777121
 20
129.9669684059
 10
186.2139078806
 20
130.1983052082
 10
185.529901741
 20
130.2421369738
 10
184.8625364731
 20
130.094563324
 10
184.2711093853
 20
129.7687010057
 10
183.8081712852
 20
129.2935011126
 10
183.5148577596
 20
128.7111898101
 10
183.4172290767
 20
128.0735076554
 10
183.5239614378
 20
127.437114451
 10
183.8255711849
 20
126.8585573099
 10
184.2952576483
 20
126.3892424441
 10
184.8912882636
 20
126.0708716847
 10
185.5607024411
 20
125.9317339546
  0
LWPOLYLINE
  5
144
330
1F
100
AcDbEntity
  8
0
  6
HIDDEN
 62
     7
370
     0
100
AcDbPolyline
 90
       23
 70
   128
 43
0.0
 10
185.5470958183
 20
126.1547447331
 10
186.2566844578
 20
126.2046571038
 10
186.9225661288
 20
126.4404055811
 10
187.4907939712
 20
126.8428906016
 10
187.9153336416
 20
127.3795065619
 10
188.1617932598
 20
128.0067793242
 10
188.2102034072
 20
128.6738912723
 10
188.0566432158
 20
129.3267968259
 10
187.7135532926
 20
129.9126015193
 10
187.208729891
 20
130.3838451541
 10
186.583069248
 20
130.7023537494
 10
185.8872595261
 20
130.8423222191
 10
185.1776699553
 20
130.7924089171
 10
184.5117892156
 20
130.5566613711
 10
183.9435613732
 20
130.1541754193
 10
183.5190207715
 20
129.6175603903
 10
183.2725620846
 20
128.9902866967
 10
183.2241519372
 20
128.3231756798
 10
183.3777121286
 20
127.6702701263
 10
183.7208011205
 20
127.0844654329
 10
184.2256254534
 20
126.6132208667
 10
184.8512860964
 20
126.2947122715
 10
185.5470958183
 20
126.1547447331
  0
LWPOLYLINE
  5
145
330
1F
100
AcDbEntity
  8
0
  6
HIDDEN
 62
     7
370
     0
100
AcDbPolyline
 90
       22
 70
   128
 43
0.0
 10
185.5607024411
 20
126.1677283011
 10
186.2440203334
 20
126.2201850451
 10
186.8805262278
 20
126.4595768563
 10
187.4136636982
 20
126.8646323271
 10
187.7960591595
 20
127.3993595652
 10
187.9937398265
 20
128.0162462182
 10
187.9891353677
 20
128.6604802273
 10
187.7826592902
 20
129.2748169191
 10
187.3926549236
 20
129.8046705462
 10
186.8537777121
 20
130.2029618211
 10
186.2139078806
 20
130.4343004859
 10
185.529901741
 20
130.478130389
 10
184.8625364731
 20
130.3305567391
 10
184.2711093853
 20
130.0046944208
 10
183.8081712852
 20
129.529495459
 10
183.5148577596
 20
128.9471841566
 10
183.4172290767
 20
128.3095010705
 10
183.5239614378
 20
127.6731078661
 10
183.8255711849
 20
127.094550725
 10
184.2952576483
 20
126.6252367906
 10
184.8912882636
 20
126.3068660311
 10
185.5607024411
 20
126.1677283011
  0
LWPOLYLINE
  5
146
330
1F
100
AcDbEntity
  8
0
  6
HIDDEN
 62
     7
370
     0
100
AcDbPolyline
 90
       23
 70
   128
 43
0.0
 10
185.5470958183
 20
126.3907381482
 10
186.2566844578
 20
126.4406505189
 10
186.9225661288
 20
126.6763989962
 10
187.4907939712
 20
127.078884948
 10
187.9153336416
 20
127.6155009083
 10
188.1617932598
 20
128.2427736707
 10
188.2102034072
 20
128.9098856188
 10
188.0566432158
 20
129.5627911724
 10
187.7135532926
 20
130.1485949344
 10
187.208729891
 20
130.6198404319
 10
186.583069248
 20
130.9383471645
 10
185.8872595261
 20
131.0783156342
 10
185.1776699553
 20
131.0284041948
 10
184.5117892156
 20
130.7926547862
 10
183.9435613732
 20
130.3901688344
 10
183.5190207715
 20
129.8535538055
 10
183.2725620846
 20
129.2262810431
 10
183.2241519372
 20
128.559169095
 10
183.3777121286
 20
127.9062635414
 10
183.7208011205
 20
127.3204597793
 10
184.2256254534
 20
126.8492142818
 10
184.8512860964
 20
126.5307066179
 10
185.5470958183
 20
126.3907381482
  0
LWPOLYLINE
  5
147
330
1F
100
AcDbEntity
  8
0
  6
HIDDEN
 62
     7
370
     0
100
AcDbPolyline
 90
       22
 70
   128
 43
0.0
 10
185.5607024411
 20
126.4037217162
 10
186.2440203334
 20
126.4561793915
 10
186.8805262278
 20
126.6955712027
 10
187.4136636982
 20
127.1006257422
 10
187.7960591595
 20
127.6353529803
 10
187.9937398265
 20
128.2522405646
 10
187.9891353677
 20
128.8964736424
 10
187.7826592902
 20
129.5108112655
 10
187.3926549236
 20
130.0406639613
 10
186.8537777121
 20
130.4389552362
 10
186.2139078806
 20
130.6702939011
 10
185.529901741
 20
130.7141238041
 10
184.8625364731
 20
130.5665520168
 10
184.2711093853
 20
130.2406878359
 10
183.8081712852
 20
129.7654898054
 10
183.5148577596
 20
129.183178503
 10
183.4172290767
 20
128.5454954169
 10
183.5239614378
 20
127.9091022126
 10
183.8255711849
 20
127.3305450715
 10
184.2952576483
 20
126.8612302057
 10
184.8912882636
 20
126.5428594462
 10
185.5607024411
 20
126.4037217162
  0
LWPOLYLINE
  5
148
330
1F
100
AcDbEntity
  8
0
  6
HIDDEN
 62
     7
370
     0
100
AcDbPolyline
 90
       23
 70
   128
 43
0.0
 10
185.5470958183
 20
126.6267324946
 10
186.2566844578
 20
126.6766448654
 10
186.9225661288
 20
126.9123933427
 10
187.4907939712
 20
127.3148783631
 10
187.9153336416
 20
127.8514943234
 10
188.1617932598
 20
128.4787670858
 10
188.2102034072
 20
129.1458790339
 10
188.0566432158
 20
129.7987845875
 10
187.7135532926
 20
130.3845883496
 10
187.208729891
 20
130.855833847
 10
186.583069248
 20
131.1743424423
 10
185.8872595261
 20
131.3143090493
 10
185.1776699553
 20
131.2643976099
 10
184.5117892156
 20
131.028650064
 10
183.9435613732
 20
130.6261641122
 10
183.5190207715
 20
130.0895472206
 10
183.2725620846
 20
129.4622744582
 10
183.2241519372
 20
128.7951634414
 10
183.3777121286
 20
128.1422578878
 10
183.7208011205
 20
127.5564531944
 10
184.2256254534
 20
127.0852086283
 10
184.8512860964
 20
126.766700033
 10
185.5470958183
 20
126.6267324946
  0
LWPOLYLINE
  5
149
330
1F
100
AcDbEntity
  8
0
  6
HIDDEN
 62
     7
370
     0
100
AcDbPolyline
 90
       22
 70
   128
 43
0.0
 10
185.5607024411
 20
126.6397160626
 10
186.2440203334
 20
126.6921728067
 10
186.8805262278
 20
126.9315646179
 10
187.4136636982
 20
127.3366200886
 10
187.7960591595
 20
127.8713473267
 10
187.9937398265
 20
128.4882339797
 10
187.9891353677
 20
129.1324679888
 10
187.7826592902
 20
129.7468056119
 10
187.3926549236
 20
130.276659239
 10
186.8537777121
 20
130.6749505139
 10
186.2139078806
 20
130.9062873162
 10
185.529901741
 20
130.9501172192
 10
184.8625364731
 20
130.802545432
 10
184.2711093853
 20
130.476681251
 10
183.8081712852
 20
130.0014832206
 10
183.5148577596
 20
129.4191719181
 10
183.4172290767
 20
128.781488832
 10
183.5239614378
 20
128.1450956277
 10
183.8255711849
 20
127.5665384866
 10
184.2952576483
 20
127.0972245521
 10
184.8912882636
 20
126.7788537926
 10
185.5607024411
 20
126.6397160626
  0
LWPOLYLINE
  5
14A
330
1F
100
AcDbEntity
  8
0
  6
HIDDEN
 62
     7
370
     0
100
AcDbPolyline
 90
       23
 70
   128
 43
0.0
 10
185.5470958183
 20
126.8148438222
 10
186.2566844578
 20
126.8647552616
 10
186.9225661288
 20
127.1005037389
 10
187.4907939712
 20
127.5029896907
 10
187.9153336416
 20
128.039605651
 10
188.1617932598
 20
128.6668784134
 10
188.2102034072
 20
129.3339903615
 10
188.0566432158
 20
129.9868949837
 10
187.7135532926
 20
130.5727006085
 10
187.208729891
 20
131.0439442433
 10
186.583069248
 20
131.3624528385
 10
185.8872595261
 20
131.5024213083
 10
185.1776699553
 20
131.4525080062
 10
184.5117892156
 20
131.2167604602
 10
183.9435613732
 20
130.8142745085
 10
183.5190207715
 20
130.2776594795
 10
183.2725620846
 20
129.6503857858
 10
183.2241519372
 20
128.9832738377
 10
183.3777121286
 20
128.3303692154
 10
183.7208011205
 20
127.744564522
 10
184.2256254534
 20
127.2733190245
 10
184.8512860964
 20
126.9548113606
 10
185.5470958183
 20
126.8148438222
  0
LWPOLYLINE
  5
14B
330
1F
100
AcDbEntity
  8
0
  6
HIDDEN
 62
     7
370
     0
100
AcDbPolyline
 90
       22
 70
   128
 43
0.0
 10
185.5566204543
 20
126.9939781315
 10
186.2577638606
 20
127.0478039197
 10
186.9108743052
 20
127.2934411801
 10
187.4579182844
 20
127.7090625055
 10
187.8502919356
 20
128.2577400244
 10
188.0531265418
 20
128.8907190002
 10
188.0484047363
 20
129.5517587251
 10
187.8365400265
 20
130.1821225471
 10
187.4363637547
 20
130.7257988639
 10
186.8834282289
 20
131.1344799734
 10
186.2268663029
 20
131.3718517459
 10
185.5250169541
 20
131.4168253131
 10
184.840241542
 20
131.2654034383
 10
184.2333861644
 20
130.9310400076
 10
183.7583716045
 20
130.443444211
 10
183.4574063326
 20
129.8459430374
 10
183.3572304825
 20
129.1916246674
 10
183.466747498
 20
128.5386297069
 10
183.7762241269
 20
127.9449795521
 10
184.2581640015
 20
127.4634224511
 10
184.8697430472
 20
127.1367461569
 10
185.5566204543
 20
126.9939781315
  0
ARC
  5
14C
330
1F
100
AcDbEntity
  8
0
  6
HIDDEN
 62
     7
370
     0
100
AcDbCircle
 10
185.7033482589
 20
98.6116884251
 30
0.0
 40
2.481198093993789
100
AcDbArc
 50
345.1059197262
 51
182.6037016399
  0
ARC
  5
14D
330
1F
100
AcDbEntity
  8
0
  6
HIDDEN
 62
     7
370
     0
100
AcDbCircle
 10
185.6996157653
 20
98.5476867906
 30
0.0
 40
2.356430766252778
100
AcDbArc
 50
350.9620987549
 51
158.5806595779
  0
ARC
  5
14E
330
1F
100
AcDbEntity
  8
0
  6
HIDDEN
 62
     7
370
     0
100
AcDbCircle
 10
185.7153893868
 20
98.5300579411
 30
0.0
 40
2.004450982804744
100
AcDbArc
 50
2.9533992742
 51
126.8073677924
  0
LWPOLYLINE
  5
14F
330
1F
100
AcDbEntity
  8
0
  6
HIDDEN
 62
     7
370
     0
100
AcDbPolyline
 90
       23
 70
   128
 43
0.0
 10
184.8621276225
 20
96.6617723144
 10
184.2349079455
 20
96.9775614477
 10
183.7277730013
 20
97.4466108866
 10
183.3818080853
 20
98.0309208072
 10
183.2250404189
 20
98.6831520833
 10
183.2701713796
 20
99.3504661284
 10
183.5135445948
 20
99.9788024611
 10
183.935442103
 20
100.5172549895
 10
184.501685297
 20
100.9222024269
 10
185.1664009522
 20
101.1608389355
 10
185.8757372032
 20
101.2138302586
 10
186.5722277219
 20
101.0768839307
 10
187.1994483302
 20
100.7610947974
 10
187.7065814118
 20
100.2920453585
 10
188.0525472591
 20
99.7077363692
 10
188.2093149255
 20
99.0555050931
 10
188.1641830335
 20
98.3881901167
 10
187.920811681
 20
97.7598537839
 10
187.4989132414
 20
97.2214021869
 10
186.9326691161
 20
96.8164538182
 10
186.2679534609
 20
96.5778173096
 10
185.5586181412
 20
96.5248269177
 10
184.8621276225
 20
96.6617723144
  0
LWPOLYLINE
  5
150
330
1F
100
AcDbEntity
  8
0
  6
HIDDEN
 62
     7
370
     0
100
AcDbPolyline
 90
       20
 70
   128
 43
0.0
 10
185.0331370736
 20
98.2850656993
 10
184.4599648396
 20
98.5894675515
 10
184.0230311285
 20
99.0522612966
 10
183.7696843798
 20
99.6232961453
 10
183.7273790519
 20
100.2406903691
 10
183.9006991143
 20
100.8375414796
 10
184.2708625848
 20
101.3491700552
 10
184.7977564688
 20
101.7201335318
 10
185.4242841731
 20
101.9102332331
 10
186.0825513507
 20
101.8988673724
 10
186.7012252117
 20
101.6872690208
 10
187.2132617066
 20
101.2983673401
 10
187.5631744991
 20
100.7743056081
 10
187.7130447904
 20
100.1718749441
 10
187.6466321776
 20
99.5563573353
 10
187.3711320589
 20
98.9944531731
 10
186.9164017047
 20
98.5470551215
 10
186.3317155297
 20
98.2626450397
 10
185.6804360653
 20
98.1720422543
 10
185.0331370736
 20
98.2850656993
  0
LWPOLYLINE
  5
151
330
1F
100
AcDbEntity
  8
0
  6
HIDDEN
 62
     7
370
     0
100
AcDbPolyline
 90
       23
 70
   128
 43
0.0
 10
184.8621276225
 20
96.8977657295
 10
184.2349079455
 20
97.2135567255
 10
183.7277730013
 20
97.6826043017
 10
183.3818080853
 20
98.2669142223
 10
183.2250404189
 20
98.9191454984
 10
183.2701713796
 20
99.5864604748
 10
183.5135445948
 20
100.2147958762
 10
183.935442103
 20
100.753249336
 10
184.501685297
 20
101.1581967733
 10
185.1664009522
 20
101.3968323506
 10
185.8757372032
 20
101.4498236738
 10
186.5722277219
 20
101.3128773458
 10
187.1994483302
 20
100.9970882125
 10
187.7065814118
 20
100.528039705
 10
188.0525472591
 20
99.9437307156
 10
188.2093149255
 20
99.2914985083
 10
188.1641830335
 20
98.6241835318
 10
187.920811681
 20
97.9958471991
 10
187.4989132414
 20
97.457395602
 10
186.9326691161
 20
97.0524472333
 10
186.2679534609
 20
96.8138125874
 10
185.5586181412
 20
96.7608203329
 10
184.8621276225
 20
96.8977657295
  0
LWPOLYLINE
  5
152
330
1F
100
AcDbEntity
  8
0
  6
HIDDEN
 62
     7
370
     0
100
AcDbPolyline
 90
       22
 70
   128
 43
0.0
 10
184.9305314029
 20
97.0128976888
 10
184.3284276332
 20
97.3210108615
 10
183.8497203792
 20
97.7822073884
 10
183.5369450058
 20
98.3555053509
 10
183.4178921784
 20
98.9899660609
 10
183.5031417216
 20
99.6292137689
 10
183.7851182575
 20
100.2164499051
 10
184.2387664149
 20
100.6994943283
 10
184.8237776215
 20
101.0354279689
 10
185.4881719704
 20
101.1944010071
 10
186.1729138548
 20
101.1622880734
 10
186.8171618338
 20
100.9419427402
 10
187.3636721651
 20
100.5529423393
 10
187.7638819645
 20
100.0298529081
 10
187.9822361301
 20
99.4191530309
 10
187.9993277619
 20
98.7751052863
 10
187.813640667
 20
98.1549357213
 10
187.441674156
 20
97.6137516237
 10
186.9164790044
 20
97.1996371783
 10
186.2847191299
 20
96.9493889398
 10
185.6025318633
 20
96.8852413035
 10
184.9305314029
 20
97.0128976888
  0
LWPOLYLINE
  5
153
330
1F
100
AcDbEntity
  8
0
  6
HIDDEN
 62
     7
370
     0
100
AcDbPolyline
 90
       23
 70
   128
 43
0.0
 10
184.8621276225
 20
97.1337610073
 10
184.2349079455
 20
97.4495501406
 10
183.7277730013
 20
97.9185995794
 10
183.3818080853
 20
98.5029076375
 10
183.2250404189
 20
99.1551398448
 10
183.2701713796
 20
99.8224548213
 10
183.5135445948
 20
100.4507902227
 10
183.935442103
 20
100.9892427511
 10
184.501685297
 20
101.3941901884
 10
185.1664009522
 20
101.632826697
 10
185.8757372032
 20
101.6858180202
 10
186.5722277219
 20
101.5488716922
 10
187.1994483302
 20
101.2330825589
 10
187.7065814118
 20
100.7640331201
 10
188.0525472591
 20
100.1797241307
 10
188.2093149255
 20
99.5274928547
 10
188.1641830335
 20
98.8601778782
 10
187.920811681
 20
98.2318424768
 10
187.4989132414
 20
97.6933890171
 10
186.9326691161
 20
97.2884406484
 10
186.2679534609
 20
97.0498060025
 10
185.5586181412
 20
96.996813748
 10
184.8621276225
 20
97.1337610073
  0
LWPOLYLINE
  5
154
330
1F
100
AcDbEntity
  8
0
  6
HIDDEN
 62
     7
370
     0
100
AcDbPolyline
 90
       22
 70
   128
 43
0.0
 10
184.9305314029
 20
97.248891104
 10
184.3284276332
 20
97.5570042766
 10
183.8497203792
 20
98.0182008035
 10
183.5369450058
 20
98.591498766
 10
183.4178921784
 20
99.225959476
 10
183.5031417216
 20
99.8652081154
 10
183.7851182575
 20
100.4524433203
 10
184.2387664149
 20
100.9354886747
 10
184.8237776215
 20
101.2714223153
 10
185.4881719704
 20
101.4303953535
 10
186.1729138548
 20
101.3982824198
 10
186.8171618338
 20
101.1779361553
 10
187.3636721651
 20
100.7889366857
 10
187.7638819645
 20
100.2658472545
 10
187.9822361301
 20
99.655146446
 10
187.9993277619
 20
99.0110987015
 10
187.813640667
 20
98.3909300677
 10
187.441674156
 20
97.8497450388
 10
186.9164790044
 20
97.4356305934
 10
186.2847191299
 20
97.185382355
 10
185.6025318633
 20
97.1212365813
 10
184.9305314029
 20
97.248891104
  0
LWPOLYLINE
  5
155
330
1F
100
AcDbEntity
  8
0
  6
HIDDEN
 62
     7
370
     0
100
AcDbPolyline
 90
       23
 70
   128
 43
0.0
 10
184.8621276225
 20
97.3697544224
 10
184.2349079455
 20
97.6855435557
 10
183.7277730013
 20
98.1545929946
 10
183.3818080853
 20
98.7389019839
 10
183.2250404189
 20
99.3911332599
 10
183.2701713796
 20
100.0584482364
 10
183.5135445948
 20
100.6867836378
 10
183.935442103
 20
101.2252370975
 10
184.501685297
 20
101.6301845349
 10
185.1664009522
 20
101.8688201121
 10
185.8757372032
 20
101.9218114353
 10
186.5722277219
 20
101.7848651073
 10
187.1994483302
 20
101.469075974
 10
187.7065814118
 20
101.0000274665
 10
188.0525472591
 20
100.4157184772
 10
188.2093149255
 20
99.7634862698
 10
188.1641830335
 20
99.0961712934
 10
187.920811681
 20
98.4678358919
 10
187.4989132414
 20
97.9293824322
 10
186.9326691161
 20
97.5244359262
 10
186.2679534609
 20
97.2857994176
 10
185.5586181412
 20
97.2328090257
 10
184.8621276225
 20
97.3697544224
  0
LWPOLYLINE
  5
156
330
1F
100
AcDbEntity
  8
0
  6
HIDDEN
 62
     7
370
     0
100
AcDbPolyline
 90
       22
 70
   128
 43
0.0
 10
184.9305314029
 20
97.4848845191
 10
184.3284276332
 20
97.7929995544
 10
183.8497203792
 20
98.2541942186
 10
183.5369450058
 20
98.8274931125
 10
183.4178921784
 20
99.4619538225
 10
183.5031417216
 20
100.1012015305
 10
183.7851182575
 20
100.6884376667
 10
184.2387664149
 20
101.1714820899
 10
184.8237776215
 20
101.5074157305
 10
185.4881719704
 20
101.6663887687
 10
186.1729138548
 20
101.634275835
 10
186.8171618338
 20
101.4139305017
 10
187.3636721651
 20
101.0249301008
 10
187.7638819645
 20
100.5018406696
 10
187.9822361301
 20
99.8911407925
 10
187.9993277619
 20
99.2470930479
 10
187.813640667
 20
98.6269244141
 10
187.441674156
 20
98.085738454
 10
186.9164790044
 20
97.6716240085
 10
186.2847191299
 20
97.4213757701
 10
185.6025318633
 20
97.3572299964
 10
184.9305314029
 20
97.4848845191
  0
LWPOLYLINE
  5
157
330
1F
100
AcDbEntity
  8
0
  6
HIDDEN
 62
     7
370
     0
100
AcDbPolyline
 90
       23
 70
   128
 43
0.0
 10
184.8621276225
 20
97.6057478375
 10
184.2349079455
 20
97.9215369708
 10
183.7277730013
 20
98.3905864097
 10
183.3818080853
 20
98.974895399
 10
183.2250404189
 20
99.6271276064
 10
183.2701713796
 20
100.2944425828
 10
183.5135445948
 20
100.9227779842
 10
183.935442103
 20
101.4612305127
 10
184.501685297
 20
101.86617795
 10
185.1664009522
 20
102.1048144586
 10
185.8757372032
 20
102.1578057818
 10
186.5722277219
 20
102.0208594538
 10
187.1994483302
 20
101.7050703205
 10
187.7065814118
 20
101.2360208816
 10
188.0525472591
 20
100.6517118923
 10
188.2093149255
 20
99.9994806163
 10
188.1641830335
 20
99.3321656398
 10
187.920811681
 20
98.7038293071
 10
187.4989132414
 20
98.16537771
 10
186.9326691161
 20
97.7604293413
 10
186.2679534609
 20
97.5217928327
 10
185.5586181412
 20
97.4688024409
 10
184.8621276225
 20
97.6057478375
  0
LWPOLYLINE
  5
158
330
1F
100
AcDbEntity
  8
0
  6
HIDDEN
 62
     7
370
     0
100
AcDbPolyline
 90
       22
 70
   128
 43
0.0
 10
184.9305314029
 20
97.7208779342
 10
184.3284276332
 20
98.0289929695
 10
183.8497203792
 20
98.4901885651
 10
183.5369450058
 20
99.0634865276
 10
183.4178921784
 20
99.6979472376
 10
183.5031417216
 20
100.3371958769
 10
183.7851182575
 20
100.9244310818
 10
184.2387664149
 20
101.4074764363
 10
184.8237776215
 20
101.7434100769
 10
185.4881719704
 20
101.9023831151
 10
186.1729138548
 20
101.8702701814
 10
186.8171618338
 20
101.6499239169
 10
187.3636721651
 20
101.2609244473
 10
187.7638819645
 20
100.7378350161
 10
187.9822361301
 20
100.1271342076
 10
187.9993277619
 20
99.483086463
 10
187.813640667
 20
98.8629178293
 10
187.441674156
 20
98.3217328004
 10
186.9164790044
 20
97.9076174236
 10
186.2847191299
 20
97.6573691852
 10
185.6025318633
 20
97.5932234115
 10
184.9305314029
 20
97.7208779342
  0
LWPOLYLINE
  5
159
330
1F
100
AcDbEntity
  8
0
  6
HIDDEN
 62
     7
370
     0
100
AcDbPolyline
 90
       23
 70
   128
 43
0.0
 10
184.8621276225
 20
98.2042827792
 10
184.2349079455
 20
98.5200728438
 10
183.7277730013
 20
98.9891213513
 10
183.3818080853
 20
99.5734303407
 10
183.2250404189
 20
100.225662548
 10
183.2701713796
 20
100.8929775245
 10
183.5135445948
 20
101.5213129259
 10
183.935442103
 20
102.0597663857
 10
184.501685297
 20
102.464713823
 10
185.1664009522
 20
102.7033494003
 10
185.8757372032
 20
102.7563407234
 10
186.5722277219
 20
102.6193943955
 10
187.1994483302
 20
102.3036052621
 10
187.7065814118
 20
101.8345567546
 10
188.0525472591
 20
101.2502477653
 10
188.2093149255
 20
100.5980155579
 10
188.1641830335
 20
99.9307005815
 10
187.920811681
 20
99.3023651801
 10
187.4989132414
 20
98.7639117203
 10
186.9326691161
 20
98.358964283
 10
186.2679534609
 20
98.1203277744
 10
185.5586181412
 20
98.0673373825
 10
184.8621276225
 20
98.2042827792
  0
LWPOLYLINE
  5
15A
330
1F
100
AcDbEntity
  8
0
  6
HIDDEN
 62
     7
370
     0
100
AcDbPolyline
 90
       20
 70
   128
 43
0.0
 10
185.0398463215
 20
98.7657212801
 10
184.4722955505
 20
99.0671382434
 10
184.0396468545
 20
99.5253927223
 10
183.7887848745
 20
100.090826597
 10
183.7468939851
 20
100.7021662928
 10
183.9185143838
 20
101.2931631095
 10
184.285047559
 20
101.7997737191
 10
184.8067744653
 20
102.1670994497
 10
185.4271573032
 20
102.3553346432
 10
186.0789685528
 20
102.3440805412
 10
186.6915739159
 20
102.1345571763
 10
187.1985877882
 20
101.7494692616
 10
187.5450695882
 20
101.2305474989
 10
187.6934702526
 20
100.6340251453
 10
187.6277077029
 20
100.0245443694
 10
187.3549102823
 20
99.4681517742
 10
186.9046400319
 20
99.0251411832
 10
186.3256889413
 20
98.7435204125
 10
185.6807964871
 20
98.6538061089
 10
185.0398463215
 20
98.7657212801
  0
LWPOLYLINE
  5
15B
330
1F
100
AcDbEntity
  8
0
  6
HIDDEN
 62
     7
370
     0
100
AcDbPolyline
 90
       21
 70
   128
 43
0.0
 10
176.1870166304
 20
102.0194997228
 10
175.8725499752
 20
101.8575091995
 10
175.6330012361
 20
101.5151671282
 10
175.4918201844
 20
101.025984358
 10
175.4628257843
 20
100.4378448389
 10
175.5488567072
 20
99.8083220012
 10
175.7414910029
 20
99.1990358717
 10
176.0218731145
 20
98.6696283482
 10
176.3625569659
 20
98.2719228751
 10
176.7301937583
 20
98.0448459424
 10
177.0887971873
 20
98.010629151
 10
177.4032638426
 20
98.1726196743
 10
177.6428125816
 20
98.5149626769
 10
177.7839936334
 20
99.0041454471
 10
177.8129880334
 20
99.5922840349
 10
177.7269571106
 20
100.2218078039
 10
177.5343228149
 20
100.8310930021
 10
177.2539407032
 20
101.3605005256
 10
176.9132568518
 20
101.75820693
 10
176.5456200595
 20
101.9852829314
 10
176.1870166304
 20
102.0194997228
  0
LWPOLYLINE
  5
15C
330
1F
100
AcDbEntity
  8
0
  6
HIDDEN
 62
     7
370
     0
100
AcDbPolyline
 90
       23
 70
   128
 43
0.0
 10
176.2998361158
 20
102.5039523057
 10
175.9487936291
 20
102.3343174867
 10
175.6706294621
 20
101.980873119
 10
175.4878778959
 20
101.472254578
 10
175.4153450968
 20
100.8496663682
 10
175.458906779
 20
100.1635470576
 10
175.615034161
 20
99.4694817028
 10
175.8710789512
 20
98.8236989043
 10
176.206297336
 20
98.278516639
 10
176.5935319493
 20
97.8781038112
 10
177.0014116558
 20
97.6548974551
 10
177.3968921992
 20
97.6269801296
 10
177.7479346859
 20
97.7966149486
 10
178.0260988529
 20
98.1500593163
 10
178.208850419
 20
98.658676926
 10
178.2813832181
 20
99.2812651358
 10
178.237821536
 20
99.9673853777
 10
178.0816936883
 20
100.6614507325
 10
177.8256493638
 20
101.3072325997
 10
177.4904309789
 20
101.852414865
 10
177.1031963656
 20
102.2528286241
 10
176.6953166592
 20
102.4760349802
 10
176.2998361158
 20
102.5039523057
  0
LWPOLYLINE
  5
15D
330
1F
100
AcDbEntity
  8
0
  6
HIDDEN
 62
     7
370
     0
100
AcDbPolyline
 90
       23
 70
   128
 43
0.0
 10
178.7516228872
 20
103.0911185927
 10
178.4005804005
 20
102.9214837737
 10
178.1224162335
 20
102.568039406
 10
177.9396646674
 20
102.059420865
 10
177.8671318683
 20
101.4368326552
 10
177.910694016
 20
100.7507133446
 10
178.0668213981
 20
100.0566479899
 10
178.3228657226
 20
99.4108651913
 10
178.6580841075
 20
98.8656838573
 10
179.0453187208
 20
98.4652700983
 10
179.4531988929
 20
98.2420628108
 10
179.8486794363
 20
98.2141473479
 10
180.199721923
 20
98.3837812356
 10
180.4778856243
 20
98.7372246719
 10
180.6606371905
 20
99.2458441443
 10
180.7331704552
 20
99.8684323541
 10
180.6896078418
 20
100.5545516647
 10
180.5334809254
 20
101.2486170195
 10
180.2774361352
 20
101.8943988867
 10
179.9422177504
 20
102.439581152
 10
179.5549831371
 20
102.8399949111
 10
179.1471034306
 20
103.0632012672
 10
178.7516228872
 20
103.0911185927
  0
LINE
  5
15E
330
1F
100
AcDbEntity
  8
0
  6
HIDDEN
 62
     7
370
     0
100
AcDbLine
 10
176.133813897
 20
99.1853789575
 30
0.0
 11
176.9545996579
 21
98.6072045899
 31
0.0
  0
LINE
  5
15F
330
1F
100
AcDbEntity
  8
0
  6
HIDDEN
 62
     7
370
     0
100
AcDbLine
 10
177.4586929026
 20
99.4368900693
 30
0.0
 11
176.9545996579
 21
98.6072045899
 31
0.0
  0
LINE
  5
160
330
1F
100
AcDbEntity
  8
0
  6
HIDDEN
 62
     7
370
     0
100
AcDbLine
 10
177.1419999207
 20
100.8447508476
 30
0.0
 11
177.4586929026
 21
99.4368900693
 31
0.0
  0
LINE
  5
161
330
1F
100
AcDbEntity
  8
0
  6
HIDDEN
 62
     7
370
     0
100
AcDbLine
 10
177.1419999207
 20
100.8447508476
 30
0.0
 11
176.3212141598
 21
101.4229252152
 31
0.0
  0
LINE
  5
162
330
1F
100
AcDbEntity
  8
0
  6
HIDDEN
 62
     7
370
     0
100
AcDbLine
 10
175.8171209152
 20
100.5932388044
 30
0.0
 11
176.3212141598
 21
101.4229252152
 31
0.0
  0
LINE
  5
163
330
1F
100
AcDbEntity
  8
0
  6
HIDDEN
 62
     7
370
     0
100
AcDbLine
 10
175.8171209152
 20
100.5932388044
 30
0.0
 11
176.133813897
 21
99.1853789575
 31
0.0
  0
LINE
  5
164
330
1F
100
AcDbEntity
  8
0
  6
HIDDEN
 62
     7
370
     0
100
AcDbLine
 10
178.7803038972
 20
101.2371002845
 30
0.0
 11
177.1419999207
 21
100.8447508476
 31
0.0
  0
LINE
  5
165
330
1F
100
AcDbEntity
  8
0
  6
HIDDEN
 62
     7
370
     0
100
AcDbLine
 10
179.0969968791
 20
99.8292395062
 30
0.0
 11
177.4586929026
 21
99.4368900693
 31
0.0
  0
LWPOLYLINE
  5
166
330
1F
100
AcDbEntity
  8
0
  6
HIDDEN
 62
     7
370
     0
100
AcDbPolyline
 90
       19
 70
   128
 43
0.0
 10
179.5305452327
 20
102.5067034326
 10
179.2365066725
 20
102.3435468934
 10
179.0242461505
 20
101.9941873066
 10
178.9193652588
 20
101.500762362
 10
178.9345136861
 20
100.9227872975
 10
179.067865109
 20
100.329972539
 10
179.3033346551
 20
99.79382224
 10
179.6125221084
 20
99.3790037147
 10
179.9581340532
 20
99.1355485431
 10
180.2984849567
 20
99.0928231887
 10
180.5925230513
 20
99.2559797279
 10
180.8047835733
 20
99.6053393147
 10
180.9096653963
 20
100.0987642593
 10
180.8945165033
 20
100.6767402552
 10
180.7611650805
 20
101.2695540823
 10
180.5256950687
 20
101.8057043813
 10
180.2165080811
 20
102.2205238379
 10
179.8708961363
 20
102.4639780782
 10
179.5305452327
 20
102.5067034326
  0
LINE
  5
167
330
1F
100
AcDbEntity
  8
0
  6
HIDDEN
 62
     7
370
     0
100
AcDbLine
 10
177.4554248917
 20
100.9855882413
 30
0.0
 11
177.9595181363
 21
101.815274652
 31
0.0
  0
LINE
  5
168
330
1F
100
AcDbEntity
  8
0
  6
HIDDEN
 62
     7
370
     0
100
AcDbLine
 10
177.4554248917
 20
100.9855882413
 30
0.0
 11
175.8171209152
 21
100.5932388044
 31
0.0
  0
LINE
  5
169
330
1F
100
AcDbEntity
  8
0
  6
HIDDEN
 62
     7
370
     0
100
AcDbLine
 10
177.9595181363
 20
101.815274652
 30
0.0
 11
176.3212141598
 21
101.4229252152
 31
0.0
  0
LINE
  5
16A
330
1F
100
AcDbEntity
  8
0
  6
HIDDEN
 62
     7
370
     0
100
AcDbLine
 10
177.7721178735
 20
99.577727463
 30
0.0
 11
178.5929041001
 21
98.9995530955
 31
0.0
  0
LINE
  5
16B
330
1F
100
AcDbEntity
  8
0
  6
HIDDEN
 62
     7
370
     0
100
AcDbLine
 10
177.4554248917
 20
100.9855882413
 30
0.0
 11
177.7721178735
 21
99.577727463
 31
0.0
  0
LINE
  5
16C
330
1F
100
AcDbEntity
  8
0
  6
HIDDEN
 62
     7
370
     0
100
AcDbLine
 10
179.0969968791
 20
99.8292395062
 30
0.0
 11
178.5929041001
 21
98.9995530955
 31
0.0
  0
LINE
  5
16D
330
1F
100
AcDbEntity
  8
0
  6
HIDDEN
 62
     7
370
     0
100
AcDbLine
 10
178.7803038972
 20
101.2371002845
 30
0.0
 11
179.0969968791
 21
99.8292395062
 31
0.0
  0
LINE
  5
16E
330
1F
100
AcDbEntity
  8
0
  6
HIDDEN
 62
     7
370
     0
100
AcDbLine
 10
178.7803038972
 20
101.2371002845
 30
0.0
 11
177.9595181363
 21
101.815274652
 31
0.0
  0
LINE
  5
16F
330
1F
100
AcDbEntity
  8
0
  6
HIDDEN
 62
     7
370
     0
100
AcDbLine
 10
177.7721178735
 20
99.577727463
 30
0.0
 11
176.133813897
 21
99.1853789575
 31
0.0
  0
LINE
  5
170
330
1F
100
AcDbEntity
  8
0
  6
HIDDEN
 62
     7
370
     0
100
AcDbLine
 10
178.5929041001
 20
98.9995530955
 30
0.0
 11
176.9545996579
 21
98.6072045899
 31
0.0
  0
LWPOLYLINE
  5
171
330
1F
100
AcDbEntity
  8
0
  6
HIDDEN
 62
     7
370
     0
100
AcDbPolyline
 90
       23
 70
   128
 43
0.0
 10
178.7516228872
 20
124.7487307675
 10
178.4005804005
 20
124.9183655865
 10
178.1224162335
 20
125.2718099541
 10
177.9396646674
 20
125.7804284952
 10
177.8671318683
 20
126.403016705
 10
177.910694016
 20
127.0891360156
 10
178.0668213981
 20
127.7832013703
 10
178.3228657226
 20
128.4289841689
 10
178.6580841075
 20
128.9741655029
 10
179.0453187208
 20
129.3745792619
 10
179.4531988929
 20
129.5977865494
 10
179.8486794363
 20
129.6257020123
 10
180.199721923
 20
129.4560681246
 10
180.4778856243
 20
129.1026246882
 10
180.6606371905
 20
128.5940052159
 10
180.7331704552
 20
127.9714170061
 10
180.6896078418
 20
127.2852976955
 10
180.5334809254
 20
126.5912323407
 10
180.2774361352
 20
125.9454504735
 10
179.9422177504
 20
125.4002682082
 10
179.5549831371
 20
124.9998544491
 10
179.1471034306
 20
124.776648093
 10
178.7516228872
 20
124.7487307675
  0
LWPOLYLINE
  5
172
330
1F
100
AcDbEntity
  8
0
  6
HIDDEN
 62
     7
370
     0
100
AcDbPolyline
 90
       19
 70
   128
 43
0.0
 10
179.5305452327
 20
125.3331459276
 10
179.2365066725
 20
125.4963024668
 10
179.0242461505
 20
125.8456620536
 10
178.9193652588
 20
126.3390869982
 10
178.9345136861
 20
126.9170620627
 10
179.067865109
 20
127.5098768211
 10
179.3033346551
 20
128.0460271202
 10
179.6125221084
 20
128.4608456455
 10
179.9581340532
 20
128.7043008171
 10
180.2984849567
 20
128.7470261715
 10
180.5925230513
 20
128.5838696323
 10
180.8047835733
 20
128.2345100454
 10
180.9096653963
 20
127.7410851009
 10
180.8945165033
 20
127.163109105
 10
180.7611650805
 20
126.5702952779
 10
180.5256950687
 20
126.0341449789
 10
180.2165080811
 20
125.6193255223
 10
179.8708961363
 20
125.375871282
 10
179.5305452327
 20
125.3331459276
  0
LWPOLYLINE
  5
173
330
1F
100
AcDbEntity
  8
0
  6
HIDDEN
 62
     7
370
     0
100
AcDbPolyline
 90
       23
 70
   128
 43
0.0
 10
176.2998361158
 20
125.3358970545
 10
175.9487936291
 20
125.5055318735
 10
175.6706294621
 20
125.8589762412
 10
175.4878778959
 20
126.3675947822
 10
175.4153450968
 20
126.990182992
 10
175.458906779
 20
127.6763023026
 10
175.615034161
 20
128.3703676573
 10
175.8710789512
 20
129.0161504559
 10
176.206297336
 20
129.5613327212
 10
176.5935319493
 20
129.9617455489
 10
177.0014116558
 20
130.1849519051
 10
177.3968921992
 20
130.2128692306
 10
177.7479346859
 20
130.0432344116
 10
178.0260988529
 20
129.6897900439
 10
178.208850419
 20
129.1811724342
 10
178.2813832181
 20
128.5585842244
 10
178.237821536
 20
127.8724639825
 10
178.0816936883
 20
127.1783986277
 10
177.8256493638
 20
126.5326167605
 10
177.4904309789
 20
125.9874344952
 10
177.1031963656
 20
125.5870207361
 10
176.6953166592
 20
125.36381438
 10
176.2998361158
 20
125.3358970545
  0
LINE
  5
174
330
1F
100
AcDbEntity
  8
0
  6
HIDDEN
 62
     7
370
     0
100
AcDbLine
 10
177.7721178735
 20
128.2621218971
 30
0.0
 11
178.5929041001
 21
128.8402962647
 31
0.0
  0
LINE
  5
175
330
1F
100
AcDbEntity
  8
0
  6
HIDDEN
 62
     7
370
     0
100
AcDbLine
 10
177.7721178735
 20
128.2621218971
 30
0.0
 11
176.133813897
 21
128.6544704027
 31
0.0
  0
LINE
  5
176
330
1F
100
AcDbEntity
  8
0
  6
HIDDEN
 62
     7
370
     0
100
AcDbLine
 10
177.4554248917
 20
126.8542611189
 30
0.0
 11
177.7721178735
 21
128.2621218971
 31
0.0
  0
LINE
  5
177
330
1F
100
AcDbEntity
  8
0
  6
HIDDEN
 62
     7
370
     0
100
AcDbLine
 10
177.4554248917
 20
126.8542611189
 30
0.0
 11
175.8171209152
 21
127.2466105557
 31
0.0
  0
LINE
  5
178
330
1F
100
AcDbEntity
  8
0
  6
HIDDEN
 62
     7
370
     0
100
AcDbLine
 10
177.4554248917
 20
126.8542611189
 30
0.0
 11
177.9595181363
 21
126.0245747081
 31
0.0
  0
LINE
  5
179
330
1F
100
AcDbEntity
  8
0
  6
HIDDEN
 62
     7
370
     0
100
AcDbLine
 10
175.8171209152
 20
127.2466105557
 30
0.0
 11
176.3212141598
 21
126.416924145
 31
0.0
  0
LINE
  5
17A
330
1F
100
AcDbEntity
  8
0
  6
HIDDEN
 62
     7
370
     0
100
AcDbLine
 10
175.8171209152
 20
127.2466105557
 30
0.0
 11
176.133813897
 21
128.6544704027
 31
0.0
  0
LINE
  5
17B
330
1F
100
AcDbEntity
  8
0
  6
HIDDEN
 62
     7
370
     0
100
AcDbLine
 10
176.133813897
 20
128.6544704027
 30
0.0
 11
176.9545996579
 21
129.2326447702
 31
0.0
  0
LWPOLYLINE
  5
17C
330
1F
100
AcDbEntity
  8
0
  6
HIDDEN
 62
     7
370
     0
100
AcDbPolyline
 90
       21
 70
   128
 43
0.0
 10
176.1870166304
 20
125.8203496374
 10
175.8725499752
 20
125.9823401607
 10
175.6330012361
 20
126.3246822319
 10
175.4918201844
 20
126.8138650022
 10
175.4628257843
 20
127.4020045213
 10
175.5488567072
 20
128.031527359
 10
175.7414910029
 20
128.6408134885
 10
176.0218731145
 20
129.170221012
 10
176.3625569659
 20
129.567926485
 10
176.7301937583
 20
129.7950034178
 10
177.0887971873
 20
129.8292202092
 10
177.4032638426
 20
129.6672296859
 10
177.6428125816
 20
129.3248866833
 10
177.7839936334
 20
128.8357039131
 10
177.8129880334
 20
128.2475653253
 10
177.7269571106
 20
127.6180415563
 10
177.5343228149
 20
127.0087563581
 10
177.2539407032
 20
126.4793488346
 10
176.9132568518
 20
126.0816424302
 10
176.5456200595
 20
125.8545664288
 10
176.1870166304
 20
125.8203496374
  0
LINE
  5
17D
330
1F
100
AcDbEntity
  8
0
  6
HIDDEN
 62
     7
370
     0
100
AcDbLine
 10
179.0969968791
 20
128.010609854
 30
0.0
 11
177.4586929026
 21
128.4029592908
 31
0.0
  0
LINE
  5
17E
330
1F
100
AcDbEntity
  8
0
  6
HIDDEN
 62
     7
370
     0
100
AcDbLine
 10
177.4586929026
 20
128.4029592908
 30
0.0
 11
176.9545996579
 21
129.2326447702
 31
0.0
  0
LINE
  5
17F
330
1F
100
AcDbEntity
  8
0
  6
HIDDEN
 62
     7
370
     0
100
AcDbLine
 10
178.5929041001
 20
128.8402962647
 30
0.0
 11
176.9545996579
 21
129.2326447702
 31
0.0
  0
LINE
  5
180
330
1F
100
AcDbEntity
  8
0
  6
HIDDEN
 62
     7
370
     0
100
AcDbLine
 10
179.0969968791
 20
128.010609854
 30
0.0
 11
178.5929041001
 21
128.8402962647
 31
0.0
  0
LINE
  5
181
330
1F
100
AcDbEntity
  8
0
  6
HIDDEN
 62
     7
370
     0
100
AcDbLine
 10
178.7803038972
 20
126.6027490757
 30
0.0
 11
177.1419999207
 21
126.9950985126
 31
0.0
  0
LINE
  5
182
330
1F
100
AcDbEntity
  8
0
  6
HIDDEN
 62
     7
370
     0
100
AcDbLine
 10
177.1419999207
 20
126.9950985126
 30
0.0
 11
176.3212141598
 21
126.416924145
 31
0.0
  0
LINE
  5
183
330
1F
100
AcDbEntity
  8
0
  6
HIDDEN
 62
     7
370
     0
100
AcDbLine
 10
177.9595181363
 20
126.0245747081
 30
0.0
 11
176.3212141598
 21
126.416924145
 31
0.0
  0
LINE
  5
184
330
1F
100
AcDbEntity
  8
0
  6
HIDDEN
 62
     7
370
     0
100
AcDbLine
 10
178.7803038972
 20
126.6027490757
 30
0.0
 11
177.9595181363
 21
126.0245747081
 31
0.0
  0
LINE
  5
185
330
1F
100
AcDbEntity
  8
0
  6
HIDDEN
 62
     7
370
     0
100
AcDbLine
 10
177.1419999207
 20
126.9950985126
 30
0.0
 11
177.4586929026
 21
128.4029592908
 31
0.0
  0
LINE
  5
186
330
1F
100
AcDbEntity
  8
0
  6
HIDDEN
 62
     7
370
     0
100
AcDbLine
 10
178.7803038972
 20
126.6027490757
 30
0.0
 11
179.0969968791
 21
128.010609854
 31
0.0
  0
LINE
  5
187
330
1F
100
AcDbEntity
  8
0
  6
HIDDEN
 62
     7
370
     0
100
AcDbLine
 10
210.4671775381
 20
133.2199254222
 30
0.0
 11
210.1043826918
 21
133.5827184058
 31
0.0
  0
LINE
  5
188
330
1F
100
AcDbEntity
  8
0
  6
HIDDEN
 62
     7
370
     0
100
AcDbLine
 10
200.8309411834
 20
133.5836888439
 30
0.0
 11
200.4671777616
 21
133.2199254222
 31
0.0
  0
LINE
  5
189
330
1F
100
AcDbEntity
  8
0
  6
HIDDEN
 62
     7
370
     0
100
AcDbLine
 10
200.4671777616
 20
133.2199254222
 30
0.0
 11
200.4671777616
 21
126.6974236033
 31
0.0
  0
LINE
  5
18A
330
1F
100
AcDbEntity
  8
0
  6
HIDDEN
 62
     7
370
     0
100
AcDbLine
 10
210.4671775381
 20
126.6974236033
 30
0.0
 11
210.4671775381
 21
133.2199254222
 31
0.0
  0
LINE
  5
18B
330
1F
100
AcDbEntity
  8
0
  6
HIDDEN
 62
     7
370
     0
100
AcDbLine
 10
200.4671777616
 20
126.6974236033
 30
0.0
 11
202.3575986753
 21
119.6422788463
 31
0.0
  0
LINE
  5
18C
330
1F
100
AcDbEntity
  8
0
  6
HIDDEN
 62
     7
370
     0
100
AcDbLine
 10
208.5767566244
 20
119.6422788463
 30
0.0
 11
210.4671775381
 21
126.6974236033
 31
0.0
  0
LINE
  5
18D
330
1F
100
AcDbEntity
  8
0
  6
HIDDEN
 62
     7
370
     0
100
AcDbLine
 10
202.4671780894
 20
133.9199242331
 30
0.0
 11
202.9671772401
 21
133.4199250824
 31
0.0
  0
LINE
  5
18E
330
1F
100
AcDbEntity
  8
0
  6
HIDDEN
 62
     7
370
     0
100
AcDbLine
 10
207.967176197
 20
133.4199250824
 30
0.0
 11
208.4671772103
 21
133.9199242331
 31
0.0
  0
ARC
  5
18F
330
1F
100
AcDbEntity
  8
0
  6
HIDDEN
 62
     7
370
     0
100
AcDbCircle
 10
202.6473756762
 20
119.7199246801
 30
0.0
 40
0.2999999999999972
100
AcDbArc
 50
195.0
 51
270.0
  0
ARC
  5
190
330
1F
100
AcDbEntity
  8
0
  6
HIDDEN
 62
     7
370
     0
100
AcDbCircle
 10
208.2869794834
 20
119.7199246801
 30
0.0
 40
0.3000000000000241
100
AcDbArc
 50
270.0
 51
345.0
  0
LINE
  5
191
330
1F
100
AcDbEntity
  8
0
  6
HIDDEN
 62
     7
370
     0
100
AcDbLine
 10
202.9671772401
 20
126.9199249483
 30
0.0
 11
202.9671772401
 21
125.9199247844
 31
0.0
  0
LINE
  5
192
330
1F
100
AcDbEntity
  8
0
  6
HIDDEN
 62
     7
370
     0
100
AcDbLine
 10
207.967176197
 20
125.9199247844
 30
0.0
 11
207.967176197
 21
126.9199249483
 31
0.0
  0
LINE
  5
193
330
1F
100
AcDbEntity
  8
0
  6
HIDDEN
 62
     7
370
     0
100
AcDbLine
 10
202.9671772401
 20
125.9199247844
 30
0.0
 11
205.4671785812
 21
125.0099993459
 31
0.0
  0
LINE
  5
194
330
1F
100
AcDbEntity
  8
0
  6
HIDDEN
 62
     7
370
     0
100
AcDbLine
 10
205.4671785812
 20
125.0099993459
 30
0.0
 11
207.967176197
 21
125.9199247844
 31
0.0
  0
LINE
  5
195
330
1F
100
AcDbEntity
  8
0
  6
HIDDEN
 62
     7
370
     0
100
AcDbLine
 10
188.2171771507
 20
97.2556115277
 30
0.0
 11
188.2171771507
 21
100.4118395186
 31
0.0
  0
LINE
  5
196
330
1F
100
AcDbEntity
  8
0
  6
HIDDEN
 62
     7
370
     0
100
AcDbLine
 10
183.2171772624
 20
100.4118395186
 30
0.0
 11
183.2171772624
 21
98.3581801094
 31
0.0
  0
LINE
  5
197
330
1F
100
AcDbEntity
  8
0
  6
HIDDEN
 62
     7
370
     0
100
AcDbLine
 10
174.717177499
 20
96.4702476896
 30
0.0
 11
177.3366053606
 21
97.0975623615
 31
0.0
  0
LINE
  5
198
330
1F
100
AcDbEntity
  8
0
  6
HIDDEN
 62
     7
370
     0
100
AcDbLine
 10
175.9392084571
 20
102.9325674437
 30
0.0
 11
174.717177499
 21
102.6399086378
 31
0.0
  0
LINE
  5
199
330
1F
100
AcDbEntity
  8
0
  6
HIDDEN
 62
     7
370
     0
100
AcDbLine
 10
177.3953280429
 20
98.0370749868
 30
0.0
 11
184.8644773493
 21
99.8258243463
 31
0.0
  0
LINE
  5
19A
330
1F
100
AcDbEntity
  8
0
  6
HIDDEN
 62
     7
370
     0
100
AcDbLine
 10
184.8644773493
 20
104.144586917
 30
0.0
 11
176.4171501639
 21
102.1215782649
 31
0.0
  0
LINE
  5
19B
330
1F
100
AcDbEntity
  8
0
  6
HIDDEN
 62
     7
370
     0
100
AcDbLine
 10
187.8171778302
 20
100.4616336114
 30
0.0
 11
187.8171778302
 21
112.7590201478
 31
0.0
  0
LINE
  5
19C
330
1F
100
AcDbEntity
  8
0
  6
HIDDEN
 62
     7
370
     0
100
AcDbLine
 10
183.6171775142
 20
100.8096837587
 30
0.0
 11
183.6171775142
 21
100.4616336114
 31
0.0
  0
LINE
  5
19D
330
1F
100
AcDbEntity
  8
0
  6
HIDDEN
 62
     7
370
     0
100
AcDbLine
 10
183.6171775142
 20
112.759132605
 30
0.0
 11
183.6171775142
 21
102.5633082874
 31
0.0
  0
ARC
  5
19E
330
1F
100
AcDbEntity
  8
0
  6
HIDDEN
 62
     7
370
     0
100
AcDbCircle
 10
71.1171775798
 20
100.2199246801
 30
0.0
 40
1.200000000000017
100
AcDbArc
 50
90.0
 51
180.0
  0
ARC
  5
19F
330
1F
100
AcDbEntity
  8
0
  6
HIDDEN
 62
     7
370
     0
100
AcDbCircle
 10
71.1171775798
 20
127.6199246801
 30
0.0
 40
1.200000000000017
100
AcDbArc
 50
180.0
 51
270.0
  0
LINE
  5
1A0
330
1F
100
AcDbEntity
  8
0
  6
HIDDEN
 62
     7
370
     0
100
AcDbLine
 10
80.8095476608
 20
101.1949244104
 30
0.0
 11
81.6862351279
 21
101.1949244104
 31
0.0
  0
LINE
  5
1A1
330
1F
100
AcDbEntity
  8
0
  6
HIDDEN
 62
     7
370
     0
100
AcDbLine
 10
81.6862351279
 20
126.6449249498
 30
0.0
 11
80.8095476608
 21
126.6449249498
 31
0.0
  0
ARC
  5
1A2
330
1F
100
AcDbEntity
  8
0
  6
HIDDEN
 62
     7
370
     0
100
AcDbCircle
 10
80.8095500106
 20
101.5949246801
 30
0.0
 40
0.4000000000000057
100
AcDbArc
 50
255.0
 51
270.0
  0
ARC
  5
1A3
330
1F
100
AcDbEntity
  8
0
  6
HIDDEN
 62
     7
370
     0
100
AcDbCircle
 10
80.8095500106
 20
126.2449246801
 30
0.0
 40
0.4000000000000057
100
AcDbArc
 50
90.0
 51
105.0
  0
ARC
  5
1A4
330
1F
100
AcDbEntity
  8
0
  6
HIDDEN
 62
     7
370
     0
100
AcDbCircle
 10
81.6862374721
 20
101.5949246801
 30
0.0
 40
0.4000000000000069
100
AcDbArc
 50
270.0
 51
330.0
  0
ARC
  5
1A5
330
1F
100
AcDbEntity
  8
0
  6
HIDDEN
 62
     7
370
     0
100
AcDbCircle
 10
81.6862374721
 20
126.2449246801
 30
0.0
 40
0.4000000000000057
100
AcDbArc
 50
30.0
 51
90.0
  0
LINE
  5
1A6
330
1F
100
AcDbEntity
  8
0
  6
HIDDEN
 62
     7
370
     0
100
AcDbLine
 10
80.7060218434
 20
126.6312950439
 30
0.0
 11
79.9171767215
 21
126.4199248664
 31
0.0
  0
LINE
  5
1A7
330
1F
100
AcDbEntity
  8
0
  6
HIDDEN
 62
     7
370
     0
100
AcDbLine
 10
79.9171767215
 20
101.4199244938
 30
0.0
 11
80.7060218434
 21
101.2085543163
 31
0.0
  0
LINE
  5
1A8
330
1F
100
AcDbEntity
  8
0
  6
HIDDEN
 62
     7
370
     0
100
AcDbLine
 10
82.0326498727
 20
101.394925002
 30
0.0
 11
83.2017800788
 21
103.4199248217
 31
0.0
  0
LINE
  5
1A9
330
1F
100
AcDbEntity
  8
0
  6
HIDDEN
 62
     7
370
     0
100
AcDbLine
 10
83.2017800788
 20
124.4199245385
 30
0.0
 11
82.0326498727
 21
126.4449243582
 31
0.0
  0
LINE
  5
1AA
330
1F
100
AcDbEntity
  8
0
  6
HIDDEN
 62
     7
370
     0
100
AcDbLine
 10
71.1171767692
 20
101.4199244938
 30
0.0
 11
79.9171767215
 21
101.4199244938
 31
0.0
  0
LINE
  5
1AB
330
1F
100
AcDbEntity
  8
0
  6
HIDDEN
 62
     7
370
     0
100
AcDbLine
 10
79.9171767215
 20
126.4199248664
 30
0.0
 11
71.1171767692
 21
126.4199248664
 31
0.0
  0
ARC
  5
1AC
330
1F
100
AcDbEntity
  8
0
  6
HIDDEN
 62
     7
370
     0
100
AcDbCircle
 10
216.5171775798
 20
125.9199246801
 30
0.0
 40
1.0
100
AcDbArc
 50
270.0
 51
0.0
  0
ARC
  5
1AD
330
1F
100
AcDbEntity
  8
0
  6
HIDDEN
 62
     7
370
     0
100
AcDbCircle
 10
216.5171775798
 20
101.9199246801
 30
0.0
 40
1.0
100
AcDbArc
 50
0.0
 51
90.0
  0
ARC
  5
1AE
330
1F
100
AcDbEntity
  8
0
  6
HIDDEN
 62
     7
370
     0
100
AcDbCircle
 10
190.8855250822
 20
124.4199246801
 30
0.0
 40
1.000000000000003
100
AcDbArc
 50
75.0
 51
90.0
  0
ARC
  5
1AF
330
1F
100
AcDbEntity
  8
0
  6
HIDDEN
 62
     7
370
     0
100
AcDbCircle
 10
190.8855250822
 20
103.4199246801
 30
0.0
 40
1.000000000000003
100
AcDbArc
 50
270.0
 51
285.0
  0
ARC
  5
1B0
330
1F
100
AcDbEntity
  8
0
  6
HIDDEN
 62
     7
370
     0
100
AcDbCircle
 10
190.0171775798
 20
124.4199246801
 30
0.0
 40
1.0
100
AcDbArc
 50
90.0
 51
180.0
  0
ARC
  5
1B1
330
1F
100
AcDbEntity
  8
0
  6
HIDDEN
 62
     7
370
     0
100
AcDbCircle
 10
190.0171775798
 20
103.4199246801
 30
0.0
 40
1.0
100
AcDbArc
 50
180.0
 51
270.0
  0
LINE
  5
1B2
330
1F
100
AcDbEntity
  8
0
  6
HIDDEN
 62
     7
370
     0
100
AcDbLine
 10
190.8855243604
 20
125.4199247024
 30
0.0
 11
190.0171778182
 21
125.4199247024
 31
0.0
  0
LINE
  5
1B3
330
1F
100
AcDbEntity
  8
0
  6
HIDDEN
 62
     7
370
     0
100
AcDbLine
 10
190.0171778182
 20
102.4199246577
 30
0.0
 11
190.8855243604
 21
102.4199246577
 31
0.0
  0
LINE
  5
1B4
330
1F
100
AcDbEntity
  8
0
  6
HIDDEN
 62
     7
370
     0
100
AcDbLine
 10
191.1443444918
 20
102.4539989568
 30
0.0
 11
192.8832038323
 21
102.9199247397
 31
0.0
  0
LINE
  5
1B5
330
1F
100
AcDbEntity
  8
0
  6
HIDDEN
 62
     7
370
     0
100
AcDbLine
 10
192.8832038323
 20
124.9199246205
 30
0.0
 11
191.1443444918
 21
125.3858504034
 31
0.0
  0
LINE
  5
1B6
330
1F
100
AcDbEntity
  8
0
  6
HIDDEN
 62
     7
370
     0
100
AcDbLine
 10
201.0216872225
 20
124.9199246205
 30
0.0
 11
192.8832038323
 21
124.9199246205
 31
0.0
  0
LINE
  5
1B7
330
1F
100
AcDbEntity
  8
0
  6
HIDDEN
 62
     7
370
     0
100
AcDbLine
 10
216.517179368
 20
124.9199246205
 30
0.0
 11
209.9226444046
 21
124.9199246205
 31
0.0
  0
LINE
  5
1B8
330
1F
100
AcDbEntity
  8
0
  6
HIDDEN
 62
     7
370
     0
100
AcDbLine
 10
192.8832038323
 20
102.9199247397
 30
0.0
 11
216.517179368
 21
102.9199247397
 31
0.0
  0
LINE
  5
1B9
330
1F
100
AcDbEntity
  8
0
  6
HIDDEN
 62
     7
370
     0
100
AcDbLine
 10
83.2017800788
 20
103.4199248217
 30
0.0
 11
131.9171777944
 21
103.4199248217
 31
0.0
  0
LINE
  5
1BA
330
1F
100
AcDbEntity
  8
0
  6
HIDDEN
 62
     7
370
     0
100
AcDbLine
 10
131.9171777944
 20
124.4199245385
 30
0.0
 11
83.2017800788
 21
124.4199245385
 31
0.0
  0
LINE
  5
1BB
330
1F
100
AcDbEntity
  8
0
  6
HIDDEN
 62
     7
370
     0
100
AcDbLine
 10
131.9171777944
 20
103.4199248217
 30
0.0
 11
136.1832871119
 21
110.519924635
 31
0.0
  0
LINE
  5
1BC
330
1F
100
AcDbEntity
  8
0
  6
HIDDEN
 62
     7
370
     0
100
AcDbLine
 10
136.1832871119
 20
117.3199247252
 30
0.0
 11
131.9171777944
 21
124.4199245385
 31
0.0
  0
LINE
  5
1BD
330
1F
100
AcDbEntity
  8
0
  6
HIDDEN
 62
     7
370
     0
100
AcDbLine
 10
199.2171770911
 20
133.9199242331
 30
0.0
 11
200.9671769122
 21
132.1699244119
 31
0.0
  0
LINE
  5
1BE
330
1F
100
AcDbEntity
  8
0
  6
HIDDEN
 62
     7
370
     0
100
AcDbLine
 10
209.9671765248
 20
132.1699244119
 30
0.0
 11
211.717176346
 21
133.9199242331
 31
0.0
  0
LINE
  5
1BF
330
1F
100
AcDbEntity
  8
0
  6
HIDDEN
 62
     7
370
     0
100
AcDbLine
 10
200.9671769122
 20
132.1699244119
 30
0.0
 11
200.9671769122
 21
124.8978094346
 31
0.0
  0
LINE
  5
1C0
330
1F
100
AcDbEntity
  8
0
  6
HIDDEN
 62
     7
370
     0
100
AcDbLine
 10
209.9671765248
 20
124.9020236693
 30
0.0
 11
209.9671765248
 21
132.1699244119
 31
0.0
  0
LINE
  5
1C1
330
1F
100
AcDbEntity
  8
0
  6
HIDDEN
 62
     7
370
     0
100
AcDbLine
 10
136.1832871119
 20
110.519924635
 30
0.0
 11
189.0171776543
 21
110.519924635
 31
0.0
  0
LINE
  5
1C2
330
1F
100
AcDbEntity
  8
0
  6
HIDDEN
 62
     7
370
     0
100
AcDbLine
 10
189.0171776543
 20
117.3199247252
 30
0.0
 11
136.1832871119
 21
117.3199247252
 31
0.0
  0
LINE
  5
1C3
330
1F
100
AcDbEntity
  8
0
  6
HIDDEN
 62
     7
370
     0
100
AcDbLine
 10
187.8171778302
 20
115.0807167552
 30
0.0
 11
187.8171778302
 21
127.3782157488
 31
0.0
  0
LINE
  5
1C4
330
1F
100
AcDbEntity
  8
0
  6
HIDDEN
 62
     7
370
     0
100
AcDbLine
 10
183.6171775142
 20
125.2765410728
 30
0.0
 11
183.6171775142
 21
115.0808292124
 31
0.0
  0
LINE
  5
1C5
330
1F
100
AcDbEntity
  8
0
  6
HIDDEN
 62
     7
370
     0
100
AcDbLine
 10
183.6171775142
 20
127.3782157488
 30
0.0
 11
183.6171775142
 21
127.0301656015
 31
0.0
  0
LINE
  5
1C6
330
1F
100
AcDbEntity
  8
0
  6
HIDDEN
 62
     7
370
     0
100
AcDbLine
 10
176.4171501639
 20
125.7182710953
 30
0.0
 11
184.8644773493
 21
123.6952624432
 31
0.0
  0
LINE
  5
1C7
330
1F
100
AcDbEntity
  8
0
  6
HIDDEN
 62
     7
370
     0
100
AcDbLine
 10
184.8644773493
 20
128.0140250138
 30
0.0
 11
177.3953280429
 21
129.8027743734
 31
0.0
  0
LINE
  5
1C8
330
1F
100
AcDbEntity
  8
0
  6
HIDDEN
 62
     7
370
     0
100
AcDbLine
 10
174.717177499
 20
125.1999407224
 30
0.0
 11
175.9392084571
 21
124.9072819165
 31
0.0
  0
LINE
  5
1C9
330
1F
100
AcDbEntity
  8
0
  6
HIDDEN
 62
     7
370
     0
100
AcDbLine
 10
177.3366053606
 20
130.7422869987
 30
0.0
 11
174.717177499
 21
131.3696016706
 31
0.0
  0
LINE
  5
1CA
330
1F
100
AcDbEntity
  8
0
  6
HIDDEN
 62
     7
370
     0
100
AcDbLine
 10
188.2171771507
 20
127.4280098415
 30
0.0
 11
188.2171771507
 21
130.5842378325
 31
0.0
  0
LINE
  5
1CB
330
1F
100
AcDbEntity
  8
0
  6
HIDDEN
 62
     7
370
     0
100
AcDbLine
 10
183.2171772624
 20
129.4816692508
 30
0.0
 11
183.2171772624
 21
127.4280098415
 31
0.0
  0
LINE
  5
1CC
330
1F
100
AcDbEntity
  8
0
  6
HIDDEN
 62
     7
370
     0
100
AcDbLine
 10
188.2171771507
 20
127.4280098415
 30
0.0
 11
188.2171771507
 21
128.0265457145
 31
0.0
  0
LINE
  5
1CD
330
1F
100
AcDbEntity
  8
0
  6
HIDDEN
 62
     7
370
     0
100
AcDbLine
 10
183.2171772624
 20
128.0265457145
 30
0.0
 11
183.2171772624
 21
127.4280098415
 31
0.0
  0
LINE
  5
1CE
330
1F
100
AcDbEntity
  8
0
  6
HIDDEN
 62
     7
370
     0
100
AcDbLine
 10
187.717178
 20
127.7887390144
 30
0.0
 11
187.717178
 21
129.2065146528
 31
0.0
  0
LINE
  5
1CF
330
1F
100
AcDbEntity
  8
0
  6
HIDDEN
 62
     7
370
     0
100
AcDbLine
 10
183.7171773444
 20
129.2065146528
 30
0.0
 11
183.7171773444
 21
127.7887390144
 31
0.0
  0
LINE
  5
1D0
330
1F
100
AcDbEntity
  8
0
  6
HIDDEN
 62
     7
370
     0
100
AcDbLine
 10
188.2171771507
 20
128.9705212377
 30
0.0
 11
188.2171771507
 21
129.1586325652
 31
0.0
  0
LINE
  5
1D1
330
1F
100
AcDbEntity
  8
0
  6
HIDDEN
 62
     7
370
     0
100
AcDbLine
 10
183.2171772624
 20
129.1586325652
 30
0.0
 11
183.2171772624
 21
128.9705212377
 31
0.0
  0
LINE
  5
1D2
330
1F
100
AcDbEntity
  8
0
  6
HIDDEN
 62
     7
370
     0
100
AcDbLine
 10
183.2171772624
 20
98.8693281225
 30
0.0
 11
183.2171772624
 21
98.6812167949
 31
0.0
  0
LINE
  5
1D3
330
1F
100
AcDbEntity
  8
0
  6
HIDDEN
 62
     7
370
     0
100
AcDbLine
 10
188.2171771507
 20
98.6812167949
 30
0.0
 11
188.2171771507
 21
98.8693281225
 31
0.0
  0
LINE
  5
1D4
330
1F
100
AcDbEntity
  8
0
  6
HIDDEN
 62
     7
370
     0
100
AcDbLine
 10
183.7171773444
 20
100.0511103458
 30
0.0
 11
183.7171773444
 21
98.6333347074
 31
0.0
  0
LINE
  5
1D5
330
1F
100
AcDbEntity
  8
0
  6
HIDDEN
 62
     7
370
     0
100
AcDbLine
 10
187.717178
 20
98.6333347074
 30
0.0
 11
187.717178
 21
100.0511103458
 31
0.0
  0
LINE
  5
1D6
330
1F
100
AcDbEntity
  8
0
  6
HIDDEN
 62
     7
370
     0
100
AcDbLine
 10
183.2171772624
 20
100.4118395186
 30
0.0
 11
183.2171772624
 21
99.8133036457
 31
0.0
  0
LINE
  5
1D7
330
1F
100
AcDbEntity
  8
0
  6
HIDDEN
 62
     7
370
     0
100
AcDbLine
 10
188.2171771507
 20
99.8133036457
 30
0.0
 11
188.2171771507
 21
100.4118395186
 31
0.0
  0
ARC
  5
1D8
330
1F
100
AcDbEntity
  8
0
  6
HIDDEN
 62
     7
370
     0
100
AcDbCircle
 10
185.7171775798
 20
99.4541827181
 30
0.0
 40
2.000000000000025
100
AcDbArc
 50
71.1182787691
 51
192.2156859336
  0
ARC
  5
1D9
330
1F
100
AcDbEntity
  8
0
  6
HIDDEN
 62
     7
370
     0
100
AcDbCircle
 10
185.7171775798
 20
99.4541827181
 30
0.0
 40
1.999999999999994
100
AcDbArc
 50
340.3453161116
 51
71.1182787691
  0
CIRCLE
  5
1DA
330
1F
100
AcDbEntity
  8
0
  6
HIDDEN
 62
     7
370
     0
100
AcDbCircle
 10
185.7171775798
 20
128.3856666421
 30
0.0
 40
1.999999999999994
  0
LINE
  5
1DB
330
1F
100
AcDbEntity
  8
0
  6
HIDDEN
 62
     7
370
     0
100
AcDbLine
 10
177.4306125956
 20
97.6342146433
 30
0.0
 11
179.8823998327
 21
98.221379999
 31
0.0
  0
LINE
  5
1DC
330
1F
100
AcDbEntity
  8
0
  6
HIDDEN
 62
     7
370
     0
100
AcDbLine
 10
178.7179024908
 20
103.083884079
 30
0.0
 11
176.2661157193
 21
102.496717792
 31
0.0
  0
LINE
  5
1DD
330
1F
100
AcDbEntity
  8
0
  6
HIDDEN
 62
     7
370
     0
100
AcDbLine
 10
180.5861043761
 20
98.9850999005
 30
0.0
 11
180.8146826009
 21
99.6324901618
 31
0.0
  0
LINE
  5
1DE
330
1F
100
AcDbEntity
  8
0
  6
HIDDEN
 62
     7
370
     0
100
AcDbLine
 10
180.188265724
 20
102.2481720112
 30
0.0
 11
179.6912235225
 21
102.7217877246
 31
0.0
  0
LINE
  5
1DF
330
1F
100
AcDbEntity
  8
0
  6
HIDDEN
 62
     7
370
     0
100
AcDbLine
 10
179.6912235225
 20
125.1180616356
 30
0.0
 11
180.188265724
 21
125.591677349
 31
0.0
  0
LINE
  5
1E0
330
1F
100
AcDbEntity
  8
0
  6
HIDDEN
 62
     7
370
     0
100
AcDbLine
 10
180.8146826009
 20
128.2073591984
 30
0.0
 11
180.5861043761
 21
128.8547494597
 31
0.0
  0
LINE
  5
1E1
330
1F
100
AcDbEntity
  8
0
  6
HIDDEN
 62
     7
370
     0
100
AcDbLine
 10
176.2661157193
 20
125.3431315682
 30
0.0
 11
178.7179024908
 21
124.7559652812
 31
0.0
  0
LINE
  5
1E2
330
1F
100
AcDbEntity
  8
0
  6
HIDDEN
 62
     7
370
     0
100
AcDbLine
 10
179.8823998327
 20
129.6184693612
 30
0.0
 11
177.4306125956
 21
130.2056347168
 31
0.0
  0
DIMENSION
  5
1E3
330
1F
100
AcDbEntity
  8
VERMASSUNG
100
AcDbDimension
  2
_D
 10
63.671854148
 20
162.6449246801
 30
0.0
 11
63.671854148
 21
113.9199246801
 31
0.0
 70
   160
  1
ISO 50 %%c<>
 71
     2
 42
-1.0
  3
SLDDIMSTYLE0
100
AcDbAlignedDimension
 13
189.9671775798
 23
65.1949246801
 33
0.0
 14
189.9671775798
 24
162.6449246801
 34
0.0
 50
90.0
100
AcDbRotatedDimension
  0
DIMENSION
  5
1F0
330
1F
100
AcDbEntity
  8
VERMASSUNG
100
AcDbDimension
  2
_D_1
 10
232.9808262767
 20
133.9199246801
 30
0.0
 11
232.9808262767
 21
113.9199246801
 31
0.0
 70
   160
  1
WH%%c<>
 71
     2
 42
-1.0
  3
SLDDIMSTYLE0
100
AcDbAlignedDimension
 13
217.1171775798
 23
93.9199246801
 33
0.0
 14
217.1171775798
 24
133.9199246801
 34
0.0
 50
90.0
100
AcDbRotatedDimension
  0
DIMENSION
  5
1FC
330
1F
100
AcDbEntity
  8
VERMASSUNG
100
AcDbDimension
  2
_D_2
 10
226.9808262767
 20
124.9199246801
 30
0.0
 11
226.9808262767
 21
113.9199246801
 31
0.0
 70
   160
  1
%%c<>
 71
     2
 42
-1.0
  3
SLDDIMSTYLE0
100
AcDbAlignedDimension
 13
216.5171775798
 23
102.9199246801
 33
0.0
 14
216.5171775798
 24
124.9199246801
 34
0.0
 50
90.0
100
AcDbRotatedDimension
  0
DIMENSION
  5
207
330
1F
100
AcDbEntity
  8
VERMASSUNG
100
AcDbDimension
  2
_D_3
 10
190.5671775798
 20
167.9008446033
 30
0.0
 11
204.0421775798
 21
167.9008446033
 31
0.0
 70
   160
  1
<>
 71
     2
 42
-1.0
  3
SLDDIMSTYLE0
100
AcDbAlignedDimension
 13
217.5171775798
 23
133.5199246801
 33
0.0
 14
190.5671775798
 24
160.2149116333
 34
0.0
100
AcDbRotatedDimension
  0
DIMENSION
  5
211
330
1F
100
AcDbEntity
  8
VERMASSUNG
100
AcDbDimension
  2
_D_4
 10
171.5171775798
 20
173.9008446033
 30
0.0
 11
194.5171775798
 21
173.9008446033
 31
0.0
 70
   160
  1
<>
 71
     2
 42
-1.0
  3
SLDDIMSTYLE0
100
AcDbAlignedDimension
 13
217.5171775798
 23
133.5199246801
 33
0.0
 14
171.5171775798
 24
148.8449246801
 34
0.0
100
AcDbRotatedDimension
  0
DIMENSION
  5
21B
330
1F
100
AcDbEntity
  8
VERMASSUNG
100
AcDbDimension
  2
_D_5
 10
69.9171775798
 20
179.9008446033
 30
0.0
 11
143.7171775798
 21
179.9008446033
 31
0.0
 70
   160
  1
<>
 71
     2
 42
-1.0
  3
SLDDIMSTYLE0
100
AcDbAlignedDimension
 13
217.5171775798
 23
133.5199246801
 33
0.0
 14
69.9171775798
 24
132.2987692075
 34
0.0
100
AcDbRotatedDimension
  0
LINE
  5
225
330
1F
100
AcDbEntity
  8
VERMASSUNG
  6
CENTERX2
370
     0
100
AcDbLine
 10
187.3111558017
 20
125.2687007853
 30
0.0
 11
176.6379068889
 21
127.8247846826
 31
0.0
  0
LINE
  5
226
330
1F
100
AcDbEntity
  8
VERMASSUNG
  6
CENTERX2
370
     0
100
AcDbLine
 10
176.6379068889
 20
127.8247846826
 30
0.0
 11
174.4929052427
 21
128.3384805789
 31
0.0
  0
LINE
  5
227
330
1F
100
AcDbEntity
  8
VERMASSUNG
  6
CENTERX2
370
     0
100
AcDbLine
 10
205.4671775798
 20
121.9573559654
 30
0.0
 11
205.4671775798
 21
134.1699246801
 31
0.0
  0
LINE
  5
228
330
1F
100
AcDbEntity
  8
VERMASSUNG
  6
CENTERX2
370
     0
100
AcDbLine
 10
68.9386351751
 20
113.9199246801
 30
0.0
 11
219.1816867102
 21
113.9199246801
 31
0.0
  0
LINE
  5
229
330
1F
100
AcDbEntity
  8
0
  6
Continuous
 62
     7
370
    15
100
AcDbLine
 10
268.4840106252
 20
34.9092078233
 30
0.0
 11
270.3820649719
 21
35.295921787
 31
0.0
  0
SPLINE
  5
22A
330
1F
100
AcDbEntity
  8
0
  6
Continuous
 62
     7
370
    15
100
AcDbSpline
210
0.0
220
0.0
230
1.0
 70
     8
 71
     3
 72
     9
 73
     5
 74
     0
 42
0.000000001
 43
0.00000001
 40
0.0
 40
0.0
 40
0.0
 40
0.0
 40
0.7959158171251652
 40
1.0
 40
1.0
 40
1.0
 40
1.0
 10
267.6852022285622
 20
35.14305041491404
 30
0.0
 10
267.7935547224959
 20
35.06580898896349
 30
0.0
 10
267.9296903433773
 20
34.96876175822802
 30
0.0
 10
268.0654744699071
 20
34.94906906431322
 30
0.0
 10
268.0931858624173
 20
34.94505009696702
 30
0.0
  0
LINE
  5
22B
330
1F
100
AcDbEntity
  8
0
  6
Continuous
 62
     7
370
    15
100
AcDbLine
 10
267.6129742194
 20
44.0484005059
 30
0.0
 11
267.3654461073
 21
44.1913415081
 31
0.0
  0
LINE
  5
22C
330
1F
100
AcDbEntity
  8
0
  6
Continuous
 62
     7
370
    15
100
AcDbLine
 10
264.3243935013
 20
44.1913410738
 30
0.0
 11
264.0768656726
 21
44.0484006153
 31
0.0
  0
LINE
  5
22D
330
1F
100
AcDbEntity
  8
0
  6
Continuous
 62
     7
370
    15
100
AcDbLine
 10
263.3449197689
 20
43.028056428
 30
0.0
 11
263.3449197689
 21
42.8035077059
 31
0.0
  0
LINE
  5
22E
330
1F
100
AcDbEntity
  8
0
  6
Continuous
 62
     7
370
    15
100
AcDbLine
 10
268.344919275
 20
42.803507896
 30
0.0
 11
268.344919275
 21
43.0280566181
 31
0.0
  0
SPLINE
  5
22F
330
1F
100
AcDbEntity
  8
0
  6
Continuous
 62
     7
370
    15
100
AcDbSpline
210
0.0
220
0.0
230
1.0
 70
     8
 71
     3
 72
    30
 73
    26
 74
     0
 42
0.000000001
 43
0.00000001
 40
0.0
 40
0.0
 40
0.0
 40
0.0
 40
0.0013407528638974
 40
0.0484034340057714
 40
0.0955395728593443
 40
0.1427237226186022
 40
0.1899346243955055
 40
0.237156605007686
 40
0.2843772489715716
 40
0.3315909117569837
 40
0.3787951350025457
 40
0.4259892202587549
 40
0.4731735797109539
 40
0.5203493584533438
 40
0.5675180270316119
 40
0.6146813577984238
 40
0.6618412049927731
 40
0.7089994653357828
 40
0.7561581674135925
 40
0.8033186478695431
 40
0.8504829214787766
 40
0.8976528886921569
 40
0.9448305494009435
 40
0.99201784333452
 40
1.0
 40
1.0
 40
1.0
 40
1.0
 10
260.7965915746736
 20
63.39292096350607
 30
0.0
 10
260.7848424439893
 20
63.39149622180624
 30
0.0
 10
260.3606790601058
 20
63.34006064952425
 30
0.0
 10
259.4941045797568
 20
63.1193181484211
 30
0.0
 10
258.2028204061067
 20
62.72227523179746
 30
0.0
 10
256.8901133173417
 20
62.18428708062293
 30
0.0
 10
255.5687730590042
 20
61.52808878929805
 30
0.0
 10
254.2453404576308
 20
60.75250277387731
 30
0.0
 10
252.9279489175272
 20
59.86366597925659
 30
0.0
 10
251.6241681508805
 20
58.86657809515113
 30
0.0
 10
250.3415359075098
 20
57.76728650336788
 30
0.0
 10
249.0874129130048
 20
56.5722560973512
 30
0.0
 10
247.8689925153163
 20
55.28852143477383
 30
0.0
 10
246.6932679412272
 20
53.92358144416704
 30
0.0
 10
245.5669908211317
 20
52.48539582664287
 30
0.0
 10
244.4966367455866
 20
50.98232986461744
 30
0.0
 10
243.4883774128787
 20
49.42310683872765
 30
0.0
 10
242.5480252714578
 20
47.8167694053171
 30
0.0
 10
241.6810418608913
 20
46.17262885169492
 30
0.0
 10
240.8924097998705
 20
44.50019153058079
 30
0.0
 10
240.1869072649804
 20
42.80918323367266
 30
0.0
 10
239.5679627410265
 20
41.1091812311606
 30
0.0
 10
239.0418302619769
 20
39.4106885505532
 30
0.0
 10
238.7237575574882
 20
38.18900618154966
 30
0.0
 10
238.5808507265051
 20
37.53696550933894
 30
0.0
 10
238.5601743430885
 20
37.44262542182066
 30
0.0
  0
LINE
  5
230
330
1F
100
AcDbEntity
  8
0
  6
Continuous
 62
     7
370
    15
100
AcDbLine
 10
269.9649663461
 20
24.605903937
 30
0.0
 11
270.1063644771
 21
24.6875578805
 31
0.0
  0
LINE
  5
231
330
1F
100
AcDbEntity
  8
0
  6
Continuous
 62
     7
370
    15
100
AcDbLine
 10
277.0348847526
 20
36.6894075498
 30
0.0
 11
277.0348847526
 21
36.8526888948
 31
0.0
  0
LINE
  5
232
330
1F
100
AcDbEntity
  8
0
  6
Continuous
 62
     7
370
    15
100
AcDbLine
 10
274.9634106122
 20
41.4311367952
 30
0.0
 11
266.637228249
 21
46.2377395621
 31
0.0
  0
LINE
  5
233
330
1F
100
AcDbEntity
  8
0
  6
Continuous
 62
     7
370
    15
100
AcDbLine
 10
256.6380412221
 20
28.9167628256
 30
0.0
 11
264.9642235853
 21
24.1101600587
 31
0.0
  0
SPLINE
  5
234
330
1F
100
AcDbEntity
  8
0
  6
Continuous
 62
     7
370
    15
100
AcDbSpline
210
0.0
220
0.0
230
1.0
 70
     8
 71
     3
 72
    23
 73
    19
 74
     0
 42
0.000000001
 43
0.00000001
 40
0.0
 40
0.0
 40
0.0
 40
0.0
 40
0.0516185896297727
 40
0.1175925229972798
 40
0.1877565517577288
 40
0.2551050900991569
 40
0.3212521675701785
 40
0.3871512152249508
 40
0.4530854576251334
 40
0.5192057406035123
 40
0.5855146120239668
 40
0.6519568389528603
 40
0.7184575455928716
 40
0.7849271850119048
 40
0.851263805087875
 40
0.9173855909295254
 40
0.9832227496179248
 40
1.0
 40
1.0
 40
1.0
 40
1.0
 10
267.0072854814243
 20
28.1422611594312
 30
0.0
 10
266.9149537611376
 20
28.19706225390694
 30
0.0
 10
266.7046124864329
 20
28.32190485438545
 30
0.0
 10
266.4372140750967
 20
28.65177394534346
 30
0.0
 10
266.203269733574
 20
29.11345183602915
 30
0.0
 10
266.0527434255533
 20
29.69216399649777
 30
0.0
 10
265.9940795240237
 20
30.34871222476451
 30
0.0
 10
266.0296814290646
 20
31.07032220349557
 30
0.0
 10
266.1601271169533
 20
31.83995135503259
 30
0.0
 10
266.3838158316549
 20
32.63807240988766
 30
0.0
 10
266.6963004291587
 20
33.44379486349079
 30
0.0
 10
267.0902097721192
 20
34.23552535692152
 30
0.0
 10
267.5554397920983
 20
34.99191171152534
 30
0.0
 10
268.0793877132405
 20
35.692450047952
 30
0.0
 10
268.6474311620386
 20
36.31878822907225
 30
0.0
 10
269.2428755055053
 20
36.85337677506082
 30
0.0
 10
269.6994068687216
 20
37.18051960084756
 30
0.0
 10
269.9506439891672
 20
37.32914685848149
 30
0.0
 10
270.0016649687084
 20
37.35932993118008
 30
0.0
  0
SPLINE
  5
235
330
1F
100
AcDbEntity
  8
0
  6
Continuous
 62
     7
370
    15
100
AcDbSpline
210
0.0
220
0.0
230
1.0
 70
     8
 71
     3
 72
    13
 73
     9
 74
     0
 42
0.000000001
 43
0.00000001
 40
0.0
 40
0.0
 40
0.0
 40
0.0
 40
0.1003490037478846
 40
0.291962332718918
 40
0.4834923761660443
 40
0.6764492294818512
 40
0.8744466521039853
 40
1.0
 40
1.0
 40
1.0
 40
1.0
 10
270.0016649687084
 20
37.35932993118008
 30
0.0
 10
270.1052787585733
 20
37.41623140710882
 30
0.0
 10
270.4067398858487
 20
37.58178449709305
 30
0.0
 10
270.891795269126
 20
37.76824176634043
 30
0.0
 10
271.4301960452943
 20
37.87868825067333
 30
0.0
 10
271.9133747031497
 20
37.86915385057823
 30
0.0
 10
272.2900966751831
 20
37.78268952287377
 30
0.0
 10
272.4812929931427
 20
37.65472160696792
 30
0.0
 10
272.5554864119585
 20
37.60506386626921
 30
0.0
  0
LINE
  5
236
330
1F
100
AcDbEntity
  8
0
  6
Continuous
 62
     7
370
    15
100
AcDbLine
 10
253.8267990112
 20
60.4505532334
 30
0.0
 11
223.0628422714
 21
71.5366635373
 31
0.0
  0
LINE
  5
237
330
1F
100
AcDbEntity
  8
0
  6
Continuous
 62
     7
370
    15
100
AcDbLine
 10
212.938982891
 20
53.9997251369
 30
0.0
 11
242.4064940095
 21
29.1176026986
 31
0.0
  0
SPLINE
  5
238
330
1F
100
AcDbEntity
  8
0
  6
Continuous
 62
     7
370
    15
100
AcDbSpline
210
0.0
220
0.0
230
1.0
 70
     8
 71
     3
 72
    17
 73
    13
 74
     0
 42
0.000000001
 43
0.00000001
 40
0.0
 40
0.0
 40
0.0
 40
0.0
 40
0.0774987761044985
 40
0.1821605443814693
 40
0.286945371106281
 40
0.3918026660725621
 40
0.4966937980780859
 40
0.6015892334171481
 40
0.7064718948133053
 40
0.811334755575833
 40
0.9161752123965661
 40
1.0
 40
1.0
 40
1.0
 40
1.0
 10
254.7363411729548
 20
16.22846208425622
 30
0.0
 10
255.0463806232095
 20
16.28246807646171
 30
0.0
 10
255.7751270354364
 20
16.40940893197598
 30
0.0
 10
256.954709484034
 20
16.75996005972472
 30
0.0
 10
258.2613094731789
 20
17.25353665541108
 30
0.0
 10
259.5809845376565
 20
17.87492117136338
 30
0.0
 10
260.9045924428875
 20
18.61465975389243
 30
0.0
 10
262.2245689577868
 20
19.46995042648878
 30
0.0
 10
263.5335102626935
 20
20.43432395921167
 30
0.0
 10
264.8224128433891
 20
21.50539961442068
 30
0.0
 10
266.0047754697048
 20
22.58717053852661
 30
0.0
 10
266.7380615040478
 20
23.35117278500931
 30
0.0
 10
267.0638636742831
 20
23.69062230172037
 30
0.0
  0
SPLINE
  5
239
330
1F
100
AcDbEntity
  8
0
  6
Continuous
 62
     7
370
    15
100
AcDbSpline
210
0.0
220
0.0
230
1.0
 70
     8
 71
     3
 72
     9
 73
     5
 74
     0
 42
0.000000001
 43
0.00000001
 40
0.0
 40
0.0
 40
0.0
 40
0.0
 40
0.6490692622313325
 40
1.0
 40
1.0
 40
1.0
 40
1.0
 10
276.3680702426465
 20
39.7765942028886
 30
0.0
 10
276.5227985960407
 20
40.31253936612114
 30
0.0
 10
276.761183561094
 20
41.13825272896027
 30
0.0
 10
276.9377860422303
 20
41.95276224396191
 30
0.0
 10
276.9997612812272
 20
42.23859866898103
 30
0.0
  0
LINE
  5
23A
330
1F
100
AcDbEntity
  8
0
  6
Continuous
 62
     7
370
    15
100
AcDbLine
 10
246.7290599755
 20
18.0531584999
 30
0.0
 11
248.1845819618
 21
17.2129035426
 31
0.0
  0
LINE
  5
23B
330
1F
100
AcDbEntity
  8
0
  6
Continuous
 62
     7
370
    15
100
AcDbLine
 10
243.0050250272
 20
20.2029981149
 30
0.0
 11
244.4428697032
 21
19.3729480516
 31
0.0
  0
SPLINE
  5
23C
330
1F
100
AcDbEntity
  8
0
  6
Continuous
 62
     7
370
    15
100
AcDbSpline
210
0.0
220
0.0
230
1.0
 70
     8
 71
     3
 72
     9
 73
     5
 74
     0
 42
0.000000001
 43
0.00000001
 40
0.0
 40
0.0
 40
0.0
 40
0.0
 40
0.5021888757088718
 40
1.0
 40
1.0
 40
1.0
 40
1.0
 10
238.5728725629275
 20
26.26822337894248
 30
0.0
 10
238.6110914847283
 20
26.1335674695177
 30
0.0
 10
238.6871961609754
 20
25.86542949207902
 30
0.0
 10
238.7869469470018
 20
25.61899657025178
 30
0.0
 10
238.8366039979425
 20
25.49631952037462
 30
0.0
  0
SPLINE
  5
23D
330
1F
100
AcDbEntity
  8
0
  6
Continuous
 62
     7
370
    15
100
AcDbSpline
210
0.0
220
0.0
230
1.0
 70
     8
 71
     3
 72
     9
 73
     5
 74
     0
 42
0.000000001
 43
0.00000001
 40
0.0
 40
0.0
 40
0.0
 40
0.0
 40
0.4730534090742253
 40
1.0
 40
1.0
 40
1.0
 40
1.0
 10
276.9921985560975
 20
53.30012968150654
 30
0.0
 10
276.9400618519541
 20
53.47888390608198
 30
0.0
 10
276.8298487065811
 20
53.85675714649528
 30
0.0
 10
276.6861750107985
 20
54.20370350020777
 30
0.0
 10
276.6104666466003
 20
54.38652569853068
 30
0.0
  0
SPLINE
  5
23E
330
1F
100
AcDbEntity
  8
0
  6
Continuous
 62
     7
370
    15
100
AcDbSpline
210
0.0
220
0.0
230
1.0
 70
     8
 71
     3
 72
    27
 73
    23
 74
     0
 42
0.000000001
 43
0.00000001
 40
0.0
 40
0.0
 40
0.0
 40
0.0
 40
0.0213577407876003
 40
0.0715478312616778
 40
0.1224903478605243
 40
0.1745605060799
 40
0.2277680798581999
 40
0.2818285998309278
 40
0.3363560486149114
 40
0.3910214839390844
 40
0.4456214611580622
 40
0.5001071013174755
 40
0.5544821087873828
 40
0.6087758132917942
 40
0.6630287403302776
 40
0.7172862646279169
 40
0.7715849304883001
 40
0.8259687208291655
 40
0.8804861815905362
 40
0.935181825778041
 40
0.9871352530318748
 40
1.0
 40
1.0
 40
1.0
 40
1.0
 10
222.9675172953293
 20
71.55176507691753
 30
0.0
 10
222.8661508820764
 20
71.58998214907287
 30
0.0
 10
222.5265762471397
 20
71.71800826649213
 30
0.0
 10
221.8943694071582
 20
71.79895856453177
 30
0.0
 10
221.0865228600969
 20
71.79826653718328
 30
0.0
 10
220.2420151044875
 20
71.65954133472252
 30
0.0
 10
219.3731799933169
 20
71.39228406233336
 30
0.0
 10
218.4905962893467
 20
70.99541956210767
 30
0.0
 10
217.6086256704075
 20
70.47525028088732
 30
0.0
 10
216.7415173649083
 20
69.84054552652341
 30
0.0
 10
215.9022935940841
 20
69.10236306944529
 30
0.0
 10
215.1023496216728
 20
68.272522009873
 30
0.0
 10
214.3518052703681
 20
67.3632058111912
 30
0.0
 10
213.6600737203897
 20
66.38710960659216
 30
0.0
 10
213.0359251600422
 20
65.35743221840688
 30
0.0
 10
212.4874998738204
 20
64.28787694557047
 30
0.0
 10
212.0222203568523
 20
63.19244054888853
 30
0.0
 10
211.6467641157358
 20
62.08530675147132
 30
0.0
 10
211.3666780857971
 20
60.98029931880581
 30
0.0
 10
211.1913142342943
 20
59.91132240675988
 30
0.0
 10
211.1337547093486
 20
59.14111133283585
 30
0.0
 10
211.1305904659085
 20
58.73558907383355
 30
0.0
 10
211.1299624446523
 20
58.65510329473489
 30
0.0
  0
SPLINE
  5
23F
330
1F
100
AcDbEntity
  8
0
  6
Continuous
 62
     7
370
    15
100
AcDbSpline
210
0.0
220
0.0
230
1.0
 70
     8
 71
     3
 72
    14
 73
    10
 74
     0
 42
0.000000001
 43
0.00000001
 40
0.0
 40
0.0
 40
0.0
 40
0.0
 40
0.0934067574517036
 40
0.2694937131269309
 40
0.4455968874352452
 40
0.6202205234854967
 40
0.7917995489089878
 40
0.9591705616803748
 40
1.0
 40
1.0
 40
1.0
 40
1.0
 10
211.1299624446523
 20
58.65510329473489
 30
0.0
 10
211.1330789185288
 20
58.47411934573528
 30
0.0
 10
211.1420704534002
 20
57.95195116686987
 30
0.0
 10
211.2423013322656
 20
57.12968057780646
 30
0.0
 10
211.4694198520683
 20
56.2232359940593
 30
0.0
 10
211.808684433722
 20
55.40086623901217
 30
0.0
 10
212.2618242687491
 20
54.69243783411369
 30
0.0
 10
212.6569828922006
 20
54.21847216788788
 30
0.0
 10
212.9237991180086
 20
54.02453672904691
 30
0.0
 10
212.976123484153
 20
53.98650475074594
 30
0.0
  0
LWPOLYLINE
  5
240
330
1F
100
AcDbEntity
  8
0
  6
Continuous
 62
     7
370
    15
100
AcDbPolyline
 90
        7
 70
   128
 43
0.0
 10
267.9574476974
 20
42.2562971359
 10
268.2314727181
 20
42.5982335302
 10
268.3428585246
 20
42.9694613547
 10
268.2840134569
 20
43.3446826238
 10
268.0589481334
 20
43.6983264138
 10
267.683000385
 20
44.00629244
 10
267.6129742194
 20
44.0484005059
  0
LWPOLYLINE
  5
241
330
1F
100
AcDbEntity
  8
0
  6
Continuous
 62
     7
370
    15
100
AcDbPolyline
 90
       15
 70
   128
 43
0.0
 10
264.0768656726
 20
44.0484006153
 10
263.7323920051
 20
43.79981553
 10
263.4583663258
 20
43.4578795159
 10
263.3469811779
 20
43.0866513112
 10
263.405825587
 20
42.7114304223
 10
263.6308909105
 20
42.3577866323
 10
264.006838659
 20
42.0498206061
 10
264.508047829
 20
41.8085201798
 10
265.1003638329
 20
41.6503285461
 10
265.7434197033
 20
41.5860268412
 10
266.3933925137
 20
41.6199972331
 10
267.0059875314
 20
41.749924655
 10
267.5394570887
 20
41.9669550151
 10
267.9574476974
 20
42.2562971359
 10
267.9574476974
 20
42.2562971359
  0
LWPOLYLINE
  5
242
330
1F
100
AcDbEntity
  8
0
  6
Continuous
 62
     7
370
    15
100
AcDbPolyline
 90
       24
 70
   128
 43
0.0
 10
267.6616937331
 20
42.6501322526
 10
267.9045114615
 20
42.9577072861
 10
267.9945777127
 20
43.2916960675
 10
267.9252136313
 20
43.627327562
 10
267.7015634376
 20
43.9397095913
 10
267.3402154562
 20
44.2056736189
 10
266.8679675919
 20
44.4054951601
 10
266.3198459337
 20
44.5243533486
 10
265.7365000469
 20
44.5534344736
 10
265.1611952355
 20
44.4905808349
 10
264.6365995447
 20
44.3404538589
 10
264.2016190023
 20
44.1141882631
 10
263.8885152507
 20
43.8285644748
 10
263.7205088576
 20
43.5047664736
 10
263.7100604727
 20
43.166808626
 10
263.8579435567
 20
42.8397564676
 10
264.1531935904
 20
42.5478642044
 10
264.5739101823
 20
42.3127818329
 10
265.0888914937
 20
42.1519439333
 10
265.6599444125
 20
42.0772786136
 10
266.2447159659
 20
42.0943238051
 10
266.7998363881
 20
42.2018154437
 10
267.2841347989
 20
42.3917813747
 10
267.6616937331
 20
42.6501322526
  0
LWPOLYLINE
  5
243
330
1F
100
AcDbEntity
  8
0
  6
Continuous
 62
     7
370
    15
100
AcDbPolyline
 90
       20
 70
   128
 43
0.0
 10
267.11243695
 20
42.8507893829
 10
267.3042083005
 20
43.1134686853
 10
267.3378427204
 20
43.3978621496
 10
267.209695886
 20
43.6731509784
 10
266.9336542785
 20
43.9095034967
 10
266.5396317059
 20
44.0813069622
 10
266.0703263008
 20
44.1699441344
 10
265.576594739
 20
44.1658095994
 10
265.1119403456
 20
44.0693515058
 10
264.7267151662
 20
43.891022844
 10
264.4626649339
 20
43.650147982
 10
264.3484041279
 20
43.3728290234
 10
264.3963136525
 20
43.0891185339
 10
264.6012010076
 20
42.8297612847
 10
264.9408659171
 20
42.6228612697
 10
265.378499365
 20
42.4908399446
 10
265.8666749514
 20
42.4480049943
 10
266.3524941421
 20
42.4989966033
 10
266.7833096581
 20
42.6382898016
 10
267.11243695
 20
42.8507893829
  0
SPLINE
  5
244
330
1F
100
AcDbEntity
  8
0
  6
Continuous
 62
     7
370
    15
100
AcDbSpline
210
0.0
220
0.0
230
1.0
 70
     8
 71
     3
 72
    10
 73
     6
 74
     0
 42
0.000000001
 43
0.00000001
 40
0.0
 40
0.0
 40
0.0
 40
0.0
 40
0.4391250602976793
 40
0.751374661373261
 40
1.0
 40
1.0
 40
1.0
 40
1.0
 10
267.2871053234055
 20
43.23377921116392
 30
0.0
 10
267.1911388215977
 20
43.26951508128986
 30
0.0
 10
267.0269332129492
 20
43.3306617334453
 30
0.0
 10
266.788233028795
 20
43.64659889391997
 30
0.0
 10
266.6694273286251
 20
43.87185628134387
 30
0.0
 10
266.6167629905622
 20
43.9717086553083
 30
0.0
  0
SPLINE
  5
245
330
1F
100
AcDbEntity
  8
0
  6
Continuous
 62
     7
370
    15
100
AcDbSpline
210
0.0
220
0.0
230
1.0
 70
     8
 71
     3
 72
    10
 73
     6
 74
     0
 42
0.000000001
 43
0.00000001
 40
0.0
 40
0.0
 40
0.0
 40
0.0
 40
0.4391256352595893
 40
0.751374104607457
 40
1.0
 40
1.0
 40
1.0
 40
1.0
 10
266.6167629905622
 20
43.97170865530831
 30
0.0
 10
266.4102983101706
 20
43.90664498550726
 30
0.0
 10
266.0570230697701
 20
43.79531658034518
 30
0.0
 10
265.543481855441
 20
43.86053466716482
 30
0.0
 10
265.2878807388564
 20
43.96100282647269
 30
0.0
 10
265.1745771891326
 20
44.00553862207448
 30
0.0
  0
SPLINE
  5
246
330
1F
100
AcDbEntity
  8
0
  6
Continuous
 62
     7
370
    15
100
AcDbSpline
210
0.0
220
0.0
230
1.0
 70
     8
 71
     3
 72
    11
 73
     7
 74
     0
 42
0.000000001
 43
0.00000001
 40
0.0
 40
0.0
 40
0.0
 40
0.0
 40
0.1849308078237363
 40
0.5198464030548585
 40
0.8714439832839306
 40
1.0
 40
1.0
 40
1.0
 40
1.0
 10
265.1745771891326
 20
44.00553862207448
 30
0.0
 10
265.1296523459008
 20
43.93270960149077
 30
0.0
 10
265.0033671777522
 20
43.72798490021479
 30
0.0
 10
264.7676289675989
 20
43.44679745397688
 30
0.0
 10
264.5499196108945
 20
43.32918618700612
 30
0.0
 10
264.4338185454863
 20
43.30729916260126
 30
0.0
 10
264.4027337205462
 20
43.30143914469624
 30
0.0
  0
SPLINE
  5
247
330
1F
100
AcDbEntity
  8
0
  6
Continuous
 62
     7
370
    15
100
AcDbSpline
210
0.0
220
0.0
230
1.0
 70
     8
 71
     3
 72
    10
 73
     6
 74
     0
 42
0.000000001
 43
0.00000001
 40
0.0
 40
0.0
 40
0.0
 40
0.0
 40
0.5764248773848177
 40
0.9863019501835569
 40
1.0
 40
1.0
 40
1.0
 40
1.0
 10
264.4027337205462
 20
43.30143914469624
 30
0.0
 10
264.4981753460236
 20
43.12872033389729
 30
0.0
 10
264.6614824221584
 20
42.83318676723851
 30
0.0
 10
264.8470935704239
 20
42.65321789245777
 30
0.0
 10
264.9166276222476
 20
42.6259484047923
 30
0.0
 10
264.9188762928022
 20
42.62506653335895
 30
0.0
  0
SPLINE
  5
248
330
1F
100
AcDbEntity
  8
0
  6
Continuous
 62
     7
370
    15
100
AcDbSpline
210
0.0
220
0.0
230
1.0
 70
     8
 71
     3
 72
    10
 73
     6
 74
     0
 42
0.000000001
 43
0.00000001
 40
0.0
 40
0.0
 40
0.0
 40
0.0
 40
0.2476289022811752
 40
0.7323508252783952
 40
1.0
 40
1.0
 40
1.0
 40
1.0
 10
266.7509956430407
 20
42.63223571752
 30
0.0
 10
266.7954718937393
 20
42.65368406386861
 30
0.0
 10
266.9270083121633
 20
42.71711653885256
 30
0.0
 10
267.1162084420701
 20
42.9587966688548
 30
0.0
 10
267.2422626761682
 20
43.16162490943049
 30
0.0
 10
267.2871053234055
 20
43.23377921116392
 30
0.0
  0
LINE
  5
249
330
1F
100
AcDbEntity
  8
0
  6
Continuous
 62
     7
370
    15
100
AcDbLine
 10
266.6167629906
 20
42.5713497015
 30
0.0
 11
266.6167629906
 21
43.9717086553
 31
0.0
  0
LINE
  5
24A
330
1F
100
AcDbEntity
  8
0
  6
Continuous
 62
     7
370
    15
100
AcDbLine
 10
265.1745771891
 20
42.5391950637
 30
0.0
 11
265.1745771891
 21
44.0055386221
 31
0.0
  0
SPLINE
  5
24B
330
1F
100
AcDbEntity
  8
0
  6
Continuous
 62
     7
370
    15
100
AcDbSpline
210
0.0
220
0.0
230
1.0
 70
     8
 71
     3
 72
    12
 73
     8
 74
     0
 42
0.000000001
 43
0.00000001
 40
0.0
 40
0.0
 40
0.0
 40
0.0
 40
0.2499999999999992
 40
0.2499999999999992
 40
0.4999999999999984
 40
0.4999999999999984
 40
1.0
 40
1.0
 40
1.0
 40
1.0
 10
243.8435541922458
 20
34.40952991039948
 30
0.0
 10
243.8774856845353
 20
34.38994167684801
 30
0.0
 10
243.9159173935626
 20
34.36275448791161
 30
0.0
 10
243.9900942462275
 20
34.30353056037577
 30
0.0
 10
244.025310526483
 20
34.27209788135902
 30
0.0
 10
244.120409443741
 20
34.18010516455702
 30
0.0
 10
244.1689386005029
 20
34.12324849903238
 30
0.0
 10
244.2022801966579
 20
34.07501969303005
 30
0.0
  0
ARC
  5
24C
330
1F
100
AcDbEntity
  8
0
  6
Continuous
 62
     7
370
    15
100
AcDbCircle
 10
267.9867821903
 20
50.3308771679
 30
0.0
 40
10.22576506618346
100
AcDbArc
 50
73.3400810776
 51
100.6396977735
  0
SPLINE
  5
24D
330
1F
100
AcDbEntity
  8
0
  6
Continuous
 62
     7
370
    15
100
AcDbSpline
210
0.0
220
0.0
230
1.0
 70
     8
 71
     3
 72
    12
 73
     8
 74
     0
 42
0.000000001
 43
0.00000001
 40
0.0
 40
0.0
 40
0.0
 40
0.0
 40
0.5
 40
0.5
 40
0.75
 40
0.75
 40
1.0
 40
1.0
 40
1.0
 40
1.0
 10
271.1305430158563
 20
59.69383563124135
 30
0.0
 10
271.1305430158563
 20
59.76651862843416
 30
0.0
 10
271.1135262477861
 20
59.85010147517445
 30
0.0
 10
271.0591154219046
 20
59.97154565305013
 30
0.0
 10
271.0359702029827
 20
60.01126053073148
 30
0.0
 10
270.9816893911255
 20
60.07999030259728
 30
0.0
 10
270.950453422568
 20
60.10889989850295
 30
0.0
 10
270.9184109815002
 20
60.12739760599654
 30
0.0
  0
ARC
  5
24E
330
1F
100
AcDbEntity
  8
0
  6
Continuous
 62
     7
370
    15
100
AcDbCircle
 10
281.7380506973
 20
25.8806675938
 30
0.0
 40
38.42128894685675
100
AcDbArc
 50
126.6201618694
 51
166.7631334776
  0
LWPOLYLINE
  5
24F
330
1F
100
AcDbEntity
  8
0
  6
Continuous
 62
     7
370
    15
100
AcDbPolyline
 90
       12
 70
   128
 43
0.0
 10
253.8545151739
 20
55.2515244335
 10
255.3048721956
 20
56.5241277441
 10
256.7825041552
 20
57.6652767813
 10
258.2762299135
 20
58.6663358032
 10
259.7747464186
 20
59.5197302579
 10
261.2667141512
 20
60.219003715
 10
262.7408433125
 20
60.7588615367
 10
264.1859787348
 20
61.1352214167
 10
265.5911852865
 20
61.3452337859
 10
266.9458297787
 20
61.387309324
 10
268.2396609782
 20
61.2611316898
 10
269.4628889626
 20
60.9676531409
  0
LINE
  5
250
330
1F
100
AcDbEntity
  8
0
  6
Continuous
 62
     7
370
    15
100
AcDbLine
 10
270.9184109488
 20
60.1273981836
 30
0.0
 11
269.4628889626
 21
60.9676531409
 31
0.0
  0
LINE
  5
251
330
1F
100
AcDbEntity
  8
0
  6
Continuous
 62
     7
370
    15
100
AcDbLine
 10
242.3880320435
 20
35.2497850529
 30
0.0
 11
243.8435540298
 21
34.4095300955
 31
0.0
  0
ARC
  5
252
330
1F
100
AcDbEntity
  8
0
  6
Continuous
 62
     7
370
    15
100
AcDbCircle
 10
281.7207559151
 20
26.0186841879
 30
0.0
 40
40.40144044883904
100
AcDbArc
 50
136.9528122493
 51
166.7921386576
  0
SPLINE
  5
253
330
1F
100
AcDbEntity
  8
0
  6
Continuous
 62
     7
370
    15
100
AcDbSpline
210
0.0
220
0.0
230
1.0
 70
     8
 71
     3
 72
    34
 73
    30
 74
     0
 42
0.000000001
 43
0.00000001
 40
0.0
 40
0.0
 40
0.0
 40
0.0
 40
0.0624999999999989
 40
0.0624999999999989
 40
0.1249999999999978
 40
0.1249999999999978
 40
0.1874999999999968
 40
0.1874999999999968
 40
0.2499999999999962
 40
0.2499999999999962
 40
0.3124999999999957
 40
0.3124999999999957
 40
0.3749999999999952
 40
0.3749999999999952
 40
0.499999999999995
 40
0.499999999999995
 40
0.6249999999999948
 40
0.6249999999999948
 40
0.6874999999999954
 40
0.6874999999999954
 40
0.749999999999996
 40
0.749999999999996
 40
0.8124999999999966
 40
0.8124999999999966
 40
0.8749999999999977
 40
0.8749999999999977
 40
0.9374999999999989
 40
0.9374999999999989
 40
1.0
 40
1.0
 40
1.0
 40
1.0
 10
252.195715806778
 20
53.59672680143181
 30
0.0
 10
252.2548412204213
 20
53.56714931757357
 30
0.0
 10
252.3176539158518
 20
53.54347329537804
 30
0.0
 10
252.4503629187764
 20
53.50739378495831
 30
0.0
 10
252.5209746151476
 20
53.49494589481906
 30
0.0
 10
252.6662225851248
 20
53.48223600109367
 30
0.0
 10
252.740205014887
 20
53.48189382119634
 30
0.0
 10
252.8908870797119
 20
53.49290016601896
 30
0.0
 10
252.968335099512
 20
53.50448683000445
 30
0.0
 10
253.1202676854871
 20
53.53866137274325
 30
0.0
 10
253.1952237660716
 20
53.56117377513323
 30
0.0
 10
253.3431588329803
 20
53.61698584773129
 30
0.0
 10
253.4160875460707
 20
53.65043069393759
 30
0.0
 10
253.6227000720806
 20
53.76279295325691
 30
0.0
 10
253.7496252481299
 20
53.85683035427764
 30
0.0
 10
253.9587320007568
 20
54.06543166945354
 30
0.0
 10
254.0432803839547
 20
54.18235576359726
 30
0.0
 10
254.1282539407287
 20
54.36088101356991
 30
0.0
 10
254.1502136413267
 20
54.42209759249659
 30
0.0
 10
254.1793247380665
 20
54.54290357501043
 30
0.0
 10
254.1866792008462
 20
54.60250410145559
 30
0.0
 10
254.1870221358906
 20
54.72024539158885
 30
0.0
 10
254.1797820930553
 20
54.77869677972595
 30
0.0
 10
254.1511702425333
 20
54.88945940411742
 30
0.0
 10
254.1298869009738
 20
54.94237184884005
 30
0.0
 10
254.0730587343668
 20
55.04329005614929
 30
0.0
 10
254.0376012453928
 20
55.09080507078041
 30
0.0
 10
253.9551962925063
 20
55.17706504866383
 30
0.0
 10
253.9079913899304
 20
55.21631060108389
 30
0.0
 10
253.8545152440416
 20
55.25152372919751
 30
0.0
  0
LINE
  5
254
330
1F
100
AcDbEntity
  8
0
  6
Continuous
 62
     7
370
    15
100
AcDbLine
 10
276.8404422426
 20
52.824532075
 30
0.0
 11
276.9447240825
 21
53.0051538998
 31
0.0
  0
LINE
  5
255
330
1F
100
AcDbEntity
  8
0
  6
Continuous
 62
     7
370
    15
100
AcDbLine
 10
274.5423339611
 20
51.497862403
 30
0.0
 11
276.8404422426
 21
52.824532075
 31
0.0
  0
ARC
  5
256
330
1F
100
AcDbEntity
  8
0
  6
Continuous
 62
     7
370
    15
100
AcDbCircle
 10
275.3704370587
 20
50.2032601201
 30
0.0
 40
1.536798559127996
100
AcDbArc
 50
122.6053519586
 51
177.394632491
  0
LINE
  5
257
330
1F
100
AcDbEntity
  8
0
  6
Continuous
 62
     7
370
    15
100
AcDbLine
 10
273.835227064
 20
42.0824243872
 30
0.0
 11
273.835227064
 21
50.2731177147
 31
0.0
  0
LINE
  5
258
330
1F
100
AcDbEntity
  8
0
  6
Continuous
 62
     7
370
    15
100
AcDbLine
 10
276.8404422426
 20
42.3319829757
 30
0.0
 11
275.1168284335
 21
41.3369619033
 31
0.0
  0
LINE
  5
259
330
1F
100
AcDbEntity
  8
0
  6
Continuous
 62
     7
370
    15
100
AcDbLine
 10
276.9447240825
 20
42.2717624005
 30
0.0
 11
276.8404422426
 21
42.3319829757
 31
0.0
  0
LINE
  5
25A
330
1F
100
AcDbEntity
  8
0
  6
Continuous
 62
     7
370
    15
100
AcDbLine
 10
244.2477877466
 20
23.5166440308
 30
0.0
 11
244.2022796869
 21
23.3982754078
 31
0.0
  0
LINE
  5
25B
330
1F
100
AcDbEntity
  8
0
  6
Continuous
 62
     7
370
    15
100
AcDbLine
 10
244.2477877466
 20
23.5166440308
 30
0.0
 11
247.3894322738
 21
25.3302768122
 31
0.0
  0
ARC
  5
25C
330
1F
100
AcDbEntity
  8
0
  6
Continuous
 62
     7
370
    15
100
AcDbCircle
 10
246.5613291762
 20
26.6248790951
 30
0.0
 40
1.536798559128352
100
AcDbArc
 50
302.6053519586
 51
357.394632491
  0
LINE
  5
25D
330
1F
100
AcDbEntity
  8
0
  6
Continuous
 62
     7
370
    15
100
AcDbLine
 10
248.0965391709
 20
35.4144894688
 30
0.0
 11
248.0965391709
 21
26.5550215005
 31
0.0
  0
ARC
  5
25E
330
1F
100
AcDbEntity
  8
0
  6
Continuous
 62
     7
370
    15
100
AcDbCircle
 10
247.6654656878
 20
35.4844180159
 30
0.0
 40
0.4367085406723699
100
AcDbArc
 50
350.7857695821
 51
129.2035248725
  0
LINE
  5
25F
330
1F
100
AcDbEntity
  8
0
  6
Continuous
 62
     7
370
    15
100
AcDbLine
 10
247.3894322738
 20
35.8228259115
 30
0.0
 11
244.2477877466
 21
34.0091931302
 31
0.0
  0
LINE
  5
260
330
1F
100
AcDbEntity
  8
0
  6
Continuous
 62
     7
370
    15
100
AcDbLine
 10
244.2022796869
 20
34.0750192659
 30
0.0
 11
244.2477877466
 21
34.0091931302
 31
0.0
  0
LINE
  5
261
330
1F
100
AcDbEntity
  8
0
  6
Continuous
 62
     7
370
    15
100
AcDbLine
 10
271.1305432814
 20
56.4688748457
 30
0.0
 11
271.1305432814
 21
59.6938359887
 31
0.0
  0
LINE
  5
262
330
1F
100
AcDbEntity
  8
0
  6
Continuous
 62
     7
370
    15
100
AcDbLine
 10
273.9232902698
 20
58.081093365
 30
0.0
 11
271.1305432814
 21
56.4688748457
 31
0.0
  0
SPLINE
  5
263
330
1F
100
AcDbEntity
  8
0
  6
Continuous
 62
     7
370
    15
100
AcDbSpline
210
0.0
220
0.0
230
1.0
 70
     8
 71
     3
 72
     8
 73
     4
 74
     0
 42
0.000000001
 43
0.00000001
 40
0.0
 40
0.0
 40
0.0
 40
0.0
 40
1.0
 40
1.0
 40
1.0
 40
1.0
 10
241.3154777200173
 20
36.34129883793096
 30
0.0
 10
241.028410590345
 20
36.29384683820761
 30
0.0
 10
240.7412974717595
 20
36.24648940550482
 30
0.0
 10
240.4541426453618
 20
36.19921773659275
 30
0.0
  0
SPLINE
  5
264
330
1F
100
AcDbEntity
  8
0
  6
Continuous
 62
     7
370
    15
100
AcDbSpline
210
0.0
220
0.0
230
1.0
 70
     8
 71
     3
 72
     8
 73
     4
 74
     0
 42
0.000000001
 43
0.00000001
 40
0.0
 40
0.0
 40
0.0
 40
0.0
 40
0.0011862984959113
 40
0.0011862984959113
 40
0.0011862984959113
 40
0.0011862984959113
 10
240.1018415580864
 20
36.56957463625493
 30
0.0
 10
240.2195524259309
 20
36.44602468514248
 30
0.0
 10
240.3369921763669
 20
36.3225696360272
 30
0.0
 10
240.4541426453618
 20
36.19921773659275
 30
0.0
  0
LWPOLYLINE
  5
265
330
1F
100
AcDbEntity
  8
0
  6
Continuous
 62
     7
370
    15
100
AcDbPolyline
 90
       25
 70
   128
 43
0.0
 10
240.1018417712
 20
36.5695746046
 10
240.5505779502
 20
38.3529947857
 10
241.1045969568
 20
40.1502960833
 10
241.7602702107
 20
41.949704971
 10
242.5133013676
 20
43.7394346772
 10
243.3587592462
 20
45.5077616082
 10
244.2911041701
 20
47.2431029131
 10
245.3042301146
 20
48.9340902445
 10
246.3915002682
 20
50.5696465623
 10
247.545792472
 20
52.1390595137
 10
248.7595453179
 20
53.6320491106
 10
250.0248081982
 20
55.0388346449
 10
251.3332933302
 20
56.3501997039
 10
252.6764290985
 20
57.557556424
 10
254.0454178425
 20
58.6529940599
 10
255.43129175
 20
59.6293386284
 10
256.8249727644
 20
60.4801950961
 10
258.2173315449
 20
61.1999875009
 10
259.5992475176
 20
61.7840027435
 10
260.9616687619
 20
62.2284160339
 10
262.2956701886
 20
62.5303138308
 10
263.5925142293
 20
62.6877197504
 10
264.8437053305
 20
62.6996032121
 10
266.0410479059
 20
62.5658855166
 10
267.1766986903
 20
62.2874426926
  0
LINE
  5
266
330
1F
100
AcDbEntity
  8
0
  6
Continuous
 62
     7
370
    15
100
AcDbLine
 10
267.4803565264
 20
61.331966103
 30
0.0
 11
267.1766986903
 21
62.2874426926
 31
0.0
  0
LWPOLYLINE
  5
267
330
1F
100
AcDbEntity
  8
0
  6
Continuous
 62
     7
370
    15
100
AcDbPolyline
 90
       24
 70
   128
 43
0.0
 10
241.3154777255
 20
36.3412988122
 10
241.7456126563
 20
38.0793230054
 10
242.2810435856
 20
39.8319131105
 10
242.918094518
 20
41.587041231
 10
243.652395352
 20
43.3326658471
 10
244.4789082222
 20
45.0568093804
 10
245.3919617432
 20
46.7476410814
 10
246.3852892057
 20
48.393557635
 10
247.4520766494
 20
49.9832664264
 10
248.5850023766
 20
51.5058593023
 10
249.7762935865
 20
52.9508870913
 10
251.017775766
 20
54.308436786
 10
252.3009303128
 20
55.5691937054
 10
253.6169524866
 20
56.7245038475
 10
254.9568121607
 20
57.7664408994
 10
256.3113154774
 20
58.6878570399
 10
257.6711683981
 20
59.4824272306
 10
259.027039841
 20
60.1447023945
 10
260.3696263832
 20
60.6701346009
 10
261.6897157279
 20
61.0551213084
 10
262.9782492662
 20
61.2970201879
 10
264.226386038
 20
61.3941723588
 10
265.4255613427
 20
61.3459088471
 10
265.5065089751
 20
61.3371920503
  0
LINE
  5
268
330
1F
100
AcDbEntity
  8
0
  6
Continuous
 62
     7
370
    15
100
AcDbLine
 10
238.6639970952
 20
37.3996246679
 30
0.0
 11
240.1018417712
 21
36.5695746046
 31
0.0
  0
ARC
  5
269
330
1F
100
AcDbEntity
  8
0
  6
Continuous
 62
     7
370
    15
100
AcDbCircle
 10
262.8072406723
 20
53.3210632686
 30
0.0
 40
10.22567296009054
100
AcDbArc
 50
73.3400168049
 51
100.6386211219
  0
LINE
  5
26A
330
1F
100
AcDbEntity
  8
0
  6
Continuous
 62
     7
370
    15
100
AcDbLine
 10
267.1766986903
 20
62.2874426926
 30
0.0
 11
265.7388540142
 21
63.117492756
 31
0.0
  0
LINE
  5
26B
330
1F
100
AcDbEntity
  8
0
  6
Continuous
 62
     7
370
    15
100
AcDbLine
 10
242.5680685631
 20
36.0149568107
 30
0.0
 11
241.9419649454
 21
36.3763987357
 31
0.0
  0
SPLINE
  5
26C
330
1F
100
AcDbEntity
  8
0
  6
Continuous
 62
     7
370
    15
100
AcDbSpline
210
0.0
220
0.0
230
1.0
 70
     8
 71
     3
 72
    11
 73
     7
 74
     0
 42
0.000000001
 43
0.00000001
 40
0.0
 40
0.0
 40
0.0
 40
0.0
 40
0.3165694752064712
 40
0.6331520400060429
 40
0.9494411625907934
 40
1.0
 40
1.0
 40
1.0
 40
1.0
 10
253.1624912509552
 20
54.35904548368468
 30
0.0
 10
253.0289010707515
 20
54.31186682076462
 30
0.0
 10
252.7617151866241
 20
54.21750754416946
 30
0.0
 10
252.4457649874255
 20
53.95769184497627
 30
0.0
 10
252.2650622964688
 20
53.73450045950378
 30
0.0
 10
252.2301273329188
 20
53.60575128200598
 30
0.0
 10
252.225312610378
 20
53.58800712245883
 30
0.0
  0
SPLINE
  5
26D
330
1F
100
AcDbEntity
  8
0
  6
Continuous
 62
     7
370
    15
100
AcDbSpline
210
0.0
220
0.0
230
1.0
 70
     8
 71
     3
 72
    14
 73
    10
 74
     0
 42
0.000000001
 43
0.00000001
 40
0.0
 40
0.0
 40
0.0
 40
0.0
 40
0.25
 40
0.25
 40
0.5
 40
0.5
 40
0.75
 40
0.75
 40
1.0
 40
1.0
 40
1.0
 40
1.0
 10
241.941964832751
 20
36.37639890516301
 30
0.0
 10
241.904330839293
 20
36.39812454714306
 30
0.0
 10
241.8585568826038
 20
36.41533630825455
 30
0.0
 10
241.7586210050939
 20
36.43774164188705
 30
0.0
 10
241.704187136254
 20
36.44291652548688
 30
0.0
 10
241.597971485762
 20
36.44097433117212
 30
0.0
 10
241.5446551858119
 20
36.43388592825389
 30
0.0
 10
241.4471621185112
 20
36.4091524919692
 30
0.0
 10
241.4022504279816
 20
36.39139165598316
 30
0.0
 10
241.3644971623816
 20
36.36959715966116
 30
0.0
  0
LINE
  5
26E
330
1F
100
AcDbEntity
  8
0
  6
Continuous
 62
     7
370
    15
100
AcDbLine
 10
241.3644971445
 20
36.3695971205
 30
0.0
 11
241.3154777255
 21
36.3412988122
 31
0.0
  0
SPLINE
  5
26F
330
1F
100
AcDbEntity
  8
0
  6
Continuous
 62
     7
370
    15
100
AcDbSpline
210
0.0
220
0.0
230
1.0
 70
     8
 71
     3
 72
    10
 73
     6
 74
     0
 42
0.000000001
 43
0.00000001
 40
0.0
 40
0.0
 40
0.0
 40
0.0
 40
0.5
 40
0.5
 40
1.0
 40
1.0
 40
1.0
 40
1.0
 10
238.5619845297314
 20
37.42907284683965
 30
0.0
 10
238.5693008141537
 20
37.43344084673284
 30
0.0
 10
238.581124674362
 20
37.4339728993211
 30
0.0
 10
238.6152760386398
 20
37.42474284968279
 30
0.0
 10
238.6375330020326
 20
37.41490197236649
 30
0.0
 10
238.6639970200543
 20
37.39962461995017
 30
0.0
  0
LWPOLYLINE
  5
270
330
1F
100
AcDbEntity
  8
0
  6
Continuous
 62
     7
370
    15
100
AcDbPolyline
 90
       50
 70
   128
 43
0.0
 10
270.1052382147
 20
40.6911078059
 10
269.2190947156
 20
40.113850903
 10
268.3475015927
 20
39.4146785512
 10
267.5047705823
 20
38.6050702583
 10
266.7047389392
 20
37.6983206116
 10
265.9605438032
 20
36.709318527
 10
265.2844039738
 20
35.654302638
 10
264.6874225113
 20
34.5505971487
 10
264.1794011923
 20
33.4163241108
 10
263.7686821292
 20
32.2701085688
 10
263.4620091471
 20
31.1307713466
 10
263.2644174773
 20
30.0170203095
 10
263.1791524271
 20
28.9471434536
 10
263.2076127451
 20
27.9387074594
 10
263.3493321817
 20
27.0082715213
 10
263.6019840993
 20
26.1711133432
 10
263.9614183503
 20
25.4409785863
 10
264.421734376
 20
24.8298563117
 10
264.9753734024
 20
24.3477807759
 10
265.6132445519
 20
24.0026683
 10
266.3248743327
 20
23.8001856958
 10
267.0985772017
 20
23.7436563318
 10
267.9216496707
 20
23.8340102104
 10
268.7805765132
 20
24.0697623227
 10
269.6612542575
 20
24.4470424279
 10
270.5492221719
 20
24.9596553936
 10
271.4298999163
 20
25.5991841687
 10
272.2888267588
 20
26.3551278799
 10
273.1118992278
 20
27.2150732463
 10
273.8856020968
 20
28.1649009285
 10
274.5972318776
 20
29.1890137887
 10
275.2351030271
 20
30.2705966175
 10
275.7887420535
 20
31.3918901671
 10
276.2490580792
 20
32.5344820123
 10
276.6084923302
 20
33.679610722
 10
276.8611442477
 20
34.808474595
 10
277.0028636844
 20
35.9025363118
 10
277.0313240024
 20
36.9438318897
 10
276.9460589522
 20
37.9152638142
 10
276.7484672824
 20
38.8008803653
 10
276.4417943003
 20
39.5861404991
 10
276.0310752372
 20
40.2581499045
 10
275.5230539181
 20
40.8058740126
 10
274.9260724557
 20
41.2203193766
 10
274.2499326263
 20
41.4946808352
 10
273.5057374903
 20
41.624453505
 10
272.7057058472
 20
41.6075062781
 10
271.8629748368
 20
41.4441180572
 10
270.9913817139
 20
41.1369704094
 10
270.1052382147
 20
40.6911078059
  0
LWPOLYLINE
  5
271
330
1F
100
AcDbEntity
  8
0
  6
Continuous
 62
     7
370
    15
100
AcDbPolyline
 90
       27
 70
   128
 43
0.0
 10
269.9638170987
 20
40.9360563633
 10
269.0775772875
 20
40.3600541382
 10
268.2053140955
 20
39.6643634385
 10
267.3607834476
 20
38.8599535536
 10
266.557304324
 20
37.9595118898
 10
265.8075477797
 20
36.977239283
 10
265.1233381459
 20
35.9286257279
 10
264.5154656743
 20
34.8302091392
 10
263.9935171267
 20
33.6993121523
 10
263.5657239802
 20
32.5537697012
 10
263.238831706
 20
31.4116468995
 10
263.0179973664
 20
30.2909569183
 10
262.906702686
 20
29.2093732062
 10
262.906702686
 20
28.1839527812
 10
263.0179973664
 20
27.2308671719
 10
263.238831706
 20
26.3651470921
 10
263.5657239802
 20
25.6004460765
 10
263.9935171267
 20
24.948823079
 10
264.5154656743
 20
24.4205550578
 10
265.1233381459
 20
24.0239730858
 10
265.8075477797
 20
23.7653311589
 10
266.557304324
 20
23.6487090323
 10
267.3607834476
 20
23.6759446184
 10
268.2053140955
 20
23.8466090646
 10
269.0775772875
 20
24.1580120097
 10
269.9638170987
 20
24.6052404906
 10
269.9649663461
 20
24.605903937
  0
LWPOLYLINE
  5
272
330
1F
100
AcDbEntity
  8
0
  6
Continuous
 62
     7
370
    15
100
AcDbPolyline
 90
       14
 70
   128
 43
0.0
 10
277.0348847526
 20
36.8526888948
 10
277.0209315115
 20
37.3573440727
 10
276.9096368311
 20
38.310429682
 10
276.6888024915
 20
39.1761497619
 10
276.3619102173
 20
39.9408507774
 10
275.9341170708
 20
40.5924737749
 10
275.4121685232
 20
41.1207417961
 10
274.8042960516
 20
41.5173237681
 10
274.1200864178
 20
41.775965695
 10
273.3703298735
 20
41.8925878217
 10
272.5668507499
 20
41.8653522355
 10
271.722320102
 20
41.6946877893
 10
270.85005691
 20
41.3832848443
 10
269.9638170987
 20
40.9360563633
  0
SPLINE
  5
273
330
1F
100
AcDbEntity
  8
0
  6
Continuous
 62
     7
370
    15
100
AcDbSpline
210
0.0
220
0.0
230
1.0
 70
    11
 71
     3
 72
    88
 73
    84
 74
     0
 42
0.000000001
 43
0.00000001
 40
0.0
 40
0.0
 40
0.0
 40
0.0
 40
0.03125
 40
0.03125
 40
0.0624999999999999
 40
0.0624999999999999
 40
0.0937499999999999
 40
0.0937499999999999
 40
0.1093749999999999
 40
0.1093749999999999
 40
0.1249999999999999
 40
0.1249999999999999
 40
0.1562500000000004
 40
0.1562500000000004
 40
0.1718750000000004
 40
0.1718750000000004
 40
0.1875000000000003
 40
0.1875000000000003
 40
0.2187500000000003
 40
0.2187500000000003
 40
0.2343750000000003
 40
0.2343750000000003
 40
0.2500000000000003
 40
0.2500000000000003
 40
0.2812500000000007
 40
0.2812500000000007
 40
0.2968750000000009
 40
0.2968750000000009
 40
0.3125000000000011
 40
0.3125000000000011
 40
0.3437500000000015
 40
0.3437500000000015
 40
0.3593750000000017
 40
0.3593750000000017
 40
0.3750000000000019
 40
0.3750000000000019
 40
0.3906250000000021
 40
0.3906250000000021
 40
0.4062500000000023
 40
0.4062500000000023
 40
0.4375000000000027
 40
0.4375000000000027
 40
0.4531250000000028
 40
0.4531250000000028
 40
0.4687500000000029
 40
0.4687500000000029
 40
0.5000000000000028
 40
0.5000000000000028
 40
0.5312500000000026
 40
0.5312500000000026
 40
0.5625000000000022
 40
0.5625000000000022
 40
0.593750000000002
 40
0.593750000000002
 40
0.6250000000000018
 40
0.6250000000000018
 40
0.6562500000000014
 40
0.6562500000000014
 40
0.6875000000000012
 40
0.6875000000000012
 40
0.718750000000001
 40
0.718750000000001
 40
0.7500000000000007
 40
0.7500000000000007
 40
0.7812500000000006
 40
0.7812500000000006
 40
0.8125000000000004
 40
0.8125000000000004
 40
0.8281250000000004
 40
0.8281250000000004
 40
0.8437500000000004
 40
0.8437500000000004
 40
0.8750000000000002
 40
0.8750000000000002
 40
0.8906250000000002
 40
0.8906250000000002
 40
0.9062500000000002
 40
0.9062500000000002
 40
0.9375000000000002
 40
0.9375000000000002
 40
0.9687500000000001
 40
0.9687500000000001
 40
1.0
 40
1.0
 40
1.0
 40
1.0
 10
265.8193781569731
 20
44.82396807272132
 30
0.0
 10
266.0108158671849
 20
44.79032958787885
 30
0.0
 10
266.1971413092951
 20
44.74748264497239
 30
0.0
 10
266.5608235099641
 20
44.64712657679954
 30
0.0
 10
266.7391051536189
 20
44.58923588242025
 30
0.0
 10
267.0826269034617
 20
44.46174323492653
 30
0.0
 10
267.2451117285035
 20
44.39326739221846
 30
0.0
 10
267.4756095060274
 20
44.28456723335448
 30
0.0
 10
267.550221868859
 20
44.24732274696679
 30
0.0
 10
267.6949445609129
 20
44.17084544328019
 30
0.0
 10
267.7653290136991
 20
44.13143714284358
 30
0.0
 10
267.9661356271841
 20
44.0121815097573
 30
0.0
 10
268.0871394602507
 20
43.93096788315079
 30
0.0
 10
268.2496584333002
 20
43.80624276566931
 30
0.0
 10
268.3006477811628
 20
43.76417491263183
 30
0.0
 10
268.3960683337465
 20
43.67888426976962
 30
0.0
 10
268.4406309856499
 20
43.63549084478674
 30
0.0
 10
268.5617918793995
 20
43.50565069247607
 30
0.0
 10
268.6267868473137
 20
43.41894697495221
 30
0.0
 10
268.7002330445005
 20
43.2872044529072
 30
0.0
 10
268.7206808637321
 20
43.24300466293502
 30
0.0
 10
268.7530763894424
 20
43.15371217086371
 30
0.0
 10
268.7650080664219
 20
43.10845148828797
 30
0.0
 10
268.7867096477889
 20
42.97378265759251
 30
0.0
 10
268.7829854022355
 20
42.88462277647184
 30
0.0
 10
268.748448025374
 20
42.7500078511227
 30
0.0
 10
268.7320748152951
 20
42.70499096149528
 30
0.0
 10
268.6887938419729
 20
42.61434760393786
 30
0.0
 10
268.6618244894191
 20
42.56879468995055
 30
0.0
 10
268.5667380462589
 20
42.43475802642181
 30
0.0
 10
268.4840647817985
 20
42.34755130298574
 30
0.0
 10
268.3290602234819
 20
42.2190914035504
 30
0.0
 10
268.2716628730043
 20
42.17633947700763
 30
0.0
 10
268.1485000236954
 20
42.09353815328
 30
0.0
 10
268.0828974101453
 20
42.053514986789
 30
0.0
 10
267.9438481500492
 20
41.97613570247168
 30
0.0
 10
267.8704011512389
 20
41.93877973744266
 30
0.0
 10
267.7156033633275
 20
41.86680196225242
 30
0.0
 10
267.633689517024
 20
41.83198446289433
 30
0.0
 10
267.3819952789458
 20
41.73431244194184
 30
0.0
 10
267.2053573659399
 20
41.67751855634292
 30
0.0
 10
266.9279046404292
 20
41.60508615879063
 30
0.0
 10
266.83352338458
 20
41.58318091567847
 30
0.0
 10
266.6447937841579
 20
41.54468384157178
 30
0.0
 10
266.5499331899039
 20
41.52795291395623
 30
0.0
 10
266.2638779053734
 20
41.48533369908703
 30
0.0
 10
266.0695389231008
 20
41.46698018810329
 30
0.0
 10
265.6893093952906
 20
41.45257918374782
 30
0.0
 10
265.5024510729058
 20
41.45620737368204
 30
0.0
 10
265.1346349978501
 20
41.48622278183621
 30
0.0
 10
264.9552025566052
 20
41.51271164060645
 30
0.0
 10
264.614007713531
 20
41.58765268204554
 30
0.0
 10
264.4507667983612
 20
41.63620650235746
 30
0.0
 10
264.13912135589
 20
41.75693294279578
 30
0.0
 10
263.9942310898668
 20
41.827836253134
 30
0.0
 10
263.7278709098848
 20
41.98896386818812
 30
0.0
 10
263.6059568690602
 20
42.07935823417496
 30
0.0
 10
263.3857802855551
 20
42.2802755177137
 30
0.0
 10
263.2906184158882
 20
42.38797988750706
 30
0.0
 10
263.1297760966146
 20
42.61605642629012
 30
0.0
 10
263.0639701940559
 20
42.73659177148852
 30
0.0
 10
262.9644495461779
 20
42.98936925737432
 30
0.0
 10
262.9322092071816
 20
43.11778316662729
 30
0.0
 10
262.9032526571818
 20
43.37672992901417
 30
0.0
 10
262.9065882976906
 20
43.50786686023869
 30
0.0
 10
262.9536649577516
 20
43.76791867931469
 30
0.0
 10
262.9965509039747
 20
43.89287489261077
 30
0.0
 10
263.0910911511084
 20
44.07098870667249
 30
0.0
 10
263.1276777356191
 20
44.12879925967889
 30
0.0
 10
263.211737517325
 20
44.24088567116664
 30
0.0
 10
263.259553827054
 20
44.2953960826962
 30
0.0
 10
263.4157794972011
 20
44.44817005601675
 30
0.0
 10
263.5377551815001
 20
44.53737253379291
 30
0.0
 10
263.748095555447
 20
44.65143858087627
 30
0.0
 10
263.8233086940573
 20
44.68629289795658
 30
0.0
 10
263.9789106280726
 20
44.7474409486085
 30
0.0
 10
264.0596482795418
 20
44.77399031468511
 30
0.0
 10
264.3103420233876
 20
44.84219885351976
 30
0.0
 10
264.4909827725197
 20
44.87253049649451
 30
0.0
 10
264.8599024047872
 20
44.90328419730793
 30
0.0
 10
265.0487117764248
 20
44.90428868886005
 30
0.0
 10
265.4347828960504
 20
44.88136183764198
 30
0.0
 10
265.6279404467613
 20
44.85760655756378
 30
0.0
 10
265.8193781569731
 20
44.82396807272131
 30
0.0
  0
SPLINE
  5
274
330
1F
100
AcDbEntity
  8
0
  6
Continuous
 62
     7
370
    15
100
AcDbSpline
210
0.0
220
0.0
230
1.0
 70
     8
 71
     3
 72
    14
 73
    10
 74
     0
 42
0.000000001
 43
0.00000001
 40
0.0
 40
0.0
 40
0.0
 40
0.0
 40
0.25
 40
0.25
 40
0.5
 40
0.5
 40
0.75
 40
0.75
 40
1.0
 40
1.0
 40
1.0
 40
1.0
 10
253.5795701059809
 20
54.66549729282293
 30
0.0
 10
253.5944109981101
 20
54.62697927398733
 30
0.0
 10
253.5937772302061
 20
54.58906063583387
 30
0.0
 10
253.5608416252457
 20
54.52311968606459
 30
0.0
 10
253.5287057799037
 20
54.49484612852264
 30
0.0
 10
253.4438032044993
 20
54.44692710233514
 30
0.0
 10
253.3913862920061
 20
54.42705000488739
 30
0.0
 10
253.280050627711
 20
54.39119307887101
 30
0.0
 10
253.2218959510001
 20
54.37532105518759
 30
0.0
 10
253.1624909952687
 20
54.35904570963285
 30
0.0
  0
LINE
  5
275
330
1F
100
AcDbEntity
  8
0
  6
Continuous
 62
     7
370
    15
100
AcDbLine
 10
253.5634431112
 20
54.7073531354
 30
0.0
 11
253.5795702076
 21
54.6654976458
 31
0.0
  0
SPLINE
  5
276
330
1F
100
AcDbEntity
  8
0
  6
Continuous
 62
     7
370
    15
100
AcDbSpline
210
0.0
220
0.0
230
1.0
 70
     8
 71
     3
 72
    10
 73
     6
 74
     0
 42
0.000000001
 43
0.00000001
 40
0.0
 40
0.0
 40
0.0
 40
0.0
 40
0.5
 40
0.5
 40
1.0
 40
1.0
 40
1.0
 40
1.0
 10
253.8545152440416
 20
55.25152372919751
 30
0.0
 10
253.8265001943037
 20
55.17949762650949
 30
0.0
 10
253.7886823058538
 20
55.09855114120604
 30
0.0
 10
253.6927065580189
 20
54.91815610486612
 30
0.0
 10
253.6346747807193
 20
54.81882989789133
 30
0.0
 10
253.5634430431292
 20
54.70735343632725
 30
0.0
  0
LINE
  5
277
330
1F
100
AcDbEntity
  8
0
  6
Continuous
 62
     7
370
    15
100
AcDbLine
 10
244.2477877466
 20
34.0091931302
 30
0.0
 11
242.4199335858
 21
35.0643908767
 31
0.0
  0
SPLINE
  5
278
330
1F
100
AcDbEntity
  8
0
  6
Continuous
 62
     7
370
    15
100
AcDbSpline
210
0.0
220
0.0
230
1.0
 70
     8
 71
     3
 72
     8
 73
     4
 74
     0
 42
0.000000001
 43
0.00000001
 40
0.0000000000000004
 40
0.0000000000000004
 40
0.0000000000000004
 40
0.0000000000000004
 40
0.0011862984959128
 40
0.0011862984959128
 40
0.0011862984959128
 40
0.0011862984959128
 10
242.4199333183328
 20
35.06439093655423
 30
0.0
 10
242.4088711190752
 20
35.126499381473
 30
0.0
 10
242.3982451125014
 20
35.18829216877462
 30
0.0
 10
242.388031984684
 20
35.24978499549251
 30
0.0
  0
LINE
  5
279
330
1F
100
AcDbEntity
  8
0
  6
Continuous
 62
     7
370
    15
100
AcDbLine
 10
242.4927178182
 20
35.8495657719
 30
0.0
 11
242.4728245057
 21
35.6202200154
 31
0.0
  0
ARC
  5
27A
330
1F
100
AcDbEntity
  8
0
  6
Continuous
 62
     7
370
    15
100
AcDbCircle
 10
258.4774453783
 20
34.1930414073
 30
0.0
 40
16.06490965703043
100
AcDbArc
 50
176.9111716473
 51
185.7268787979
  0
LWPOLYLINE
  5
27B
330
1F
100
AcDbEntity
  8
0
  6
Continuous
 62
     7
370
    15
100
AcDbPolyline
 90
        3
 70
   128
 43
0.0
 10
241.4939304456
 20
34.949437961
 10
241.5498421914
 20
36.3371043907
 10
241.5559192401
 20
36.4122012421
  0
ARC
  5
27C
330
1F
100
AcDbEntity
  8
0
  6
Continuous
 62
     7
370
    15
100
AcDbCircle
 10
253.2120331218
 20
34.6514213258
 30
0.0
 40
11.72189166669088
100
AcDbArc
 50
178.543158738
 51
203.8694730025
  0
LINE
  5
27D
330
1F
100
AcDbEntity
  8
0
  6
Continuous
 62
     7
370
    15
100
AcDbLine
 10
272.5769487067
 20
37.6103399462
 30
0.0
 11
272.5014618901
 21
37.6563781333
 31
0.0
  0
LINE
  5
27E
330
1F
100
AcDbEntity
  8
0
  6
Continuous
 62
     7
370
    15
100
AcDbLine
 10
222.9866308911
 20
71.5631427819
 30
0.0
 11
223.0628422714
 21
71.5366635373
 31
0.0
  0
LINE
  5
27F
330
1F
100
AcDbEntity
  8
0
  6
Continuous
 62
     7
370
    15
100
AcDbLine
 10
238.9975197601
 20
37.040108324
 30
0.0
 11
238.5619839411
 21
37.4290724936
 31
0.0
  0
LINE
  5
280
330
1F
100
AcDbEntity
  8
0
  6
Continuous
 62
     7
370
    15
100
AcDbLine
 10
240.4541429974
 20
36.1992176279
 30
0.0
 11
238.9975197601
 21
37.040108324
 31
0.0
  0
SPLINE
  5
281
330
1F
100
AcDbEntity
  8
0
  6
Continuous
 62
     7
370
    15
100
AcDbSpline
210
0.0
220
0.0
230
1.0
 70
     8
 71
     3
 72
    14
 73
    10
 74
     0
 42
0.000000001
 43
0.00000001
 40
0.0
 40
0.0
 40
0.0
 40
0.0
 40
0.0346032593120861
 40
0.219008394593803
 40
0.3940405773312401
 40
0.5588685247381956
 40
0.7262925664290739
 40
0.9051681690933792
 40
1.0
 40
1.0
 40
1.0
 40
1.0
 10
270.8441277868806
 20
37.7334804659337
 30
0.0
 10
270.8757358983464
 20
37.69594401438317
 30
0.0
 10
271.075787624279
 20
37.45837107598785
 30
0.0
 10
271.2824984979313
 20
36.96655081230995
 30
0.0
 10
271.3610461984179
 20
36.33555494311641
 30
0.0
 10
271.1880247566651
 20
35.79119658754441
 30
0.0
 10
270.8210757548805
 20
35.39328875644566
 30
0.0
 10
270.3874963177266
 20
35.16907050924334
 30
0.0
 10
270.0896699286469
 20
35.20342283248726
 30
0.0
 10
269.9864815665324
 20
35.21532493418253
 30
0.0
  0
LINE
  5
282
330
1F
100
AcDbEntity
  8
0
  6
Continuous
 62
     7
370
    15
100
AcDbLine
 10
242.4927178182
 20
35.8495657719
 30
0.0
 11
242.4927178182
 21
35.7044159347
 31
0.0
  0
LINE
  5
283
330
1F
100
AcDbEntity
  8
0
  6
Continuous
 62
     7
370
    15
100
AcDbLine
 10
242.4927178182
 20
35.0223727373
 30
0.0
 11
242.4927178182
 21
32.5899796127
 31
0.0
  0
LINE
  5
284
330
1F
100
AcDbEntity
  8
0
  6
Continuous
 62
     7
370
    15
100
AcDbLine
 10
242.4927178182
 20
36.0584554223
 30
0.0
 11
242.4927178182
 21
35.8495657719
 31
0.0
  0
LINE
  5
285
330
1F
100
AcDbEntity
  8
0
  6
Continuous
 62
     7
370
    15
100
AcDbLine
 10
242.4927178182
 20
32.5899796127
 30
0.0
 11
242.4927178182
 21
29.7199905701
 31
0.0
  0
LINE
  5
286
330
1F
100
AcDbEntity
  8
0
  6
Continuous
 62
     7
370
    15
100
AcDbLine
 10
242.4199335858
 20
24.5718417773
 30
0.0
 11
244.2477877466
 21
23.5166440308
 31
0.0
  0
SPLINE
  5
287
330
1F
100
AcDbEntity
  8
0
  6
Continuous
 62
     7
370
    15
100
AcDbSpline
210
0.0
220
0.0
230
1.0
 70
     8
 71
     3
 72
    14
 73
    10
 74
     0
 42
0.000000001
 43
0.00000001
 40
0.0
 40
0.0
 40
0.0
 40
0.0
 40
0.25
 40
0.25
 40
0.5
 40
0.5
 40
0.75
 40
0.75
 40
1.0
 40
1.0
 40
1.0
 40
1.0
 10
244.2022801966579
 20
23.39827576149355
 30
0.0
 10
244.1856053535915
 20
23.35490314338696
 30
0.0
 10
244.1653101106755
 20
23.31467281394112
 30
0.0
 10
244.1170131316051
 20
23.24090092626898
 30
0.0
 10
244.0887942838
 20
23.20733131959187
 30
0.0
 10
244.0258689353769
 20
23.15377991392925
 30
0.0
 10
243.9907057593599
 20
23.13332388456959
 30
0.0
 10
243.9160227701514
 20
23.11589159105772
 30
0.0
 10
243.8774978949431
 20
23.11983890004261
 30
0.0
 10
243.8435541922458
 20
23.13943418251243
 30
0.0
  0
LINE
  5
288
330
1F
100
AcDbEntity
  8
0
  6
Continuous
 62
     7
370
    15
100
AcDbLine
 10
243.8435540298
 20
23.1394343061
 30
0.0
 11
242.3880320435
 21
23.9796892635
 31
0.0
  0
SPLINE
  5
289
330
1F
100
AcDbEntity
  8
0
  6
Continuous
 62
     7
370
    15
100
AcDbSpline
210
0.0
220
0.0
230
1.0
 70
     8
 71
     3
 72
     8
 73
     4
 74
     0
 42
0.000000001
 43
0.00000001
 40
0.0
 40
0.0
 40
0.0
 40
0.0
 40
0.0011862984959113
 40
0.0011862984959113
 40
0.0011862984959113
 40
0.0011862984959113
 10
242.388031984684
 20
23.97968926760545
 30
0.0
 10
242.3982451125014
 20
24.1770881694944
 30
0.0
 10
242.4088711190766
 20
24.37447400647119
 30
0.0
 10
242.4199333183342
 20
24.57184150382153
 30
0.0
  0
SPLINE
  5
28A
330
1F
100
AcDbEntity
  8
0
  6
Continuous
 62
     7
370
    15
100
AcDbSpline
210
0.0
220
0.0
230
1.0
 70
     8
 71
     3
 72
     9
 73
     5
 74
     0
 42
0.000000001
 43
0.00000001
 40
0.0
 40
0.0
 40
0.0
 40
0.0
 40
0.4651254005114644
 40
0.9999999999999999
 40
0.9999999999999999
 40
0.9999999999999999
 40
0.9999999999999999
 10
277.0046569010996
 20
42.23714442545538
 30
0.0
 10
277.0018016794324
 20
42.23879587851349
 30
0.0
 10
276.9956630732329
 20
42.24234643295815
 30
0.0
 10
276.9624753517521
 20
42.26151149537533
 30
0.0
 10
276.9447240825171
 20
42.27176240045989
 30
0.0
  0
ARC
  5
28B
330
1F
100
AcDbEntity
  8
0
  6
Continuous
 62
     7
370
    15
100
AcDbCircle
 10
252.7264966473
 20
25.0888208949
 30
0.0
 40
9.04741778156498
100
AcDbArc
 50
197.2420777022
 51
282.0215976859
  0
SPLINE
  5
28C
330
1F
100
AcDbEntity
  8
0
  6
Continuous
 62
     7
370
    15
100
AcDbSpline
210
0.0
220
0.0
230
1.0
 70
     8
 71
     3
 72
     8
 73
     4
 74
     0
 42
0.000000001
 43
0.00000001
 40
0.0
 40
0.0
 40
0.0
 40
0.0
 40
1.0
 40
1.0
 40
1.0
 40
1.0
 10
242.6660516720836
 20
25.06907965840839
 30
0.0
 10
242.5838534912979
 20
24.90335933190492
 30
0.0
 10
242.501819123146
 20
24.73761245656695
 30
0.0
 10
242.4199333183342
 20
24.57184150382153
 30
0.0
  0
LINE
  5
28D
330
1F
100
AcDbEntity
  8
0
  6
Continuous
 62
     7
370
    15
100
AcDbLine
 10
242.7150711731
 20
25.0973782302
 30
0.0
 11
242.6660517541
 21
25.0690799219
 31
0.0
  0
SPLINE
  5
28E
330
1F
100
AcDbEntity
  8
0
  6
Continuous
 62
     7
370
    15
100
AcDbSpline
210
0.0
220
0.0
230
1.0
 70
     8
 71
     3
 72
    12
 73
     8
 74
     0
 42
0.000000001
 43
0.00000001
 40
0.0
 40
0.0
 40
0.0
 40
0.0
 40
0.249999999999997
 40
0.249999999999997
 40
0.499999999999994
 40
0.499999999999994
 40
1.0
 40
1.0
 40
1.0
 40
1.0
 10
242.726853359868
 20
25.43074297036952
 30
0.0
 10
242.7644521444427
 20
25.40903765404523
 30
0.0
 10
242.7946297036891
 20
25.38223578347205
 30
0.0
 10
242.83321943837
 20
25.32461207864207
 30
0.0
 10
242.8420789235598
 20
25.29356395307069
 30
0.0
 10
242.8370314897215
 20
25.20137497666539
 30
0.0
 10
242.7903292026462
 20
25.14082354969053
 30
0.0
 10
242.7150711144479
 20
25.09737798013859
 30
0.0
  0
LINE
  5
28F
330
1F
100
AcDbEntity
  8
0
  6
Continuous
 62
     7
370
    15
100
AcDbLine
 10
241.9419649454
 20
25.8838496364
 30
0.0
 11
242.7268535221
 21
25.4307431057
 31
0.0
  0
SPLINE
  5
290
330
1F
100
AcDbEntity
  8
0
  6
Continuous
 62
     7
370
    15
100
AcDbSpline
210
0.0
220
0.0
230
1.0
 70
     8
 71
     3
 72
    10
 73
     6
 74
     0
 42
0.000000001
 43
0.00000001
 40
0.0
 40
0.0
 40
0.0
 40
0.0
 40
0.5
 40
0.5
 40
1.0
 40
1.0
 40
1.0
 40
1.0
 10
241.3644971623816
 20
25.87704772692928
 30
0.0
 10
241.4406345527201
 20
25.92100090680199
 30
0.0
 10
241.5441423334045
 20
25.94748757298078
 30
0.0
 10
241.7586376254903
 20
25.95131564336811
 30
0.0
 10
241.8660678699085
 20
25.92766385646471
 30
0.0
 10
241.941964832751
 20
25.88384947243113
 30
0.0
  0
LINE
  5
291
330
1F
100
AcDbEntity
  8
0
  6
Continuous
 62
     7
370
    15
100
AcDbLine
 10
241.3154777255
 20
25.8487497129
 30
0.0
 11
241.3644971445
 21
25.8770480211
 31
0.0
  0
SPLINE
  5
292
330
1F
100
AcDbEntity
  8
0
  6
Continuous
 62
     7
370
    15
100
AcDbSpline
210
0.0
220
0.0
230
1.0
 70
     8
 71
     3
 72
     8
 73
     4
 74
     0
 42
0.000000001
 43
0.00000001
 40
0.0
 40
0.0
 40
0.0
 40
0.0
 40
1.0
 40
1.0
 40
1.0
 40
1.0
 10
240.4541426453628
 20
25.70666830386102
 30
0.0
 10
240.7412974717601
 20
25.75393997277304
 30
0.0
 10
241.0284105903453
 20
25.80129740547578
 30
0.0
 10
241.3154777200173
 20
25.84874940519908
 30
0.0
  0
LINE
  5
293
330
1F
100
AcDbEntity
  8
0
  6
Continuous
 62
     7
370
    15
100
AcDbLine
 10
238.9975197601
 20
26.5475592246
 30
0.0
 11
240.4541429974
 21
25.7066685286
 31
0.0
  0
LINE
  5
294
330
1F
100
AcDbEntity
  8
0
  6
Continuous
 62
     7
370
    15
100
AcDbLine
 10
238.9975197601
 20
26.5475592246
 30
0.0
 11
242.1391642873
 21
28.3611920059
 31
0.0
  0
ARC
  5
295
330
1F
100
AcDbEntity
  8
0
  6
Continuous
 62
     7
370
    15
100
AcDbCircle
 10
251.9669598723
 20
26.4428922142
 30
0.0
 40
9.890562528246555
100
AcDbArc
 50
194.4210541018
 51
238.0225374632
  0
ELLIPSE
  5
296
330
1F
100
AcDbEntity
  8
0
  6
Continuous
 62
     7
370
    15
100
AcDbEllipse
 10
241.8462717684
 20
29.3468166502
 30
0.0
 11
-7.507462979106094E-5
 21
1.066811201853401
 31
0.0
210
0.0
220
0.0
230
1.0
 40
0.7174342186
 41
3.534193645557477
 42
5.104989972352388
  0
ARC
  5
297
330
1F
100
AcDbEntity
  8
0
  6
Continuous
 62
     7
370
    15
100
AcDbCircle
 10
251.8256959592
 20
28.736890735
 30
0.0
 40
10.89981861700789
100
AcDbArc
 50
195.3652578774
 51
215.9035762319
  0
ARC
  5
298
330
1F
100
AcDbEntity
  8
0
  6
Continuous
 62
     7
370
    15
100
AcDbCircle
 10
249.2218721951
 20
27.4693660482
 30
0.0
 40
9.37461282062441
100
AcDbArc
 50
193.3832905048
 51
247.5353305273
  0
SPLINE
  5
299
330
1F
100
AcDbEntity
  8
0
  6
Continuous
 62
     7
370
    15
100
AcDbSpline
210
0.0
220
0.0
230
1.0
 70
     8
 71
     3
 72
     8
 73
     4
 74
     0
 42
0.000000001
 43
0.00000001
 40
0.0000000000000004
 40
0.0000000000000004
 40
0.0000000000000004
 40
0.0000000000000004
 40
0.0011862984959128
 40
0.0011862984959128
 40
0.0011862984959128
 40
0.0011862984959128
 10
240.4541426453632
 20
25.70666830386006
 30
0.0
 10
240.3369921763682
 20
25.57054426102528
 30
0.0
 10
240.2195524259311
 20
25.43482068586235
 30
0.0
 10
240.1018415580864
 20
25.29947890836787
 30
0.0
  0
LINE
  5
29A
330
1F
100
AcDbEntity
  8
0
  6
Continuous
 62
     7
370
    15
100
AcDbLine
 10
238.5619839411
 20
26.296077517
 30
0.0
 11
238.9975197601
 21
26.5475592246
 31
0.0
  0
LINE
  5
29B
330
1F
100
AcDbEntity
  8
0
  6
Continuous
 62
     7
370
    15
100
AcDbLine
 10
240.1018417712
 20
25.2994788152
 30
0.0
 11
238.6639970952
 21
26.1295288785
 31
0.0
  0
SPLINE
  5
29C
330
1F
100
AcDbEntity
  8
0
  6
Continuous
 62
     7
370
    15
100
AcDbSpline
210
0.0
220
0.0
230
1.0
 70
     8
 71
     3
 72
    10
 73
     6
 74
     0
 42
0.000000001
 43
0.00000001
 40
0.0
 40
0.0
 40
0.0
 40
0.0
 40
0.5
 40
0.5
 40
1.0
 40
1.0
 40
1.0
 40
1.0
 10
238.6639970200543
 20
26.12952889206311
 30
0.0
 10
238.6375875907736
 20
26.14477473107004
 30
0.0
 10
238.6153041865645
 20
26.1686321534823
 30
0.0
 10
238.581197051743
 20
26.22655824521658
 30
0.0
 10
238.5692970216881
 20
26.26045677669744
 30
0.0
 10
238.5619845297314
 20
26.2960778191518
 30
0.0
  0
ARC
  5
29D
330
1F
100
AcDbEntity
  8
0
  6
Continuous
 62
     7
370
    15
100
AcDbCircle
 10
248.0990089496
 20
28.4369567355
 30
0.0
 40
9.682290367806372
100
AcDbArc
 50
198.3297077333
 51
238.2567644535
  0
ELLIPSE
  5
29E
330
1F
100
AcDbEntity
  8
0
  6
Continuous
 62
     7
370
    15
100
AcDbEllipse
 10
241.7856115966
 20
29.3117868946
 30
0.0
 11
0.3250094736511642
 21
1.213179526238665
 31
0.0
210
0.0
220
0.0
230
1.0
 40
0.5176380889
 41
3.619174351347704
 42
5.189970678142654
  0
SPLINE
  5
29F
330
1F
100
AcDbEntity
  8
0
  6
Continuous
 62
     7
370
    15
100
AcDbSpline
210
0.0
220
0.0
230
1.0
 70
     8
 71
     3
 72
    12
 73
     8
 74
     0
 42
0.000000001
 43
0.00000001
 40
0.0
 40
0.0
 40
0.0
 40
0.0
 40
0.5000000000000003
 40
0.5000000000000003
 40
0.7500000000000001
 40
0.7500000000000001
 40
1.0
 40
1.0
 40
1.0
 40
1.0
 10
268.3194686856068
 20
61.3161101955726
 30
0.0
 10
268.3825285628363
 20
61.35251388782285
 30
0.0
 10
268.4624615160674
 20
61.37934519967445
 30
0.0
 10
268.595440704374
 20
61.39310204118497
 30
0.0
 10
268.6411118734861
 20
61.39298090738604
 30
0.0
 10
268.7287496921236
 20
61.3802065257644
 30
0.0
 10
268.7694936029777
 20
61.36736654010964
 30
0.0
 10
268.8010072853163
 20
61.349174078533
 30
0.0
  0
LINE
  5
2A0
330
1F
100
AcDbEntity
  8
0
  6
Continuous
 62
     7
370
    15
100
AcDbLine
 10
268.8010076096
 20
61.3491744501
 30
0.0
 11
269.4606759238
 21
60.9683560382
 31
0.0
  0
LINE
  5
2A1
330
1F
100
AcDbEntity
  8
0
  6
Continuous
 62
     7
370
    15
100
AcDbLine
 10
271.1305429521
 20
58.8935598216
 30
0.0
 11
272.5250425579
 21
59.199334835
 31
0.0
  0
LINE
  5
2A2
330
1F
100
AcDbEntity
  8
0
  6
Continuous
 62
     7
370
    15
100
AcDbLine
 10
272.5250425579
 20
59.199334835
 30
0.0
 11
273.9805645442
 21
58.3590798777
 31
0.0
  0
SPLINE
  5
2A3
330
1F
100
AcDbEntity
  8
0
  6
Continuous
 62
     7
370
    15
100
AcDbSpline
210
0.0
220
0.0
230
1.0
 70
     8
 71
     3
 72
    12
 73
     8
 74
     0
 42
0.000000001
 43
0.00000001
 40
0.0
 40
0.0
 40
0.0
 40
0.0
 40
0.2499999999999946
 40
0.2499999999999946
 40
0.4999999999999892
 40
0.4999999999999892
 40
1.0
 40
1.0
 40
1.0
 40
1.0
 10
273.9805644575079
 20
58.35907936898221
 30
0.0
 10
274.012220588008
 20
58.3408046738323
 30
0.0
 10
274.0345198650181
 20
58.316980563034
 30
0.0
 10
274.0563404356101
 20
58.26694866058631
 30
0.0
 10
274.0566211979362
 20
58.24055745217241
 30
0.0
 10
274.0332538238155
 20
58.16448222217749
 30
0.0
 10
273.9862154210105
 20
58.11741916722707
 30
0.0
 10
273.9232899265101
 20
58.08109305247511
 30
0.0
  0
LINE
  5
2A4
330
1F
100
AcDbEntity
  8
0
  6
Continuous
 62
     7
370
    15
100
AcDbLine
 10
268.319468917
 20
61.3161105727
 30
0.0
 11
268.2276783493
 21
61.2631210058
 31
0.0
  0
SPLINE
  5
2A5
330
1F
100
AcDbEntity
  8
0
  6
Continuous
 62
     7
370
    15
100
AcDbSpline
210
0.0
220
0.0
230
1.0
 70
     8
 71
     3
 72
    10
 73
     6
 74
     0
 42
0.000000001
 43
0.00000001
 40
0.0
 40
0.0
 40
0.0
 40
0.0
 40
0.4037333664871734
 40
0.8085288965773424
 40
1.0
 40
1.0
 40
1.0
 40
1.0
 10
276.9447240825171
 20
53.00515389976363
 30
0.0
 10
276.9629656581462
 20
53.04391803114561
 30
0.0
 10
276.9994968003294
 20
53.12154827668552
 30
0.0
 10
277.0134326635558
 20
53.22896610746095
 30
0.0
 10
276.9953703979606
 20
53.28225617211229
 30
0.0
 10
276.9895703049662
 20
53.29936849553737
 30
0.0
  0
ARC
  5
2A6
330
1F
100
AcDbEntity
  8
0
  6
Continuous
 62
     7
370
    15
100
AcDbCircle
 10
266.8970116391
 20
50.8882405522
 30
0.0
 40
10.29515235376502
100
AcDbArc
 50
20.4843045116
 51
46.5242575502
  0
LWPOLYLINE
  5
2A7
330
1F
100
AcDbEntity
  8
0
  6
Continuous
 62
     7
370
    15
100
AcDbPolyline
 90
        3
 70
   128
 43
0.0
 10
271.1305426228
 20
59.5745496081
 10
271.1689976708
 20
59.5270855107
 10
271.5553341235
 20
59.0121185429
  0
LINE
  5
2A8
330
1F
100
AcDbEntity
  8
0
  6
Continuous
 62
     7
370
    15
100
AcDbLine
 10
276.8404422426
 20
42.3319829757
 30
0.0
 11
274.9760388617
 21
43.4082801378
 31
0.0
  0
LINE
  5
2A9
330
1F
100
AcDbEntity
  8
0
  6
Continuous
 62
     7
370
    15
100
AcDbLine
 10
274.1679523961
 20
43.2547400699
 30
0.0
 11
274.2169718151
 21
43.2830383782
 31
0.0
  0
SPLINE
  5
2AA
330
1F
100
AcDbEntity
  8
0
  6
Continuous
 62
     7
370
    15
100
AcDbSpline
210
0.0
220
0.0
230
1.0
 70
     8
 71
     3
 72
    10
 73
     6
 74
     0
 42
0.000000001
 43
0.00000001
 40
0.0
 40
0.0
 40
0.0
 40
0.0
 40
0.348286225286859
 40
0.7262043038763673
 40
0.9999999999999999
 40
0.9999999999999999
 40
0.9999999999999999
 40
0.9999999999999999
 10
273.8352270639705
 20
43.18356755888741
 30
0.0
 10
273.8778747236465
 20
43.18365518226211
 30
0.0
 10
273.9667984644046
 20
43.183837883923
 30
0.0
 10
274.0827554191329
 20
43.21206105792296
 30
0.0
 10
274.142748369174
 20
43.24211423499742
 30
0.0
 10
274.1679523960894
 20
43.25474006992234
 30
0.0
  0
SPLINE
  5
2AB
330
1F
100
AcDbEntity
  8
0
  6
Continuous
 62
     7
370
    15
100
AcDbSpline
210
0.0
220
0.0
230
1.0
 70
     8
 71
     3
 72
     8
 73
     4
 74
     0
 42
0.000000001
 43
0.00000001
 40
0.0
 40
0.0
 40
0.0
 40
0.0
 40
1.0
 40
1.0
 40
1.0
 40
1.0
 10
274.2169719828438
 20
43.28303825880037
 30
0.0
 10
274.4699579365247
 20
43.3248566634982
 30
0.0
 10
274.7229811988719
 20
43.36660186807357
 30
0.0
 10
274.9760386878767
 20
43.40827991947068
 30
0.0
  0
ARC
  5
2AC
330
1F
100
AcDbEntity
  8
0
  6
Continuous
 62
     7
370
    15
100
AcDbCircle
 10
253.7018229131
 20
52.5731296442
 30
0.0
 40
1.562487995952101
100
AcDbArc
 50
79.6969630873
 51
142.7113318612
  0
ARC
  5
2AD
330
1F
100
AcDbEntity
  8
0
  6
Continuous
 62
     7
370
    15
100
AcDbCircle
 10
253.6695844808
 20
52.6572071439
 30
0.0
 40
1.467909010258939
100
AcDbArc
 50
78.3821019919
 51
144.2937504163
  0
ARC
  5
2AE
330
1F
100
AcDbEntity
  8
0
  6
Continuous
 62
     7
370
    15
100
AcDbCircle
 10
253.639269012
 20
52.7358005666
 30
0.0
 40
1.24954724518532
100
AcDbArc
 50
80.705870252
 51
142.2259793291
  0
LWPOLYLINE
  5
2AF
330
1F
100
AcDbEntity
  8
0
  6
Continuous
 62
     7
370
     0
100
AcDbPolyline
 90
        7
 70
   128
 43
0.0
 10
268.8089628272
 20
36.4299351501
 10
268.8349727011
 20
36.3624433247
 10
268.9524860173
 20
35.899326557
 10
268.9524860173
 20
35.4814046693
 10
268.8349727011
 20
35.1539658885
 10
268.6126823195
 20
34.9524923267
 10
268.4840106252
 20
34.9092078233
  0
LWPOLYLINE
  5
2B0
330
1F
100
AcDbEntity
  8
0
  6
Continuous
 62
     7
370
     0
100
AcDbPolyline
 90
        8
 70
   128
 43
0.0
 10
268.6689355207
 20
36.3054612038
 10
268.7262907961
 20
36.123927292
 10
268.7864145925
 20
35.6954707213
 10
268.7262907961
 20
35.3364316085
 10
268.5531712987
 20
35.0901153359
 10
268.2879385469
 20
34.986230324
 10
267.9625819985
 20
35.0373074638
 10
267.7082139139
 20
35.1704906484
  0
LWPOLYLINE
  5
2B1
330
1F
100
AcDbEntity
  8
0
  6
Continuous
 62
     7
370
     0
100
AcDbPolyline
 90
       22
 70
   128
 43
0.0
 10
243.8435540298
 20
34.4095300955
 10
244.2922902088
 20
36.1929502767
 10
244.8463092154
 20
37.9902515743
 10
245.5019824693
 20
39.789660462
 10
246.2550136262
 20
41.5793901682
 10
247.1004715048
 20
43.3477170992
 10
248.0328164287
 20
45.083058404
 10
249.0459423732
 20
46.7740457355
 10
250.1332125267
 20
48.4096020532
 10
251.2875047305
 20
49.9790150047
 10
252.5012575765
 20
51.4720046016
 10
253.7665204568
 20
52.8787901359
 10
255.0750055887
 20
54.1901551949
 10
256.4181413571
 20
55.397511915
 10
257.7871301011
 20
56.4929495509
 10
259.1730040086
 20
57.4692941194
 10
260.566685023
 20
58.3201505871
 10
261.9590438035
 20
59.0399429919
 10
263.3409597761
 20
59.6239582344
 10
264.7033810204
 20
60.0683715249
 10
266.0373824472
 20
60.3702693218
 10
266.0987752589
 20
60.3808374174
  0
LINE
  5
2B2
330
1F
100
AcDbEntity
  8
0
  6
Continuous
 62
     7
370
     0
100
AcDbLine
 10
244.2022796869
 20
34.0750192659
 30
0.0
 11
244.337547363
 21
34.6782692373
 31
0.0
  0
LWPOLYLINE
  5
2B3
330
1F
100
AcDbEntity
  8
0
  6
Continuous
 62
     7
370
     0
100
AcDbPolyline
 90
       11
 70
   128
 43
0.0
 10
258.8194697401
 20
56.7178868466
 10
259.4260785471
 20
57.1281725183
 10
260.8180691806
 20
57.9747785968
 10
262.2084449807
 20
58.6888680367
 10
263.5878935518
 20
59.2656550259
 10
264.9471755144
 20
59.701281082
 10
266.2771868199
 20
59.9928236498
 10
267.5690193369
 20
60.1383341186
 10
268.8140201198
 20
60.1368340143
 10
270.0038513365
 20
59.9883374274
 10
271.1305432814
 20
59.6938359887
  0
LWPOLYLINE
  5
2B4
330
1F
100
AcDbEntity
  8
0
  6
Continuous
 62
     7
370
     0
100
AcDbPolyline
 90
        3
 70
   128
 43
0.0
 10
276.9447240825
 20
42.2717624005
 10
276.5154413083
 20
40.5135208412
 10
276.3568255952
 20
39.9503650445
  0
LWPOLYLINE
  5
2B5
330
1F
100
AcDbEntity
  8
0
  6
Continuous
 62
     7
370
     0
100
AcDbPolyline
 90
       22
 70
   128
 43
0.0
 10
266.9433612246
 20
23.643998451
 10
265.9772385651
 20
22.6749302916
 10
264.655172599
 20
21.4685687514
 10
263.3064097324
 20
20.3716649463
 10
261.9397797302
 20
19.3913998594
 10
260.5642284925
 20
18.5341910916
 10
259.1887607561
 20
17.8056506587
 10
257.8223803422
 20
17.2105459342
 10
256.4740320295
 20
16.7527736975
 10
255.1525422898
 20
16.4353289639
 10
253.8665619286
 20
16.2602931643
 10
252.624508791
 20
16.2288086746
 10
251.4345142552
 20
16.3410829085
 10
250.3043675858
 20
16.5963820488
 10
249.2414675303
 20
16.9930335238
 10
248.2527709529
 20
17.5284404602
 10
247.344751346
 20
18.1990987981
 10
246.5233514154
 20
19.0006178276
 10
245.7939488354
 20
19.9277506107
 10
245.1613193709
 20
20.9744297262
 10
244.6296026327
 20
22.1338007337
 10
244.2022796869
 20
23.3982754078
  0
ARC
  5
2B6
330
1F
100
AcDbEntity
  8
0
  6
Continuous
 62
     7
370
     0
100
AcDbCircle
 10
266.7645846798
 20
50.3826826053
 30
0.0
 40
10.51249703684853
100
AcDbArc
 50
14.4456939373
 51
47.0804331381
  0
LWPOLYLINE
  5
2B7
330
1F
100
AcDbEntity
  8
0
  6
Continuous
 62
     7
370
     0
100
AcDbPolyline
 90
       26
 70
   128
 43
0.0
 10
252.4452463904
 20
33.495210726
 10
252.5023224429
 20
34.6387710249
 10
252.6727484933
 20
35.8321764449
 10
252.9541327077
 20
37.0586742129
 10
253.3425251364
 20
38.3010474394
 10
253.8324730307
 20
39.5418552296
 10
254.4170992104
 20
40.7636798262
 10
255.0881962352
 20
41.9493693786
 10
255.8363439553
 20
43.082279569
 10
256.6510395736
 20
44.1465064914
 10
257.5208468061
 20
45.1271111651
 10
258.4335552498
 20
46.0103275058
 10
259.3763526745
 20
46.7837576058
 10
260.3360042287
 20
47.4365436297
 10
261.2990384791
 20
47.9595223606
 10
262.2519364125
 20
48.3453525602
 10
263.1813216727
 20
48.5886171855
 10
264.0741476699
 20
48.6859025071
 10
264.9178808205
 20
48.6358415333
 10
265.7006772013
 20
48.4391376628
 10
266.4115483388
 20
48.098552407
 10
267.0405143202
 20
47.6188660216
 10
267.5787466978
 20
47.0068132339
 10
268.018689332
 20
46.2709853218
 10
268.3541670509
 20
45.4217122324
 10
268.4162526515
 20
45.2107306165
  0
LWPOLYLINE
  5
2B8
330
1F
100
AcDbEntity
  8
0
  6
Continuous
 62
     7
370
     0
100
AcDbPolyline
 90
       12
 70
   128
 43
0.0
 10
258.4170656246
 20
27.8897533096
 10
257.5208468061
 20
27.7234737896
 10
256.6510395736
 20
27.6998204089
 10
255.8363439553
 20
27.8234197923
 10
255.0881962352
 20
28.0925370114
 10
254.4170992104
 20
28.5033944317
 10
253.8324730307
 20
29.0502240089
 10
253.3425251364
 20
29.7253500012
 10
252.9541327077
 20
30.5192948747
 10
252.6727484933
 20
31.4209133439
 10
252.5023224429
 20
32.4175490345
 10
252.4452463904
 20
33.495210726
  0
LWPOLYLINE
  5
2B9
330
1F
100
AcDbEntity
  8
0
  6
Continuous
 62
     7
370
     0
100
AcDbPolyline
 90
       22
 70
   128
 43
0.0
 10
238.6639970952
 20
37.3996246679
 10
239.1127332742
 20
39.1830448491
 10
239.6667522808
 20
40.9803461467
 10
240.3224255347
 20
42.7797550344
 10
241.0754566916
 20
44.5694847406
 10
241.9209145702
 20
46.3378116716
 10
242.8532594941
 20
48.0731529764
 10
243.8663854386
 20
49.7641403078
 10
244.9536555922
 20
51.3996966256
 10
246.1079477959
 20
52.9691095771
 10
247.3217006419
 20
54.462099174
 10
248.5869635222
 20
55.8688847083
 10
249.8954486541
 20
57.1802497673
 10
251.2385844225
 20
58.3876064874
 10
252.6075731665
 20
59.4830441233
 10
253.993447074
 20
60.4593886917
 10
255.3871280884
 20
61.3102451595
 10
256.7794868689
 20
62.0300375643
 10
258.1614028416
 20
62.6140528068
 10
259.5238240858
 20
63.0584660973
 10
260.8578255126
 20
63.3603638941
 10
260.9194395953
 20
63.3709684712
  0
LWPOLYLINE
  5
2BA
330
1F
100
AcDbEntity
  8
0
  6
Continuous
 62
     7
370
     0
100
AcDbPolyline
 90
       20
 70
   128
 43
0.0
 10
241.9419649454
 20
36.3763987357
 10
242.3736869685
 20
38.0907450074
 10
242.909520927
 20
39.8186116656
 10
243.5457486787
 20
41.5480065596
 10
244.277952707
 20
43.2669254366
 10
245.1010516825
 20
44.9634378711
 10
246.009332073
 20
46.6257686313
 10
246.9964916075
 20
48.2423813261
 10
248.0556768134
 20
49.8020540675
 10
249.1795363584
 20
51.2939619758
 10
250.3602710998
 20
52.7077486584
 10
251.5896841342
 20
54.0336037725
 10
252.8592436881
 20
55.262323666
 10
254.1601374483
 20
56.3853807645
 10
255.4833362755
 20
57.394978604
 10
256.819656314
 20
58.2841120205
 10
258.1598223347
 20
59.0466082803
 10
259.49453252
 20
59.6771751254
 10
260.8145232477
 20
60.1714351314
 10
261.9578414658
 20
60.4911621923
  0
LINE
  5
2BB
330
1F
100
AcDbEntity
  8
0
  6
Continuous
 62
     7
370
     0
100
AcDbLine
 10
253.162491251
 20
54.3590454837
 30
0.0
 11
253.5212221764
 21
54.6961497376
 31
0.0
  0
LWPOLYLINE
  5
2BC
330
1F
100
AcDbEntity
  8
0
  6
Continuous
 62
     7
370
     0
100
AcDbPolyline
 90
       23
 70
   128
 43
0.0
 10
241.3644971445
 20
36.3695971205
 10
241.794849395
 20
38.1042311497
 10
242.3303277395
 20
39.8532828165
 10
242.9672495971
 20
41.6047303087
 10
243.7012395981
 20
43.3465374302
 10
244.5272532916
 20
45.066734208
 10
245.4396127068
 20
46.7534959768
 10
246.4320471828
 20
48.3952331101
 10
247.4977368329
 20
49.9806594577
 10
248.6293573249
 20
51.4988805549
 10
249.8191319067
 20
52.9394616795
 10
251.0588827728
 20
54.2925031324
 10
252.3400903327
 20
55.5487048717
 10
253.6539488586
 20
56.699433618
 10
254.9914285528
 20
57.7367814996
 10
256.343337451
 20
58.6536185186
 10
257.7003843547
 20
59.4436440899
 10
259.053242833
 20
60.1014270307
 10
260.3926148549
 20
60.6224483787
 10
261.7092959025
 20
61.0031268133
 10
262.9942360927
 20
61.2408463359
 10
264.2386053314
 20
61.3339725895
 10
265.2039604573
 20
61.3035091194
  0
LWPOLYLINE
  5
2BD
330
1F
100
AcDbEntity
  8
0
  6
Continuous
 62
     7
370
     0
100
AcDbPolyline
 90
        8
 70
   128
 43
0.0
 10
254.5665670817
 20
33.495210726
 10
254.6223247281
 20
32.5040019068
 10
254.7887171933
 20
31.5928008931
 10
255.0631221531
 20
30.7759786836
 10
255.4412109944
 20
30.06641669
 10
255.9170205966
 20
29.4753045425
 10
256.4830481623
 20
29.0119652696
 10
256.6380412221
 20
28.9167628256
  0
LWPOLYLINE
  5
2BE
330
1F
100
AcDbEntity
  8
0
  6
Continuous
 62
     7
370
     0
100
AcDbPolyline
 90
       20
 70
   128
 43
0.0
 10
266.637228249
 20
46.2377395621
 10
266.144903009
 20
46.4707969116
 10
265.4265024028
 20
46.6587999872
 10
264.6483490901
 20
46.7035813776
 10
263.8227148829
 20
46.6044360278
 10
262.962620688
 20
46.3629255624
 10
262.0816307523
 20
45.9828598872
 10
261.1936387187
 20
45.4702329977
 10
260.3126487831
 20
44.8331293443
 10
259.4525545882
 20
44.0815961898
 10
258.626920381
 20
43.2274845746
 10
257.8487670682
 20
42.2842664931
 10
257.1303664621
 20
41.2668157329
 10
256.4830481623
 20
40.1911781389
 10
255.9170205966
 20
39.0743173493
 10
255.4412109944
 20
37.9338471284
 10
255.0631221531
 20
36.7877530505
 10
254.7887171933
 20
35.6541096181
 10
254.6223247281
 20
34.5507959534
 10
254.5665670817
 20
33.495210726
  0
LWPOLYLINE
  5
2BF
330
1F
100
AcDbEntity
  8
0
  6
Continuous
 62
     7
370
     0
100
AcDbPolyline
 90
       39
 70
   128
 43
0.0
 10
270.1052382147
 20
37.5882526684
 10
269.4069224752
 20
37.1183043602
 10
268.7276550533
 20
36.5275360555
 10
268.085964428
 20
35.8320630761
 10
267.499354383
 20
35.0508556177
 10
266.9838261504
 20
34.2052233433
 10
266.5534416312
 20
33.3182322446
 10
266.2199411922
 20
32.4140777231
 10
265.9924213087
 20
31.5174226381
 10
265.8770884334
 20
30.6527252701
 10
265.8770884334
 20
29.8435724115
 10
265.9924213087
 20
29.112035547
 10
266.2199411922
 20
28.478069328
 10
266.5534416312
 20
27.9589662174
 10
266.9838261504
 20
27.5688865074
 10
267.499354383
 20
27.3184704608
 10
268.085964428
 20
27.214548544
 10
268.7276550533
 20
27.2599557905
 10
269.4069224752
 20
27.4534529576
 10
270.1052382147
 20
27.7897628406
 10
270.8035539542
 20
28.2597111488
 10
271.4828213762
 20
28.8504794535
 10
272.1245120015
 20
29.5459524328
 10
272.7111220465
 20
30.3271598913
 10
273.2266502791
 20
31.1727921656
 10
273.6570347983
 20
32.0597832644
 10
273.9905352373
 20
32.9639377858
 10
274.2180551208
 20
33.8605928709
 10
274.3333879961
 20
34.7252902388
 10
274.3333879961
 20
35.5344430974
 10
274.2180551208
 20
36.2659799619
 10
273.9905352373
 20
36.8999461809
 10
273.6570347983
 20
37.4190492916
 10
273.2266502791
 20
37.8091290015
 10
272.7111220465
 20
38.0595450481
 10
272.1245120015
 20
38.163466965
 10
271.4828213762
 20
38.1180597184
 10
270.8035539542
 20
37.9245625513
 10
270.1052382147
 20
37.5882526684
  0
LINE
  5
2C0
330
1F
100
AcDbEntity
  8
0
  6
Continuous
 62
     7
370
     0
100
AcDbLine
 10
242.4131692636
 20
34.4187726869
 30
0.0
 11
242.4254339965
 21
35.0612160999
 31
0.0
  0
LWPOLYLINE
  5
2C1
330
1F
100
AcDbEntity
  8
0
  6
Continuous
 62
     7
370
     0
100
AcDbPolyline
 90
        3
 70
   128
 43
0.0
 10
242.4484013948
 20
35.5154967002
 10
242.4690810094
 20
35.8064391166
 10
242.492718806
 20
36.0806228397
  0
LINE
  5
2C2
330
1F
100
AcDbEntity
  8
0
  6
Continuous
 62
     7
370
     0
100
AcDbLine
 10
242.4136210251
 20
34.2970937696
 30
0.0
 11
242.4131692636
 21
34.4187726869
 31
0.0
  0
LWPOLYLINE
  5
2C3
330
1F
100
AcDbEntity
  8
0
  6
Continuous
 62
     7
370
     0
100
AcDbPolyline
 90
       21
 70
   128
 43
0.0
 10
266.9998651665
 20
28.131022309
 10
267.0606748371
 20
28.0973357016
 10
267.5738945419
 20
27.9150818716
 10
268.149765537
 20
27.8760367171
 10
268.7717207359
 20
27.981323808
 10
269.4218677724
 20
28.2279141648
 10
270.0815030771
 20
28.6087135206
 10
270.7316501136
 20
29.1127669543
 10
271.3536053125
 20
29.7255740509
 10
271.9294763076
 20
30.4295057039
 10
272.4426960124
 20
31.2043103922
 10
272.8785005175
 20
32.0276990031
 10
273.2243519587
 20
32.8759836285
 10
273.4703012103
 20
33.7247610924
 10
273.60927287
 20
34.5496135
 10
273.6372685849
 20
35.326811208
 10
273.5534829549
 20
36.0339956252
 10
273.3603269117
 20
36.6508227292
 10
273.0633565951
 20
37.1595470367
 10
272.6711156323
 20
37.5455339684
 10
272.5769487067
 20
37.6103399462
  0
LWPOLYLINE
  5
2C4
330
1F
100
AcDbEntity
  8
0
  6
Continuous
 62
     7
370
     0
100
AcDbPolyline
 90
       19
 70
   128
 43
0.0
 10
211.3282152931
 20
58.3100791863
 10
211.3849706345
 20
59.3845545985
 10
211.5543416965
 20
60.5076132126
 10
211.8336567641
 20
61.661543433
 10
212.2185114917
 20
62.8281475108
 10
212.7028360744
 20
63.9890269963
 10
213.2789930425
 20
65.1258746519
 10
213.9378954694
 20
66.2207609463
 10
214.6691521814
 20
67.256419784
 10
215.4612310764
 20
68.2165180746
 10
216.3016403881
 20
69.0859136075
 10
217.1771262499
 20
69.85089572
 10
218.0738820292
 20
70.4994012014
 10
218.9777651533
 20
71.0212018222
 10
219.8745209326
 20
71.408068525
 10
220.7500067944
 20
71.6539008727
 10
221.5904161062
 20
71.7548212774
 10
222.3824950011
 20
71.7092378129
 10
222.9866308911
 20
71.5631427819
  0
ARC
  5
2C5
330
1F
100
AcDbEntity
  8
0
  6
Continuous
 62
     7
370
     0
100
AcDbCircle
 10
216.7489630623
 20
57.8796511382
 30
0.0
 40
5.437809732037649
100
AcDbArc
 50
175.4600220549
 51
225.5211364412
  0
LINE
  5
2C6
330
1F
100
AcDbEntity
  8
0
  6
Continuous
 62
     7
370
     0
100
AcDbLine
 10
248.0965391709
 20
35.4144894688
 30
0.0
 11
247.3893176871
 21
35.8227597412
 31
0.0
  0
LINE
  5
2C7
330
1F
100
AcDbEntity
  8
0
  6
Continuous
 62
     7
370
     0
100
AcDbLine
 10
242.5533779992
 20
29.755020331
 30
0.0
 11
248.0965391709
 21
26.5550215005
 31
0.0
  0
LINE
  5
2C8
330
1F
100
AcDbEntity
  8
0
  6
Continuous
 62
     7
370
     0
100
AcDbLine
 10
242.4927178182
 20
29.7199905701
 30
0.0
 11
242.5533779992
 21
29.755020331
 31
0.0
  0
LINE
  5
2C9
330
1F
100
AcDbEntity
  8
0
  6
Continuous
 62
     7
370
     0
100
AcDbLine
 10
244.0856613327
 20
22.4070801207
 30
0.0
 11
243.8435540298
 21
23.1394343061
 31
0.0
  0
LINE
  5
2CA
330
1F
100
AcDbEntity
  8
0
  6
Continuous
 62
     7
370
     0
100
AcDbLine
 10
247.3894322738
 20
25.3302768122
 30
0.0
 11
242.1391642873
 21
28.3611920059
 31
0.0
  0
LINE
  5
2CB
330
1F
100
AcDbEntity
  8
0
  6
Continuous
 62
     7
370
     0
100
AcDbLine
 10
242.8034541022
 20
25.183356579
 30
0.0
 11
242.7268535221
 21
25.4307431057
 31
0.0
  0
LWPOLYLINE
  5
2CC
330
1F
100
AcDbEntity
  8
0
  6
Continuous
 62
     7
370
     0
100
AcDbPolyline
 90
        3
 70
   128
 43
0.0
 10
242.4129349041
 20
24.5747963344
 10
242.3870751783
 20
24.6359202053
 10
241.9419649454
 20
25.8838496364
  0
ARC
  5
2CD
330
1F
100
AcDbEntity
  8
0
  6
Continuous
 62
     7
370
     0
100
AcDbCircle
 10
252.1494253675
 20
28.9063522074
 30
0.0
 40
11.20229265050768
100
AcDbArc
 50
195.6891556714
 51
214.1128344446
  0
LINE
  5
2CE
330
1F
100
AcDbEntity
  8
0
  6
Continuous
 62
     7
370
     0
100
AcDbLine
 10
238.9079733474
 20
25.3920246631
 30
0.0
 11
238.6639970952
 21
26.1295288785
 31
0.0
  0
OLE2FRAME
  5
2CF
330
1F
100
AcDbEntity
  8
0
100
AcDbOle2Frame
 70
     2
  3
Paintbrush-Bild
 10
13.8511154363
 20
38.264191557
 30
0.0
 11
51.6290888628
 21
31.9806341108
 31
0.0
 71
     2
 72
     0
 73
     1
 90
    12928
310
80552BED0767C5B32B40DDAF6807D121434000000000000000006FFBDDFB85D0
310
4940DDAF6807D121434000000000000000006FFBDDFB85D04940416F4BD60AFB
310
3F4000000000000000002BED0767C5B32B40416F4BD60AFB3F40000000000000
310
0000000000000100000000010000010000000100000000000100000000320000
310
D0CF11E0A1B11AE1000000000000000000000000000000003E000300FEFF0900
310
0600000000000000000000000100000001000000000000000010000002000000
310
01000000FEFFFFFF0000000000000000FFFFFFFFFFFFFFFFFFFFFFFFFFFFFFFF
310
FFFFFFFFFFFFFFFFFFFFFFFFFFFFFFFFFFFFFFFFFFFFFFFFFFFFFFFFFFFFFFFF
310
FFFFFFFFFFFFFFFFFFFFFFFFFFFFFFFFFFFFFFFFFFFFFFFFFFFFFFFFFFFFFFFF
310
FFFFFFFFFFFFFFFFFFFFFFFFFFFFFFFFFFFFFFFFFFFFFFFFFFFFFFFFFFFFFFFF
310
FFFFFFFFFFFFFFFFFFFFFFFFFFFFFFFFFFFFFFFFFFFFFFFFFFFFFFFFFFFFFFFF
310
FFFFFFFFFFFFFFFFFFFFFFFFFFFFFFFFFFFFFFFFFFFFFFFFFFFFFFFFFFFFFFFF
310
FFFFFFFFFFFFFFFFFFFFFFFFFFFFFFFFFFFFFFFFFFFFFFFFFFFFFFFFFFFFFFFF
310
FFFFFFFFFFFFFFFFFFFFFFFFFFFFFFFFFFFFFFFFFFFFFFFFFFFFFFFFFFFFFFFF
310
FFFFFFFFFFFFFFFFFFFFFFFFFFFFFFFFFFFFFFFFFFFFFFFFFFFFFFFFFFFFFFFF
310
FFFFFFFFFFFFFFFFFFFFFFFFFFFFFFFFFFFFFFFFFFFFFFFFFFFFFFFFFFFFFFFF
310
FFFFFFFFFFFFFFFFFFFFFFFFFFFFFFFFFFFFFFFFFFFFFFFFFFFFFFFFFFFFFFFF
310
FFFFFFFFFFFFFFFFFFFFFFFFFFFFFFFFFFFFFFFFFFFFFFFFFFFFFFFFFFFFFFFF
310
FFFFFFFFFFFFFFFFFFFFFFFFFFFFFFFFFFFFFFFFFFFFFFFFFFFFFFFFFFFFFFFF
310
FFFFFFFFFFFFFFFFFFFFFFFFFFFFFFFFFFFFFFFFFFFFFFFFFFFFFFFFFFFFFFFF
310
FDFFFFFFFEFFFFFFFEFFFFFFFEFFFFFF05000000060000000700000008000000
310
090000000A0000000B0000000C0000000D0000000E0000000F00000010000000
310
11000000120000001300000014000000150000001600000017000000FEFFFFFF
310
FFFFFFFFFFFFFFFFFFFFFFFFFFFFFFFFFFFFFFFFFFFFFFFFFFFFFFFFFFFFFFFF
310
FFFFFFFFFFFFFFFFFFFFFFFFFFFFFFFFFFFFFFFFFFFFFFFFFFFFFFFFFFFFFFFF
310
FFFFFFFFFFFFFFFFFFFFFFFFFFFFFFFFFFFFFFFFFFFFFFFFFFFFFFFFFFFFFFFF
310
FFFFFFFFFFFFFFFFFFFFFFFFFFFFFFFFFFFFFFFFFFFFFFFFFFFFFFFFFFFFFFFF
310
FFFFFFFFFFFFFFFFFFFFFFFFFFFFFFFFFFFFFFFFFFFFFFFFFFFFFFFFFFFFFFFF
310
FFFFFFFFFFFFFFFFFFFFFFFFFFFFFFFFFFFFFFFFFFFFFFFFFFFFFFFFFFFFFFFF
310
FFFFFFFFFFFFFFFFFFFFFFFFFFFFFFFFFFFFFFFFFFFFFFFFFFFFFFFFFFFFFFFF
310
FFFFFFFFFFFFFFFFFFFFFFFFFFFFFFFFFFFFFFFFFFFFFFFFFFFFFFFFFFFFFFFF
310
FFFFFFFFFFFFFFFFFFFFFFFFFFFFFFFFFFFFFFFFFFFFFFFFFFFFFFFFFFFFFFFF
310
FFFFFFFFFFFFFFFFFFFFFFFFFFFFFFFFFFFFFFFFFFFFFFFFFFFFFFFFFFFFFFFF
310
FFFFFFFFFFFFFFFFFFFFFFFFFFFFFFFFFFFFFFFFFFFFFFFFFFFFFFFFFFFFFFFF
310
FFFFFFFFFFFFFFFFFFFFFFFFFFFFFFFFFFFFFFFFFFFFFFFFFFFFFFFFFFFFFFFF
310
FFFFFFFFFFFFFFFFFFFFFFFFFFFFFFFFFFFFFFFFFFFFFFFFFFFFFFFFFFFFFFFF
310
52006F006F007400200045006E00740072007900000000000000000000000000
310
0000000000000000000000000000000000000000000000000000000000000000
310
16000500FFFFFFFFFFFFFFFF020000000A00030000000000C000000000000046
310
00000000000000000000000070ACFE049224D20103000000C000000000000000
310
01004F006C006500000000000000000000000000000000000000000000000000
310
0000000000000000000000000000000000000000000000000000000000000000
310
0A000200FFFFFFFFFFFFFFFFFFFFFFFF00000000000000000000000000000000
310
0000000000000000000000000000000000000000000000001400000000000000
310
010043006F006D0070004F0062006A0000000000000000000000000000000000
310
0000000000000000000000000000000000000000000000000000000000000000
310
120002010100000003000000FFFFFFFF00000000000000000000000000000000
310
0000000000000000000000000000000000000000010000004D00000000000000
310
01004F006C006500310030004E00610074006900760065000000000000000000
310
0000000000000000000000000000000000000000000000000000000000000000
310
1A000200FFFFFFFFFFFFFFFFFFFFFFFF00000000000000000000000000000000
310
0000000000000000000000000000000000000000040000002426000000000000
310
FEFFFFFF02000000FEFFFFFFFFFFFFFFFFFFFFFFFFFFFFFFFFFFFFFFFFFFFFFF
310
FFFFFFFFFFFFFFFFFFFFFFFFFFFFFFFFFFFFFFFFFFFFFFFFFFFFFFFFFFFFFFFF
310
FFFFFFFFFFFFFFFFFFFFFFFFFFFFFFFFFFFFFFFFFFFFFFFFFFFFFFFFFFFFFFFF
310
FFFFFFFFFFFFFFFFFFFFFFFFFFFFFFFFFFFFFFFFFFFFFFFFFFFFFFFFFFFFFFFF
310
FFFFFFFFFFFFFFFFFFFFFFFFFFFFFFFFFFFFFFFFFFFFFFFFFFFFFFFFFFFFFFFF
310
FFFFFFFFFFFFFFFFFFFFFFFFFFFFFFFFFFFFFFFFFFFFFFFFFFFFFFFFFFFFFFFF
310
FFFFFFFFFFFFFFFFFFFFFFFFFFFFFFFFFFFFFFFFFFFFFFFFFFFFFFFFFFFFFFFF
310
FFFFFFFFFFFFFFFFFFFFFFFFFFFFFFFFFFFFFFFFFFFFFFFFFFFFFFFFFFFFFFFF
310
FFFFFFFFFFFFFFFFFFFFFFFFFFFFFFFFFFFFFFFFFFFFFFFFFFFFFFFFFFFFFFFF
310
FFFFFFFFFFFFFFFFFFFFFFFFFFFFFFFFFFFFFFFFFFFFFFFFFFFFFFFFFFFFFFFF
310
FFFFFFFFFFFFFFFFFFFFFFFFFFFFFFFFFFFFFFFFFFFFFFFFFFFFFFFFFFFFFFFF
310
FFFFFFFFFFFFFFFFFFFFFFFFFFFFFFFFFFFFFFFFFFFFFFFFFFFFFFFFFFFFFFFF
310
FFFFFFFFFFFFFFFFFFFFFFFFFFFFFFFFFFFFFFFFFFFFFFFFFFFFFFFFFFFFFFFF
310
FFFFFFFFFFFFFFFFFFFFFFFFFFFFFFFFFFFFFFFFFFFFFFFFFFFFFFFFFFFFFFFF
310
FFFFFFFFFFFFFFFFFFFFFFFFFFFFFFFFFFFFFFFFFFFFFFFFFFFFFFFFFFFFFFFF
310
FFFFFFFFFFFFFFFFFFFFFFFFFFFFFFFFFFFFFFFFFFFFFFFFFFFFFFFFFFFFFFFF
310
0100000200000000000000000000000000000000000000000000000000000000
310
0000000000000000000000000000000000000000000000000000000000000000
310
0100FEFF030A0000FFFFFFFF0A00030000000000C00000000000004607000000
310
5042727573680007000000504272757368000700000050427275736800F439B2
310
7100000000000000000000000000000000000000000000000000000000000000
310
0000000000000000000000000000000000000000000000000000000000000000
310
0000000000000000000000000000000000000000000000000000000000000000
310
0000000000000000000000000000000000000000000000000000000000000000
310
0000000000000000000000000000000000000000000000000000000000000000
310
0000000000000000000000000000000000000000000000000000000000000000
310
0000000000000000000000000000000000000000000000000000000000000000
310
0000000000000000000000000000000000000000000000000000000000000000
310
0000000000000000000000000000000000000000000000000000000000000000
310
0000000000000000000000000000000000000000000000000000000000000000
310
0000000000000000000000000000000000000000000000000000000000000000
310
0000000000000000000000000000000000000000000000000000000000000000
310
20260000424D0E260000000000003E00000028000000B40200006E0000000100
310
01000000000000000000130B0000130B00000200000002000000000000FFFFFF
310
FFFFFFFFFFFFFFFFFFFFFFFFFFFFFFFFFFFFFFFFFFFFFFFFFFFFFFFFFFFFFFFF
310
FFFFFFFFFFFFFFFFFFFFFFFFFFFFFFFFFFFFFFFFFFFFFFFFFFFFFFFFFFFFFFFF
310
FFFFFFFFFFFFFFFFFFFFFFFFFFFFFFFFFFFFFFFFFFFFFFFFF000FFFFFFFFFFFF
310
FFFFFFFFFFFFFFFFFFFFFFFFFFFFFFFFFFFFFFFFFFFFFFFFFFFFFFFFFFFFFFFF
310
FFFFFFFFFFFFFFFFFFFFFFFFFFFFFFFFFFFFFFFFFFFFFFFFFFFFFFFFFFFFFFFF
310
FFFFFFFFFFFFFFFFFFFFFFFFFFFFFFFFF000FFFFFFFFFFFFFFFFFFFFFFFFFFFF
310
FFFFFFFFFFFFFFFFFFFFFFFFFFFFFFFFFFFFFFFFFFFFFFFFFFFFFFFFFFFFFFFF
310
FFFFFFFFFFFFFFFFFFFFFFFFFFFFFFFFFFFFFFFFFFFFFFFFFFFFFFFFFFFFFFFF
310
FFFFFFFFFFFFFFFFF000FFFFFFFFFFFFFFFFFFFFFFFFFFFFFFFFFFFFFFFFFFFF
310
FFFFFFFFFFFFFFFFFFFFFFFFFFFFFFFFFFFFFFFFFFFFFFFFFFFFFFFFFFFFFFFF
310
FFFFFFFFFFFFFFFFFFFFFFFFFFFFFFFFFFFFFFFFFFFFFFFFFFFFFFFFFFFFFFFF
310
F000FFFFFFFFFFFFFFFFFFFFFFFFFFFFFFFFFFFFFFFFFFFFFFFFFFFFFFFFFFFF
310
FFFFFFFFFFFFFFFFFFFFFFFFFFFFFFFFFFFFFFFFFFFFFFFFFFFFFFFFFFFFFFFF
310
FFFFFFFFFFFFFFFFFFFFFFFFFFFFFFFFFFFFFFFFFFFFFFFFF000FFFFFFFFFFFF
310
FFFFFFFFFFFFFFFFFFFFFFFFFFFFFFFFFFFFFFFFFFFFFFFFFFFFFFFFFFFFFFFF
310
FFFFFFFFFFFFFFFFFFFFFFFFFFFFFFFFFFFFFFFFFFFFFFFFFFFFFFFFFFFFFFFF
310
FFFFFFFFFFFFFFFFFFFFFFFFFFFFFFFFF000FFFFFFFFFFFFFFFFFFFFFFFFFFFF
310
FFFFFFFFFFFFFFFFFFFFFFFFFFFFFFFFFFFFFFFFFFFFFFFFFFFFFFFFFFFFFFFF
310
FFFFFFFFFFFFFFFFFFFFFFFFFFFFFFFFFFFFFFFFFFFFFFFFFFFFFFFFFFFFFFFF
310
FFFFFFFFFFFFFFFFF000FFFFFFFFFFFFFFFFFFFFFFFFFFFFFFFFFFFFFFFFFFFF
310
FFFFFFFFFFFFFFFFFFFFFFFFFFFFFFFFFFFFFFFFFFFFFFFFFFFFFFFFFFFFFFFF
310
FFFFFFFFFFFFFFFFFFFFFFFFFFFFFFFFFFFFFFFFFFFFFFFFFFFFFFFFFFFFFFFF
310
F000FFFFFFFFFFFFFFFFFFFFFFFFFFFFFFFFFFFFFFFFFFFFFFFFFFFFFFFFFFFF
310
FFFFFFFFFFFFFFFFFFFFFFFFFFFFFFFFFFFFFFFFFFFFFFFFFFFFFFFFFFFFFFFF
310
FFFFFFFFFFFFFFFFFFFFFFFFFFFFFFFFFFFFFFFFFFFFFFFFF000FFFFFFFFFFFF
310
FFFFFFFFFFFFFFFFFFFFFFFFFFFFFFFFFFFFFFFFFFFFFFFFFFFFFFFFFFFFFFFF
310
FFFFFFFFFFFFFFFFFFFFFFFFFFFFFFFFFFFFFFFFFFFFFFFFFFFFFFFFFFFFFFFF
310
FFFFFFFFFFFFFFFFFFFFFFFFFFFFFFFFF000FFFFFFFFFFFFFFFFFFFFFFFFFFFF
310
FFFFFFFFFFFFFFFFFFFFFFFFFFFFFFFFFFFFFFFFFFFFFFFFFFFFFFFFFFFFFFFF
310
FFFFFFFFFFFFFFFFFFFFFFFFFFFFFFFFFFFFFFFFFFFFFFFFFFFFFFFFFFFFFFFF
310
FFFFFFFFFFFFFFFFF000FFFFFFFFFFFFFFFFFFFFFFFFFFFFFFFFFFFFFFFFFFFF
310
FFFFFFFFFFFFFFFFFFFFFFFFFFFFFFFFFFFFFFFFFFFFFFFFFFFFFFFFFFFFFFFF
310
FFFFFFFFFFFFFFFFFFFFFFFFFFFFFFFFFFFFFFFFFFFFFFFFFFFFFFFFFFFFFFFF
310
F000FFFFFFFFFFFFFFFFFFFFFFFFFFFFFFFFFFFFFFFFFFFFFFFFFFFFFFFFFFFF
310
FFFFFFFFFFFFFFFFFFFFFFFFFFFFFFFFFFFFFFFFFFFFFFFFFFFFFFFFFFFFFFFF
310
FFFFFFFFFFFFFFFFFFFFFFFFFFFFFFFFFFFFFFFFFFFFFFFFF000FFFFFFFFFFFF
310
FFFFFFFFFFFFFFFFFFFFFFFFFFFFFFFFFFFFFFFFFFFFFFFFFFFFFFFFFFFFFFFF
310
FFFFFFFFFFFFFFFFFFFFFFFFFFFFFFFFFFFFFFFFFFFFFFFFFFFFFFFFFFFFFFFF
310
FFFFFFFFFFFFFFFFFFFFFFFFFFFFFFFFF000FFFFFFFFFFFFFFFFFFFFFFFFFFFF
310
FFFFFFFFFFFFFFFFFFFFFFFFFFFFFFFFFFFFFFFFFFFFFFFFFFFFFFFFFFFFFFFF
310
FFFFFFFFFFFFFFFFFFFFFFFFFFFFFFFFFFFFFFFFFFFFFFFFFFFFFFFFFFFFFFFF
310
FFFFFFFFFFFFFFFFF000FFFFFFFFFFFFFFFFFFFFFFFFFFFFFFFFFFFFFFFFFFFF
310
FFFFFFFFFFFFFFFFFFFFFFFFFFFFFFFFFFFFFFFFFFFFFFFFFFFFFFFFFFFFFFFF
310
FFFFFFFFFFFFFFFFFFFFFFFFFFFFFFFFFFFFFFFFFFFFFFFFFFFFFFFFFFFFFFFF
310
F000FFFFFFFFFFFFFFFFFFFFFFFFFFFFFFFFFFFFFFFFFFFFFFFFFFFFFFFFFFFF
310
FFFFFFFFFFFFFFFFFFFFFFFFFFFFFFFFFFFFFFFFFFFFFFFFFFFFFFFFFFFFFFFF
310
FFFFFFFFFFFFFFFFFFFFFFFFFFFFFFFFFFFFFFFFFFFFFFFFF000FFFFFFFFFFFF
310
FFFFFFFFFFFFFFFFFFFFFFFFFFFFFFFFFFFFFFFFFFFFFFFFFFFFFFFFFFFFFFFF
310
FFFFFFFFFFFFFFFFFFFFFFFFFFFFFFFFFFFFFFFFFFFFFFFFFFFFFFFFFFFFFFFF
310
FFFFFFFFFFFFFFFFFFFFFFFFFFFFFFFFF000FFFFFFFFFFFFFFFFFFFFFFFFFFFF
310
FFFFFFFFFFFFFFFFFFFFFFFFFFFFFFFFFFFFFFFFFFFFFFFFFFFFFFFFFFFFFFFF
310
FFFFFFFFFFFFFFFFFFFFFFFFFFFFFFFFFFFFFFFFFFFFFFFFFFFFFFFFFFFFFFFF
310
FFFFFFFFFFFFFFFFF000FFFFF80003FFFFFFFFFFFFFFFFFFFFFFFFFFFFFFFFFF
310
FFFFF00007FFFFFFFFFF00007FFFFFF800000000000000007FFFFFFFFFFFFFFF
310
FFFFFFFC001FFFFFFFFFFFFFFC001FFFFFFFFFFFFFFFFFFFFFFFFFFE0007FFFF
310
F000FFFF8000007FFFFFFFF8000FFFFFC0007FFFFF80007FFFFF0000007FFFFF
310
FFF8000007FFFFF800000000000000007FFFFFF0001FFFFFFFFFFFC00001FFFF
310
FFFFFFFFC00001FFFFFFFF000000000003FFFFE000007FFFF000FFFE0000000F
310
FFFFFFF0000FFFFF80007FFFFF80007FFFFC0000001FFFFFFFC0000001FFFFF8
310
00000000000000007FFFFFF0001FFFFFFFFFFE0000003FFFFFFFFFFE0000003F
310
FFFFFF000000000003FFFF0000000FFFF000FFF800000003FFFFFFF00007FFFF
310
80007FFFFF80007FFFF000000007FFFFFF000000003FFFF80000000000000000
310
7FFFFFF0001FFFFFFFFFF80000000FFFFFFFFFF80000000FFFFFFF0000000000
310
03FFFC00000003FFF000FFE000000000FFFFFFF00007FFFF80003FFFFF80007F
310
FFC000000001FFFFFC000000001FFFF800000000000000007FFFFFF0001FFFFF
310
FFFFE000000003FFFFFFFFE000000003FFFFFF000000000003FFF000000000FF
310
F000FF80000000007FFFFFF00007FFFF80003FFFFF80007FFF8000000000FFFF
310
F80000000007FFF800000000000000007FFFFFF0001FFFFFFFFFC000000001FF
310
FFFFFFC000000001FFFFFF000000000003FFC0000000007FF000FF0000000000
310
3FFFFFE00007FFFF00003FFFFF80007FFE00000000003FFFF00000000003FFF8
310
00000000000000007FFFFFF0001FFFFFFFFF8000000000FFFFFFFF8000000000
310
FFFFFF000000000003FF80000000003FF000FE00000000001FFFFFE00003FFFF
310
00003FFFFF80007FFC00000000001FFFE00000000001FFF8000001FFFE000000
310
7FFFFFF0001FFFFFFFFE00000000003FFFFFFE00000000003FFFFF0000000000
310
03FF00000000001FF000FC00000000000FFFFFE00003FFFF00001FFFFF80007F
310
F800000000001FFFC00000000000FFF8000001FFFE0000007FFFFFF0001FFFFF
310
FFFC00000000001FFFFFFC00000000001FFFFF000000000003FE00000000000F
310
F000F8000000000007FFFFE00003FFFF00001FFFFF80007FF800000000000FFF
310
800000000000FFF8000001FFFE0000007FFFFFF0001FFFFFFFF800000000000F
310
FFFFF800000000000FFFFF000000000003FC000000000007F000F80000000000
310
03FFFFC00003FFFE00001FFFFF80007FF0000000000007FF0000000000007FF8
310
000001FFFE0000007FFFFFF0001FFFFFFFF0000000000007FFFFF00000000000
310
07FFFF000000000003F8000000000003F000F0000000000003FFFFC00001FFFE
310
00001FFFFF80007FE0000000000007FE0000000000003FF8000001FFFE000000
310
7FFFFFF0001FFFFFFFF0000000000007FFFFF0000000000007FFFF0000000000
310
03F800001F800003F000E00001FFF00001FFFFC00001FFFE00000FFFFF80007F
310
E00001FFE00003FE00001FFF00003FF8000001FFFE0000007FFFFFF0001FFFFF
310
FFE000003E000003FFFFE000003E000003FFFF000000000003F00001FFF80001
310
F000E00007FFFC0001FFFFC00001FFFE00000FFFFF80007FC0000FFFFC0003FC
310
0000FFFFC0001FF8000001FFFE0000007FFFFFF0001FFFFFFFC00003FFE00001
310
FFFFC00003FFE00001FFFF0001FFFFFFFFF00007FFFE0001F000E0000FFFFF00
310
00FFFF800001FFFC00000FFFFF80007FC0001FFFFE0001FC0001FFFFE0001FF8
310
000001FFFE0000007FFFFFF0001FFFFFFF80000FFFF80000FFFF80000FFFF800
310
00FFFF0003FFFFFFFFE0000FFFFF8000F000C0003FFFFF8000FFFF800000FFFC
310
000007FFFF80007F80003FFFFF0001FC0003FFFFF0001FF8000001FFFE000000
310
7FFFFFF0001FFFFFFF80003FFFFE0000FFFF80003FFFFE0000FFFF0003FFFFFF
310
FFE0003FFFFF8000F000C0003FFFFF8000FFFF800000FFFC000007FFFF80007F
310
80007FFFFF8001F80007FFFFF8000FF8000001FFFE0000007FFFFFF0001FFFFF
310
FF00007FFFFF00007FFF00007FFFFF00007FFF0003FFFFFFFFE0003FFFFFC000
310
F000C0007FFFFFC000FFFF000000FFFC000007FFFF80007F8000FFFFFF8000F8
310
000FFFFFF8000FF8000001FFFE0000007FFFFFF0001FFFFFFF0000FFFFFF8000
310
7FFF0000FFFFFF80007FFF0003FFFFFFFFC0007FFFFFC00070008000FFFFFFC0
310
00FFFF000000FFF8000007FFFF80007F8000FFFFFF8000F8000FFFFFF8000FF8
310
000001FFFE0000007FFFFFF0001FFFFFFE0001FFFFFFC0003FFE0001FFFFFFC0
310
003FFF0003FFFFFFFFC0007FFFFFE00070008000FFFFFFC0007FFF0000007FF8
310
000003FFFF80007F0001FFFFFF8000F8000FFFFFF8000FF8000001FFFE000000
310
7FFFFFF0001FFFFFFE0001FFFFFFC0003FFE0001FFFFFFC0003FFF0003FFFFFF
310
FFC000FFFFFFE00070008000FFFFFFC0007FFF0000007FF8000003FFFF80007F
310
0001FFFFFF8000F8001FFFFFF8000FF8000001FFFE0000007FFFFFF0001FFFFF
310
FE0003FFFFFFE0003FFE0003FFFFFFE0003FFF0003FFFFFFFFC000FFFFFFE000
310
70008000FFFFFFC0007FFE0000007FF8000003FFFF80007F0001FFFFFF8000F0
310
001FFFFFF8000FF8000001FFFE0000007FFFFFF0001FFFFFFC0003FFFFFFE000
310
1FFC0003FFFFFFE0001FFF0003FFFFFFFFC000FFFFFFC00070008000FFFFFF80
310
007FFE0000007FF0000003FFFF80007F0001FFFFFF0000F0001FFFFFF8000FF8
310
000001FFFE0000007FFFFFF0001FFFFFFC0007FFFFFFF0001FFC0007FFFFFFF0
310
001FFF0003FFFFFFFFC000FFFFFFC00070008001FFFFFF0000FFFE0000003FF0
310
000001FFFF80007F0001FFFFFF0000F8001FFFFFF0000FF8000001FFFE000000
310
7FFFFFF0001FFFFFFC0007FFFFFFF0001FFC0007FFFFFFF0001FFF0003FFFFFF
310
FFC001FFFFFF80007000FFFFFFFFFE0000FFFE0008003FF0008001FFFF80007F
310
FFFFFFFFFC0000FFFFFFFFFFE0000FF8000001FFFE0000007FFFFFF0001FFFFF
310
F8000FFFFFFFF8000FF8000FFFFFFFF8000FFF0003FFFFFFFFFFFFFFFFFF0000
310
7000FFFFFFFFFC0000FFFC0008003FF0008001FFFF80007FFFFFFFFFF80001FF
310
FFFFFFFF80000FF8000001FFFE0000007FFFFFF0001FFFFFF8000FFFFFFFF800
310
0FF8000FFFFFFFF8000FFF0003FFFFFFFFFFFFFFFFFE0000F000FFFFFFFFE000
310
00FFFC000C003FE000C001FFFF80007FFFFFFFFFC00001FFFFFFFFFE00001FF8
310
000001FFFE0000007FFFFFF0001FFFFFF8000FFFFFFFF8000FF8000FFFFFFFF8
310
000FFF0003FFFFFFFFFFFFFFFFF00000F000FFFFFFFE000001FFFC000C001FE0
310
00C000FFFF80007FFFFFFFFE000001FFFFFFFFE000001FF80FFFFFFFFFFFFFC0
310
7FFFFFF0001FFFFFF8000FFFFFFFF8000FF8000FFFFFFFF8000FFF0003FFFFFF
310
FFFFFFFFFF800000F000FFFFFFC0000001FFFC001C001FE001C000FFFF80007F
310
FFFFFF80000003FFFFFFF80000001FF80FFFFFFFFFFFFFC07FFFFFF0001FFFFF
310
F8001FFFFFFFFC000FF8001FFFFFFFFC000FFF0003FFFFFFFFFFFFFFF0000001
310
F000FFFFF800000001FFF8001C001FE001C000FFFF80007FFFFFF800000003FF
310
FFFF800000003FF80FFFFFFFFFFFFFC07FFFFFF0001FFFFFF8001FFFFFFFFC00
310
0FF8001FFFFFFFFC000FFF0003FFFFFFFFFFFFFE00000001F000FFFFC0000000
310
03FFF8001E001FC001E000FFFF80007FFFFF8000000007FFFFFC000000003FF8
310
0FFFFFFFFFFFFFC07FFFFFF0001FFFFFF8001FFFFFFFFC000FF8001FFFFFFFFC
310
000FFF0003FFFFFFFFFFFFE000000003F000FFFE0000000007FFF8001E000FC0
310
01E0007FFF80007FFFFE0000000007FFFFE0000000007FF80FFFFFFFFFFFFFC0
310
7FFFFFF0001FFFFFF0001FFFFFFFFC0007F0001FFFFFFFFC0007FF0003FFFFFF
310
FFFFFF0000000003F000FFF80000000007FFF8001E000FC003E0007FFF80007F
310
FFF0000000000FFFFF8000000000FFF80FFFFFFFFFFFFFC07FFFFFF0001FFFFF
310
F0001FFFFFFFFC0007F0001FFFFFFFFC0007FF0003FFFFFFFFFFFC0000000007
310
F000FFE0000000000FFFF0003E000FC003E0007FFF80007FFFC0000000001FFF
310
FE0000000001FFF80FFFFFFFFFFFFFC07FFFFFF0001FFFFFF0001FFFFFFFFC00
310
07F0001FFFFFFFFC0007FF0003FFFFFFFFFFF0000000000FF000FFC000000000
310
1FFFF0003F000F8003F0003FFF80007FFF80000000003FFFF80000000003FFF8
310
0FFFFFFFFFFFFFC07FFFFFF0001FFFFFF0001FFFFFFFFC0007F0001FFFFFFFFC
310
0007FF0003FFFFFFFFFFE0000000001FF000FF00000000007FFFF0003F000780
310
03F0003FFF80007FFF00000000007FFFF00000000007FFF80FFFFFFFFFFFFFC0
310
7FFFFFF0001FFFFFF0001FFFFFFFFC0007F0001FFFFFFFFC0007FF0003FFFFFF
310
FFFF80000000007FF000FE0000000000FFFFE0003F00078007F0003FFF80007F
310
FE0000000001FFFFE0000000001FFFF80FFFFFFFFFFFFFC07FFFFFF0001FFFFF
310
F0001FFFFFFFFC0007F0001FFFFFFFFC0007FF0003FFFFFFFFFF0000000000FF
310
F000FC0000000003FFFFE0007F00078007F0003FFF80007FFC0000000007FFFF
310
C0000000007FFFF80FFFFFFFFFFFFFC07FFFFFF0001FFFFFF8001FFFFFFFFC00
310
0FF8001FFFFFFFFC000FFF0003FFFFFFFFFE0000000003FFF000FC000000000F
310
FFFFE0007F80070007F8001FFF80007FF8000000001FFFFF8000000001FFFFF8
310
0FFFFFFFFFFFFFC07FFFFFF0001FFFFFF8001FFFFFFFFC000FF8001FFFFFFFFC
310
000FFF0003FFFFFFFFFC000000000FFFF000F8000000007FFFFFE0007F800700
310
07F8001FFF80007FF000000000FFFFFF800000000FFFFFF80FFFFFFFFFFFFFC0
310
7FFFFFF0001FFFFFF8000FFFFFFFF8000FF8000FFFFFFFF8000FFF0003FFFFFF
310
FFFC000000007FFFF000F800000007FFFFFFC0007F8003000FF8001FFF80007F
310
F000000007FFFFFF000000007FFFFFF80FFFFFFFFFFFFFC07FFFFFF0001FFFFF
310
F8000FFFFFFFF8000FF8000FFFFFFFF8000FFF0003FFFFFFFFF80000000FFFFF
310
F000F0000000FFFFFFFFC000FF8003000FF8001FFF80007FE0000000FFFFFFFF
310
0000000FFFFFFFF8000001FFFE0000007FFFFFF0001FFFFFF8000FFFFFFFF800
310
0FF8000FFFFFFFF8000FFF0003FFFFFFFFF8000000FFFFFFF000F000000FFFFF
310
FFFFC000FFC002000FF8000FFF80007FE000001FFFFFFFFE000001FFFFFFFFF8
310
000001FFFE0000007FFFFFF0001FFFFFF8000FFFFFFFF8000FF8000FFFFFFFF8
310
000FFF0003FFFFFFFFF000001FFFFFFFF000E00000FFFFFFFFFFC000FFC00200
310
0FFC000FFF80007FE00001FFFFFFFFFE00001FFFFFFFFFF8000001FFFE000000
310
7FFFFFF0001FFFFFFC000FFFFFFFF8001FFC000FFFFFFFF8001FFF0003FFFFFF
310
FFF00001FFFFFFFFF000E00007FFFFFFFFFF8000FFC000001FFC000FFF80007F
310
C0000FFFFFFFFFFE0000FFFFFFFFFFF8000001FFFE0000007FFFFFF0001FFFFF
310
FC0007FFFFFFF0001FFC0007FFFFFFF0001FFF0003FFFFFFFFF00007FFFFFFFF
310
F000E0001FFFFFFFFFFF8000FFC000001FFC000FFF80007FC0003FFFFFFFFFFE
310
0001FFFFFFFFFFF8000001FFFE0000007FFFFFF0001FFFFFFC0007FFFFFFF000
310
1FFC0007FFFFFFF0001FFF0003FFFFFFFFF0001FFFFFFFFFF000E0003FFFFF00
310
03FF8001FFE000001FFC0007FF80007FC0007FFFFF0007FC0003FFFFF0003FF8
310
000001FFFE0000007FFFFFF0001FFFFFFC0003FFFFFFE0001FFC0003FFFFFFE0
310
001FFF0003FFFFFFFFF0003FFFFFFFFFF000E0003FFFFF0001FF8001FFE00000
310
1FFE0007FF80007FC0007FFFFE0003FC0007FFFFE0003FF8000001FFFE000000
310
7FFFFFF0001FFFFFFE0003FFFFFFE0003FFE0003FFFFFFE0003FFF0003FFFFFF
310
FFF0003FFFFF8001F000E0003FFFFF0001FF0001FFE000001FFE0007FF80007F
310
C0007FFFFE0003FC0007FFFFE0003FF8000001FFFE0000007FFFFFF0001FFFFF
310
FE0001FFFFFFC0003FFE0001FFFFFFC0003FFF0003FFFFFFFFF0003FFFFF0001
310
F000E0003FFFFF0003FF0001FFE000003FFE0007FF80007FC0007FFFFE0003FC
310
0007FFFFE0003FF8000001FFFE0000007FFFFFF0001FFFFFFF0001FFFFFFC000
310
7FFF0001FFFFFFC0007FFF0003FFFFFFFFF0003FFFFF0001F000E0003FFFFE00
310
03FF0003FFF000003FFE0003FF80007FC0007FFFFC0003FE0007FFFFE0003FF8
310
000001FFFE0000007FFFFFF0001FFFFFFF0000FFFFFF80007FFF0000FFFFFF80
310
007FFF0003FFFFFFFFF0003FFFFF0001F000E0003FFFFE0003FF0003FFF00000
310
3FFF0003FF80007FC0007FFFFC0007FE0007FFFFC0003FF8000001FFFE000000
310
7FFFFFF0001FFFFFFF80007FFFFF0000FFFF80007FFFFF0000FFFF0003FFFFFF
310
FFF0003FFFFF0003F000E0003FFFFC0003FE0003FFF000003FFF0003FF80007F
310
E0003FFFF80007FE0003FFFFC0007FF8000001FFFE0000007FFFFFF0001FFFFF
310
FF80003FFFFE0000FFFF80003FFFFE0000FFFF0003FFFFFFFFF0001FFFFE0003
310
F000F0001FFFF80003FE0003FFF000007FFF0001FF80007FE0003FFFF00007FE
310
0001FFFF80007FF8000001FFFE0000007FFFFFF0001FFFFFFFC0000FFFF80001
310
FFFFC0000FFFF80001FFFF0003FFFFFFFFF0001FFFFC0003F000F0000FFFF000
310
07FE0007FFF800007FFF0001FF80007FE0001FFFE00007FF0000FFFE00007FF8
310
000001FFFE0000007FFFFFF0001FFFFFFFC00003FFE00001FFFFC00003FFE000
310
01FFFF0003FFFFFFFFF8000FFFF80003F000F00003FFC00007FC0007FFF80000
310
7FFF8001FF80007FF00007FF80000FFF00007FF80000FFF8000001FFFE000000
310
7F80000000000001FFE000003E000003FFFFE000003E000003FFFF0003FFFFFF
310
FFF80003FFE00007F000F800000000000FFC0007FFF800007FFF8001FF80007F
310
F000000000000FFF000000000000FFF8000001FFFE0000007F80000000000001
310
FFF0000000000007FFFFF0000000000007FFFF0003FFFFFFFFFC00007E000007
310
F000F800000000000FFC0007FFF80000FFFF8000FF80007FF800000000001FFF
310
800000000001FFF8000001FFFE0000007F80000000000001FFF800000000000F
310
FFFFF800000000000FFFFF0003FFFFFFFFFC00000000000FF000FC0000000000
310
1FFC0007FFFC0000FFFF8000FF80007FF800000000003FFFC00000000001FFF8
310
000001FFFE0000007F80000000000001FFF800000000000FFFFFF80000000000
310
0FFFFF0003FFFFFFFFFE00000000001FF000FE00000000003FF8000FFFFC0000
310
FFFF8000FF80007FFC00000000003FFFC00000000003FFF8000001FFFE000000
310
7F80000000000001FFFC00000000001FFFFFFC00000000001FFFFF0003FFFFFF
310
FFFF00000000001FF000FF00000000003FF8000FFFFC0000FFFFC000FF80007F
310
FE00000000007FFFE00000000007FFF8000001FFFE0000007F80000000000001
310
FFFE00000000003FFFFFFE00000000003FFFFF0003FFFFFFFFFF80000000003F
310
F000FF80000000007FF8000FFFFC0001FFFFC0007F80007FFF0000000000FFFF
310
F0000000000FFFF800000000000000007F80000000000001FFFF8000000000FF
310
FFFFFF8000000000FFFFFF0003FFFFFFFFFFC0000000007FF000FFC000000000
310
FFF8000FFFFE0001FFFFC0007F80007FFF8000000001FFFFF8000000001FFFF8
310
00000000000000007F80000000000001FFFFC000000001FFFFFFFFC000000001
310
FFFFFF0003FFFFFFFFFFE000000000FFF000FFE000000003FFF0001FFFFE0001
310
FFFFC0007F80007FFFC000000007FFFFFE000000003FFFF80000000000000000
310
7F80000000000001FFFFE000000003FFFFFFFFE000000003FFFFFF0003FFFFFF
310
FFFFF000000003FFF000FFF80000000FFFF0001FFFFE0001FFFFE0007F80007F
310
FFF00000000FFFFFFF00000000FFFFF800000000000000007F80000000000001
310
FFFFF80000000FFFFFFFFFF80000000FFFFFFF0003FFFFFFFFFFFC0000000FFF
310
F000FFFE0000003FFFF0001FFFFE0003FFFFE0003F80007FFFFC0000003FFFFF
310
FFC0000003FFFFF800000000000000007F80000000000001FFFFFE0000003FFF
310
FFFFFFFE0000003FFFFFFF0003FFFFFFFFFFFF0000003FFFF000FFFF800000FF
310
FFF0001FFFFF0003FFFFE0003F80007FFFFF000001FFFFFFFFF800001FFFFFF8
310
00000000000000007F80000000000001FFFFFFC00001FFFFFFFFFFFFC00001FF
310
FFFFFF0003FFFFFFFFFFFFC00000FFFFF000FFFFF8000FFFFFFFFFFFFFFFFFFF
310
FFFFFFFFFFFFFFFFFFFFF0001FFFFFFFFFFF0000FFFFFFF80000000000000000
310
7FFFFFFFFFFFFFFFFFFFFFFC001FFFFFFFFFFFFFFC001FFFFFFFFFFFFFFFFFFF
310
FFFFFFFC001FFFFFF000FFFFFFFFFFFFFFFFFFFFFFFFFFFFFFFFFFFFFFFFFFFF
310
FFFFFFFFFFFFFFFFFFFFFFFFFFFFFFFFFFFFFFFFFFFFFFFFFFFFFFFFFFFFFFFF
310
FFFFFFFFFFFFFFFFFFFFFFFFFFFFFFFFFFFFFFFFFFFFFFFFFFFFFFFFFFFFFFFF
310
F000FFFFFFFFFFFFFFFFFFFFFFFFFFFFFFFFFFFFFFFFFFFFFFFFFFFFFFFFFFFF
310
FFFFFFFFFFFFFFFFFFFFFFFFFFFFFFFFFFFFFFFFFFFFFFFFFFFFFFFFFFFFFFFF
310
FFFFFFFFFFFFFFFFFFFFFFFFFFFFFFFFFFFFFFFFFFFFFFFFF000FFFFFFFFFFFF
310
FFFFFFFFFFFFFFFFFFFFFFFFFFFFFFFFFFFFFFFFFFFFFFFFFFFFFFFFFFFFFFFF
310
FFFFFFFFFFFFFFFFFFFFFFFFFFFFFFFFFFFFFFFFFFFFFFFFFFFFFFFFFFFFFFFF
310
FFFFFFFFFFFFFFFFFFFFFFFFFFFFFFFFF000FFFFFFFFFFFFFFFFFFFFFFFFFFFF
310
FFFFFFFFFFFFFFFFFFFFFFFFFFFFFFFFFFFFFFFFFFFFFFFFFFFFFFFFFFFFFFFF
310
FFFFFFFFFFFFFFFFFFFFFFFFFFFFFFFFFFFFFFFFFFFFFFFFFFFFFFFFFFFFFFFF
310
FFFFFFFFFFFFFFFFF000FFFFFFFFFFFFFFFFFFFFFFFFFFFFFFFFFFFFFFFFFFFF
310
FFFFFFFFFFFFFFFFFFFFFFFFFFFFFFFFFFFFFFFFFFFFFFFFFFFFFFFFFFFFFFFF
310
FFFFFFFFFFFFFFFFFFFFFFFFFFFFFFFFFFFFFFFFFFFFFFFFFFFFFFFFFFFFFFFF
310
F000FFFFFFFFFFFFFFFFFFFFFFFFFFFFFFFFFFFFFFFFFFFFFFFFFFFFFFFFFFFF
310
FFFFFFFFFFFFFFFFFFFFFFFFFFFFFFFFFFFFFFFFFFFFFFFFFFFFFFFFFFFFFFFF
310
FFFFFFFFFFFFFFFFFFFFFFFFFFFFFFFFFFFFFFFFFFFFFFFFF000FFFFFFFFFFFF
310
FFFFFFFFFFFFFFFFFFFFFFFFFFFFFFFFFFFFFFFFFFFFFFFFFFFFFFFFFFFFFFFF
310
FFFFFFFFFFFFFFFFFFFFFFFFFFFFFFFFFFFFFFFFFFFFFFFFFFFFFFFFFFFFFFFF
310
FFFFFFFFFFFFFFFFFFFFFFFFFFFFFFFFF000FFFFFFFFFFFFFFFFFFFFFFFFFFFF
310
FFFFFFFFFFFFFFFFFFFFFFFFFFFFFFFFFFFFFFFFFFFFFFFFFFFFFFFFFFFFFFFF
310
FFFFFFFFFFFFFFFFFFFFFFFFFFFFFFFFFFFFFFFFFFFFFFFFFFFFFFFFFFFFFFFF
310
FFFFFFFFFFFFFFFFF000FFFFFFFFFFFFFFFFFFFFFFFFFFFFFFFFFFFFFFFFFFFF
310
FFFFFFFFFFFFFFFFFFFFFFFFFFFFFFFFFFFFFFFFFFFFFFFFFFFFFFFFFFFFFFFF
310
FFFFFFFFFFFFFFFFFFFFFFFFFFFFFFFFFFFFFFFFFFFFFFFFFFFFFFFFFFFFFFFF
310
F000FFFFFFFFFFFFFFFFFFFFFFFFFFFFFFFFFFFFFFFFFFFFFFFFFFFFFFFFFFFF
310
FFFFFFFFFFFFFFFFFFFFFFFFFFFFFFFFFFFFFFFFFFFFFFFFFFFFFFFFFFFFFFFF
310
FFFFFFFFFFFFFFFFFFFFFFFFFFFFFFFFFFFFFFFFFFFFFFFFF000FFFFFFFFFFFF
310
FFFFFFFFFFFFFFFFFFFFFFFFFFFFFFFFFFFFFFFFFFFFFFFFFFFFFFFFFFFFFFFF
310
FFFFFFFFFFFFFFFFFFFFFFFFFFFFFFFFFFFFFFFFFFFFFFFFFFFFFFFFFFFFFFFF
310
FFFFFFFFFFFFFFFFFFFFFFFFFFFFFFFFF000FFFFFFFFFFFFFFFFFFFFFFFFFFFF
310
FFFFFFFFFFFFFFFFFFFFFFFFFFFFFFFFFFFFFFFFFFFFFFFFFFFFFFFFFFFFFFFF
310
FFFFFFFFFFFFFFFFFFFFFFFFFFFFFFFFFFFFFFFFFFFFFFFFFFFFFFFFFFFFFFFF
310
FFFFFFFFFFFFFFFFF000FFFFFFFFFFFFFFFFFFFFFFFFFFFFFFFFFFFFFFFFFFFF
310
FFFFFFFFFFFFFFFFFFFFFFFFFFFFFFFFFFFFFFFFFFFFFFFFFFFFFFFFFFFFFFFF
310
FFFFFFFFFFFFFFFFFFFFFFFFFFFFFFFFFFFFFFFFFFFFFFFFFFFFFFFFFFFFFFFF
310
F000FFFFFFFFFFFFFFFFFFFFFFFFFFFFFFFFFFFFFFFFFFFFFFFFFFFFFFFFFFFF
310
FFFFFFFFFFFFFFFFFFFFFFFFFFFFFFFFFFFFFFFFFFFFFFFFFFFFFFFFFFFFFFFF
310
FFFFFFFFFFFFFFFFFFFFFFFFFFFFFFFFFFFFFFFFFFFFFFFFF000FFFFFFFFFFFF
310
FFFFFFFFFFFFFFFFFFFFFFFFFFFFFFFFFFFFFFFFFFFFFFFFFFFFFFFFFFFFFFFF
310
FFFFFFFFFFFFFFFFFFFFFFFFFFFFFFFFFFFFFFFFFFFFFFFFFFFFFFFFFFFFFFFF
310
FFFFFFFFFFFFFFFFFFFFFFFFFFFFFFFFF000FFFFFFFFFFFFFFFFFFFFFFFFFFFF
310
FFFFFFFFFFFFFFFFFFFFFFFFFFFFFFFFFFFFFFFFFFFFFFFFFFFFFFFFFFFFFFFF
310
FFFFFFFFFFFFFFFFFFFFFFFFFFFFFFFFFFFFFFFFFFFFFFFFFFFFFFFFFFFFFFFF
310
FFFFFFFFFFFFFFFFF000FFFFFFFFFFFFFFFFFFFFFFFFFFFFFFFFFFFFFFFFFFFF
310
FFFFFFFFFFFFFFFFFFFFFFFFFFFFFFFFFFFFFFFFFFFFFFFFFFFFFFFFFFFFFFFF
310
FFFFFFFFFFFFFFFFFFFFFFFFFFFFFFFFFFFFFFFFFFFFFFFFFFFFFFFFFFFFFFFF
310
F000FFFFFFFFFFFFFFFFFFFFFFFFFFFFFFFFFFFFFFFFFFFFFFFFFFFFFFFFFFFF
310
FFFFFFFFFFFFFFFFFFFFFFFFFFFFFFFFFFFFFFFFFFFFFFFFFFFFFFFFFFFFFFFF
310
FFFFFFFFFFFFFFFFFFFFFFFFFFFFFFFFFFFFFFFFFFFFFFFFF000FFFFFFFFFFFF
310
FFFFFFFFFFFFFFFFFFFFFFFFFFFFFFFFFFFFFFFFFFFFFFFFFFFFFFFFFFFFFFFF
310
FFFFFFFFFFFFFFFFFFFFFFFFFFFFFFFFFFFFFFFFFFFFFFFFFFFFFFFFFFFFFFFF
310
FFFFFFFFFFFFFFFFFFFFFFFFFFFFFFFFF000FFFFFFFFFFFFFFFFFFFFFFFFFFFF
310
FFFFFFFFFFFFFFFFFFFFFFFFFFFFFFFFFFFFFFFFFFFFFFFFFFFFFFFFFFFFFFFF
310
FFFFFFFFFFFFFFFFFFFFFFFFFFFFFFFFFFFFFFFFFFFFFFFFFFFFFFFFFFFFFFFF
310
FFFFFFFFFFFFFFFFF000FFFFFFFFFFFFFFFFFFFFFFFFFFFFFFFFFFFFFFFFFFFF
310
FFFFFFFFFFFFFFFFFFFFFFFFFFFFFFFFFFFFFFFFFFFFFFFFFFFFFFFFFFFFFFFF
310
FFFFFFFFFFFFFFFFFFFFFFFFFFFFFFFFFFFFFFFFFFFFFFFFFFFFFFFFFFFFFFFF
310
F000FFFFFFFFFFFFFFFFFFFFFFFFFFFFFFFFFFFFFFFFFFFFFFFFFFFFFFFFFFFF
310
FFFFFFFFFFFFFFFFFFFFFFFFFFFFFFFFFFFFFFFFFFFFFFFFFFFFFFFFFFFFFFFF
310
FFFFFFFFFFFFFFFFFFFFFFFFFFFFFFFFFFFFFFFFFFFFFFFFF000FFFFFFFFFFFF
310
FFFFFFFFFFFFFFFFFFFFFFFFFFFFFFFFFFFFFFFFFFFFFFFFFFFFFFFFFFFFFFFF
310
FFFFFFFFFFFFFFFFFFFFFFFFFFFFFFFFFFFFFFFFFFFFFFFFFFFFFFFFFFFFFFFF
310
FFFFFFFFFFFFFFFFFFFFFFFFFFFFFFFFF0000000000000000000000000000000
310
0000000000000000000000000000000000000000000000000000000000000000
310
0000000000000000000000000000000000000000000000000000000000000000
310
0000000000000000000000000000000000000000000000000000000000000000
310
0000000000000000000000000000000000000000000000000000000000000000
310
0000000000000000000000000000000000000000000000000000000000000000
310
0000000000000000000000000000000000000000000000000000000000000000
310
0000000000000000000000000000000000000000000000000000000000000000
310
0000000000000000000000000000000000000000000000000000000000000000
310
0000000000000000000000000000000000000000000000000000000000000000
310
0000000000000000000000000000000000000000000000000000000000000000
310
0000000000000000000000000000000000000000000000000000000000000000
310
0000000000000000000000000000000000000000000000000000000000000000
310
0000000000000000000000000000000000000000000000000000000000000000
310
0000000000000000000000000000000000000000000000000000000000000000
310
0000000000000000000000000000000000000000000000000000000000000000
  1
OLE
  0
ENDSEC
  0
SECTION
  2
OBJECTS
  0
DICTIONARY
  5
C
330
0
100
AcDbDictionary
281
     1
  3
ACAD_GROUP
350
D
  3
ACAD_LAYOUT
350
1A
  3
ACAD_MLINESTYLE
350
17
  3
ACAD_PLOTSETTINGS
350
19
  3
ACAD_PLOTSTYLENAME
350
E
  3
ACAD_SCALELIST
350
47
  0
DICTIONARY
  5
D
102
{ACAD_REACTORS
330
C
102
}
330
C
100
AcDbDictionary
281
     1
  0
DICTIONARY
  5
1A
102
{ACAD_REACTORS
330
C
102
}
330
C
100
AcDbDictionary
281
     1
  3
Layout1
350
1E
  3
Layout2
350
26
  3
Model
350
22
  0
DICTIONARY
  5
17
102
{ACAD_REACTORS
330
C
102
}
330
C
100
AcDbDictionary
281
     1
  3
Standard
350
18
  0
DICTIONARY
  5
19
102
{ACAD_REACTORS
330
C
102
}
330
C
100
AcDbDictionary
281
     1
  0
ACDBDICTIONARYWDFLT
  5
E
102
{ACAD_REACTORS
330
C
102
}
330
C
100
AcDbDictionary
281
     1
  3
Normal
350
F
100
AcDbDictionaryWithDefault
340
F
  0
DICTIONARY
  5
47
102
{ACAD_REACTORS
330
C
102
}
330
C
100
AcDbDictionary
281
     1
  3
A0
350
48
  3
A1
350
49
  3
A2
350
4A
  3
A3
350
4B
  3
A4
350
4C
  3
A5
350
4D
  3
A6
350
4E
  3
A7
350
4F
  3
A8
350
50
  3
A9
350
51
  3
B0
350
52
  3
B1
350
53
  3
B2
350
54
  3
B3
350
55
  3
B4
350
56
  3
B5
350
57
  3
B6
350
58
  3
B7
350
59
  3
B8
350
5A
  3
B9
350
5B
  3
C0
350
5C
  3
C1
350
5D
  3
C2
350
5E
  3
C3
350
5F
  3
C4
350
60
  3
C5
350
61
  3
C6
350
62
  3
C7
350
63
  3
C8
350
64
  3
C9
350
65
  3
D0
350
66
  3
D1
350
67
  3
D2
350
68
  0
LAYOUT
  5
1E
102
{ACAD_REACTORS
330
1A
102
}
330
1A
100
AcDbPlotSettings
  1

  2
none_device
  4

  6

 40
0.0
 41
0.0
 42
0.0
 43
0.0
 44
0.0
 45
0.0
 46
0.0
 47
0.0
 48
0.0
 49
0.0
140
0.0
141
0.0
142
1.0
143
1.0
 70
   688
 72
     1
 73
     0
 74
     5
  7

 75
    16
147
1.0
148
0.0
149
0.0
100
AcDbLayout
  1
Layout1
 70
     1
 71
     1
 10
0.0
 20
0.0
 11
420.0
 21
297.0
 12
0.0
 22
0.0
 32
0.0
 14
1.0000000000E+20
 24
1.0000000000E+20
 34
1.0000000000E+20
 15
-1.0000000000E+20
 25
-1.0000000000E+20
 35
-1.0000000000E+20
146
0.0
 13
0.0
 23
0.0
 33
0.0
 16
1.0
 26
0.0
 36
0.0
 17
0.0
 27
1.0
 37
0.0
 76
     0
330
1B
  0
LAYOUT
  5
26
102
{ACAD_REACTORS
330
1A
102
}
330
1A
100
AcDbPlotSettings
  1

  2
none_device
  4

  6

 40
0.0
 41
0.0
 42
0.0
 43
0.0
 44
0.0
 45
0.0
 46
0.0
 47
0.0
 48
0.0
 49
0.0
140
0.0
141
0.0
142
1.0
143
1.0
 70
   688
 72
     1
 73
     0
 74
     5
  7

 75
    16
147
1.0
148
0.0
149
0.0
100
AcDbLayout
  1
Layout2
 70
     1
 71
     2
 10
0.0
 20
0.0
 11
0.0
 21
0.0
 12
0.0
 22
0.0
 32
0.0
 14
0.0
 24
0.0
 34
0.0
 15
0.0
 25
0.0
 35
0.0
146
0.0
 13
0.0
 23
0.0
 33
0.0
 16
1.0
 26
0.0
 36
0.0
 17
0.0
 27
1.0
 37
0.0
 76
     0
330
23
  0
LAYOUT
  5
22
102
{ACAD_REACTORS
330
1A
102
}
330
1A
100
AcDbPlotSettings
  1

  2
none_device
  4
Letter_(8.50_x_11.00_Inches)
  6

 40
6.35
 41
6.35
 42
6.35000508
 43
6.35000508
 44
215.9
 45
279.4
 46
0.0
 47
0.0
 48
0.0
 49
0.0
140
0.0
141
0.0
142
1.0
143
1.0
 70
  1712
 72
     1
 73
     0
 74
     0
  7

 75
     0
147
1.0
148
0.0
149
0.0
100
AcDbLayout
  1
Model
 70
     1
 71
     0
 10
0.0
 20
0.0
 11
297.0
 21
210.0
 12
0.0
 22
0.0
 32
0.0
 14
0.0
 24
0.0
 34
0.0
 15
297.0
 25
210.0
 35
0.0
146
0.0
 13
0.0
 23
0.0
 33
0.0
 16
1.0
 26
0.0
 36
0.0
 17
0.0
 27
1.0
 37
0.0
 76
     0
330
1F
331
29
  0
MLINESTYLE
  5
18
102
{ACAD_REACTORS
330
17
102
}
330
17
100
AcDbMlineStyle
  2
Standard
 70
     0
  3

 62
   256
 51
90.0
 52
90.0
 71
     2
 49
0.5
 62
   256
  6
BYLAYER
 49
-0.5
 62
   256
  6
BYLAYER
  0
ACDBPLACEHOLDER
  5
F
102
{ACAD_REACTORS
330
E
102
}
330
E
  0
SCALE
  5
48
102
{ACAD_REACTORS
330
47
102
}
330
47
100
AcDbScale
 70
     0
300
1:1
140
1.0
141
1.0
290
     1
  0
SCALE
  5
49
102
{ACAD_REACTORS
330
47
102
}
330
47
100
AcDbScale
 70
     0
300
1:2
140
1.0
141
2.0
290
     0
  0
SCALE
  5
4A
102
{ACAD_REACTORS
330
47
102
}
330
47
100
AcDbScale
 70
     0
300
1:4
140
1.0
141
4.0
290
     0
  0
SCALE
  5
4B
102
{ACAD_REACTORS
330
47
102
}
330
47
100
AcDbScale
 70
     0
300
1:5
140
1.0
141
5.0
290
     0
  0
SCALE
  5
4C
102
{ACAD_REACTORS
330
47
102
}
330
47
100
AcDbScale
 70
     0
300
1:8
140
1.0
141
8.0
290
     0
  0
SCALE
  5
4D
102
{ACAD_REACTORS
330
47
102
}
330
47
100
AcDbScale
 70
     0
300
1:10
140
1.0
141
10.0
290
     0
  0
SCALE
  5
4E
102
{ACAD_REACTORS
330
47
102
}
330
47
100
AcDbScale
 70
     0
300
1:16
140
1.0
141
16.0
290
     0
  0
SCALE
  5
4F
102
{ACAD_REACTORS
330
47
102
}
330
47
100
AcDbScale
 70
     0
300
1:20
140
1.0
141
20.0
290
     0
  0
SCALE
  5
50
102
{ACAD_REACTORS
330
47
102
}
330
47
100
AcDbScale
 70
     0
300
1:30
140
1.0
141
30.0
290
     0
  0
SCALE
  5
51
102
{ACAD_REACTORS
330
47
102
}
330
47
100
AcDbScale
 70
     0
300
1:40
140
1.0
141
40.0
290
     0
  0
SCALE
  5
52
102
{ACAD_REACTORS
330
47
102
}
330
47
100
AcDbScale
 70
     0
300
1:50
140
1.0
141
50.0
290
     0
  0
SCALE
  5
53
102
{ACAD_REACTORS
330
47
102
}
330
47
100
AcDbScale
 70
     0
300
1:100
140
1.0
141
100.0
290
     0
  0
SCALE
  5
54
102
{ACAD_REACTORS
330
47
102
}
330
47
100
AcDbScale
 70
     0
300
2:1
140
2.0
141
1.0
290
     0
  0
SCALE
  5
55
102
{ACAD_REACTORS
330
47
102
}
330
47
100
AcDbScale
 70
     0
300
4:1
140
4.0
141
1.0
290
     0
  0
SCALE
  5
56
102
{ACAD_REACTORS
330
47
102
}
330
47
100
AcDbScale
 70
     0
300
8:1
140
8.0
141
1.0
290
     0
  0
SCALE
  5
57
102
{ACAD_REACTORS
330
47
102
}
330
47
100
AcDbScale
 70
     0
300
10:1
140
10.0
141
1.0
290
     0
  0
SCALE
  5
58
102
{ACAD_REACTORS
330
47
102
}
330
47
100
AcDbScale
 70
     0
300
100:1
140
100.0
141
1.0
290
     0
  0
SCALE
  5
59
102
{ACAD_REACTORS
330
47
102
}
330
47
100
AcDbScale
 70
     0
300
1/128" = 1'-0"
140
0.0078125
141
12.0
290
     0
  0
SCALE
  5
5A
102
{ACAD_REACTORS
330
47
102
}
330
47
100
AcDbScale
 70
     0
300
1/64" = 1'-0"
140
0.015625
141
12.0
290
     0
  0
SCALE
  5
5B
102
{ACAD_REACTORS
330
47
102
}
330
47
100
AcDbScale
 70
     0
300
1/32" = 1'-0"
140
0.03125
141
12.0
290
     0
  0
SCALE
  5
5C
102
{ACAD_REACTORS
330
47
102
}
330
47
100
AcDbScale
 70
     0
300
1/16" = 1'-0"
140
0.0625
141
12.0
290
     0
  0
SCALE
  5
5D
102
{ACAD_REACTORS
330
47
102
}
330
47
100
AcDbScale
 70
     0
300
3/32" = 1'-0"
140
0.09375
141
12.0
290
     0
  0
SCALE
  5
5E
102
{ACAD_REACTORS
330
47
102
}
330
47
100
AcDbScale
 70
     0
300
1/8" = 1'-0"
140
0.125
141
12.0
290
     0
  0
SCALE
  5
5F
102
{ACAD_REACTORS
330
47
102
}
330
47
100
AcDbScale
 70
     0
300
3/16" = 1'-0"
140
0.1875
141
12.0
290
     0
  0
SCALE
  5
60
102
{ACAD_REACTORS
330
47
102
}
330
47
100
AcDbScale
 70
     0
300
1/4" = 1'-0"
140
0.25
141
12.0
290
     0
  0
SCALE
  5
61
102
{ACAD_REACTORS
330
47
102
}
330
47
100
AcDbScale
 70
     0
300
3/8" = 1'-0"
140
0.375
141
12.0
290
     0
  0
SCALE
  5
62
102
{ACAD_REACTORS
330
47
102
}
330
47
100
AcDbScale
 70
     0
300
1/2" = 1'-0"
140
0.5
141
12.0
290
     0
  0
SCALE
  5
63
102
{ACAD_REACTORS
330
47
102
}
330
47
100
AcDbScale
 70
     0
300
3/4" = 1'-0"
140
0.75
141
12.0
290
     0
  0
SCALE
  5
64
102
{ACAD_REACTORS
330
47
102
}
330
47
100
AcDbScale
 70
     0
300
1" = 1'-0"
140
1.0
141
12.0
290
     0
  0
SCALE
  5
65
102
{ACAD_REACTORS
330
47
102
}
330
47
100
AcDbScale
 70
     0
300
1-1/2" = 1'-0"
140
1.5
141
12.0
290
     0
  0
SCALE
  5
66
102
{ACAD_REACTORS
330
47
102
}
330
47
100
AcDbScale
 70
     0
300
3" = 1'-0"
140
3.0
141
12.0
290
     0
  0
SCALE
  5
67
102
{ACAD_REACTORS
330
47
102
}
330
47
100
AcDbScale
 70
     0
300
6" = 1'-0"
140
6.0
141
12.0
290
     0
  0
SCALE
  5
68
102
{ACAD_REACTORS
330
47
102
}
330
47
100
AcDbScale
 70
     0
300
1'-0" = 1'-0"
140
12.0
141
12.0
290
     0
  0
ENDSEC
  0
EOF
