  0
SECTION
  2
HEADER
  9
$ACADVER
  1
AC1015
  9
$ACADMAINTVER
 70
     6
  9
$DWGCODEPAGE
  3
ANSI_1252
  9
$INSBASE
 10
0.0
 20
0.0
 30
0.0
  9
$EXTMIN
 10
0.0
 20
0.0
 30
0.0
  9
$EXTMAX
 10
297.0
 20
210.0
 30
0.0
  9
$LIMMIN
 10
0.0
 20
0.0
  9
$LIMMAX
 10
297.0
 20
210.0
  9
$ORTHOMODE
 70
     0
  9
$REGENMODE
 70
     1
  9
$FILLMODE
 70
     1
  9
$QTEXTMODE
 70
     0
  9
$MIRRTEXT
 70
     1
  9
$LTSCALE
 40
1.0
  9
$ATTMODE
 70
     1
  9
$TEXTSIZE
 40
2.0
  9
$TRACEWID
 40
1.0
  9
$TEXTSTYLE
  7
Standard
  9
$CLAYER
  8
0
  9
$CELTYPE
  6
ByLayer
  9
$CECOLOR
 62
   256
  9
$CELTSCALE
 40
1.0
  9
$DISPSILH
 70
     0
  9
$DIMSCALE
 40
1.0
  9
$DIMASZ
 40
3.0
  9
$DIMEXO
 40
0.0
  9
$DIMDLI
 40
3.75
  9
$DIMRND
 40
0.0
  9
$DIMDLE
 40
0.0
  9
$DIMEXE
 40
1.0
  9
$DIMTP
 40
0.0
  9
$DIMTM
 40
0.0
  9
$DIMTXT
 40
2.0
  9
$DIMCEN
 40
2.5
  9
$DIMTSZ
 40
0.0
  9
$DIMTOL
 70
     0
  9
$DIMLIM
 70
     0
  9
$DIMTIH
 70
     1
  9
$DIMTOH
 70
     1
  9
$DIMSE1
 70
     0
  9
$DIMSE2
 70
     0
  9
$DIMTAD
 70
     1
  9
$DIMZIN
 70
     0
  9
$DIMBLK
  1

  9
$DIMASO
 70
     1
  9
$DIMSHO
 70
     1
  9
$DIMPOST
  1

  9
$DIMAPOST
  1

  9
$DIMALT
 70
     0
  9
$DIMALTD
 70
     3
  9
$DIMALTF
 40
0.0393700787
  9
$DIMLFAC
 40
2.0
  9
$DIMTOFL
 70
     1
  9
$DIMTVP
 40
0.0
  9
$DIMTIX
 70
     0
  9
$DIMSOXD
 70
     0
  9
$DIMSAH
 70
     0
  9
$DIMBLK1
  1

  9
$DIMBLK2
  1

  9
$DIMSTYLE
  2
ISO-25
  9
$DIMCLRD
 70
     0
  9
$DIMCLRE
 70
     0
  9
$DIMCLRT
 70
     0
  9
$DIMTFAC
 40
1.0
  9
$DIMGAP
 40
1.524
  9
$DIMJUST
 70
     0
  9
$DIMSD1
 70
     0
  9
$DIMSD2
 70
     0
  9
$DIMTOLJ
 70
     0
  9
$DIMTZIN
 70
     0
  9
$DIMALTZ
 70
     0
  9
$DIMALTTZ
 70
     0
  9
$DIMUPT
 70
     0
  9
$DIMDEC
 70
     2
  9
$DIMTDEC
 70
     3
  9
$DIMALTU
 70
     2
  9
$DIMALTTD
 70
     3
  9
$DIMTXSTY
  7
Standard
  9
$DIMAUNIT
 70
     0
  9
$DIMADEC
 70
     2
  9
$DIMALTRND
 40
0.0
  9
$DIMAZIN
 70
     0
  9
$DIMDSEP
 70
    44
  9
$DIMATFIT
 70
     3
  9
$DIMFRAC
 70
     0
  9
$DIMLDRBLK
  1

  9
$DIMLUNIT
 70
     2
  9
$DIMLWD
 70
    -2
  9
$DIMLWE
 70
    -2
  9
$DIMTMOVE
 70
     0
  9
$LUNITS
 70
     2
  9
$LUPREC
 70
     2
  9
$SKETCHINC
 40
1.0
  9
$FILLETRAD
 40
10.0
  9
$AUNITS
 70
     0
  9
$AUPREC
 70
     2
  9
$MENU
  1
.
  9
$ELEVATION
 40
0.0
  9
$PELEVATION
 40
0.0
  9
$THICKNESS
 40
0.0
  9
$LIMCHECK
 70
     0
  9
$CHAMFERA
 40
0.0
  9
$CHAMFERB
 40
0.0
  9
$CHAMFERC
 40
0.0
  9
$CHAMFERD
 40
0.0
  9
$SKPOLY
 70
     0
  9
$TDCREATE
 40
2457674.673478137
  9
$TDUCREATE
 40
2457674.590144803
  9
$TDUPDATE
 40
2457674.673479583
  9
$TDUUPDATE
 40
2457674.59014625
  9
$TDINDWG
 40
0.0000000116
  9
$TDUSRTIMER
 40
0.0000000116
  9
$USRTIMER
 70
     1
  9
$ANGBASE
 50
0.0
  9
$ANGDIR
 70
     0
  9
$PDMODE
 70
     0
  9
$PDSIZE
 40
-1.0
  9
$PLINEWID
 40
0.0
  9
$SPLFRAME
 70
     0
  9
$SPLINETYPE
 70
     6
  9
$SPLINESEGS
 70
     8
  9
$HANDSEED
  5
2D3
  9
$SURFTAB1
 70
     6
  9
$SURFTAB2
 70
     6
  9
$SURFTYPE
 70
     6
  9
$SURFU
 70
     6
  9
$SURFV
 70
     6
  9
$UCSBASE
  2

  9
$UCSNAME
  2

  9
$UCSORG
 10
0.0
 20
0.0
 30
0.0
  9
$UCSXDIR
 10
1.0
 20
0.0
 30
0.0
  9
$UCSYDIR
 10
0.0
 20
1.0
 30
0.0
  9
$UCSORTHOREF
  2

  9
$UCSORTHOVIEW
 70
     0
  9
$UCSORGTOP
 10
0.0
 20
0.0
 30
0.0
  9
$UCSORGBOTTOM
 10
0.0
 20
0.0
 30
0.0
  9
$UCSORGLEFT
 10
0.0
 20
0.0
 30
0.0
  9
$UCSORGRIGHT
 10
0.0
 20
0.0
 30
0.0
  9
$UCSORGFRONT
 10
0.0
 20
0.0
 30
0.0
  9
$UCSORGBACK
 10
0.0
 20
0.0
 30
0.0
  9
$PUCSBASE
  2

  9
$PUCSNAME
  2

  9
$PUCSORG
 10
0.0
 20
0.0
 30
0.0
  9
$PUCSXDIR
 10
1.0
 20
0.0
 30
0.0
  9
$PUCSYDIR
 10
0.0
 20
1.0
 30
0.0
  9
$PUCSORTHOREF
  2

  9
$PUCSORTHOVIEW
 70
     0
  9
$PUCSORGTOP
 10
0.0
 20
0.0
 30
0.0
  9
$PUCSORGBOTTOM
 10
0.0
 20
0.0
 30
0.0
  9
$PUCSORGLEFT
 10
0.0
 20
0.0
 30
0.0
  9
$PUCSORGRIGHT
 10
0.0
 20
0.0
 30
0.0
  9
$PUCSORGFRONT
 10
0.0
 20
0.0
 30
0.0
  9
$PUCSORGBACK
 10
0.0
 20
0.0
 30
0.0
  9
$USERI1
 70
     0
  9
$USERI2
 70
     0
  9
$USERI3
 70
     0
  9
$USERI4
 70
     0
  9
$USERI5
 70
     0
  9
$USERR1
 40
0.0
  9
$USERR2
 40
0.0
  9
$USERR3
 40
0.0
  9
$USERR4
 40
0.0
  9
$USERR5
 40
0.0
  9
$WORLDVIEW
 70
     1
  9
$SHADEDGE
 70
     3
  9
$SHADEDIF
 70
    70
  9
$TILEMODE
 70
     1
  9
$MAXACTVP
 70
    64
  9
$PINSBASE
 10
0.0
 20
0.0
 30
0.0
  9
$PLIMCHECK
 70
     0
  9
$PEXTMIN
 10
1.0000000000E+20
 20
1.0000000000E+20
 30
1.0000000000E+20
  9
$PEXTMAX
 10
-1.0000000000E+20
 20
-1.0000000000E+20
 30
-1.0000000000E+20
  9
$PLIMMIN
 10
0.0
 20
0.0
  9
$PLIMMAX
 10
420.0
 20
297.0
  9
$UNITMODE
 70
     0
  9
$VISRETAIN
 70
     1
  9
$PLINEGEN
 70
     0
  9
$PSLTSCALE
 70
     1
  9
$TREEDEPTH
 70
  3020
  9
$CMLSTYLE
  2
Standard
  9
$CMLJUST
 70
     0
  9
$CMLSCALE
 40
20.0
  9
$PROXYGRAPHICS
 70
     1
  9
$MEASUREMENT
 70
     1
  9
$CELWEIGHT
370
    -1
  9
$ENDCAPS
280
     0
  9
$JOINSTYLE
280
     0
  9
$LWDISPLAY
290
     1
  9
$INSUNITS
 70
     4
  9
$HYPERLINKBASE
  1

  9
$STYLESHEET
  1

  9
$XEDIT
290
     1
  9
$CEPSNTYPE
380
     0
  9
$PSTYLEMODE
290
     1
  9
$FINGERPRINTGUID
  2
{949AAC00-EBD5-4582-B115-E87691645E93}
  9
$VERSIONGUID
  2
{FAEB1C32-E019-11D5-929B-00C0DF256EC4}
  9
$EXTNAMES
290
     1
  9
$PSVPSCALE
 40
0.0
  9
$OLESTARTUP
290
     0
  0
ENDSEC
  0
SECTION
  2
CLASSES
  0
CLASS
  1
ACDBDICTIONARYWDFLT
  2
AcDbDictionaryWithDefault
  3
ObjectDBX Classes
 90
        0
280
     0
281
     0
  0
CLASS
  1
VISUALSTYLE
  2
AcDbVisualStyle
  3
ObjectDBX Classes
 90
     4095
280
     0
281
     0
  0
CLASS
  1
MATERIAL
  2
AcDbMaterial
  3
ObjectDBX Classes
 90
     1153
280
     0
281
     0
  0
CLASS
  1
SCALE
  2
AcDbScale
  3
ObjectDBX Classes
 90
     1153
280
     0
281
     0
  0
CLASS
  1
TABLESTYLE
  2
AcDbTableStyle
  3
ObjectDBX Classes
 90
     4095
280
     0
281
     0
  0
CLASS
  1
MLEADERSTYLE
  2
AcDbMLeaderStyle
  3
ACDB_MLEADERSTYLE_CLASS
 90
     4095
280
     0
281
     0
  0
CLASS
  1
SUN
  2
AcDbSun
  3
SCENEOE
 90
     1153
280
     0
281
     0
  0
CLASS
  1
ACDBPLACEHOLDER
  2
AcDbPlaceHolder
  3
ObjectDBX Classes
 90
        0
280
     0
281
     0
  0
CLASS
  1
LAYOUT
  2
AcDbLayout
  3
ObjectDBX Classes
 90
        0
280
     0
281
     0
  0
ENDSEC
  0
SECTION
  2
TABLES
  0
TABLE
  2
VPORT
  5
8
330
0
100
AcDbSymbolTable
 70
     1
  0
VPORT
  5
29
330
8
100
AcDbSymbolTableRecord
100
AcDbViewportTableRecord
  2
*Active
 70
     0
 10
0.0
 20
0.0
 11
1.0
 21
1.0
 12
148.5
 22
105.0
 13
0.0
 23
0.0
 14
10.0
 24
10.0
 15
10.0
 25
10.0
 16
0.0
 26
0.0
 36
1.0
 17
0.0
 27
0.0
 37
0.0
 40
210.0
 41
1.4142857143
 42
50.0
 43
0.0
 44
0.0
 50
0.0
 51
0.0
 71
     0
 72
  2000
 73
     1
 74
     3
 75
     0
 76
     0
 77
     0
 78
     0
281
     0
 65
     1
110
0.0
120
0.0
130
0.0
111
1.0
121
0.0
131
0.0
112
0.0
122
1.0
132
0.0
 79
     0
146
0.0
  0
ENDTAB
  0
TABLE
  2
LTYPE
  5
5
330
0
100
AcDbSymbolTable
 70
     6
  0
LTYPE
  5
14
330
5
100
AcDbSymbolTableRecord
100
AcDbLinetypeTableRecord
  2
ByBlock
 70
     0
  3

 72
    65
 73
     0
 40
0.0
  0
LTYPE
  5
15
330
5
100
AcDbSymbolTableRecord
100
AcDbLinetypeTableRecord
  2
ByLayer
 70
     0
  3

 72
    65
 73
     0
 40
0.0
  0
LTYPE
  5
16
330
5
100
AcDbSymbolTableRecord
100
AcDbLinetypeTableRecord
  2
Continuous
 70
     0
  3
Solid line
 72
    65
 73
     0
 40
0.0
  0
LTYPE
  5
6E
330
5
100
AcDbSymbolTableRecord
100
AcDbLinetypeTableRecord
  2
HIDDEN
 70
     0
  3
Hidden __ __ __ __ __ __ __ __ __ __ __ __ __ __
 72
    65
 73
     2
 40
1.905
 49
1.27
 74
     0
 49
-0.635
 74
     0
  0
LTYPE
  5
6F
330
5
100
AcDbSymbolTableRecord
100
AcDbLinetypeTableRecord
  2
PHANTOM
 70
     0
  3
Phantom ______  __  __  ______  __  __  ______
 72
    65
 73
     6
 40
12.7
 49
6.35
 74
     0
 49
-1.27
 74
     0
 49
1.27
 74
     0
 49
-1.27
 74
     0
 49
1.27
 74
     0
 49
-1.27
 74
     0
  0
LTYPE
  5
70
330
5
100
AcDbSymbolTableRecord
100
AcDbLinetypeTableRecord
  2
CENTER
 70
     0
  3
Center ____ _ ____ _ ____ _ ____ _ ____ _ ____
 72
    65
 73
     4
 40
10.16
 49
6.35
 74
     0
 49
-1.27
 74
     0
 49
1.27
 74
     0
 49
-1.27
 74
     0
  0
LTYPE
  5
71
330
5
100
AcDbSymbolTableRecord
100
AcDbLinetypeTableRecord
  2
CENTERX2
 70
     0
  3
Center (2x) ________  __  ________  __  _____
 72
    65
 73
     4
 40
20.32
 49
12.7
 74
     0
 49
-2.54
 74
     0
 49
2.54
 74
     0
 49
-2.54
 74
     0
  0
LTYPE
  5
72
330
5
100
AcDbSymbolTableRecord
100
AcDbLinetypeTableRecord
  2
DOT2
 70
     0
  3
Dot (.5x) ........................................
 72
    65
 73
     2
 40
0.635
 49
0.0
 74
     0
 49
-0.635
 74
     0
  0
ENDTAB
  0
TABLE
  2
LAYER
  5
2
330
0
100
AcDbSymbolTable
 70
     5
  0
LAYER
  5
10
330
2
100
AcDbSymbolTableRecord
100
AcDbLayerTableRecord
  2
0
 70
     0
 62
     7
  6
Continuous
370
    -3
390
F
  0
LAYER
  5
73
330
2
100
AcDbSymbolTableRecord
100
AcDbLayerTableRecord
  2
FORMAT
 70
     0
 62
     7
  6
Continuous
370
    -3
390
F
  0
LAYER
  5
74
330
2
100
AcDbSymbolTableRecord
100
AcDbLayerTableRecord
  2
VERMASSUNG
 70
     0
 62
     7
  6
Continuous
370
    -3
390
F
  0
LAYER
  5
75
330
2
100
AcDbSymbolTableRecord
100
AcDbLayerTableRecord
  2
KOPF_DÜNN
 70
     0
 62
     7
  6
Continuous
370
    -3
390
F
  0
LAYER
  5
76
330
2
100
AcDbSymbolTableRecord
100
AcDbLayerTableRecord
  2
KOPF_DICK
 70
     0
 62
     7
  6
Continuous
370
    15
390
F
  0
ENDTAB
  0
TABLE
  2
STYLE
  5
3
330
0
100
AcDbSymbolTable
 70
     2
  0
STYLE
  5
11
330
3
100
AcDbSymbolTableRecord
100
AcDbTextStyleTableRecord
  2
Standard
 70
     0
 40
0.0
 41
1.0
 50
0.0
 71
     0
 42
2.0
  3
txt
  4

  0
STYLE
  5
77
330
3
100
AcDbSymbolTableRecord
100
AcDbTextStyleTableRecord
  2
SLDTEXTSTYLE0
 70
     0
 40
0.0
 41
0.7
 50
0.0
 71
     0
 42
2.0
  3
TXT
  4

  0
ENDTAB
  0
TABLE
  2
VIEW
  5
6
330
0
100
AcDbSymbolTable
 70
     0
  0
ENDTAB
  0
TABLE
  2
UCS
  5
7
330
0
100
AcDbSymbolTable
 70
     0
  0
ENDTAB
  0
TABLE
  2
APPID
  5
9
330
0
100
AcDbSymbolTable
 70
     1
  0
APPID
  5
12
330
9
100
AcDbSymbolTableRecord
100
AcDbRegAppTableRecord
  2
ACAD
 70
     0
  0
ENDTAB
  0
TABLE
  2
DIMSTYLE
  5
A
330
0
100
AcDbSymbolTable
 70
     2
100
AcDbDimStyleTable
  0
DIMSTYLE
105
27
330
A
100
AcDbSymbolTableRecord
100
AcDbDimStyleTableRecord
  2
ISO-25
 70
     0
 41
2.5
 42
0.625
 43
3.75
 44
1.25
 73
     0
 74
     0
 77
     1
 78
     8
140
2.5
141
2.5
143
0.0393700787
147
0.625
171
     3
172
     1
178
     0
271
     2
272
     2
274
     3
278
    44
283
     0
284
     8
340
11
  0
DIMSTYLE
105
1E4
102
{ACAD_REACTORS
330
1E3
330
1F0
330
1FB
330
207
330
211
330
21B
102
}
330
A
100
AcDbSymbolTableRecord
100
AcDbDimStyleTableRecord
  2
SLDDIMSTYLE0
 70
     0
 41
3.0
 44
0.0
 45
0.000000001
 73
     0
 74
     0
 77
     1
 78
    12
 79
     3
140
2.0
147
0.5
173
     1
178
     0
271
     2
272
     3
276
     2
284
    12
340
77
  0
ENDTAB
  0
TABLE
  2
BLOCK_RECORD
  5
1
330
0
100
AcDbSymbolTable
 70
     7
  0
BLOCK_RECORD
  5
1F
330
1
100
AcDbSymbolTableRecord
100
AcDbBlockTableRecord
  2
*Model_Space
340
22
  0
BLOCK_RECORD
  5
1B
330
1
100
AcDbSymbolTableRecord
100
AcDbBlockTableRecord
  2
*Paper_Space
340
1E
  0
BLOCK_RECORD
  5
23
330
1
100
AcDbSymbolTableRecord
100
AcDbBlockTableRecord
  2
*Paper_Space0
340
26
  0
BLOCK_RECORD
  5
1E5
330
1
100
AcDbSymbolTableRecord
100
AcDbBlockTableRecord
  2
_D
340
0
  0
BLOCK_RECORD
  5
1F1
330
1
100
AcDbSymbolTableRecord
100
AcDbBlockTableRecord
  2
_D_1
340
0
  0
BLOCK_RECORD
  5
1FC
330
1
100
AcDbSymbolTableRecord
100
AcDbBlockTableRecord
  2
_D_2
340
0
  0
BLOCK_RECORD
  5
208
330
1
100
AcDbSymbolTableRecord
100
AcDbBlockTableRecord
  2
_D_3
340
0
  0
BLOCK_RECORD
  5
212
330
1
100
AcDbSymbolTableRecord
100
AcDbBlockTableRecord
  2
_D_4
340
0
  0
BLOCK_RECORD
  5
21C
330
1
100
AcDbSymbolTableRecord
100
AcDbBlockTableRecord
  2
_D_5
340
0
  0
ENDTAB
  0
ENDSEC
  0
SECTION
  2
BLOCKS
  0
BLOCK
  5
20
330
1F
100
AcDbEntity
  8
0
100
AcDbBlockBegin
  2
*Model_Space
 70
     0
 10
0.0
 20
0.0
 30
0.0
  3
*Model_Space
  1

  0
ENDBLK
  5
21
330
1F
100
AcDbEntity
  8
0
100
AcDbBlockEnd
  0
BLOCK
  5
1C
330
1B
100
AcDbEntity
 67
     1
  8
0
100
AcDbBlockBegin
  2
*Paper_Space
 70
     0
 10
0.0
 20
0.0
 30
0.0
  3
*Paper_Space
  1

  0
ENDBLK
  5
1D
330
1B
100
AcDbEntity
 67
     1
  8
0
100
AcDbBlockEnd
  0
BLOCK
  5
24
330
23
100
AcDbEntity
  8
0
100
AcDbBlockBegin
  2
*Paper_Space0
 70
     0
 10
0.0
 20
0.0
 30
0.0
  3
*Paper_Space0
  1

  0
ENDBLK
  5
25
330
23
100
AcDbEntity
  8
0
100
AcDbBlockEnd
  0
BLOCK
  5
1E6
330
1E5
100
AcDbEntity
  8
0
100
AcDbBlockBegin
  2
_D
 70
     0
 10
0.0
 20
0.0
 30
0.0
  3
_D
  1

  0
SOLID
  5
1E8
330
1E5
100
AcDbEntity
  8
VERMASSUNG
100
AcDbTrace
 10
47.0392838598
 20
62.0094251139
 30
0.0
 11
47.4892838598
 21
65.0094251139
 31
0.0
 12
46.5892838598
 22
65.0094251139
 32
0.0
 13
46.5892838598
 23
65.0094251139
 33
0.0
  0
SOLID
  5
1E9
330
1E5
100
AcDbEntity
  8
VERMASSUNG
100
AcDbTrace
 10
47.0392838598
 20
159.4594251139
 30
0.0
 11
46.5892838598
 21
156.4594251139
 31
0.0
 12
47.4892838598
 22
156.4594251139
 32
0.0
 13
47.4892838598
 23
156.4594251139
 33
0.0
  0
LINE
  5
1EA
330
1E5
100
AcDbEntity
  8
VERMASSUNG
100
AcDbLine
 10
173.9046517361
 20
62.0094251139
 30
0.0
 11
46.0392838598
 21
62.0094251139
 31
0.0
  0
LINE
  5
1EB
330
1E5
100
AcDbEntity
  8
VERMASSUNG
100
AcDbLine
 10
173.9046517361
 20
159.4594251139
 30
0.0
 11
46.0392838598
 21
159.4594251139
 31
0.0
  0
LINE
  5
1EC
330
1E5
100
AcDbEntity
  8
VERMASSUNG
100
AcDbLine
 10
47.0392838598
 20
62.0094251139
 30
0.0
 11
47.0392838598
 21
159.4594251139
 31
0.0
  0
MTEXT
  5
1ED
330
1E5
100
AcDbEntity
  8
VERMASSUNG
100
AcDbMText
 10
44.2611486035
 20
101.2299894806
 30
0.0
 40
2.0
 41
0.0
 71
     1
 72
     1
  1
ISO 50
  7
SLDTEXTSTYLE0
 11
3.391901413832837E-15
 21
1.0
 31
0.0
 73
     1
 44
1.0
  0
MTEXT
  5
1EE
330
1E5
100
AcDbEntity
  8
VERMASSUNG
100
AcDbMText
 10
44.4611485548
 20
110.2299890931
 30
0.0
 40
2.0
 41
0.0
 71
     1
 72
     1
  1
%%c
  7
SLDTEXTSTYLE0
 11
3.391901413832837E-15
 21
1.0
 31
0.0
 73
     1
 44
1.0
  0
MTEXT
  5
1EF
330
1E5
100
AcDbEntity
  8
VERMASSUNG
100
AcDbMText
 10
44.4611482638
 20
113.839332426
 30
0.0
 40
2.0
 41
0.0
 71
     1
 72
     1
  1
97.45
  7
SLDTEXTSTYLE0
 11
3.391901413832837E-15
 21
1.0
 31
0.0
 73
     1
 44
1.0
  0
ENDBLK
  5
1E7
330
1E5
100
AcDbEntity
  8
0
100
AcDbBlockEnd
  0
BLOCK
  5
1F2
330
1F1
100
AcDbEntity
  8
0
100
AcDbBlockBegin
  2
_D_1
 70
     0
 10
0.0
 20
0.0
 30
0.0
  3
_D_1
  1

  0
SOLID
  5
1F4
330
1F1
100
AcDbEntity
  8
VERMASSUNG
100
AcDbTrace
 10
263.688469763
 20
119.7344251139
 30
0.0
 11
263.238469763
 21
116.7344251139
 31
0.0
 12
264.138469763
 22
116.7344251139
 32
0.0
 13
264.138469763
 23
116.7344251139
 33
0.0
  0
SOLID
  5
1F5
330
1F1
100
AcDbEntity
  8
VERMASSUNG
100
AcDbTrace
 10
263.688469763
 20
101.7344251139
 30
0.0
 11
264.138469763
 21
104.7344251139
 31
0.0
 12
263.238469763
 22
104.7344251139
 32
0.0
 13
263.238469763
 23
104.7344251139
 33
0.0
  0
LINE
  5
1F6
330
1F1
100
AcDbEntity
  8
VERMASSUNG
100
AcDbLine
 10
254.4546517361
 20
119.7344251139
 30
0.0
 11
264.688469763
 21
119.7344251139
 31
0.0
  0
LINE
  5
1F7
330
1F1
100
AcDbEntity
  8
VERMASSUNG
100
AcDbLine
 10
254.4546517361
 20
101.7344251139
 30
0.0
 11
264.688469763
 21
101.7344251139
 31
0.0
  0
LINE
  5
1F8
330
1F1
100
AcDbEntity
  8
VERMASSUNG
100
AcDbLine
 10
263.688469763
 20
119.7344251139
 30
0.0
 11
263.688469763
 21
101.7344251139
 31
0.0
  0
MTEXT
  5
1F9
330
1F1
100
AcDbEntity
  8
VERMASSUNG
100
AcDbMText
 10
261.1103344581
 20
107.7294250498
 30
0.0
 40
2.0
 41
0.0
 71
     1
 72
     1
  1
%%c
  7
SLDTEXTSTYLE0
 11
-7.044195017643634E-15
 21
1.0
 31
0.0
 73
     1
 44
1.0
  0
MTEXT
  5
1FA
330
1F1
100
AcDbEntity
  8
VERMASSUNG
100
AcDbMText
 10
260.9103345068
 20
111.3394250641
 30
0.0
 40
2.0
 41
0.0
 71
     1
 72
     1
  1
18
  7
SLDTEXTSTYLE0
 11
-7.044195017643634E-15
 21
1.0
 31
0.0
 73
     1
 44
1.0
  0
ENDBLK
  5
1F3
330
1F1
100
AcDbEntity
  8
0
100
AcDbBlockEnd
  0
BLOCK
  5
1FD
330
1FC
100
AcDbEntity
  8
0
100
AcDbBlockBegin
  2
_D_2
 70
     0
 10
0.0
 20
0.0
 30
0.0
  3
_D_2
  1

  0
SOLID
  5
1FF
330
1FC
100
AcDbEntity
  8
VERMASSUNG
100
AcDbTrace
 10
269.688469763
 20
94.7344251139
 30
0.0
 11
270.138469763
 21
97.7344251139
 31
0.0
 12
269.238469763
 22
97.7344251139
 32
0.0
 13
269.238469763
 23
97.7344251139
 33
0.0
  0
SOLID
  5
200
330
1FC
100
AcDbEntity
  8
VERMASSUNG
100
AcDbTrace
 10
269.688469763
 20
126.7344251139
 30
0.0
 11
269.238469763
 21
123.7344251139
 31
0.0
 12
270.138469763
 22
123.7344251139
 32
0.0
 13
270.138469763
 23
123.7344251139
 33
0.0
  0
LINE
  5
201
330
1FC
100
AcDbEntity
  8
VERMASSUNG
100
AcDbLine
 10
255.1546517361
 20
94.7344251139
 30
0.0
 11
270.688469763
 21
94.7344251139
 31
0.0
  0
LINE
  5
202
330
1FC
100
AcDbEntity
  8
VERMASSUNG
100
AcDbLine
 10
255.1546517361
 20
126.7344251139
 30
0.0
 11
270.688469763
 21
126.7344251139
 31
0.0
  0
LINE
  5
203
330
1FC
100
AcDbEntity
  8
VERMASSUNG
100
AcDbLine
 10
269.688469763
 20
94.7344251139
 30
0.0
 11
269.688469763
 21
126.7344251139
 31
0.0
  0
MTEXT
  5
204
330
1FC
100
AcDbEntity
  8
VERMASSUNG
100
AcDbMText
 10
266.9103345068
 20
104.9294253825
 30
0.0
 40
2.0
 41
0.0
 71
     1
 72
     1
  1
WH3
  7
SLDTEXTSTYLE0
 11
6.123233995736766E-17
 21
1.0
 31
0.0
 73
     1
 44
1.0
  0
MTEXT
  5
205
330
1FC
100
AcDbEntity
  8
VERMASSUNG
100
AcDbMText
 10
267.1103344581
 20
110.1294253966
 30
0.0
 40
2.0
 41
0.0
 71
     1
 72
     1
  1
%%c
  7
SLDTEXTSTYLE0
 11
6.123233995736766E-17
 21
1.0
 31
0.0
 73
     1
 44
1.0
  0
MTEXT
  5
206
330
1FC
100
AcDbEntity
  8
VERMASSUNG
100
AcDbMText
 10
266.9103345068
 20
113.7394249453
 30
0.0
 40
2.0
 41
0.0
 71
     1
 72
     1
  1
32
  7
SLDTEXTSTYLE0
 11
6.123233995736766E-17
 21
1.0
 31
0.0
 73
     1
 44
1.0
  0
ENDBLK
  5
1FE
330
1FC
100
AcDbEntity
  8
0
100
AcDbBlockEnd
  0
BLOCK
  5
209
330
208
100
AcDbEntity
  8
0
100
AcDbBlockBegin
  2
_D_3
 70
     0
 10
0.0
 20
0.0
 30
0.0
  3
_D_3
  1

  0
SOLID
  5
20B
330
208
100
AcDbEntity
  8
VERMASSUNG
100
AcDbTrace
 10
255.4546517361
 20
164.8852243342
 30
0.0
 11
252.4546517361
 21
165.3352243342
 31
0.0
 12
252.4546517361
 22
164.4352243342
 32
0.0
 13
252.4546517361
 23
164.4352243342
 33
0.0
  0
SOLID
  5
20C
330
208
100
AcDbEntity
  8
VERMASSUNG
100
AcDbTrace
 10
174.5046517361
 20
164.8852243342
 30
0.0
 11
177.5046517361
 21
164.4352243342
 31
0.0
 12
177.5046517361
 22
165.3352243342
 32
0.0
 13
177.5046517361
 23
165.3352243342
 33
0.0
  0
LINE
  5
20D
330
208
100
AcDbEntity
  8
VERMASSUNG
100
AcDbLine
 10
255.4546517361
 20
126.4344251139
 30
0.0
 11
255.4546517361
 21
165.8852243342
 31
0.0
  0
LINE
  5
20E
330
208
100
AcDbEntity
  8
VERMASSUNG
100
AcDbLine
 10
174.5046517361
 20
157.0294120672
 30
0.0
 11
174.5046517361
 21
165.8852243342
 31
0.0
  0
LINE
  5
20F
330
208
100
AcDbEntity
  8
VERMASSUNG
100
AcDbLine
 10
255.4546517361
 20
164.8852243342
 30
0.0
 11
174.5046517361
 21
164.8852243342
 31
0.0
  0
MTEXT
  5
210
330
208
100
AcDbEntity
  8
VERMASSUNG
100
AcDbMText
 10
211.8796518799
 20
167.4633599301
 30
0.0
 40
2.0
 41
0.0
 71
     1
 72
     1
  1
80.95
  7
SLDTEXTSTYLE0
 73
     1
 44
1.0
  0
ENDBLK
  5
20A
330
208
100
AcDbEntity
  8
0
100
AcDbBlockEnd
  0
BLOCK
  5
213
330
212
100
AcDbEntity
  8
0
100
AcDbBlockBegin
  2
_D_4
 70
     0
 10
0.0
 20
0.0
 30
0.0
  3
_D_4
  1

  0
SOLID
  5
215
330
212
100
AcDbEntity
  8
VERMASSUNG
100
AcDbTrace
 10
255.4546517361
 20
170.8852243342
 30
0.0
 11
252.4546517361
 21
171.3352243342
 31
0.0
 12
252.4546517361
 22
170.4352243342
 32
0.0
 13
252.4546517361
 23
170.4352243342
 33
0.0
  0
SOLID
  5
216
330
212
100
AcDbEntity
  8
VERMASSUNG
100
AcDbTrace
 10
155.4546517361
 20
170.8852243342
 30
0.0
 11
158.4546517361
 21
170.4352243342
 31
0.0
 12
158.4546517361
 22
171.3352243342
 32
0.0
 13
158.4546517361
 23
171.3352243342
 33
0.0
  0
LINE
  5
217
330
212
100
AcDbEntity
  8
VERMASSUNG
100
AcDbLine
 10
255.4546517361
 20
126.4344251139
 30
0.0
 11
255.4546517361
 21
171.8852243342
 31
0.0
  0
LINE
  5
218
330
212
100
AcDbEntity
  8
VERMASSUNG
100
AcDbLine
 10
155.4546517361
 20
145.6594251139
 30
0.0
 11
155.4546517361
 21
171.8852243342
 31
0.0
  0
LINE
  5
219
330
212
100
AcDbEntity
  8
VERMASSUNG
100
AcDbLine
 10
255.4546517361
 20
170.8852243342
 30
0.0
 11
155.4546517361
 21
170.8852243342
 31
0.0
  0
MTEXT
  5
21A
330
212
100
AcDbEntity
  8
VERMASSUNG
100
AcDbMText
 10
203.5546517041
 20
173.4633599301
 30
0.0
 40
2.0
 41
0.0
 71
     1
 72
     1
  1
100
  7
SLDTEXTSTYLE0
 73
     1
 44
1.0
  0
ENDBLK
  5
214
330
212
100
AcDbEntity
  8
0
100
AcDbBlockEnd
  0
BLOCK
  5
21D
330
21C
100
AcDbEntity
  8
0
100
AcDbBlockBegin
  2
_D_5
 70
     0
 10
0.0
 20
0.0
 30
0.0
  3
_D_5
  1

  0
SOLID
  5
21F
330
21C
100
AcDbEntity
  8
VERMASSUNG
100
AcDbTrace
 10
255.4546517361
 20
176.8852243342
 30
0.0
 11
252.4546517361
 21
177.3352243342
 31
0.0
 12
252.4546517361
 22
176.4352243342
 32
0.0
 13
252.4546517361
 23
176.4352243342
 33
0.0
  0
SOLID
  5
220
330
21C
100
AcDbEntity
  8
VERMASSUNG
100
AcDbTrace
 10
53.8546517361
 20
176.8852243342
 30
0.0
 11
56.8546517361
 21
176.4352243342
 31
0.0
 12
56.8546517361
 22
177.3352243342
 32
0.0
 13
56.8546517361
 23
177.3352243342
 33
0.0
  0
LINE
  5
221
330
21C
100
AcDbEntity
  8
VERMASSUNG
100
AcDbLine
 10
255.4546517361
 20
126.4344251139
 30
0.0
 11
255.4546517361
 21
177.8852243342
 31
0.0
  0
LINE
  5
222
330
21C
100
AcDbEntity
  8
VERMASSUNG
100
AcDbLine
 10
53.8546517361
 20
129.1132696413
 30
0.0
 11
53.8546517361
 21
177.8852243342
 31
0.0
  0
LINE
  5
223
330
21C
100
AcDbEntity
  8
VERMASSUNG
100
AcDbLine
 10
255.4546517361
 20
176.8852243342
 30
0.0
 11
53.8546517361
 21
176.8852243342
 31
0.0
  0
MTEXT
  5
224
330
21C
100
AcDbEntity
  8
VERMASSUNG
100
AcDbMText
 10
151.754651773
 20
179.4633599301
 30
0.0
 40
2.0
 41
0.0
 71
     1
 72
     1
  1
201.6
  7
SLDTEXTSTYLE0
 73
     1
 44
1.0
  0
ENDBLK
  5
21E
330
21C
100
AcDbEntity
  8
0
100
AcDbBlockEnd
  0
ENDSEC
  0
SECTION
  2
ENTITIES
  0
MTEXT
  5
78
330
1F
100
AcDbEntity
  8
KOPF_DÜNN
100
AcDbMText
 10
13.8892156294
 20
23.8442973028
 30
0.0
 40
3.0
 41
0.0
 71
     1
 72
     1
  1
A14.450.032.100
  7
SLDTEXTSTYLE0
 73
     1
 44
1.0
  0
MTEXT
  5
79
330
1F
100
AcDbEntity
  8
VERMASSUNG
100
AcDbMText
 10
13.9329988022
 20
28.8834360957
 30
0.0
 40
3.0
 41
0.0
 71
     1
 72
     1
  1
Aufnahme_Master shank WH30
  7
SLDTEXTSTYLE0
 73
     1
 44
1.0
  0
MTEXT
  5
7A
330
1F
100
AcDbEntity
  8
VERMASSUNG
100
AcDbMText
 10
98.8601118557
 20
13.8365368761
 30
0.0
 40
2.0
 41
0.0
 71
     1
 72
     1
  1
Datum: 21.10.2011
  7
SLDTEXTSTYLE0
 73
     1
 44
1.0
  0
MTEXT
  5
7B
330
1F
100
AcDbEntity
  8
VERMASSUNG
100
AcDbMText
 10
13.933048693
 20
18.0482802738
 30
0.0
 40
2.0
 41
0.0
 71
     1
 72
     1
  1
DIN 69871 AD/B
  7
SLDTEXTSTYLE0
 73
     1
 44
1.0
  0
MTEXT
  5
7C
330
1F
100
AcDbEntity
  8
VERMASSUNG
100
AcDbMText
 10
13.9808475933
 20
13.9090974274
 30
0.0
 40
2.0
 41
0.0
 71
     1
 72
     1
  1
Gewicht: 3054g
  7
SLDTEXTSTYLE0
 73
     1
 44
1.0
  0
ARC
  5
7D
330
1F
100
AcDbEntity
  8
0
  6
Continuous
 62
     7
370
    15
100
AcDbCircle
 10
158.0546517361
 20
75.2094251139
 30
0.0
 40
0.6000000000000227
100
AcDbArc
 50
0.0
 51
90.0
  0
ARC
  5
7E
330
1F
100
AcDbEntity
  8
0
  6
Continuous
 62
     7
370
    15
100
AcDbCircle
 10
158.0546517361
 20
146.2594251139
 30
0.0
 40
0.6000000000000227
100
AcDbArc
 50
270.0
 51
0.0
  0
LINE
  5
7F
330
1F
100
AcDbEntity
  8
0
  6
Continuous
 62
     7
370
    15
100
AcDbLine
 10
155.4546517361
 20
145.6594239934
 30
0.0
 11
55.5660364259
 21
131.0923356576
 31
0.0
  0
LINE
  5
80
330
1F
100
AcDbEntity
  8
0
  6
Continuous
 62
     7
370
    15
100
AcDbLine
 10
55.5660364259
 20
90.3765145703
 30
0.0
 11
155.4546517361
 21
75.8094262345
 31
0.0
  0
LINE
  5
81
330
1F
100
AcDbEntity
  8
0
  6
Continuous
 62
     7
370
    15
100
AcDbLine
 10
155.4546517361
 20
75.8094262345
 30
0.0
 11
158.0546517432
 21
75.8094262345
 31
0.0
  0
LINE
  5
82
330
1F
100
AcDbEntity
  8
0
  6
Continuous
 62
     7
370
    15
100
AcDbLine
 10
158.0546517432
 20
145.6594239934
 30
0.0
 11
155.4546517361
 21
145.6594239934
 31
0.0
  0
ARC
  5
83
330
1F
100
AcDbEntity
  8
0
  6
Continuous
 62
     7
370
    15
100
AcDbCircle
 10
55.8546517361
 20
92.3555805865
 30
0.0
 40
2.000000000000007
100
AcDbArc
 50
180.0
 51
261.7028550302
  0
ARC
  5
84
330
1F
100
AcDbEntity
  8
0
  6
Continuous
 62
     7
370
    15
100
AcDbCircle
 10
55.8546517361
 20
129.1132696413
 30
0.0
 40
1.999999999999993
100
AcDbArc
 50
98.2971449698
 51
180.0
  0
ARC
  5
85
330
1F
100
AcDbEntity
  8
0
  6
Continuous
 62
     7
370
    15
100
AcDbCircle
 10
177.5046517361
 20
91.7344251139
 30
0.0
 40
3.0
100
AcDbArc
 50
90.0
 51
180.0
  0
ARC
  5
86
330
1F
100
AcDbEntity
  8
0
  6
Continuous
 62
     7
370
    15
100
AcDbCircle
 10
177.5046517361
 20
129.7344251139
 30
0.0
 40
3.0
100
AcDbArc
 50
180.0
 51
270.0
  0
LINE
  5
87
330
1F
100
AcDbEntity
  8
0
  6
Continuous
 62
     7
370
    15
100
AcDbLine
 10
238.4520334233
 20
126.7344258739
 30
0.0
 11
177.5046524633
 21
126.7344258739
 31
0.0
  0
LINE
  5
88
330
1F
100
AcDbEntity
  8
0
  6
Continuous
 62
     7
370
    15
100
AcDbLine
 10
255.1546481479
 20
126.7344258739
 30
0.0
 11
248.3498168219
 21
126.7344258739
 31
0.0
  0
LINE
  5
89
330
1F
100
AcDbEntity
  8
0
  6
Continuous
 62
     7
370
    15
100
AcDbLine
 10
177.5046524633
 20
94.734424354
 30
0.0
 11
255.1546481479
 21
94.734424354
 31
0.0
  0
LINE
  5
8A
330
1F
100
AcDbEntity
  8
0
  6
Continuous
 62
     7
370
    15
100
AcDbLine
 10
255.1546481479
 20
94.734424354
 30
0.0
 11
255.4546532262
 21
95.034425707
 31
0.0
  0
LINE
  5
8B
330
1F
100
AcDbEntity
  8
0
  6
Continuous
 62
     7
370
    15
100
AcDbLine
 10
255.4546532262
 20
126.4344245209
 30
0.0
 11
255.1546481479
 21
126.7344258739
 31
0.0
  0
LINE
  5
8C
330
1F
100
AcDbEntity
  8
0
  6
Continuous
 62
     7
370
    15
100
AcDbLine
 10
246.9958377112
 20
126.4432366951
 30
0.0
 11
246.7046541203
 21
126.7344258739
 31
0.0
  0
LINE
  5
8D
330
1F
100
AcDbEntity
  8
0
  6
Continuous
 62
     7
370
    15
100
AcDbLine
 10
240.1046541561
 20
126.7344258739
 30
0.0
 11
239.8210254539
 21
126.4507990344
 31
0.0
  0
ARC
  5
8E
330
1F
100
AcDbEntity
  8
0
  6
Continuous
 62
     7
370
    15
100
AcDbCircle
 10
169.6546517361
 20
96.268683152
 30
0.0
 40
2.00000000000001
100
AcDbArc
 50
192.2156859341
 51
340.5333640855
  0
LINE
  5
8F
330
1F
100
AcDbEntity
  8
0
  6
Continuous
 62
     7
370
    15
100
AcDbLine
 10
159.2546518002
 20
64.005165921
 30
0.0
 11
163.3214906831
 21
64.005165921
 31
0.0
  0
LINE
  5
90
330
1F
100
AcDbEntity
  8
0
  6
Continuous
 62
     7
370
    15
100
AcDbLine
 10
163.3214906831
 20
140.5844256295
 30
0.0
 11
159.2546518002
 21
140.5844256295
 31
0.0
  0
LINE
  5
91
330
1F
100
AcDbEntity
  8
0
  6
Continuous
 62
     7
370
    15
100
AcDbLine
 10
163.3214906831
 20
64.005165921
 30
0.0
 11
163.3214906831
 21
140.5844256295
 31
0.0
  0
LINE
  5
92
330
1F
100
AcDbEntity
  8
0
  6
Continuous
 62
     7
370
    15
100
AcDbLine
 10
169.7878132615
 20
96.4372778325
 30
0.0
 11
169.7878132615
 21
140.5844256295
 31
0.0
  0
LINE
  5
93
330
1F
100
AcDbEntity
  8
0
  6
Continuous
 62
     7
370
    15
100
AcDbLine
 10
173.9046511281
 20
140.5844256295
 30
0.0
 11
169.7878132615
 21
140.5844256295
 31
0.0
  0
LINE
  5
94
330
1F
100
AcDbEntity
  8
0
  6
Continuous
 62
     7
370
    15
100
AcDbLine
 10
169.7878132615
 20
64.005165921
 30
0.0
 11
173.9046511281
 21
64.005165921
 31
0.0
  0
LINE
  5
95
330
1F
100
AcDbEntity
  8
0
  6
Continuous
 62
     7
370
    15
100
AcDbLine
 10
169.7878132615
 20
64.005165921
 30
0.0
 11
169.7878132615
 21
91.7454842491
 31
0.0
  0
SPLINE
  5
96
330
1F
100
AcDbEntity
  8
0
  6
Continuous
 62
     7
370
    15
100
AcDbSpline
210
0.0
220
0.0
230
1.0
 70
     8
 71
     3
 72
    34
 73
    30
 74
     0
 42
0.000000001
 43
0.00000001
 40
0.0
 40
0.0
 40
0.0
 40
0.0
 40
0.0624999999999992
 40
0.0624999999999992
 40
0.1249999999999984
 40
0.1249999999999984
 40
0.1874999999999976
 40
0.1874999999999976
 40
0.2499999999999974
 40
0.2499999999999974
 40
0.3124999999999972
 40
0.3124999999999972
 40
0.3749999999999969
 40
0.3749999999999969
 40
0.4999999999999973
 40
0.4999999999999973
 40
0.6249999999999978
 40
0.6249999999999978
 40
0.6874999999999979
 40
0.6874999999999979
 40
0.7499999999999979
 40
0.7499999999999979
 40
0.812499999999998
 40
0.812499999999998
 40
0.8749999999999987
 40
0.8749999999999987
 40
0.9374999999999993
 40
0.9374999999999993
 40
1.0
 40
1.0
 40
1.0
 40
1.0
 10
169.7878132435775
 20
91.74548472593874
 30
0.0
 10
169.9472050713654
 20
91.75332482186151
 30
0.0
 10
170.1032075548089
 20
91.77498346995195
 30
0.0
 10
170.4087170708862
 20
91.84483169744476
 30
0.0
 10
170.5596114058984
 20
91.893657399773
 30
0.0
 10
170.8475107505892
 20
92.01658135318031
 30
0.0
 10
170.9834571535489
 20
92.08988886131463
 30
0.0
 10
171.239639769141
 20
92.25989948508598
 30
0.0
 10
171.3608220569001
 20
92.35777327728745
 30
0.0
 10
171.5779681287728
 20
92.5703574527194
 30
0.0
 10
171.6749300017332
 20
92.68540339124901
 30
0.0
 10
171.8454924375587
 20
92.93326451136913
 30
0.0
 10
171.9187324907707
 20
93.06629800843473
 30
0.0
 10
172.0936129475195
 20
93.47580602456487
 30
0.0
 10
172.1546509084954
 20
93.77376667433992
 30
0.0
 10
172.1546525637185
 20
94.36520823021438
 30
0.0
 10
172.0936179541322
 20
94.66538178019096
 30
0.0
 10
171.9187281867303
 20
95.08061306045873
 30
0.0
 10
171.8454844813059
 20
95.21596817870557
 30
0.0
 10
171.6749237655692
 20
95.46886751009221
 30
0.0
 10
171.5779600499758
 20
95.58663278769997
 30
0.0
 10
171.3607997213886
 20
95.80476308306861
 30
0.0
 10
171.2396184627017
 20
95.90546640821557
 30
0.0
 10
170.9834482357631
 20
96.08071010104881
 30
0.0
 10
170.8475048861004
 20
96.15645507013942
 30
0.0
 10
170.5596021829172
 20
96.28362344544166
 30
0.0
 10
170.4087119870005
 20
96.33422471776913
 30
0.0
 10
170.1032064832948
 20
96.406653817517
 30
0.0
 10
169.9472050850313
 20
96.42913958891397
 30
0.0
 10
169.7878132435775
 20
96.43727804880882
 30
0.0
  0
LINE
  5
97
330
1F
100
AcDbEntity
  8
0
  6
Continuous
 62
     7
370
    15
100
AcDbLine
 10
168.4646516148
 20
96.9371633618
 30
0.0
 11
168.4646516148
 21
140.5844256295
 31
0.0
  0
SPLINE
  5
98
330
1F
100
AcDbEntity
  8
0
  6
Continuous
 62
     7
370
    15
100
AcDbSpline
210
0.0
220
0.0
230
1.0
 70
    24
 71
     3
 72
     8
 73
     4
 74
     0
 42
0.000000001
 43
0.00000001
 40
0.0
 40
0.0
 40
0.0
 40
0.0
 40
1.0
 40
1.0
 40
1.0
 40
1.0
 10
169.7878132435775
 20
140.5844251139399
 30
0.0
 10
169.3412115235581
 20
140.5844251139399
 30
0.0
 10
168.8998518408193
 20
140.5844251139399
 30
0.0
 10
168.4646517361156
 20
140.5844251139399
 30
0.0
  0
SPLINE
  5
99
330
1F
100
AcDbEntity
  8
0
  6
Continuous
 62
     7
370
    15
100
AcDbSpline
210
0.0
220
0.0
230
1.0
 70
     8
 71
     3
 72
    10
 73
     6
 74
     0
 42
0.000000001
 43
0.00000001
 40
0.0
 40
0.0
 40
0.0
 40
0.0
 40
0.5
 40
0.5
 40
1.0
 40
1.0
 40
1.0
 40
1.0
 10
169.7878132435775
 20
96.4372780488088
 30
0.0
 10
169.5650862167041
 20
96.58076654910258
 30
0.0
 10
169.343400329479
 20
96.69548729483546
 30
0.0
 10
168.902179491627
 20
96.86524772419334
 30
0.0
 10
168.6826208442282
 20
96.92066771858072
 30
0.0
 10
168.4646517361159
 20
96.93716304795036
 30
0.0
  0
SPLINE
  5
9A
330
1F
100
AcDbEntity
  8
0
  6
Continuous
 62
     7
370
    15
100
AcDbSpline
210
0.0
220
0.0
230
1.0
 70
     8
 71
     3
 72
    10
 73
     6
 74
     0
 42
0.000000001
 43
0.00000001
 40
0.0
 40
0.0
 40
0.0
 40
0.0
 40
0.5
 40
0.5
 40
1.0
 40
1.0
 40
1.0
 40
1.0
 10
158.8703117672696
 20
64.1009708467477
 30
0.0
 10
158.9189623358493
 20
64.07301385548028
 30
0.0
 10
158.9763475478087
 20
64.04907157045349
 30
0.0
 10
159.1070606559748
 20
64.01495310735774
 30
0.0
 10
159.1798001897134
 20
64.00516577259391
 30
0.0
 10
159.2546517361156
 20
64.00516577259391
 30
0.0
  0
SPLINE
  5
9B
330
1F
100
AcDbEntity
  8
0
  6
Continuous
 62
     7
370
    15
100
AcDbSpline
210
0.0
220
0.0
230
1.0
 70
     8
 71
     3
 72
    10
 73
     6
 74
     0
 42
0.000000001
 43
0.00000001
 40
0.0
 40
0.0
 40
0.0
 40
0.0
 40
0.5
 40
0.5
 40
1.0
 40
1.0
 40
1.0
 40
1.0
 10
158.8703117672696
 20
64.10097084674769
 30
0.0
 10
158.8121237606874
 20
64.1685545769265
 30
0.0
 10
158.7596812941611
 20
64.24903081156828
 30
0.0
 10
158.6813289869825
 20
64.43206643455099
 30
0.0
 10
158.6546517361156
 20
64.53794213734662
 30
0.0
 10
158.6546517361156
 20
64.64545544656723
 30
0.0
  0
LINE
  5
9C
330
1F
100
AcDbEntity
  8
0
  6
Continuous
 62
     7
370
    15
100
AcDbLine
 10
158.6546516553
 20
64.6454539163
 30
0.0
 11
158.6546516553
 21
140.5844256295
 31
0.0
  0
SPLINE
  5
9D
330
1F
100
AcDbEntity
  8
0
  6
Continuous
 62
     7
370
    15
100
AcDbSpline
210
0.0
220
0.0
230
1.0
 70
    24
 71
     3
 72
    14
 73
    10
 74
     0
 42
0.000000001
 43
0.00000001
 40
0.0
 40
0.0
 40
0.0
 40
0.0
 40
0.25
 40
0.25
 40
0.5
 40
0.5
 40
0.75
 40
0.75
 40
1.0
 40
1.0
 40
1.0
 40
1.0
 10
159.2546517361156
 20
140.5844251139399
 30
0.0
 10
159.165629783772
 20
140.5844251139399
 30
0.0
 10
159.0759430844984
 20
140.5844251139399
 30
0.0
 10
158.9222162589411
 20
140.5844251139399
 30
0.0
 10
158.8570113643143
 20
140.5844251139399
 30
0.0
 10
158.7544206701439
 20
140.5844251139399
 30
0.0
 10
158.716783215828
 20
140.5844251139399
 30
0.0
 10
158.6666913004428
 20
140.5844251139399
 30
0.0
 10
158.6546517361156
 20
140.5844251139399
 30
0.0
 10
158.6546517361156
 20
140.5844251139399
 30
0.0
  0
SPLINE
  5
9E
330
1F
100
AcDbEntity
  8
0
  6
Continuous
 62
     7
370
    15
100
AcDbSpline
210
0.0
220
0.0
230
1.0
 70
     8
 71
     3
 72
     8
 73
     4
 74
     0
 42
0.000000001
 43
0.00000001
 40
0.0
 40
0.0
 40
0.0
 40
0.0
 40
1.0
 40
1.0
 40
1.0
 40
1.0
 10
164.6446517361156
 20
66.11468570511015
 30
0.0
 10
164.3549232900911
 20
65.59246569494661
 30
0.0
 10
164.0648981398733
 20
65.07041231268664
 30
0.0
 10
163.7746039056115
 20
64.54851004696354
 30
0.0
  0
SPLINE
  5
9F
330
1F
100
AcDbEntity
  8
0
  6
Continuous
 62
     7
370
    15
100
AcDbSpline
210
0.0
220
0.0
230
1.0
 70
     8
 71
     3
 72
     8
 73
     4
 74
     0
 42
0.000000001
 43
0.00000001
 40
0.0
 40
0.0
 40
0.0
 40
0.0
 40
0.0011862984959113
 40
0.0011862984959113
 40
0.0011862984959113
 40
0.0011862984959113
 10
163.3214902286537
 20
64.00516577259391
 30
0.0
 10
163.4735149905246
 20
64.1860776222119
 30
0.0
 10
163.6245724357404
 20
64.36718995265275
 30
0.0
 10
163.7746039056115
 20
64.54851004696354
 30
0.0
  0
SPLINE
  5
A0
330
1F
100
AcDbEntity
  8
0
  6
Continuous
 62
     7
370
    15
100
AcDbSpline
210
0.0
220
0.0
230
1.0
 70
    24
 71
     3
 72
     8
 73
     4
 74
     0
 42
0.000000001
 43
0.00000001
 40
0.0
 40
0.0
 40
0.0
 40
0.0
 40
1.0
 40
1.0
 40
1.0
 40
1.0
 10
164.6446517361156
 20
140.5844251139399
 30
0.0
 10
164.209451631412
 20
140.5844251139399
 30
0.0
 10
163.7680919486731
 20
140.5844251139399
 30
0.0
 10
163.3214902286537
 20
140.5844251139399
 30
0.0
  0
LINE
  5
A1
330
1F
100
AcDbEntity
  8
0
  6
Continuous
 62
     7
370
    15
100
AcDbLine
 10
164.6446513985
 20
66.1146860583
 30
0.0
 11
164.6446513985
 21
140.5844256295
 31
0.0
  0
SPLINE
  5
A2
330
1F
100
AcDbEntity
  8
0
  6
Continuous
 62
     7
370
    15
100
AcDbSpline
210
0.0
220
0.0
230
1.0
 70
     8
 71
     3
 72
    12
 73
     8
 74
     0
 42
0.000000001
 43
0.00000001
 40
0.0
 40
0.0
 40
0.0
 40
0.0
 40
0.2499999999999992
 40
0.2499999999999992
 40
0.4999999999999984
 40
0.4999999999999984
 40
1.0
 40
1.0
 40
1.0
 40
1.0
 10
173.9046517361156
 20
64.00516577259391
 30
0.0
 10
174.0006244892905
 20
64.00516577259391
 30
0.0
 10
174.093052453445
 20
64.0214390967025
 30
0.0
 10
174.2494825535544
 20
64.07481281869892
 30
0.0
 10
174.3129609783273
 20
64.11094107623325
 30
0.0
 10
174.4612401391544
 20
64.23164227251252
 30
0.0
 10
174.5046517361156
 20
64.3254918588777
 30
0.0
 10
174.5046517361156
 20
64.41979613382492
 30
0.0
  0
SPLINE
  5
A3
330
1F
100
AcDbEntity
  8
0
  6
Continuous
 62
     7
370
    15
100
AcDbSpline
210
0.0
220
0.0
230
1.0
 70
    24
 71
     3
 72
    12
 73
     8
 74
     0
 42
0.000000001
 43
0.00000001
 40
0.0
 40
0.0
 40
0.0
 40
0.0
 40
0.5
 40
0.5
 40
0.75
 40
0.75
 40
1.0
 40
1.0
 40
1.0
 40
1.0
 10
174.5046517361156
 20
140.5844251139399
 30
0.0
 10
174.5046517361156
 20
140.5844251139399
 30
0.0
 10
174.4565210477302
 20
140.5844251139399
 30
0.0
 10
174.3026239919272
 20
140.5844251139399
 30
0.0
 10
174.2371594269204
 20
140.5844251139399
 30
0.0
 10
174.0836301063103
 20
140.5844251139399
 30
0.0
 10
173.9952814455745
 20
140.5844251139399
 30
0.0
 10
173.9046517361154
 20
140.5844251139399
 30
0.0
  0
LINE
  5
A4
330
1F
100
AcDbEntity
  8
0
  6
Continuous
 62
     7
370
    15
100
AcDbLine
 10
174.5046519716
 20
64.4197944565
 30
0.0
 11
174.5046519716
 21
140.5844256295
 31
0.0
  0
SPLINE
  5
A5
330
1F
100
AcDbEntity
  8
0
  6
Continuous
 62
     7
370
    15
100
AcDbSpline
210
0.0
220
0.0
230
1.0
 70
     8
 71
     3
 72
    14
 73
    10
 74
     0
 42
0.000000001
 43
0.00000001
 40
0.0
 40
0.0
 40
0.0
 40
0.0
 40
0.25
 40
0.25
 40
0.5
 40
0.5
 40
0.75
 40
0.75
 40
1.0
 40
1.0
 40
1.0
 40
1.0
 10
168.4646517361156
 20
96.98277726996287
 30
0.0
 10
168.4646517361156
 20
97.0247536518164
 30
0.0
 10
168.4350087821444
 20
97.0526040394573
 30
0.0
 10
168.3283539484144
 20
97.06610291474732
 30
0.0
 10
168.2520755538102
 20
97.05148741270963
 30
0.0
 10
168.0840240107437
 20
96.97939820854144
 30
0.0
 10
167.9929042041354
 20
96.9222605980587
 30
0.0
 10
167.8202270918827
 20
96.78003289746744
 30
0.0
 10
167.7393046523547
 20
96.69646907195538
 30
0.0
 10
167.6646517361156
 20
96.60309940005946
 30
0.0
  0
SPLINE
  5
A6
330
1F
100
AcDbEntity
  8
0
  6
Continuous
 62
     7
370
    15
100
AcDbSpline
210
0.0
220
0.0
230
1.0
 70
     8
 71
     3
 72
    10
 73
     6
 74
     0
 42
0.000000001
 43
0.00000001
 40
0.0
 40
0.0
 40
0.0
 40
0.0
 40
0.5
 40
0.5
 40
1.0
 40
1.0
 40
1.0
 40
1.0
 10
168.4646517361159
 20
92.80512184931882
 30
0.0
 10
168.6815425686366
 20
92.56808290987028
 30
0.0
 10
168.9006952052955
 20
92.36591267487678
 30
0.0
 10
169.3421797055644
 20
92.0151606033581
 30
0.0
 10
169.5653821708378
 20
91.86648451096124
 30
0.0
 10
169.7878132435775
 20
91.74548472593874
 30
0.0
  0
LINE
  5
A7
330
1F
100
AcDbEntity
  8
0
  6
Continuous
 62
     7
370
    15
100
AcDbLine
 10
168.4646516148
 20
92.8507369025
 30
0.0
 11
168.4646516148
 21
92.8051225854
 31
0.0
  0
SPLINE
  5
A8
330
1F
100
AcDbEntity
  8
0
  6
Continuous
 62
     7
370
    15
100
AcDbSpline
210
0.0
220
0.0
230
1.0
 70
     8
 71
     3
 72
    16
 73
    12
 74
     0
 42
0.000000001
 43
0.00000001
 40
0.0
 40
0.0
 40
0.0
 40
0.0
 40
0.2500000000000004
 40
0.2500000000000004
 40
0.5000000000000009
 40
0.5000000000000009
 40
0.6249999999999976
 40
0.6249999999999976
 40
0.7499999999999942
 40
0.7499999999999942
 40
1.0
 40
1.0
 40
1.0
 40
1.0
 10
167.6646517361156
 20
93.75913555700582
 30
0.0
 10
167.7386596263378
 20
93.66878797682017
 30
0.0
 10
167.8192776213268
 20
93.58082840402052
 30
0.0
 10
167.993045606831
 20
93.40449347995894
 30
0.0
 10
168.0837967377725
 20
93.31888623929294
 30
0.0
 10
168.209909835234
 20
93.19769054326792
 30
0.0
 10
168.2494865960972
 20
93.15915896427708
 30
0.0
 10
168.3219692527984
 20
93.08476297814777
 30
0.0
 10
168.3548972432673
 20
93.04874619022627
 30
0.0
 10
168.4346874132622
 20
92.94999351440927
 30
0.0
 10
168.4646517361156
 20
92.89322951262719
 30
0.0
 10
168.4646517361156
 20
92.85073607133162
 30
0.0
  0
SPLINE
  5
A9
330
1F
100
AcDbEntity
  8
0
  6
Continuous
 62
     7
370
    15
100
AcDbSpline
210
0.0
220
0.0
230
1.0
 70
     8
 71
     3
 72
    16
 73
    12
 74
     0
 42
0.000000001
 43
0.00000001
 40
0.0
 40
0.0
 40
0.0
 40
0.0
 40
0.2500000000000006
 40
0.2500000000000006
 40
0.5000000000000012
 40
0.5000000000000012
 40
0.7500000000000002
 40
0.7500000000000002
 40
0.8750000000000001
 40
0.8750000000000001
 40
1.0
 40
1.0
 40
1.0
 40
1.0
 10
167.6646517361156
 20
96.60309940005946
 30
0.0
 10
167.4992376296354
 20
96.39621316403412
 30
0.0
 10
167.3730402986599
 20
96.17034446622536
 30
0.0
 10
167.198634000329
 20
95.68147522061247
 30
0.0
 10
167.1548039612321
 20
95.42970816726788
 30
0.0
 10
167.1545002882621
 20
94.91792884268555
 30
0.0
 10
167.1983571483224
 20
94.66687413360285
 30
0.0
 10
167.3282789075896
 20
94.30602556546073
 30
0.0
 10
167.3823937189976
 20
94.18875279711219
 30
0.0
 10
167.5090707091411
 20
93.96626384577334
 30
0.0
 10
167.5819444295018
 20
93.86010323753008
 30
0.0
 10
167.6646517361156
 20
93.75913555700582
 30
0.0
  0
SPLINE
  5
AA
330
1F
100
AcDbEntity
  8
0
  6
Continuous
 62
     7
370
    15
100
AcDbSpline
210
0.0
220
0.0
230
1.0
 70
     8
 71
     3
 72
    14
 73
    10
 74
     0
 42
0.000000001
 43
0.00000001
 40
0.0
 40
0.0
 40
0.0
 40
0.0
 40
0.25
 40
0.25
 40
0.5
 40
0.5
 40
0.75
 40
0.75
 40
1.0
 40
1.0
 40
1.0
 40
1.0
 10
165.4446517361156
 20
67.08665884807013
 30
0.0
 10
165.3382067282063
 20
67.08665884807013
 30
0.0
 10
165.2313079769329
 20
67.06408929863703
 30
0.0
 10
165.0350897214904
 20
66.9776462073951
 30
0.0
 10
164.9454314080259
 20
66.91334228972795
 30
0.0
 10
164.7999776951448
 20
66.758372775685
 30
0.0
 10
164.7419419124186
 20
66.66560728944127
 30
0.0
 10
164.664656758034
 20
66.46714040779788
 30
0.0
 10
164.6446517361156
 20
66.3601159860041
 30
0.0
 10
164.6446517361156
 20
66.25333362553327
 30
0.0
  0
SPLINE
  5
AB
330
1F
100
AcDbEntity
  8
0
  6
Continuous
 62
     7
370
    15
100
AcDbSpline
210
0.0
220
0.0
230
1.0
 70
    24
 71
     3
 72
    14
 73
    10
 74
     0
 42
0.000000001
 43
0.00000001
 40
0.0
 40
0.0
 40
0.0
 40
0.0
 40
0.25
 40
0.25
 40
0.5
 40
0.5
 40
0.75
 40
0.75
 40
1.0
 40
1.0
 40
1.0
 40
1.0
 10
165.4446517361156
 20
140.5844251139399
 30
0.0
 10
165.3216704365693
 20
140.5844251139399
 30
0.0
 10
165.2014805481673
 20
140.5844251139399
 30
0.0
 10
164.9964567184881
 20
140.5844251139399
 30
0.0
 10
164.909862229686
 20
140.5844251139399
 30
0.0
 10
164.7747543429236
 20
140.5844251139399
 30
0.0
 10
164.7262312578955
 20
140.5844251139399
 30
0.0
 10
164.6605487491687
 20
140.5844251139399
 30
0.0
 10
164.6446517361156
 20
140.5844251139399
 30
0.0
 10
164.6446517361156
 20
140.5844251139399
 30
0.0
  0
SPLINE
  5
AC
330
1F
100
AcDbEntity
  8
0
  6
Continuous
 62
     7
370
    15
100
AcDbSpline
210
0.0
220
0.0
230
1.0
 70
    24
 71
     3
 72
    14
 73
    10
 74
     0
 42
0.000000001
 43
0.00000001
 40
0.0
 40
0.0
 40
0.0
 40
0.0
 40
0.25
 40
0.25
 40
0.5
 40
0.5
 40
0.75
 40
0.75
 40
1.0
 40
1.0
 40
1.0
 40
1.0
 10
168.4646517361156
 20
140.5844251139399
 30
0.0
 10
168.4646517361156
 20
140.5844251139399
 30
0.0
 10
168.4483707013398
 20
140.5844251139399
 30
0.0
 10
168.3837076388152
 20
140.5844251139399
 30
0.0
 10
168.3342278425265
 20
140.5844251139399
 30
0.0
 10
168.2002580853878
 20
140.5844251139399
 30
0.0
 10
168.1141433587883
 20
140.5844251139399
 30
0.0
 10
167.9086872430753
 20
140.5844251139399
 30
0.0
 10
167.7872667058824
 20
140.5844251139399
 30
0.0
 10
167.6646517361156
 20
140.5844251139399
 30
0.0
  0
LINE
  5
AD
330
1F
100
AcDbEntity
  8
0
  6
Continuous
 62
     7
370
    15
100
AcDbLine
 10
167.6646520425
 20
67.0866590007
 30
0.0
 11
165.4446519021
 21
67.0866590007
 31
0.0
  0
LINE
  5
AE
330
1F
100
AcDbEntity
  8
0
  6
Continuous
 62
     7
370
    15
100
AcDbLine
 10
167.6646520425
 20
140.5844256295
 30
0.0
 11
165.4446519021
 21
140.5844256295
 31
0.0
  0
SPLINE
  5
AF
330
1F
100
AcDbEntity
  8
0
  6
Continuous
 62
     7
370
    15
100
AcDbSpline
210
0.0
220
0.0
230
1.0
 70
     8
 71
     3
 72
     8
 73
     4
 74
     0
 42
0.000000001
 43
0.00000001
 40
0.0000000000000004
 40
0.0000000000000004
 40
0.0000000000000004
 40
0.0000000000000004
 40
0.0011862984959128
 40
0.0011862984959128
 40
0.0011862984959128
 40
0.0011862984959128
 10
169.3346995666158
 20
64.54851004696354
 30
0.0
 10
169.4847310364871
 20
64.36718995265251
 30
0.0
 10
169.6357884817065
 20
64.18607762221214
 30
0.0
 10
169.7878132435775
 20
64.00516577259391
 30
0.0
  0
SPLINE
  5
B0
330
1F
100
AcDbEntity
  8
0
  6
Continuous
 62
     7
370
    15
100
AcDbSpline
210
0.0
220
0.0
230
1.0
 70
     8
 71
     3
 72
     8
 73
     4
 74
     0
 42
0.000000001
 43
0.00000001
 40
0.0
 40
0.0
 40
0.0
 40
0.0
 40
1.0
 40
1.0
 40
1.0
 40
1.0
 10
169.3346995666188
 20
64.54851004696522
 30
0.0
 10
169.0444053323573
 20
65.07041231268776
 30
0.0
 10
168.7543801821399
 20
65.59246569494717
 30
0.0
 10
168.4646517361156
 20
66.11468570511015
 30
0.0
  0
LINE
  5
B1
330
1F
100
AcDbEntity
  8
0
  6
Continuous
 62
     7
370
    15
100
AcDbLine
 10
168.4646516148
 20
66.1146860583
 30
0.0
 11
168.4646516148
 21
92.8051225854
 31
0.0
  0
SPLINE
  5
B2
330
1F
100
AcDbEntity
  8
0
  6
Continuous
 62
     7
370
    15
100
AcDbSpline
210
0.0
220
0.0
230
1.0
 70
     8
 71
     3
 72
    14
 73
    10
 74
     0
 42
0.000000001
 43
0.00000001
 40
0.0
 40
0.0
 40
0.0
 40
0.0
 40
0.25
 40
0.25
 40
0.5
 40
0.5
 40
0.75
 40
0.75
 40
1.0
 40
1.0
 40
1.0
 40
1.0
 10
168.4646517361156
 20
66.25333362553329
 30
0.0
 10
168.4646517361156
 20
66.36039761187409
 30
0.0
 10
168.4446679098756
 20
66.4671369382486
 30
0.0
 10
168.3672328274421
 20
66.6658868404394
 30
0.0
 10
168.3092939052827
 20
66.75844105693191
 30
0.0
 10
168.1636560995219
 20
66.9135380003375
 30
0.0
 10
168.0748671031866
 20
66.97727815725037
 30
0.0
 10
167.8783187429821
 20
67.06402671433797
 30
0.0
 10
167.7721795132827
 20
67.08665884807013
 30
0.0
 10
167.6646517361156
 20
67.08665884807013
 30
0.0
  0
LINE
  5
B3
330
1F
100
AcDbEntity
  8
0
  6
Continuous
 62
     7
370
    15
100
AcDbLine
 10
155.4546517361
 20
75.8094262345
 30
0.0
 11
155.4546517361
 21
145.6594239934
 31
0.0
  0
SPLINE
  5
B4
330
1F
100
AcDbEntity
  8
0
  6
Continuous
 62
     7
370
    15
100
AcDbSpline
210
0.0
220
0.0
230
1.0
 70
     8
 71
     3
 72
    12
 73
     8
 74
     0
 42
0.000000001
 43
0.00000001
 40
0.0
 40
0.0
 40
0.0
 40
0.0
 40
0.2500000000000007
 40
0.2500000000000007
 40
0.5000000000000014
 40
0.5000000000000014
 40
1.0
 40
1.0
 40
1.0
 40
1.0
 10
165.4446517361156
 20
154.3821913798097
 30
0.0
 10
165.3383067562396
 20
154.3821913798097
 30
0.0
 10
165.2310304088371
 20
154.4049066176692
 30
0.0
 10
165.0356546194409
 20
154.4909317845515
 30
0.0
 10
164.947100883364
 20
154.55391051148
 30
0.0
 10
164.7258429592328
 20
154.789102021917
 30
0.0
 10
164.6446517361156
 20
155.0022782364023
 30
0.0
 10
164.6446517361156
 20
155.2155166023464
 30
0.0
  0
SPLINE
  5
B5
330
1F
100
AcDbEntity
  8
0
  6
Continuous
 62
     7
370
    15
100
AcDbSpline
210
0.0
220
0.0
230
1.0
 70
     8
 71
     3
 72
    12
 73
     8
 74
     0
 42
0.000000001
 43
0.00000001
 40
0.0
 40
0.0
 40
0.0
 40
0.0
 40
0.499999999999994
 40
0.499999999999994
 40
0.749999999999997
 40
0.749999999999997
 40
1.0
 40
1.0
 40
1.0
 40
1.0
 10
164.6446517361156
 20
146.127468215657
 30
0.0
 10
164.6446517361156
 20
145.8850451196762
 30
0.0
 10
164.7075728775575
 20
145.6392745990748
 30
0.0
 10
164.9096017745599
 20
145.334328419658
 30
0.0
 10
164.9958954992071
 20
145.2437355530595
 30
0.0
 10
165.2013692937738
 20
145.1133019901227
 30
0.0
 10
165.3213198543735
 20
145.074307175473
 30
0.0
 10
165.4446517361156
 20
145.074307175473
 30
0.0
  0
SPLINE
  5
B6
330
1F
100
AcDbEntity
  8
0
  6
Continuous
 62
     7
370
    15
100
AcDbSpline
210
0.0
220
0.0
230
1.0
 70
     8
 71
     3
 72
    12
 73
     8
 74
     0
 42
0.000000001
 43
0.00000001
 40
0.0
 40
0.0
 40
0.0
 40
0.0
 40
0.4999999999999982
 40
0.4999999999999982
 40
0.7499999999999991
 40
0.7499999999999991
 40
1.0
 40
1.0
 40
1.0
 40
1.0
 10
174.5046517361156
 20
157.0294120671704
 30
0.0
 10
174.5046517361156
 20
157.1496046738355
 30
0.0
 10
174.4506833058466
 20
157.2675119743506
 30
0.0
 10
174.2895966649137
 20
157.4068915188339
 30
0.0
 10
174.2248342454405
 20
157.4450568163979
 30
0.0
 10
174.0727802438761
 20
157.4997090787313
 30
0.0
 10
173.9900504707269
 20
157.5142697687155
 30
0.0
 10
173.9046517361156
 20
157.5142697687155
 30
0.0
  0
SPLINE
  5
B7
330
1F
100
AcDbEntity
  8
0
  6
Continuous
 62
     7
370
    15
100
AcDbSpline
210
0.0
220
0.0
230
1.0
 70
     8
 71
     3
 72
    12
 73
     8
 74
     0
 42
0.000000001
 43
0.00000001
 40
0.0
 40
0.0
 40
0.0
 40
0.0
 40
0.2499999999999946
 40
0.2499999999999946
 40
0.4999999999999892
 40
0.4999999999999892
 40
1.0
 40
1.0
 40
1.0
 40
1.0
 10
173.9046517361161
 20
149.2455030656151
 30
0.0
 10
173.9941887942872
 20
149.245503065615
 30
0.0
 10
174.0840879730758
 20
149.218675766784
 30
0.0
 10
174.2375128320751
 20
149.1269688015245
 30
0.0
 10
174.3025618894528
 20
149.0627138599257
 30
0.0
 10
174.4558811207171
 20
148.8433017138641
 30
0.0
 10
174.5046517361156
 20
148.6614864040672
 30
0.0
 10
174.5046517361156
 20
148.4835062285843
 30
0.0
  0
LINE
  5
B8
330
1F
100
AcDbEntity
  8
0
  6
Continuous
 62
     7
370
    15
100
AcDbLine
 10
174.5046519716
 20
148.483506964
 30
0.0
 11
174.5046519716
 21
157.0294123156
 31
0.0
  0
SPLINE
  5
B9
330
1F
100
AcDbEntity
  8
0
  6
Continuous
 62
     7
370
    15
100
AcDbSpline
210
0.0
220
0.0
230
1.0
 70
     8
 71
     3
 72
    14
 73
    10
 74
     0
 42
0.000000001
 43
0.00000001
 40
0.0
 40
0.0
 40
0.0
 40
0.0
 40
0.25
 40
0.25
 40
0.5
 40
0.5
 40
0.75
 40
0.75
 40
1.0
 40
1.0
 40
1.0
 40
1.0
 10
168.4646517361156
 20
155.2155166023465
 30
0.0
 10
168.4646517361156
 20
155.1081742301991
 30
0.0
 10
168.4446555440514
 20
155.0015452233513
 30
0.0
 10
168.3669574597068
 20
154.8023934442001
 30
0.0
 10
168.3089643148132
 20
154.7099105458846
 30
0.0
 10
168.1629178219903
 20
154.5546747107754
 30
0.0
 10
168.0735800828227
 20
154.490940769163
 30
0.0
 10
167.8788250707622
 20
154.4051105027679
 30
0.0
 10
167.7712947995533
 20
154.3821913798094
 30
0.0
 10
167.6646517361135
 20
154.3821913798097
 30
0.0
  0
SPLINE
  5
BA
330
1F
100
AcDbEntity
  8
0
  6
Continuous
 62
     7
370
    15
100
AcDbSpline
210
0.0
220
0.0
230
1.0
 70
     8
 71
     3
 72
    14
 73
    10
 74
     0
 42
0.000000001
 43
0.00000001
 40
0.0
 40
0.0
 40
0.0
 40
0.0
 40
0.25
 40
0.25
 40
0.5
 40
0.5
 40
0.75
 40
0.75
 40
1.0
 40
1.0
 40
1.0
 40
1.0
 10
167.6646517361156
 20
145.074307175473
 30
0.0
 10
167.7859782661014
 20
145.074307175473
 30
0.0
 10
167.9076829746636
 20
145.1130886909062
 30
0.0
 10
168.1141228535497
 20
145.2442433126
 30
0.0
 10
168.2000733920058
 20
145.3348953971872
 30
0.0
 10
168.333985151754
 20
145.5370124321285
 30
0.0
 10
168.3835495885732
 20
145.6507473756676
 30
0.0
 10
168.4484036165412
 20
145.8837069927341
 30
0.0
 10
168.4646517361156
 20
146.0064052590633
 30
0.0
 10
168.4646517361156
 20
146.127468215657
 30
0.0
  0
LINE
  5
BB
330
1F
100
AcDbEntity
  8
0
  6
Continuous
 62
     7
370
    15
100
AcDbLine
 10
173.9046511281
 20
157.5142700238
 30
0.0
 11
169.7878132615
 21
157.5142700238
 31
0.0
  0
LINE
  5
BC
330
1F
100
AcDbEntity
  8
0
  6
Continuous
 62
     7
370
    15
100
AcDbLine
 10
169.7878132615
 20
149.2455039187
 30
0.0
 11
173.9046511281
 21
149.2455039187
 31
0.0
  0
LINE
  5
BD
330
1F
100
AcDbEntity
  8
0
  6
Continuous
 62
     7
370
    15
100
AcDbLine
 10
169.7878132615
 20
149.2455039187
 30
0.0
 11
169.7878132615
 21
157.5142700238
 31
0.0
  0
LINE
  5
BE
330
1F
100
AcDbEntity
  8
0
  6
Continuous
 62
     7
370
    15
100
AcDbLine
 10
167.6646520425
 20
154.3821912272
 30
0.0
 11
165.4446519021
 21
154.3821912272
 31
0.0
  0
LINE
  5
BF
330
1F
100
AcDbEntity
  8
0
  6
Continuous
 62
     7
370
    15
100
AcDbLine
 10
165.4446519021
 20
145.0743075474
 30
0.0
 11
167.6646520425
 21
145.0743075474
 31
0.0
  0
SPLINE
  5
C0
330
1F
100
AcDbEntity
  8
0
  6
Continuous
 62
     7
370
    15
100
AcDbSpline
210
0.0
220
0.0
230
1.0
 70
     8
 71
     3
 72
     8
 73
     4
 74
     0
 42
0.000000001
 43
0.00000001
 40
0.0
 40
0.0
 40
0.0
 40
0.0
 40
0.0012352705496723
 40
0.0012352705496723
 40
0.0012352705496723
 40
0.0012352705496723
 10
163.8779807139482
 20
156.734458358609
 30
0.0
 10
163.6929454631463
 20
156.9945599343372
 30
0.0
 10
163.5074386539756
 20
157.2544940129642
 30
0.0
 10
163.3214902286537
 20
157.5142697687155
 30
0.0
  0
SPLINE
  5
C1
330
1F
100
AcDbEntity
  8
0
  6
Continuous
 62
     7
370
    15
100
AcDbSpline
210
0.0
220
0.0
230
1.0
 70
     8
 71
     3
 72
     8
 73
     4
 74
     0
 42
0.000000001
 43
0.00000001
 40
0.0
 40
0.0
 40
0.0
 40
0.0
 40
1.0
 40
1.0
 40
1.0
 40
1.0
 10
164.6446517361156
 20
155.3541645227697
 30
0.0
 10
164.3893204228103
 20
155.8143855430353
 30
0.0
 10
164.133757024704
 20
156.2744800033437
 30
0.0
 10
163.8779807139482
 20
156.734458358609
 30
0.0
  0
SPLINE
  5
C2
330
1F
100
AcDbEntity
  8
0
  6
Continuous
 62
     7
370
    15
100
AcDbSpline
210
0.0
220
0.0
230
1.0
 70
     8
 71
     3
 72
     8
 73
     4
 74
     0
 42
0.000000001
 43
0.00000001
 40
0.0
 40
0.0
 40
0.0
 40
0.0
 40
1.0
 40
1.0
 40
1.0
 40
1.0
 10
163.3214902286537
 20
149.2455030656151
 30
0.0
 10
163.7683389565814
 20
148.2662671673588
 30
0.0
 10
164.2097053144772
 20
147.2850651746319
 30
0.0
 10
164.6446517361156
 20
146.3015608562495
 30
0.0
  0
LINE
  5
C3
330
1F
100
AcDbEntity
  8
0
  6
Continuous
 62
     7
370
    15
100
AcDbLine
 10
163.3214906831
 20
149.2455039187
 30
0.0
 11
163.3214906831
 21
157.5142700238
 31
0.0
  0
LINE
  5
C4
330
1F
100
AcDbEntity
  8
0
  6
Continuous
 62
     7
370
    15
100
AcDbLine
 10
164.6446513985
 20
146.3015597327
 30
0.0
 11
164.6446513985
 21
155.3541641696
 31
0.0
  0
SPLINE
  5
C5
330
1F
100
AcDbEntity
  8
0
  6
Continuous
 62
     7
370
    15
100
AcDbSpline
210
0.0
220
0.0
230
1.0
 70
     8
 71
     3
 72
    10
 73
     6
 74
     0
 42
0.000000001
 43
0.00000001
 40
0.0
 40
0.0
 40
0.0
 40
0.0
 40
0.5
 40
0.5
 40
1.0
 40
1.0
 40
1.0
 40
1.0
 10
158.944520655062
 20
157.4445894396627
 30
0.0
 10
158.8680675651431
 20
157.3743266684421
 30
0.0
 10
158.799205842874
 20
157.2872317534003
 30
0.0
 10
158.6926936118011
 20
157.078062625148
 30
0.0
 10
158.6546517361156
 20
156.9527450759085
 30
0.0
 10
158.6546517361156
 20
156.8233947813126
 30
0.0
  0
SPLINE
  5
C6
330
1F
100
AcDbEntity
  8
0
  6
Continuous
 62
     7
370
    15
100
AcDbSpline
210
0.0
220
0.0
230
1.0
 70
     8
 71
     3
 72
     8
 73
     4
 74
     0
 42
0.000000001
 43
0.00000001
 40
0.0
 40
0.0
 40
0.0
 40
0.0
 40
1.0
 40
1.0
 40
1.0
 40
1.0
 10
159.2546517361156
 20
157.5142697687155
 30
0.0
 10
159.1435735507781
 20
157.5142697687155
 30
0.0
 10
159.0359095468759
 20
157.4891205931609
 30
0.0
 10
158.944520655062
 20
157.4445894396627
 30
0.0
  0
SPLINE
  5
C7
330
1F
100
AcDbEntity
  8
0
  6
Continuous
 62
     7
370
    15
100
AcDbSpline
210
0.0
220
0.0
230
1.0
 70
     8
 71
     3
 72
    12
 73
     8
 74
     0
 42
0.000000001
 43
0.00000001
 40
0.0
 40
0.0
 40
0.0
 40
0.0
 40
0.5000000000000003
 40
0.5000000000000003
 40
0.7500000000000001
 40
0.7500000000000001
 40
1.0
 40
1.0
 40
1.0
 40
1.0
 10
158.6546517361156
 20
148.4835062285843
 30
0.0
 10
158.6546517361156
 20
148.6618664958236
 30
0.0
 10
158.7019638574916
 20
148.8406389075275
 30
0.0
 10
158.856323935373
 20
149.0624007728793
 30
0.0
 10
158.921209470292
 20
149.1266928114957
 30
0.0
 10
159.0764421695202
 20
149.2193372956553
 30
0.0
 10
159.1655175821885
 20
149.2455030656151
 30
0.0
 10
159.2546517361156
 20
149.2455030656151
 30
0.0
  0
LINE
  5
C8
330
1F
100
AcDbEntity
  8
0
  6
Continuous
 62
     7
370
    15
100
AcDbLine
 10
158.6546516553
 20
148.483506964
 30
0.0
 11
158.6546516553
 21
156.8233963115
 31
0.0
  0
LINE
  5
C9
330
1F
100
AcDbEntity
  8
0
  6
Continuous
 62
     7
370
    15
100
AcDbLine
 10
159.2546518002
 20
149.2455039187
 30
0.0
 11
163.3214906831
 21
149.2455039187
 31
0.0
  0
SPLINE
  5
CA
330
1F
100
AcDbEntity
  8
0
  6
Continuous
 62
     7
370
    15
100
AcDbSpline
210
0.0
220
0.0
230
1.0
 70
     8
 71
     3
 72
     8
 73
     4
 74
     0
 42
0.000000001
 43
0.00000001
 40
0.0
 40
0.0
 40
0.0
 40
0.0
 40
1.0
 40
1.0
 40
1.0
 40
1.0
 10
168.4646517361156
 20
146.3015608562495
 30
0.0
 10
168.899598157754
 20
147.2850651746319
 30
0.0
 10
169.3409645156498
 20
148.2662671673588
 30
0.0
 10
169.7878132435775
 20
149.2455030656151
 30
0.0
  0
LINE
  5
CB
330
1F
100
AcDbEntity
  8
0
  6
Continuous
 62
     7
370
    15
100
AcDbLine
 10
164.6446513985
 20
146.3015597327
 30
0.0
 11
164.6446513985
 21
146.1274694665
 31
0.0
  0
LINE
  5
CC
330
1F
100
AcDbEntity
  8
0
  6
Continuous
 62
     7
370
    15
100
AcDbLine
 10
168.4646516148
 20
146.1274694665
 30
0.0
 11
168.4646516148
 21
146.3015597327
 31
0.0
  0
LINE
  5
CD
330
1F
100
AcDbEntity
  8
0
  6
Continuous
 62
     7
370
    15
100
AcDbLine
 10
174.5046519716
 20
148.483506964
 30
0.0
 11
174.5046519716
 21
140.5844256295
 31
0.0
  0
LINE
  5
CE
330
1F
100
AcDbEntity
  8
0
  6
Continuous
 62
     7
370
    15
100
AcDbLine
 10
158.6546516553
 20
148.483506964
 30
0.0
 11
158.6546516553
 21
140.5844256295
 31
0.0
  0
SPLINE
  5
CF
330
1F
100
AcDbEntity
  8
0
  6
Continuous
 62
     7
370
    15
100
AcDbSpline
210
0.0
220
0.0
230
1.0
 70
     8
 71
     3
 72
     8
 73
     4
 74
     0
 42
0.000000001
 43
0.00000001
 40
0.0
 40
0.0
 40
0.0
 40
0.0
 40
1.0
 40
1.0
 40
1.0
 40
1.0
 10
169.231322758282
 20
156.7344583586073
 30
0.0
 10
168.9755464475266
 20
156.2744800033425
 30
0.0
 10
168.7199830494206
 20
155.8143855430347
 30
0.0
 10
168.4646517361156
 20
155.3541645227697
 30
0.0
  0
SPLINE
  5
D0
330
1F
100
AcDbEntity
  8
0
  6
Continuous
 62
     7
370
    15
100
AcDbSpline
210
0.0
220
0.0
230
1.0
 70
     8
 71
     3
 72
     8
 73
     4
 74
     0
 42
0.000000001
 43
0.00000001
 40
0.0
 40
0.0
 40
0.0
 40
0.0
 40
0.0012352705496738
 40
0.0012352705496738
 40
0.0012352705496738
 40
0.0012352705496738
 10
169.7878132435775
 20
157.5142697687155
 30
0.0
 10
169.6018648182554
 20
157.2544940129638
 30
0.0
 10
169.4163580090843
 20
156.9945599343365
 30
0.0
 10
169.2313227582822
 20
156.7344583586078
 30
0.0
  0
LINE
  5
D1
330
1F
100
AcDbEntity
  8
0
  6
Continuous
 62
     7
370
    15
100
AcDbLine
 10
168.4646516148
 20
146.3015597327
 30
0.0
 11
168.4646516148
 21
155.3541641696
 31
0.0
  0
LINE
  5
D2
330
1F
100
AcDbEntity
  8
0
  6
Continuous
 62
     7
370
    15
100
AcDbLine
 10
163.3214906831
 20
157.5142700238
 30
0.0
 11
159.2546518002
 21
157.5142700238
 31
0.0
  0
LINE
  5
D3
330
1F
100
AcDbEntity
  8
0
  6
Continuous
 62
     7
370
    15
100
AcDbLine
 10
53.854652964
 20
92.3555806293
 30
0.0
 11
53.854652964
 21
129.1132695986
 31
0.0
  0
SPLINE
  5
D4
330
1F
100
AcDbEntity
  8
0
  6
Continuous
 62
     7
370
    15
100
AcDbSpline
210
0.0
220
0.0
230
1.0
 70
     8
 71
     3
 72
    17
 73
    13
 74
     0
 42
0.000000001
 43
0.00000001
 40
0.0
 40
0.0
 40
0.0
 40
0.0
 40
0.0555080916343326
 40
0.1403530877992213
 40
0.2308781370104965
 40
0.3335119536515789
 40
0.4488258357233613
 40
0.5710274320435409
 40
0.6945113364383809
 40
0.8161986662601525
 40
0.9279440296212392
 40
1.0
 40
1.0
 40
1.0
 40
1.0
 10
248.3498168219081
 20
126.7214469624993
 30
0.0
 10
248.3541651557379
 20
126.7224256568569
 30
0.0
 10
248.3651599866143
 20
126.7249003010223
 30
0.0
 10
247.8931283038417
 20
126.6149741852877
 30
0.0
 10
247.0409648779543
 20
126.4420816388228
 30
0.0
 10
245.7685996505643
 20
126.2441619863652
 30
0.0
 10
244.1457794977979
 20
126.1089065835175
 30
0.0
 10
242.3407015729044
 20
126.1219095955091
 30
0.0
 10
240.6150391648894
 20
126.2964470881061
 30
0.0
 10
239.2711392255692
 20
126.5351421359599
 30
0.0
 10
238.4917708478972
 20
126.7133502101755
 30
0.0
 10
238.4632244998881
 20
126.720469996229
 30
0.0
 10
238.4520334232799
 20
126.7232611788746
 30
0.0
  0
SPLINE
  5
D5
330
1F
100
AcDbEntity
  8
0
  6
Continuous
 62
     7
370
    15
100
AcDbSpline
210
0.0
220
0.0
230
1.0
 70
    11
 71
     3
 72
    82
 73
    78
 74
     0
 42
0.000000001
 43
0.00000001
 40
0.0
 40
0.0
 40
0.0
 40
0.0
 40
0.0312499999999984
 40
0.0312499999999984
 40
0.0624999999999968
 40
0.0624999999999968
 40
0.0937499999999953
 40
0.0937499999999953
 40
0.1249999999999937
 40
0.1249999999999937
 40
0.1562499999999921
 40
0.1562499999999921
 40
0.1874999999999906
 40
0.1874999999999906
 40
0.218749999999989
 40
0.218749999999989
 40
0.2343749999999887
 40
0.2343749999999887
 40
0.2499999999999885
 40
0.2499999999999885
 40
0.2812499999999881
 40
0.2812499999999881
 40
0.2968749999999882
 40
0.2968749999999882
 40
0.3124999999999885
 40
0.3124999999999885
 40
0.3437499999999889
 40
0.3437499999999889
 40
0.359374999999989
 40
0.359374999999989
 40
0.374999999999989
 40
0.374999999999989
 40
0.390624999999989
 40
0.390624999999989
 40
0.4062499999999891
 40
0.4062499999999891
 40
0.4374999999999896
 40
0.4374999999999896
 40
0.4687499999999901
 40
0.4687499999999901
 40
0.4999999999999907
 40
0.4999999999999907
 40
0.5312499999999912
 40
0.5312499999999912
 40
0.5624999999999918
 40
0.5624999999999918
 40
0.5937499999999922
 40
0.5937499999999922
 40
0.6249999999999928
 40
0.6249999999999928
 40
0.6562499999999933
 40
0.6562499999999933
 40
0.6874999999999939
 40
0.6874999999999939
 40
0.7187499999999944
 40
0.7187499999999944
 40
0.7499999999999949
 40
0.7499999999999949
 40
0.7812499999999956
 40
0.7812499999999956
 40
0.8124999999999962
 40
0.8124999999999962
 40
0.8281249999999966
 40
0.8281249999999966
 40
0.8437499999999969
 40
0.8437499999999969
 40
0.8749999999999978
 40
0.8749999999999978
 40
0.8906249999999982
 40
0.8906249999999982
 40
0.9062499999999987
 40
0.9062499999999987
 40
0.937499999999999
 40
0.937499999999999
 40
0.9687499999999994
 40
0.9687499999999994
 40
1.0
 40
1.0
 40
1.0
 40
1.0
 10
240.0844687119338
 20
114.0068236806876
 30
0.0
 10
240.3275262368119
 20
114.1968642035425
 30
0.0
 10
240.5846133337816
 20
114.3612598725734
 30
0.0
 10
241.124523257605
 20
114.6439302785368
 30
0.0
 10
241.4089794461651
 20
114.7626535832663
 30
0.0
 10
241.9973212323842
 20
114.9511177559791
 30
0.0
 10
242.2962370511607
 20
115.0195730472155
 30
0.0
 10
242.9032126626294
 20
115.1073421731223
 30
0.0
 10
243.2138928466374
 20
115.1265278831283
 30
0.0
 10
243.8319040737304
 20
115.1135617467563
 30
0.0
 10
244.1368879591425
 20
115.081947718088
 30
0.0
 10
244.7389781428888
 20
114.9692425970155
 30
0.0
 10
245.0387705092861
 20
114.8870975431646
 30
0.0
 10
245.6159957106277
 20
114.6743734731732
 30
0.0
 10
245.8919205359266
 20
114.544966319979
 30
0.0
 10
246.2866897923364
 20
114.3155172675364
 30
0.0
 10
246.4150724842036
 20
114.2331051238048
 30
0.0
 10
246.6651235372032
 20
114.0557445612166
 30
0.0
 10
246.7871862047894
 20
113.9603662337795
 30
0.0
 10
247.1349095798279
 20
113.6607935122653
 30
0.0
 10
247.3448384660071
 20
113.4417782242095
 30
0.0
 10
247.6251986984803
 20
113.0822450897253
 30
0.0
 10
247.7128538679843
 20
112.9571944930964
 30
0.0
 10
247.8756449452523
 20
112.6957632088317
 30
0.0
 10
247.9505204501663
 20
112.5594998352723
 30
0.0
 10
248.1490262511539
 20
112.1447632494055
 30
0.0
 10
248.2492772545157
 20
111.8567359202834
 30
0.0
 10
248.348210274791
 20
111.4060382057316
 30
0.0
 10
248.3726236988557
 20
111.2514085706333
 30
0.0
 10
248.4021131898842
 20
110.9425995035287
 30
0.0
 10
248.4073635037549
 20
110.7886065256187
 30
0.0
 10
248.3993455275228
 20
110.481423658769
 30
0.0
 10
248.3860763966874
 20
110.3282338056896
 30
0.0
 10
248.3408816170996
 20
110.0226622566656
 30
0.0
 10
248.3086250084123
 20
109.8693440191032
 30
0.0
 10
248.1862078650105
 20
109.4216788841169
 30
0.0
 10
248.0708214736854
 20
109.1370850635593
 30
0.0
 10
247.7768376106678
 20
108.5935577829653
 30
0.0
 10
247.6004158004571
 20
108.3396692375794
 30
0.0
 10
247.202197759974
 20
107.8747631923513
 30
0.0
 10
246.9769309500541
 20
107.6603088171611
 30
0.0
 10
246.4954651202459
 20
107.2815673646777
 30
0.0
 10
246.2385969927892
 20
107.1157477862125
 30
0.0
 10
245.6936776998311
 20
106.8287376551145
 30
0.0
 10
245.4075090162187
 20
106.7091051008887
 30
0.0
 10
244.8240673305035
 20
106.5210165333962
 30
0.0
 10
244.5246195893753
 20
106.451388098975
 30
0.0
 10
243.9098894252592
 20
106.3616278751583
 30
0.0
 10
243.6013708788901
 20
106.3426394381311
 30
0.0
 10
242.9874586636361
 20
106.3546466804159
 30
0.0
 10
242.6811756365519
 20
106.3855083195979
 30
0.0
 10
242.0700156326293
 20
106.4994233607129
 30
0.0
 10
241.7736699455828
 20
106.5809141875684
 30
0.0
 10
241.1999795975841
 20
106.7917058052728
 30
0.0
 10
240.9222241270361
 20
106.921123878706
 30
0.0
 10
240.3875183880148
 20
107.2317998298565
 30
0.0
 10
240.1386514908196
 20
107.4083215907425
 30
0.0
 10
239.6780127449336
 20
107.8047062776376
 30
0.0
 10
239.4653355187693
 20
108.0255909744064
 30
0.0
 10
239.0857976090639
 20
108.5130424880567
 30
0.0
 10
238.9245659892439
 20
108.7720205767455
 30
0.0
 10
238.7270526468673
 20
109.1845187808078
 30
0.0
 10
238.6686602638037
 20
109.3260528565064
 30
0.0
 10
238.5678222752094
 20
109.6178071001159
 30
0.0
 10
238.5253212519136
 20
109.7688606464648
 30
0.0
 10
238.4267834330664
 20
110.2219238959171
 30
0.0
 10
238.3976861249678
 20
110.5276609004702
 30
0.0
 10
238.4102138726191
 20
110.9919520104788
 30
0.0
 10
238.4240640904903
 20
111.1485577274525
 30
0.0
 10
238.4700945744608
 20
111.4550866187164
 30
0.0
 10
238.5021923397087
 20
111.6058931385116
 30
0.0
 10
238.6246874074743
 20
112.0512414494142
 30
0.0
 10
238.7431172306615
 20
112.3418583727737
 30
0.0
 10
239.0373608883947
 20
112.8827688264578
 30
0.0
 10
239.2127314746118
 20
113.1347468056266
 30
0.0
 10
239.6168385162681
 20
113.6043345455019
 30
0.0
 10
239.8414111870557
 20
113.8167831578327
 30
0.0
 10
240.0844687119338
 20
114.0068236806876
 30
0.0
  0
LINE
  5
D6
330
1F
100
AcDbEntity
  8
0
  6
Continuous
 62
     7
370
    15
100
AcDbLine
 10
255.1546481479
 20
110.7344251139
 30
0.0
 11
255.1546481479
 21
94.734424354
 31
0.0
  0
LINE
  5
D7
330
1F
100
AcDbEntity
  8
0
  6
Continuous
 62
     7
370
    15
100
AcDbLine
 10
255.1546481479
 20
126.7344258739
 30
0.0
 11
255.1546481479
 21
110.7344251139
 31
0.0
  0
LINE
  5
D8
330
1F
100
AcDbEntity
  8
0
  6
Continuous
 62
     7
370
    15
100
AcDbLine
 10
255.4546532262
 20
110.7344251139
 30
0.0
 11
255.4546532262
 21
95.034425707
 31
0.0
  0
LINE
  5
D9
330
1F
100
AcDbEntity
  8
0
  6
Continuous
 62
     7
370
    15
100
AcDbLine
 10
255.4546532262
 20
126.4344245209
 30
0.0
 11
255.4546532262
 21
110.7344251139
 31
0.0
  0
SPLINE
  5
DA
330
1F
100
AcDbEntity
  8
0
  6
Continuous
 62
     7
370
    15
100
AcDbSpline
210
0.0
220
0.0
230
1.0
 70
     8
 71
     3
 72
    10
 73
     6
 74
     0
 42
0.000000001
 43
0.00000001
 40
0.0
 40
0.0
 40
0.0
 40
0.0
 40
0.4391233574501163
 40
0.7513729858068523
 40
1.0
 40
1.0
 40
1.0
 40
1.0
 10
245.5172774423114
 20
111.667238794205
 30
0.0
 10
245.2504050843544
 20
111.8623914784808
 30
0.0
 10
244.7937664723891
 20
112.196312351932
 30
0.0
 10
244.1299674487122
 20
112.6817203533761
 30
0.0
 10
243.7995816462663
 20
112.9233224183868
 30
0.0
 10
243.6531272757999
 20
113.0304204779055
 30
0.0
  0
SPLINE
  5
DB
330
1F
100
AcDbEntity
  8
0
  6
Continuous
 62
     7
370
    15
100
AcDbSpline
210
0.0
220
0.0
230
1.0
 70
     8
 71
     3
 72
    11
 73
     7
 74
     0
 42
0.000000001
 43
0.00000001
 40
0.0
 40
0.0
 40
0.0
 40
0.0
 40
0.1849308771309854
 40
0.5198465335381224
 40
0.8714436240869077
 40
0.9999999999999999
 40
0.9999999999999999
 40
0.9999999999999999
 40
0.9999999999999999
 10
241.540500246381
 20
112.0976067394328
 30
0.0
 10
241.5260372766217
 20
111.9639685865302
 30
0.0
 10
241.4853814120594
 20
111.5883075200138
 30
0.0
 10
241.4094866543394
 20
110.8870651164083
 30
0.0
 10
241.3394068163253
 20
110.2394367744106
 30
0.0
 10
241.302030519849
 20
109.8940778851261
 30
0.0
 10
241.2920233834735
 20
109.8016114336748
 30
0.0
  0
SPLINE
  5
DC
330
1F
100
AcDbEntity
  8
0
  6
Continuous
 62
     7
370
    15
100
AcDbSpline
210
0.0
220
0.0
230
1.0
 70
     8
 71
     3
 72
    10
 73
     6
 74
     0
 42
0.000000001
 43
0.00000001
 40
0.0
 40
0.0
 40
0.0
 40
0.0
 40
0.4391223360025875
 40
0.7513712380335524
 40
1.0
 40
1.0
 40
1.0
 40
1.0
 10
241.2920233834735
 20
109.8016114336748
 30
0.0
 10
241.5588959151078
 20
109.6064588993183
 30
0.0
 10
242.0155348242478
 20
109.2725382823904
 30
0.0
 10
242.6793337572644
 20
108.7871277407223
 30
0.0
 10
243.0097239300021
 20
108.5455275406269
 30
0.0
 10
243.1561810005657
 20
108.4384297499743
 30
0.0
  0
SPLINE
  5
DD
330
1F
100
AcDbEntity
  8
0
  6
Continuous
 62
     7
370
    15
100
AcDbSpline
210
0.0
220
0.0
230
1.0
 70
     8
 71
     3
 72
    11
 73
     7
 74
     0
 42
0.000000001
 43
0.00000001
 40
0.0
 40
0.0
 40
0.0
 40
0.0
 40
0.128556418175117
 40
0.4801536125522952
 40
0.81506906207426
 40
1.0
 40
1.0
 40
1.0
 40
1.0
 10
245.2688080299846
 20
109.371243488447
 30
0.0
 10
245.2788151146504
 20
109.4637099453358
 30
0.0
 10
245.3161912170776
 20
109.8090688464725
 30
0.0
 10
245.3862743723193
 20
110.4566965739544
 30
0.0
 10
245.4621573552722
 20
111.1579399423518
 30
0.0
 10
245.5028141373387
 20
111.5336006776441
 30
0.0
 10
245.5172774423114
 20
111.667238794205
 30
0.0
  0
CIRCLE
  5
DE
330
1F
100
AcDbEntity
  8
0
  6
Continuous
 62
     7
370
    15
100
AcDbCircle
 10
243.4046517361
 20
110.7344251139
 30
0.0
 40
2.399999999999983
  0
SPLINE
  5
DF
330
1F
100
AcDbEntity
  8
0
  6
Continuous
 62
     7
370
    15
100
AcDbSpline
210
0.0
220
0.0
230
1.0
 70
     8
 71
     3
 72
    10
 73
     6
 74
     0
 42
0.000000001
 43
0.00000001
 40
0.0
 40
0.0
 40
0.0
 40
0.0
 40
0.4391222139211045
 40
0.7513698973871346
 40
1.0
 40
1.0
 40
1.0
 40
1.0
 10
243.1561810005657
 20
108.4384297499743
 30
0.0
 10
243.4586242194831
 20
108.5719707642509
 30
0.0
 10
243.9761264618184
 20
108.8004691071108
 30
0.0
 10
244.7284008711015
 20
109.132633770353
 30
0.0
 10
245.1028288107049
 20
109.2979575334577
 30
0.0
 10
245.2688080299846
 20
109.371243488447
 30
0.0
  0
SPLINE
  5
E0
330
1F
100
AcDbEntity
  8
0
  6
Continuous
 62
     7
370
    15
100
AcDbSpline
210
0.0
220
0.0
230
1.0
 70
     8
 71
     3
 72
    10
 73
     6
 74
     0
 42
0.000000001
 43
0.00000001
 40
0.0
 40
0.0
 40
0.0
 40
0.0
 40
0.4391221327840188
 40
0.7513725794887662
 40
1.0
 40
1.0
 40
1.0
 40
1.0
 10
243.6531272757999
 20
113.0304204779055
 30
0.0
 10
243.3506844022744
 20
112.8968788374884
 30
0.0
 10
242.833180808028
 20
112.6683785653813
 30
0.0
 10
242.0809027702315
 20
112.3362196289799
 30
0.0
 10
241.7064767848665
 20
112.1708931133803
 30
0.0
 10
241.540500246381
 20
112.0976067394328
 30
0.0
  0
CIRCLE
  5
E1
330
1F
100
AcDbEntity
  8
0
  6
Continuous
 62
     7
370
    15
100
AcDbCircle
 10
243.4046517361
 20
110.7344251139
 30
0.0
 40
3.299999999999984
  0
CIRCLE
  5
E2
330
1F
100
AcDbEntity
  8
0
  6
Continuous
 62
     7
370
    15
100
AcDbCircle
 10
243.4046517361
 20
110.7344251139
 30
0.0
 40
3.99999999999998
  0
ARC
  5
E3
330
1F
100
AcDbEntity
  8
0
  6
Continuous
 62
     7
370
    15
100
AcDbCircle
 10
243.4046517361
 20
110.7344251139
 30
0.0
 40
2.000000000000016
100
AcDbArc
 50
173.8234769947
 51
233.8234769947
  0
ARC
  5
E4
330
1F
100
AcDbEntity
  8
0
  6
Continuous
 62
     7
370
    15
100
AcDbCircle
 10
243.4046517361
 20
110.7344251139
 30
0.0
 40
2.000000000000016
100
AcDbArc
 50
113.8234769947
 51
173.8234769947
  0
ARC
  5
E5
330
1F
100
AcDbEntity
  8
0
  6
Continuous
 62
     7
370
    15
100
AcDbCircle
 10
243.4046517361
 20
110.7344251139
 30
0.0
 40
2.000000000000016
100
AcDbArc
 50
233.8234769947
 51
293.8234769947
  0
ARC
  5
E6
330
1F
100
AcDbEntity
  8
0
  6
Continuous
 62
     7
370
    15
100
AcDbCircle
 10
243.4046517361
 20
110.7344251139
 30
0.0
 40
1.999999999999992
100
AcDbArc
 50
293.8234769947
 51
353.8234769947
  0
ARC
  5
E7
330
1F
100
AcDbEntity
  8
0
  6
Continuous
 62
     7
370
    15
100
AcDbCircle
 10
243.4046517361
 20
110.7344251139
 30
0.0
 40
2.000000000000016
100
AcDbArc
 50
53.8234769947
 51
113.8234769947
  0
ARC
  5
E8
330
1F
100
AcDbEntity
  8
0
  6
Continuous
 62
     7
370
    15
100
AcDbCircle
 10
243.4046517361
 20
110.7344251139
 30
0.0
 40
2.000000000000016
100
AcDbArc
 50
353.8234769947
 51
53.8234769947
  0
LINE
  5
E9
330
1F
100
AcDbEntity
  8
0
  6
Continuous
 62
     7
370
    15
100
AcDbLine
 10
240.1046541561
 20
126.7344258739
 30
0.0
 11
246.7046541203
 21
126.7344258739
 31
0.0
  0
ARC
  5
EA
330
1F
100
AcDbEntity
  8
0
  6
Continuous
 62
     7
370
    15
100
AcDbCircle
 10
169.4596075388
 20
95.5201288747
 30
0.0
 40
2.307138242242575
100
AcDbArc
 50
186.8361770616
 51
233.5211832901
  0
ARC
  5
EB
330
1F
100
AcDbEntity
  8
0
  6
Continuous
 62
     7
370
    15
100
AcDbCircle
 10
169.6474479532
 20
95.6913977923
 30
0.0
 40
2.557001173000472
100
AcDbArc
 50
232.4183487814
 51
338.7034340483
  0
ARC
  5
EC
330
1F
100
AcDbEntity
  8
0
  6
Continuous
 62
     7
370
    15
100
AcDbCircle
 10
169.429097072
 20
95.4444183423
 30
0.0
 40
2.132101263172203
100
AcDbArc
 50
154.1597757245
 51
233.9937140257
  0
ARC
  5
ED
330
1F
100
AcDbEntity
  8
0
  6
Continuous
 62
     7
370
    15
100
AcDbCircle
 10
169.6473348665
 20
95.614077575
 30
0.0
 40
2.398873727292014
100
AcDbArc
 50
232.1589371927
 51
345.0322413661
  0
ARC
  5
EE
330
1F
100
AcDbEntity
  8
0
  6
Continuous
 62
     7
370
    15
100
AcDbCircle
 10
169.47849447
 20
95.4483345012
 30
0.0
 40
1.818452188196999
100
AcDbArc
 50
124.5490448965
 51
233.6745003044
  0
ARC
  5
EF
330
1F
100
AcDbEntity
  8
0
  6
Continuous
 62
     7
370
    15
100
AcDbCircle
 10
169.6498325325
 20
95.555549465
 30
0.0
 40
2.007711159458084
100
AcDbArc
 50
231.5470873396
 51
356.9245871756
  0
LWPOLYLINE
  5
F0
330
1F
100
AcDbEntity
  8
0
  6
HIDDEN
 62
     7
370
     0
100
AcDbPolyline
 90
       21
 70
   128
 43
0.0
 10
169.6546518285
 20
94.8771085603
 10
170.4271941487
 20
94.9920877828
 10
171.1241149385
 20
95.325771348
 10
171.6771938879
 20
95.8454959108
 10
172.0322922845
 20
96.5003870441
 10
172.154651307
 20
97.2263399525
 10
172.0322922845
 20
97.9522919296
 10
171.6771938879
 20
98.6071830629
 10
171.1241149385
 20
99.1269076256
 10
170.4271941487
 20
99.4605911909
 10
169.6546518285
 20
99.5755713446
 10
168.8821095083
 20
99.4605911909
 10
168.1851887185
 20
99.1269076256
 10
167.6321088378
 20
98.6071830629
 10
167.2770104412
 20
97.9522919296
 10
167.1546514187
 20
97.2263399525
 10
167.2770104412
 20
96.5003870441
 10
167.6321088378
 20
95.8454959108
 10
168.1851887185
 20
95.325771348
 10
168.8821095083
 20
94.9920877828
 10
169.6546518285
 20
94.8771085603
  0
LWPOLYLINE
  5
F1
330
1F
100
AcDbEntity
  8
0
  6
HIDDEN
 62
     7
370
     0
100
AcDbPolyline
 90
       23
 70
   128
 43
0.0
 10
158.9263827115
 20
96.8295648707
 10
159.1316906776
 20
96.0007902248
 10
159.4539580908
 20
95.2391583486
 10
159.8670764867
 20
94.6063712253
 10
160.3375773918
 20
94.1536944373
 10
160.8273436357
 20
93.9177997424
 10
161.296697617
 20
93.9177997424
 10
161.707614832
 20
94.1536944373
 10
162.0268051554
 20
94.6063712253
 10
162.2284094844
 20
95.2391583486
 10
162.2960956808
 20
96.0007902248
 10
162.2243796516
 20
96.8295648707
 10
162.0190714527
 20
97.6583395167
 10
161.6968040396
 20
98.4199723242
 10
161.2836856436
 20
99.0527585162
 10
160.8131847386
 20
99.5054362355
 10
160.3234184947
 20
99.7413299991
 10
159.8540645134
 20
99.7413299991
 10
159.4431472983
 20
99.5054362355
 10
159.1239572078
 20
99.0527585162
 10
158.9223526459
 20
98.4199723242
 10
158.8546666824
 20
97.6583395167
 10
158.9263827115
 20
96.8295648707
  0
LWPOLYLINE
  5
F2
330
1F
100
AcDbEntity
  8
0
  6
HIDDEN
 62
     7
370
     0
100
AcDbPolyline
 90
       19
 70
   128
 43
0.0
 10
159.6894145984
 20
96.8938270597
 10
159.8767338362
 20
96.1895404397
 10
160.1806849282
 20
95.5702016143
 10
160.5646072928
 20
95.1105119674
 10
160.9821937088
 20
94.8659159256
 10
161.3830773201
 20
94.8659159256
 10
161.7189061869
 20
95.1105119674
 10
161.9491733652
 20
95.5702016143
 10
162.0461058844
 20
96.1895404397
 10
161.9980123867
 20
96.8938270597
 10
161.8106931489
 20
97.5981127484
 10
161.5067415912
 20
98.2174515738
 10
161.1228196923
 20
98.677142152
 10
160.7052328106
 20
98.9217372625
 10
160.3043491993
 20
98.9217372625
 10
159.9685207982
 20
98.677142152
 10
159.7382531543
 20
98.2174515738
 10
159.641320635
 20
97.5981127484
 10
159.6894145984
 20
96.8938270597
  0
ELLIPSE
  5
F3
330
1F
100
AcDbEntity
  8
0
  6
HIDDEN
 62
     7
370
     0
100
AcDbEllipse
 10
169.6546517361
 20
99.0039150026
 30
0.0
 11
1.760776919379083
 21
2.232245799914452
 31
0.0
210
0.0
220
0.0
230
1.0
 40
0.5126701559
 41
1.100887047646267
 42
4.029627027608256
  0
ARC
  5
F4
330
1F
100
AcDbEntity
  8
0
  6
HIDDEN
 62
     7
370
     0
100
AcDbCircle
 10
168.9580522675
 20
100.1814548837
 30
0.0
 40
0.7945949542257675
100
AcDbArc
 50
53.4208190544
 51
99.1663888759
  0
ELLIPSE
  5
F5
330
1F
100
AcDbEntity
  8
0
  6
HIDDEN
 62
     7
370
     0
100
AcDbEllipse
 10
169.6546517361
 20
99.0039150026
 30
0.0
 11
1.760776919379083
 21
-1.388886188042946
 31
0.0
210
0.0
220
0.0
230
1.0
 40
0.8239737799
 41
2.549926265248533
 42
4.885930273856159
  0
ARC
  5
F6
330
1F
100
AcDbEntity
  8
0
  6
HIDDEN
 62
     7
370
     0
100
AcDbCircle
 10
169.900704498
 20
98.1644374386
 30
0.0
 40
1.353195702694776
100
AcDbArc
 50
217.8001040701
 51
249.7155767561
  0
LWPOLYLINE
  5
F7
330
1F
100
AcDbEntity
  8
0
  6
HIDDEN
 62
     7
370
     0
100
AcDbPolyline
 90
       19
 70
   128
 43
0.0
 10
169.6546518285
 20
95.3027788563
 10
170.3728943173
 20
95.4217869802
 10
171.0045061115
 20
95.7644559456
 10
171.4733050246
 20
96.2894564508
 10
171.7227486003
 20
96.9334641485
 10
171.7227486003
 20
97.6188030107
 10
171.4733050246
 20
98.2628107084
 10
171.0045061115
 20
98.7878112136
 10
170.3728943173
 20
99.130480179
 10
169.6546518285
 20
99.2494883029
 10
168.9364093397
 20
99.130480179
 10
168.3047975455
 20
98.7878112136
 10
167.8359986324
 20
98.2628107084
 10
167.5865550567
 20
97.6188030107
 10
167.5865550567
 20
96.9334641485
 10
167.8359986324
 20
96.2894564508
 10
168.3047975455
 20
95.7644559456
 10
168.9364093397
 20
95.4217869802
 10
169.6546518285
 20
95.3027788563
  0
SPLINE
  5
F8
330
1F
100
AcDbEntity
  8
0
  6
HIDDEN
 62
     7
370
     0
100
AcDbSpline
210
0.0
220
0.0
230
1.0
 70
    11
 71
     3
 72
    64
 73
    60
 74
     0
 42
0.000000001
 43
0.00000001
 40
0.0
 40
0.0
 40
0.0
 40
0.0
 40
0.0312500000000001
 40
0.0312500000000001
 40
0.0625000000000002
 40
0.0625000000000002
 40
0.0937500000000003
 40
0.0937500000000003
 40
0.1250000000000004
 40
0.1250000000000004
 40
0.1875000000000007
 40
0.1875000000000007
 40
0.2187500000000008
 40
0.2187500000000008
 40
0.250000000000001
 40
0.250000000000001
 40
0.2812500000000012
 40
0.2812500000000012
 40
0.3125000000000013
 40
0.3125000000000013
 40
0.3437500000000015
 40
0.3437500000000015
 40
0.3750000000000017
 40
0.3750000000000017
 40
0.4062500000000018
 40
0.4062500000000018
 40
0.4375000000000019
 40
0.4375000000000019
 40
0.5000000000000019
 40
0.5000000000000019
 40
0.5312500000000017
 40
0.5312500000000017
 40
0.5625000000000014
 40
0.5625000000000014
 40
0.5937500000000012
 40
0.5937500000000012
 40
0.625000000000001
 40
0.625000000000001
 40
0.656250000000001
 40
0.656250000000001
 40
0.687500000000001
 40
0.687500000000001
 40
0.718750000000001
 40
0.718750000000001
 40
0.7500000000000009
 40
0.7500000000000009
 40
0.8125000000000009
 40
0.8125000000000009
 40
0.8437500000000009
 40
0.8437500000000009
 40
0.8750000000000009
 40
0.8750000000000009
 40
0.9062500000000007
 40
0.9062500000000007
 40
0.9375000000000004
 40
0.9375000000000004
 40
0.9687500000000002
 40
0.9687500000000002
 40
1.0
 40
1.0
 40
1.0
 40
1.0
 10
169.6546517361156
 20
107.1715046272882
 30
0.0
 10
169.5142406818421
 20
107.1715046272882
 30
0.0
 10
169.376530179957
 20
107.1824234925326
 30
0.0
 10
169.1061647087353
 20
107.2252320364277
 30
0.0
 10
168.972106216386
 20
107.2577085220685
 30
0.0
 10
168.7187577943373
 20
107.3422608662882
 30
0.0
 10
168.59884722069
 20
107.3941544555683
 30
0.0
 10
168.3718841955964
 20
107.5181788875587
 30
0.0
 10
168.2658382005479
 20
107.5900595116591
 30
0.0
 10
167.9786950155863
 20
107.8298594919552
 30
0.0
 10
167.822774223671
 20
108.0277213075392
 30
0.0
 10
167.6645549848414
 20
108.3623584171749
 30
0.0
 10
167.6233042167352
 20
108.4825508290505
 30
0.0
 10
167.5685863464667
 20
108.7304114546234
 30
0.0
 10
167.5548092843403
 20
108.8575137309802
 30
0.0
 10
167.5544968488167
 20
109.1182887630496
 30
0.0
 10
167.5684462803743
 20
109.2525323488817
 30
0.0
 10
167.6227158449901
 20
109.5145568736858
 30
0.0
 10
167.6629862623592
 20
109.6441959331494
 30
0.0
 10
167.7697309355219
 20
109.8988448835653
 30
0.0
 10
167.8345811320978
 20
110.0201300619886
 30
0.0
 10
167.9861863883716
 20
110.2508427552894
 30
0.0
 10
168.0739758697538
 20
110.3611581372134
 30
0.0
 10
168.2660082775222
 20
110.5615313010225
 30
0.0
 10
168.3704463383083
 20
110.6523398115819
 30
0.0
 10
168.5969377423764
 20
110.8142289178282
 30
0.0
 10
168.7189176747891
 20
110.8847876551729
 30
0.0
 10
169.096679047197
 20
111.0553305533473
 30
0.0
 10
169.3757151498235
 20
111.1178522820134
 30
0.0
 10
169.7903739722046
 20
111.1183918735236
 30
0.0
 10
169.9305951662834
 20
111.1033239179449
 30
0.0
 10
170.2028433535492
 20
111.0439055770311
 30
0.0
 10
170.3343026763414
 20
111.000142028215
 30
0.0
 10
170.588401074286
 20
110.8859335355231
 30
0.0
 10
170.710413803808
 20
110.8154009591937
 30
0.0
 10
170.9361964315785
 20
110.6544602212038
 30
0.0
 10
171.0418500052076
 20
110.562947511302
 30
0.0
 10
171.2353494838013
 20
110.3612263826755
 30
0.0
 10
171.3214440082828
 20
110.2530543118939
 30
0.0
 10
171.4730935856194
 20
110.0229360139125
 30
0.0
 10
171.5391992802733
 20
109.8994212853472
 30
0.0
 10
171.6451980396157
 20
109.6471754531449
 30
0.0
 10
171.6855256199868
 20
109.5184409868997
 30
0.0
 10
171.7403842681402
 20
109.2560247278959
 30
0.0
 10
171.7545535249747
 20
109.1216625495947
 30
0.0
 10
171.7548465909729
 20
108.7312183080613
 30
0.0
 10
171.6986038321365
 20
108.4771141811056
 30
0.0
 10
171.5402599100536
 20
108.1409437442521
 30
0.0
 10
171.4743297281107
 20
108.0342157618267
 30
0.0
 10
171.3222053912475
 20
107.8395277110615
 30
0.0
 10
171.2360633880621
 20
107.7509615738795
 30
0.0
 10
171.0433100360825
 20
107.5898713027725
 30
0.0
 10
170.937024097785
 20
107.5179993567297
 30
0.0
 10
170.7117554259833
 20
107.3948281225556
 30
0.0
 10
170.5918538231571
 20
107.342700209559
 30
0.0
 10
170.3359756538316
 20
107.2572980626223
 30
0.0
 10
170.2044387258632
 20
107.2255236045804
 30
0.0
 10
169.9346153872534
 20
107.1826304171986
 30
0.0
 10
169.7950627903891
 20
107.1715046272882
 30
0.0
 10
169.6546517361156
 20
107.1715046272882
 30
0.0
  0
SPLINE
  5
F9
330
1F
100
AcDbEntity
  8
0
  6
HIDDEN
 62
     7
370
     0
100
AcDbSpline
210
0.0
220
0.0
230
1.0
 70
     8
 71
     3
 72
     8
 73
     4
 74
     0
 42
0.000000001
 43
0.00000001
 40
0.0
 40
0.0
 40
0.0
 40
0.0
 40
1.0
 40
1.0
 40
1.0
 40
1.0
 10
168.8314715599562
 20
100.9659030784613
 30
0.0
 10
169.0428989499574
 20
100.9583935686788
 30
0.0
 10
169.2453674964902
 20
100.9042700390442
 30
0.0
 10
169.4315780956275
 20
100.819541751819
 30
0.0
  0
SPLINE
  5
FA
330
1F
100
AcDbEntity
  8
0
  6
HIDDEN
 62
     7
370
     0
100
AcDbSpline
210
0.0
220
0.0
230
1.0
 70
     8
 71
     3
 72
     8
 73
     4
 74
     0
 42
0.000000001
 43
0.00000001
 40
0.0
 40
0.0
 40
0.0
 40
0.0
 40
1.0
 40
1.0
 40
1.0
 40
1.0
 10
169.4315780956275
 20
96.89516298388479
 30
0.0
 10
169.2450537463431
 20
97.01748339978522
 30
0.0
 10
169.0424988478175
 20
97.15856856044992
 30
0.0
 10
168.8314715599563
 20
97.33505219623471
 30
0.0
  0
LINE
  5
FB
330
1F
100
AcDbEntity
  8
0
  6
HIDDEN
 62
     7
370
     0
100
AcDbLine
 10
240.0844705332
 20
126.3962067677
 30
0.0
 11
240.3418508399
 21
126.363461466
 31
0.0
  0
SPLINE
  5
FC
330
1F
100
AcDbEntity
  8
0
  6
HIDDEN
 62
     7
370
     0
100
AcDbSpline
210
0.0
220
0.0
230
1.0
 70
     8
 71
     3
 72
     9
 73
     5
 74
     0
 42
0.000000001
 43
0.00000001
 40
0.0
 40
0.0
 40
0.0
 40
0.0
 40
0.127603017242769
 40
1.0
 40
1.0
 40
1.0
 40
1.0
 10
239.343048356866
 20
126.5309523804423
 30
0.0
 10
239.3666073632072
 20
126.5259612652292
 30
0.0
 10
239.5512347086276
 20
126.4868468671461
 30
0.0
 10
239.8360225124481
 20
126.4384382762976
 30
0.0
 10
240.0844705332271
 20
126.3962067677018
 30
0.0
  0
CIRCLE
  5
FD
330
1F
100
AcDbEntity
  8
0
  6
HIDDEN
 62
     7
370
     0
100
AcDbCircle
 10
243.4046517361
 20
110.7344251139
 30
0.0
 40
3.5
  0
LINE
  5
FE
330
1F
100
AcDbEntity
  8
0
  6
HIDDEN
 62
     7
370
     0
100
AcDbLine
 10
158.8262245566
 20
75.4344236119
 30
0.0
 11
158.6546516553
 21
75.4344236119
 31
0.0
  0
ELLIPSE
  5
FF
330
1F
100
AcDbEntity
  8
0
  6
HIDDEN
 62
     7
370
     0
100
AcDbEllipse
 10
158.8262246114
 20
73.4344251139
 30
0.0
 11
0.0
 21
2.0
 31
0.0
210
0.0
220
0.0
230
1.0
 40
0.4142135624
 41
4.712388980384695
 42
6.283185307179586
  0
LINE
  5
100
330
1F
100
AcDbEntity
  8
0
  6
HIDDEN
 62
     7
370
     0
100
AcDbLine
 10
158.6546516553
 20
148.2344266041
 30
0.0
 11
158.8262245566
 21
148.2344266041
 31
0.0
  0
ELLIPSE
  5
101
330
1F
100
AcDbEntity
  8
0
  6
HIDDEN
 62
     7
370
     0
100
AcDbEllipse
 10
158.8262246114
 20
150.2344251139
 30
0.0
 11
0.0
 21
2.0
 31
0.0
210
0.0
220
0.0
230
1.0
 40
0.4142135624
 41
3.141592653589793
 42
4.712388980384695
  0
LINE
  5
102
330
1F
100
AcDbEntity
  8
0
  6
HIDDEN
 62
     7
370
     0
100
AcDbLine
 10
159.6546515864
 20
64.5485106869
 30
0.0
 11
158.8703117375
 21
64.1009692116
 31
0.0
  0
LINE
  5
103
330
1F
100
AcDbEntity
  8
0
  6
HIDDEN
 62
     7
370
     0
100
AcDbLine
 10
158.9445206844
 20
157.4445884688
 30
0.0
 11
159.6546515864
 21
156.734458731
 31
0.0
  0
LINE
  5
104
330
1F
100
AcDbEntity
  8
0
  6
HIDDEN
 62
     7
370
     0
100
AcDbLine
 10
158.8262245566
 20
148.2344266041
 30
0.0
 11
174.5046519716
 21
148.2344266041
 31
0.0
  0
LINE
  5
105
330
1F
100
AcDbEntity
  8
0
  6
HIDDEN
 62
     7
370
     0
100
AcDbLine
 10
174.5046519716
 20
75.4344236119
 30
0.0
 11
158.8262245566
 21
75.4344236119
 31
0.0
  0
LINE
  5
106
330
1F
100
AcDbEntity
  8
0
  6
HIDDEN
 62
     7
370
     0
100
AcDbLine
 10
159.6546515864
 20
156.734458731
 30
0.0
 11
163.8779810671
 21
156.734458731
 31
0.0
  0
LINE
  5
107
330
1F
100
AcDbEntity
  8
0
  6
HIDDEN
 62
     7
370
     0
100
AcDbLine
 10
169.2313228775
 20
156.734458731
 30
0.0
 11
174.5046519716
 21
156.734458731
 31
0.0
  0
LINE
  5
108
330
1F
100
AcDbEntity
  8
0
  6
HIDDEN
 62
     7
370
     0
100
AcDbLine
 10
159.6546515864
 20
156.734458731
 30
0.0
 11
159.6546515864
 21
150.2344269319
 31
0.0
  0
LINE
  5
109
330
1F
100
AcDbEntity
  8
0
  6
HIDDEN
 62
     7
370
     0
100
AcDbLine
 10
163.7746042613
 20
64.5485106869
 30
0.0
 11
159.6546515864
 21
64.5485106869
 31
0.0
  0
LINE
  5
10A
330
1F
100
AcDbEntity
  8
0
  6
HIDDEN
 62
     7
370
     0
100
AcDbLine
 10
174.5046519716
 20
64.5485106869
 30
0.0
 11
169.3346996833
 21
64.5485106869
 31
0.0
  0
LINE
  5
10B
330
1F
100
AcDbEntity
  8
0
  6
HIDDEN
 62
     7
370
     0
100
AcDbLine
 10
159.6546515864
 20
64.5485106869
 30
0.0
 11
159.6546515864
 21
73.4344232841
 31
0.0
  0
LINE
  5
10C
330
1F
100
AcDbEntity
  8
0
  6
HIDDEN
 62
     7
370
     0
100
AcDbLine
 10
63.8546508778
 20
98.2344249277
 30
0.0
 11
63.8546508778
 21
123.2344253002
 31
0.0
  0
LINE
  5
10D
330
1F
100
AcDbEntity
  8
0
  6
HIDDEN
 62
     7
370
     0
100
AcDbLine
 10
67.1392542351
 20
100.2344252555
 30
0.0
 11
67.1392542351
 21
121.2344249724
 31
0.0
  0
LINE
  5
10E
330
1F
100
AcDbEntity
  8
0
  6
HIDDEN
 62
     7
370
     0
100
AcDbLine
 10
115.8546519507
 20
100.2344252555
 30
0.0
 11
115.8546519507
 21
121.2344249724
 31
0.0
  0
LINE
  5
10F
330
1F
100
AcDbEntity
  8
0
  6
HIDDEN
 62
     7
370
     0
100
AcDbLine
 10
119.0992978443
 20
105.6344249299
 30
0.0
 11
119.0992978443
 21
115.834425298
 31
0.0
  0
LINE
  5
110
330
1F
100
AcDbEntity
  8
0
  6
HIDDEN
 62
     7
370
     0
100
AcDbLine
 10
232.9546523322
 20
110.7344251139
 30
0.0
 11
232.9546523322
 21
102.0344249918
 31
0.0
  0
LINE
  5
111
330
1F
100
AcDbEntity
  8
0
  6
HIDDEN
 62
     7
370
     0
100
AcDbLine
 10
232.9546523322
 20
119.4344252361
 30
0.0
 11
232.9546523322
 21
110.7344251139
 31
0.0
  0
LINE
  5
112
330
1F
100
AcDbEntity
  8
0
  6
HIDDEN
 62
     7
370
     0
100
AcDbLine
 10
236.3206756342
 20
110.7344251139
 30
0.0
 11
236.3206756342
 21
101.7344255014
 31
0.0
  0
LINE
  5
113
330
1F
100
AcDbEntity
  8
0
  6
HIDDEN
 62
     7
370
     0
100
AcDbLine
 10
236.3206756342
 20
119.7344247265
 30
0.0
 11
236.3206756342
 21
110.7344251139
 31
0.0
  0
SPLINE
  5
114
330
1F
100
AcDbEntity
  8
0
  6
HIDDEN
 62
     7
370
     0
100
AcDbSpline
210
0.0
220
0.0
230
1.0
 70
     8
 71
     3
 72
    12
 73
     8
 74
     0
 42
0.000000001
 43
0.00000001
 40
0.0
 40
0.0
 40
0.0
 40
0.0
 40
0.2035648648277592
 40
0.4067375286609206
 40
0.6198470511582922
 40
0.8406847756767514
 40
1.0
 40
1.0
 40
1.0
 40
1.0
 10
243.4046504128925
 20
119.0259872017738
 30
0.0
 10
243.7811092470641
 20
119.041442315145
 30
0.0
 10
244.5333016059128
 20
119.0723227650846
 30
0.0
 10
245.5481319906551
 20
119.2855198621638
 30
0.0
 10
246.3477409885124
 20
119.5243672249777
 30
0.0
 10
246.8427376929745
 20
119.7100678367557
 30
0.0
 10
246.8611648008248
 20
119.7175357143698
 30
0.0
 10
246.8688872683994
 20
119.7206653667923
 30
0.0
  0
LINE
  5
115
330
1F
100
AcDbEntity
  8
0
  6
HIDDEN
 62
     7
370
     0
100
AcDbLine
 10
243.7258747447
 20
119.047349879
 30
0.0
 11
243.164220177
 21
119.0444013117
 31
0.0
  0
SPLINE
  5
116
330
1F
100
AcDbEntity
  8
0
  6
HIDDEN
 62
     7
370
     0
100
AcDbSpline
210
0.0
220
0.0
230
1.0
 70
     8
 71
     3
 72
    14
 73
    10
 74
     0
 42
0.000000001
 43
0.00000001
 40
0.0
 40
0.0
 40
0.0
 40
0.0
 40
0.0858518363159304
 40
0.2410199436303098
 40
0.3865428181593304
 40
0.5280977329531907
 40
0.6758415665801011
 40
0.8320839493182606
 40
1.0
 40
1.0
 40
1.0
 40
1.0
 10
240.6337496865741
 20
119.4827757789132
 30
0.0
 10
240.4969292154675
 20
119.5258488966919
 30
0.0
 10
240.1128202243417
 20
119.6467721158621
 30
0.0
 10
239.8698450609991
 20
119.7501884674068
 30
0.0
 10
239.92534677351
 20
119.7253882568408
 30
0.0
 10
240.3458112462269
 20
119.5666482302986
 30
0.0
 10
241.0794247140927
 20
119.3343257426979
 30
0.0
 10
242.1234287335133
 20
119.0878826723674
 30
0.0
 10
242.9674448852741
 20
119.0471084818095
 30
0.0
 10
243.4046504128925
 20
119.0259872017738
 30
0.0
  0
SPLINE
  5
117
330
1F
100
AcDbEntity
  8
0
  6
HIDDEN
 62
     7
370
     0
100
AcDbSpline
210
0.0
220
0.0
230
1.0
 70
    11
 71
     3
 72
    64
 73
    60
 74
     0
 42
0.000000001
 43
0.00000001
 40
0.0
 40
0.0
 40
0.0
 40
0.0
 40
0.0312500000000002
 40
0.0312500000000002
 40
0.0625000000000004
 40
0.0625000000000004
 40
0.0937500000000006
 40
0.0937500000000006
 40
0.1250000000000008
 40
0.1250000000000008
 40
0.1875000000000012
 40
0.1875000000000012
 40
0.2187500000000014
 40
0.2187500000000014
 40
0.2500000000000016
 40
0.2500000000000016
 40
0.2812500000000018
 40
0.2812500000000018
 40
0.312500000000002
 40
0.312500000000002
 40
0.3437500000000022
 40
0.3437500000000022
 40
0.3750000000000024
 40
0.3750000000000024
 40
0.4062500000000026
 40
0.4062500000000026
 40
0.4375000000000028
 40
0.4375000000000028
 40
0.5000000000000029
 40
0.5000000000000029
 40
0.5312500000000028
 40
0.5312500000000028
 40
0.5625000000000027
 40
0.5625000000000027
 40
0.5937500000000024
 40
0.5937500000000024
 40
0.6250000000000023
 40
0.6250000000000023
 40
0.6562500000000022
 40
0.6562500000000022
 40
0.6875000000000021
 40
0.6875000000000021
 40
0.718750000000002
 40
0.718750000000002
 40
0.7500000000000018
 40
0.7500000000000018
 40
0.8125000000000016
 40
0.8125000000000016
 40
0.8437500000000013
 40
0.8437500000000013
 40
0.8750000000000011
 40
0.8750000000000011
 40
0.9062500000000009
 40
0.9062500000000009
 40
0.9375000000000006
 40
0.9375000000000006
 40
0.9687500000000003
 40
0.9687500000000003
 40
1.0
 40
1.0
 40
1.0
 40
1.0
 10
169.6546517361157
 20
110.3506365932909
 30
0.0
 10
169.7950627903891
 20
110.3506365932908
 30
0.0
 10
169.9327732922742
 20
110.3659105807468
 30
0.0
 10
170.203138763496
 20
110.4251010681456
 30
0.0
 10
170.3371972558452
 20
110.4698071680342
 30
0.0
 10
170.5905456778939
 20
110.5840867216773
 30
0.0
 10
170.7104562515413
 20
110.6534188430578
 30
0.0
 10
170.9374192766349
 20
110.8153226883578
 30
0.0
 10
171.0434652716833
 20
110.9075131519468
 30
0.0
 10
171.3306084566449
 20
111.2070778962286
 30
0.0
 10
171.4865292485602
 20
111.4442472230731
 30
0.0
 10
171.6447484873898
 20
111.8205264625607
 30
0.0
 10
171.685999255496
 20
111.9520411283275
 30
0.0
 10
171.7407171257645
 20
112.2150608587477
 30
0.0
 10
171.7544941878909
 20
112.3460748173177
 30
0.0
 10
171.7548066234145
 20
112.6069378510699
 30
0.0
 10
171.7408571918569
 20
112.7372216763045
 30
0.0
 10
171.6865876272411
 20
112.9842090718851
 30
0.0
 10
171.646317209872
 20
113.1027826875117
 30
0.0
 10
171.5395725367093
 20
113.329325667582
 30
0.0
 10
171.4747223401334
 20
113.4340065098323
 30
0.0
 10
171.3231170838596
 20
113.6282801551859
 30
0.0
 10
171.2353276024774
 20
113.7185467990883
 30
0.0
 10
171.0432951947091
 20
113.8789479341679
 30
0.0
 10
170.9388571339229
 20
113.9497492136877
 30
0.0
 10
170.7123657298548
 20
114.0737867397574
 30
0.0
 10
170.5903857974421
 20
114.126605299296
 30
0.0
 10
170.2126244250342
 20
114.2527911419103
 30
0.0
 10
169.9335883224077
 20
114.2970863172437
 30
0.0
 10
169.5189295000266
 20
114.2974734933782
 30
0.0
 10
169.3787083059479
 20
114.2867036292007
 30
0.0
 10
169.106460118682
 20
114.2437323320839
 30
0.0
 10
168.9750007958898
 20
114.2119465357282
 30
0.0
 10
168.7209023979453
 20
114.1274631389395
 30
0.0
 10
168.5988896684233
 20
114.0746678768684
 30
0.0
 10
168.3731070406527
 20
113.9513903721694
 30
0.0
 10
168.2674534670236
 20
113.880072116798
 30
0.0
 10
168.0739539884299
 20
113.7186108714559
 30
0.0
 10
167.9878594639484
 20
113.630104867111
 30
0.0
 10
167.8362098866118
 20
113.4364060250296
 30
0.0
 10
167.7701041919579
 20
113.3298083996013
 30
0.0
 10
167.6641054326156
 20
113.1054629843905
 30
0.0
 10
167.6237778522444
 20
112.9878013231327
 30
0.0
 10
167.568919204091
 20
112.7405806815262
 30
0.0
 10
167.5547499472566
 20
112.6102403490141
 30
0.0
 10
167.5544568812583
 20
112.2198786535016
 30
0.0
 10
167.6106996400948
 20
111.9494692284485
 30
0.0
 10
167.7690435621776
 20
111.5716049264147
 30
0.0
 10
167.8349737441205
 20
111.4479918773864
 30
0.0
 10
167.9870980809837
 20
111.2167519987613
 30
0.0
 10
168.0732400841691
 20
111.1085080018991
 30
0.0
 10
168.2659934361487
 20
110.9072864325826
 30
0.0
 10
168.3722793744463
 20
110.8150840509742
 30
0.0
 10
168.5975480462479
 20
110.6543025180382
 30
0.0
 10
168.7174496490742
 20
110.5846803383792
 30
0.0
 10
168.9733278183997
 20
110.4692525901681
 30
0.0
 10
169.104864746368
 20
110.4255024103502
 30
0.0
 10
169.3746880849779
 20
110.3661984734084
 30
0.0
 10
169.5142406818421
 20
110.3506365932908
 30
0.0
 10
169.6546517361156
 20
110.3506365932908
 30
0.0
  0
LINE
  5
118
330
1F
100
AcDbEntity
  8
0
  6
HIDDEN
 62
     7
370
     0
100
AcDbLine
 10
243.4046504129
 20
125.2344246967
 30
0.0
 11
246.9046500553
 21
125.2344246967
 31
0.0
  0
LINE
  5
119
330
1F
100
AcDbEntity
  8
0
  6
HIDDEN
 62
     7
370
     0
100
AcDbLine
 10
239.9046507705
 20
125.2344246967
 30
0.0
 11
243.4046504129
 21
125.2344246967
 31
0.0
  0
SPLINE
  5
11A
330
1F
100
AcDbEntity
  8
0
  6
HIDDEN
 62
     7
370
     0
100
AcDbSpline
210
0.0
220
0.0
230
1.0
 70
     8
 71
     3
 72
     8
 73
     4
 74
     0
 42
0.000000001
 43
0.00000001
 40
0.0
 40
0.0
 40
0.0
 40
0.0
 40
1.0
 40
1.0
 40
1.0
 40
1.0
 10
168.8314715599562
 20
120.5029471494186
 30
0.0
 10
169.0428989499574
 20
120.510456659201
 30
0.0
 10
169.2453674964901
 20
120.5645801888357
 30
0.0
 10
169.4315780956275
 20
120.6493084760608
 30
0.0
  0
ELLIPSE
  5
11B
330
1F
100
AcDbEntity
  8
0
  6
HIDDEN
 62
     7
370
     0
100
AcDbEllipse
 10
169.6546517361
 20
122.4649352253
 30
0.0
 11
-1.760776919379055
 21
2.232245799914466
 31
0.0
210
0.0
220
0.0
230
1.0
 40
0.5126701559
 41
5.395150933160715
 42
8.323890913123122
  0
SPLINE
  5
11C
330
1F
100
AcDbEntity
  8
0
  6
HIDDEN
 62
     7
370
     0
100
AcDbSpline
210
0.0
220
0.0
230
1.0
 70
     8
 71
     3
 72
     8
 73
     4
 74
     0
 42
0.000000001
 43
0.00000001
 40
0.0
 40
0.0
 40
0.0
 40
0.0
 40
1.0
 40
1.0
 40
1.0
 40
1.0
 10
169.4315780956283
 20
124.5736872439956
 30
0.0
 10
169.2450537463435
 20
124.4513668280948
 30
0.0
 10
169.0424988478173
 20
124.3102816674298
 30
0.0
 10
168.8314715599555
 20
124.1337980316444
 30
0.0
  0
ELLIPSE
  5
11D
330
1F
100
AcDbEntity
  8
0
  6
HIDDEN
 62
     7
370
     0
100
AcDbEllipse
 10
169.6546517361
 20
122.4649352253
 30
0.0
 11
1.760776919379112
 21
1.388886188042932
 31
0.0
210
0.0
220
0.0
230
1.0
 40
0.8239737799
 41
1.397255033323954
 42
3.733259041931081
  0
LWPOLYLINE
  5
11E
330
1F
100
AcDbEntity
  8
0
  6
HIDDEN
 62
     7
370
     0
100
AcDbPolyline
 90
       19
 70
   128
 43
0.0
 10
169.6546518285
 20
122.219361925
 10
170.3728943173
 20
122.3383700488
 10
171.0045061115
 20
122.6810390143
 10
171.4733050246
 20
123.2060395195
 10
171.7227486003
 20
123.8500472172
 10
171.7227486003
 20
124.5353860794
 10
171.4733050246
 20
125.1793937771
 10
171.0045061115
 20
125.7043942822
 10
170.3728943173
 20
126.0470632477
 10
169.6546518285
 20
126.1660713716
 10
168.9364093397
 20
126.0470632477
 10
168.3047975455
 20
125.7043942822
 10
167.8359986324
 20
125.1793937771
 10
167.5865550567
 20
124.5353860794
 10
167.5865550567
 20
123.8500472172
 10
167.8359986324
 20
123.2060395195
 10
168.3047975455
 20
122.6810390143
 10
168.9364093397
 20
122.3383700488
 10
169.6546518285
 20
122.219361925
  0
LINE
  5
11F
330
1F
100
AcDbEntity
  8
0
  6
HIDDEN
 62
     7
370
     0
100
AcDbLine
 10
164.6446513985
 20
146.1274694665
 30
0.0
 11
164.6446513985
 21
140.5844256295
 31
0.0
  0
LINE
  5
120
330
1F
100
AcDbEntity
  8
0
  6
HIDDEN
 62
     7
370
     0
100
AcDbLine
 10
168.4646516148
 20
146.1274694665
 30
0.0
 11
168.4646516148
 21
140.5844256295
 31
0.0
  0
SPLINE
  5
121
330
1F
100
AcDbEntity
  8
0
  6
HIDDEN
 62
     7
370
     0
100
AcDbSpline
210
0.0
220
0.0
230
1.0
 70
     8
 71
     3
 72
    14
 73
    10
 74
     0
 42
0.000000001
 43
0.00000001
 40
0.0
 40
0.0
 40
0.0
 40
0.0
 40
0.25
 40
0.25
 40
0.5
 40
0.5
 40
0.75
 40
0.75
 40
1.0
 40
1.0
 40
1.0
 40
1.0
 10
167.6646517361154
 20
127.7097146708737
 30
0.0
 10
167.7390772882501
 20
127.8005721256554
 30
0.0
 10
167.8209555478635
 20
127.8897827088611
 30
0.0
 10
167.9939416940391
 20
128.065207027653
 30
0.0
 10
168.0846135139001
 20
128.1507419832797
 30
0.0
 10
168.2519770632445
 20
128.3115935962182
 30
0.0
 10
168.3284278882109
 20
128.3873256851147
 30
0.0
 10
168.4347209730494
 20
128.5189167086901
 30
0.0
 10
168.4646517361156
 20
128.5759168835964
 30
0.0
 10
168.4646517361156
 20
128.6181141565485
 30
0.0
  0
SPLINE
  5
122
330
1F
100
AcDbEntity
  8
0
  6
HIDDEN
 62
     7
370
     0
100
AcDbSpline
210
0.0
220
0.0
230
1.0
 70
     8
 71
     3
 72
    14
 73
    10
 74
     0
 42
0.000000001
 43
0.00000001
 40
0.0
 40
0.0
 40
0.0
 40
0.0
 40
0.25
 40
0.25
 40
0.5
 40
0.5
 40
0.75
 40
0.75
 40
1.0
 40
1.0
 40
1.0
 40
1.0
 10
168.4646517361156
 20
124.486072957917
 30
0.0
 10
168.4646517361156
 20
124.4435725402624
 30
0.0
 10
168.4349382772989
 20
124.4163006337798
 30
0.0
 10
168.3288569104067
 20
124.4027478598126
 30
0.0
 10
168.2524899812422
 20
124.4171934169536
 30
0.0
 10
168.0837304367137
 20
124.4895695809735
 30
0.0
 10
167.9929336242418
 20
124.5466425160909
 30
0.0
 10
167.8213686840345
 20
124.6878004496078
 30
0.0
 10
167.73930744374
 20
124.7723776646914
 30
0.0
 10
167.6646517361154
 20
124.8657508278206
 30
0.0
  0
LINE
  5
123
330
1F
100
AcDbEntity
  8
0
  6
HIDDEN
 62
     7
370
     0
100
AcDbLine
 10
168.4646516148
 20
96.9371633618
 30
0.0
 11
168.4646516148
 21
92.8051225854
 31
0.0
  0
LINE
  5
124
330
1F
100
AcDbEntity
  8
0
  6
HIDDEN
 62
     7
370
     0
100
AcDbLine
 10
169.7878132615
 20
96.4372778325
 30
0.0
 11
169.7878132615
 21
91.7454842491
 31
0.0
  0
LINE
  5
125
330
1F
100
AcDbEntity
  8
0
  6
HIDDEN
 62
     7
370
     0
100
AcDbLine
 10
169.7878132615
 20
149.2455039187
 30
0.0
 11
169.7878132615
 21
140.5844256295
 31
0.0
  0
LINE
  5
126
330
1F
100
AcDbEntity
  8
0
  6
HIDDEN
 62
     7
370
     0
100
AcDbLine
 10
163.3214906831
 20
149.2455039187
 30
0.0
 11
163.3214906831
 21
140.5844256295
 31
0.0
  0
ARC
  5
127
330
1F
100
AcDbEntity
  8
0
  6
HIDDEN
 62
     7
370
     0
100
AcDbCircle
 10
169.900704498
 20
123.3044127893
 30
0.0
 40
1.353195702694764
100
AcDbArc
 50
110.2844232439
 51
142.1998959299
  0
ARC
  5
128
330
1F
100
AcDbEntity
  8
0
  6
HIDDEN
 62
     7
370
     0
100
AcDbCircle
 10
168.9580522675
 20
121.2873953441
 30
0.0
 40
0.7945949542257815
100
AcDbArc
 50
260.8336111241
 51
306.5791809456
  0
LWPOLYLINE
  5
129
330
1F
100
AcDbEntity
  8
0
  6
HIDDEN
 62
     7
370
     0
100
AcDbPolyline
 90
       19
 70
   128
 43
0.0
 10
159.6894145984
 20
123.4473768635
 10
159.8767338362
 20
122.9260848848
 10
160.1806849282
 20
122.6036787046
 10
160.5646072928
 20
122.5190466283
 10
160.9821937088
 20
122.6823959513
 10
161.3830773201
 20
123.0740236132
 10
161.7189061869
 20
123.6466938643
 10
161.9491733652
 20
124.3313342346
 10
162.0461058844
 20
125.0453680767
 10
161.9980123867
 20
125.7026704042
 10
161.8106931489
 20
126.2239623828
 10
161.5067415912
 20
126.5463676317
 10
161.1228196923
 20
126.6310006393
 10
160.7052328106
 20
126.4676522477
 10
160.3043491993
 20
126.0760236545
 10
159.9685207982
 20
125.5033534034
 10
159.7382531543
 20
124.818713033
 10
159.641320635
 20
124.104679191
 10
159.6894145984
 20
123.4473768635
  0
LWPOLYLINE
  5
12A
330
1F
100
AcDbEntity
  8
0
  6
HIDDEN
 62
     7
370
     0
100
AcDbPolyline
 90
       23
 70
   128
 43
0.0
 10
158.9263827115
 20
123.0283608673
 10
159.1316906776
 20
122.4001539884
 10
159.4539580908
 20
121.953348258
 10
159.8670764867
 20
121.7241413905
 10
160.3375773918
 20
121.7311011641
 10
160.8273436357
 20
121.9736659913
 10
161.296697617
 20
122.4321821718
 10
161.707614832
 20
123.0695057674
 10
162.0268051554
 20
123.8340033232
 10
162.2284094844
 20
124.6637400253
 10
162.2960956808
 20
125.491494873
 10
162.2243796516
 20
126.2502098469
 10
162.0190714527
 20
126.8784157945
 10
161.6968040396
 20
127.325221525
 10
161.2836856436
 20
127.5544293238
 10
160.8131847386
 20
127.5474686189
 10
160.3234184947
 20
127.3049037917
 10
159.8540645134
 20
126.8463876112
 10
159.4431472983
 20
126.2090649469
 10
159.1239572078
 20
125.4445673911
 10
158.9223526459
 20
124.614830689
 10
158.8546666824
 20
123.7870749099
 10
158.9263827115
 20
123.0283608673
  0
LWPOLYLINE
  5
12B
330
1F
100
AcDbEntity
  8
0
  6
HIDDEN
 62
     7
370
     0
100
AcDbPolyline
 90
       21
 70
   128
 43
0.0
 10
169.6546518285
 20
121.8932788832
 10
170.4271941487
 20
122.008259037
 10
171.1241149385
 20
122.3419426022
 10
171.6771938879
 20
122.861667165
 10
172.0322922845
 20
123.5165582983
 10
172.154651307
 20
124.2425102754
 10
172.0322922845
 20
124.9684631838
 10
171.6771938879
 20
125.6233543171
 10
171.1241149385
 20
126.1430788799
 10
170.4271941487
 20
126.4767624451
 10
169.6546518285
 20
126.5917416675
 10
168.8821095083
 20
126.4767624451
 10
168.1851887185
 20
126.1430788799
 10
167.6321088378
 20
125.6233543171
 10
167.2770104412
 20
124.9684631838
 10
167.1546514187
 20
124.2425102754
 10
167.2770104412
 20
123.5165582983
 10
167.6321088378
 20
122.861667165
 10
168.1851887185
 20
122.3419426022
 10
168.8821095083
 20
122.008259037
 10
169.6546518285
 20
121.8932788832
  0
SPLINE
  5
12C
330
1F
100
AcDbEntity
  8
0
  6
HIDDEN
 62
     7
370
     0
100
AcDbSpline
210
0.0
220
0.0
230
1.0
 70
     8
 71
     3
 72
    34
 73
    30
 74
     0
 42
0.000000001
 43
0.00000001
 40
0.0
 40
0.0
 40
0.0
 40
0.0
 40
0.0624999999999991
 40
0.0624999999999991
 40
0.1249999999999982
 40
0.1249999999999982
 40
0.1874999999999973
 40
0.1874999999999973
 40
0.249999999999997
 40
0.249999999999997
 40
0.3124999999999967
 40
0.3124999999999967
 40
0.3749999999999963
 40
0.3749999999999963
 40
0.4999999999999966
 40
0.4999999999999966
 40
0.6249999999999968
 40
0.6249999999999968
 40
0.6874999999999973
 40
0.6874999999999973
 40
0.7499999999999979
 40
0.7499999999999979
 40
0.8124999999999984
 40
0.8124999999999984
 40
0.874999999999999
 40
0.874999999999999
 40
0.9374999999999996
 40
0.9374999999999996
 40
1.0
 40
1.0
 40
1.0
 40
1.0
 10
169.7878132435775
 20
129.7233655019411
 30
0.0
 10
169.9472050713654
 20
129.7155254060183
 30
0.0
 10
170.1032075548089
 20
129.6938667579279
 30
0.0
 10
170.4087170708862
 20
129.6240185304351
 30
0.0
 10
170.5596114058984
 20
129.5751928281068
 30
0.0
 10
170.8475107505892
 20
129.4522688746995
 30
0.0
 10
170.9834571535489
 20
129.3789613665652
 30
0.0
 10
171.239639769141
 20
129.2089507427938
 30
0.0
 10
171.3608220569001
 20
129.1110769505924
 30
0.0
 10
171.5779681287728
 20
128.8984927751604
 30
0.0
 10
171.6749300017332
 20
128.7834468366308
 30
0.0
 10
171.8454924375587
 20
128.5355857165107
 30
0.0
 10
171.9187324907707
 20
128.4025522194451
 30
0.0
 10
172.0936129475195
 20
127.993044203315
 30
0.0
 10
172.1546509084954
 20
127.6950835535399
 30
0.0
 10
172.1546525637185
 20
127.1036419976655
 30
0.0
 10
172.0936179541322
 20
126.8034684476889
 30
0.0
 10
171.9187281867303
 20
126.3882371674211
 30
0.0
 10
171.8454844813059
 20
126.2528820491743
 30
0.0
 10
171.6749237655692
 20
125.9999827177876
 30
0.0
 10
171.5779600499758
 20
125.8822174401799
 30
0.0
 10
171.3607997213886
 20
125.6640871448112
 30
0.0
 10
171.2396184627018
 20
125.5633838196643
 30
0.0
 10
170.9834482357631
 20
125.388140126831
 30
0.0
 10
170.8475048861004
 20
125.3123951577404
 30
0.0
 10
170.5596021829172
 20
125.1852267824381
 30
0.0
 10
170.4087119870005
 20
125.1346255101107
 30
0.0
 10
170.1032064832948
 20
125.0621964103628
 30
0.0
 10
169.9472050850313
 20
125.0397106389659
 30
0.0
 10
169.7878132435775
 20
125.031572179071
 30
0.0
  0
SPLINE
  5
12D
330
1F
100
AcDbEntity
  8
0
  6
HIDDEN
 62
     7
370
     0
100
AcDbSpline
210
0.0
220
0.0
230
1.0
 70
     8
 71
     3
 72
    10
 73
     6
 74
     0
 42
0.000000001
 43
0.00000001
 40
0.0
 40
0.0
 40
0.0
 40
0.0
 40
0.5
 40
0.5
 40
1.0
 40
1.0
 40
1.0
 40
1.0
 10
169.7878132435775
 20
125.031572179071
 30
0.0
 10
169.5650862167041
 20
124.8880836787773
 30
0.0
 10
169.343400329479
 20
124.7733629330444
 30
0.0
 10
168.902179491627
 20
124.6036025036865
 30
0.0
 10
168.6826208442282
 20
124.5481825092991
 30
0.0
 10
168.4646517361159
 20
124.5316871799295
 30
0.0
  0
SPLINE
  5
12E
330
1F
100
AcDbEntity
  8
0
  6
HIDDEN
 62
     7
370
     0
100
AcDbSpline
210
0.0
220
0.0
230
1.0
 70
     8
 71
     3
 72
    10
 73
     6
 74
     0
 42
0.000000001
 43
0.00000001
 40
0.0
 40
0.0
 40
0.0
 40
0.0
 40
0.5
 40
0.5
 40
1.0
 40
1.0
 40
1.0
 40
1.0
 10
168.4646517361159
 20
128.663728378561
 30
0.0
 10
168.6815425686367
 20
128.9007673180095
 30
0.0
 10
168.9006952052955
 20
129.102937553003
 30
0.0
 10
169.3421797055644
 20
129.4536896245217
 30
0.0
 10
169.5653821708378
 20
129.6023657169186
 30
0.0
 10
169.7878132435775
 20
129.7233655019411
 30
0.0
  0
SPLINE
  5
12F
330
1F
100
AcDbEntity
  8
0
  6
HIDDEN
 62
     7
370
     0
100
AcDbSpline
210
0.0
220
0.0
230
1.0
 70
     8
 71
     3
 72
    16
 73
    12
 74
     0
 42
0.000000001
 43
0.00000001
 40
0.0
 40
0.0
 40
0.0
 40
0.0
 40
0.2499999999999994
 40
0.2499999999999994
 40
0.4999999999999989
 40
0.4999999999999989
 40
0.7499999999999983
 40
0.7499999999999983
 40
0.8749999999999991
 40
0.8749999999999991
 40
1.0
 40
1.0
 40
1.0
 40
1.0
 10
167.6646517361156
 20
124.8657508278204
 30
0.0
 10
167.4992376296355
 20
125.0726370638457
 30
0.0
 10
167.3730402986598
 20
125.2985057616547
 30
0.0
 10
167.198634000329
 20
125.7873750072674
 30
0.0
 10
167.1548039612321
 20
126.039142060612
 30
0.0
 10
167.1545002882621
 20
126.5509213851942
 30
0.0
 10
167.1983571483225
 20
126.8019760942769
 30
0.0
 10
167.3282789075896
 20
127.1628246624189
 30
0.0
 10
167.3823937189975
 20
127.2800974307675
 30
0.0
 10
167.509070709141
 20
127.5025863821063
 30
0.0
 10
167.5819444295019
 20
127.6087469903497
 30
0.0
 10
167.6646517361156
 20
127.709714670874
 30
0.0
  0
LINE
  5
130
330
1F
100
AcDbEntity
  8
0
  6
HIDDEN
 62
     7
370
     0
100
AcDbLine
 10
239.4046497572
 20
126.0344252004
 30
0.0
 11
247.4046510685
 21
126.0344252004
 31
0.0
  0
LINE
  5
131
330
1F
100
AcDbEntity
  8
0
  6
HIDDEN
 62
     7
370
     0
100
AcDbLine
 10
239.4046497572
 20
120.8396811052
 30
0.0
 11
247.4046510685
 21
120.8396811052
 31
0.0
  0
LINE
  5
132
330
1F
100
AcDbEntity
  8
0
  6
HIDDEN
 62
     7
370
     0
100
AcDbLine
 10
240.7348466147
 20
116.7344251661
 30
0.0
 11
246.0744542111
 21
116.7344251661
 31
0.0
  0
SPLINE
  5
133
330
1F
100
AcDbEntity
  8
0
  6
HIDDEN
 62
     7
370
     0
100
AcDbSpline
210
0.0
220
0.0
230
1.0
 70
     8
 71
     3
 72
    10
 73
     6
 74
     0
 42
0.000000001
 43
0.00000001
 40
0.0
 40
0.0
 40
0.0
 40
0.0
 40
0.4391224725348629
 40
0.7513705253982274
 40
1.0
 40
1.0
 40
1.0
 40
1.0
 10
241.4046538103572
 20
126.6438268138405
 30
0.0
 10
241.6909731747352
 20
126.5068457181437
 30
0.0
 10
242.1808864556531
 20
126.2724610890693
 30
0.0
 10
242.8930547005049
 20
126.3766482238648
 30
0.0
 10
243.2475204895507
 20
126.5617664088275
 30
0.0
 10
243.4046504128925
 20
126.6438268138405
 30
0.0
  0
SPLINE
  5
134
330
1F
100
AcDbEntity
  8
0
  6
HIDDEN
 62
     7
370
     0
100
AcDbSpline
210
0.0
220
0.0
230
1.0
 70
     8
 71
     3
 72
    10
 73
     6
 74
     0
 42
0.000000001
 43
0.00000001
 40
0.0
 40
0.0
 40
0.0
 40
0.0
 40
0.439121300532936
 40
0.7513711664680722
 40
1.0
 40
1.0
 40
1.0
 40
1.0
 10
243.4046504128925
 20
126.6438268138405
 30
0.0
 10
243.690969415951
 20
126.5068459834291
 30
0.0
 10
244.1808838041825
 20
126.2724609827356
 30
0.0
 10
244.8930575625471
 20
126.3766473642859
 30
0.0
 10
245.2475246850477
 20
126.5617664102265
 30
0.0
 10
245.4046544660083
 20
126.6438268138405
 30
0.0
  0
LINE
  5
135
330
1F
100
AcDbEntity
  8
0
  6
HIDDEN
 62
     7
370
     0
100
AcDbLine
 10
243.4046504129
 20
121.7344250543
 30
0.0
 11
243.4046504129
 21
126.6438268138
 31
0.0
  0
LINE
  5
136
330
1F
100
AcDbEntity
  8
0
  6
HIDDEN
 62
     7
370
     0
100
AcDbLine
 10
244.4046524395
 20
121.7344250543
 30
0.0
 11
243.4046504129
 21
121.7344250543
 31
0.0
  0
LINE
  5
137
330
1F
100
AcDbEntity
  8
0
  6
HIDDEN
 62
     7
370
     0
100
AcDbLine
 10
243.4046504129
 20
121.7344250543
 30
0.0
 11
242.4046483863
 21
121.7344250543
 31
0.0
  0
LINE
  5
138
330
1F
100
AcDbEntity
  8
0
  6
HIDDEN
 62
     7
370
     0
100
AcDbLine
 10
241.4046538104
 20
120.7344248904
 30
0.0
 11
245.404654466
 21
120.7344248904
 31
0.0
  0
LINE
  5
139
330
1F
100
AcDbEntity
  8
0
  6
HIDDEN
 62
     7
370
     0
100
AcDbLine
 10
242.4046483863
 20
121.7344250543
 30
0.0
 11
241.4046538104
 21
121.7344250543
 31
0.0
  0
LINE
  5
13A
330
1F
100
AcDbEntity
  8
0
  6
HIDDEN
 62
     7
370
     0
100
AcDbLine
 10
245.404654466
 20
121.7344250543
 30
0.0
 11
244.4046524395
 21
121.7344250543
 31
0.0
  0
LINE
  5
13B
330
1F
100
AcDbEntity
  8
0
  6
HIDDEN
 62
     7
370
     0
100
AcDbLine
 10
241.4046538104
 20
121.7344250543
 30
0.0
 11
241.4046538104
 21
126.6438268138
 31
0.0
  0
LINE
  5
13C
330
1F
100
AcDbEntity
  8
0
  6
HIDDEN
 62
     7
370
     0
100
AcDbLine
 10
245.404654466
 20
121.7344250543
 30
0.0
 11
245.404654466
 21
126.6438268138
 31
0.0
  0
ARC
  5
13D
330
1F
100
AcDbEntity
  8
0
  6
HIDDEN
 62
     7
370
     0
100
AcDbCircle
 10
169.6404039239
 20
95.4173936396
 30
0.0
 40
2.477501919227813
100
AcDbArc
 50
344.6774397135
 51
183.9782949703
  0
ARC
  5
13E
330
1F
100
AcDbEntity
  8
0
  6
HIDDEN
 62
     7
370
     0
100
AcDbCircle
 10
169.6344327969
 20
95.3512308595
 30
0.0
 40
2.357529784017135
100
AcDbArc
 50
351.2970100168
 51
154.2965624491
  0
ARC
  5
13F
330
1F
100
AcDbEntity
  8
0
  6
HIDDEN
 62
     7
370
     0
100
AcDbCircle
 10
169.6529449809
 20
95.3449402671
 30
0.0
 40
2.004350012217561
100
AcDbArc
 50
2.9426170569
 51
126.9809485393
  0
LWPOLYLINE
  5
140
330
1F
100
AcDbEntity
  8
0
  6
HIDDEN
 62
     7
370
     0
100
AcDbPolyline
 90
       21
 70
   128
 43
0.0
 10
168.0879549165
 20
93.8531249775
 10
167.562609822
 20
94.3976636989
 10
167.2420476604
 20
95.0681023313
 10
167.1576484148
 20
95.7988133667
 10
167.3176729161
 20
96.5182675062
 10
167.7064572502
 20
97.1560418619
 10
168.2859438513
 20
97.6497052251
 10
168.9994105179
 20
97.9509349926
 10
169.7770155076
 20
98.0302445604
 10
170.542643689
 20
97.8798704235
 10
171.2213487406
 20
97.5145330666
 10
171.7466929037
 20
96.9699934138
 10
172.0672559966
 20
96.2995547815
 10
172.1516561736
 20
95.5688446774
 10
171.9916307409
 20
94.8493905379
 10
171.6028464068
 20
94.2116152508
 10
171.0233588744
 20
93.717952819
 10
170.3098931391
 20
93.4167221202
 10
169.5322881494
 20
93.3374125524
 10
168.766659968
 20
93.4877876206
 10
168.0879549165
 20
93.8531249775
  0
LWPOLYLINE
  5
141
330
1F
100
AcDbEntity
  8
0
  6
HIDDEN
 62
     7
370
     0
100
AcDbPolyline
 90
       18
 70
   128
 43
0.0
 10
168.4012946714
 20
95.4010473578
 10
167.9229161743
 20
95.9254061817
 10
167.6784169901
 20
96.5767443193
 10
167.700820886
 20
97.2670955597
 10
167.9870992009
 20
97.9032242684
 10
168.4985899408
 20
98.3992168693
 10
169.1662141163
 20
98.6880879863
 10
169.8998038698
 20
98.7308235852
 10
170.6002841745
 20
98.5216522603
 10
171.1730522145
 20
98.0888219564
 10
171.5407514055
 20
97.4907917915
 10
171.6537226964
 20
96.8083260594
 10
171.4967072983
 20
96.1335977553
 10
171.0909132887
 20
95.5577312051
 10
170.4911443446
 20
95.1585020883
 10
169.7784022469
 20
94.9898265316
 10
169.0489466343
 20
95.0744856162
 10
168.4012946714
 20
95.4010473578
  0
LWPOLYLINE
  5
142
330
1F
100
AcDbEntity
  8
0
  6
HIDDEN
 62
     7
370
     0
100
AcDbPolyline
 90
       21
 70
   128
 43
0.0
 10
168.0879549165
 20
94.0891183926
 10
167.562609822
 20
94.6336589767
 10
167.2420476604
 20
95.3040966777
 10
167.1576484148
 20
96.0348067819
 10
167.3176729161
 20
96.7542618526
 10
167.7064572502
 20
97.392035277
 10
168.2859438513
 20
97.8856986402
 10
168.9994105179
 20
98.1869284077
 10
169.7770155076
 20
98.2662389068
 10
170.542643689
 20
98.11586477
 10
171.2213487406
 20
97.7505264817
 10
171.7466929037
 20
97.2059868289
 10
172.0672559966
 20
96.5355481966
 10
172.1516561736
 20
95.8048380925
 10
171.9916307409
 20
95.085383953
 10
171.6028464068
 20
94.447608666
 10
171.0233588744
 20
93.9539462341
 10
170.3098931391
 20
93.6527155353
 10
169.5322881494
 20
93.5734059675
 10
168.766659968
 20
93.7237810357
 10
168.0879549165
 20
94.0891183926
  0
LWPOLYLINE
  5
143
330
1F
100
AcDbEntity
  8
0
  6
HIDDEN
 62
     7
370
     0
100
AcDbPolyline
 90
       20
 70
   128
 43
0.0
 10
168.2132913772
 20
94.1741015775
 10
167.709416062
 20
94.7051417096
 10
167.416338161
 20
95.3611522926
 10
167.365815774
 20
96.0710408179
 10
167.5633241464
 20
96.7578809722
 10
167.987460554
 20
97.3472423865
 10
168.5922632966
 20
97.7752596153
 10
169.3121924106
 20
97.9955500005
 10
170.0692319352
 20
97.9842409505
 10
170.7813444589
 20
97.7425580858
 10
171.3713643182
 20
97.2966929911
 10
171.7753496994
 20
96.6949598877
 10
171.9495256473
 20
96.0025681196
 10
171.875016116
 20
95.2945468961
 10
171.5598956723
 20
94.6476232274
 10
171.0383121897
 20
94.1318996264
 10
170.3667885665
 20
93.8032638295
 10
169.6180927608
 20
93.6973277493
 10
168.8733597327
 20
93.8255727304
 10
168.2132913772
 20
94.1741015775
  0
LWPOLYLINE
  5
144
330
1F
100
AcDbEntity
  8
0
  6
HIDDEN
 62
     7
370
     0
100
AcDbPolyline
 90
       21
 70
   128
 43
0.0
 10
168.0879549165
 20
94.3251118077
 10
167.562609822
 20
94.8696523918
 10
167.2420476604
 20
95.5400910242
 10
167.1576484148
 20
96.2708011283
 10
167.3176729161
 20
96.9902552678
 10
167.7064572502
 20
97.6280296235
 10
168.2859438513
 20
98.1216929866
 10
168.9994105179
 20
98.4229227541
 10
169.7770155076
 20
98.5022323219
 10
170.542643689
 20
98.3518581851
 10
171.2213487406
 20
97.9865208282
 10
171.7466929037
 20
97.4419811754
 10
172.0672559966
 20
96.771542543
 10
172.1516561736
 20
96.0408324389
 10
171.9916307409
 20
95.3213773681
 10
171.6028464068
 20
94.6836039437
 10
171.0233588744
 20
94.1899396492
 10
170.3098931391
 20
93.8887108131
 10
169.5322881494
 20
93.8094012453
 10
168.766659968
 20
93.9597744508
 10
168.0879549165
 20
94.3251118077
  0
LWPOLYLINE
  5
145
330
1F
100
AcDbEntity
  8
0
  6
HIDDEN
 62
     7
370
     0
100
AcDbPolyline
 90
       20
 70
   128
 43
0.0
 10
168.2132913772
 20
94.4100949927
 10
167.709416062
 20
94.9411369874
 10
167.416338161
 20
95.5971457077
 10
167.365815774
 20
96.3070342331
 10
167.5633241464
 20
96.9938743873
 10
167.987460554
 20
97.5832367329
 10
168.5922632966
 20
98.0112530304
 10
169.3121924106
 20
98.2315434156
 10
170.0692319352
 20
98.2202343656
 10
170.7813444589
 20
97.9785524322
 10
171.3713643182
 20
97.5326864062
 10
171.7753496994
 20
96.9309542341
 10
171.9495256473
 20
96.2385615347
 10
171.875016116
 20
95.5305412425
 10
171.5598956723
 20
94.8836166425
 10
171.0383121897
 20
94.3678930415
 10
170.3667885665
 20
94.0392572446
 10
169.6180927608
 20
93.933323027
 10
168.8733597327
 20
94.0615680082
 10
168.2132913772
 20
94.4100949927
  0
LWPOLYLINE
  5
146
330
1F
100
AcDbEntity
  8
0
  6
HIDDEN
 62
     7
370
     0
100
AcDbPolyline
 90
       21
 70
   128
 43
0.0
 10
168.0879549165
 20
94.5611070855
 10
167.562609822
 20
95.1056458069
 10
167.2420476604
 20
95.7760844393
 10
167.1576484148
 20
96.5067945434
 10
167.3176729161
 20
97.2262496142
 10
167.7064572502
 20
97.8640230386
 10
168.2859438513
 20
98.3576873331
 10
168.9994105179
 20
98.6589171006
 10
169.7770155076
 20
98.7382266684
 10
170.542643689
 20
98.5878525315
 10
171.2213487406
 20
98.2225142433
 10
171.7466929037
 20
97.6779745905
 10
172.0672559966
 20
97.0075359581
 10
172.1516561736
 20
96.276825854
 10
171.9916307409
 20
95.5573717146
 10
171.6028464068
 20
94.9195973588
 10
171.0233588744
 20
94.4259330644
 10
170.3098931391
 20
94.1247042282
 10
169.5322881494
 20
94.0453946604
 10
168.766659968
 20
94.1957678659
 10
168.0879549165
 20
94.5611070855
  0
LWPOLYLINE
  5
147
330
1F
100
AcDbEntity
  8
0
  6
HIDDEN
 62
     7
370
     0
100
AcDbPolyline
 90
       20
 70
   128
 43
0.0
 10
168.2132913772
 20
94.6460884078
 10
167.709416062
 20
95.1771304025
 10
167.416338161
 20
95.8331400542
 10
167.365815774
 20
96.5430285795
 10
167.5633241464
 20
97.2298687337
 10
167.987460554
 20
97.819230148
 10
168.5922632966
 20
98.2472473769
 10
169.3121924106
 20
98.4675377621
 10
170.0692319352
 20
98.456228712
 10
170.7813444589
 20
98.2145458473
 10
171.3713643182
 20
97.7686807527
 10
171.7753496994
 20
97.1669476493
 10
171.9495256473
 20
96.4745558812
 10
171.875016116
 20
95.7665346576
 10
171.5598956723
 20
95.1196109889
 10
171.0383121897
 20
94.6038883193
 10
170.3667885665
 20
94.2752525224
 10
169.6180927608
 20
94.1693164422
 10
168.8733597327
 20
94.2975614233
 10
168.2132913772
 20
94.6460884078
  0
LWPOLYLINE
  5
148
330
1F
100
AcDbEntity
  8
0
  6
HIDDEN
 62
     7
370
     0
100
AcDbPolyline
 90
       21
 70
   128
 43
0.0
 10
168.0879549165
 20
94.7971005006
 10
167.562609822
 20
95.3416401534
 10
167.2420476604
 20
96.0120787857
 10
167.1576484148
 20
96.7427888898
 10
167.3176729161
 20
97.4622430293
 10
167.7064572502
 20
98.100017385
 10
168.2859438513
 20
98.5936807482
 10
168.9994105179
 20
98.8949105157
 10
169.7770155076
 20
98.9742200835
 10
170.542643689
 20
98.8238459466
 10
171.2213487406
 20
98.4585085897
 10
171.7466929037
 20
97.9139689369
 10
172.0672559966
 20
97.2435303046
 10
172.1516561736
 20
96.5128202005
 10
171.9916307409
 20
95.7933651297
 10
171.6028464068
 20
95.1555917053
 10
171.0233588744
 20
94.6619283421
 10
170.3098931391
 20
94.3606976433
 10
169.5322881494
 20
94.2813880755
 10
168.766659968
 20
94.4317631437
 10
168.0879549165
 20
94.7971005006
  0
LWPOLYLINE
  5
149
330
1F
100
AcDbEntity
  8
0
  6
HIDDEN
 62
     7
370
     0
100
AcDbPolyline
 90
       20
 70
   128
 43
0.0
 10
168.2132913772
 20
94.8820818229
 10
167.709416062
 20
95.4131247489
 10
167.416338161
 20
96.0691334693
 10
167.365815774
 20
96.7790219946
 10
167.5633241464
 20
97.4658621488
 10
167.987460554
 20
98.0552244945
 10
168.5922632966
 20
98.4832417233
 10
169.3121924106
 20
98.7035311772
 10
170.0692319352
 20
98.6922221272
 10
170.7813444589
 20
98.4505401938
 10
171.3713643182
 20
98.0046741678
 10
171.7753496994
 20
97.4029419957
 10
171.9495256473
 20
96.7105492963
 10
171.875016116
 20
96.0025290041
 10
171.5598956723
 20
95.3556044041
 10
171.0383121897
 20
94.8398817344
 10
170.3667885665
 20
94.5112459375
 10
169.6180927608
 20
94.4053098573
 10
168.8733597327
 20
94.5335548384
 10
168.2132913772
 20
94.8820818229
  0
LWPOLYLINE
  5
14A
330
1F
100
AcDbEntity
  8
0
  6
HIDDEN
 62
     7
370
     0
100
AcDbPolyline
 90
       21
 70
   128
 43
0.0
 10
168.0879549165
 20
95.3956354423
 10
167.562609822
 20
95.940175095
 10
167.2420476604
 20
96.6106137274
 10
167.1576484148
 20
97.3413238315
 10
167.3176729161
 20
98.0607789023
 10
167.7064572502
 20
98.6985523267
 10
168.2859438513
 20
99.1922156899
 10
168.9994105179
 20
99.4934454574
 10
169.7770155076
 20
99.5727550252
 10
170.542643689
 20
99.4223818196
 10
171.2213487406
 20
99.0570435314
 10
171.7466929037
 20
98.5125038786
 10
172.0672559966
 20
97.8420652462
 10
172.1516561736
 20
97.1113551421
 10
171.9916307409
 20
96.3919000713
 10
171.6028464068
 20
95.754126647
 10
171.0233588744
 20
95.2604632838
 10
170.3098931391
 20
94.959232585
 10
169.5322881494
 20
94.8799230172
 10
168.766659968
 20
95.0302980854
 10
168.0879549165
 20
95.3956354423
  0
LWPOLYLINE
  5
14B
330
1F
100
AcDbEntity
  8
0
  6
HIDDEN
 62
     7
370
     0
100
AcDbPolyline
 90
       18
 70
   128
 43
0.0
 10
168.4135871981
 20
95.8787459893
 10
167.9398997728
 20
96.39796205
 10
167.6977996756
 20
97.0429122461
 10
167.719982848
 20
97.7264927714
 10
168.0034541566
 20
98.3563825501
 10
168.5099287931
 20
98.8475108533
 10
169.1710039083
 20
99.1335488869
 10
169.8973991949
 20
99.1758653907
 10
170.5910100643
 20
98.9687448381
 10
171.1581603665
 20
98.5401604338
 10
171.5222534765
 20
97.9479948072
 10
171.6341164936
 20
97.2722224905
 10
171.478641503
 20
96.6041121645
 10
171.0768270347
 20
96.0338940857
 10
170.482940324
 20
95.6385793178
 10
169.7771878023
 20
95.4715587212
 10
169.0548866097
 20
95.5553879975
 10
168.4135871981
 20
95.8787459893
  0
LWPOLYLINE
  5
14C
330
1F
100
AcDbEntity
  8
0
  6
HIDDEN
 62
     7
370
     0
100
AcDbPolyline
 90
       18
 70
   128
 43
0.0
 10
170.3319831792
 20
122.3911806954
 10
170.958497845
 20
122.7391926585
 10
171.4089208324
 20
123.2763785882
 10
171.6224209447
 20
123.9301875247
 10
171.5701625724
 20
124.6123207746
 10
171.2592032779
 20
125.230651909
 10
170.7315410529
 20
125.701671095
 10
170.0584388379
 20
125.9617652757
 10
169.3308020983
 20
125.9758068262
 10
168.6469039921
 20
125.7418995736
 10
168.0991075043
 20
125.2916339798
 10
167.7613959689
 20
124.6858216835
 10
167.6793790464
 20
124.006279373
 10
167.8641338874
 20
123.3447842313
 10
168.2907075662
 20
122.7906752391
 10
168.9014893998
 20
122.4187860279
 10
169.6139912162
 20
122.2793437554
 10
170.3319831792
 20
122.3911806954
  0
LWPOLYLINE
  5
14D
330
1F
100
AcDbEntity
  8
0
  6
HIDDEN
 62
     7
370
     0
100
AcDbPolyline
 90
       21
 70
   128
 43
0.0
 10
170.5097018782
 20
122.0349553986
 10
171.1938058067
 20
122.3912905915
 10
171.7272450257
 20
122.9288369431
 10
172.0578067977
 20
123.5949747278
 10
172.1531295259
 20
124.3244973956
 10
172.0038832206
 20
125.0459948568
 10
171.6246784706
 20
125.6888421266
 10
171.0526340682
 20
126.1901116012
 10
170.343744852
 20
126.5007365508
 10
169.5674027357
 20
126.5903111561
 10
168.7996017788
 20
126.4500670148
 10
168.1154978503
 20
126.0937299593
 10
167.5820577
 20
125.556184539
 10
167.2514977906
 20
124.8900467543
 10
167.1561750625
 20
124.1605240865
 10
167.3054204364
 20
123.4390266253
 10
167.6846251864
 20
122.7961793555
 10
168.2566695888
 20
122.2949098809
 10
168.965558805
 20
121.9842839999
 10
169.7419009213
 20
121.894710326
 10
170.5097018782
 20
122.0349553986
  0
LWPOLYLINE
  5
14E
330
1F
100
AcDbEntity
  8
0
  6
HIDDEN
 62
     7
370
     0
100
AcDbPolyline
 90
       21
 70
   128
 43
0.0
 10
170.5097018782
 20
122.6334903403
 10
171.1938058067
 20
122.9898264645
 10
171.7272450257
 20
123.5273718847
 10
172.0578067977
 20
124.1935096694
 10
172.1531295259
 20
124.9230332686
 10
172.0038832206
 20
125.6445307298
 10
171.6246784706
 20
126.2873770682
 10
171.0526340682
 20
126.7886474742
 10
170.343744852
 20
127.0992714925
 10
169.5674027357
 20
127.1888460977
 10
168.7996017788
 20
127.0486019565
 10
168.1154978503
 20
126.6922649009
 10
167.5820577
 20
126.1547194807
 10
167.2514977906
 20
125.488581696
 10
167.1561750625
 20
124.7590590282
 10
167.3054204364
 20
124.037561567
 10
167.6846251864
 20
123.3947142972
 10
168.2566695888
 20
122.8934448226
 10
168.965558805
 20
122.5828198729
 10
169.7419009213
 20
122.4932452677
 10
170.5097018782
 20
122.6334903403
  0
LWPOLYLINE
  5
14F
330
1F
100
AcDbEntity
  8
0
  6
HIDDEN
 62
     7
370
     0
100
AcDbPolyline
 90
       18
 70
   128
 43
0.0
 10
170.3386924271
 20
124.2549713714
 10
170.9714124952
 20
124.606429228
 10
171.426297449
 20
125.1489358036
 10
171.6419116635
 20
125.8092211573
 10
171.5891354758
 20
126.4981102212
 10
171.2750953663
 20
127.1225657327
 10
170.7422074903
 20
127.5982499136
 10
170.0624379371
 20
127.8609201325
 10
169.3275946234
 20
127.8751023127
 10
168.6369220767
 20
127.6388779296
 10
168.0836997036
 20
127.184152232
 10
167.7426437888
 20
126.572338493
 10
167.659814753
 20
125.8860664456
 10
167.8463987116
 20
125.2180194496
 10
168.277197801
 20
124.6584221734
 10
168.8940295059
 20
124.2828495814
 10
169.6135879535
 20
124.1420261575
 10
170.3386924271
 20
124.2549713714
  0
LWPOLYLINE
  5
150
330
1F
100
AcDbEntity
  8
0
  6
HIDDEN
 62
     7
370
     0
100
AcDbPolyline
 90
       18
 70
   128
 43
0.0
 10
170.3386924271
 20
122.8371948017
 10
170.9714124952
 20
123.1886535896
 10
171.426297449
 20
123.7311601652
 10
171.6419116635
 20
124.3914455189
 10
171.5891354758
 20
125.0803355141
 10
171.2750953663
 20
125.7047900943
 10
170.7422074903
 20
126.1804742752
 10
170.0624379371
 20
126.4431454255
 10
169.3275946234
 20
126.457325743
 10
168.6369220767
 20
126.2211013599
 10
168.0836997036
 20
125.7663765936
 10
167.7426437888
 20
125.1545637859
 10
167.659814753
 20
124.4682908072
 10
167.8463987116
 20
123.8002438112
 10
168.277197801
 20
123.2406456037
 10
168.8940295059
 20
122.865073943
 10
169.6135879535
 20
122.7242505191
 10
170.3386924271
 20
122.8371948017
  0
LWPOLYLINE
  5
151
330
1F
100
AcDbEntity
  8
0
  6
HIDDEN
 62
     7
370
     0
100
AcDbPolyline
 90
       21
 70
   128
 43
0.0
 10
170.5097018782
 20
122.8694846867
 10
171.1938058067
 20
123.2258198796
 10
171.7272450257
 20
123.7633662312
 10
172.0578067977
 20
124.4295040159
 10
172.1531295259
 20
125.1590266837
 10
172.0038832206
 20
125.8805241449
 10
171.6246784706
 20
126.5233714147
 10
171.0526340682
 20
127.0246408893
 10
170.343744852
 20
127.3352667703
 10
169.5674027357
 20
127.4248395128
 10
168.7996017788
 20
127.2845953716
 10
168.1154978503
 20
126.9282601787
 10
167.5820577
 20
126.3907138272
 10
167.2514977906
 20
125.7245760424
 10
167.1561750625
 20
124.9950524433
 10
167.3054204364
 20
124.2735549821
 10
167.6846251864
 20
123.6307086436
 10
168.2566695888
 20
123.1294382377
 10
168.965558805
 20
122.8188132881
 10
169.7419009213
 20
122.7292396142
 10
170.5097018782
 20
122.8694846867
  0
LWPOLYLINE
  5
152
330
1F
100
AcDbEntity
  8
0
  6
HIDDEN
 62
     7
370
     0
100
AcDbPolyline
 90
       20
 70
   128
 43
0.0
 10
170.4412980978
 20
122.8715689866
 10
171.1004463066
 20
123.2216307907
 10
171.60291905
 20
123.7538434578
 10
171.8942684163
 20
124.410532975
 10
171.9429207076
 20
125.1205369843
 10
171.7436027754
 20
125.8069152026
 10
171.317913853
 20
126.3952884836
 10
170.7119860728
 20
126.8218975528
 10
169.9914786075
 20
127.040510626
 10
169.2344716791
 20
127.027440445
 10
168.5229971115
 20
126.78410262
 10
167.9341553752
 20
126.3368647559
 10
167.5317560364
 20
125.734194742
 10
167.3594045494
 20
125.0413987799
 10
167.4357795198
 20
124.3335535763
 10
167.7526042838
 20
123.6873647211
 10
168.2755447034
 20
123.1728564961
 10
168.9479325939
 20
122.8457843898
 10
169.6969050024
 20
122.7415917455
 10
170.4412980978
 20
122.8715689866
  0
LWPOLYLINE
  5
153
330
1F
100
AcDbEntity
  8
0
  6
HIDDEN
 62
     7
370
     0
100
AcDbPolyline
 90
       21
 70
   128
 43
0.0
 10
170.5097018782
 20
123.1054781018
 10
171.1938058067
 20
123.4618142261
 10
171.7272450257
 20
123.9993596463
 10
172.0578067977
 20
124.665497431
 10
172.1531295259
 20
125.3950210302
 10
172.0038832206
 20
126.1165184914
 10
171.6246784706
 20
126.7593648298
 10
171.0526340682
 20
127.2606343044
 10
170.343744852
 20
127.5712601854
 10
169.5674027357
 20
127.6608347906
 10
168.7996017788
 20
127.5205887867
 10
168.1154978503
 20
127.1642535938
 10
167.5820577
 20
126.6267072423
 10
167.2514977906
 20
125.9605694576
 10
167.1561750625
 20
125.2310467897
 10
167.3054204364
 20
124.5095493285
 10
167.6846251864
 20
123.8667020588
 10
168.2566695888
 20
123.3654325841
 10
168.965558805
 20
123.0548076345
 10
169.7419009213
 20
122.9652330293
 10
170.5097018782
 20
123.1054781018
  0
LWPOLYLINE
  5
154
330
1F
100
AcDbEntity
  8
0
  6
HIDDEN
 62
     7
370
     0
100
AcDbPolyline
 90
       20
 70
   128
 43
0.0
 10
170.4412980978
 20
123.1075624017
 10
171.1004463066
 20
123.4576251371
 10
171.60291905
 20
123.9898378043
 10
171.8942684163
 20
124.6465273215
 10
171.9429207076
 20
125.3565313308
 10
171.7436027754
 20
126.042909549
 10
171.317913853
 20
126.6312818988
 10
170.7119860728
 20
127.0578909679
 10
169.9914786075
 20
127.2765059037
 10
169.2344716791
 20
127.2634338601
 10
168.5229971115
 20
127.0200960351
 10
167.9341553752
 20
126.572858171
 10
167.5317560364
 20
125.9701881571
 10
167.3594045494
 20
125.2773931263
 10
167.4357795198
 20
124.5695479228
 10
167.7526042838
 20
123.9233581363
 10
168.2755447034
 20
123.4088508426
 10
168.9479325939
 20
123.0817787363
 10
169.6969050024
 20
122.9775851606
 10
170.4412980978
 20
123.1075624017
  0
LWPOLYLINE
  5
155
330
1F
100
AcDbEntity
  8
0
  6
HIDDEN
 62
     7
370
     0
100
AcDbPolyline
 90
       21
 70
   128
 43
0.0
 10
170.5097018782
 20
123.3414724483
 10
171.1938058067
 20
123.6978076412
 10
171.7272450257
 20
124.2353539927
 10
172.0578067977
 20
124.9014917774
 10
172.1531295259
 20
125.6310144453
 10
172.0038832206
 20
126.3525119065
 10
171.6246784706
 20
126.9953582449
 10
171.0526340682
 20
127.4966295822
 10
170.343744852
 20
127.8072536005
 10
169.5674027357
 20
127.8968282057
 10
168.7996017788
 20
127.7565840645
 10
168.1154978503
 20
127.4002470089
 10
167.5820577
 20
126.8627006574
 10
167.2514977906
 20
126.196563804
 10
167.1561750625
 20
125.4670402048
 10
167.3054204364
 20
124.7455427436
 10
167.6846251864
 20
124.1026964052
 10
168.2566695888
 20
123.6014259992
 10
168.965558805
 20
123.2908010496
 10
169.7419009213
 20
123.2012273757
 10
170.5097018782
 20
123.3414724483
  0
LWPOLYLINE
  5
156
330
1F
100
AcDbEntity
  8
0
  6
HIDDEN
 62
     7
370
     0
100
AcDbPolyline
 90
       20
 70
   128
 43
0.0
 10
170.4412980978
 20
123.3435567482
 10
171.1004463066
 20
123.6936185522
 10
171.60291905
 20
124.2258312194
 10
171.8942684163
 20
124.8825207366
 10
171.9429207076
 20
125.5925247459
 10
171.7436027754
 20
126.2789029641
 10
171.317913853
 20
126.8672771765
 10
170.7119860728
 20
127.293884383
 10
169.9914786075
 20
127.5124993189
 10
169.2344716791
 20
127.4994291378
 10
168.5229971115
 20
127.2560894503
 10
167.9341553752
 20
126.8088534488
 10
167.5317560364
 20
126.2061825035
 10
167.3594045494
 20
125.5133865414
 10
167.4357795198
 20
124.8055413379
 10
167.7526042838
 20
124.1593524827
 10
168.2755447034
 20
123.6448442577
 10
168.9479325939
 20
123.3177721514
 10
169.6969050024
 20
123.213579507
 10
170.4412980978
 20
123.3435567482
  0
LWPOLYLINE
  5
157
330
1F
100
AcDbEntity
  8
0
  6
HIDDEN
 62
     7
370
     0
100
AcDbPolyline
 90
       21
 70
   128
 43
0.0
 10
170.5097018782
 20
123.5774658634
 10
171.1938058067
 20
123.9338019876
 10
171.7272450257
 20
124.4713483392
 10
172.0578067977
 20
125.1374851926
 10
172.1531295259
 20
125.8670087917
 10
172.0038832206
 20
126.5885062529
 10
171.6246784706
 20
127.2313535227
 10
171.0526340682
 20
127.7326229973
 10
170.343744852
 20
128.0432470156
 10
169.5674027357
 20
128.1328216208
 10
168.7996017788
 20
127.9925774796
 10
168.1154978503
 20
127.6362404241
 10
167.5820577
 20
127.0986959352
 10
167.2514977906
 20
126.4325581504
 10
167.1561750625
 20
125.7030345513
 10
167.3054204364
 20
124.9815370901
 10
167.6846251864
 20
124.3386898203
 10
168.2566695888
 20
123.8374203457
 10
168.965558805
 20
123.5267953961
 10
169.7419009213
 20
123.4372207908
 10
170.5097018782
 20
123.5774658634
  0
LWPOLYLINE
  5
158
330
1F
100
AcDbEntity
  8
0
  6
HIDDEN
 62
     7
370
     0
100
AcDbPolyline
 90
       20
 70
   128
 43
0.0
 10
170.4412980978
 20
123.5795501633
 10
171.1004463066
 20
123.9296128987
 10
171.60291905
 20
124.4618255658
 10
171.8942684163
 20
125.118515083
 10
171.9429207076
 20
125.8285190923
 10
171.7436027754
 20
126.5148963793
 10
171.317913853
 20
127.1032705916
 10
170.7119860728
 20
127.5298796607
 10
169.9914786075
 20
127.748492734
 10
169.2344716791
 20
127.735422553
 10
168.5229971115
 20
127.492084728
 10
167.9341553752
 20
127.0448468639
 10
167.5317560364
 20
126.44217685
 10
167.3594045494
 20
125.7493808879
 10
167.4357795198
 20
125.0415356843
 10
167.7526042838
 20
124.3953458978
 10
168.2755447034
 20
123.8808386041
 10
168.9479325939
 20
123.5537664978
 10
169.6969050024
 20
123.4495729221
 10
170.4412980978
 20
123.5795501633
  0
LWPOLYLINE
  5
159
330
1F
100
AcDbEntity
  8
0
  6
HIDDEN
 62
     7
370
     0
100
AcDbPolyline
 90
       21
 70
   128
 43
0.0
 10
170.5097018782
 20
123.765577191
 10
171.1938058067
 20
124.1219133152
 10
171.7272450257
 20
124.6594587354
 10
172.0578067977
 20
125.3255965201
 10
172.1531295259
 20
126.055119188
 10
172.0038832206
 20
126.7766166492
 10
171.6246784706
 20
127.4194639189
 10
171.0526340682
 20
127.9207333936
 10
170.343744852
 20
128.2313592745
 10
169.5674027357
 20
128.3209338798
 10
168.7996017788
 20
128.1806878759
 10
168.1154978503
 20
127.824352683
 10
167.5820577
 20
127.2868063314
 10
167.2514977906
 20
126.6206685467
 10
167.1561750625
 20
125.8911458789
 10
167.3054204364
 20
125.1696484177
 10
167.6846251864
 20
124.5268011479
 10
168.2566695888
 20
124.0255316733
 10
168.965558805
 20
123.7149067236
 10
169.7419009213
 20
123.6253321184
 10
170.5097018782
 20
123.765577191
  0
LWPOLYLINE
  5
15A
330
1F
100
AcDbEntity
  8
0
  6
HIDDEN
 62
     7
370
     0
100
AcDbPolyline
 90
       20
 70
   128
 43
0.0
 10
170.4618188594
 20
123.937083037
 10
171.1381630082
 20
124.2962773903
 10
171.6537450481
 20
124.8423732831
 10
171.9526940067
 20
125.516194479
 10
172.0026147593
 20
126.2447197004
 10
171.7980963219
 20
126.9490044577
 10
171.3613041718
 20
127.5527250035
 10
170.7395681221
 20
127.9904633774
 10
170.0002656359
 20
128.2147798701
 10
169.2235100124
 20
128.201368825
 10
168.4934760485
 20
127.9516831054
 10
167.8892730776
 20
127.492777632
 10
167.4763758708
 20
126.8743850304
 10
167.2995288898
 20
126.1635167538
 10
167.3778959591
 20
125.4372062175
 10
167.7029852797
 20
124.7741604237
 10
168.2395677123
 20
124.2462309091
 10
168.9294961322
 20
123.9106260253
 10
169.698006757
 20
123.8037148504
 10
170.4618188594
 20
123.937083037
  0
LWPOLYLINE
  5
15B
330
1F
100
AcDbEntity
  8
0
  6
HIDDEN
 62
     7
370
     0
100
AcDbPolyline
 90
       19
 70
   128
 43
0.0
 10
160.0367145654
 20
98.8102998598
 10
159.7106217448
 20
98.5641643418
 10
159.4888314646
 20
98.1088100015
 10
159.3980950345
 20
97.4991597249
 10
159.4493568916
 20
96.8087470172
 10
159.6364335198
 20
96.1208451553
 10
159.9367613014
 20
95.5184247358
 10
160.3141164448
 20
95.0741484775
 10
160.7229833532
 20
94.8416009559
 10
161.114047565
 20
94.8488298817
 10
161.4401403856
 20
95.0949653996
 10
161.6619306658
 20
95.5503206713
 10
161.7526670959
 20
96.1599700166
 10
161.7014052388
 20
96.8503836556
 10
161.5143286105
 20
97.5382855175
 10
161.214000829
 20
98.1407050057
 10
160.8366456855
 20
98.5849821953
 10
160.4277787771
 20
98.8175297169
 10
160.0367145654
 20
98.8102998598
  0
LWPOLYLINE
  5
15C
330
1F
100
AcDbEntity
  8
0
  6
HIDDEN
 62
     7
370
     0
100
AcDbPolyline
 90
       21
 70
   128
 43
0.0
 10
160.1305262227
 20
99.289619924
 10
159.7684661899
 20
99.0324389203
 10
159.5059934113
 20
98.5645582913
 10
159.3688012142
 20
97.9317786185
 10
159.370317873
 20
97.1960403038
 10
159.5103957731
 20
96.4293625219
 10
159.7753230524
 20
95.7067931084
 10
160.1391665679
 20
95.0990613563
 10
160.5663106818
 20
94.6656573577
 10
161.0149436671
 20
94.4490056498
 10
161.4411504049
 20
94.4703124477
 10
161.8032104377
 20
94.727495314
 10
162.0656832162
 20
95.1953740804
 10
162.2028754134
 20
95.8281537531
 10
162.2013587546
 20
96.5638920678
 10
162.0612808544
 20
97.3305698498
 10
161.7963535752
 20
98.0531401946
 10
161.4325100597
 20
98.6608710153
 10
161.0053659458
 20
99.0942750139
 10
160.5567329604
 20
99.3109267218
 10
160.1305262227
 20
99.289619924
  0
LWPOLYLINE
  5
15D
330
1F
100
AcDbEntity
  8
0
  6
HIDDEN
 62
     7
370
     0
100
AcDbPolyline
 90
       21
 70
   128
 43
0.0
 10
162.5823129941
 20
99.876786211
 10
162.2202529613
 20
99.6196052073
 10
161.9577801828
 20
99.1517245783
 10
161.8205879856
 20
98.5189449055
 10
161.8221046444
 20
97.7832065909
 10
161.9621830102
 20
97.0165288089
 10
162.2271098238
 20
96.2939593954
 10
162.5909533393
 20
95.6862285747
 10
163.0180974532
 20
95.252824576
 10
163.4667304386
 20
95.0361728682
 10
163.8929371763
 20
95.057479666
 10
164.2549972091
 20
95.3146606697
 10
164.5174699877
 20
95.7825403674
 10
164.6546621848
 20
96.4153200401
 10
164.6531450603
 20
97.1510583548
 10
164.5130676259
 20
97.9177361368
 10
164.2481408123
 20
98.6403064816
 10
163.8842972968
 20
99.2480373023
 10
163.4571527172
 20
99.681441301
 10
163.0085197319
 20
99.8980930088
 10
162.5823129941
 20
99.876786211
  0
LINE
  5
15E
330
1F
100
AcDbEntity
  8
0
  6
HIDDEN
 62
     7
370
     0
100
AcDbLine
 10
160.1268321317
 20
95.9086563452
 30
0.0
 11
160.953725506
 21
95.4383514835
 31
0.0
  0
LINE
  5
15F
330
1F
100
AcDbEntity
  8
0
  6
HIDDEN
 62
     7
370
     0
100
AcDbLine
 10
161.4022746723
 20
96.3592600091
 30
0.0
 11
160.953725506
 21
95.4383514835
 31
0.0
  0
LINE
  5
160
330
1F
100
AcDbEntity
  8
0
  6
HIDDEN
 62
     7
370
     0
100
AcDbLine
 10
161.0239299987
 20
97.7504743276
 30
0.0
 11
161.4022746723
 21
96.3592600091
 31
0.0
  0
LINE
  5
161
330
1F
100
AcDbEntity
  8
0
  6
HIDDEN
 62
     7
370
     0
100
AcDbLine
 10
161.0239299987
 20
97.7504743276
 30
0.0
 11
160.1970366243
 21
98.2207791893
 31
0.0
  0
LINE
  5
162
330
1F
100
AcDbEntity
  8
0
  6
HIDDEN
 62
     7
370
     0
100
AcDbLine
 10
159.748487458
 20
97.2998697324
 30
0.0
 11
160.1970366243
 21
98.2207791893
 31
0.0
  0
LINE
  5
163
330
1F
100
AcDbEntity
  8
0
  6
HIDDEN
 62
     7
370
     0
100
AcDbLine
 10
159.748487458
 20
97.2998697324
 30
0.0
 11
160.1268321317
 21
95.9086563452
 31
0.0
  0
LINE
  5
164
330
1F
100
AcDbEntity
  8
0
  6
HIDDEN
 62
     7
370
     0
100
AcDbLine
 10
163.0405786488
 20
96.751609446
 30
0.0
 11
161.4022746723
 21
96.3592600091
 31
0.0
  0
LINE
  5
165
330
1F
100
AcDbEntity
  8
0
  6
HIDDEN
 62
     7
370
     0
100
AcDbLine
 10
162.6622339752
 20
98.1428228332
 30
0.0
 11
161.0239299987
 21
97.7504743276
 31
0.0
  0
LWPOLYLINE
  5
166
330
1F
100
AcDbEntity
  8
0
  6
HIDDEN
 62
     7
370
     0
100
AcDbPolyline
 90
       17
 70
   128
 43
0.0
 10
163.3932705078
 20
99.3010211749
 10
163.0865249824
 20
99.0519175319
 10
162.8963144537
 20
98.5839437707
 10
162.8515965346
 20
97.9683451368
 10
162.9591796588
 20
97.2988415523
 10
163.2026846562
 20
96.6773569597
 10
163.5450406973
 20
96.1985090761
 10
163.9341267798
 20
95.9351962446
 10
164.3107079942
 20
95.9275063141
 10
164.617453054
 20
96.1766108884
 10
164.8076635827
 20
96.6445837183
 10
164.8523819674
 20
97.2601823522
 10
164.7447993089
 20
97.929686868
 10
164.5012938459
 20
98.5511705293
 10
164.1589378048
 20
99.0300184129
 10
163.7698517222
 20
99.2933312444
 10
163.3932705078
 20
99.3010211749
  0
LINE
  5
167
330
1F
100
AcDbEntity
  8
0
  6
HIDDEN
 62
     7
370
     0
100
AcDbLine
 10
161.7651361082
 20
96.301005782
 30
0.0
 11
160.1268321317
 21
95.9086563452
 31
0.0
  0
LINE
  5
168
330
1F
100
AcDbEntity
  8
0
  6
HIDDEN
 62
     7
370
     0
100
AcDbLine
 10
161.7651361082
 20
96.301005782
 30
0.0
 11
162.5920299482
 21
95.8307009204
 31
0.0
  0
LINE
  5
169
330
1F
100
AcDbEntity
  8
0
  6
HIDDEN
 62
     7
370
     0
100
AcDbLine
 10
162.5920299482
 20
95.8307009204
 30
0.0
 11
160.953725506
 21
95.4383514835
 31
0.0
  0
LINE
  5
16A
330
1F
100
AcDbEntity
  8
0
  6
HIDDEN
 62
     7
370
     0
100
AcDbLine
 10
161.3867919002
 20
97.6922191693
 30
0.0
 11
161.7651361082
 21
96.301005782
 31
0.0
  0
LINE
  5
16B
330
1F
100
AcDbEntity
  8
0
  6
HIDDEN
 62
     7
370
     0
100
AcDbLine
 10
161.3867919002
 20
97.6922191693
 30
0.0
 11
161.8353406009
 21
98.6131286262
 31
0.0
  0
LINE
  5
16C
330
1F
100
AcDbEntity
  8
0
  6
HIDDEN
 62
     7
370
     0
100
AcDbLine
 10
162.6622339752
 20
98.1428228332
 30
0.0
 11
161.8353406009
 21
98.6131286262
 31
0.0
  0
LINE
  5
16D
330
1F
100
AcDbEntity
  8
0
  6
HIDDEN
 62
     7
370
     0
100
AcDbLine
 10
162.6622339752
 20
98.1428228332
 30
0.0
 11
163.0405786488
 21
96.751609446
 31
0.0
  0
LINE
  5
16E
330
1F
100
AcDbEntity
  8
0
  6
HIDDEN
 62
     7
370
     0
100
AcDbLine
 10
163.0405786488
 20
96.751609446
 30
0.0
 11
162.5920299482
 21
95.8307009204
 31
0.0
  0
LINE
  5
16F
330
1F
100
AcDbEntity
  8
0
  6
HIDDEN
 62
     7
370
     0
100
AcDbLine
 10
161.3867919002
 20
97.6922191693
 30
0.0
 11
159.748487458
 21
97.2998697324
 31
0.0
  0
LINE
  5
170
330
1F
100
AcDbEntity
  8
0
  6
HIDDEN
 62
     7
370
     0
100
AcDbLine
 10
161.8353406009
 20
98.6131286262
 30
0.0
 11
160.1970366243
 21
98.2207791893
 31
0.0
  0
LWPOLYLINE
  5
171
330
1F
100
AcDbEntity
  8
0
  6
HIDDEN
 62
     7
370
     0
100
AcDbPolyline
 90
       21
 70
   128
 43
0.0
 10
162.5823129941
 20
121.5920640169
 10
162.2202529613
 20
121.8492450206
 10
161.9577801828
 20
122.3171256496
 10
161.8205879856
 20
122.9499053223
 10
161.8221046444
 20
123.685643637
 10
161.9621830102
 20
124.452321419
 10
162.2271098238
 20
125.1748908324
 10
162.5909533393
 20
125.7826216532
 10
163.0180974532
 20
126.2160256518
 10
163.4667304386
 20
126.4326773597
 10
163.8929371763
 20
126.4113705619
 10
164.2549972091
 20
126.1541895582
 10
164.5174699877
 20
125.6863098605
 10
164.6546621848
 20
125.0535301877
 10
164.6531450603
 20
124.3177918731
 10
164.5130676259
 20
123.5511140911
 10
164.2481408123
 20
122.8285437463
 10
163.8842972968
 20
122.2208129255
 10
163.4571527172
 20
121.7874089269
 10
163.0085197319
 20
121.570757219
 10
162.5823129941
 20
121.5920640169
  0
LWPOLYLINE
  5
172
330
1F
100
AcDbEntity
  8
0
  6
HIDDEN
 62
     7
370
     0
100
AcDbPolyline
 90
       17
 70
   128
 43
0.0
 10
163.3932705078
 20
122.1678290529
 10
163.0865249824
 20
122.4169326959
 10
162.8963144537
 20
122.8849064572
 10
162.8515965346
 20
123.5005050911
 10
162.9591796588
 20
124.1700086756
 10
163.2026846562
 20
124.7914932682
 10
163.5450406973
 20
125.2703411518
 10
163.9341267798
 20
125.5336539833
 10
164.3107079942
 20
125.5413439138
 10
164.617453054
 20
125.2922393395
 10
164.8076635827
 20
124.8242665096
 10
164.8523819674
 20
124.2086678757
 10
164.7447993089
 20
123.5391633598
 10
164.5012938459
 20
122.9176796986
 10
164.1589378048
 20
122.438831815
 10
163.7698517222
 20
122.1755189834
 10
163.3932705078
 20
122.1678290529
  0
LWPOLYLINE
  5
173
330
1F
100
AcDbEntity
  8
0
  6
HIDDEN
 62
     7
370
     0
100
AcDbPolyline
 90
       21
 70
   128
 43
0.0
 10
160.1305262227
 20
122.1792303039
 10
159.7684661899
 20
122.4364113076
 10
159.5059934113
 20
122.9042919366
 10
159.3688012142
 20
123.5370716093
 10
159.370317873
 20
124.272809924
 10
159.5103957731
 20
125.039487706
 10
159.7753230524
 20
125.7620571195
 10
160.1391665679
 20
126.3697888716
 10
160.5663106818
 20
126.8031928702
 10
161.0149436671
 20
127.0198445781
 10
161.4411504049
 20
126.9985377802
 10
161.8032104377
 20
126.7413549139
 10
162.0656832162
 20
126.2734761475
 10
162.2028754134
 20
125.6406964748
 10
162.2013587546
 20
124.9049581601
 10
162.0612808544
 20
124.1382803781
 10
161.7963535752
 20
123.4157100333
 10
161.4325100597
 20
122.8079792125
 10
161.0053659458
 20
122.3745752139
 10
160.5567329604
 20
122.157923506
 10
160.1305262227
 20
122.1792303039
  0
LINE
  5
174
330
1F
100
AcDbEntity
  8
0
  6
HIDDEN
 62
     7
370
     0
100
AcDbLine
 10
161.3867919002
 20
123.7766310586
 30
0.0
 11
161.8353406009
 21
122.8557216017
 31
0.0
  0
LINE
  5
175
330
1F
100
AcDbEntity
  8
0
  6
HIDDEN
 62
     7
370
     0
100
AcDbLine
 10
161.3867919002
 20
123.7766310586
 30
0.0
 11
159.748487458
 21
124.1689804955
 31
0.0
  0
LINE
  5
176
330
1F
100
AcDbEntity
  8
0
  6
HIDDEN
 62
     7
370
     0
100
AcDbLine
 10
161.3867919002
 20
123.7766310586
 30
0.0
 11
161.7651361082
 21
125.1678444458
 31
0.0
  0
LINE
  5
177
330
1F
100
AcDbEntity
  8
0
  6
HIDDEN
 62
     7
370
     0
100
AcDbLine
 10
161.7651361082
 20
125.1678444458
 30
0.0
 11
160.1268321317
 21
125.5601938827
 31
0.0
  0
LINE
  5
178
330
1F
100
AcDbEntity
  8
0
  6
HIDDEN
 62
     7
370
     0
100
AcDbLine
 10
161.7651361082
 20
125.1678444458
 30
0.0
 11
162.5920299482
 21
125.6381493075
 31
0.0
  0
LINE
  5
179
330
1F
100
AcDbEntity
  8
0
  6
HIDDEN
 62
     7
370
     0
100
AcDbLine
 10
160.1268321317
 20
125.5601938827
 30
0.0
 11
160.953725506
 21
126.0304987444
 31
0.0
  0
LINE
  5
17A
330
1F
100
AcDbEntity
  8
0
  6
HIDDEN
 62
     7
370
     0
100
AcDbLine
 10
159.748487458
 20
124.1689804955
 30
0.0
 11
160.1268321317
 21
125.5601938827
 31
0.0
  0
LINE
  5
17B
330
1F
100
AcDbEntity
  8
0
  6
HIDDEN
 62
     7
370
     0
100
AcDbLine
 10
159.748487458
 20
124.1689804955
 30
0.0
 11
160.1970366243
 21
123.2480710386
 31
0.0
  0
LWPOLYLINE
  5
17C
330
1F
100
AcDbEntity
  8
0
  6
HIDDEN
 62
     7
370
     0
100
AcDbPolyline
 90
       19
 70
   128
 43
0.0
 10
160.0367145654
 20
122.6585503681
 10
159.7106217448
 20
122.904685886
 10
159.4888314646
 20
123.3600402264
 10
159.3980950345
 20
123.969690503
 10
159.4493568916
 20
124.6601032107
 10
159.6364335198
 20
125.3480050726
 10
159.9367613014
 20
125.9504254921
 10
160.3141164448
 20
126.3947017504
 10
160.7229833532
 20
126.627249272
 10
161.114047565
 20
126.6200203462
 10
161.4401403856
 20
126.3738848282
 10
161.6619306658
 20
125.9185295565
 10
161.7526670959
 20
125.3088802113
 10
161.7014052388
 20
124.6184665723
 10
161.5143286105
 20
123.9305647103
 10
161.214000829
 20
123.3281452222
 10
160.8366456855
 20
122.8838680325
 10
160.4277787771
 20
122.6513205109
 10
160.0367145654
 20
122.6585503681
  0
LINE
  5
17D
330
1F
100
AcDbEntity
  8
0
  6
HIDDEN
 62
     7
370
     0
100
AcDbLine
 10
162.6622339752
 20
123.3260273947
 30
0.0
 11
161.0239299987
 21
123.7183759002
 31
0.0
  0
LINE
  5
17E
330
1F
100
AcDbEntity
  8
0
  6
HIDDEN
 62
     7
370
     0
100
AcDbLine
 10
161.0239299987
 20
123.7183759002
 30
0.0
 11
160.1970366243
 21
123.2480710386
 31
0.0
  0
LINE
  5
17F
330
1F
100
AcDbEntity
  8
0
  6
HIDDEN
 62
     7
370
     0
100
AcDbLine
 10
161.8353406009
 20
122.8557216017
 30
0.0
 11
160.1970366243
 21
123.2480710386
 31
0.0
  0
LINE
  5
180
330
1F
100
AcDbEntity
  8
0
  6
HIDDEN
 62
     7
370
     0
100
AcDbLine
 10
162.6622339752
 20
123.3260273947
 30
0.0
 11
161.8353406009
 21
122.8557216017
 31
0.0
  0
LINE
  5
181
330
1F
100
AcDbEntity
  8
0
  6
HIDDEN
 62
     7
370
     0
100
AcDbLine
 10
163.0405786488
 20
124.7172407819
 30
0.0
 11
161.4022746723
 21
125.1095902188
 31
0.0
  0
LINE
  5
182
330
1F
100
AcDbEntity
  8
0
  6
HIDDEN
 62
     7
370
     0
100
AcDbLine
 10
161.4022746723
 20
125.1095902188
 30
0.0
 11
160.953725506
 21
126.0304987444
 31
0.0
  0
LINE
  5
183
330
1F
100
AcDbEntity
  8
0
  6
HIDDEN
 62
     7
370
     0
100
AcDbLine
 10
162.5920299482
 20
125.6381493075
 30
0.0
 11
160.953725506
 21
126.0304987444
 31
0.0
  0
LINE
  5
184
330
1F
100
AcDbEntity
  8
0
  6
HIDDEN
 62
     7
370
     0
100
AcDbLine
 10
163.0405786488
 20
124.7172407819
 30
0.0
 11
162.5920299482
 21
125.6381493075
 31
0.0
  0
LINE
  5
185
330
1F
100
AcDbEntity
  8
0
  6
HIDDEN
 62
     7
370
     0
100
AcDbLine
 10
161.0239299987
 20
123.7183759002
 30
0.0
 11
161.4022746723
 21
125.1095902188
 31
0.0
  0
LINE
  5
186
330
1F
100
AcDbEntity
  8
0
  6
HIDDEN
 62
     7
370
     0
100
AcDbLine
 10
162.6622339752
 20
123.3260273947
 30
0.0
 11
163.0405786488
 21
124.7172407819
 31
0.0
  0
LINE
  5
187
330
1F
100
AcDbEntity
  8
0
  6
HIDDEN
 62
     7
370
     0
100
AcDbLine
 10
172.154651307
 20
94.0701119615
 30
0.0
 11
172.154651307
 21
97.2263399525
 31
0.0
  0
LINE
  5
188
330
1F
100
AcDbEntity
  8
0
  6
HIDDEN
 62
     7
370
     0
100
AcDbLine
 10
167.1546514187
 20
97.2263399525
 30
0.0
 11
167.1546514187
 21
95.1726805432
 31
0.0
  0
LINE
  5
189
330
1F
100
AcDbEntity
  8
0
  6
HIDDEN
 62
     7
370
     0
100
AcDbLine
 10
158.6546516553
 20
93.2847481234
 30
0.0
 11
161.2740795169
 21
93.9120627953
 31
0.0
  0
LINE
  5
18A
330
1F
100
AcDbEntity
  8
0
  6
HIDDEN
 62
     7
370
     0
100
AcDbLine
 10
159.8766826134
 20
99.7470678775
 30
0.0
 11
158.6546516553
 21
99.4544090716
 31
0.0
  0
LINE
  5
18B
330
1F
100
AcDbEntity
  8
0
  6
HIDDEN
 62
     7
370
     0
100
AcDbLine
 10
161.3328021992
 20
94.8515754206
 30
0.0
 11
168.8019515056
 21
96.6403247802
 31
0.0
  0
LINE
  5
18C
330
1F
100
AcDbEntity
  8
0
  6
HIDDEN
 62
     7
370
     0
100
AcDbLine
 10
168.8019515056
 20
100.9590873508
 30
0.0
 11
160.3546243202
 21
98.9360786988
 31
0.0
  0
LINE
  5
18D
330
1F
100
AcDbEntity
  8
0
  6
HIDDEN
 62
     7
370
     0
100
AcDbLine
 10
171.7546519865
 20
97.2761340453
 30
0.0
 11
171.7546519865
 21
108.9936961433
 31
0.0
  0
LINE
  5
18E
330
1F
100
AcDbEntity
  8
0
  6
HIDDEN
 62
     7
370
     0
100
AcDbLine
 10
167.5546516706
 20
97.6241841926
 30
0.0
 11
167.5546516706
 21
97.2761340453
 31
0.0
  0
LINE
  5
18F
330
1F
100
AcDbEntity
  8
0
  6
HIDDEN
 62
     7
370
     0
100
AcDbLine
 10
167.5546516706
 20
108.9929850785
 30
0.0
 11
167.5546516706
 21
99.3778087212
 31
0.0
  0
ARC
  5
190
330
1F
100
AcDbEntity
  8
0
  6
HIDDEN
 62
     7
370
     0
100
AcDbCircle
 10
55.0546517361
 20
97.0344251139
 30
0.0
 40
1.20000000000001
100
AcDbArc
 50
90.0
 51
180.0
  0
ARC
  5
191
330
1F
100
AcDbEntity
  8
0
  6
HIDDEN
 62
     7
370
     0
100
AcDbCircle
 10
55.0546517361
 20
124.4344251139
 30
0.0
 40
1.20000000000001
100
AcDbArc
 50
180.0
 51
270.0
  0
LINE
  5
192
330
1F
100
AcDbEntity
  8
0
  6
HIDDEN
 62
     7
370
     0
100
AcDbLine
 10
64.7470218171
 20
98.0094248442
 30
0.0
 11
65.6237092842
 21
98.0094248442
 31
0.0
  0
LINE
  5
193
330
1F
100
AcDbEntity
  8
0
  6
HIDDEN
 62
     7
370
     0
100
AcDbLine
 10
65.6237092842
 20
123.4594253837
 30
0.0
 11
64.7470218171
 21
123.4594253837
 31
0.0
  0
ARC
  5
194
330
1F
100
AcDbEntity
  8
0
  6
HIDDEN
 62
     7
370
     0
100
AcDbCircle
 10
64.7470241669
 20
98.4094251139
 30
0.0
 40
0.3999999999999923
100
AcDbArc
 50
255.0
 51
270.0
  0
ARC
  5
195
330
1F
100
AcDbEntity
  8
0
  6
HIDDEN
 62
     7
370
     0
100
AcDbCircle
 10
64.7470241669
 20
123.0594251139
 30
0.0
 40
0.400000000000006
100
AcDbArc
 50
90.0
 51
105.0
  0
ARC
  5
196
330
1F
100
AcDbEntity
  8
0
  6
HIDDEN
 62
     7
370
     0
100
AcDbCircle
 10
65.6237116284
 20
98.4094251139
 30
0.0
 40
0.3999999999999915
100
AcDbArc
 50
270.0
 51
330.0
  0
ARC
  5
197
330
1F
100
AcDbEntity
  8
0
  6
HIDDEN
 62
     7
370
     0
100
AcDbCircle
 10
65.6237116284
 20
123.0594251139
 30
0.0
 40
0.4000000000000057
100
AcDbArc
 50
30.0
 51
90.0
  0
LINE
  5
198
330
1F
100
AcDbEntity
  8
0
  6
HIDDEN
 62
     7
370
     0
100
AcDbLine
 10
64.6434959997
 20
123.4457954778
 30
0.0
 11
63.8546508778
 21
123.2344253002
 31
0.0
  0
LINE
  5
199
330
1F
100
AcDbEntity
  8
0
  6
HIDDEN
 62
     7
370
     0
100
AcDbLine
 10
63.8546508778
 20
98.2344249277
 30
0.0
 11
64.6434959997
 21
98.0230547501
 31
0.0
  0
LINE
  5
19A
330
1F
100
AcDbEntity
  8
0
  6
HIDDEN
 62
     7
370
     0
100
AcDbLine
 10
65.970124029
 20
98.2094254358
 30
0.0
 11
67.1392542351
 21
100.2344252555
 31
0.0
  0
LINE
  5
19B
330
1F
100
AcDbEntity
  8
0
  6
HIDDEN
 62
     7
370
     0
100
AcDbLine
 10
67.1392542351
 20
121.2344249724
 30
0.0
 11
65.970124029
 21
123.2594247921
 31
0.0
  0
LINE
  5
19C
330
1F
100
AcDbEntity
  8
0
  6
HIDDEN
 62
     7
370
     0
100
AcDbLine
 10
55.0546509255
 20
98.2344249277
 30
0.0
 11
63.8546508778
 21
98.2344249277
 31
0.0
  0
LINE
  5
19D
330
1F
100
AcDbEntity
  8
0
  6
HIDDEN
 62
     7
370
     0
100
AcDbLine
 10
63.8546508778
 20
123.2344253002
 30
0.0
 11
55.0546509255
 21
123.2344253002
 31
0.0
  0
LINE
  5
19E
330
1F
100
AcDbEntity
  8
0
  6
HIDDEN
 62
     7
370
     0
100
AcDbLine
 10
115.8546519507
 20
100.2344252555
 30
0.0
 11
119.0992978443
 21
105.6344249299
 31
0.0
  0
LINE
  5
19F
330
1F
100
AcDbEntity
  8
0
  6
HIDDEN
 62
     7
370
     0
100
AcDbLine
 10
119.0992978443
 20
115.834425298
 30
0.0
 11
115.8546519507
 21
121.2344249724
 31
0.0
  0
LINE
  5
1A0
330
1F
100
AcDbEntity
  8
0
  6
HIDDEN
 62
     7
370
     0
100
AcDbLine
 10
67.1392542351
 20
100.2344252555
 30
0.0
 11
115.8546519507
 21
100.2344252555
 31
0.0
  0
LINE
  5
1A1
330
1F
100
AcDbEntity
  8
0
  6
HIDDEN
 62
     7
370
     0
100
AcDbLine
 10
115.8546519507
 20
121.2344249724
 30
0.0
 11
67.1392542351
 21
121.2344249724
 31
0.0
  0
ARC
  5
1A2
330
1F
100
AcDbEntity
  8
0
  6
HIDDEN
 62
     7
370
     0
100
AcDbCircle
 10
254.4546517361
 20
120.7344251139
 30
0.0
 40
1.0
100
AcDbArc
 50
270.0
 51
0.0
  0
ARC
  5
1A3
330
1F
100
AcDbEntity
  8
0
  6
HIDDEN
 62
     7
370
     0
100
AcDbCircle
 10
254.4546517361
 20
100.7344251139
 30
0.0
 40
1.0
100
AcDbArc
 50
0.0
 51
90.0
  0
LINE
  5
1A4
330
1F
100
AcDbEntity
  8
0
  6
HIDDEN
 62
     7
370
     0
100
AcDbLine
 10
234.3493265141
 20
120.2344248085
 30
0.0
 11
233.7546509732
 21
120.2344248085
 31
0.0
  0
LINE
  5
1A5
330
1F
100
AcDbEntity
  8
0
  6
HIDDEN
 62
     7
370
     0
100
AcDbLine
 10
233.7546509732
 20
101.2344254194
 30
0.0
 11
234.3493265141
 21
101.2344254194
 31
0.0
  0
ARC
  5
1A6
330
1F
100
AcDbEntity
  8
0
  6
HIDDEN
 62
     7
370
     0
100
AcDbCircle
 10
234.349329738
 20
119.4344251139
 30
0.0
 40
0.8000000000000184
100
AcDbArc
 50
75.0
 51
90.0
  0
ARC
  5
1A7
330
1F
100
AcDbEntity
  8
0
  6
HIDDEN
 62
     7
370
     0
100
AcDbCircle
 10
234.349329738
 20
102.0344251139
 30
0.0
 40
0.800000000000032
100
AcDbArc
 50
270.0
 51
285.0
  0
ARC
  5
1A8
330
1F
100
AcDbEntity
  8
0
  6
HIDDEN
 62
     7
370
     0
100
AcDbCircle
 10
233.7546517361
 20
119.4344251139
 30
0.0
 40
0.8000000000000114
100
AcDbArc
 50
90.0
 51
180.0
  0
ARC
  5
1A9
330
1F
100
AcDbEntity
  8
0
  6
HIDDEN
 62
     7
370
     0
100
AcDbCircle
 10
233.7546517361
 20
102.0344251139
 30
0.0
 40
0.8000000000000114
100
AcDbArc
 50
180.0
 51
270.0
  0
LINE
  5
1AA
330
1F
100
AcDbEntity
  8
0
  6
HIDDEN
 62
     7
370
     0
100
AcDbLine
 10
234.5563855995
 20
101.2616842999
 30
0.0
 11
236.3206756342
 21
101.7344255014
 31
0.0
  0
LINE
  5
1AB
330
1F
100
AcDbEntity
  8
0
  6
HIDDEN
 62
     7
370
     0
100
AcDbLine
 10
236.3206756342
 20
119.7344247265
 30
0.0
 11
234.5563855995
 21
120.207165928
 31
0.0
  0
LINE
  5
1AC
330
1F
100
AcDbEntity
  8
0
  6
HIDDEN
 62
     7
370
     0
100
AcDbLine
 10
239.945003115
 20
119.7344247265
 30
0.0
 11
236.3206756342
 21
119.7344247265
 31
0.0
  0
LINE
  5
1AD
330
1F
100
AcDbEntity
  8
0
  6
HIDDEN
 62
     7
370
     0
100
AcDbLine
 10
254.4546511997
 20
119.7344247265
 30
0.0
 11
246.8688872684
 21
119.7344247265
 31
0.0
  0
LINE
  5
1AE
330
1F
100
AcDbEntity
  8
0
  6
HIDDEN
 62
     7
370
     0
100
AcDbLine
 10
236.3206756342
 20
101.7344255014
 30
0.0
 11
254.4546511997
 21
101.7344255014
 31
0.0
  0
LINE
  5
1AF
330
1F
100
AcDbEntity
  8
0
  6
HIDDEN
 62
     7
370
     0
100
AcDbLine
 10
119.0992978443
 20
105.6344249299
 30
0.0
 11
232.9546523322
 21
105.6344249299
 31
0.0
  0
LINE
  5
1B0
330
1F
100
AcDbEntity
  8
0
  6
HIDDEN
 62
     7
370
     0
100
AcDbLine
 10
232.9546523322
 20
115.834425298
 30
0.0
 11
119.0992978443
 21
115.834425298
 31
0.0
  0
LINE
  5
1B1
330
1F
100
AcDbEntity
  8
0
  6
HIDDEN
 62
     7
370
     0
100
AcDbLine
 10
238.4046551813
 20
126.7344258739
 30
0.0
 11
239.9046507705
 21
125.2344246967
 31
0.0
  0
LINE
  5
1B2
330
1F
100
AcDbEntity
  8
0
  6
HIDDEN
 62
     7
370
     0
100
AcDbLine
 10
246.9046500553
 20
125.2344246967
 30
0.0
 11
248.4046530951
 21
126.7344258739
 31
0.0
  0
LINE
  5
1B3
330
1F
100
AcDbEntity
  8
0
  6
HIDDEN
 62
     7
370
     0
100
AcDbLine
 10
239.9046507705
 20
125.2344246967
 30
0.0
 11
239.9046507705
 21
119.7188949226
 31
0.0
  0
LINE
  5
1B4
330
1F
100
AcDbEntity
  8
0
  6
HIDDEN
 62
     7
370
     0
100
AcDbLine
 10
246.9046500553
 20
119.7207519798
 30
0.0
 11
246.9046500553
 21
125.2344246967
 31
0.0
  0
LINE
  5
1B5
330
1F
100
AcDbEntity
  8
0
  6
HIDDEN
 62
     7
370
     0
100
AcDbLine
 10
171.7546519865
 20
112.4758651493
 30
0.0
 11
171.7546519865
 21
124.1927161826
 31
0.0
  0
LINE
  5
1B6
330
1F
100
AcDbEntity
  8
0
  6
HIDDEN
 62
     7
370
     0
100
AcDbLine
 10
167.5546516706
 20
122.0910415067
 30
0.0
 11
167.5546516706
 21
112.4751540846
 31
0.0
  0
LINE
  5
1B7
330
1F
100
AcDbEntity
  8
0
  6
HIDDEN
 62
     7
370
     0
100
AcDbLine
 10
167.5546516706
 20
124.1927161826
 30
0.0
 11
167.5546516706
 21
123.8446660353
 31
0.0
  0
LINE
  5
1B8
330
1F
100
AcDbEntity
  8
0
  6
HIDDEN
 62
     7
370
     0
100
AcDbLine
 10
160.3546243202
 20
122.5327715291
 30
0.0
 11
168.8019515056
 21
120.5097628771
 31
0.0
  0
LINE
  5
1B9
330
1F
100
AcDbEntity
  8
0
  6
HIDDEN
 62
     7
370
     0
100
AcDbLine
 10
168.8019515056
 20
124.8285254477
 30
0.0
 11
161.3328021992
 21
126.6172748072
 31
0.0
  0
LINE
  5
1BA
330
1F
100
AcDbEntity
  8
0
  6
HIDDEN
 62
     7
370
     0
100
AcDbLine
 10
158.6546516553
 20
122.0144411562
 30
0.0
 11
159.8766826134
 21
121.7217823504
 31
0.0
  0
LINE
  5
1BB
330
1F
100
AcDbEntity
  8
0
  6
HIDDEN
 62
     7
370
     0
100
AcDbLine
 10
161.2740795169
 20
127.5567874326
 30
0.0
 11
158.6546516553
 21
128.1841021044
 31
0.0
  0
LINE
  5
1BC
330
1F
100
AcDbEntity
  8
0
  6
HIDDEN
 62
     7
370
     0
100
AcDbLine
 10
172.154651307
 20
124.2425102754
 30
0.0
 11
172.154651307
 21
127.3987382664
 31
0.0
  0
LINE
  5
1BD
330
1F
100
AcDbEntity
  8
0
  6
HIDDEN
 62
     7
370
     0
100
AcDbLine
 10
167.1546514187
 20
126.2961696847
 30
0.0
 11
167.1546514187
 21
124.2425102754
 31
0.0
  0
LINE
  5
1BE
330
1F
100
AcDbEntity
  8
0
  6
HIDDEN
 62
     7
370
     0
100
AcDbLine
 10
247.4046510685
 20
126.0344252004
 30
0.0
 11
246.9958377112
 21
126.4432366951
 31
0.0
  0
LINE
  5
1BF
330
1F
100
AcDbEntity
  8
0
  6
HIDDEN
 62
     7
370
     0
100
AcDbLine
 10
239.8210254539
 20
126.4507990344
 30
0.0
 11
239.4046497572
 21
126.0344252004
 31
0.0
  0
LINE
  5
1C0
330
1F
100
AcDbEntity
  8
0
  6
HIDDEN
 62
     7
370
     0
100
AcDbLine
 10
239.4046497572
 20
126.0344252004
 30
0.0
 11
239.4046497572
 21
120.8396811052
 31
0.0
  0
LINE
  5
1C1
330
1F
100
AcDbEntity
  8
0
  6
HIDDEN
 62
     7
370
     0
100
AcDbLine
 10
247.4046510685
 20
120.8396811052
 30
0.0
 11
247.4046510685
 21
126.0344252004
 31
0.0
  0
LINE
  5
1C2
330
1F
100
AcDbEntity
  8
0
  6
HIDDEN
 62
     7
370
     0
100
AcDbLine
 10
239.4046497572
 20
120.8396811052
 30
0.0
 11
240.4450711835
 21
116.9567793621
 31
0.0
  0
LINE
  5
1C3
330
1F
100
AcDbEntity
  8
0
  6
HIDDEN
 62
     7
370
     0
100
AcDbLine
 10
246.3642296422
 20
116.9567793621
 30
0.0
 11
247.4046510685
 21
120.8396811052
 31
0.0
  0
ARC
  5
1C4
330
1F
100
AcDbEntity
  8
0
  6
HIDDEN
 62
     7
370
     0
100
AcDbCircle
 10
240.7348498325
 20
117.0344251139
 30
0.0
 40
0.3000000000000241
100
AcDbArc
 50
195.0
 51
270.0
  0
ARC
  5
1C5
330
1F
100
AcDbEntity
  8
0
  6
HIDDEN
 62
     7
370
     0
100
AcDbCircle
 10
246.0744536397
 20
117.0344251139
 30
0.0
 40
0.3000000000000241
100
AcDbArc
 50
270.0
 51
345.0
  0
LINE
  5
1C6
330
1F
100
AcDbEntity
  8
0
  6
HIDDEN
 62
     7
370
     0
100
AcDbLine
 10
241.0046544899
 20
126.7344258739
 30
0.0
 11
241.4046538104
 21
126.3344246907
 31
0.0
  0
LINE
  5
1C7
330
1F
100
AcDbEntity
  8
0
  6
HIDDEN
 62
     7
370
     0
100
AcDbLine
 10
245.404654466
 20
126.3344246907
 30
0.0
 11
245.8046537865
 21
126.7344258739
 31
0.0
  0
LINE
  5
1C8
330
1F
100
AcDbEntity
  8
0
  6
HIDDEN
 62
     7
370
     0
100
AcDbLine
 10
241.4046538104
 20
121.7344250543
 30
0.0
 11
241.4046538104
 21
120.7344248904
 31
0.0
  0
LINE
  5
1C9
330
1F
100
AcDbEntity
  8
0
  6
HIDDEN
 62
     7
370
     0
100
AcDbLine
 10
245.404654466
 20
120.7344248904
 30
0.0
 11
245.404654466
 21
121.7344250543
 31
0.0
  0
LINE
  5
1CA
330
1F
100
AcDbEntity
  8
0
  6
HIDDEN
 62
     7
370
     0
100
AcDbLine
 10
241.4046538104
 20
120.7344248904
 30
0.0
 11
243.4046504129
 21
120.0064845397
 31
0.0
  0
LINE
  5
1CB
330
1F
100
AcDbEntity
  8
0
  6
HIDDEN
 62
     7
370
     0
100
AcDbLine
 10
243.4046504129
 20
120.0064845397
 30
0.0
 11
245.404654466
 21
120.7344248904
 31
0.0
  0
LINE
  5
1CC
330
1F
100
AcDbEntity
  8
0
  6
HIDDEN
 62
     7
370
     0
100
AcDbLine
 10
167.1546514187
 20
95.6838285564
 30
0.0
 11
167.1546514187
 21
95.4957172288
 31
0.0
  0
LINE
  5
1CD
330
1F
100
AcDbEntity
  8
0
  6
HIDDEN
 62
     7
370
     0
100
AcDbLine
 10
172.154651307
 20
95.4957172288
 30
0.0
 11
172.154651307
 21
95.6838285564
 31
0.0
  0
LINE
  5
1CE
330
1F
100
AcDbEntity
  8
0
  6
HIDDEN
 62
     7
370
     0
100
AcDbLine
 10
167.6546515007
 20
96.8656107797
 30
0.0
 11
167.6546515007
 21
95.4478351413
 31
0.0
  0
LINE
  5
1CF
330
1F
100
AcDbEntity
  8
0
  6
HIDDEN
 62
     7
370
     0
100
AcDbLine
 10
171.6546521563
 20
95.4478351413
 30
0.0
 11
171.6546521563
 21
96.8656107797
 31
0.0
  0
LINE
  5
1D0
330
1F
100
AcDbEntity
  8
0
  6
HIDDEN
 62
     7
370
     0
100
AcDbLine
 10
167.1546514187
 20
97.2263399525
 30
0.0
 11
167.1546514187
 21
96.6278040795
 31
0.0
  0
LINE
  5
1D1
330
1F
100
AcDbEntity
  8
0
  6
HIDDEN
 62
     7
370
     0
100
AcDbLine
 10
172.154651307
 20
96.6278040795
 30
0.0
 11
172.154651307
 21
97.2263399525
 31
0.0
  0
LINE
  5
1D2
330
1F
100
AcDbEntity
  8
0
  6
HIDDEN
 62
     7
370
     0
100
AcDbLine
 10
172.154651307
 20
124.2425102754
 30
0.0
 11
172.154651307
 21
124.8410461484
 31
0.0
  0
LINE
  5
1D3
330
1F
100
AcDbEntity
  8
0
  6
HIDDEN
 62
     7
370
     0
100
AcDbLine
 10
167.1546514187
 20
124.8410461484
 30
0.0
 11
167.1546514187
 21
124.2425102754
 31
0.0
  0
LINE
  5
1D4
330
1F
100
AcDbEntity
  8
0
  6
HIDDEN
 62
     7
370
     0
100
AcDbLine
 10
171.6546521563
 20
124.6032394482
 30
0.0
 11
171.6546521563
 21
126.0210150866
 31
0.0
  0
LINE
  5
1D5
330
1F
100
AcDbEntity
  8
0
  6
HIDDEN
 62
     7
370
     0
100
AcDbLine
 10
167.6546515007
 20
126.0210150866
 30
0.0
 11
167.6546515007
 21
124.6032394482
 31
0.0
  0
LINE
  5
1D6
330
1F
100
AcDbEntity
  8
0
  6
HIDDEN
 62
     7
370
     0
100
AcDbLine
 10
172.154651307
 20
125.7850216715
 30
0.0
 11
172.154651307
 21
125.9731329991
 31
0.0
  0
LINE
  5
1D7
330
1F
100
AcDbEntity
  8
0
  6
HIDDEN
 62
     7
370
     0
100
AcDbLine
 10
167.1546514187
 20
125.9731329991
 30
0.0
 11
167.1546514187
 21
125.7850216715
 31
0.0
  0
CIRCLE
  5
1D8
330
1F
100
AcDbEntity
  8
0
  6
HIDDEN
 62
     7
370
     0
100
AcDbCircle
 10
169.6546517361
 20
125.2001670759
 30
0.0
 40
2.000000000000003
  0
ARC
  5
1D9
330
1F
100
AcDbEntity
  8
0
  6
HIDDEN
 62
     7
370
     0
100
AcDbCircle
 10
169.6546517361
 20
96.268683152
 30
0.0
 40
2.00000000000001
100
AcDbArc
 50
52.922364449
 51
192.2156859341
  0
ARC
  5
1DA
330
1F
100
AcDbEntity
  8
0
  6
HIDDEN
 62
     7
370
     0
100
AcDbCircle
 10
169.6546517361
 20
96.268683152
 30
0.0
 40
2.000000000000004
100
AcDbArc
 50
340.5333640855
 51
52.922364449
  0
LINE
  5
1DB
330
1F
100
AcDbEntity
  8
0
  6
HIDDEN
 62
     7
370
     0
100
AcDbLine
 10
161.3680867519
 20
94.4487150772
 30
0.0
 11
163.819873989
 21
95.0358804329
 31
0.0
  0
LINE
  5
1DC
330
1F
100
AcDbEntity
  8
0
  6
HIDDEN
 62
     7
370
     0
100
AcDbLine
 10
162.6553766471
 20
99.8983845128
 30
0.0
 11
160.2035898756
 21
99.3112182258
 31
0.0
  0
LINE
  5
1DD
330
1F
100
AcDbEntity
  8
0
  6
HIDDEN
 62
     7
370
     0
100
AcDbLine
 10
164.5235785324
 20
95.7996003343
 30
0.0
 11
164.7521567572
 21
96.4469905956
 31
0.0
  0
LINE
  5
1DE
330
1F
100
AcDbEntity
  8
0
  6
HIDDEN
 62
     7
370
     0
100
AcDbLine
 10
164.1257398803
 20
99.062672445
 30
0.0
 11
163.6286976788
 21
99.5362881584
 31
0.0
  0
LINE
  5
1DF
330
1F
100
AcDbEntity
  8
0
  6
HIDDEN
 62
     7
370
     0
100
AcDbLine
 10
163.6286976788
 20
121.9325620694
 30
0.0
 11
164.1257398803
 21
122.4061777829
 31
0.0
  0
LINE
  5
1E0
330
1F
100
AcDbEntity
  8
0
  6
HIDDEN
 62
     7
370
     0
100
AcDbLine
 10
164.7521567572
 20
125.0218596323
 30
0.0
 11
164.5235785324
 21
125.6692498936
 31
0.0
  0
LINE
  5
1E1
330
1F
100
AcDbEntity
  8
0
  6
HIDDEN
 62
     7
370
     0
100
AcDbLine
 10
160.2035898756
 20
122.1576320021
 30
0.0
 11
162.6553766471
 21
121.5704657151
 31
0.0
  0
LINE
  5
1E2
330
1F
100
AcDbEntity
  8
0
  6
HIDDEN
 62
     7
370
     0
100
AcDbLine
 10
163.819873989
 20
126.432969795
 30
0.0
 11
161.3680867519
 21
127.0201351507
 31
0.0
  0
DIMENSION
  5
1E3
330
1F
100
AcDbEntity
  8
VERMASSUNG
100
AcDbDimension
  2
_D
 10
47.0392838598
 20
159.4594251139
 30
0.0
 11
47.0392838598
 21
110.7344251139
 31
0.0
 70
   160
  1
ISO 50 %%c<>
 71
     2
 42
-1.0
  3
SLDDIMSTYLE0
100
AcDbAlignedDimension
 13
173.9046517361
 23
62.0094251139
 33
0.0
 14
173.9046517361
 24
159.4594251139
 34
0.0
 50
90.0
100
AcDbRotatedDimension
  0
DIMENSION
  5
1F0
330
1F
100
AcDbEntity
  8
VERMASSUNG
100
AcDbDimension
  2
_D_1
 10
263.688469763
 20
101.7344251139
 30
0.0
 11
263.688469763
 21
110.7344251139
 31
0.0
 70
   160
  1
%%c<>
 71
     2
 42
-1.0
  3
SLDDIMSTYLE0
100
AcDbAlignedDimension
 13
254.4546517361
 23
119.7344251139
 33
0.0
 14
254.4546517361
 24
101.7344251139
 34
0.0
 50
90.0
100
AcDbRotatedDimension
  0
DIMENSION
  5
1FB
330
1F
100
AcDbEntity
  8
VERMASSUNG
100
AcDbDimension
  2
_D_2
 10
269.688469763
 20
126.7344251139
 30
0.0
 11
269.688469763
 21
110.7344251139
 31
0.0
 70
   160
  1
WH3%%c<>
 71
     2
 42
-1.0
  3
SLDDIMSTYLE0
100
AcDbAlignedDimension
 13
255.1546517361
 23
94.7344251139
 33
0.0
 14
255.1546517361
 24
126.7344251139
 34
0.0
 50
90.0
100
AcDbRotatedDimension
  0
DIMENSION
  5
207
330
1F
100
AcDbEntity
  8
VERMASSUNG
100
AcDbDimension
  2
_D_3
 10
174.5046517361
 20
164.8852243342
 30
0.0
 11
214.9796517361
 21
164.8852243342
 31
0.0
 70
   160
  1
<>
 71
     2
 42
-1.0
  3
SLDDIMSTYLE0
100
AcDbAlignedDimension
 13
255.4546517361
 23
126.4344251139
 33
0.0
 14
174.5046517361
 24
157.0294120672
 34
0.0
100
AcDbRotatedDimension
  0
DIMENSION
  5
211
330
1F
100
AcDbEntity
  8
VERMASSUNG
100
AcDbDimension
  2
_D_4
 10
155.4546517361
 20
170.8852243342
 30
0.0
 11
205.4546517361
 21
170.8852243342
 31
0.0
 70
   160
  1
<>
 71
     2
 42
-1.0
  3
SLDDIMSTYLE0
100
AcDbAlignedDimension
 13
255.4546517361
 23
126.4344251139
 33
0.0
 14
155.4546517361
 24
145.6594251139
 34
0.0
100
AcDbRotatedDimension
  0
DIMENSION
  5
21B
330
1F
100
AcDbEntity
  8
VERMASSUNG
100
AcDbDimension
  2
_D_5
 10
53.8546517361
 20
176.8852243342
 30
0.0
 11
154.6546517361
 21
176.8852243342
 31
0.0
 70
   160
  1
<>
 71
     2
 42
-1.0
  3
SLDDIMSTYLE0
100
AcDbAlignedDimension
 13
255.4546517361
 23
126.4344251139
 33
0.0
 14
53.8546517361
 24
129.1132696413
 34
0.0
100
AcDbRotatedDimension
  0
LINE
  5
225
330
1F
100
AcDbEntity
  8
VERMASSUNG
  6
CENTERX2
370
     0
100
AcDbLine
 10
171.248629958
 20
122.0832012192
 30
0.0
 11
160.5753810452
 21
124.6392851164
 31
0.0
  0
LINE
  5
226
330
1F
100
AcDbEntity
  8
VERMASSUNG
  6
CENTERX2
370
     0
100
AcDbLine
 10
160.5753810452
 20
124.6392851164
 30
0.0
 11
158.430379399
 21
125.1529810128
 31
0.0
  0
LINE
  5
227
330
1F
100
AcDbEntity
  8
VERMASSUNG
  6
CENTERX2
370
     0
100
AcDbLine
 10
243.4046517361
 20
117.0259871594
 30
0.0
 11
243.4046517361
 21
127.2344251139
 31
0.0
  0
LINE
  5
228
330
1F
100
AcDbEntity
  8
VERMASSUNG
  6
CENTERX2
370
     0
100
AcDbLine
 10
52.359767304
 20
110.7344251139
 30
0.0
 11
256.1312226233
 21
110.7344251139
 31
0.0
  0
LINE
  5
229
330
1F
100
AcDbEntity
  8
0
  6
Continuous
 62
     7
370
    15
100
AcDbLine
 10
270.8479759271
 20
20.6671130687
 30
0.0
 11
270.954026501
 21
20.7283523858
 31
0.0
  0
LINE
  5
22A
330
1F
100
AcDbEntity
  8
0
  6
Continuous
 62
     7
370
    15
100
AcDbLine
 10
276.5039123645
 20
30.3420784294
 30
0.0
 11
276.5039110474
 21
30.4645409588
 31
0.0
  0
LINE
  5
22B
330
1F
100
AcDbEntity
  8
0
  6
Continuous
 62
     7
370
    15
100
AcDbLine
 10
274.8467315375
 20
34.1272992411
 30
0.0
 11
247.3933122837
 21
49.9758208311
 31
0.0
  0
LINE
  5
22C
330
1F
100
AcDbEntity
  8
0
  6
Continuous
 62
     7
370
    15
100
AcDbLine
 10
239.393962267
 20
36.1190390617
 30
0.0
 11
266.8473815209
 21
20.2705174717
 31
0.0
  0
SPLINE
  5
22D
330
1F
100
AcDbEntity
  8
0
  6
Continuous
 62
     7
370
    15
100
AcDbSpline
210
0.0
220
0.0
230
1.0
 70
     8
 71
     3
 72
    21
 73
    17
 74
     0
 42
0.000000001
 43
0.00000001
 40
0.0
 40
0.0
 40
0.0
 40
0.0
 40
0.0039279703539657
 40
0.0892269627285528
 40
0.1635459444555829
 40
0.2428087845901784
 40
0.3194325968985384
 40
0.3954632916035788
 40
0.471537010378495
 40
0.5479117634506375
 40
0.6245659606897827
 40
0.7013793489484949
 40
0.7782038927962655
 40
0.8548344190164153
 40
0.9311146816607396
 40
1.0
 40
1.0
 40
1.0
 40
1.0
 10
268.3641670795463
 20
23.43988557959346
 30
0.0
 10
268.3580401889819
 20
23.44215973319115
 30
0.0
 10
268.2188630092234
 20
23.49381893629467
 30
0.0
 10
268.0279499829893
 20
23.69454244216314
 30
0.0
 10
267.7771091779944
 20
24.07250468969383
 30
0.0
 10
267.6160872930471
 20
24.5749509537636
 30
0.0
 10
267.547944247827
 20
25.18899391908242
 30
0.0
 10
267.5841349463045
 20
25.87646381018576
 30
0.0
 10
267.7247610497192
 20
26.61556978226905
 30
0.0
 10
267.967474496802
 20
27.38138256798572
 30
0.0
 10
268.3054972072297
 20
28.14665043512787
 30
0.0
 10
268.7276403787931
 20
28.88314462781874
 30
0.0
 10
269.2186927783745
 20
29.56441077602666
 30
0.0
 10
269.7594534273374
 20
30.16251472070643
 30
0.0
 10
270.3123830398487
 20
30.65203645052015
 30
0.0
 10
270.6766810324053
 20
30.88222617756102
 30
0.0
 10
270.8495510958017
 20
30.99145794254414
 30
0.0
  0
SPLINE
  5
22E
330
1F
100
AcDbEntity
  8
0
  6
Continuous
 62
     7
370
    15
100
AcDbSpline
210
0.0
220
0.0
230
1.0
 70
     8
 71
     3
 72
    12
 73
     8
 74
     0
 42
0.000000001
 43
0.00000001
 40
0.0
 40
0.0
 40
0.0
 40
0.0
 40
0.1216869109811875
 40
0.3541105668366177
 40
0.5865410417784829
 40
0.8224501333467097
 40
1.0
 40
1.0
 40
1.0
 40
1.0
 10
270.8495510958017
 20
30.99145794254414
 30
0.0
 10
270.9470818907237
 20
31.04457853285678
 30
0.0
 10
271.2308978311182
 20
31.19916017351666
 30
0.0
 10
271.6826259130168
 20
31.35937574161309
 30
0.0
 10
272.1659272234153
 20
31.42372695472115
 30
0.0
 10
272.54970755928
 20
31.38558737802943
 30
0.0
 10
272.7411300740135
 20
31.282529332192
 30
0.0
 10
272.8233318047767
 20
31.23827356766655
 30
0.0
  0
SPLINE
  5
22F
330
1F
100
AcDbEntity
  8
0
  6
Continuous
 62
     7
370
    15
100
AcDbSpline
210
0.0
220
0.0
230
1.0
 70
     8
 71
     3
 72
    10
 73
     6
 74
     0
 42
0.000000001
 43
0.00000001
 40
0.0
 40
0.0
 40
0.0
 40
0.0
 40
0.134195124446517
 40
0.6045542330645128
 40
1.0
 40
1.0
 40
1.0
 40
1.0
 10
221.3903447995945
 20
46.6995220399323
 30
0.0
 10
221.3293129398456
 20
46.5291108761162
 30
0.0
 10
221.0543620478875
 20
45.76140198302944
 30
0.0
 10
220.6869563588583
 20
44.49125504802772
 30
0.0
 10
220.4352211775982
 20
43.40562493306093
 30
0.0
 10
220.320244218437
 20
42.90977668186361
 30
0.0
  0
SPLINE
  5
230
330
1F
100
AcDbEntity
  8
0
  6
Continuous
 62
     7
370
    15
100
AcDbSpline
210
0.0
220
0.0
230
1.0
 70
     8
 71
     3
 72
    19
 73
    15
 74
     0
 42
0.000000001
 43
0.00000001
 40
0.0
 40
0.0
 40
0.0
 40
0.0
 40
0.0322518670420541
 40
0.1267981326814274
 40
0.2214319228444567
 40
0.3161097108905252
 40
0.4107995680169471
 40
0.5054797862936263
 40
0.6001421720025398
 40
0.6947836094698621
 40
0.7894041357995022
 40
0.884005857290241
 40
0.9785918871585876
 40
1.0
 40
1.0
 40
1.0
 40
1.0
 10
241.3210735730924
 20
68.58192715333968
 30
0.0
 10
241.1681977114667
 20
68.54576298820741
 30
0.0
 10
240.5671666529879
 20
68.40358366560335
 30
0.0
 10
239.4915413902863
 20
68.0098722335314
 30
0.0
 10
238.104553598479
 20
67.40371905047394
 30
0.0
 10
236.708485802006
 20
66.6534239178167
 30
0.0
 10
235.3149061544789
 20
65.77654702967746
 30
0.0
 10
233.9322840041388
 20
64.77565032621438
 30
0.0
 10
232.5695685837312
 20
63.6584492724491
 30
0.0
 10
231.235917126269
 20
62.43153903355289
 30
0.0
 10
229.9380387403088
 20
61.10500359678782
 30
0.0
 10
228.690988415482
 20
59.68006077851467
 30
0.0
 10
227.7903559743677
 20
58.57685706326269
 30
0.0
 10
227.3282510390253
 20
57.93032654849979
 30
0.0
 10
227.2429640204805
 20
57.81100157318536
 30
0.0
  0
LINE
  5
231
330
1F
100
AcDbEntity
  8
0
  6
Continuous
 62
     7
370
    15
100
AcDbLine
 10
235.5801278603
 20
65.9216952838
 30
0.0
 11
204.8188448112
 21
77.0068422899
 31
0.0
  0
LINE
  5
232
330
1F
100
AcDbEntity
  8
0
  6
Continuous
 62
     7
370
    15
100
AcDbLine
 10
194.6949854308
 20
59.4699038895
 30
0.0
 11
224.1624965493
 21
34.5877814512
 31
0.0
  0
SPLINE
  5
233
330
1F
100
AcDbEntity
  8
0
  6
Continuous
 62
     7
370
    15
100
AcDbSpline
210
0.0
220
0.0
230
1.0
 70
     8
 71
     3
 72
    10
 73
     6
 74
     0
 42
0.000000001
 43
0.00000001
 40
0.0
 40
0.0
 40
0.0
 40
0.0
 40
0.1137351343741229
 40
0.6200602105694482
 40
1.0
 40
1.0
 40
1.0
 40
1.0
 10
257.7865891370162
 20
44.19247512317104
 30
0.0
 10
257.8335635361585
 20
44.32666634570077
 30
0.0
 10
258.0896581544466
 20
45.05824887871689
 30
0.0
 10
258.4219605563567
 20
46.23746682529008
 30
0.0
 10
258.6534989043401
 20
47.26808510758792
 30
0.0
 10
258.7527588824684
 20
47.70990888775435
 30
0.0
  0
SPLINE
  5
234
330
1F
100
AcDbEntity
  8
0
  6
Continuous
 62
     7
370
    15
100
AcDbSpline
210
0.0
220
0.0
230
1.0
 70
     8
 71
     3
 72
    17
 73
    13
 74
     0
 42
0.000000001
 43
0.00000001
 40
0.0
 40
0.0
 40
0.0
 40
0.0
 40
0.0511952794159643
 40
0.1646039350426215
 40
0.2781099890911756
 40
0.3916633244106299
 40
0.5052266779250771
 40
0.618776804846656
 40
0.7323047654080386
 40
0.8458074241428
 40
0.9592851947993044
 40
1.0
 40
1.0
 40
1.0
 40
1.0
 10
237.7646602632871
 20
21.98034475519545
 30
0.0
 10
237.9674531199219
 20
22.03044608362116
 30
0.0
 10
238.6194761693399
 20
22.19153272879269
 30
0.0
 10
239.7469951224866
 20
22.61434205984636
 30
0.0
 10
241.1357062045164
 20
23.23923636685952
 30
0.0
 10
242.53194033099
 20
24.00600163168216
 30
0.0
 10
243.9246738113028
 20
24.89898522427292
 30
0.0
 10
245.3050631167384
 20
25.91544723547218
 30
0.0
 10
246.6652209993782
 20
27.04588218489531
 30
0.0
 10
247.9922652635612
 20
28.29046950972561
 30
0.0
 10
249.0154367220923
 20
29.33065702064697
 30
0.0
 10
249.5762661158724
 20
29.98314215559461
 30
0.0
 10
249.7243540467707
 20
30.15543193685065
 30
0.0
  0
LINE
  5
235
330
1F
100
AcDbEntity
  8
0
  6
Continuous
 62
     7
370
    15
100
AcDbLine
 10
228.4850625154
 20
23.5233372525
 30
0.0
 11
229.9405845016
 21
22.6830822951
 31
0.0
  0
LINE
  5
236
330
1F
100
AcDbEntity
  8
0
  6
Continuous
 62
     7
370
    15
100
AcDbLine
 10
224.761027567
 20
25.6731768675
 30
0.0
 11
226.1988722431
 21
24.8431268042
 31
0.0
  0
LINE
  5
237
330
1F
100
AcDbEntity
  8
0
  6
Continuous
 62
     7
370
    15
100
AcDbLine
 10
220.329145106
 20
31.7387576236
 30
0.0
 11
220.3735063104
 21
31.592891798
 31
0.0
  0
LINE
  5
238
330
1F
100
AcDbEntity
  8
0
  6
Continuous
 62
     7
370
    15
100
AcDbLine
 10
258.748062143
 20
58.7701552132
 30
0.0
 11
258.6964691321
 21
58.9360102549
 31
0.0
  0
SPLINE
  5
239
330
1F
100
AcDbEntity
  8
0
  6
Continuous
 62
     7
370
    15
100
AcDbSpline
210
0.0
220
0.0
230
1.0
 70
     8
 71
     3
 72
    26
 73
    22
 74
     0
 42
0.000000001
 43
0.00000001
 40
0.0
 40
0.0
 40
0.0
 40
0.0
 40
0.0206098635346963
 40
0.0728944510643923
 40
0.1258585040611578
 40
0.1800156137396773
 40
0.2354401611125397
 40
0.2918299514627566
 40
0.3487416667418533
 40
0.4057939356565405
 40
0.4627674603426434
 40
0.5196158025351038
 40
0.5763503990457023
 40
0.6330092550266897
 40
0.6896415235028057
 40
0.7462991724022513
 40
0.8030217144057956
 40
0.8598660589598679
 40
0.9168873020481363
 40
0.9741306256673679
 40
1.0
 40
1.0
 40
1.0
 40
1.0
 10
204.8701809898107
 20
76.96804271174747
 30
0.0
 10
204.7733088611174
 20
77.0096445345669
 30
0.0
 10
204.4306845330793
 20
77.15678486048878
 30
0.0
 10
203.7785791320367
 20
77.25962943406603
 30
0.0
 10
202.9330359525599
 20
77.27805186220161
 30
0.0
 10
202.0461277917216
 20
77.14307764857767
 30
0.0
 10
201.131857631903
 20
76.86574907708845
 30
0.0
 10
200.201957968547
 20
76.44452115084496
 30
0.0
 10
199.2730965789055
 20
75.88660437594872
 30
0.0
 10
198.3619126823852
 20
75.2023392157444
 30
0.0
 10
197.483595891783
 20
74.40484787744555
 30
0.0
 10
196.6513548302757
 20
73.50814075283213
 30
0.0
 10
195.8769024123041
 20
72.52669821571176
 30
0.0
 10
195.1710829571512
 20
71.47561985226548
 30
0.0
 10
194.5439562598646
 20
70.37060809969789
 30
0.0
 10
194.004730667369
 20
69.22791565565444
 30
0.0
 10
193.5618154837084
 20
68.06415604930304
 30
0.0
 10
193.2220017079486
 20
66.8956185974687
 30
0.0
 10
192.9934602661839
 20
65.73950260983615
 30
0.0
 10
192.8965407123207
 20
64.81644410398607
 30
0.0
 10
192.8884753740964
 20
64.28934508625505
 30
0.0
 10
192.8859649844834
 20
64.12528204732034
 30
0.0
  0
SPLINE
  5
23A
330
1F
100
AcDbEntity
  8
0
  6
Continuous
 62
     7
370
    15
100
AcDbSpline
210
0.0
220
0.0
230
1.0
 70
     8
 71
     3
 72
    13
 73
     9
 74
     0
 42
0.000000001
 43
0.00000001
 40
0.0
 40
0.0
 40
0.0
 40
0.0
 40
0.1013708038922181
 40
0.2925452651573772
 40
0.4837075735181394
 40
0.673017314708729
 40
0.8585816591153959
 40
1.0
 40
1.0
 40
1.0
 40
1.0
 10
192.8859649844834
 20
64.12528204732034
 30
0.0
 10
192.8894208922421
 20
63.9345158696869
 30
0.0
 10
192.8993942712901
 20
63.38398514608556
 30
0.0
 10
193.0112454811542
 20
62.52009262948442
 30
0.0
 10
193.2628666332618
 20
61.57126410667556
 30
0.0
 10
193.6447440148489
 20
60.72590274160322
 30
0.0
 10
194.0965972567543
 20
60.03584481755568
 30
0.0
 10
194.4692785043265
 20
59.69276048449556
 30
0.0
 10
194.6304612399308
 20
59.54437826321175
 30
0.0
  0
LINE
  5
23B
330
1F
100
AcDbEntity
  8
0
  6
Continuous
 62
     7
370
    15
100
AcDbLine
 10
268.1072476289
 20
36.6599197254
 30
0.0
 11
267.859720834
 21
36.8028607277
 31
0.0
  0
LINE
  5
23C
330
1F
100
AcDbEntity
  8
0
  6
Continuous
 62
     7
370
    15
100
AcDbLine
 10
265.52589053
 20
36.8028600054
 30
0.0
 11
265.2783613842
 21
36.6599195468
 31
0.0
  0
LINE
  5
23D
330
1F
100
AcDbEntity
  8
0
  6
Continuous
 62
     7
370
    15
100
AcDbLine
 10
264.6928051551
 20
35.8436438738
 30
0.0
 11
264.6928051551
 21
35.7211625798
 31
0.0
  0
LINE
  5
23E
330
1F
100
AcDbEntity
  8
0
  6
Continuous
 62
     7
370
    15
100
AcDbLine
 10
268.6928048259
 20
35.7211627699
 30
0.0
 11
268.6928048259
 21
35.8436440639
 31
0.0
  0
LINE
  5
23F
330
1F
100
AcDbEntity
  8
0
  6
Continuous
 62
     7
370
    15
100
AcDbLine
 10
269.4789625826
 20
29.5278067926
 30
0.0
 11
270.405248897
 21
29.7165315655
 31
0.0
  0
LINE
  5
240
330
1F
100
AcDbEntity
  8
0
  6
Continuous
 62
     7
370
    15
100
AcDbLine
 10
269.2128911743
 20
29.5309043558
 30
0.0
 11
269.4071315111
 21
29.5311495637
 31
0.0
  0
LWPOLYLINE
  5
241
330
1F
100
AcDbEntity
  8
0
  6
Continuous
 62
     7
370
    15
100
AcDbPolyline
 90
       43
 70
   128
 43
0.0
 10
270.9531243418
 20
33.5475218427
 10
270.1258222884
 20
32.9983382751
 10
269.3170008048
 20
32.31823653
 10
268.5447276359
 20
31.5224100538
 10
267.8262539314
 20
30.6286356619
 10
267.1776294086
 20
29.6568791324
 10
266.6133433638
 20
28.6288476596
 10
266.1460006683
 20
27.5675058499
 10
265.786041228
 20
26.4965626259
 10
265.5415058715
 20
25.4399406352
 10
265.4178575547
 20
24.421243563
 10
265.4178575547
 20
23.4632268615
 10
265.5415058715
 20
22.5872910971
 10
265.786041228
 20
21.8130036193
 10
266.1460006683
 20
21.1576607188
 10
266.6133433638
 20
20.6359013
 10
267.1776294086
 20
20.2593806267
 10
267.8262539314
 20
20.0365100307
 10
268.5447276359
 20
19.972267721
 10
269.3170008048
 20
20.0680888663
 10
270.1258222884
 20
20.3218325287
 10
270.9531243418
 20
20.7278315804
 10
271.7804263953
 20
21.277015148
 10
272.5892478789
 20
21.9571168931
 10
273.3615210478
 20
22.7529433693
 10
274.0799947523
 20
23.6467177612
 10
274.7286192751
 20
24.6184742907
 10
275.2929053198
 20
25.6465057635
 10
275.7602480154
 20
26.7078475732
 10
276.1202074556
 20
27.7787907972
 10
276.3647428121
 20
28.8354127879
 10
276.488391129
 20
29.8541098601
 10
276.488391129
 20
30.8121265617
 10
276.3647428121
 20
31.688062326
 10
276.1202074556
 20
32.4623498038
 10
275.7602480154
 20
33.1176927044
 10
275.2929053198
 20
33.6394521231
 10
274.7286192751
 20
34.0159727964
 10
274.0799947523
 20
34.2388433924
 10
273.3615210478
 20
34.3030857021
 10
272.5892478789
 20
34.2072645568
 10
271.7804263953
 20
33.9535208944
 10
270.9531243418
 20
33.5475218427
  0
LWPOLYLINE
  5
242
330
1F
100
AcDbEntity
  8
0
  6
Continuous
 62
     7
370
    15
100
AcDbPolyline
 90
       23
 70
   128
 43
0.0
 10
270.8470565292
 20
33.7312351618
 10
270.0039461148
 20
33.1715567885
 10
269.1796694148
 20
32.4784598976
 10
268.392639416
 20
31.6674262136
 10
267.6604370341
 20
30.7565734937
 10
266.9994183744
 20
29.7662481937
 10
266.4243496511
 20
28.7185728849
 10
265.9480770921
 20
27.6369511283
 10
265.5812394837
 20
26.5455437328
 10
265.3320314246
 20
25.4687315106
 10
265.2060202501
 20
24.4305688063
 10
265.2060202501
 20
23.4542460519
 10
265.3320314246
 20
22.5615727528
 10
265.5812394837
 20
21.7724900311
 10
265.9480770921
 20
21.1046243229
 10
266.4243496511
 20
20.5728951582
 10
266.9994183744
 20
20.1891800645
 10
267.6604370341
 20
19.9620506639
 10
268.392639416
 20
19.8965808196
 10
269.1796694148
 20
19.9942326304
 10
270.0039461148
 20
20.2528253601
 10
270.8470565292
 20
20.6665815511
 10
270.8479759271
 20
20.6671130687
  0
LWPOLYLINE
  5
243
330
1F
100
AcDbEntity
  8
0
  6
Continuous
 62
     7
370
    15
100
AcDbPolyline
 90
       12
 70
   128
 43
0.0
 10
276.5039110474
 20
30.4645409588
 10
276.4880928083
 20
30.943570661
 10
276.3620816338
 20
31.83624396
 10
276.1128735747
 20
32.6253266818
 10
275.7460359664
 20
33.2931923899
 10
275.2697634073
 20
33.8249215546
 10
274.6946946841
 20
34.2086366484
 10
274.0336760244
 20
34.4357660489
 10
273.3014736424
 20
34.5012358932
 10
272.5144436436
 20
34.4035840824
 10
271.6901669436
 20
34.1449913528
 10
270.8470565292
 20
33.7312351618
  0
SPLINE
  5
244
330
1F
100
AcDbEntity
  8
0
  6
Continuous
 62
     7
370
    15
100
AcDbSpline
210
0.0
220
0.0
230
1.0
 70
    11
 71
     3
 72
    82
 73
    78
 74
     0
 42
0.000000001
 43
0.00000001
 40
0.0
 40
0.0
 40
0.0
 40
0.0
 40
0.0312499999999984
 40
0.0312499999999984
 40
0.0624999999999968
 40
0.0624999999999968
 40
0.0937499999999953
 40
0.0937499999999953
 40
0.1249999999999937
 40
0.1249999999999937
 40
0.1562499999999921
 40
0.1562499999999921
 40
0.1874999999999906
 40
0.1874999999999906
 40
0.218749999999989
 40
0.218749999999989
 40
0.2343749999999887
 40
0.2343749999999887
 40
0.2499999999999885
 40
0.2499999999999885
 40
0.2812499999999881
 40
0.2812499999999881
 40
0.2968749999999882
 40
0.2968749999999882
 40
0.3124999999999885
 40
0.3124999999999885
 40
0.3437499999999889
 40
0.3437499999999889
 40
0.359374999999989
 40
0.359374999999989
 40
0.374999999999989
 40
0.374999999999989
 40
0.390624999999989
 40
0.390624999999989
 40
0.4062499999999891
 40
0.4062499999999891
 40
0.4374999999999896
 40
0.4374999999999896
 40
0.4687499999999901
 40
0.4687499999999901
 40
0.4999999999999907
 40
0.4999999999999907
 40
0.5312499999999912
 40
0.5312499999999912
 40
0.5624999999999918
 40
0.5624999999999918
 40
0.5937499999999922
 40
0.5937499999999922
 40
0.6249999999999928
 40
0.6249999999999928
 40
0.6562499999999933
 40
0.6562499999999933
 40
0.6874999999999939
 40
0.6874999999999939
 40
0.7187499999999944
 40
0.7187499999999944
 40
0.7499999999999949
 40
0.7499999999999949
 40
0.7812499999999956
 40
0.7812499999999956
 40
0.8124999999999962
 40
0.8124999999999962
 40
0.8281249999999966
 40
0.8281249999999966
 40
0.8437499999999969
 40
0.8437499999999969
 40
0.8749999999999978
 40
0.8749999999999978
 40
0.8906249999999982
 40
0.8906249999999982
 40
0.9062499999999987
 40
0.9062499999999987
 40
0.937499999999999
 40
0.937499999999999
 40
0.9687499999999994
 40
0.9687499999999994
 40
1.0
 40
1.0
 40
1.0
 40
1.0
 10
266.6759111014113
 20
37.33690787774741
 30
0.0
 10
266.8290343846465
 20
37.30987565197689
 30
0.0
 10
266.9780510456426
 20
37.275493064358
 30
0.0
 10
267.2688771102742
 20
37.19502399437606
 30
0.0
 10
267.4114225871443
 20
37.14863322154399
 30
0.0
 10
267.6860649677578
 20
37.04649965409696
 30
0.0
 10
267.8159502693089
 20
36.99166171854182
 30
0.0
 10
268.0615796268048
 20
36.87561971144878
 30
0.0
 10
268.1782048320745
 20
36.81386732394086
 30
0.0
 10
268.3921205753608
 20
36.68659235681741
 30
0.0
 10
268.4887714150985
 20
36.62159533505719
 30
0.0
 10
268.6617951633125
 20
36.48851439533217
 30
0.0
 10
268.7387451086168
 20
36.41978354222529
 30
0.0
 10
268.8676157194807
 20
36.28125484425849
 30
0.0
 10
268.9194175392352
 20
36.21188012974027
 30
0.0
 10
268.9778670578814
 20
36.10647284405562
 30
0.0
 10
268.9941201010422
 20
36.0711093321864
 30
0.0
 10
269.019820070391
 20
35.99966926523755
 30
0.0
 10
269.0292544093265
 20
35.9634561654026
 30
0.0
 10
269.0462782361392
 20
35.85570761497952
 30
0.0
 10
269.0430657079475
 20
35.78437535378952
 30
0.0
 10
269.0150738599984
 20
35.67668474538165
 30
0.0
 10
269.0018525799457
 20
35.64067301715039
 30
0.0
 10
268.9669780003132
 20
35.56816513771843
 30
0.0
 10
268.9452741112123
 20
35.53172533388616
 30
0.0
 10
268.8688249840676
 20
35.42451272386467
 30
0.0
 10
268.8024360274219
 20
35.35476846140094
 30
0.0
 10
268.6780684270695
 20
35.25205176802012
 30
0.0
 10
268.6320300441483
 20
35.21787078082304
 30
0.0
 10
268.5332756609675
 20
35.15168116052979
 30
0.0
 10
268.4806871877706
 20
35.11969139489483
 30
0.0
 10
268.3692468609812
 20
35.05785200798415
 30
0.0
 10
268.3103947228234
 20
35.02800250905732
 30
0.0
 10
268.1863800980368
 20
34.97049794233887
 30
0.0
 10
268.1207694819363
 20
34.94268793422503
 30
0.0
 10
267.9192149594951
 20
34.8646943994872
 30
0.0
 10
267.7778005994137
 20
34.81936329777063
 30
0.0
 10
267.4816956949302
 20
34.74232942384968
 30
0.0
 10
267.3295580097016
 20
34.71142869347297
 30
0.0
 10
267.0243975626957
 20
34.66622221504912
 30
0.0
 10
266.8689326467843
 20
34.65167306740935
 30
0.0
 10
266.5648034455171
 20
34.64042270611422
 30
0.0
 10
266.4153607739263
 20
34.64346249803864
 30
0.0
 10
266.121229305317
 20
34.66775473070181
 30
0.0
 10
265.9777569017724
 20
34.68908791657172
 30
0.0
 10
265.7049797648054
 20
34.74931991740124
 30
0.0
 10
265.5744916315528
 20
34.78830116376351
 30
0.0
 10
265.3254166662588
 20
34.88515208091987
 30
0.0
 10
265.209625461836
 20
34.94200969674336
 30
0.0
 10
264.9968199178278
 20
35.07115839482878
 30
0.0
 10
264.8994437522931
 20
35.14358849739093
 30
0.0
 10
264.723641109737
 20
35.30452810334182
 30
0.0
 10
264.6476784454311
 20
35.39079343277625
 30
0.0
 10
264.5193743688935
 20
35.57341383446514
 30
0.0
 10
264.4669291791918
 20
35.66989727282767
 30
0.0
 10
264.3877226880962
 20
35.87222876289196
 30
0.0
 10
264.3621448198611
 20
35.9749933819046
 30
0.0
 10
264.3394275794456
 20
36.18217334487756
 30
0.0
 10
264.3423293585059
 20
36.28706509101352
 30
0.0
 10
264.3804825790718
 20
36.49505155159996
 30
0.0
 10
264.4150411745589
 20
36.59496046169836
 30
0.0
 10
264.4910498013341
 20
36.73732574546476
 30
0.0
 10
264.5204448286648
 20
36.78352528445819
 30
0.0
 10
264.5879439179448
 20
36.87308240392137
 30
0.0
 10
264.6263230305277
 20
36.91662705671838
 30
0.0
 10
264.7516666985697
 20
37.03863892850761
 30
0.0
 10
264.8494736012238
 20
37.10984071232554
 30
0.0
 10
265.0180545250484
 20
37.20082904233148
 30
0.0
 10
265.0783197987595
 20
37.22861794460228
 30
0.0
 10
265.2029683612591
 20
37.27734541366498
 30
0.0
 10
265.2676347913901
 20
37.29848928008861
 30
0.0
 10
265.4683977432442
 20
37.35277041311144
 30
0.0
 10
265.6130176073969
 20
37.37684356889626
 30
0.0
 10
265.9082891751564
 20
37.40108908449227
 30
0.0
 10
266.0593797094137
 20
37.40172740167004
 30
0.0
 10
266.3682774617679
 20
37.38307993424975
 30
0.0
 10
266.5227878181759
 20
37.36394010351793
 30
0.0
 10
266.6759111014112
 20
37.33690787774741
 30
0.0
  0
SPLINE
  5
245
330
1F
100
AcDbEntity
  8
0
  6
Continuous
 62
     7
370
    15
100
AcDbSpline
210
0.0
220
0.0
230
1.0
 70
     8
 71
     3
 72
     9
 73
     5
 74
     0
 42
0.000000001
 43
0.00000001
 40
0.0
 40
0.0
 40
0.0
 40
0.0
 40
0.3622954434844822
 40
1.0
 40
1.0
 40
1.0
 40
1.0
 10
271.0274328577588
 20
31.1565728381972
 30
0.0
 10
271.0389675279071
 20
31.13478742259219
 30
0.0
 10
271.0708052734701
 20
31.07465579246327
 30
0.0
 10
271.0698046022119
 20
31.01546436533728
 30
0.0
 10
271.0691664695909
 20
30.97771772255237
 30
0.0
  0
SPLINE
  5
246
330
1F
100
AcDbEntity
  8
0
  6
Continuous
 62
     7
370
    15
100
AcDbSpline
210
0.0
220
0.0
230
1.0
 70
     8
 71
     3
 72
    12
 73
     8
 74
     0
 42
0.000000001
 43
0.00000001
 40
0.0
 40
0.0
 40
0.0
 40
0.0
 40
0.2499999999999992
 40
0.2499999999999992
 40
0.4999999999999984
 40
0.4999999999999984
 40
1.0
 40
1.0
 40
1.0
 40
1.0
 10
225.5995567320769
 20
39.87970866298493
 30
0.0
 10
225.6334882243664
 20
39.86012042943345
 30
0.0
 10
225.6719199333937
 20
39.83293324049705
 30
0.0
 10
225.7460967860586
 20
39.77370931296122
 30
0.0
 10
225.7813130663141
 20
39.74227663394445
 30
0.0
 10
225.8764119835721
 20
39.65028391714247
 30
0.0
 10
225.924941140334
 20
39.59342725161783
 30
0.0
 10
225.958282736489
 20
39.54519844561549
 30
0.0
  0
ARC
  5
247
330
1F
100
AcDbEntity
  8
0
  6
Continuous
 62
     7
370
    15
100
AcDbCircle
 10
249.6748494924
 20
55.1502275679
 30
0.0
 40
10.86942928536264
100
AcDbArc
 50
73.9805689162
 51
106.2233053919
  0
SPLINE
  5
248
330
1F
100
AcDbEntity
  8
0
  6
Continuous
 62
     7
370
    15
100
AcDbSpline
210
0.0
220
0.0
230
1.0
 70
     8
 71
     3
 72
    12
 73
     8
 74
     0
 42
0.000000001
 43
0.00000001
 40
0.0
 40
0.0
 40
0.0
 40
0.0
 40
0.5
 40
0.5
 40
0.75
 40
0.75
 40
1.0
 40
1.0
 40
1.0
 40
1.0
 10
252.8865455556874
 20
65.1640143838268
 30
0.0
 10
252.8865455556874
 20
65.2366973810196
 30
0.0
 10
252.8695287876172
 20
65.3202802277599
 30
0.0
 10
252.8151179617357
 20
65.44172440563557
 30
0.0
 10
252.7919727428138
 20
65.48143928331693
 30
0.0
 10
252.7376919309566
 20
65.5501690551827
 30
0.0
 10
252.7064559623991
 20
65.5790786510884
 30
0.0
 10
252.6744135213314
 20
65.59757635858199
 30
0.0
  0
LWPOLYLINE
  5
249
330
1F
100
AcDbEntity
  8
0
  6
Continuous
 62
     7
370
    15
100
AcDbPolyline
 90
       17
 70
   128
 43
0.0
 10
226.0384587035
 20
39.9091651454
 10
226.4124092511
 20
41.4011707967
 10
226.982635038
 20
43.2736126722
 10
227.6648054887
 20
45.1488714447
 10
228.4539420068
 20
47.0132691353
 10
229.3442928645
 20
48.8532122489
 10
230.3293634959
 20
50.6552815064
 10
231.401971156
 20
52.4063364028
 10
232.5542929946
 20
54.093606078
 10
233.7779259838
 20
55.7047870311
 10
235.0639468455
 20
57.2281286661
 10
236.4029772474
 20
58.652522641
 10
237.7852522915
 20
59.967581949
 10
239.2006919663
 20
61.1637156272
 10
240.6389735866
 20
62.2322009944
 10
242.0896087199
 20
63.1652463099
 10
242.5314681919
 20
63.4209986028
  0
LWPOLYLINE
  5
24A
330
1F
100
AcDbEntity
  8
0
  6
Continuous
 62
     7
370
    15
100
AcDbPolyline
 90
       12
 70
   128
 43
0.0
 10
235.6105177137
 20
60.721703186
 10
237.0608747354
 20
61.9943064967
 10
238.538506695
 20
63.1354555339
 10
240.0322324534
 20
64.1365145558
 10
241.5307489584
 20
64.9899090105
 10
243.022716691
 20
65.6891824676
 10
244.4968458524
 20
66.2290402893
 10
245.9419812747
 20
66.6054001693
 10
247.3471878263
 20
66.8154125385
 10
248.7018323185
 20
66.8574880766
 10
249.9956635181
 20
66.7313104423
 10
251.2188915024
 20
66.4378318935
  0
LINE
  5
24B
330
1F
100
AcDbEntity
  8
0
  6
Continuous
 62
     7
370
    15
100
AcDbLine
 10
252.6744134887
 20
65.5975769362
 30
0.0
 11
251.2188915024
 21
66.4378318935
 31
0.0
  0
LINE
  5
24C
330
1F
100
AcDbEntity
  8
0
  6
Continuous
 62
     7
370
    15
100
AcDbLine
 10
224.1440345833
 20
40.7199638055
 30
0.0
 11
225.5995565696
 21
39.8797088481
 31
0.0
  0
ARC
  5
24D
330
1F
100
AcDbEntity
  8
0
  6
Continuous
 62
     7
370
    15
100
AcDbCircle
 10
263.476758455
 20
31.4888629405
 30
0.0
 40
40.40144044883836
100
AcDbArc
 50
136.9528122493
 51
166.7921386576
  0
SPLINE
  5
24E
330
1F
100
AcDbEntity
  8
0
  6
Continuous
 62
     7
370
    15
100
AcDbSpline
210
0.0
220
0.0
230
1.0
 70
     8
 71
     3
 72
    34
 73
    30
 74
     0
 42
0.000000001
 43
0.00000001
 40
0.0
 40
0.0
 40
0.0
 40
0.0
 40
0.0624999999999992
 40
0.0624999999999992
 40
0.1249999999999984
 40
0.1249999999999984
 40
0.1874999999999976
 40
0.1874999999999976
 40
0.2499999999999974
 40
0.2499999999999974
 40
0.3124999999999972
 40
0.3124999999999972
 40
0.3749999999999969
 40
0.3749999999999969
 40
0.4999999999999973
 40
0.4999999999999973
 40
0.6249999999999978
 40
0.6249999999999978
 40
0.6874999999999979
 40
0.6874999999999979
 40
0.7499999999999979
 40
0.7499999999999979
 40
0.812499999999998
 40
0.812499999999998
 40
0.8749999999999987
 40
0.8749999999999987
 40
0.9374999999999993
 40
0.9374999999999993
 40
1.0
 40
1.0
 40
1.0
 40
1.0
 10
233.9517183466091
 20
59.06690555401725
 30
0.0
 10
234.0108437602524
 20
59.03732807015902
 30
0.0
 10
234.0736564556829
 20
59.01365204796348
 30
0.0
 10
234.2063654586075
 20
58.97757253754375
 30
0.0
 10
234.2769771549786
 20
58.9651246474045
 30
0.0
 10
234.422225124956
 20
58.95241475367911
 30
0.0
 10
234.4962075547182
 20
58.95207257378178
 30
0.0
 10
234.646889619543
 20
58.9630789186044
 30
0.0
 10
234.7243376393431
 20
58.97466558258988
 30
0.0
 10
234.8762702253182
 20
59.00884012532868
 30
0.0
 10
234.9512263059027
 20
59.03135252771867
 30
0.0
 10
235.0991613728114
 20
59.08716460031674
 30
0.0
 10
235.1720900859018
 20
59.12060944652303
 30
0.0
 10
235.3787026119117
 20
59.23297170584234
 30
0.0
 10
235.5056277879611
 20
59.32700910686308
 30
0.0
 10
235.714734540588
 20
59.535610422039
 30
0.0
 10
235.7992829237858
 20
59.6525345161827
 30
0.0
 10
235.8842564805599
 20
59.83105976615536
 30
0.0
 10
235.9062161811578
 20
59.89227634508203
 30
0.0
 10
235.9353272778976
 20
60.01308232759587
 30
0.0
 10
235.9426817406774
 20
60.07268285404103
 30
0.0
 10
235.9430246757217
 20
60.19042414417429
 30
0.0
 10
235.9357846328863
 20
60.24887553231139
 30
0.0
 10
235.9071727823644
 20
60.35963815670285
 30
0.0
 10
235.8858894408049
 20
60.41255060142548
 30
0.0
 10
235.8290612741979
 20
60.51346880873474
 30
0.0
 10
235.793603785224
 20
60.56098382336585
 30
0.0
 10
235.7111988323374
 20
60.64724380124927
 30
0.0
 10
235.6639939297615
 20
60.68648935366934
 30
0.0
 10
235.6105177838727
 20
60.72170248178295
 30
0.0
  0
LINE
  5
24F
330
1F
100
AcDbEntity
  8
0
  6
Continuous
 62
     7
370
    15
100
AcDbLine
 10
258.5964447824
 20
58.2947108276
 30
0.0
 11
258.7007266223
 21
58.4753326523
 31
0.0
  0
LINE
  5
250
330
1F
100
AcDbEntity
  8
0
  6
Continuous
 62
     7
370
    15
100
AcDbLine
 10
256.2983365009
 20
56.9680411556
 30
0.0
 11
258.5964447824
 21
58.2947108276
 31
0.0
  0
ARC
  5
251
330
1F
100
AcDbEntity
  8
0
  6
Continuous
 62
     7
370
    15
100
AcDbCircle
 10
257.1264395985
 20
55.6734388726
 30
0.0
 40
1.536798559128299
100
AcDbArc
 50
122.6053519586
 51
177.394632491
  0
LINE
  5
252
330
1F
100
AcDbEntity
  8
0
  6
Continuous
 62
     7
370
    15
100
AcDbLine
 10
255.5912296038
 20
46.8838284989
 30
0.0
 11
255.5912296038
 21
55.7432964673
 31
0.0
  0
ARC
  5
253
330
1F
100
AcDbEntity
  8
0
  6
Continuous
 62
     7
370
    15
100
AcDbCircle
 10
256.0223030869
 20
46.8138999519
 30
0.0
 40
0.4367085406722903
100
AcDbArc
 50
170.7857695821
 51
309.2035248725
  0
LINE
  5
254
330
1F
100
AcDbEntity
  8
0
  6
Continuous
 62
     7
370
    15
100
AcDbLine
 10
258.5964447824
 20
47.8021617282
 30
0.0
 11
256.2983365009
 21
46.4754920563
 31
0.0
  0
LINE
  5
255
330
1F
100
AcDbEntity
  8
0
  6
Continuous
 62
     7
370
    15
100
AcDbLine
 10
258.7007266223
 20
47.741941153
 30
0.0
 11
258.5964447824
 21
47.8021617282
 31
0.0
  0
LINE
  5
256
330
1F
100
AcDbEntity
  8
0
  6
Continuous
 62
     7
370
    15
100
AcDbLine
 10
226.0037902864
 20
28.9868227834
 30
0.0
 11
225.9582822267
 21
28.8684541604
 31
0.0
  0
LINE
  5
257
330
1F
100
AcDbEntity
  8
0
  6
Continuous
 62
     7
370
    15
100
AcDbLine
 10
226.0037902864
 20
28.9868227834
 30
0.0
 11
229.1454348136
 21
30.8004555648
 31
0.0
  0
ARC
  5
258
330
1F
100
AcDbEntity
  8
0
  6
Continuous
 62
     7
370
    15
100
AcDbCircle
 10
228.317331716
 20
32.0950578477
 30
0.0
 40
1.536798559128352
100
AcDbArc
 50
302.6053519586
 51
357.394632491
  0
LINE
  5
259
330
1F
100
AcDbEntity
  8
0
  6
Continuous
 62
     7
370
    15
100
AcDbLine
 10
229.8525417107
 20
40.8846682214
 30
0.0
 11
229.8525417107
 21
32.0252002531
 31
0.0
  0
ARC
  5
25A
330
1F
100
AcDbEntity
  8
0
  6
Continuous
 62
     7
370
    15
100
AcDbCircle
 10
229.4214682277
 20
40.9545967684
 30
0.0
 40
0.4367085406723711
100
AcDbArc
 50
350.7857695821
 51
129.2035248725
  0
LINE
  5
25B
330
1F
100
AcDbEntity
  8
0
  6
Continuous
 62
     7
370
    15
100
AcDbLine
 10
229.1454348136
 20
41.2930046641
 30
0.0
 11
226.0037902864
 21
39.4793718828
 31
0.0
  0
LINE
  5
25C
330
1F
100
AcDbEntity
  8
0
  6
Continuous
 62
     7
370
    15
100
AcDbLine
 10
225.9582822267
 20
39.5451980185
 30
0.0
 11
226.0037902864
 21
39.4793718828
 31
0.0
  0
LINE
  5
25D
330
1F
100
AcDbEntity
  8
0
  6
Continuous
 62
     7
370
    15
100
AcDbLine
 10
252.8865458212
 20
61.9390535982
 30
0.0
 11
252.8865458212
 21
65.1640147412
 31
0.0
  0
LINE
  5
25E
330
1F
100
AcDbEntity
  8
0
  6
Continuous
 62
     7
370
    15
100
AcDbLine
 10
255.6792928096
 20
63.5512721176
 30
0.0
 11
252.8865458212
 21
61.9390535982
 31
0.0
  0
SPLINE
  5
25F
330
1F
100
AcDbEntity
  8
0
  6
Continuous
 62
     7
370
    15
100
AcDbSpline
210
0.0
220
0.0
230
1.0
 70
     8
 71
     3
 72
     8
 73
     4
 74
     0
 42
0.000000001
 43
0.00000001
 40
0.0
 40
0.0
 40
0.0
 40
0.0
 40
1.0
 40
1.0
 40
1.0
 40
1.0
 10
223.0714802598484
 20
41.8114775905164
 30
0.0
 10
222.7844131301761
 20
41.76402559079305
 30
0.0
 10
222.4973000115906
 20
41.71666815809027
 30
0.0
 10
222.2101451851929
 20
41.6693964891782
 30
0.0
  0
SPLINE
  5
260
330
1F
100
AcDbEntity
  8
0
  6
Continuous
 62
     7
370
    15
100
AcDbSpline
210
0.0
220
0.0
230
1.0
 70
     8
 71
     3
 72
     8
 73
     4
 74
     0
 42
0.000000001
 43
0.00000001
 40
0.0
 40
0.0
 40
0.0
 40
0.0
 40
0.0011862984959113
 40
0.0011862984959113
 40
0.0011862984959113
 40
0.0011862984959113
 10
221.8578440979175
 20
42.03975338884037
 30
0.0
 10
221.975554965762
 20
41.91620343772792
 30
0.0
 10
222.092994716198
 20
41.79274838861264
 30
0.0
 10
222.2101451851929
 20
41.6693964891782
 30
0.0
  0
LWPOLYLINE
  5
261
330
1F
100
AcDbEntity
  8
0
  6
Continuous
 62
     7
370
    15
100
AcDbPolyline
 90
       23
 70
   128
 43
0.0
 10
221.857844311
 20
42.0397533571
 10
222.3526456784
 20
43.9861675924
 10
222.9723689876
 20
45.9478291741
 10
223.7121857904
 20
47.9094467871
 10
224.566328554
 20
49.8557311057
 10
225.5281380762
 20
51.7715099992
 10
226.5901188036
 20
53.6418517216
 10
227.7439928316
 20
55.4521751737
 10
228.9807657594
 20
57.1883723315
 10
230.2907964953
 20
58.8369078601
 10
231.6638743068
 20
60.3849320354
 10
233.08929587
 20
61.8203784565
 10
234.5559505512
 20
63.1320573841
 10
236.0524065116
 20
64.3097465128
 10
237.5669985408
 20
65.3442644906
 10
239.0879210761
 20
66.2275474309
 10
240.6033186699
 20
66.9527102646
 10
242.1013793386
 20
67.5141021499
 10
243.5704258534
 20
67.9073454844
 10
244.9990074424
 20
68.1293751565
 10
246.3759877887
 20
68.1784604468
 10
247.6906349216
 20
68.05422042
 10
248.9327012301
 20
67.7576214452
  0
LINE
  5
262
330
1F
100
AcDbEntity
  8
0
  6
Continuous
 62
     7
370
    15
100
AcDbLine
 10
249.2431453673
 20
66.7807913142
 30
0.0
 11
248.9327012301
 21
67.7576214452
 31
0.0
  0
LWPOLYLINE
  5
263
330
1F
100
AcDbEntity
  8
0
  6
Continuous
 62
     7
370
    15
100
AcDbPolyline
 90
       22
 70
   128
 43
0.0
 10
223.0714802653
 20
41.8114775648
 10
223.5459892422
 20
43.7084062014
 10
224.1454333319
 20
45.6213696423
 10
224.8649169144
 20
47.5347484392
 10
225.6985644558
 20
49.4329179125
 10
226.6395705571
 20
51.3003812273
 10
227.6802513209
 20
53.1218895424
 10
228.8121088889
 20
54.882570522
 10
230.0259019061
 20
56.5680473414
 10
231.3117199361
 20
58.164557693
 10
232.6590644624
 20
59.6590674675
 10
234.0569328526
 20
61.039372458
 10
235.4939125304
 20
62.2942013939
 10
236.9582702084
 20
63.41331004
 10
238.4380488995
 20
64.3875615346
 10
239.9211663291
 20
65.2089984109
 10
241.3955124808
 20
65.8709156394
 10
242.8490492847
 20
66.3679090508
 10
244.2699084515
 20
66.6959181263
 10
245.6464887319
 20
66.8522669351
 10
246.9675494298
 20
66.8356770531
 10
247.262511515
 20
66.8073708029
  0
LINE
  5
264
330
1F
100
AcDbEntity
  8
0
  6
Continuous
 62
     7
370
    15
100
AcDbLine
 10
220.419999635
 20
42.8698034205
 30
0.0
 11
221.857844311
 21
42.0397533571
 31
0.0
  0
ARC
  5
265
330
1F
100
AcDbEntity
  8
0
  6
Continuous
 62
     7
370
    15
100
AcDbCircle
 10
244.4952976898
 20
58.1403612121
 30
0.0
 40
10.86939031458818
100
AcDbArc
 50
73.9805380809
 51
106.2228094608
  0
LINE
  5
266
330
1F
100
AcDbEntity
  8
0
  6
Continuous
 62
     7
370
    15
100
AcDbLine
 10
248.9327012301
 20
67.7576214452
 30
0.0
 11
247.4948565541
 21
68.5876715086
 31
0.0
  0
LINE
  5
267
330
1F
100
AcDbEntity
  8
0
  6
Continuous
 62
     7
370
    15
100
AcDbLine
 10
224.3240711029
 20
41.4851355633
 30
0.0
 11
223.6979674852
 21
41.8465774883
 31
0.0
  0
SPLINE
  5
268
330
1F
100
AcDbEntity
  8
0
  6
Continuous
 62
     7
370
    15
100
AcDbSpline
210
0.0
220
0.0
230
1.0
 70
     8
 71
     3
 72
    11
 73
     7
 74
     0
 42
0.000000001
 43
0.00000001
 40
0.0
 40
0.0
 40
0.0
 40
0.0
 40
0.3165694752064712
 40
0.6331520400060429
 40
0.9494411625907934
 40
1.0
 40
1.0
 40
1.0
 40
1.0
 10
234.9184937907863
 20
59.82922423627013
 30
0.0
 10
234.7849036105826
 20
59.78204557335006
 30
0.0
 10
234.5177177264553
 20
59.6876862967549
 30
0.0
 10
234.2017675272566
 20
59.42787059756171
 30
0.0
 10
234.0210648362999
 20
59.20467921208922
 30
0.0
 10
233.9861298727499
 20
59.07593003459142
 30
0.0
 10
233.9813151502091
 20
59.05818587504427
 30
0.0
  0
SPLINE
  5
269
330
1F
100
AcDbEntity
  8
0
  6
Continuous
 62
     7
370
    15
100
AcDbSpline
210
0.0
220
0.0
230
1.0
 70
     8
 71
     3
 72
    14
 73
    10
 74
     0
 42
0.000000001
 43
0.00000001
 40
0.0
 40
0.0
 40
0.0
 40
0.0
 40
0.25
 40
0.25
 40
0.5
 40
0.5
 40
0.75
 40
0.75
 40
1.0
 40
1.0
 40
1.0
 40
1.0
 10
223.6979673725821
 20
41.84657765774845
 30
0.0
 10
223.660333379124
 20
41.8683032997285
 30
0.0
 10
223.6145594224349
 20
41.88551506084
 30
0.0
 10
223.514623544925
 20
41.9079203944725
 30
0.0
 10
223.4601896760851
 20
41.91309527807232
 30
0.0
 10
223.3539740255931
 20
41.91115308375756
 30
0.0
 10
223.300657725643
 20
41.90406468083933
 30
0.0
 10
223.2031646583423
 20
41.87933124455465
 30
0.0
 10
223.1582529678127
 20
41.8615704085686
 30
0.0
 10
223.1204997022127
 20
41.83977591224661
 30
0.0
  0
LINE
  5
26A
330
1F
100
AcDbEntity
  8
0
  6
Continuous
 62
     7
370
    15
100
AcDbLine
 10
223.1204996843
 20
41.8397758731
 30
0.0
 11
223.0714802653
 21
41.8114775648
 31
0.0
  0
SPLINE
  5
26B
330
1F
100
AcDbEntity
  8
0
  6
Continuous
 62
     7
370
    15
100
AcDbSpline
210
0.0
220
0.0
230
1.0
 70
     8
 71
     3
 72
    10
 73
     6
 74
     0
 42
0.000000001
 43
0.00000001
 40
0.0
 40
0.0
 40
0.0
 40
0.0
 40
0.5
 40
0.5
 40
1.0
 40
1.0
 40
1.0
 40
1.0
 10
220.3179870695625
 20
42.8992515994251
 30
0.0
 10
220.3253033539848
 20
42.90361959931828
 30
0.0
 10
220.3371272141931
 20
42.90415165190655
 30
0.0
 10
220.3712785784709
 20
42.89492160226824
 30
0.0
 10
220.3935355418637
 20
42.88508072495193
 30
0.0
 10
220.4199995598854
 20
42.86980337253562
 30
0.0
  0
ARC
  5
26C
330
1F
100
AcDbEntity
  8
0
  6
Continuous
 62
     7
370
    15
100
AcDbCircle
 10
260.1383608826
 20
33.390628882
 30
0.0
 40
40.92045494687062
100
AcDbArc
 50
143.5835897407
 51
160.8037648338
  0
SPLINE
  5
26D
330
1F
100
AcDbEntity
  8
0
  6
Continuous
 62
     7
370
    15
100
AcDbSpline
210
0.0
220
0.0
230
1.0
 70
     8
 71
     3
 72
    14
 73
    10
 74
     0
 42
0.000000001
 43
0.00000001
 40
0.0
 40
0.0
 40
0.0
 40
0.0
 40
0.25
 40
0.25
 40
0.5
 40
0.5
 40
0.75
 40
0.75
 40
1.0
 40
1.0
 40
1.0
 40
1.0
 10
235.335572645812
 20
60.13567604540837
 30
0.0
 10
235.3504135379412
 20
60.09715802657278
 30
0.0
 10
235.3497797700372
 20
60.05923938841931
 30
0.0
 10
235.3168441650768
 20
59.99329843865004
 30
0.0
 10
235.2847083197348
 20
59.96502488110807
 30
0.0
 10
235.1998057443304
 20
59.91710585492058
 30
0.0
 10
235.1473888318372
 20
59.89722875747283
 30
0.0
 10
235.0360531675421
 20
59.86137183145645
 30
0.0
 10
234.9778984908312
 20
59.84549980777303
 30
0.0
 10
234.9184935350998
 20
59.82922446221829
 30
0.0
  0
LINE
  5
26E
330
1F
100
AcDbEntity
  8
0
  6
Continuous
 62
     7
370
    15
100
AcDbLine
 10
235.319445651
 20
60.177531888
 30
0.0
 11
235.3355727475
 21
60.1356763984
 31
0.0
  0
SPLINE
  5
26F
330
1F
100
AcDbEntity
  8
0
  6
Continuous
 62
     7
370
    15
100
AcDbSpline
210
0.0
220
0.0
230
1.0
 70
     8
 71
     3
 72
    10
 73
     6
 74
     0
 42
0.000000001
 43
0.00000001
 40
0.0
 40
0.0
 40
0.0
 40
0.0
 40
0.5
 40
0.5
 40
1.0
 40
1.0
 40
1.0
 40
1.0
 10
235.6105177838727
 20
60.72170248178296
 30
0.0
 10
235.5825027341348
 20
60.64967637909493
 30
0.0
 10
235.5446848456849
 20
60.56872989379147
 30
0.0
 10
235.44870909785
 20
60.38833485745156
 30
0.0
 10
235.3906773205504
 20
60.28900865047676
 30
0.0
 10
235.3194455829603
 20
60.1775321889127
 30
0.0
  0
LINE
  5
270
330
1F
100
AcDbEntity
  8
0
  6
Continuous
 62
     7
370
    15
100
AcDbLine
 10
226.0037902864
 20
39.4793718828
 30
0.0
 11
224.1759361257
 21
40.5345696292
 31
0.0
  0
SPLINE
  5
271
330
1F
100
AcDbEntity
  8
0
  6
Continuous
 62
     7
370
    15
100
AcDbSpline
210
0.0
220
0.0
230
1.0
 70
     8
 71
     3
 72
     8
 73
     4
 74
     0
 42
0.000000001
 43
0.00000001
 40
0.0000000000000004
 40
0.0000000000000004
 40
0.0000000000000004
 40
0.0000000000000004
 40
0.0011862984959128
 40
0.0011862984959128
 40
0.0011862984959128
 40
0.0011862984959128
 10
224.1759358581639
 20
40.53456968913966
 30
0.0
 10
224.1648736589063
 20
40.59667813405844
 30
0.0
 10
224.1542476523325
 20
40.65847092136006
 30
0.0
 10
224.1440345245151
 20
40.71996374807795
 30
0.0
  0
LINE
  5
272
330
1F
100
AcDbEntity
  8
0
  6
Continuous
 62
     7
370
    15
100
AcDbLine
 10
224.248720358
 20
41.3197445245
 30
0.0
 11
224.2288270455
 21
41.090398768
 31
0.0
  0
ARC
  5
273
330
1F
100
AcDbEntity
  8
0
  6
Continuous
 62
     7
370
    15
100
AcDbCircle
 10
240.23150352
 20
39.6630985869
 30
0.0
 40
16.06296283248557
100
AcDbArc
 50
176.9225000953
 51
185.727139394
  0
LINE
  5
274
330
1F
100
AcDbEntity
  8
0
  6
Continuous
 62
     7
370
    15
100
AcDbLine
 10
223.2499329854
 20
40.4196167136
 30
0.0
 11
223.3117057773
 21
41.8797628819
 31
0.0
  0
ARC
  5
275
330
1F
100
AcDbEntity
  8
0
  6
Continuous
 62
     7
370
    15
100
AcDbCircle
 10
235.0849207071
 20
40.1447573306
 30
0.0
 40
11.83817900076385
100
AcDbArc
 50
178.6695844123
 51
203.7430473282
  0
LINE
  5
276
330
1F
100
AcDbEntity
  8
0
  6
Continuous
 62
     7
370
    15
100
AcDbLine
 10
204.8188448112
 20
77.0068422899
 30
0.0
 11
204.8685435189
 21
76.9885064784
 31
0.0
  0
LINE
  5
277
330
1F
100
AcDbEntity
  8
0
  6
Continuous
 62
     7
370
    15
100
AcDbLine
 10
194.6949854308
 20
59.4699038895
 30
0.0
 11
194.6333680554
 21
59.5231694503
 31
0.0
  0
LINE
  5
278
330
1F
100
AcDbEntity
  8
0
  6
Continuous
 62
     7
370
    15
100
AcDbLine
 10
220.7535222999
 20
42.5102870765
 30
0.0
 11
220.3179864809
 21
42.8992512462
 31
0.0
  0
LINE
  5
279
330
1F
100
AcDbEntity
  8
0
  6
Continuous
 62
     7
370
    15
100
AcDbLine
 10
222.2101455372
 20
41.6693963805
 30
0.0
 11
220.7535222999
 21
42.5102870765
 31
0.0
  0
LINE
  5
27A
330
1F
100
AcDbEntity
  8
0
  6
Continuous
 62
     7
370
    15
100
AcDbLine
 10
224.248720358
 20
41.3197445245
 30
0.0
 11
224.248720358
 21
41.1745946872
 31
0.0
  0
LINE
  5
27B
330
1F
100
AcDbEntity
  8
0
  6
Continuous
 62
     7
370
    15
100
AcDbLine
 10
224.248720358
 20
40.4925514898
 30
0.0
 11
224.248720358
 21
38.0601583653
 31
0.0
  0
LINE
  5
27C
330
1F
100
AcDbEntity
  8
0
  6
Continuous
 62
     7
370
    15
100
AcDbLine
 10
224.248720358
 20
41.5286341749
 30
0.0
 11
224.248720358
 21
41.3197445245
 31
0.0
  0
LINE
  5
27D
330
1F
100
AcDbEntity
  8
0
  6
Continuous
 62
     7
370
    15
100
AcDbLine
 10
224.248720358
 20
38.0601583653
 30
0.0
 11
224.248720358
 21
35.1901693227
 31
0.0
  0
LINE
  5
27E
330
1F
100
AcDbEntity
  8
0
  6
Continuous
 62
     7
370
    15
100
AcDbLine
 10
224.1759361257
 20
30.0420205299
 30
0.0
 11
226.0037902864
 21
28.9868227834
 31
0.0
  0
SPLINE
  5
27F
330
1F
100
AcDbEntity
  8
0
  6
Continuous
 62
     7
370
    15
100
AcDbSpline
210
0.0
220
0.0
230
1.0
 70
     8
 71
     3
 72
    14
 73
    10
 74
     0
 42
0.000000001
 43
0.00000001
 40
0.0
 40
0.0
 40
0.0
 40
0.0
 40
0.25
 40
0.25
 40
0.5
 40
0.5
 40
0.75
 40
0.75
 40
1.0
 40
1.0
 40
1.0
 40
1.0
 10
225.958282736489
 20
28.86845451407899
 30
0.0
 10
225.9416078934226
 20
28.8250818959724
 30
0.0
 10
225.9213126505066
 20
28.78485156652656
 30
0.0
 10
225.8730156714363
 20
28.71107967885442
 30
0.0
 10
225.8447968236311
 20
28.67751007217731
 30
0.0
 10
225.781871475208
 20
28.62395866651469
 30
0.0
 10
225.746708299191
 20
28.60350263715503
 30
0.0
 10
225.6720253099826
 20
28.58607034364316
 30
0.0
 10
225.6335004347742
 20
28.59001765262805
 30
0.0
 10
225.5995567320769
 20
28.60961293509787
 30
0.0
  0
LINE
  5
280
330
1F
100
AcDbEntity
  8
0
  6
Continuous
 62
     7
370
    15
100
AcDbLine
 10
225.5995565696
 20
28.6096130587
 30
0.0
 11
224.1440345833
 21
29.4498680161
 31
0.0
  0
SPLINE
  5
281
330
1F
100
AcDbEntity
  8
0
  6
Continuous
 62
     7
370
    15
100
AcDbSpline
210
0.0
220
0.0
230
1.0
 70
     8
 71
     3
 72
     8
 73
     4
 74
     0
 42
0.000000001
 43
0.00000001
 40
0.0
 40
0.0
 40
0.0
 40
0.0
 40
0.0011862984959113
 40
0.0011862984959113
 40
0.0011862984959113
 40
0.0011862984959113
 10
224.1440345245151
 20
29.44986802019089
 30
0.0
 10
224.1542476523325
 20
29.64726692207984
 30
0.0
 10
224.1648736589077
 20
29.84465275905663
 30
0.0
 10
224.1759358581653
 20
30.04202025640697
 30
0.0
  0
SPLINE
  5
282
330
1F
100
AcDbEntity
  8
0
  6
Continuous
 62
     7
370
    15
100
AcDbSpline
210
0.0
220
0.0
230
1.0
 70
     8
 71
     3
 72
     9
 73
     5
 74
     0
 42
0.000000001
 43
0.00000001
 40
0.0
 40
0.0
 40
0.0
 40
0.0
 40
0.4529515425247135
 40
1.0
 40
1.0
 40
1.0
 40
1.0
 10
258.7599699448308
 20
47.70772200793586
 30
0.0
 10
258.757202594568
 20
47.70932244064588
 30
0.0
 10
258.7510930000463
 20
47.71285578264777
 30
0.0
 10
258.718536568181
 20
47.73165633815528
 30
0.0
 10
258.7007266223482
 20
47.74194115304534
 30
0.0
  0
LWPOLYLINE
  5
283
330
1F
100
AcDbEntity
  8
0
  6
Continuous
 62
     7
370
    15
100
AcDbPolyline
 90
       13
 70
   128
 43
0.0
 10
237.6266342735
 20
21.9836571004
 10
236.3606354697
 20
21.7089478361
 10
234.9921733967
 20
21.5570756809
 10
233.6760307092
 20
21.5683190473
 10
232.4218675966
 20
21.7425983209
 10
231.238887877
 20
22.0786320186
 10
230.1357744596
 20
22.5739558061
 10
229.1206228322
 20
23.2249327704
 10
228.2008850844
 20
24.0267872659
 10
227.3833086632
 20
24.9736311556
 10
226.6738968603
 20
26.0585178083
 10
226.0778548116
 20
27.273484689
 10
225.6261354259
 20
28.5220660767
  0
SPLINE
  5
284
330
1F
100
AcDbEntity
  8
0
  6
Continuous
 62
     7
370
    15
100
AcDbSpline
210
0.0
220
0.0
230
1.0
 70
     8
 71
     3
 72
     8
 73
     4
 74
     0
 42
0.000000001
 43
0.00000001
 40
0.0
 40
0.0
 40
0.0
 40
0.0
 40
1.0
 40
1.0
 40
1.0
 40
1.0
 10
224.4220542119147
 20
30.53925841099383
 30
0.0
 10
224.339856031129
 20
30.37353808449036
 30
0.0
 10
224.2578216629771
 20
30.20779120915239
 30
0.0
 10
224.1759358581653
 20
30.04202025640697
 30
0.0
  0
LINE
  5
285
330
1F
100
AcDbEntity
  8
0
  6
Continuous
 62
     7
370
    15
100
AcDbLine
 10
224.4710737129
 20
30.5675569828
 30
0.0
 11
224.4220542939
 21
30.5392586745
 31
0.0
  0
SPLINE
  5
286
330
1F
100
AcDbEntity
  8
0
  6
Continuous
 62
     7
370
    15
100
AcDbSpline
210
0.0
220
0.0
230
1.0
 70
     8
 71
     3
 72
    12
 73
     8
 74
     0
 42
0.000000001
 43
0.00000001
 40
0.0
 40
0.0
 40
0.0
 40
0.0
 40
0.249999999999997
 40
0.249999999999997
 40
0.499999999999994
 40
0.499999999999994
 40
1.0
 40
1.0
 40
1.0
 40
1.0
 10
224.4828558996992
 20
30.90092172295496
 30
0.0
 10
224.5204546842738
 20
30.87921640663067
 30
0.0
 10
224.5506322435202
 20
30.85241453605749
 30
0.0
 10
224.5892219782011
 20
30.79479083122751
 30
0.0
 10
224.5980814633909
 20
30.76374270565613
 30
0.0
 10
224.5930340295526
 20
30.67155372925083
 30
0.0
 10
224.5463317424773
 20
30.61100230227598
 30
0.0
 10
224.471073654279
 20
30.56755673272403
 30
0.0
  0
LINE
  5
287
330
1F
100
AcDbEntity
  8
0
  6
Continuous
 62
     7
370
    15
100
AcDbLine
 10
223.6979674852
 20
31.354028389
 30
0.0
 11
224.482856062
 21
30.9009218583
 31
0.0
  0
SPLINE
  5
288
330
1F
100
AcDbEntity
  8
0
  6
Continuous
 62
     7
370
    15
100
AcDbSpline
210
0.0
220
0.0
230
1.0
 70
     8
 71
     3
 72
    10
 73
     6
 74
     0
 42
0.000000001
 43
0.00000001
 40
0.0
 40
0.0
 40
0.0
 40
0.0
 40
0.5
 40
0.5
 40
1.0
 40
1.0
 40
1.0
 40
1.0
 10
223.1204997022127
 20
31.34722647951472
 30
0.0
 10
223.1966370925512
 20
31.39117965938744
 30
0.0
 10
223.3001448732356
 20
31.41766632556622
 30
0.0
 10
223.5146401653214
 20
31.42149439595355
 30
0.0
 10
223.6220704097396
 20
31.39784260905015
 30
0.0
 10
223.6979673725821
 20
31.35402822501657
 30
0.0
  0
LINE
  5
289
330
1F
100
AcDbEntity
  8
0
  6
Continuous
 62
     7
370
    15
100
AcDbLine
 10
223.0714802653
 20
31.3189284655
 30
0.0
 11
223.1204996843
 21
31.3472267737
 31
0.0
  0
SPLINE
  5
28A
330
1F
100
AcDbEntity
  8
0
  6
Continuous
 62
     7
370
    15
100
AcDbSpline
210
0.0
220
0.0
230
1.0
 70
     8
 71
     3
 72
     8
 73
     4
 74
     0
 42
0.000000001
 43
0.00000001
 40
0.0
 40
0.0
 40
0.0
 40
0.0
 40
1.0
 40
1.0
 40
1.0
 40
1.0
 10
222.2101451851939
 20
31.17684705644646
 30
0.0
 10
222.4973000115912
 20
31.22411872535848
 30
0.0
 10
222.7844131301764
 20
31.27147615806122
 30
0.0
 10
223.0714802598484
 20
31.31892815778452
 30
0.0
  0
LINE
  5
28B
330
1F
100
AcDbEntity
  8
0
  6
Continuous
 62
     7
370
    15
100
AcDbLine
 10
220.7535222999
 20
32.0177379772
 30
0.0
 11
222.2101455372
 21
31.1768472812
 31
0.0
  0
LINE
  5
28C
330
1F
100
AcDbEntity
  8
0
  6
Continuous
 62
     7
370
    15
100
AcDbLine
 10
220.7535222999
 20
32.0177379772
 30
0.0
 11
223.8951668271
 21
33.8313707585
 31
0.0
  0
ARC
  5
28D
330
1F
100
AcDbEntity
  8
0
  6
Continuous
 62
     7
370
    15
100
AcDbCircle
 10
233.6844568191
 20
31.8848666325
 30
0.0
 40
9.846261965767159
100
AcDbArc
 50
194.3179057184
 51
238.1256858466
  0
ELLIPSE
  5
28E
330
1F
100
AcDbEntity
  8
0
  6
Continuous
 62
     7
370
    15
100
AcDbEllipse
 10
223.6022743082
 20
34.8169954028
 30
0.0
 11
-7.507462981948264E-5
 21
1.066811201853398
 31
0.0
210
0.0
220
0.0
230
1.0
 40
0.7174342186
 41
3.534193645557429
 42
5.104989972352383
  0
ARC
  5
28F
330
1F
100
AcDbEntity
  8
0
  6
Continuous
 62
     7
370
    15
100
AcDbCircle
 10
233.7469884734
 20
34.2863852896
 30
0.0
 40
11.08026513689243
100
AcDbArc
 50
195.5342643695
 51
215.7345697398
  0
ARC
  5
290
330
1F
100
AcDbEntity
  8
0
  6
Continuous
 62
     7
370
    15
100
AcDbCircle
 10
231.1690268981
 20
33.1025695408
 30
0.0
 40
9.598989501195732
100
AcDbArc
 50
194.065870688
 51
246.8527503441
  0
SPLINE
  5
291
330
1F
100
AcDbEntity
  8
0
  6
Continuous
 62
     7
370
    15
100
AcDbSpline
210
0.0
220
0.0
230
1.0
 70
     8
 71
     3
 72
     8
 73
     4
 74
     0
 42
0.000000001
 43
0.00000001
 40
0.0000000000000004
 40
0.0000000000000004
 40
0.0000000000000004
 40
0.0000000000000004
 40
0.0011862984959128
 40
0.0011862984959128
 40
0.0011862984959128
 40
0.0011862984959128
 10
222.2101451851944
 20
31.1768470564455
 30
0.0
 10
222.0929947161993
 20
31.04072301361072
 30
0.0
 10
221.9755549657621
 20
30.90499943844779
 30
0.0
 10
221.8578440979175
 20
30.76965766095331
 30
0.0
  0
LINE
  5
292
330
1F
100
AcDbEntity
  8
0
  6
Continuous
 62
     7
370
    15
100
AcDbLine
 10
220.3179864809
 20
31.7662562696
 30
0.0
 11
220.7535222999
 21
32.0177379772
 31
0.0
  0
LINE
  5
293
330
1F
100
AcDbEntity
  8
0
  6
Continuous
 62
     7
370
    15
100
AcDbLine
 10
221.857844311
 20
30.7696575677
 30
0.0
 11
220.419999635
 21
31.5997076311
 31
0.0
  0
SPLINE
  5
294
330
1F
100
AcDbEntity
  8
0
  6
Continuous
 62
     7
370
    15
100
AcDbSpline
210
0.0
220
0.0
230
1.0
 70
     8
 71
     3
 72
    10
 73
     6
 74
     0
 42
0.000000001
 43
0.00000001
 40
0.0
 40
0.0
 40
0.0
 40
0.0
 40
0.5
 40
0.5
 40
1.0
 40
1.0
 40
1.0
 40
1.0
 10
220.4199995598854
 20
31.59970764464855
 30
0.0
 10
220.3935901306047
 20
31.61495348365548
 30
0.0
 10
220.3713067263957
 20
31.63881090606774
 30
0.0
 10
220.3371995915741
 20
31.69673699780202
 30
0.0
 10
220.3252995615192
 20
31.73063552928288
 30
0.0
 10
220.3179870695625
 20
31.76625657173723
 30
0.0
  0
ARC
  5
295
330
1F
100
AcDbEntity
  8
0
  6
Continuous
 62
     7
370
    15
100
AcDbCircle
 10
229.9564743226
 20
34.0240283029
 30
0.0
 40
9.835109896964713
100
AcDbArc
 50
194.9325993597
 51
238.1123668138
  0
ELLIPSE
  5
296
330
1F
100
AcDbEntity
  8
0
  6
Continuous
 62
     7
370
    15
100
AcDbEllipse
 10
223.5416141364
 20
34.7819656471
 30
0.0
 11
0.3250094736511642
 21
1.213179526238676
 31
0.0
210
0.0
220
0.0
230
1.0
 40
0.5176380889
 41
3.619174351347721
 42
5.189970678142617
  0
SPLINE
  5
297
330
1F
100
AcDbEntity
  8
0
  6
Continuous
 62
     7
370
    15
100
AcDbSpline
210
0.0
220
0.0
230
1.0
 70
     8
 71
     3
 72
    12
 73
     8
 74
     0
 42
0.000000001
 43
0.00000001
 40
0.0
 40
0.0
 40
0.0
 40
0.0
 40
0.5000000000000003
 40
0.5000000000000003
 40
0.7500000000000001
 40
0.7500000000000001
 40
1.0
 40
1.0
 40
1.0
 40
1.0
 10
250.0754712254378
 20
66.78628894815803
 30
0.0
 10
250.1385311026674
 20
66.82269264040829
 30
0.0
 10
250.2184640558986
 20
66.84952395225987
 30
0.0
 10
250.3514432442051
 20
66.86328079377041
 30
0.0
 10
250.3971144133172
 20
66.86315965997149
 30
0.0
 10
250.4847522319546
 20
66.85038527834985
 30
0.0
 10
250.5254961428088
 20
66.83754529269508
 30
0.0
 10
250.5570098251474
 20
66.81935283111845
 30
0.0
  0
LINE
  5
298
330
1F
100
AcDbEntity
  8
0
  6
Continuous
 62
     7
370
    15
100
AcDbLine
 10
250.5570101494
 20
66.8193532026
 30
0.0
 11
251.2166784636
 21
66.4385347908
 31
0.0
  0
LINE
  5
299
330
1F
100
AcDbEntity
  8
0
  6
Continuous
 62
     7
370
    15
100
AcDbLine
 10
252.8865454919
 20
64.3637385742
 30
0.0
 11
254.2810450977
 21
64.6695135876
 31
0.0
  0
LINE
  5
29A
330
1F
100
AcDbEntity
  8
0
  6
Continuous
 62
     7
370
    15
100
AcDbLine
 10
254.2810450977
 20
64.6695135876
 30
0.0
 11
255.736567084
 21
63.8292586303
 31
0.0
  0
SPLINE
  5
29B
330
1F
100
AcDbEntity
  8
0
  6
Continuous
 62
     7
370
    15
100
AcDbSpline
210
0.0
220
0.0
230
1.0
 70
     8
 71
     3
 72
    12
 73
     8
 74
     0
 42
0.000000001
 43
0.00000001
 40
0.0
 40
0.0
 40
0.0
 40
0.0
 40
0.2499999999999946
 40
0.2499999999999946
 40
0.4999999999999892
 40
0.4999999999999892
 40
1.0
 40
1.0
 40
1.0
 40
1.0
 10
255.7365669973391
 20
63.82925812156766
 30
0.0
 10
255.7682231278391
 20
63.81098342641774
 30
0.0
 10
255.7905224048492
 20
63.78715931561944
 30
0.0
 10
255.8123429754412
 20
63.73712741317175
 30
0.0
 10
255.8126237377674
 20
63.71073620475784
 30
0.0
 10
255.7892563636466
 20
63.63466097476293
 30
0.0
 10
255.7422179608416
 20
63.58759791981252
 30
0.0
 10
255.6792924663413
 20
63.55127180506054
 30
0.0
  0
LINE
  5
29C
330
1F
100
AcDbEntity
  8
0
  6
Continuous
 62
     7
370
    15
100
AcDbLine
 10
250.0754714569
 20
66.7862893253
 30
0.0
 11
249.9836808892
 21
66.7332997584
 31
0.0
  0
SPLINE
  5
29D
330
1F
100
AcDbEntity
  8
0
  6
Continuous
 62
     7
370
    15
100
AcDbSpline
210
0.0
220
0.0
230
1.0
 70
     8
 71
     3
 72
    10
 73
     6
 74
     0
 42
0.000000001
 43
0.00000001
 40
0.0
 40
0.0
 40
0.0
 40
0.0
 40
0.403890055881665
 40
0.8088426875932694
 40
1.0
 40
1.0
 40
1.0
 40
1.0
 10
258.7007266223482
 20
58.47533265234907
 30
0.0
 10
258.7189673868598
 20
58.51409647844201
 30
0.0
 10
258.7554969046743
 20
58.59172611260064
 30
0.0
 10
258.769437418639
 20
58.69910605588694
 30
0.0
 10
258.7513888723932
 20
58.75236273091723
 30
0.0
 10
258.7456011622111
 20
58.76944079339036
 30
0.0
  0
ARC
  5
29E
330
1F
100
AcDbEntity
  8
0
  6
Continuous
 62
     7
370
    15
100
AcDbCircle
 10
248.4075105719
 20
56.1620057777
 30
0.0
 40
10.60668825138592
100
AcDbArc
 50
15.7413341421
 51
46.2919137943
  0
LWPOLYLINE
  5
29F
330
1F
100
AcDbEntity
  8
0
  6
Continuous
 62
     7
370
    15
100
AcDbPolyline
 90
        3
 70
   128
 43
0.0
 10
252.8865451627
 20
65.0447283606
 10
252.9250002107
 20
64.9972642632
 10
253.3052556634
 20
64.4909831128
  0
LINE
  5
2A0
330
1F
100
AcDbEntity
  8
0
  6
Continuous
 62
     7
370
    15
100
AcDbLine
 10
258.5964447824
 20
47.8021617282
 30
0.0
 11
256.7320414015
 21
48.8784588904
 31
0.0
  0
LINE
  5
2A1
330
1F
100
AcDbEntity
  8
0
  6
Continuous
 62
     7
370
    15
100
AcDbLine
 10
255.9239549359
 20
48.7249188225
 30
0.0
 11
255.9729743549
 21
48.7532171307
 31
0.0
  0
SPLINE
  5
2A2
330
1F
100
AcDbEntity
  8
0
  6
Continuous
 62
     7
370
    15
100
AcDbSpline
210
0.0
220
0.0
230
1.0
 70
     8
 71
     3
 72
    10
 73
     6
 74
     0
 42
0.000000001
 43
0.00000001
 40
0.0
 40
0.0
 40
0.0
 40
0.0
 40
0.348286225286859
 40
0.7262043038763673
 40
0.9999999999999999
 40
0.9999999999999999
 40
0.9999999999999999
 40
0.9999999999999999
 10
255.5912296038016
 20
48.65374631147285
 30
0.0
 10
255.6338772634777
 20
48.65383393484755
 30
0.0
 10
255.7228010042358
 20
48.65401663650844
 30
0.0
 10
255.838757958964
 20
48.68223981050841
 30
0.0
 10
255.8987509090051
 20
48.71229298758286
 30
0.0
 10
255.9239549359206
 20
48.72491882250778
 30
0.0
  0
SPLINE
  5
2A3
330
1F
100
AcDbEntity
  8
0
  6
Continuous
 62
     7
370
    15
100
AcDbSpline
210
0.0
220
0.0
230
1.0
 70
     8
 71
     3
 72
     8
 73
     4
 74
     0
 42
0.000000001
 43
0.00000001
 40
0.0
 40
0.0
 40
0.0
 40
0.0
 40
1.0
 40
1.0
 40
1.0
 40
1.0
 10
255.9729745226749
 20
48.75321701138581
 30
0.0
 10
256.2259604763558
 20
48.79503541608364
 30
0.0
 10
256.4789837387031
 20
48.83678062065902
 30
0.0
 10
256.7320412277078
 20
48.87845867205613
 30
0.0
  0
LWPOLYLINE
  5
2A4
330
1F
100
AcDbEntity
  8
0
  6
Continuous
 62
     7
370
    15
100
AcDbPolyline
 90
        7
 70
   128
 43
0.0
 10
267.9466526294
 20
34.9441351814
 10
268.350222235
 20
35.1974515527
 10
268.6065262346
 20
35.5081830993
 10
268.6927872098
 20
35.848722085
 10
268.6013402377
 20
36.1888103558
 10
268.3403103169
 20
36.4982296755
 10
268.1072476289
 20
36.6599197254
  0
LWPOLYLINE
  5
2A5
330
1F
100
AcDbEntity
  8
0
  6
Continuous
 62
     7
370
    15
100
AcDbPolyline
 90
       12
 70
   128
 43
0.0
 10
265.2783613842
 20
36.6599195468
 10
265.2207311415
 20
36.6252239192
 10
264.8870688291
 20
36.3400136872
 10
264.7138525669
 20
36.0106997332
 10
264.7164749734
 20
35.6665420789
 10
264.8947028829
 20
35.338120787
 10
265.2326995345
 20
35.0546176325
 10
265.700435875
 20
34.8412214685
 10
266.2563462214
 20
34.7168961078
 10
266.8510384185
 20
34.6926869994
 10
267.4316691675
 20
34.77074645
 10
267.9466526294
 20
34.9441351814
  0
LWPOLYLINE
  5
2A6
330
1F
100
AcDbEntity
  8
0
  6
Continuous
 62
     7
370
    15
100
AcDbPolyline
 90
       20
 70
   128
 43
0.0
 10
267.7272296227
 20
35.3873385887
 10
268.0885772747
 20
35.6214449697
 10
268.2986707946
 20
35.9106001302
 10
268.3347449573
 20
36.2234685865
 10
268.1928887903
 20
36.5261472607
 10
267.8884760153
 20
36.7858354951
 10
267.4544933735
 20
36.9743925145
 10
266.9379722205
 20
37.0713838673
 10
266.3948796609
 20
37.0663024485
 10
265.8840737276
 20
36.9596956785
 10
265.4609072317
 20
36.763116631
 10
265.1712343652
 20
36.4978691014
 10
265.0464473426
 20
36.1926958491
 10
265.1000707285
 20
35.8806659519
 10
265.3262905629
 20
35.5955945501
 10
265.7005934318
 20
35.3683728514
 10
266.1824181796
 20
35.2236236365
 10
266.7195496354
 20
35.1770339406
 10
267.2537848126
 20
35.233650421
 10
267.7272296227
 20
35.3873385887
  0
LWPOLYLINE
  5
2A7
330
1F
100
AcDbEntity
  8
0
  6
Continuous
 62
     7
370
    15
100
AcDbPolyline
 90
       17
 70
   128
 43
0.0
 10
267.4451135698
 20
35.5897282532
 10
267.7456168027
 20
35.7970097625
 10
267.8858401909
 20
36.0548990817
 10
267.8444331348
 20
36.3241365125
 10
267.6277028445
 20
36.5637312127
 10
267.2686411651
 20
36.7372089929
 10
266.8219155636
 20
36.8181574002
 10
266.3555328202
 20
36.7942544947
 10
265.9404990455
 20
36.6691372821
 10
265.6399931783
 20
36.4618572935
 10
265.4997724243
 20
36.2039664536
 10
265.5411768462
 20
35.9347305435
 10
265.7579071365
 20
35.6951358433
 10
266.116968816
 20
35.5216580631
 10
266.5636944174
 20
35.4407096558
 10
267.0300771609
 20
35.4646125613
 10
267.4451135698
 20
35.5897282532
  0
SPLINE
  5
2A8
330
1F
100
AcDbEntity
  8
0
  6
Continuous
 62
     7
370
    15
100
AcDbSpline
210
0.0
220
0.0
230
1.0
 70
     8
 71
     3
 72
    10
 73
     6
 74
     0
 42
0.000000001
 43
0.00000001
 40
0.0
 40
0.0
 40
0.0
 40
0.0
 40
0.4391233574501163
 40
0.7513729858068523
 40
1.0
 40
1.0
 40
1.0
 40
1.0
 10
267.7695308792842
 20
35.85164231578502
 30
0.0
 10
267.744174145482
 20
35.8900173422341
 30
0.0
 10
267.7007868729444
 20
35.9556798894757
 30
0.0
 10
267.6377161221826
 20
36.23277102903089
 30
0.0
 10
267.6063263307828
 20
36.42509386875594
 30
0.0
 10
267.592411773606
 20
36.51034729129925
 30
0.0
  0
SPLINE
  5
2A9
330
1F
100
AcDbEntity
  8
0
  6
Continuous
 62
     7
370
    15
100
AcDbSpline
210
0.0
220
0.0
230
1.0
 70
     8
 71
     3
 72
    10
 73
     6
 74
     0
 42
0.000000001
 43
0.00000001
 40
0.0
 40
0.0
 40
0.0
 40
0.0
 40
0.4391221327840188
 40
0.7513725794887662
 40
1.0
 40
1.0
 40
1.0
 40
1.0
 10
267.592411773606
 20
36.51034729129925
 30
0.0
 10
267.4382679704555
 20
36.48889519843897
 30
0.0
 10
267.1745157741105
 20
36.4521889767651
 30
0.0
 10
266.7911094049981
 20
36.58047187353514
 30
0.0
 10
266.6002780782009
 20
36.6987284773181
 30
0.0
 10
266.5156858642669
 20
36.75114957659043
 30
0.0
  0
SPLINE
  5
2AA
330
1F
100
AcDbEntity
  8
0
  6
Continuous
 62
     7
370
    15
100
AcDbSpline
210
0.0
220
0.0
230
1.0
 70
     8
 71
     3
 72
    11
 73
     7
 74
     0
 42
0.000000001
 43
0.00000001
 40
0.0
 40
0.0
 40
0.0
 40
0.0
 40
0.1849308771309854
 40
0.5198465335381224
 40
0.8714436240869077
 40
0.9999999999999999
 40
0.9999999999999999
 40
0.9999999999999999
 40
0.9999999999999999
 10
266.5156858642669
 20
36.75114957659043
 30
0.0
 10
266.4633242101992
 20
36.70134800809273
 30
0.0
 10
266.3161339476549
 20
36.56135422690304
 30
0.0
 10
266.0413744693122
 20
36.38080619936954
 30
0.0
 10
265.7876263088125
 20
36.32772222436008
 30
0.0
 10
265.6523089861875
 20
36.332080125018
 30
0.0
 10
265.6160791017651
 20
36.33324691012798
 30
0.0
  0
SPLINE
  5
2AB
330
1F
100
AcDbEntity
  8
0
  6
Continuous
 62
     7
370
    15
100
AcDbSpline
210
0.0
220
0.0
230
1.0
 70
     8
 71
     3
 72
    10
 73
     6
 74
     0
 42
0.000000001
 43
0.00000001
 40
0.0
 40
0.0
 40
0.0
 40
0.0
 40
0.4391223360025875
 40
0.7513712380335524
 40
1.0
 40
1.0
 40
1.0
 40
1.0
 10
265.6160791017651
 20
36.33324691012798
 30
0.0
 10
265.641435949976
 20
36.18302138292857
 30
0.0
 10
265.6848234182754
 20
35.92597424343759
 30
0.0
 10
265.7478932388791
 20
35.73395450859172
 30
0.0
 10
265.7792852347575
 20
35.6927886357207
 30
0.0
 10
265.7932008416213
 20
35.67454041393514
 30
0.0
  0
LINE
  5
2AC
330
1F
100
AcDbEntity
  8
0
  6
Continuous
 62
     7
370
    15
100
AcDbLine
 10
265.7932008416
 20
35.6745404139
 30
0.0
 11
265.9184812787
 21
35.6134746171
 31
0.0
  0
SPLINE
  5
2AD
330
1F
100
AcDbEntity
  8
0
  6
Continuous
 62
     7
370
    15
100
AcDbSpline
210
0.0
220
0.0
230
1.0
 70
     8
 71
     3
 72
     9
 73
     5
 74
     0
 42
0.000000001
 43
0.00000001
 40
0.0
 40
0.0
 40
0.0
 40
0.0
 40
0.5474867882604297
 40
1.0
 40
1.0
 40
1.0
 40
1.0
 10
267.4037666282726
 20
35.57380625855125
 30
0.0
 10
267.4738943690841
 20
35.61402783132501
 30
0.0
 10
267.6019846578643
 20
35.68749366399206
 30
0.0
 10
267.717333847163
 20
35.80050375606301
 30
0.0
 10
267.7695308792842
 20
35.85164231578503
 30
0.0
  0
LINE
  5
2AE
330
1F
100
AcDbEntity
  8
0
  6
Continuous
 62
     7
370
    15
100
AcDbLine
 10
267.5924117736
 20
35.6948261263
 30
0.0
 11
267.5924117736
 21
36.5103472913
 31
0.0
  0
LINE
  5
2AF
330
1F
100
AcDbEntity
  8
0
  6
Continuous
 62
     7
370
    15
100
AcDbLine
 10
266.5156858643
 20
35.4442747063
 30
0.0
 11
266.5156858643
 21
36.7511495766
 31
0.0
  0
LINE
  5
2B0
330
1F
100
AcDbEntity
  8
0
  6
Continuous
 62
     7
370
    15
100
AcDbLine
 10
269.4789625826
 20
29.5278067926
 30
0.0
 11
269.4201677289
 21
29.5190424542
 31
0.0
  0
ARC
  5
2B1
330
1F
100
AcDbEntity
  8
0
  6
Continuous
 62
     7
370
    15
100
AcDbCircle
 10
235.4562348046
 20
58.0475705383
 30
0.0
 40
1.558627702086993
100
AcDbArc
 50
79.7187177111
 51
142.8327464507
  0
ARC
  5
2B2
330
1F
100
AcDbEntity
  8
0
  6
Continuous
 62
     7
370
    15
100
AcDbCircle
 10
235.4240656481
 20
58.131434069
 30
0.0
 40
1.464293970824086
100
AcDbArc
 50
78.3794268548
 51
144.422534553
  0
ARC
  5
2B3
330
1F
100
AcDbEntity
  8
0
  6
Continuous
 62
     7
370
    15
100
AcDbCircle
 10
235.3955773778
 20
58.2054156554
 30
0.0
 40
1.250088034834606
100
AcDbArc
 50
80.8487495582
 51
142.3433499751
  0
LWPOLYLINE
  5
2B4
330
1F
100
AcDbEntity
  8
0
  6
Continuous
 62
     7
370
     0
100
AcDbPolyline
 90
        7
 70
   128
 43
0.0
 10
237.7367827572
 20
39.781797344
 10
237.7999654929
 20
38.8446791733
 10
237.9881011221
 20
38.0014432508
 10
238.2969878016
 20
37.2709265416
 10
238.7197249727
 20
36.6694472306
 10
239.2468697657
 20
36.2104414918
 10
239.393962267
 20
36.1190390617
  0
LWPOLYLINE
  5
2B5
330
1F
100
AcDbEntity
  8
0
  6
Continuous
 62
     7
370
     0
100
AcDbPolyline
 90
       17
 70
   128
 43
0.0
 10
247.3933122837
 20
49.9758208311
 10
246.9206281336
 20
50.190697092
 10
246.2220645344
 20
50.3374068823
 10
245.4603181995
 20
50.3212706137
 10
244.6524057543
 20
50.1426489551
 10
243.8163745288
 20
49.805531455
 10
242.9709000219
 20
49.3174494113
 10
242.1348687964
 20
48.6893058045
 10
241.3269563512
 20
47.935131609
 10
240.5652100163
 20
47.0717742799
 10
239.8666464171
 20
46.1185201258
 10
239.2468697657
 20
45.0966625447
 10
238.7197249727
 20
44.0290283829
 10
238.2969878016
 20
42.9394671232
 10
237.9881011221
 20
41.852317445
 10
237.7999654929
 20
40.7918647486
 10
237.7367827572
 20
39.781797344
  0
LWPOLYLINE
  5
2B6
330
1F
100
AcDbEntity
  8
0
  6
Continuous
 62
     7
370
     0
100
AcDbPolyline
 90
       34
 70
   128
 43
0.0
 10
270.9531243418
 20
31.2203806797
 10
270.284020155
 20
30.7603353251
 10
269.6390991219
 20
30.1693577121
 10
269.0416704254
 20
29.4688070563
 10
268.5133265874
 20
28.6840033198
 10
268.0731633408
 20
27.8433112602
 10
267.7370896392
 20
26.9771158656
 10
267.5172516773
 20
26.1167235882
 10
267.4215951241
 20
25.2932311727
 10
267.4535770088
 20
24.5364016477
 10
267.6120419153
 20
23.8735891858
 10
267.8912621525
 20
23.3287493094
 10
268.2811460198
 20
22.9215739164
 10
268.7676023111
 20
22.666779476
 10
269.3330488759
 20
22.5735749424
 10
269.9570493494
 20
22.6453291351
 10
270.6170504755
 20
22.8794482829
 10
271.2891982081
 20
23.2674709096
 10
271.9491993343
 20
23.795372842
 10
272.5731998078
 20
24.4440742606
 10
273.1386463726
 20
25.1901295016
 10
273.6251026639
 20
26.006574421
 10
274.0149865312
 20
26.8639001455
 10
274.2942067684
 20
27.7311208457
 10
274.4526716748
 20
28.5768929941
 10
274.4846535596
 20
29.3706480173
 10
274.3889970064
 20
30.0836977272
 10
274.1691590445
 20
30.6902704966
 10
273.8330853429
 20
31.1684434545
 10
273.3929220963
 20
31.500933847
 10
272.8645782583
 20
31.6757247726
 10
272.2671495618
 20
31.6864989378
 10
271.6222285287
 20
31.5328665754
 10
270.9531243418
 20
31.2203806797
  0
LWPOLYLINE
  5
2B7
330
1F
100
AcDbEntity
  8
0
  6
Continuous
 62
     7
370
     0
100
AcDbPolyline
 90
       18
 70
   128
 43
0.0
 10
268.3660009614
 20
23.4353140562
 10
268.5269156533
 20
23.3572547418
 10
269.0553488887
 20
23.2375904282
 10
269.6470026438
 20
23.2859522054
 10
270.277654602
 20
23.500359974
 10
270.9214858675
 20
23.8720358522
 10
271.5521378257
 20
24.3857633358
 10
272.1437915808
 20
25.0205104438
 10
272.6722248162
 20
25.7502907843
 10
273.1158032746
 20
26.5452268021
 10
273.4563669327
 20
27.3727737205
 10
273.6799727569
 20
28.1990515641
 10
273.7774666493
 20
28.9902326896
 10
273.7448571717
 20
29.7139259585
 10
273.5834791936
 20
30.3405032073
 10
273.2999397276
 20
30.8443124285
 10
272.9058467731
 20
31.2047275434
 10
272.8257086565
 20
31.2523836716
  0
LWPOLYLINE
  5
2B8
330
1F
100
AcDbEntity
  8
0
  6
Continuous
 62
     7
370
     0
100
AcDbPolyline
 90
       19
 70
   128
 43
0.0
 10
225.5995565696
 20
39.8797088481
 10
226.0943579369
 20
41.8261230834
 10
226.7140812462
 20
43.7877846651
 10
227.453898049
 20
45.749402278
 10
228.3080408125
 20
47.6956865967
 10
229.2698503348
 20
49.6114654902
 10
230.3318310622
 20
51.4818072126
 10
231.4857050902
 20
53.2921306647
 10
232.722478018
 20
55.0283278225
 10
234.0325087539
 20
56.6768633511
 10
235.4055865654
 20
58.2248875264
 10
236.8310081286
 20
59.6603339475
 10
238.2976628097
 20
60.972012875
 10
239.7941187701
 20
62.1497020038
 10
241.3087107994
 20
63.1842199815
 10
242.8296333346
 20
64.0675029219
 10
244.3450309284
 20
64.7926657556
 10
245.8430915972
 20
65.3540576408
 10
246.6381299911
 20
65.5868375377
  0
LINE
  5
2B9
330
1F
100
AcDbEntity
  8
0
  6
Continuous
 62
     7
370
     0
100
AcDbLine
 10
225.9582822267
 20
39.5451980185
 30
0.0
 11
226.0384587035
 21
39.9091651454
 31
0.0
  0
LWPOLYLINE
  5
2BA
330
1F
100
AcDbEntity
  8
0
  6
Continuous
 62
     7
370
     0
100
AcDbPolyline
 90
        9
 70
   128
 43
0.0
 10
242.5314681919
 20
63.4209986028
 10
243.5420187129
 20
63.9560465424
 10
244.9856116593
 20
64.5988369274
 10
246.4098603547
 20
65.0889288444
 10
247.8043780705
 20
65.4227474764
 10
249.1589955623
 20
65.5978580149
 10
250.4638343333
 20
65.6129851402
 10
251.7093790739
 20
65.4680183372
 10
252.8865458212
 20
65.1640147412
  0
LWPOLYLINE
  5
2BB
330
1F
100
AcDbEntity
  8
0
  6
Continuous
 62
     7
370
     0
100
AcDbPolyline
 90
        3
 70
   128
 43
0.0
 10
258.7007266223
 20
47.741941153
 10
258.2390803368
 20
45.8658149127
 10
257.6752358462
 20
44.021699681
  0
LWPOLYLINE
  5
2BC
330
1F
100
AcDbEntity
  8
0
  6
Continuous
 62
     7
370
     0
100
AcDbPolyline
 90
       22
 70
   128
 43
0.0
 10
249.6810725261
 20
30.1804171795
 10
249.4395421081
 20
29.9101135364
 10
248.0801738762
 20
28.4842997845
 10
246.6780038733
 20
27.1715045303
 10
245.243473981
 20
25.9815078678
 10
243.7872679317
 20
24.923167902
 10
242.3202310323
 20
24.0043698442
 10
240.8532891588
 20
23.2319564341
 10
239.3973672714
 20
22.611679379
 10
237.9633082385
 20
22.1481570549
 10
236.5617924995
 20
21.8448433374
 10
235.2032579849
 20
21.7039965823
 10
233.897821914
 20
21.72666642
 10
232.6552070379
 20
21.9126831152
 10
231.4846678826
 20
22.2606606164
 10
230.3949216017
 20
22.7680098702
 10
229.3940840977
 20
23.4309490936
 10
228.4896100945
 20
24.2445444643
 10
227.6882338682
 20
25.2027337008
 10
226.9959257832
 20
26.2983823403
 10
226.4178396091
 20
27.5233301325
 10
225.9582822267
 20
28.8684541604
  0
ARC
  5
2BD
330
1F
100
AcDbEntity
  8
0
  6
Continuous
 62
     7
370
     0
100
AcDbCircle
 10
248.5205872196
 20
55.8528613579
 30
0.0
 40
10.5124970368469
100
AcDbArc
 50
14.4456939373
 51
47.0804331381
  0
LWPOLYLINE
  5
2BE
330
1F
100
AcDbEntity
  8
0
  6
Continuous
 62
     7
370
     0
100
AcDbPolyline
 90
       23
 70
   128
 43
0.0
 10
235.6154627244
 20
39.7817977242
 10
235.6780297211
 20
40.8741803515
 10
235.8645664042
 20
42.0184529387
 10
236.171596976
 20
43.1932993717
 10
236.5934019773
 20
44.3768341602
 10
237.1221253016
 20
45.5470116517
 10
237.7479164399
 20
46.6820323908
 10
238.459118496
 20
47.7607531809
 10
239.24248353
 20
48.763080033
 10
240.0834183603
 20
49.6703412454
 10
240.9662581886
 20
50.4656366198
 10
241.8745575534
 20
51.1341499137
 10
242.791396306
 20
51.6634296595
 10
243.6996956708
 20
52.04361649
 10
244.5825354991
 20
52.2676262848
 10
245.4234703294
 20
52.3312877609
 10
246.2068353634
 20
52.2334149252
 10
246.9180374195
 20
51.9758305507
 10
247.5438285579
 20
51.5633328806
 10
248.0725518821
 20
51.0036063454
 10
248.4943568834
 20
50.3070772453
 10
248.8013874552
 20
49.4867207649
 10
248.8945978449
 20
49.1091473264
  0
LWPOLYLINE
  5
2BF
330
1F
100
AcDbEntity
  8
0
  6
Continuous
 62
     7
370
     0
100
AcDbPolyline
 90
       11
 70
   128
 43
0.0
 10
240.8952478282
 20
35.2523651767
 10
240.0834183603
 20
35.0518459765
 10
239.24248353
 20
34.9881845004
 10
238.459118496
 20
35.0860573361
 10
237.7479164399
 20
35.3436417106
 10
237.1221253016
 20
35.7561393807
 10
236.5934019773
 20
36.3158659159
 10
236.171596976
 20
37.012395016
 10
235.8645664042
 20
37.8327514964
 10
235.6780297211
 20
38.7616534135
 10
235.6154627244
 20
39.7817977242
  0
LWPOLYLINE
  5
2C0
330
1F
100
AcDbEntity
  8
0
  6
Continuous
 62
     7
370
     0
100
AcDbPolyline
 90
       19
 70
   128
 43
0.0
 10
220.419999635
 20
42.8698034205
 10
220.9148010023
 20
44.8162176558
 10
221.5345243116
 20
46.7778792374
 10
222.2743411144
 20
48.7394968504
 10
223.128483878
 20
50.6857811691
 10
224.0902934002
 20
52.6015600626
 10
225.1522741276
 20
54.471901785
 10
226.3061481556
 20
56.2822252371
 10
227.5429210834
 20
58.0184223948
 10
228.8529518193
 20
59.6669579234
 10
230.2260296308
 20
61.2149820988
 10
231.651451194
 20
62.6504285199
 10
233.1181058751
 20
63.9621074474
 10
234.6145618356
 20
65.1397965762
 10
236.1291538648
 20
66.1743145539
 10
237.6500764
 20
67.0575974942
 10
239.1654739938
 20
67.782760328
 10
240.6635346626
 20
68.3441522132
 10
241.4586794115
 20
68.5769600471
  0
LWPOLYLINE
  5
2C1
330
1F
100
AcDbEntity
  8
0
  6
Continuous
 62
     7
370
     0
100
AcDbPolyline
 90
       19
 70
   128
 43
0.0
 10
223.6979674852
 20
41.8465774883
 10
224.1741504822
 20
43.7176236133
 10
224.7738540384
 20
45.6034643604
 10
225.4921258991
 20
47.488523633
 10
226.3230338953
 20
49.3572330309
 10
227.2597146763
 20
51.1941588432
 10
228.2944323196
 20
52.9841286602
 10
229.4186408931
 20
54.7123587442
 10
230.623055578
 20
56.3645779793
 10
231.8977290592
 20
57.9271366097
 10
233.2321325274
 20
59.3871305681
 10
234.6152462279
 20
60.7325024186
 10
236.03564606
 20
61.9521400185
 10
237.4816010409
 20
63.0359708068
 10
238.9411686307
 20
63.9750426892
 10
240.4022939252
 20
64.7615980319
 10
241.8529093433
 20
65.3891433762
 10
243.281034067
 20
65.8524946777
 10
243.7138440056
 20
65.9613409449
  0
LINE
  5
2C2
330
1F
100
AcDbEntity
  8
0
  6
Continuous
 62
     7
370
     0
100
AcDbLine
 10
234.9184937908
 20
59.8292242363
 30
0.0
 11
235.2787206001
 21
60.1677122021
 31
0.0
  0
LWPOLYLINE
  5
2C3
330
1F
100
AcDbEntity
  8
0
  6
Continuous
 62
     7
370
     0
100
AcDbPolyline
 90
       21
 70
   128
 43
0.0
 10
223.1204996843
 20
41.8397758731
 10
223.5952378347
 20
43.7329987524
 10
224.1947082661
 20
45.6420815488
 10
224.9140061392
 20
47.5514093773
 10
225.7472493342
 20
49.4453689659
 10
226.6876245498
 20
51.3084710853
 10
227.7274399862
 20
53.1254775413
 10
228.858191858
 20
54.8815308276
 10
230.0706342003
 20
56.5622689493
 10
231.3548499916
 20
58.1539455689
 10
232.7003374223
 20
59.6435444483
 10
234.0960928725
 20
61.0188836242
 10
235.5307014608
 20
62.2687148304
 10
236.992430723
 20
63.3828186416
 10
238.4693263886
 20
64.3520795363
 10
239.9493102988
 20
65.1685743632
 10
241.420278858
 20
65.8256261344
 10
242.8702023928
 20
66.3178583414
 10
244.2872229037
 20
66.6412468244
 10
245.6597518183
 20
66.7931473055
 10
246.9599629971
 20
66.773687872
  0
LWPOLYLINE
  5
2C4
330
1F
100
AcDbEntity
  8
0
  6
Continuous
 62
     7
370
     0
100
AcDbPolyline
 90
        3
 70
   128
 43
0.0
 10
224.169623565
 20
39.7672725222
 10
224.1691718034
 20
39.8889514395
 10
224.1814365363
 20
40.5313948525
  0
LWPOLYLINE
  5
2C5
330
1F
100
AcDbEntity
  8
0
  6
Continuous
 62
     7
370
     0
100
AcDbPolyline
 90
       18
 70
   128
 43
0.0
 10
193.084217833
 20
63.7802579388
 10
193.1484384349
 20
64.9251505638
 10
193.3399550316
 20
66.123760609
 10
193.6553491186
 20
67.3546981902
 10
194.0889927746
 20
68.5959975796
 10
194.633147443
 20
69.8255074094
 10
195.2781032143
 20
71.0212871452
 10
196.0123507062
 20
72.1619985176
 10
196.8227868586
 20
73.227285925
 10
197.6949497048
 20
74.1981378213
 10
198.6132755332
 20
75.057230231
 10
199.561376546
 20
75.7892326668
 10
200.5223340558
 20
76.3810823321
 10
201.4789997075
 20
76.8222173291
 10
202.4143017431
 20
77.1047663894
 10
203.3115497021
 20
77.2236867505
 10
204.1547319802
 20
77.1768560846
 10
204.8188448112
 20
77.0068422899
  0
ARC
  5
2C6
330
1F
100
AcDbEntity
  8
0
  6
Continuous
 62
     7
370
     0
100
AcDbCircle
 10
198.482407935
 20
63.3342425428
 30
0.0
 40
5.416584358380379
100
AcDbArc
 50
175.2767713463
 51
224.7160200039
  0
LINE
  5
2C7
330
1F
100
AcDbEntity
  8
0
  6
Continuous
 62
     7
370
     0
100
AcDbLine
 10
229.8525417107
 20
40.8846682214
 30
0.0
 11
229.1453202269
 21
41.2929384938
 31
0.0
  0
LINE
  5
2C8
330
1F
100
AcDbEntity
  8
0
  6
Continuous
 62
     7
370
     0
100
AcDbLine
 10
224.309380539
 20
35.2251990836
 30
0.0
 11
229.8525417107
 21
32.0252002531
 31
0.0
  0
LINE
  5
2C9
330
1F
100
AcDbEntity
  8
0
  6
Continuous
 62
     7
370
     0
100
AcDbLine
 10
224.248720358
 20
35.1901693227
 30
0.0
 11
224.309380539
 21
35.2251990836
 31
0.0
  0
LINE
  5
2CA
330
1F
100
AcDbEntity
  8
0
  6
Continuous
 62
     7
370
     0
100
AcDbLine
 10
225.6261354259
 20
28.5220660767
 30
0.0
 11
225.5995565696
 21
28.6096130587
 31
0.0
  0
LINE
  5
2CB
330
1F
100
AcDbEntity
  8
0
  6
Continuous
 62
     7
370
     0
100
AcDbLine
 10
229.1454348136
 20
30.8004555648
 30
0.0
 11
223.8951668271
 21
33.8313707585
 31
0.0
  0
LINE
  5
2CC
330
1F
100
AcDbEntity
  8
0
  6
Continuous
 62
     7
370
     0
100
AcDbLine
 10
224.5660578922
 20
30.6329984118
 30
0.0
 11
224.482856062
 21
30.9009218583
 31
0.0
  0
LWPOLYLINE
  5
2CD
330
1F
100
AcDbEntity
  8
0
  6
Continuous
 62
     7
370
     0
100
AcDbPolyline
 90
        3
 70
   128
 43
0.0
 10
224.1693207168
 20
30.0440746629
 10
224.1604066583
 20
30.0650300543
 10
223.6979674852
 20
31.354028389
  0
ARC
  5
2CE
330
1F
100
AcDbEntity
  8
0
  6
Continuous
 62
     7
370
     0
100
AcDbCircle
 10
233.8591416341
 20
34.3550446103
 30
0.0
 40
11.15192355892274
100
AcDbArc
 50
195.6471844777
 51
214.1548056384
  0
LINE
  5
2CF
330
1F
100
AcDbEntity
  8
0
  6
Continuous
 62
     7
370
     0
100
AcDbLine
 10
220.4534997941
 20
31.4896917433
 30
0.0
 11
220.419999635
 21
31.5997076311
 31
0.0
  0
LINE
  5
2D0
330
1F
100
AcDbEntity
  8
0
  6
Continuous
 62
     7
370
     0
100
AcDbLine
 10
255.5912296038
 20
46.8836961791
 30
0.0
 11
256.2983365009
 21
46.4754920563
 31
0.0
  0
ARC
  5
2D1
330
1F
100
AcDbEntity
  8
0
  6
Continuous
 62
     7
370
     0
100
AcDbCircle
 10
269.2277996654
 20
30.1984099926
 30
0.0
 40
0.7160945907017358
100
AcDbArc
 50
290.5325749852
 51
6.7165525461
  0
OLE2FRAME
  5
2D2
330
1F
100
AcDbEntity
  8
0
100
AcDbOle2Frame
 70
     2
  3
Paintbrush-Bild
 10
13.8511154363
 20
38.264191557
 30
0.0
 11
51.6290888628
 21
31.9806341108
 31
0.0
 71
     2
 72
     0
 73
     1
 90
    12928
310
80552BED0767C5B32B40DDAF6807D121434000000000000000006FFBDDFB85D0
310
4940DDAF6807D121434000000000000000006FFBDDFB85D04940416F4BD60AFB
310
3F4000000000000000002BED0767C5B32B40416F4BD60AFB3F40000000000000
310
0000000000000100000000010000010000000100000000000100000000320000
310
D0CF11E0A1B11AE1000000000000000000000000000000003E000300FEFF0900
310
0600000000000000000000000100000001000000000000000010000002000000
310
01000000FEFFFFFF0000000000000000FFFFFFFFFFFFFFFFFFFFFFFFFFFFFFFF
310
FFFFFFFFFFFFFFFFFFFFFFFFFFFFFFFFFFFFFFFFFFFFFFFFFFFFFFFFFFFFFFFF
310
FFFFFFFFFFFFFFFFFFFFFFFFFFFFFFFFFFFFFFFFFFFFFFFFFFFFFFFFFFFFFFFF
310
FFFFFFFFFFFFFFFFFFFFFFFFFFFFFFFFFFFFFFFFFFFFFFFFFFFFFFFFFFFFFFFF
310
FFFFFFFFFFFFFFFFFFFFFFFFFFFFFFFFFFFFFFFFFFFFFFFFFFFFFFFFFFFFFFFF
310
FFFFFFFFFFFFFFFFFFFFFFFFFFFFFFFFFFFFFFFFFFFFFFFFFFFFFFFFFFFFFFFF
310
FFFFFFFFFFFFFFFFFFFFFFFFFFFFFFFFFFFFFFFFFFFFFFFFFFFFFFFFFFFFFFFF
310
FFFFFFFFFFFFFFFFFFFFFFFFFFFFFFFFFFFFFFFFFFFFFFFFFFFFFFFFFFFFFFFF
310
FFFFFFFFFFFFFFFFFFFFFFFFFFFFFFFFFFFFFFFFFFFFFFFFFFFFFFFFFFFFFFFF
310
FFFFFFFFFFFFFFFFFFFFFFFFFFFFFFFFFFFFFFFFFFFFFFFFFFFFFFFFFFFFFFFF
310
FFFFFFFFFFFFFFFFFFFFFFFFFFFFFFFFFFFFFFFFFFFFFFFFFFFFFFFFFFFFFFFF
310
FFFFFFFFFFFFFFFFFFFFFFFFFFFFFFFFFFFFFFFFFFFFFFFFFFFFFFFFFFFFFFFF
310
FFFFFFFFFFFFFFFFFFFFFFFFFFFFFFFFFFFFFFFFFFFFFFFFFFFFFFFFFFFFFFFF
310
FFFFFFFFFFFFFFFFFFFFFFFFFFFFFFFFFFFFFFFFFFFFFFFFFFFFFFFFFFFFFFFF
310
FDFFFFFFFEFFFFFFFEFFFFFFFEFFFFFF05000000060000000700000008000000
310
090000000A0000000B0000000C0000000D0000000E0000000F00000010000000
310
11000000120000001300000014000000150000001600000017000000FEFFFFFF
310
FFFFFFFFFFFFFFFFFFFFFFFFFFFFFFFFFFFFFFFFFFFFFFFFFFFFFFFFFFFFFFFF
310
FFFFFFFFFFFFFFFFFFFFFFFFFFFFFFFFFFFFFFFFFFFFFFFFFFFFFFFFFFFFFFFF
310
FFFFFFFFFFFFFFFFFFFFFFFFFFFFFFFFFFFFFFFFFFFFFFFFFFFFFFFFFFFFFFFF
310
FFFFFFFFFFFFFFFFFFFFFFFFFFFFFFFFFFFFFFFFFFFFFFFFFFFFFFFFFFFFFFFF
310
FFFFFFFFFFFFFFFFFFFFFFFFFFFFFFFFFFFFFFFFFFFFFFFFFFFFFFFFFFFFFFFF
310
FFFFFFFFFFFFFFFFFFFFFFFFFFFFFFFFFFFFFFFFFFFFFFFFFFFFFFFFFFFFFFFF
310
FFFFFFFFFFFFFFFFFFFFFFFFFFFFFFFFFFFFFFFFFFFFFFFFFFFFFFFFFFFFFFFF
310
FFFFFFFFFFFFFFFFFFFFFFFFFFFFFFFFFFFFFFFFFFFFFFFFFFFFFFFFFFFFFFFF
310
FFFFFFFFFFFFFFFFFFFFFFFFFFFFFFFFFFFFFFFFFFFFFFFFFFFFFFFFFFFFFFFF
310
FFFFFFFFFFFFFFFFFFFFFFFFFFFFFFFFFFFFFFFFFFFFFFFFFFFFFFFFFFFFFFFF
310
FFFFFFFFFFFFFFFFFFFFFFFFFFFFFFFFFFFFFFFFFFFFFFFFFFFFFFFFFFFFFFFF
310
FFFFFFFFFFFFFFFFFFFFFFFFFFFFFFFFFFFFFFFFFFFFFFFFFFFFFFFFFFFFFFFF
310
FFFFFFFFFFFFFFFFFFFFFFFFFFFFFFFFFFFFFFFFFFFFFFFFFFFFFFFFFFFFFFFF
310
52006F006F007400200045006E00740072007900000000000000000000000000
310
0000000000000000000000000000000000000000000000000000000000000000
310
16000500FFFFFFFFFFFFFFFF020000000A00030000000000C000000000000046
310
000000000000000000000000B042D34A9224D20103000000C000000000000000
310
01004F006C006500000000000000000000000000000000000000000000000000
310
0000000000000000000000000000000000000000000000000000000000000000
310
0A000200FFFFFFFFFFFFFFFFFFFFFFFF00000000000000000000000000000000
310
0000000000000000000000000000000000000000000000001400000000000000
310
010043006F006D0070004F0062006A0000000000000000000000000000000000
310
0000000000000000000000000000000000000000000000000000000000000000
310
120002010100000003000000FFFFFFFF00000000000000000000000000000000
310
0000000000000000000000000000000000000000010000004D00000000000000
310
01004F006C006500310030004E00610074006900760065000000000000000000
310
0000000000000000000000000000000000000000000000000000000000000000
310
1A000200FFFFFFFFFFFFFFFFFFFFFFFF00000000000000000000000000000000
310
0000000000000000000000000000000000000000040000002426000000000000
310
FEFFFFFF02000000FEFFFFFFFFFFFFFFFFFFFFFFFFFFFFFFFFFFFFFFFFFFFFFF
310
FFFFFFFFFFFFFFFFFFFFFFFFFFFFFFFFFFFFFFFFFFFFFFFFFFFFFFFFFFFFFFFF
310
FFFFFFFFFFFFFFFFFFFFFFFFFFFFFFFFFFFFFFFFFFFFFFFFFFFFFFFFFFFFFFFF
310
FFFFFFFFFFFFFFFFFFFFFFFFFFFFFFFFFFFFFFFFFFFFFFFFFFFFFFFFFFFFFFFF
310
FFFFFFFFFFFFFFFFFFFFFFFFFFFFFFFFFFFFFFFFFFFFFFFFFFFFFFFFFFFFFFFF
310
FFFFFFFFFFFFFFFFFFFFFFFFFFFFFFFFFFFFFFFFFFFFFFFFFFFFFFFFFFFFFFFF
310
FFFFFFFFFFFFFFFFFFFFFFFFFFFFFFFFFFFFFFFFFFFFFFFFFFFFFFFFFFFFFFFF
310
FFFFFFFFFFFFFFFFFFFFFFFFFFFFFFFFFFFFFFFFFFFFFFFFFFFFFFFFFFFFFFFF
310
FFFFFFFFFFFFFFFFFFFFFFFFFFFFFFFFFFFFFFFFFFFFFFFFFFFFFFFFFFFFFFFF
310
FFFFFFFFFFFFFFFFFFFFFFFFFFFFFFFFFFFFFFFFFFFFFFFFFFFFFFFFFFFFFFFF
310
FFFFFFFFFFFFFFFFFFFFFFFFFFFFFFFFFFFFFFFFFFFFFFFFFFFFFFFFFFFFFFFF
310
FFFFFFFFFFFFFFFFFFFFFFFFFFFFFFFFFFFFFFFFFFFFFFFFFFFFFFFFFFFFFFFF
310
FFFFFFFFFFFFFFFFFFFFFFFFFFFFFFFFFFFFFFFFFFFFFFFFFFFFFFFFFFFFFFFF
310
FFFFFFFFFFFFFFFFFFFFFFFFFFFFFFFFFFFFFFFFFFFFFFFFFFFFFFFFFFFFFFFF
310
FFFFFFFFFFFFFFFFFFFFFFFFFFFFFFFFFFFFFFFFFFFFFFFFFFFFFFFFFFFFFFFF
310
FFFFFFFFFFFFFFFFFFFFFFFFFFFFFFFFFFFFFFFFFFFFFFFFFFFFFFFFFFFFFFFF
310
0100000200000000000000000000000000000000000000000000000000000000
310
0000000000000000000000000000000000000000000000000000000000000000
310
0100FEFF030A0000FFFFFFFF0A00030000000000C00000000000004607000000
310
5042727573680007000000504272757368000700000050427275736800F439B2
310
7100000000000000000000000000000000000000000000000000000000000000
310
0000000000000000000000000000000000000000000000000000000000000000
310
0000000000000000000000000000000000000000000000000000000000000000
310
0000000000000000000000000000000000000000000000000000000000000000
310
0000000000000000000000000000000000000000000000000000000000000000
310
0000000000000000000000000000000000000000000000000000000000000000
310
0000000000000000000000000000000000000000000000000000000000000000
310
0000000000000000000000000000000000000000000000000000000000000000
310
0000000000000000000000000000000000000000000000000000000000000000
310
0000000000000000000000000000000000000000000000000000000000000000
310
0000000000000000000000000000000000000000000000000000000000000000
310
0000000000000000000000000000000000000000000000000000000000000000
310
20260000424D0E260000000000003E00000028000000B40200006E0000000100
310
01000000000000000000130B0000130B00000200000002000000000000FFFFFF
310
FFFFFFFFFFFFFFFFFFFFFFFFFFFFFFFFFFFFFFFFFFFFFFFFFFFFFFFFFFFFFFFF
310
FFFFFFFFFFFFFFFFFFFFFFFFFFFFFFFFFFFFFFFFFFFFFFFFFFFFFFFFFFFFFFFF
310
FFFFFFFFFFFFFFFFFFFFFFFFFFFFFFFFFFFFFFFFFFFFFFFFF000FFFFFFFFFFFF
310
FFFFFFFFFFFFFFFFFFFFFFFFFFFFFFFFFFFFFFFFFFFFFFFFFFFFFFFFFFFFFFFF
310
FFFFFFFFFFFFFFFFFFFFFFFFFFFFFFFFFFFFFFFFFFFFFFFFFFFFFFFFFFFFFFFF
310
FFFFFFFFFFFFFFFFFFFFFFFFFFFFFFFFF000FFFFFFFFFFFFFFFFFFFFFFFFFFFF
310
FFFFFFFFFFFFFFFFFFFFFFFFFFFFFFFFFFFFFFFFFFFFFFFFFFFFFFFFFFFFFFFF
310
FFFFFFFFFFFFFFFFFFFFFFFFFFFFFFFFFFFFFFFFFFFFFFFFFFFFFFFFFFFFFFFF
310
FFFFFFFFFFFFFFFFF000FFFFFFFFFFFFFFFFFFFFFFFFFFFFFFFFFFFFFFFFFFFF
310
FFFFFFFFFFFFFFFFFFFFFFFFFFFFFFFFFFFFFFFFFFFFFFFFFFFFFFFFFFFFFFFF
310
FFFFFFFFFFFFFFFFFFFFFFFFFFFFFFFFFFFFFFFFFFFFFFFFFFFFFFFFFFFFFFFF
310
F000FFFFFFFFFFFFFFFFFFFFFFFFFFFFFFFFFFFFFFFFFFFFFFFFFFFFFFFFFFFF
310
FFFFFFFFFFFFFFFFFFFFFFFFFFFFFFFFFFFFFFFFFFFFFFFFFFFFFFFFFFFFFFFF
310
FFFFFFFFFFFFFFFFFFFFFFFFFFFFFFFFFFFFFFFFFFFFFFFFF000FFFFFFFFFFFF
310
FFFFFFFFFFFFFFFFFFFFFFFFFFFFFFFFFFFFFFFFFFFFFFFFFFFFFFFFFFFFFFFF
310
FFFFFFFFFFFFFFFFFFFFFFFFFFFFFFFFFFFFFFFFFFFFFFFFFFFFFFFFFFFFFFFF
310
FFFFFFFFFFFFFFFFFFFFFFFFFFFFFFFFF000FFFFFFFFFFFFFFFFFFFFFFFFFFFF
310
FFFFFFFFFFFFFFFFFFFFFFFFFFFFFFFFFFFFFFFFFFFFFFFFFFFFFFFFFFFFFFFF
310
FFFFFFFFFFFFFFFFFFFFFFFFFFFFFFFFFFFFFFFFFFFFFFFFFFFFFFFFFFFFFFFF
310
FFFFFFFFFFFFFFFFF000FFFFFFFFFFFFFFFFFFFFFFFFFFFFFFFFFFFFFFFFFFFF
310
FFFFFFFFFFFFFFFFFFFFFFFFFFFFFFFFFFFFFFFFFFFFFFFFFFFFFFFFFFFFFFFF
310
FFFFFFFFFFFFFFFFFFFFFFFFFFFFFFFFFFFFFFFFFFFFFFFFFFFFFFFFFFFFFFFF
310
F000FFFFFFFFFFFFFFFFFFFFFFFFFFFFFFFFFFFFFFFFFFFFFFFFFFFFFFFFFFFF
310
FFFFFFFFFFFFFFFFFFFFFFFFFFFFFFFFFFFFFFFFFFFFFFFFFFFFFFFFFFFFFFFF
310
FFFFFFFFFFFFFFFFFFFFFFFFFFFFFFFFFFFFFFFFFFFFFFFFF000FFFFFFFFFFFF
310
FFFFFFFFFFFFFFFFFFFFFFFFFFFFFFFFFFFFFFFFFFFFFFFFFFFFFFFFFFFFFFFF
310
FFFFFFFFFFFFFFFFFFFFFFFFFFFFFFFFFFFFFFFFFFFFFFFFFFFFFFFFFFFFFFFF
310
FFFFFFFFFFFFFFFFFFFFFFFFFFFFFFFFF000FFFFFFFFFFFFFFFFFFFFFFFFFFFF
310
FFFFFFFFFFFFFFFFFFFFFFFFFFFFFFFFFFFFFFFFFFFFFFFFFFFFFFFFFFFFFFFF
310
FFFFFFFFFFFFFFFFFFFFFFFFFFFFFFFFFFFFFFFFFFFFFFFFFFFFFFFFFFFFFFFF
310
FFFFFFFFFFFFFFFFF000FFFFFFFFFFFFFFFFFFFFFFFFFFFFFFFFFFFFFFFFFFFF
310
FFFFFFFFFFFFFFFFFFFFFFFFFFFFFFFFFFFFFFFFFFFFFFFFFFFFFFFFFFFFFFFF
310
FFFFFFFFFFFFFFFFFFFFFFFFFFFFFFFFFFFFFFFFFFFFFFFFFFFFFFFFFFFFFFFF
310
F000FFFFFFFFFFFFFFFFFFFFFFFFFFFFFFFFFFFFFFFFFFFFFFFFFFFFFFFFFFFF
310
FFFFFFFFFFFFFFFFFFFFFFFFFFFFFFFFFFFFFFFFFFFFFFFFFFFFFFFFFFFFFFFF
310
FFFFFFFFFFFFFFFFFFFFFFFFFFFFFFFFFFFFFFFFFFFFFFFFF000FFFFFFFFFFFF
310
FFFFFFFFFFFFFFFFFFFFFFFFFFFFFFFFFFFFFFFFFFFFFFFFFFFFFFFFFFFFFFFF
310
FFFFFFFFFFFFFFFFFFFFFFFFFFFFFFFFFFFFFFFFFFFFFFFFFFFFFFFFFFFFFFFF
310
FFFFFFFFFFFFFFFFFFFFFFFFFFFFFFFFF000FFFFFFFFFFFFFFFFFFFFFFFFFFFF
310
FFFFFFFFFFFFFFFFFFFFFFFFFFFFFFFFFFFFFFFFFFFFFFFFFFFFFFFFFFFFFFFF
310
FFFFFFFFFFFFFFFFFFFFFFFFFFFFFFFFFFFFFFFFFFFFFFFFFFFFFFFFFFFFFFFF
310
FFFFFFFFFFFFFFFFF000FFFFFFFFFFFFFFFFFFFFFFFFFFFFFFFFFFFFFFFFFFFF
310
FFFFFFFFFFFFFFFFFFFFFFFFFFFFFFFFFFFFFFFFFFFFFFFFFFFFFFFFFFFFFFFF
310
FFFFFFFFFFFFFFFFFFFFFFFFFFFFFFFFFFFFFFFFFFFFFFFFFFFFFFFFFFFFFFFF
310
F000FFFFFFFFFFFFFFFFFFFFFFFFFFFFFFFFFFFFFFFFFFFFFFFFFFFFFFFFFFFF
310
FFFFFFFFFFFFFFFFFFFFFFFFFFFFFFFFFFFFFFFFFFFFFFFFFFFFFFFFFFFFFFFF
310
FFFFFFFFFFFFFFFFFFFFFFFFFFFFFFFFFFFFFFFFFFFFFFFFF000FFFFFFFFFFFF
310
FFFFFFFFFFFFFFFFFFFFFFFFFFFFFFFFFFFFFFFFFFFFFFFFFFFFFFFFFFFFFFFF
310
FFFFFFFFFFFFFFFFFFFFFFFFFFFFFFFFFFFFFFFFFFFFFFFFFFFFFFFFFFFFFFFF
310
FFFFFFFFFFFFFFFFFFFFFFFFFFFFFFFFF000FFFFFFFFFFFFFFFFFFFFFFFFFFFF
310
FFFFFFFFFFFFFFFFFFFFFFFFFFFFFFFFFFFFFFFFFFFFFFFFFFFFFFFFFFFFFFFF
310
FFFFFFFFFFFFFFFFFFFFFFFFFFFFFFFFFFFFFFFFFFFFFFFFFFFFFFFFFFFFFFFF
310
FFFFFFFFFFFFFFFFF000FFFFF80003FFFFFFFFFFFFFFFFFFFFFFFFFFFFFFFFFF
310
FFFFF00007FFFFFFFFFF00007FFFFFF800000000000000007FFFFFFFFFFFFFFF
310
FFFFFFFC001FFFFFFFFFFFFFFC001FFFFFFFFFFFFFFFFFFFFFFFFFFE0007FFFF
310
F000FFFF8000007FFFFFFFF8000FFFFFC0007FFFFF80007FFFFF0000007FFFFF
310
FFF8000007FFFFF800000000000000007FFFFFF0001FFFFFFFFFFFC00001FFFF
310
FFFFFFFFC00001FFFFFFFF000000000003FFFFE000007FFFF000FFFE0000000F
310
FFFFFFF0000FFFFF80007FFFFF80007FFFFC0000001FFFFFFFC0000001FFFFF8
310
00000000000000007FFFFFF0001FFFFFFFFFFE0000003FFFFFFFFFFE0000003F
310
FFFFFF000000000003FFFF0000000FFFF000FFF800000003FFFFFFF00007FFFF
310
80007FFFFF80007FFFF000000007FFFFFF000000003FFFF80000000000000000
310
7FFFFFF0001FFFFFFFFFF80000000FFFFFFFFFF80000000FFFFFFF0000000000
310
03FFFC00000003FFF000FFE000000000FFFFFFF00007FFFF80003FFFFF80007F
310
FFC000000001FFFFFC000000001FFFF800000000000000007FFFFFF0001FFFFF
310
FFFFE000000003FFFFFFFFE000000003FFFFFF000000000003FFF000000000FF
310
F000FF80000000007FFFFFF00007FFFF80003FFFFF80007FFF8000000000FFFF
310
F80000000007FFF800000000000000007FFFFFF0001FFFFFFFFFC000000001FF
310
FFFFFFC000000001FFFFFF000000000003FFC0000000007FF000FF0000000000
310
3FFFFFE00007FFFF00003FFFFF80007FFE00000000003FFFF00000000003FFF8
310
00000000000000007FFFFFF0001FFFFFFFFF8000000000FFFFFFFF8000000000
310
FFFFFF000000000003FF80000000003FF000FE00000000001FFFFFE00003FFFF
310
00003FFFFF80007FFC00000000001FFFE00000000001FFF8000001FFFE000000
310
7FFFFFF0001FFFFFFFFE00000000003FFFFFFE00000000003FFFFF0000000000
310
03FF00000000001FF000FC00000000000FFFFFE00003FFFF00001FFFFF80007F
310
F800000000001FFFC00000000000FFF8000001FFFE0000007FFFFFF0001FFFFF
310
FFFC00000000001FFFFFFC00000000001FFFFF000000000003FE00000000000F
310
F000F8000000000007FFFFE00003FFFF00001FFFFF80007FF800000000000FFF
310
800000000000FFF8000001FFFE0000007FFFFFF0001FFFFFFFF800000000000F
310
FFFFF800000000000FFFFF000000000003FC000000000007F000F80000000000
310
03FFFFC00003FFFE00001FFFFF80007FF0000000000007FF0000000000007FF8
310
000001FFFE0000007FFFFFF0001FFFFFFFF0000000000007FFFFF00000000000
310
07FFFF000000000003F8000000000003F000F0000000000003FFFFC00001FFFE
310
00001FFFFF80007FE0000000000007FE0000000000003FF8000001FFFE000000
310
7FFFFFF0001FFFFFFFF0000000000007FFFFF0000000000007FFFF0000000000
310
03F800001F800003F000E00001FFF00001FFFFC00001FFFE00000FFFFF80007F
310
E00001FFE00003FE00001FFF00003FF8000001FFFE0000007FFFFFF0001FFFFF
310
FFE000003E000003FFFFE000003E000003FFFF000000000003F00001FFF80001
310
F000E00007FFFC0001FFFFC00001FFFE00000FFFFF80007FC0000FFFFC0003FC
310
0000FFFFC0001FF8000001FFFE0000007FFFFFF0001FFFFFFFC00003FFE00001
310
FFFFC00003FFE00001FFFF0001FFFFFFFFF00007FFFE0001F000E0000FFFFF00
310
00FFFF800001FFFC00000FFFFF80007FC0001FFFFE0001FC0001FFFFE0001FF8
310
000001FFFE0000007FFFFFF0001FFFFFFF80000FFFF80000FFFF80000FFFF800
310
00FFFF0003FFFFFFFFE0000FFFFF8000F000C0003FFFFF8000FFFF800000FFFC
310
000007FFFF80007F80003FFFFF0001FC0003FFFFF0001FF8000001FFFE000000
310
7FFFFFF0001FFFFFFF80003FFFFE0000FFFF80003FFFFE0000FFFF0003FFFFFF
310
FFE0003FFFFF8000F000C0003FFFFF8000FFFF800000FFFC000007FFFF80007F
310
80007FFFFF8001F80007FFFFF8000FF8000001FFFE0000007FFFFFF0001FFFFF
310
FF00007FFFFF00007FFF00007FFFFF00007FFF0003FFFFFFFFE0003FFFFFC000
310
F000C0007FFFFFC000FFFF000000FFFC000007FFFF80007F8000FFFFFF8000F8
310
000FFFFFF8000FF8000001FFFE0000007FFFFFF0001FFFFFFF0000FFFFFF8000
310
7FFF0000FFFFFF80007FFF0003FFFFFFFFC0007FFFFFC00070008000FFFFFFC0
310
00FFFF000000FFF8000007FFFF80007F8000FFFFFF8000F8000FFFFFF8000FF8
310
000001FFFE0000007FFFFFF0001FFFFFFE0001FFFFFFC0003FFE0001FFFFFFC0
310
003FFF0003FFFFFFFFC0007FFFFFE00070008000FFFFFFC0007FFF0000007FF8
310
000003FFFF80007F0001FFFFFF8000F8000FFFFFF8000FF8000001FFFE000000
310
7FFFFFF0001FFFFFFE0001FFFFFFC0003FFE0001FFFFFFC0003FFF0003FFFFFF
310
FFC000FFFFFFE00070008000FFFFFFC0007FFF0000007FF8000003FFFF80007F
310
0001FFFFFF8000F8001FFFFFF8000FF8000001FFFE0000007FFFFFF0001FFFFF
310
FE0003FFFFFFE0003FFE0003FFFFFFE0003FFF0003FFFFFFFFC000FFFFFFE000
310
70008000FFFFFFC0007FFE0000007FF8000003FFFF80007F0001FFFFFF8000F0
310
001FFFFFF8000FF8000001FFFE0000007FFFFFF0001FFFFFFC0003FFFFFFE000
310
1FFC0003FFFFFFE0001FFF0003FFFFFFFFC000FFFFFFC00070008000FFFFFF80
310
007FFE0000007FF0000003FFFF80007F0001FFFFFF0000F0001FFFFFF8000FF8
310
000001FFFE0000007FFFFFF0001FFFFFFC0007FFFFFFF0001FFC0007FFFFFFF0
310
001FFF0003FFFFFFFFC000FFFFFFC00070008001FFFFFF0000FFFE0000003FF0
310
000001FFFF80007F0001FFFFFF0000F8001FFFFFF0000FF8000001FFFE000000
310
7FFFFFF0001FFFFFFC0007FFFFFFF0001FFC0007FFFFFFF0001FFF0003FFFFFF
310
FFC001FFFFFF80007000FFFFFFFFFE0000FFFE0008003FF0008001FFFF80007F
310
FFFFFFFFFC0000FFFFFFFFFFE0000FF8000001FFFE0000007FFFFFF0001FFFFF
310
F8000FFFFFFFF8000FF8000FFFFFFFF8000FFF0003FFFFFFFFFFFFFFFFFF0000
310
7000FFFFFFFFFC0000FFFC0008003FF0008001FFFF80007FFFFFFFFFF80001FF
310
FFFFFFFF80000FF8000001FFFE0000007FFFFFF0001FFFFFF8000FFFFFFFF800
310
0FF8000FFFFFFFF8000FFF0003FFFFFFFFFFFFFFFFFE0000F000FFFFFFFFE000
310
00FFFC000C003FE000C001FFFF80007FFFFFFFFFC00001FFFFFFFFFE00001FF8
310
000001FFFE0000007FFFFFF0001FFFFFF8000FFFFFFFF8000FF8000FFFFFFFF8
310
000FFF0003FFFFFFFFFFFFFFFFF00000F000FFFFFFFE000001FFFC000C001FE0
310
00C000FFFF80007FFFFFFFFE000001FFFFFFFFE000001FF80FFFFFFFFFFFFFC0
310
7FFFFFF0001FFFFFF8000FFFFFFFF8000FF8000FFFFFFFF8000FFF0003FFFFFF
310
FFFFFFFFFF800000F000FFFFFFC0000001FFFC001C001FE001C000FFFF80007F
310
FFFFFF80000003FFFFFFF80000001FF80FFFFFFFFFFFFFC07FFFFFF0001FFFFF
310
F8001FFFFFFFFC000FF8001FFFFFFFFC000FFF0003FFFFFFFFFFFFFFF0000001
310
F000FFFFF800000001FFF8001C001FE001C000FFFF80007FFFFFF800000003FF
310
FFFF800000003FF80FFFFFFFFFFFFFC07FFFFFF0001FFFFFF8001FFFFFFFFC00
310
0FF8001FFFFFFFFC000FFF0003FFFFFFFFFFFFFE00000001F000FFFFC0000000
310
03FFF8001E001FC001E000FFFF80007FFFFF8000000007FFFFFC000000003FF8
310
0FFFFFFFFFFFFFC07FFFFFF0001FFFFFF8001FFFFFFFFC000FF8001FFFFFFFFC
310
000FFF0003FFFFFFFFFFFFE000000003F000FFFE0000000007FFF8001E000FC0
310
01E0007FFF80007FFFFE0000000007FFFFE0000000007FF80FFFFFFFFFFFFFC0
310
7FFFFFF0001FFFFFF0001FFFFFFFFC0007F0001FFFFFFFFC0007FF0003FFFFFF
310
FFFFFF0000000003F000FFF80000000007FFF8001E000FC003E0007FFF80007F
310
FFF0000000000FFFFF8000000000FFF80FFFFFFFFFFFFFC07FFFFFF0001FFFFF
310
F0001FFFFFFFFC0007F0001FFFFFFFFC0007FF0003FFFFFFFFFFFC0000000007
310
F000FFE0000000000FFFF0003E000FC003E0007FFF80007FFFC0000000001FFF
310
FE0000000001FFF80FFFFFFFFFFFFFC07FFFFFF0001FFFFFF0001FFFFFFFFC00
310
07F0001FFFFFFFFC0007FF0003FFFFFFFFFFF0000000000FF000FFC000000000
310
1FFFF0003F000F8003F0003FFF80007FFF80000000003FFFF80000000003FFF8
310
0FFFFFFFFFFFFFC07FFFFFF0001FFFFFF0001FFFFFFFFC0007F0001FFFFFFFFC
310
0007FF0003FFFFFFFFFFE0000000001FF000FF00000000007FFFF0003F000780
310
03F0003FFF80007FFF00000000007FFFF00000000007FFF80FFFFFFFFFFFFFC0
310
7FFFFFF0001FFFFFF0001FFFFFFFFC0007F0001FFFFFFFFC0007FF0003FFFFFF
310
FFFF80000000007FF000FE0000000000FFFFE0003F00078007F0003FFF80007F
310
FE0000000001FFFFE0000000001FFFF80FFFFFFFFFFFFFC07FFFFFF0001FFFFF
310
F0001FFFFFFFFC0007F0001FFFFFFFFC0007FF0003FFFFFFFFFF0000000000FF
310
F000FC0000000003FFFFE0007F00078007F0003FFF80007FFC0000000007FFFF
310
C0000000007FFFF80FFFFFFFFFFFFFC07FFFFFF0001FFFFFF8001FFFFFFFFC00
310
0FF8001FFFFFFFFC000FFF0003FFFFFFFFFE0000000003FFF000FC000000000F
310
FFFFE0007F80070007F8001FFF80007FF8000000001FFFFF8000000001FFFFF8
310
0FFFFFFFFFFFFFC07FFFFFF0001FFFFFF8001FFFFFFFFC000FF8001FFFFFFFFC
310
000FFF0003FFFFFFFFFC000000000FFFF000F8000000007FFFFFE0007F800700
310
07F8001FFF80007FF000000000FFFFFF800000000FFFFFF80FFFFFFFFFFFFFC0
310
7FFFFFF0001FFFFFF8000FFFFFFFF8000FF8000FFFFFFFF8000FFF0003FFFFFF
310
FFFC000000007FFFF000F800000007FFFFFFC0007F8003000FF8001FFF80007F
310
F000000007FFFFFF000000007FFFFFF80FFFFFFFFFFFFFC07FFFFFF0001FFFFF
310
F8000FFFFFFFF8000FF8000FFFFFFFF8000FFF0003FFFFFFFFF80000000FFFFF
310
F000F0000000FFFFFFFFC000FF8003000FF8001FFF80007FE0000000FFFFFFFF
310
0000000FFFFFFFF8000001FFFE0000007FFFFFF0001FFFFFF8000FFFFFFFF800
310
0FF8000FFFFFFFF8000FFF0003FFFFFFFFF8000000FFFFFFF000F000000FFFFF
310
FFFFC000FFC002000FF8000FFF80007FE000001FFFFFFFFE000001FFFFFFFFF8
310
000001FFFE0000007FFFFFF0001FFFFFF8000FFFFFFFF8000FF8000FFFFFFFF8
310
000FFF0003FFFFFFFFF000001FFFFFFFF000E00000FFFFFFFFFFC000FFC00200
310
0FFC000FFF80007FE00001FFFFFFFFFE00001FFFFFFFFFF8000001FFFE000000
310
7FFFFFF0001FFFFFFC000FFFFFFFF8001FFC000FFFFFFFF8001FFF0003FFFFFF
310
FFF00001FFFFFFFFF000E00007FFFFFFFFFF8000FFC000001FFC000FFF80007F
310
C0000FFFFFFFFFFE0000FFFFFFFFFFF8000001FFFE0000007FFFFFF0001FFFFF
310
FC0007FFFFFFF0001FFC0007FFFFFFF0001FFF0003FFFFFFFFF00007FFFFFFFF
310
F000E0001FFFFFFFFFFF8000FFC000001FFC000FFF80007FC0003FFFFFFFFFFE
310
0001FFFFFFFFFFF8000001FFFE0000007FFFFFF0001FFFFFFC0007FFFFFFF000
310
1FFC0007FFFFFFF0001FFF0003FFFFFFFFF0001FFFFFFFFFF000E0003FFFFF00
310
03FF8001FFE000001FFC0007FF80007FC0007FFFFF0007FC0003FFFFF0003FF8
310
000001FFFE0000007FFFFFF0001FFFFFFC0003FFFFFFE0001FFC0003FFFFFFE0
310
001FFF0003FFFFFFFFF0003FFFFFFFFFF000E0003FFFFF0001FF8001FFE00000
310
1FFE0007FF80007FC0007FFFFE0003FC0007FFFFE0003FF8000001FFFE000000
310
7FFFFFF0001FFFFFFE0003FFFFFFE0003FFE0003FFFFFFE0003FFF0003FFFFFF
310
FFF0003FFFFF8001F000E0003FFFFF0001FF0001FFE000001FFE0007FF80007F
310
C0007FFFFE0003FC0007FFFFE0003FF8000001FFFE0000007FFFFFF0001FFFFF
310
FE0001FFFFFFC0003FFE0001FFFFFFC0003FFF0003FFFFFFFFF0003FFFFF0001
310
F000E0003FFFFF0003FF0001FFE000003FFE0007FF80007FC0007FFFFE0003FC
310
0007FFFFE0003FF8000001FFFE0000007FFFFFF0001FFFFFFF0001FFFFFFC000
310
7FFF0001FFFFFFC0007FFF0003FFFFFFFFF0003FFFFF0001F000E0003FFFFE00
310
03FF0003FFF000003FFE0003FF80007FC0007FFFFC0003FE0007FFFFE0003FF8
310
000001FFFE0000007FFFFFF0001FFFFFFF0000FFFFFF80007FFF0000FFFFFF80
310
007FFF0003FFFFFFFFF0003FFFFF0001F000E0003FFFFE0003FF0003FFF00000
310
3FFF0003FF80007FC0007FFFFC0007FE0007FFFFC0003FF8000001FFFE000000
310
7FFFFFF0001FFFFFFF80007FFFFF0000FFFF80007FFFFF0000FFFF0003FFFFFF
310
FFF0003FFFFF0003F000E0003FFFFC0003FE0003FFF000003FFF0003FF80007F
310
E0003FFFF80007FE0003FFFFC0007FF8000001FFFE0000007FFFFFF0001FFFFF
310
FF80003FFFFE0000FFFF80003FFFFE0000FFFF0003FFFFFFFFF0001FFFFE0003
310
F000F0001FFFF80003FE0003FFF000007FFF0001FF80007FE0003FFFF00007FE
310
0001FFFF80007FF8000001FFFE0000007FFFFFF0001FFFFFFFC0000FFFF80001
310
FFFFC0000FFFF80001FFFF0003FFFFFFFFF0001FFFFC0003F000F0000FFFF000
310
07FE0007FFF800007FFF0001FF80007FE0001FFFE00007FF0000FFFE00007FF8
310
000001FFFE0000007FFFFFF0001FFFFFFFC00003FFE00001FFFFC00003FFE000
310
01FFFF0003FFFFFFFFF8000FFFF80003F000F00003FFC00007FC0007FFF80000
310
7FFF8001FF80007FF00007FF80000FFF00007FF80000FFF8000001FFFE000000
310
7F80000000000001FFE000003E000003FFFFE000003E000003FFFF0003FFFFFF
310
FFF80003FFE00007F000F800000000000FFC0007FFF800007FFF8001FF80007F
310
F000000000000FFF000000000000FFF8000001FFFE0000007F80000000000001
310
FFF0000000000007FFFFF0000000000007FFFF0003FFFFFFFFFC00007E000007
310
F000F800000000000FFC0007FFF80000FFFF8000FF80007FF800000000001FFF
310
800000000001FFF8000001FFFE0000007F80000000000001FFF800000000000F
310
FFFFF800000000000FFFFF0003FFFFFFFFFC00000000000FF000FC0000000000
310
1FFC0007FFFC0000FFFF8000FF80007FF800000000003FFFC00000000001FFF8
310
000001FFFE0000007F80000000000001FFF800000000000FFFFFF80000000000
310
0FFFFF0003FFFFFFFFFE00000000001FF000FE00000000003FF8000FFFFC0000
310
FFFF8000FF80007FFC00000000003FFFC00000000003FFF8000001FFFE000000
310
7F80000000000001FFFC00000000001FFFFFFC00000000001FFFFF0003FFFFFF
310
FFFF00000000001FF000FF00000000003FF8000FFFFC0000FFFFC000FF80007F
310
FE00000000007FFFE00000000007FFF8000001FFFE0000007F80000000000001
310
FFFE00000000003FFFFFFE00000000003FFFFF0003FFFFFFFFFF80000000003F
310
F000FF80000000007FF8000FFFFC0001FFFFC0007F80007FFF0000000000FFFF
310
F0000000000FFFF800000000000000007F80000000000001FFFF8000000000FF
310
FFFFFF8000000000FFFFFF0003FFFFFFFFFFC0000000007FF000FFC000000000
310
FFF8000FFFFE0001FFFFC0007F80007FFF8000000001FFFFF8000000001FFFF8
310
00000000000000007F80000000000001FFFFC000000001FFFFFFFFC000000001
310
FFFFFF0003FFFFFFFFFFE000000000FFF000FFE000000003FFF0001FFFFE0001
310
FFFFC0007F80007FFFC000000007FFFFFE000000003FFFF80000000000000000
310
7F80000000000001FFFFE000000003FFFFFFFFE000000003FFFFFF0003FFFFFF
310
FFFFF000000003FFF000FFF80000000FFFF0001FFFFE0001FFFFE0007F80007F
310
FFF00000000FFFFFFF00000000FFFFF800000000000000007F80000000000001
310
FFFFF80000000FFFFFFFFFF80000000FFFFFFF0003FFFFFFFFFFFC0000000FFF
310
F000FFFE0000003FFFF0001FFFFE0003FFFFE0003F80007FFFFC0000003FFFFF
310
FFC0000003FFFFF800000000000000007F80000000000001FFFFFE0000003FFF
310
FFFFFFFE0000003FFFFFFF0003FFFFFFFFFFFF0000003FFFF000FFFF800000FF
310
FFF0001FFFFF0003FFFFE0003F80007FFFFF000001FFFFFFFFF800001FFFFFF8
310
00000000000000007F80000000000001FFFFFFC00001FFFFFFFFFFFFC00001FF
310
FFFFFF0003FFFFFFFFFFFFC00000FFFFF000FFFFF8000FFFFFFFFFFFFFFFFFFF
310
FFFFFFFFFFFFFFFFFFFFF0001FFFFFFFFFFF0000FFFFFFF80000000000000000
310
7FFFFFFFFFFFFFFFFFFFFFFC001FFFFFFFFFFFFFFC001FFFFFFFFFFFFFFFFFFF
310
FFFFFFFC001FFFFFF000FFFFFFFFFFFFFFFFFFFFFFFFFFFFFFFFFFFFFFFFFFFF
310
FFFFFFFFFFFFFFFFFFFFFFFFFFFFFFFFFFFFFFFFFFFFFFFFFFFFFFFFFFFFFFFF
310
FFFFFFFFFFFFFFFFFFFFFFFFFFFFFFFFFFFFFFFFFFFFFFFFFFFFFFFFFFFFFFFF
310
F000FFFFFFFFFFFFFFFFFFFFFFFFFFFFFFFFFFFFFFFFFFFFFFFFFFFFFFFFFFFF
310
FFFFFFFFFFFFFFFFFFFFFFFFFFFFFFFFFFFFFFFFFFFFFFFFFFFFFFFFFFFFFFFF
310
FFFFFFFFFFFFFFFFFFFFFFFFFFFFFFFFFFFFFFFFFFFFFFFFF000FFFFFFFFFFFF
310
FFFFFFFFFFFFFFFFFFFFFFFFFFFFFFFFFFFFFFFFFFFFFFFFFFFFFFFFFFFFFFFF
310
FFFFFFFFFFFFFFFFFFFFFFFFFFFFFFFFFFFFFFFFFFFFFFFFFFFFFFFFFFFFFFFF
310
FFFFFFFFFFFFFFFFFFFFFFFFFFFFFFFFF000FFFFFFFFFFFFFFFFFFFFFFFFFFFF
310
FFFFFFFFFFFFFFFFFFFFFFFFFFFFFFFFFFFFFFFFFFFFFFFFFFFFFFFFFFFFFFFF
310
FFFFFFFFFFFFFFFFFFFFFFFFFFFFFFFFFFFFFFFFFFFFFFFFFFFFFFFFFFFFFFFF
310
FFFFFFFFFFFFFFFFF000FFFFFFFFFFFFFFFFFFFFFFFFFFFFFFFFFFFFFFFFFFFF
310
FFFFFFFFFFFFFFFFFFFFFFFFFFFFFFFFFFFFFFFFFFFFFFFFFFFFFFFFFFFFFFFF
310
FFFFFFFFFFFFFFFFFFFFFFFFFFFFFFFFFFFFFFFFFFFFFFFFFFFFFFFFFFFFFFFF
310
F000FFFFFFFFFFFFFFFFFFFFFFFFFFFFFFFFFFFFFFFFFFFFFFFFFFFFFFFFFFFF
310
FFFFFFFFFFFFFFFFFFFFFFFFFFFFFFFFFFFFFFFFFFFFFFFFFFFFFFFFFFFFFFFF
310
FFFFFFFFFFFFFFFFFFFFFFFFFFFFFFFFFFFFFFFFFFFFFFFFF000FFFFFFFFFFFF
310
FFFFFFFFFFFFFFFFFFFFFFFFFFFFFFFFFFFFFFFFFFFFFFFFFFFFFFFFFFFFFFFF
310
FFFFFFFFFFFFFFFFFFFFFFFFFFFFFFFFFFFFFFFFFFFFFFFFFFFFFFFFFFFFFFFF
310
FFFFFFFFFFFFFFFFFFFFFFFFFFFFFFFFF000FFFFFFFFFFFFFFFFFFFFFFFFFFFF
310
FFFFFFFFFFFFFFFFFFFFFFFFFFFFFFFFFFFFFFFFFFFFFFFFFFFFFFFFFFFFFFFF
310
FFFFFFFFFFFFFFFFFFFFFFFFFFFFFFFFFFFFFFFFFFFFFFFFFFFFFFFFFFFFFFFF
310
FFFFFFFFFFFFFFFFF000FFFFFFFFFFFFFFFFFFFFFFFFFFFFFFFFFFFFFFFFFFFF
310
FFFFFFFFFFFFFFFFFFFFFFFFFFFFFFFFFFFFFFFFFFFFFFFFFFFFFFFFFFFFFFFF
310
FFFFFFFFFFFFFFFFFFFFFFFFFFFFFFFFFFFFFFFFFFFFFFFFFFFFFFFFFFFFFFFF
310
F000FFFFFFFFFFFFFFFFFFFFFFFFFFFFFFFFFFFFFFFFFFFFFFFFFFFFFFFFFFFF
310
FFFFFFFFFFFFFFFFFFFFFFFFFFFFFFFFFFFFFFFFFFFFFFFFFFFFFFFFFFFFFFFF
310
FFFFFFFFFFFFFFFFFFFFFFFFFFFFFFFFFFFFFFFFFFFFFFFFF000FFFFFFFFFFFF
310
FFFFFFFFFFFFFFFFFFFFFFFFFFFFFFFFFFFFFFFFFFFFFFFFFFFFFFFFFFFFFFFF
310
FFFFFFFFFFFFFFFFFFFFFFFFFFFFFFFFFFFFFFFFFFFFFFFFFFFFFFFFFFFFFFFF
310
FFFFFFFFFFFFFFFFFFFFFFFFFFFFFFFFF000FFFFFFFFFFFFFFFFFFFFFFFFFFFF
310
FFFFFFFFFFFFFFFFFFFFFFFFFFFFFFFFFFFFFFFFFFFFFFFFFFFFFFFFFFFFFFFF
310
FFFFFFFFFFFFFFFFFFFFFFFFFFFFFFFFFFFFFFFFFFFFFFFFFFFFFFFFFFFFFFFF
310
FFFFFFFFFFFFFFFFF000FFFFFFFFFFFFFFFFFFFFFFFFFFFFFFFFFFFFFFFFFFFF
310
FFFFFFFFFFFFFFFFFFFFFFFFFFFFFFFFFFFFFFFFFFFFFFFFFFFFFFFFFFFFFFFF
310
FFFFFFFFFFFFFFFFFFFFFFFFFFFFFFFFFFFFFFFFFFFFFFFFFFFFFFFFFFFFFFFF
310
F000FFFFFFFFFFFFFFFFFFFFFFFFFFFFFFFFFFFFFFFFFFFFFFFFFFFFFFFFFFFF
310
FFFFFFFFFFFFFFFFFFFFFFFFFFFFFFFFFFFFFFFFFFFFFFFFFFFFFFFFFFFFFFFF
310
FFFFFFFFFFFFFFFFFFFFFFFFFFFFFFFFFFFFFFFFFFFFFFFFF000FFFFFFFFFFFF
310
FFFFFFFFFFFFFFFFFFFFFFFFFFFFFFFFFFFFFFFFFFFFFFFFFFFFFFFFFFFFFFFF
310
FFFFFFFFFFFFFFFFFFFFFFFFFFFFFFFFFFFFFFFFFFFFFFFFFFFFFFFFFFFFFFFF
310
FFFFFFFFFFFFFFFFFFFFFFFFFFFFFFFFF000FFFFFFFFFFFFFFFFFFFFFFFFFFFF
310
FFFFFFFFFFFFFFFFFFFFFFFFFFFFFFFFFFFFFFFFFFFFFFFFFFFFFFFFFFFFFFFF
310
FFFFFFFFFFFFFFFFFFFFFFFFFFFFFFFFFFFFFFFFFFFFFFFFFFFFFFFFFFFFFFFF
310
FFFFFFFFFFFFFFFFF000FFFFFFFFFFFFFFFFFFFFFFFFFFFFFFFFFFFFFFFFFFFF
310
FFFFFFFFFFFFFFFFFFFFFFFFFFFFFFFFFFFFFFFFFFFFFFFFFFFFFFFFFFFFFFFF
310
FFFFFFFFFFFFFFFFFFFFFFFFFFFFFFFFFFFFFFFFFFFFFFFFFFFFFFFFFFFFFFFF
310
F000FFFFFFFFFFFFFFFFFFFFFFFFFFFFFFFFFFFFFFFFFFFFFFFFFFFFFFFFFFFF
310
FFFFFFFFFFFFFFFFFFFFFFFFFFFFFFFFFFFFFFFFFFFFFFFFFFFFFFFFFFFFFFFF
310
FFFFFFFFFFFFFFFFFFFFFFFFFFFFFFFFFFFFFFFFFFFFFFFFF000FFFFFFFFFFFF
310
FFFFFFFFFFFFFFFFFFFFFFFFFFFFFFFFFFFFFFFFFFFFFFFFFFFFFFFFFFFFFFFF
310
FFFFFFFFFFFFFFFFFFFFFFFFFFFFFFFFFFFFFFFFFFFFFFFFFFFFFFFFFFFFFFFF
310
FFFFFFFFFFFFFFFFFFFFFFFFFFFFFFFFF000FFFFFFFFFFFFFFFFFFFFFFFFFFFF
310
FFFFFFFFFFFFFFFFFFFFFFFFFFFFFFFFFFFFFFFFFFFFFFFFFFFFFFFFFFFFFFFF
310
FFFFFFFFFFFFFFFFFFFFFFFFFFFFFFFFFFFFFFFFFFFFFFFFFFFFFFFFFFFFFFFF
310
FFFFFFFFFFFFFFFFF000FFFFFFFFFFFFFFFFFFFFFFFFFFFFFFFFFFFFFFFFFFFF
310
FFFFFFFFFFFFFFFFFFFFFFFFFFFFFFFFFFFFFFFFFFFFFFFFFFFFFFFFFFFFFFFF
310
FFFFFFFFFFFFFFFFFFFFFFFFFFFFFFFFFFFFFFFFFFFFFFFFFFFFFFFFFFFFFFFF
310
F000FFFFFFFFFFFFFFFFFFFFFFFFFFFFFFFFFFFFFFFFFFFFFFFFFFFFFFFFFFFF
310
FFFFFFFFFFFFFFFFFFFFFFFFFFFFFFFFFFFFFFFFFFFFFFFFFFFFFFFFFFFFFFFF
310
FFFFFFFFFFFFFFFFFFFFFFFFFFFFFFFFFFFFFFFFFFFFFFFFF000FFFFFFFFFFFF
310
FFFFFFFFFFFFFFFFFFFFFFFFFFFFFFFFFFFFFFFFFFFFFFFFFFFFFFFFFFFFFFFF
310
FFFFFFFFFFFFFFFFFFFFFFFFFFFFFFFFFFFFFFFFFFFFFFFFFFFFFFFFFFFFFFFF
310
FFFFFFFFFFFFFFFFFFFFFFFFFFFFFFFFF0000000000000000000000000000000
310
0000000000000000000000000000000000000000000000000000000000000000
310
0000000000000000000000000000000000000000000000000000000000000000
310
0000000000000000000000000000000000000000000000000000000000000000
310
0000000000000000000000000000000000000000000000000000000000000000
310
0000000000000000000000000000000000000000000000000000000000000000
310
0000000000000000000000000000000000000000000000000000000000000000
310
0000000000000000000000000000000000000000000000000000000000000000
310
0000000000000000000000000000000000000000000000000000000000000000
310
0000000000000000000000000000000000000000000000000000000000000000
310
0000000000000000000000000000000000000000000000000000000000000000
310
0000000000000000000000000000000000000000000000000000000000000000
310
0000000000000000000000000000000000000000000000000000000000000000
310
0000000000000000000000000000000000000000000000000000000000000000
310
0000000000000000000000000000000000000000000000000000000000000000
310
0000000000000000000000000000000000000000000000000000000000000000
  1
OLE
  0
ENDSEC
  0
SECTION
  2
OBJECTS
  0
DICTIONARY
  5
C
330
0
100
AcDbDictionary
281
     1
  3
ACAD_GROUP
350
D
  3
ACAD_LAYOUT
350
1A
  3
ACAD_MLINESTYLE
350
17
  3
ACAD_PLOTSETTINGS
350
19
  3
ACAD_PLOTSTYLENAME
350
E
  3
ACAD_SCALELIST
350
47
  0
DICTIONARY
  5
D
102
{ACAD_REACTORS
330
C
102
}
330
C
100
AcDbDictionary
281
     1
  0
DICTIONARY
  5
1A
102
{ACAD_REACTORS
330
C
102
}
330
C
100
AcDbDictionary
281
     1
  3
Layout1
350
1E
  3
Layout2
350
26
  3
Model
350
22
  0
DICTIONARY
  5
17
102
{ACAD_REACTORS
330
C
102
}
330
C
100
AcDbDictionary
281
     1
  3
Standard
350
18
  0
DICTIONARY
  5
19
102
{ACAD_REACTORS
330
C
102
}
330
C
100
AcDbDictionary
281
     1
  0
ACDBDICTIONARYWDFLT
  5
E
102
{ACAD_REACTORS
330
C
102
}
330
C
100
AcDbDictionary
281
     1
  3
Normal
350
F
100
AcDbDictionaryWithDefault
340
F
  0
DICTIONARY
  5
47
102
{ACAD_REACTORS
330
C
102
}
330
C
100
AcDbDictionary
281
     1
  3
A0
350
48
  3
A1
350
49
  3
A2
350
4A
  3
A3
350
4B
  3
A4
350
4C
  3
A5
350
4D
  3
A6
350
4E
  3
A7
350
4F
  3
A8
350
50
  3
A9
350
51
  3
B0
350
52
  3
B1
350
53
  3
B2
350
54
  3
B3
350
55
  3
B4
350
56
  3
B5
350
57
  3
B6
350
58
  3
B7
350
59
  3
B8
350
5A
  3
B9
350
5B
  3
C0
350
5C
  3
C1
350
5D
  3
C2
350
5E
  3
C3
350
5F
  3
C4
350
60
  3
C5
350
61
  3
C6
350
62
  3
C7
350
63
  3
C8
350
64
  3
C9
350
65
  3
D0
350
66
  3
D1
350
67
  3
D2
350
68
  0
LAYOUT
  5
1E
102
{ACAD_REACTORS
330
1A
102
}
330
1A
100
AcDbPlotSettings
  1

  2
none_device
  4

  6

 40
0.0
 41
0.0
 42
0.0
 43
0.0
 44
0.0
 45
0.0
 46
0.0
 47
0.0
 48
0.0
 49
0.0
140
0.0
141
0.0
142
1.0
143
1.0
 70
   688
 72
     1
 73
     0
 74
     5
  7

 75
    16
147
1.0
148
0.0
149
0.0
100
AcDbLayout
  1
Layout1
 70
     1
 71
     1
 10
0.0
 20
0.0
 11
420.0
 21
297.0
 12
0.0
 22
0.0
 32
0.0
 14
1.0000000000E+20
 24
1.0000000000E+20
 34
1.0000000000E+20
 15
-1.0000000000E+20
 25
-1.0000000000E+20
 35
-1.0000000000E+20
146
0.0
 13
0.0
 23
0.0
 33
0.0
 16
1.0
 26
0.0
 36
0.0
 17
0.0
 27
1.0
 37
0.0
 76
     0
330
1B
  0
LAYOUT
  5
26
102
{ACAD_REACTORS
330
1A
102
}
330
1A
100
AcDbPlotSettings
  1

  2
none_device
  4

  6

 40
0.0
 41
0.0
 42
0.0
 43
0.0
 44
0.0
 45
0.0
 46
0.0
 47
0.0
 48
0.0
 49
0.0
140
0.0
141
0.0
142
1.0
143
1.0
 70
   688
 72
     1
 73
     0
 74
     5
  7

 75
    16
147
1.0
148
0.0
149
0.0
100
AcDbLayout
  1
Layout2
 70
     1
 71
     2
 10
0.0
 20
0.0
 11
0.0
 21
0.0
 12
0.0
 22
0.0
 32
0.0
 14
0.0
 24
0.0
 34
0.0
 15
0.0
 25
0.0
 35
0.0
146
0.0
 13
0.0
 23
0.0
 33
0.0
 16
1.0
 26
0.0
 36
0.0
 17
0.0
 27
1.0
 37
0.0
 76
     0
330
23
  0
LAYOUT
  5
22
102
{ACAD_REACTORS
330
1A
102
}
330
1A
100
AcDbPlotSettings
  1

  2
none_device
  4
Letter_(8.50_x_11.00_Inches)
  6

 40
6.35
 41
6.35
 42
6.35000508
 43
6.35000508
 44
215.9
 45
279.4
 46
0.0
 47
0.0
 48
0.0
 49
0.0
140
0.0
141
0.0
142
1.0
143
1.0
 70
  1712
 72
     1
 73
     0
 74
     0
  7

 75
     0
147
1.0
148
0.0
149
0.0
100
AcDbLayout
  1
Model
 70
     1
 71
     0
 10
0.0
 20
0.0
 11
297.0
 21
210.0
 12
0.0
 22
0.0
 32
0.0
 14
0.0
 24
0.0
 34
0.0
 15
297.0
 25
210.0
 35
0.0
146
0.0
 13
0.0
 23
0.0
 33
0.0
 16
1.0
 26
0.0
 36
0.0
 17
0.0
 27
1.0
 37
0.0
 76
     0
330
1F
331
29
  0
MLINESTYLE
  5
18
102
{ACAD_REACTORS
330
17
102
}
330
17
100
AcDbMlineStyle
  2
Standard
 70
     0
  3

 62
   256
 51
90.0
 52
90.0
 71
     2
 49
0.5
 62
   256
  6
BYLAYER
 49
-0.5
 62
   256
  6
BYLAYER
  0
ACDBPLACEHOLDER
  5
F
102
{ACAD_REACTORS
330
E
102
}
330
E
  0
SCALE
  5
48
102
{ACAD_REACTORS
330
47
102
}
330
47
100
AcDbScale
 70
     0
300
1:1
140
1.0
141
1.0
290
     1
  0
SCALE
  5
49
102
{ACAD_REACTORS
330
47
102
}
330
47
100
AcDbScale
 70
     0
300
1:2
140
1.0
141
2.0
290
     0
  0
SCALE
  5
4A
102
{ACAD_REACTORS
330
47
102
}
330
47
100
AcDbScale
 70
     0
300
1:4
140
1.0
141
4.0
290
     0
  0
SCALE
  5
4B
102
{ACAD_REACTORS
330
47
102
}
330
47
100
AcDbScale
 70
     0
300
1:5
140
1.0
141
5.0
290
     0
  0
SCALE
  5
4C
102
{ACAD_REACTORS
330
47
102
}
330
47
100
AcDbScale
 70
     0
300
1:8
140
1.0
141
8.0
290
     0
  0
SCALE
  5
4D
102
{ACAD_REACTORS
330
47
102
}
330
47
100
AcDbScale
 70
     0
300
1:10
140
1.0
141
10.0
290
     0
  0
SCALE
  5
4E
102
{ACAD_REACTORS
330
47
102
}
330
47
100
AcDbScale
 70
     0
300
1:16
140
1.0
141
16.0
290
     0
  0
SCALE
  5
4F
102
{ACAD_REACTORS
330
47
102
}
330
47
100
AcDbScale
 70
     0
300
1:20
140
1.0
141
20.0
290
     0
  0
SCALE
  5
50
102
{ACAD_REACTORS
330
47
102
}
330
47
100
AcDbScale
 70
     0
300
1:30
140
1.0
141
30.0
290
     0
  0
SCALE
  5
51
102
{ACAD_REACTORS
330
47
102
}
330
47
100
AcDbScale
 70
     0
300
1:40
140
1.0
141
40.0
290
     0
  0
SCALE
  5
52
102
{ACAD_REACTORS
330
47
102
}
330
47
100
AcDbScale
 70
     0
300
1:50
140
1.0
141
50.0
290
     0
  0
SCALE
  5
53
102
{ACAD_REACTORS
330
47
102
}
330
47
100
AcDbScale
 70
     0
300
1:100
140
1.0
141
100.0
290
     0
  0
SCALE
  5
54
102
{ACAD_REACTORS
330
47
102
}
330
47
100
AcDbScale
 70
     0
300
2:1
140
2.0
141
1.0
290
     0
  0
SCALE
  5
55
102
{ACAD_REACTORS
330
47
102
}
330
47
100
AcDbScale
 70
     0
300
4:1
140
4.0
141
1.0
290
     0
  0
SCALE
  5
56
102
{ACAD_REACTORS
330
47
102
}
330
47
100
AcDbScale
 70
     0
300
8:1
140
8.0
141
1.0
290
     0
  0
SCALE
  5
57
102
{ACAD_REACTORS
330
47
102
}
330
47
100
AcDbScale
 70
     0
300
10:1
140
10.0
141
1.0
290
     0
  0
SCALE
  5
58
102
{ACAD_REACTORS
330
47
102
}
330
47
100
AcDbScale
 70
     0
300
100:1
140
100.0
141
1.0
290
     0
  0
SCALE
  5
59
102
{ACAD_REACTORS
330
47
102
}
330
47
100
AcDbScale
 70
     0
300
1/128" = 1'-0"
140
0.0078125
141
12.0
290
     0
  0
SCALE
  5
5A
102
{ACAD_REACTORS
330
47
102
}
330
47
100
AcDbScale
 70
     0
300
1/64" = 1'-0"
140
0.015625
141
12.0
290
     0
  0
SCALE
  5
5B
102
{ACAD_REACTORS
330
47
102
}
330
47
100
AcDbScale
 70
     0
300
1/32" = 1'-0"
140
0.03125
141
12.0
290
     0
  0
SCALE
  5
5C
102
{ACAD_REACTORS
330
47
102
}
330
47
100
AcDbScale
 70
     0
300
1/16" = 1'-0"
140
0.0625
141
12.0
290
     0
  0
SCALE
  5
5D
102
{ACAD_REACTORS
330
47
102
}
330
47
100
AcDbScale
 70
     0
300
3/32" = 1'-0"
140
0.09375
141
12.0
290
     0
  0
SCALE
  5
5E
102
{ACAD_REACTORS
330
47
102
}
330
47
100
AcDbScale
 70
     0
300
1/8" = 1'-0"
140
0.125
141
12.0
290
     0
  0
SCALE
  5
5F
102
{ACAD_REACTORS
330
47
102
}
330
47
100
AcDbScale
 70
     0
300
3/16" = 1'-0"
140
0.1875
141
12.0
290
     0
  0
SCALE
  5
60
102
{ACAD_REACTORS
330
47
102
}
330
47
100
AcDbScale
 70
     0
300
1/4" = 1'-0"
140
0.25
141
12.0
290
     0
  0
SCALE
  5
61
102
{ACAD_REACTORS
330
47
102
}
330
47
100
AcDbScale
 70
     0
300
3/8" = 1'-0"
140
0.375
141
12.0
290
     0
  0
SCALE
  5
62
102
{ACAD_REACTORS
330
47
102
}
330
47
100
AcDbScale
 70
     0
300
1/2" = 1'-0"
140
0.5
141
12.0
290
     0
  0
SCALE
  5
63
102
{ACAD_REACTORS
330
47
102
}
330
47
100
AcDbScale
 70
     0
300
3/4" = 1'-0"
140
0.75
141
12.0
290
     0
  0
SCALE
  5
64
102
{ACAD_REACTORS
330
47
102
}
330
47
100
AcDbScale
 70
     0
300
1" = 1'-0"
140
1.0
141
12.0
290
     0
  0
SCALE
  5
65
102
{ACAD_REACTORS
330
47
102
}
330
47
100
AcDbScale
 70
     0
300
1-1/2" = 1'-0"
140
1.5
141
12.0
290
     0
  0
SCALE
  5
66
102
{ACAD_REACTORS
330
47
102
}
330
47
100
AcDbScale
 70
     0
300
3" = 1'-0"
140
3.0
141
12.0
290
     0
  0
SCALE
  5
67
102
{ACAD_REACTORS
330
47
102
}
330
47
100
AcDbScale
 70
     0
300
6" = 1'-0"
140
6.0
141
12.0
290
     0
  0
SCALE
  5
68
102
{ACAD_REACTORS
330
47
102
}
330
47
100
AcDbScale
 70
     0
300
1'-0" = 1'-0"
140
12.0
141
12.0
290
     0
  0
ENDSEC
  0
EOF
