  0
SECTION
  2
HEADER
  9
$ACADVER
  1
AC1015
  9
$ACADMAINTVER
 70
     6
  9
$DWGCODEPAGE
  3
ANSI_1252
  9
$INSBASE
 10
0.0
 20
0.0
 30
0.0
  9
$EXTMIN
 10
0.0
 20
0.0
 30
0.0
  9
$EXTMAX
 10
297.0
 20
210.0
 30
0.0
  9
$LIMMIN
 10
0.0
 20
0.0
  9
$LIMMAX
 10
297.0
 20
210.0
  9
$ORTHOMODE
 70
     0
  9
$REGENMODE
 70
     1
  9
$FILLMODE
 70
     1
  9
$QTEXTMODE
 70
     0
  9
$MIRRTEXT
 70
     1
  9
$LTSCALE
 40
1.0
  9
$ATTMODE
 70
     1
  9
$TEXTSIZE
 40
2.0
  9
$TRACEWID
 40
1.0
  9
$TEXTSTYLE
  7
Standard
  9
$CLAYER
  8
0
  9
$CELTYPE
  6
ByLayer
  9
$CECOLOR
 62
   256
  9
$CELTSCALE
 40
1.0
  9
$DISPSILH
 70
     0
  9
$DIMSCALE
 40
1.0
  9
$DIMASZ
 40
3.0
  9
$DIMEXO
 40
0.0
  9
$DIMDLI
 40
3.75
  9
$DIMRND
 40
0.0
  9
$DIMDLE
 40
0.0
  9
$DIMEXE
 40
1.0
  9
$DIMTP
 40
0.0
  9
$DIMTM
 40
0.0
  9
$DIMTXT
 40
2.0
  9
$DIMCEN
 40
2.5
  9
$DIMTSZ
 40
0.0
  9
$DIMTOL
 70
     0
  9
$DIMLIM
 70
     0
  9
$DIMTIH
 70
     1
  9
$DIMTOH
 70
     1
  9
$DIMSE1
 70
     0
  9
$DIMSE2
 70
     0
  9
$DIMTAD
 70
     1
  9
$DIMZIN
 70
     0
  9
$DIMBLK
  1

  9
$DIMASO
 70
     1
  9
$DIMSHO
 70
     1
  9
$DIMPOST
  1

  9
$DIMAPOST
  1

  9
$DIMALT
 70
     0
  9
$DIMALTD
 70
     3
  9
$DIMALTF
 40
0.0393700787
  9
$DIMLFAC
 40
2.0
  9
$DIMTOFL
 70
     1
  9
$DIMTVP
 40
0.0
  9
$DIMTIX
 70
     0
  9
$DIMSOXD
 70
     0
  9
$DIMSAH
 70
     0
  9
$DIMBLK1
  1

  9
$DIMBLK2
  1

  9
$DIMSTYLE
  2
ISO-25
  9
$DIMCLRD
 70
     0
  9
$DIMCLRE
 70
     0
  9
$DIMCLRT
 70
     0
  9
$DIMTFAC
 40
1.0
  9
$DIMGAP
 40
1.524
  9
$DIMJUST
 70
     0
  9
$DIMSD1
 70
     0
  9
$DIMSD2
 70
     0
  9
$DIMTOLJ
 70
     0
  9
$DIMTZIN
 70
     0
  9
$DIMALTZ
 70
     0
  9
$DIMALTTZ
 70
     0
  9
$DIMUPT
 70
     0
  9
$DIMDEC
 70
     2
  9
$DIMTDEC
 70
     3
  9
$DIMALTU
 70
     2
  9
$DIMALTTD
 70
     3
  9
$DIMTXSTY
  7
Standard
  9
$DIMAUNIT
 70
     0
  9
$DIMADEC
 70
     2
  9
$DIMALTRND
 40
0.0
  9
$DIMAZIN
 70
     0
  9
$DIMDSEP
 70
    44
  9
$DIMATFIT
 70
     3
  9
$DIMFRAC
 70
     0
  9
$DIMLDRBLK
  1

  9
$DIMLUNIT
 70
     2
  9
$DIMLWD
 70
    -2
  9
$DIMLWE
 70
    -2
  9
$DIMTMOVE
 70
     0
  9
$LUNITS
 70
     2
  9
$LUPREC
 70
     2
  9
$SKETCHINC
 40
1.0
  9
$FILLETRAD
 40
10.0
  9
$AUNITS
 70
     0
  9
$AUPREC
 70
     2
  9
$MENU
  1
.
  9
$ELEVATION
 40
0.0
  9
$PELEVATION
 40
0.0
  9
$THICKNESS
 40
0.0
  9
$LIMCHECK
 70
     0
  9
$CHAMFERA
 40
0.0
  9
$CHAMFERB
 40
0.0
  9
$CHAMFERC
 40
0.0
  9
$CHAMFERD
 40
0.0
  9
$SKPOLY
 70
     0
  9
$TDCREATE
 40
2457674.67423353
  9
$TDUCREATE
 40
2457674.590900197
  9
$TDUPDATE
 40
2457674.674234977
  9
$TDUUPDATE
 40
2457674.590901644
  9
$TDINDWG
 40
0.0000000116
  9
$TDUSRTIMER
 40
0.0000000116
  9
$USRTIMER
 70
     1
  9
$ANGBASE
 50
0.0
  9
$ANGDIR
 70
     0
  9
$PDMODE
 70
     0
  9
$PDSIZE
 40
-1.0
  9
$PLINEWID
 40
0.0
  9
$SPLFRAME
 70
     0
  9
$SPLINETYPE
 70
     6
  9
$SPLINESEGS
 70
     8
  9
$HANDSEED
  5
2CF
  9
$SURFTAB1
 70
     6
  9
$SURFTAB2
 70
     6
  9
$SURFTYPE
 70
     6
  9
$SURFU
 70
     6
  9
$SURFV
 70
     6
  9
$UCSBASE
  2

  9
$UCSNAME
  2

  9
$UCSORG
 10
0.0
 20
0.0
 30
0.0
  9
$UCSXDIR
 10
1.0
 20
0.0
 30
0.0
  9
$UCSYDIR
 10
0.0
 20
1.0
 30
0.0
  9
$UCSORTHOREF
  2

  9
$UCSORTHOVIEW
 70
     0
  9
$UCSORGTOP
 10
0.0
 20
0.0
 30
0.0
  9
$UCSORGBOTTOM
 10
0.0
 20
0.0
 30
0.0
  9
$UCSORGLEFT
 10
0.0
 20
0.0
 30
0.0
  9
$UCSORGRIGHT
 10
0.0
 20
0.0
 30
0.0
  9
$UCSORGFRONT
 10
0.0
 20
0.0
 30
0.0
  9
$UCSORGBACK
 10
0.0
 20
0.0
 30
0.0
  9
$PUCSBASE
  2

  9
$PUCSNAME
  2

  9
$PUCSORG
 10
0.0
 20
0.0
 30
0.0
  9
$PUCSXDIR
 10
1.0
 20
0.0
 30
0.0
  9
$PUCSYDIR
 10
0.0
 20
1.0
 30
0.0
  9
$PUCSORTHOREF
  2

  9
$PUCSORTHOVIEW
 70
     0
  9
$PUCSORGTOP
 10
0.0
 20
0.0
 30
0.0
  9
$PUCSORGBOTTOM
 10
0.0
 20
0.0
 30
0.0
  9
$PUCSORGLEFT
 10
0.0
 20
0.0
 30
0.0
  9
$PUCSORGRIGHT
 10
0.0
 20
0.0
 30
0.0
  9
$PUCSORGFRONT
 10
0.0
 20
0.0
 30
0.0
  9
$PUCSORGBACK
 10
0.0
 20
0.0
 30
0.0
  9
$USERI1
 70
     0
  9
$USERI2
 70
     0
  9
$USERI3
 70
     0
  9
$USERI4
 70
     0
  9
$USERI5
 70
     0
  9
$USERR1
 40
0.0
  9
$USERR2
 40
0.0
  9
$USERR3
 40
0.0
  9
$USERR4
 40
0.0
  9
$USERR5
 40
0.0
  9
$WORLDVIEW
 70
     1
  9
$SHADEDGE
 70
     3
  9
$SHADEDIF
 70
    70
  9
$TILEMODE
 70
     1
  9
$MAXACTVP
 70
    64
  9
$PINSBASE
 10
0.0
 20
0.0
 30
0.0
  9
$PLIMCHECK
 70
     0
  9
$PEXTMIN
 10
1.0000000000E+20
 20
1.0000000000E+20
 30
1.0000000000E+20
  9
$PEXTMAX
 10
-1.0000000000E+20
 20
-1.0000000000E+20
 30
-1.0000000000E+20
  9
$PLIMMIN
 10
0.0
 20
0.0
  9
$PLIMMAX
 10
420.0
 20
297.0
  9
$UNITMODE
 70
     0
  9
$VISRETAIN
 70
     1
  9
$PLINEGEN
 70
     0
  9
$PSLTSCALE
 70
     1
  9
$TREEDEPTH
 70
  3020
  9
$CMLSTYLE
  2
Standard
  9
$CMLJUST
 70
     0
  9
$CMLSCALE
 40
20.0
  9
$PROXYGRAPHICS
 70
     1
  9
$MEASUREMENT
 70
     1
  9
$CELWEIGHT
370
    -1
  9
$ENDCAPS
280
     0
  9
$JOINSTYLE
280
     0
  9
$LWDISPLAY
290
     1
  9
$INSUNITS
 70
     4
  9
$HYPERLINKBASE
  1

  9
$STYLESHEET
  1

  9
$XEDIT
290
     1
  9
$CEPSNTYPE
380
     0
  9
$PSTYLEMODE
290
     1
  9
$FINGERPRINTGUID
  2
{FBD6E8D5-F2BB-4442-B95F-74E4475FE504}
  9
$VERSIONGUID
  2
{FAEB1C32-E019-11D5-929B-00C0DF256EC4}
  9
$EXTNAMES
290
     1
  9
$PSVPSCALE
 40
0.0
  9
$OLESTARTUP
290
     0
  0
ENDSEC
  0
SECTION
  2
CLASSES
  0
CLASS
  1
ACDBDICTIONARYWDFLT
  2
AcDbDictionaryWithDefault
  3
ObjectDBX Classes
 90
        0
280
     0
281
     0
  0
CLASS
  1
VISUALSTYLE
  2
AcDbVisualStyle
  3
ObjectDBX Classes
 90
     4095
280
     0
281
     0
  0
CLASS
  1
MATERIAL
  2
AcDbMaterial
  3
ObjectDBX Classes
 90
     1153
280
     0
281
     0
  0
CLASS
  1
SCALE
  2
AcDbScale
  3
ObjectDBX Classes
 90
     1153
280
     0
281
     0
  0
CLASS
  1
TABLESTYLE
  2
AcDbTableStyle
  3
ObjectDBX Classes
 90
     4095
280
     0
281
     0
  0
CLASS
  1
MLEADERSTYLE
  2
AcDbMLeaderStyle
  3
ACDB_MLEADERSTYLE_CLASS
 90
     4095
280
     0
281
     0
  0
CLASS
  1
SUN
  2
AcDbSun
  3
SCENEOE
 90
     1153
280
     0
281
     0
  0
CLASS
  1
ACDBPLACEHOLDER
  2
AcDbPlaceHolder
  3
ObjectDBX Classes
 90
        0
280
     0
281
     0
  0
CLASS
  1
LAYOUT
  2
AcDbLayout
  3
ObjectDBX Classes
 90
        0
280
     0
281
     0
  0
ENDSEC
  0
SECTION
  2
TABLES
  0
TABLE
  2
VPORT
  5
8
330
0
100
AcDbSymbolTable
 70
     1
  0
VPORT
  5
29
330
8
100
AcDbSymbolTableRecord
100
AcDbViewportTableRecord
  2
*Active
 70
     0
 10
0.0
 20
0.0
 11
1.0
 21
1.0
 12
148.5
 22
105.0
 13
0.0
 23
0.0
 14
10.0
 24
10.0
 15
10.0
 25
10.0
 16
0.0
 26
0.0
 36
1.0
 17
0.0
 27
0.0
 37
0.0
 40
210.0
 41
1.4142857143
 42
50.0
 43
0.0
 44
0.0
 50
0.0
 51
0.0
 71
     0
 72
  2000
 73
     1
 74
     3
 75
     0
 76
     0
 77
     0
 78
     0
281
     0
 65
     1
110
0.0
120
0.0
130
0.0
111
1.0
121
0.0
131
0.0
112
0.0
122
1.0
132
0.0
 79
     0
146
0.0
  0
ENDTAB
  0
TABLE
  2
LTYPE
  5
5
330
0
100
AcDbSymbolTable
 70
     6
  0
LTYPE
  5
14
330
5
100
AcDbSymbolTableRecord
100
AcDbLinetypeTableRecord
  2
ByBlock
 70
     0
  3

 72
    65
 73
     0
 40
0.0
  0
LTYPE
  5
15
330
5
100
AcDbSymbolTableRecord
100
AcDbLinetypeTableRecord
  2
ByLayer
 70
     0
  3

 72
    65
 73
     0
 40
0.0
  0
LTYPE
  5
16
330
5
100
AcDbSymbolTableRecord
100
AcDbLinetypeTableRecord
  2
Continuous
 70
     0
  3
Solid line
 72
    65
 73
     0
 40
0.0
  0
LTYPE
  5
6E
330
5
100
AcDbSymbolTableRecord
100
AcDbLinetypeTableRecord
  2
HIDDEN
 70
     0
  3
Hidden __ __ __ __ __ __ __ __ __ __ __ __ __ __
 72
    65
 73
     2
 40
1.905
 49
1.27
 74
     0
 49
-0.635
 74
     0
  0
LTYPE
  5
6F
330
5
100
AcDbSymbolTableRecord
100
AcDbLinetypeTableRecord
  2
PHANTOM
 70
     0
  3
Phantom ______  __  __  ______  __  __  ______
 72
    65
 73
     6
 40
12.7
 49
6.35
 74
     0
 49
-1.27
 74
     0
 49
1.27
 74
     0
 49
-1.27
 74
     0
 49
1.27
 74
     0
 49
-1.27
 74
     0
  0
LTYPE
  5
70
330
5
100
AcDbSymbolTableRecord
100
AcDbLinetypeTableRecord
  2
CENTER
 70
     0
  3
Center ____ _ ____ _ ____ _ ____ _ ____ _ ____
 72
    65
 73
     4
 40
10.16
 49
6.35
 74
     0
 49
-1.27
 74
     0
 49
1.27
 74
     0
 49
-1.27
 74
     0
  0
LTYPE
  5
71
330
5
100
AcDbSymbolTableRecord
100
AcDbLinetypeTableRecord
  2
CENTERX2
 70
     0
  3
Center (2x) ________  __  ________  __  _____
 72
    65
 73
     4
 40
20.32
 49
12.7
 74
     0
 49
-2.54
 74
     0
 49
2.54
 74
     0
 49
-2.54
 74
     0
  0
LTYPE
  5
72
330
5
100
AcDbSymbolTableRecord
100
AcDbLinetypeTableRecord
  2
DOT2
 70
     0
  3
Dot (.5x) ........................................
 72
    65
 73
     2
 40
0.635
 49
0.0
 74
     0
 49
-0.635
 74
     0
  0
ENDTAB
  0
TABLE
  2
LAYER
  5
2
330
0
100
AcDbSymbolTable
 70
     5
  0
LAYER
  5
10
330
2
100
AcDbSymbolTableRecord
100
AcDbLayerTableRecord
  2
0
 70
     0
 62
     7
  6
Continuous
370
    -3
390
F
  0
LAYER
  5
73
330
2
100
AcDbSymbolTableRecord
100
AcDbLayerTableRecord
  2
FORMAT
 70
     0
 62
     7
  6
Continuous
370
    -3
390
F
  0
LAYER
  5
74
330
2
100
AcDbSymbolTableRecord
100
AcDbLayerTableRecord
  2
VERMASSUNG
 70
     0
 62
     7
  6
Continuous
370
    -3
390
F
  0
LAYER
  5
75
330
2
100
AcDbSymbolTableRecord
100
AcDbLayerTableRecord
  2
KOPF_DÜNN
 70
     0
 62
     7
  6
Continuous
370
    -3
390
F
  0
LAYER
  5
76
330
2
100
AcDbSymbolTableRecord
100
AcDbLayerTableRecord
  2
KOPF_DICK
 70
     0
 62
     7
  6
Continuous
370
    15
390
F
  0
ENDTAB
  0
TABLE
  2
STYLE
  5
3
330
0
100
AcDbSymbolTable
 70
     2
  0
STYLE
  5
11
330
3
100
AcDbSymbolTableRecord
100
AcDbTextStyleTableRecord
  2
Standard
 70
     0
 40
0.0
 41
1.0
 50
0.0
 71
     0
 42
2.0
  3
txt
  4

  0
STYLE
  5
77
330
3
100
AcDbSymbolTableRecord
100
AcDbTextStyleTableRecord
  2
SLDTEXTSTYLE0
 70
     0
 40
0.0
 41
0.7
 50
0.0
 71
     0
 42
2.0
  3
TXT
  4

  0
ENDTAB
  0
TABLE
  2
VIEW
  5
6
330
0
100
AcDbSymbolTable
 70
     0
  0
ENDTAB
  0
TABLE
  2
UCS
  5
7
330
0
100
AcDbSymbolTable
 70
     0
  0
ENDTAB
  0
TABLE
  2
APPID
  5
9
330
0
100
AcDbSymbolTable
 70
     1
  0
APPID
  5
12
330
9
100
AcDbSymbolTableRecord
100
AcDbRegAppTableRecord
  2
ACAD
 70
     0
  0
ENDTAB
  0
TABLE
  2
DIMSTYLE
  5
A
330
0
100
AcDbSymbolTable
 70
     2
100
AcDbDimStyleTable
  0
DIMSTYLE
105
27
330
A
100
AcDbSymbolTableRecord
100
AcDbDimStyleTableRecord
  2
ISO-25
 70
     0
 41
2.5
 42
0.625
 43
3.75
 44
1.25
 73
     0
 74
     0
 77
     1
 78
     8
140
2.5
141
2.5
143
0.0393700787
147
0.625
171
     3
172
     1
178
     0
271
     2
272
     2
274
     3
278
    44
283
     0
284
     8
340
11
  0
DIMSTYLE
105
1E4
102
{ACAD_REACTORS
330
1E3
330
1F0
330
1FB
330
207
330
211
330
21B
102
}
330
A
100
AcDbSymbolTableRecord
100
AcDbDimStyleTableRecord
  2
SLDDIMSTYLE0
 70
     0
 41
3.0
 44
0.0
 45
0.000000001
 73
     0
 74
     0
 77
     1
 78
    12
 79
     3
140
2.0
147
0.5
173
     1
178
     0
271
     2
272
     3
276
     2
284
    12
340
77
  0
ENDTAB
  0
TABLE
  2
BLOCK_RECORD
  5
1
330
0
100
AcDbSymbolTable
 70
     7
  0
BLOCK_RECORD
  5
1F
330
1
100
AcDbSymbolTableRecord
100
AcDbBlockTableRecord
  2
*Model_Space
340
22
  0
BLOCK_RECORD
  5
1B
330
1
100
AcDbSymbolTableRecord
100
AcDbBlockTableRecord
  2
*Paper_Space
340
1E
  0
BLOCK_RECORD
  5
23
330
1
100
AcDbSymbolTableRecord
100
AcDbBlockTableRecord
  2
*Paper_Space0
340
26
  0
BLOCK_RECORD
  5
1E5
330
1
100
AcDbSymbolTableRecord
100
AcDbBlockTableRecord
  2
_D
340
0
  0
BLOCK_RECORD
  5
1F1
330
1
100
AcDbSymbolTableRecord
100
AcDbBlockTableRecord
  2
_D_1
340
0
  0
BLOCK_RECORD
  5
1FC
330
1
100
AcDbSymbolTableRecord
100
AcDbBlockTableRecord
  2
_D_2
340
0
  0
BLOCK_RECORD
  5
208
330
1
100
AcDbSymbolTableRecord
100
AcDbBlockTableRecord
  2
_D_3
340
0
  0
BLOCK_RECORD
  5
212
330
1
100
AcDbSymbolTableRecord
100
AcDbBlockTableRecord
  2
_D_4
340
0
  0
BLOCK_RECORD
  5
21C
330
1
100
AcDbSymbolTableRecord
100
AcDbBlockTableRecord
  2
_D_5
340
0
  0
ENDTAB
  0
ENDSEC
  0
SECTION
  2
BLOCKS
  0
BLOCK
  5
20
330
1F
100
AcDbEntity
  8
0
100
AcDbBlockBegin
  2
*Model_Space
 70
     0
 10
0.0
 20
0.0
 30
0.0
  3
*Model_Space
  1

  0
ENDBLK
  5
21
330
1F
100
AcDbEntity
  8
0
100
AcDbBlockEnd
  0
BLOCK
  5
1C
330
1B
100
AcDbEntity
 67
     1
  8
0
100
AcDbBlockBegin
  2
*Paper_Space
 70
     0
 10
0.0
 20
0.0
 30
0.0
  3
*Paper_Space
  1

  0
ENDBLK
  5
1D
330
1B
100
AcDbEntity
 67
     1
  8
0
100
AcDbBlockEnd
  0
BLOCK
  5
24
330
23
100
AcDbEntity
  8
0
100
AcDbBlockBegin
  2
*Paper_Space0
 70
     0
 10
0.0
 20
0.0
 30
0.0
  3
*Paper_Space0
  1

  0
ENDBLK
  5
25
330
23
100
AcDbEntity
  8
0
100
AcDbBlockEnd
  0
BLOCK
  5
1E6
330
1E5
100
AcDbEntity
  8
0
100
AcDbBlockBegin
  2
_D
 70
     0
 10
0.0
 20
0.0
 30
0.0
  3
_D
  1

  0
SOLID
  5
1E8
330
1E5
100
AcDbEntity
  8
VERMASSUNG
100
AcDbTrace
 10
62.7527294268
 20
65.7798705082
 30
0.0
 11
63.2027294268
 21
68.7798705082
 31
0.0
 12
62.3027294268
 22
68.7798705082
 32
0.0
 13
62.3027294268
 23
68.7798705082
 33
0.0
  0
SOLID
  5
1E9
330
1E5
100
AcDbEntity
  8
VERMASSUNG
100
AcDbTrace
 10
62.7527294268
 20
163.2298705082
 30
0.0
 11
62.3027294268
 21
160.2298705082
 31
0.0
 12
63.2027294268
 22
160.2298705082
 32
0.0
 13
63.2027294268
 23
160.2298705082
 33
0.0
  0
LINE
  5
1EA
330
1E5
100
AcDbEntity
  8
VERMASSUNG
100
AcDbLine
 10
196.9033864813
 20
65.7798705082
 30
0.0
 11
61.7527294268
 21
65.7798705082
 31
0.0
  0
LINE
  5
1EB
330
1E5
100
AcDbEntity
  8
VERMASSUNG
100
AcDbLine
 10
196.9033864813
 20
163.2298705082
 30
0.0
 11
61.7527294268
 21
163.2298705082
 31
0.0
  0
LINE
  5
1EC
330
1E5
100
AcDbEntity
  8
VERMASSUNG
100
AcDbLine
 10
62.7527294268
 20
65.7798705082
 30
0.0
 11
62.7527294268
 21
163.2298705082
 31
0.0
  0
MTEXT
  5
1ED
330
1E5
100
AcDbEntity
  8
VERMASSUNG
100
AcDbMText
 10
59.9745941705
 20
105.0004348748
 30
0.0
 40
2.0
 41
0.0
 71
     1
 72
     1
  1
ISO 50
  7
SLDTEXTSTYLE0
 11
3.391901413832837E-15
 21
1.0
 31
0.0
 73
     1
 44
1.0
  0
MTEXT
  5
1EE
330
1E5
100
AcDbEntity
  8
VERMASSUNG
100
AcDbMText
 10
60.1745941218
 20
114.0004344874
 30
0.0
 40
2.0
 41
0.0
 71
     1
 72
     1
  1
%%c
  7
SLDTEXTSTYLE0
 11
3.391901413832837E-15
 21
1.0
 31
0.0
 73
     1
 44
1.0
  0
MTEXT
  5
1EF
330
1E5
100
AcDbEntity
  8
VERMASSUNG
100
AcDbMText
 10
60.1745938308
 20
117.6097778202
 30
0.0
 40
2.0
 41
0.0
 71
     1
 72
     1
  1
97.45
  7
SLDTEXTSTYLE0
 11
3.391901413832837E-15
 21
1.0
 31
0.0
 73
     1
 44
1.0
  0
ENDBLK
  5
1E7
330
1E5
100
AcDbEntity
  8
0
100
AcDbBlockEnd
  0
BLOCK
  5
1F2
330
1F1
100
AcDbEntity
  8
0
100
AcDbBlockBegin
  2
_D_1
 70
     0
 10
0.0
 20
0.0
 30
0.0
  3
_D_1
  1

  0
SOLID
  5
1F4
330
1F1
100
AcDbEntity
  8
VERMASSUNG
100
AcDbTrace
 10
233.9406045264
 20
105.5048705082
 30
0.0
 11
234.3906045264
 21
108.5048705082
 31
0.0
 12
233.4906045264
 22
108.5048705082
 32
0.0
 13
233.4906045264
 23
108.5048705082
 33
0.0
  0
SOLID
  5
1F5
330
1F1
100
AcDbEntity
  8
VERMASSUNG
100
AcDbTrace
 10
233.9406045264
 20
123.5048705082
 30
0.0
 11
233.4906045264
 21
120.5048705082
 31
0.0
 12
234.3906045264
 22
120.5048705082
 32
0.0
 13
234.3906045264
 23
120.5048705082
 33
0.0
  0
LINE
  5
1F6
330
1F1
100
AcDbEntity
  8
VERMASSUNG
100
AcDbLine
 10
223.4533864813
 20
105.5048705082
 30
0.0
 11
234.9406045264
 21
105.5048705082
 31
0.0
  0
LINE
  5
1F7
330
1F1
100
AcDbEntity
  8
VERMASSUNG
100
AcDbLine
 10
223.4533864813
 20
123.5048705082
 30
0.0
 11
234.9406045264
 21
123.5048705082
 31
0.0
  0
LINE
  5
1F8
330
1F1
100
AcDbEntity
  8
VERMASSUNG
100
AcDbLine
 10
233.9406045264
 20
105.5048705082
 30
0.0
 11
233.9406045264
 21
123.5048705082
 31
0.0
  0
MTEXT
  5
1F9
330
1F1
100
AcDbEntity
  8
VERMASSUNG
100
AcDbMText
 10
231.3624692215
 20
111.499870444
 30
0.0
 40
2.0
 41
0.0
 71
     1
 72
     1
  1
%%c
  7
SLDTEXTSTYLE0
 11
6.123233995736766E-17
 21
1.0
 31
0.0
 73
     1
 44
1.0
  0
MTEXT
  5
1FA
330
1F1
100
AcDbEntity
  8
VERMASSUNG
100
AcDbMText
 10
231.1624692702
 20
115.1098704583
 30
0.0
 40
2.0
 41
0.0
 71
     1
 72
     1
  1
18
  7
SLDTEXTSTYLE0
 11
6.123233995736766E-17
 21
1.0
 31
0.0
 73
     1
 44
1.0
  0
ENDBLK
  5
1F3
330
1F1
100
AcDbEntity
  8
0
100
AcDbBlockEnd
  0
BLOCK
  5
1FD
330
1FC
100
AcDbEntity
  8
0
100
AcDbBlockBegin
  2
_D_2
 70
     0
 10
0.0
 20
0.0
 30
0.0
  3
_D_2
  1

  0
SOLID
  5
1FF
330
1FC
100
AcDbEntity
  8
VERMASSUNG
100
AcDbTrace
 10
240.1406045264
 20
130.5048705082
 30
0.0
 11
239.6906045264
 21
127.5048705082
 31
0.0
 12
240.5906045264
 22
127.5048705082
 32
0.0
 13
240.5906045264
 23
127.5048705082
 33
0.0
  0
SOLID
  5
200
330
1FC
100
AcDbEntity
  8
VERMASSUNG
100
AcDbTrace
 10
240.1406045264
 20
98.5048705082
 30
0.0
 11
240.5906045264
 21
101.5048705082
 31
0.0
 12
239.6906045264
 22
101.5048705082
 32
0.0
 13
239.6906045264
 23
101.5048705082
 33
0.0
  0
LINE
  5
201
330
1FC
100
AcDbEntity
  8
VERMASSUNG
100
AcDbLine
 10
224.1533864813
 20
130.5048705082
 30
0.0
 11
241.1406045264
 21
130.5048705082
 31
0.0
  0
LINE
  5
202
330
1FC
100
AcDbEntity
  8
VERMASSUNG
100
AcDbLine
 10
224.1533864813
 20
98.5048705082
 30
0.0
 11
241.1406045264
 21
98.5048705082
 31
0.0
  0
LINE
  5
203
330
1FC
100
AcDbEntity
  8
VERMASSUNG
100
AcDbLine
 10
240.1406045264
 20
130.5048705082
 30
0.0
 11
240.1406045264
 21
98.5048705082
 31
0.0
  0
MTEXT
  5
204
330
1FC
100
AcDbEntity
  8
VERMASSUNG
100
AcDbMText
 10
237.3624692702
 20
108.6998707767
 30
0.0
 40
2.0
 41
0.0
 71
     1
 72
     1
  1
WH3
  7
SLDTEXTSTYLE0
 11
-7.044195017643634E-15
 21
1.0
 31
0.0
 73
     1
 44
1.0
  0
MTEXT
  5
205
330
1FC
100
AcDbEntity
  8
VERMASSUNG
100
AcDbMText
 10
237.5624692215
 20
113.8998707908
 30
0.0
 40
2.0
 41
0.0
 71
     1
 72
     1
  1
%%c
  7
SLDTEXTSTYLE0
 11
-7.044195017643634E-15
 21
1.0
 31
0.0
 73
     1
 44
1.0
  0
MTEXT
  5
206
330
1FC
100
AcDbEntity
  8
VERMASSUNG
100
AcDbMText
 10
237.3624692702
 20
117.5098703395
 30
0.0
 40
2.0
 41
0.0
 71
     1
 72
     1
  1
32
  7
SLDTEXTSTYLE0
 11
-7.044195017643634E-15
 21
1.0
 31
0.0
 73
     1
 44
1.0
  0
ENDBLK
  5
1FE
330
1FC
100
AcDbEntity
  8
0
100
AcDbBlockEnd
  0
BLOCK
  5
209
330
208
100
AcDbEntity
  8
0
100
AcDbBlockBegin
  2
_D_3
 70
     0
 10
0.0
 20
0.0
 30
0.0
  3
_D_3
  1

  0
SOLID
  5
20B
330
208
100
AcDbEntity
  8
VERMASSUNG
100
AcDbTrace
 10
224.4533864813
 20
167.633052817
 30
0.0
 11
221.4533864813
 21
168.083052817
 31
0.0
 12
221.4533864813
 22
167.183052817
 32
0.0
 13
221.4533864813
 23
167.183052817
 33
0.0
  0
SOLID
  5
20C
330
208
100
AcDbEntity
  8
VERMASSUNG
100
AcDbTrace
 10
197.5033864813
 20
167.633052817
 30
0.0
 11
200.5033864813
 21
167.183052817
 31
0.0
 12
200.5033864813
 22
168.083052817
 32
0.0
 13
200.5033864813
 23
168.083052817
 33
0.0
  0
LINE
  5
20D
330
208
100
AcDbEntity
  8
VERMASSUNG
100
AcDbLine
 10
224.4533864813
 20
130.2048705082
 30
0.0
 11
224.4533864813
 21
168.633052817
 31
0.0
  0
LINE
  5
20E
330
208
100
AcDbEntity
  8
VERMASSUNG
100
AcDbLine
 10
197.5033864813
 20
160.7998574614
 30
0.0
 11
197.5033864813
 21
168.633052817
 31
0.0
  0
LINE
  5
20F
330
208
100
AcDbEntity
  8
VERMASSUNG
100
AcDbLine
 10
224.4533864813
 20
167.633052817
 30
0.0
 11
197.5033864813
 21
167.633052817
 31
0.0
  0
MTEXT
  5
210
330
208
100
AcDbEntity
  8
VERMASSUNG
100
AcDbMText
 10
207.8783866251
 20
170.211188413
 30
0.0
 40
2.0
 41
0.0
 71
     1
 72
     1
  1
26.95
  7
SLDTEXTSTYLE0
 73
     1
 44
1.0
  0
ENDBLK
  5
20A
330
208
100
AcDbEntity
  8
0
100
AcDbBlockEnd
  0
BLOCK
  5
213
330
212
100
AcDbEntity
  8
0
100
AcDbBlockBegin
  2
_D_4
 70
     0
 10
0.0
 20
0.0
 30
0.0
  3
_D_4
  1

  0
SOLID
  5
215
330
212
100
AcDbEntity
  8
VERMASSUNG
100
AcDbTrace
 10
224.4533864813
 20
173.633052817
 30
0.0
 11
221.4533864813
 21
174.083052817
 31
0.0
 12
221.4533864813
 22
173.183052817
 32
0.0
 13
221.4533864813
 23
173.183052817
 33
0.0
  0
SOLID
  5
216
330
212
100
AcDbEntity
  8
VERMASSUNG
100
AcDbTrace
 10
178.4533864813
 20
173.633052817
 30
0.0
 11
181.4533864813
 21
173.183052817
 31
0.0
 12
181.4533864813
 22
174.083052817
 32
0.0
 13
181.4533864813
 23
174.083052817
 33
0.0
  0
LINE
  5
217
330
212
100
AcDbEntity
  8
VERMASSUNG
100
AcDbLine
 10
224.4533864813
 20
130.2048705082
 30
0.0
 11
224.4533864813
 21
174.633052817
 31
0.0
  0
LINE
  5
218
330
212
100
AcDbEntity
  8
VERMASSUNG
100
AcDbLine
 10
178.4533864813
 20
149.4298705082
 30
0.0
 11
178.4533864813
 21
174.633052817
 31
0.0
  0
LINE
  5
219
330
212
100
AcDbEntity
  8
VERMASSUNG
100
AcDbLine
 10
224.4533864813
 20
173.633052817
 30
0.0
 11
178.4533864813
 21
173.633052817
 31
0.0
  0
MTEXT
  5
21A
330
212
100
AcDbEntity
  8
VERMASSUNG
100
AcDbMText
 10
199.9533864683
 20
176.211188413
 30
0.0
 40
2.0
 41
0.0
 71
     1
 72
     1
  1
46
  7
SLDTEXTSTYLE0
 73
     1
 44
1.0
  0
ENDBLK
  5
214
330
212
100
AcDbEntity
  8
0
100
AcDbBlockEnd
  0
BLOCK
  5
21D
330
21C
100
AcDbEntity
  8
0
100
AcDbBlockBegin
  2
_D_5
 70
     0
 10
0.0
 20
0.0
 30
0.0
  3
_D_5
  1

  0
SOLID
  5
21F
330
21C
100
AcDbEntity
  8
VERMASSUNG
100
AcDbTrace
 10
224.4533864813
 20
179.633052817
 30
0.0
 11
221.4533864813
 21
180.083052817
 31
0.0
 12
221.4533864813
 22
179.183052817
 32
0.0
 13
221.4533864813
 23
179.183052817
 33
0.0
  0
SOLID
  5
220
330
21C
100
AcDbEntity
  8
VERMASSUNG
100
AcDbTrace
 10
76.8533864813
 20
179.633052817
 30
0.0
 11
79.8533864813
 21
179.183052817
 31
0.0
 12
79.8533864813
 22
180.083052817
 32
0.0
 13
79.8533864813
 23
180.083052817
 33
0.0
  0
LINE
  5
221
330
21C
100
AcDbEntity
  8
VERMASSUNG
100
AcDbLine
 10
224.4533864813
 20
130.2048705082
 30
0.0
 11
224.4533864813
 21
180.633052817
 31
0.0
  0
LINE
  5
222
330
21C
100
AcDbEntity
  8
VERMASSUNG
100
AcDbLine
 10
76.8533864813
 20
132.8837150356
 30
0.0
 11
76.8533864813
 21
180.633052817
 31
0.0
  0
LINE
  5
223
330
21C
100
AcDbEntity
  8
VERMASSUNG
100
AcDbLine
 10
224.4533864813
 20
179.633052817
 30
0.0
 11
76.8533864813
 21
179.633052817
 31
0.0
  0
MTEXT
  5
224
330
21C
100
AcDbEntity
  8
VERMASSUNG
100
AcDbMText
 10
147.6533866881
 20
182.211188413
 30
0.0
 40
2.0
 41
0.0
 71
     1
 72
     1
  1
147.6
  7
SLDTEXTSTYLE0
 73
     1
 44
1.0
  0
ENDBLK
  5
21E
330
21C
100
AcDbEntity
  8
0
100
AcDbBlockEnd
  0
ENDSEC
  0
SECTION
  2
ENTITIES
  0
MTEXT
  5
78
330
1F
100
AcDbEntity
  8
KOPF_DÜNN
100
AcDbMText
 10
13.8892156294
 20
23.8442973028
 30
0.0
 40
3.0
 41
0.0
 71
     1
 72
     1
  1
A14.450.032.046
  7
SLDTEXTSTYLE0
 73
     1
 44
1.0
  0
MTEXT
  5
79
330
1F
100
AcDbEntity
  8
VERMASSUNG
100
AcDbMText
 10
13.9329988022
 20
28.8834360957
 30
0.0
 40
3.0
 41
0.0
 71
     1
 72
     1
  1
Aufnahme_Master shank WH30
  7
SLDTEXTSTYLE0
 73
     1
 44
1.0
  0
MTEXT
  5
7A
330
1F
100
AcDbEntity
  8
VERMASSUNG
100
AcDbMText
 10
98.8601118557
 20
13.8365368761
 30
0.0
 40
2.0
 41
0.0
 71
     1
 72
     1
  1
Datum: 21.10.2011
  7
SLDTEXTSTYLE0
 73
     1
 44
1.0
  0
MTEXT
  5
7B
330
1F
100
AcDbEntity
  8
VERMASSUNG
100
AcDbMText
 10
13.933048693
 20
18.0482802738
 30
0.0
 40
2.0
 41
0.0
 71
     1
 72
     1
  1
DIN 69871 AD/B
  7
SLDTEXTSTYLE0
 73
     1
 44
1.0
  0
MTEXT
  5
7C
330
1F
100
AcDbEntity
  8
VERMASSUNG
100
AcDbMText
 10
13.9808475933
 20
13.9090974274
 30
0.0
 40
2.0
 41
0.0
 71
     1
 72
     1
  1
Gewicht: 2769g
  7
SLDTEXTSTYLE0
 73
     1
 44
1.0
  0
LINE
  5
7D
330
1F
100
AcDbEntity
  8
0
  6
Continuous
 62
     7
370
    15
100
AcDbLine
 10
215.994574781
 20
130.2136820893
 30
0.0
 11
215.7033874648
 21
130.5048712681
 31
0.0
  0
LINE
  5
7E
330
1F
100
AcDbEntity
  8
0
  6
Continuous
 62
     7
370
    15
100
AcDbLine
 10
209.1033856379
 20
130.5048712681
 30
0.0
 11
208.8197606611
 21
130.2212444286
 31
0.0
  0
ARC
  5
7F
330
1F
100
AcDbEntity
  8
0
  6
Continuous
 62
     7
370
    15
100
AcDbCircle
 10
181.0533864813
 20
78.9798705082
 30
0.0
 40
0.6000000000000227
100
AcDbArc
 50
0.0
 51
90.0
  0
ARC
  5
80
330
1F
100
AcDbEntity
  8
0
  6
Continuous
 62
     7
370
    15
100
AcDbCircle
 10
181.0533864813
 20
150.0298705082
 30
0.0
 40
0.6000000000000227
100
AcDbArc
 50
270.0
 51
0.0
  0
LINE
  5
81
330
1F
100
AcDbEntity
  8
0
  6
Continuous
 62
     7
370
    15
100
AcDbLine
 10
178.4533864813
 20
79.5798716287
 30
0.0
 11
181.0533864884
 21
79.5798716287
 31
0.0
  0
LINE
  5
82
330
1F
100
AcDbEntity
  8
0
  6
Continuous
 62
     7
370
    15
100
AcDbLine
 10
181.0533864884
 20
149.4298693876
 30
0.0
 11
178.4533864813
 21
149.4298693876
 31
0.0
  0
LINE
  5
83
330
1F
100
AcDbEntity
  8
0
  6
Continuous
 62
     7
370
    15
100
AcDbLine
 10
178.4533864813
 20
149.4298693876
 30
0.0
 11
78.5647711711
 21
134.8627810518
 31
0.0
  0
LINE
  5
84
330
1F
100
AcDbEntity
  8
0
  6
Continuous
 62
     7
370
    15
100
AcDbLine
 10
78.5647711711
 20
94.1469599645
 30
0.0
 11
178.4533864813
 21
79.5798716287
 31
0.0
  0
ARC
  5
85
330
1F
100
AcDbEntity
  8
0
  6
Continuous
 62
     7
370
    15
100
AcDbCircle
 10
78.8533864813
 20
96.1260259808
 30
0.0
 40
2.000000000000008
100
AcDbArc
 50
180.0
 51
261.7028550302
  0
ARC
  5
86
330
1F
100
AcDbEntity
  8
0
  6
Continuous
 62
     7
370
    15
100
AcDbCircle
 10
78.8533864813
 20
132.8837150356
 30
0.0
 40
1.999999999999994
100
AcDbArc
 50
98.2971449698
 51
180.0
  0
ARC
  5
87
330
1F
100
AcDbEntity
  8
0
  6
Continuous
 62
     7
370
    15
100
AcDbCircle
 10
200.5033864813
 20
95.5048705082
 30
0.0
 40
3.000000000000014
100
AcDbArc
 50
90.0
 51
180.0
  0
ARC
  5
88
330
1F
100
AcDbEntity
  8
0
  6
Continuous
 62
     7
370
    15
100
AcDbCircle
 10
200.5033864813
 20
133.5048705082
 30
0.0
 40
3.0
100
AcDbArc
 50
180.0
 51
270.0
  0
LINE
  5
89
330
1F
100
AcDbEntity
  8
0
  6
Continuous
 62
     7
370
    15
100
AcDbLine
 10
224.1533852177
 20
98.5048697482
 30
0.0
 11
224.4533865707
 21
98.8048711012
 31
0.0
  0
LINE
  5
8A
330
1F
100
AcDbEntity
  8
0
  6
Continuous
 62
     7
370
    15
100
AcDbLine
 10
224.4533865707
 20
130.2048699151
 30
0.0
 11
224.1533852177
 21
130.5048712681
 31
0.0
  0
LINE
  5
8B
330
1F
100
AcDbEntity
  8
0
  6
Continuous
 62
     7
370
    15
100
AcDbLine
 10
207.4507667678
 20
130.5048712681
 30
0.0
 11
200.5033872085
 21
130.5048712681
 31
0.0
  0
LINE
  5
8C
330
1F
100
AcDbEntity
  8
0
  6
Continuous
 62
     7
370
    15
100
AcDbLine
 10
224.1533852177
 20
130.5048712681
 30
0.0
 11
217.3485501664
 21
130.5048712681
 31
0.0
  0
LINE
  5
8D
330
1F
100
AcDbEntity
  8
0
  6
Continuous
 62
     7
370
    15
100
AcDbLine
 10
200.5033872085
 20
98.5048697482
 30
0.0
 11
224.1533852177
 21
98.5048697482
 31
0.0
  0
ARC
  5
8E
330
1F
100
AcDbEntity
  8
0
  6
Continuous
 62
     7
370
    15
100
AcDbCircle
 10
192.6533864813
 20
100.0391285462
 30
0.0
 40
2.00000000000003
100
AcDbArc
 50
192.2156859337
 51
340.3453161116
  0
SPLINE
  5
8F
330
1F
100
AcDbEntity
  8
0
  6
Continuous
 62
     7
370
    15
100
AcDbSpline
210
0.0
220
0.0
230
1.0
 70
     8
 71
     3
 72
    11
 73
     7
 74
     0
 42
0.000000001
 43
0.00000001
 40
0.0
 40
0.0
 40
0.0
 40
0.0
 40
0.1849317777584515
 40
0.5198460995388045
 40
0.8714429688054978
 40
1.0
 40
1.0
 40
1.0
 40
1.0
 10
210.9243131237537
 20
112.7312639880194
 30
0.0
 10
211.0567607385296
 20
112.7083248639721
 30
0.0
 10
211.4290730407691
 20
112.6438426299971
 30
0.0
 10
212.1240632493281
 20
112.5234727581371
 30
0.0
 10
212.7659159875766
 20
112.412306307661
 30
0.0
 10
213.1081969076398
 20
112.3530255581337
 30
0.0
 10
213.1998396473438
 20
112.3371536529823
 30
0.0
  0
SPLINE
  5
90
330
1F
100
AcDbEntity
  8
0
  6
Continuous
 62
     7
370
    15
100
AcDbSpline
210
0.0
220
0.0
230
1.0
 70
     8
 71
     3
 72
    11
 73
     7
 74
     0
 42
0.000000001
 43
0.00000001
 40
0.0
 40
0.0
 40
0.0
 40
0.0
 40
0.1285558221729653
 40
0.4801546418041713
 40
0.8150693925794165
 40
1.0
 40
1.0
 40
1.0
 40
1.0
 10
213.8824581163437
 20
116.2784770283116
 30
0.0
 10
213.7908166416106
 20
116.2943490631989
 30
0.0
 10
213.4485366986948
 20
116.3536309463308
 30
0.0
 10
212.8066827079168
 20
116.4647958367319
 30
0.0
 10
212.1116922896742
 20
116.5851657543705
 30
0.0
 10
211.7393816810264
 20
116.6496482564002
 30
0.0
 10
211.6069353180439
 20
116.6725873633488
 30
0.0
  0
CIRCLE
  5
91
330
1F
100
AcDbEntity
  8
0
  6
Continuous
 62
     7
370
    15
100
AcDbCircle
 10
212.4033864813
 20
114.5048705082
 30
0.0
 40
2.399999999999993
  0
SPLINE
  5
92
330
1F
100
AcDbEntity
  8
0
  6
Continuous
 62
     7
370
    15
100
AcDbSpline
210
0.0
220
0.0
230
1.0
 70
     8
 71
     3
 72
    10
 73
     6
 74
     0
 42
0.000000001
 43
0.00000001
 40
0.0
 40
0.0
 40
0.0
 40
0.0
 40
0.4391222445458681
 40
0.7513714729831769
 40
1.0
 40
1.0
 40
1.0
 40
1.0
 10
210.1278609591038
 20
114.8989808723065
 30
0.0
 10
210.2418808929762
 20
114.5886511515215
 30
0.0
 10
210.4369776495793
 20
114.0576534571146
 30
0.0
 10
210.7205833880556
 20
113.2857605420389
 30
0.0
 10
210.8617403862803
 20
112.9015698453636
 30
0.0
 10
210.9243131237537
 20
112.7312639880194
 30
0.0
  0
SPLINE
  5
93
330
1F
100
AcDbEntity
  8
0
  6
Continuous
 62
     7
370
    15
100
AcDbSpline
210
0.0
220
0.0
230
1.0
 70
     8
 71
     3
 72
    10
 73
     6
 74
     0
 42
0.000000001
 43
0.00000001
 40
0.0
 40
0.0
 40
0.0
 40
0.0
 40
0.4391222445458681
 40
0.7513714729831769
 40
1.0
 40
1.0
 40
1.0
 40
1.0
 10
214.6789102809936
 20
114.1107601440246
 30
0.0
 10
214.5648903471212
 20
114.4210898648095
 30
0.0
 10
214.3697935905181
 20
114.9520875592164
 30
0.0
 10
214.0861878520419
 20
115.7239804742921
 30
0.0
 10
213.9450308538171
 20
116.1081711709674
 30
0.0
 10
213.8824581163437
 20
116.2784770283116
 30
0.0
  0
SPLINE
  5
94
330
1F
100
AcDbEntity
  8
0
  6
Continuous
 62
     7
370
    15
100
AcDbSpline
210
0.0
220
0.0
230
1.0
 70
     8
 71
     3
 72
    10
 73
     6
 74
     0
 42
0.000000001
 43
0.00000001
 40
0.0
 40
0.0
 40
0.0
 40
0.0
 40
0.4391223638048537
 40
0.7513708220290946
 40
1.0
 40
1.0
 40
1.0
 40
1.0
 10
211.6069353180439
 20
116.6725873633488
 30
0.0
 10
211.3951908595803
 20
116.4186786995128
 30
0.0
 10
211.0328804401396
 20
115.9842222081291
 30
0.0
 10
210.5062069076836
 20
115.352663522401
 30
0.0
 10
210.2440648508288
 20
115.0383234230778
 30
0.0
 10
210.1278609591038
 20
114.8989808723065
 30
0.0
  0
SPLINE
  5
95
330
1F
100
AcDbEntity
  8
0
  6
Continuous
 62
     7
370
    15
100
AcDbSpline
210
0.0
220
0.0
230
1.0
 70
     8
 71
     3
 72
    10
 73
     6
 74
     0
 42
0.000000001
 43
0.00000001
 40
0.0
 40
0.0
 40
0.0
 40
0.0
 40
0.4391218018173527
 40
0.7513715243829737
 40
1.0
 40
1.0
 40
1.0
 40
1.0
 10
213.1998396473438
 20
112.3371536529823
 30
0.0
 10
213.4115821009195
 20
112.5910629208771
 30
0.0
 10
213.7738898922006
 20
113.0255214079839
 30
0.0
 10
214.3005685522576
 20
113.6570753344022
 30
0.0
 10
214.5627079934493
 20
113.9714172994529
 30
0.0
 10
214.6789102809936
 20
114.1107601440246
 30
0.0
  0
CIRCLE
  5
96
330
1F
100
AcDbEntity
  8
0
  6
Continuous
 62
     7
370
    15
100
AcDbCircle
 10
212.4033864813
 20
114.5048705082
 30
0.0
 40
3.999999999999992
  0
CIRCLE
  5
97
330
1F
100
AcDbEntity
  8
0
  6
Continuous
 62
     7
370
    15
100
AcDbCircle
 10
212.4033864813
 20
114.5048705082
 30
0.0
 40
3.299999999999998
  0
ARC
  5
98
330
1F
100
AcDbEntity
  8
0
  6
Continuous
 62
     7
370
    15
100
AcDbCircle
 10
212.4033864813
 20
114.5048705082
 30
0.0
 40
2.000000000000017
100
AcDbArc
 50
260.1741075378
 51
320.1741075378
  0
ARC
  5
99
330
1F
100
AcDbEntity
  8
0
  6
Continuous
 62
     7
370
    15
100
AcDbCircle
 10
212.4033864813
 20
114.5048705082
 30
0.0
 40
2.0
100
AcDbArc
 50
80.1741075378
 51
140.1741075378
  0
ARC
  5
9A
330
1F
100
AcDbEntity
  8
0
  6
Continuous
 62
     7
370
    15
100
AcDbCircle
 10
212.4033864813
 20
114.5048705082
 30
0.0
 40
2.000000000000035
100
AcDbArc
 50
200.1741075378
 51
260.1741075378
  0
ARC
  5
9B
330
1F
100
AcDbEntity
  8
0
  6
Continuous
 62
     7
370
    15
100
AcDbCircle
 10
212.4033864813
 20
114.5048705082
 30
0.0
 40
2.000000000000035
100
AcDbArc
 50
140.1741075378
 51
200.1741075378
  0
ARC
  5
9C
330
1F
100
AcDbEntity
  8
0
  6
Continuous
 62
     7
370
    15
100
AcDbCircle
 10
212.4033864813
 20
114.5048705082
 30
0.0
 40
2.000000000000009
100
AcDbArc
 50
320.1741075378
 51
20.1741075378
  0
ARC
  5
9D
330
1F
100
AcDbEntity
  8
0
  6
Continuous
 62
     7
370
    15
100
AcDbCircle
 10
212.4033864813
 20
114.5048705082
 30
0.0
 40
2.000000000000004
100
AcDbArc
 50
20.1741075378
 51
80.1741075378
  0
LINE
  5
9E
330
1F
100
AcDbEntity
  8
0
  6
Continuous
 62
     7
370
    15
100
AcDbLine
 10
209.1033856379
 20
130.5048712681
 30
0.0
 11
215.7033874648
 21
130.5048712681
 31
0.0
  0
SPLINE
  5
9F
330
1F
100
AcDbEntity
  8
0
  6
Continuous
 62
     7
370
    15
100
AcDbSpline
210
0.0
220
0.0
230
1.0
 70
     8
 71
     3
 72
     8
 73
     4
 74
     0
 42
0.000000001
 43
0.00000001
 40
0.0
 40
0.0
 40
0.0
 40
0.0
 40
1.0
 40
1.0
 40
1.0
 40
1.0
 10
187.6433864813358
 20
69.88513109933572
 30
0.0
 10
187.3536580353113
 20
69.3629110891722
 30
0.0
 10
187.0636328850935
 20
68.84085770691223
 30
0.0
 10
186.7733386508317
 20
68.31895544118913
 30
0.0
  0
SPLINE
  5
A0
330
1F
100
AcDbEntity
  8
0
  6
Continuous
 62
     7
370
    15
100
AcDbSpline
210
0.0
220
0.0
230
1.0
 70
     8
 71
     3
 72
     8
 73
     4
 74
     0
 42
0.000000001
 43
0.00000001
 40
0.0
 40
0.0
 40
0.0
 40
0.0
 40
0.0011862984959113
 40
0.0011862984959113
 40
0.0011862984959113
 40
0.0011862984959113
 10
186.3202249738739
 20
67.77561116681952
 30
0.0
 10
186.4722497357448
 20
67.95652301643752
 30
0.0
 10
186.6233071809606
 20
68.13763534687834
 30
0.0
 10
186.7733386508317
 20
68.31895544118915
 30
0.0
  0
LINE
  5
A1
330
1F
100
AcDbEntity
  8
0
  6
Continuous
 62
     7
370
    15
100
AcDbLine
 10
186.3202254283
 20
67.7756113152
 30
0.0
 11
186.3202254283
 21
144.3548710237
 31
0.0
  0
SPLINE
  5
A2
330
1F
100
AcDbEntity
  8
0
  6
Continuous
 62
     7
370
    15
100
AcDbSpline
210
0.0
220
0.0
230
1.0
 70
    24
 71
     3
 72
     8
 73
     4
 74
     0
 42
0.000000001
 43
0.00000001
 40
0.0
 40
0.0
 40
0.0
 40
0.0
 40
1.0
 40
1.0
 40
1.0
 40
1.0
 10
187.6433864813358
 20
144.3548705081655
 30
0.0
 10
187.2081863766322
 20
144.3548705081655
 30
0.0
 10
186.7668266938933
 20
144.3548705081655
 30
0.0
 10
186.3202249738739
 20
144.3548705081655
 30
0.0
  0
LINE
  5
A3
330
1F
100
AcDbEntity
  8
0
  6
Continuous
 62
     7
370
    15
100
AcDbLine
 10
187.6433861437
 20
69.8851314525
 30
0.0
 11
187.6433861437
 21
144.3548710237
 31
0.0
  0
LINE
  5
A4
330
1F
100
AcDbEntity
  8
0
  6
Continuous
 62
     7
370
    15
100
AcDbLine
 10
182.2533865454
 20
67.7756113152
 30
0.0
 11
186.3202254283
 21
67.7756113152
 31
0.0
  0
LINE
  5
A5
330
1F
100
AcDbEntity
  8
0
  6
Continuous
 62
     7
370
    15
100
AcDbLine
 10
186.3202254283
 20
144.3548710237
 30
0.0
 11
182.2533865454
 21
144.3548710237
 31
0.0
  0
LINE
  5
A6
330
1F
100
AcDbEntity
  8
0
  6
Continuous
 62
     7
370
    15
100
AcDbLine
 10
192.7865480068
 20
100.2077232267
 30
0.0
 11
192.7865480068
 21
144.3548710237
 31
0.0
  0
LINE
  5
A7
330
1F
100
AcDbEntity
  8
0
  6
Continuous
 62
     7
370
    15
100
AcDbLine
 10
196.9033858734
 20
144.3548710237
 30
0.0
 11
192.7865480068
 21
144.3548710237
 31
0.0
  0
LINE
  5
A8
330
1F
100
AcDbEntity
  8
0
  6
Continuous
 62
     7
370
    15
100
AcDbLine
 10
192.7865480068
 20
67.7756113152
 30
0.0
 11
196.9033858734
 21
67.7756113152
 31
0.0
  0
LINE
  5
A9
330
1F
100
AcDbEntity
  8
0
  6
Continuous
 62
     7
370
    15
100
AcDbLine
 10
192.7865480068
 20
67.7756113152
 30
0.0
 11
192.7865480068
 21
95.5159296434
 31
0.0
  0
SPLINE
  5
AA
330
1F
100
AcDbEntity
  8
0
  6
Continuous
 62
     7
370
    15
100
AcDbSpline
210
0.0
220
0.0
230
1.0
 70
     8
 71
     3
 72
    34
 73
    30
 74
     0
 42
0.000000001
 43
0.00000001
 40
0.0
 40
0.0
 40
0.0
 40
0.0
 40
0.0624999999999992
 40
0.0624999999999992
 40
0.1249999999999984
 40
0.1249999999999984
 40
0.1874999999999976
 40
0.1874999999999976
 40
0.2499999999999973
 40
0.2499999999999973
 40
0.3124999999999971
 40
0.3124999999999971
 40
0.3749999999999968
 40
0.3749999999999968
 40
0.4999999999999972
 40
0.4999999999999972
 40
0.6249999999999976
 40
0.6249999999999976
 40
0.687499999999998
 40
0.687499999999998
 40
0.7499999999999984
 40
0.7499999999999984
 40
0.8124999999999989
 40
0.8124999999999989
 40
0.8749999999999992
 40
0.8749999999999992
 40
0.9374999999999997
 40
0.9374999999999997
 40
1.0
 40
1.0
 40
1.0
 40
1.0
 10
192.7865479887977
 20
95.51593012016436
 30
0.0
 10
192.9459398165856
 20
95.52377021608712
 30
0.0
 10
193.1019423000292
 20
95.54542886417755
 30
0.0
 10
193.4074518161064
 20
95.61527709167035
 30
0.0
 10
193.5583461511186
 20
95.66410279399861
 30
0.0
 10
193.8462454958094
 20
95.78702674740592
 30
0.0
 10
193.9821918987691
 20
95.86033425554024
 30
0.0
 10
194.2383745143612
 20
96.03034487931157
 30
0.0
 10
194.3595568021202
 20
96.12821867151304
 30
0.0
 10
194.576702873993
 20
96.34080284694501
 30
0.0
 10
194.6736647469534
 20
96.45584878547461
 30
0.0
 10
194.8442271827789
 20
96.70370990559472
 30
0.0
 10
194.9174672359909
 20
96.83674340266032
 30
0.0
 10
195.0923476927397
 20
97.24625141879045
 30
0.0
 10
195.1533856537156
 20
97.54421206856551
 30
0.0
 10
195.1533873089387
 20
98.13565362443997
 30
0.0
 10
195.0923526993524
 20
98.43582717441656
 30
0.0
 10
194.9174629319505
 20
98.85105845468432
 30
0.0
 10
194.8442192265261
 20
98.98641357293114
 30
0.0
 10
194.6736585107895
 20
99.23931290431779
 30
0.0
 10
194.5766947951959
 20
99.35707818192554
 30
0.0
 10
194.3595344666088
 20
99.57520847729418
 30
0.0
 10
194.238353207922
 20
99.67591180244115
 30
0.0
 10
193.9821829809833
 20
99.85115549527438
 30
0.0
 10
193.8462396313205
 20
99.92690046436499
 30
0.0
 10
193.5583369281374
 20
100.0540688396673
 30
0.0
 10
193.4074467322207
 20
100.1046701119947
 30
0.0
 10
193.101941228515
 20
100.1770992117426
 30
0.0
 10
192.9459398302515
 20
100.1995849831395
 30
0.0
 10
192.7865479887977
 20
100.2077234430344
 30
0.0
  0
LINE
  5
AB
330
1F
100
AcDbEntity
  8
0
  6
Continuous
 62
     7
370
    15
100
AcDbLine
 10
191.46338636
 20
100.707608756
 30
0.0
 11
191.46338636
 21
144.3548710237
 31
0.0
  0
SPLINE
  5
AC
330
1F
100
AcDbEntity
  8
0
  6
Continuous
 62
     7
370
    15
100
AcDbSpline
210
0.0
220
0.0
230
1.0
 70
    24
 71
     3
 72
     8
 73
     4
 74
     0
 42
0.000000001
 43
0.00000001
 40
0.0
 40
0.0
 40
0.0
 40
0.0
 40
1.0
 40
1.0
 40
1.0
 40
1.0
 10
192.7865479887977
 20
144.3548705081655
 30
0.0
 10
192.3399462687783
 20
144.3548705081655
 30
0.0
 10
191.8985865860395
 20
144.3548705081655
 30
0.0
 10
191.4633864813358
 20
144.3548705081655
 30
0.0
  0
SPLINE
  5
AD
330
1F
100
AcDbEntity
  8
0
  6
Continuous
 62
     7
370
    15
100
AcDbSpline
210
0.0
220
0.0
230
1.0
 70
     8
 71
     3
 72
    10
 73
     6
 74
     0
 42
0.000000001
 43
0.00000001
 40
0.0
 40
0.0
 40
0.0
 40
0.0
 40
0.5
 40
0.5
 40
1.0
 40
1.0
 40
1.0
 40
1.0
 10
192.7865479887977
 20
100.2077234430344
 30
0.0
 10
192.5638209619243
 20
100.3512119433282
 30
0.0
 10
192.3421350746992
 20
100.465932689061
 30
0.0
 10
191.9009142368472
 20
100.6356931184189
 30
0.0
 10
191.6813555894484
 20
100.6911131128063
 30
0.0
 10
191.4633864813361
 20
100.7076084421759
 30
0.0
  0
SPLINE
  5
AE
330
1F
100
AcDbEntity
  8
0
  6
Continuous
 62
     7
370
    15
100
AcDbSpline
210
0.0
220
0.0
230
1.0
 70
     8
 71
     3
 72
    10
 73
     6
 74
     0
 42
0.000000001
 43
0.00000001
 40
0.0
 40
0.0
 40
0.0
 40
0.0
 40
0.5
 40
0.5
 40
1.0
 40
1.0
 40
1.0
 40
1.0
 10
181.8690465124899
 20
67.87141624097329
 30
0.0
 10
181.9176970810695
 20
67.84345924970587
 30
0.0
 10
181.9750822930289
 20
67.81951696467908
 30
0.0
 10
182.105795401195
 20
67.78539850158334
 30
0.0
 10
182.1785349349336
 20
67.77561116681949
 30
0.0
 10
182.2533864813358
 20
67.7756111668195
 30
0.0
  0
SPLINE
  5
AF
330
1F
100
AcDbEntity
  8
0
  6
Continuous
 62
     7
370
    15
100
AcDbSpline
210
0.0
220
0.0
230
1.0
 70
     8
 71
     3
 72
    10
 73
     6
 74
     0
 42
0.000000001
 43
0.00000001
 40
0.0
 40
0.0
 40
0.0
 40
0.0
 40
0.5
 40
0.5
 40
1.0
 40
1.0
 40
1.0
 40
1.0
 10
181.8690465124899
 20
67.87141624097328
 30
0.0
 10
181.8108585059076
 20
67.93899997115209
 30
0.0
 10
181.7584160393814
 20
68.01947620579385
 30
0.0
 10
181.6800637322027
 20
68.20251182877658
 30
0.0
 10
181.6533864813358
 20
68.30838753157221
 30
0.0
 10
181.6533864813358
 20
68.41590084079283
 30
0.0
  0
LINE
  5
B0
330
1F
100
AcDbEntity
  8
0
  6
Continuous
 62
     7
370
    15
100
AcDbLine
 10
181.6533864005
 20
68.4158993106
 30
0.0
 11
181.6533864005
 21
144.3548710237
 31
0.0
  0
SPLINE
  5
B1
330
1F
100
AcDbEntity
  8
0
  6
Continuous
 62
     7
370
    15
100
AcDbSpline
210
0.0
220
0.0
230
1.0
 70
    24
 71
     3
 72
    14
 73
    10
 74
     0
 42
0.000000001
 43
0.00000001
 40
0.0
 40
0.0
 40
0.0
 40
0.0
 40
0.25
 40
0.25
 40
0.5
 40
0.5
 40
0.75
 40
0.75
 40
1.0
 40
1.0
 40
1.0
 40
1.0
 10
182.2533864813358
 20
144.3548705081655
 30
0.0
 10
182.1643645289922
 20
144.3548705081655
 30
0.0
 10
182.0746778297186
 20
144.3548705081655
 30
0.0
 10
181.9209510041613
 20
144.3548705081655
 30
0.0
 10
181.8557461095345
 20
144.3548705081655
 30
0.0
 10
181.7531554153641
 20
144.3548705081655
 30
0.0
 10
181.7155179610482
 20
144.3548705081655
 30
0.0
 10
181.6654260456631
 20
144.3548705081655
 30
0.0
 10
181.6533864813358
 20
144.3548705081655
 30
0.0
 10
181.6533864813358
 20
144.3548705081655
 30
0.0
  0
SPLINE
  5
B2
330
1F
100
AcDbEntity
  8
0
  6
Continuous
 62
     7
370
    15
100
AcDbSpline
210
0.0
220
0.0
230
1.0
 70
     8
 71
     3
 72
    12
 73
     8
 74
     0
 42
0.000000001
 43
0.00000001
 40
0.0
 40
0.0
 40
0.0
 40
0.0
 40
0.2499999999999992
 40
0.2499999999999992
 40
0.4999999999999984
 40
0.4999999999999984
 40
1.0
 40
1.0
 40
1.0
 40
1.0
 10
196.9033864813358
 20
67.77561116681952
 30
0.0
 10
196.9993592345107
 20
67.77561116681949
 30
0.0
 10
197.0917871986651
 20
67.7918844909281
 30
0.0
 10
197.2482172987746
 20
67.8452582129245
 30
0.0
 10
197.3116957235474
 20
67.88138647045884
 30
0.0
 10
197.4599748843746
 20
68.0020876667381
 30
0.0
 10
197.5033864813358
 20
68.09593725310329
 30
0.0
 10
197.5033864813358
 20
68.1902415280505
 30
0.0
  0
SPLINE
  5
B3
330
1F
100
AcDbEntity
  8
0
  6
Continuous
 62
     7
370
    15
100
AcDbSpline
210
0.0
220
0.0
230
1.0
 70
    24
 71
     3
 72
    12
 73
     8
 74
     0
 42
0.000000001
 43
0.00000001
 40
0.0
 40
0.0
 40
0.0
 40
0.0
 40
0.5
 40
0.5
 40
0.75
 40
0.75
 40
1.0
 40
1.0
 40
1.0
 40
1.0
 10
197.5033864813358
 20
144.3548705081655
 30
0.0
 10
197.5033864813358
 20
144.3548705081655
 30
0.0
 10
197.4552557929505
 20
144.3548705081655
 30
0.0
 10
197.3013587371474
 20
144.3548705081655
 30
0.0
 10
197.2358941721406
 20
144.3548705081655
 30
0.0
 10
197.0823648515305
 20
144.3548705081655
 30
0.0
 10
196.9940161907947
 20
144.3548705081655
 30
0.0
 10
196.9033864813356
 20
144.3548705081655
 30
0.0
  0
LINE
  5
B4
330
1F
100
AcDbEntity
  8
0
  6
Continuous
 62
     7
370
    15
100
AcDbLine
 10
197.5033867168
 20
68.1902398507
 30
0.0
 11
197.5033867168
 21
144.3548710237
 31
0.0
  0
SPLINE
  5
B5
330
1F
100
AcDbEntity
  8
0
  6
Continuous
 62
     7
370
    15
100
AcDbSpline
210
0.0
220
0.0
230
1.0
 70
     8
 71
     3
 72
    14
 73
    10
 74
     0
 42
0.000000001
 43
0.00000001
 40
0.0
 40
0.0
 40
0.0
 40
0.0
 40
0.25
 40
0.25
 40
0.5
 40
0.5
 40
0.75
 40
0.75
 40
1.0
 40
1.0
 40
1.0
 40
1.0
 10
191.4633864813358
 20
100.7532226641884
 30
0.0
 10
191.4633864813358
 20
100.795199046042
 30
0.0
 10
191.4337435273646
 20
100.8230494336829
 30
0.0
 10
191.3270886936346
 20
100.8365483089729
 30
0.0
 10
191.2508102990304
 20
100.8219328069352
 30
0.0
 10
191.0827587559639
 20
100.749843602767
 30
0.0
 10
190.9916389493556
 20
100.6927059922843
 30
0.0
 10
190.8189618371029
 20
100.550478291693
 30
0.0
 10
190.7380393975749
 20
100.466914466181
 30
0.0
 10
190.6633864813358
 20
100.3735447942851
 30
0.0
  0
SPLINE
  5
B6
330
1F
100
AcDbEntity
  8
0
  6
Continuous
 62
     7
370
    15
100
AcDbSpline
210
0.0
220
0.0
230
1.0
 70
     8
 71
     3
 72
    10
 73
     6
 74
     0
 42
0.000000001
 43
0.00000001
 40
0.0
 40
0.0
 40
0.0
 40
0.0
 40
0.5
 40
0.5
 40
1.0
 40
1.0
 40
1.0
 40
1.0
 10
191.4633864813361
 20
96.57556724354444
 30
0.0
 10
191.6802773138569
 20
96.33852830409587
 30
0.0
 10
191.8994299505158
 20
96.1363580691024
 30
0.0
 10
192.3409144507846
 20
95.78560599758369
 30
0.0
 10
192.5641169160581
 20
95.63692990518685
 30
0.0
 10
192.7865479887977
 20
95.51593012016436
 30
0.0
  0
LINE
  5
B7
330
1F
100
AcDbEntity
  8
0
  6
Continuous
 62
     7
370
    15
100
AcDbLine
 10
191.46338636
 20
96.6211822967
 30
0.0
 11
191.46338636
 21
96.5755679797
 31
0.0
  0
SPLINE
  5
B8
330
1F
100
AcDbEntity
  8
0
  6
Continuous
 62
     7
370
    15
100
AcDbSpline
210
0.0
220
0.0
230
1.0
 70
     8
 71
     3
 72
    16
 73
    12
 74
     0
 42
0.000000001
 43
0.00000001
 40
0.0
 40
0.0
 40
0.0
 40
0.0
 40
0.2500000000000014
 40
0.2500000000000014
 40
0.5000000000000028
 40
0.5000000000000028
 40
0.6250000000000047
 40
0.6250000000000047
 40
0.7500000000000067
 40
0.7500000000000067
 40
1.0
 40
1.0
 40
1.0
 40
1.0
 10
190.6633864813358
 20
97.52958095123144
 30
0.0
 10
190.737394371558
 20
97.43923337104577
 30
0.0
 10
190.818012366547
 20
97.35127379824613
 30
0.0
 10
190.9917803520512
 20
97.17493887418455
 30
0.0
 10
191.0825314829927
 20
97.08933163351854
 30
0.0
 10
191.2086445804542
 20
96.96813593749356
 30
0.0
 10
191.2482213413174
 20
96.92960435850269
 30
0.0
 10
191.3207039980186
 20
96.85520837237337
 30
0.0
 10
191.3536319884875
 20
96.81919158445187
 30
0.0
 10
191.4334221584824
 20
96.72043890863488
 30
0.0
 10
191.4633864813358
 20
96.66367490685279
 30
0.0
 10
191.4633864813358
 20
96.62118146555723
 30
0.0
  0
SPLINE
  5
B9
330
1F
100
AcDbEntity
  8
0
  6
Continuous
 62
     7
370
    15
100
AcDbSpline
210
0.0
220
0.0
230
1.0
 70
     8
 71
     3
 72
    16
 73
    12
 74
     0
 42
0.000000001
 43
0.00000001
 40
0.0
 40
0.0
 40
0.0
 40
0.0
 40
0.2500000000000001
 40
0.2500000000000001
 40
0.5000000000000002
 40
0.5000000000000002
 40
0.7500000000000003
 40
0.7500000000000003
 40
0.8750000000000001
 40
0.8750000000000001
 40
1.0
 40
1.0
 40
1.0
 40
1.0
 10
190.6633864813358
 20
100.3735447942851
 30
0.0
 10
190.4979723748557
 20
100.1666585582597
 30
0.0
 10
190.3717750438801
 20
99.94078986045093
 30
0.0
 10
190.1973687455492
 20
99.45192061483807
 30
0.0
 10
190.1535387064524
 20
99.20015356149348
 30
0.0
 10
190.1532350334824
 20
98.68837423691116
 30
0.0
 10
190.1970918935427
 20
98.43731952782845
 30
0.0
 10
190.3270136528099
 20
98.07647095968635
 30
0.0
 10
190.3811284642179
 20
97.95919819133779
 30
0.0
 10
190.5078054543613
 20
97.73670923999896
 30
0.0
 10
190.580679174722
 20
97.63054863175569
 30
0.0
 10
190.6633864813358
 20
97.52958095123144
 30
0.0
  0
SPLINE
  5
BA
330
1F
100
AcDbEntity
  8
0
  6
Continuous
 62
     7
370
    15
100
AcDbSpline
210
0.0
220
0.0
230
1.0
 70
    24
 71
     3
 72
    14
 73
    10
 74
     0
 42
0.000000001
 43
0.00000001
 40
0.0
 40
0.0
 40
0.0
 40
0.0
 40
0.25
 40
0.25
 40
0.5
 40
0.5
 40
0.75
 40
0.75
 40
1.0
 40
1.0
 40
1.0
 40
1.0
 10
191.4633864813358
 20
144.3548705081655
 30
0.0
 10
191.4633864813358
 20
144.3548705081655
 30
0.0
 10
191.44710544656
 20
144.3548705081655
 30
0.0
 10
191.3824423840354
 20
144.3548705081655
 30
0.0
 10
191.3329625877467
 20
144.3548705081655
 30
0.0
 10
191.198992830608
 20
144.3548705081655
 30
0.0
 10
191.1128781040085
 20
144.3548705081655
 30
0.0
 10
190.9074219882955
 20
144.3548705081655
 30
0.0
 10
190.7860014511027
 20
144.3548705081655
 30
0.0
 10
190.6633864813358
 20
144.3548705081655
 30
0.0
  0
SPLINE
  5
BB
330
1F
100
AcDbEntity
  8
0
  6
Continuous
 62
     7
370
    15
100
AcDbSpline
210
0.0
220
0.0
230
1.0
 70
     8
 71
     3
 72
    14
 73
    10
 74
     0
 42
0.000000001
 43
0.00000001
 40
0.0
 40
0.0
 40
0.0
 40
0.0
 40
0.25
 40
0.25
 40
0.5
 40
0.5
 40
0.75
 40
0.75
 40
1.0
 40
1.0
 40
1.0
 40
1.0
 10
188.4433864813358
 20
70.85710424229573
 30
0.0
 10
188.3369414734265
 20
70.85710424229572
 30
0.0
 10
188.2300427221531
 20
70.83453469286262
 30
0.0
 10
188.0338244667106
 20
70.74809160162069
 30
0.0
 10
187.9441661532461
 20
70.68378768395355
 30
0.0
 10
187.798712440365
 20
70.5288181699106
 30
0.0
 10
187.7406766576389
 20
70.43605268366686
 30
0.0
 10
187.6633915032542
 20
70.23758580202346
 30
0.0
 10
187.6433864813358
 20
70.1305613802297
 30
0.0
 10
187.6433864813358
 20
70.02377901975888
 30
0.0
  0
SPLINE
  5
BC
330
1F
100
AcDbEntity
  8
0
  6
Continuous
 62
     7
370
    15
100
AcDbSpline
210
0.0
220
0.0
230
1.0
 70
    24
 71
     3
 72
    14
 73
    10
 74
     0
 42
0.000000001
 43
0.00000001
 40
0.0
 40
0.0
 40
0.0
 40
0.0
 40
0.25
 40
0.25
 40
0.5
 40
0.5
 40
0.75
 40
0.75
 40
1.0
 40
1.0
 40
1.0
 40
1.0
 10
188.4433864813358
 20
144.3548705081655
 30
0.0
 10
188.3204051817895
 20
144.3548705081655
 30
0.0
 10
188.2002152933875
 20
144.3548705081655
 30
0.0
 10
187.9951914637083
 20
144.3548705081655
 30
0.0
 10
187.9085969749062
 20
144.3548705081655
 30
0.0
 10
187.7734890881438
 20
144.3548705081655
 30
0.0
 10
187.7249660031157
 20
144.3548705081655
 30
0.0
 10
187.6592834943889
 20
144.3548705081655
 30
0.0
 10
187.6433864813358
 20
144.3548705081655
 30
0.0
 10
187.6433864813358
 20
144.3548705081655
 30
0.0
  0
LINE
  5
BD
330
1F
100
AcDbEntity
  8
0
  6
Continuous
 62
     7
370
    15
100
AcDbLine
 10
190.6633867877
 20
70.8571043949
 30
0.0
 11
188.4433866473
 21
70.8571043949
 31
0.0
  0
LINE
  5
BE
330
1F
100
AcDbEntity
  8
0
  6
Continuous
 62
     7
370
    15
100
AcDbLine
 10
190.6633867877
 20
144.3548710237
 30
0.0
 11
188.4433866473
 21
144.3548710237
 31
0.0
  0
SPLINE
  5
BF
330
1F
100
AcDbEntity
  8
0
  6
Continuous
 62
     7
370
    15
100
AcDbSpline
210
0.0
220
0.0
230
1.0
 70
     8
 71
     3
 72
     8
 73
     4
 74
     0
 42
0.000000001
 43
0.00000001
 40
0.0000000000000004
 40
0.0000000000000004
 40
0.0000000000000004
 40
0.0000000000000004
 40
0.0011862984959128
 40
0.0011862984959128
 40
0.0011862984959128
 40
0.0011862984959128
 10
192.333434311836
 20
68.31895544118915
 30
0.0
 10
192.4834657817073
 20
68.13763534687811
 30
0.0
 10
192.6345232269267
 20
67.95652301643773
 30
0.0
 10
192.7865479887977
 20
67.77561116681952
 30
0.0
  0
SPLINE
  5
C0
330
1F
100
AcDbEntity
  8
0
  6
Continuous
 62
     7
370
    15
100
AcDbSpline
210
0.0
220
0.0
230
1.0
 70
     8
 71
     3
 72
     8
 73
     4
 74
     0
 42
0.000000001
 43
0.00000001
 40
0.0
 40
0.0
 40
0.0
 40
0.0
 40
1.0
 40
1.0
 40
1.0
 40
1.0
 10
192.333434311839
 20
68.31895544119081
 30
0.0
 10
192.0431400775775
 20
68.84085770691335
 30
0.0
 10
191.7531149273601
 20
69.36291108917275
 30
0.0
 10
191.4633864813358
 20
69.88513109933572
 30
0.0
  0
LINE
  5
C1
330
1F
100
AcDbEntity
  8
0
  6
Continuous
 62
     7
370
    15
100
AcDbLine
 10
191.46338636
 20
69.8851314525
 30
0.0
 11
191.46338636
 21
96.5755679797
 31
0.0
  0
SPLINE
  5
C2
330
1F
100
AcDbEntity
  8
0
  6
Continuous
 62
     7
370
    15
100
AcDbSpline
210
0.0
220
0.0
230
1.0
 70
     8
 71
     3
 72
    14
 73
    10
 74
     0
 42
0.000000001
 43
0.00000001
 40
0.0
 40
0.0
 40
0.0
 40
0.0
 40
0.25
 40
0.25
 40
0.5
 40
0.5
 40
0.75
 40
0.75
 40
1.0
 40
1.0
 40
1.0
 40
1.0
 10
191.4633864813358
 20
70.02377901975888
 30
0.0
 10
191.4633864813358
 20
70.1308430060997
 30
0.0
 10
191.4434026550958
 20
70.2375823324742
 30
0.0
 10
191.3659675726624
 20
70.436332234665
 30
0.0
 10
191.3080286505029
 20
70.52888645115752
 30
0.0
 10
191.1623908447421
 20
70.6839833945631
 30
0.0
 10
191.0736018484068
 20
70.74772355147596
 30
0.0
 10
190.8770534882023
 20
70.83447210856356
 30
0.0
 10
190.7709142585029
 20
70.85710424229572
 30
0.0
 10
190.6633864813358
 20
70.85710424229572
 30
0.0
  0
LINE
  5
C3
330
1F
100
AcDbEntity
  8
0
  6
Continuous
 62
     7
370
    15
100
AcDbLine
 10
178.4533864813
 20
79.5798716287
 30
0.0
 11
178.4533864813
 21
149.4298693876
 31
0.0
  0
SPLINE
  5
C4
330
1F
100
AcDbEntity
  8
0
  6
Continuous
 62
     7
370
    15
100
AcDbSpline
210
0.0
220
0.0
230
1.0
 70
     8
 71
     3
 72
    10
 73
     6
 74
     0
 42
0.000000001
 43
0.00000001
 40
0.0
 40
0.0
 40
0.0
 40
0.0
 40
0.5
 40
0.5
 40
1.0
 40
1.0
 40
1.0
 40
1.0
 10
181.9432554002822
 20
161.2150348338883
 30
0.0
 10
181.8668023103633
 20
161.1447720626677
 30
0.0
 10
181.7979405880943
 20
161.0576771476259
 30
0.0
 10
181.6914283570214
 20
160.8485080193737
 30
0.0
 10
181.6533864813358
 20
160.7231904701341
 30
0.0
 10
181.6533864813358
 20
160.5938401755382
 30
0.0
  0
SPLINE
  5
C5
330
1F
100
AcDbEntity
  8
0
  6
Continuous
 62
     7
370
    15
100
AcDbSpline
210
0.0
220
0.0
230
1.0
 70
     8
 71
     3
 72
     8
 73
     4
 74
     0
 42
0.000000001
 43
0.00000001
 40
0.0
 40
0.0
 40
0.0
 40
0.0
 40
1.0
 40
1.0
 40
1.0
 40
1.0
 10
182.2533864813358
 20
161.284715162941
 30
0.0
 10
182.1423082959984
 20
161.284715162941
 30
0.0
 10
182.0346442920961
 20
161.2595659873865
 30
0.0
 10
181.9432554002822
 20
161.2150348338883
 30
0.0
  0
SPLINE
  5
C6
330
1F
100
AcDbEntity
  8
0
  6
Continuous
 62
     7
370
    15
100
AcDbSpline
210
0.0
220
0.0
230
1.0
 70
     8
 71
     3
 72
    12
 73
     8
 74
     0
 42
0.000000001
 43
0.00000001
 40
0.0
 40
0.0
 40
0.0
 40
0.0
 40
0.5000000000000003
 40
0.5000000000000003
 40
0.7500000000000001
 40
0.7500000000000001
 40
1.0
 40
1.0
 40
1.0
 40
1.0
 10
181.6533864813358
 20
152.2539516228099
 30
0.0
 10
181.6533864813358
 20
152.4323118900492
 30
0.0
 10
181.7006986027118
 20
152.6110843017531
 30
0.0
 10
181.8550586805932
 20
152.8328461671049
 30
0.0
 10
181.9199442155122
 20
152.8971382057213
 30
0.0
 10
182.0751769147405
 20
152.9897826898809
 30
0.0
 10
182.1642523274087
 20
153.0159484598407
 30
0.0
 10
182.2533864813358
 20
153.0159484598407
 30
0.0
  0
LINE
  5
C7
330
1F
100
AcDbEntity
  8
0
  6
Continuous
 62
     7
370
    15
100
AcDbLine
 10
181.6533864005
 20
152.2539523582
 30
0.0
 11
181.6533864005
 21
160.5938417058
 31
0.0
  0
LINE
  5
C8
330
1F
100
AcDbEntity
  8
0
  6
Continuous
 62
     7
370
    15
100
AcDbLine
 10
196.9033858734
 20
161.2847154181
 30
0.0
 11
192.7865480068
 21
161.2847154181
 31
0.0
  0
LINE
  5
C9
330
1F
100
AcDbEntity
  8
0
  6
Continuous
 62
     7
370
    15
100
AcDbLine
 10
192.7865480068
 20
153.0159493129
 30
0.0
 11
196.9033858734
 21
153.0159493129
 31
0.0
  0
LINE
  5
CA
330
1F
100
AcDbEntity
  8
0
  6
Continuous
 62
     7
370
    15
100
AcDbLine
 10
192.7865480068
 20
153.0159493129
 30
0.0
 11
192.7865480068
 21
161.2847154181
 31
0.0
  0
SPLINE
  5
CB
330
1F
100
AcDbEntity
  8
0
  6
Continuous
 62
     7
370
    15
100
AcDbSpline
210
0.0
220
0.0
230
1.0
 70
     8
 71
     3
 72
     8
 73
     4
 74
     0
 42
0.000000001
 43
0.00000001
 40
0.0
 40
0.0
 40
0.0
 40
0.0
 40
1.0
 40
1.0
 40
1.0
 40
1.0
 10
192.2300575035023
 20
160.5049037528329
 30
0.0
 10
191.9742811927468
 20
160.0449253975681
 30
0.0
 10
191.7187177946409
 20
159.5848309372603
 30
0.0
 10
191.4633864813358
 20
159.1246099169953
 30
0.0
  0
SPLINE
  5
CC
330
1F
100
AcDbEntity
  8
0
  6
Continuous
 62
     7
370
    15
100
AcDbSpline
210
0.0
220
0.0
230
1.0
 70
     8
 71
     3
 72
     8
 73
     4
 74
     0
 42
0.000000001
 43
0.00000001
 40
0.0
 40
0.0
 40
0.0
 40
0.0
 40
0.0012352705496738
 40
0.0012352705496738
 40
0.0012352705496738
 40
0.0012352705496738
 10
192.7865479887977
 20
161.284715162941
 30
0.0
 10
192.6005995634756
 20
161.0249394071894
 30
0.0
 10
192.4150927543046
 20
160.7650053285621
 30
0.0
 10
192.2300575035024
 20
160.5049037528334
 30
0.0
  0
SPLINE
  5
CD
330
1F
100
AcDbEntity
  8
0
  6
Continuous
 62
     7
370
    15
100
AcDbSpline
210
0.0
220
0.0
230
1.0
 70
     8
 71
     3
 72
     8
 73
     4
 74
     0
 42
0.000000001
 43
0.00000001
 40
0.0
 40
0.0
 40
0.0
 40
0.0
 40
1.0
 40
1.0
 40
1.0
 40
1.0
 10
191.4633864813358
 20
150.0720062504751
 30
0.0
 10
191.8983329029742
 20
151.0555105688575
 30
0.0
 10
192.33969926087
 20
152.0367125615844
 30
0.0
 10
192.7865479887977
 20
153.0159484598407
 30
0.0
  0
LINE
  5
CE
330
1F
100
AcDbEntity
  8
0
  6
Continuous
 62
     7
370
    15
100
AcDbLine
 10
191.46338636
 20
150.0720051269
 30
0.0
 11
191.46338636
 21
159.1246095638
 31
0.0
  0
SPLINE
  5
CF
330
1F
100
AcDbEntity
  8
0
  6
Continuous
 62
     7
370
    15
100
AcDbSpline
210
0.0
220
0.0
230
1.0
 70
     8
 71
     3
 72
    14
 73
    10
 74
     0
 42
0.000000001
 43
0.00000001
 40
0.0
 40
0.0
 40
0.0
 40
0.0
 40
0.25
 40
0.25
 40
0.5
 40
0.5
 40
0.75
 40
0.75
 40
1.0
 40
1.0
 40
1.0
 40
1.0
 10
191.4633864813358
 20
158.9859619965721
 30
0.0
 10
191.4633864813358
 20
158.8786196244247
 30
0.0
 10
191.4433902892716
 20
158.7719906175768
 30
0.0
 10
191.365692204927
 20
158.5728388384257
 30
0.0
 10
191.3076990600334
 20
158.4803559401102
 30
0.0
 10
191.1616525672106
 20
158.325120105001
 30
0.0
 10
191.0723148280429
 20
158.2613861633886
 30
0.0
 10
190.8775598159824
 20
158.1755558969934
 30
0.0
 10
190.7700295447736
 20
158.152636774035
 30
0.0
 10
190.6633864813337
 20
158.1526367740353
 30
0.0
  0
SPLINE
  5
D0
330
1F
100
AcDbEntity
  8
0
  6
Continuous
 62
     7
370
    15
100
AcDbSpline
210
0.0
220
0.0
230
1.0
 70
     8
 71
     3
 72
    14
 73
    10
 74
     0
 42
0.000000001
 43
0.00000001
 40
0.0
 40
0.0
 40
0.0
 40
0.0
 40
0.25
 40
0.25
 40
0.5
 40
0.5
 40
0.75
 40
0.75
 40
1.0
 40
1.0
 40
1.0
 40
1.0
 10
190.6633864813358
 20
148.8447525696986
 30
0.0
 10
190.7847130113216
 20
148.8447525696986
 30
0.0
 10
190.9064177198838
 20
148.8835340851317
 30
0.0
 10
191.1128575987699
 20
149.0146887068256
 30
0.0
 10
191.198808137226
 20
149.1053407914128
 30
0.0
 10
191.3327198969743
 20
149.307457826354
 30
0.0
 10
191.3822843337934
 20
149.4211927698932
 30
0.0
 10
191.4471383617613
 20
149.6541523869597
 30
0.0
 10
191.4633864813358
 20
149.7768506532889
 30
0.0
 10
191.4633864813358
 20
149.8979136098825
 30
0.0
  0
LINE
  5
D1
330
1F
100
AcDbEntity
  8
0
  6
Continuous
 62
     7
370
    15
100
AcDbLine
 10
190.6633867877
 20
158.1526366214
 30
0.0
 11
188.4433866473
 21
158.1526366214
 31
0.0
  0
LINE
  5
D2
330
1F
100
AcDbEntity
  8
0
  6
Continuous
 62
     7
370
    15
100
AcDbLine
 10
188.4433866473
 20
148.8447529416
 30
0.0
 11
190.6633867877
 21
148.8447529416
 31
0.0
  0
SPLINE
  5
D3
330
1F
100
AcDbEntity
  8
0
  6
Continuous
 62
     7
370
    15
100
AcDbSpline
210
0.0
220
0.0
230
1.0
 70
     8
 71
     3
 72
    12
 73
     8
 74
     0
 42
0.000000001
 43
0.00000001
 40
0.0
 40
0.0
 40
0.0
 40
0.0
 40
0.2500000000000007
 40
0.2500000000000007
 40
0.5000000000000014
 40
0.5000000000000014
 40
1.0
 40
1.0
 40
1.0
 40
1.0
 10
188.4433864813358
 20
158.1526367740353
 30
0.0
 10
188.3370415014599
 20
158.1526367740353
 30
0.0
 10
188.2297651540572
 20
158.1753520118948
 30
0.0
 10
188.0343893646612
 20
158.2613771787772
 30
0.0
 10
187.9458356285842
 20
158.3243559057055
 30
0.0
 10
187.724577704453
 20
158.5595474161426
 30
0.0
 10
187.6433864813358
 20
158.7727236306279
 30
0.0
 10
187.6433864813358
 20
158.985961996572
 30
0.0
  0
SPLINE
  5
D4
330
1F
100
AcDbEntity
  8
0
  6
Continuous
 62
     7
370
    15
100
AcDbSpline
210
0.0
220
0.0
230
1.0
 70
     8
 71
     3
 72
    12
 73
     8
 74
     0
 42
0.000000001
 43
0.00000001
 40
0.0
 40
0.0
 40
0.0
 40
0.0
 40
0.499999999999994
 40
0.499999999999994
 40
0.749999999999997
 40
0.749999999999997
 40
1.0
 40
1.0
 40
1.0
 40
1.0
 10
187.6433864813358
 20
149.8979136098825
 30
0.0
 10
187.6433864813358
 20
149.6554905139018
 30
0.0
 10
187.7063076227776
 20
149.4097199933004
 30
0.0
 10
187.9083365197801
 20
149.1047738138835
 30
0.0
 10
187.9946302444273
 20
149.0141809472851
 30
0.0
 10
188.200104038994
 20
148.8837473843483
 30
0.0
 10
188.3200545995937
 20
148.8447525696986
 30
0.0
 10
188.4433864813358
 20
148.8447525696986
 30
0.0
  0
LINE
  5
D5
330
1F
100
AcDbEntity
  8
0
  6
Continuous
 62
     7
370
    15
100
AcDbLine
 10
186.3202254283
 20
161.2847154181
 30
0.0
 11
182.2533865454
 21
161.2847154181
 31
0.0
  0
LINE
  5
D6
330
1F
100
AcDbEntity
  8
0
  6
Continuous
 62
     7
370
    15
100
AcDbLine
 10
186.3202254283
 20
153.0159493129
 30
0.0
 11
186.3202254283
 21
161.2847154181
 31
0.0
  0
LINE
  5
D7
330
1F
100
AcDbEntity
  8
0
  6
Continuous
 62
     7
370
    15
100
AcDbLine
 10
182.2533865454
 20
153.0159493129
 30
0.0
 11
186.3202254283
 21
153.0159493129
 31
0.0
  0
SPLINE
  5
D8
330
1F
100
AcDbEntity
  8
0
  6
Continuous
 62
     7
370
    15
100
AcDbSpline
210
0.0
220
0.0
230
1.0
 70
     8
 71
     3
 72
     8
 73
     4
 74
     0
 42
0.000000001
 43
0.00000001
 40
0.0
 40
0.0
 40
0.0
 40
0.0
 40
1.0
 40
1.0
 40
1.0
 40
1.0
 10
186.3202249738739
 20
153.0159484598406
 30
0.0
 10
186.7670737018016
 20
152.0367125615844
 30
0.0
 10
187.2084400596974
 20
151.0555105688575
 30
0.0
 10
187.6433864813358
 20
150.0720062504751
 30
0.0
  0
SPLINE
  5
D9
330
1F
100
AcDbEntity
  8
0
  6
Continuous
 62
     7
370
    15
100
AcDbSpline
210
0.0
220
0.0
230
1.0
 70
     8
 71
     3
 72
    12
 73
     8
 74
     0
 42
0.000000001
 43
0.00000001
 40
0.0
 40
0.0
 40
0.0
 40
0.0
 40
0.2499999999999946
 40
0.2499999999999946
 40
0.4999999999999892
 40
0.4999999999999892
 40
1.0
 40
1.0
 40
1.0
 40
1.0
 10
196.9033864813363
 20
153.0159484598407
 30
0.0
 10
196.9929235395074
 20
153.0159484598406
 30
0.0
 10
197.0828227182961
 20
152.9891211610096
 30
0.0
 10
197.2362475772953
 20
152.8974141957501
 30
0.0
 10
197.3012966346731
 20
152.8331592541512
 30
0.0
 10
197.4546158659373
 20
152.6137471080897
 30
0.0
 10
197.5033864813358
 20
152.4319317982928
 30
0.0
 10
197.5033864813358
 20
152.2539516228099
 30
0.0
  0
LINE
  5
DA
330
1F
100
AcDbEntity
  8
0
  6
Continuous
 62
     7
370
    15
100
AcDbLine
 10
187.6433861437
 20
150.0720051269
 30
0.0
 11
187.6433861437
 21
149.8979148607
 31
0.0
  0
LINE
  5
DB
330
1F
100
AcDbEntity
  8
0
  6
Continuous
 62
     7
370
    15
100
AcDbLine
 10
191.46338636
 20
149.8979148607
 30
0.0
 11
191.46338636
 21
150.0720051269
 31
0.0
  0
LINE
  5
DC
330
1F
100
AcDbEntity
  8
0
  6
Continuous
 62
     7
370
    15
100
AcDbLine
 10
197.5033867168
 20
152.2539523582
 30
0.0
 11
197.5033867168
 21
144.3548710237
 31
0.0
  0
LINE
  5
DD
330
1F
100
AcDbEntity
  8
0
  6
Continuous
 62
     7
370
    15
100
AcDbLine
 10
181.6533864005
 20
152.2539523582
 30
0.0
 11
181.6533864005
 21
144.3548710237
 31
0.0
  0
SPLINE
  5
DE
330
1F
100
AcDbEntity
  8
0
  6
Continuous
 62
     7
370
    15
100
AcDbSpline
210
0.0
220
0.0
230
1.0
 70
     8
 71
     3
 72
    12
 73
     8
 74
     0
 42
0.000000001
 43
0.00000001
 40
0.0
 40
0.0
 40
0.0
 40
0.0
 40
0.4999999999999982
 40
0.4999999999999982
 40
0.7499999999999991
 40
0.7499999999999991
 40
1.0
 40
1.0
 40
1.0
 40
1.0
 10
197.5033864813358
 20
160.799857461396
 30
0.0
 10
197.5033864813358
 20
160.9200500680612
 30
0.0
 10
197.4494180510668
 20
161.0379573685761
 30
0.0
 10
197.2883314101338
 20
161.1773369130595
 30
0.0
 10
197.2235689906608
 20
161.2155022106234
 30
0.0
 10
197.0715149890963
 20
161.2701544729569
 30
0.0
 10
196.9887852159471
 20
161.284715162941
 30
0.0
 10
196.9033864813358
 20
161.284715162941
 30
0.0
  0
LINE
  5
DF
330
1F
100
AcDbEntity
  8
0
  6
Continuous
 62
     7
370
    15
100
AcDbLine
 10
197.5033867168
 20
152.2539523582
 30
0.0
 11
197.5033867168
 21
160.7998577099
 31
0.0
  0
SPLINE
  5
E0
330
1F
100
AcDbEntity
  8
0
  6
Continuous
 62
     7
370
    15
100
AcDbSpline
210
0.0
220
0.0
230
1.0
 70
     8
 71
     3
 72
     8
 73
     4
 74
     0
 42
0.000000001
 43
0.00000001
 40
0.0
 40
0.0
 40
0.0
 40
0.0
 40
0.0012352705496723
 40
0.0012352705496723
 40
0.0012352705496723
 40
0.0012352705496723
 10
186.8767154591685
 20
160.5049037528346
 30
0.0
 10
186.6916802083665
 20
160.7650053285629
 30
0.0
 10
186.5061733991957
 20
161.0249394071897
 30
0.0
 10
186.3202249738739
 20
161.284715162941
 30
0.0
  0
SPLINE
  5
E1
330
1F
100
AcDbEntity
  8
0
  6
Continuous
 62
     7
370
    15
100
AcDbSpline
210
0.0
220
0.0
230
1.0
 70
     8
 71
     3
 72
     8
 73
     4
 74
     0
 42
0.000000001
 43
0.00000001
 40
0.0
 40
0.0
 40
0.0
 40
0.0
 40
1.0
 40
1.0
 40
1.0
 40
1.0
 10
187.6433864813358
 20
159.1246099169953
 30
0.0
 10
187.3880551680305
 20
159.5848309372609
 30
0.0
 10
187.1324917699242
 20
160.0449253975693
 30
0.0
 10
186.8767154591685
 20
160.5049037528346
 30
0.0
  0
LINE
  5
E2
330
1F
100
AcDbEntity
  8
0
  6
Continuous
 62
     7
370
    15
100
AcDbLine
 10
187.6433861437
 20
150.0720051269
 30
0.0
 11
187.6433861437
 21
159.1246095638
 31
0.0
  0
LINE
  5
E3
330
1F
100
AcDbEntity
  8
0
  6
Continuous
 62
     7
370
    15
100
AcDbLine
 10
76.8533877092
 20
96.1260260235
 30
0.0
 11
76.8533877092
 21
132.8837149929
 31
0.0
  0
LINE
  5
E4
330
1F
100
AcDbEntity
  8
0
  6
Continuous
 62
     7
370
    15
100
AcDbLine
 10
224.4533865707
 20
114.5048705082
 30
0.0
 11
224.4533865707
 21
98.8048711012
 31
0.0
  0
LINE
  5
E5
330
1F
100
AcDbEntity
  8
0
  6
Continuous
 62
     7
370
    15
100
AcDbLine
 10
224.4533865707
 20
130.2048699151
 30
0.0
 11
224.4533865707
 21
114.5048705082
 31
0.0
  0
LINE
  5
E6
330
1F
100
AcDbEntity
  8
0
  6
Continuous
 62
     7
370
    15
100
AcDbLine
 10
224.1533852177
 20
114.5048705082
 30
0.0
 11
224.1533852177
 21
98.5048697482
 31
0.0
  0
LINE
  5
E7
330
1F
100
AcDbEntity
  8
0
  6
Continuous
 62
     7
370
    15
100
AcDbLine
 10
224.1533852177
 20
130.5048712681
 30
0.0
 11
224.1533852177
 21
114.5048705082
 31
0.0
  0
SPLINE
  5
E8
330
1F
100
AcDbEntity
  8
0
  6
Continuous
 62
     7
370
    15
100
AcDbSpline
210
0.0
220
0.0
230
1.0
 70
     8
 71
     3
 72
    17
 73
    13
 74
     0
 42
0.000000001
 43
0.00000001
 40
0.0
 40
0.0
 40
0.0
 40
0.0
 40
0.055508114344306
 40
0.1403531293703405
 40
0.2308778842747704
 40
0.333511723731475
 40
0.4488258729899097
 40
0.5710272437764156
 40
0.6945112937614636
 40
0.8161985552154246
 40
0.9279440015512181
 40
0.9999999999999999
 40
0.9999999999999999
 40
0.9999999999999999
 40
0.9999999999999999
 10
217.3485501664192
 20
130.4918923567249
 30
0.0
 10
217.3528970576148
 20
130.4928710438458
 30
0.0
 10
217.3638882395265
 20
130.4953456694338
 30
0.0
 10
216.89185765919
 20
130.385419930104
 30
0.0
 10
216.0397025058178
 20
130.2125266088659
 30
0.0
 10
214.7673351995134
 20
130.0146072492836
 30
0.0
 10
213.1445152355309
 20
129.8793521188106
 30
0.0
 10
211.3394370610308
 20
129.8923551484421
 30
0.0
 10
209.613774781498
 20
130.066892246365
 30
0.0
 10
208.2698764411347
 20
130.3055877250436
 30
0.0
 10
207.4905065377443
 20
130.4837955758581
 30
0.0
 10
207.4619585031805
 20
130.4909153828465
 30
0.0
 10
207.450766767791
 20
130.4937065731002
 30
0.0
  0
SPLINE
  5
E9
330
1F
100
AcDbEntity
  8
0
  6
Continuous
 62
     7
370
    15
100
AcDbSpline
210
0.0
220
0.0
230
1.0
 70
    11
 71
     3
 72
    82
 73
    78
 74
     0
 42
0.000000001
 43
0.00000001
 40
0.0
 40
0.0
 40
0.0
 40
0.0
 40
0.0312499999999992
 40
0.0312499999999992
 40
0.0624999999999987
 40
0.0624999999999987
 40
0.0937499999999981
 40
0.0937499999999981
 40
0.1249999999999976
 40
0.1249999999999976
 40
0.1562499999999971
 40
0.1562499999999971
 40
0.1874999999999966
 40
0.1874999999999966
 40
0.2187499999999961
 40
0.2187499999999961
 40
0.2343749999999962
 40
0.2343749999999962
 40
0.2499999999999962
 40
0.2499999999999962
 40
0.2812499999999958
 40
0.2812499999999958
 40
0.2968749999999958
 40
0.2968749999999958
 40
0.3124999999999959
 40
0.3124999999999959
 40
0.3437499999999959
 40
0.3437499999999959
 40
0.3593749999999959
 40
0.3593749999999959
 40
0.3749999999999959
 40
0.3749999999999959
 40
0.3906249999999959
 40
0.3906249999999959
 40
0.4062499999999958
 40
0.4062499999999958
 40
0.437499999999996
 40
0.437499999999996
 40
0.4687499999999962
 40
0.4687499999999962
 40
0.4999999999999963
 40
0.4999999999999963
 40
0.5312499999999964
 40
0.5312499999999964
 40
0.5624999999999967
 40
0.5624999999999967
 40
0.5937499999999968
 40
0.5937499999999968
 40
0.624999999999997
 40
0.624999999999997
 40
0.6562499999999971
 40
0.6562499999999971
 40
0.6874999999999973
 40
0.6874999999999973
 40
0.7187499999999974
 40
0.7187499999999974
 40
0.7499999999999976
 40
0.7499999999999976
 40
0.7812499999999978
 40
0.7812499999999978
 40
0.8124999999999979
 40
0.8124999999999979
 40
0.8281249999999981
 40
0.8281249999999981
 40
0.8437499999999982
 40
0.8437499999999982
 40
0.8749999999999986
 40
0.8749999999999986
 40
0.8906249999999987
 40
0.8906249999999987
 40
0.9062499999999989
 40
0.9062499999999989
 40
0.9374999999999992
 40
0.9374999999999992
 40
0.9687499999999997
 40
0.9687499999999997
 40
1.0
 40
1.0
 40
1.0
 40
1.0
 10
209.0832034571541
 20
117.7772690749132
 30
0.0
 10
209.3262609820322
 20
117.9673095977681
 30
0.0
 10
209.5833480790019
 20
118.131705266799
 30
0.0
 10
210.1232580028253
 20
118.4143756727624
 30
0.0
 10
210.4077141913853
 20
118.5330989774919
 30
0.0
 10
210.9960559776044
 20
118.7215631502047
 30
0.0
 10
211.2949717963809
 20
118.7900184414411
 30
0.0
 10
211.9019474078496
 20
118.8777875673479
 30
0.0
 10
212.2126275918577
 20
118.8969732773539
 30
0.0
 10
212.8306388189506
 20
118.8840071409819
 30
0.0
 10
213.1356227043627
 20
118.8523931123136
 30
0.0
 10
213.7377128881091
 20
118.7396879912411
 30
0.0
 10
214.0375052545063
 20
118.6575429373902
 30
0.0
 10
214.6147304558479
 20
118.4448188673988
 30
0.0
 10
214.8906552811468
 20
118.3154117142046
 30
0.0
 10
215.2854245375566
 20
118.085962661762
 30
0.0
 10
215.4138072294239
 20
118.0035505180304
 30
0.0
 10
215.6638582824234
 20
117.8261899554422
 30
0.0
 10
215.7859209500096
 20
117.7308116280051
 30
0.0
 10
216.1336443250482
 20
117.4312389064908
 30
0.0
 10
216.3435732112274
 20
117.2122236184351
 30
0.0
 10
216.6239334437005
 20
116.8526904839509
 30
0.0
 10
216.7115886132045
 20
116.727639887322
 30
0.0
 10
216.8743796904725
 20
116.4662086030573
 30
0.0
 10
216.9492551953865
 20
116.3299452294979
 30
0.0
 10
217.1477609963741
 20
115.9152086436311
 30
0.0
 10
217.2480119997359
 20
115.627181314509
 30
0.0
 10
217.3469450200113
 20
115.1764835999572
 30
0.0
 10
217.371358444076
 20
115.0218539648589
 30
0.0
 10
217.4008479351045
 20
114.7130448977542
 30
0.0
 10
217.4060982489752
 20
114.5590519198443
 30
0.0
 10
217.398080272743
 20
114.2518690529946
 30
0.0
 10
217.3848111419076
 20
114.0986791999152
 30
0.0
 10
217.3396163623198
 20
113.7931076508912
 30
0.0
 10
217.3073597536326
 20
113.6397894133288
 30
0.0
 10
217.1849426102307
 20
113.1921242783425
 30
0.0
 10
217.0695562189056
 20
112.9075304577849
 30
0.0
 10
216.7755723558881
 20
112.364003177191
 30
0.0
 10
216.5991505456774
 20
112.1101146318049
 30
0.0
 10
216.2009325051943
 20
111.645208586577
 30
0.0
 10
215.9756656952743
 20
111.4307542113867
 30
0.0
 10
215.4941998654661
 20
111.0520127589032
 30
0.0
 10
215.2373317380094
 20
110.8861931804381
 30
0.0
 10
214.6924124450514
 20
110.5991830493401
 30
0.0
 10
214.4062437614388
 20
110.4795504951143
 30
0.0
 10
213.8228020757237
 20
110.2914619276218
 30
0.0
 10
213.5233543345956
 20
110.2218334932006
 30
0.0
 10
212.9086241704794
 20
110.1320732693839
 30
0.0
 10
212.6001056241103
 20
110.1130848323567
 30
0.0
 10
211.9861934088563
 20
110.1250920746416
 30
0.0
 10
211.6799103817721
 20
110.1559537138235
 30
0.0
 10
211.0687503778495
 20
110.2698687549385
 30
0.0
 10
210.7724046908031
 20
110.351359581794
 30
0.0
 10
210.1987143428044
 20
110.5621511994984
 30
0.0
 10
209.9209588722563
 20
110.6915692729316
 30
0.0
 10
209.386253133235
 20
111.0022452240821
 30
0.0
 10
209.1373862360398
 20
111.1787669849681
 30
0.0
 10
208.6767474901538
 20
111.5751516718632
 30
0.0
 10
208.4640702639895
 20
111.796036368632
 30
0.0
 10
208.0845323542842
 20
112.2834878822823
 30
0.0
 10
207.9233007344641
 20
112.5424659709711
 30
0.0
 10
207.7257873920875
 20
112.9549641750334
 30
0.0
 10
207.6673950090239
 20
113.096498250732
 30
0.0
 10
207.5665570204296
 20
113.3882524943415
 30
0.0
 10
207.5240559971338
 20
113.5393060406904
 30
0.0
 10
207.4255181782866
 20
113.9923692901427
 30
0.0
 10
207.3964208701879
 20
114.2981062946958
 30
0.0
 10
207.4089486178393
 20
114.7623974047044
 30
0.0
 10
207.4227988357105
 20
114.919003121678
 30
0.0
 10
207.468829319681
 20
115.225532012942
 30
0.0
 10
207.5009270849289
 20
115.3763385327372
 30
0.0
 10
207.6234221526945
 20
115.8216868436398
 30
0.0
 10
207.7418519758817
 20
116.1123037669993
 30
0.0
 10
208.0360956336149
 20
116.6532142206834
 30
0.0
 10
208.2114662198319
 20
116.9051921998522
 30
0.0
 10
208.6155732614884
 20
117.3747799397275
 30
0.0
 10
208.8401459322759
 20
117.5872285520583
 30
0.0
 10
209.083203457154
 20
117.7772690749132
 30
0.0
  0
ARC
  5
EA
330
1F
100
AcDbEntity
  8
0
  6
Continuous
 62
     7
370
    15
100
AcDbCircle
 10
192.5065167879
 20
99.305716128
 30
0.0
 40
2.356059287371958
100
AcDbArc
 50
185.4017539361
 51
252.5076603369
  0
ARC
  5
EB
330
1F
100
AcDbEntity
  8
0
  6
Continuous
 62
     7
370
    15
100
AcDbCircle
 10
192.6652183537
 20
99.4336899478
 30
0.0
 40
2.528339291156974
100
AcDbArc
 50
249.9484111729
 51
339.7571495746
  0
ARC
  5
EC
330
1F
100
AcDbEntity
  8
0
  6
Continuous
 62
     7
370
    15
100
AcDbCircle
 10
192.4845281851
 20
99.222054887
 30
0.0
 40
2.183107218796966
100
AcDbArc
 50
159.3153835038
 51
252.9991548677
  0
ARC
  5
ED
330
1F
100
AcDbEntity
  8
0
  6
Continuous
 62
     7
370
    15
100
AcDbCircle
 10
192.6681247051
 20
99.3582933628
 30
0.0
 40
2.370961923333679
100
AcDbArc
 50
249.7171366798
 51
345.4454345851
  0
ARC
  5
EE
330
1F
100
AcDbEntity
  8
0
  6
Continuous
 62
     7
370
    15
100
AcDbCircle
 10
192.498884676
 20
99.2112720235
 30
0.0
 40
1.837014598414622
100
AcDbArc
 50
124.7922920042
 51
253.2461581738
  0
ARC
  5
EF
330
1F
100
AcDbEntity
  8
0
  6
Continuous
 62
     7
370
    15
100
AcDbCircle
 10
192.673900397
 20
99.3040803895
 30
0.0
 40
1.981345107956124
100
AcDbArc
 50
249.1701466721
 51
357.5180965593
  0
LINE
  5
F0
330
1F
100
AcDbEntity
  8
0
  6
HIDDEN
 62
     7
370
     0
100
AcDbLine
 10
208.403386827
 20
129.8048705946
 30
0.0
 11
216.4033881383
 21
129.8048705946
 31
0.0
  0
LINE
  5
F1
330
1F
100
AcDbEntity
  8
0
  6
HIDDEN
 62
     7
370
     0
100
AcDbLine
 10
208.403386827
 20
124.6101264994
 30
0.0
 11
216.4033881383
 21
124.6101264994
 31
0.0
  0
LINE
  5
F2
330
1F
100
AcDbEntity
  8
0
  6
HIDDEN
 62
     7
370
     0
100
AcDbLine
 10
209.7335836845
 20
120.5048705603
 30
0.0
 11
215.0731875556
 21
120.5048705603
 31
0.0
  0
SPLINE
  5
F3
330
1F
100
AcDbEntity
  8
0
  6
HIDDEN
 62
     7
370
     0
100
AcDbSpline
210
0.0
220
0.0
230
1.0
 70
     8
 71
     3
 72
    10
 73
     6
 74
     0
 42
0.000000001
 43
0.00000001
 40
0.0
 40
0.0
 40
0.0
 40
0.0
 40
0.4391218861871
 40
0.7513708573861015
 40
1.0
 40
1.0
 40
1.0
 40
1.0
 10
210.4033871548683
 20
130.4142722080661
 30
0.0
 10
210.6897063443176
 20
130.2772912468494
 30
0.0
 10
211.1796201965526
 20
130.0429064313516
 30
0.0
 10
211.8917911457361
 20
130.1470931789868
 30
0.0
 10
212.2462576267075
 20
130.3322118035459
 30
0.0
 10
212.4033874826939
 20
130.4142722080661
 30
0.0
  0
SPLINE
  5
F4
330
1F
100
AcDbEntity
  8
0
  6
HIDDEN
 62
     7
370
     0
100
AcDbSpline
210
0.0
220
0.0
230
1.0
 70
     8
 71
     3
 72
    10
 73
     6
 74
     0
 42
0.000000001
 43
0.00000001
 40
0.0
 40
0.0
 40
0.0
 40
0.0
 40
0.4391218868800572
 40
0.7513708344805311
 40
1.0
 40
1.0
 40
1.0
 40
1.0
 10
212.4033874826939
 20
130.4142722080661
 30
0.0
 10
212.6897066606782
 20
130.2772912431755
 30
0.0
 10
213.1796204775876
 20
130.0429064289065
 30
0.0
 10
213.8917915316327
 20
130.1470931976152
 30
0.0
 10
214.2462579622045
 20
130.3322118039591
 30
0.0
 10
214.4033878105194
 20
130.4142722080661
 30
0.0
  0
LINE
  5
F5
330
1F
100
AcDbEntity
  8
0
  6
HIDDEN
 62
     7
370
     0
100
AcDbLine
 10
212.4033874827
 20
125.5048704486
 30
0.0
 11
212.4033874827
 21
130.4142722081
 31
0.0
  0
LINE
  5
F6
330
1F
100
AcDbEntity
  8
0
  6
HIDDEN
 62
     7
370
     0
100
AcDbLine
 10
213.403385784
 20
125.5048704486
 30
0.0
 11
212.4033874827
 21
125.5048704486
 31
0.0
  0
LINE
  5
F7
330
1F
100
AcDbEntity
  8
0
  6
HIDDEN
 62
     7
370
     0
100
AcDbLine
 10
212.4033874827
 20
125.5048704486
 30
0.0
 11
211.4033854561
 21
125.5048704486
 31
0.0
  0
LINE
  5
F8
330
1F
100
AcDbEntity
  8
0
  6
HIDDEN
 62
     7
370
     0
100
AcDbLine
 10
210.4033871549
 20
124.5048702846
 30
0.0
 11
214.4033878105
 21
124.5048702846
 31
0.0
  0
LINE
  5
F9
330
1F
100
AcDbEntity
  8
0
  6
HIDDEN
 62
     7
370
     0
100
AcDbLine
 10
211.4033854561
 20
125.5048704486
 30
0.0
 11
210.4033871549
 21
125.5048704486
 31
0.0
  0
LINE
  5
FA
330
1F
100
AcDbEntity
  8
0
  6
HIDDEN
 62
     7
370
     0
100
AcDbLine
 10
214.4033878105
 20
125.5048704486
 30
0.0
 11
213.403385784
 21
125.5048704486
 31
0.0
  0
LINE
  5
FB
330
1F
100
AcDbEntity
  8
0
  6
HIDDEN
 62
     7
370
     0
100
AcDbLine
 10
210.4033871549
 20
125.5048704486
 30
0.0
 11
210.4033871549
 21
130.4142722081
 31
0.0
  0
LINE
  5
FC
330
1F
100
AcDbEntity
  8
0
  6
HIDDEN
 62
     7
370
     0
100
AcDbLine
 10
214.4033878105
 20
125.5048704486
 30
0.0
 11
214.4033878105
 21
130.4142722081
 31
0.0
  0
LWPOLYLINE
  5
FD
330
1F
100
AcDbEntity
  8
0
  6
HIDDEN
 62
     7
370
     0
100
AcDbPolyline
 90
       23
 70
   128
 43
0.0
 10
192.6533865737
 20
98.6475539546
 10
193.3577178972
 20
98.7427146326
 10
194.0049889492
 20
99.0204853158
 10
194.5427606808
 20
99.4583652507
 10
194.927465822
 20
100.0208784978
 10
195.1279404568
 20
100.6624545123
 10
195.1279404568
 20
101.3311152498
 10
194.927465822
 20
101.9726912643
 10
194.5427606808
 20
102.5352045114
 10
194.0049889492
 20
102.9730844463
 10
193.3577178972
 20
103.2508560608
 10
192.6533865737
 20
103.3460167389
 10
191.9490552502
 20
103.2508560608
 10
191.3017841982
 20
102.9730844463
 10
190.7640124666
 20
102.5352045114
 10
190.3793063941
 20
101.9726912643
 10
190.1788326906
 20
101.3311152498
 10
190.1788326906
 20
100.6624545123
 10
190.3793063941
 20
100.0208784978
 10
190.7640124666
 20
99.4583652507
 10
191.3017841982
 20
99.0204853158
 10
191.9490552502
 20
98.7427146326
 10
192.6533865737
 20
98.6475539546
  0
LWPOLYLINE
  5
FE
330
1F
100
AcDbEntity
  8
0
  6
HIDDEN
 62
     7
370
     0
100
AcDbPolyline
 90
       25
 70
   128
 43
0.0
 10
181.9251174568
 20
100.600010265
 10
182.1085523809
 20
99.8386410217
 10
182.3918630364
 20
99.1291566904
 10
182.7557424078
 20
98.5199087451
 10
183.1753926347
 20
98.0524183403
 10
183.6222151289
 20
97.7585395019
 10
184.0657598334
 20
97.6583031158
 10
184.4757992769
 20
97.7585395019
 10
184.8243909883
 20
98.0524183403
 10
185.0877783256
 20
98.5199087451
 10
185.2480123746
 20
99.1291566904
 10
185.2941729123
 20
99.8386410217
 10
185.2231143969
 20
100.600010265
 10
185.0396792399
 20
101.3613804396
 10
184.7563685844
 20
102.0708638395
 10
184.392489213
 20
102.6801117848
 10
183.9728389861
 20
103.147603121
 10
183.5260164919
 20
103.4414810281
 10
183.0824717874
 20
103.5417174141
 10
182.6724318782
 20
103.4414810281
 10
182.3238406325
 20
103.147603121
 10
182.0604530624
 20
102.6801117848
 10
181.9002194791
 20
102.0708638395
 10
181.8540589413
 20
101.3613804396
 10
181.9251174568
 20
100.600010265
  0
LWPOLYLINE
  5
FF
330
1F
100
AcDbEntity
  8
0
  6
HIDDEN
 62
     7
370
     0
100
AcDbPolyline
 90
       21
 70
   128
 43
0.0
 10
182.6881493437
 20
100.6642724539
 10
182.8509929585
 20
100.0279463048
 10
183.1108873705
 20
99.4539079408
 10
183.4423921066
 20
98.9983487095
 10
183.8130566286
 20
98.7058621983
 10
184.1865989374
 20
98.6050763319
 10
184.5264529804
 20
98.7058621983
 10
184.7993514495
 20
98.9983487095
 10
184.9785821507
 20
99.4539079408
 10
185.046599898
 20
100.0279463048
 10
184.9967471319
 20
100.6642724539
 10
184.8339030514
 20
101.300598603
 10
184.5740086394
 20
101.8746360357
 10
184.242504369
 20
102.3301952671
 10
183.8718393812
 20
102.6226827095
 10
183.4982975381
 20
102.7234667133
 10
183.1584434951
 20
102.6226827095
 10
182.8855445603
 20
102.3301952671
 10
182.7063138592
 20
101.8746360357
 10
182.6382961119
 20
101.300598603
 10
182.6881493437
 20
100.6642724539
  0
ELLIPSE
  5
100
330
1F
100
AcDbEntity
  8
0
  6
HIDDEN
 62
     7
370
     0
100
AcDbEllipse
 10
192.6533864813
 20
102.7743603968
 30
0.0
 11
1.760776919379055
 21
2.232245799914438
 31
0.0
210
0.0
220
0.0
230
1.0
 40
0.5126701559
 41
1.100887047646256
 42
4.029627027608274
  0
ARC
  5
101
330
1F
100
AcDbEntity
  8
0
  6
HIDDEN
 62
     7
370
     0
100
AcDbCircle
 10
191.9567870128
 20
103.951900278
 30
0.0
 40
0.7945949542258047
100
AcDbArc
 50
53.4208190544
 51
99.1663888759
  0
ELLIPSE
  5
102
330
1F
100
AcDbEntity
  8
0
  6
HIDDEN
 62
     7
370
     0
100
AcDbEllipse
 10
192.6533864813
 20
102.7743603968
 30
0.0
 11
1.760776919379055
 21
-1.388886188042946
 31
0.0
210
0.0
220
0.0
230
1.0
 40
0.8239737799
 41
2.549926265248563
 42
4.885930273856088
  0
ARC
  5
103
330
1F
100
AcDbEntity
  8
0
  6
HIDDEN
 62
     7
370
     0
100
AcDbCircle
 10
192.8994392432
 20
101.9348828328
 30
0.0
 40
1.353195702694778
100
AcDbArc
 50
217.8001040701
 51
249.7155767561
  0
LWPOLYLINE
  5
104
330
1F
100
AcDbEntity
  8
0
  6
HIDDEN
 62
     7
370
     0
100
AcDbPolyline
 90
       21
 70
   128
 43
0.0
 10
192.6533865737
 20
99.0732242505
 10
193.3023218992
 20
99.1698070581
 10
193.8877354371
 20
99.4501016255
 10
194.3523219781
 20
99.8866702582
 10
194.6506059723
 20
100.43677922
 10
194.7533867317
 20
101.0465794395
 10
194.6506059723
 20
101.6563787277
 10
194.3523219781
 20
102.2064876895
 10
193.8877354371
 20
102.6430563222
 10
193.3023218992
 20
102.9233508895
 10
192.6533865737
 20
103.0199336971
 10
192.0044512483
 20
102.9233508895
 10
191.4190377104
 20
102.6430563222
 10
190.9544511693
 20
102.2064876895
 10
190.6561681064
 20
101.6563787277
 10
190.5533864158
 20
101.0465794395
 10
190.6561681064
 20
100.43677922
 10
190.9544511693
 20
99.8866702582
 10
191.4190377104
 20
99.4501016255
 10
192.0044512483
 20
99.1698070581
 10
192.6533865737
 20
99.0732242505
  0
SPLINE
  5
105
330
1F
100
AcDbEntity
  8
0
  6
HIDDEN
 62
     7
370
     0
100
AcDbSpline
210
0.0
220
0.0
230
1.0
 70
    11
 71
     3
 72
    62
 73
    58
 74
     0
 42
0.000000001
 43
0.00000001
 40
0.0
 40
0.0
 40
0.0
 40
0.0
 40
0.0312499999999999
 40
0.0312499999999999
 40
0.0624999999999998
 40
0.0624999999999998
 40
0.1249999999999999
 40
0.1249999999999999
 40
0.1562499999999999
 40
0.1562499999999999
 40
0.1874999999999999
 40
0.1874999999999999
 40
0.2187499999999998
 40
0.2187499999999998
 40
0.2499999999999998
 40
0.2499999999999998
 40
0.3124999999999996
 40
0.3124999999999996
 40
0.3749999999999994
 40
0.3749999999999994
 40
0.4062499999999993
 40
0.4062499999999993
 40
0.4374999999999992
 40
0.4374999999999992
 40
0.4687499999999991
 40
0.4687499999999991
 40
0.499999999999999
 40
0.499999999999999
 40
0.5312499999999989
 40
0.5312499999999989
 40
0.5624999999999988
 40
0.5624999999999988
 40
0.5937499999999987
 40
0.5937499999999987
 40
0.6249999999999986
 40
0.6249999999999986
 40
0.6562499999999989
 40
0.6562499999999989
 40
0.687499999999999
 40
0.687499999999999
 40
0.749999999999999
 40
0.749999999999999
 40
0.781249999999999
 40
0.781249999999999
 40
0.812499999999999
 40
0.812499999999999
 40
0.843749999999999
 40
0.843749999999999
 40
0.874999999999999
 40
0.874999999999999
 40
0.9062499999999993
 40
0.9062499999999993
 40
0.9374999999999996
 40
0.9374999999999996
 40
0.9687499999999998
 40
0.9687499999999998
 40
1.0
 40
1.0
 40
1.0
 40
1.0
 10
192.6533864813358
 20
111.6169717924348
 30
0.0
 10
192.5105624096461
 20
111.6169717924348
 30
0.0
 10
192.3711991750363
 20
111.6265823060843
 30
0.0
 10
192.098639115586
 20
111.6642509814355
 30
0.0
 10
191.964474995582
 20
111.6928174608494
 30
0.0
 10
191.5877805965855
 20
111.8042244251676
 30
0.0
 10
191.362252716696
 20
111.9145470254202
 30
0.0
 10
191.0787410099988
 20
112.1322924002683
 30
0.0
 10
190.9917977255412
 20
112.2149966475101
 30
0.0
 10
190.8404042196278
 20
112.3962793810763
 30
0.0
 10
190.7755034620471
 20
112.49480606514
 30
0.0
 10
190.6680168767569
 20
112.7100810077649
 30
0.0
 10
190.6253559568015
 20
112.8283804558042
 30
0.0
 10
190.5687703771302
 20
113.0732101666037
 30
0.0
 10
190.5539890630404
 20
113.2007652694966
 30
0.0
 10
190.5522348976896
 20
113.6000710646122
 30
0.0
 10
190.6100024458457
 20
113.8780156537329
 30
0.0
 10
190.8232885535985
 20
114.3989586504435
 30
0.0
 10
190.9781122625039
 20
114.6431412894504
 30
0.0
 10
191.2605767150111
 20
114.9562539167762
 30
0.0
 10
191.3646401431606
 20
115.0533939521554
 30
0.0
 10
191.5867887776545
 20
115.2254116273556
 30
0.0
 10
191.704288735323
 20
115.3002147106133
 30
0.0
 10
191.9539632084517
 20
115.4254931653334
 30
0.0
 10
192.0880250224087
 20
115.4762662311406
 30
0.0
 10
192.3613581345521
 20
115.5446262933567
 30
0.0
 10
192.5019447138773
 20
115.5629397005747
 30
0.0
 10
192.7873118007597
 20
115.5643777633206
 30
0.0
 10
192.9271835984524
 20
115.5476461167633
 30
0.0
 10
193.2017938473197
 20
115.4818606736604
 30
0.0
 10
193.3360403767593
 20
115.4324848804672
 30
0.0
 10
193.5881802108775
 20
115.3086492603993
 30
0.0
 10
193.7087837283787
 20
115.2329978869432
 30
0.0
 10
193.9322726668376
 20
115.0620177244981
 30
0.0
 10
194.0354787508828
 20
114.9668507784696
 30
0.0
 10
194.2261505954599
 20
114.7579349212696
 30
0.0
 10
194.3129698566056
 20
114.6444662529053
 30
0.0
 10
194.4643463653109
 20
114.4075789307449
 30
0.0
 10
194.5298473623153
 20
114.2831958369566
 30
0.0
 10
194.6933941787963
 20
113.8909253771091
 30
0.0
 10
194.7522888532879
 20
113.6172402083459
 30
0.0
 10
194.7539125232192
 20
113.2156430418
 30
0.0
 10
194.7401242116654
 20
113.0869693834396
 30
0.0
 10
194.684916062969
 20
112.8393770304633
 30
0.0
 10
194.6430852880816
 20
112.7207237691612
 30
0.0
 10
194.5363903012914
 20
112.5032560077398
 30
0.0
 10
194.4705361639463
 20
112.4020176701716
 30
0.0
 10
194.3185922214021
 20
112.2186168961184
 30
0.0
 10
194.2332115616648
 20
112.1368264519962
 30
0.0
 10
194.0435831281058
 20
111.9901020783969
 30
0.0
 10
193.9389983133312
 20
111.9253107958214
 30
0.0
 10
193.7172717661396
 20
111.8151992151706
 30
0.0
 10
193.5992902952883
 20
111.7691182772506
 30
0.0
 10
193.3463930829481
 20
111.6937443825913
 30
0.0
 10
193.2131041128627
 20
111.6651561306928
 30
0.0
 10
192.9395097111158
 20
111.6269150089831
 30
0.0
 10
192.7962105530255
 20
111.6169717924348
 30
0.0
 10
192.6533864813358
 20
111.6169717924348
 30
0.0
  0
SPLINE
  5
106
330
1F
100
AcDbEntity
  8
0
  6
HIDDEN
 62
     7
370
     0
100
AcDbSpline
210
0.0
220
0.0
230
1.0
 70
     8
 71
     3
 72
     8
 73
     4
 74
     0
 42
0.000000001
 43
0.00000001
 40
0.0
 40
0.0
 40
0.0
 40
0.0
 40
1.0
 40
1.0
 40
1.0
 40
1.0
 10
191.8302063051764
 20
104.7363484726869
 30
0.0
 10
192.0416336951777
 20
104.7288389629044
 30
0.0
 10
192.2441022417104
 20
104.6747154332698
 30
0.0
 10
192.4303128408478
 20
104.5899871460446
 30
0.0
  0
SPLINE
  5
107
330
1F
100
AcDbEntity
  8
0
  6
HIDDEN
 62
     7
370
     0
100
AcDbSpline
210
0.0
220
0.0
230
1.0
 70
     8
 71
     3
 72
     8
 73
     4
 74
     0
 42
0.000000001
 43
0.00000001
 40
0.0
 40
0.0
 40
0.0
 40
0.0
 40
1.0
 40
1.0
 40
1.0
 40
1.0
 10
192.4303128408478
 20
100.6656083781103
 30
0.0
 10
192.2437884915634
 20
100.7879287940108
 30
0.0
 10
192.0412335930377
 20
100.9290139546755
 30
0.0
 10
191.8302063051764
 20
101.1054975904604
 30
0.0
  0
LINE
  5
108
330
1F
100
AcDbEntity
  8
0
  6
HIDDEN
 62
     7
370
     0
100
AcDbLine
 10
209.0832038777
 20
130.1666521619
 30
0.0
 11
209.3405879097
 21
130.1339068602
 31
0.0
  0
SPLINE
  5
109
330
1F
100
AcDbEntity
  8
0
  6
HIDDEN
 62
     7
370
     0
100
AcDbSpline
210
0.0
220
0.0
230
1.0
 70
     8
 71
     3
 72
     9
 73
     5
 74
     0
 42
0.000000001
 43
0.00000001
 40
0.0
 40
0.0
 40
0.0
 40
0.0
 40
0.1276014012263334
 40
1.0
 40
1.0
 40
1.0
 40
1.0
 10
208.3417854266674
 20
130.3013977746679
 30
0.0
 10
208.3653431491193
 20
130.2964066534143
 30
0.0
 10
208.5499627710474
 20
130.2572917126253
 30
0.0
 10
208.8347531501045
 20
130.2088834566283
 30
0.0
 10
209.0832038777382
 20
130.1666521619274
 30
0.0
  0
CIRCLE
  5
10A
330
1F
100
AcDbEntity
  8
0
  6
HIDDEN
 62
     7
370
     0
100
AcDbCircle
 10
212.4033864813
 20
114.5048705082
 30
0.0
 40
3.500000000000014
  0
LINE
  5
10B
330
1F
100
AcDbEntity
  8
0
  6
HIDDEN
 62
     7
370
     0
100
AcDbLine
 10
181.8249593018
 20
79.2048690061
 30
0.0
 11
181.6533864005
 21
79.2048690061
 31
0.0
  0
ELLIPSE
  5
10C
330
1F
100
AcDbEntity
  8
0
  6
HIDDEN
 62
     7
370
     0
100
AcDbEllipse
 10
181.8249593566
 20
77.2048705082
 30
0.0
 11
0.0
 21
2.000000000000014
 31
0.0
210
0.0
220
0.0
230
1.0
 40
0.4142135624
 41
4.712388980384695
 42
6.283185307179586
  0
LINE
  5
10D
330
1F
100
AcDbEntity
  8
0
  6
HIDDEN
 62
     7
370
     0
100
AcDbLine
 10
181.6533864005
 20
152.0048719983
 30
0.0
 11
181.8249593018
 21
152.0048719983
 31
0.0
  0
ELLIPSE
  5
10E
330
1F
100
AcDbEntity
  8
0
  6
HIDDEN
 62
     7
370
     0
100
AcDbEllipse
 10
181.8249593566
 20
154.0048705082
 30
0.0
 11
0.0
 21
2.0
 31
0.0
210
0.0
220
0.0
230
1.0
 40
0.4142135624
 41
3.141592653589793
 42
4.712388980384695
  0
LINE
  5
10F
330
1F
100
AcDbEntity
  8
0
  6
HIDDEN
 62
     7
370
     0
100
AcDbLine
 10
182.6533863316
 20
68.3189560811
 30
0.0
 11
181.8690464827
 21
67.8714146058
 31
0.0
  0
LINE
  5
110
330
1F
100
AcDbEntity
  8
0
  6
HIDDEN
 62
     7
370
     0
100
AcDbLine
 10
181.9432554296
 20
161.215033863
 30
0.0
 11
182.6533863316
 21
160.5049041252
 31
0.0
  0
LINE
  5
111
330
1F
100
AcDbEntity
  8
0
  6
HIDDEN
 62
     7
370
     0
100
AcDbLine
 10
181.8249593018
 20
152.0048719983
 30
0.0
 11
197.5033867168
 21
152.0048719983
 31
0.0
  0
LINE
  5
112
330
1F
100
AcDbEntity
  8
0
  6
HIDDEN
 62
     7
370
     0
100
AcDbLine
 10
182.6533863316
 20
160.5049041252
 30
0.0
 11
186.8767158123
 21
160.5049041252
 31
0.0
  0
LINE
  5
113
330
1F
100
AcDbEntity
  8
0
  6
HIDDEN
 62
     7
370
     0
100
AcDbLine
 10
192.2300576227
 20
160.5049041252
 30
0.0
 11
197.5033867168
 21
160.5049041252
 31
0.0
  0
LINE
  5
114
330
1F
100
AcDbEntity
  8
0
  6
HIDDEN
 62
     7
370
     0
100
AcDbLine
 10
182.6533863316
 20
160.5049041252
 30
0.0
 11
182.6533863316
 21
154.0048723261
 31
0.0
  0
LINE
  5
115
330
1F
100
AcDbEntity
  8
0
  6
HIDDEN
 62
     7
370
     0
100
AcDbLine
 10
197.5033867168
 20
79.2048690061
 30
0.0
 11
181.8249593018
 21
79.2048690061
 31
0.0
  0
LINE
  5
116
330
1F
100
AcDbEntity
  8
0
  6
HIDDEN
 62
     7
370
     0
100
AcDbLine
 10
186.7733390065
 20
68.3189560811
 30
0.0
 11
182.6533863316
 21
68.3189560811
 31
0.0
  0
LINE
  5
117
330
1F
100
AcDbEntity
  8
0
  6
HIDDEN
 62
     7
370
     0
100
AcDbLine
 10
197.5033867168
 20
68.3189560811
 30
0.0
 11
192.3334344285
 21
68.3189560811
 31
0.0
  0
LINE
  5
118
330
1F
100
AcDbEntity
  8
0
  6
HIDDEN
 62
     7
370
     0
100
AcDbLine
 10
182.6533863316
 20
68.3189560811
 30
0.0
 11
182.6533863316
 21
77.2048686783
 31
0.0
  0
LINE
  5
119
330
1F
100
AcDbEntity
  8
0
  6
HIDDEN
 62
     7
370
     0
100
AcDbLine
 10
86.853385623
 20
102.0048703219
 30
0.0
 11
86.853385623
 21
127.0048706944
 31
0.0
  0
LINE
  5
11A
330
1F
100
AcDbEntity
  8
0
  6
HIDDEN
 62
     7
370
     0
100
AcDbLine
 10
90.1379889803
 20
104.0048706497
 30
0.0
 11
90.1379889803
 21
125.0048703666
 31
0.0
  0
LINE
  5
11B
330
1F
100
AcDbEntity
  8
0
  6
HIDDEN
 62
     7
370
     0
100
AcDbLine
 10
138.8533866959
 20
104.0048706497
 30
0.0
 11
138.8533866959
 21
125.0048703666
 31
0.0
  0
LINE
  5
11C
330
1F
100
AcDbEntity
  8
0
  6
HIDDEN
 62
     7
370
     0
100
AcDbLine
 10
143.1194960135
 20
111.1048704631
 30
0.0
 11
143.1194960135
 21
117.9048705532
 31
0.0
  0
LINE
  5
11D
330
1F
100
AcDbEntity
  8
0
  6
HIDDEN
 62
     7
370
     0
100
AcDbLine
 10
201.9533856767
 20
114.5048705082
 30
0.0
 11
201.9533856767
 21
105.804870386
 31
0.0
  0
LINE
  5
11E
330
1F
100
AcDbEntity
  8
0
  6
HIDDEN
 62
     7
370
     0
100
AcDbLine
 10
201.9533856767
 20
123.2048706304
 30
0.0
 11
201.9533856767
 21
114.5048705082
 31
0.0
  0
LINE
  5
11F
330
1F
100
AcDbEntity
  8
0
  6
HIDDEN
 62
     7
370
     0
100
AcDbLine
 10
205.319412704
 20
114.5048705082
 30
0.0
 11
205.319412704
 21
105.5048708956
 31
0.0
  0
LINE
  5
120
330
1F
100
AcDbEntity
  8
0
  6
HIDDEN
 62
     7
370
     0
100
AcDbLine
 10
205.319412704
 20
123.5048701207
 30
0.0
 11
205.319412704
 21
114.5048705082
 31
0.0
  0
SPLINE
  5
121
330
1F
100
AcDbEntity
  8
0
  6
HIDDEN
 62
     7
370
     0
100
AcDbSpline
210
0.0
220
0.0
230
1.0
 70
     8
 71
     3
 72
    12
 73
     8
 74
     0
 42
0.000000001
 43
0.00000001
 40
0.0
 40
0.0
 40
0.0
 40
0.0
 40
0.203564297361452
 40
0.4067376472227444
 40
0.6198468127431725
 40
0.8406846421022108
 40
1.0
 40
1.0
 40
1.0
 40
1.0
 10
212.4033874826939
 20
122.7964325959994
 30
0.0
 10
212.7798448649066
 20
122.8118878617926
 30
0.0
 10
213.5320366387371
 20
122.8427687113691
 30
0.0
 10
214.5468684726821
 20
123.0559645143979
 30
0.0
 10
215.3464743521053
 20
123.2948130140897
 30
0.0
 10
215.8414697812006
 20
123.480513204196
 30
0.0
 10
215.8599003983222
 20
123.4879811002192
 30
0.0
 10
215.8676243382008
 20
123.4911107610179
 30
0.0
  0
LINE
  5
122
330
1F
100
AcDbEntity
  8
0
  6
HIDDEN
 62
     7
370
     0
100
AcDbLine
 10
212.7246080893
 20
122.8177952732
 30
0.0
 11
212.1629572468
 21
122.8148467059
 31
0.0
  0
SPLINE
  5
123
330
1F
100
AcDbEntity
  8
0
  6
HIDDEN
 62
     7
370
     0
100
AcDbSpline
210
0.0
220
0.0
230
1.0
 70
     8
 71
     3
 72
    14
 73
    10
 74
     0
 42
0.000000001
 43
0.00000001
 40
0.0
 40
0.0
 40
0.0
 40
0.0
 40
0.0102923004980661
 40
0.1782859854231721
 40
0.335837082832839
 40
0.4890923279993727
 40
0.6490477806602313
 40
0.8182048308020605
 40
0.9999999999999999
 40
0.9999999999999999
 40
0.9999999999999999
 40
0.9999999999999999
 10
209.2937200325043
 20
123.3617640252425
 30
0.0
 10
209.2794740124593
 20
123.3663140064219
 30
0.0
 10
209.032700638271
 20
123.4451299988603
 30
0.0
 10
208.8814039825547
 20
123.5175218348052
 30
0.0
 10
208.9208433152749
 20
123.4966188095264
 30
0.0
 10
209.3454439762195
 20
123.3368762874223
 30
0.0
 10
210.0778996083339
 20
123.1048333036721
 30
0.0
 10
211.1222372951172
 20
122.8583109406742
 30
0.0
 10
211.9662067097242
 20
122.8175480146422
 30
0.0
 10
212.4033874826939
 20
122.7964325959994
 30
0.0
  0
LINE
  5
124
330
1F
100
AcDbEntity
  8
0
  6
HIDDEN
 62
     7
370
     0
100
AcDbLine
 10
212.4033874827
 20
129.0048700909
 30
0.0
 11
215.9033871251
 21
129.0048700909
 31
0.0
  0
LINE
  5
125
330
1F
100
AcDbEntity
  8
0
  6
HIDDEN
 62
     7
370
     0
100
AcDbLine
 10
208.9033859777
 20
129.0048700909
 30
0.0
 11
212.4033874827
 21
129.0048700909
 31
0.0
  0
SPLINE
  5
126
330
1F
100
AcDbEntity
  8
0
  6
HIDDEN
 62
     7
370
     0
100
AcDbSpline
210
0.0
220
0.0
230
1.0
 70
    11
 71
     3
 72
    62
 73
    58
 74
     0
 42
0.000000001
 43
0.00000001
 40
0.0
 40
0.0
 40
0.0
 40
0.0
 40
0.0312499999999996
 40
0.0312499999999996
 40
0.0624999999999991
 40
0.0624999999999991
 40
0.1249999999999986
 40
0.1249999999999986
 40
0.1562499999999986
 40
0.1562499999999986
 40
0.1874999999999986
 40
0.1874999999999986
 40
0.2187499999999986
 40
0.2187499999999986
 40
0.2499999999999986
 40
0.2499999999999986
 40
0.3124999999999987
 40
0.3124999999999987
 40
0.3749999999999987
 40
0.3749999999999987
 40
0.4062499999999988
 40
0.4062499999999988
 40
0.4374999999999989
 40
0.4374999999999989
 40
0.4687499999999989
 40
0.4687499999999989
 40
0.4999999999999989
 40
0.4999999999999989
 40
0.5312499999999989
 40
0.5312499999999989
 40
0.5624999999999989
 40
0.5624999999999989
 40
0.5937499999999989
 40
0.5937499999999989
 40
0.6249999999999989
 40
0.6249999999999989
 40
0.6562499999999989
 40
0.6562499999999989
 40
0.6874999999999989
 40
0.6874999999999989
 40
0.7499999999999991
 40
0.7499999999999991
 40
0.7812499999999993
 40
0.7812499999999993
 40
0.8124999999999994
 40
0.8124999999999994
 40
0.8437499999999996
 40
0.8437499999999996
 40
0.8749999999999997
 40
0.8749999999999997
 40
0.9062499999999998
 40
0.9062499999999998
 40
0.9374999999999999
 40
0.9374999999999999
 40
0.96875
 40
0.96875
 40
1.0
 40
1.0
 40
1.0
 40
1.0
 10
192.6533864813358
 20
113.4460602165955
 30
0.0
 10
192.7962105530255
 20
113.4460602165954
 30
0.0
 10
192.9355737876354
 20
113.4635204272488
 30
0.0
 10
193.2081338470857
 20
113.5300160223355
 30
0.0
 10
193.3422979670896
 20
113.5798478389433
 30
0.0
 10
193.7189923660861
 20
113.7663358029466
 30
0.0
 10
193.9445202459756
 20
113.9425483901105
 30
0.0
 10
194.2280319526729
 20
114.2542149259938
 30
0.0
 10
194.3149752371305
 20
114.3680234196303
 30
0.0
 10
194.4663687430439
 20
114.6057269113861
 30
0.0
 10
194.5312695006245
 20
114.7296973467306
 30
0.0
 10
194.6387560859147
 20
114.9880270379407
 30
0.0
 10
194.6814170058702
 20
115.1239859041245
 30
0.0
 10
194.7380025855414
 20
115.3924115394923
 30
0.0
 10
194.7527838996313
 20
115.5262476573894
 30
0.0
 10
194.7545380649821
 20
115.9262945755228
 30
0.0
 10
194.696770516826
 20
116.1792759048718
 30
0.0
 10
194.4834844090732
 20
116.6146367291695
 30
0.0
 10
194.3286607001677
 20
116.7986236411037
 30
0.0
 10
194.0461962476606
 20
117.0178323951668
 30
0.0
 10
193.9421328195111
 20
117.0826469317861
 30
0.0
 10
193.7199841850172
 20
117.1934155651909
 30
0.0
 10
193.6024842273486
 20
117.2393880364086
 30
0.0
 10
193.35280975422
 20
117.314356304845
 30
0.0
 10
193.2187479402629
 20
117.3435112734762
 30
0.0
 10
192.9454148281195
 20
117.3822736109052
 30
0.0
 10
192.8048282487944
 20
117.3923576166926
 30
0.0
 10
192.519461161912
 20
117.3931563182625
 30
0.0
 10
192.3795893642193
 20
117.3839531895468
 30
0.0
 10
192.104979115352
 20
117.3467122335122
 30
0.0
 10
191.9707325859123
 20
117.318434281387
 30
0.0
 10
191.7185927517941
 20
117.2445289172166
 30
0.0
 10
191.5979892342929
 20
117.1981558440545
 30
0.0
 10
191.374500295834
 20
117.0883317968969
 30
0.0
 10
191.2712942117888
 20
117.0250296622864
 30
0.0
 10
191.0806223672118
 20
116.8791904796119
 30
0.0
 10
190.9938031060661
 20
116.7967689777602
 30
0.0
 10
190.8424265973607
 20
116.6162500706172
 30
0.0
 10
190.7769256003564
 20
116.5175223246221
 30
0.0
 10
190.6133787838754
 20
116.1907475749023
 30
0.0
 10
190.5544841093838
 20
115.9425134421404
 30
0.0
 10
190.5528604394525
 20
115.5416022657199
 30
0.0
 10
190.5666487510062
 20
115.4070658454257
 30
0.0
 10
190.6218568997027
 20
115.1364321944618
 30
0.0
 10
190.66368767459
 20
115.0004397250831
 30
0.0
 10
190.7703826613802
 20
114.7401656894384
 30
0.0
 10
190.8362367987254
 20
114.6130640003641
 30
0.0
 10
190.9881807412696
 20
114.3729482146151
 30
0.0
 10
191.0735614010068
 20
114.2605459007345
 30
0.0
 10
191.2631898345658
 20
114.0508438118569
 30
0.0
 10
191.3677746493405
 20
113.9536368034247
 30
0.0
 10
191.5895011965321
 20
113.7825197342103
 30
0.0
 10
191.7074826673833
 20
113.7075148388253
 30
0.0
 10
191.9603798797235
 20
113.581452877421
 30
0.0
 10
192.093668849809
 20
113.5315995138078
 30
0.0
 10
192.3672632515559
 20
113.4641216289254
 30
0.0
 10
192.5105624096461
 20
113.4460602165954
 30
0.0
 10
192.6533864813358
 20
113.4460602165954
 30
0.0
  0
SPLINE
  5
127
330
1F
100
AcDbEntity
  8
0
  6
HIDDEN
 62
     7
370
     0
100
AcDbSpline
210
0.0
220
0.0
230
1.0
 70
     8
 71
     3
 72
     8
 73
     4
 74
     0
 42
0.000000001
 43
0.00000001
 40
0.0
 40
0.0
 40
0.0
 40
0.0
 40
1.0
 40
1.0
 40
1.0
 40
1.0
 10
191.8302063051763
 20
124.2733925436442
 30
0.0
 10
192.0416336951776
 20
124.2809020534266
 30
0.0
 10
192.2441022417103
 20
124.3350255830613
 30
0.0
 10
192.4303128408476
 20
124.4197538702864
 30
0.0
  0
ELLIPSE
  5
128
330
1F
100
AcDbEntity
  8
0
  6
HIDDEN
 62
     7
370
     0
100
AcDbEllipse
 10
192.6533864813
 20
126.2353806195
 30
0.0
 11
-1.760776919379083
 21
2.232245799914452
 31
0.0
210
0.0
220
0.0
230
1.0
 40
0.5126701559
 41
5.395150933160712
 42
8.323890913123083
  0
SPLINE
  5
129
330
1F
100
AcDbEntity
  8
0
  6
HIDDEN
 62
     7
370
     0
100
AcDbSpline
210
0.0
220
0.0
230
1.0
 70
     8
 71
     3
 72
     8
 73
     4
 74
     0
 42
0.000000001
 43
0.00000001
 40
0.0
 40
0.0
 40
0.0
 40
0.0
 40
1.0
 40
1.0
 40
1.0
 40
1.0
 10
192.4303128408486
 20
128.3441326382211
 30
0.0
 10
192.2437884915637
 20
128.2218122223204
 30
0.0
 10
192.0412335930375
 20
128.0807270616554
 30
0.0
 10
191.8302063051757
 20
127.90424342587
 30
0.0
  0
ELLIPSE
  5
12A
330
1F
100
AcDbEntity
  8
0
  6
HIDDEN
 62
     7
370
     0
100
AcDbEllipse
 10
192.6533864813
 20
126.2353806195
 30
0.0
 11
1.760776919379055
 21
1.388886188042946
 31
0.0
210
0.0
220
0.0
230
1.0
 40
0.8239737799
 41
1.39725503332394
 42
3.733259041931014
  0
LWPOLYLINE
  5
12B
330
1F
100
AcDbEntity
  8
0
  6
HIDDEN
 62
     7
370
     0
100
AcDbPolyline
 90
       21
 70
   128
 43
0.0
 10
192.6533865737
 20
125.9898073192
 10
193.3023218992
 20
126.0863901268
 10
193.8877354371
 20
126.3666846941
 10
194.3523219781
 20
126.8032533269
 10
194.6506059723
 20
127.3533622886
 10
194.7533867317
 20
127.9631615768
 10
194.6506059723
 20
128.5729617964
 10
194.3523219781
 20
129.1230707581
 10
193.8877354371
 20
129.5596393909
 10
193.3023218992
 20
129.8399339582
 10
192.6533865737
 20
129.9365167658
 10
192.0044512483
 20
129.8399339582
 10
191.4190377104
 20
129.5596393909
 10
190.9544511693
 20
129.1230707581
 10
190.6561681064
 20
128.5729617964
 10
190.5533864158
 20
127.9631615768
 10
190.6561681064
 20
127.3533622886
 10
190.9544511693
 20
126.8032533269
 10
191.4190377104
 20
126.3666846941
 10
192.0044512483
 20
126.0863901268
 10
192.6533865737
 20
125.9898073192
  0
LINE
  5
12C
330
1F
100
AcDbEntity
  8
0
  6
HIDDEN
 62
     7
370
     0
100
AcDbLine
 10
187.6433861437
 20
149.8979148607
 30
0.0
 11
187.6433861437
 21
144.3548710237
 31
0.0
  0
LINE
  5
12D
330
1F
100
AcDbEntity
  8
0
  6
HIDDEN
 62
     7
370
     0
100
AcDbLine
 10
191.46338636
 20
149.8979148607
 30
0.0
 11
191.46338636
 21
144.3548710237
 31
0.0
  0
SPLINE
  5
12E
330
1F
100
AcDbEntity
  8
0
  6
HIDDEN
 62
     7
370
     0
100
AcDbSpline
210
0.0
220
0.0
230
1.0
 70
     8
 71
     3
 72
    14
 73
    10
 74
     0
 42
0.000000001
 43
0.00000001
 40
0.0
 40
0.0
 40
0.0
 40
0.0
 40
0.25
 40
0.25
 40
0.5
 40
0.5
 40
0.75
 40
0.75
 40
1.0
 40
1.0
 40
1.0
 40
1.0
 10
190.6633864813356
 20
131.4801600650993
 30
0.0
 10
190.7378120334702
 20
131.571017519881
 30
0.0
 10
190.8196902930837
 20
131.6602281030867
 30
0.0
 10
190.9926764392593
 20
131.8356524218786
 30
0.0
 10
191.0833482591203
 20
131.9211873775053
 30
0.0
 10
191.2507118084647
 20
132.0820389904438
 30
0.0
 10
191.3271626334311
 20
132.1577710793403
 30
0.0
 10
191.4334557182696
 20
132.2893621029157
 30
0.0
 10
191.4633864813358
 20
132.346362277822
 30
0.0
 10
191.4633864813358
 20
132.3885595507741
 30
0.0
  0
LINE
  5
12F
330
1F
100
AcDbEntity
  8
0
  6
HIDDEN
 62
     7
370
     0
100
AcDbLine
 10
191.46338636
 20
100.707608756
 30
0.0
 11
191.46338636
 21
96.5755679797
 31
0.0
  0
SPLINE
  5
130
330
1F
100
AcDbEntity
  8
0
  6
HIDDEN
 62
     7
370
     0
100
AcDbSpline
210
0.0
220
0.0
230
1.0
 70
     8
 71
     3
 72
    14
 73
    10
 74
     0
 42
0.000000001
 43
0.00000001
 40
0.0
 40
0.0
 40
0.0
 40
0.0
 40
0.25
 40
0.25
 40
0.5
 40
0.5
 40
0.75
 40
0.75
 40
1.0
 40
1.0
 40
1.0
 40
1.0
 10
191.4633864813358
 20
128.2565183521426
 30
0.0
 10
191.4633864813358
 20
128.214017934488
 30
0.0
 10
191.4336730225191
 20
128.1867460280054
 30
0.0
 10
191.3275916556269
 20
128.1731932540382
 30
0.0
 10
191.2512247264624
 20
128.1876388111792
 30
0.0
 10
191.0824651819339
 20
128.2600149751991
 30
0.0
 10
190.991668369462
 20
128.3170879103165
 30
0.0
 10
190.8201034292547
 20
128.4582458438334
 30
0.0
 10
190.7380421889602
 20
128.542823058917
 30
0.0
 10
190.6633864813356
 20
128.6361962220462
 30
0.0
  0
LINE
  5
131
330
1F
100
AcDbEntity
  8
0
  6
HIDDEN
 62
     7
370
     0
100
AcDbLine
 10
186.3202254283
 20
153.0159493129
 30
0.0
 11
186.3202254283
 21
144.3548710237
 31
0.0
  0
LINE
  5
132
330
1F
100
AcDbEntity
  8
0
  6
HIDDEN
 62
     7
370
     0
100
AcDbLine
 10
192.7865480068
 20
100.2077232267
 30
0.0
 11
192.7865480068
 21
95.5159296434
 31
0.0
  0
LINE
  5
133
330
1F
100
AcDbEntity
  8
0
  6
HIDDEN
 62
     7
370
     0
100
AcDbLine
 10
192.7865480068
 20
153.0159493129
 30
0.0
 11
192.7865480068
 21
144.3548710237
 31
0.0
  0
ARC
  5
134
330
1F
100
AcDbEntity
  8
0
  6
HIDDEN
 62
     7
370
     0
100
AcDbCircle
 10
192.8994392432
 20
127.0748581835
 30
0.0
 40
1.353195702694914
100
AcDbArc
 50
110.2844232439
 51
142.1998959299
  0
ARC
  5
135
330
1F
100
AcDbEntity
  8
0
  6
HIDDEN
 62
     7
370
     0
100
AcDbCircle
 10
191.9567870128
 20
125.0578407384
 30
0.0
 40
0.7945949542257705
100
AcDbArc
 50
260.8336111241
 51
306.5791809456
  0
LWPOLYLINE
  5
136
330
1F
100
AcDbEntity
  8
0
  6
HIDDEN
 62
     7
370
     0
100
AcDbPolyline
 90
       21
 70
   128
 43
0.0
 10
182.6881493437
 20
127.2178222577
 10
182.8509929585
 20
126.7405799742
 10
183.1108873705
 20
126.4204350452
 10
183.4423921066
 20
126.2887264754
 10
183.8130566286
 20
126.3583456318
 10
184.1865989374
 20
126.6224789585
 10
184.5264529804
 20
127.0552701469
 10
184.7993514495
 20
127.6143551956
 10
184.9785821507
 20
128.2450058649
 10
185.046599898
 20
128.8854913007
 10
184.9967471319
 20
129.4731157984
 10
184.8339030514
 20
129.9503580819
 10
184.5740086394
 20
130.2705020796
 10
184.242504369
 20
130.4022115807
 10
183.8718393812
 20
130.332591493
 10
183.4982975381
 20
130.0684590976
 10
183.1584434951
 20
129.6356679092
 10
182.8855445603
 20
129.0765828605
 10
182.7063138592
 20
128.4459312598
 10
182.6382961119
 20
127.8054458241
 10
182.6881493437
 20
127.2178222577
  0
LWPOLYLINE
  5
137
330
1F
100
AcDbEntity
  8
0
  6
HIDDEN
 62
     7
370
     0
100
AcDbPolyline
 90
       25
 70
   128
 43
0.0
 10
181.9251174568
 20
126.7988062616
 10
182.1085523809
 20
126.2166365202
 10
182.3918630364
 20
125.7839217003
 10
182.7557424078
 20
125.5301521312
 10
183.1753926347
 20
125.4726206104
 10
183.6222151289
 20
125.6152489375
 10
184.0657598334
 20
125.9483159672
 10
184.4757992769
 20
126.4491244371
 10
184.8243909883
 20
127.0835451002
 10
185.0877783256
 20
127.8083431686
 10
185.2480123746
 20
128.5741240869
 10
185.2941729123
 20
129.3287030573
 10
185.2231143969
 20
130.0206552412
 10
185.0396792399
 20
130.6028240512
 10
184.7563685844
 20
131.0355388711
 10
184.392489213
 20
131.2893093716
 10
183.9728389861
 20
131.3468408923
 10
183.5260164919
 20
131.2042125653
 10
183.0824717874
 20
130.8711455356
 10
182.6724318782
 20
130.3703361343
 10
182.3238406325
 20
129.7359164025
 10
182.0604530624
 20
129.0111183341
 10
181.9002194791
 20
128.2453364845
 10
181.8540589413
 20
127.4907584454
 10
181.9251174568
 20
126.7988062616
  0
LWPOLYLINE
  5
138
330
1F
100
AcDbEntity
  8
0
  6
HIDDEN
 62
     7
370
     0
100
AcDbPolyline
 90
       23
 70
   128
 43
0.0
 10
192.6533865737
 20
125.6637242775
 10
193.3577178972
 20
125.7588849555
 10
194.0049889492
 20
126.03665657
 10
194.5427606808
 20
126.4745365049
 10
194.927465822
 20
127.037049752
 10
195.1279404568
 20
127.6786257665
 10
195.1279404568
 20
128.3472865041
 10
194.927465822
 20
128.9888625185
 10
194.5427606808
 20
129.5513757657
 10
194.0049889492
 20
129.9892557006
 10
193.3577178972
 20
130.2670263837
 10
192.6533865737
 20
130.3621870618
 10
191.9490552502
 20
130.2670263837
 10
191.3017841982
 20
129.9892557006
 10
190.7640124666
 20
129.5513757657
 10
190.3793063941
 20
128.9888625185
 10
190.1788326906
 20
128.3472865041
 10
190.1788326906
 20
127.6786257665
 10
190.3793063941
 20
127.037049752
 10
190.7640124666
 20
126.4745365049
 10
191.3017841982
 20
126.03665657
 10
191.9490552502
 20
125.7588849555
 10
192.6533865737
 20
125.6637242775
  0
SPLINE
  5
139
330
1F
100
AcDbEntity
  8
0
  6
HIDDEN
 62
     7
370
     0
100
AcDbSpline
210
0.0
220
0.0
230
1.0
 70
     8
 71
     3
 72
    34
 73
    30
 74
     0
 42
0.000000001
 43
0.00000001
 40
0.0
 40
0.0
 40
0.0
 40
0.0
 40
0.0625000000000001
 40
0.0625000000000001
 40
0.1250000000000002
 40
0.1250000000000002
 40
0.1875000000000004
 40
0.1875000000000004
 40
0.2499999999999999
 40
0.2499999999999999
 40
0.3124999999999995
 40
0.3124999999999995
 40
0.3749999999999991
 40
0.3749999999999991
 40
0.4999999999999991
 40
0.4999999999999991
 40
0.6249999999999991
 40
0.6249999999999991
 40
0.6874999999999993
 40
0.6874999999999993
 40
0.7499999999999994
 40
0.7499999999999994
 40
0.8124999999999997
 40
0.8124999999999997
 40
0.8749999999999998
 40
0.8749999999999998
 40
0.9374999999999999
 40
0.9374999999999999
 40
1.0
 40
1.0
 40
1.0
 40
1.0
 10
192.7865479887977
 20
133.4938108961667
 30
0.0
 10
192.9459398165856
 20
133.4859708002439
 30
0.0
 10
193.1019423000292
 20
133.4643121521535
 30
0.0
 10
193.4074518161064
 20
133.3944639246606
 30
0.0
 10
193.5583461511186
 20
133.3456382223324
 30
0.0
 10
193.8462454958094
 20
133.2227142689251
 30
0.0
 10
193.9821918987691
 20
133.1494067607908
 30
0.0
 10
194.2383745143612
 20
132.9793961370194
 30
0.0
 10
194.3595568021203
 20
132.881522344818
 30
0.0
 10
194.576702873993
 20
132.668938169386
 30
0.0
 10
194.6736647469534
 20
132.5538922308564
 30
0.0
 10
194.8442271827789
 20
132.3060311107363
 30
0.0
 10
194.9174672359909
 20
132.1729976136707
 30
0.0
 10
195.0923476927397
 20
131.7634895975406
 30
0.0
 10
195.1533856537156
 20
131.4655289477655
 30
0.0
 10
195.1533873089387
 20
130.874087391891
 30
0.0
 10
195.0923526993524
 20
130.5739138419145
 30
0.0
 10
194.9174629319505
 20
130.1586825616467
 30
0.0
 10
194.8442192265261
 20
130.0233274433999
 30
0.0
 10
194.6736585107895
 20
129.7704281120132
 30
0.0
 10
194.576694795196
 20
129.6526628344055
 30
0.0
 10
194.3595344666088
 20
129.4345325390368
 30
0.0
 10
194.238353207922
 20
129.3338292138899
 30
0.0
 10
193.9821829809833
 20
129.1585855210566
 30
0.0
 10
193.8462396313205
 20
129.082840551966
 30
0.0
 10
193.5583369281374
 20
128.9556721766638
 30
0.0
 10
193.4074467322207
 20
128.9050709043363
 30
0.0
 10
193.101941228515
 20
128.8326418045885
 30
0.0
 10
192.9459398302515
 20
128.8101560331914
 30
0.0
 10
192.7865479887977
 20
128.8020175732966
 30
0.0
  0
SPLINE
  5
13A
330
1F
100
AcDbEntity
  8
0
  6
HIDDEN
 62
     7
370
     0
100
AcDbSpline
210
0.0
220
0.0
230
1.0
 70
     8
 71
     3
 72
    10
 73
     6
 74
     0
 42
0.000000001
 43
0.00000001
 40
0.0
 40
0.0
 40
0.0
 40
0.0
 40
0.5
 40
0.5
 40
1.0
 40
1.0
 40
1.0
 40
1.0
 10
192.7865479887977
 20
128.8020175732966
 30
0.0
 10
192.5638209619243
 20
128.6585290730029
 30
0.0
 10
192.3421350746992
 20
128.54380832727
 30
0.0
 10
191.9009142368472
 20
128.3740478979121
 30
0.0
 10
191.6813555894484
 20
128.3186279035247
 30
0.0
 10
191.4633864813361
 20
128.3021325741551
 30
0.0
  0
SPLINE
  5
13B
330
1F
100
AcDbEntity
  8
0
  6
HIDDEN
 62
     7
370
     0
100
AcDbSpline
210
0.0
220
0.0
230
1.0
 70
     8
 71
     3
 72
    10
 73
     6
 74
     0
 42
0.000000001
 43
0.00000001
 40
0.0
 40
0.0
 40
0.0
 40
0.0
 40
0.5
 40
0.5
 40
1.0
 40
1.0
 40
1.0
 40
1.0
 10
191.4633864813361
 20
132.4341737727866
 30
0.0
 10
191.6802773138569
 20
132.6712127122351
 30
0.0
 10
191.8994299505158
 20
132.8733829472286
 30
0.0
 10
192.3409144507846
 20
133.2241350187473
 30
0.0
 10
192.5641169160581
 20
133.3728111111442
 30
0.0
 10
192.7865479887977
 20
133.4938108961667
 30
0.0
  0
SPLINE
  5
13C
330
1F
100
AcDbEntity
  8
0
  6
HIDDEN
 62
     7
370
     0
100
AcDbSpline
210
0.0
220
0.0
230
1.0
 70
     8
 71
     3
 72
    16
 73
    12
 74
     0
 42
0.000000001
 43
0.00000001
 40
0.0
 40
0.0
 40
0.0
 40
0.0
 40
0.2500000000000006
 40
0.2500000000000006
 40
0.5000000000000011
 40
0.5000000000000011
 40
0.7500000000000017
 40
0.7500000000000017
 40
0.8750000000000008
 40
0.8750000000000008
 40
1.0
 40
1.0
 40
1.0
 40
1.0
 10
190.6633864813358
 20
128.636196222046
 30
0.0
 10
190.4979723748557
 20
128.8430824580713
 30
0.0
 10
190.37177504388
 20
129.0689511558802
 30
0.0
 10
190.1973687455492
 20
129.557820401493
 30
0.0
 10
190.1535387064524
 20
129.8095874548376
 30
0.0
 10
190.1532350334824
 20
130.3213667794198
 30
0.0
 10
190.1970918935427
 20
130.5724214885025
 30
0.0
 10
190.3270136528098
 20
130.9332700566445
 30
0.0
 10
190.3811284642178
 20
131.0505428249931
 30
0.0
 10
190.5078054543612
 20
131.2730317763319
 30
0.0
 10
190.580679174722
 20
131.3791923845754
 30
0.0
 10
190.6633864813358
 20
131.4801600650996
 30
0.0
  0
ARC
  5
13D
330
1F
100
AcDbEntity
  8
0
  6
HIDDEN
 62
     7
370
     0
100
AcDbCircle
 10
192.6395571604
 20
99.1966342532
 30
0.0
 40
2.481198093993758
100
AcDbArc
 50
345.1059197262
 51
182.6037016399
  0
ARC
  5
13E
330
1F
100
AcDbEntity
  8
0
  6
HIDDEN
 62
     7
370
     0
100
AcDbCircle
 10
192.6358246668
 20
99.1326326186
 30
0.0
 40
2.356430766252805
100
AcDbArc
 50
350.9620987549
 51
158.5806595779
  0
ARC
  5
13F
330
1F
100
AcDbEntity
  8
0
  6
HIDDEN
 62
     7
370
     0
100
AcDbCircle
 10
192.6515982883
 20
99.1150037692
 30
0.0
 40
2.004450982804713
100
AcDbArc
 50
2.9533992742
 51
126.8073677924
  0
LWPOLYLINE
  5
140
330
1F
100
AcDbEntity
  8
0
  6
HIDDEN
 62
     7
370
     0
100
AcDbPolyline
 90
       23
 70
   128
 43
0.0
 10
191.798336524
 20
97.2467181425
 10
191.171116847
 20
97.5625072758
 10
190.6639819028
 20
98.0315567146
 10
190.3180169868
 20
98.6158666353
 10
190.1612493204
 20
99.2680979113
 10
190.2063802811
 20
99.9354119565
 10
190.4497534963
 20
100.5637482892
 10
190.8716510045
 20
101.1022008176
 10
191.4378941985
 20
101.507148255
 10
192.1026098537
 20
101.7457847635
 10
192.8119461047
 20
101.7987760867
 10
193.5084366234
 20
101.6618297587
 10
194.1356572317
 20
101.3460406254
 10
194.6427903133
 20
100.8769911866
 10
194.9887561607
 20
100.2926821972
 10
195.145523827
 20
99.6404509212
 10
195.100391935
 20
98.9731359448
 10
194.8570205825
 20
98.344799612
 10
194.435122143
 20
97.8063480149
 10
193.8688780176
 20
97.4013996463
 10
193.2041623624
 20
97.1627631377
 10
192.4948270427
 20
97.1097727458
 10
191.798336524
 20
97.2467181425
  0
LWPOLYLINE
  5
141
330
1F
100
AcDbEntity
  8
0
  6
HIDDEN
 62
     7
370
     0
100
AcDbPolyline
 90
       20
 70
   128
 43
0.0
 10
191.9693459752
 20
98.8700115274
 10
191.3961737412
 20
99.1744133796
 10
190.95924003
 20
99.6372071247
 10
190.7058932813
 20
100.2082419734
 10
190.6635879534
 20
100.8256361972
 10
190.8369080158
 20
101.4224873076
 10
191.2070714863
 20
101.9341158833
 10
191.7339653703
 20
102.3050793599
 10
192.3604930746
 20
102.4951790611
 10
193.0187602522
 20
102.4838132004
 10
193.6374341133
 20
102.2722148488
 10
194.1494706082
 20
101.8833131681
 10
194.4993834006
 20
101.3592514361
 10
194.649253692
 20
100.7568207721
 10
194.5828410792
 20
100.1413031633
 10
194.3073409604
 20
99.5793990012
 10
193.8526106062
 20
99.1320009495
 10
193.2679244312
 20
98.8475908677
 10
192.6166449668
 20
98.7569880824
 10
191.9693459752
 20
98.8700115274
  0
LWPOLYLINE
  5
142
330
1F
100
AcDbEntity
  8
0
  6
HIDDEN
 62
     7
370
     0
100
AcDbPolyline
 90
       23
 70
   128
 43
0.0
 10
191.798336524
 20
97.4827115576
 10
191.171116847
 20
97.7985025536
 10
190.6639819028
 20
98.2675501297
 10
190.3180169868
 20
98.8518600504
 10
190.1612493204
 20
99.5040913264
 10
190.2063802811
 20
100.1714063029
 10
190.4497534963
 20
100.7997417043
 10
190.8716510045
 20
101.3381951641
 10
191.4378941985
 20
101.7431426014
 10
192.1026098537
 20
101.9817781787
 10
192.8119461047
 20
102.0347695018
 10
193.5084366234
 20
101.8978231739
 10
194.1356572317
 20
101.5820340405
 10
194.6427903133
 20
101.112985533
 10
194.9887561607
 20
100.5286765437
 10
195.145523827
 20
99.8764443363
 10
195.100391935
 20
99.2091293599
 10
194.8570205825
 20
98.5807930271
 10
194.435122143
 20
98.04234143
 10
193.8688780176
 20
97.6373930614
 10
193.2041623624
 20
97.3987584154
 10
192.4948270427
 20
97.3457661609
 10
191.798336524
 20
97.4827115576
  0
LWPOLYLINE
  5
143
330
1F
100
AcDbEntity
  8
0
  6
HIDDEN
 62
     7
370
     0
100
AcDbPolyline
 90
       22
 70
   128
 43
0.0
 10
191.8667403045
 20
97.5978435169
 10
191.2646365347
 20
97.9059566896
 10
190.7859292807
 20
98.3671532165
 10
190.4731539073
 20
98.940451179
 10
190.3541010799
 20
99.574911889
 10
190.4393506231
 20
100.214159597
 10
190.721327159
 20
100.8013957332
 10
191.1749753165
 20
101.2844401564
 10
191.759986523
 20
101.620373797
 10
192.4243808719
 20
101.7793468352
 10
193.1091227564
 20
101.7472339015
 10
193.7533707353
 20
101.5268885683
 10
194.2998810666
 20
101.1378881674
 10
194.700090866
 20
100.6147987361
 10
194.9184450316
 20
100.004098859
 10
194.9355366635
 20
99.3600511144
 10
194.7498495685
 20
98.7398815493
 10
194.3778830575
 20
98.1986974518
 10
193.852687906
 20
97.7845830064
 10
193.2209280314
 20
97.5343347679
 10
192.5387407648
 20
97.4701871316
 10
191.8667403045
 20
97.5978435169
  0
LWPOLYLINE
  5
144
330
1F
100
AcDbEntity
  8
0
  6
HIDDEN
 62
     7
370
     0
100
AcDbPolyline
 90
       23
 70
   128
 43
0.0
 10
191.798336524
 20
97.7187068354
 10
191.171116847
 20
98.0344959687
 10
190.6639819028
 20
98.5035454075
 10
190.3180169868
 20
99.0878534655
 10
190.1612493204
 20
99.7400856729
 10
190.2063802811
 20
100.4074006493
 10
190.4497534963
 20
101.0357360508
 10
190.8716510045
 20
101.5741885792
 10
191.4378941985
 20
101.9791360165
 10
192.1026098537
 20
102.2177725251
 10
192.8119461047
 20
102.2707638483
 10
193.5084366234
 20
102.1338175203
 10
194.1356572317
 20
101.818028387
 10
194.6427903133
 20
101.3489789481
 10
194.9887561607
 20
100.7646699588
 10
195.145523827
 20
100.1124386828
 10
195.100391935
 20
99.4451237063
 10
194.8570205825
 20
98.8167883049
 10
194.435122143
 20
98.2783348452
 10
193.8688780176
 20
97.8733864765
 10
193.2041623624
 20
97.6347518305
 10
192.4948270427
 20
97.5817595761
 10
191.798336524
 20
97.7187068354
  0
LWPOLYLINE
  5
145
330
1F
100
AcDbEntity
  8
0
  6
HIDDEN
 62
     7
370
     0
100
AcDbPolyline
 90
       22
 70
   128
 43
0.0
 10
191.8667403045
 20
97.833836932
 10
191.2646365347
 20
98.1419501047
 10
190.7859292807
 20
98.6031466316
 10
190.4731539073
 20
99.1764445941
 10
190.3541010799
 20
99.8109053041
 10
190.4393506231
 20
100.4501539435
 10
190.721327159
 20
101.0373891483
 10
191.1749753165
 20
101.5204345028
 10
191.759986523
 20
101.8563681434
 10
192.4243808719
 20
102.0153411816
 10
193.1091227564
 20
101.9832282479
 10
193.7533707353
 20
101.7628819834
 10
194.2998810666
 20
101.3738825138
 10
194.700090866
 20
100.8507930826
 10
194.9184450316
 20
100.2400922741
 10
194.9355366635
 20
99.5960445295
 10
194.7498495685
 20
98.9758758958
 10
194.3778830575
 20
98.4346908669
 10
193.852687906
 20
98.0205764215
 10
193.2209280314
 20
97.770328183
 10
192.5387407648
 20
97.7061824094
 10
191.8667403045
 20
97.833836932
  0
LWPOLYLINE
  5
146
330
1F
100
AcDbEntity
  8
0
  6
HIDDEN
 62
     7
370
     0
100
AcDbPolyline
 90
       23
 70
   128
 43
0.0
 10
191.798336524
 20
97.9547002505
 10
191.171116847
 20
98.2704893838
 10
190.6639819028
 20
98.7395388226
 10
190.3180169868
 20
99.323847812
 10
190.1612493204
 20
99.976079088
 10
190.2063802811
 20
100.6433940645
 10
190.4497534963
 20
101.2717294659
 10
190.8716510045
 20
101.8101829256
 10
191.4378941985
 20
102.215130363
 10
192.1026098537
 20
102.4537659402
 10
192.8119461047
 20
102.5067572634
 10
193.5084366234
 20
102.3698109354
 10
194.1356572317
 20
102.0540218021
 10
194.6427903133
 20
101.5849732946
 10
194.9887561607
 20
101.0006643052
 10
195.145523827
 20
100.3484320979
 10
195.100391935
 20
99.6811171214
 10
194.8570205825
 20
99.05278172
 10
194.435122143
 20
98.5143282603
 10
193.8688780176
 20
98.1093817543
 10
193.2041623624
 20
97.8707452457
 10
192.4948270427
 20
97.8177548538
 10
191.798336524
 20
97.9547002505
  0
LWPOLYLINE
  5
147
330
1F
100
AcDbEntity
  8
0
  6
HIDDEN
 62
     7
370
     0
100
AcDbPolyline
 90
       22
 70
   128
 43
0.0
 10
191.8667403045
 20
98.0698303472
 10
191.2646365347
 20
98.3779453824
 10
190.7859292807
 20
98.8391400467
 10
190.4731539073
 20
99.4124389406
 10
190.3541010799
 20
100.0468996505
 10
190.4393506231
 20
100.6861473586
 10
190.721327159
 20
101.2733834948
 10
191.1749753165
 20
101.7564279179
 10
191.759986523
 20
102.0923615585
 10
192.4243808719
 20
102.2513345967
 10
193.1091227564
 20
102.219221663
 10
193.7533707353
 20
101.9988763298
 10
194.2998810666
 20
101.6098759289
 10
194.700090866
 20
101.0867864977
 10
194.9184450316
 20
100.4760866205
 10
194.9355366635
 20
99.832038876
 10
194.7498495685
 20
99.2118702422
 10
194.3778830575
 20
98.670684282
 10
193.852687906
 20
98.2565698366
 10
193.2209280314
 20
98.0063215981
 10
192.5387407648
 20
97.9421758245
 10
191.8667403045
 20
98.0698303472
  0
LWPOLYLINE
  5
148
330
1F
100
AcDbEntity
  8
0
  6
HIDDEN
 62
     7
370
     0
100
AcDbPolyline
 90
       23
 70
   128
 43
0.0
 10
191.798336524
 20
98.1906936656
 10
191.171116847
 20
98.5064827989
 10
190.6639819028
 20
98.9755322377
 10
190.3180169868
 20
99.5598412271
 10
190.1612493204
 20
100.2120734344
 10
190.2063802811
 20
100.8793884109
 10
190.4497534963
 20
101.5077238123
 10
190.8716510045
 20
102.0461763407
 10
191.4378941985
 20
102.4511237781
 10
192.1026098537
 20
102.6897602867
 10
192.8119461047
 20
102.7427516098
 10
193.5084366234
 20
102.6058052818
 10
194.1356572317
 20
102.2900161485
 10
194.6427903133
 20
101.8209667097
 10
194.9887561607
 20
101.2366577204
 10
195.145523827
 20
100.5844264443
 10
195.100391935
 20
99.9171114679
 10
194.8570205825
 20
99.2887751351
 10
194.435122143
 20
98.750323538
 10
193.8688780176
 20
98.3453751694
 10
193.2041623624
 20
98.1067386608
 10
192.4948270427
 20
98.0537482689
 10
191.798336524
 20
98.1906936656
  0
LWPOLYLINE
  5
149
330
1F
100
AcDbEntity
  8
0
  6
HIDDEN
 62
     7
370
     0
100
AcDbPolyline
 90
       22
 70
   128
 43
0.0
 10
191.8667403045
 20
98.3058237623
 10
191.2646365347
 20
98.6139387976
 10
190.7859292807
 20
99.0751343931
 10
190.4731539073
 20
99.6484323557
 10
190.3541010799
 20
100.2828930657
 10
190.4393506231
 20
100.922141705
 10
190.721327159
 20
101.5093769099
 10
191.1749753165
 20
101.9924222644
 10
191.759986523
 20
102.328355905
 10
192.4243808719
 20
102.4873289432
 10
193.1091227564
 20
102.4552160095
 10
193.7533707353
 20
102.2348697449
 10
194.2998810666
 20
101.8458702753
 10
194.700090866
 20
101.3227808441
 10
194.9184450316
 20
100.7120800357
 10
194.9355366635
 20
100.0680322911
 10
194.7498495685
 20
99.4478636573
 10
194.3778830575
 20
98.9066786285
 10
193.852687906
 20
98.4925632517
 10
193.2209280314
 20
98.2423150133
 10
192.5387407648
 20
98.1781692396
 10
191.8667403045
 20
98.3058237623
  0
LWPOLYLINE
  5
14A
330
1F
100
AcDbEntity
  8
0
  6
HIDDEN
 62
     7
370
     0
100
AcDbPolyline
 90
       23
 70
   128
 43
0.0
 10
191.798336524
 20
98.7892286073
 10
191.171116847
 20
99.1050186719
 10
190.6639819028
 20
99.5740671794
 10
190.3180169868
 20
100.1583761688
 10
190.1612493204
 20
100.8106083761
 10
190.2063802811
 20
101.4779233526
 10
190.4497534963
 20
102.106258754
 10
190.8716510045
 20
102.6447122137
 10
191.4378941985
 20
103.0496596511
 10
192.1026098537
 20
103.2882952283
 10
192.8119461047
 20
103.3412865515
 10
193.5084366234
 20
103.2043402235
 10
194.1356572317
 20
102.8885510902
 10
194.6427903133
 20
102.4195025827
 10
194.9887561607
 20
101.8351935934
 10
195.145523827
 20
101.182961386
 10
195.100391935
 20
100.5156464095
 10
194.8570205825
 20
99.8873110081
 10
194.435122143
 20
99.3488575484
 10
193.8688780176
 20
98.943910111
 10
193.2041623624
 20
98.7052736025
 10
192.4948270427
 20
98.6522832106
 10
191.798336524
 20
98.7892286073
  0
LWPOLYLINE
  5
14B
330
1F
100
AcDbEntity
  8
0
  6
HIDDEN
 62
     7
370
     0
100
AcDbPolyline
 90
       20
 70
   128
 43
0.0
 10
191.976055223
 20
99.3506671081
 10
191.408504452
 20
99.6520840715
 10
190.975855756
 20
100.1103385504
 10
190.724993776
 20
100.6757724251
 10
190.6831028866
 20
101.2871121208
 10
190.8547232854
 20
101.8781089376
 10
191.2212564605
 20
102.3847195472
 10
191.7429833668
 20
102.7520452778
 10
192.3633662047
 20
102.9402804713
 10
193.0151774543
 20
102.9290263693
 10
193.6277828174
 20
102.7195030044
 10
194.1347966897
 20
102.3344150896
 10
194.4812784898
 20
101.8154933269
 10
194.6296791541
 20
101.2189709733
 10
194.5639166045
 20
100.6094901975
 10
194.2911191838
 20
100.0530976023
 10
193.8408489334
 20
99.6100870113
 10
193.2618978428
 20
99.3284662406
 10
192.6170053887
 20
99.238751937
 10
191.976055223
 20
99.3506671081
  0
LWPOLYLINE
  5
14C
330
1F
100
AcDbEntity
  8
0
  6
HIDDEN
 62
     7
370
     0
100
AcDbPolyline
 90
       20
 70
   128
 43
0.0
 10
192.5186558621
 20
126.0537090863
 10
193.1674952614
 20
126.1131982471
 10
193.7606238755
 20
126.3674362715
 10
194.233766477
 20
126.7888737063
 10
194.5356491017
 20
127.3318403552
 10
194.6335609066
 20
127.9374971206
 10
194.5168885397
 20
128.540211838
 10
194.198277499
 20
129.0746717866
 10
193.7122537749
 20
129.482959878
 10
193.1114855217
 20
129.7208308394
 10
192.46107405
 20
129.7625075246
 10
191.8315037149
 20
129.6034748818
 10
191.2909966888
 20
129.2609661038
 10
190.8981257113
 20
128.772096258
 10
190.6954643311
 20
128.1898436289
 10
190.704974066
 20
127.5773034583
 10
190.925624873
 20
127.0008539002
 10
191.3335059764
 20
126.5229615535
 10
191.8844158756
 20
126.195415404
 10
192.5186558621
 20
126.0537090863
  0
LWPOLYLINE
  5
14D
330
1F
100
AcDbEntity
  8
0
  6
HIDDEN
 62
     7
370
     0
100
AcDbPolyline
 90
       23
 70
   128
 43
0.0
 10
192.4833047199
 20
125.6691678579
 10
193.1928933593
 20
125.7190792973
 10
193.8587750303
 20
125.9548277746
 10
194.4270028728
 20
126.3573137264
 10
194.8515425431
 20
126.8939296867
 10
195.0980021613
 20
127.5212024491
 10
195.1464123087
 20
128.1883143972
 10
194.9928521174
 20
128.8412190194
 10
194.6497621941
 20
129.4270237128
 10
194.1449387925
 20
129.8982692103
 10
193.5192781495
 20
130.2167778055
 10
192.8234684276
 20
130.3567444126
 10
192.1138788568
 20
130.3068329732
 10
191.4479981171
 20
130.0710844959
 10
190.8797702747
 20
129.6685985442
 10
190.455229673
 20
129.1319825839
 10
190.2087709861
 20
128.5047098215
 10
190.1603608387
 20
127.8375978734
 10
190.3139210301
 20
127.1846923198
 10
190.657010022
 20
126.5988885577
 10
191.1618343549
 20
126.1276430602
 10
191.7874949979
 20
125.8091353963
 10
192.4833047199
 20
125.6691678579
  0
LWPOLYLINE
  5
14E
330
1F
100
AcDbEntity
  8
0
  6
HIDDEN
 62
     7
370
     0
100
AcDbPolyline
 90
       23
 70
   128
 43
0.0
 10
192.4833047199
 20
126.2677027996
 10
193.1928933593
 20
126.3176151703
 10
193.8587750303
 20
126.5533627163
 10
194.4270028728
 20
126.9558486681
 10
194.8515425431
 20
127.4924646284
 10
195.0980021613
 20
128.1197373907
 10
195.1464123087
 20
128.7868493389
 10
194.9928521174
 20
129.4397548924
 10
194.6497621941
 20
130.0255586545
 10
194.1449387925
 20
130.496804152
 10
193.5192781495
 20
130.8153127472
 10
192.8234684276
 20
130.9552793543
 10
192.1138788568
 20
130.9053679149
 10
191.4479981171
 20
130.6696203689
 10
190.8797702747
 20
130.2671344171
 10
190.455229673
 20
129.7305175255
 10
190.2087709861
 20
129.1032447632
 10
190.1603608387
 20
128.436132815
 10
190.3139210301
 20
127.7832281928
 10
190.657010022
 20
127.1974234994
 10
191.1618343549
 20
126.7261789332
 10
191.7874949979
 20
126.407670338
 10
192.4833047199
 20
126.2677027996
  0
LWPOLYLINE
  5
14F
330
1F
100
AcDbEntity
  8
0
  6
HIDDEN
 62
     7
370
     0
100
AcDbPolyline
 90
       20
 70
   128
 43
0.0
 10
192.5173212769
 20
127.9164296727
 10
193.1725877332
 20
127.9765083607
 10
193.7715911301
 20
128.2332646813
 10
194.2494201469
 20
128.6588763039
 10
194.554292317
 20
129.2072204094
 10
194.65317456
 20
129.8188767548
 10
194.5353473532
 20
130.4275621812
 10
194.2135791289
 20
130.9673157673
 10
193.7227413984
 20
131.3796476613
 10
193.1160229253
 20
131.6198730062
 10
192.4591694953
 20
131.6619631986
 10
191.8233630242
 20
131.5013566206
 10
191.2775027561
 20
131.1554541032
 10
190.8807397815
 20
130.6617432426
 10
190.6760714012
 20
130.0737229328
 10
190.6856761309
 20
129.4551151957
 10
190.9085118207
 20
128.8729556988
 10
191.3204320701
 20
128.3903313021
 10
191.8767995196
 20
128.0595404248
 10
192.5173212769
 20
127.9164296727
  0
LWPOLYLINE
  5
150
330
1F
100
AcDbEntity
  8
0
  6
HIDDEN
 62
     7
370
     0
100
AcDbPolyline
 90
       20
 70
   128
 43
0.0
 10
192.5173212769
 20
126.4986540343
 10
193.1725877332
 20
126.5587327223
 10
193.7715911301
 20
126.8154890428
 10
194.2494201469
 20
127.2411006655
 10
194.554292317
 20
127.789444771
 10
194.65317456
 20
128.4011011164
 10
194.5353473532
 20
129.0097856115
 10
194.2135791289
 20
129.5495391975
 10
193.7227413984
 20
129.9618710916
 10
193.1160229253
 20
130.2020982991
 10
192.4591694953
 20
130.2441884916
 10
191.8233630242
 20
130.0835800509
 10
191.2775027561
 20
129.7376784648
 10
190.8807397815
 20
129.2439666729
 10
190.6760714012
 20
128.6559463631
 10
190.6856761309
 20
128.0373395573
 10
190.9085118207
 20
127.4551800604
 10
191.3204320701
 20
126.9725547324
 10
191.8767995196
 20
126.6417647864
 10
192.5173212769
 20
126.4986540343
  0
LWPOLYLINE
  5
151
330
1F
100
AcDbEntity
  8
0
  6
HIDDEN
 62
     7
370
     0
100
AcDbPolyline
 90
       23
 70
   128
 43
0.0
 10
192.4833047199
 20
126.5036962147
 10
193.1928933593
 20
126.5536085854
 10
193.8587750303
 20
126.7893570627
 10
194.4270028728
 20
127.1918430145
 10
194.8515425431
 20
127.7284589748
 10
195.0980021613
 20
128.3557317372
 10
195.1464123087
 20
129.0228436853
 10
194.9928521174
 20
129.6757483076
 10
194.6497621941
 20
130.2615520696
 10
194.1449387925
 20
130.7327975671
 10
193.5192781495
 20
131.0513061623
 10
192.8234684276
 20
131.1912746321
 10
192.1138788568
 20
131.14136133
 10
191.4479981171
 20
130.905613784
 10
190.8797702747
 20
130.5031278323
 10
190.455229673
 20
129.966511872
 10
190.2087709861
 20
129.3392391096
 10
190.1603608387
 20
128.6721271615
 10
190.3139210301
 20
128.0192216079
 10
190.657010022
 20
127.4334178458
 10
191.1618343549
 20
126.9621723484
 10
191.7874949979
 20
126.6436646844
 10
192.4833047199
 20
126.5036962147
  0
LWPOLYLINE
  5
152
330
1F
100
AcDbEntity
  8
0
  6
HIDDEN
 62
     7
370
     0
100
AcDbPolyline
 90
       22
 70
   128
 43
0.0
 10
192.4969113427
 20
126.5166797827
 10
193.1802292349
 20
126.5691374581
 10
193.8167351293
 20
126.8085292692
 10
194.3498725998
 20
127.2135838087
 10
194.732268061
 20
127.7483110468
 10
194.929948728
 20
128.3651986311
 10
194.9253442692
 20
129.0094317089
 10
194.7188681918
 20
129.623769332
 10
194.3288638251
 20
130.1536229591
 10
193.7899866136
 20
130.551914234
 10
193.1501167821
 20
130.7832510363
 10
192.4661106425
 20
130.8270828019
 10
191.7987453746
 20
130.679509152
 10
191.2073182868
 20
130.3536468337
 10
190.7443801867
 20
129.8784469406
 10
190.4510666611
 20
129.2961356382
 10
190.3534379783
 20
128.6584534834
 10
190.4601703393
 20
128.0220602791
 10
190.7617800864
 20
127.443503138
 10
191.2314665499
 20
126.9741882722
 10
191.8274971651
 20
126.6558175127
 10
192.4969113427
 20
126.5166797827
  0
LWPOLYLINE
  5
153
330
1F
100
AcDbEntity
  8
0
  6
HIDDEN
 62
     7
370
     0
100
AcDbPolyline
 90
       23
 70
   128
 43
0.0
 10
192.4833047199
 20
126.7396905611
 10
193.1928933593
 20
126.7896029319
 10
193.8587750303
 20
127.0253514092
 10
194.4270028728
 20
127.4278364296
 10
194.8515425431
 20
127.9644523899
 10
195.0980021613
 20
128.5917251523
 10
195.1464123087
 20
129.2588371004
 10
194.9928521174
 20
129.911742654
 10
194.6497621941
 20
130.4975473474
 10
194.1449387925
 20
130.9687909822
 10
193.5192781495
 20
131.2872995774
 10
192.8234684276
 20
131.4272680472
 10
192.1138788568
 20
131.3773547451
 10
191.4479981171
 20
131.1416071992
 10
190.8797702747
 20
130.7391212474
 10
190.455229673
 20
130.2025062184
 10
190.2087709861
 20
129.5752325247
 10
190.1603608387
 20
128.9081215079
 10
190.3139210301
 20
128.2552159543
 10
190.657010022
 20
127.6694112609
 10
191.1618343549
 20
127.1981666948
 10
191.7874949979
 20
126.8796580996
 10
192.4833047199
 20
126.7396905611
  0
LWPOLYLINE
  5
154
330
1F
100
AcDbEntity
  8
0
  6
HIDDEN
 62
     7
370
     0
100
AcDbPolyline
 90
       22
 70
   128
 43
0.0
 10
192.4969113427
 20
126.7526741292
 10
193.1802292349
 20
126.8051308732
 10
193.8167351293
 20
127.0445226844
 10
194.3498725998
 20
127.4495781551
 10
194.732268061
 20
127.9843053933
 10
194.929948728
 20
128.6011920463
 10
194.9253442692
 20
129.2454260553
 10
194.7188681918
 20
129.8597627471
 10
194.3288638251
 20
130.3896163742
 10
193.7899866136
 20
130.7879076491
 10
193.1501167821
 20
131.019246314
 10
192.4661106425
 20
131.063076217
 10
191.7987453746
 20
130.9155025671
 10
191.2073182868
 20
130.5896402489
 10
190.7443801867
 20
130.1144412871
 10
190.4510666611
 20
129.5321299846
 10
190.3534379783
 20
128.8944468986
 10
190.4601703393
 20
128.2580536942
 10
190.7617800864
 20
127.6794965531
 10
191.2314665499
 20
127.2101826186
 10
191.8274971651
 20
126.8918118592
 10
192.4969113427
 20
126.7526741292
  0
LWPOLYLINE
  5
155
330
1F
100
AcDbEntity
  8
0
  6
HIDDEN
 62
     7
370
     0
100
AcDbPolyline
 90
       23
 70
   128
 43
0.0
 10
192.4833047199
 20
126.9756839763
 10
193.1928933593
 20
127.025596347
 10
193.8587750303
 20
127.2613448243
 10
194.4270028728
 20
127.6638307761
 10
194.8515425431
 20
128.2004467364
 10
195.0980021613
 20
128.8277194987
 10
195.1464123087
 20
129.4948314469
 10
194.9928521174
 20
130.1477370004
 10
194.6497621941
 20
130.7335407625
 10
194.1449387925
 20
131.20478626
 10
193.5192781495
 20
131.5232929926
 10
192.8234684276
 20
131.6632614623
 10
192.1138788568
 20
131.6133500229
 10
191.4479981171
 20
131.3776006143
 10
190.8797702747
 20
130.9751146625
 10
190.455229673
 20
130.4384996335
 10
190.2087709861
 20
129.8112268712
 10
190.1603608387
 20
129.144114923
 10
190.3139210301
 20
128.4912093695
 10
190.657010022
 20
127.9054056074
 10
191.1618343549
 20
127.4341601099
 10
191.7874949979
 20
127.115652446
 10
192.4833047199
 20
126.9756839763
  0
LWPOLYLINE
  5
156
330
1F
100
AcDbEntity
  8
0
  6
HIDDEN
 62
     7
370
     0
100
AcDbPolyline
 90
       22
 70
   128
 43
0.0
 10
192.4969113427
 20
126.9886675443
 10
193.1802292349
 20
127.0411252196
 10
193.8167351293
 20
127.2805170308
 10
194.3498725998
 20
127.6855715702
 10
194.732268061
 20
128.2202988084
 10
194.929948728
 20
128.8371863927
 10
194.9253442692
 20
129.4814194705
 10
194.7188681918
 20
130.0957570936
 10
194.3288638251
 20
130.6256097893
 10
193.7899866136
 20
131.0239010642
 10
193.1501167821
 20
131.2552397291
 10
192.4661106425
 20
131.2990696321
 10
191.7987453746
 20
131.1514978449
 10
191.2073182868
 20
130.825633664
 10
190.7443801867
 20
130.3504356335
 10
190.4510666611
 20
129.7681243311
 10
190.3534379783
 20
129.130441245
 10
190.4601703393
 20
128.4940480407
 10
190.7617800864
 20
127.9154908995
 10
191.2314665499
 20
127.4461760338
 10
191.8274971651
 20
127.1278052743
 10
192.4969113427
 20
126.9886675443
  0
LWPOLYLINE
  5
157
330
1F
100
AcDbEntity
  8
0
  6
HIDDEN
 62
     7
370
     0
100
AcDbPolyline
 90
       23
 70
   128
 43
0.0
 10
192.4833047199
 20
127.2116783227
 10
193.1928933593
 20
127.2615906934
 10
193.8587750303
 20
127.4973391707
 10
194.4270028728
 20
127.8998241912
 10
194.8515425431
 20
128.4364401515
 10
195.0980021613
 20
129.0637129138
 10
195.1464123087
 20
129.730824862
 10
194.9928521174
 20
130.3837304156
 10
194.6497621941
 20
130.9695341776
 10
194.1449387925
 20
131.4407796751
 10
193.5192781495
 20
131.7592882703
 10
192.8234684276
 20
131.8992548774
 10
192.1138788568
 20
131.849343438
 10
191.4479981171
 20
131.613595892
 10
190.8797702747
 20
131.2111099403
 10
190.455229673
 20
130.6744930486
 10
190.2087709861
 20
130.0472202863
 10
190.1603608387
 20
129.3801092695
 10
190.3139210301
 20
128.7272037159
 10
190.657010022
 20
128.1413990225
 10
191.1618343549
 20
127.6701544563
 10
191.7874949979
 20
127.3516458611
 10
192.4833047199
 20
127.2116783227
  0
LWPOLYLINE
  5
158
330
1F
100
AcDbEntity
  8
0
  6
HIDDEN
 62
     7
370
     0
100
AcDbPolyline
 90
       22
 70
   128
 43
0.0
 10
192.4969113427
 20
127.2246618907
 10
193.1802292349
 20
127.2771186347
 10
193.8167351293
 20
127.5165104459
 10
194.3498725998
 20
127.9215659167
 10
194.732268061
 20
128.4562931548
 10
194.929948728
 20
129.0731798078
 10
194.9253442692
 20
129.7174138169
 10
194.7188681918
 20
130.33175144
 10
194.3288638251
 20
130.8616050671
 10
193.7899866136
 20
131.259896342
 10
193.1501167821
 20
131.4912331443
 10
192.4661106425
 20
131.5350630473
 10
191.7987453746
 20
131.38749126
 10
191.2073182868
 20
131.0616270791
 10
190.7443801867
 20
130.5864290486
 10
190.4510666611
 20
130.0041177462
 10
190.3534379783
 20
129.3664346601
 10
190.4601703393
 20
128.7300414558
 10
190.7617800864
 20
128.1514843147
 10
191.2314665499
 20
127.6821703802
 10
191.8274971651
 20
127.3637996207
 10
192.4969113427
 20
127.2246618907
  0
LWPOLYLINE
  5
159
330
1F
100
AcDbEntity
  8
0
  6
HIDDEN
 62
     7
370
     0
100
AcDbPolyline
 90
       23
 70
   128
 43
0.0
 10
192.4833047199
 20
127.3997896503
 10
193.1928933593
 20
127.4497010897
 10
193.8587750303
 20
127.685449567
 10
194.4270028728
 20
128.0879355188
 10
194.8515425431
 20
128.6245514791
 10
195.0980021613
 20
129.2518242414
 10
195.1464123087
 20
129.9189361896
 10
194.9928521174
 20
130.5718408118
 10
194.6497621941
 20
131.1576464365
 10
194.1449387925
 20
131.6288900714
 10
193.5192781495
 20
131.9473986666
 10
192.8234684276
 20
132.0873671363
 10
192.1138788568
 20
132.0374538343
 10
191.4479981171
 20
131.8017062883
 10
190.8797702747
 20
131.3992203365
 10
190.455229673
 20
130.8626053076
 10
190.2087709861
 20
130.2353316139
 10
190.1603608387
 20
129.5682196657
 10
190.3139210301
 20
128.9153150435
 10
190.657010022
 20
128.3295103501
 10
191.1618343549
 20
127.8582648526
 10
191.7874949979
 20
127.5397571887
 10
192.4833047199
 20
127.3997896503
  0
LWPOLYLINE
  5
15A
330
1F
100
AcDbEntity
  8
0
  6
HIDDEN
 62
     7
370
     0
100
AcDbPolyline
 90
       22
 70
   128
 43
0.0
 10
192.4928293558
 20
127.5789239596
 10
193.1939727622
 20
127.6327497478
 10
193.8470832067
 20
127.8783870082
 10
194.3941271859
 20
128.2940083335
 10
194.7865008371
 20
128.8426858525
 10
194.9893354433
 20
129.4756648283
 10
194.9846136379
 20
130.1367045532
 10
194.772748928
 20
130.7670683752
 10
194.3725726562
 20
131.3107446919
 10
193.8196371304
 20
131.7194258015
 10
193.1630752044
 20
131.956797574
 10
192.4612258556
 20
132.0017711411
 10
191.7764504435
 20
131.8503492664
 10
191.1695950659
 20
131.5159858356
 10
190.694580506
 20
131.0283900391
 10
190.3936152341
 20
130.4308888654
 10
190.293439384
 20
129.7765704955
 10
190.4029563996
 20
129.123575535
 10
190.7124330285
 20
128.5299253802
 10
191.194372903
 20
128.0483682792
 10
191.8059519487
 20
127.721691985
 10
192.4928293558
 20
127.5789239596
  0
LWPOLYLINE
  5
15B
330
1F
100
AcDbEntity
  8
0
  6
HIDDEN
 62
     7
370
     0
100
AcDbPolyline
 90
       21
 70
   128
 43
0.0
 10
183.4068789142
 20
102.5932305644
 10
183.0545106898
 20
102.5871238823
 10
182.7530047851
 20
102.3865048926
 10
182.5318752783
 20
102.0110105316
 10
182.4127675029
 20
101.4973982389
 10
182.4073406863
 20
100.8959426697
 10
182.5161256822
 20
100.2655201744
 10
182.7284742142
 20
99.6678392555
 10
183.0236000935
 20
99.1614055972
 10
183.3726141597
 20
98.7957925688
 10
183.7413527066
 20
98.6067899655
 10
184.093720931
 20
98.6128975789
 10
184.3952268357
 20
98.8135156374
 10
184.6163563425
 20
99.1890099983
 10
184.7354641179
 20
99.7026232223
 10
184.7408909345
 20
100.3040778603
 10
184.6321059386
 20
100.9345012869
 10
184.4197574066
 20
101.5321812744
 10
184.1246315273
 20
102.0386149327
 10
183.7756174611
 20
102.4042279612
 10
183.4068789142
 20
102.5932305644
  0
LWPOLYLINE
  5
15C
330
1F
100
AcDbEntity
  8
0
  6
HIDDEN
 62
     7
370
     0
100
AcDbPolyline
 90
       23
 70
   128
 43
0.0
 10
183.5811214516
 20
103.0752542581
 10
183.1894621248
 20
103.078458939
 10
182.8460145737
 20
102.8849580477
 10
182.5786034571
 20
102.5104276057
 10
182.408893201
 20
101.985209171
 10
182.350631989
 20
101.3518539409
 10
182.4085402297
 20
100.66167127
 10
182.5779268513
 20
99.9705777656
 10
182.8450683499
 20
99.3345589529
 10
183.1883231173
 20
98.8051430474
 10
183.579882327
 20
98.425221179
 10
183.9880242007
 20
98.2255698334
 10
184.3796839932
 20
98.2223642211
 10
184.7231315444
 20
98.4158651124
 10
184.9905426609
 20
98.7903964858
 10
185.160252917
 20
99.3156149204
 10
185.218514129
 20
99.9489701505
 10
185.1606058883
 20
100.6391518901
 10
184.9912192667
 20
101.3302463259
 10
184.7240777681
 20
101.9662642072
 10
184.3808230008
 20
102.4956801127
 10
183.9892637911
 20
102.8756029125
 10
183.5811214516
 20
103.0752542581
  0
LWPOLYLINE
  5
15D
330
1F
100
AcDbEntity
  8
0
  6
HIDDEN
 62
     7
370
     0
100
AcDbPolyline
 90
       23
 70
   128
 43
0.0
 10
186.0329086887
 20
103.6624205451
 10
185.6412488962
 20
103.6656252261
 10
185.2978013451
 20
103.4721243347
 10
185.0303906942
 20
103.0975938927
 10
184.8606799724
 20
102.572375458
 10
184.8024187604
 20
101.9390202279
 10
184.8603274668
 20
101.2488384883
 10
185.0297136227
 20
100.5577440526
 10
185.2968551213
 20
99.9217252399
 10
185.6401098887
 20
99.3923102658
 10
186.0316690984
 20
99.012387466
 10
186.4398109721
 20
98.8127351891
 10
186.8314712303
 20
98.8095314394
 10
187.1749187815
 20
99.0030323307
 10
187.4423294323
 20
99.3775627728
 10
187.6120396885
 20
99.9027812074
 10
187.6703004348
 20
100.5361364375
 10
187.6123926597
 20
101.2263181771
 10
187.4430065038
 20
101.9174126129
 10
187.1758650052
 20
102.5534314255
 10
186.8326102378
 20
103.0828463997
 10
186.4410505625
 20
103.4627691995
 10
186.0329086887
 20
103.6624205451
  0
LINE
  5
15E
330
1F
100
AcDbEntity
  8
0
  6
HIDDEN
 62
     7
370
     0
100
AcDbLine
 10
182.9231299455
 20
100.0800267945
 30
0.0
 11
183.6915786373
 21
99.200026613
 31
0.0
  0
LINE
  5
15F
330
1F
100
AcDbEntity
  8
0
  6
HIDDEN
 62
     7
370
     0
100
AcDbLine
 10
184.3425642694
 20
99.7200110148
 30
0.0
 11
183.6915786373
 21
99.200026613
 31
0.0
  0
LINE
  5
160
330
1F
100
AcDbEntity
  8
0
  6
HIDDEN
 62
     7
370
     0
100
AcDbLine
 10
184.2251016753
 20
101.1199946667
 30
0.0
 11
184.3425642694
 21
99.7200110148
 31
0.0
  0
LINE
  5
161
330
1F
100
AcDbEntity
  8
0
  6
HIDDEN
 62
     7
370
     0
100
AcDbLine
 10
184.2251016753
 20
101.1199946667
 30
0.0
 11
183.4566529835
 21
101.9999939169
 31
0.0
  0
LINE
  5
162
330
1F
100
AcDbEntity
  8
0
  6
HIDDEN
 62
     7
370
     0
100
AcDbLine
 10
182.8056673514
 20
101.4800095151
 30
0.0
 11
183.4566529835
 21
101.9999939169
 31
0.0
  0
LINE
  5
163
330
1F
100
AcDbEntity
  8
0
  6
HIDDEN
 62
     7
370
     0
100
AcDbLine
 10
182.8056673514
 20
101.4800095151
 30
0.0
 11
182.9231299455
 21
100.0800267945
 31
0.0
  0
LINE
  5
164
330
1F
100
AcDbEntity
  8
0
  6
HIDDEN
 62
     7
370
     0
100
AcDbLine
 10
185.8634056518
 20
101.5123441036
 30
0.0
 11
184.2251016753
 21
101.1199946667
 31
0.0
  0
LWPOLYLINE
  5
165
330
1F
100
AcDbEntity
  8
0
  6
HIDDEN
 62
     7
370
     0
100
AcDbPolyline
 90
       19
 70
   128
 43
0.0
 10
186.7083075451
 20
103.0820985477
 10
186.377064045
 20
103.0659261312
 10
186.1029506656
 20
102.8469749878
 10
185.9190293583
 20
102.451651838
 10
185.8474846924
 20
101.9276403974
 10
185.896944906
 20
101.33814301
 10
186.0614453437
 20
100.754262429
 10
186.3211446437
 20
100.2464224736
 10
186.6447187024
 20
99.8758771609
 10
186.993139516
 20
99.6873197298
 10
187.3243839475
 20
99.7034921463
 10
187.5984973269
 20
99.9224442209
 10
187.7824186342
 20
100.3177664395
 10
187.8539637657
 20
100.8417788114
 10
187.8045030864
 20
101.4312761988
 10
187.6400026488
 20
102.0151567797
 10
187.3803033488
 20
102.5229958038
 10
187.0567292901
 20
102.8935411166
 10
186.7083075451
 20
103.0820985477
  0
LINE
  5
166
330
1F
100
AcDbEntity
  8
0
  6
HIDDEN
 62
     7
370
     0
100
AcDbLine
 10
185.9808687116
 20
100.1123604517
 30
0.0
 11
184.3425642694
 21
99.7200110148
 31
0.0
  0
LINE
  5
167
330
1F
100
AcDbEntity
  8
0
  6
HIDDEN
 62
     7
370
     0
100
AcDbLine
 10
184.4439713279
 20
101.872358952
 30
0.0
 11
185.09495696
 21
102.3923433538
 31
0.0
  0
LINE
  5
168
330
1F
100
AcDbEntity
  8
0
  6
HIDDEN
 62
     7
370
     0
100
AcDbLine
 10
184.4439713279
 20
101.872358952
 30
0.0
 11
182.8056673514
 21
101.4800095151
 31
0.0
  0
LINE
  5
169
330
1F
100
AcDbEntity
  8
0
  6
HIDDEN
 62
     7
370
     0
100
AcDbLine
 10
185.09495696
 20
102.3923433538
 30
0.0
 11
183.4566529835
 21
101.9999939169
 31
0.0
  0
LINE
  5
16A
330
1F
100
AcDbEntity
  8
0
  6
HIDDEN
 62
     7
370
     0
100
AcDbLine
 10
184.561433922
 20
100.4723762314
 30
0.0
 11
185.3298826138
 21
99.5923760499
 31
0.0
  0
LINE
  5
16B
330
1F
100
AcDbEntity
  8
0
  6
HIDDEN
 62
     7
370
     0
100
AcDbLine
 10
184.4439713279
 20
101.872358952
 30
0.0
 11
184.561433922
 21
100.4723762314
 31
0.0
  0
LINE
  5
16C
330
1F
100
AcDbEntity
  8
0
  6
HIDDEN
 62
     7
370
     0
100
AcDbLine
 10
185.9808687116
 20
100.1123604517
 30
0.0
 11
185.3298826138
 21
99.5923760499
 31
0.0
  0
LINE
  5
16D
330
1F
100
AcDbEntity
  8
0
  6
HIDDEN
 62
     7
370
     0
100
AcDbLine
 10
185.8634056518
 20
101.5123441036
 30
0.0
 11
185.9808687116
 21
100.1123604517
 31
0.0
  0
LINE
  5
16E
330
1F
100
AcDbEntity
  8
0
  6
HIDDEN
 62
     7
370
     0
100
AcDbLine
 10
185.8634056518
 20
101.5123441036
 30
0.0
 11
185.09495696
 21
102.3923433538
 31
0.0
  0
LINE
  5
16F
330
1F
100
AcDbEntity
  8
0
  6
HIDDEN
 62
     7
370
     0
100
AcDbLine
 10
184.561433922
 20
100.4723762314
 30
0.0
 11
182.9231299455
 21
100.0800267945
 31
0.0
  0
LINE
  5
170
330
1F
100
AcDbEntity
  8
0
  6
HIDDEN
 62
     7
370
     0
100
AcDbLine
 10
185.3298826138
 20
99.5923760499
 30
0.0
 11
183.6915786373
 21
99.200026613
 31
0.0
  0
LWPOLYLINE
  5
171
330
1F
100
AcDbEntity
  8
0
  6
HIDDEN
 62
     7
370
     0
100
AcDbPolyline
 90
       23
 70
   128
 43
0.0
 10
186.0329086887
 20
125.3473204713
 10
185.6412488962
 20
125.3441157903
 10
185.2978013451
 20
125.5376166816
 10
185.0303906942
 20
125.9121471237
 10
184.8606799724
 20
126.4373655583
 10
184.8024187604
 20
127.0707207884
 10
184.8603274668
 20
127.760902528
 10
185.0297136227
 20
128.4519969638
 10
185.2968551213
 20
129.0880157764
 10
185.6401098887
 20
129.6174307506
 10
186.0316690984
 20
129.9973535503
 10
186.4398109721
 20
130.1970058273
 10
186.8314712303
 20
130.2002095769
 10
187.1749187815
 20
130.0067086856
 10
187.4423294323
 20
129.6321782435
 10
187.6120396885
 20
129.1069598089
 10
187.6703004348
 20
128.4736045788
 10
187.6123926597
 20
127.7834228392
 10
187.4430065038
 20
127.0923284034
 10
187.1758650052
 20
126.4563095908
 10
186.8326102378
 20
125.9268946166
 10
186.4410505625
 20
125.5469718169
 10
186.0329086887
 20
125.3473204713
  0
LWPOLYLINE
  5
172
330
1F
100
AcDbEntity
  8
0
  6
HIDDEN
 62
     7
370
     0
100
AcDbPolyline
 90
       19
 70
   128
 43
0.0
 10
186.7083075451
 20
125.9276424687
 10
186.377064045
 20
125.9438148852
 10
186.1029506656
 20
126.1627660285
 10
185.9190293583
 20
126.5580891784
 10
185.8474846924
 20
127.0821006189
 10
185.896944906
 20
127.6715980063
 10
186.0614453437
 20
128.2554785873
 10
186.3211446437
 20
128.7633185427
 10
186.6447187024
 20
129.1338638555
 10
186.993139516
 20
129.3224212866
 10
187.3243839475
 20
129.30624887
 10
187.5984973269
 20
129.0872967954
 10
187.7824186342
 20
128.6919745769
 10
187.8539637657
 20
128.167962205
 10
187.8045030864
 20
127.5784648176
 10
187.6400026488
 20
126.9945842366
 10
187.3803033488
 20
126.4867452125
 10
187.0567292901
 20
126.1161998998
 10
186.7083075451
 20
125.9276424687
  0
LWPOLYLINE
  5
173
330
1F
100
AcDbEntity
  8
0
  6
HIDDEN
 62
     7
370
     0
100
AcDbPolyline
 90
       23
 70
   128
 43
0.0
 10
183.5811214516
 20
125.9344867583
 10
183.1894621248
 20
125.9312820773
 10
182.8460145737
 20
126.1247829686
 10
182.5786034571
 20
126.4993134107
 10
182.408893201
 20
127.0245318453
 10
182.350631989
 20
127.6578870754
 10
182.4085402297
 20
128.3480697463
 10
182.5779268513
 20
129.0391632508
 10
182.8450683499
 20
129.6751820634
 10
183.1883231173
 20
130.2045979689
 10
183.579882327
 20
130.5845198374
 10
183.9880242007
 20
130.784171183
 10
184.3796839932
 20
130.7873767953
 10
184.7231315444
 20
130.5938759039
 10
184.9905426609
 20
130.2193445306
 10
185.160252917
 20
129.6941260959
 10
185.218514129
 20
129.0607708658
 10
185.1606058883
 20
128.3705891262
 10
184.9912192667
 20
127.6794946904
 10
184.7240777681
 20
127.0434768091
 10
184.3808230008
 20
126.5140609036
 10
183.9892637911
 20
126.1341381039
 10
183.5811214516
 20
125.9344867583
  0
LINE
  5
174
330
1F
100
AcDbEntity
  8
0
  6
HIDDEN
 62
     7
370
     0
100
AcDbLine
 10
184.561433922
 20
128.5373647849
 30
0.0
 11
185.3298826138
 21
129.4173649664
 31
0.0
  0
LINE
  5
175
330
1F
100
AcDbEntity
  8
0
  6
HIDDEN
 62
     7
370
     0
100
AcDbLine
 10
184.561433922
 20
128.5373647849
 30
0.0
 11
182.9231299455
 21
128.9297142218
 31
0.0
  0
LINE
  5
176
330
1F
100
AcDbEntity
  8
0
  6
HIDDEN
 62
     7
370
     0
100
AcDbLine
 10
184.4439713279
 20
127.1373820643
 30
0.0
 11
184.561433922
 21
128.5373647849
 31
0.0
  0
LINE
  5
177
330
1F
100
AcDbEntity
  8
0
  6
HIDDEN
 62
     7
370
     0
100
AcDbLine
 10
182.8056673514
 20
127.5297315012
 30
0.0
 11
182.9231299455
 21
128.9297142218
 31
0.0
  0
LINE
  5
178
330
1F
100
AcDbEntity
  8
0
  6
HIDDEN
 62
     7
370
     0
100
AcDbLine
 10
182.9231299455
 20
128.9297142218
 30
0.0
 11
183.6915786373
 21
129.8097144033
 31
0.0
  0
LWPOLYLINE
  5
179
330
1F
100
AcDbEntity
  8
0
  6
HIDDEN
 62
     7
370
     0
100
AcDbPolyline
 90
       21
 70
   128
 43
0.0
 10
183.4068789142
 20
126.4165104519
 10
183.0545106898
 20
126.422617134
 10
182.7530047851
 20
126.6232361238
 10
182.5318752783
 20
126.9987304847
 10
182.4127675029
 20
127.5123427774
 10
182.4073406863
 20
128.1137983467
 10
182.5161256822
 20
128.744220842
 10
182.7284742142
 20
129.3419017608
 10
183.0236000935
 20
129.8483354191
 10
183.3726141597
 20
130.2139484476
 10
183.7413527066
 20
130.4029510508
 10
184.093720931
 20
130.3968434374
 10
184.3952268357
 20
130.196225379
 10
184.6163563425
 20
129.820731018
 10
184.7354641179
 20
129.307117794
 10
184.7408909345
 20
128.7056631561
 10
184.6321059386
 20
128.0752397294
 10
184.4197574066
 20
127.4775597419
 10
184.1246315273
 20
126.9711260836
 10
183.7756174611
 20
126.6055130552
 10
183.4068789142
 20
126.4165104519
  0
LINE
  5
17A
330
1F
100
AcDbEntity
  8
0
  6
HIDDEN
 62
     7
370
     0
100
AcDbLine
 10
182.8056673514
 20
127.5297315012
 30
0.0
 11
183.4566529835
 21
127.0097470994
 31
0.0
  0
LINE
  5
17B
330
1F
100
AcDbEntity
  8
0
  6
HIDDEN
 62
     7
370
     0
100
AcDbLine
 10
184.4439713279
 20
127.1373820643
 30
0.0
 11
182.8056673514
 21
127.5297315012
 31
0.0
  0
LINE
  5
17C
330
1F
100
AcDbEntity
  8
0
  6
HIDDEN
 62
     7
370
     0
100
AcDbLine
 10
184.4439713279
 20
127.1373820643
 30
0.0
 11
185.09495696
 21
126.6173976626
 31
0.0
  0
LINE
  5
17D
330
1F
100
AcDbEntity
  8
0
  6
HIDDEN
 62
     7
370
     0
100
AcDbLine
 10
185.9808687116
 20
128.8973805647
 30
0.0
 11
184.3425642694
 21
129.2897300015
 31
0.0
  0
LINE
  5
17E
330
1F
100
AcDbEntity
  8
0
  6
HIDDEN
 62
     7
370
     0
100
AcDbLine
 10
184.3425642694
 20
129.2897300015
 30
0.0
 11
183.6915786373
 21
129.8097144033
 31
0.0
  0
LINE
  5
17F
330
1F
100
AcDbEntity
  8
0
  6
HIDDEN
 62
     7
370
     0
100
AcDbLine
 10
185.3298826138
 20
129.4173649664
 30
0.0
 11
183.6915786373
 21
129.8097144033
 31
0.0
  0
LINE
  5
180
330
1F
100
AcDbEntity
  8
0
  6
HIDDEN
 62
     7
370
     0
100
AcDbLine
 10
185.9808687116
 20
128.8973805647
 30
0.0
 11
185.3298826138
 21
129.4173649664
 31
0.0
  0
LINE
  5
181
330
1F
100
AcDbEntity
  8
0
  6
HIDDEN
 62
     7
370
     0
100
AcDbLine
 10
185.8634056518
 20
127.4973969127
 30
0.0
 11
184.2251016753
 21
127.8897463496
 31
0.0
  0
LINE
  5
182
330
1F
100
AcDbEntity
  8
0
  6
HIDDEN
 62
     7
370
     0
100
AcDbLine
 10
185.09495696
 20
126.6173976626
 30
0.0
 11
183.4566529835
 21
127.0097470994
 31
0.0
  0
LINE
  5
183
330
1F
100
AcDbEntity
  8
0
  6
HIDDEN
 62
     7
370
     0
100
AcDbLine
 10
184.2251016753
 20
127.8897463496
 30
0.0
 11
183.4566529835
 21
127.0097470994
 31
0.0
  0
LINE
  5
184
330
1F
100
AcDbEntity
  8
0
  6
HIDDEN
 62
     7
370
     0
100
AcDbLine
 10
185.8634056518
 20
127.4973969127
 30
0.0
 11
185.09495696
 21
126.6173976626
 31
0.0
  0
LINE
  5
185
330
1F
100
AcDbEntity
  8
0
  6
HIDDEN
 62
     7
370
     0
100
AcDbLine
 10
184.2251016753
 20
127.8897463496
 30
0.0
 11
184.3425642694
 21
129.2897300015
 31
0.0
  0
LINE
  5
186
330
1F
100
AcDbEntity
  8
0
  6
HIDDEN
 62
     7
370
     0
100
AcDbLine
 10
185.8634056518
 20
127.4973969127
 30
0.0
 11
185.9808687116
 21
128.8973805647
 31
0.0
  0
LINE
  5
187
330
1F
100
AcDbEntity
  8
0
  6
HIDDEN
 62
     7
370
     0
100
AcDbLine
 10
216.4033881383
 20
129.8048705946
 30
0.0
 11
215.994574781
 21
130.2136820893
 31
0.0
  0
LINE
  5
188
330
1F
100
AcDbEntity
  8
0
  6
HIDDEN
 62
     7
370
     0
100
AcDbLine
 10
208.8197606611
 20
130.2212444286
 30
0.0
 11
208.403386827
 21
129.8048705946
 31
0.0
  0
LINE
  5
189
330
1F
100
AcDbEntity
  8
0
  6
HIDDEN
 62
     7
370
     0
100
AcDbLine
 10
208.403386827
 20
129.8048705946
 30
0.0
 11
208.403386827
 21
124.6101264994
 31
0.0
  0
LINE
  5
18A
330
1F
100
AcDbEntity
  8
0
  6
HIDDEN
 62
     7
370
     0
100
AcDbLine
 10
216.4033881383
 20
124.6101264994
 30
0.0
 11
216.4033881383
 21
129.8048705946
 31
0.0
  0
LINE
  5
18B
330
1F
100
AcDbEntity
  8
0
  6
HIDDEN
 62
     7
370
     0
100
AcDbLine
 10
208.403386827
 20
124.6101264994
 30
0.0
 11
209.4438063907
 21
120.7272247563
 31
0.0
  0
LINE
  5
18C
330
1F
100
AcDbEntity
  8
0
  6
HIDDEN
 62
     7
370
     0
100
AcDbLine
 10
215.362966712
 20
120.7272247563
 30
0.0
 11
216.4033881383
 21
124.6101264994
 31
0.0
  0
ARC
  5
18D
330
1F
100
AcDbEntity
  8
0
  6
HIDDEN
 62
     7
370
     0
100
AcDbCircle
 10
209.7335845777
 20
120.8048705082
 30
0.0
 40
0.3000000000000114
100
AcDbArc
 50
195.0
 51
270.0
  0
ARC
  5
18E
330
1F
100
AcDbEntity
  8
0
  6
HIDDEN
 62
     7
370
     0
100
AcDbCircle
 10
215.0731883849
 20
120.8048705082
 30
0.0
 40
0.3000000000000114
100
AcDbArc
 50
270.0
 51
345.0
  0
LINE
  5
18F
330
1F
100
AcDbEntity
  8
0
  6
HIDDEN
 62
     7
370
     0
100
AcDbLine
 10
210.0033878344
 20
130.5048712681
 30
0.0
 11
210.4033871549
 21
130.104870085
 31
0.0
  0
LINE
  5
190
330
1F
100
AcDbEntity
  8
0
  6
HIDDEN
 62
     7
370
     0
100
AcDbLine
 10
214.4033878105
 20
130.104870085
 30
0.0
 11
214.803387131
 21
130.5048712681
 31
0.0
  0
LINE
  5
191
330
1F
100
AcDbEntity
  8
0
  6
HIDDEN
 62
     7
370
     0
100
AcDbLine
 10
210.4033871549
 20
125.5048704486
 30
0.0
 11
210.4033871549
 21
124.5048702846
 31
0.0
  0
LINE
  5
192
330
1F
100
AcDbEntity
  8
0
  6
HIDDEN
 62
     7
370
     0
100
AcDbLine
 10
214.4033878105
 20
124.5048702846
 30
0.0
 11
214.4033878105
 21
125.5048704486
 31
0.0
  0
LINE
  5
193
330
1F
100
AcDbEntity
  8
0
  6
HIDDEN
 62
     7
370
     0
100
AcDbLine
 10
210.4033871549
 20
124.5048702846
 30
0.0
 11
212.4033874827
 21
123.7769299339
 31
0.0
  0
LINE
  5
194
330
1F
100
AcDbEntity
  8
0
  6
HIDDEN
 62
     7
370
     0
100
AcDbLine
 10
212.4033874827
 20
123.7769299339
 30
0.0
 11
214.4033878105
 21
124.5048702846
 31
0.0
  0
LINE
  5
195
330
1F
100
AcDbEntity
  8
0
  6
HIDDEN
 62
     7
370
     0
100
AcDbLine
 10
195.1533860522
 20
97.8405573557
 30
0.0
 11
195.1533860522
 21
100.9967853467
 31
0.0
  0
LINE
  5
196
330
1F
100
AcDbEntity
  8
0
  6
HIDDEN
 62
     7
370
     0
100
AcDbLine
 10
190.1533861639
 20
100.9967853467
 30
0.0
 11
190.1533861639
 21
98.9431259374
 31
0.0
  0
LINE
  5
197
330
1F
100
AcDbEntity
  8
0
  6
HIDDEN
 62
     7
370
     0
100
AcDbLine
 10
181.6533864005
 20
97.0551935177
 30
0.0
 11
184.2728142621
 21
97.6825081895
 31
0.0
  0
LINE
  5
198
330
1F
100
AcDbEntity
  8
0
  6
HIDDEN
 62
     7
370
     0
100
AcDbLine
 10
182.8754173587
 20
103.5175132717
 30
0.0
 11
181.6533864005
 21
103.2248544659
 31
0.0
  0
LINE
  5
199
330
1F
100
AcDbEntity
  8
0
  6
HIDDEN
 62
     7
370
     0
100
AcDbLine
 10
184.3315369444
 20
98.6220208149
 30
0.0
 11
191.8006862509
 21
100.4107701744
 31
0.0
  0
LINE
  5
19A
330
1F
100
AcDbEntity
  8
0
  6
HIDDEN
 62
     7
370
     0
100
AcDbLine
 10
191.8006862509
 20
104.729532745
 30
0.0
 11
183.3533590654
 21
102.706524093
 31
0.0
  0
LINE
  5
19B
330
1F
100
AcDbEntity
  8
0
  6
HIDDEN
 62
     7
370
     0
100
AcDbLine
 10
194.7533867317
 20
101.0465794395
 30
0.0
 11
194.7533867317
 21
113.3439659759
 31
0.0
  0
LINE
  5
19C
330
1F
100
AcDbEntity
  8
0
  6
HIDDEN
 62
     7
370
     0
100
AcDbLine
 10
190.5533864158
 20
101.3946295868
 30
0.0
 11
190.5533864158
 21
101.0465794395
 31
0.0
  0
LINE
  5
19D
330
1F
100
AcDbEntity
  8
0
  6
HIDDEN
 62
     7
370
     0
100
AcDbLine
 10
190.5533864158
 20
113.3440784331
 30
0.0
 11
190.5533864158
 21
103.1482541154
 31
0.0
  0
ARC
  5
19E
330
1F
100
AcDbEntity
  8
0
  6
HIDDEN
 62
     7
370
     0
100
AcDbCircle
 10
78.0533864813
 20
100.8048705082
 30
0.0
 40
1.200000000000003
100
AcDbArc
 50
90.0
 51
180.0
  0
ARC
  5
19F
330
1F
100
AcDbEntity
  8
0
  6
HIDDEN
 62
     7
370
     0
100
AcDbCircle
 10
78.0533864813
 20
128.2048705082
 30
0.0
 40
1.200000000000003
100
AcDbArc
 50
180.0
 51
270.0
  0
LINE
  5
1A0
330
1F
100
AcDbEntity
  8
0
  6
HIDDEN
 62
     7
370
     0
100
AcDbLine
 10
87.7457565623
 20
101.7798702385
 30
0.0
 11
88.6224440294
 21
101.7798702385
 31
0.0
  0
LINE
  5
1A1
330
1F
100
AcDbEntity
  8
0
  6
HIDDEN
 62
     7
370
     0
100
AcDbLine
 10
88.6224440294
 20
127.2298707779
 30
0.0
 11
87.7457565623
 21
127.2298707779
 31
0.0
  0
ARC
  5
1A2
330
1F
100
AcDbEntity
  8
0
  6
HIDDEN
 62
     7
370
     0
100
AcDbCircle
 10
87.7457589121
 20
102.1798705082
 30
0.0
 40
0.400000000000006
100
AcDbArc
 50
255.0
 51
270.0
  0
ARC
  5
1A3
330
1F
100
AcDbEntity
  8
0
  6
HIDDEN
 62
     7
370
     0
100
AcDbCircle
 10
87.7457589121
 20
126.8298705082
 30
0.0
 40
0.400000000000006
100
AcDbArc
 50
90.0
 51
105.0
  0
ARC
  5
1A4
330
1F
100
AcDbEntity
  8
0
  6
HIDDEN
 62
     7
370
     0
100
AcDbCircle
 10
88.6224463737
 20
102.1798705082
 30
0.0
 40
0.4000000000000069
100
AcDbArc
 50
270.0
 51
330.0
  0
ARC
  5
1A5
330
1F
100
AcDbEntity
  8
0
  6
HIDDEN
 62
     7
370
     0
100
AcDbCircle
 10
88.6224463737
 20
126.8298705082
 30
0.0
 40
0.4000000000000057
100
AcDbArc
 50
30.0
 51
90.0
  0
LINE
  5
1A6
330
1F
100
AcDbEntity
  8
0
  6
HIDDEN
 62
     7
370
     0
100
AcDbLine
 10
87.6422307449
 20
127.216240872
 30
0.0
 11
86.853385623
 21
127.0048706944
 31
0.0
  0
LINE
  5
1A7
330
1F
100
AcDbEntity
  8
0
  6
HIDDEN
 62
     7
370
     0
100
AcDbLine
 10
86.853385623
 20
102.0048703219
 30
0.0
 11
87.6422307449
 21
101.7935001443
 31
0.0
  0
LINE
  5
1A8
330
1F
100
AcDbEntity
  8
0
  6
HIDDEN
 62
     7
370
     0
100
AcDbLine
 10
88.9688587742
 20
101.97987083
 30
0.0
 11
90.1379889803
 21
104.0048706497
 31
0.0
  0
LINE
  5
1A9
330
1F
100
AcDbEntity
  8
0
  6
HIDDEN
 62
     7
370
     0
100
AcDbLine
 10
90.1379889803
 20
125.0048703666
 30
0.0
 11
88.9688587742
 21
127.0298701863
 31
0.0
  0
LINE
  5
1AA
330
1F
100
AcDbEntity
  8
0
  6
HIDDEN
 62
     7
370
     0
100
AcDbLine
 10
78.0533856707
 20
102.0048703219
 30
0.0
 11
86.853385623
 21
102.0048703219
 31
0.0
  0
LINE
  5
1AB
330
1F
100
AcDbEntity
  8
0
  6
HIDDEN
 62
     7
370
     0
100
AcDbLine
 10
86.853385623
 20
127.0048706944
 30
0.0
 11
78.0533856707
 21
127.0048706944
 31
0.0
  0
LINE
  5
1AC
330
1F
100
AcDbEntity
  8
0
  6
HIDDEN
 62
     7
370
     0
100
AcDbLine
 10
138.8533866959
 20
104.0048706497
 30
0.0
 11
143.1194960135
 21
111.1048704631
 31
0.0
  0
LINE
  5
1AD
330
1F
100
AcDbEntity
  8
0
  6
HIDDEN
 62
     7
370
     0
100
AcDbLine
 10
143.1194960135
 20
117.9048705532
 30
0.0
 11
138.8533866959
 21
125.0048703666
 31
0.0
  0
LINE
  5
1AE
330
1F
100
AcDbEntity
  8
0
  6
HIDDEN
 62
     7
370
     0
100
AcDbLine
 10
90.1379889803
 20
104.0048706497
 30
0.0
 11
138.8533866959
 21
104.0048706497
 31
0.0
  0
LINE
  5
1AF
330
1F
100
AcDbEntity
  8
0
  6
HIDDEN
 62
     7
370
     0
100
AcDbLine
 10
138.8533866959
 20
125.0048703666
 30
0.0
 11
90.1379889803
 21
125.0048703666
 31
0.0
  0
ARC
  5
1B0
330
1F
100
AcDbEntity
  8
0
  6
HIDDEN
 62
     7
370
     0
100
AcDbCircle
 10
223.4533864813
 20
124.5048705082
 30
0.0
 40
1.0
100
AcDbArc
 50
270.0
 51
0.0
  0
ARC
  5
1B1
330
1F
100
AcDbEntity
  8
0
  6
HIDDEN
 62
     7
370
     0
100
AcDbCircle
 10
223.4533864813
 20
104.5048705082
 30
0.0
 40
1.0
100
AcDbArc
 50
0.0
 51
90.0
  0
LINE
  5
1B2
330
1F
100
AcDbEntity
  8
0
  6
HIDDEN
 62
     7
370
     0
100
AcDbLine
 10
203.3480635839
 20
124.0048702027
 30
0.0
 11
202.7533861803
 21
124.0048702027
 31
0.0
  0
LINE
  5
1B3
330
1F
100
AcDbEntity
  8
0
  6
HIDDEN
 62
     7
370
     0
100
AcDbLine
 10
202.7533861803
 20
105.0048708136
 30
0.0
 11
203.3480635839
 21
105.0048708136
 31
0.0
  0
ARC
  5
1B4
330
1F
100
AcDbEntity
  8
0
  6
HIDDEN
 62
     7
370
     0
100
AcDbCircle
 10
202.7533864813
 20
123.2048705082
 30
0.0
 40
0.7999999999999972
100
AcDbArc
 50
90.0
 51
180.0
  0
ARC
  5
1B5
330
1F
100
AcDbEntity
  8
0
  6
HIDDEN
 62
     7
370
     0
100
AcDbCircle
 10
202.7533864813
 20
105.8048705082
 30
0.0
 40
0.7999999999999972
100
AcDbArc
 50
180.0
 51
270.0
  0
ARC
  5
1B6
330
1F
100
AcDbEntity
  8
0
  6
HIDDEN
 62
     7
370
     0
100
AcDbCircle
 10
203.3480644833
 20
123.2048705082
 30
0.0
 40
0.7999999999999982
100
AcDbArc
 50
75.0
 51
90.0
  0
ARC
  5
1B7
330
1F
100
AcDbEntity
  8
0
  6
HIDDEN
 62
     7
370
     0
100
AcDbCircle
 10
203.3480644833
 20
105.8048705082
 30
0.0
 40
0.7999999999999982
100
AcDbArc
 50
270.0
 51
285.0
  0
LINE
  5
1B8
330
1F
100
AcDbEntity
  8
0
  6
HIDDEN
 62
     7
370
     0
100
AcDbLine
 10
203.555118944
 20
105.0321296941
 30
0.0
 11
205.319412704
 21
105.5048708956
 31
0.0
  0
LINE
  5
1B9
330
1F
100
AcDbEntity
  8
0
  6
HIDDEN
 62
     7
370
     0
100
AcDbLine
 10
205.319412704
 20
123.5048701207
 30
0.0
 11
203.555118944
 21
123.9776113223
 31
0.0
  0
LINE
  5
1BA
330
1F
100
AcDbEntity
  8
0
  6
HIDDEN
 62
     7
370
     0
100
AcDbLine
 10
208.9437364595
 20
123.5048701207
 30
0.0
 11
205.319412704
 21
123.5048701207
 31
0.0
  0
LINE
  5
1BB
330
1F
100
AcDbEntity
  8
0
  6
HIDDEN
 62
     7
370
     0
100
AcDbLine
 10
223.4533882695
 20
123.5048701207
 30
0.0
 11
215.8676243382
 21
123.5048701207
 31
0.0
  0
LINE
  5
1BC
330
1F
100
AcDbEntity
  8
0
  6
HIDDEN
 62
     7
370
     0
100
AcDbLine
 10
205.319412704
 20
105.5048708956
 30
0.0
 11
223.4533882695
 21
105.5048708956
 31
0.0
  0
LINE
  5
1BD
330
1F
100
AcDbEntity
  8
0
  6
HIDDEN
 62
     7
370
     0
100
AcDbLine
 10
207.4033866631
 20
130.5048712681
 30
0.0
 11
208.9033859777
 21
129.0048700909
 31
0.0
  0
LINE
  5
1BE
330
1F
100
AcDbEntity
  8
0
  6
HIDDEN
 62
     7
370
     0
100
AcDbLine
 10
215.9033871251
 20
129.0048700909
 30
0.0
 11
217.4033864396
 21
130.5048712681
 31
0.0
  0
LINE
  5
1BF
330
1F
100
AcDbEntity
  8
0
  6
HIDDEN
 62
     7
370
     0
100
AcDbLine
 10
208.9033859777
 20
129.0048700909
 30
0.0
 11
208.9033859777
 21
123.4893403168
 31
0.0
  0
LINE
  5
1C0
330
1F
100
AcDbEntity
  8
0
  6
HIDDEN
 62
     7
370
     0
100
AcDbLine
 10
215.9033871251
 20
123.491197374
 30
0.0
 11
215.9033871251
 21
129.0048700909
 31
0.0
  0
LINE
  5
1C1
330
1F
100
AcDbEntity
  8
0
  6
HIDDEN
 62
     7
370
     0
100
AcDbLine
 10
143.1194960135
 20
111.1048704631
 30
0.0
 11
201.9533856767
 21
111.1048704631
 31
0.0
  0
LINE
  5
1C2
330
1F
100
AcDbEntity
  8
0
  6
HIDDEN
 62
     7
370
     0
100
AcDbLine
 10
201.9533856767
 20
117.9048705532
 30
0.0
 11
143.1194960135
 21
117.9048705532
 31
0.0
  0
LINE
  5
1C3
330
1F
100
AcDbEntity
  8
0
  6
HIDDEN
 62
     7
370
     0
100
AcDbLine
 10
194.7533867317
 20
115.6656625833
 30
0.0
 11
194.7533867317
 21
127.9631615768
 31
0.0
  0
LINE
  5
1C4
330
1F
100
AcDbEntity
  8
0
  6
HIDDEN
 62
     7
370
     0
100
AcDbLine
 10
190.5533864158
 20
125.8614869009
 30
0.0
 11
190.5533864158
 21
115.6657750405
 31
0.0
  0
LINE
  5
1C5
330
1F
100
AcDbEntity
  8
0
  6
HIDDEN
 62
     7
370
     0
100
AcDbLine
 10
190.5533864158
 20
127.9631615768
 30
0.0
 11
190.5533864158
 21
127.6151114295
 31
0.0
  0
LINE
  5
1C6
330
1F
100
AcDbEntity
  8
0
  6
HIDDEN
 62
     7
370
     0
100
AcDbLine
 10
183.3533590654
 20
126.3032169233
 30
0.0
 11
191.8006862509
 21
124.2802082713
 31
0.0
  0
LINE
  5
1C7
330
1F
100
AcDbEntity
  8
0
  6
HIDDEN
 62
     7
370
     0
100
AcDbLine
 10
191.8006862509
 20
128.5989708419
 30
0.0
 11
184.3315369444
 21
130.3877202015
 31
0.0
  0
LINE
  5
1C8
330
1F
100
AcDbEntity
  8
0
  6
HIDDEN
 62
     7
370
     0
100
AcDbLine
 10
181.6533864005
 20
125.7848865505
 30
0.0
 11
182.8754173587
 21
125.4922277446
 31
0.0
  0
LINE
  5
1C9
330
1F
100
AcDbEntity
  8
0
  6
HIDDEN
 62
     7
370
     0
100
AcDbLine
 10
184.2728142621
 20
131.3272328268
 30
0.0
 11
181.6533864005
 21
131.9545474987
 31
0.0
  0
LINE
  5
1CA
330
1F
100
AcDbEntity
  8
0
  6
HIDDEN
 62
     7
370
     0
100
AcDbLine
 10
195.1533860522
 20
128.0129556696
 30
0.0
 11
195.1533860522
 21
131.1691836606
 31
0.0
  0
LINE
  5
1CB
330
1F
100
AcDbEntity
  8
0
  6
HIDDEN
 62
     7
370
     0
100
AcDbLine
 10
190.1533861639
 20
130.0666150789
 30
0.0
 11
190.1533861639
 21
128.0129556696
 31
0.0
  0
LINE
  5
1CC
330
1F
100
AcDbEntity
  8
0
  6
HIDDEN
 62
     7
370
     0
100
AcDbLine
 10
190.1533861639
 20
99.4542739506
 30
0.0
 11
190.1533861639
 21
99.266162623
 31
0.0
  0
LINE
  5
1CD
330
1F
100
AcDbEntity
  8
0
  6
HIDDEN
 62
     7
370
     0
100
AcDbLine
 10
195.1533860522
 20
99.266162623
 30
0.0
 11
195.1533860522
 21
99.4542739506
 31
0.0
  0
LINE
  5
1CE
330
1F
100
AcDbEntity
  8
0
  6
HIDDEN
 62
     7
370
     0
100
AcDbLine
 10
190.6533862459
 20
100.6360561739
 30
0.0
 11
190.6533862459
 21
99.2182805355
 31
0.0
  0
LINE
  5
1CF
330
1F
100
AcDbEntity
  8
0
  6
HIDDEN
 62
     7
370
     0
100
AcDbLine
 10
194.6533869015
 20
99.2182805355
 30
0.0
 11
194.6533869015
 21
100.6360561739
 31
0.0
  0
LINE
  5
1D0
330
1F
100
AcDbEntity
  8
0
  6
HIDDEN
 62
     7
370
     0
100
AcDbLine
 10
190.1533861639
 20
100.9967853467
 30
0.0
 11
190.1533861639
 21
100.3982494737
 31
0.0
  0
LINE
  5
1D1
330
1F
100
AcDbEntity
  8
0
  6
HIDDEN
 62
     7
370
     0
100
AcDbLine
 10
195.1533860522
 20
100.3982494737
 30
0.0
 11
195.1533860522
 21
100.9967853467
 31
0.0
  0
LINE
  5
1D2
330
1F
100
AcDbEntity
  8
0
  6
HIDDEN
 62
     7
370
     0
100
AcDbLine
 10
195.1533860522
 20
128.0129556696
 30
0.0
 11
195.1533860522
 21
128.6114915426
 31
0.0
  0
LINE
  5
1D3
330
1F
100
AcDbEntity
  8
0
  6
HIDDEN
 62
     7
370
     0
100
AcDbLine
 10
190.1533861639
 20
128.6114915426
 30
0.0
 11
190.1533861639
 21
128.0129556696
 31
0.0
  0
LINE
  5
1D4
330
1F
100
AcDbEntity
  8
0
  6
HIDDEN
 62
     7
370
     0
100
AcDbLine
 10
194.6533869015
 20
128.3736848424
 30
0.0
 11
194.6533869015
 21
129.7914604808
 31
0.0
  0
LINE
  5
1D5
330
1F
100
AcDbEntity
  8
0
  6
HIDDEN
 62
     7
370
     0
100
AcDbLine
 10
190.6533862459
 20
129.7914604808
 30
0.0
 11
190.6533862459
 21
128.3736848424
 31
0.0
  0
LINE
  5
1D6
330
1F
100
AcDbEntity
  8
0
  6
HIDDEN
 62
     7
370
     0
100
AcDbLine
 10
195.1533860522
 20
129.5554670657
 30
0.0
 11
195.1533860522
 21
129.7435783933
 31
0.0
  0
LINE
  5
1D7
330
1F
100
AcDbEntity
  8
0
  6
HIDDEN
 62
     7
370
     0
100
AcDbLine
 10
190.1533861639
 20
129.7435783933
 30
0.0
 11
190.1533861639
 21
129.5554670657
 31
0.0
  0
CIRCLE
  5
1D8
330
1F
100
AcDbEntity
  8
0
  6
HIDDEN
 62
     7
370
     0
100
AcDbCircle
 10
192.6533864813
 20
128.9706124701
 30
0.0
 40
2.000000000000008
  0
ARC
  5
1D9
330
1F
100
AcDbEntity
  8
0
  6
HIDDEN
 62
     7
370
     0
100
AcDbCircle
 10
192.6533864813
 20
100.0391285462
 30
0.0
 40
2.00000000000003
100
AcDbArc
 50
71.1182787691
 51
192.2156859337
  0
ARC
  5
1DA
330
1F
100
AcDbEntity
  8
0
  6
HIDDEN
 62
     7
370
     0
100
AcDbCircle
 10
192.6533864813
 20
100.0391285462
 30
0.0
 40
2.000000000000016
100
AcDbArc
 50
340.3453161116
 51
71.1182787691
  0
LINE
  5
1DB
330
1F
100
AcDbEntity
  8
0
  6
HIDDEN
 62
     7
370
     0
100
AcDbLine
 10
184.3668214972
 20
98.2191604714
 30
0.0
 11
186.8186087342
 21
98.8063258271
 31
0.0
  0
LINE
  5
1DC
330
1F
100
AcDbEntity
  8
0
  6
HIDDEN
 62
     7
370
     0
100
AcDbLine
 10
185.6541113923
 20
103.668829907
 30
0.0
 11
183.2023246209
 21
103.08166362
 31
0.0
  0
LINE
  5
1DD
330
1F
100
AcDbEntity
  8
0
  6
HIDDEN
 62
     7
370
     0
100
AcDbLine
 10
187.5223132777
 20
99.5700457285
 30
0.0
 11
187.7508915024
 21
100.2174359898
 31
0.0
  0
LINE
  5
1DE
330
1F
100
AcDbEntity
  8
0
  6
HIDDEN
 62
     7
370
     0
100
AcDbLine
 10
187.1244746255
 20
102.8331178392
 30
0.0
 11
186.6274324241
 21
103.3067335527
 31
0.0
  0
LINE
  5
1DF
330
1F
100
AcDbEntity
  8
0
  6
HIDDEN
 62
     7
370
     0
100
AcDbLine
 10
186.6274324241
 20
125.7030074637
 30
0.0
 11
187.1244746255
 21
126.1766231771
 31
0.0
  0
LINE
  5
1E0
330
1F
100
AcDbEntity
  8
0
  6
HIDDEN
 62
     7
370
     0
100
AcDbLine
 10
187.7508915024
 20
128.7923050265
 30
0.0
 11
187.5223132777
 21
129.4396952878
 31
0.0
  0
LINE
  5
1E1
330
1F
100
AcDbEntity
  8
0
  6
HIDDEN
 62
     7
370
     0
100
AcDbLine
 10
183.2023246209
 20
125.9280773963
 30
0.0
 11
185.6541113923
 21
125.3409111093
 31
0.0
  0
LINE
  5
1E2
330
1F
100
AcDbEntity
  8
0
  6
HIDDEN
 62
     7
370
     0
100
AcDbLine
 10
186.8186087342
 20
130.2034151892
 30
0.0
 11
184.3668214972
 21
130.7905805449
 31
0.0
  0
DIMENSION
  5
1E3
330
1F
100
AcDbEntity
  8
VERMASSUNG
100
AcDbDimension
  2
_D
 10
60.8533864813
 20
163.2298705082
 30
0.0
 11
60.8533864813
 21
114.5048705082
 31
0.0
 70
   160
  1
ISO 50 %%c<>
 71
     2
 42
-1.0
  3
SLDDIMSTYLE0
100
AcDbAlignedDimension
 13
196.9033864813
 23
65.7798705082
 33
0.0
 14
196.9033864813
 24
163.2298705082
 34
0.0
 50
90.0
100
AcDbRotatedDimension
  0
DIMENSION
  5
1F0
330
1F
100
AcDbEntity
  8
VERMASSUNG
100
AcDbDimension
  2
_D_1
 10
233.9406045264
 20
123.5048705082
 30
0.0
 11
233.9406045264
 21
114.5048705082
 31
0.0
 70
   160
  1
%%c<>
 71
     2
 42
-1.0
  3
SLDDIMSTYLE0
100
AcDbAlignedDimension
 13
223.4533864813
 23
105.5048705082
 33
0.0
 14
223.4533864813
 24
123.5048705082
 34
0.0
 50
90.0
100
AcDbRotatedDimension
  0
DIMENSION
  5
1FB
330
1F
100
AcDbEntity
  8
VERMASSUNG
100
AcDbDimension
  2
_D_2
 10
240.1406045264
 20
98.5048705082
 30
0.0
 11
240.1406045264
 21
114.5048705082
 31
0.0
 70
   160
  1
WH3%%c<>
 71
     2
 42
-1.0
  3
SLDDIMSTYLE0
100
AcDbAlignedDimension
 13
224.1533864813
 23
130.5048705082
 33
0.0
 14
224.1533864813
 24
98.5048705082
 34
0.0
 50
90.0
100
AcDbRotatedDimension
  0
DIMENSION
  5
207
330
1F
100
AcDbEntity
  8
VERMASSUNG
100
AcDbDimension
  2
_D_3
 10
197.5033864813
 20
167.633052817
 30
0.0
 11
210.9783864813
 21
167.633052817
 31
0.0
 70
   160
  1
<>
 71
     2
 42
-1.0
  3
SLDDIMSTYLE0
100
AcDbAlignedDimension
 13
224.4533864813
 23
130.2048705082
 33
0.0
 14
197.5033864813
 24
160.7998574614
 34
0.0
100
AcDbRotatedDimension
  0
DIMENSION
  5
211
330
1F
100
AcDbEntity
  8
VERMASSUNG
100
AcDbDimension
  2
_D_4
 10
178.4533864813
 20
173.633052817
 30
0.0
 11
201.4533864813
 21
173.633052817
 31
0.0
 70
   160
  1
<>
 71
     2
 42
-1.0
  3
SLDDIMSTYLE0
100
AcDbAlignedDimension
 13
224.4533864813
 23
130.2048705082
 33
0.0
 14
178.4533864813
 24
149.4298705082
 34
0.0
100
AcDbRotatedDimension
  0
DIMENSION
  5
21B
330
1F
100
AcDbEntity
  8
VERMASSUNG
100
AcDbDimension
  2
_D_5
 10
76.8533864813
 20
179.633052817
 30
0.0
 11
150.6533864813
 21
179.633052817
 31
0.0
 70
   160
  1
<>
 71
     2
 42
-1.0
  3
SLDDIMSTYLE0
100
AcDbAlignedDimension
 13
224.4533864813
 23
130.2048705082
 33
0.0
 14
76.8533864813
 24
132.8837150356
 34
0.0
100
AcDbRotatedDimension
  0
LINE
  5
225
330
1F
100
AcDbEntity
  8
VERMASSUNG
  6
CENTERX2
370
     0
100
AcDbLine
 10
73.1180481355
 20
114.5048705082
 30
0.0
 11
231.8699278347
 21
114.5048705082
 31
0.0
  0
LINE
  5
226
330
1F
100
AcDbEntity
  8
0
  6
Continuous
 62
     7
370
    15
100
AcDbLine
 10
270.5683226541
 20
43.7554312644
 30
0.0
 11
270.3207958592
 21
43.8983722667
 31
0.0
  0
LINE
  5
227
330
1F
100
AcDbEntity
  8
0
  6
Continuous
 62
     7
370
    15
100
AcDbLine
 10
267.9869635796
 20
43.8983726849
 30
0.0
 11
267.7394364094
 21
43.7554310858
 31
0.0
  0
LINE
  5
228
330
1F
100
AcDbEntity
  8
0
  6
Continuous
 62
     7
370
    15
100
AcDbLine
 10
267.1538795218
 20
42.939155793
 30
0.0
 11
267.1538795218
 21
42.816674499
 31
0.0
  0
LINE
  5
229
330
1F
100
AcDbEntity
  8
0
  6
Continuous
 62
     7
370
    15
100
AcDbLine
 10
271.1538798511
 20
42.8166743089
 30
0.0
 11
271.1538798511
 21
42.9391556029
 31
0.0
  0
LINE
  5
22A
330
1F
100
AcDbEntity
  8
0
  6
Continuous
 62
     7
370
    15
100
AcDbLine
 10
271.9400362907
 20
36.623319092
 30
0.0
 11
272.8663239222
 21
36.8120431045
 31
0.0
  0
SPLINE
  5
22B
330
1F
100
AcDbEntity
  8
0
  6
Continuous
 62
     7
370
    15
100
AcDbSpline
210
0.0
220
0.0
230
1.0
 70
     8
 71
     3
 72
    30
 73
    26
 74
     0
 42
0.000000001
 43
0.00000001
 40
0.0
 40
0.0
 40
0.0
 40
0.0
 40
0.0013407528638974
 40
0.0484034340057714
 40
0.0955395728593443
 40
0.1427237226186022
 40
0.1899346243955055
 40
0.237156605007686
 40
0.2843772489715716
 40
0.3315909117569837
 40
0.3787951350025457
 40
0.4259892202587549
 40
0.4731735797109539
 40
0.5203493584533438
 40
0.5675180270316119
 40
0.6146813577984238
 40
0.6618412049927731
 40
0.7089994653357828
 40
0.7561581674135925
 40
0.8033186478695431
 40
0.8504829214787766
 40
0.8976528886921569
 40
0.9448305494009435
 40
0.99201784333452
 40
1.0
 40
1.0
 40
1.0
 40
1.0
 10
264.105551409895
 20
64.93710221994276
 30
0.0
 10
264.0938022792108
 20
64.93567747824292
 30
0.0
 10
263.6696388953272
 20
64.88424190596093
 30
0.0
 10
262.8030644149782
 20
64.66349940485779
 30
0.0
 10
261.5117802413282
 20
64.26645648823414
 30
0.0
 10
260.1990731525631
 20
63.72846833705961
 30
0.0
 10
258.8777328942257
 20
63.07227004573473
 30
0.0
 10
257.5543002928522
 20
62.29668403031399
 30
0.0
 10
256.2369087527486
 20
61.40784723569327
 30
0.0
 10
254.9331279861019
 20
60.41075935158781
 30
0.0
 10
253.6504957427312
 20
59.31146775980456
 30
0.0
 10
252.3963727482262
 20
58.11643735378788
 30
0.0
 10
251.1779523505377
 20
56.83270269121052
 30
0.0
 10
250.0022277764487
 20
55.46776270060372
 30
0.0
 10
248.8759506563532
 20
54.02957708307955
 30
0.0
 10
247.8055965808081
 20
52.52651112105412
 30
0.0
 10
246.7973372481001
 20
50.96728809516434
 30
0.0
 10
245.8569851066792
 20
49.36095066175378
 30
0.0
 10
244.9900016961127
 20
47.7168101081316
 30
0.0
 10
244.201369635092
 20
46.04437278701748
 30
0.0
 10
243.4958671002018
 20
44.35336449010934
 30
0.0
 10
242.8769225762479
 20
42.65336248759729
 30
0.0
 10
242.3507900971984
 20
40.95486980698988
 30
0.0
 10
242.0327173927097
 20
39.73318743798634
 30
0.0
 10
241.8898105617266
 20
39.08114676577563
 30
0.0
 10
241.8691341783099
 20
38.98680667825734
 30
0.0
  0
LINE
  5
22C
330
1F
100
AcDbEntity
  8
0
  6
Continuous
 62
     7
370
    15
100
AcDbLine
 10
273.3090509523
 20
27.7626246077
 30
0.0
 11
273.4151002092
 21
27.8238646851
 31
0.0
  0
LINE
  5
22D
330
1F
100
AcDbEntity
  8
0
  6
Continuous
 62
     7
370
    15
100
AcDbLine
 10
278.9649860726
 20
37.4375907288
 30
0.0
 11
278.9649860726
 21
37.5600524978
 31
0.0
  0
LINE
  5
22E
330
1F
100
AcDbEntity
  8
0
  6
Continuous
 62
     7
370
    15
100
AcDbLine
 10
277.3078065627
 20
41.2228107802
 30
0.0
 11
268.9462695791
 21
46.049823335
 31
0.0
  0
LINE
  5
22F
330
1F
100
AcDbEntity
  8
0
  6
Continuous
 62
     7
370
    15
100
AcDbLine
 10
260.9469195624
 20
32.1930415656
 30
0.0
 11
269.3084565461
 21
27.3660290107
 31
0.0
  0
LINE
  5
230
330
1F
100
AcDbEntity
  8
0
  6
Continuous
 62
     7
370
    15
100
AcDbLine
 10
257.1357588464
 20
61.9947344898
 30
0.0
 11
226.3718021066
 21
73.0808447937
 31
0.0
  0
LINE
  5
231
330
1F
100
AcDbEntity
  8
0
  6
Continuous
 62
     7
370
    15
100
AcDbLine
 10
216.2479427262
 20
55.5439063933
 30
0.0
 11
245.7154538447
 21
30.6617839551
 31
0.0
  0
SPLINE
  5
232
330
1F
100
AcDbEntity
  8
0
  6
Continuous
 62
     7
370
    15
100
AcDbSpline
210
0.0
220
0.0
230
1.0
 70
     8
 71
     3
 72
    21
 73
    17
 74
     0
 42
0.000000001
 43
0.00000001
 40
0.0
 40
0.0
 40
0.0
 40
0.0
 40
0.0520009197204565
 40
0.1249952419085613
 40
0.2028604728406418
 40
0.2774367349352548
 40
0.3510202885411615
 40
0.4245254693480707
 40
0.498260966728475
 40
0.5722861430656232
 40
0.6465240917180558
 40
0.720854717293167
 40
0.7951304691140866
 40
0.8691859872876183
 40
0.9428896106023026
 40
1.0
 40
1.0
 40
1.0
 40
1.0
 10
270.7477412943416
 20
30.59763358443496
 30
0.0
 10
270.6782895278035
 20
30.6433100960707
 30
0.0
 10
270.5113474735847
 20
30.75310328150166
 30
0.0
 10
270.3003979150735
 20
31.05829782012644
 30
0.0
 10
270.119530146177
 20
31.49986397926567
 30
0.0
 10
270.0235327163056
 20
32.05513434771928
 30
0.0
 10
270.0193123646758
 20
32.68069155397274
 30
0.0
 10
270.1090189164445
 20
33.36189901409672
 30
0.0
 10
270.291907517266
 20
34.07823779919276
 30
0.0
 10
270.564155410212
 20
34.80709348186785
 30
0.0
 10
270.9182402687265
 20
35.52464898172128
 30
0.0
 10
271.3431221307889
 20
36.20690862314087
 30
0.0
 10
271.8247151814796
 20
36.83187504089518
 30
0.0
 10
272.345828846326
 20
37.37661601132437
 30
0.0
 10
272.8491207825189
 20
37.7998808676743
 30
0.0
 10
273.1703733300636
 20
37.99972353114163
 30
0.0
 10
273.3106248039298
 20
38.08697024188955
 30
0.0
  0
SPLINE
  5
233
330
1F
100
AcDbEntity
  8
0
  6
Continuous
 62
     7
370
    15
100
AcDbSpline
210
0.0
220
0.0
230
1.0
 70
     8
 71
     3
 72
    13
 73
     9
 74
     0
 42
0.000000001
 43
0.00000001
 40
0.0
 40
0.0
 40
0.0
 40
0.0
 40
0.1129843923742791
 40
0.3287504085900398
 40
0.5444552987202487
 40
0.7628144962125596
 40
0.99051311065834
 40
0.9999999999999999
 40
0.9999999999999999
 40
0.9999999999999999
 40
0.9999999999999999
 10
273.3106248039298
 20
38.08697024188955
 30
0.0
 10
273.4031937000149
 20
38.13756626565208
 30
0.0
 10
273.6725411892671
 20
38.28478539154571
 30
0.0
 10
274.1016670746704
 20
38.44109905245023
 30
0.0
 10
274.5687562408065
 20
38.51994222123009
 30
0.0
 10
274.9710224836674
 20
38.47648403118985
 30
0.0
 10
275.2159505289112
 20
38.41302353466119
 30
0.0
 10
275.3160695573775
 20
38.32930218011847
 30
0.0
 10
275.3200740944546
 20
38.32595351330114
 30
0.0
  0
SPLINE
  5
234
330
1F
100
AcDbEntity
  8
0
  6
Continuous
 62
     7
370
    15
100
AcDbSpline
210
0.0
220
0.0
230
1.0
 70
     8
 71
     3
 72
    19
 73
    15
 74
     0
 42
0.000000001
 43
0.00000001
 40
0.0
 40
0.0
 40
0.0
 40
0.0
 40
0.0666978283110961
 40
0.1567729624249615
 40
0.2469540044207172
 40
0.3371974148120849
 40
0.4274699463992625
 40
0.5177461815675279
 40
0.6080114230879764
 40
0.6982596235746351
 40
0.7884885425404954
 40
0.8786984843908349
 40
0.9688912235376448
 40
0.9999999999999999
 40
0.9999999999999999
 40
0.9999999999999999
 40
0.9999999999999999
 10
258.0453010081762
 20
17.7726433406929
 30
0.0
 10
258.3553404473817
 20
17.82664936001881
 30
0.0
 10
259.0840868336375
 20
17.95359027927948
 30
0.0
 10
260.2636695298051
 20
18.30414079936523
 30
0.0
 10
261.5702685254391
 20
18.7977198336335
 30
0.0
 10
262.8899472963694
 20
19.41909525206244
 30
0.0
 10
264.2135413639567
 20
20.15886779921983
 30
0.0
 10
265.5335695243505
 20
21.01403170745711
 30
0.0
 10
266.842318119578
 20
21.97887824792744
 30
0.0
 10
268.1319397012792
 20
23.04818910830424
 30
0.0
 10
269.3961843693411
 20
24.21391431891185
 30
0.0
 10
270.6234471725009
 20
25.47548830563896
 30
0.0
 10
271.5610658862868
 20
26.51248687416608
 30
0.0
 10
272.0701330626283
 20
27.15089512520422
 30
0.0
 10
272.2006875483955
 20
27.31462019882373
 30
0.0
  0
SPLINE
  5
235
330
1F
100
AcDbEntity
  8
0
  6
Continuous
 62
     7
370
    15
100
AcDbSpline
210
0.0
220
0.0
230
1.0
 70
     8
 71
     3
 72
    11
 73
     7
 74
     0
 42
0.000000001
 43
0.00000001
 40
0.0
 40
0.0
 40
0.0
 40
0.0
 40
0.1561327585475782
 40
0.4919445454065061
 40
0.8278207302003775
 40
1.0
 40
1.0
 40
1.0
 40
1.0
 10
278.7982761889499
 20
38.74557664699123
 30
0.0
 10
278.9001494468684
 20
39.00848190772049
 30
0.0
 10
279.2211326538648
 20
39.8368462444399
 30
0.0
 10
279.6634352960404
 20
41.23428614055408
 30
0.0
 10
280.0623467878753
 20
42.65332865588653
 30
0.0
 10
280.246359477929
 20
43.49689611518495
 30
0.0
 10
280.3087211164487
 20
43.78277992541771
 30
0.0
  0
LINE
  5
236
330
1F
100
AcDbEntity
  8
0
  6
Continuous
 62
     7
370
    15
100
AcDbLine
 10
250.0380198108
 20
19.5973397563
 30
0.0
 11
251.493541797
 21
18.757084799
 31
0.0
  0
LINE
  5
237
330
1F
100
AcDbEntity
  8
0
  6
Continuous
 62
     7
370
    15
100
AcDbLine
 10
246.3139848624
 20
21.7471793714
 30
0.0
 11
247.7518295385
 21
20.917129308
 31
0.0
  0
SPLINE
  5
238
330
1F
100
AcDbEntity
  8
0
  6
Continuous
 62
     7
370
    15
100
AcDbSpline
210
0.0
220
0.0
230
1.0
 70
     8
 71
     3
 72
     9
 73
     5
 74
     0
 42
0.000000001
 43
0.00000001
 40
0.0
 40
0.0
 40
0.0
 40
0.0
 40
0.5021888757088718
 40
1.0
 40
1.0
 40
1.0
 40
1.0
 10
241.881832398149
 20
27.81240463537916
 30
0.0
 10
241.9200513199497
 20
27.67774872595438
 30
0.0
 10
241.9961559961968
 20
27.4096107485157
 30
0.0
 10
242.0959067822233
 20
27.16317782668847
 30
0.0
 10
242.145563833164
 20
27.0405007768113
 30
0.0
  0
SPLINE
  5
239
330
1F
100
AcDbEntity
  8
0
  6
Continuous
 62
     7
370
    15
100
AcDbSpline
210
0.0
220
0.0
230
1.0
 70
     8
 71
     3
 72
     9
 73
     5
 74
     0
 42
0.000000001
 43
0.00000001
 40
0.0
 40
0.0
 40
0.0
 40
0.0
 40
0.4730534090742253
 40
1.0
 40
1.0
 40
1.0
 40
1.0
 10
280.3011583913189
 20
54.84431093794322
 30
0.0
 10
280.2490216871755
 20
55.02306516251866
 30
0.0
 10
280.1388085418026
 20
55.40093840293197
 30
0.0
 10
279.99513484602
 20
55.74788475664445
 30
0.0
 10
279.9194264818217
 20
55.93070695496736
 30
0.0
  0
SPLINE
  5
23A
330
1F
100
AcDbEntity
  8
0
  6
Continuous
 62
     7
370
    15
100
AcDbSpline
210
0.0
220
0.0
230
1.0
 70
     8
 71
     3
 72
    27
 73
    23
 74
     0
 42
0.000000001
 43
0.00000001
 40
0.0
 40
0.0
 40
0.0
 40
0.0
 40
0.0213577407876003
 40
0.0715478312616778
 40
0.1224903478605243
 40
0.1745605060799
 40
0.2277680798581999
 40
0.2818285998309278
 40
0.3363560486149114
 40
0.3910214839390844
 40
0.4456214611580622
 40
0.5001071013174755
 40
0.5544821087873828
 40
0.6087758132917942
 40
0.6630287403302776
 40
0.7172862646279169
 40
0.7715849304883001
 40
0.8259687208291655
 40
0.8804861815905362
 40
0.935181825778041
 40
0.9871352530318748
 40
1.0
 40
1.0
 40
1.0
 40
1.0
 10
226.2764771305507
 20
73.09594633335422
 30
0.0
 10
226.1751107172978
 20
73.13416340550954
 30
0.0
 10
225.8355360823612
 20
73.26218952292882
 30
0.0
 10
225.2033292423797
 20
73.34313982096846
 30
0.0
 10
224.3954826953184
 20
73.34244779361997
 30
0.0
 10
223.550974939709
 20
73.2037225911592
 30
0.0
 10
222.6821398285383
 20
72.93646531877005
 30
0.0
 10
221.7995561245681
 20
72.53960081854436
 30
0.0
 10
220.917585505629
 20
72.019431537324
 30
0.0
 10
220.0504772001298
 20
71.3847267829601
 30
0.0
 10
219.2112534293056
 20
70.64654432588196
 30
0.0
 10
218.4113094568942
 20
69.81670326630967
 30
0.0
 10
217.6607651055895
 20
68.90738706762788
 30
0.0
 10
216.9690335556111
 20
67.93129086302885
 30
0.0
 10
216.3448849952637
 20
66.90161347484357
 30
0.0
 10
215.7964597090419
 20
65.83205820200716
 30
0.0
 10
215.3311801920738
 20
64.73662180532521
 30
0.0
 10
214.9557239509572
 20
63.62948800790801
 30
0.0
 10
214.6756379210185
 20
62.52448057524249
 30
0.0
 10
214.5002740695158
 20
61.45550366319656
 30
0.0
 10
214.44271454457
 20
60.68529258927253
 30
0.0
 10
214.43955030113
 20
60.27977033027024
 30
0.0
 10
214.4389222798737
 20
60.19928455117157
 30
0.0
  0
SPLINE
  5
23B
330
1F
100
AcDbEntity
  8
0
  6
Continuous
 62
     7
370
    15
100
AcDbSpline
210
0.0
220
0.0
230
1.0
 70
     8
 71
     3
 72
    14
 73
    10
 74
     0
 42
0.000000001
 43
0.00000001
 40
0.0
 40
0.0
 40
0.0
 40
0.0
 40
0.0934067574517036
 40
0.2694937131269309
 40
0.4455968874352452
 40
0.6202205234854967
 40
0.7917995489089878
 40
0.9591705616803748
 40
1.0
 40
1.0
 40
1.0
 40
1.0
 10
214.4389222798737
 20
60.19928455117157
 30
0.0
 10
214.4420387537502
 20
60.01830060217196
 30
0.0
 10
214.4510302886216
 20
59.49613242330655
 30
0.0
 10
214.551261167487
 20
58.67386183424314
 30
0.0
 10
214.7783796872897
 20
57.76741725049599
 30
0.0
 10
215.1176442689435
 20
56.94504749544885
 30
0.0
 10
215.5707841039705
 20
56.23661909055038
 30
0.0
 10
215.965942727422
 20
55.76265342432456
 30
0.0
 10
216.2327589532301
 20
55.56871798548359
 30
0.0
 10
216.2850833193744
 20
55.53068600718262
 30
0.0
  0
LINE
  5
23C
330
1F
100
AcDbEntity
  8
0
  6
Continuous
 62
     7
370
    15
100
AcDbLine
 10
270.788690415
 20
43.6042638353
 30
0.0
 11
270.5683226541
 21
43.7554312644
 31
0.0
  0
LWPOLYLINE
  5
23D
330
1F
100
AcDbEntity
  8
0
  6
Continuous
 62
     7
370
    15
100
AcDbPolyline
 90
       18
 70
   128
 43
0.0
 10
267.7394364094
 20
43.7554310858
 10
267.4267441871
 20
43.5213305147
 10
267.2125878592
 20
43.2168456307
 10
267.1557031139
 20
42.8898641839
 10
267.2606996392
 20
42.5668755638
 10
267.5190696165
 20
42.2740471804
 10
267.9098823608
 20
42.0351019051
 10
268.4014754639
 20
41.8693982141
 10
268.95402534
 20
41.7903590901
 10
269.5227656152
 20
41.804388966
 10
270.0616205232
 20
41.9103511108
 10
270.5269370599
 20
42.0996601161
 10
270.8810145273
 20
42.3569812614
 10
271.0951715137
 20
42.6614657651
 10
271.1520556005
 20
42.9884475921
 10
271.0470603922
 20
43.3114354519
 10
270.788690415
 20
43.6042638353
 10
270.788690415
 20
43.6042638353
  0
LWPOLYLINE
  5
23E
330
1F
100
AcDbEntity
  8
0
  6
Continuous
 62
     7
370
    15
100
AcDbPolyline
 90
       21
 70
   128
 43
0.0
 10
270.5025983482
 20
43.7736595607
 10
270.1428656119
 20
43.9874037699
 10
269.6863241987
 20
44.126513073
 10
269.1776626098
 20
44.1773711237
 10
268.6666738068
 20
44.1349986973
 10
268.2033755007
 20
44.0035441695
 10
267.8331199434
 20
43.7958745367
 10
267.5921489591
 20
43.5323186938
 10
267.5040514266
 20
43.2386748465
 10
267.5774499164
 20
42.9436873846
 10
267.8051603662
 20
42.6762313337
 10
268.1648931025
 20
42.4624871244
 10
268.6214358327
 20
42.3233770609
 10
269.1300961046
 20
42.2725197707
 10
269.6410862246
 20
42.3148914367
 10
270.1043832137
 20
42.4463467248
 10
270.4746394295
 20
42.6540159775
 10
270.7156104139
 20
42.9175718204
 10
270.8037086049
 20
43.2112152875
 10
270.730308798
 20
43.5062035098
 10
270.5025983482
 20
43.7736595607
  0
LWPOLYLINE
  5
23F
330
1F
100
AcDbEntity
  8
0
  6
Continuous
 62
     7
370
    15
100
AcDbPolyline
 90
       18
 70
   128
 43
0.0
 10
270.1347656791
 20
43.6240103391
 10
269.8188117469
 20
43.801616429
 10
269.4130545697
 20
43.9013401086
 10
268.9722938586
 20
43.9097132502
 10
268.5560572215
 20
43.8256047302
 10
268.2205613823
 20
43.6603729188
 10
268.0111138226
 20
43.4363350757
 10
267.9560041017
 20
43.1837472698
 10
268.0626731654
 20
42.9367240546
 10
268.3167157644
 20
42.7286266953
 10
268.6838227174
 20
42.5875594234
 10
269.1144134022
 20
42.5325747501
 10
269.5503339758
 20
42.5710986715
 10
269.9327115471
 20
42.6979279959
 10
270.2099034054
 20
42.8959340013
 10
270.3444723864
 20
43.1383754237
 10
270.3182461395
 20
43.3925079777
 10
270.1347656791
 20
43.6240103391
  0
SPLINE
  5
240
330
1F
100
AcDbEntity
  8
0
  6
Continuous
 62
     7
370
    15
100
AcDbSpline
210
0.0
220
0.0
230
1.0
 70
     8
 71
     3
 72
    10
 73
     6
 74
     0
 42
0.000000001
 43
0.00000001
 40
0.0
 40
0.0
 40
0.0
 40
0.0
 40
0.4391223638048537
 40
0.7513708220290946
 40
1.0
 40
1.0
 40
1.0
 40
1.0
 10
269.6386952964806
 20
43.79294906011395
 30
0.0
 10
269.4740620562513
 20
43.7284179579088
 30
0.0
 10
269.1923624134168
 20
43.61800047224442
 30
0.0
 10
268.7828654855835
 20
43.63912960638139
 30
0.0
 10
268.5790482646502
 20
43.70405426529633
 30
0.0
 10
268.4886989534515
 20
43.73283445465379
 30
0.0
  0
SPLINE
  5
241
330
1F
100
AcDbEntity
  8
0
  6
Continuous
 62
     7
370
    15
100
AcDbSpline
210
0.0
220
0.0
230
1.0
 70
     8
 71
     3
 72
    10
 73
     6
 74
     0
 42
0.000000001
 43
0.00000001
 40
0.0
 40
0.0
 40
0.0
 40
0.0
 40
0.4391222445458681
 40
0.7513714729831769
 40
1.0
 40
1.0
 40
1.0
 40
1.0
 10
268.4886989534515
 20
43.73283445465379
 30
0.0
 10
268.419292962682
 20
43.59029857555093
 30
0.0
 10
268.300534047218
 20
43.34640887339015
 30
0.0
 10
268.1278984603481
 20
43.1735156140443
 30
0.0
 10
268.0419730722325
 20
43.14186969310241
 30
0.0
 10
268.0038836624229
 20
43.12784154056229
 30
0.0
  0
SPLINE
  5
242
330
1F
100
AcDbEntity
  8
0
  6
Continuous
 62
     7
370
    15
100
AcDbSpline
210
0.0
220
0.0
230
1.0
 70
     8
 71
     3
 72
     9
 73
     5
 74
     0
 42
0.000000001
 43
0.00000001
 40
0.0
 40
0.0
 40
0.0
 40
0.0
 40
0.3733490879006684
 40
1.0
 40
1.0
 40
1.0
 40
1.0
 10
268.0038836624229
 20
43.12784154056229
 30
0.0
 10
268.0425914187797
 20
43.06978599348759
 30
0.0
 10
268.1462685338742
 20
42.91428662585515
 30
0.0
 10
268.2613658016472
 20
42.80453831033365
 30
0.0
 10
268.3334916094772
 20
42.73576442831074
 30
0.0
  0
SPLINE
  5
243
330
1F
100
AcDbEntity
  8
0
  6
Continuous
 62
     7
370
    15
100
AcDbSpline
210
0.0
220
0.0
230
1.0
 70
     8
 71
     3
 72
    10
 73
     6
 74
     0
 42
0.000000001
 43
0.00000001
 40
0.0
 40
0.0
 40
0.0
 40
0.0
 40
0.3141539088313436
 40
0.6959749218981928
 40
1.0
 40
1.0
 40
1.0
 40
1.0
 10
269.9070108410852
 20
42.70130528364594
 30
0.0
 10
269.9477721230486
 20
42.721255340871
 30
0.0
 10
270.0380744533189
 20
42.76545259301002
 30
0.0
 10
270.1799858527826
 20
42.98585479809496
 30
0.0
 10
270.2658242180564
 20
43.16753532570274
 30
0.0
 10
270.3038750519716
 20
43.24807152370223
 30
0.0
  0
SPLINE
  5
244
330
1F
100
AcDbEntity
  8
0
  6
Continuous
 62
     7
370
    15
100
AcDbSpline
210
0.0
220
0.0
230
1.0
 70
     8
 71
     3
 72
    11
 73
     7
 74
     0
 42
0.000000001
 43
0.00000001
 40
0.0
 40
0.0
 40
0.0
 40
0.0
 40
0.1285558221729653
 40
0.4801546418041713
 40
0.8150693925794165
 40
1.0
 40
1.0
 40
1.0
 40
1.0
 10
270.3038750519716
 20
43.24807152370223
 30
0.0
 10
270.2770865096108
 20
43.25201834072341
 30
0.0
 10
270.1770315860429
 20
43.26675966072775
 30
0.0
 10
269.9894046552537
 20
43.35565816117398
 30
0.0
 10
269.7862456289607
 20
43.57498802308525
 30
0.0
 10
269.677411958146
 20
43.73575688992342
 30
0.0
 10
269.6386952964806
 20
43.79294906011395
 30
0.0
  0
LINE
  5
245
330
1F
100
AcDbEntity
  8
0
  6
Continuous
 62
     7
370
    15
100
AcDbLine
 10
268.4886989535
 20
42.6483695045
 30
0.0
 11
268.4886989535
 21
43.7328344547
 31
0.0
  0
LINE
  5
246
330
1F
100
AcDbEntity
  8
0
  6
Continuous
 62
     7
370
    15
100
AcDbLine
 10
269.6386952965
 20
42.591253432
 30
0.0
 11
269.6386952965
 21
43.7929490601
 31
0.0
  0
LWPOLYLINE
  5
247
330
1F
100
AcDbEntity
  8
0
  6
Continuous
 62
     7
370
    15
100
AcDbPolyline
 90
        3
 70
   128
 43
0.0
 10
271.9400362907
 20
36.623319092
 10
271.7741357582
 20
36.6134301501
 10
271.6234647261
 20
36.6394496988
  0
SPLINE
  5
248
330
1F
100
AcDbEntity
  8
0
  6
Continuous
 62
     7
370
    15
100
AcDbSpline
210
0.0
220
0.0
230
1.0
 70
     8
 71
     3
 72
    12
 73
     8
 74
     0
 42
0.000000001
 43
0.00000001
 40
0.0
 40
0.0
 40
0.0
 40
0.0
 40
0.2499999999999992
 40
0.2499999999999992
 40
0.4999999999999984
 40
0.4999999999999984
 40
1.0
 40
1.0
 40
1.0
 40
1.0
 10
247.1525140274672
 20
35.95371116683617
 30
0.0
 10
247.1864455197568
 20
35.93412293328469
 30
0.0
 10
247.224877228784
 20
35.9069357443483
 30
0.0
 10
247.299054081449
 20
35.84771181681246
 30
0.0
 10
247.3342703617044
 20
35.8162791377957
 30
0.0
 10
247.4293692789624
 20
35.72428642099371
 30
0.0
 10
247.4778984357243
 20
35.66742975546907
 30
0.0
 10
247.5112400318793
 20
35.61920094946673
 30
0.0
  0
ARC
  5
249
330
1F
100
AcDbEntity
  8
0
  6
Continuous
 62
     7
370
    15
100
AcDbCircle
 10
271.2957420255
 20
51.8750584243
 30
0.0
 40
10.22576506618316
100
AcDbArc
 50
73.3400810776
 51
100.6396977735
  0
SPLINE
  5
24A
330
1F
100
AcDbEntity
  8
0
  6
Continuous
 62
     7
370
    15
100
AcDbSpline
210
0.0
220
0.0
230
1.0
 70
     8
 71
     3
 72
    12
 73
     8
 74
     0
 42
0.000000001
 43
0.00000001
 40
0.0
 40
0.0
 40
0.0
 40
0.0
 40
0.5
 40
0.5
 40
0.75
 40
0.75
 40
1.0
 40
1.0
 40
1.0
 40
1.0
 10
274.4395028510777
 20
61.23801688767804
 30
0.0
 10
274.4395028510777
 20
61.31069988487084
 30
0.0
 10
274.4224860830075
 20
61.39428273161113
 30
0.0
 10
274.368075257126
 20
61.51572690948682
 30
0.0
 10
274.3449300382042
 20
61.55544178716816
 30
0.0
 10
274.2906492263469
 20
61.62417155903396
 30
0.0
 10
274.2594132577894
 20
61.65308115493963
 30
0.0
 10
274.2273708167217
 20
61.67157886243323
 30
0.0
  0
ARC
  5
24B
330
1F
100
AcDbEntity
  8
0
  6
Continuous
 62
     7
370
    15
100
AcDbCircle
 10
285.0470105325
 20
27.4248488503
 30
0.0
 40
38.42128894685696
100
AcDbArc
 50
126.6201618694
 51
166.7631334776
  0
LWPOLYLINE
  5
24C
330
1F
100
AcDbEntity
  8
0
  6
Continuous
 62
     7
370
    15
100
AcDbPolyline
 90
       12
 70
   128
 43
0.0
 10
257.1634750091
 20
56.7957056899
 10
258.6138320308
 20
58.0683090006
 10
260.0914639904
 20
59.2094580377
 10
261.5851897488
 20
60.2105170596
 10
263.0837062538
 20
61.0639115143
 10
264.5756739864
 20
61.7631849715
 10
266.0498031478
 20
62.3030427932
 10
267.49493857
 20
62.6794026731
 10
268.9001451217
 20
62.8894150423
 10
270.2547896139
 20
62.9314905804
 10
271.5486208135
 20
62.8053129462
 10
272.7718487978
 20
62.5118343974
  0
LINE
  5
24D
330
1F
100
AcDbEntity
  8
0
  6
Continuous
 62
     7
370
    15
100
AcDbLine
 10
274.2273707841
 20
61.67157944
 30
0.0
 11
272.7718487978
 21
62.5118343974
 31
0.0
  0
LINE
  5
24E
330
1F
100
AcDbEntity
  8
0
  6
Continuous
 62
     7
370
    15
100
AcDbLine
 10
245.6969918787
 20
36.7939663093
 30
0.0
 11
247.152513865
 21
35.953711352
 31
0.0
  0
ARC
  5
24F
330
1F
100
AcDbEntity
  8
0
  6
Continuous
 62
     7
370
    15
100
AcDbCircle
 10
285.0297157504
 20
27.5628654444
 30
0.0
 40
40.40144044883896
100
AcDbArc
 50
136.9528122493
 51
166.7921386576
  0
SPLINE
  5
250
330
1F
100
AcDbEntity
  8
0
  6
Continuous
 62
     7
370
    15
100
AcDbSpline
210
0.0
220
0.0
230
1.0
 70
     8
 71
     3
 72
    34
 73
    30
 74
     0
 42
0.000000001
 43
0.00000001
 40
0.0
 40
0.0
 40
0.0
 40
0.0
 40
0.0624999999999992
 40
0.0624999999999992
 40
0.1249999999999984
 40
0.1249999999999984
 40
0.1874999999999976
 40
0.1874999999999976
 40
0.2499999999999973
 40
0.2499999999999973
 40
0.3124999999999971
 40
0.3124999999999971
 40
0.3749999999999968
 40
0.3749999999999968
 40
0.4999999999999972
 40
0.4999999999999972
 40
0.6249999999999976
 40
0.6249999999999976
 40
0.687499999999998
 40
0.687499999999998
 40
0.7499999999999984
 40
0.7499999999999984
 40
0.8124999999999989
 40
0.8124999999999989
 40
0.8749999999999992
 40
0.8749999999999992
 40
0.9374999999999997
 40
0.9374999999999997
 40
1.0
 40
1.0
 40
1.0
 40
1.0
 10
255.5046756419994
 20
55.14090805786849
 30
0.0
 10
255.5638010556428
 20
55.11133057401026
 30
0.0
 10
255.6266137510732
 20
55.08765455181473
 30
0.0
 10
255.7593227539979
 20
55.051575041395
 30
0.0
 10
255.829934450369
 20
55.03912715125574
 30
0.0
 10
255.9751824203463
 20
55.02641725753037
 30
0.0
 10
256.0491648501085
 20
55.02607507763302
 30
0.0
 10
256.1998469149333
 20
55.03708142245564
 30
0.0
 10
256.2772949347334
 20
55.04866808644113
 30
0.0
 10
256.4292275207086
 20
55.08284262917992
 30
0.0
 10
256.5041836012931
 20
55.10535503156992
 30
0.0
 10
256.6521186682018
 20
55.16116710416799
 30
0.0
 10
256.7250473812921
 20
55.19461195037427
 30
0.0
 10
256.931659907302
 20
55.30697420969359
 30
0.0
 10
257.0585850833514
 20
55.40101161071433
 30
0.0
 10
257.2676918359783
 20
55.60961292589023
 30
0.0
 10
257.3522402191761
 20
55.72653702003394
 30
0.0
 10
257.4372137759502
 20
55.90506227000659
 30
0.0
 10
257.4591734765481
 20
55.96627884893327
 30
0.0
 10
257.488284573288
 20
56.08708483144712
 30
0.0
 10
257.4956390360677
 20
56.14668535789227
 30
0.0
 10
257.4959819711121
 20
56.26442664802553
 30
0.0
 10
257.4887419282767
 20
56.32287803616263
 30
0.0
 10
257.4601300777547
 20
56.43364066055409
 30
0.0
 10
257.4388467361952
 20
56.48655310527672
 30
0.0
 10
257.3820185695882
 20
56.58747131258598
 30
0.0
 10
257.3465610806143
 20
56.63498632721709
 30
0.0
 10
257.2641561277277
 20
56.7212463051005
 30
0.0
 10
257.2169512251519
 20
56.76049185752057
 30
0.0
 10
257.163475079263
 20
56.7957049856342
 30
0.0
  0
LINE
  5
251
330
1F
100
AcDbEntity
  8
0
  6
Continuous
 62
     7
370
    15
100
AcDbLine
 10
280.1494020778
 20
54.3687133314
 30
0.0
 11
280.2536839177
 21
54.5493351562
 31
0.0
  0
LINE
  5
252
330
1F
100
AcDbEntity
  8
0
  6
Continuous
 62
     7
370
    15
100
AcDbLine
 10
277.8512937963
 20
53.0420436595
 30
0.0
 11
280.1494020778
 21
54.3687133314
 31
0.0
  0
ARC
  5
253
330
1F
100
AcDbEntity
  8
0
  6
Continuous
 62
     7
370
    15
100
AcDbCircle
 10
278.6793968939
 20
51.7474413765
 30
0.0
 40
1.536798559128528
100
AcDbArc
 50
122.6053519586
 51
177.394632491
  0
LINE
  5
254
330
1F
100
AcDbEntity
  8
0
  6
Continuous
 62
     7
370
    15
100
AcDbLine
 10
277.1441868992
 20
42.9578310028
 30
0.0
 11
277.1441868992
 21
51.8172989712
 31
0.0
  0
ARC
  5
255
330
1F
100
AcDbEntity
  8
0
  6
Continuous
 62
     7
370
    15
100
AcDbCircle
 10
277.5752603823
 20
42.8879024558
 30
0.0
 40
0.4367085406724074
100
AcDbArc
 50
170.7857695821
 51
309.2035248725
  0
LINE
  5
256
330
1F
100
AcDbEntity
  8
0
  6
Continuous
 62
     7
370
    15
100
AcDbLine
 10
280.1494020778
 20
43.8761642321
 30
0.0
 11
277.8512937963
 21
42.5494945601
 31
0.0
  0
LINE
  5
257
330
1F
100
AcDbEntity
  8
0
  6
Continuous
 62
     7
370
    15
100
AcDbLine
 10
280.2536839177
 20
43.8159436569
 30
0.0
 11
280.1494020778
 21
43.8761642321
 31
0.0
  0
LINE
  5
258
330
1F
100
AcDbEntity
  8
0
  6
Continuous
 62
     7
370
    15
100
AcDbLine
 10
247.5567475818
 20
25.0608252873
 30
0.0
 11
247.5112395221
 21
24.9424566643
 31
0.0
  0
LINE
  5
259
330
1F
100
AcDbEntity
  8
0
  6
Continuous
 62
     7
370
    15
100
AcDbLine
 10
247.5567475818
 20
25.0608252873
 30
0.0
 11
250.698392109
 21
26.8744580686
 31
0.0
  0
ARC
  5
25A
330
1F
100
AcDbEntity
  8
0
  6
Continuous
 62
     7
370
    15
100
AcDbCircle
 10
249.8702890114
 20
28.1690603516
 30
0.0
 40
1.536798559128175
100
AcDbArc
 50
302.6053519586
 51
357.394632491
  0
LINE
  5
25B
330
1F
100
AcDbEntity
  8
0
  6
Continuous
 62
     7
370
    15
100
AcDbLine
 10
251.4054990061
 20
36.9586707253
 30
0.0
 11
251.4054990061
 21
28.0992027569
 31
0.0
  0
ARC
  5
25C
330
1F
100
AcDbEntity
  8
0
  6
Continuous
 62
     7
370
    15
100
AcDbCircle
 10
250.974425523
 20
37.0285992723
 30
0.0
 40
0.4367085406722903
100
AcDbArc
 50
350.7857695821
 51
129.2035248725
  0
LINE
  5
25D
330
1F
100
AcDbEntity
  8
0
  6
Continuous
 62
     7
370
    15
100
AcDbLine
 10
250.698392109
 20
37.3670071679
 30
0.0
 11
247.5567475818
 21
35.5533743866
 31
0.0
  0
LINE
  5
25E
330
1F
100
AcDbEntity
  8
0
  6
Continuous
 62
     7
370
    15
100
AcDbLine
 10
247.5112395221
 20
35.6192005223
 30
0.0
 11
247.5567475818
 21
35.5533743866
 31
0.0
  0
LINE
  5
25F
330
1F
100
AcDbEntity
  8
0
  6
Continuous
 62
     7
370
    15
100
AcDbLine
 10
274.4395031166
 20
58.0130561021
 30
0.0
 11
274.4395031166
 21
61.2380172451
 31
0.0
  0
LINE
  5
260
330
1F
100
AcDbEntity
  8
0
  6
Continuous
 62
     7
370
    15
100
AcDbLine
 10
277.232250105
 20
59.6252746215
 30
0.0
 11
274.4395031166
 21
58.0130561021
 31
0.0
  0
SPLINE
  5
261
330
1F
100
AcDbEntity
  8
0
  6
Continuous
 62
     7
370
    15
100
AcDbSpline
210
0.0
220
0.0
230
1.0
 70
     8
 71
     3
 72
     8
 73
     4
 74
     0
 42
0.000000001
 43
0.00000001
 40
0.0
 40
0.0
 40
0.0
 40
0.0
 40
1.0
 40
1.0
 40
1.0
 40
1.0
 10
244.6244375552387
 20
37.88548009436764
 30
0.0
 10
244.3373704255664
 20
37.83802809464429
 30
0.0
 10
244.0502573069809
 20
37.7906706619415
 30
0.0
 10
243.7631024805833
 20
37.74339899302944
 30
0.0
  0
SPLINE
  5
262
330
1F
100
AcDbEntity
  8
0
  6
Continuous
 62
     7
370
    15
100
AcDbSpline
210
0.0
220
0.0
230
1.0
 70
     8
 71
     3
 72
     8
 73
     4
 74
     0
 42
0.000000001
 43
0.00000001
 40
0.0
 40
0.0
 40
0.0
 40
0.0
 40
0.0011862984959113
 40
0.0011862984959113
 40
0.0011862984959113
 40
0.0011862984959113
 10
243.4108013933078
 20
38.11375589269161
 30
0.0
 10
243.5285122611523
 20
37.99020594157916
 30
0.0
 10
243.6459520115884
 20
37.86675089246388
 30
0.0
 10
243.7631024805833
 20
37.74339899302944
 30
0.0
  0
LWPOLYLINE
  5
263
330
1F
100
AcDbEntity
  8
0
  6
Continuous
 62
     7
370
    15
100
AcDbPolyline
 90
       25
 70
   128
 43
0.0
 10
243.4108016064
 20
38.113755861
 10
243.8595377854
 20
39.8971760422
 10
244.413556792
 20
41.6944773397
 10
245.069230046
 20
43.4938862275
 10
245.8222612029
 20
45.2836159337
 10
246.6677190814
 20
47.0519428647
 10
247.6000640053
 20
48.7872841695
 10
248.6131899498
 20
50.4782715009
 10
249.7004601034
 20
52.1138278187
 10
250.8547523072
 20
53.6832407702
 10
252.0685051531
 20
55.176230367
 10
253.3337680334
 20
56.5830159014
 10
254.6422531654
 20
57.8943809604
 10
255.9853889337
 20
59.1017376805
 10
257.3543776777
 20
60.1971753164
 10
258.7402515852
 20
61.1735198848
 10
260.1339325996
 20
62.0243763526
 10
261.5262913801
 20
62.7441687573
 10
262.9082073528
 20
63.3281839999
 10
264.2706285971
 20
63.7725972904
 10
265.6046300238
 20
64.0744950872
 10
266.9014740645
 20
64.2319010068
 10
268.1526651658
 20
64.2437844686
 10
269.3500077411
 20
64.110066773
 10
270.4856585255
 20
63.8316239491
  0
LINE
  5
264
330
1F
100
AcDbEntity
  8
0
  6
Continuous
 62
     7
370
    15
100
AcDbLine
 10
270.7893163616
 20
62.8761473595
 30
0.0
 11
270.4856585255
 21
63.8316239491
 31
0.0
  0
LWPOLYLINE
  5
265
330
1F
100
AcDbEntity
  8
0
  6
Continuous
 62
     7
370
    15
100
AcDbPolyline
 90
       24
 70
   128
 43
0.0
 10
244.6244375607
 20
37.8854800687
 10
245.0545724916
 20
39.6235042618
 10
245.5900034209
 20
41.376094367
 10
246.2270543532
 20
43.1312224875
 10
246.9613551872
 20
44.8768471035
 10
247.7878680574
 20
46.6009906368
 10
248.7009215785
 20
48.2918223379
 10
249.6942490409
 20
49.9377388915
 10
250.7610364846
 20
51.5274476828
 10
251.8939622118
 20
53.0500405587
 10
253.0852534217
 20
54.4950683477
 10
254.3267356013
 20
55.8526180424
 10
255.609890148
 20
57.1133749618
 10
256.9259123219
 20
58.2686851039
 10
258.2657719959
 20
59.3106221558
 10
259.6202753126
 20
60.2320382964
 10
260.9801282333
 20
61.026608487
 10
262.3359996762
 20
61.688883651
 10
263.6785862184
 20
62.2143158574
 10
264.9986755632
 20
62.5993025648
 10
266.2872091014
 20
62.8412014443
 10
267.5353458732
 20
62.9383536152
 10
268.734521178
 20
62.8900901035
 10
268.8154688103
 20
62.8813733067
  0
LINE
  5
266
330
1F
100
AcDbEntity
  8
0
  6
Continuous
 62
     7
370
    15
100
AcDbLine
 10
241.9729569304
 20
38.9438059244
 30
0.0
 11
243.4108016064
 21
38.113755861
 31
0.0
  0
ARC
  5
267
330
1F
100
AcDbEntity
  8
0
  6
Continuous
 62
     7
370
    15
100
AcDbCircle
 10
266.1162005076
 20
54.8652445251
 30
0.0
 40
10.22567296009087
100
AcDbArc
 50
73.3400168049
 51
100.6386211219
  0
LINE
  5
268
330
1F
100
AcDbEntity
  8
0
  6
Continuous
 62
     7
370
    15
100
AcDbLine
 10
270.4856585255
 20
63.8316239491
 30
0.0
 11
269.0478138495
 21
64.6616740124
 31
0.0
  0
LINE
  5
269
330
1F
100
AcDbEntity
  8
0
  6
Continuous
 62
     7
370
    15
100
AcDbLine
 10
245.8770283983
 20
37.5591380672
 30
0.0
 11
245.2509247806
 21
37.9205799922
 31
0.0
  0
SPLINE
  5
26A
330
1F
100
AcDbEntity
  8
0
  6
Continuous
 62
     7
370
    15
100
AcDbSpline
210
0.0
220
0.0
230
1.0
 70
     8
 71
     3
 72
    11
 73
     7
 74
     0
 42
0.000000001
 43
0.00000001
 40
0.0
 40
0.0
 40
0.0
 40
0.0
 40
0.3165694752064712
 40
0.6331520400060429
 40
0.9494411625907934
 40
1.0
 40
1.0
 40
1.0
 40
1.0
 10
256.4714510861767
 20
55.90322674012137
 30
0.0
 10
256.3378609059729
 20
55.85604807720131
 30
0.0
 10
256.0706750218456
 20
55.76168880060614
 30
0.0
 10
255.7547248226469
 20
55.50187310141295
 30
0.0
 10
255.5740221316902
 20
55.27868171594047
 30
0.0
 10
255.5390871681402
 20
55.14993253844266
 30
0.0
 10
255.5342724455994
 20
55.13218837889552
 30
0.0
  0
SPLINE
  5
26B
330
1F
100
AcDbEntity
  8
0
  6
Continuous
 62
     7
370
    15
100
AcDbSpline
210
0.0
220
0.0
230
1.0
 70
     8
 71
     3
 72
    14
 73
    10
 74
     0
 42
0.000000001
 43
0.00000001
 40
0.0
 40
0.0
 40
0.0
 40
0.0
 40
0.25
 40
0.25
 40
0.5
 40
0.5
 40
0.75
 40
0.75
 40
1.0
 40
1.0
 40
1.0
 40
1.0
 10
245.2509246679724
 20
37.92058016159969
 30
0.0
 10
245.2132906745144
 20
37.94230580357974
 30
0.0
 10
245.1675167178252
 20
37.95951756469124
 30
0.0
 10
245.0675808403153
 20
37.98192289832374
 30
0.0
 10
245.0131469714754
 20
37.98709778192357
 30
0.0
 10
244.9069313209834
 20
37.9851555876088
 30
0.0
 10
244.8536150210334
 20
37.97806718469057
 30
0.0
 10
244.7561219537326
 20
37.95333374840588
 30
0.0
 10
244.711210263203
 20
37.93557291241984
 30
0.0
 10
244.673456997603
 20
37.91377841609785
 30
0.0
  0
LINE
  5
26C
330
1F
100
AcDbEntity
  8
0
  6
Continuous
 62
     7
370
    15
100
AcDbLine
 10
244.6734569797
 20
37.9137783769
 30
0.0
 11
244.6244375607
 21
37.8854800687
 31
0.0
  0
SPLINE
  5
26D
330
1F
100
AcDbEntity
  8
0
  6
Continuous
 62
     7
370
    15
100
AcDbSpline
210
0.0
220
0.0
230
1.0
 70
     8
 71
     3
 72
    10
 73
     6
 74
     0
 42
0.000000001
 43
0.00000001
 40
0.0
 40
0.0
 40
0.0
 40
0.0
 40
0.5
 40
0.5
 40
1.0
 40
1.0
 40
1.0
 40
1.0
 10
241.8709443649529
 20
38.97325410327634
 30
0.0
 10
241.8782606493751
 20
38.97762210316952
 30
0.0
 10
241.8900845095835
 20
38.97815415575779
 30
0.0
 10
241.9242358738613
 20
38.96892410611947
 30
0.0
 10
241.9464928372541
 20
38.95908322880317
 30
0.0
 10
241.9729568552758
 20
38.94380587638685
 30
0.0
  0
SPLINE
  5
26E
330
1F
100
AcDbEntity
  8
0
  6
Continuous
 62
     7
370
    15
100
AcDbSpline
210
0.0
220
0.0
230
1.0
 70
     8
 71
     3
 72
    14
 73
    10
 74
     0
 42
0.000000001
 43
0.00000001
 40
0.0
 40
0.0
 40
0.0
 40
0.0
 40
0.25
 40
0.25
 40
0.5
 40
0.5
 40
0.75
 40
0.75
 40
1.0
 40
1.0
 40
1.0
 40
1.0
 10
256.8885299412024
 20
56.20967854925961
 30
0.0
 10
256.9033708333315
 20
56.17116053042402
 30
0.0
 10
256.9027370654276
 20
56.13324189227054
 30
0.0
 10
256.8698014604671
 20
56.06730094250127
 30
0.0
 10
256.8376656151252
 20
56.03902738495931
 30
0.0
 10
256.7527630397207
 20
55.99110835877182
 30
0.0
 10
256.7003461272276
 20
55.97123126132407
 30
0.0
 10
256.5890104629325
 20
55.93537433530769
 30
0.0
 10
256.5308557862215
 20
55.91950231162427
 30
0.0
 10
256.4714508304901
 20
55.90322696606953
 30
0.0
  0
LINE
  5
26F
330
1F
100
AcDbEntity
  8
0
  6
Continuous
 62
     7
370
    15
100
AcDbLine
 10
256.8724029464
 20
56.2515343918
 30
0.0
 11
256.8885300429
 21
56.2096789022
 31
0.0
  0
SPLINE
  5
270
330
1F
100
AcDbEntity
  8
0
  6
Continuous
 62
     7
370
    15
100
AcDbSpline
210
0.0
220
0.0
230
1.0
 70
     8
 71
     3
 72
    10
 73
     6
 74
     0
 42
0.000000001
 43
0.00000001
 40
0.0
 40
0.0
 40
0.0
 40
0.0
 40
0.5
 40
0.5
 40
1.0
 40
1.0
 40
1.0
 40
1.0
 10
257.163475079263
 20
56.7957049856342
 30
0.0
 10
257.1354600295251
 20
56.72367888294616
 30
0.0
 10
257.0976421410753
 20
56.64273239764271
 30
0.0
 10
257.0016663932403
 20
56.46233736130281
 30
0.0
 10
256.9436346159407
 20
56.363011154328
 30
0.0
 10
256.8724028783507
 20
56.25153469276393
 30
0.0
  0
LINE
  5
271
330
1F
100
AcDbEntity
  8
0
  6
Continuous
 62
     7
370
    15
100
AcDbLine
 10
247.5567475818
 20
35.5533743866
 30
0.0
 11
245.7288934211
 21
36.6085721331
 31
0.0
  0
SPLINE
  5
272
330
1F
100
AcDbEntity
  8
0
  6
Continuous
 62
     7
370
    15
100
AcDbSpline
210
0.0
220
0.0
230
1.0
 70
     8
 71
     3
 72
     8
 73
     4
 74
     0
 42
0.000000001
 43
0.00000001
 40
0.0000000000000004
 40
0.0000000000000004
 40
0.0000000000000004
 40
0.0000000000000004
 40
0.0011862984959128
 40
0.0011862984959128
 40
0.0011862984959128
 40
0.0011862984959128
 10
245.7288931535543
 20
36.60857219299091
 30
0.0
 10
245.7178309542966
 20
36.67068063790968
 30
0.0
 10
245.7072049477229
 20
36.7324734252113
 30
0.0
 10
245.6969918199055
 20
36.7939662519292
 30
0.0
  0
LWPOLYLINE
  5
273
330
1F
100
AcDbEntity
  8
0
  6
Continuous
 62
     7
370
    15
100
AcDbPolyline
 90
       45
 70
   128
 43
0.0
 10
273.41419805
 20
40.6430341421
 10
272.6242385159
 20
40.1217574369
 10
271.8503603094
 20
39.4806061265
 10
271.1083172969
 20
38.7326329336
 10
270.4132153369
 20
37.8930636644
 10
269.7792049046
 20
36.9789901059
 10
269.2191921551
 20
36.0090195739
 10
268.7445778111
 20
35.0028986989
 10
268.3650233791
 20
33.9811085017
 10
268.0882558909
 20
32.9644501494
 10
267.9199088656
 20
31.973619491
 10
267.8634100273
 20
31.028787293
 10
267.9199088656
 20
30.1491872652
 10
268.0882558909
 20
29.352725945
 10
268.3650233791
 20
28.6556165327
 10
268.7445778111
 20
28.0720505549
 10
269.2191921551
 20
27.6139077375
 10
269.7792049046
 20
27.2905141632
 10
270.4132153369
 20
27.1084534685
 10
271.1083172969
 20
27.0714318397
 10
271.8503603094
 20
27.1802032727
 10
272.6242385159
 20
27.4325527207
 10
273.41419805
 20
27.8233438797
 10
274.2041575841
 20
28.3446205849
 10
274.9780357905
 20
28.9857718953
 10
275.7200788031
 20
29.7337450882
 10
276.415180763
 20
30.5733143574
 10
277.0491911954
 20
31.4873879159
 10
277.6092039448
 20
32.4573584479
 10
278.0838182888
 20
33.4634793229
 10
278.4633727209
 20
34.4852695201
 10
278.7401402091
 20
35.5019278724
 10
278.9084872344
 20
36.4927585308
 10
278.9649860726
 20
37.4375907288
 10
278.9084872344
 20
38.3171907566
 10
278.7401402091
 20
39.1136520768
 10
278.4633727209
 20
39.8107614891
 10
278.0838182888
 20
40.3943274669
 10
277.6092039448
 20
40.8524702843
 10
277.0491911954
 20
41.1758638586
 10
276.415180763
 20
41.3579245533
 10
275.7200788031
 20
41.3949461821
 10
274.9780357905
 20
41.2861747492
 10
274.2041575841
 20
41.0338253011
 10
273.41419805
 20
40.6430341421
  0
LWPOLYLINE
  5
274
330
1F
100
AcDbEntity
  8
0
  6
Continuous
 62
     7
370
    15
100
AcDbPolyline
 90
       24
 70
   128
 43
0.0
 10
273.3081315544
 20
40.8267467008
 10
272.5030772747
 20
40.2955084451
 10
271.7144115336
 20
39.6421063719
 10
270.9581893993
 20
38.8798404687
 10
270.2498050905
 20
38.024228485
 10
269.6036797441
 20
37.0926884207
 10
269.032966305
 20
36.1041837505
 10
268.5492828153
 20
35.0788375136
 10
268.1624758326
 20
34.0375225419
 10
267.8804195734
 20
33.0014375205
 10
267.7088562168
 20
31.9916740144
 10
267.6512770362
 20
31.028787293
 10
267.7088562168
 20
30.1323800784
 10
267.8804195734
 20
29.3206994076
 10
268.1624758326
 20
28.6102696113
 10
268.5492828153
 20
28.0155524758
 10
269.032966305
 20
27.5486553091
 10
269.6036797441
 20
27.2190823499
 10
270.2498050905
 20
27.0335427316
 10
270.9581893993
 20
26.9958138617
 10
271.7144115336
 20
27.10666345
 10
272.5030772747
 20
27.3638354593
 10
273.3081315544
 20
27.7620930901
 10
273.3090509523
 20
27.7626246077
  0
LWPOLYLINE
  5
275
330
1F
100
AcDbEntity
  8
0
  6
Continuous
 62
     7
370
    15
100
AcDbPolyline
 90
       12
 70
   128
 43
0.0
 10
278.9649860726
 20
37.5600524978
 10
278.9074068921
 20
38.4564597124
 10
278.7358435354
 20
39.2681403833
 10
278.4537872763
 20
39.9785701796
 10
278.0669802935
 20
40.5732873151
 10
277.5832968039
 20
41.0401844818
 10
277.0125833647
 20
41.3697574409
 10
276.3664580183
 20
41.5552970593
 10
275.6580737095
 20
41.5930259292
 10
274.9018515752
 20
41.4821763409
 10
274.1131858341
 20
41.2250043316
 10
273.3081315544
 20
40.8267467008
  0
SPLINE
  5
276
330
1F
100
AcDbEntity
  8
0
  6
Continuous
 62
     7
370
    15
100
AcDbSpline
210
0.0
220
0.0
230
1.0
 70
    11
 71
     3
 72
    82
 73
    78
 74
     0
 42
0.000000001
 43
0.00000001
 40
0.0
 40
0.0
 40
0.0
 40
0.0
 40
0.0312499999999992
 40
0.0312499999999992
 40
0.0624999999999987
 40
0.0624999999999987
 40
0.0937499999999981
 40
0.0937499999999981
 40
0.1249999999999976
 40
0.1249999999999976
 40
0.1562499999999971
 40
0.1562499999999971
 40
0.1874999999999966
 40
0.1874999999999966
 40
0.2187499999999961
 40
0.2187499999999961
 40
0.2343749999999962
 40
0.2343749999999962
 40
0.2499999999999962
 40
0.2499999999999962
 40
0.2812499999999958
 40
0.2812499999999958
 40
0.2968749999999958
 40
0.2968749999999958
 40
0.3124999999999959
 40
0.3124999999999959
 40
0.3437499999999959
 40
0.3437499999999959
 40
0.3593749999999959
 40
0.3593749999999959
 40
0.3749999999999959
 40
0.3749999999999959
 40
0.3906249999999959
 40
0.3906249999999959
 40
0.4062499999999958
 40
0.4062499999999958
 40
0.437499999999996
 40
0.437499999999996
 40
0.4687499999999962
 40
0.4687499999999962
 40
0.4999999999999963
 40
0.4999999999999963
 40
0.5312499999999964
 40
0.5312499999999964
 40
0.5624999999999967
 40
0.5624999999999967
 40
0.5937499999999968
 40
0.5937499999999968
 40
0.624999999999997
 40
0.624999999999997
 40
0.6562499999999971
 40
0.6562499999999971
 40
0.6874999999999973
 40
0.6874999999999973
 40
0.7187499999999974
 40
0.7187499999999974
 40
0.7499999999999976
 40
0.7499999999999976
 40
0.7812499999999978
 40
0.7812499999999978
 40
0.8124999999999979
 40
0.8124999999999979
 40
0.8281249999999981
 40
0.8281249999999981
 40
0.8437499999999982
 40
0.8437499999999982
 40
0.8749999999999986
 40
0.8749999999999986
 40
0.8906249999999987
 40
0.8906249999999987
 40
0.9062499999999989
 40
0.9062499999999989
 40
0.9374999999999992
 40
0.9374999999999992
 40
0.9687499999999997
 40
0.9687499999999997
 40
1.0
 40
1.0
 40
1.0
 40
1.0
 10
269.1369853047648
 20
44.43241989120524
 30
0.0
 10
269.2901085880001
 20
44.40538766543471
 30
0.0
 10
269.4391252489963
 20
44.37100507781582
 30
0.0
 10
269.7299513136277
 20
44.29053600783389
 30
0.0
 10
269.8724967904979
 20
44.24414523500183
 30
0.0
 10
270.1471391711113
 20
44.14201166755478
 30
0.0
 10
270.2770244726624
 20
44.08717373199965
 30
0.0
 10
270.5226538301584
 20
43.9711317249066
 30
0.0
 10
270.6392790354281
 20
43.90937933739868
 30
0.0
 10
270.8531947787143
 20
43.78210437027524
 30
0.0
 10
270.9498456184521
 20
43.71710734851501
 30
0.0
 10
271.1228693666661
 20
43.58402640879
 30
0.0
 10
271.1998193119704
 20
43.5152955556831
 30
0.0
 10
271.3286899228343
 20
43.37676685771631
 30
0.0
 10
271.3804917425888
 20
43.30739214319809
 30
0.0
 10
271.438941261235
 20
43.20198485751345
 30
0.0
 10
271.4551943043958
 20
43.16662134564421
 30
0.0
 10
271.4808942737446
 20
43.09518127869537
 30
0.0
 10
271.4903286126801
 20
43.05896817886043
 30
0.0
 10
271.5073524394929
 20
42.95121962843732
 30
0.0
 10
271.5041399113011
 20
42.87988736724733
 30
0.0
 10
271.476148063352
 20
42.77219675883948
 30
0.0
 10
271.4629267832992
 20
42.73618503060822
 30
0.0
 10
271.4280522036668
 20
42.66367715117626
 30
0.0
 10
271.4063483145659
 20
42.62723734734399
 30
0.0
 10
271.3298991874212
 20
42.52002473732249
 30
0.0
 10
271.2635102307755
 20
42.45028047485878
 30
0.0
 10
271.1391426304231
 20
42.34756378147794
 30
0.0
 10
271.0931042475019
 20
42.31338279428087
 30
0.0
 10
270.9943498643211
 20
42.2471931739876
 30
0.0
 10
270.9417613911242
 20
42.21520340835265
 30
0.0
 10
270.8303210643347
 20
42.15336402144198
 30
0.0
 10
270.7714689261769
 20
42.12351452251514
 30
0.0
 10
270.6474543013903
 20
42.06600995579669
 30
0.0
 10
270.5818436852899
 20
42.03819994768286
 30
0.0
 10
270.3802891628487
 20
41.96020641294503
 30
0.0
 10
270.2388748027673
 20
41.91487531122845
 30
0.0
 10
269.9427698982838
 20
41.8378414373075
 30
0.0
 10
269.7906322130552
 20
41.8069407069308
 30
0.0
 10
269.4854717660493
 20
41.76173422850697
 30
0.0
 10
269.3300068501379
 20
41.74718508086718
 30
0.0
 10
269.0258776488707
 20
41.73593471957204
 30
0.0
 10
268.8764349772799
 20
41.73897451149647
 30
0.0
 10
268.5823035086706
 20
41.76326674415964
 30
0.0
 10
268.4388311051259
 20
41.78459993002955
 30
0.0
 10
268.166053968159
 20
41.84483193085907
 30
0.0
 10
268.0355658349064
 20
41.88381317722133
 30
0.0
 10
267.7864908696124
 20
41.98066409437769
 30
0.0
 10
267.6706996651897
 20
42.03752171020119
 30
0.0
 10
267.4578941211814
 20
42.16667040828661
 30
0.0
 10
267.3605179556467
 20
42.23910051084876
 30
0.0
 10
267.1847153130906
 20
42.40004011679965
 30
0.0
 10
267.1087526487846
 20
42.48630544623407
 30
0.0
 10
266.9804485722471
 20
42.66892584792296
 30
0.0
 10
266.9280033825454
 20
42.7654092862855
 30
0.0
 10
266.8487968914498
 20
42.96774077634979
 30
0.0
 10
266.8232190232147
 20
43.07050539536244
 30
0.0
 10
266.8005017827991
 20
43.27768535833539
 30
0.0
 10
266.8034035618595
 20
43.38257710447134
 30
0.0
 10
266.8415567824254
 20
43.59056356505778
 30
0.0
 10
266.8761153779125
 20
43.69047247515618
 30
0.0
 10
266.9521240046877
 20
43.83283775892259
 30
0.0
 10
266.9815190320185
 20
43.879037297916
 30
0.0
 10
267.0490181212984
 20
43.96859441737919
 30
0.0
 10
267.0873972338813
 20
44.0121390701762
 30
0.0
 10
267.2127409019233
 20
44.13415094196543
 30
0.0
 10
267.3105478045774
 20
44.20535272578338
 30
0.0
 10
267.479128728402
 20
44.2963410557893
 30
0.0
 10
267.5393940021131
 20
44.32412995806011
 30
0.0
 10
267.6640425646127
 20
44.3728574271228
 30
0.0
 10
267.7287089947437
 20
44.39400129354643
 30
0.0
 10
267.9294719465978
 20
44.44828242656926
 30
0.0
 10
268.0740918107505
 20
44.47235558235408
 30
0.0
 10
268.36936337851
 20
44.4966010979501
 30
0.0
 10
268.5204539127674
 20
44.49723941512787
 30
0.0
 10
268.8293516651216
 20
44.47859194770757
 30
0.0
 10
268.9838620215295
 20
44.45945211697577
 30
0.0
 10
269.1369853047648
 20
44.43241989120524
 30
0.0
  0
LINE
  5
277
330
1F
100
AcDbEntity
  8
0
  6
Continuous
 62
     7
370
    15
100
AcDbLine
 10
260.9469195624
 20
32.1930415656
 30
0.0
 11
260.9905237699
 21
32.1684125449
 31
0.0
  0
LINE
  5
278
330
1F
100
AcDbEntity
  8
0
  6
Continuous
 62
     7
370
    15
100
AcDbLine
 10
245.8016776534
 20
37.3937470283
 30
0.0
 11
245.7817843409
 21
37.1644012718
 31
0.0
  0
ARC
  5
279
330
1F
100
AcDbEntity
  8
0
  6
Continuous
 62
     7
370
    15
100
AcDbCircle
 10
261.7864052135
 20
35.7372226638
 30
0.0
 40
16.06490965703225
100
AcDbArc
 50
176.9111716473
 51
185.7268787979
  0
LWPOLYLINE
  5
27A
330
1F
100
AcDbEntity
  8
0
  6
Continuous
 62
     7
370
    15
100
AcDbPolyline
 90
        3
 70
   128
 43
0.0
 10
244.8028902808
 20
36.4936192175
 10
244.8588020266
 20
37.8812856472
 10
244.8648790753
 20
37.9563824985
  0
ARC
  5
27B
330
1F
100
AcDbEntity
  8
0
  6
Continuous
 62
     7
370
    15
100
AcDbCircle
 10
256.520992957
 20
36.1956025822
 30
0.0
 40
11.72189166669093
100
AcDbArc
 50
178.543158738
 51
203.8694730025
  0
LINE
  5
27C
330
1F
100
AcDbEntity
  8
0
  6
Continuous
 62
     7
370
    15
100
AcDbLine
 10
226.2955907264
 20
73.1073240384
 30
0.0
 11
226.3718021066
 21
73.0808447937
 31
0.0
  0
LINE
  5
27D
330
1F
100
AcDbEntity
  8
0
  6
Continuous
 62
     7
370
    15
100
AcDbLine
 10
242.3064795953
 20
38.5842895804
 30
0.0
 11
241.8709437763
 21
38.9732537501
 31
0.0
  0
LINE
  5
27E
330
1F
100
AcDbEntity
  8
0
  6
Continuous
 62
     7
370
    15
100
AcDbLine
 10
243.7631028326
 20
37.7433988843
 30
0.0
 11
242.3064795953
 21
38.5842895804
 31
0.0
  0
LINE
  5
27F
330
1F
100
AcDbEntity
  8
0
  6
Continuous
 62
     7
370
    15
100
AcDbLine
 10
270.7205488392
 20
30.5965483301
 30
0.0
 11
270.8108280472
 21
30.5400707363
 31
0.0
  0
LINE
  5
280
330
1F
100
AcDbEntity
  8
0
  6
Continuous
 62
     7
370
    15
100
AcDbLine
 10
245.8016776534
 20
37.3937470283
 30
0.0
 11
245.8016776534
 21
37.2485971911
 31
0.0
  0
LINE
  5
281
330
1F
100
AcDbEntity
  8
0
  6
Continuous
 62
     7
370
    15
100
AcDbLine
 10
245.8016776534
 20
36.5665539937
 30
0.0
 11
245.8016776534
 21
34.1341608692
 31
0.0
  0
LINE
  5
282
330
1F
100
AcDbEntity
  8
0
  6
Continuous
 62
     7
370
    15
100
AcDbLine
 10
245.8016776534
 20
37.6026366787
 30
0.0
 11
245.8016776534
 21
37.3937470283
 31
0.0
  0
LINE
  5
283
330
1F
100
AcDbEntity
  8
0
  6
Continuous
 62
     7
370
    15
100
AcDbLine
 10
245.8016776534
 20
34.1341608692
 30
0.0
 11
245.8016776534
 21
31.2641718265
 31
0.0
  0
SPLINE
  5
284
330
1F
100
AcDbEntity
  8
0
  6
Continuous
 62
     7
370
    15
100
AcDbSpline
210
0.0
220
0.0
230
1.0
 70
     8
 71
     3
 72
     9
 73
     5
 74
     0
 42
0.000000001
 43
0.00000001
 40
0.0
 40
0.0
 40
0.0
 40
0.0
 40
0.0635611916916749
 40
1.0
 40
1.0
 40
1.0
 40
1.0
 10
273.5151802526382
 20
38.19464735772279
 30
0.0
 10
273.516417047303
 20
38.19204814288776
 30
0.0
 10
273.5358753776441
 20
38.15115503239294
 30
0.0
 10
273.5329663137132
 20
38.11090218146622
 30
0.0
 10
273.5302421533526
 20
38.0732078497134
 30
0.0
  0
LINE
  5
285
330
1F
100
AcDbEntity
  8
0
  6
Continuous
 62
     7
370
    15
100
AcDbLine
 10
245.7288934211
 20
26.1160230338
 30
0.0
 11
247.5567475818
 21
25.0608252873
 31
0.0
  0
SPLINE
  5
286
330
1F
100
AcDbEntity
  8
0
  6
Continuous
 62
     7
370
    15
100
AcDbSpline
210
0.0
220
0.0
230
1.0
 70
     8
 71
     3
 72
    14
 73
    10
 74
     0
 42
0.000000001
 43
0.00000001
 40
0.0
 40
0.0
 40
0.0
 40
0.0
 40
0.25
 40
0.25
 40
0.5
 40
0.5
 40
0.75
 40
0.75
 40
1.0
 40
1.0
 40
1.0
 40
1.0
 10
247.5112400318793
 20
24.94245701793023
 30
0.0
 10
247.4945651888129
 20
24.89908439982365
 30
0.0
 10
247.474269945897
 20
24.8588540703778
 30
0.0
 10
247.4259729668266
 20
24.78508218270566
 30
0.0
 10
247.3977541190215
 20
24.75151257602855
 30
0.0
 10
247.3348287705983
 20
24.69796117036593
 30
0.0
 10
247.2996655945813
 20
24.67750514100628
 30
0.0
 10
247.2249826053729
 20
24.6600728474944
 30
0.0
 10
247.1864577301645
 20
24.66402015647929
 30
0.0
 10
247.1525140274672
 20
24.68361543894911
 30
0.0
  0
LINE
  5
287
330
1F
100
AcDbEntity
  8
0
  6
Continuous
 62
     7
370
    15
100
AcDbLine
 10
247.152513865
 20
24.6836155626
 30
0.0
 11
245.6969918787
 21
25.5238705199
 31
0.0
  0
SPLINE
  5
288
330
1F
100
AcDbEntity
  8
0
  6
Continuous
 62
     7
370
    15
100
AcDbSpline
210
0.0
220
0.0
230
1.0
 70
     8
 71
     3
 72
     8
 73
     4
 74
     0
 42
0.000000001
 43
0.00000001
 40
0.0
 40
0.0
 40
0.0
 40
0.0
 40
0.0011862984959113
 40
0.0011862984959113
 40
0.0011862984959113
 40
0.0011862984959113
 10
245.6969918199055
 20
25.52387052404214
 30
0.0
 10
245.7072049477228
 20
25.72126942593108
 30
0.0
 10
245.717830954298
 20
25.91865526290787
 30
0.0
 10
245.7288931535557
 20
26.11602276025821
 30
0.0
  0
SPLINE
  5
289
330
1F
100
AcDbEntity
  8
0
  6
Continuous
 62
     7
370
    15
100
AcDbSpline
210
0.0
220
0.0
230
1.0
 70
     8
 71
     3
 72
     9
 73
     5
 74
     0
 42
0.000000001
 43
0.00000001
 40
0.0
 40
0.0
 40
0.0
 40
0.0
 40
0.4651254005114644
 40
0.9999999999999999
 40
0.9999999999999999
 40
0.9999999999999999
 40
0.9999999999999999
 10
280.313616736321
 20
43.78132568189206
 30
0.0
 10
280.3107615146538
 20
43.78297713495018
 30
0.0
 10
280.3046229084543
 20
43.78652768939483
 30
0.0
 10
280.2714351869735
 20
43.80569275181202
 30
0.0
 10
280.2536839177385
 20
43.81594365689657
 30
0.0
  0
ARC
  5
28A
330
1F
100
AcDbEntity
  8
0
  6
Continuous
 62
     7
370
    15
100
AcDbCircle
 10
256.0354564825
 20
26.6330021514
 30
0.0
 40
9.047417781564993
100
AcDbArc
 50
197.2420777022
 51
282.0215976859
  0
SPLINE
  5
28B
330
1F
100
AcDbEntity
  8
0
  6
Continuous
 62
     7
370
    15
100
AcDbSpline
210
0.0
220
0.0
230
1.0
 70
     8
 71
     3
 72
     8
 73
     4
 74
     0
 42
0.000000001
 43
0.00000001
 40
0.0
 40
0.0
 40
0.0
 40
0.0
 40
1.0
 40
1.0
 40
1.0
 40
1.0
 10
245.975011507305
 20
26.61326091484507
 30
0.0
 10
245.8928133265194
 20
26.4475405883416
 30
0.0
 10
245.8107789583675
 20
26.28179371300364
 30
0.0
 10
245.7288931535557
 20
26.11602276025822
 30
0.0
  0
LINE
  5
28C
330
1F
100
AcDbEntity
  8
0
  6
Continuous
 62
     7
370
    15
100
AcDbLine
 10
246.0240310083
 20
26.6415594866
 30
0.0
 11
245.9750115893
 21
26.6132611784
 31
0.0
  0
SPLINE
  5
28D
330
1F
100
AcDbEntity
  8
0
  6
Continuous
 62
     7
370
    15
100
AcDbSpline
210
0.0
220
0.0
230
1.0
 70
     8
 71
     3
 72
    12
 73
     8
 74
     0
 42
0.000000001
 43
0.00000001
 40
0.0
 40
0.0
 40
0.0
 40
0.0
 40
0.249999999999997
 40
0.249999999999997
 40
0.499999999999994
 40
0.499999999999994
 40
1.0
 40
1.0
 40
1.0
 40
1.0
 10
246.0358131950895
 20
26.9749242268062
 30
0.0
 10
246.0734119796641
 20
26.95321891048191
 30
0.0
 10
246.1035895389105
 20
26.92641703990874
 30
0.0
 10
246.1421792735915
 20
26.86879333507875
 30
0.0
 10
246.1510387587813
 20
26.83774520950737
 30
0.0
 10
246.1459913249429
 20
26.74555623310207
 30
0.0
 10
246.0992890378677
 20
26.68500480612722
 30
0.0
 10
246.0240309496693
 20
26.64155923657527
 30
0.0
  0
LINE
  5
28E
330
1F
100
AcDbEntity
  8
0
  6
Continuous
 62
     7
370
    15
100
AcDbLine
 10
245.2509247806
 20
27.4280308928
 30
0.0
 11
246.0358133574
 21
26.9749243621
 31
0.0
  0
SPLINE
  5
28F
330
1F
100
AcDbEntity
  8
0
  6
Continuous
 62
     7
370
    15
100
AcDbSpline
210
0.0
220
0.0
230
1.0
 70
     8
 71
     3
 72
    10
 73
     6
 74
     0
 42
0.000000001
 43
0.00000001
 40
0.0
 40
0.0
 40
0.0
 40
0.0
 40
0.5
 40
0.5
 40
1.0
 40
1.0
 40
1.0
 40
1.0
 10
244.673456997603
 20
27.42122898336596
 30
0.0
 10
244.7495943879416
 20
27.46518216323868
 30
0.0
 10
244.8531021686259
 20
27.49166882941746
 30
0.0
 10
245.0675974607117
 20
27.49549689980479
 30
0.0
 10
245.1750277051299
 20
27.47184511290139
 30
0.0
 10
245.2509246679724
 20
27.42803072886781
 30
0.0
  0
LINE
  5
290
330
1F
100
AcDbEntity
  8
0
  6
Continuous
 62
     7
370
    15
100
AcDbLine
 10
244.6244375607
 20
27.3929309693
 30
0.0
 11
244.6734569797
 21
27.4212292776
 31
0.0
  0
SPLINE
  5
291
330
1F
100
AcDbEntity
  8
0
  6
Continuous
 62
     7
370
    15
100
AcDbSpline
210
0.0
220
0.0
230
1.0
 70
     8
 71
     3
 72
     8
 73
     4
 74
     0
 42
0.000000001
 43
0.00000001
 40
0.0
 40
0.0
 40
0.0
 40
0.0
 40
1.0
 40
1.0
 40
1.0
 40
1.0
 10
243.7631024805842
 20
27.2508495602977
 30
0.0
 10
244.0502573069815
 20
27.29812122920973
 30
0.0
 10
244.3373704255667
 20
27.34547866191246
 30
0.0
 10
244.6244375552387
 20
27.39293066163576
 30
0.0
  0
LINE
  5
292
330
1F
100
AcDbEntity
  8
0
  6
Continuous
 62
     7
370
    15
100
AcDbLine
 10
242.3064795953
 20
28.091740481
 30
0.0
 11
243.7631028326
 21
27.250849785
 31
0.0
  0
LINE
  5
293
330
1F
100
AcDbEntity
  8
0
  6
Continuous
 62
     7
370
    15
100
AcDbLine
 10
242.3064795953
 20
28.091740481
 30
0.0
 11
245.4481241225
 21
29.9053732624
 31
0.0
  0
ARC
  5
294
330
1F
100
AcDbEntity
  8
0
  6
Continuous
 62
     7
370
    15
100
AcDbCircle
 10
255.2759197075
 20
27.9870734706
 30
0.0
 40
9.890562528246866
100
AcDbArc
 50
194.4210541018
 51
238.0225374632
  0
ELLIPSE
  5
295
330
1F
100
AcDbEntity
  8
0
  6
Continuous
 62
     7
370
    15
100
AcDbEllipse
 10
245.1552316036
 20
30.8909979066
 30
0.0
 11
-7.507462979106096E-5
 21
1.066811201853405
 31
0.0
210
0.0
220
0.0
230
1.0
 40
0.7174342186
 41
3.534193645557513
 42
5.104989972352375
  0
ARC
  5
296
330
1F
100
AcDbEntity
  8
0
  6
Continuous
 62
     7
370
    15
100
AcDbCircle
 10
255.1346557944
 20
30.2810719914
 30
0.0
 40
10.89981861700437
100
AcDbArc
 50
195.3652578774
 51
215.9035762319
  0
ARC
  5
297
330
1F
100
AcDbEntity
  8
0
  6
Continuous
 62
     7
370
    15
100
AcDbCircle
 10
252.5308320303
 20
29.0135473046
 30
0.0
 40
9.374612820624474
100
AcDbArc
 50
193.3832905048
 51
247.5353305273
  0
SPLINE
  5
298
330
1F
100
AcDbEntity
  8
0
  6
Continuous
 62
     7
370
    15
100
AcDbSpline
210
0.0
220
0.0
230
1.0
 70
     8
 71
     3
 72
     8
 73
     4
 74
     0
 42
0.000000001
 43
0.00000001
 40
0.0000000000000004
 40
0.0000000000000004
 40
0.0000000000000004
 40
0.0000000000000004
 40
0.0011862984959128
 40
0.0011862984959128
 40
0.0011862984959128
 40
0.0011862984959128
 10
243.7631024805847
 20
27.25084956029674
 30
0.0
 10
243.6459520115896
 20
27.11472551746197
 30
0.0
 10
243.5285122611525
 20
26.97900194229903
 30
0.0
 10
243.4108013933078
 20
26.84366016480456
 30
0.0
  0
LINE
  5
299
330
1F
100
AcDbEntity
  8
0
  6
Continuous
 62
     7
370
    15
100
AcDbLine
 10
241.8709437763
 20
27.8402587735
 30
0.0
 11
242.3064795953
 21
28.091740481
 31
0.0
  0
LINE
  5
29A
330
1F
100
AcDbEntity
  8
0
  6
Continuous
 62
     7
370
    15
100
AcDbLine
 10
243.4108016064
 20
26.8436600716
 30
0.0
 11
241.9729569304
 21
27.673710135
 31
0.0
  0
SPLINE
  5
29B
330
1F
100
AcDbEntity
  8
0
  6
Continuous
 62
     7
370
    15
100
AcDbSpline
210
0.0
220
0.0
230
1.0
 70
     8
 71
     3
 72
    10
 73
     6
 74
     0
 42
0.000000001
 43
0.00000001
 40
0.0
 40
0.0
 40
0.0
 40
0.0
 40
0.5
 40
0.5
 40
1.0
 40
1.0
 40
1.0
 40
1.0
 10
241.9729568552758
 20
27.67371014849979
 30
0.0
 10
241.9465474259951
 20
27.68895598750672
 30
0.0
 10
241.924264021786
 20
27.71281340991898
 30
0.0
 10
241.8901568869645
 20
27.77073950165327
 30
0.0
 10
241.8782568569096
 20
27.80463803313412
 30
0.0
 10
241.8709443649529
 20
27.84025907558848
 30
0.0
  0
ARC
  5
29C
330
1F
100
AcDbEntity
  8
0
  6
Continuous
 62
     7
370
    15
100
AcDbCircle
 10
251.4079687848
 20
29.9811379919
 30
0.0
 40
9.682290367806972
100
AcDbArc
 50
198.3297077333
 51
238.2567644535
  0
ELLIPSE
  5
29D
330
1F
100
AcDbEntity
  8
0
  6
Continuous
 62
     7
370
    15
100
AcDbEllipse
 10
245.0945714318
 20
30.855968151
 30
0.0
 11
0.3250094736511642
 21
1.213179526238662
 31
0.0
210
0.0
220
0.0
230
1.0
 40
0.5176380889
 41
3.619174351347721
 42
5.189970678142621
  0
SPLINE
  5
29E
330
1F
100
AcDbEntity
  8
0
  6
Continuous
 62
     7
370
    15
100
AcDbSpline
210
0.0
220
0.0
230
1.0
 70
     8
 71
     3
 72
    12
 73
     8
 74
     0
 42
0.000000001
 43
0.00000001
 40
0.0
 40
0.0
 40
0.0
 40
0.0
 40
0.5000000000000003
 40
0.5000000000000003
 40
0.7500000000000001
 40
0.7500000000000001
 40
1.0
 40
1.0
 40
1.0
 40
1.0
 10
271.6284285208282
 20
62.86029145200928
 30
0.0
 10
271.6914883980577
 20
62.89669514425954
 30
0.0
 10
271.7714213512888
 20
62.92352645611113
 30
0.0
 10
271.9044005395955
 20
62.93728329762166
 30
0.0
 10
271.9500717087075
 20
62.93716216382273
 30
0.0
 10
272.037709527345
 20
62.92438778220108
 30
0.0
 10
272.0784534381991
 20
62.91154779654633
 30
0.0
 10
272.1099671205378
 20
62.89335533496969
 30
0.0
  0
LINE
  5
29F
330
1F
100
AcDbEntity
  8
0
  6
Continuous
 62
     7
370
    15
100
AcDbLine
 10
272.1099674448
 20
62.8933557065
 30
0.0
 11
272.769635759
 21
62.5125372947
 31
0.0
  0
LINE
  5
2A0
330
1F
100
AcDbEntity
  8
0
  6
Continuous
 62
     7
370
    15
100
AcDbLine
 10
274.4395027873
 20
60.4377410781
 30
0.0
 11
275.8340023931
 21
60.7435160915
 31
0.0
  0
LINE
  5
2A1
330
1F
100
AcDbEntity
  8
0
  6
Continuous
 62
     7
370
    15
100
AcDbLine
 10
275.8340023931
 20
60.7435160915
 30
0.0
 11
277.2895243794
 21
59.9032611341
 31
0.0
  0
SPLINE
  5
2A2
330
1F
100
AcDbEntity
  8
0
  6
Continuous
 62
     7
370
    15
100
AcDbSpline
210
0.0
220
0.0
230
1.0
 70
     8
 71
     3
 72
    12
 73
     8
 74
     0
 42
0.000000001
 43
0.00000001
 40
0.0
 40
0.0
 40
0.0
 40
0.0
 40
0.2499999999999946
 40
0.2499999999999946
 40
0.4999999999999892
 40
0.4999999999999892
 40
1.0
 40
1.0
 40
1.0
 40
1.0
 10
277.2895242927294
 20
59.90326062541889
 30
0.0
 10
277.3211804232295
 20
59.88498593026898
 30
0.0
 10
277.3434797002396
 20
59.86116181947068
 30
0.0
 10
277.3653002708315
 20
59.81112991702299
 30
0.0
 10
277.3655810331577
 20
59.78473870860909
 30
0.0
 10
277.3422136590369
 20
59.70866347861417
 30
0.0
 10
277.2951752562319
 20
59.66160042366375
 30
0.0
 10
277.2322497617316
 20
59.62527430891179
 30
0.0
  0
LINE
  5
2A3
330
1F
100
AcDbEntity
  8
0
  6
Continuous
 62
     7
370
    15
100
AcDbLine
 10
271.6284287523
 20
62.8602918291
 30
0.0
 11
271.5366381846
 21
62.8073022623
 31
0.0
  0
SPLINE
  5
2A4
330
1F
100
AcDbEntity
  8
0
  6
Continuous
 62
     7
370
    15
100
AcDbSpline
210
0.0
220
0.0
230
1.0
 70
     8
 71
     3
 72
    10
 73
     6
 74
     0
 42
0.000000001
 43
0.00000001
 40
0.0
 40
0.0
 40
0.0
 40
0.0
 40
0.4037333664871734
 40
0.8085288965773424
 40
1.0
 40
1.0
 40
1.0
 40
1.0
 10
280.2536839177385
 20
54.54933515620031
 30
0.0
 10
280.2719254933676
 20
54.5880992875823
 30
0.0
 10
280.3084566355508
 20
54.6657295331222
 30
0.0
 10
280.3223924987772
 20
54.77314736389763
 30
0.0
 10
280.304330233182
 20
54.82643742854897
 30
0.0
 10
280.2985301401876
 20
54.84354975197406
 30
0.0
  0
ARC
  5
2A5
330
1F
100
AcDbEntity
  8
0
  6
Continuous
 62
     7
370
    15
100
AcDbCircle
 10
270.2059714743
 20
52.4324218086
 30
0.0
 40
10.295152353765
100
AcDbArc
 50
20.4843045116
 51
46.5242575502
  0
LWPOLYLINE
  5
2A6
330
1F
100
AcDbEntity
  8
0
  6
Continuous
 62
     7
370
    15
100
AcDbPolyline
 90
        3
 70
   128
 43
0.0
 10
274.4395024581
 20
61.1187308645
 10
274.4779575061
 20
61.0712667671
 10
274.8642939588
 20
60.5562997993
  0
LINE
  5
2A7
330
1F
100
AcDbEntity
  8
0
  6
Continuous
 62
     7
370
    15
100
AcDbLine
 10
280.1494020778
 20
43.8761642321
 30
0.0
 11
278.2849986969
 21
44.9524613943
 31
0.0
  0
LINE
  5
2A8
330
1F
100
AcDbEntity
  8
0
  6
Continuous
 62
     7
370
    15
100
AcDbLine
 10
277.4769122313
 20
44.7989213264
 30
0.0
 11
277.5259316503
 21
44.8272196346
 31
0.0
  0
SPLINE
  5
2A9
330
1F
100
AcDbEntity
  8
0
  6
Continuous
 62
     7
370
    15
100
AcDbSpline
210
0.0
220
0.0
230
1.0
 70
     8
 71
     3
 72
    10
 73
     6
 74
     0
 42
0.000000001
 43
0.00000001
 40
0.0
 40
0.0
 40
0.0
 40
0.0
 40
0.348286225286859
 40
0.7262043038763673
 40
0.9999999999999999
 40
0.9999999999999999
 40
0.9999999999999999
 40
0.9999999999999999
 10
277.1441868991919
 20
44.72774881532409
 30
0.0
 10
277.186834558868
 20
44.72783643869879
 30
0.0
 10
277.2757582996261
 20
44.72801914035968
 30
0.0
 10
277.3917152543543
 20
44.75624231435965
 30
0.0
 10
277.4517082043955
 20
44.7862954914341
 30
0.0
 10
277.4769122313109
 20
44.79892132635902
 30
0.0
  0
SPLINE
  5
2AA
330
1F
100
AcDbEntity
  8
0
  6
Continuous
 62
     7
370
    15
100
AcDbSpline
210
0.0
220
0.0
230
1.0
 70
     8
 71
     3
 72
     8
 73
     4
 74
     0
 42
0.000000001
 43
0.00000001
 40
0.0
 40
0.0
 40
0.0
 40
0.0
 40
1.0
 40
1.0
 40
1.0
 40
1.0
 10
277.5259318180652
 20
44.82721951523705
 30
0.0
 10
277.7789177717462
 20
44.86903791993488
 30
0.0
 10
278.0319410340934
 20
44.91078312451026
 30
0.0
 10
278.2849985230981
 20
44.95246117590737
 30
0.0
  0
ARC
  5
2AB
330
1F
100
AcDbEntity
  8
0
  6
Continuous
 62
     7
370
    15
100
AcDbCircle
 10
257.0107827483
 20
54.1173109006
 30
0.0
 40
1.562487995951871
100
AcDbArc
 50
79.6969630873
 51
142.7113318612
  0
ARC
  5
2AC
330
1F
100
AcDbEntity
  8
0
  6
Continuous
 62
     7
370
    15
100
AcDbCircle
 10
256.978544316
 20
54.2013884004
 30
0.0
 40
1.467909010258973
100
AcDbArc
 50
78.3821019919
 51
144.2937504163
  0
ARC
  5
2AD
330
1F
100
AcDbEntity
  8
0
  6
Continuous
 62
     7
370
    15
100
AcDbCircle
 10
256.9482288472
 20
54.279981823
 30
0.0
 40
1.249547245185456
100
AcDbArc
 50
80.705870252
 51
142.2259793291
  0
ARC
  5
2AE
330
1F
100
AcDbEntity
  8
0
  6
Continuous
 62
     7
370
     0
100
AcDbCircle
 10
271.7289405194
 20
37.2705720012
 30
0.0
 40
0.6808066929829361
100
AcDbArc
 50
288.0632755582
 51
9.7467044735
  0
LWPOLYLINE
  5
2AF
330
1F
100
AcDbEntity
  8
0
  6
Continuous
 62
     7
370
     0
100
AcDbPolyline
 90
       22
 70
   128
 43
0.0
 10
247.152513865
 20
35.953711352
 10
247.601250044
 20
37.7371315332
 10
248.1552690506
 20
39.5344328307
 10
248.8109423045
 20
41.3338417184
 10
249.5639734614
 20
43.1235714246
 10
250.40943134
 20
44.8918983556
 10
251.3417762639
 20
46.6272396605
 10
252.3549022084
 20
48.3182269919
 10
253.442172362
 20
49.9537833097
 10
254.5964645657
 20
51.5231962612
 10
255.8102174117
 20
53.016185858
 10
257.075480292
 20
54.4229713923
 10
258.3839654239
 20
55.7343364513
 10
259.7271011923
 20
56.9416931714
 10
261.0960899363
 20
58.0371308073
 10
262.4819638438
 20
59.0134753758
 10
263.8756448582
 20
59.8643318436
 10
265.2680036387
 20
60.5841242483
 10
266.6499196114
 20
61.1681394909
 10
268.0123408556
 20
61.6125527813
 10
269.3463422824
 20
61.9144505782
 10
269.4077350941
 20
61.9250186738
  0
LINE
  5
2B0
330
1F
100
AcDbEntity
  8
0
  6
Continuous
 62
     7
370
     0
100
AcDbLine
 10
247.5112395221
 20
35.6192005223
 30
0.0
 11
247.6465071982
 21
36.2224504937
 31
0.0
  0
LWPOLYLINE
  5
2B1
330
1F
100
AcDbEntity
  8
0
  6
Continuous
 62
     7
370
     0
100
AcDbPolyline
 90
       11
 70
   128
 43
0.0
 10
262.1284295754
 20
58.2620681031
 10
262.7350383823
 20
58.6723537747
 10
264.1270290158
 20
59.5189598532
 10
265.5174048159
 20
60.2330492932
 10
266.896853387
 20
60.8098362823
 10
268.2561353496
 20
61.2454623384
 10
269.5861466551
 20
61.5370049062
 10
270.8779791721
 20
61.6825153751
 10
272.122979955
 20
61.6810152708
 10
273.3128111717
 20
61.5325186838
 10
274.4395031166
 20
61.2380172451
  0
ARC
  5
2B2
330
1F
100
AcDbEntity
  8
0
  6
Continuous
 62
     7
370
     0
100
AcDbCircle
 10
245.4596457629
 20
51.3975563346
 30
0.0
 40
35.61047517115729
100
AcDbArc
 50
339.5268561111
 51
347.7074113046
  0
LWPOLYLINE
  5
2B3
330
1F
100
AcDbEntity
  8
0
  6
Continuous
 62
     7
370
     0
100
AcDbPolyline
 90
       24
 70
   128
 43
0.0
 10
272.0401021287
 20
27.1963039549
 10
271.8158545528
 20
26.9279576425
 10
270.5729136972
 20
25.5270347034
 10
269.2861984003
 20
24.219111548
 10
267.9641324342
 20
23.0127500079
 10
266.6153695677
 20
21.9158462028
 10
265.2487395655
 20
20.9355811158
 10
263.8731883277
 20
20.078372348
 10
262.4977205913
 20
19.3498319152
 10
261.1313401774
 20
18.7547271906
 10
259.7829918647
 20
18.2969549539
 10
258.461502125
 20
17.9795102204
 10
257.1755217638
 20
17.8044744208
 10
255.9334686262
 20
17.772989931
 10
254.7434740904
 20
17.8852641649
 10
253.613327421
 20
18.1405633053
 10
252.5504273655
 20
18.5372147802
 10
251.5617307881
 20
19.0726217166
 10
250.6537111812
 20
19.7432800545
 10
249.8323112506
 20
20.5447990841
 10
249.1029086707
 20
21.4719318671
 10
248.4702792062
 20
22.5186109826
 10
247.9385624679
 20
23.6779819901
 10
247.5112395221
 20
24.9424566643
  0
ARC
  5
2B4
330
1F
100
AcDbEntity
  8
0
  6
Continuous
 62
     7
370
     0
100
AcDbCircle
 10
270.073544515
 20
51.9268638617
 30
0.0
 40
10.51249703684868
100
AcDbArc
 50
14.4456939373
 51
47.0804331381
  0
LWPOLYLINE
  5
2B5
330
1F
100
AcDbEntity
  8
0
  6
Continuous
 62
     7
370
     0
100
AcDbPolyline
 90
       24
 70
   128
 43
0.0
 10
257.1684200198
 20
35.855800228
 10
257.2258892234
 20
36.9014861593
 10
257.3973136272
 20
37.9956327322
 10
257.679760074
 20
39.1195186711
 10
258.0683961641
 20
40.253914129
 10
258.5565715858
 20
41.3794094851
 10
259.1359343485
 20
42.4767466102
 10
259.7965703939
 20
43.5271504157
 10
260.5271771225
 20
44.5126476612
 10
261.3152527254
 20
45.4163766354
 10
262.1473135038
 20
46.2228738302
 10
263.0091226309
 20
46.9183402237
 10
263.8859342251
 20
47.490876098
 10
264.7627458193
 20
47.930685342
 10
265.6245549465
 20
48.230242587
 10
266.4566157249
 20
48.3844223183
 10
267.2446913277
 20
48.3905860676
 10
267.9752980563
 20
48.2486293957
 10
268.6359341017
 20
47.9609797325
 10
269.2152968644
 20
47.5325606149
 10
269.7034722861
 20
46.9707006035
 10
270.0921083763
 20
46.2850148241
 10
270.374554823
 20
45.4872346113
 10
270.4475551403
 20
45.1831498302
  0
LWPOLYLINE
  5
2B6
330
1F
100
AcDbEntity
  8
0
  6
Continuous
 62
     7
370
     0
100
AcDbPolyline
 90
       12
 70
   128
 43
0.0
 10
262.4482051236
 20
31.3263676806
 10
262.1473135038
 20
31.237234682
 10
261.3152527254
 20
31.0830549507
 10
260.5271771225
 20
31.0768912014
 10
259.7965703939
 20
31.2188478733
 10
259.1359343485
 20
31.5064975365
 10
258.5565715858
 20
31.9349166541
 10
258.0683961641
 20
32.4967766655
 10
257.679760074
 20
33.1824624449
 10
257.3973136272
 20
33.9802426577
 10
257.2258892234
 20
34.8764668269
 10
257.1684200198
 20
35.855800228
  0
LWPOLYLINE
  5
2B7
330
1F
100
AcDbEntity
  8
0
  6
Continuous
 62
     7
370
     0
100
AcDbPolyline
 90
       22
 70
   128
 43
0.0
 10
241.9729569304
 20
38.9438059244
 10
242.4216931094
 20
40.7272261055
 10
242.975712116
 20
42.5245274031
 10
243.6313853699
 20
44.3239362908
 10
244.3844165268
 20
46.113665997
 10
245.2298744054
 20
47.881992928
 10
246.1622193293
 20
49.6173342329
 10
247.1753452738
 20
51.3083215643
 10
248.2626154274
 20
52.9438778821
 10
249.4169076312
 20
54.5132908335
 10
250.6306604771
 20
56.0062804304
 10
251.8959233574
 20
57.4130659647
 10
253.2044084894
 20
58.7244310237
 10
254.5475442577
 20
59.9317877438
 10
255.9165330017
 20
61.0272253797
 10
257.3024069092
 20
62.0035699482
 10
258.6960879236
 20
62.8544264159
 10
260.0884467041
 20
63.5742188207
 10
261.4703626768
 20
64.1582340633
 10
262.832783921
 20
64.6026473537
 10
264.1667853478
 20
64.9045451506
 10
264.2283994305
 20
64.9151497276
  0
LWPOLYLINE
  5
2B8
330
1F
100
AcDbEntity
  8
0
  6
Continuous
 62
     7
370
     0
100
AcDbPolyline
 90
       20
 70
   128
 43
0.0
 10
245.2509247806
 20
37.9205799922
 10
245.6826468037
 20
39.6349262638
 10
246.2184807623
 20
41.3627929221
 10
246.8547085139
 20
43.092187816
 10
247.5869125422
 20
44.811106693
 10
248.4100115177
 20
46.5076191275
 10
249.3182919082
 20
48.1699498877
 10
250.3054514427
 20
49.7865625826
 10
251.3646366487
 20
51.346235324
 10
252.4884961936
 20
52.8381432323
 10
253.6692309351
 20
54.2519299149
 10
254.8986439694
 20
55.577785029
 10
256.1682035233
 20
56.8065049224
 10
257.4690972835
 20
57.9295620209
 10
258.7922961108
 20
58.9391598604
 10
260.1286161492
 20
59.8282932769
 10
261.46878217
 20
60.5907895367
 10
262.8034923552
 20
61.2213563818
 10
264.1234830829
 20
61.7156163878
 10
265.266801301
 20
62.0353434488
  0
LINE
  5
2B9
330
1F
100
AcDbEntity
  8
0
  6
Continuous
 62
     7
370
     0
100
AcDbLine
 10
256.4714510862
 20
55.9032267401
 30
0.0
 11
256.8301820116
 21
56.240330994
 31
0.0
  0
LWPOLYLINE
  5
2BA
330
1F
100
AcDbEntity
  8
0
  6
Continuous
 62
     7
370
     0
100
AcDbPolyline
 90
       23
 70
   128
 43
0.0
 10
244.6734569797
 20
37.9137783769
 10
245.1038092302
 20
39.6484124061
 10
245.6392875748
 20
41.397464073
 10
246.2762094324
 20
43.1489115652
 10
247.0101994334
 20
44.8907186867
 10
247.8362131268
 20
46.6109154644
 10
248.748572542
 20
48.2976772332
 10
249.741007018
 20
49.9394143665
 10
250.8066966681
 20
51.5248407141
 10
251.9383171601
 20
53.0430618113
 10
253.128091742
 20
54.4836429359
 10
254.367842608
 20
55.8366843888
 10
255.6490501679
 20
57.0928861281
 10
256.9629086938
 20
58.2436148744
 10
258.300388388
 20
59.2809627561
 10
259.6522972863
 20
60.1977997751
 10
261.00934419
 20
60.9878253463
 10
262.3622026683
 20
61.6456082872
 10
263.7015746901
 20
62.1666296352
 10
265.0182557377
 20
62.5473080698
 10
266.3031959279
 20
62.7850275923
 10
267.5475651666
 20
62.878153846
 10
268.5129202925
 20
62.8476903758
  0
ARC
  5
2BB
330
1F
100
AcDbEntity
  8
0
  6
Continuous
 62
     7
370
     0
100
AcDbCircle
 10
263.2559585227
 20
35.44401043
 30
0.0
 40
3.987538022054123
100
AcDbArc
 50
174.0725494964
 51
234.615277059
  0
LWPOLYLINE
  5
2BC
330
1F
100
AcDbEntity
  8
0
  6
Continuous
 62
     7
370
     0
100
AcDbPolyline
 90
       18
 70
   128
 43
0.0
 10
268.9462695791
 20
46.049823335
 10
268.651046381
 20
46.1967699958
 10
268.0049210347
 20
46.3823096142
 10
267.2965367259
 20
46.420038484
 10
266.5403145915
 20
46.3091888958
 10
265.7516488505
 20
46.0520168864
 10
264.9465945707
 20
45.6537592556
 10
264.141540291
 20
45.122521
 10
263.3528745499
 20
44.4691189267
 10
262.5966524156
 20
43.7068530235
 10
261.8882681068
 20
42.8512410398
 10
261.2421427605
 20
41.9197009756
 10
260.6714293213
 20
40.9311963053
 10
260.1877458316
 20
39.9058500684
 10
259.8009388489
 20
38.8645350967
 10
259.5188825898
 20
37.8284500754
 10
259.3473192331
 20
36.8186865692
 10
259.2897400526
 20
35.8557998479
  0
LWPOLYLINE
  5
2BD
330
1F
100
AcDbEntity
  8
0
  6
Continuous
 62
     7
370
     0
100
AcDbPolyline
 90
       36
 70
   128
 43
0.0
 10
273.41419805
 20
38.3158929791
 10
272.7829041137
 20
37.8858442901
 10
272.1719004277
 20
37.3383956224
 10
271.600825283
 20
36.6911436705
 10
271.0880333029
 20
35.9648906953
 10
270.65000621
 20
35.18297946
 10
270.3008225335
 20
34.3705410865
 10
270.0517053536
 20
33.5536882472
 10
269.9106615836
 20
32.7586751719
 10
269.8822243147
 20
32.011054153
 10
269.9673072773
 20
31.3348542349
 10
270.1631765239
 20
30.7518093946
 10
270.4635360398
 20
30.2806586703
 10
270.8587322211
 20
29.93654578
 10
271.3360633904
 20
29.7305303769
 10
271.8801874365
 20
29.6692341103
 10
272.4736157221
 20
29.7546274596
 10
273.0972752342
 20
29.9839648997
 10
273.7311208658
 20
30.3498761942
 10
274.3547803778
 20
30.8406006998
 10
274.9482086634
 20
31.440365065
 10
275.4923327095
 20
32.1298935829
 10
275.9696638789
 20
32.8870238233
 10
276.3648600601
 20
33.6874205122
 10
276.665219576
 20
34.505358952
 10
276.8610888227
 20
35.3145496108
 10
276.9461717853
 20
36.0889842266
 10
276.9177345163
 20
36.8037722737
 10
276.7766907463
 20
37.4359396783
 10
276.5275735664
 20
37.965167944
 10
276.1783898899
 20
38.3744474261
 10
275.7403627971
 20
38.6506233449
 10
275.227570817
 20
38.7848193021
 10
274.6564956723
 20
38.7727219266
 10
274.0454919862
 20
38.6147207543
 10
273.41419805
 20
38.3158929791
  0
LINE
  5
2BE
330
1F
100
AcDbEntity
  8
0
  6
Continuous
 62
     7
370
     0
100
AcDbLine
 10
245.7221290988
 20
35.9629539433
 30
0.0
 11
245.7351208649
 21
36.624391845
 31
0.0
  0
LWPOLYLINE
  5
2BF
330
1F
100
AcDbEntity
  8
0
  6
Continuous
 62
     7
370
     0
100
AcDbPolyline
 90
        3
 70
   128
 43
0.0
 10
245.75736123
 20
37.0596779566
 10
245.7780408446
 20
37.350620373
 10
245.8016786412
 20
37.6248040961
  0
LINE
  5
2C0
330
1F
100
AcDbEntity
  8
0
  6
Continuous
 62
     7
370
     0
100
AcDbLine
 10
245.7225808604
 20
35.8412750261
 30
0.0
 11
245.7221290988
 21
35.9629539433
 31
0.0
  0
LWPOLYLINE
  5
2C1
330
1F
100
AcDbEntity
  8
0
  6
Continuous
 62
     7
370
     0
100
AcDbPolyline
 90
       19
 70
   128
 43
0.0
 10
214.6371751284
 20
59.8542604427
 10
214.6939304697
 20
60.928735855
 10
214.8633015317
 20
62.051794469
 10
215.1426165993
 20
63.2057246894
 10
215.5274713269
 20
64.3723287673
 10
216.0117959096
 20
65.5332082527
 10
216.5879528777
 20
66.6700559083
 10
217.2468553046
 20
67.7649422027
 10
217.9781120166
 20
68.8006010404
 10
218.7701909116
 20
69.760699331
 10
219.6106002233
 20
70.630094864
 10
220.4860860851
 20
71.3950769764
 10
221.3828418644
 20
72.0435824579
 10
222.2867249886
 20
72.5653830786
 10
223.1834807678
 20
72.9522497814
 10
224.0589666296
 20
73.1980821292
 10
224.8993759414
 20
73.2990025339
 10
225.6914548363
 20
73.2534190694
 10
226.2955907264
 20
73.1073240384
  0
ARC
  5
2C2
330
1F
100
AcDbEntity
  8
0
  6
Continuous
 62
     7
370
     0
100
AcDbCircle
 10
220.0579228976
 20
59.4238323947
 30
0.0
 40
5.43780973203738
100
AcDbArc
 50
175.4600220549
 51
225.5211364412
  0
LINE
  5
2C3
330
1F
100
AcDbEntity
  8
0
  6
Continuous
 62
     7
370
     0
100
AcDbLine
 10
251.4054990061
 20
36.9586707253
 30
0.0
 11
250.6982775223
 21
37.3669409976
 31
0.0
  0
LWPOLYLINE
  5
2C4
330
1F
100
AcDbEntity
  8
0
  6
Continuous
 62
     7
370
     0
100
AcDbPolyline
 90
       18
 70
   128
 43
0.0
 10
270.8108280472
 20
30.5400707363
 10
271.0936753829
 20
30.4134831136
 10
271.6025773406
 20
30.3295991759
 10
272.1641777586
 20
30.3941776024
 10
272.7581787721
 20
30.6048847974
 10
273.3631117479
 20
30.954105171
 10
273.9571127614
 20
31.4292169481
 10
274.5187131793
 20
32.0130485623
 10
275.027615137
 20
32.6844981937
 10
275.4654257334
 20
33.4192986781
 10
275.8163212963
 20
34.1908918587
 10
276.067619411
 20
34.9713903748
 10
276.2102377609
 20
35.7325853274
 10
276.2390217535
 20
36.4469649837
 10
276.1529308885
 20
37.0887097298
 10
275.9550764595
 20
37.6346251557
 10
275.652610095
 20
38.0649808559
 10
275.323632869
 20
38.3268178053
  0
LINE
  5
2C5
330
1F
100
AcDbEntity
  8
0
  6
Continuous
 62
     7
370
     0
100
AcDbLine
 10
245.8623378344
 20
31.2992015875
 30
0.0
 11
251.4054990061
 21
28.0992027569
 31
0.0
  0
LINE
  5
2C6
330
1F
100
AcDbEntity
  8
0
  6
Continuous
 62
     7
370
     0
100
AcDbLine
 10
245.8016776534
 20
31.2641718265
 30
0.0
 11
245.8623378344
 21
31.2992015875
 31
0.0
  0
LINE
  5
2C7
330
1F
100
AcDbEntity
  8
0
  6
Continuous
 62
     7
370
     0
100
AcDbLine
 10
247.3946211679
 20
23.9512613772
 30
0.0
 11
247.152513865
 21
24.6836155626
 31
0.0
  0
LINE
  5
2C8
330
1F
100
AcDbEntity
  8
0
  6
Continuous
 62
     7
370
     0
100
AcDbLine
 10
250.698392109
 20
26.8744580686
 30
0.0
 11
245.4481241225
 21
29.9053732624
 31
0.0
  0
LINE
  5
2C9
330
1F
100
AcDbEntity
  8
0
  6
Continuous
 62
     7
370
     0
100
AcDbLine
 10
246.1124139374
 20
26.7275378355
 30
0.0
 11
246.0358133574
 21
26.9749243621
 31
0.0
  0
LWPOLYLINE
  5
2CA
330
1F
100
AcDbEntity
  8
0
  6
Continuous
 62
     7
370
     0
100
AcDbPolyline
 90
        3
 70
   128
 43
0.0
 10
245.7218947393
 20
26.1189775908
 10
245.6960350136
 20
26.1801014617
 10
245.2509247806
 20
27.4280308928
  0
ARC
  5
2CB
330
1F
100
AcDbEntity
  8
0
  6
Continuous
 62
     7
370
     0
100
AcDbCircle
 10
255.4583852027
 20
30.4505334639
 30
0.0
 40
11.20229265050879
100
AcDbArc
 50
195.6891556714
 51
214.1128344446
  0
LINE
  5
2CC
330
1F
100
AcDbEntity
  8
0
  6
Continuous
 62
     7
370
     0
100
AcDbLine
 10
242.2169331826
 20
26.9362059195
 30
0.0
 11
241.9729569304
 21
27.673710135
 31
0.0
  0
LINE
  5
2CD
330
1F
100
AcDbEntity
  8
0
  6
Continuous
 62
     7
370
     0
100
AcDbLine
 10
277.1441868992
 20
42.9576986829
 30
0.0
 11
277.8512937963
 21
42.5494945601
 31
0.0
  0
OLE2FRAME
  5
2CE
330
1F
100
AcDbEntity
  8
0
100
AcDbOle2Frame
 70
     2
  3
Paintbrush-Bild
 10
13.8511154363
 20
38.264191557
 30
0.0
 11
51.6290888628
 21
31.9806341108
 31
0.0
 71
     2
 72
     0
 73
     1
 90
    12928
310
80552BED0767C5B32B40DDAF6807D121434000000000000000006FFBDDFB85D0
310
4940DDAF6807D121434000000000000000006FFBDDFB85D04940416F4BD60AFB
310
3F4000000000000000002BED0767C5B32B40416F4BD60AFB3F40000000000000
310
0000000000000100000000010000010000000100000000000100000000320000
310
D0CF11E0A1B11AE1000000000000000000000000000000003E000300FEFF0900
310
0600000000000000000000000100000001000000000000000010000002000000
310
01000000FEFFFFFF0000000000000000FFFFFFFFFFFFFFFFFFFFFFFFFFFFFFFF
310
FFFFFFFFFFFFFFFFFFFFFFFFFFFFFFFFFFFFFFFFFFFFFFFFFFFFFFFFFFFFFFFF
310
FFFFFFFFFFFFFFFFFFFFFFFFFFFFFFFFFFFFFFFFFFFFFFFFFFFFFFFFFFFFFFFF
310
FFFFFFFFFFFFFFFFFFFFFFFFFFFFFFFFFFFFFFFFFFFFFFFFFFFFFFFFFFFFFFFF
310
FFFFFFFFFFFFFFFFFFFFFFFFFFFFFFFFFFFFFFFFFFFFFFFFFFFFFFFFFFFFFFFF
310
FFFFFFFFFFFFFFFFFFFFFFFFFFFFFFFFFFFFFFFFFFFFFFFFFFFFFFFFFFFFFFFF
310
FFFFFFFFFFFFFFFFFFFFFFFFFFFFFFFFFFFFFFFFFFFFFFFFFFFFFFFFFFFFFFFF
310
FFFFFFFFFFFFFFFFFFFFFFFFFFFFFFFFFFFFFFFFFFFFFFFFFFFFFFFFFFFFFFFF
310
FFFFFFFFFFFFFFFFFFFFFFFFFFFFFFFFFFFFFFFFFFFFFFFFFFFFFFFFFFFFFFFF
310
FFFFFFFFFFFFFFFFFFFFFFFFFFFFFFFFFFFFFFFFFFFFFFFFFFFFFFFFFFFFFFFF
310
FFFFFFFFFFFFFFFFFFFFFFFFFFFFFFFFFFFFFFFFFFFFFFFFFFFFFFFFFFFFFFFF
310
FFFFFFFFFFFFFFFFFFFFFFFFFFFFFFFFFFFFFFFFFFFFFFFFFFFFFFFFFFFFFFFF
310
FFFFFFFFFFFFFFFFFFFFFFFFFFFFFFFFFFFFFFFFFFFFFFFFFFFFFFFFFFFFFFFF
310
FFFFFFFFFFFFFFFFFFFFFFFFFFFFFFFFFFFFFFFFFFFFFFFFFFFFFFFFFFFFFFFF
310
FDFFFFFFFEFFFFFFFEFFFFFFFEFFFFFF05000000060000000700000008000000
310
090000000A0000000B0000000C0000000D0000000E0000000F00000010000000
310
11000000120000001300000014000000150000001600000017000000FEFFFFFF
310
FFFFFFFFFFFFFFFFFFFFFFFFFFFFFFFFFFFFFFFFFFFFFFFFFFFFFFFFFFFFFFFF
310
FFFFFFFFFFFFFFFFFFFFFFFFFFFFFFFFFFFFFFFFFFFFFFFFFFFFFFFFFFFFFFFF
310
FFFFFFFFFFFFFFFFFFFFFFFFFFFFFFFFFFFFFFFFFFFFFFFFFFFFFFFFFFFFFFFF
310
FFFFFFFFFFFFFFFFFFFFFFFFFFFFFFFFFFFFFFFFFFFFFFFFFFFFFFFFFFFFFFFF
310
FFFFFFFFFFFFFFFFFFFFFFFFFFFFFFFFFFFFFFFFFFFFFFFFFFFFFFFFFFFFFFFF
310
FFFFFFFFFFFFFFFFFFFFFFFFFFFFFFFFFFFFFFFFFFFFFFFFFFFFFFFFFFFFFFFF
310
FFFFFFFFFFFFFFFFFFFFFFFFFFFFFFFFFFFFFFFFFFFFFFFFFFFFFFFFFFFFFFFF
310
FFFFFFFFFFFFFFFFFFFFFFFFFFFFFFFFFFFFFFFFFFFFFFFFFFFFFFFFFFFFFFFF
310
FFFFFFFFFFFFFFFFFFFFFFFFFFFFFFFFFFFFFFFFFFFFFFFFFFFFFFFFFFFFFFFF
310
FFFFFFFFFFFFFFFFFFFFFFFFFFFFFFFFFFFFFFFFFFFFFFFFFFFFFFFFFFFFFFFF
310
FFFFFFFFFFFFFFFFFFFFFFFFFFFFFFFFFFFFFFFFFFFFFFFFFFFFFFFFFFFFFFFF
310
FFFFFFFFFFFFFFFFFFFFFFFFFFFFFFFFFFFFFFFFFFFFFFFFFFFFFFFFFFFFFFFF
310
FFFFFFFFFFFFFFFFFFFFFFFFFFFFFFFFFFFFFFFFFFFFFFFFFFFFFFFFFFFFFFFF
310
52006F006F007400200045006E00740072007900000000000000000000000000
310
0000000000000000000000000000000000000000000000000000000000000000
310
16000500FFFFFFFFFFFFFFFF020000000A00030000000000C000000000000046
310
000000000000000000000000D00FBA719224D20103000000C000000000000000
310
01004F006C006500000000000000000000000000000000000000000000000000
310
0000000000000000000000000000000000000000000000000000000000000000
310
0A000200FFFFFFFFFFFFFFFFFFFFFFFF00000000000000000000000000000000
310
0000000000000000000000000000000000000000000000001400000000000000
310
010043006F006D0070004F0062006A0000000000000000000000000000000000
310
0000000000000000000000000000000000000000000000000000000000000000
310
120002010100000003000000FFFFFFFF00000000000000000000000000000000
310
0000000000000000000000000000000000000000010000004D00000000000000
310
01004F006C006500310030004E00610074006900760065000000000000000000
310
0000000000000000000000000000000000000000000000000000000000000000
310
1A000200FFFFFFFFFFFFFFFFFFFFFFFF00000000000000000000000000000000
310
0000000000000000000000000000000000000000040000002426000000000000
310
FEFFFFFF02000000FEFFFFFFFFFFFFFFFFFFFFFFFFFFFFFFFFFFFFFFFFFFFFFF
310
FFFFFFFFFFFFFFFFFFFFFFFFFFFFFFFFFFFFFFFFFFFFFFFFFFFFFFFFFFFFFFFF
310
FFFFFFFFFFFFFFFFFFFFFFFFFFFFFFFFFFFFFFFFFFFFFFFFFFFFFFFFFFFFFFFF
310
FFFFFFFFFFFFFFFFFFFFFFFFFFFFFFFFFFFFFFFFFFFFFFFFFFFFFFFFFFFFFFFF
310
FFFFFFFFFFFFFFFFFFFFFFFFFFFFFFFFFFFFFFFFFFFFFFFFFFFFFFFFFFFFFFFF
310
FFFFFFFFFFFFFFFFFFFFFFFFFFFFFFFFFFFFFFFFFFFFFFFFFFFFFFFFFFFFFFFF
310
FFFFFFFFFFFFFFFFFFFFFFFFFFFFFFFFFFFFFFFFFFFFFFFFFFFFFFFFFFFFFFFF
310
FFFFFFFFFFFFFFFFFFFFFFFFFFFFFFFFFFFFFFFFFFFFFFFFFFFFFFFFFFFFFFFF
310
FFFFFFFFFFFFFFFFFFFFFFFFFFFFFFFFFFFFFFFFFFFFFFFFFFFFFFFFFFFFFFFF
310
FFFFFFFFFFFFFFFFFFFFFFFFFFFFFFFFFFFFFFFFFFFFFFFFFFFFFFFFFFFFFFFF
310
FFFFFFFFFFFFFFFFFFFFFFFFFFFFFFFFFFFFFFFFFFFFFFFFFFFFFFFFFFFFFFFF
310
FFFFFFFFFFFFFFFFFFFFFFFFFFFFFFFFFFFFFFFFFFFFFFFFFFFFFFFFFFFFFFFF
310
FFFFFFFFFFFFFFFFFFFFFFFFFFFFFFFFFFFFFFFFFFFFFFFFFFFFFFFFFFFFFFFF
310
FFFFFFFFFFFFFFFFFFFFFFFFFFFFFFFFFFFFFFFFFFFFFFFFFFFFFFFFFFFFFFFF
310
FFFFFFFFFFFFFFFFFFFFFFFFFFFFFFFFFFFFFFFFFFFFFFFFFFFFFFFFFFFFFFFF
310
FFFFFFFFFFFFFFFFFFFFFFFFFFFFFFFFFFFFFFFFFFFFFFFFFFFFFFFFFFFFFFFF
310
0100000200000000000000000000000000000000000000000000000000000000
310
0000000000000000000000000000000000000000000000000000000000000000
310
0100FEFF030A0000FFFFFFFF0A00030000000000C00000000000004607000000
310
5042727573680007000000504272757368000700000050427275736800F439B2
310
7100000000000000000000000000000000000000000000000000000000000000
310
0000000000000000000000000000000000000000000000000000000000000000
310
0000000000000000000000000000000000000000000000000000000000000000
310
0000000000000000000000000000000000000000000000000000000000000000
310
0000000000000000000000000000000000000000000000000000000000000000
310
0000000000000000000000000000000000000000000000000000000000000000
310
0000000000000000000000000000000000000000000000000000000000000000
310
0000000000000000000000000000000000000000000000000000000000000000
310
0000000000000000000000000000000000000000000000000000000000000000
310
0000000000000000000000000000000000000000000000000000000000000000
310
0000000000000000000000000000000000000000000000000000000000000000
310
0000000000000000000000000000000000000000000000000000000000000000
310
20260000424D0E260000000000003E00000028000000B40200006E0000000100
310
01000000000000000000130B0000130B00000200000002000000000000FFFFFF
310
FFFFFFFFFFFFFFFFFFFFFFFFFFFFFFFFFFFFFFFFFFFFFFFFFFFFFFFFFFFFFFFF
310
FFFFFFFFFFFFFFFFFFFFFFFFFFFFFFFFFFFFFFFFFFFFFFFFFFFFFFFFFFFFFFFF
310
FFFFFFFFFFFFFFFFFFFFFFFFFFFFFFFFFFFFFFFFFFFFFFFFF000FFFFFFFFFFFF
310
FFFFFFFFFFFFFFFFFFFFFFFFFFFFFFFFFFFFFFFFFFFFFFFFFFFFFFFFFFFFFFFF
310
FFFFFFFFFFFFFFFFFFFFFFFFFFFFFFFFFFFFFFFFFFFFFFFFFFFFFFFFFFFFFFFF
310
FFFFFFFFFFFFFFFFFFFFFFFFFFFFFFFFF000FFFFFFFFFFFFFFFFFFFFFFFFFFFF
310
FFFFFFFFFFFFFFFFFFFFFFFFFFFFFFFFFFFFFFFFFFFFFFFFFFFFFFFFFFFFFFFF
310
FFFFFFFFFFFFFFFFFFFFFFFFFFFFFFFFFFFFFFFFFFFFFFFFFFFFFFFFFFFFFFFF
310
FFFFFFFFFFFFFFFFF000FFFFFFFFFFFFFFFFFFFFFFFFFFFFFFFFFFFFFFFFFFFF
310
FFFFFFFFFFFFFFFFFFFFFFFFFFFFFFFFFFFFFFFFFFFFFFFFFFFFFFFFFFFFFFFF
310
FFFFFFFFFFFFFFFFFFFFFFFFFFFFFFFFFFFFFFFFFFFFFFFFFFFFFFFFFFFFFFFF
310
F000FFFFFFFFFFFFFFFFFFFFFFFFFFFFFFFFFFFFFFFFFFFFFFFFFFFFFFFFFFFF
310
FFFFFFFFFFFFFFFFFFFFFFFFFFFFFFFFFFFFFFFFFFFFFFFFFFFFFFFFFFFFFFFF
310
FFFFFFFFFFFFFFFFFFFFFFFFFFFFFFFFFFFFFFFFFFFFFFFFF000FFFFFFFFFFFF
310
FFFFFFFFFFFFFFFFFFFFFFFFFFFFFFFFFFFFFFFFFFFFFFFFFFFFFFFFFFFFFFFF
310
FFFFFFFFFFFFFFFFFFFFFFFFFFFFFFFFFFFFFFFFFFFFFFFFFFFFFFFFFFFFFFFF
310
FFFFFFFFFFFFFFFFFFFFFFFFFFFFFFFFF000FFFFFFFFFFFFFFFFFFFFFFFFFFFF
310
FFFFFFFFFFFFFFFFFFFFFFFFFFFFFFFFFFFFFFFFFFFFFFFFFFFFFFFFFFFFFFFF
310
FFFFFFFFFFFFFFFFFFFFFFFFFFFFFFFFFFFFFFFFFFFFFFFFFFFFFFFFFFFFFFFF
310
FFFFFFFFFFFFFFFFF000FFFFFFFFFFFFFFFFFFFFFFFFFFFFFFFFFFFFFFFFFFFF
310
FFFFFFFFFFFFFFFFFFFFFFFFFFFFFFFFFFFFFFFFFFFFFFFFFFFFFFFFFFFFFFFF
310
FFFFFFFFFFFFFFFFFFFFFFFFFFFFFFFFFFFFFFFFFFFFFFFFFFFFFFFFFFFFFFFF
310
F000FFFFFFFFFFFFFFFFFFFFFFFFFFFFFFFFFFFFFFFFFFFFFFFFFFFFFFFFFFFF
310
FFFFFFFFFFFFFFFFFFFFFFFFFFFFFFFFFFFFFFFFFFFFFFFFFFFFFFFFFFFFFFFF
310
FFFFFFFFFFFFFFFFFFFFFFFFFFFFFFFFFFFFFFFFFFFFFFFFF000FFFFFFFFFFFF
310
FFFFFFFFFFFFFFFFFFFFFFFFFFFFFFFFFFFFFFFFFFFFFFFFFFFFFFFFFFFFFFFF
310
FFFFFFFFFFFFFFFFFFFFFFFFFFFFFFFFFFFFFFFFFFFFFFFFFFFFFFFFFFFFFFFF
310
FFFFFFFFFFFFFFFFFFFFFFFFFFFFFFFFF000FFFFFFFFFFFFFFFFFFFFFFFFFFFF
310
FFFFFFFFFFFFFFFFFFFFFFFFFFFFFFFFFFFFFFFFFFFFFFFFFFFFFFFFFFFFFFFF
310
FFFFFFFFFFFFFFFFFFFFFFFFFFFFFFFFFFFFFFFFFFFFFFFFFFFFFFFFFFFFFFFF
310
FFFFFFFFFFFFFFFFF000FFFFFFFFFFFFFFFFFFFFFFFFFFFFFFFFFFFFFFFFFFFF
310
FFFFFFFFFFFFFFFFFFFFFFFFFFFFFFFFFFFFFFFFFFFFFFFFFFFFFFFFFFFFFFFF
310
FFFFFFFFFFFFFFFFFFFFFFFFFFFFFFFFFFFFFFFFFFFFFFFFFFFFFFFFFFFFFFFF
310
F000FFFFFFFFFFFFFFFFFFFFFFFFFFFFFFFFFFFFFFFFFFFFFFFFFFFFFFFFFFFF
310
FFFFFFFFFFFFFFFFFFFFFFFFFFFFFFFFFFFFFFFFFFFFFFFFFFFFFFFFFFFFFFFF
310
FFFFFFFFFFFFFFFFFFFFFFFFFFFFFFFFFFFFFFFFFFFFFFFFF000FFFFFFFFFFFF
310
FFFFFFFFFFFFFFFFFFFFFFFFFFFFFFFFFFFFFFFFFFFFFFFFFFFFFFFFFFFFFFFF
310
FFFFFFFFFFFFFFFFFFFFFFFFFFFFFFFFFFFFFFFFFFFFFFFFFFFFFFFFFFFFFFFF
310
FFFFFFFFFFFFFFFFFFFFFFFFFFFFFFFFF000FFFFFFFFFFFFFFFFFFFFFFFFFFFF
310
FFFFFFFFFFFFFFFFFFFFFFFFFFFFFFFFFFFFFFFFFFFFFFFFFFFFFFFFFFFFFFFF
310
FFFFFFFFFFFFFFFFFFFFFFFFFFFFFFFFFFFFFFFFFFFFFFFFFFFFFFFFFFFFFFFF
310
FFFFFFFFFFFFFFFFF000FFFFFFFFFFFFFFFFFFFFFFFFFFFFFFFFFFFFFFFFFFFF
310
FFFFFFFFFFFFFFFFFFFFFFFFFFFFFFFFFFFFFFFFFFFFFFFFFFFFFFFFFFFFFFFF
310
FFFFFFFFFFFFFFFFFFFFFFFFFFFFFFFFFFFFFFFFFFFFFFFFFFFFFFFFFFFFFFFF
310
F000FFFFFFFFFFFFFFFFFFFFFFFFFFFFFFFFFFFFFFFFFFFFFFFFFFFFFFFFFFFF
310
FFFFFFFFFFFFFFFFFFFFFFFFFFFFFFFFFFFFFFFFFFFFFFFFFFFFFFFFFFFFFFFF
310
FFFFFFFFFFFFFFFFFFFFFFFFFFFFFFFFFFFFFFFFFFFFFFFFF000FFFFFFFFFFFF
310
FFFFFFFFFFFFFFFFFFFFFFFFFFFFFFFFFFFFFFFFFFFFFFFFFFFFFFFFFFFFFFFF
310
FFFFFFFFFFFFFFFFFFFFFFFFFFFFFFFFFFFFFFFFFFFFFFFFFFFFFFFFFFFFFFFF
310
FFFFFFFFFFFFFFFFFFFFFFFFFFFFFFFFF000FFFFFFFFFFFFFFFFFFFFFFFFFFFF
310
FFFFFFFFFFFFFFFFFFFFFFFFFFFFFFFFFFFFFFFFFFFFFFFFFFFFFFFFFFFFFFFF
310
FFFFFFFFFFFFFFFFFFFFFFFFFFFFFFFFFFFFFFFFFFFFFFFFFFFFFFFFFFFFFFFF
310
FFFFFFFFFFFFFFFFF000FFFFF80003FFFFFFFFFFFFFFFFFFFFFFFFFFFFFFFFFF
310
FFFFF00007FFFFFFFFFF00007FFFFFF800000000000000007FFFFFFFFFFFFFFF
310
FFFFFFFC001FFFFFFFFFFFFFFC001FFFFFFFFFFFFFFFFFFFFFFFFFFE0007FFFF
310
F000FFFF8000007FFFFFFFF8000FFFFFC0007FFFFF80007FFFFF0000007FFFFF
310
FFF8000007FFFFF800000000000000007FFFFFF0001FFFFFFFFFFFC00001FFFF
310
FFFFFFFFC00001FFFFFFFF000000000003FFFFE000007FFFF000FFFE0000000F
310
FFFFFFF0000FFFFF80007FFFFF80007FFFFC0000001FFFFFFFC0000001FFFFF8
310
00000000000000007FFFFFF0001FFFFFFFFFFE0000003FFFFFFFFFFE0000003F
310
FFFFFF000000000003FFFF0000000FFFF000FFF800000003FFFFFFF00007FFFF
310
80007FFFFF80007FFFF000000007FFFFFF000000003FFFF80000000000000000
310
7FFFFFF0001FFFFFFFFFF80000000FFFFFFFFFF80000000FFFFFFF0000000000
310
03FFFC00000003FFF000FFE000000000FFFFFFF00007FFFF80003FFFFF80007F
310
FFC000000001FFFFFC000000001FFFF800000000000000007FFFFFF0001FFFFF
310
FFFFE000000003FFFFFFFFE000000003FFFFFF000000000003FFF000000000FF
310
F000FF80000000007FFFFFF00007FFFF80003FFFFF80007FFF8000000000FFFF
310
F80000000007FFF800000000000000007FFFFFF0001FFFFFFFFFC000000001FF
310
FFFFFFC000000001FFFFFF000000000003FFC0000000007FF000FF0000000000
310
3FFFFFE00007FFFF00003FFFFF80007FFE00000000003FFFF00000000003FFF8
310
00000000000000007FFFFFF0001FFFFFFFFF8000000000FFFFFFFF8000000000
310
FFFFFF000000000003FF80000000003FF000FE00000000001FFFFFE00003FFFF
310
00003FFFFF80007FFC00000000001FFFE00000000001FFF8000001FFFE000000
310
7FFFFFF0001FFFFFFFFE00000000003FFFFFFE00000000003FFFFF0000000000
310
03FF00000000001FF000FC00000000000FFFFFE00003FFFF00001FFFFF80007F
310
F800000000001FFFC00000000000FFF8000001FFFE0000007FFFFFF0001FFFFF
310
FFFC00000000001FFFFFFC00000000001FFFFF000000000003FE00000000000F
310
F000F8000000000007FFFFE00003FFFF00001FFFFF80007FF800000000000FFF
310
800000000000FFF8000001FFFE0000007FFFFFF0001FFFFFFFF800000000000F
310
FFFFF800000000000FFFFF000000000003FC000000000007F000F80000000000
310
03FFFFC00003FFFE00001FFFFF80007FF0000000000007FF0000000000007FF8
310
000001FFFE0000007FFFFFF0001FFFFFFFF0000000000007FFFFF00000000000
310
07FFFF000000000003F8000000000003F000F0000000000003FFFFC00001FFFE
310
00001FFFFF80007FE0000000000007FE0000000000003FF8000001FFFE000000
310
7FFFFFF0001FFFFFFFF0000000000007FFFFF0000000000007FFFF0000000000
310
03F800001F800003F000E00001FFF00001FFFFC00001FFFE00000FFFFF80007F
310
E00001FFE00003FE00001FFF00003FF8000001FFFE0000007FFFFFF0001FFFFF
310
FFE000003E000003FFFFE000003E000003FFFF000000000003F00001FFF80001
310
F000E00007FFFC0001FFFFC00001FFFE00000FFFFF80007FC0000FFFFC0003FC
310
0000FFFFC0001FF8000001FFFE0000007FFFFFF0001FFFFFFFC00003FFE00001
310
FFFFC00003FFE00001FFFF0001FFFFFFFFF00007FFFE0001F000E0000FFFFF00
310
00FFFF800001FFFC00000FFFFF80007FC0001FFFFE0001FC0001FFFFE0001FF8
310
000001FFFE0000007FFFFFF0001FFFFFFF80000FFFF80000FFFF80000FFFF800
310
00FFFF0003FFFFFFFFE0000FFFFF8000F000C0003FFFFF8000FFFF800000FFFC
310
000007FFFF80007F80003FFFFF0001FC0003FFFFF0001FF8000001FFFE000000
310
7FFFFFF0001FFFFFFF80003FFFFE0000FFFF80003FFFFE0000FFFF0003FFFFFF
310
FFE0003FFFFF8000F000C0003FFFFF8000FFFF800000FFFC000007FFFF80007F
310
80007FFFFF8001F80007FFFFF8000FF8000001FFFE0000007FFFFFF0001FFFFF
310
FF00007FFFFF00007FFF00007FFFFF00007FFF0003FFFFFFFFE0003FFFFFC000
310
F000C0007FFFFFC000FFFF000000FFFC000007FFFF80007F8000FFFFFF8000F8
310
000FFFFFF8000FF8000001FFFE0000007FFFFFF0001FFFFFFF0000FFFFFF8000
310
7FFF0000FFFFFF80007FFF0003FFFFFFFFC0007FFFFFC00070008000FFFFFFC0
310
00FFFF000000FFF8000007FFFF80007F8000FFFFFF8000F8000FFFFFF8000FF8
310
000001FFFE0000007FFFFFF0001FFFFFFE0001FFFFFFC0003FFE0001FFFFFFC0
310
003FFF0003FFFFFFFFC0007FFFFFE00070008000FFFFFFC0007FFF0000007FF8
310
000003FFFF80007F0001FFFFFF8000F8000FFFFFF8000FF8000001FFFE000000
310
7FFFFFF0001FFFFFFE0001FFFFFFC0003FFE0001FFFFFFC0003FFF0003FFFFFF
310
FFC000FFFFFFE00070008000FFFFFFC0007FFF0000007FF8000003FFFF80007F
310
0001FFFFFF8000F8001FFFFFF8000FF8000001FFFE0000007FFFFFF0001FFFFF
310
FE0003FFFFFFE0003FFE0003FFFFFFE0003FFF0003FFFFFFFFC000FFFFFFE000
310
70008000FFFFFFC0007FFE0000007FF8000003FFFF80007F0001FFFFFF8000F0
310
001FFFFFF8000FF8000001FFFE0000007FFFFFF0001FFFFFFC0003FFFFFFE000
310
1FFC0003FFFFFFE0001FFF0003FFFFFFFFC000FFFFFFC00070008000FFFFFF80
310
007FFE0000007FF0000003FFFF80007F0001FFFFFF0000F0001FFFFFF8000FF8
310
000001FFFE0000007FFFFFF0001FFFFFFC0007FFFFFFF0001FFC0007FFFFFFF0
310
001FFF0003FFFFFFFFC000FFFFFFC00070008001FFFFFF0000FFFE0000003FF0
310
000001FFFF80007F0001FFFFFF0000F8001FFFFFF0000FF8000001FFFE000000
310
7FFFFFF0001FFFFFFC0007FFFFFFF0001FFC0007FFFFFFF0001FFF0003FFFFFF
310
FFC001FFFFFF80007000FFFFFFFFFE0000FFFE0008003FF0008001FFFF80007F
310
FFFFFFFFFC0000FFFFFFFFFFE0000FF8000001FFFE0000007FFFFFF0001FFFFF
310
F8000FFFFFFFF8000FF8000FFFFFFFF8000FFF0003FFFFFFFFFFFFFFFFFF0000
310
7000FFFFFFFFFC0000FFFC0008003FF0008001FFFF80007FFFFFFFFFF80001FF
310
FFFFFFFF80000FF8000001FFFE0000007FFFFFF0001FFFFFF8000FFFFFFFF800
310
0FF8000FFFFFFFF8000FFF0003FFFFFFFFFFFFFFFFFE0000F000FFFFFFFFE000
310
00FFFC000C003FE000C001FFFF80007FFFFFFFFFC00001FFFFFFFFFE00001FF8
310
000001FFFE0000007FFFFFF0001FFFFFF8000FFFFFFFF8000FF8000FFFFFFFF8
310
000FFF0003FFFFFFFFFFFFFFFFF00000F000FFFFFFFE000001FFFC000C001FE0
310
00C000FFFF80007FFFFFFFFE000001FFFFFFFFE000001FF80FFFFFFFFFFFFFC0
310
7FFFFFF0001FFFFFF8000FFFFFFFF8000FF8000FFFFFFFF8000FFF0003FFFFFF
310
FFFFFFFFFF800000F000FFFFFFC0000001FFFC001C001FE001C000FFFF80007F
310
FFFFFF80000003FFFFFFF80000001FF80FFFFFFFFFFFFFC07FFFFFF0001FFFFF
310
F8001FFFFFFFFC000FF8001FFFFFFFFC000FFF0003FFFFFFFFFFFFFFF0000001
310
F000FFFFF800000001FFF8001C001FE001C000FFFF80007FFFFFF800000003FF
310
FFFF800000003FF80FFFFFFFFFFFFFC07FFFFFF0001FFFFFF8001FFFFFFFFC00
310
0FF8001FFFFFFFFC000FFF0003FFFFFFFFFFFFFE00000001F000FFFFC0000000
310
03FFF8001E001FC001E000FFFF80007FFFFF8000000007FFFFFC000000003FF8
310
0FFFFFFFFFFFFFC07FFFFFF0001FFFFFF8001FFFFFFFFC000FF8001FFFFFFFFC
310
000FFF0003FFFFFFFFFFFFE000000003F000FFFE0000000007FFF8001E000FC0
310
01E0007FFF80007FFFFE0000000007FFFFE0000000007FF80FFFFFFFFFFFFFC0
310
7FFFFFF0001FFFFFF0001FFFFFFFFC0007F0001FFFFFFFFC0007FF0003FFFFFF
310
FFFFFF0000000003F000FFF80000000007FFF8001E000FC003E0007FFF80007F
310
FFF0000000000FFFFF8000000000FFF80FFFFFFFFFFFFFC07FFFFFF0001FFFFF
310
F0001FFFFFFFFC0007F0001FFFFFFFFC0007FF0003FFFFFFFFFFFC0000000007
310
F000FFE0000000000FFFF0003E000FC003E0007FFF80007FFFC0000000001FFF
310
FE0000000001FFF80FFFFFFFFFFFFFC07FFFFFF0001FFFFFF0001FFFFFFFFC00
310
07F0001FFFFFFFFC0007FF0003FFFFFFFFFFF0000000000FF000FFC000000000
310
1FFFF0003F000F8003F0003FFF80007FFF80000000003FFFF80000000003FFF8
310
0FFFFFFFFFFFFFC07FFFFFF0001FFFFFF0001FFFFFFFFC0007F0001FFFFFFFFC
310
0007FF0003FFFFFFFFFFE0000000001FF000FF00000000007FFFF0003F000780
310
03F0003FFF80007FFF00000000007FFFF00000000007FFF80FFFFFFFFFFFFFC0
310
7FFFFFF0001FFFFFF0001FFFFFFFFC0007F0001FFFFFFFFC0007FF0003FFFFFF
310
FFFF80000000007FF000FE0000000000FFFFE0003F00078007F0003FFF80007F
310
FE0000000001FFFFE0000000001FFFF80FFFFFFFFFFFFFC07FFFFFF0001FFFFF
310
F0001FFFFFFFFC0007F0001FFFFFFFFC0007FF0003FFFFFFFFFF0000000000FF
310
F000FC0000000003FFFFE0007F00078007F0003FFF80007FFC0000000007FFFF
310
C0000000007FFFF80FFFFFFFFFFFFFC07FFFFFF0001FFFFFF8001FFFFFFFFC00
310
0FF8001FFFFFFFFC000FFF0003FFFFFFFFFE0000000003FFF000FC000000000F
310
FFFFE0007F80070007F8001FFF80007FF8000000001FFFFF8000000001FFFFF8
310
0FFFFFFFFFFFFFC07FFFFFF0001FFFFFF8001FFFFFFFFC000FF8001FFFFFFFFC
310
000FFF0003FFFFFFFFFC000000000FFFF000F8000000007FFFFFE0007F800700
310
07F8001FFF80007FF000000000FFFFFF800000000FFFFFF80FFFFFFFFFFFFFC0
310
7FFFFFF0001FFFFFF8000FFFFFFFF8000FF8000FFFFFFFF8000FFF0003FFFFFF
310
FFFC000000007FFFF000F800000007FFFFFFC0007F8003000FF8001FFF80007F
310
F000000007FFFFFF000000007FFFFFF80FFFFFFFFFFFFFC07FFFFFF0001FFFFF
310
F8000FFFFFFFF8000FF8000FFFFFFFF8000FFF0003FFFFFFFFF80000000FFFFF
310
F000F0000000FFFFFFFFC000FF8003000FF8001FFF80007FE0000000FFFFFFFF
310
0000000FFFFFFFF8000001FFFE0000007FFFFFF0001FFFFFF8000FFFFFFFF800
310
0FF8000FFFFFFFF8000FFF0003FFFFFFFFF8000000FFFFFFF000F000000FFFFF
310
FFFFC000FFC002000FF8000FFF80007FE000001FFFFFFFFE000001FFFFFFFFF8
310
000001FFFE0000007FFFFFF0001FFFFFF8000FFFFFFFF8000FF8000FFFFFFFF8
310
000FFF0003FFFFFFFFF000001FFFFFFFF000E00000FFFFFFFFFFC000FFC00200
310
0FFC000FFF80007FE00001FFFFFFFFFE00001FFFFFFFFFF8000001FFFE000000
310
7FFFFFF0001FFFFFFC000FFFFFFFF8001FFC000FFFFFFFF8001FFF0003FFFFFF
310
FFF00001FFFFFFFFF000E00007FFFFFFFFFF8000FFC000001FFC000FFF80007F
310
C0000FFFFFFFFFFE0000FFFFFFFFFFF8000001FFFE0000007FFFFFF0001FFFFF
310
FC0007FFFFFFF0001FFC0007FFFFFFF0001FFF0003FFFFFFFFF00007FFFFFFFF
310
F000E0001FFFFFFFFFFF8000FFC000001FFC000FFF80007FC0003FFFFFFFFFFE
310
0001FFFFFFFFFFF8000001FFFE0000007FFFFFF0001FFFFFFC0007FFFFFFF000
310
1FFC0007FFFFFFF0001FFF0003FFFFFFFFF0001FFFFFFFFFF000E0003FFFFF00
310
03FF8001FFE000001FFC0007FF80007FC0007FFFFF0007FC0003FFFFF0003FF8
310
000001FFFE0000007FFFFFF0001FFFFFFC0003FFFFFFE0001FFC0003FFFFFFE0
310
001FFF0003FFFFFFFFF0003FFFFFFFFFF000E0003FFFFF0001FF8001FFE00000
310
1FFE0007FF80007FC0007FFFFE0003FC0007FFFFE0003FF8000001FFFE000000
310
7FFFFFF0001FFFFFFE0003FFFFFFE0003FFE0003FFFFFFE0003FFF0003FFFFFF
310
FFF0003FFFFF8001F000E0003FFFFF0001FF0001FFE000001FFE0007FF80007F
310
C0007FFFFE0003FC0007FFFFE0003FF8000001FFFE0000007FFFFFF0001FFFFF
310
FE0001FFFFFFC0003FFE0001FFFFFFC0003FFF0003FFFFFFFFF0003FFFFF0001
310
F000E0003FFFFF0003FF0001FFE000003FFE0007FF80007FC0007FFFFE0003FC
310
0007FFFFE0003FF8000001FFFE0000007FFFFFF0001FFFFFFF0001FFFFFFC000
310
7FFF0001FFFFFFC0007FFF0003FFFFFFFFF0003FFFFF0001F000E0003FFFFE00
310
03FF0003FFF000003FFE0003FF80007FC0007FFFFC0003FE0007FFFFE0003FF8
310
000001FFFE0000007FFFFFF0001FFFFFFF0000FFFFFF80007FFF0000FFFFFF80
310
007FFF0003FFFFFFFFF0003FFFFF0001F000E0003FFFFE0003FF0003FFF00000
310
3FFF0003FF80007FC0007FFFFC0007FE0007FFFFC0003FF8000001FFFE000000
310
7FFFFFF0001FFFFFFF80007FFFFF0000FFFF80007FFFFF0000FFFF0003FFFFFF
310
FFF0003FFFFF0003F000E0003FFFFC0003FE0003FFF000003FFF0003FF80007F
310
E0003FFFF80007FE0003FFFFC0007FF8000001FFFE0000007FFFFFF0001FFFFF
310
FF80003FFFFE0000FFFF80003FFFFE0000FFFF0003FFFFFFFFF0001FFFFE0003
310
F000F0001FFFF80003FE0003FFF000007FFF0001FF80007FE0003FFFF00007FE
310
0001FFFF80007FF8000001FFFE0000007FFFFFF0001FFFFFFFC0000FFFF80001
310
FFFFC0000FFFF80001FFFF0003FFFFFFFFF0001FFFFC0003F000F0000FFFF000
310
07FE0007FFF800007FFF0001FF80007FE0001FFFE00007FF0000FFFE00007FF8
310
000001FFFE0000007FFFFFF0001FFFFFFFC00003FFE00001FFFFC00003FFE000
310
01FFFF0003FFFFFFFFF8000FFFF80003F000F00003FFC00007FC0007FFF80000
310
7FFF8001FF80007FF00007FF80000FFF00007FF80000FFF8000001FFFE000000
310
7F80000000000001FFE000003E000003FFFFE000003E000003FFFF0003FFFFFF
310
FFF80003FFE00007F000F800000000000FFC0007FFF800007FFF8001FF80007F
310
F000000000000FFF000000000000FFF8000001FFFE0000007F80000000000001
310
FFF0000000000007FFFFF0000000000007FFFF0003FFFFFFFFFC00007E000007
310
F000F800000000000FFC0007FFF80000FFFF8000FF80007FF800000000001FFF
310
800000000001FFF8000001FFFE0000007F80000000000001FFF800000000000F
310
FFFFF800000000000FFFFF0003FFFFFFFFFC00000000000FF000FC0000000000
310
1FFC0007FFFC0000FFFF8000FF80007FF800000000003FFFC00000000001FFF8
310
000001FFFE0000007F80000000000001FFF800000000000FFFFFF80000000000
310
0FFFFF0003FFFFFFFFFE00000000001FF000FE00000000003FF8000FFFFC0000
310
FFFF8000FF80007FFC00000000003FFFC00000000003FFF8000001FFFE000000
310
7F80000000000001FFFC00000000001FFFFFFC00000000001FFFFF0003FFFFFF
310
FFFF00000000001FF000FF00000000003FF8000FFFFC0000FFFFC000FF80007F
310
FE00000000007FFFE00000000007FFF8000001FFFE0000007F80000000000001
310
FFFE00000000003FFFFFFE00000000003FFFFF0003FFFFFFFFFF80000000003F
310
F000FF80000000007FF8000FFFFC0001FFFFC0007F80007FFF0000000000FFFF
310
F0000000000FFFF800000000000000007F80000000000001FFFF8000000000FF
310
FFFFFF8000000000FFFFFF0003FFFFFFFFFFC0000000007FF000FFC000000000
310
FFF8000FFFFE0001FFFFC0007F80007FFF8000000001FFFFF8000000001FFFF8
310
00000000000000007F80000000000001FFFFC000000001FFFFFFFFC000000001
310
FFFFFF0003FFFFFFFFFFE000000000FFF000FFE000000003FFF0001FFFFE0001
310
FFFFC0007F80007FFFC000000007FFFFFE000000003FFFF80000000000000000
310
7F80000000000001FFFFE000000003FFFFFFFFE000000003FFFFFF0003FFFFFF
310
FFFFF000000003FFF000FFF80000000FFFF0001FFFFE0001FFFFE0007F80007F
310
FFF00000000FFFFFFF00000000FFFFF800000000000000007F80000000000001
310
FFFFF80000000FFFFFFFFFF80000000FFFFFFF0003FFFFFFFFFFFC0000000FFF
310
F000FFFE0000003FFFF0001FFFFE0003FFFFE0003F80007FFFFC0000003FFFFF
310
FFC0000003FFFFF800000000000000007F80000000000001FFFFFE0000003FFF
310
FFFFFFFE0000003FFFFFFF0003FFFFFFFFFFFF0000003FFFF000FFFF800000FF
310
FFF0001FFFFF0003FFFFE0003F80007FFFFF000001FFFFFFFFF800001FFFFFF8
310
00000000000000007F80000000000001FFFFFFC00001FFFFFFFFFFFFC00001FF
310
FFFFFF0003FFFFFFFFFFFFC00000FFFFF000FFFFF8000FFFFFFFFFFFFFFFFFFF
310
FFFFFFFFFFFFFFFFFFFFF0001FFFFFFFFFFF0000FFFFFFF80000000000000000
310
7FFFFFFFFFFFFFFFFFFFFFFC001FFFFFFFFFFFFFFC001FFFFFFFFFFFFFFFFFFF
310
FFFFFFFC001FFFFFF000FFFFFFFFFFFFFFFFFFFFFFFFFFFFFFFFFFFFFFFFFFFF
310
FFFFFFFFFFFFFFFFFFFFFFFFFFFFFFFFFFFFFFFFFFFFFFFFFFFFFFFFFFFFFFFF
310
FFFFFFFFFFFFFFFFFFFFFFFFFFFFFFFFFFFFFFFFFFFFFFFFFFFFFFFFFFFFFFFF
310
F000FFFFFFFFFFFFFFFFFFFFFFFFFFFFFFFFFFFFFFFFFFFFFFFFFFFFFFFFFFFF
310
FFFFFFFFFFFFFFFFFFFFFFFFFFFFFFFFFFFFFFFFFFFFFFFFFFFFFFFFFFFFFFFF
310
FFFFFFFFFFFFFFFFFFFFFFFFFFFFFFFFFFFFFFFFFFFFFFFFF000FFFFFFFFFFFF
310
FFFFFFFFFFFFFFFFFFFFFFFFFFFFFFFFFFFFFFFFFFFFFFFFFFFFFFFFFFFFFFFF
310
FFFFFFFFFFFFFFFFFFFFFFFFFFFFFFFFFFFFFFFFFFFFFFFFFFFFFFFFFFFFFFFF
310
FFFFFFFFFFFFFFFFFFFFFFFFFFFFFFFFF000FFFFFFFFFFFFFFFFFFFFFFFFFFFF
310
FFFFFFFFFFFFFFFFFFFFFFFFFFFFFFFFFFFFFFFFFFFFFFFFFFFFFFFFFFFFFFFF
310
FFFFFFFFFFFFFFFFFFFFFFFFFFFFFFFFFFFFFFFFFFFFFFFFFFFFFFFFFFFFFFFF
310
FFFFFFFFFFFFFFFFF000FFFFFFFFFFFFFFFFFFFFFFFFFFFFFFFFFFFFFFFFFFFF
310
FFFFFFFFFFFFFFFFFFFFFFFFFFFFFFFFFFFFFFFFFFFFFFFFFFFFFFFFFFFFFFFF
310
FFFFFFFFFFFFFFFFFFFFFFFFFFFFFFFFFFFFFFFFFFFFFFFFFFFFFFFFFFFFFFFF
310
F000FFFFFFFFFFFFFFFFFFFFFFFFFFFFFFFFFFFFFFFFFFFFFFFFFFFFFFFFFFFF
310
FFFFFFFFFFFFFFFFFFFFFFFFFFFFFFFFFFFFFFFFFFFFFFFFFFFFFFFFFFFFFFFF
310
FFFFFFFFFFFFFFFFFFFFFFFFFFFFFFFFFFFFFFFFFFFFFFFFF000FFFFFFFFFFFF
310
FFFFFFFFFFFFFFFFFFFFFFFFFFFFFFFFFFFFFFFFFFFFFFFFFFFFFFFFFFFFFFFF
310
FFFFFFFFFFFFFFFFFFFFFFFFFFFFFFFFFFFFFFFFFFFFFFFFFFFFFFFFFFFFFFFF
310
FFFFFFFFFFFFFFFFFFFFFFFFFFFFFFFFF000FFFFFFFFFFFFFFFFFFFFFFFFFFFF
310
FFFFFFFFFFFFFFFFFFFFFFFFFFFFFFFFFFFFFFFFFFFFFFFFFFFFFFFFFFFFFFFF
310
FFFFFFFFFFFFFFFFFFFFFFFFFFFFFFFFFFFFFFFFFFFFFFFFFFFFFFFFFFFFFFFF
310
FFFFFFFFFFFFFFFFF000FFFFFFFFFFFFFFFFFFFFFFFFFFFFFFFFFFFFFFFFFFFF
310
FFFFFFFFFFFFFFFFFFFFFFFFFFFFFFFFFFFFFFFFFFFFFFFFFFFFFFFFFFFFFFFF
310
FFFFFFFFFFFFFFFFFFFFFFFFFFFFFFFFFFFFFFFFFFFFFFFFFFFFFFFFFFFFFFFF
310
F000FFFFFFFFFFFFFFFFFFFFFFFFFFFFFFFFFFFFFFFFFFFFFFFFFFFFFFFFFFFF
310
FFFFFFFFFFFFFFFFFFFFFFFFFFFFFFFFFFFFFFFFFFFFFFFFFFFFFFFFFFFFFFFF
310
FFFFFFFFFFFFFFFFFFFFFFFFFFFFFFFFFFFFFFFFFFFFFFFFF000FFFFFFFFFFFF
310
FFFFFFFFFFFFFFFFFFFFFFFFFFFFFFFFFFFFFFFFFFFFFFFFFFFFFFFFFFFFFFFF
310
FFFFFFFFFFFFFFFFFFFFFFFFFFFFFFFFFFFFFFFFFFFFFFFFFFFFFFFFFFFFFFFF
310
FFFFFFFFFFFFFFFFFFFFFFFFFFFFFFFFF000FFFFFFFFFFFFFFFFFFFFFFFFFFFF
310
FFFFFFFFFFFFFFFFFFFFFFFFFFFFFFFFFFFFFFFFFFFFFFFFFFFFFFFFFFFFFFFF
310
FFFFFFFFFFFFFFFFFFFFFFFFFFFFFFFFFFFFFFFFFFFFFFFFFFFFFFFFFFFFFFFF
310
FFFFFFFFFFFFFFFFF000FFFFFFFFFFFFFFFFFFFFFFFFFFFFFFFFFFFFFFFFFFFF
310
FFFFFFFFFFFFFFFFFFFFFFFFFFFFFFFFFFFFFFFFFFFFFFFFFFFFFFFFFFFFFFFF
310
FFFFFFFFFFFFFFFFFFFFFFFFFFFFFFFFFFFFFFFFFFFFFFFFFFFFFFFFFFFFFFFF
310
F000FFFFFFFFFFFFFFFFFFFFFFFFFFFFFFFFFFFFFFFFFFFFFFFFFFFFFFFFFFFF
310
FFFFFFFFFFFFFFFFFFFFFFFFFFFFFFFFFFFFFFFFFFFFFFFFFFFFFFFFFFFFFFFF
310
FFFFFFFFFFFFFFFFFFFFFFFFFFFFFFFFFFFFFFFFFFFFFFFFF000FFFFFFFFFFFF
310
FFFFFFFFFFFFFFFFFFFFFFFFFFFFFFFFFFFFFFFFFFFFFFFFFFFFFFFFFFFFFFFF
310
FFFFFFFFFFFFFFFFFFFFFFFFFFFFFFFFFFFFFFFFFFFFFFFFFFFFFFFFFFFFFFFF
310
FFFFFFFFFFFFFFFFFFFFFFFFFFFFFFFFF000FFFFFFFFFFFFFFFFFFFFFFFFFFFF
310
FFFFFFFFFFFFFFFFFFFFFFFFFFFFFFFFFFFFFFFFFFFFFFFFFFFFFFFFFFFFFFFF
310
FFFFFFFFFFFFFFFFFFFFFFFFFFFFFFFFFFFFFFFFFFFFFFFFFFFFFFFFFFFFFFFF
310
FFFFFFFFFFFFFFFFF000FFFFFFFFFFFFFFFFFFFFFFFFFFFFFFFFFFFFFFFFFFFF
310
FFFFFFFFFFFFFFFFFFFFFFFFFFFFFFFFFFFFFFFFFFFFFFFFFFFFFFFFFFFFFFFF
310
FFFFFFFFFFFFFFFFFFFFFFFFFFFFFFFFFFFFFFFFFFFFFFFFFFFFFFFFFFFFFFFF
310
F000FFFFFFFFFFFFFFFFFFFFFFFFFFFFFFFFFFFFFFFFFFFFFFFFFFFFFFFFFFFF
310
FFFFFFFFFFFFFFFFFFFFFFFFFFFFFFFFFFFFFFFFFFFFFFFFFFFFFFFFFFFFFFFF
310
FFFFFFFFFFFFFFFFFFFFFFFFFFFFFFFFFFFFFFFFFFFFFFFFF000FFFFFFFFFFFF
310
FFFFFFFFFFFFFFFFFFFFFFFFFFFFFFFFFFFFFFFFFFFFFFFFFFFFFFFFFFFFFFFF
310
FFFFFFFFFFFFFFFFFFFFFFFFFFFFFFFFFFFFFFFFFFFFFFFFFFFFFFFFFFFFFFFF
310
FFFFFFFFFFFFFFFFFFFFFFFFFFFFFFFFF000FFFFFFFFFFFFFFFFFFFFFFFFFFFF
310
FFFFFFFFFFFFFFFFFFFFFFFFFFFFFFFFFFFFFFFFFFFFFFFFFFFFFFFFFFFFFFFF
310
FFFFFFFFFFFFFFFFFFFFFFFFFFFFFFFFFFFFFFFFFFFFFFFFFFFFFFFFFFFFFFFF
310
FFFFFFFFFFFFFFFFF000FFFFFFFFFFFFFFFFFFFFFFFFFFFFFFFFFFFFFFFFFFFF
310
FFFFFFFFFFFFFFFFFFFFFFFFFFFFFFFFFFFFFFFFFFFFFFFFFFFFFFFFFFFFFFFF
310
FFFFFFFFFFFFFFFFFFFFFFFFFFFFFFFFFFFFFFFFFFFFFFFFFFFFFFFFFFFFFFFF
310
F000FFFFFFFFFFFFFFFFFFFFFFFFFFFFFFFFFFFFFFFFFFFFFFFFFFFFFFFFFFFF
310
FFFFFFFFFFFFFFFFFFFFFFFFFFFFFFFFFFFFFFFFFFFFFFFFFFFFFFFFFFFFFFFF
310
FFFFFFFFFFFFFFFFFFFFFFFFFFFFFFFFFFFFFFFFFFFFFFFFF000FFFFFFFFFFFF
310
FFFFFFFFFFFFFFFFFFFFFFFFFFFFFFFFFFFFFFFFFFFFFFFFFFFFFFFFFFFFFFFF
310
FFFFFFFFFFFFFFFFFFFFFFFFFFFFFFFFFFFFFFFFFFFFFFFFFFFFFFFFFFFFFFFF
310
FFFFFFFFFFFFFFFFFFFFFFFFFFFFFFFFF0000000000000000000000000000000
310
0000000000000000000000000000000000000000000000000000000000000000
310
0000000000000000000000000000000000000000000000000000000000000000
310
0000000000000000000000000000000000000000000000000000000000000000
310
0000000000000000000000000000000000000000000000000000000000000000
310
0000000000000000000000000000000000000000000000000000000000000000
310
0000000000000000000000000000000000000000000000000000000000000000
310
0000000000000000000000000000000000000000000000000000000000000000
310
0000000000000000000000000000000000000000000000000000000000000000
310
0000000000000000000000000000000000000000000000000000000000000000
310
0000000000000000000000000000000000000000000000000000000000000000
310
0000000000000000000000000000000000000000000000000000000000000000
310
0000000000000000000000000000000000000000000000000000000000000000
310
0000000000000000000000000000000000000000000000000000000000000000
310
0000000000000000000000000000000000000000000000000000000000000000
310
0000000000000000000000000000000000000000000000000000000000000000
  1
OLE
  0
ENDSEC
  0
SECTION
  2
OBJECTS
  0
DICTIONARY
  5
C
330
0
100
AcDbDictionary
281
     1
  3
ACAD_GROUP
350
D
  3
ACAD_LAYOUT
350
1A
  3
ACAD_MLINESTYLE
350
17
  3
ACAD_PLOTSETTINGS
350
19
  3
ACAD_PLOTSTYLENAME
350
E
  3
ACAD_SCALELIST
350
47
  0
DICTIONARY
  5
D
102
{ACAD_REACTORS
330
C
102
}
330
C
100
AcDbDictionary
281
     1
  0
DICTIONARY
  5
1A
102
{ACAD_REACTORS
330
C
102
}
330
C
100
AcDbDictionary
281
     1
  3
Layout1
350
1E
  3
Layout2
350
26
  3
Model
350
22
  0
DICTIONARY
  5
17
102
{ACAD_REACTORS
330
C
102
}
330
C
100
AcDbDictionary
281
     1
  3
Standard
350
18
  0
DICTIONARY
  5
19
102
{ACAD_REACTORS
330
C
102
}
330
C
100
AcDbDictionary
281
     1
  0
ACDBDICTIONARYWDFLT
  5
E
102
{ACAD_REACTORS
330
C
102
}
330
C
100
AcDbDictionary
281
     1
  3
Normal
350
F
100
AcDbDictionaryWithDefault
340
F
  0
DICTIONARY
  5
47
102
{ACAD_REACTORS
330
C
102
}
330
C
100
AcDbDictionary
281
     1
  3
A0
350
48
  3
A1
350
49
  3
A2
350
4A
  3
A3
350
4B
  3
A4
350
4C
  3
A5
350
4D
  3
A6
350
4E
  3
A7
350
4F
  3
A8
350
50
  3
A9
350
51
  3
B0
350
52
  3
B1
350
53
  3
B2
350
54
  3
B3
350
55
  3
B4
350
56
  3
B5
350
57
  3
B6
350
58
  3
B7
350
59
  3
B8
350
5A
  3
B9
350
5B
  3
C0
350
5C
  3
C1
350
5D
  3
C2
350
5E
  3
C3
350
5F
  3
C4
350
60
  3
C5
350
61
  3
C6
350
62
  3
C7
350
63
  3
C8
350
64
  3
C9
350
65
  3
D0
350
66
  3
D1
350
67
  3
D2
350
68
  0
LAYOUT
  5
1E
102
{ACAD_REACTORS
330
1A
102
}
330
1A
100
AcDbPlotSettings
  1

  2
none_device
  4

  6

 40
0.0
 41
0.0
 42
0.0
 43
0.0
 44
0.0
 45
0.0
 46
0.0
 47
0.0
 48
0.0
 49
0.0
140
0.0
141
0.0
142
1.0
143
1.0
 70
   688
 72
     1
 73
     0
 74
     5
  7

 75
    16
147
1.0
148
0.0
149
0.0
100
AcDbLayout
  1
Layout1
 70
     1
 71
     1
 10
0.0
 20
0.0
 11
420.0
 21
297.0
 12
0.0
 22
0.0
 32
0.0
 14
1.0000000000E+20
 24
1.0000000000E+20
 34
1.0000000000E+20
 15
-1.0000000000E+20
 25
-1.0000000000E+20
 35
-1.0000000000E+20
146
0.0
 13
0.0
 23
0.0
 33
0.0
 16
1.0
 26
0.0
 36
0.0
 17
0.0
 27
1.0
 37
0.0
 76
     0
330
1B
  0
LAYOUT
  5
26
102
{ACAD_REACTORS
330
1A
102
}
330
1A
100
AcDbPlotSettings
  1

  2
none_device
  4

  6

 40
0.0
 41
0.0
 42
0.0
 43
0.0
 44
0.0
 45
0.0
 46
0.0
 47
0.0
 48
0.0
 49
0.0
140
0.0
141
0.0
142
1.0
143
1.0
 70
   688
 72
     1
 73
     0
 74
     5
  7

 75
    16
147
1.0
148
0.0
149
0.0
100
AcDbLayout
  1
Layout2
 70
     1
 71
     2
 10
0.0
 20
0.0
 11
0.0
 21
0.0
 12
0.0
 22
0.0
 32
0.0
 14
0.0
 24
0.0
 34
0.0
 15
0.0
 25
0.0
 35
0.0
146
0.0
 13
0.0
 23
0.0
 33
0.0
 16
1.0
 26
0.0
 36
0.0
 17
0.0
 27
1.0
 37
0.0
 76
     0
330
23
  0
LAYOUT
  5
22
102
{ACAD_REACTORS
330
1A
102
}
330
1A
100
AcDbPlotSettings
  1

  2
none_device
  4
Letter_(8.50_x_11.00_Inches)
  6

 40
6.35
 41
6.35
 42
6.35000508
 43
6.35000508
 44
215.9
 45
279.4
 46
0.0
 47
0.0
 48
0.0
 49
0.0
140
0.0
141
0.0
142
1.0
143
1.0
 70
  1712
 72
     1
 73
     0
 74
     0
  7

 75
     0
147
1.0
148
0.0
149
0.0
100
AcDbLayout
  1
Model
 70
     1
 71
     0
 10
0.0
 20
0.0
 11
297.0
 21
210.0
 12
0.0
 22
0.0
 32
0.0
 14
0.0
 24
0.0
 34
0.0
 15
297.0
 25
210.0
 35
0.0
146
0.0
 13
0.0
 23
0.0
 33
0.0
 16
1.0
 26
0.0
 36
0.0
 17
0.0
 27
1.0
 37
0.0
 76
     0
330
1F
331
29
  0
MLINESTYLE
  5
18
102
{ACAD_REACTORS
330
17
102
}
330
17
100
AcDbMlineStyle
  2
Standard
 70
     0
  3

 62
   256
 51
90.0
 52
90.0
 71
     2
 49
0.5
 62
   256
  6
BYLAYER
 49
-0.5
 62
   256
  6
BYLAYER
  0
ACDBPLACEHOLDER
  5
F
102
{ACAD_REACTORS
330
E
102
}
330
E
  0
SCALE
  5
48
102
{ACAD_REACTORS
330
47
102
}
330
47
100
AcDbScale
 70
     0
300
1:1
140
1.0
141
1.0
290
     1
  0
SCALE
  5
49
102
{ACAD_REACTORS
330
47
102
}
330
47
100
AcDbScale
 70
     0
300
1:2
140
1.0
141
2.0
290
     0
  0
SCALE
  5
4A
102
{ACAD_REACTORS
330
47
102
}
330
47
100
AcDbScale
 70
     0
300
1:4
140
1.0
141
4.0
290
     0
  0
SCALE
  5
4B
102
{ACAD_REACTORS
330
47
102
}
330
47
100
AcDbScale
 70
     0
300
1:5
140
1.0
141
5.0
290
     0
  0
SCALE
  5
4C
102
{ACAD_REACTORS
330
47
102
}
330
47
100
AcDbScale
 70
     0
300
1:8
140
1.0
141
8.0
290
     0
  0
SCALE
  5
4D
102
{ACAD_REACTORS
330
47
102
}
330
47
100
AcDbScale
 70
     0
300
1:10
140
1.0
141
10.0
290
     0
  0
SCALE
  5
4E
102
{ACAD_REACTORS
330
47
102
}
330
47
100
AcDbScale
 70
     0
300
1:16
140
1.0
141
16.0
290
     0
  0
SCALE
  5
4F
102
{ACAD_REACTORS
330
47
102
}
330
47
100
AcDbScale
 70
     0
300
1:20
140
1.0
141
20.0
290
     0
  0
SCALE
  5
50
102
{ACAD_REACTORS
330
47
102
}
330
47
100
AcDbScale
 70
     0
300
1:30
140
1.0
141
30.0
290
     0
  0
SCALE
  5
51
102
{ACAD_REACTORS
330
47
102
}
330
47
100
AcDbScale
 70
     0
300
1:40
140
1.0
141
40.0
290
     0
  0
SCALE
  5
52
102
{ACAD_REACTORS
330
47
102
}
330
47
100
AcDbScale
 70
     0
300
1:50
140
1.0
141
50.0
290
     0
  0
SCALE
  5
53
102
{ACAD_REACTORS
330
47
102
}
330
47
100
AcDbScale
 70
     0
300
1:100
140
1.0
141
100.0
290
     0
  0
SCALE
  5
54
102
{ACAD_REACTORS
330
47
102
}
330
47
100
AcDbScale
 70
     0
300
2:1
140
2.0
141
1.0
290
     0
  0
SCALE
  5
55
102
{ACAD_REACTORS
330
47
102
}
330
47
100
AcDbScale
 70
     0
300
4:1
140
4.0
141
1.0
290
     0
  0
SCALE
  5
56
102
{ACAD_REACTORS
330
47
102
}
330
47
100
AcDbScale
 70
     0
300
8:1
140
8.0
141
1.0
290
     0
  0
SCALE
  5
57
102
{ACAD_REACTORS
330
47
102
}
330
47
100
AcDbScale
 70
     0
300
10:1
140
10.0
141
1.0
290
     0
  0
SCALE
  5
58
102
{ACAD_REACTORS
330
47
102
}
330
47
100
AcDbScale
 70
     0
300
100:1
140
100.0
141
1.0
290
     0
  0
SCALE
  5
59
102
{ACAD_REACTORS
330
47
102
}
330
47
100
AcDbScale
 70
     0
300
1/128" = 1'-0"
140
0.0078125
141
12.0
290
     0
  0
SCALE
  5
5A
102
{ACAD_REACTORS
330
47
102
}
330
47
100
AcDbScale
 70
     0
300
1/64" = 1'-0"
140
0.015625
141
12.0
290
     0
  0
SCALE
  5
5B
102
{ACAD_REACTORS
330
47
102
}
330
47
100
AcDbScale
 70
     0
300
1/32" = 1'-0"
140
0.03125
141
12.0
290
     0
  0
SCALE
  5
5C
102
{ACAD_REACTORS
330
47
102
}
330
47
100
AcDbScale
 70
     0
300
1/16" = 1'-0"
140
0.0625
141
12.0
290
     0
  0
SCALE
  5
5D
102
{ACAD_REACTORS
330
47
102
}
330
47
100
AcDbScale
 70
     0
300
3/32" = 1'-0"
140
0.09375
141
12.0
290
     0
  0
SCALE
  5
5E
102
{ACAD_REACTORS
330
47
102
}
330
47
100
AcDbScale
 70
     0
300
1/8" = 1'-0"
140
0.125
141
12.0
290
     0
  0
SCALE
  5
5F
102
{ACAD_REACTORS
330
47
102
}
330
47
100
AcDbScale
 70
     0
300
3/16" = 1'-0"
140
0.1875
141
12.0
290
     0
  0
SCALE
  5
60
102
{ACAD_REACTORS
330
47
102
}
330
47
100
AcDbScale
 70
     0
300
1/4" = 1'-0"
140
0.25
141
12.0
290
     0
  0
SCALE
  5
61
102
{ACAD_REACTORS
330
47
102
}
330
47
100
AcDbScale
 70
     0
300
3/8" = 1'-0"
140
0.375
141
12.0
290
     0
  0
SCALE
  5
62
102
{ACAD_REACTORS
330
47
102
}
330
47
100
AcDbScale
 70
     0
300
1/2" = 1'-0"
140
0.5
141
12.0
290
     0
  0
SCALE
  5
63
102
{ACAD_REACTORS
330
47
102
}
330
47
100
AcDbScale
 70
     0
300
3/4" = 1'-0"
140
0.75
141
12.0
290
     0
  0
SCALE
  5
64
102
{ACAD_REACTORS
330
47
102
}
330
47
100
AcDbScale
 70
     0
300
1" = 1'-0"
140
1.0
141
12.0
290
     0
  0
SCALE
  5
65
102
{ACAD_REACTORS
330
47
102
}
330
47
100
AcDbScale
 70
     0
300
1-1/2" = 1'-0"
140
1.5
141
12.0
290
     0
  0
SCALE
  5
66
102
{ACAD_REACTORS
330
47
102
}
330
47
100
AcDbScale
 70
     0
300
3" = 1'-0"
140
3.0
141
12.0
290
     0
  0
SCALE
  5
67
102
{ACAD_REACTORS
330
47
102
}
330
47
100
AcDbScale
 70
     0
300
6" = 1'-0"
140
6.0
141
12.0
290
     0
  0
SCALE
  5
68
102
{ACAD_REACTORS
330
47
102
}
330
47
100
AcDbScale
 70
     0
300
1'-0" = 1'-0"
140
12.0
141
12.0
290
     0
  0
ENDSEC
  0
EOF
