  0
SECTION
  2
HEADER
  9
$ACADVER
  1
AC1015
  9
$ACADMAINTVER
 70
     6
  9
$DWGCODEPAGE
  3
ANSI_1252
  9
$INSBASE
 10
0.0
 20
0.0
 30
0.0
  9
$EXTMIN
 10
0.0
 20
0.0
 30
0.0
  9
$EXTMAX
 10
297.0
 20
210.0
 30
0.0
  9
$LIMMIN
 10
0.0
 20
0.0
  9
$LIMMAX
 10
297.0
 20
210.0
  9
$ORTHOMODE
 70
     0
  9
$REGENMODE
 70
     1
  9
$FILLMODE
 70
     1
  9
$QTEXTMODE
 70
     0
  9
$MIRRTEXT
 70
     1
  9
$LTSCALE
 40
1.0
  9
$ATTMODE
 70
     1
  9
$TEXTSIZE
 40
2.0
  9
$TRACEWID
 40
1.0
  9
$TEXTSTYLE
  7
Standard
  9
$CLAYER
  8
0
  9
$CELTYPE
  6
ByLayer
  9
$CECOLOR
 62
   256
  9
$CELTSCALE
 40
1.0
  9
$DISPSILH
 70
     0
  9
$DIMSCALE
 40
1.0
  9
$DIMASZ
 40
3.0
  9
$DIMEXO
 40
0.0
  9
$DIMDLI
 40
3.75
  9
$DIMRND
 40
0.0
  9
$DIMDLE
 40
0.0
  9
$DIMEXE
 40
1.0
  9
$DIMTP
 40
0.0
  9
$DIMTM
 40
0.0
  9
$DIMTXT
 40
2.0
  9
$DIMCEN
 40
2.5
  9
$DIMTSZ
 40
0.0
  9
$DIMTOL
 70
     0
  9
$DIMLIM
 70
     0
  9
$DIMTIH
 70
     1
  9
$DIMTOH
 70
     1
  9
$DIMSE1
 70
     0
  9
$DIMSE2
 70
     0
  9
$DIMTAD
 70
     1
  9
$DIMZIN
 70
     0
  9
$DIMBLK
  1

  9
$DIMASO
 70
     1
  9
$DIMSHO
 70
     1
  9
$DIMPOST
  1

  9
$DIMAPOST
  1

  9
$DIMALT
 70
     0
  9
$DIMALTD
 70
     3
  9
$DIMALTF
 40
0.0393700787
  9
$DIMLFAC
 40
2.0
  9
$DIMTOFL
 70
     1
  9
$DIMTVP
 40
0.0
  9
$DIMTIX
 70
     0
  9
$DIMSOXD
 70
     0
  9
$DIMSAH
 70
     0
  9
$DIMBLK1
  1

  9
$DIMBLK2
  1

  9
$DIMSTYLE
  2
ISO-25
  9
$DIMCLRD
 70
     0
  9
$DIMCLRE
 70
     0
  9
$DIMCLRT
 70
     0
  9
$DIMTFAC
 40
1.0
  9
$DIMGAP
 40
1.524
  9
$DIMJUST
 70
     0
  9
$DIMSD1
 70
     0
  9
$DIMSD2
 70
     0
  9
$DIMTOLJ
 70
     0
  9
$DIMTZIN
 70
     0
  9
$DIMALTZ
 70
     0
  9
$DIMALTTZ
 70
     0
  9
$DIMUPT
 70
     0
  9
$DIMDEC
 70
     2
  9
$DIMTDEC
 70
     3
  9
$DIMALTU
 70
     2
  9
$DIMALTTD
 70
     3
  9
$DIMTXSTY
  7
Standard
  9
$DIMAUNIT
 70
     0
  9
$DIMADEC
 70
     2
  9
$DIMALTRND
 40
0.0
  9
$DIMAZIN
 70
     0
  9
$DIMDSEP
 70
    44
  9
$DIMATFIT
 70
     3
  9
$DIMFRAC
 70
     0
  9
$DIMLDRBLK
  1

  9
$DIMLUNIT
 70
     2
  9
$DIMLWD
 70
    -2
  9
$DIMLWE
 70
    -2
  9
$DIMTMOVE
 70
     0
  9
$LUNITS
 70
     2
  9
$LUPREC
 70
     2
  9
$SKETCHINC
 40
1.0
  9
$FILLETRAD
 40
10.0
  9
$AUNITS
 70
     0
  9
$AUPREC
 70
     2
  9
$MENU
  1
.
  9
$ELEVATION
 40
0.0
  9
$PELEVATION
 40
0.0
  9
$THICKNESS
 40
0.0
  9
$LIMCHECK
 70
     0
  9
$CHAMFERA
 40
0.0
  9
$CHAMFERB
 40
0.0
  9
$CHAMFERC
 40
0.0
  9
$CHAMFERD
 40
0.0
  9
$SKPOLY
 70
     0
  9
$TDCREATE
 40
2457674.675523391
  9
$TDUCREATE
 40
2457674.592190058
  9
$TDUPDATE
 40
2457674.675524711
  9
$TDUUPDATE
 40
2457674.592191377
  9
$TDINDWG
 40
0.0000000116
  9
$TDUSRTIMER
 40
0.0000000116
  9
$USRTIMER
 70
     1
  9
$ANGBASE
 50
0.0
  9
$ANGDIR
 70
     0
  9
$PDMODE
 70
     0
  9
$PDSIZE
 40
-1.0
  9
$PLINEWID
 40
0.0
  9
$SPLFRAME
 70
     0
  9
$SPLINETYPE
 70
     6
  9
$SPLINESEGS
 70
     8
  9
$HANDSEED
  5
295
  9
$SURFTAB1
 70
     6
  9
$SURFTAB2
 70
     6
  9
$SURFTYPE
 70
     6
  9
$SURFU
 70
     6
  9
$SURFV
 70
     6
  9
$UCSBASE
  2

  9
$UCSNAME
  2

  9
$UCSORG
 10
0.0
 20
0.0
 30
0.0
  9
$UCSXDIR
 10
1.0
 20
0.0
 30
0.0
  9
$UCSYDIR
 10
0.0
 20
1.0
 30
0.0
  9
$UCSORTHOREF
  2

  9
$UCSORTHOVIEW
 70
     0
  9
$UCSORGTOP
 10
0.0
 20
0.0
 30
0.0
  9
$UCSORGBOTTOM
 10
0.0
 20
0.0
 30
0.0
  9
$UCSORGLEFT
 10
0.0
 20
0.0
 30
0.0
  9
$UCSORGRIGHT
 10
0.0
 20
0.0
 30
0.0
  9
$UCSORGFRONT
 10
0.0
 20
0.0
 30
0.0
  9
$UCSORGBACK
 10
0.0
 20
0.0
 30
0.0
  9
$PUCSBASE
  2

  9
$PUCSNAME
  2

  9
$PUCSORG
 10
0.0
 20
0.0
 30
0.0
  9
$PUCSXDIR
 10
1.0
 20
0.0
 30
0.0
  9
$PUCSYDIR
 10
0.0
 20
1.0
 30
0.0
  9
$PUCSORTHOREF
  2

  9
$PUCSORTHOVIEW
 70
     0
  9
$PUCSORGTOP
 10
0.0
 20
0.0
 30
0.0
  9
$PUCSORGBOTTOM
 10
0.0
 20
0.0
 30
0.0
  9
$PUCSORGLEFT
 10
0.0
 20
0.0
 30
0.0
  9
$PUCSORGRIGHT
 10
0.0
 20
0.0
 30
0.0
  9
$PUCSORGFRONT
 10
0.0
 20
0.0
 30
0.0
  9
$PUCSORGBACK
 10
0.0
 20
0.0
 30
0.0
  9
$USERI1
 70
     0
  9
$USERI2
 70
     0
  9
$USERI3
 70
     0
  9
$USERI4
 70
     0
  9
$USERI5
 70
     0
  9
$USERR1
 40
0.0
  9
$USERR2
 40
0.0
  9
$USERR3
 40
0.0
  9
$USERR4
 40
0.0
  9
$USERR5
 40
0.0
  9
$WORLDVIEW
 70
     1
  9
$SHADEDGE
 70
     3
  9
$SHADEDIF
 70
    70
  9
$TILEMODE
 70
     1
  9
$MAXACTVP
 70
    64
  9
$PINSBASE
 10
0.0
 20
0.0
 30
0.0
  9
$PLIMCHECK
 70
     0
  9
$PEXTMIN
 10
1.0000000000E+20
 20
1.0000000000E+20
 30
1.0000000000E+20
  9
$PEXTMAX
 10
-1.0000000000E+20
 20
-1.0000000000E+20
 30
-1.0000000000E+20
  9
$PLIMMIN
 10
0.0
 20
0.0
  9
$PLIMMAX
 10
420.0
 20
297.0
  9
$UNITMODE
 70
     0
  9
$VISRETAIN
 70
     1
  9
$PLINEGEN
 70
     0
  9
$PSLTSCALE
 70
     1
  9
$TREEDEPTH
 70
  3020
  9
$CMLSTYLE
  2
Standard
  9
$CMLJUST
 70
     0
  9
$CMLSCALE
 40
20.0
  9
$PROXYGRAPHICS
 70
     1
  9
$MEASUREMENT
 70
     1
  9
$CELWEIGHT
370
    -1
  9
$ENDCAPS
280
     0
  9
$JOINSTYLE
280
     0
  9
$LWDISPLAY
290
     1
  9
$INSUNITS
 70
     4
  9
$HYPERLINKBASE
  1

  9
$STYLESHEET
  1

  9
$XEDIT
290
     1
  9
$CEPSNTYPE
380
     0
  9
$PSTYLEMODE
290
     1
  9
$FINGERPRINTGUID
  2
{0A4941EA-D344-4A74-9177-E99A2B1C195F}
  9
$VERSIONGUID
  2
{FAEB1C32-E019-11D5-929B-00C0DF256EC4}
  9
$EXTNAMES
290
     1
  9
$PSVPSCALE
 40
0.0
  9
$OLESTARTUP
290
     0
  0
ENDSEC
  0
SECTION
  2
CLASSES
  0
CLASS
  1
ACDBDICTIONARYWDFLT
  2
AcDbDictionaryWithDefault
  3
ObjectDBX Classes
 90
        0
280
     0
281
     0
  0
CLASS
  1
VISUALSTYLE
  2
AcDbVisualStyle
  3
ObjectDBX Classes
 90
     4095
280
     0
281
     0
  0
CLASS
  1
MATERIAL
  2
AcDbMaterial
  3
ObjectDBX Classes
 90
     1153
280
     0
281
     0
  0
CLASS
  1
SCALE
  2
AcDbScale
  3
ObjectDBX Classes
 90
     1153
280
     0
281
     0
  0
CLASS
  1
TABLESTYLE
  2
AcDbTableStyle
  3
ObjectDBX Classes
 90
     4095
280
     0
281
     0
  0
CLASS
  1
MLEADERSTYLE
  2
AcDbMLeaderStyle
  3
ACDB_MLEADERSTYLE_CLASS
 90
     4095
280
     0
281
     0
  0
CLASS
  1
SUN
  2
AcDbSun
  3
SCENEOE
 90
     1153
280
     0
281
     0
  0
CLASS
  1
ACDBPLACEHOLDER
  2
AcDbPlaceHolder
  3
ObjectDBX Classes
 90
        0
280
     0
281
     0
  0
CLASS
  1
LAYOUT
  2
AcDbLayout
  3
ObjectDBX Classes
 90
        0
280
     0
281
     0
  0
ENDSEC
  0
SECTION
  2
TABLES
  0
TABLE
  2
VPORT
  5
8
330
0
100
AcDbSymbolTable
 70
     1
  0
VPORT
  5
29
330
8
100
AcDbSymbolTableRecord
100
AcDbViewportTableRecord
  2
*Active
 70
     0
 10
0.0
 20
0.0
 11
1.0
 21
1.0
 12
148.5
 22
105.0
 13
0.0
 23
0.0
 14
10.0
 24
10.0
 15
10.0
 25
10.0
 16
0.0
 26
0.0
 36
1.0
 17
0.0
 27
0.0
 37
0.0
 40
210.0
 41
1.4142857143
 42
50.0
 43
0.0
 44
0.0
 50
0.0
 51
0.0
 71
     0
 72
  2000
 73
     1
 74
     3
 75
     0
 76
     0
 77
     0
 78
     0
281
     0
 65
     1
110
0.0
120
0.0
130
0.0
111
1.0
121
0.0
131
0.0
112
0.0
122
1.0
132
0.0
 79
     0
146
0.0
  0
ENDTAB
  0
TABLE
  2
LTYPE
  5
5
330
0
100
AcDbSymbolTable
 70
     6
  0
LTYPE
  5
14
330
5
100
AcDbSymbolTableRecord
100
AcDbLinetypeTableRecord
  2
ByBlock
 70
     0
  3

 72
    65
 73
     0
 40
0.0
  0
LTYPE
  5
15
330
5
100
AcDbSymbolTableRecord
100
AcDbLinetypeTableRecord
  2
ByLayer
 70
     0
  3

 72
    65
 73
     0
 40
0.0
  0
LTYPE
  5
16
330
5
100
AcDbSymbolTableRecord
100
AcDbLinetypeTableRecord
  2
Continuous
 70
     0
  3
Solid line
 72
    65
 73
     0
 40
0.0
  0
LTYPE
  5
6E
330
5
100
AcDbSymbolTableRecord
100
AcDbLinetypeTableRecord
  2
HIDDEN
 70
     0
  3
Hidden __ __ __ __ __ __ __ __ __ __ __ __ __ __
 72
    65
 73
     2
 40
1.905
 49
1.27
 74
     0
 49
-0.635
 74
     0
  0
LTYPE
  5
6F
330
5
100
AcDbSymbolTableRecord
100
AcDbLinetypeTableRecord
  2
PHANTOM
 70
     0
  3
Phantom ______  __  __  ______  __  __  ______
 72
    65
 73
     6
 40
12.7
 49
6.35
 74
     0
 49
-1.27
 74
     0
 49
1.27
 74
     0
 49
-1.27
 74
     0
 49
1.27
 74
     0
 49
-1.27
 74
     0
  0
LTYPE
  5
70
330
5
100
AcDbSymbolTableRecord
100
AcDbLinetypeTableRecord
  2
CENTER
 70
     0
  3
Center ____ _ ____ _ ____ _ ____ _ ____ _ ____
 72
    65
 73
     4
 40
10.16
 49
6.35
 74
     0
 49
-1.27
 74
     0
 49
1.27
 74
     0
 49
-1.27
 74
     0
  0
LTYPE
  5
71
330
5
100
AcDbSymbolTableRecord
100
AcDbLinetypeTableRecord
  2
CENTERX2
 70
     0
  3
Center (2x) ________  __  ________  __  _____
 72
    65
 73
     4
 40
20.32
 49
12.7
 74
     0
 49
-2.54
 74
     0
 49
2.54
 74
     0
 49
-2.54
 74
     0
  0
LTYPE
  5
72
330
5
100
AcDbSymbolTableRecord
100
AcDbLinetypeTableRecord
  2
DOT2
 70
     0
  3
Dot (.5x) ........................................
 72
    65
 73
     2
 40
0.635
 49
0.0
 74
     0
 49
-0.635
 74
     0
  0
ENDTAB
  0
TABLE
  2
LAYER
  5
2
330
0
100
AcDbSymbolTable
 70
     5
  0
LAYER
  5
10
330
2
100
AcDbSymbolTableRecord
100
AcDbLayerTableRecord
  2
0
 70
     0
 62
     7
  6
Continuous
370
    -3
390
F
  0
LAYER
  5
73
330
2
100
AcDbSymbolTableRecord
100
AcDbLayerTableRecord
  2
FORMAT
 70
     0
 62
     7
  6
Continuous
370
    -3
390
F
  0
LAYER
  5
74
330
2
100
AcDbSymbolTableRecord
100
AcDbLayerTableRecord
  2
VERMASSUNG
 70
     0
 62
     7
  6
Continuous
370
    -3
390
F
  0
LAYER
  5
75
330
2
100
AcDbSymbolTableRecord
100
AcDbLayerTableRecord
  2
KOPF_DÜNN
 70
     0
 62
     7
  6
Continuous
370
    -3
390
F
  0
LAYER
  5
76
330
2
100
AcDbSymbolTableRecord
100
AcDbLayerTableRecord
  2
KOPF_DICK
 70
     0
 62
     7
  6
Continuous
370
    15
390
F
  0
ENDTAB
  0
TABLE
  2
STYLE
  5
3
330
0
100
AcDbSymbolTable
 70
     2
  0
STYLE
  5
11
330
3
100
AcDbSymbolTableRecord
100
AcDbTextStyleTableRecord
  2
Standard
 70
     0
 40
0.0
 41
1.0
 50
0.0
 71
     0
 42
2.0
  3
txt
  4

  0
STYLE
  5
77
330
3
100
AcDbSymbolTableRecord
100
AcDbTextStyleTableRecord
  2
SLDTEXTSTYLE0
 70
     0
 40
0.0
 41
0.7
 50
0.0
 71
     0
 42
2.0
  3
TXT
  4

  0
ENDTAB
  0
TABLE
  2
VIEW
  5
6
330
0
100
AcDbSymbolTable
 70
     0
  0
ENDTAB
  0
TABLE
  2
UCS
  5
7
330
0
100
AcDbSymbolTable
 70
     0
  0
ENDTAB
  0
TABLE
  2
APPID
  5
9
330
0
100
AcDbSymbolTable
 70
     1
  0
APPID
  5
12
330
9
100
AcDbSymbolTableRecord
100
AcDbRegAppTableRecord
  2
ACAD
 70
     0
  0
ENDTAB
  0
TABLE
  2
DIMSTYLE
  5
A
330
0
100
AcDbSymbolTable
 70
     2
100
AcDbDimStyleTable
  0
DIMSTYLE
105
27
330
A
100
AcDbSymbolTableRecord
100
AcDbDimStyleTableRecord
  2
ISO-25
 70
     0
 41
2.5
 42
0.625
 43
3.75
 44
1.25
 73
     0
 74
     0
 77
     1
 78
     8
140
2.5
141
2.5
143
0.0393700787
147
0.625
171
     3
172
     1
178
     0
271
     2
272
     2
274
     3
278
    44
283
     0
284
     8
340
11
  0
DIMSTYLE
105
1B0
102
{ACAD_REACTORS
330
1AF
330
1BC
330
1C7
330
1D3
330
1DD
330
1E7
102
}
330
A
100
AcDbSymbolTableRecord
100
AcDbDimStyleTableRecord
  2
SLDDIMSTYLE0
 70
     0
 41
3.0
 44
0.0
 45
0.000000001
 73
     0
 74
     0
 77
     1
 78
    12
 79
     3
140
2.0
147
0.5
173
     1
178
     0
271
     2
272
     3
276
     2
284
    12
340
77
  0
ENDTAB
  0
TABLE
  2
BLOCK_RECORD
  5
1
330
0
100
AcDbSymbolTable
 70
     7
  0
BLOCK_RECORD
  5
1F
330
1
100
AcDbSymbolTableRecord
100
AcDbBlockTableRecord
  2
*Model_Space
340
22
  0
BLOCK_RECORD
  5
1B
330
1
100
AcDbSymbolTableRecord
100
AcDbBlockTableRecord
  2
*Paper_Space
340
1E
  0
BLOCK_RECORD
  5
23
330
1
100
AcDbSymbolTableRecord
100
AcDbBlockTableRecord
  2
*Paper_Space0
340
26
  0
BLOCK_RECORD
  5
1B1
330
1
100
AcDbSymbolTableRecord
100
AcDbBlockTableRecord
  2
_D
340
0
  0
BLOCK_RECORD
  5
1BD
330
1
100
AcDbSymbolTableRecord
100
AcDbBlockTableRecord
  2
_D_1
340
0
  0
BLOCK_RECORD
  5
1C8
330
1
100
AcDbSymbolTableRecord
100
AcDbBlockTableRecord
  2
_D_2
340
0
  0
BLOCK_RECORD
  5
1D4
330
1
100
AcDbSymbolTableRecord
100
AcDbBlockTableRecord
  2
_D_3
340
0
  0
BLOCK_RECORD
  5
1DE
330
1
100
AcDbSymbolTableRecord
100
AcDbBlockTableRecord
  2
_D_4
340
0
  0
BLOCK_RECORD
  5
1E8
330
1
100
AcDbSymbolTableRecord
100
AcDbBlockTableRecord
  2
_D_5
340
0
  0
ENDTAB
  0
ENDSEC
  0
SECTION
  2
BLOCKS
  0
BLOCK
  5
20
330
1F
100
AcDbEntity
  8
0
100
AcDbBlockBegin
  2
*Model_Space
 70
     0
 10
0.0
 20
0.0
 30
0.0
  3
*Model_Space
  1

  0
ENDBLK
  5
21
330
1F
100
AcDbEntity
  8
0
100
AcDbBlockEnd
  0
BLOCK
  5
1C
330
1B
100
AcDbEntity
 67
     1
  8
0
100
AcDbBlockBegin
  2
*Paper_Space
 70
     0
 10
0.0
 20
0.0
 30
0.0
  3
*Paper_Space
  1

  0
ENDBLK
  5
1D
330
1B
100
AcDbEntity
 67
     1
  8
0
100
AcDbBlockEnd
  0
BLOCK
  5
24
330
23
100
AcDbEntity
  8
0
100
AcDbBlockBegin
  2
*Paper_Space0
 70
     0
 10
0.0
 20
0.0
 30
0.0
  3
*Paper_Space0
  1

  0
ENDBLK
  5
25
330
23
100
AcDbEntity
  8
0
100
AcDbBlockEnd
  0
BLOCK
  5
1B2
330
1B1
100
AcDbEntity
  8
0
100
AcDbBlockBegin
  2
_D
 70
     0
 10
0.0
 20
0.0
 30
0.0
  3
_D
  1

  0
SOLID
  5
1B4
330
1B1
100
AcDbEntity
  8
VERMASSUNG
100
AcDbTrace
 10
44.9219122382
 20
64.0627834163
 30
0.0
 11
45.3719122382
 21
67.0627834163
 31
0.0
 12
44.4719122382
 22
67.0627834163
 32
0.0
 13
44.4719122382
 23
67.0627834163
 33
0.0
  0
SOLID
  5
1B5
330
1B1
100
AcDbEntity
  8
VERMASSUNG
100
AcDbTrace
 10
44.9219122382
 20
161.5127834163
 30
0.0
 11
44.4719122382
 21
158.5127834163
 31
0.0
 12
45.3719122382
 22
158.5127834163
 32
0.0
 13
45.3719122382
 23
158.5127834163
 33
0.0
  0
LINE
  5
1B6
330
1B1
100
AcDbEntity
  8
VERMASSUNG
100
AcDbLine
 10
174.9719122382
 20
64.0627834163
 30
0.0
 11
43.9219122382
 21
64.0627834163
 31
0.0
  0
LINE
  5
1B7
330
1B1
100
AcDbEntity
  8
VERMASSUNG
100
AcDbLine
 10
174.9719122382
 20
161.5127834163
 30
0.0
 11
43.9219122382
 21
161.5127834163
 31
0.0
  0
LINE
  5
1B8
330
1B1
100
AcDbEntity
  8
VERMASSUNG
100
AcDbLine
 10
44.9219122382
 20
64.0627834163
 30
0.0
 11
44.9219122382
 21
161.5127834163
 31
0.0
  0
MTEXT
  5
1B9
330
1B1
100
AcDbEntity
  8
VERMASSUNG
100
AcDbMText
 10
42.1437769819
 20
103.2833477829
 30
0.0
 40
2.0
 41
0.0
 71
     1
 72
     1
  1
ISO 50
  7
SLDTEXTSTYLE0
 11
3.391901413832837E-15
 21
1.0
 31
0.0
 73
     1
 44
1.0
  0
MTEXT
  5
1BA
330
1B1
100
AcDbEntity
  8
VERMASSUNG
100
AcDbMText
 10
42.3437769332
 20
112.2833473955
 30
0.0
 40
2.0
 41
0.0
 71
     1
 72
     1
  1
%%c
  7
SLDTEXTSTYLE0
 11
3.391901413832837E-15
 21
1.0
 31
0.0
 73
     1
 44
1.0
  0
MTEXT
  5
1BB
330
1B1
100
AcDbEntity
  8
VERMASSUNG
100
AcDbMText
 10
42.3437766422
 20
115.8926907283
 30
0.0
 40
2.0
 41
0.0
 71
     1
 72
     1
  1
97.45
  7
SLDTEXTSTYLE0
 11
3.391901413832837E-15
 21
1.0
 31
0.0
 73
     1
 44
1.0
  0
ENDBLK
  5
1B3
330
1B1
100
AcDbEntity
  8
0
100
AcDbBlockEnd
  0
BLOCK
  5
1BE
330
1BD
100
AcDbEntity
  8
0
100
AcDbBlockBegin
  2
_D_1
 70
     0
 10
0.0
 20
0.0
 30
0.0
  3
_D_1
  1

  0
SOLID
  5
1C0
330
1BD
100
AcDbEntity
  8
VERMASSUNG
100
AcDbTrace
 10
250.3001665302
 20
119.7877834163
 30
0.0
 11
249.8501665302
 21
116.7877834163
 31
0.0
 12
250.7501665302
 22
116.7877834163
 32
0.0
 13
250.7501665302
 23
116.7877834163
 33
0.0
  0
SOLID
  5
1C1
330
1BD
100
AcDbEntity
  8
VERMASSUNG
100
AcDbTrace
 10
250.3001665302
 20
105.7877834163
 30
0.0
 11
250.7501665302
 21
108.7877834163
 31
0.0
 12
249.8501665302
 22
108.7877834163
 32
0.0
 13
249.8501665302
 23
108.7877834163
 33
0.0
  0
LINE
  5
1C2
330
1BD
100
AcDbEntity
  8
VERMASSUNG
100
AcDbLine
 10
240.5219122382
 20
119.7877834163
 30
0.0
 11
251.3001665302
 21
119.7877834163
 31
0.0
  0
LINE
  5
1C3
330
1BD
100
AcDbEntity
  8
VERMASSUNG
100
AcDbLine
 10
240.5219122382
 20
105.7877834163
 30
0.0
 11
251.3001665302
 21
105.7877834163
 31
0.0
  0
LINE
  5
1C4
330
1BD
100
AcDbEntity
  8
VERMASSUNG
100
AcDbLine
 10
250.3001665302
 20
119.7877834163
 30
0.0
 11
250.3001665302
 21
105.7877834163
 31
0.0
  0
MTEXT
  5
1C5
330
1BD
100
AcDbEntity
  8
VERMASSUNG
100
AcDbMText
 10
247.7220312253
 20
109.6827832892
 30
0.0
 40
2.0
 41
0.0
 71
     1
 72
     1
  1
%%c
  7
SLDTEXTSTYLE0
 11
-7.044195017643634E-15
 21
1.0
 31
0.0
 73
     1
 44
1.0
  0
MTEXT
  5
1C6
330
1BD
100
AcDbEntity
  8
VERMASSUNG
100
AcDbMText
 10
247.522031274
 20
113.2927833035
 30
0.0
 40
2.0
 41
0.0
 71
     1
 72
     1
  1
14
  7
SLDTEXTSTYLE0
 11
-7.044195017643634E-15
 21
1.0
 31
0.0
 73
     1
 44
1.0
  0
ENDBLK
  5
1BF
330
1BD
100
AcDbEntity
  8
0
100
AcDbBlockEnd
  0
BLOCK
  5
1C9
330
1C8
100
AcDbEntity
  8
0
100
AcDbBlockBegin
  2
_D_2
 70
     0
 10
0.0
 20
0.0
 30
0.0
  3
_D_2
  1

  0
SOLID
  5
1CB
330
1C8
100
AcDbEntity
  8
VERMASSUNG
100
AcDbTrace
 10
256.6001665302
 20
125.2877834163
 30
0.0
 11
256.1501665302
 21
122.2877834163
 31
0.0
 12
257.0501665302
 22
122.2877834163
 32
0.0
 13
257.0501665302
 23
122.2877834163
 33
0.0
  0
SOLID
  5
1CC
330
1C8
100
AcDbEntity
  8
VERMASSUNG
100
AcDbTrace
 10
256.6001665302
 20
100.2877834163
 30
0.0
 11
257.0501665302
 21
103.2877834163
 31
0.0
 12
256.1501665302
 22
103.2877834163
 32
0.0
 13
256.1501665302
 23
103.2877834163
 33
0.0
  0
LINE
  5
1CD
330
1C8
100
AcDbEntity
  8
VERMASSUNG
100
AcDbLine
 10
241.3219122382
 20
125.2877834163
 30
0.0
 11
257.6001665302
 21
125.2877834163
 31
0.0
  0
LINE
  5
1CE
330
1C8
100
AcDbEntity
  8
VERMASSUNG
100
AcDbLine
 10
241.3219122382
 20
100.2877834163
 30
0.0
 11
257.6001665302
 21
100.2877834163
 31
0.0
  0
LINE
  5
1CF
330
1C8
100
AcDbEntity
  8
VERMASSUNG
100
AcDbLine
 10
256.6001665302
 20
125.2877834163
 30
0.0
 11
256.6001665302
 21
100.2877834163
 31
0.0
  0
MTEXT
  5
1D0
330
1C8
100
AcDbEntity
  8
VERMASSUNG
100
AcDbMText
 10
253.822031274
 20
107.682783427
 30
0.0
 40
2.0
 41
0.0
 71
     1
 72
     1
  1
WH
  7
SLDTEXTSTYLE0
 11
-7.044195017643634E-15
 21
1.0
 31
0.0
 73
     1
 44
1.0
  0
MTEXT
  5
1D1
330
1C8
100
AcDbEntity
  8
VERMASSUNG
100
AcDbMText
 10
254.0220312253
 20
111.4827834911
 30
0.0
 40
2.0
 41
0.0
 71
     1
 72
     1
  1
%%c
  7
SLDTEXTSTYLE0
 11
-7.044195017643634E-15
 21
1.0
 31
0.0
 73
     1
 44
1.0
  0
MTEXT
  5
1D2
330
1C8
100
AcDbEntity
  8
VERMASSUNG
100
AcDbMText
 10
253.822031274
 20
115.0927835054
 30
0.0
 40
2.0
 41
0.0
 71
     1
 72
     1
  1
25
  7
SLDTEXTSTYLE0
 11
-7.044195017643634E-15
 21
1.0
 31
0.0
 73
     1
 44
1.0
  0
ENDBLK
  5
1CA
330
1C8
100
AcDbEntity
  8
0
100
AcDbBlockEnd
  0
BLOCK
  5
1D5
330
1D4
100
AcDbEntity
  8
0
100
AcDbBlockBegin
  2
_D_3
 70
     0
 10
0.0
 20
0.0
 30
0.0
  3
_D_3
  1

  0
SOLID
  5
1D7
330
1D4
100
AcDbEntity
  8
VERMASSUNG
100
AcDbTrace
 10
241.5219122382
 20
167.5393408857
 30
0.0
 11
238.5219122382
 21
167.9893408857
 31
0.0
 12
238.5219122382
 22
167.0893408857
 32
0.0
 13
238.5219122382
 23
167.0893408857
 33
0.0
  0
SOLID
  5
1D8
330
1D4
100
AcDbEntity
  8
VERMASSUNG
100
AcDbTrace
 10
175.5719122382
 20
167.5393408857
 30
0.0
 11
178.5719122382
 21
167.0893408857
 31
0.0
 12
178.5719122382
 22
167.9893408857
 32
0.0
 13
178.5719122382
 23
167.9893408857
 33
0.0
  0
LINE
  5
1D9
330
1D4
100
AcDbEntity
  8
VERMASSUNG
100
AcDbLine
 10
241.5219122382
 20
125.0877834163
 30
0.0
 11
241.5219122382
 21
168.5393408857
 31
0.0
  0
LINE
  5
1DA
330
1D4
100
AcDbEntity
  8
VERMASSUNG
100
AcDbLine
 10
175.5719122382
 20
159.0827703695
 30
0.0
 11
175.5719122382
 21
168.5393408857
 31
0.0
  0
LINE
  5
1DB
330
1D4
100
AcDbEntity
  8
VERMASSUNG
100
AcDbLine
 10
241.5219122382
 20
167.5393408857
 30
0.0
 11
175.5719122382
 21
167.5393408857
 31
0.0
  0
MTEXT
  5
1DC
330
1D4
100
AcDbEntity
  8
VERMASSUNG
100
AcDbMText
 10
205.446912382
 20
170.1174764816
 30
0.0
 40
2.0
 41
0.0
 71
     1
 72
     1
  1
65.95
  7
SLDTEXTSTYLE0
 73
     1
 44
1.0
  0
ENDBLK
  5
1D6
330
1D4
100
AcDbEntity
  8
0
100
AcDbBlockEnd
  0
BLOCK
  5
1DF
330
1DE
100
AcDbEntity
  8
0
100
AcDbBlockBegin
  2
_D_4
 70
     0
 10
0.0
 20
0.0
 30
0.0
  3
_D_4
  1

  0
SOLID
  5
1E1
330
1DE
100
AcDbEntity
  8
VERMASSUNG
100
AcDbTrace
 10
241.5219122382
 20
173.5393408857
 30
0.0
 11
238.5219122382
 21
173.9893408857
 31
0.0
 12
238.5219122382
 22
173.0893408857
 32
0.0
 13
238.5219122382
 23
173.0893408857
 33
0.0
  0
SOLID
  5
1E2
330
1DE
100
AcDbEntity
  8
VERMASSUNG
100
AcDbTrace
 10
156.5219122382
 20
173.5393408857
 30
0.0
 11
159.5219122382
 21
173.0893408857
 31
0.0
 12
159.5219122382
 22
173.9893408857
 32
0.0
 13
159.5219122382
 23
173.9893408857
 33
0.0
  0
LINE
  5
1E3
330
1DE
100
AcDbEntity
  8
VERMASSUNG
100
AcDbLine
 10
241.5219122382
 20
125.0877834163
 30
0.0
 11
241.5219122382
 21
174.5393408857
 31
0.0
  0
LINE
  5
1E4
330
1DE
100
AcDbEntity
  8
VERMASSUNG
100
AcDbLine
 10
156.5219122382
 20
147.7127834163
 30
0.0
 11
156.5219122382
 21
174.5393408857
 31
0.0
  0
LINE
  5
1E5
330
1DE
100
AcDbEntity
  8
VERMASSUNG
100
AcDbLine
 10
241.5219122382
 20
173.5393408857
 30
0.0
 11
156.5219122382
 21
173.5393408857
 31
0.0
  0
MTEXT
  5
1E6
330
1DE
100
AcDbEntity
  8
VERMASSUNG
100
AcDbMText
 10
197.6219122881
 20
176.1174764816
 30
0.0
 40
2.0
 41
0.0
 71
     1
 72
     1
  1
85
  7
SLDTEXTSTYLE0
 73
     1
 44
1.0
  0
ENDBLK
  5
1E0
330
1DE
100
AcDbEntity
  8
0
100
AcDbBlockEnd
  0
BLOCK
  5
1E9
330
1E8
100
AcDbEntity
  8
0
100
AcDbBlockBegin
  2
_D_5
 70
     0
 10
0.0
 20
0.0
 30
0.0
  3
_D_5
  1

  0
SOLID
  5
1EB
330
1E8
100
AcDbEntity
  8
VERMASSUNG
100
AcDbTrace
 10
241.5219122382
 20
179.5393408857
 30
0.0
 11
238.5219122382
 21
179.9893408857
 31
0.0
 12
238.5219122382
 22
179.0893408857
 32
0.0
 13
238.5219122382
 23
179.0893408857
 33
0.0
  0
SOLID
  5
1EC
330
1E8
100
AcDbEntity
  8
VERMASSUNG
100
AcDbTrace
 10
54.9219122382
 20
179.5393408857
 30
0.0
 11
57.9219122382
 21
179.0893408857
 31
0.0
 12
57.9219122382
 22
179.9893408857
 32
0.0
 13
57.9219122382
 23
179.9893408857
 33
0.0
  0
LINE
  5
1ED
330
1E8
100
AcDbEntity
  8
VERMASSUNG
100
AcDbLine
 10
241.5219122382
 20
125.0877834163
 30
0.0
 11
241.5219122382
 21
180.5393408857
 31
0.0
  0
LINE
  5
1EE
330
1E8
100
AcDbEntity
  8
VERMASSUNG
100
AcDbLine
 10
54.9219122382
 20
131.1666279437
 30
0.0
 11
54.9219122382
 21
180.5393408857
 31
0.0
  0
LINE
  5
1EF
330
1E8
100
AcDbEntity
  8
VERMASSUNG
100
AcDbLine
 10
241.5219122382
 20
179.5393408857
 30
0.0
 11
54.9219122382
 21
179.5393408857
 31
0.0
  0
MTEXT
  5
1F0
330
1E8
100
AcDbEntity
  8
VERMASSUNG
100
AcDbMText
 10
145.321912275
 20
182.1174764816
 30
0.0
 40
2.0
 41
0.0
 71
     1
 72
     1
  1
186.6
  7
SLDTEXTSTYLE0
 73
     1
 44
1.0
  0
ENDBLK
  5
1EA
330
1E8
100
AcDbEntity
  8
0
100
AcDbBlockEnd
  0
ENDSEC
  0
SECTION
  2
ENTITIES
  0
MTEXT
  5
78
330
1F
100
AcDbEntity
  8
KOPF_DÜNN
100
AcDbMText
 10
13.8892156294
 20
23.8442973028
 30
0.0
 40
3.0
 41
0.0
 71
     1
 72
     1
  1
A14.450.025.085
  7
SLDTEXTSTYLE0
 73
     1
 44
1.0
  0
MTEXT
  5
79
330
1F
100
AcDbEntity
  8
VERMASSUNG
100
AcDbMText
 10
13.9329988022
 20
28.8834360957
 30
0.0
 40
3.0
 41
0.0
 71
     1
 72
     1
  1
Aufnahme_Master shank WH20
  7
SLDTEXTSTYLE0
 73
     1
 44
1.0
  0
MTEXT
  5
7A
330
1F
100
AcDbEntity
  8
VERMASSUNG
100
AcDbMText
 10
98.8601118557
 20
13.8365368761
 30
0.0
 40
2.0
 41
0.0
 71
     1
 72
     1
  1
Datum: 21.10.2011
  7
SLDTEXTSTYLE0
 73
     1
 44
1.0
  0
MTEXT
  5
7B
330
1F
100
AcDbEntity
  8
VERMASSUNG
100
AcDbMText
 10
13.933048693
 20
18.0482802738
 30
0.0
 40
2.0
 41
0.0
 71
     1
 72
     1
  1
DIN 69871 AD/B
  7
SLDTEXTSTYLE0
 73
     1
 44
1.0
  0
MTEXT
  5
7C
330
1F
100
AcDbEntity
  8
VERMASSUNG
100
AcDbMText
 10
13.9808475933
 20
13.9090974274
 30
0.0
 40
2.0
 41
0.0
 71
     1
 72
     1
  1
Gewicht: 2824g
  7
SLDTEXTSTYLE0
 73
     1
 44
1.0
  0
ARC
  5
7D
330
1F
100
AcDbEntity
  8
0
  6
Continuous
 62
     7
370
    15
100
AcDbCircle
 10
170.7219122382
 20
98.3220414543
 30
0.0
 40
1.99999999999999
100
AcDbArc
 50
192.2156859343
 51
340.8584953635
  0
ARC
  5
7E
330
1F
100
AcDbEntity
  8
0
  6
Continuous
 62
     7
370
    15
100
AcDbCircle
 10
159.1219122382
 20
77.2627834163
 30
0.0
 40
0.6000000000000085
100
AcDbArc
 50
0.0
 51
90.0
  0
ARC
  5
7F
330
1F
100
AcDbEntity
  8
0
  6
Continuous
 62
     7
370
    15
100
AcDbCircle
 10
159.1219122382
 20
148.3127834163
 30
0.0
 40
0.5999999999999943
100
AcDbArc
 50
270.0
 51
0.0
  0
LINE
  5
80
330
1F
100
AcDbEntity
  8
0
  6
Continuous
 62
     7
370
    15
100
AcDbLine
 10
156.5219122382
 20
77.8627834163
 30
0.0
 11
159.1219122382
 21
77.8627834163
 31
0.0
  0
LINE
  5
81
330
1F
100
AcDbEntity
  8
0
  6
Continuous
 62
     7
370
    15
100
AcDbLine
 10
159.1219122382
 20
147.7127834163
 30
0.0
 11
156.5219122382
 21
147.7127834163
 31
0.0
  0
LINE
  5
82
330
1F
100
AcDbEntity
  8
0
  6
Continuous
 62
     7
370
    15
100
AcDbLine
 10
156.5219122382
 20
147.7127834163
 30
0.0
 11
56.633298452
 21
133.1456939058
 31
0.0
  0
LINE
  5
83
330
1F
100
AcDbEntity
  8
0
  6
Continuous
 62
     7
370
    15
100
AcDbLine
 10
56.633298452
 20
92.4298729268
 30
0.0
 11
156.5219122382
 21
77.8627834163
 31
0.0
  0
ARC
  5
84
330
1F
100
AcDbEntity
  8
0
  6
Continuous
 62
     7
370
    15
100
AcDbCircle
 10
56.9219122382
 20
94.4089388889
 30
0.0
 40
1.999999999999993
100
AcDbArc
 50
180.0
 51
261.7028550302
  0
ARC
  5
85
330
1F
100
AcDbEntity
  8
0
  6
Continuous
 62
     7
370
    15
100
AcDbCircle
 10
56.9219122382
 20
131.1666279437
 30
0.0
 40
1.999999999999993
100
AcDbArc
 50
98.2971449698
 51
180.0
  0
ARC
  5
86
330
1F
100
AcDbEntity
  8
0
  6
Continuous
 62
     7
370
    15
100
AcDbCircle
 10
178.5719122382
 20
97.2877834163
 30
0.0
 40
3.0
100
AcDbArc
 50
90.0
 51
180.0
  0
ARC
  5
87
330
1F
100
AcDbEntity
  8
0
  6
Continuous
 62
     7
370
    15
100
AcDbCircle
 10
178.5719122382
 20
128.2877834163
 30
0.0
 40
3.0
100
AcDbArc
 50
180.0
 51
270.0
  0
LINE
  5
88
330
1F
100
AcDbEntity
  8
0
  6
Continuous
 62
     7
370
    15
100
AcDbLine
 10
241.3219122382
 20
125.2877834163
 30
0.0
 11
178.5719122382
 21
125.2877834163
 31
0.0
  0
LINE
  5
89
330
1F
100
AcDbEntity
  8
0
  6
Continuous
 62
     7
370
    15
100
AcDbLine
 10
178.5719122382
 20
100.2877834163
 30
0.0
 11
241.3219122382
 21
100.2877834163
 31
0.0
  0
LINE
  5
8A
330
1F
100
AcDbEntity
  8
0
  6
Continuous
 62
     7
370
    15
100
AcDbLine
 10
241.3219122382
 20
100.2877834163
 30
0.0
 11
241.5219122382
 21
100.4877834163
 31
0.0
  0
LINE
  5
8B
330
1F
100
AcDbEntity
  8
0
  6
Continuous
 62
     7
370
    15
100
AcDbLine
 10
241.5219122382
 20
125.0877834163
 30
0.0
 11
241.3219122382
 21
125.2877834163
 31
0.0
  0
ARC
  5
8C
330
1F
100
AcDbEntity
  8
0
  6
Continuous
 62
     7
370
    15
100
AcDbCircle
 10
170.4731802695
 20
97.5536969624
 30
0.0
 40
2.251272773962642
100
AcDbArc
 50
180.1176071683
 51
220.2202830634
  0
ARC
  5
8D
330
1F
100
AcDbEntity
  8
0
  6
Continuous
 62
     7
370
    15
100
AcDbCircle
 10
170.7119950631
 20
97.7514318372
 30
0.0
 40
2.561308968531109
100
AcDbArc
 50
220.1481297933
 51
338.9691999749
  0
ARC
  5
8E
330
1F
100
AcDbEntity
  8
0
  6
Continuous
 62
     7
370
    15
100
AcDbCircle
 10
170.4743596471
 20
97.4995484711
 30
0.0
 40
2.111590637349587
100
AcDbArc
 50
151.4955107214
 51
220.3192165569
  0
ARC
  5
8F
330
1F
100
AcDbEntity
  8
0
  6
Continuous
 62
     7
370
    15
100
AcDbCircle
 10
170.7127064796
 20
97.6679699015
 30
0.0
 40
2.402433463972136
100
AcDbArc
 50
219.7037056624
 51
344.11262161
  0
ARC
  5
90
330
1F
100
AcDbEntity
  8
0
  6
Continuous
 62
     7
370
    15
100
AcDbCircle
 10
170.5447686069
 20
97.5035174281
 30
0.0
 40
1.816872931993994
100
AcDbArc
 50
123.6105095013
 51
219.7424547692
  0
ARC
  5
91
330
1F
100
AcDbEntity
  8
0
  6
Continuous
 62
     7
370
    15
100
AcDbCircle
 10
170.7124479519
 20
97.6071595767
 30
0.0
 40
2.012256347881471
100
AcDbArc
 50
218.9591103725
 51
356.9813781671
  0
LINE
  5
92
330
1F
100
AcDbEntity
  8
0
  6
Continuous
 62
     7
370
    15
100
AcDbLine
 10
230.6706386978
 20
114.23303321
 30
0.0
 11
232.8228985042
 21
115.0703569582
 31
0.0
  0
LINE
  5
93
330
1F
100
AcDbEntity
  8
0
  6
Continuous
 62
     7
370
    15
100
AcDbLine
 10
230.3196524318
 20
111.950459668
 30
0.0
 11
230.6706386978
 21
114.23303321
 31
0.0
  0
LINE
  5
94
330
1F
100
AcDbEntity
  8
0
  6
Continuous
 62
     7
370
    15
100
AcDbLine
 10
234.6241720445
 20
113.6251071645
 30
0.0
 11
234.2731857785
 21
111.3425336226
 31
0.0
  0
CIRCLE
  5
95
330
1F
100
AcDbEntity
  8
0
  6
Continuous
 62
     7
370
    15
100
AcDbCircle
 10
232.4719122382
 20
112.7877834163
 30
0.0
 40
4.000000000000015
  0
LINE
  5
96
330
1F
100
AcDbEntity
  8
0
  6
Continuous
 62
     7
370
    15
100
AcDbLine
 10
232.8228985042
 20
115.0703569582
 30
0.0
 11
234.6241720445
 21
113.6251071645
 31
0.0
  0
LINE
  5
97
330
1F
100
AcDbEntity
  8
0
  6
Continuous
 62
     7
370
    15
100
AcDbLine
 10
234.2731857785
 20
111.3425336226
 30
0.0
 11
232.1209259722
 21
110.5052098743
 31
0.0
  0
LINE
  5
98
330
1F
100
AcDbEntity
  8
0
  6
Continuous
 62
     7
370
    15
100
AcDbLine
 10
232.1209259722
 20
110.5052098743
 30
0.0
 11
230.3196524318
 21
111.950459668
 31
0.0
  0
SPLINE
  5
99
330
1F
100
AcDbEntity
  8
0
  6
Continuous
 62
     7
370
    15
100
AcDbSpline
210
0.0
220
0.0
230
1.0
 70
     8
 71
     3
 72
     8
 73
     4
 74
     0
 42
0.000000001
 43
0.00000001
 40
0.0
 40
0.0
 40
0.0
 40
0.0
 40
1.0
 40
1.0
 40
1.0
 40
1.0
 10
165.7119122381623
 20
68.16804400745107
 30
0.0
 10
165.4221837921378
 20
67.64582399728755
 30
0.0
 10
165.13215864192
 20
67.1237706150276
 30
0.0
 10
164.8418644076582
 20
66.6018683493045
 30
0.0
  0
SPLINE
  5
9A
330
1F
100
AcDbEntity
  8
0
  6
Continuous
 62
     7
370
    15
100
AcDbSpline
210
0.0
220
0.0
230
1.0
 70
     8
 71
     3
 72
     8
 73
     4
 74
     0
 42
0.000000001
 43
0.00000001
 40
0.0
 40
0.0
 40
0.0
 40
0.0
 40
0.0011862984959113
 40
0.0011862984959113
 40
0.0011862984959113
 40
0.0011862984959113
 10
164.3887507307004
 20
66.05852407493487
 30
0.0
 10
164.5407754925712
 20
66.23943592455285
 30
0.0
 10
164.691832937787
 20
66.42054825499369
 30
0.0
 10
164.8418644076582
 20
66.6018683493045
 30
0.0
  0
LINE
  5
9B
330
1F
100
AcDbEntity
  8
0
  6
Continuous
 62
     7
370
    15
100
AcDbLine
 10
164.3887507307
 20
66.0585240749
 30
0.0
 11
164.3887507307
 21
142.6377834163
 31
0.0
  0
SPLINE
  5
9C
330
1F
100
AcDbEntity
  8
0
  6
Continuous
 62
     7
370
    15
100
AcDbSpline
210
0.0
220
0.0
230
1.0
 70
    24
 71
     3
 72
     8
 73
     4
 74
     0
 42
0.000000001
 43
0.00000001
 40
0.0
 40
0.0
 40
0.0
 40
0.0
 40
1.0
 40
1.0
 40
1.0
 40
1.0
 10
165.7119122381623
 20
142.6377834162809
 30
0.0
 10
165.2767121334587
 20
142.6377834162809
 30
0.0
 10
164.8353524507198
 20
142.6377834162809
 30
0.0
 10
164.3887507307004
 20
142.6377834162809
 30
0.0
  0
LINE
  5
9D
330
1F
100
AcDbEntity
  8
0
  6
Continuous
 62
     7
370
    15
100
AcDbLine
 10
165.7119122382
 20
68.1680440075
 30
0.0
 11
165.7119122382
 21
142.6377834163
 31
0.0
  0
LINE
  5
9E
330
1F
100
AcDbEntity
  8
0
  6
Continuous
 62
     7
370
    15
100
AcDbLine
 10
160.3219122382
 20
66.0585240749
 30
0.0
 11
164.3887507307
 21
66.0585240749
 31
0.0
  0
LINE
  5
9F
330
1F
100
AcDbEntity
  8
0
  6
Continuous
 62
     7
370
    15
100
AcDbLine
 10
164.3887507307
 20
142.6377834163
 30
0.0
 11
160.3219122382
 21
142.6377834163
 31
0.0
  0
LINE
  5
A0
330
1F
100
AcDbEntity
  8
0
  6
Continuous
 62
     7
370
    15
100
AcDbLine
 10
174.9719122382
 20
142.6377834163
 30
0.0
 11
170.8550737456
 21
142.6377834163
 31
0.0
  0
LINE
  5
A1
330
1F
100
AcDbEntity
  8
0
  6
Continuous
 62
     7
370
    15
100
AcDbLine
 10
170.8550737456
 20
66.0585240749
 30
0.0
 11
174.9719122382
 21
66.0585240749
 31
0.0
  0
LINE
  5
A2
330
1F
100
AcDbEntity
  8
0
  6
Continuous
 62
     7
370
    15
100
AcDbLine
 10
170.8550737456
 20
66.0585240749
 30
0.0
 11
170.8550737456
 21
93.7988430283
 31
0.0
  0
SPLINE
  5
A3
330
1F
100
AcDbEntity
  8
0
  6
Continuous
 62
     7
370
    15
100
AcDbSpline
210
0.0
220
0.0
230
1.0
 70
     8
 71
     3
 72
    34
 73
    30
 74
     0
 42
0.000000001
 43
0.00000001
 40
0.0
 40
0.0
 40
0.0
 40
0.0
 40
0.0625000000000002
 40
0.0625000000000002
 40
0.1250000000000005
 40
0.1250000000000005
 40
0.1875000000000007
 40
0.1875000000000007
 40
0.2500000000000009
 40
0.2500000000000009
 40
0.3750000000000004
 40
0.3750000000000004
 40
0.4375000000000007
 40
0.4375000000000007
 40
0.5000000000000009
 40
0.5000000000000009
 40
0.5625000000000012
 40
0.5625000000000012
 40
0.6250000000000014
 40
0.6250000000000014
 40
0.6875000000000017
 40
0.6875000000000017
 40
0.7500000000000019
 40
0.7500000000000019
 40
0.8750000000000009
 40
0.8750000000000009
 40
0.9375000000000004
 40
0.9375000000000004
 40
1.0
 40
1.0
 40
1.0
 40
1.0
 10
170.8550737456242
 20
93.79884302827969
 30
0.0
 10
171.0132533787356
 20
93.80662349929777
 30
0.0
 10
171.1689068248022
 20
93.82805674231201
 30
0.0
 10
171.4752227136019
 20
93.89794604664844
 30
0.0
 10
171.6269953467493
 20
93.94711243702184
 30
0.0
 10
171.913409317019
 20
94.06931431147369
 30
0.0
 10
172.0494212480328
 20
94.14244534247062
 30
0.0
 10
172.3068884511743
 20
94.31319172535788
 30
0.0
 10
172.4275888566274
 20
94.41074444582846
 30
0.0
 10
172.7524747236661
 20
94.72851740793278
 30
0.0
 10
172.9271500507415
 20
94.98229070974334
 30
0.0
 10
173.1021185988936
 20
95.3913707847564
 30
0.0
 10
173.147061912049
 20
95.53440356761686
 30
0.0
 10
173.2069858237213
 20
95.82650305811991
 30
0.0
 10
173.2218298923517
 20
95.97356499554802
 30
0.0
 10
173.2219939067889
 20
96.26969354232797
 30
0.0
 10
173.2068566683055
 20
96.42032081350501
 30
0.0
 10
173.1472420868823
 20
96.71305248081639
 30
0.0
 10
173.1031136786978
 20
96.85572241837708
 30
0.0
 10
172.9862166684626
 20
97.13359445111637
 30
0.0
 10
172.9128436266375
 20
97.26907740087113
 30
0.0
 10
172.7430888898553
 20
97.52098669243276
 30
0.0
 10
172.6461985178035
 20
97.63896332688647
 30
0.0
 10
172.3185959136181
 20
97.96816526358116
 30
0.0
 10
172.0598539817381
 20
98.14575044390222
 30
0.0
 10
171.6260539170925
 20
98.33732718278466
 30
0.0
 10
171.4772948989819
 20
98.38718605228813
 30
0.0
 10
171.1717462618347
 20
98.45979157358231
 30
0.0
 10
171.0132535981458
 20
98.48255977474423
 30
0.0
 10
170.8550737456242
 20
98.49063635114976
 30
0.0
  0
LINE
  5
A4
330
1F
100
AcDbEntity
  8
0
  6
Continuous
 62
     7
370
    15
100
AcDbLine
 10
170.8550737456
 20
98.4906363511
 30
0.0
 11
170.8550737456
 21
142.6377834163
 31
0.0
  0
SPLINE
  5
A5
330
1F
100
AcDbEntity
  8
0
  6
Continuous
 62
     7
370
    15
100
AcDbSpline
210
0.0
220
0.0
230
1.0
 70
     8
 71
     3
 72
    12
 73
     8
 74
     0
 42
0.000000001
 43
0.00000001
 40
0.0
 40
0.0
 40
0.0
 40
0.0
 40
0.2499999999999992
 40
0.2499999999999992
 40
0.4999999999999984
 40
0.4999999999999984
 40
1.0
 40
1.0
 40
1.0
 40
1.0
 10
174.9719122381623
 20
66.05852407493487
 30
0.0
 10
175.0678849913372
 20
66.05852407493484
 30
0.0
 10
175.1603129554916
 20
66.07479739904346
 30
0.0
 10
175.3167430556011
 20
66.12817112103986
 30
0.0
 10
175.380221480374
 20
66.1642993785742
 30
0.0
 10
175.5285006412011
 20
66.28500057485347
 30
0.0
 10
175.5719122381623
 20
66.37885016121864
 30
0.0
 10
175.5719122381623
 20
66.47315443616586
 30
0.0
  0
SPLINE
  5
A6
330
1F
100
AcDbEntity
  8
0
  6
Continuous
 62
     7
370
    15
100
AcDbSpline
210
0.0
220
0.0
230
1.0
 70
    24
 71
     3
 72
    12
 73
     8
 74
     0
 42
0.000000001
 43
0.00000001
 40
0.0
 40
0.0
 40
0.0
 40
0.0
 40
0.5000000000000051
 40
0.5000000000000051
 40
0.7500000000000026
 40
0.7500000000000026
 40
1.0
 40
1.0
 40
1.0
 40
1.0
 10
175.5719122381623
 20
142.6377834162809
 30
0.0
 10
175.5719122381623
 20
142.6377834162809
 30
0.0
 10
175.5237815497769
 20
142.6377834162809
 30
0.0
 10
175.3698844939739
 20
142.6377834162809
 30
0.0
 10
175.3044199289671
 20
142.6377834162809
 30
0.0
 10
175.150890608357
 20
142.6377834162809
 30
0.0
 10
175.0625419476212
 20
142.6377834162809
 30
0.0
 10
174.9719122381621
 20
142.6377834162809
 30
0.0
  0
LINE
  5
A7
330
1F
100
AcDbEntity
  8
0
  6
Continuous
 62
     7
370
    15
100
AcDbLine
 10
175.5719122382
 20
66.4731544362
 30
0.0
 11
175.5719122382
 21
142.6377834163
 31
0.0
  0
SPLINE
  5
A8
330
1F
100
AcDbEntity
  8
0
  6
Continuous
 62
     7
370
    15
100
AcDbSpline
210
0.0
220
0.0
230
1.0
 70
     8
 71
     3
 72
    10
 73
     6
 74
     0
 42
0.000000001
 43
0.00000001
 40
0.0
 40
0.0
 40
0.0
 40
0.0
 40
0.5
 40
0.5
 40
1.0
 40
1.0
 40
1.0
 40
1.0
 10
159.9375722693163
 20
66.15432914908864
 30
0.0
 10
159.986222837896
 20
66.12637215782124
 30
0.0
 10
160.0436080498554
 20
66.10242987279443
 30
0.0
 10
160.1743211580215
 20
66.0683114096987
 30
0.0
 10
160.2470606917601
 20
66.05852407493484
 30
0.0
 10
160.3219122381623
 20
66.05852407493485
 30
0.0
  0
SPLINE
  5
A9
330
1F
100
AcDbEntity
  8
0
  6
Continuous
 62
     7
370
    15
100
AcDbSpline
210
0.0
220
0.0
230
1.0
 70
     8
 71
     3
 72
    10
 73
     6
 74
     0
 42
0.000000001
 43
0.00000001
 40
0.0
 40
0.0
 40
0.0
 40
0.0
 40
0.5
 40
0.5
 40
1.0
 40
1.0
 40
1.0
 40
1.0
 10
159.9375722693163
 20
66.15432914908862
 30
0.0
 10
159.8793842627341
 20
66.22191287926745
 30
0.0
 10
159.8269417962078
 20
66.3023891139092
 30
0.0
 10
159.7485894890292
 20
66.48542473689194
 30
0.0
 10
159.7219122381623
 20
66.59130043968756
 30
0.0
 10
159.7219122381623
 20
66.69881374890818
 30
0.0
  0
LINE
  5
AA
330
1F
100
AcDbEntity
  8
0
  6
Continuous
 62
     7
370
    15
100
AcDbLine
 10
159.7219122382
 20
66.6988137489
 30
0.0
 11
159.7219122382
 21
142.6377834163
 31
0.0
  0
SPLINE
  5
AB
330
1F
100
AcDbEntity
  8
0
  6
Continuous
 62
     7
370
    15
100
AcDbSpline
210
0.0
220
0.0
230
1.0
 70
    24
 71
     3
 72
    14
 73
    10
 74
     0
 42
0.000000001
 43
0.00000001
 40
0.0
 40
0.0
 40
0.0
 40
0.0
 40
0.25
 40
0.25
 40
0.5
 40
0.5
 40
0.75
 40
0.75
 40
1.0
 40
1.0
 40
1.0
 40
1.0
 10
160.3219122381623
 20
142.6377834162809
 30
0.0
 10
160.2328902858187
 20
142.6377834162809
 30
0.0
 10
160.1432035865451
 20
142.6377834162809
 30
0.0
 10
159.9894767609878
 20
142.6377834162809
 30
0.0
 10
159.924271866361
 20
142.6377834162809
 30
0.0
 10
159.8216811721906
 20
142.6377834162809
 30
0.0
 10
159.7840437178747
 20
142.6377834162809
 30
0.0
 10
159.7339518024895
 20
142.6377834162809
 30
0.0
 10
159.7219122381623
 20
142.6377834162809
 30
0.0
 10
159.7219122381623
 20
142.6377834162809
 30
0.0
  0
LINE
  5
AC
330
1F
100
AcDbEntity
  8
0
  6
Continuous
 62
     7
370
    15
100
AcDbLine
 10
169.5319122382
 20
98.9905213503
 30
0.0
 11
169.5319122382
 21
142.6377834163
 31
0.0
  0
SPLINE
  5
AD
330
1F
100
AcDbEntity
  8
0
  6
Continuous
 62
     7
370
    15
100
AcDbSpline
210
0.0
220
0.0
230
1.0
 70
    24
 71
     3
 72
     8
 73
     4
 74
     0
 42
0.000000001
 43
0.00000001
 40
0.0
 40
0.0
 40
0.0
 40
0.0
 40
1.0
 40
1.0
 40
1.0
 40
1.0
 10
170.8550737456242
 20
142.6377834162809
 30
0.0
 10
170.4084720256048
 20
142.6377834162809
 30
0.0
 10
169.967112342866
 20
142.6377834162809
 30
0.0
 10
169.5319122381623
 20
142.6377834162809
 30
0.0
  0
SPLINE
  5
AE
330
1F
100
AcDbEntity
  8
0
  6
Continuous
 62
     7
370
    15
100
AcDbSpline
210
0.0
220
0.0
230
1.0
 70
     8
 71
     3
 72
    10
 73
     6
 74
     0
 42
0.000000001
 43
0.00000001
 40
0.0
 40
0.0
 40
0.0
 40
0.0
 40
0.5
 40
0.5
 40
1.0
 40
1.0
 40
1.0
 40
1.0
 10
170.8550737456242
 20
98.49063635114976
 30
0.0
 10
170.6323467187508
 20
98.63412485144353
 30
0.0
 10
170.4106608315257
 20
98.74884559717641
 30
0.0
 10
169.9694399936737
 20
98.91860602653428
 30
0.0
 10
169.7498813462749
 20
98.97402602092164
 30
0.0
 10
169.5319122381626
 20
98.9905213502913
 30
0.0
  0
SPLINE
  5
AF
330
1F
100
AcDbEntity
  8
0
  6
Continuous
 62
     7
370
    15
100
AcDbSpline
210
0.0
220
0.0
230
1.0
 70
     8
 71
     3
 72
    14
 73
    10
 74
     0
 42
0.000000001
 43
0.00000001
 40
0.0
 40
0.0
 40
0.0
 40
0.0
 40
0.25
 40
0.25
 40
0.5
 40
0.5
 40
0.75
 40
0.75
 40
1.0
 40
1.0
 40
1.0
 40
1.0
 10
169.5319122381623
 20
99.0361355723038
 30
0.0
 10
169.5319122381623
 20
99.07803926382584
 30
0.0
 10
169.5024417745163
 20
99.10591506139532
 30
0.0
 10
169.3956148049575
 20
99.11948658007952
 30
0.0
 10
169.3193614101016
 20
99.10482912642547
 30
0.0
 10
169.1516574086007
 20
99.03294387201129
 30
0.0
 10
169.0614938336582
 20
98.97655304287062
 30
0.0
 10
168.8885700663619
 20
98.83444117761202
 30
0.0
 10
168.8066838108774
 20
98.7499757799758
 30
0.0
 10
168.7319122381598
 20
98.65645770240424
 30
0.0
  0
SPLINE
  5
B0
330
1F
100
AcDbEntity
  8
0
  6
Continuous
 62
     7
370
    15
100
AcDbSpline
210
0.0
220
0.0
230
1.0
 70
     8
 71
     3
 72
    10
 73
     6
 74
     0
 42
0.000000001
 43
0.00000001
 40
0.0
 40
0.0
 40
0.0
 40
0.0
 40
0.5
 40
0.5
 40
1.0
 40
1.0
 40
1.0
 40
1.0
 10
169.5319122381626
 20
94.85848015165978
 30
0.0
 10
169.7488030706834
 20
94.62144121221122
 30
0.0
 10
169.9679557073422
 20
94.41927097721774
 30
0.0
 10
170.4094402076111
 20
94.06851890569904
 30
0.0
 10
170.6326426728845
 20
93.9198428133022
 30
0.0
 10
170.8550737456242
 20
93.79884302827969
 30
0.0
  0
LINE
  5
B1
330
1F
100
AcDbEntity
  8
0
  6
Continuous
 62
     7
370
    15
100
AcDbLine
 10
169.5319122382
 20
94.9040943737
 30
0.0
 11
169.5319122382
 21
94.8584801517
 31
0.0
  0
SPLINE
  5
B2
330
1F
100
AcDbEntity
  8
0
  6
Continuous
 62
     7
370
    15
100
AcDbSpline
210
0.0
220
0.0
230
1.0
 70
     8
 71
     3
 72
    16
 73
    12
 74
     0
 42
0.000000001
 43
0.00000001
 40
0.0
 40
0.0
 40
0.0
 40
0.0
 40
0.2499999999999998
 40
0.2499999999999998
 40
0.4999999999999996
 40
0.4999999999999996
 40
0.6250000000000007
 40
0.6250000000000007
 40
0.7500000000000018
 40
0.7500000000000018
 40
1.0
 40
1.0
 40
1.0
 40
1.0
 10
168.7319122381623
 20
95.81249385934677
 30
0.0
 10
168.8067652195321
 20
95.72111460618687
 30
0.0
 10
168.8879248492124
 20
95.63272899526874
 30
0.0
 10
169.0611477777871
 20
95.45704883470337
 30
0.0
 10
169.1516511077523
 20
95.37168601777931
 30
0.0
 10
169.2779801796834
 20
95.25026440637089
 30
0.0
 10
169.317477183092
 20
95.21178899466692
 30
0.0
 10
169.3895917533912
 20
95.13772831976326
 30
0.0
 10
169.4224839313212
 20
95.10173355450202
 30
0.0
 10
169.5021566009546
 20
95.00302746726821
 30
0.0
 10
169.5319122381623
 20
94.94639500684312
 30
0.0
 10
169.5319122381623
 20
94.90409437367242
 30
0.0
  0
SPLINE
  5
B3
330
1F
100
AcDbEntity
  8
0
  6
Continuous
 62
     7
370
    15
100
AcDbSpline
210
0.0
220
0.0
230
1.0
 70
     8
 71
     3
 72
    14
 73
    10
 74
     0
 42
0.000000001
 43
0.00000001
 40
0.0
 40
0.0
 40
0.0
 40
0.0
 40
0.25
 40
0.25
 40
0.5
 40
0.5
 40
0.75
 40
0.75
 40
1.0
 40
1.0
 40
1.0
 40
1.0
 10
168.7319122381623
 20
98.65645770240042
 30
0.0
 10
168.566797056261
 20
98.44994533642941
 30
0.0
 10
168.440204282149
 20
98.22365288648386
 30
0.0
 10
168.2655520382026
 20
97.7336523602171
 30
0.0
 10
168.2219232016123
 20
97.48270980663887
 30
0.0
 10
168.221901278736
 20
96.96921247901165
 30
0.0
 10
168.2657526182149
 20
96.71924624830966
 30
0.0
 10
168.4399293486298
 20
96.2367095451396
 30
0.0
 10
168.5671718696021
 20
96.01360611391347
 30
0.0
 10
168.7319122381623
 20
95.81249385934677
 30
0.0
  0
SPLINE
  5
B4
330
1F
100
AcDbEntity
  8
0
  6
Continuous
 62
     7
370
    15
100
AcDbSpline
210
0.0
220
0.0
230
1.0
 70
     8
 71
     3
 72
    14
 73
    10
 74
     0
 42
0.000000001
 43
0.00000001
 40
0.0
 40
0.0
 40
0.0
 40
0.0
 40
0.25
 40
0.25
 40
0.5
 40
0.5
 40
0.75
 40
0.75
 40
1.0
 40
1.0
 40
1.0
 40
1.0
 10
166.5119122381623
 20
69.14001715041108
 30
0.0
 10
166.405467230253
 20
69.14001715041107
 30
0.0
 10
166.2985684789795
 20
69.11744760097797
 30
0.0
 10
166.1023502235371
 20
69.03100450973604
 30
0.0
 10
166.0126919100726
 20
68.96670059206892
 30
0.0
 10
165.8672381971915
 20
68.81173107802594
 30
0.0
 10
165.8092024144653
 20
68.71896559178221
 30
0.0
 10
165.7319172600807
 20
68.52049871013882
 30
0.0
 10
165.7119122381623
 20
68.41347428834504
 30
0.0
 10
165.7119122381623
 20
68.30669192787423
 30
0.0
  0
SPLINE
  5
B5
330
1F
100
AcDbEntity
  8
0
  6
Continuous
 62
     7
370
    15
100
AcDbSpline
210
0.0
220
0.0
230
1.0
 70
    24
 71
     3
 72
    14
 73
    10
 74
     0
 42
0.000000001
 43
0.00000001
 40
0.0
 40
0.0
 40
0.0
 40
0.0
 40
0.25
 40
0.25
 40
0.5
 40
0.5
 40
0.75
 40
0.75
 40
1.0
 40
1.0
 40
1.0
 40
1.0
 10
166.5119122381623
 20
142.6377834162809
 30
0.0
 10
166.388930938616
 20
142.6377834162809
 30
0.0
 10
166.268741050214
 20
142.6377834162809
 30
0.0
 10
166.0637172205348
 20
142.6377834162809
 30
0.0
 10
165.9771227317327
 20
142.6377834162809
 30
0.0
 10
165.8420148449703
 20
142.6377834162809
 30
0.0
 10
165.7934917599422
 20
142.6377834162809
 30
0.0
 10
165.7278092512154
 20
142.6377834162809
 30
0.0
 10
165.7119122381623
 20
142.6377834162809
 30
0.0
 10
165.7119122381623
 20
142.6377834162809
 30
0.0
  0
SPLINE
  5
B6
330
1F
100
AcDbEntity
  8
0
  6
Continuous
 62
     7
370
    15
100
AcDbSpline
210
0.0
220
0.0
230
1.0
 70
    24
 71
     3
 72
    14
 73
    10
 74
     0
 42
0.000000001
 43
0.00000001
 40
0.0
 40
0.0
 40
0.0
 40
0.0
 40
0.25
 40
0.25
 40
0.5
 40
0.5
 40
0.75
 40
0.75
 40
1.0
 40
1.0
 40
1.0
 40
1.0
 10
169.5319122381623
 20
142.6377834162809
 30
0.0
 10
169.5319122381623
 20
142.6377834162809
 30
0.0
 10
169.5156312033865
 20
142.6377834162809
 30
0.0
 10
169.4509681408619
 20
142.6377834162809
 30
0.0
 10
169.4014883445732
 20
142.6377834162809
 30
0.0
 10
169.2675185874345
 20
142.6377834162809
 30
0.0
 10
169.181403860835
 20
142.6377834162809
 30
0.0
 10
168.975947745122
 20
142.6377834162809
 30
0.0
 10
168.8545272079292
 20
142.6377834162809
 30
0.0
 10
168.7319122381623
 20
142.6377834162809
 30
0.0
  0
LINE
  5
B7
330
1F
100
AcDbEntity
  8
0
  6
Continuous
 62
     7
370
    15
100
AcDbLine
 10
168.7319122382
 20
69.1400171504
 30
0.0
 11
166.5119122382
 21
69.1400171504
 31
0.0
  0
LINE
  5
B8
330
1F
100
AcDbEntity
  8
0
  6
Continuous
 62
     7
370
    15
100
AcDbLine
 10
168.7319122382
 20
142.6377834163
 30
0.0
 11
166.5119122382
 21
142.6377834163
 31
0.0
  0
SPLINE
  5
B9
330
1F
100
AcDbEntity
  8
0
  6
Continuous
 62
     7
370
    15
100
AcDbSpline
210
0.0
220
0.0
230
1.0
 70
     8
 71
     3
 72
     8
 73
     4
 74
     0
 42
0.000000001
 43
0.00000001
 40
0.0000000000000004
 40
0.0000000000000004
 40
0.0000000000000004
 40
0.0000000000000004
 40
0.0011862984959128
 40
0.0011862984959128
 40
0.0011862984959128
 40
0.0011862984959128
 10
170.4019600686624
 20
66.6018683493045
 30
0.0
 10
170.5519915385338
 20
66.42054825499346
 30
0.0
 10
170.7030489837531
 20
66.23943592455309
 30
0.0
 10
170.8550737456242
 20
66.05852407493487
 30
0.0
  0
SPLINE
  5
BA
330
1F
100
AcDbEntity
  8
0
  6
Continuous
 62
     7
370
    15
100
AcDbSpline
210
0.0
220
0.0
230
1.0
 70
     8
 71
     3
 72
     8
 73
     4
 74
     0
 42
0.000000001
 43
0.00000001
 40
0.0
 40
0.0
 40
0.0
 40
0.0
 40
1.0
 40
1.0
 40
1.0
 40
1.0
 10
170.4019600686655
 20
66.60186834930617
 30
0.0
 10
170.111665834404
 20
67.12377061502872
 30
0.0
 10
169.8216406841866
 20
67.6458239972881
 30
0.0
 10
169.5319122381623
 20
68.16804400745107
 30
0.0
  0
LINE
  5
BB
330
1F
100
AcDbEntity
  8
0
  6
Continuous
 62
     7
370
    15
100
AcDbLine
 10
169.5319122382
 20
68.1680440075
 30
0.0
 11
169.5319122382
 21
94.8584801517
 31
0.0
  0
SPLINE
  5
BC
330
1F
100
AcDbEntity
  8
0
  6
Continuous
 62
     7
370
    15
100
AcDbSpline
210
0.0
220
0.0
230
1.0
 70
     8
 71
     3
 72
    14
 73
    10
 74
     0
 42
0.000000001
 43
0.00000001
 40
0.0
 40
0.0
 40
0.0
 40
0.0
 40
0.25
 40
0.25
 40
0.5
 40
0.5
 40
0.75
 40
0.75
 40
1.0
 40
1.0
 40
1.0
 40
1.0
 10
169.5319122381623
 20
68.30669192787424
 30
0.0
 10
169.5319122381623
 20
68.41375591421505
 30
0.0
 10
169.5119284119223
 20
68.52049524058957
 30
0.0
 10
169.4344933294888
 20
68.71924514278035
 30
0.0
 10
169.3765544073294
 20
68.81179935927287
 30
0.0
 10
169.2309166015687
 20
68.96689630267845
 30
0.0
 10
169.1421276052332
 20
69.03063645959132
 30
0.0
 10
168.9455792450287
 20
69.11738501667891
 30
0.0
 10
168.8394400153294
 20
69.14001715041107
 30
0.0
 10
168.7319122381623
 20
69.14001715041107
 30
0.0
  0
LINE
  5
BD
330
1F
100
AcDbEntity
  8
0
  6
Continuous
 62
     7
370
    15
100
AcDbLine
 10
156.5219122382
 20
77.8627834163
 30
0.0
 11
156.5219122382
 21
147.7127834163
 31
0.0
  0
SPLINE
  5
BE
330
1F
100
AcDbEntity
  8
0
  6
Continuous
 62
     7
370
    15
100
AcDbSpline
210
0.0
220
0.0
230
1.0
 70
     8
 71
     3
 72
    12
 73
     8
 74
     0
 42
0.000000001
 43
0.00000001
 40
0.0
 40
0.0
 40
0.0
 40
0.0
 40
0.2500000000000023
 40
0.2500000000000023
 40
0.5000000000000046
 40
0.5000000000000046
 40
1.0
 40
1.0
 40
1.0
 40
1.0
 10
166.5119122381623
 20
156.4355496821507
 30
0.0
 10
166.4055672582863
 20
156.4355496821507
 30
0.0
 10
166.2982909108838
 20
156.4582649200102
 30
0.0
 10
166.1029151214877
 20
156.5442900868925
 30
0.0
 10
166.0143613854107
 20
156.6072688138209
 30
0.0
 10
165.7931034612795
 20
156.842460324258
 30
0.0
 10
165.7119122381623
 20
157.0556365387433
 30
0.0
 10
165.7119122381623
 20
157.2688749046873
 30
0.0
  0
SPLINE
  5
BF
330
1F
100
AcDbEntity
  8
0
  6
Continuous
 62
     7
370
    15
100
AcDbSpline
210
0.0
220
0.0
230
1.0
 70
     8
 71
     3
 72
    12
 73
     8
 74
     0
 42
0.000000001
 43
0.00000001
 40
0.0
 40
0.0
 40
0.0
 40
0.0
 40
0.5000000000000049
 40
0.5000000000000049
 40
0.7500000000000024
 40
0.7500000000000024
 40
1.0
 40
1.0
 40
1.0
 40
1.0
 10
165.7119122381623
 20
148.1808265179979
 30
0.0
 10
165.7119122381623
 20
147.9384034220171
 30
0.0
 10
165.7748333796041
 20
147.6926329014158
 30
0.0
 10
165.9768622766066
 20
147.3876867219989
 30
0.0
 10
166.0631560012538
 20
147.2970938554004
 30
0.0
 10
166.2686297958205
 20
147.1666602924636
 30
0.0
 10
166.3885803564202
 20
147.1276654778139
 30
0.0
 10
166.5119122381623
 20
147.1276654778139
 30
0.0
  0
SPLINE
  5
C0
330
1F
100
AcDbEntity
  8
0
  6
Continuous
 62
     7
370
    15
100
AcDbSpline
210
0.0
220
0.0
230
1.0
 70
     8
 71
     3
 72
     8
 73
     4
 74
     0
 42
0.000000001
 43
0.00000001
 40
0.0
 40
0.0
 40
0.0
 40
0.0
 40
0.0012352705496723
 40
0.0012352705496723
 40
0.0012352705496723
 40
0.0012352705496723
 10
164.9452412159949
 20
158.78781666095
 30
0.0
 10
164.760205965193
 20
159.0479182366782
 30
0.0
 10
164.5746991560222
 20
159.3078523153051
 30
0.0
 10
164.3887507307004
 20
159.5676280710564
 30
0.0
  0
SPLINE
  5
C1
330
1F
100
AcDbEntity
  8
0
  6
Continuous
 62
     7
370
    15
100
AcDbSpline
210
0.0
220
0.0
230
1.0
 70
     8
 71
     3
 72
     8
 73
     4
 74
     0
 42
0.000000001
 43
0.00000001
 40
0.0
 40
0.0
 40
0.0
 40
0.0
 40
1.0
 40
1.0
 40
1.0
 40
1.0
 10
165.7119122381623
 20
157.4075228251106
 30
0.0
 10
165.456580924857
 20
157.8677438453762
 30
0.0
 10
165.2010175267507
 20
158.3278383056846
 30
0.0
 10
164.9452412159949
 20
158.78781666095
 30
0.0
  0
LINE
  5
C2
330
1F
100
AcDbEntity
  8
0
  6
Continuous
 62
     7
370
    15
100
AcDbLine
 10
165.7119122382
 20
148.3549191586
 30
0.0
 11
165.7119122382
 21
157.4075228251
 31
0.0
  0
SPLINE
  5
C3
330
1F
100
AcDbEntity
  8
0
  6
Continuous
 62
     7
370
    15
100
AcDbSpline
210
0.0
220
0.0
230
1.0
 70
     8
 71
     3
 72
     8
 73
     4
 74
     0
 42
0.000000001
 43
0.00000001
 40
0.0
 40
0.0
 40
0.0
 40
0.0
 40
1.0
 40
1.0
 40
1.0
 40
1.0
 10
164.3887507307004
 20
151.298861367956
 30
0.0
 10
164.8355994586281
 20
150.3196254696997
 30
0.0
 10
165.276965816524
 20
149.3384234769729
 30
0.0
 10
165.7119122381623
 20
148.3549191585905
 30
0.0
  0
LINE
  5
C4
330
1F
100
AcDbEntity
  8
0
  6
Continuous
 62
     7
370
    15
100
AcDbLine
 10
164.3887507307
 20
151.298861368
 30
0.0
 11
164.3887507307
 21
159.5676280711
 31
0.0
  0
LINE
  5
C5
330
1F
100
AcDbEntity
  8
0
  6
Continuous
 62
     7
370
    15
100
AcDbLine
 10
164.3887507307
 20
159.5676280711
 30
0.0
 11
160.3219122382
 21
159.5676280711
 31
0.0
  0
LINE
  5
C6
330
1F
100
AcDbEntity
  8
0
  6
Continuous
 62
     7
370
    15
100
AcDbLine
 10
160.3219122382
 20
151.298861368
 30
0.0
 11
164.3887507307
 21
151.298861368
 31
0.0
  0
SPLINE
  5
C7
330
1F
100
AcDbEntity
  8
0
  6
Continuous
 62
     7
370
    15
100
AcDbSpline
210
0.0
220
0.0
230
1.0
 70
     8
 71
     3
 72
    12
 73
     8
 74
     0
 42
0.000000001
 43
0.00000001
 40
0.0
 40
0.0
 40
0.0
 40
0.0
 40
0.5000000000000019
 40
0.5000000000000019
 40
0.7500000000000009
 40
0.7500000000000009
 40
1.0
 40
1.0
 40
1.0
 40
1.0
 10
175.5719122381623
 20
159.0827703695113
 30
0.0
 10
175.5719122381623
 20
159.2029629761765
 30
0.0
 10
175.5179438078933
 20
159.3208702766915
 30
0.0
 10
175.3568571669604
 20
159.4602498211749
 30
0.0
 10
175.2920947474873
 20
159.4984151187388
 30
0.0
 10
175.1400407459228
 20
159.5530673810722
 30
0.0
 10
175.0573109727736
 20
159.5676280710564
 30
0.0
 10
174.9719122381623
 20
159.5676280710564
 30
0.0
  0
SPLINE
  5
C8
330
1F
100
AcDbEntity
  8
0
  6
Continuous
 62
     7
370
    15
100
AcDbSpline
210
0.0
220
0.0
230
1.0
 70
     8
 71
     3
 72
    12
 73
     8
 74
     0
 42
0.000000001
 43
0.00000001
 40
0.0
 40
0.0
 40
0.0
 40
0.0
 40
0.2499999999999946
 40
0.2499999999999946
 40
0.4999999999999892
 40
0.4999999999999892
 40
1.0
 40
1.0
 40
1.0
 40
1.0
 10
174.9719122381628
 20
151.2988613679561
 30
0.0
 10
175.0614492963339
 20
151.298861367956
 30
0.0
 10
175.1513484751225
 20
151.272034069125
 30
0.0
 10
175.3047733341218
 20
151.1803271038654
 30
0.0
 10
175.3698223914995
 20
151.1160721622666
 30
0.0
 10
175.5231416227638
 20
150.896660016205
 30
0.0
 10
175.5719122381623
 20
150.7148447064081
 30
0.0
 10
175.5719122381623
 20
150.5368645309252
 30
0.0
  0
LINE
  5
C9
330
1F
100
AcDbEntity
  8
0
  6
Continuous
 62
     7
370
    15
100
AcDbLine
 10
175.5719122382
 20
150.5368645309
 30
0.0
 11
175.5719122382
 21
159.0827703695
 31
0.0
  0
LINE
  5
CA
330
1F
100
AcDbEntity
  8
0
  6
Continuous
 62
     7
370
    15
100
AcDbLine
 10
174.9719122382
 20
159.5676280711
 30
0.0
 11
170.8550737456
 21
159.5676280711
 31
0.0
  0
LINE
  5
CB
330
1F
100
AcDbEntity
  8
0
  6
Continuous
 62
     7
370
    15
100
AcDbLine
 10
170.8550737456
 20
151.298861368
 30
0.0
 11
174.9719122382
 21
151.298861368
 31
0.0
  0
LINE
  5
CC
330
1F
100
AcDbEntity
  8
0
  6
Continuous
 62
     7
370
    15
100
AcDbLine
 10
170.8550737456
 20
151.298861368
 30
0.0
 11
170.8550737456
 21
159.5676280711
 31
0.0
  0
SPLINE
  5
CD
330
1F
100
AcDbEntity
  8
0
  6
Continuous
 62
     7
370
    15
100
AcDbSpline
210
0.0
220
0.0
230
1.0
 70
     8
 71
     3
 72
    10
 73
     6
 74
     0
 42
0.000000001
 43
0.00000001
 40
0.0
 40
0.0
 40
0.0
 40
0.0
 40
0.5
 40
0.5
 40
1.0
 40
1.0
 40
1.0
 40
1.0
 10
160.0117811571087
 20
159.4979477420036
 30
0.0
 10
159.9353280671898
 20
159.427684970783
 30
0.0
 10
159.8664663449208
 20
159.3405900557413
 30
0.0
 10
159.7599541138478
 20
159.131420927489
 30
0.0
 10
159.7219122381623
 20
159.0061033782495
 30
0.0
 10
159.7219122381623
 20
158.8767530836535
 30
0.0
  0
SPLINE
  5
CE
330
1F
100
AcDbEntity
  8
0
  6
Continuous
 62
     7
370
    15
100
AcDbSpline
210
0.0
220
0.0
230
1.0
 70
     8
 71
     3
 72
     8
 73
     4
 74
     0
 42
0.000000001
 43
0.00000001
 40
0.0
 40
0.0
 40
0.0
 40
0.0
 40
1.0
 40
1.0
 40
1.0
 40
1.0
 10
160.3219122381623
 20
159.5676280710564
 30
0.0
 10
160.2108340528249
 20
159.5676280710564
 30
0.0
 10
160.1031700489226
 20
159.5424788955019
 30
0.0
 10
160.0117811571087
 20
159.4979477420036
 30
0.0
  0
SPLINE
  5
CF
330
1F
100
AcDbEntity
  8
0
  6
Continuous
 62
     7
370
    15
100
AcDbSpline
210
0.0
220
0.0
230
1.0
 70
     8
 71
     3
 72
    12
 73
     8
 74
     0
 42
0.000000001
 43
0.00000001
 40
0.0
 40
0.0
 40
0.0
 40
0.0
 40
0.5
 40
0.5
 40
0.75
 40
0.75
 40
1.0
 40
1.0
 40
1.0
 40
1.0
 10
159.7219122381623
 20
150.5368645309252
 30
0.0
 10
159.7219122381623
 20
150.7152247981645
 30
0.0
 10
159.7692243595383
 20
150.8939972098685
 30
0.0
 10
159.9235844374197
 20
151.1157590752202
 30
0.0
 10
159.9884699723386
 20
151.1800511138366
 30
0.0
 10
160.1437026715669
 20
151.2726955979963
 30
0.0
 10
160.2327780842352
 20
151.2988613679561
 30
0.0
 10
160.3219122381623
 20
151.2988613679561
 30
0.0
  0
LINE
  5
D0
330
1F
100
AcDbEntity
  8
0
  6
Continuous
 62
     7
370
    15
100
AcDbLine
 10
159.7219122382
 20
150.5368645309
 30
0.0
 11
159.7219122382
 21
158.8767530837
 31
0.0
  0
SPLINE
  5
D1
330
1F
100
AcDbEntity
  8
0
  6
Continuous
 62
     7
370
    15
100
AcDbSpline
210
0.0
220
0.0
230
1.0
 70
     8
 71
     3
 72
     8
 73
     4
 74
     0
 42
0.000000001
 43
0.00000001
 40
0.0
 40
0.0
 40
0.0
 40
0.0
 40
1.0
 40
1.0
 40
1.0
 40
1.0
 10
170.2985832603287
 20
158.7878166609483
 30
0.0
 10
170.0428069495733
 20
158.3278383056835
 30
0.0
 10
169.7872435514674
 20
157.8677438453757
 30
0.0
 10
169.5319122381623
 20
157.4075228251106
 30
0.0
  0
SPLINE
  5
D2
330
1F
100
AcDbEntity
  8
0
  6
Continuous
 62
     7
370
    15
100
AcDbSpline
210
0.0
220
0.0
230
1.0
 70
     8
 71
     3
 72
     8
 73
     4
 74
     0
 42
0.000000001
 43
0.00000001
 40
0.0
 40
0.0
 40
0.0
 40
0.0
 40
0.0012352705496738
 40
0.0012352705496738
 40
0.0012352705496738
 40
0.0012352705496738
 10
170.8550737456242
 20
159.5676280710564
 30
0.0
 10
170.6691253203021
 20
159.3078523153047
 30
0.0
 10
170.4836185111311
 20
159.0479182366774
 30
0.0
 10
170.2985832603289
 20
158.7878166609488
 30
0.0
  0
SPLINE
  5
D3
330
1F
100
AcDbEntity
  8
0
  6
Continuous
 62
     7
370
    15
100
AcDbSpline
210
0.0
220
0.0
230
1.0
 70
     8
 71
     3
 72
     8
 73
     4
 74
     0
 42
0.000000001
 43
0.00000001
 40
0.0
 40
0.0
 40
0.0
 40
0.0
 40
1.0
 40
1.0
 40
1.0
 40
1.0
 10
169.5319122381623
 20
148.3549191585905
 30
0.0
 10
169.9668586598007
 20
149.3384234769729
 30
0.0
 10
170.4082250176965
 20
150.3196254696997
 30
0.0
 10
170.8550737456242
 20
151.298861367956
 30
0.0
  0
LINE
  5
D4
330
1F
100
AcDbEntity
  8
0
  6
Continuous
 62
     7
370
    15
100
AcDbLine
 10
169.5319122382
 20
148.3549191586
 30
0.0
 11
169.5319122382
 21
157.4075228251
 31
0.0
  0
LINE
  5
D5
330
1F
100
AcDbEntity
  8
0
  6
Continuous
 62
     7
370
    15
100
AcDbLine
 10
166.5119122382
 20
147.1276654778
 30
0.0
 11
168.7319122382
 21
147.1276654778
 31
0.0
  0
SPLINE
  5
D6
330
1F
100
AcDbEntity
  8
0
  6
Continuous
 62
     7
370
    15
100
AcDbSpline
210
0.0
220
0.0
230
1.0
 70
     8
 71
     3
 72
    14
 73
    10
 74
     0
 42
0.000000001
 43
0.00000001
 40
0.0
 40
0.0
 40
0.0
 40
0.0
 40
0.25
 40
0.25
 40
0.5
 40
0.5
 40
0.75
 40
0.75
 40
1.0
 40
1.0
 40
1.0
 40
1.0
 10
168.7319122381623
 20
147.1276654778139
 30
0.0
 10
168.8532387681481
 20
147.1276654778139
 30
0.0
 10
168.9749434767103
 20
147.1664469932471
 30
0.0
 10
169.1813833555964
 20
147.297601614941
 30
0.0
 10
169.2673338940525
 20
147.3882536995281
 30
0.0
 10
169.4012456538007
 20
147.5903707344694
 30
0.0
 10
169.4508100906199
 20
147.7041056780086
 30
0.0
 10
169.5156641185878
 20
147.9370652950751
 30
0.0
 10
169.5319122381623
 20
148.0597635614043
 30
0.0
 10
169.5319122381623
 20
148.1808265179979
 30
0.0
  0
LINE
  5
D7
330
1F
100
AcDbEntity
  8
0
  6
Continuous
 62
     7
370
    15
100
AcDbLine
 10
169.5319122382
 20
148.180826518
 30
0.0
 11
169.5319122382
 21
148.3549191586
 31
0.0
  0
LINE
  5
D8
330
1F
100
AcDbEntity
  8
0
  6
Continuous
 62
     7
370
    15
100
AcDbLine
 10
165.7119122382
 20
148.3549191586
 30
0.0
 11
165.7119122382
 21
148.180826518
 31
0.0
  0
LINE
  5
D9
330
1F
100
AcDbEntity
  8
0
  6
Continuous
 62
     7
370
    15
100
AcDbLine
 10
159.7219122382
 20
150.5368645309
 30
0.0
 11
159.7219122382
 21
142.6377834163
 31
0.0
  0
LINE
  5
DA
330
1F
100
AcDbEntity
  8
0
  6
Continuous
 62
     7
370
    15
100
AcDbLine
 10
175.5719122382
 20
150.5368645309
 30
0.0
 11
175.5719122382
 21
142.6377834163
 31
0.0
  0
LINE
  5
DB
330
1F
100
AcDbEntity
  8
0
  6
Continuous
 62
     7
370
    15
100
AcDbLine
 10
168.7319122382
 20
156.4355496821
 30
0.0
 11
166.5119122382
 21
156.4355496822
 31
0.0
  0
SPLINE
  5
DC
330
1F
100
AcDbEntity
  8
0
  6
Continuous
 62
     7
370
    15
100
AcDbSpline
210
0.0
220
0.0
230
1.0
 70
     8
 71
     3
 72
    14
 73
    10
 74
     0
 42
0.000000001
 43
0.00000001
 40
0.0
 40
0.0
 40
0.0
 40
0.0
 40
0.25
 40
0.25
 40
0.5
 40
0.5
 40
0.75
 40
0.75
 40
1.0
 40
1.0
 40
1.0
 40
1.0
 10
169.5319122381623
 20
157.2688749046875
 30
0.0
 10
169.5319122381623
 20
157.16153253254
 30
0.0
 10
169.5119160460981
 20
157.0549035256922
 30
0.0
 10
169.4342179617535
 20
156.855751746541
 30
0.0
 10
169.3762248168599
 20
156.7632688482256
 30
0.0
 10
169.230178324037
 20
156.6080330131164
 30
0.0
 10
169.1408405848694
 20
156.544299071504
 30
0.0
 10
168.9460855728089
 20
156.4584688051088
 30
0.0
 10
168.8385553016
 20
156.4355496821503
 30
0.0
 10
168.7319122381602
 20
156.4355496821506
 30
0.0
  0
LINE
  5
DD
330
1F
100
AcDbEntity
  8
0
  6
Continuous
 62
     7
370
    15
100
AcDbLine
 10
54.9219122382
 20
94.4089388889
 30
0.0
 11
54.9219122382
 21
131.166400922
 31
0.0
  0
SPLINE
  5
DE
330
1F
100
AcDbEntity
  8
0
  6
Continuous
 62
     7
370
    15
100
AcDbSpline
210
0.0
220
0.0
230
1.0
 70
    11
 71
     3
 72
    78
 73
    74
 74
     0
 42
0.000000001
 43
0.00000001
 40
0.0
 40
0.0
 40
0.0
 40
0.0
 40
0.0312500000000005
 40
0.0312500000000005
 40
0.062500000000001
 40
0.062500000000001
 40
0.0937500000000016
 40
0.0937500000000016
 40
0.1250000000000021
 40
0.1250000000000021
 40
0.1562500000000026
 40
0.1562500000000026
 40
0.1875000000000031
 40
0.1875000000000031
 40
0.2187500000000036
 40
0.2187500000000036
 40
0.2500000000000042
 40
0.2500000000000042
 40
0.2812500000000047
 40
0.2812500000000047
 40
0.2968750000000045
 40
0.2968750000000045
 40
0.3125000000000043
 40
0.3125000000000043
 40
0.3437500000000039
 40
0.3437500000000039
 40
0.3593750000000037
 40
0.3593750000000037
 40
0.3750000000000035
 40
0.3750000000000035
 40
0.4062500000000032
 40
0.4062500000000032
 40
0.4375000000000027
 40
0.4375000000000027
 40
0.4687500000000023
 40
0.4687500000000023
 40
0.5000000000000019
 40
0.5000000000000019
 40
0.5312500000000016
 40
0.5312500000000016
 40
0.5625000000000011
 40
0.5625000000000011
 40
0.5937500000000008
 40
0.5937500000000008
 40
0.6250000000000004
 40
0.6250000000000004
 40
0.65625
 40
0.65625
 40
0.6874999999999997
 40
0.6874999999999997
 40
0.7187499999999993
 40
0.7187499999999993
 40
0.7499999999999989
 40
0.7499999999999989
 40
0.7812499999999986
 40
0.7812499999999986
 40
0.8124999999999982
 40
0.8124999999999982
 40
0.8281249999999983
 40
0.8281249999999983
 40
0.8437499999999986
 40
0.8437499999999986
 40
0.8593749999999987
 40
0.8593749999999987
 40
0.8749999999999988
 40
0.8749999999999988
 40
0.9062499999999991
 40
0.9062499999999991
 40
0.9374999999999994
 40
0.9374999999999994
 40
0.9687499999999997
 40
0.9687499999999997
 40
1.0
 40
1.0
 40
1.0
 40
1.0
 10
229.1802319961207
 20
115.9801784333137
 30
0.0
 10
229.4233189169297
 20
116.1618830883187
 30
0.0
 10
229.6794971908136
 20
116.3186305651361
 30
0.0
 10
230.2158457510818
 20
116.587765657291
 30
0.0
 10
230.4969853721371
 20
116.7003821513915
 30
0.0
 10
231.0800249975807
 20
116.8798207593073
 30
0.0
 10
231.3757280734225
 20
116.9448947746343
 30
0.0
 10
231.9752005424484
 20
117.0283218956088
 30
0.0
 10
232.280624092001
 20
117.046614234304
 30
0.0
 10
232.8926592498812
 20
117.0344908871336
 30
0.0
 10
233.1942871496342
 20
117.0044482830797
 30
0.0
 10
233.7890541875156
 20
116.8976159192701
 30
0.0
 10
234.0836299021949
 20
116.8203317693183
 30
0.0
 10
234.6575765376924
 20
116.6176873189061
 30
0.0
 10
234.9318164266519
 20
116.4944246853525
 30
0.0
 10
235.4551374703556
 20
116.2033558674983
 30
0.0
 10
235.7054418307142
 20
116.0346295261239
 30
0.0
 10
236.1729983526537
 20
115.6504057518877
 30
0.0
 10
236.3848825579794
 20
115.4396660258786
 30
0.0
 10
236.6684627352579
 20
115.0936270351581
 30
0.0
 10
236.7572377917657
 20
114.9732550152437
 30
0.0
 10
236.922404202209
 20
114.7215651904194
 30
0.0
 10
236.9992574722805
 20
114.5893011283618
 30
0.0
 10
237.2054196182039
 20
114.1813670958961
 30
0.0
 10
237.3099630450508
 20
113.8971754709467
 30
0.0
 10
237.4132669906786
 20
113.4507384924748
 30
0.0
 10
237.4386348671693
 20
113.2978452776537
 30
0.0
 10
237.4692015025234
 20
112.9941263853179
 30
0.0
 10
237.4747249628123
 20
112.8422784485759
 30
0.0
 10
237.4623066320833
 20
112.3867688450508
 30
0.0
 10
237.413919550722
 20
112.0791321094133
 30
0.0
 10
237.2455499761064
 20
111.4946306205454
 30
0.0
 10
237.125199027919
 20
111.2129389145702
 30
0.0
 10
236.8241332966862
 20
110.6839965276513
 30
0.0
 10
236.6462919127515
 20
110.4403972033143
 30
0.0
 10
236.2415641673219
 20
109.9898363040605
 30
0.0
 10
236.0162874053127
 20
109.7854795444549
 30
0.0
 10
235.5354342935237
 20
109.4236977410028
 30
0.0
 10
235.2760061484992
 20
109.2634686868282
 30
0.0
 10
234.7347268431462
 20
108.9905377392385
 30
0.0
 10
234.4545993487927
 20
108.8781756832233
 30
0.0
 10
233.8759736532573
 20
108.6989105718824
 30
0.0
 10
233.5747545111265
 20
108.6318649588953
 30
0.0
 10
232.9717490781917
 20
108.5474178329063
 30
0.0
 10
232.6689970703618
 20
108.5292537616723
 30
0.0
 10
232.0610117667568
 20
108.5404754844069
 30
0.0
 10
231.7530789663927
 20
108.5705689738506
 30
0.0
 10
231.1543738885819
 20
108.6779359930164
 30
0.0
 10
230.8622273119608
 20
108.7547679340513
 30
0.0
 10
230.2923017571024
 20
108.9554950376485
 30
0.0
 10
230.0120150204081
 20
109.0810081418244
 30
0.0
 10
229.4852361126173
 20
109.3742613181821
 30
0.0
 10
229.2373648876208
 20
109.5418898657335
 30
0.0
 10
228.7740600877889
 20
109.9223878649522
 30
0.0
 10
228.5565205208622
 20
110.1381315301162
 30
0.0
 10
228.1747779725709
 20
110.6054174719705
 30
0.0
 10
228.0091493861387
 20
110.8570809423203
 30
0.0
 10
227.8036272185911
 20
111.2658702561285
 30
0.0
 10
227.7427238016167
 20
111.4069929104798
 30
0.0
 10
227.6395422184361
 20
111.6921608166487
 30
0.0
 10
227.5967661487379
 20
111.8371376669407
 30
0.0
 10
227.5292771281463
 20
112.1320192711927
 30
0.0
 10
227.5045602120169
 20
112.2819229344824
 30
0.0
 10
227.4742797058261
 20
112.5869702887032
 30
0.0
 10
227.4689385837203
 20
112.7421647968452
 30
0.0
 10
227.4826749783909
 20
113.2002247373781
 30
0.0
 10
227.5305001051084
 20
113.5009810625675
 30
0.0
 10
227.7023356309877
 20
114.0924860283312
 30
0.0
 10
227.8227152110291
 20
114.3711713314889
 30
0.0
 10
228.1245606509494
 20
114.8987263633009
 30
0.0
 10
228.3059785952947
 20
115.1457996017042
 30
0.0
 10
228.7103730114882
 20
115.5934830695611
 30
0.0
 10
228.9371450753118
 20
115.7984737783087
 30
0.0
 10
229.1802319961207
 20
115.9801784333137
 30
0.0
  0
LINE
  5
DF
330
1F
100
AcDbEntity
  8
0
  6
Continuous
 62
     7
370
    15
100
AcDbLine
 10
241.3219122382
 20
112.7877834163
 30
0.0
 11
241.3219122382
 21
100.2877834163
 31
0.0
  0
LINE
  5
E0
330
1F
100
AcDbEntity
  8
0
  6
Continuous
 62
     7
370
    15
100
AcDbLine
 10
241.3219122382
 20
125.2877834163
 30
0.0
 11
241.3219122382
 21
112.7877834163
 31
0.0
  0
LINE
  5
E1
330
1F
100
AcDbEntity
  8
0
  6
Continuous
 62
     7
370
    15
100
AcDbLine
 10
241.5219122382
 20
112.7877834163
 30
0.0
 11
241.5219122382
 21
100.4877834163
 31
0.0
  0
LINE
  5
E2
330
1F
100
AcDbEntity
  8
0
  6
Continuous
 62
     7
370
    15
100
AcDbLine
 10
241.5219122382
 20
125.0877834163
 30
0.0
 11
241.5219122382
 21
112.7877834163
 31
0.0
  0
LWPOLYLINE
  5
E3
330
1F
100
AcDbEntity
  8
0
  6
HIDDEN
 62
     7
370
     0
100
AcDbPolyline
 90
       19
 70
   128
 43
0.0
 10
169.1582703061
 20
125.0512569635
 10
169.6682256337
 20
124.6175835207
 10
170.3052711165
 20
124.3739602696
 10
170.9925696675
 20
124.3497717699
 10
171.6472229381
 20
124.5479355117
 10
172.1902700822
 20
124.944550023
 10
172.5562115996
 20
125.4917777404
 10
172.7009095426
 20
126.123614925
 10
172.6069112039
 20
126.7638526873
 10
172.2855541702
 20
127.3352689044
 10
171.7755988427
 20
127.7689423472
 10
171.1385533599
 20
128.0125655982
 10
170.4512548088
 20
128.0367540979
 10
169.7966015382
 20
127.8385903562
 10
169.2535543942
 20
127.4419758449
 10
168.8876128768
 20
126.8947481275
 10
168.7429149337
 20
126.2629109429
 10
168.8369132725
 20
125.6226731806
 10
169.1582703061
 20
125.0512569635
  0
LWPOLYLINE
  5
E4
330
1F
100
AcDbEntity
  8
0
  6
HIDDEN
 62
     7
370
     0
100
AcDbPolyline
 90
       21
 70
   128
 43
0.0
 10
168.7480004441
 20
124.8542223903
 10
169.3186946263
 20
124.351595137
 10
170.0267455251
 20
124.0392869536
 10
170.8028441854
 20
123.9478687412
 10
171.5710206627
 20
124.0862891514
 10
172.2560804914
 20
124.4409986299
 10
172.7909652422
 20
124.9772757417
 10
173.1233166691
 20
125.6426259465
 10
173.2206018987
 20
126.3719201305
 10
173.073297975
 20
127.0937698977
 10
172.6958240322
 20
127.7375155635
 10
172.12512985
 20
128.2401428169
 10
171.4170789512
 20
128.5524510002
 10
170.640980291
 20
128.6438692126
 10
169.8728038136
 20
128.5054488024
 10
169.1877439849
 20
128.1507393239
 10
168.6528592341
 20
127.6144622122
 10
168.3205078072
 20
126.9491120074
 10
168.2232225776
 20
126.2198178234
 10
168.3705265013
 20
125.4979680561
 10
168.7480004441
 20
124.8542223903
  0
LWPOLYLINE
  5
E5
330
1F
100
AcDbEntity
  8
0
  6
HIDDEN
 62
     7
370
     0
100
AcDbPolyline
 90
       21
 70
   128
 43
0.0
 10
168.7480004441
 20
125.4527576412
 10
169.3186946263
 20
124.9501303878
 10
170.0267455251
 20
124.6378222044
 10
170.8028441854
 20
124.5464039921
 10
171.5710206627
 20
124.6848244022
 10
172.2560804914
 20
125.0395338808
 10
172.7909652422
 20
125.5758109925
 10
173.1233166691
 20
126.2411611973
 10
173.2206018987
 20
126.9704553813
 10
173.073297975
 20
127.6923051485
 10
172.6958240322
 20
128.3360508143
 10
172.12512985
 20
128.8386780677
 10
171.4170789512
 20
129.1509862511
 10
170.640980291
 20
129.2424044634
 10
169.8728038136
 20
129.1039840533
 10
169.1877439849
 20
128.7492745747
 10
168.6528592341
 20
128.212997463
 10
168.3205078072
 20
127.5476472582
 10
168.2232225776
 20
126.8183530742
 10
168.3705265013
 20
126.096503307
 10
168.7480004441
 20
125.4527576412
  0
LWPOLYLINE
  5
E6
330
1F
100
AcDbEntity
  8
0
  6
HIDDEN
 62
     7
370
     0
100
AcDbPolyline
 90
       19
 70
   128
 43
0.0
 10
169.1427828029
 20
126.921056453
 10
169.6577891173
 20
126.4830875773
 10
170.3011443848
 20
126.2370512956
 10
170.9952504653
 20
126.2126232146
 10
171.6563879216
 20
126.4127497213
 10
172.204813819
 20
126.8132926055
 10
172.5743799006
 20
127.3659404839
 10
172.7205110425
 20
128.0040358662
 10
172.6255816724
 20
128.650615032
 10
172.3010416734
 20
129.2276909915
 10
171.7860353591
 20
129.6656598671
 10
171.1426800915
 20
129.9116961488
 10
170.448574011
 20
129.9361242298
 10
169.7874365547
 20
129.7359977231
 10
169.2390106573
 20
129.335454839
 10
168.8694445758
 20
128.7828069606
 10
168.7233134338
 20
128.1447115782
 10
168.8182428039
 20
127.4981324124
 10
169.1427828029
 20
126.921056453
  0
LWPOLYLINE
  5
E7
330
1F
100
AcDbEntity
  8
0
  6
HIDDEN
 62
     7
370
     0
100
AcDbPolyline
 90
       19
 70
   128
 43
0.0
 10
169.1427828029
 20
125.503280537
 10
169.6577891173
 20
125.0653116613
 10
170.3011443848
 20
124.8192753797
 10
170.9952504653
 20
124.7948472986
 10
171.6563879216
 20
124.9949738053
 10
172.204813819
 20
125.3955166895
 10
172.5743799006
 20
125.9481645679
 10
172.7205110425
 20
126.5862599502
 10
172.6255816724
 20
127.232839116
 10
172.3010416734
 20
127.8099150755
 10
171.7860353591
 20
128.2478839511
 10
171.1426800915
 20
128.4939202328
 10
170.448574011
 20
128.5183483138
 10
169.7874365547
 20
128.3182218071
 10
169.2390106573
 20
127.917678923
 10
168.8694445758
 20
127.3650310446
 10
168.7233134338
 20
126.7269356622
 10
168.8182428039
 20
126.0803564964
 10
169.1427828029
 20
125.503280537
  0
LWPOLYLINE
  5
E8
330
1F
100
AcDbEntity
  8
0
  6
HIDDEN
 62
     7
370
     0
100
AcDbPolyline
 90
       21
 70
   128
 43
0.0
 10
168.7480004441
 20
125.6887515401
 10
169.3186946263
 20
125.1861242867
 10
170.0267455251
 20
124.8738161033
 10
170.8028441854
 20
124.782397891
 10
171.5710206627
 20
124.9208183011
 10
172.2560804914
 20
125.2755277797
 10
172.7909652422
 20
125.8118048914
 10
173.1233166691
 20
126.4771550962
 10
173.2206018987
 20
127.2064492802
 10
173.073297975
 20
127.9282990474
 10
172.6958240322
 20
128.5720447132
 10
172.12512985
 20
129.0746719666
 10
171.4170789512
 20
129.3869801499
 10
170.640980291
 20
129.4783983623
 10
169.8728038136
 20
129.3399779522
 10
169.1877439849
 20
128.9852684736
 10
168.6528592341
 20
128.4489913619
 10
168.3205078072
 20
127.7836411571
 10
168.2232225776
 20
127.0543469731
 10
168.3705265013
 20
126.3324972059
 10
168.7480004441
 20
125.6887515401
  0
LWPOLYLINE
  5
E9
330
1F
100
AcDbEntity
  8
0
  6
HIDDEN
 62
     7
370
     0
100
AcDbPolyline
 90
       20
 70
   128
 43
0.0
 10
168.9059133876
 20
125.6295633765
 10
169.4626013425
 20
125.1473333903
 10
170.1557551731
 20
124.8610873005
 10
170.9102609066
 20
124.8018443127
 10
171.6443561393
 20
124.9760243237
 10
172.2784902622
 20
125.3647522268
 10
172.7439450033
 20
125.9259033218
 10
172.9902811193
 20
126.5986681806
 10
172.9908042696
 20
127.3101422915
 10
172.7454577628
 20
127.9832263951
 10
172.2808286999
 20
128.5449813847
 10
171.6472668493
 20
128.9345323907
 10
170.9134284682
 20
129.109665517
 10
170.1588363319
 20
129.0514023721
 10
169.4652622071
 20
128.7660566716
 10
168.907865612
 20
128.2845500498
 10
168.5470491168
 20
127.6590612205
 10
168.4219127872
 20
126.9573716039
 10
168.5460170863
 20
126.2555201577
 10
168.9059133876
 20
125.6295633765
  0
LWPOLYLINE
  5
EA
330
1F
100
AcDbEntity
  8
0
  6
HIDDEN
 62
     7
370
     0
100
AcDbPolyline
 90
       21
 70
   128
 43
0.0
 10
168.7480004441
 20
125.9247454389
 10
169.3186946263
 20
125.4221181856
 10
170.0267455251
 20
125.1098100022
 10
170.8028441854
 20
125.0183917898
 10
171.5710206627
 20
125.1568122
 10
172.2560804914
 20
125.5115216786
 10
172.7909652422
 20
126.0477987903
 10
173.1233166691
 20
126.7131489951
 10
173.2206018987
 20
127.4424431791
 10
173.073297975
 20
128.1642929463
 10
172.6958240322
 20
128.8080386121
 10
172.12512985
 20
129.3106658655
 10
171.4170789512
 20
129.6229740488
 10
170.640980291
 20
129.7143922612
 10
169.8728038136
 20
129.5759718511
 10
169.1877439849
 20
129.2212623725
 10
168.6528592341
 20
128.6849852608
 10
168.3205078072
 20
128.019635056
 10
168.2232225776
 20
127.290340872
 10
168.3705265013
 20
126.5684911047
 10
168.7480004441
 20
125.9247454389
  0
LWPOLYLINE
  5
EB
330
1F
100
AcDbEntity
  8
0
  6
HIDDEN
 62
     7
370
     0
100
AcDbPolyline
 90
       20
 70
   128
 43
0.0
 10
168.9059133876
 20
125.8655572754
 10
169.4626013425
 20
125.3833272891
 10
170.1557551731
 20
125.0970811994
 10
170.9102609066
 20
125.0378382116
 10
171.6443561393
 20
125.2120182226
 10
172.2784902622
 20
125.6007461257
 10
172.7439450033
 20
126.1618972207
 10
172.9902811193
 20
126.8346620795
 10
172.9908042696
 20
127.5461361904
 10
172.7454577628
 20
128.219220294
 10
172.2808286999
 20
128.7809752836
 10
171.6472668493
 20
129.1705262896
 10
170.9134284682
 20
129.3456594159
 10
170.1588363319
 20
129.287396271
 10
169.4652622071
 20
129.0020505705
 10
168.907865612
 20
128.5205439487
 10
168.5470491168
 20
127.8950551194
 10
168.4219127872
 20
127.1933655028
 10
168.5460170863
 20
126.4915140566
 10
168.9059133876
 20
125.8655572754
  0
LWPOLYLINE
  5
EC
330
1F
100
AcDbEntity
  8
0
  6
HIDDEN
 62
     7
370
     0
100
AcDbPolyline
 90
       21
 70
   128
 43
0.0
 10
168.7480004441
 20
126.1607393378
 10
169.3186946263
 20
125.6581120845
 10
170.0267455251
 20
125.3458039011
 10
170.8028441854
 20
125.2543856887
 10
171.5710206627
 20
125.3928060989
 10
172.2560804914
 20
125.7475155774
 10
172.7909652422
 20
126.2837926892
 10
173.1233166691
 20
126.949142894
 10
173.2206018987
 20
127.678437078
 10
173.073297975
 20
128.4002868452
 10
172.6958240322
 20
129.044032511
 10
172.12512985
 20
129.5466597644
 10
171.4170789512
 20
129.8589679477
 10
170.640980291
 20
129.9503861601
 10
169.8728038136
 20
129.81196575
 10
169.1877439849
 20
129.4572562714
 10
168.6528592341
 20
128.9209791597
 10
168.3205078072
 20
128.2556289549
 10
168.2232225776
 20
127.5263347709
 10
168.3705265013
 20
126.8044850036
 10
168.7480004441
 20
126.1607393378
  0
LWPOLYLINE
  5
ED
330
1F
100
AcDbEntity
  8
0
  6
HIDDEN
 62
     7
370
     0
100
AcDbPolyline
 90
       20
 70
   128
 43
0.0
 10
168.9059133876
 20
126.1015511743
 10
169.4626013425
 20
125.619321188
 10
170.1557551731
 20
125.3330750983
 10
170.9102609066
 20
125.2738321105
 10
171.6443561393
 20
125.4480121215
 10
172.2784902622
 20
125.8367400246
 10
172.7439450033
 20
126.3978911196
 10
172.9902811193
 20
127.0706559784
 10
172.9908042696
 20
127.7821300893
 10
172.7454577628
 20
128.4552141929
 10
172.2808286999
 20
129.0169691825
 10
171.6472668493
 20
129.4065201885
 10
170.9134284682
 20
129.5816533148
 10
170.1588363319
 20
129.5233901699
 10
169.4652622071
 20
129.2380444694
 10
168.907865612
 20
128.7565378476
 10
168.5470491168
 20
128.1310490183
 10
168.4219127872
 20
127.4293594017
 10
168.5460170863
 20
126.7275079555
 10
168.9059133876
 20
126.1015511743
  0
LWPOLYLINE
  5
EE
330
1F
100
AcDbEntity
  8
0
  6
HIDDEN
 62
     7
370
     0
100
AcDbPolyline
 90
       21
 70
   128
 43
0.0
 10
168.7480004441
 20
126.3967332367
 10
169.3186946263
 20
125.8941059834
 10
170.0267455251
 20
125.5817978
 10
170.8028441854
 20
125.4903795876
 10
171.5710206627
 20
125.6287999978
 10
172.2560804914
 20
125.9835094763
 10
172.7909652422
 20
126.5197865881
 10
173.1233166691
 20
127.1851367929
 10
173.2206018987
 20
127.9144309769
 10
173.073297975
 20
128.6362807441
 10
172.6958240322
 20
129.2800264099
 10
172.12512985
 20
129.7826536633
 10
171.4170789512
 20
130.0949618466
 10
170.640980291
 20
130.186380059
 10
169.8728038136
 20
130.0479596488
 10
169.1877439849
 20
129.6932501703
 10
168.6528592341
 20
129.1569730586
 10
168.3205078072
 20
128.4916228538
 10
168.2232225776
 20
127.7623286698
 10
168.3705265013
 20
127.0404789025
 10
168.7480004441
 20
126.3967332367
  0
LWPOLYLINE
  5
EF
330
1F
100
AcDbEntity
  8
0
  6
HIDDEN
 62
     7
370
     0
100
AcDbPolyline
 90
       20
 70
   128
 43
0.0
 10
168.9059133876
 20
126.3375450732
 10
169.4626013425
 20
125.8553150869
 10
170.1557551731
 20
125.5690689972
 10
170.9102609066
 20
125.5098260093
 10
171.6443561393
 20
125.6840060204
 10
172.2784902622
 20
126.0727339235
 10
172.7439450033
 20
126.6338850185
 10
172.9902811193
 20
127.3066498773
 10
172.9908042696
 20
128.0181239882
 10
172.7454577628
 20
128.6912080918
 10
172.2808286999
 20
129.2529630814
 10
171.6472668493
 20
129.6425140874
 10
170.9134284682
 20
129.8176472137
 10
170.1588363319
 20
129.7593840688
 10
169.4652622071
 20
129.4740383683
 10
168.907865612
 20
128.9925317465
 10
168.5470491168
 20
128.3670429172
 10
168.4219127872
 20
127.6653533006
 10
168.5460170863
 20
126.9635018544
 10
168.9059133876
 20
126.3375450732
  0
LWPOLYLINE
  5
F0
330
1F
100
AcDbEntity
  8
0
  6
HIDDEN
 62
     7
370
     0
100
AcDbPolyline
 90
       21
 70
   128
 43
0.0
 10
168.7480004441
 20
126.5848443156
 10
169.3186946263
 20
126.0822170622
 10
170.0267455251
 20
125.7699088789
 10
170.8028441854
 20
125.6784906665
 10
171.5710206627
 20
125.8169110766
 10
172.2560804914
 20
126.1716205552
 10
172.7909652422
 20
126.7078976669
 10
173.1233166691
 20
127.3732478717
 10
173.2206018987
 20
128.1025420557
 10
173.073297975
 20
128.8243918229
 10
172.6958240322
 20
129.4681374887
 10
172.12512985
 20
129.9707647421
 10
171.4170789512
 20
130.2830729255
 10
170.640980291
 20
130.3744911378
 10
169.8728038136
 20
130.2360707277
 10
169.1877439849
 20
129.8813612491
 10
168.6528592341
 20
129.3450841374
 10
168.3205078072
 20
128.6797339326
 10
168.2232225776
 20
127.9504397486
 10
168.3705265013
 20
127.2285899814
 10
168.7480004441
 20
126.5848443156
  0
LWPOLYLINE
  5
F1
330
1F
100
AcDbEntity
  8
0
  6
HIDDEN
 62
     7
370
     0
100
AcDbPolyline
 90
       21
 70
   128
 43
0.0
 10
168.8585395045
 20
126.7134593445
 10
169.3972748125
 20
126.2389792173
 10
170.0656748611
 20
125.9441602922
 10
170.7983119963
 20
125.8578614997
 10
171.5234705909
 20
125.9885303669
 10
172.1701670692
 20
126.3233761147
 10
172.675098274
 20
126.8296217082
 10
172.988838021
 20
127.4577123015
 10
173.0806752778
 20
128.1461660112
 10
172.9416203737
 20
128.8275921914
 10
172.5852849718
 20
129.4352881
 10
172.0465496638
 20
129.9097682271
 10
171.3781496153
 20
130.2045871522
 10
170.64551248
 20
130.2908859447
 10
169.9203538854
 20
130.1602170775
 10
169.2736574071
 20
129.8253713298
 10
168.7687262023
 20
129.3191257363
 10
168.4549864553
 20
128.691035143
 10
168.3631491986
 20
128.0025814333
 10
168.5022041026
 20
127.321155253
 10
168.8585395045
 20
126.7134593445
  0
ARC
  5
F2
330
1F
100
AcDbEntity
  8
0
  6
HIDDEN
 62
     7
370
     0
100
AcDbCircle
 10
170.7035611989
 20
97.4716052193
 30
0.0
 40
2.482857884633238
100
AcDbArc
 50
345.077897917
 51
178.211953502
  0
ARC
  5
F3
330
1F
100
AcDbEntity
  8
0
  6
HIDDEN
 62
     7
370
     0
100
AcDbCircle
 10
170.7000975039
 20
97.4028810364
 30
0.0
 40
2.356206970138317
100
AcDbArc
 50
350.4091434587
 51
152.0494342492
  0
ARC
  5
F4
330
1F
100
AcDbEntity
  8
0
  6
HIDDEN
 62
     7
370
     0
100
AcDbCircle
 10
170.7226821678
 20
97.4024309328
 30
0.0
 40
2.001668014868816
100
AcDbArc
 50
2.8281185273
 51
126.2509810798
  0
LWPOLYLINE
  5
F5
330
1F
100
AcDbEntity
  8
0
  6
HIDDEN
 62
     7
370
     0
100
AcDbPolyline
 90
       21
 70
   128
 43
0.0
 10
168.75418158
 20
96.2880980948
 10
168.3739577087
 20
96.9304131297
 10
168.223567986
 20
97.651700813
 10
168.3177336056
 20
98.3813564808
 10
168.6472369807
 20
99.0479563526
 10
169.179824025
 20
99.5862489884
 10
169.8633614081
 20
99.9435425545
 10
170.6309397283
 20
100.0848626672
 10
171.4074230715
 20
99.9963759293
 10
172.1168038382
 20
99.6867440392
 10
172.6896428963
 20
99.1862759237
 10
173.0698667676
 20
98.5439608888
 10
173.2202564904
 20
97.8226732055
 10
173.1260908707
 20
97.0930175376
 10
172.7965874957
 20
96.4264176659
 10
172.2640004513
 20
95.8881250301
 10
171.5804630682
 20
95.530831464
 10
170.8128847481
 20
95.3895113513
 10
170.0364014048
 20
95.4779980892
 10
169.3270206381
 20
95.7876299792
 10
168.75418158
 20
96.2880980948
  0
LWPOLYLINE
  5
F6
330
1F
100
AcDbEntity
  8
0
  6
HIDDEN
 62
     7
370
     0
100
AcDbPolyline
 90
       19
 70
   128
 43
0.0
 10
169.1477277117
 20
97.7596978948
 10
168.8207224695
 20
98.335543653
 10
168.723028772
 20
98.9817591217
 10
168.866429921
 20
99.6204011782
 10
169.2336296213
 20
100.1744401652
 10
169.78033817
 20
100.577050804
 10
170.4406144475
 20
100.7796723098
 10
171.13481939
 20
100.7578655385
 10
171.7792216361
 20
100.5142607087
 10
172.2960967647
 20
100.0782401579
 10
172.6231020068
 20
99.5023943997
 10
172.7207957043
 20
98.856178931
 10
172.5773945554
 20
98.2175368744
 10
172.210194855
 20
97.6634978875
 10
171.6634863063
 20
97.2608872486
 10
171.0032100289
 20
97.0582657429
 10
170.3090050863
 20
97.0800725141
 10
169.6646028402
 20
97.323677344
 10
169.1477277117
 20
97.7596978948
  0
LWPOLYLINE
  5
F7
330
1F
100
AcDbEntity
  8
0
  6
HIDDEN
 62
     7
370
     0
100
AcDbPolyline
 90
       21
 70
   128
 43
0.0
 10
168.75418158
 20
96.5240919937
 10
168.3739577087
 20
97.1664070285
 10
168.223567986
 20
97.8876947119
 10
168.3177336056
 20
98.6173503797
 10
168.6472369807
 20
99.2839502515
 10
169.179824025
 20
99.8222428873
 10
169.8633614081
 20
100.1795364534
 10
170.6309397283
 20
100.3208565661
 10
171.4074230715
 20
100.2323698282
 10
172.1168038382
 20
99.9227379381
 10
172.6896428963
 20
99.4222698226
 10
173.0698667676
 20
98.7799547877
 10
173.2202564904
 20
98.0586671044
 10
173.1260908707
 20
97.3290114365
 10
172.7965874957
 20
96.6624115648
 10
172.2640004513
 20
96.124118929
 10
171.5804630682
 20
95.7668253629
 10
170.8128847481
 20
95.6255052502
 10
170.0364014048
 20
95.7139919881
 10
169.3270206381
 20
96.0236238781
 10
168.75418158
 20
96.5240919937
  0
LWPOLYLINE
  5
F8
330
1F
100
AcDbEntity
  8
0
  6
HIDDEN
 62
     7
370
     0
100
AcDbPolyline
 90
       20
 70
   128
 43
0.0
 10
168.9116000327
 20
96.5785450984
 10
168.549029735
 20
97.2031377697
 10
168.4219249723
 20
97.9045149009
 10
168.5440595179
 20
98.6066713967
 10
168.9021981985
 20
99.2335177058
 10
169.4575311312
 20
99.7171253041
 10
170.1498793756
 20
100.0050878042
 10
170.9042162567
 20
100.0662000013
 10
171.6387976687
 20
99.8938394403
 10
172.2740203173
 20
99.5066840626
 10
172.7410479721
 20
98.9466881607
 10
172.9892709401
 20
98.2745359798
 10
172.9917904109
 20
97.5630656382
 10
172.748333361
 20
96.889375987
 10
172.2852821392
 20
96.3264717532
 10
171.6528155305
 20
95.9353523451
 10
170.9194711056
 20
95.7584016192
 10
170.164718112
 20
95.8147949325
 10
169.4703457477
 20
96.0984211943
 10
168.9116000327
 20
96.5785450984
  0
LWPOLYLINE
  5
F9
330
1F
100
AcDbEntity
  8
0
  6
HIDDEN
 62
     7
370
     0
100
AcDbPolyline
 90
       21
 70
   128
 43
0.0
 10
168.75418158
 20
96.7600858926
 10
168.3739577087
 20
97.4024009274
 10
168.223567986
 20
98.1236886108
 10
168.3177336056
 20
98.8533442786
 10
168.6472369807
 20
99.5199441504
 10
169.179824025
 20
100.0582367862
 10
169.8633614081
 20
100.4155303523
 10
170.6309397283
 20
100.556850465
 10
171.4074230715
 20
100.4683637271
 10
172.1168038382
 20
100.158731837
 10
172.6896428963
 20
99.6582637215
 10
173.0698667676
 20
99.0159486866
 10
173.2202564904
 20
98.2946610033
 10
173.1260908707
 20
97.5650053354
 10
172.7965874957
 20
96.8984054637
 10
172.2640004513
 20
96.3601128279
 10
171.5804630682
 20
96.0028192618
 10
170.8128847481
 20
95.8614991491
 10
170.0364014048
 20
95.9499858869
 10
169.3270206381
 20
96.259617777
 10
168.75418158
 20
96.7600858926
  0
LWPOLYLINE
  5
FA
330
1F
100
AcDbEntity
  8
0
  6
HIDDEN
 62
     7
370
     0
100
AcDbPolyline
 90
       20
 70
   128
 43
0.0
 10
168.9116000327
 20
96.8145389973
 10
168.549029735
 20
97.4391316686
 10
168.4219249723
 20
98.1405087998
 10
168.5440595179
 20
98.8426652956
 10
168.9021981985
 20
99.4695116047
 10
169.4575311312
 20
99.953119203
 10
170.1498793756
 20
100.2410817031
 10
170.9042162567
 20
100.3021939002
 10
171.6387976687
 20
100.1298333392
 10
172.2740203173
 20
99.7426779615
 10
172.7410479721
 20
99.1826820596
 10
172.9892709401
 20
98.5105298787
 10
172.9917904109
 20
97.7990595371
 10
172.748333361
 20
97.1253698858
 10
172.2852821392
 20
96.5624656521
 10
171.6528155305
 20
96.171346244
 10
170.9194711056
 20
95.9943955181
 10
170.164718112
 20
96.0507888314
 10
169.4703457477
 20
96.3344150932
 10
168.9116000327
 20
96.8145389973
  0
LWPOLYLINE
  5
FB
330
1F
100
AcDbEntity
  8
0
  6
HIDDEN
 62
     7
370
     0
100
AcDbPolyline
 90
       21
 70
   128
 43
0.0
 10
168.75418158
 20
96.9960797915
 10
168.3739577087
 20
97.6383948263
 10
168.223567986
 20
98.3596825097
 10
168.3177336056
 20
99.0893381775
 10
168.6472369807
 20
99.7559380493
 10
169.179824025
 20
100.2942306851
 10
169.8633614081
 20
100.6515242511
 10
170.6309397283
 20
100.7928443639
 10
171.4074230715
 20
100.704357626
 10
172.1168038382
 20
100.3947257359
 10
172.6896428963
 20
99.8942576204
 10
173.0698667676
 20
99.2519425855
 10
173.2202564904
 20
98.5306549022
 10
173.1260908707
 20
97.8009992343
 10
172.7965874957
 20
97.1343993625
 10
172.2640004513
 20
96.5961067268
 10
171.5804630682
 20
96.2388131607
 10
170.8128847481
 20
96.097493048
 10
170.0364014048
 20
96.1859797858
 10
169.3270206381
 20
96.4956116759
 10
168.75418158
 20
96.9960797915
  0
LWPOLYLINE
  5
FC
330
1F
100
AcDbEntity
  8
0
  6
HIDDEN
 62
     7
370
     0
100
AcDbPolyline
 90
       20
 70
   128
 43
0.0
 10
168.9116000327
 20
97.0505328962
 10
168.549029735
 20
97.6751255675
 10
168.4219249723
 20
98.3765026987
 10
168.5440595179
 20
99.0786591945
 10
168.9021981985
 20
99.7055055036
 10
169.4575311312
 20
100.1891131019
 10
170.1498793756
 20
100.477075602
 10
170.9042162567
 20
100.538187799
 10
171.6387976687
 20
100.3658272381
 10
172.2740203173
 20
99.9786718604
 10
172.7410479721
 20
99.4186759585
 10
172.9892709401
 20
98.7465237776
 10
172.9917904109
 20
98.035053436
 10
172.748333361
 20
97.3613637847
 10
172.2852821392
 20
96.798459551
 10
171.6528155305
 20
96.4073401429
 10
170.9194711056
 20
96.230389417
 10
170.164718112
 20
96.2867827303
 10
169.4703457477
 20
96.5704089921
 10
168.9116000327
 20
97.0505328962
  0
LWPOLYLINE
  5
FD
330
1F
100
AcDbEntity
  8
0
  6
HIDDEN
 62
     7
370
     0
100
AcDbPolyline
 90
       21
 70
   128
 43
0.0
 10
168.75418158
 20
97.2320736903
 10
168.3739577087
 20
97.8743887252
 10
168.223567986
 20
98.5956764086
 10
168.3177336056
 20
99.3253320764
 10
168.6472369807
 20
99.9919319482
 10
169.179824025
 20
100.530224584
 10
169.8633614081
 20
100.88751815
 10
170.6309397283
 20
101.0288382628
 10
171.4074230715
 20
100.9403515249
 10
172.1168038382
 20
100.6307196348
 10
172.6896428963
 20
100.1302515193
 10
173.0698667676
 20
99.4879364844
 10
173.2202564904
 20
98.7666488011
 10
173.1260908707
 20
98.0369931332
 10
172.7965874957
 20
97.3703932614
 10
172.2640004513
 20
96.8321006257
 10
171.5804630682
 20
96.4748070596
 10
170.8128847481
 20
96.3334869468
 10
170.0364014048
 20
96.4219736847
 10
169.3270206381
 20
96.7316055748
 10
168.75418158
 20
97.2320736903
  0
LWPOLYLINE
  5
FE
330
1F
100
AcDbEntity
  8
0
  6
HIDDEN
 62
     7
370
     0
100
AcDbPolyline
 90
       20
 70
   128
 43
0.0
 10
168.9116000327
 20
97.2865267951
 10
168.549029735
 20
97.9111194664
 10
168.4219249723
 20
98.6124965976
 10
168.5440595179
 20
99.3146530934
 10
168.9021981985
 20
99.9414994025
 10
169.4575311312
 20
100.4251070008
 10
170.1498793756
 20
100.7130695009
 10
170.9042162567
 20
100.7741816979
 10
171.6387976687
 20
100.601821137
 10
172.2740203173
 20
100.2146657593
 10
172.7410479721
 20
99.6546698574
 10
172.9892709401
 20
98.9825176765
 10
172.9917904109
 20
98.2710473349
 10
172.748333361
 20
97.5973576836
 10
172.2852821392
 20
97.0344534499
 10
171.6528155305
 20
96.6433340418
 10
170.9194711056
 20
96.4663833159
 10
170.164718112
 20
96.5227766292
 10
169.4703457477
 20
96.806402891
 10
168.9116000327
 20
97.2865267951
  0
LWPOLYLINE
  5
FF
330
1F
100
AcDbEntity
  8
0
  6
HIDDEN
 62
     7
370
     0
100
AcDbPolyline
 90
       21
 70
   128
 43
0.0
 10
168.75418158
 20
97.8306089412
 10
168.3739577087
 20
98.472923976
 10
168.223567986
 20
99.1942116594
 10
168.3177336056
 20
99.9238673272
 10
168.6472369807
 20
100.590467199
 10
169.179824025
 20
101.1287598348
 10
169.8633614081
 20
101.4860534009
 10
170.6309397283
 20
101.6273735136
 10
171.4074230715
 20
101.5388867757
 10
172.1168038382
 20
101.2292548856
 10
172.6896428963
 20
100.7287867701
 10
173.0698667676
 20
100.0864717352
 10
173.2202564904
 20
99.3651840519
 10
173.1260908707
 20
98.635528384
 10
172.7965874957
 20
97.9689285123
 10
172.2640004513
 20
97.4306358765
 10
171.5804630682
 20
97.0733423104
 10
170.8128847481
 20
96.9320221977
 10
170.0364014048
 20
97.0205089356
 10
169.3270206381
 20
97.3301408256
 10
168.75418158
 20
97.8306089412
  0
LWPOLYLINE
  5
100
330
1F
100
AcDbEntity
  8
0
  6
HIDDEN
 62
     7
370
     0
100
AcDbPolyline
 90
       19
 70
   128
 43
0.0
 10
169.1631667171
 20
98.2344024591
 10
168.8393686185
 20
98.8046005403
 10
168.7426330638
 20
99.4444781725
 10
168.8846277886
 20
100.0768566697
 10
169.2482261334
 20
100.6254618522
 10
169.7895727718
 20
101.0241238385
 10
170.4433733096
 20
101.2247581093
 10
171.1307697531
 20
101.2031652105
 10
171.7688519461
 20
100.9619495645
 10
172.2806577592
 20
100.5302053382
 10
172.6044558579
 20
99.9600072569
 10
172.7011914126
 20
99.3201296247
 10
172.5591966878
 20
98.6877511275
 10
172.1955983429
 20
98.139145945
 10
171.6542517046
 20
97.7404839588
 10
171.0004511667
 20
97.539849688
 10
170.3130547232
 20
97.5614425867
 10
169.6749725302
 20
97.8026582327
 10
169.1631667171
 20
98.2344024591
  0
LWPOLYLINE
  5
101
330
1F
100
AcDbEntity
  8
0
  6
HIDDEN
 62
     7
370
     0
100
AcDbPolyline
 90
       21
 70
   128
 43
0.0
 10
163.051544638
 20
124.3015475372
 10
162.8976103752
 20
124.9167392446
 10
162.8814300253
 20
125.6433592516
 10
163.0045874338
 20
126.4102809293
 10
163.2550270954
 20
127.1424326403
 10
163.6082342312
 20
127.7681462741
 10
164.0296344658
 20
128.2261726206
 10
164.4779782081
 20
128.4716768696
 10
164.9093784488
 20
128.4806273548
 10
165.2816067266
 20
128.2521479403
 10
165.5582267443
 20
127.8086037831
 10
165.7121610072
 20
127.1934120757
 10
165.728341357
 20
126.4667920687
 10
165.6051839485
 20
125.699870391
 10
165.3547442869
 20
124.9677186799
 10
165.0015371511
 20
124.3420050461
 10
164.5801369165
 20
123.8839786997
 10
164.1317931743
 20
123.6384744507
 10
163.7003929335
 20
123.6295239655
 10
163.3281646557
 20
123.85800338
 10
163.051544638
 20
124.3015475372
  0
LWPOLYLINE
  5
102
330
1F
100
AcDbEntity
  8
0
  6
HIDDEN
 62
     7
370
     0
100
AcDbPolyline
 90
       18
 70
   128
 43
0.0
 10
164.0419109872
 20
124.6804749528
 10
163.9249940423
 20
125.1965459822
 10
163.9423568366
 20
125.8086953422
 10
164.0916544285
 20
126.4342488697
 10
164.3527233511
 20
126.9887220944
 10
164.6903047995
 20
127.397230335
 10
165.0588065287
 20
127.6046022899
 10
165.4084603382
 20
127.5828312275
 10
165.6920435435
 20
127.3348574505
 10
165.8712566612
 20
126.8941711915
 10
165.921895967
 20
126.3202895716
 10
165.8371223417
 20
125.6907184838
 10
165.6283849335
 20
125.0904849918
 10
165.3238748857
 20
124.6006539549
 10
164.9647179678
 20
124.2873797688
 10
164.5994203117
 20
124.1929718483
 10
164.27731739
 20
124.3301805062
 10
164.0419109872
 20
124.6804749528
  0
LWPOLYLINE
  5
103
330
1F
100
AcDbEntity
  8
0
  6
HIDDEN
 62
     7
370
     0
100
AcDbPolyline
 90
       21
 70
   128
 43
0.0
 10
160.5997577498
 20
124.8887139226
 10
160.4458234869
 20
125.50390563
 10
160.4296431371
 20
126.230525637
 10
160.5528005456
 20
126.9974473147
 10
160.8032402072
 20
127.7295990257
 10
161.156447343
 20
128.3553126595
 10
161.5778475775
 20
128.813339006
 10
162.0261913198
 20
129.058843255
 10
162.4575915605
 20
129.0677937401
 10
162.8298198384
 20
128.8393143256
 10
163.1064398561
 20
128.3957701685
 10
163.2603741189
 20
127.7805784611
 10
163.2765544688
 20
127.053958454
 10
163.1533970603
 20
126.2870367764
 10
162.9029573986
 20
125.5548850653
 10
162.5497502628
 20
124.9291714315
 10
162.1283500283
 20
124.4711450851
 10
161.680006286
 20
124.2256408361
 10
161.2486060453
 20
124.2166903509
 10
160.8763777675
 20
124.4451697654
 10
160.5997577498
 20
124.8887139226
  0
LINE
  5
104
330
1F
100
AcDbEntity
  8
0
  6
HIDDEN
 62
     7
370
     0
100
AcDbLine
 10
162.5708115086
 20
126.6506293689
 30
0.0
 11
162.5573288414
 21
125.287894095
 31
0.0
  0
LINE
  5
105
330
1F
100
AcDbEntity
  8
0
  6
HIDDEN
 62
     7
370
     0
100
AcDbLine
 10
160.93250742
 20
127.0429787589
 30
0.0
 11
160.9190247528
 21
125.680243485
 31
0.0
  0
LWPOLYLINE
  5
106
330
1F
100
AcDbEntity
  8
0
  6
HIDDEN
 62
     7
370
     0
100
AcDbPolyline
 90
       19
 70
   128
 43
0.0
 10
160.6123952015
 20
125.2512433017
 10
160.4786696785
 20
125.8197839932
 10
160.4853363413
 20
126.4936044134
 10
160.6315910919
 20
127.1914318752
 10
160.8997934489
 20
127.8290980878
 10
161.2575942499
 20
128.329691095
 10
161.6618374376
 20
128.6328319922
 10
162.0637653176
 20
128.7019575134
 10
162.4148994558
 20
128.5287301004
 10
162.6728878929
 20
128.1340435358
 10
162.8066134159
 20
127.5655028444
 10
162.7999467531
 20
126.8916824242
 10
162.6536920025
 20
126.1938549624
 10
162.3854896455
 20
125.5561887498
 10
162.0276888445
 20
125.0555957426
 10
161.6234456568
 20
124.7524548453
 10
161.2215177768
 20
124.6833293242
 10
160.8703836386
 20
124.8565567372
 10
160.6123952015
 20
125.2512433017
  0
LINE
  5
107
330
1F
100
AcDbEntity
  8
0
  6
HIDDEN
 62
     7
370
     0
100
AcDbLine
 10
160.93250742
 20
127.0429787589
 30
0.0
 11
161.6561242145
 21
128.0553786927
 31
0.0
  0
LINE
  5
108
330
1F
100
AcDbEntity
  8
0
  6
HIDDEN
 62
     7
370
     0
100
AcDbLine
 10
162.5708115086
 20
126.6506293689
 30
0.0
 11
160.93250742
 21
127.0429787589
 31
0.0
  0
LINE
  5
109
330
1F
100
AcDbEntity
  8
0
  6
HIDDEN
 62
     7
370
     0
100
AcDbLine
 10
162.5708115086
 20
126.6506293689
 30
0.0
 11
163.294428303
 21
127.6630293028
 31
0.0
  0
LINE
  5
10A
330
1F
100
AcDbEntity
  8
0
  6
HIDDEN
 62
     7
370
     0
100
AcDbLine
 10
161.62915888
 20
125.3299081449
 30
0.0
 11
160.9190247528
 21
125.680243485
 31
0.0
  0
LINE
  5
10B
330
1F
100
AcDbEntity
  8
0
  6
HIDDEN
 62
     7
370
     0
100
AcDbLine
 10
162.5573288414
 20
125.287894095
 30
0.0
 11
160.9190247528
 21
125.680243485
 31
0.0
  0
LINE
  5
10C
330
1F
100
AcDbEntity
  8
0
  6
HIDDEN
 62
     7
370
     0
100
AcDbLine
 10
163.2674629685
 20
124.9375587549
 30
0.0
 11
162.5573288414
 21
125.287894095
 31
0.0
  0
LINE
  5
10D
330
1F
100
AcDbEntity
  8
0
  6
HIDDEN
 62
     7
370
     0
100
AcDbLine
 10
164.0045624302
 20
127.3126939627
 30
0.0
 11
162.3662583416
 21
127.7050433526
 31
0.0
  0
LINE
  5
10E
330
1F
100
AcDbEntity
  8
0
  6
HIDDEN
 62
     7
370
     0
100
AcDbLine
 10
163.294428303
 20
127.6630293028
 30
0.0
 11
161.6561242145
 21
128.0553786927
 31
0.0
  0
LINE
  5
10F
330
1F
100
AcDbEntity
  8
0
  6
HIDDEN
 62
     7
370
     0
100
AcDbLine
 10
161.6561242145
 20
128.0553786927
 30
0.0
 11
162.3662583416
 21
127.7050433526
 31
0.0
  0
LINE
  5
110
330
1F
100
AcDbEntity
  8
0
  6
HIDDEN
 62
     7
370
     0
100
AcDbLine
 10
163.294428303
 20
127.6630293028
 30
0.0
 11
164.0045624302
 21
127.3126939627
 31
0.0
  0
LINE
  5
111
330
1F
100
AcDbEntity
  8
0
  6
HIDDEN
 62
     7
370
     0
100
AcDbLine
 10
163.991079763
 20
125.9499586887
 30
0.0
 11
162.3527756744
 21
126.3423080787
 31
0.0
  0
LINE
  5
112
330
1F
100
AcDbEntity
  8
0
  6
HIDDEN
 62
     7
370
     0
100
AcDbLine
 10
162.3527756744
 20
126.3423080787
 30
0.0
 11
162.3662583416
 21
127.7050433526
 31
0.0
  0
LINE
  5
113
330
1F
100
AcDbEntity
  8
0
  6
HIDDEN
 62
     7
370
     0
100
AcDbLine
 10
163.991079763
 20
125.9499586887
 30
0.0
 11
164.0045624302
 21
127.3126939627
 31
0.0
  0
LINE
  5
114
330
1F
100
AcDbEntity
  8
0
  6
HIDDEN
 62
     7
370
     0
100
AcDbLine
 10
163.2674629685
 20
124.9375587549
 30
0.0
 11
161.62915888
 21
125.3299081449
 31
0.0
  0
LINE
  5
115
330
1F
100
AcDbEntity
  8
0
  6
HIDDEN
 62
     7
370
     0
100
AcDbLine
 10
161.62915888
 20
125.3299081449
 30
0.0
 11
162.3527756744
 21
126.3423080787
 31
0.0
  0
LINE
  5
116
330
1F
100
AcDbEntity
  8
0
  6
HIDDEN
 62
     7
370
     0
100
AcDbLine
 10
163.2674629685
 20
124.9375587549
 30
0.0
 11
163.991079763
 21
125.9499586887
 31
0.0
  0
LWPOLYLINE
  5
117
330
1F
100
AcDbEntity
  8
0
  6
HIDDEN
 62
     7
370
     0
100
AcDbPolyline
 90
       19
 70
   128
 43
0.0
 10
160.6123952015
 20
100.3243235309
 10
160.4786696785
 20
99.7557828394
 10
160.4853363413
 20
99.0819624192
 10
160.6315910919
 20
98.3841349574
 10
160.8997934489
 20
97.7464687448
 10
161.2575942499
 20
97.2458757376
 10
161.6618374376
 20
96.9427348403
 10
162.0637653176
 20
96.8736093192
 10
162.4148994558
 20
97.0468367322
 10
162.6728878929
 20
97.4415232967
 10
162.8066134159
 20
98.0100639882
 10
162.7999467531
 20
98.6838844084
 10
162.6536920025
 20
99.3817118702
 10
162.3854896455
 20
100.0193780828
 10
162.0276888445
 20
100.51997109
 10
161.6234456568
 20
100.8231119872
 10
161.2215177768
 20
100.8922375084
 10
160.8703836386
 20
100.7190100954
 10
160.6123952015
 20
100.3243235309
  0
LWPOLYLINE
  5
118
330
1F
100
AcDbEntity
  8
0
  6
HIDDEN
 62
     7
370
     0
100
AcDbPolyline
 90
       21
 70
   128
 43
0.0
 10
160.5997577498
 20
100.68685291
 10
160.4458234869
 20
100.0716612026
 10
160.4296431371
 20
99.3450411956
 10
160.5528005456
 20
98.5781195179
 10
160.8032402072
 20
97.8459678068
 10
161.156447343
 20
97.220254173
 10
161.5778475775
 20
96.7622278266
 10
162.0261913198
 20
96.5167235776
 10
162.4575915605
 20
96.5077730924
 10
162.8298198384
 20
96.7362525069
 10
163.1064398561
 20
97.1797966641
 10
163.2603741189
 20
97.7949883715
 10
163.2765544688
 20
98.5216083785
 10
163.1533970603
 20
99.2885300562
 10
162.9029573986
 20
100.0206817673
 10
162.5497502628
 20
100.6463954011
 10
162.1283500283
 20
101.1044217475
 10
161.680006286
 20
101.3499259965
 10
161.2486060453
 20
101.3588764817
 10
160.8763777675
 20
101.1303970672
 10
160.5997577498
 20
100.68685291
  0
LWPOLYLINE
  5
119
330
1F
100
AcDbEntity
  8
0
  6
HIDDEN
 62
     7
370
     0
100
AcDbPolyline
 90
       21
 70
   128
 43
0.0
 10
163.051544638
 20
101.2740192954
 10
162.8976103752
 20
100.658827588
 10
162.8814300253
 20
99.932207581
 10
163.0045874338
 20
99.1652859033
 10
163.2550270954
 20
98.4331341922
 10
163.6082342312
 20
97.8074205584
 10
164.0296344658
 20
97.349394212
 10
164.4779782081
 20
97.103889963
 10
164.9093784488
 20
97.0949394778
 10
165.2816067266
 20
97.3234188923
 10
165.5582267443
 20
97.7669630495
 10
165.7121610072
 20
98.3821547569
 10
165.728341357
 20
99.1087747639
 10
165.6051839485
 20
99.8756964416
 10
165.3547442869
 20
100.6078481527
 10
165.0015371511
 20
101.2335617865
 10
164.5801369165
 20
101.6915881329
 10
164.1317931743
 20
101.9370923819
 10
163.7003929335
 20
101.9460428671
 10
163.3281646557
 20
101.7175634526
 10
163.051544638
 20
101.2740192954
  0
LINE
  5
11A
330
1F
100
AcDbEntity
  8
0
  6
HIDDEN
 62
     7
370
     0
100
AcDbLine
 10
161.6561242145
 20
97.5201881399
 30
0.0
 11
162.3662583416
 21
97.87052348
 31
0.0
  0
LINE
  5
11B
330
1F
100
AcDbEntity
  8
0
  6
HIDDEN
 62
     7
370
     0
100
AcDbLine
 10
162.3527756744
 20
99.2332587539
 30
0.0
 11
162.3662583416
 21
97.87052348
 31
0.0
  0
LINE
  5
11C
330
1F
100
AcDbEntity
  8
0
  6
HIDDEN
 62
     7
370
     0
100
AcDbLine
 10
161.62915888
 20
100.2456586877
 30
0.0
 11
162.3527756744
 21
99.2332587539
 31
0.0
  0
LINE
  5
11D
330
1F
100
AcDbEntity
  8
0
  6
HIDDEN
 62
     7
370
     0
100
AcDbLine
 10
161.62915888
 20
100.2456586877
 30
0.0
 11
160.9190247528
 21
99.8953233476
 31
0.0
  0
LINE
  5
11E
330
1F
100
AcDbEntity
  8
0
  6
HIDDEN
 62
     7
370
     0
100
AcDbLine
 10
160.93250742
 20
98.5325880737
 30
0.0
 11
160.9190247528
 21
99.8953233476
 31
0.0
  0
LINE
  5
11F
330
1F
100
AcDbEntity
  8
0
  6
HIDDEN
 62
     7
370
     0
100
AcDbLine
 10
160.93250742
 20
98.5325880737
 30
0.0
 11
161.6561242145
 21
97.5201881399
 31
0.0
  0
LINE
  5
120
330
1F
100
AcDbEntity
  8
0
  6
HIDDEN
 62
     7
370
     0
100
AcDbLine
 10
163.991079763
 20
99.6256081438
 30
0.0
 11
162.3527756744
 21
99.2332587539
 31
0.0
  0
LWPOLYLINE
  5
121
330
1F
100
AcDbEntity
  8
0
  6
HIDDEN
 62
     7
370
     0
100
AcDbPolyline
 90
       18
 70
   128
 43
0.0
 10
164.0419109872
 20
100.8950918797
 10
163.9249940423
 20
100.3790208503
 10
163.9423568366
 20
99.7668714903
 10
164.0916544285
 20
99.1413179629
 10
164.3527233511
 20
98.5868447381
 10
164.6903047995
 20
98.1783364976
 10
165.0588065287
 20
97.9709645427
 10
165.4084603382
 20
97.992735605
 10
165.6920435435
 20
98.2407093821
 10
165.8712566612
 20
98.6813956411
 10
165.921895967
 20
99.2552772609
 10
165.8371223417
 20
99.8848483488
 10
165.6283849335
 20
100.4850818407
 10
165.3238748857
 20
100.9749128776
 10
164.9647179678
 20
101.2881870637
 10
164.5994203117
 20
101.3825949842
 10
164.27731739
 20
101.2453863264
 10
164.0419109872
 20
100.8950918797
  0
LINE
  5
122
330
1F
100
AcDbEntity
  8
0
  6
HIDDEN
 62
     7
370
     0
100
AcDbLine
 10
164.0045624302
 20
98.2628728699
 30
0.0
 11
162.3662583416
 21
97.87052348
 31
0.0
  0
LINE
  5
123
330
1F
100
AcDbEntity
  8
0
  6
HIDDEN
 62
     7
370
     0
100
AcDbLine
 10
163.2674629685
 20
100.6380080776
 30
0.0
 11
162.5573288414
 21
100.2876727375
 31
0.0
  0
LINE
  5
124
330
1F
100
AcDbEntity
  8
0
  6
HIDDEN
 62
     7
370
     0
100
AcDbLine
 10
162.5708115086
 20
98.9249374636
 30
0.0
 11
163.294428303
 21
97.9125375298
 31
0.0
  0
LINE
  5
125
330
1F
100
AcDbEntity
  8
0
  6
HIDDEN
 62
     7
370
     0
100
AcDbLine
 10
162.5708115086
 20
98.9249374636
 30
0.0
 11
162.5573288414
 21
100.2876727375
 31
0.0
  0
LINE
  5
126
330
1F
100
AcDbEntity
  8
0
  6
HIDDEN
 62
     7
370
     0
100
AcDbLine
 10
163.294428303
 20
97.9125375298
 30
0.0
 11
164.0045624302
 21
98.2628728699
 31
0.0
  0
LINE
  5
127
330
1F
100
AcDbEntity
  8
0
  6
HIDDEN
 62
     7
370
     0
100
AcDbLine
 10
163.2674629685
 20
100.6380080776
 30
0.0
 11
163.991079763
 21
99.6256081438
 31
0.0
  0
LINE
  5
128
330
1F
100
AcDbEntity
  8
0
  6
HIDDEN
 62
     7
370
     0
100
AcDbLine
 10
163.991079763
 20
99.6256081438
 30
0.0
 11
164.0045624302
 21
98.2628728699
 31
0.0
  0
LINE
  5
129
330
1F
100
AcDbEntity
  8
0
  6
HIDDEN
 62
     7
370
     0
100
AcDbLine
 10
162.5573288414
 20
100.2876727375
 30
0.0
 11
160.9190247528
 21
99.8953233476
 31
0.0
  0
LINE
  5
12A
330
1F
100
AcDbEntity
  8
0
  6
HIDDEN
 62
     7
370
     0
100
AcDbLine
 10
163.2674629685
 20
100.6380080776
 30
0.0
 11
161.62915888
 21
100.2456586877
 31
0.0
  0
LINE
  5
12B
330
1F
100
AcDbEntity
  8
0
  6
HIDDEN
 62
     7
370
     0
100
AcDbLine
 10
162.5708115086
 20
98.9249374636
 30
0.0
 11
160.93250742
 21
98.5325880737
 31
0.0
  0
LINE
  5
12C
330
1F
100
AcDbEntity
  8
0
  6
HIDDEN
 62
     7
370
     0
100
AcDbLine
 10
163.294428303
 20
97.9125375298
 30
0.0
 11
161.6561242145
 21
97.5201881399
 31
0.0
  0
LWPOLYLINE
  5
12D
330
1F
100
AcDbEntity
  8
0
  6
HIDDEN
 62
     7
370
     0
100
AcDbPolyline
 90
       21
 70
   128
 43
0.0
 10
170.7219122382
 20
96.9304663037
 10
171.4944547241
 20
97.0454458799
 10
172.1913753689
 20
97.3791296064
 10
172.7444547241
 20
97.8988541952
 10
173.0995535289
 20
98.5537453824
 10
173.2219122382
 20
99.2796978556
 10
173.0995535289
 20
100.0056503289
 10
172.7444547241
 20
100.6605415161
 10
172.1913753689
 20
101.1802661049
 10
171.4944547241
 20
101.5139498314
 10
170.7219122382
 20
101.6289294076
 10
169.9493697522
 20
101.5139498314
 10
169.2524491074
 20
101.1802661049
 10
168.6993697522
 20
100.6605415161
 10
168.3442709474
 20
100.0056503289
 10
168.2219122382
 20
99.2796978556
 10
168.3442709474
 20
98.5537453824
 10
168.6993697522
 20
97.8988541952
 10
169.2524491074
 20
97.3791296064
 10
169.9493697522
 20
97.0454458799
 10
170.7219122382
 20
96.9304663037
  0
LWPOLYLINE
  5
12E
330
1F
100
AcDbEntity
  8
0
  6
HIDDEN
 62
     7
370
     0
100
AcDbPolyline
 90
       23
 70
   128
 43
0.0
 10
159.9936431627
 20
98.8829234138
 10
160.1989512649
 20
98.0541488114
 10
160.5212185678
 20
97.2925165984
 10
160.9343368911
 20
96.659729687
 10
161.4048378452
 20
96.2070527096
 10
161.894604241
 20
95.9711588626
 10
162.3639581178
 20
95.9711588626
 10
162.7748752159
 20
96.2070527096
 10
163.0940654758
 20
96.659729687
 10
163.295670001
 20
97.2925165984
 10
163.3633559918
 20
98.0541488114
 10
163.2916399317
 20
98.8829234138
 10
163.0863318295
 20
99.7116980162
 10
162.7640645266
 20
100.4733302292
 10
162.3509462033
 20
101.1061171405
 10
161.8804452492
 20
101.558794118
 10
161.3906788534
 20
101.794687965
 10
160.9213249766
 20
101.794687965
 10
160.5104078785
 20
101.558794118
 10
160.1912176186
 20
101.1061171405
 10
159.9896130934
 20
100.4733302292
 10
159.9219271027
 20
99.7116980162
 10
159.9936431627
 20
98.8829234138
  0
LWPOLYLINE
  5
12F
330
1F
100
AcDbEntity
  8
0
  6
HIDDEN
 62
     7
370
     0
100
AcDbPolyline
 90
       19
 70
   128
 43
0.0
 10
160.7566749434
 20
98.9471849885
 10
160.9439941549
 20
98.242898881
 10
161.2479453842
 20
97.6235600723
 10
161.6318676273
 20
97.163869963
 10
162.0494541954
 20
96.9192739648
 10
162.4503379857
 20
96.9192739648
 10
162.7861664964
 20
97.163869963
 10
163.0164338531
 20
97.6235600723
 10
163.113366414
 20
98.242898881
 10
163.0652726817
 20
98.9471849885
 10
162.8779534702
 20
99.651471096
 10
162.5740022408
 20
100.2708099047
 10
162.1900799978
 20
100.730500014
 10
161.7724934296
 20
100.9750960122
 10
161.3716096394
 20
100.9750960122
 10
161.0357811286
 20
100.730500014
 10
160.805513772
 20
100.2708099047
 10
160.7085812111
 20
99.651471096
 10
160.7566749434
 20
98.9471849885
  0
ELLIPSE
  5
130
330
1F
100
AcDbEntity
  8
0
  6
HIDDEN
 62
     7
370
     0
100
AcDbEllipse
 10
170.7219122382
 20
101.0572733049
 30
0.0
 11
1.760776919379055
 21
2.232245799914452
 31
0.0
210
0.0
220
0.0
230
1.0
 40
0.5126701559
 41
1.100887047646273
 42
4.029627027608265
  0
ARC
  5
131
330
1F
100
AcDbEntity
  8
0
  6
HIDDEN
 62
     7
370
     0
100
AcDbCircle
 10
170.0253118325
 20
102.2348096329
 30
0.0
 40
0.7945986301554145
100
AcDbArc
 50
53.4208978927
 51
99.166283307
  0
ELLIPSE
  5
132
330
1F
100
AcDbEntity
  8
0
  6
HIDDEN
 62
     7
370
     0
100
AcDbEllipse
 10
170.7219122382
 20
101.0572733049
 30
0.0
 11
1.760776919379055
 21
-1.388886188042946
 31
0.0
210
0.0
220
0.0
230
1.0
 40
0.8239737799
 41
2.549926265248572
 42
4.885930273856132
  0
ARC
  5
133
330
1F
100
AcDbEntity
  8
0
  6
HIDDEN
 62
     7
370
     0
100
AcDbCircle
 10
170.9679596343
 20
100.217790391
 30
0.0
 40
1.353188311833865
100
AcDbArc
 50
217.800065973
 51
249.7157202583
  0
LWPOLYLINE
  5
134
330
1F
100
AcDbEntity
  8
0
  6
HIDDEN
 62
     7
370
     0
100
AcDbPolyline
 90
       19
 70
   128
 43
0.0
 10
170.7219122382
 20
97.3561374127
 10
171.4401545391
 20
97.475145251
 10
172.0717662185
 20
97.8178146645
 10
172.5405655861
 20
98.3428146645
 10
172.7900085195
 20
98.9868225029
 10
172.7900085195
 20
99.6721613298
 10
172.5405655861
 20
100.3161691681
 10
172.0717662185
 20
100.8411691681
 10
171.4401545391
 20
101.1838385816
 10
170.7219122382
 20
101.30284642
 10
170.0036699372
 20
101.1838385816
 10
169.3720582578
 20
100.8411691681
 10
168.9032588902
 20
100.3161691681
 10
168.6538159568
 20
99.6721613298
 10
168.6538159568
 20
98.9868225029
 10
168.9032588902
 20
98.3428146645
 10
169.3720582578
 20
97.8178146645
 10
170.0036699372
 20
97.475145251
 10
170.7219122382
 20
97.3561374127
  0
SPLINE
  5
135
330
1F
100
AcDbEntity
  8
0
  6
HIDDEN
 62
     7
370
     0
100
AcDbSpline
210
0.0
220
0.0
230
1.0
 70
    11
 71
     3
 72
    64
 73
    60
 74
     0
 42
0.000000001
 43
0.00000001
 40
0.0
 40
0.0
 40
0.0
 40
0.0
 40
0.0312499999999998
 40
0.0312499999999998
 40
0.0624999999999996
 40
0.0624999999999996
 40
0.0937499999999994
 40
0.0937499999999994
 40
0.1249999999999993
 40
0.1249999999999993
 40
0.1874999999999988
 40
0.1874999999999988
 40
0.2187499999999987
 40
0.2187499999999987
 40
0.2499999999999985
 40
0.2499999999999985
 40
0.2812499999999983
 40
0.2812499999999983
 40
0.3124999999999982
 40
0.3124999999999982
 40
0.3437499999999981
 40
0.3437499999999981
 40
0.3749999999999979
 40
0.3749999999999979
 40
0.4062499999999978
 40
0.4062499999999978
 40
0.4374999999999977
 40
0.4374999999999977
 40
0.4999999999999973
 40
0.4999999999999973
 40
0.5312499999999976
 40
0.5312499999999976
 40
0.5624999999999978
 40
0.5624999999999978
 40
0.5937499999999981
 40
0.5937499999999981
 40
0.6249999999999983
 40
0.6249999999999983
 40
0.6562499999999986
 40
0.6562499999999986
 40
0.6874999999999988
 40
0.6874999999999988
 40
0.7187499999999991
 40
0.7187499999999991
 40
0.7499999999999993
 40
0.7499999999999993
 40
0.8124999999999998
 40
0.8124999999999998
 40
0.8437500000000001
 40
0.8437500000000001
 40
0.8750000000000003
 40
0.8750000000000003
 40
0.9062500000000002
 40
0.9062500000000002
 40
0.9375000000000001
 40
0.9375000000000001
 40
0.9687500000000001
 40
0.9687500000000001
 40
1.0
 40
1.0
 40
1.0
 40
1.0
 10
170.7219122381623
 20
109.2248629296291
 30
0.0
 10
170.5815011838888
 20
109.2248629296291
 30
0.0
 10
170.4437906820037
 20
109.2357817948736
 30
0.0
 10
170.173425210782
 20
109.2785903387687
 30
0.0
 10
170.0393667184327
 20
109.3110668244095
 30
0.0
 10
169.786018296384
 20
109.3956191686291
 30
0.0
 10
169.6661077227367
 20
109.4475127579093
 30
0.0
 10
169.439144697643
 20
109.5715371898996
 30
0.0
 10
169.3330987025946
 20
109.6434178140001
 30
0.0
 10
169.045955517633
 20
109.8832177942962
 30
0.0
 10
168.8900347257177
 20
110.0810796098801
 30
0.0
 10
168.7318154868881
 20
110.4157167195158
 30
0.0
 10
168.6905647187819
 20
110.5359091313914
 30
0.0
 10
168.6358468485134
 20
110.7837697569643
 30
0.0
 10
168.622069786387
 20
110.9108720333212
 30
0.0
 10
168.6217573508634
 20
111.1716470653905
 30
0.0
 10
168.635706782421
 20
111.3058906512226
 30
0.0
 10
168.6899763470368
 20
111.5679151760267
 30
0.0
 10
168.7302467644059
 20
111.6975542354904
 30
0.0
 10
168.8369914375686
 20
111.9522031859062
 30
0.0
 10
168.9018416341445
 20
112.0734883643295
 30
0.0
 10
169.0534468904183
 20
112.3042010576303
 30
0.0
 10
169.1412363718005
 20
112.4145164395544
 30
0.0
 10
169.3332687795689
 20
112.6148896033634
 30
0.0
 10
169.437706840355
 20
112.7056981139229
 30
0.0
 10
169.6641982444231
 20
112.8675872201692
 30
0.0
 10
169.7861781768358
 20
112.9381459575139
 30
0.0
 10
170.1639395492437
 20
113.1086888556882
 30
0.0
 10
170.4429756518703
 20
113.1712105843543
 30
0.0
 10
170.8576344742513
 20
113.1717501758645
 30
0.0
 10
170.9978556683301
 20
113.1566822202859
 30
0.0
 10
171.2701038555959
 20
113.0972638793721
 30
0.0
 10
171.4015631783881
 20
113.053500330556
 30
0.0
 10
171.6556615763327
 20
112.939291837864
 30
0.0
 10
171.7776743058547
 20
112.8687592615346
 30
0.0
 10
172.0034569336252
 20
112.7078185235448
 30
0.0
 10
172.1091105072543
 20
112.6163058136429
 30
0.0
 10
172.302609985848
 20
112.4145846850165
 30
0.0
 10
172.3887045103295
 20
112.3064126142349
 30
0.0
 10
172.5403540876661
 20
112.0762943162534
 30
0.0
 10
172.60645978232
 20
111.9527795876882
 30
0.0
 10
172.7124585416623
 20
111.7005337554858
 30
0.0
 10
172.7527861220335
 20
111.5717992892406
 30
0.0
 10
172.8076447701869
 20
111.3093830302369
 30
0.0
 10
172.8218140270214
 20
111.1750208519357
 30
0.0
 10
172.8221070930196
 20
110.7845766104023
 30
0.0
 10
172.7658643341832
 20
110.5304724834466
 30
0.0
 10
172.6075204121003
 20
110.1943020465931
 30
0.0
 10
172.5415902301574
 20
110.0875740641677
 30
0.0
 10
172.3894658932942
 20
109.8928860134025
 30
0.0
 10
172.3033238901089
 20
109.8043198762205
 30
0.0
 10
172.1105705381292
 20
109.6432296051135
 30
0.0
 10
172.0042845998317
 20
109.5713576590707
 30
0.0
 10
171.77901592803
 20
109.4481864248965
 30
0.0
 10
171.6591143252038
 20
109.3960585119
 30
0.0
 10
171.4032361558783
 20
109.3106563649633
 30
0.0
 10
171.2716992279099
 20
109.2788819069214
 30
0.0
 10
171.0018758893
 20
109.2359887195395
 30
0.0
 10
170.8623232924358
 20
109.2248629296291
 30
0.0
 10
170.7219122381623
 20
109.2248629296291
 30
0.0
  0
SPLINE
  5
136
330
1F
100
AcDbEntity
  8
0
  6
HIDDEN
 62
     7
370
     0
100
AcDbSpline
210
0.0
220
0.0
230
1.0
 70
     8
 71
     3
 72
     8
 73
     4
 74
     0
 42
0.000000001
 43
0.00000001
 40
0.0
 40
0.0
 40
0.0
 40
0.0
 40
1.0
 40
1.0
 40
1.0
 40
1.0
 10
169.8987320620029
 20
103.0192613808022
 30
0.0
 10
170.1101594520041
 20
103.0117518710198
 30
0.0
 10
170.3126279985369
 20
102.9576283413851
 30
0.0
 10
170.4988385976742
 20
102.8729000541599
 30
0.0
  0
SPLINE
  5
137
330
1F
100
AcDbEntity
  8
0
  6
HIDDEN
 62
     7
370
     0
100
AcDbSpline
210
0.0
220
0.0
230
1.0
 70
     8
 71
     3
 72
     8
 73
     4
 74
     0
 42
0.000000001
 43
0.00000001
 40
0.0
 40
0.0
 40
0.0
 40
0.0
 40
1.0
 40
1.0
 40
1.0
 40
1.0
 10
170.4988385976742
 20
98.9485212862257
 30
0.0
 10
170.3123142483898
 20
99.07084170212616
 30
0.0
 10
170.1097593498642
 20
99.21192686279089
 30
0.0
 10
169.8987320620029
 20
99.38841049857571
 30
0.0
  0
LINE
  5
138
330
1F
100
AcDbEntity
  8
0
  6
HIDDEN
 62
     7
370
     0
100
AcDbLine
 10
159.8934851134
 20
77.4877834163
 30
0.0
 11
159.7219122382
 21
77.4877834163
 31
0.0
  0
ELLIPSE
  5
139
330
1F
100
AcDbEntity
  8
0
  6
HIDDEN
 62
     7
370
     0
100
AcDbEllipse
 10
159.8934851134
 20
75.4877834163
 30
0.0
 11
0.0
 21
2.0
 31
0.0
210
0.0
220
0.0
230
1.0
 40
0.4142135624
 41
4.712388980384695
 42
6.283185307179586
  0
LINE
  5
13A
330
1F
100
AcDbEntity
  8
0
  6
HIDDEN
 62
     7
370
     0
100
AcDbLine
 10
159.7219122382
 20
150.2877834163
 30
0.0
 11
159.8934851134
 21
150.2877834163
 31
0.0
  0
ELLIPSE
  5
13B
330
1F
100
AcDbEntity
  8
0
  6
HIDDEN
 62
     7
370
     0
100
AcDbEllipse
 10
159.8934851134
 20
152.2877834163
 30
0.0
 11
0.0
 21
2.0
 31
0.0
210
0.0
220
0.0
230
1.0
 40
0.4142135624
 41
3.141592653589793
 42
4.712388980384695
  0
LINE
  5
13C
330
1F
100
AcDbEntity
  8
0
  6
HIDDEN
 62
     7
370
     0
100
AcDbLine
 10
160.7219122382
 20
66.6018683493
 30
0.0
 11
159.9375722693
 21
66.1543291491
 31
0.0
  0
LINE
  5
13D
330
1F
100
AcDbEntity
  8
0
  6
HIDDEN
 62
     7
370
     0
100
AcDbLine
 10
160.0117811571
 20
159.497947742
 30
0.0
 11
160.7219122382
 21
158.7878166609
 31
0.0
  0
LINE
  5
13E
330
1F
100
AcDbEntity
  8
0
  6
HIDDEN
 62
     7
370
     0
100
AcDbLine
 10
159.8934851134
 20
150.2877834163
 30
0.0
 11
175.5719122382
 21
150.2877834163
 31
0.0
  0
LINE
  5
13F
330
1F
100
AcDbEntity
  8
0
  6
HIDDEN
 62
     7
370
     0
100
AcDbLine
 10
160.7219122382
 20
158.7878166609
 30
0.0
 11
164.945241216
 21
158.7878166609
 31
0.0
  0
LINE
  5
140
330
1F
100
AcDbEntity
  8
0
  6
HIDDEN
 62
     7
370
     0
100
AcDbLine
 10
170.2985832603
 20
158.7878166609
 30
0.0
 11
175.5719122382
 21
158.7878166609
 31
0.0
  0
LINE
  5
141
330
1F
100
AcDbEntity
  8
0
  6
HIDDEN
 62
     7
370
     0
100
AcDbLine
 10
160.7219122382
 20
158.7878166609
 30
0.0
 11
160.7219122382
 21
152.2877834163
 31
0.0
  0
LINE
  5
142
330
1F
100
AcDbEntity
  8
0
  6
HIDDEN
 62
     7
370
     0
100
AcDbLine
 10
164.8418644077
 20
66.6018683493
 30
0.0
 11
160.7219122382
 21
66.6018683493
 31
0.0
  0
LINE
  5
143
330
1F
100
AcDbEntity
  8
0
  6
HIDDEN
 62
     7
370
     0
100
AcDbLine
 10
175.5719122382
 20
66.6018683493
 30
0.0
 11
170.4019600687
 21
66.6018683493
 31
0.0
  0
LINE
  5
144
330
1F
100
AcDbEntity
  8
0
  6
HIDDEN
 62
     7
370
     0
100
AcDbLine
 10
160.7219122382
 20
66.6018683493
 30
0.0
 11
160.7219122382
 21
75.4877834163
 31
0.0
  0
LINE
  5
145
330
1F
100
AcDbEntity
  8
0
  6
HIDDEN
 62
     7
370
     0
100
AcDbLine
 10
175.5719122382
 20
77.4877834163
 30
0.0
 11
159.8934851134
 21
77.4877834163
 31
0.0
  0
LINE
  5
146
330
1F
100
AcDbEntity
  8
0
  6
HIDDEN
 62
     7
370
     0
100
AcDbLine
 10
64.9219122382
 20
100.2877834163
 30
0.0
 11
64.9219122382
 21
125.2877834163
 31
0.0
  0
LINE
  5
147
330
1F
100
AcDbEntity
  8
0
  6
HIDDEN
 62
     7
370
     0
100
AcDbLine
 10
68.2065165871
 20
102.2877834163
 30
0.0
 11
68.2065165871
 21
123.2877834163
 31
0.0
  0
CIRCLE
  5
148
330
1F
100
AcDbEntity
  8
0
  6
HIDDEN
 62
     7
370
     0
100
AcDbCircle
 10
232.4719122382
 20
112.7877834163
 30
0.0
 40
3.5
  0
LINE
  5
149
330
1F
100
AcDbEntity
  8
0
  6
HIDDEN
 62
     7
370
     0
100
AcDbLine
 10
116.9219122382
 20
102.2877834163
 30
0.0
 11
116.9219122382
 21
123.2877834163
 31
0.0
  0
LINE
  5
14A
330
1F
100
AcDbEntity
  8
0
  6
HIDDEN
 62
     7
370
     0
100
AcDbLine
 10
120.1665595809
 20
107.6877834163
 30
0.0
 11
120.1665595809
 21
117.8877834163
 31
0.0
  0
LINE
  5
14B
330
1F
100
AcDbEntity
  8
0
  6
HIDDEN
 62
     7
370
     0
100
AcDbLine
 10
223.0219122382
 20
112.7877834163
 30
0.0
 11
223.0219122382
 21
106.0877834163
 31
0.0
  0
LINE
  5
14C
330
1F
100
AcDbEntity
  8
0
  6
HIDDEN
 62
     7
370
     0
100
AcDbLine
 10
223.0219122382
 20
119.4877834163
 30
0.0
 11
223.0219122382
 21
112.7877834163
 31
0.0
  0
LINE
  5
14D
330
1F
100
AcDbEntity
  8
0
  6
HIDDEN
 62
     7
370
     0
100
AcDbLine
 10
226.3879376419
 20
112.7877834163
 30
0.0
 11
226.3879376419
 21
105.7877834163
 31
0.0
  0
LINE
  5
14E
330
1F
100
AcDbEntity
  8
0
  6
HIDDEN
 62
     7
370
     0
100
AcDbLine
 10
226.3879376419
 20
119.7877834163
 30
0.0
 11
226.3879376419
 21
112.7877834163
 31
0.0
  0
SPLINE
  5
14F
330
1F
100
AcDbEntity
  8
0
  6
HIDDEN
 62
     7
370
     0
100
AcDbSpline
210
0.0
220
0.0
230
1.0
 70
    11
 71
     3
 72
    64
 73
    60
 74
     0
 42
0.000000001
 43
0.00000001
 40
0.0
 40
0.0
 40
0.0
 40
0.0
 40
0.0312500000000001
 40
0.0312500000000001
 40
0.0625000000000003
 40
0.0625000000000003
 40
0.0937500000000004
 40
0.0937500000000004
 40
0.1250000000000005
 40
0.1250000000000005
 40
0.1875000000000008
 40
0.1875000000000008
 40
0.2187500000000009
 40
0.2187500000000009
 40
0.2500000000000011
 40
0.2500000000000011
 40
0.2812500000000013
 40
0.2812500000000013
 40
0.3125000000000015
 40
0.3125000000000015
 40
0.3437500000000017
 40
0.3437500000000017
 40
0.3750000000000019
 40
0.3750000000000019
 40
0.4062500000000021
 40
0.4062500000000021
 40
0.4375000000000022
 40
0.4375000000000022
 40
0.5000000000000023
 40
0.5000000000000023
 40
0.5312500000000021
 40
0.5312500000000021
 40
0.5625000000000019
 40
0.5625000000000019
 40
0.5937500000000018
 40
0.5937500000000018
 40
0.6250000000000016
 40
0.6250000000000016
 40
0.6562500000000013
 40
0.6562500000000013
 40
0.6875000000000011
 40
0.6875000000000011
 40
0.7187500000000009
 40
0.7187500000000009
 40
0.7500000000000007
 40
0.7500000000000007
 40
0.8125000000000006
 40
0.8125000000000006
 40
0.8437500000000004
 40
0.8437500000000004
 40
0.8750000000000003
 40
0.8750000000000003
 40
0.9062500000000002
 40
0.9062500000000002
 40
0.9375000000000002
 40
0.9375000000000002
 40
0.9687500000000001
 40
0.9687500000000001
 40
1.0
 40
1.0
 40
1.0
 40
1.0
 10
170.7219122381623
 20
112.4039948956318
 30
0.0
 10
170.8623232924358
 20
112.4039948956318
 30
0.0
 10
171.0000337943209
 20
112.4192688830878
 30
0.0
 10
171.2703992655427
 20
112.4784593704865
 30
0.0
 10
171.4044577578919
 20
112.5231654703752
 30
0.0
 10
171.6578061799406
 20
112.6374450240182
 30
0.0
 10
171.777716753588
 20
112.7067771453987
 30
0.0
 10
172.0046797786816
 20
112.8686809906988
 30
0.0
 10
172.11072577373
 20
112.9608714542878
 30
0.0
 10
172.3978689586916
 20
113.2604361985695
 30
0.0
 10
172.5537897506069
 20
113.4976055254141
 30
0.0
 10
172.7120089894365
 20
113.8738847649016
 30
0.0
 10
172.7532597575427
 20
114.0053994306684
 30
0.0
 10
172.8079776278112
 20
114.2684191610886
 30
0.0
 10
172.8217546899376
 20
114.3994331196586
 30
0.0
 10
172.8220671254612
 20
114.6602961534108
 30
0.0
 10
172.8081176939037
 20
114.7905799786455
 30
0.0
 10
172.7538481292878
 20
115.0375673742261
 30
0.0
 10
172.7135777119187
 20
115.1561409898526
 30
0.0
 10
172.606833038756
 20
115.3826839699229
 30
0.0
 10
172.5419828421801
 20
115.4873648121732
 30
0.0
 10
172.3903775859063
 20
115.6816384575269
 30
0.0
 10
172.3025881045241
 20
115.7719051014292
 30
0.0
 10
172.1105556967558
 20
115.9323062365089
 30
0.0
 10
172.0061176359696
 20
116.0031075160286
 30
0.0
 10
171.7796262319015
 20
116.1271450420983
 30
0.0
 10
171.6576462994888
 20
116.1799636016369
 30
0.0
 10
171.2798849270809
 20
116.3061494442513
 30
0.0
 10
171.0008488244544
 20
116.3504446195846
 30
0.0
 10
170.5861900020733
 20
116.3508317957191
 30
0.0
 10
170.4459688079946
 20
116.3400619315416
 30
0.0
 10
170.1737206207287
 20
116.2970906344248
 30
0.0
 10
170.0422612979365
 20
116.2653048380692
 30
0.0
 10
169.788162899992
 20
116.1808214412804
 30
0.0
 10
169.66615017047
 20
116.1280261792093
 30
0.0
 10
169.4403675426994
 20
116.0047486745104
 30
0.0
 10
169.3347139690704
 20
115.933430419139
 30
0.0
 10
169.1412144904766
 20
115.7719691737968
 30
0.0
 10
169.0551199659951
 20
115.6834631694519
 30
0.0
 10
168.9034703886585
 20
115.4897643273705
 30
0.0
 10
168.8373646940046
 20
115.3831667019422
 30
0.0
 10
168.7313659346623
 20
115.1588212867314
 30
0.0
 10
168.6910383542911
 20
115.0411596254736
 30
0.0
 10
168.6361797061377
 20
114.7939389838672
 30
0.0
 10
168.6220104493033
 20
114.663598651355
 30
0.0
 10
168.621717383305
 20
114.2732369558426
 30
0.0
 10
168.6779601421414
 20
114.0028275307894
 30
0.0
 10
168.8363040642243
 20
113.6249632287557
 30
0.0
 10
168.9022342461672
 20
113.5013501797273
 30
0.0
 10
169.0543585830304
 20
113.2701103011022
 30
0.0
 10
169.1405005862158
 20
113.16186630424
 30
0.0
 10
169.3332539381954
 20
112.9606447349236
 30
0.0
 10
169.439539876493
 20
112.8684423533151
 30
0.0
 10
169.6648085482946
 20
112.7076608203791
 30
0.0
 10
169.7847101511208
 20
112.6380386407202
 30
0.0
 10
170.0405883204463
 20
112.522610892509
 30
0.0
 10
170.1721252484147
 20
112.4788607126912
 30
0.0
 10
170.4419485870246
 20
112.4195567757494
 30
0.0
 10
170.5815011838888
 20
112.4039948956318
 30
0.0
 10
170.7219122381623
 20
112.4039948956318
 30
0.0
  0
SPLINE
  5
150
330
1F
100
AcDbEntity
  8
0
  6
HIDDEN
 62
     7
370
     0
100
AcDbSpline
210
0.0
220
0.0
230
1.0
 70
     8
 71
     3
 72
     8
 73
     4
 74
     0
 42
0.000000001
 43
0.00000001
 40
0.0
 40
0.0
 40
0.0
 40
0.0
 40
1.0
 40
1.0
 40
1.0
 40
1.0
 10
169.8987320620028
 20
122.5563054517595
 30
0.0
 10
170.1101594520041
 20
122.563814961542
 30
0.0
 10
170.3126279985368
 20
122.6179384911766
 30
0.0
 10
170.4988385976741
 20
122.7026667784018
 30
0.0
  0
ELLIPSE
  5
151
330
1F
100
AcDbEntity
  8
0
  6
HIDDEN
 62
     7
370
     0
100
AcDbEllipse
 10
170.7219122382
 20
124.5182935276
 30
0.0
 11
-1.760776919379083
 21
2.232245799914438
 31
0.0
210
0.0
220
0.0
230
1.0
 40
0.5126701559
 41
5.395150933160701
 42
8.323890913123101
  0
SPLINE
  5
152
330
1F
100
AcDbEntity
  8
0
  6
HIDDEN
 62
     7
370
     0
100
AcDbSpline
210
0.0
220
0.0
230
1.0
 70
     8
 71
     3
 72
     8
 73
     4
 74
     0
 42
0.000000001
 43
0.00000001
 40
0.0
 40
0.0
 40
0.0
 40
0.0
 40
1.0
 40
1.0
 40
1.0
 40
1.0
 10
170.498838597675
 20
126.6270455463365
 30
0.0
 10
170.3123142483902
 20
126.5047251304358
 30
0.0
 10
170.109759349864
 20
126.3636399697707
 30
0.0
 10
169.8987320620022
 20
126.1871563339853
 30
0.0
  0
ELLIPSE
  5
153
330
1F
100
AcDbEntity
  8
0
  6
HIDDEN
 62
     7
370
     0
100
AcDbEllipse
 10
170.7219122382
 20
124.5182935276
 30
0.0
 11
1.760776919379055
 21
1.388886188042932
 31
0.0
210
0.0
220
0.0
230
1.0
 40
0.8239737799
 41
1.39725503332394
 42
3.73325904193104
  0
LWPOLYLINE
  5
154
330
1F
100
AcDbEntity
  8
0
  6
HIDDEN
 62
     7
370
     0
100
AcDbPolyline
 90
       19
 70
   128
 43
0.0
 10
170.7219122382
 20
124.2727204126
 10
171.4401545391
 20
124.391728251
 10
172.0717662185
 20
124.7343976644
 10
172.5405655861
 20
125.2593976644
 10
172.7900085195
 20
125.9034055028
 10
172.7900085195
 20
126.5887443297
 10
172.5405655861
 20
127.2327521681
 10
172.0717662185
 20
127.7577521681
 10
171.4401545391
 20
128.1004215815
 10
170.7219122382
 20
128.2194294199
 10
170.0036699372
 20
128.1004215815
 10
169.3720582578
 20
127.7577521681
 10
168.9032588902
 20
127.2327521681
 10
168.6538159568
 20
126.5887443297
 10
168.6538159568
 20
125.9034055028
 10
168.9032588902
 20
125.2593976644
 10
169.3720582578
 20
124.7343976644
 10
170.0036699372
 20
124.391728251
 10
170.7219122382
 20
124.2727204126
  0
LINE
  5
155
330
1F
100
AcDbEntity
  8
0
  6
HIDDEN
 62
     7
370
     0
100
AcDbLine
 10
165.7119122382
 20
148.180826518
 30
0.0
 11
165.7119122382
 21
142.6377834163
 31
0.0
  0
SPLINE
  5
156
330
1F
100
AcDbEntity
  8
0
  6
HIDDEN
 62
     7
370
     0
100
AcDbSpline
210
0.0
220
0.0
230
1.0
 70
     8
 71
     3
 72
    16
 73
    12
 74
     0
 42
0.000000001
 43
0.00000001
 40
0.0
 40
0.0
 40
0.0
 40
0.0
 40
0.2500000000000085
 40
0.2500000000000085
 40
0.500000000000017
 40
0.500000000000017
 40
0.6250000000000167
 40
0.6250000000000167
 40
0.7500000000000163
 40
0.7500000000000163
 40
1.0
 40
1.0
 40
1.0
 40
1.0
 10
168.7319122381623
 20
129.7630729732149
 30
0.0
 10
168.8067652195321
 20
129.8544522263748
 30
0.0
 10
168.8879248492124
 20
129.942837837293
 30
0.0
 10
169.0611477777871
 20
130.1185179978583
 30
0.0
 10
169.1516511077523
 20
130.2038808147824
 30
0.0
 10
169.2779801796834
 20
130.3253024261908
 30
0.0
 10
169.317477183092
 20
130.3637778378948
 30
0.0
 10
169.3895917533912
 20
130.4378385127984
 30
0.0
 10
169.4224839313212
 20
130.4738332780597
 30
0.0
 10
169.5021566009546
 20
130.5725393652935
 30
0.0
 10
169.5319122381623
 20
130.6291718257186
 30
0.0
 10
169.5319122381623
 20
130.6714724588893
 30
0.0
  0
LINE
  5
157
330
1F
100
AcDbEntity
  8
0
  6
HIDDEN
 62
     7
370
     0
100
AcDbLine
 10
169.5319122382
 20
148.180826518
 30
0.0
 11
169.5319122382
 21
142.6377834163
 31
0.0
  0
LINE
  5
158
330
1F
100
AcDbEntity
  8
0
  6
HIDDEN
 62
     7
370
     0
100
AcDbLine
 10
169.5319122382
 20
98.9905213503
 30
0.0
 11
169.5319122382
 21
94.8584801517
 31
0.0
  0
SPLINE
  5
159
330
1F
100
AcDbEntity
  8
0
  6
HIDDEN
 62
     7
370
     0
100
AcDbSpline
210
0.0
220
0.0
230
1.0
 70
     8
 71
     3
 72
    14
 73
    10
 74
     0
 42
0.000000001
 43
0.00000001
 40
0.0
 40
0.0
 40
0.0
 40
0.0
 40
0.25
 40
0.25
 40
0.5
 40
0.5
 40
0.75
 40
0.75
 40
1.0
 40
1.0
 40
1.0
 40
1.0
 10
169.5319122381623
 20
126.5394312602579
 30
0.0
 10
169.5319122381623
 20
126.4975275687359
 30
0.0
 10
169.5024417745163
 20
126.4696517711664
 30
0.0
 10
169.3956148049575
 20
126.4560802524822
 30
0.0
 10
169.3193614101015
 20
126.4707377061363
 30
0.0
 10
169.1516574086007
 20
126.5426229605505
 30
0.0
 10
169.0614938336582
 20
126.5990137896911
 30
0.0
 10
168.8885700663619
 20
126.7411256549497
 30
0.0
 10
168.8066838108774
 20
126.8255910525859
 30
0.0
 10
168.7319122381598
 20
126.9191091301575
 30
0.0
  0
LINE
  5
15A
330
1F
100
AcDbEntity
  8
0
  6
HIDDEN
 62
     7
370
     0
100
AcDbLine
 10
164.3887507307
 20
151.298861368
 30
0.0
 11
164.3887507307
 21
142.6377834163
 31
0.0
  0
LINE
  5
15B
330
1F
100
AcDbEntity
  8
0
  6
HIDDEN
 62
     7
370
     0
100
AcDbLine
 10
170.8550737456
 20
98.4906363511
 30
0.0
 11
170.8550737456
 21
93.7988430283
 31
0.0
  0
LINE
  5
15C
330
1F
100
AcDbEntity
  8
0
  6
HIDDEN
 62
     7
370
     0
100
AcDbLine
 10
170.8550737456
 20
151.298861368
 30
0.0
 11
170.8550737456
 21
142.6377834163
 31
0.0
  0
ARC
  5
15D
330
1F
100
AcDbEntity
  8
0
  6
HIDDEN
 62
     7
370
     0
100
AcDbCircle
 10
170.9679596343
 20
125.3577764416
 30
0.0
 40
1.353188311834282
100
AcDbArc
 50
110.2842797417
 51
142.1999340271
  0
ARC
  5
15E
330
1F
100
AcDbEntity
  8
0
  6
HIDDEN
 62
     7
370
     0
100
AcDbCircle
 10
170.0253118325
 20
123.3407571996
 30
0.0
 40
0.794598630155574
100
AcDbArc
 50
260.8337166931
 51
306.5791021073
  0
LWPOLYLINE
  5
15F
330
1F
100
AcDbEntity
  8
0
  6
HIDDEN
 62
     7
370
     0
100
AcDbPolyline
 90
       19
 70
   128
 43
0.0
 10
160.7566749434
 20
125.5007348448
 10
160.9439941549
 20
124.9794428928
 10
161.2479453842
 20
124.6570373141
 10
161.6318676273
 20
124.5724049797
 10
162.0494541954
 20
124.7357537981
 10
162.4503379857
 20
125.1273814911
 10
162.7861664964
 20
125.700051979
 10
163.0164338531
 20
126.3846927493
 10
163.113366414
 20
127.098726021
 10
163.0652726817
 20
127.7560288433
 10
162.8779534702
 20
128.2773207953
 10
162.5740022408
 20
128.599726374
 10
162.1900799978
 20
128.6843587084
 10
161.7724934296
 20
128.52100989
 10
161.3716096394
 20
128.129382197
 10
161.0357811286
 20
127.5567117091
 10
160.805513772
 20
126.8720709388
 10
160.7085812111
 20
126.1580376671
 10
160.7566749434
 20
125.5007348448
  0
LWPOLYLINE
  5
160
330
1F
100
AcDbEntity
  8
0
  6
HIDDEN
 62
     7
370
     0
100
AcDbPolyline
 90
       23
 70
   128
 43
0.0
 10
159.9936431627
 20
125.0817191341
 10
160.1989512649
 20
124.4535122283
 10
160.5212185678
 20
124.0067064149
 10
160.9343368911
 20
123.7774992437
 10
161.4048378452
 20
123.7844597165
 10
161.894604241
 20
124.0270239373
 10
162.3639581178
 20
124.4855407954
 10
162.7748752159
 20
125.1228639819
 10
163.0940654758
 20
125.8873613625
 10
163.295670001
 20
126.7170979061
 10
163.3633559918
 20
127.5448532927
 10
163.2916399317
 20
128.3035677035
 10
163.0863318295
 20
128.9317746093
 10
162.7640645266
 20
129.3785804227
 10
162.3509462033
 20
129.6077875939
 10
161.8804452492
 20
129.600827121
 10
161.3906788534
 20
129.3582629003
 10
160.9213249766
 20
128.8997460422
 10
160.5104078785
 20
128.2624228557
 10
160.1912176186
 20
127.4979254751
 10
159.9896130934
 20
126.6681889314
 10
159.9219271027
 20
125.8404335449
 10
159.9936431627
 20
125.0817191341
  0
LWPOLYLINE
  5
161
330
1F
100
AcDbEntity
  8
0
  6
HIDDEN
 62
     7
370
     0
100
AcDbPolyline
 90
       21
 70
   128
 43
0.0
 10
170.7219122382
 20
123.946637425
 10
171.4944547241
 20
124.0616170011
 10
172.1913753689
 20
124.3953007277
 10
172.7444547241
 20
124.9150253165
 10
173.0995535289
 20
125.5699165036
 10
173.2219122382
 20
126.2958689769
 10
173.0995535289
 20
127.0218214502
 10
172.7444547241
 20
127.6767126374
 10
172.1913753689
 20
128.1964372262
 10
171.4944547241
 20
128.5301209527
 10
170.7219122382
 20
128.6451005289
 10
169.9493697522
 20
128.5301209527
 10
169.2524491074
 20
128.1964372262
 10
168.6993697522
 20
127.6767126374
 10
168.3442709474
 20
127.0218214502
 10
168.2219122382
 20
126.2958689769
 10
168.3442709474
 20
125.5699165036
 10
168.6993697522
 20
124.9150253165
 10
169.2524491074
 20
124.3953007277
 10
169.9493697522
 20
124.0616170011
 10
170.7219122382
 20
123.946637425
  0
SPLINE
  5
162
330
1F
100
AcDbEntity
  8
0
  6
HIDDEN
 62
     7
370
     0
100
AcDbSpline
210
0.0
220
0.0
230
1.0
 70
     8
 71
     3
 72
    34
 73
    30
 74
     0
 42
0.000000001
 43
0.00000001
 40
0.0
 40
0.0
 40
0.0
 40
0.0
 40
0.0624999999999993
 40
0.0624999999999993
 40
0.1249999999999985
 40
0.1249999999999985
 40
0.1874999999999978
 40
0.1874999999999978
 40
0.2499999999999976
 40
0.2499999999999976
 40
0.3124999999999973
 40
0.3124999999999973
 40
0.3749999999999972
 40
0.3749999999999972
 40
0.4999999999999977
 40
0.4999999999999977
 40
0.6249999999999981
 40
0.6249999999999981
 40
0.6874999999999991
 40
0.6874999999999991
 40
0.75
 40
0.75
 40
0.8125
 40
0.8125
 40
0.875
 40
0.875
 40
0.9375000000000001
 40
0.9375000000000001
 40
1.0
 40
1.0
 40
1.0
 40
1.0
 10
170.8550737456242
 20
131.776723804282
 30
0.0
 10
171.0144655734121
 20
131.7688837083593
 30
0.0
 10
171.1704680568556
 20
131.7472250602688
 30
0.0
 10
171.4759775729329
 20
131.677376832776
 30
0.0
 10
171.6268719079451
 20
131.6285511304478
 30
0.0
 10
171.9147712526359
 20
131.5056271770405
 30
0.0
 10
172.0507176555956
 20
131.4323196689061
 30
0.0
 10
172.3069002711877
 20
131.2623090451348
 30
0.0
 10
172.4280825589468
 20
131.1644352529333
 30
0.0
 10
172.6452286308195
 20
130.9518510775014
 30
0.0
 10
172.7421905037799
 20
130.8368051389718
 30
0.0
 10
172.9127529396054
 20
130.5889440188517
 30
0.0
 10
172.9859929928174
 20
130.4559105217861
 30
0.0
 10
173.1608734495662
 20
130.0464025056559
 30
0.0
 10
173.2219114105421
 20
129.7484418558809
 30
0.0
 10
173.2219130657652
 20
129.1570003000064
 30
0.0
 10
173.1608784561789
 20
128.8568267500298
 30
0.0
 10
172.985988688777
 20
128.4415954697621
 30
0.0
 10
172.9127449833526
 20
128.3062403515152
 30
0.0
 10
172.742184267616
 20
128.0533410201286
 30
0.0
 10
172.6452205520225
 20
127.9355757425208
 30
0.0
 10
172.4280602234353
 20
127.7174454471522
 30
0.0
 10
172.3068789647485
 20
127.6167421220052
 30
0.0
 10
172.0507087378097
 20
127.441498429172
 30
0.0
 10
171.914765388147
 20
127.3657534600814
 30
0.0
 10
171.6268626849639
 20
127.2385850847791
 30
0.0
 10
171.4759724890472
 20
127.1879838124517
 30
0.0
 10
171.1704669853415
 20
127.1155547127038
 30
0.0
 10
171.014465587078
 20
127.0930689413068
 30
0.0
 10
170.8550737456242
 20
127.084930481412
 30
0.0
  0
SPLINE
  5
163
330
1F
100
AcDbEntity
  8
0
  6
HIDDEN
 62
     7
370
     0
100
AcDbSpline
210
0.0
220
0.0
230
1.0
 70
     8
 71
     3
 72
    10
 73
     6
 74
     0
 42
0.000000001
 43
0.00000001
 40
0.0
 40
0.0
 40
0.0
 40
0.0
 40
0.5
 40
0.5
 40
1.0
 40
1.0
 40
1.0
 40
1.0
 10
170.8550737456242
 20
127.084930481412
 30
0.0
 10
170.6323467187508
 20
126.9414419811182
 30
0.0
 10
170.4106608315257
 20
126.8267212353853
 30
0.0
 10
169.9694399936737
 20
126.6569608060275
 30
0.0
 10
169.7498813462749
 20
126.6015408116401
 30
0.0
 10
169.5319122381626
 20
126.5850454822704
 30
0.0
  0
SPLINE
  5
164
330
1F
100
AcDbEntity
  8
0
  6
HIDDEN
 62
     7
370
     0
100
AcDbSpline
210
0.0
220
0.0
230
1.0
 70
     8
 71
     3
 72
    10
 73
     6
 74
     0
 42
0.000000001
 43
0.00000001
 40
0.0
 40
0.0
 40
0.0
 40
0.0
 40
0.5
 40
0.5
 40
1.0
 40
1.0
 40
1.0
 40
1.0
 10
169.5319122381626
 20
130.7170866809019
 30
0.0
 10
169.7488030706834
 20
130.9541256203505
 30
0.0
 10
169.9679557073422
 20
131.156295855344
 30
0.0
 10
170.4094402076111
 20
131.5070479268627
 30
0.0
 10
170.6326426728845
 20
131.6557240192595
 30
0.0
 10
170.8550737456242
 20
131.776723804282
 30
0.0
  0
SPLINE
  5
165
330
1F
100
AcDbEntity
  8
0
  6
HIDDEN
 62
     7
370
     0
100
AcDbSpline
210
0.0
220
0.0
230
1.0
 70
     8
 71
     3
 72
    10
 73
     6
 74
     0
 42
0.000000001
 43
0.00000001
 40
0.0
 40
0.0
 40
0.0
 40
0.0
 40
0.1768910830409863
 40
0.694689054172731
 40
1.0
 40
1.0
 40
1.0
 40
1.0
 10
168.2537748149316
 20
128.3507042799528
 30
0.0
 10
168.2451563601824
 20
128.4404956581853
 30
0.0
 10
168.2113098481069
 20
128.7931255734128
 30
0.0
 10
168.3978565658427
 20
129.2922575601193
 30
0.0
 10
168.641528457587
 20
129.6356867902676
 30
0.0
 10
168.7319122381623
 20
129.7630729732149
 30
0.0
  0
LINE
  5
166
330
1F
100
AcDbEntity
  8
0
  6
HIDDEN
 62
     7
370
     0
100
AcDbLine
 10
173.2219122382
 20
126.2958689769
 30
0.0
 11
173.2219122382
 21
126.8944042277
 31
0.0
  0
LINE
  5
167
330
1F
100
AcDbEntity
  8
0
  6
HIDDEN
 62
     7
370
     0
100
AcDbLine
 10
168.2219122382
 20
126.8944042277
 30
0.0
 11
168.2219122382
 21
126.2958689769
 31
0.0
  0
LINE
  5
168
330
1F
100
AcDbEntity
  8
0
  6
HIDDEN
 62
     7
370
     0
100
AcDbLine
 10
172.7219122382
 20
126.6565978062
 30
0.0
 11
172.7219122382
 21
128.0743737222
 31
0.0
  0
LINE
  5
169
330
1F
100
AcDbEntity
  8
0
  6
HIDDEN
 62
     7
370
     0
100
AcDbLine
 10
168.7219122382
 20
128.0743737222
 30
0.0
 11
168.7219122382
 21
126.6565978062
 31
0.0
  0
LINE
  5
16A
330
1F
100
AcDbEntity
  8
0
  6
HIDDEN
 62
     7
370
     0
100
AcDbLine
 10
173.2219122382
 20
127.8383798233
 30
0.0
 11
173.2219122382
 21
128.0264909022
 31
0.0
  0
LINE
  5
16B
330
1F
100
AcDbEntity
  8
0
  6
HIDDEN
 62
     7
370
     0
100
AcDbLine
 10
168.2219122382
 20
128.0264909022
 30
0.0
 11
168.2219122382
 21
127.8383798233
 31
0.0
  0
LINE
  5
16C
330
1F
100
AcDbEntity
  8
0
  6
HIDDEN
 62
     7
370
     0
100
AcDbLine
 10
168.2219122382
 20
97.7371870092
 30
0.0
 11
168.2219122382
 21
97.5490759304
 31
0.0
  0
LINE
  5
16D
330
1F
100
AcDbEntity
  8
0
  6
HIDDEN
 62
     7
370
     0
100
AcDbLine
 10
173.2219122382
 20
97.5490759304
 30
0.0
 11
173.2219122382
 21
97.7371870092
 31
0.0
  0
LINE
  5
16E
330
1F
100
AcDbEntity
  8
0
  6
HIDDEN
 62
     7
370
     0
100
AcDbLine
 10
168.7219122382
 20
98.9189690263
 30
0.0
 11
168.7219122382
 21
97.5011931103
 31
0.0
  0
LINE
  5
16F
330
1F
100
AcDbEntity
  8
0
  6
HIDDEN
 62
     7
370
     0
100
AcDbLine
 10
172.7219122382
 20
97.5011931103
 30
0.0
 11
172.7219122382
 21
98.9189690263
 31
0.0
  0
LINE
  5
170
330
1F
100
AcDbEntity
  8
0
  6
HIDDEN
 62
     7
370
     0
100
AcDbLine
 10
168.2219122382
 20
99.2796978556
 30
0.0
 11
168.2219122382
 21
98.6811626048
 31
0.0
  0
LINE
  5
171
330
1F
100
AcDbEntity
  8
0
  6
HIDDEN
 62
     7
370
     0
100
AcDbLine
 10
173.2219122382
 20
98.6811626048
 30
0.0
 11
173.2219122382
 21
99.2796978556
 31
0.0
  0
CIRCLE
  5
172
330
1F
100
AcDbEntity
  8
0
  6
HIDDEN
 62
     7
370
     0
100
AcDbCircle
 10
170.7219122382
 20
127.2535253782
 30
0.0
 40
1.999999999999995
  0
ARC
  5
173
330
1F
100
AcDbEntity
  8
0
  6
HIDDEN
 62
     7
370
     0
100
AcDbCircle
 10
170.7219122382
 20
98.3220414543
 30
0.0
 40
1.999999999999985
100
AcDbArc
 50
126.3689139199
 51
192.2156859343
  0
ARC
  5
174
330
1F
100
AcDbEntity
  8
0
  6
HIDDEN
 62
     7
370
     0
100
AcDbCircle
 10
170.7219122382
 20
98.3220414543
 30
0.0
 40
1.99999999999999
100
AcDbArc
 50
340.8584953635
 51
126.3689139199
  0
LINE
  5
175
330
1F
100
AcDbEntity
  8
0
  6
HIDDEN
 62
     7
370
     0
100
AcDbLine
 10
164.6959579431
 20
123.9859203651
 30
0.0
 11
165.1930003007
 21
124.4595359324
 31
0.0
  0
LINE
  5
176
330
1F
100
AcDbEntity
  8
0
  6
HIDDEN
 62
     7
370
     0
100
AcDbLine
 10
165.8194170232
 20
127.0752175262
 30
0.0
 11
165.5908389752
 21
127.7226083562
 31
0.0
  0
LINE
  5
177
330
1F
100
AcDbEntity
  8
0
  6
HIDDEN
 62
     7
370
     0
100
AcDbLine
 10
161.2708502031
 20
124.2109899878
 30
0.0
 11
163.7226370914
 21
123.6238236024
 31
0.0
  0
LINE
  5
178
330
1F
100
AcDbEntity
  8
0
  6
HIDDEN
 62
     7
370
     0
100
AcDbLine
 10
164.887134291
 20
128.4863277178
 30
0.0
 11
162.4353474027
 21
129.0734941032
 31
0.0
  0
LINE
  5
179
330
1F
100
AcDbEntity
  8
0
  6
HIDDEN
 62
     7
370
     0
100
AcDbLine
 10
162.4353474027
 20
96.5020727294
 30
0.0
 11
164.887134291
 21
97.0892391147
 31
0.0
  0
LINE
  5
17A
330
1F
100
AcDbEntity
  8
0
  6
HIDDEN
 62
     7
370
     0
100
AcDbLine
 10
163.7226370914
 20
101.9517432301
 30
0.0
 11
161.2708502031
 21
101.3645768447
 31
0.0
  0
LINE
  5
17B
330
1F
100
AcDbEntity
  8
0
  6
HIDDEN
 62
     7
370
     0
100
AcDbLine
 10
165.5908389752
 20
97.8529584763
 30
0.0
 11
165.8194170232
 21
98.5003493064
 31
0.0
  0
LINE
  5
17C
330
1F
100
AcDbEntity
  8
0
  6
HIDDEN
 62
     7
370
     0
100
AcDbLine
 10
165.1930003007
 20
101.1160309002
 30
0.0
 11
164.6959579431
 21
101.5896464675
 31
0.0
  0
LINE
  5
17D
330
1F
100
AcDbEntity
  8
0
  6
HIDDEN
 62
     7
370
     0
100
AcDbLine
 10
173.2219122382
 20
96.1234062048
 30
0.0
 11
173.2219122382
 21
99.2796978556
 31
0.0
  0
LINE
  5
17E
330
1F
100
AcDbEntity
  8
0
  6
HIDDEN
 62
     7
370
     0
100
AcDbLine
 10
168.2219122382
 20
99.2796978556
 30
0.0
 11
168.2219122382
 21
97.2259289806
 31
0.0
  0
LINE
  5
17F
330
1F
100
AcDbEntity
  8
0
  6
HIDDEN
 62
     7
370
     0
100
AcDbLine
 10
159.7219122382
 20
95.3381071026
 30
0.0
 11
162.341339867
 21
95.9654209446
 31
0.0
  0
LINE
  5
180
330
1F
100
AcDbEntity
  8
0
  6
HIDDEN
 62
     7
370
     0
100
AcDbLine
 10
160.9439432275
 20
101.800425883
 30
0.0
 11
159.7219122382
 21
101.5077676906
 31
0.0
  0
LINE
  5
181
330
1F
100
AcDbEntity
  8
0
  6
HIDDEN
 62
     7
370
     0
100
AcDbLine
 10
162.4000626364
 20
96.90493326
 30
0.0
 11
169.8692118955
 21
98.6936830871
 31
0.0
  0
LINE
  5
182
330
1F
100
AcDbEntity
  8
0
  6
HIDDEN
 62
     7
370
     0
100
AcDbLine
 10
169.8692118955
 20
103.0124454988
 30
0.0
 11
161.4218849887
 21
100.989436717
 31
0.0
  0
LINE
  5
183
330
1F
100
AcDbEntity
  8
0
  6
HIDDEN
 62
     7
370
     0
100
AcDbLine
 10
172.8219122382
 20
99.3294919163
 30
0.0
 11
172.8219122382
 21
111.0442006777
 31
0.0
  0
LINE
  5
184
330
1F
100
AcDbEntity
  8
0
  6
HIDDEN
 62
     7
370
     0
100
AcDbLine
 10
168.6219122382
 20
99.6775426819
 30
0.0
 11
168.6219122382
 21
99.3294919163
 31
0.0
  0
LINE
  5
185
330
1F
100
AcDbEntity
  8
0
  6
HIDDEN
 62
     7
370
     0
100
AcDbLine
 10
168.6219122382
 20
111.0435771799
 30
0.0
 11
168.6219122382
 21
101.4311665811
 31
0.0
  0
ARC
  5
186
330
1F
100
AcDbEntity
  8
0
  6
HIDDEN
 62
     7
370
     0
100
AcDbCircle
 10
56.1219122382
 20
99.0877834163
 30
0.0
 40
1.200000000000003
100
AcDbArc
 50
90.0
 51
180.0
  0
ARC
  5
187
330
1F
100
AcDbEntity
  8
0
  6
HIDDEN
 62
     7
370
     0
100
AcDbCircle
 10
56.1219122382
 20
126.4877834163
 30
0.0
 40
1.200000000000003
100
AcDbArc
 50
180.0
 51
270.0
  0
ARC
  5
188
330
1F
100
AcDbEntity
  8
0
  6
HIDDEN
 62
     7
370
     0
100
AcDbCircle
 10
65.8142846689
 20
100.4627834163
 30
0.0
 40
0.400000000000006
100
AcDbArc
 50
255.0
 51
270.0
  0
ARC
  5
189
330
1F
100
AcDbEntity
  8
0
  6
HIDDEN
 62
     7
370
     0
100
AcDbCircle
 10
65.8142846689
 20
125.1127834163
 30
0.0
 40
0.4000000000000197
100
AcDbArc
 50
90.0
 51
105.0
  0
ARC
  5
18A
330
1F
100
AcDbEntity
  8
0
  6
HIDDEN
 62
     7
370
     0
100
AcDbCircle
 10
66.6909721305
 20
100.4627834163
 30
0.0
 40
0.3999999999999915
100
AcDbArc
 50
270.0
 51
330.0
  0
ARC
  5
18B
330
1F
100
AcDbEntity
  8
0
  6
HIDDEN
 62
     7
370
     0
100
AcDbCircle
 10
66.6909721305
 20
125.1127834163
 30
0.0
 40
0.4000000000000057
100
AcDbArc
 50
30.0
 51
90.0
  0
LINE
  5
18C
330
1F
100
AcDbEntity
  8
0
  6
HIDDEN
 62
     7
370
     0
100
AcDbLine
 10
65.8142846689
 20
100.0627834163
 30
0.0
 11
66.6909721305
 21
100.0627834163
 31
0.0
  0
LINE
  5
18D
330
1F
100
AcDbEntity
  8
0
  6
HIDDEN
 62
     7
370
     0
100
AcDbLine
 10
66.6909721305
 20
125.5127834163
 30
0.0
 11
65.8142846689
 21
125.5127834163
 31
0.0
  0
LINE
  5
18E
330
1F
100
AcDbEntity
  8
0
  6
HIDDEN
 62
     7
370
     0
100
AcDbLine
 10
65.7107570509
 20
125.4991537468
 30
0.0
 11
64.9219122382
 21
125.2877834163
 31
0.0
  0
LINE
  5
18F
330
1F
100
AcDbEntity
  8
0
  6
HIDDEN
 62
     7
370
     0
100
AcDbLine
 10
64.9219122382
 20
100.2877834163
 30
0.0
 11
65.7107570509
 21
100.0764130858
 31
0.0
  0
LINE
  5
190
330
1F
100
AcDbEntity
  8
0
  6
HIDDEN
 62
     7
370
     0
100
AcDbLine
 10
67.037382292
 20
100.2627834163
 30
0.0
 11
68.2065165871
 21
102.2877834163
 31
0.0
  0
LINE
  5
191
330
1F
100
AcDbEntity
  8
0
  6
HIDDEN
 62
     7
370
     0
100
AcDbLine
 10
68.2065165871
 20
123.2877834163
 30
0.0
 11
67.037382292
 21
125.3127834163
 31
0.0
  0
LINE
  5
192
330
1F
100
AcDbEntity
  8
0
  6
HIDDEN
 62
     7
370
     0
100
AcDbLine
 10
56.1219122382
 20
100.2877834163
 30
0.0
 11
64.9219122382
 21
100.2877834163
 31
0.0
  0
LINE
  5
193
330
1F
100
AcDbEntity
  8
0
  6
HIDDEN
 62
     7
370
     0
100
AcDbLine
 10
64.9219122382
 20
125.2877834163
 30
0.0
 11
56.1219122382
 21
125.2877834163
 31
0.0
  0
LINE
  5
194
330
1F
100
AcDbEntity
  8
0
  6
HIDDEN
 62
     7
370
     0
100
AcDbLine
 10
116.9219122382
 20
102.2877834163
 30
0.0
 11
120.1665595809
 21
107.6877834163
 31
0.0
  0
LINE
  5
195
330
1F
100
AcDbEntity
  8
0
  6
HIDDEN
 62
     7
370
     0
100
AcDbLine
 10
120.1665595809
 20
117.8877834163
 30
0.0
 11
116.9219122382
 21
123.2877834163
 31
0.0
  0
LINE
  5
196
330
1F
100
AcDbEntity
  8
0
  6
HIDDEN
 62
     7
370
     0
100
AcDbLine
 10
68.2065165871
 20
102.2877834163
 30
0.0
 11
116.9219122382
 21
102.2877834163
 31
0.0
  0
LINE
  5
197
330
1F
100
AcDbEntity
  8
0
  6
HIDDEN
 62
     7
370
     0
100
AcDbLine
 10
116.9219122382
 20
123.2877834163
 30
0.0
 11
68.2065165871
 21
123.2877834163
 31
0.0
  0
ARC
  5
198
330
1F
100
AcDbEntity
  8
0
  6
HIDDEN
 62
     7
370
     0
100
AcDbCircle
 10
240.5219122382
 20
120.7877834163
 30
0.0
 40
1.000000000000014
100
AcDbArc
 50
270.0
 51
0.0
  0
ARC
  5
199
330
1F
100
AcDbEntity
  8
0
  6
HIDDEN
 62
     7
370
     0
100
AcDbCircle
 10
240.5219122382
 20
104.7877834163
 30
0.0
 40
1.000000000000014
100
AcDbArc
 50
0.0
 51
90.0
  0
LINE
  5
19A
330
1F
100
AcDbEntity
  8
0
  6
HIDDEN
 62
     7
370
     0
100
AcDbLine
 10
224.4165902401
 20
120.2877834163
 30
0.0
 11
223.8219122382
 21
120.2877834163
 31
0.0
  0
LINE
  5
19B
330
1F
100
AcDbEntity
  8
0
  6
HIDDEN
 62
     7
370
     0
100
AcDbLine
 10
223.8219122382
 20
105.2877834163
 30
0.0
 11
224.4165902401
 21
105.2877834163
 31
0.0
  0
ARC
  5
19C
330
1F
100
AcDbEntity
  8
0
  6
HIDDEN
 62
     7
370
     0
100
AcDbCircle
 10
224.4165902401
 20
119.4877834163
 30
0.0
 40
0.8000000000000046
100
AcDbArc
 50
75.0
 51
90.0
  0
ARC
  5
19D
330
1F
100
AcDbEntity
  8
0
  6
HIDDEN
 62
     7
370
     0
100
AcDbCircle
 10
224.4165902401
 20
106.0877834163
 30
0.0
 40
0.8000000000000046
100
AcDbArc
 50
270.0
 51
285.0
  0
ARC
  5
19E
330
1F
100
AcDbEntity
  8
0
  6
HIDDEN
 62
     7
370
     0
100
AcDbCircle
 10
223.8219122382
 20
119.4877834163
 30
0.0
 40
0.799999999999983
100
AcDbArc
 50
90.0
 51
180.0
  0
ARC
  5
19F
330
1F
100
AcDbEntity
  8
0
  6
HIDDEN
 62
     7
370
     0
100
AcDbCircle
 10
223.8219122382
 20
106.0877834163
 30
0.0
 40
0.7999999999999972
100
AcDbArc
 50
180.0
 51
270.0
  0
LINE
  5
1A0
330
1F
100
AcDbEntity
  8
0
  6
HIDDEN
 62
     7
370
     0
100
AcDbLine
 10
224.6236454762
 20
105.3150427552
 30
0.0
 11
226.3879376419
 21
105.7877834163
 31
0.0
  0
LINE
  5
1A1
330
1F
100
AcDbEntity
  8
0
  6
HIDDEN
 62
     7
370
     0
100
AcDbLine
 10
226.3879376419
 20
119.7877834163
 30
0.0
 11
224.6236454762
 21
120.2605240773
 31
0.0
  0
LINE
  5
1A2
330
1F
100
AcDbEntity
  8
0
  6
HIDDEN
 62
     7
370
     0
100
AcDbLine
 10
240.5219122382
 20
119.7877834163
 30
0.0
 11
226.3879376419
 21
119.7877834163
 31
0.0
  0
LINE
  5
1A3
330
1F
100
AcDbEntity
  8
0
  6
HIDDEN
 62
     7
370
     0
100
AcDbLine
 10
226.3879376419
 20
105.7877834163
 30
0.0
 11
240.5219122382
 21
105.7877834163
 31
0.0
  0
LINE
  5
1A4
330
1F
100
AcDbEntity
  8
0
  6
HIDDEN
 62
     7
370
     0
100
AcDbLine
 10
120.1665595809
 20
107.6877834163
 30
0.0
 11
223.0219122382
 21
107.6877834163
 31
0.0
  0
LINE
  5
1A5
330
1F
100
AcDbEntity
  8
0
  6
HIDDEN
 62
     7
370
     0
100
AcDbLine
 10
223.0219122382
 20
117.8877834163
 30
0.0
 11
120.1665595809
 21
117.8877834163
 31
0.0
  0
LINE
  5
1A6
330
1F
100
AcDbEntity
  8
0
  6
HIDDEN
 62
     7
370
     0
100
AcDbLine
 10
172.8219122382
 20
114.5319896526
 30
0.0
 11
172.8219122382
 21
126.2460749163
 31
0.0
  0
LINE
  5
1A7
330
1F
100
AcDbEntity
  8
0
  6
HIDDEN
 62
     7
370
     0
100
AcDbLine
 10
168.6219122382
 20
124.1444002514
 30
0.0
 11
168.6219122382
 21
114.5313661549
 31
0.0
  0
LINE
  5
1A8
330
1F
100
AcDbEntity
  8
0
  6
HIDDEN
 62
     7
370
     0
100
AcDbLine
 10
168.6219122382
 20
126.2460749163
 30
0.0
 11
168.6219122382
 21
125.8980241506
 31
0.0
  0
LINE
  5
1A9
330
1F
100
AcDbEntity
  8
0
  6
HIDDEN
 62
     7
370
     0
100
AcDbLine
 10
161.4218849887
 20
124.5861301156
 30
0.0
 11
169.8692118955
 21
122.5631213338
 31
0.0
  0
LINE
  5
1AA
330
1F
100
AcDbEntity
  8
0
  6
HIDDEN
 62
     7
370
     0
100
AcDbLine
 10
169.8692118955
 20
126.8818837454
 30
0.0
 11
162.4000626364
 21
128.6706335725
 31
0.0
  0
LINE
  5
1AB
330
1F
100
AcDbEntity
  8
0
  6
HIDDEN
 62
     7
370
     0
100
AcDbLine
 10
159.7219122382
 20
124.0677991419
 30
0.0
 11
160.9439432275
 21
123.7751409495
 31
0.0
  0
LINE
  5
1AC
330
1F
100
AcDbEntity
  8
0
  6
HIDDEN
 62
     7
370
     0
100
AcDbLine
 10
162.341339867
 20
129.610145888
 30
0.0
 11
159.7219122382
 21
130.23745973
 31
0.0
  0
LINE
  5
1AD
330
1F
100
AcDbEntity
  8
0
  6
HIDDEN
 62
     7
370
     0
100
AcDbLine
 10
173.2219122382
 20
126.2958689769
 30
0.0
 11
173.2219122382
 21
129.4520972327
 31
0.0
  0
LINE
  5
1AE
330
1F
100
AcDbEntity
  8
0
  6
HIDDEN
 62
     7
370
     0
100
AcDbLine
 10
168.2219122382
 20
128.3491066545
 30
0.0
 11
168.2219122382
 21
126.2958689769
 31
0.0
  0
DIMENSION
  5
1AF
330
1F
100
AcDbEntity
  8
VERMASSUNG
100
AcDbDimension
  2
_D
 10
44.9219122382
 20
161.5127834163
 30
0.0
 11
44.9219122382
 21
112.7877834163
 31
0.0
 70
   160
  1
ISO 50 %%c<>
 71
     2
 42
-1.0
  3
SLDDIMSTYLE0
100
AcDbAlignedDimension
 13
174.9719122382
 23
64.0627834163
 33
0.0
 14
174.9719122382
 24
161.5127834163
 34
0.0
 50
90.0
100
AcDbRotatedDimension
  0
DIMENSION
  5
1BC
330
1F
100
AcDbEntity
  8
VERMASSUNG
100
AcDbDimension
  2
_D_1
 10
250.3001665302
 20
105.7877834163
 30
0.0
 11
250.3001665302
 21
112.7877834163
 31
0.0
 70
   160
  1
%%c<>
 71
     2
 42
-1.0
  3
SLDDIMSTYLE0
100
AcDbAlignedDimension
 13
240.5219122382
 23
119.7877834163
 33
0.0
 14
240.5219122382
 24
105.7877834163
 34
0.0
 50
90.0
100
AcDbRotatedDimension
  0
DIMENSION
  5
1C7
330
1F
100
AcDbEntity
  8
VERMASSUNG
100
AcDbDimension
  2
_D_2
 10
256.6001665302
 20
100.2877834163
 30
0.0
 11
256.6001665302
 21
112.7877834163
 31
0.0
 70
   160
  1
WH%%c<>
 71
     2
 42
-1.0
  3
SLDDIMSTYLE0
100
AcDbAlignedDimension
 13
241.3219122382
 23
125.2877834163
 33
0.0
 14
241.3219122382
 24
100.2877834163
 34
0.0
 50
90.0
100
AcDbRotatedDimension
  0
DIMENSION
  5
1D3
330
1F
100
AcDbEntity
  8
VERMASSUNG
100
AcDbDimension
  2
_D_3
 10
175.5719122382
 20
167.5393408857
 30
0.0
 11
208.5469122382
 21
167.5393408857
 31
0.0
 70
   160
  1
<>
 71
     2
 42
-1.0
  3
SLDDIMSTYLE0
100
AcDbAlignedDimension
 13
241.5219122382
 23
125.0877834163
 33
0.0
 14
175.5719122382
 24
159.0827703695
 34
0.0
100
AcDbRotatedDimension
  0
DIMENSION
  5
1DD
330
1F
100
AcDbEntity
  8
VERMASSUNG
100
AcDbDimension
  2
_D_4
 10
156.5219122382
 20
173.5393408857
 30
0.0
 11
199.0219122382
 21
173.5393408857
 31
0.0
 70
   160
  1
<>
 71
     2
 42
-1.0
  3
SLDDIMSTYLE0
100
AcDbAlignedDimension
 13
241.5219122382
 23
125.0877834163
 33
0.0
 14
156.5219122382
 24
147.7127834163
 34
0.0
100
AcDbRotatedDimension
  0
DIMENSION
  5
1E7
330
1F
100
AcDbEntity
  8
VERMASSUNG
100
AcDbDimension
  2
_D_5
 10
54.9219122382
 20
179.5393408857
 30
0.0
 11
148.2219122382
 21
179.5393408857
 31
0.0
 70
   160
  1
<>
 71
     2
 42
-1.0
  3
SLDDIMSTYLE0
100
AcDbAlignedDimension
 13
241.5219122382
 23
125.0877834163
 33
0.0
 14
54.9219122382
 24
131.1666279437
 34
0.0
100
AcDbRotatedDimension
  0
LINE
  5
1F1
330
1F
100
AcDbEntity
  8
VERMASSUNG
  6
CENTERX2
370
     0
100
AcDbLine
 10
52.9219122382
 20
112.7877834163
 30
0.0
 11
243.6327485657
 21
112.7877834163
 31
0.0
  0
LINE
  5
1F2
330
1F
100
AcDbEntity
  8
0
  6
Continuous
 62
     7
370
    15
100
AcDbLine
 10
264.299562155
 20
39.4096761348
 30
0.0
 11
264.299562155
 21
39.0014057288
 31
0.0
  0
LINE
  5
1F3
330
1F
100
AcDbEntity
  8
0
  6
Continuous
 62
     7
370
    15
100
AcDbLine
 10
268.299562155
 20
39.0014057288
 30
0.0
 11
268.299562155
 21
39.4096761348
 31
0.0
  0
LINE
  5
1F4
330
1F
100
AcDbEntity
  8
0
  6
Continuous
 62
     7
370
    15
100
AcDbLine
 10
269.4292279414
 20
27.3970277602
 30
0.0
 11
269.499927127
 21
27.4378548003
 31
0.0
  0
LINE
  5
1F5
330
1F
100
AcDbEntity
  8
0
  6
Continuous
 62
     7
370
    15
100
AcDbLine
 10
273.8479270442
 20
34.9696276513
 30
0.0
 11
273.8479270442
 21
35.0512684625
 31
0.0
  0
LINE
  5
1F6
330
1F
100
AcDbEntity
  8
0
  6
Continuous
 62
     7
370
    15
100
AcDbLine
 10
272.5532557012
 20
37.912798503
 30
0.0
 11
250.3677804415
 21
50.7202007572
 31
0.0
  0
LINE
  5
1F7
330
1F
100
AcDbEntity
  8
0
  6
Continuous
 62
     7
370
    15
100
AcDbLine
 10
244.1182883625
 20
39.8945899774
 30
0.0
 11
266.3037636223
 21
27.0871877232
 31
0.0
  0
SPLINE
  5
1F8
330
1F
100
AcDbEntity
  8
0
  6
Continuous
 62
     7
370
    15
100
AcDbSpline
210
0.0
220
0.0
230
1.0
 70
     8
 71
     3
 72
    20
 73
    16
 74
     0
 42
0.000000001
 43
0.00000001
 40
0.0
 40
0.0
 40
0.0
 40
0.0
 40
0.025795927247081
 40
0.1148086651678758
 40
0.1965766110998005
 40
0.2839645646370338
 40
0.369041124639932
 40
0.4539001201580307
 40
0.5391645008902769
 40
0.624899075562518
 40
0.7109057556090441
 40
0.7969185090936474
 40
0.8825694122983962
 40
0.9675881757458861
 40
1.0
 40
1.0
 40
1.0
 40
1.0
 10
267.4207905502523
 20
29.63219165818009
 30
0.0
 10
267.3922903953819
 20
29.64362733718402
 30
0.0
 10
267.2654461572817
 20
29.69452355150324
 30
0.0
 10
267.103742099907
 20
29.88204608438446
 30
0.0
 10
266.9200416141497
 20
30.22842268798795
 30
0.0
 10
266.8172188508548
 20
30.70028220329911
 30
0.0
 10
266.8096594999409
 20
31.27614849090561
 30
0.0
 10
266.9053436972752
 20
31.91326086392964
 30
0.0
 10
267.1028212116168
 20
32.58489449267444
 30
0.0
 10
267.3960046749614
 20
33.26098381761958
 30
0.0
 10
267.7727905694221
 20
33.9095322205322
 30
0.0
 10
268.2156258853092
 20
34.49991133611766
 30
0.0
 10
268.7016272684745
 20
35.00231977606042
 30
0.0
 10
269.1037788782418
 20
35.32000327275818
 30
0.0
 10
269.3325138636089
 20
35.45825493645224
 30
0.0
 10
269.395646632435
 20
35.49641355180276
 30
0.0
  0
SPLINE
  5
1F9
330
1F
100
AcDbEntity
  8
0
  6
Continuous
 62
     7
370
    15
100
AcDbSpline
210
0.0
220
0.0
230
1.0
 70
     8
 71
     3
 72
    12
 73
     8
 74
     0
 42
0.000000001
 43
0.00000001
 40
0.0
 40
0.0
 40
0.0
 40
0.0
 40
0.1368552119169993
 40
0.3981929302416782
 40
0.659800227482748
 40
0.9286031364782711
 40
1.0
 40
1.0
 40
1.0
 40
1.0
 10
269.395646632435
 20
35.49641355180276
 30
0.0
 10
269.4799782123653
 20
35.54200382717185
 30
0.0
 10
269.7253487646005
 20
35.67465296113946
 30
0.0
 10
270.1095962530575
 20
35.80073674230267
 30
0.0
 10
270.5002589791397
 20
35.82478923628486
 30
0.0
 10
270.7452882683841
 20
35.78683556873519
 30
0.0
 10
270.8488925683496
 20
35.71049808124845
 30
0.0
 10
270.8706357400461
 20
35.6944773263392
 30
0.0
  0
SPLINE
  5
1FA
330
1F
100
AcDbEntity
  8
0
  6
Continuous
 62
     7
370
    15
100
AcDbSpline
210
0.0
220
0.0
230
1.0
 70
     8
 71
     3
 72
    10
 73
     6
 74
     0
 42
0.000000001
 43
0.00000001
 40
0.0
 40
0.0
 40
0.0
 40
0.0
 40
0.1341952593170959
 40
0.6045541169395205
 40
1.0
 40
1.0
 40
1.0
 40
1.0
 10
225.2397427851568
 20
48.95948753918735
 30
0.0
 10
225.1787106317045
 20
48.78907618915408
 30
0.0
 10
224.903758745751
 20
48.02136737618924
 30
0.0
 10
224.5363542442359
 20
46.75122031548555
 30
0.0
 10
224.2846187104238
 20
45.66559018011269
 30
0.0
 10
224.1696415385646
 20
45.16974169674567
 30
0.0
  0
SPLINE
  5
1FB
330
1F
100
AcDbEntity
  8
0
  6
Continuous
 62
     7
370
    15
100
AcDbSpline
210
0.0
220
0.0
230
1.0
 70
     8
 71
     3
 72
    19
 73
    15
 74
     0
 42
0.000000001
 43
0.00000001
 40
0.0
 40
0.0
 40
0.0
 40
0.0
 40
0.0322518731576275
 40
0.1267981492227861
 40
0.2214319240536679
 40
0.3161097122061156
 40
0.4107995626657737
 40
0.5054797868988496
 40
0.6001421746346434
 40
0.6947835963818257
 40
0.7894041411205328
 40
0.884005843342928
 40
0.9785918627916459
 40
1.0
 40
1.0
 40
1.0
 40
1.0
 10
245.1704711224207
 20
70.84189217104118
 30
0.0
 10
245.0175952260657
 20
70.80572796642932
 30
0.0
 10
244.4165640666086
 20
70.6635484970234
 30
0.0
 10
243.3409388313611
 20
70.26983803021413
 30
0.0
 10
241.9539509856424
 20
69.66368345995971
 30
0.0
 10
240.557883172112
 20
68.91338850994988
 30
0.0
 10
239.1643034618879
 20
68.03651300934489
 30
0.0
 10
237.78168139947
 20
67.03561524226257
 30
0.0
 10
236.418966133886
 20
65.91841361323999
 30
0.0
 10
235.0853142141629
 20
64.69150472605966
 30
0.0
 10
233.7874359086608
 20
63.36496885084467
 30
0.0
 10
232.5403858108012
 20
61.94002583903139
 30
0.0
 10
231.6397535603249
 20
60.83682187846058
 30
0.0
 10
231.1776482854103
 20
60.1902915798258
 30
0.0
 10
231.0923611173737
 20
60.07096652293133
 30
0.0
  0
LINE
  5
1FC
330
1F
100
AcDbEntity
  8
0
  6
Continuous
 62
     7
370
    15
100
AcDbLine
 10
239.4295252318
 20
68.1816606705
 30
0.0
 11
208.6682426875
 21
79.2668075644
 31
0.0
  0
LINE
  5
1FD
330
1F
100
AcDbEntity
  8
0
  6
Continuous
 62
     7
370
    15
100
AcDbLine
 10
198.5443836147
 20
61.729869118
 30
0.0
 11
228.0118939617
 21
36.8477469853
 31
0.0
  0
SPLINE
  5
1FE
330
1F
100
AcDbEntity
  8
0
  6
Continuous
 62
     7
370
    15
100
AcDbSpline
210
0.0
220
0.0
230
1.0
 70
     8
 71
     3
 72
    10
 73
     6
 74
     0
 42
0.000000001
 43
0.00000001
 40
0.0
 40
0.0
 40
0.0
 40
0.0
 40
0.1137492480304115
 40
0.6201369391331364
 40
1.0
 40
1.0
 40
1.0
 40
1.0
 10
261.6359867426212
 20
46.45244041804643
 30
0.0
 10
261.6829611940481
 20
46.5866317196567
 30
0.0
 10
261.9390560081212
 20
47.31821442881567
 30
0.0
 10
262.271318348945
 20
48.49728697266708
 30
0.0
 10
262.5028268250871
 20
49.52776138795365
 30
0.0
 10
262.6020555345336
 20
49.96944131281219
 30
0.0
  0
SPLINE
  5
1FF
330
1F
100
AcDbEntity
  8
0
  6
Continuous
 62
     7
370
    15
100
AcDbSpline
210
0.0
220
0.0
230
1.0
 70
     8
 71
     3
 72
    18
 73
    14
 74
     0
 42
0.000000001
 43
0.00000001
 40
0.0
 40
0.0
 40
0.0
 40
0.0
 40
0.0462907224071838
 40
0.1488346987032105
 40
0.2514667571565578
 40
0.3541415607517765
 40
0.456825424951596
 40
0.5594973182694463
 40
0.6621491780061521
 40
0.7647781541134575
 40
0.8673846776416135
 40
0.9699711517229183
 40
1.0
 40
1.0
 40
1.0
 40
1.0
 10
241.6140578217451
 20
24.24030956942176
 30
0.0
 10
241.8168505336666
 20
24.29041084498354
 30
0.0
 10
242.4688730256155
 20
24.45149729741111
 30
0.0
 10
243.5963938795046
 20
24.87430700474677
 30
0.0
 10
244.9850993573148
 20
25.49920686795452
 30
0.0
 10
246.381352234258
 20
26.26594407746693
 30
0.0
 10
247.7740174106667
 20
27.15903970068348
 30
0.0
 10
249.1546613427897
 20
28.17507951969108
 30
0.0
 10
250.5138705104638
 20
29.30708633815251
 30
0.0
 10
251.8444515057042
 20
30.5458118669641
 30
0.0
 10
253.132455007818
 20
31.89052037398683
 30
0.0
 10
254.0935773909793
 20
32.97143842425913
 30
0.0
 10
254.6036543702371
 20
33.62650908408425
 30
0.0
 10
254.7191540270443
 20
33.77484049183438
 30
0.0
  0
LINE
  5
200
330
1F
100
AcDbEntity
  8
0
  6
Continuous
 62
     7
370
    15
100
AcDbLine
 10
232.3344599264
 20
25.7833023433
 30
0.0
 11
233.789982134
 21
24.9430472582
 31
0.0
  0
LINE
  5
201
330
1F
100
AcDbEntity
  8
0
  6
Continuous
 62
     7
370
    15
100
AcDbLine
 10
228.6104249618
 20
27.9331419677
 30
0.0
 11
230.0482694998
 21
27.1030919841
 31
0.0
  0
LINE
  5
202
330
1F
100
AcDbEntity
  8
0
  6
Continuous
 62
     7
370
    15
100
AcDbLine
 10
224.1785423471
 20
33.9987228385
 30
0.0
 11
224.2229037256
 21
33.8528572326
 31
0.0
  0
LINE
  5
203
330
1F
100
AcDbEntity
  8
0
  6
Continuous
 62
     7
370
    15
100
AcDbLine
 10
262.5974597999
 20
61.0301204024
 30
0.0
 11
262.5458662694
 21
61.1959750399
 31
0.0
  0
SPLINE
  5
204
330
1F
100
AcDbEntity
  8
0
  6
Continuous
 62
     7
370
    15
100
AcDbSpline
210
0.0
220
0.0
230
1.0
 70
     8
 71
     3
 72
    26
 73
    22
 74
     0
 42
0.000000001
 43
0.00000001
 40
0.0
 40
0.0
 40
0.0
 40
0.0
 40
0.0206098791860221
 40
0.0728944564701494
 40
0.1258584937597638
 40
0.1800156353427999
 40
0.2354401664158584
 40
0.2918299572325433
 40
0.3487416745558296
 40
0.4057939367786829
 40
0.4627674649539736
 40
0.519615804861231
 40
0.5763503967627234
 40
0.6330092593602912
 40
0.6896415292663793
 40
0.7462991841995963
 40
0.8030217103243683
 40
0.8598660618226273
 40
0.9168873030478779
 40
0.9741306240247116
 40
1.0
 40
1.0
 40
1.0
 40
1.0
 10
208.7195791935443
 20
79.2280077154146
 30
0.0
 10
208.622706785816
 20
79.269609624297
 30
0.0
 10
208.2800817056507
 20
79.41675015378442
 30
0.0
 10
207.6279744442461
 20
79.51959589081886
 30
0.0
 10
206.7824359319994
 20
79.53801542596382
 30
0.0
 10
205.8955228311783
 20
79.40304507952975
 30
0.0
 10
204.9812556190449
 20
79.12571351155358
 30
0.0
 10
204.051355568864
 20
78.7044860208885
 30
0.0
 10
203.1224931735844
 20
78.14656995518388
 30
0.0
 10
202.2113093251598
 20
77.46230496028107
 30
0.0
 10
201.3329957570467
 20
76.66481137906295
 30
0.0
 10
200.5007503453211
 20
75.76810729761524
 30
0.0
 10
199.7262979319122
 20
74.7866647682789
 30
0.0
 10
199.0204812019089
 20
73.73558467822534
 30
0.0
 10
198.393354830543
 20
72.63057266987927
 30
0.0
 10
197.8541272021671
 20
71.4878813819164
 30
0.0
 10
197.411215373339
 20
70.32412016947693
 30
0.0
 10
197.0713970536849
 20
69.15558493424378
 30
0.0
 10
196.842860771997
 20
67.9994662636499
 30
0.0
 10
196.7459368461482
 20
67.07641034827081
 30
0.0
 10
196.7378719047821
 20
66.54931083435571
 30
0.0
 10
196.7353616385043
 20
66.38524762858925
 30
0.0
  0
SPLINE
  5
205
330
1F
100
AcDbEntity
  8
0
  6
Continuous
 62
     7
370
    15
100
AcDbSpline
210
0.0
220
0.0
230
1.0
 70
     8
 71
     3
 72
    13
 73
     9
 74
     0
 42
0.000000001
 43
0.00000001
 40
0.0
 40
0.0
 40
0.0
 40
0.0
 40
0.1013708190647097
 40
0.2925452625642218
 40
0.4837075732883072
 40
0.6730173308724617
 40
0.8585816115757523
 40
1.0
 40
1.0
 40
1.0
 40
1.0
 10
196.7353616385043
 20
66.38524762858925
 30
0.0
 10
196.738818378873
 20
66.19448111554094
 30
0.0
 10
196.7487941591627
 20
65.64394951124801
 30
0.0
 10
196.860640330155
 20
64.7800589738669
 30
0.0
 10
197.112265997978
 20
63.83122795748315
 30
0.0
 10
197.4941391973022
 20
62.98586960336805
 30
0.0
 10
197.9459938854735
 20
62.29581013522639
 30
0.0
 10
198.3186755828642
 20
61.95272575022444
 30
0.0
 10
198.4798585751642
 20
61.80434344926042
 30
0.0
  0
ARC
  5
206
330
1F
100
AcDbEntity
  8
0
  6
Continuous
 62
     7
370
    15
100
AcDbCircle
 10
239.3148828417
 20
60.2845385094
 30
0.0
 40
1.579788979617037
100
AcDbArc
 50
80.3955081001
 51
142.586436838
  0
ARC
  5
207
330
1F
100
AcDbEntity
  8
0
  6
Continuous
 62
     7
370
    15
100
AcDbCircle
 10
239.281847291
 20
60.370478724
 30
0.0
 40
1.483123316841299
100
AcDbArc
 50
78.8228382486
 51
144.2182524757
  0
ARC
  5
208
330
1F
100
AcDbEntity
  8
0
  6
Continuous
 62
     7
370
    15
100
AcDbCircle
 10
239.2524729501
 20
60.4461175921
 30
0.0
 40
1.267982296264185
100
AcDbArc
 50
81.3753873869
 51
141.5952790221
  0
LINE
  5
209
330
1F
100
AcDbEntity
  8
0
  6
Continuous
 62
     7
370
    15
100
AcDbLine
 10
266.1736887523
 20
40.0722981311
 30
0.0
 11
267.2306661544
 21
39.803917015
 31
0.0
  0
LINE
  5
20A
330
1F
100
AcDbEntity
  8
0
  6
Continuous
 62
     7
370
    15
100
AcDbLine
 10
265.2425847528
 20
39.6780572509
 30
0.0
 11
266.1736887523
 21
40.0722981311
 31
0.0
  0
LINE
  5
20B
330
1F
100
AcDbEntity
  8
0
  6
Continuous
 62
     7
370
    15
100
AcDbLine
 10
265.3684581556
 20
39.0154352546
 30
0.0
 11
265.2425847528
 21
39.6780572509
 31
0.0
  0
LINE
  5
20C
330
1F
100
AcDbEntity
  8
0
  6
Continuous
 62
     7
370
    15
100
AcDbLine
 10
266.4254355578
 20
38.7470541385
 30
0.0
 11
265.3684581556
 21
39.0154352546
 31
0.0
  0
LINE
  5
20D
330
1F
100
AcDbEntity
  8
0
  6
Continuous
 62
     7
370
    15
100
AcDbLine
 10
267.3565395572
 20
39.1412950187
 30
0.0
 11
266.4254355578
 21
38.7470541385
 31
0.0
  0
LINE
  5
20E
330
1F
100
AcDbEntity
  8
0
  6
Continuous
 62
     7
370
    15
100
AcDbLine
 10
267.2306661544
 20
39.803917015
 30
0.0
 11
267.3565395572
 21
39.1412950187
 31
0.0
  0
LWPOLYLINE
  5
20F
330
1F
100
AcDbEntity
  8
0
  6
Continuous
 62
     7
370
    15
100
AcDbPolyline
 90
       22
 70
   128
 43
0.0
 10
265.4943315583
 20
38.3528132583
 10
266.0697253589
 20
38.2627498477
 10
266.6655411674
 20
38.2745958708
 10
267.2288381346
 20
38.3872987567
 10
267.7095648529
 20
38.5908443592
 10
268.0650066439
 20
38.8671467584
 10
268.2635809444
 20
39.1916552735
 10
268.2876435566
 20
39.5355358989
 10
268.1350564117
 20
39.8682333319
 10
267.8193775472
 20
40.1601859456
 10
267.3686564154
 20
40.3854524691
 10
266.822941567
 20
40.5240169832
 10
266.230722161
 20
40.5635674226
 10
265.6446194906
 20
40.5005895574
 10
265.1167113501
 20
40.3406792472
 10
264.6939046944
 20
40.0980452248
 10
264.4137677505
 20
39.7942465878
 10
264.301191915
 20
39.4562771785
 10
264.3661800451
 20
39.114167062
 10
264.6029576601
 20
38.7983142233
 10
264.99048603
 20
38.5367835735
 10
265.4943315583
 20
38.3528132583
  0
LINE
  5
210
330
1F
100
AcDbEntity
  8
0
  6
Continuous
 62
     7
370
    15
100
AcDbLine
 10
267.2306661544
 20
39.0879986725
 30
0.0
 11
267.2306661544
 21
39.803917015
 31
0.0
  0
LINE
  5
211
330
1F
100
AcDbEntity
  8
0
  6
Continuous
 62
     7
370
    15
100
AcDbLine
 10
266.1736887523
 20
38.8109761187
 30
0.0
 11
266.1736887523
 21
40.0722981311
 31
0.0
  0
SPLINE
  5
212
330
1F
100
AcDbEntity
  8
0
  6
Continuous
 62
     7
370
    15
100
AcDbSpline
210
0.0
220
0.0
230
1.0
 70
     8
 71
     3
 72
    12
 73
     8
 74
     0
 42
0.000000001
 43
0.00000001
 40
0.0
 40
0.0
 40
0.0
 40
0.0
 40
0.2499999999999992
 40
0.2499999999999992
 40
0.4999999999999984
 40
0.4999999999999984
 40
1.0
 40
1.0
 40
1.0
 40
1.0
 10
229.4489541158417
 20
42.13967393545281
 30
0.0
 10
229.4828856081312
 20
42.12008570190133
 30
0.0
 10
229.5213173171585
 20
42.09289851296493
 30
0.0
 10
229.5954941698234
 20
42.0336745854291
 30
0.0
 10
229.6307104500789
 20
42.00224190641233
 30
0.0
 10
229.7258093673368
 20
41.91024918961035
 30
0.0
 10
229.7743385240987
 20
41.85339252408571
 30
0.0
 10
229.8076801202538
 20
41.80516371808338
 30
0.0
  0
ARC
  5
213
330
1F
100
AcDbEntity
  8
0
  6
Continuous
 62
     7
370
    15
100
AcDbCircle
 10
253.5242455679
 20
57.4101886884
 30
0.0
 40
10.86943309098326
100
AcDbArc
 50
73.9805673218
 51
106.223291036
  0
SPLINE
  5
214
330
1F
100
AcDbEntity
  8
0
  6
Continuous
 62
     7
370
    15
100
AcDbSpline
210
0.0
220
0.0
230
1.0
 70
     8
 71
     3
 72
    12
 73
     8
 74
     0
 42
0.000000001
 43
0.00000001
 40
0.0
 40
0.0
 40
0.0
 40
0.0
 40
0.5000000000000051
 40
0.5000000000000051
 40
0.7500000000000026
 40
0.7500000000000026
 40
1.0
 40
1.0
 40
1.0
 40
1.0
 10
256.7359429394522
 20
67.42397965629468
 30
0.0
 10
256.7359429394522
 20
67.49666265348749
 30
0.0
 10
256.718926171382
 20
67.58024550022779
 30
0.0
 10
256.6645153455004
 20
67.70168967810345
 30
0.0
 10
256.6413701265786
 20
67.74140455578481
 30
0.0
 10
256.5870893147214
 20
67.8101343276506
 30
0.0
 10
256.5558533461639
 20
67.83904392355626
 30
0.0
 10
256.5238109050962
 20
67.85754163104987
 30
0.0
  0
LWPOLYLINE
  5
215
330
1F
100
AcDbEntity
  8
0
  6
Continuous
 62
     7
370
    15
100
AcDbPolyline
 90
       17
 70
   128
 43
0.0
 10
229.887855521
 20
42.1691302986
 10
230.2618060234
 20
43.6611355518
 10
230.8320329424
 20
45.5335780159
 10
231.5142024878
 20
47.4088362919
 10
232.3033399264
 20
49.2732350265
 10
233.1936904601
 20
51.1131780601
 10
234.1787611923
 20
52.9152475768
 10
235.2513684779
 20
54.6663019537
 10
236.4036903099
 20
56.3535715969
 10
237.6273233616
 20
57.9647520636
 10
238.9133442681
 20
59.4880937927
 10
240.2523746999
 20
60.9124877886
 10
241.6346497547
 20
62.2275466337
 10
243.0500891679
 20
63.4236802389
 10
244.4883708236
 20
64.4921657795
 10
245.9390060281
 20
65.4252113063
 10
246.3808654966
 20
65.680964296
  0
LINE
  5
216
330
1F
100
AcDbEntity
  8
0
  6
Continuous
 62
     7
370
    15
100
AcDbLine
 10
256.5238109051
 20
67.857541631
 30
0.0
 11
255.0682886975
 21
68.6977967161
 31
0.0
  0
LINE
  5
217
330
1F
100
AcDbEntity
  8
0
  6
Continuous
 62
     7
370
    15
100
AcDbLine
 10
227.9934319083
 20
42.9799290205
 30
0.0
 11
229.4489541158
 21
42.1396739355
 31
0.0
  0
ARC
  5
218
330
1F
100
AcDbEntity
  8
0
  6
Continuous
 62
     7
370
    15
100
AcDbCircle
 10
267.3261701474
 20
33.7488214874
 30
0.0
 40
40.40145595988808
100
AcDbArc
 50
136.9528180897
 51
166.7921341067
  0
SPLINE
  5
219
330
1F
100
AcDbEntity
  8
0
  6
Continuous
 62
     7
370
    15
100
AcDbSpline
210
0.0
220
0.0
230
1.0
 70
     8
 71
     3
 72
    34
 73
    30
 74
     0
 42
0.000000001
 43
0.00000001
 40
0.0
 40
0.0
 40
0.0
 40
0.0
 40
0.0625000000000002
 40
0.0625000000000002
 40
0.1250000000000005
 40
0.1250000000000005
 40
0.1875000000000007
 40
0.1875000000000007
 40
0.2500000000000009
 40
0.2500000000000009
 40
0.3750000000000004
 40
0.3750000000000004
 40
0.4375000000000007
 40
0.4375000000000007
 40
0.5000000000000009
 40
0.5000000000000009
 40
0.5625000000000012
 40
0.5625000000000012
 40
0.6250000000000014
 40
0.6250000000000014
 40
0.6875000000000017
 40
0.6875000000000017
 40
0.7500000000000019
 40
0.7500000000000019
 40
0.8750000000000009
 40
0.8750000000000009
 40
0.9375000000000004
 40
0.9375000000000004
 40
1.0
 40
1.0
 40
1.0
 40
1.0
 10
237.8011157303739
 20
61.32687082648512
 30
0.0
 10
237.859791487892
 20
61.29751828307066
 30
0.0
 10
237.9224010872455
 20
61.27382864874619
 30
0.0
 10
238.0554097088376
 20
61.23760020630616
 30
0.0
 10
238.1264523819059
 20
61.22510079291615
 30
0.0
 10
238.2709198992573
 20
61.21242389946075
 30
0.0
 10
238.3448631025949
 20
61.2120035396791
 30
0.0
 10
238.4962594678335
 20
61.22302240083567
 30
0.0
 10
238.5734236005114
 20
61.23458783157857
 30
0.0
 10
238.8006378085496
 20
61.28561485236941
 30
0.0
 10
238.9521172739873
 20
61.34291755252441
 30
0.0
 10
239.1586096449787
 20
61.45511195777588
 30
0.0
 10
239.2250692310755
 20
61.49736075656514
 30
0.0
 10
239.3495282984828
 20
61.58946564731972
 30
0.0
 10
239.4067707158822
 20
61.63863863921311
 30
0.0
 10
239.5115259555081
 20
61.74305344800385
 30
0.0
 10
239.5594289159586
 20
61.79892888979104
 30
0.0
 10
239.6418482520795
 20
61.91303774940373
 30
0.0
 10
239.6766879439048
 20
61.97140718643977
 30
0.0
 10
239.7336012089119
 20
62.09085009560579
 30
0.0
 10
239.7555603774499
 20
62.15213586653266
 30
0.0
 10
239.7846063988448
 20
62.27244253950237
 30
0.0
 10
239.7920615184119
 20
62.33210221243773
 30
0.0
 10
239.7926269678433
 20
62.50977070567699
 30
0.0
 10
239.7639337231601
 20
62.62166603981161
 30
0.0
 10
239.6782948450557
 20
62.7737136215428
 30
0.0
 10
239.6433283621855
 20
62.82054805943052
 30
0.0
 10
239.5609705337603
 20
62.90687528527347
 30
0.0
 10
239.5129846898475
 20
62.94672238088018
 30
0.0
 10
239.4599151676375
 20
62.98166775425085
 30
0.0
  0
LWPOLYLINE
  5
21A
330
1F
100
AcDbEntity
  8
0
  6
Continuous
 62
     7
370
    15
100
AcDbPolyline
 90
       12
 70
   128
 43
0.0
 10
239.4599151676
 20
62.9816677543
 10
240.9102719811
 20
64.2542713885
 10
242.3879039912
 20
65.3954205745
 10
243.8816298177
 20
66.3964801294
 10
245.380146297
 20
67.2498749412
 10
246.8721140141
 20
67.9491472915
 10
248.3462431092
 20
68.4890057205
 10
249.7913787089
 20
68.865365069
 10
251.1965853365
 20
69.0753773903
 10
252.5512296614
 20
69.1174535014
 10
253.8450609627
 20
68.9912750085
 10
255.0682886975
 20
68.6977967161
  0
LINE
  5
21B
330
1F
100
AcDbEntity
  8
0
  6
Continuous
 62
     7
370
    15
100
AcDbLine
 10
262.4458419513
 20
60.5546762388
 30
0.0
 11
262.550123835
 21
60.7352977592
 31
0.0
  0
LINE
  5
21C
330
1F
100
AcDbEntity
  8
0
  6
Continuous
 62
     7
370
    15
100
AcDbLine
 10
260.1477331587
 20
59.2280062718
 30
0.0
 11
262.4458419513
 21
60.5546762388
 31
0.0
  0
ARC
  5
21D
330
1F
100
AcDbEntity
  8
0
  6
Continuous
 62
     7
370
    15
100
AcDbCircle
 10
260.9758424789
 20
57.9334005517
 30
0.0
 40
1.536804807571763
100
AcDbArc
 50
122.60547834
 51
177.3945215144
  0
LINE
  5
21E
330
1F
100
AcDbEntity
  8
0
  6
Continuous
 62
     7
370
    15
100
AcDbLine
 10
259.4406263775
 20
49.143793595
 30
0.0
 11
259.4406263775
 21
58.003261404
 31
0.0
  0
ARC
  5
21F
330
1F
100
AcDbEntity
  8
0
  6
Continuous
 62
     7
370
    15
100
AcDbCircle
 10
259.8717007449
 20
49.0738663981
 30
0.0
 40
0.4367091974285072
100
AcDbArc
 50
170.7859630095
 51
309.2032852357
  0
LINE
  5
220
330
1F
100
AcDbEntity
  8
0
  6
Continuous
 62
     7
370
    15
100
AcDbLine
 10
262.4458419513
 20
50.0621268061
 30
0.0
 11
260.1477331587
 21
48.7354568391
 31
0.0
  0
LINE
  5
221
330
1F
100
AcDbEntity
  8
0
  6
Continuous
 62
     7
370
    15
100
AcDbLine
 10
262.550123835
 20
50.0019065858
 30
0.0
 11
262.4458419513
 21
50.0621268061
 31
0.0
  0
LWPOLYLINE
  5
222
330
1F
100
AcDbEntity
  8
0
  6
Continuous
 62
     7
370
    15
100
AcDbPolyline
 90
        3
 70
   128
 43
0.0
 10
261.5246325558
 20
46.2816647972
 10
261.5083707075
 20
46.2332237421
 10
260.9263840364
 20
44.6248486451
  0
LINE
  5
223
330
1F
100
AcDbEntity
  8
0
  6
Continuous
 62
     7
370
    15
100
AcDbLine
 10
229.8531873607
 20
31.2467878066
 30
0.0
 11
229.8076801203
 21
31.1284197865
 31
0.0
  0
LINE
  5
224
330
1F
100
AcDbEntity
  8
0
  6
Continuous
 62
     7
370
    15
100
AcDbLine
 10
229.8531873607
 20
31.2467878066
 30
0.0
 11
232.9948327611
 21
33.0604210921
 31
0.0
  0
ARC
  5
225
330
1F
100
AcDbEntity
  8
0
  6
Continuous
 62
     7
370
    15
100
AcDbCircle
 10
232.1667234409
 20
34.3550268121
 30
0.0
 40
1.536804807572143
100
AcDbArc
 50
302.60547834
 51
357.3945215143
  0
LINE
  5
226
330
1F
100
AcDbEntity
  8
0
  6
Continuous
 62
     7
370
    15
100
AcDbLine
 10
233.7019395423
 20
43.1446337688
 30
0.0
 11
233.7019395423
 21
34.2851659599
 31
0.0
  0
ARC
  5
227
330
1F
100
AcDbEntity
  8
0
  6
Continuous
 62
     7
370
    15
100
AcDbCircle
 10
233.2708651749
 20
43.2145609657
 30
0.0
 40
0.436709197428525
100
AcDbArc
 50
350.7859630095
 51
129.2032852357
  0
LINE
  5
228
330
1F
100
AcDbEntity
  8
0
  6
Continuous
 62
     7
370
    15
100
AcDbLine
 10
232.9948327611
 20
43.5529705248
 30
0.0
 11
229.8531873607
 21
41.7393372394
 31
0.0
  0
LINE
  5
229
330
1F
100
AcDbEntity
  8
0
  6
Continuous
 62
     7
370
    15
100
AcDbLine
 10
229.8076801203
 20
41.8051637181
 30
0.0
 11
229.8531873607
 21
41.7393372394
 31
0.0
  0
LINE
  5
22A
330
1F
100
AcDbEntity
  8
0
  6
Continuous
 62
     7
370
    15
100
AcDbLine
 10
256.7359429395
 20
64.199018603
 30
0.0
 11
256.7359429395
 21
67.4239796563
 31
0.0
  0
LINE
  5
22B
330
1F
100
AcDbEntity
  8
0
  6
Continuous
 62
     7
370
    15
100
AcDbLine
 10
259.5286898501
 20
65.8112370775
 30
0.0
 11
256.7359429395
 21
64.199018603
 31
0.0
  0
LWPOLYLINE
  5
22C
330
1F
100
AcDbEntity
  8
0
  6
Continuous
 62
     7
370
    15
100
AcDbPolyline
 90
       38
 70
   128
 43
0.0
 10
269.4992203399
 20
37.4808987006
 10
268.7642853395
 20
36.9843967988
 10
268.050493081
 20
36.357712439
 10
267.3783780681
 20
35.6188741891
 10
266.7672758259
 20
34.7891370805
 10
266.2347666533
 20
33.892371139
 10
265.7961698697
 20
32.954374688
 10
265.464103106
 20
32.0021321777
 10
265.2481193184
 20
31.0630378913
 10
265.1544319673
 20
30.1641078617
 10
265.1857362671
 20
29.331202669
 10
265.3411316501
 20
28.5882834792
 10
265.6161476741
 20
27.9567227249
 10
266.0028726288
 20
27.4546892589
 10
266.4901811414
 20
27.0966256701
 10
267.0640542332
 20
26.8928327961
 10
267.7079826201
 20
26.8491733866
 10
268.403441655
 20
26.9669034436
 10
269.1304242475
 20
27.2426360875
 10
269.8680164322
 20
27.6684389922
 10
270.5949990248
 20
28.2320625834
 10
271.2904580596
 20
28.9172924367
 10
271.9343864466
 20
29.7044157366
 10
272.5082595384
 20
30.5707883791
 10
272.9955680509
 20
31.4914864005
 10
273.3822930056
 20
32.440022995
 10
273.6573090297
 20
33.389110492
 10
273.8127044127
 20
34.311445372
 10
273.8440087125
 20
35.1804937399
 10
273.7503213613
 20
35.9712546563
 10
273.5343375737
 20
36.6609793696
 10
273.20227081
 20
37.2298257554
 10
272.7636740265
 20
37.6614291389
 10
272.2311648539
 20
37.9433730766
 10
271.6200626117
 20
38.0675465547
 10
270.9479475987
 20
38.0303773284
 10
270.2341553402
 20
37.8329346886
 10
269.4992203399
 20
37.4808987006
  0
LWPOLYLINE
  5
22D
330
1F
100
AcDbEntity
  8
0
  6
Continuous
 62
     7
370
    15
100
AcDbPolyline
 90
       20
 70
   128
 43
0.0
 10
269.4285096618
 20
37.6033731874
 10
268.6816244988
 20
37.0987980839
 10
267.9562258621
 20
36.4619237345
 10
267.2731821497
 20
35.7110718546
 10
266.6521432857
 20
34.8678430856
 10
266.1109754274
 20
33.9564955841
 10
265.6652469888
 20
33.0032471584
 10
265.3277807656
 20
32.03552103
 10
265.1082850465
 20
31.0811569178
 10
265.0130743238
 20
30.1676101397
 10
265.0448876365
 20
29.3211617731
 10
265.2028097738
 20
28.5661625966
 10
265.482297603
 20
27.9243325616
 10
265.8753107684
 20
27.4141359499
 10
266.3705429966
 20
27.0502501889
 10
266.9537473582
 20
26.8431436096
 10
267.6081461254
 20
26.7987742911
 10
268.3149134373
 20
26.9184186579
 10
269.053716885
 20
27.1986347594
 10
269.4292279414
 20
27.3970277602
  0
LWPOLYLINE
  5
22E
330
1F
100
AcDbEntity
  8
0
  6
Continuous
 62
     7
370
    15
100
AcDbPolyline
 90
       11
 70
   128
 43
0.0
 10
273.8479270442
 20
35.0512684625
 10
273.8439449997
 20
35.2655632679
 10
273.748734277
 20
36.0691820855
 10
273.5292385579
 20
36.7701218347
 10
273.1917723347
 20
37.3482177552
 10
272.7460438961
 20
37.7868390799
 10
272.2048760378
 20
38.0733674719
 10
271.5838371738
 20
38.199560031
 10
270.9007934614
 20
38.161786427
 10
270.1753948247
 20
37.9611333378
 10
269.4285096618
 20
37.6033731874
  0
SPLINE
  5
22F
330
1F
100
AcDbEntity
  8
0
  6
Continuous
 62
     7
370
    15
100
AcDbSpline
210
0.0
220
0.0
230
1.0
 70
     8
 71
     3
 72
    58
 73
    54
 74
     0
 42
0.000000001
 43
0.00000001
 40
0.0
 40
0.0
 40
0.0
 40
0.0
 40
0.0152283567780858
 40
0.0247874414317055
 40
0.0339932337012524
 40
0.0524820502917463
 40
0.0712494440438061
 40
0.0903084811565331
 40
0.0998901690168252
 40
0.1266885749810983
 40
0.1357294233719136
 40
0.1447704229014647
 40
0.1633398192905308
 40
0.172686375039436
 40
0.1934354103258109
 40
0.2230539963216087
 40
0.243827836241545
 40
0.2735929889480567
 40
0.2931661510283007
 40
0.3210744135976201
 40
0.3419690714747723
 40
0.3716781937260477
 40
0.3959386930873122
 40
0.4057086105864677
 40
0.430451546778419
 40
0.4586614257775049
 40
0.4700309144591672
 40
0.4988837349217395
 40
0.5294248658521125
 40
0.5417464907432084
 40
0.5636512343668774
 40
0.5731048936942481
 40
0.6007975115499079
 40
0.6195584888863602
 40
0.6385929295589104
 40
0.6481569413107802
 40
0.6757456282922235
 40
0.6944681887644685
 40
0.7135044608826939
 40
0.7230805533619136
 40
0.7465680599449008
 40
0.7560367007612012
 40
0.780109478883116
 40
0.8036497610762496
 40
0.8131720761506238
 40
0.8375535621487056
 40
0.8579636603447262
 40
0.8871790567411592
 40
0.9068986149308864
 40
0.9349791026607998
 40
0.956837527902368
 40
0.9879068936176476
 40
1.0
 40
1.0
 40
1.0
 40
1.0
 10
268.1900293320817
 20
39.71455696760266
 30
0.0
 10
268.2231080800844
 20
39.68818195997572
 30
0.0
 10
268.2769508906187
 20
39.64525093554934
 30
0.0
 10
268.3405625544535
 20
39.58597440307923
 30
0.0
 10
268.4054184084935
 20
39.5208665170506
 30
0.0
 10
268.4753735908283
 20
39.43930567060912
 30
0.0
 10
268.541881081192
 20
39.33995917661612
 30
0.0
 10
268.5812828809923
 20
39.25580112146179
 30
0.0
 10
268.6118671400206
 20
39.15694616114344
 30
0.0
 10
268.6203804571556
 20
39.07523577758764
 30
0.0
 10
268.6114015191018
 20
38.9940599056378
 30
0.0
 10
268.5967499680054
 20
38.92754733656819
 30
0.0
 10
268.5704066905886
 20
38.86012590368995
 30
0.0
 10
268.5197829188934
 20
38.7712622153003
 30
0.0
 10
268.4362443629185
 20
38.66217684204062
 30
0.0
 10
268.2929855016969
 20
38.53351832756709
 30
0.0
 10
268.0857118846446
 20
38.39452893835512
 30
0.0
 10
267.867403808534
 20
38.28069583212793
 30
0.0
 10
267.5978223233413
 20
38.16902106966412
 30
0.0
 10
267.3395314216916
 20
38.08370349141546
 30
0.0
 10
267.0304012972505
 20
38.00505509080897
 30
0.0
 10
266.7282965402433
 20
37.95040668300854
 30
0.0
 10
266.4711599648824
 20
37.92395131760154
 30
0.0
 10
266.2363736496611
 20
37.91169660485254
 30
0.0
 10
265.9888097367054
 20
37.91194410761478
 30
0.0
 10
265.7430260203624
 20
37.93394225029373
 30
0.0
 10
265.4908749783836
 20
37.97501679039339
 30
0.0
 10
265.2404320957565
 20
38.0362576612551
 30
0.0
 10
265.0063625636877
 20
38.12641548677065
 30
0.0
 10
264.8107167382242
 20
38.22532437031859
 30
0.0
 10
264.6875554475533
 20
38.30131060502001
 30
0.0
 10
264.533395801453
 20
38.41459737517265
 30
0.0
 10
264.4014753644168
 20
38.53352854969423
 30
0.0
 10
264.2701382639132
 20
38.68725709276488
 30
0.0
 10
264.1894754413009
 20
38.8059484514527
 30
0.0
 10
264.1074634193006
 20
38.95226909084214
 30
0.0
 10
264.0439113593897
 20
39.10446231284602
 30
0.0
 10
263.9981931480679
 20
39.28817376607117
 30
0.0
 10
263.9828280106489
 20
39.42322412907277
 30
0.0
 10
263.9815509969207
 20
39.57183950551136
 30
0.0
 10
263.9956816934317
 20
39.69267123476948
 30
0.0
 10
264.0360673906721
 20
39.85069976133801
 30
0.0
 10
264.098870765743
 20
40.00401200344076
 30
0.0
 10
264.1946495698283
 20
40.14528100310897
 30
0.0
 10
264.313380224595
 20
40.27506271650321
 30
0.0
 10
264.4474689963162
 20
40.38498536022198
 30
0.0
 10
264.6647258838198
 20
40.50584942109298
 30
0.0
 10
264.8997107221559
 20
40.58662144165974
 30
0.0
 10
265.1836174495147
 20
40.63953851770192
 30
0.0
 10
265.4555855684546
 20
40.65675660428963
 30
0.0
 10
265.7799399132213
 20
40.64340179434545
 30
0.0
 10
266.0434745398998
 20
40.60885326273804
 30
0.0
 10
266.2160952707797
 20
40.57369881190599
 30
0.0
 10
266.2644595270626
 20
40.5638493641551
 30
0.0
  0
SPLINE
  5
230
330
1F
100
AcDbEntity
  8
0
  6
Continuous
 62
     7
370
    15
100
AcDbSpline
210
0.0
220
0.0
230
1.0
 70
     8
 71
     3
 72
     8
 73
     4
 74
     0
 42
0.000000001
 43
0.00000001
 40
0.0
 40
0.0
 40
0.0
 40
0.0
 40
1.0
 40
1.0
 40
1.0
 40
1.0
 10
226.9208776436132
 20
44.07144286298428
 30
0.0
 10
226.6338105139409
 20
44.02399086326093
 30
0.0
 10
226.3466973953554
 20
43.97663343055815
 30
0.0
 10
226.0595425689577
 20
43.92936176164607
 30
0.0
  0
SPLINE
  5
231
330
1F
100
AcDbEntity
  8
0
  6
Continuous
 62
     7
370
    15
100
AcDbSpline
210
0.0
220
0.0
230
1.0
 70
     8
 71
     3
 72
     8
 73
     4
 74
     0
 42
0.000000001
 43
0.00000001
 40
0.0
 40
0.0
 40
0.0
 40
0.0
 40
0.0011862984959113
 40
0.0011862984959113
 40
0.0011862984959113
 40
0.0011862984959113
 10
225.7072414816823
 20
44.29971866130825
 30
0.0
 10
225.8249523495268
 20
44.1761687101958
 30
0.0
 10
225.9423920999628
 20
44.05271366108052
 30
0.0
 10
226.0595425689577
 20
43.92936176164607
 30
0.0
  0
LWPOLYLINE
  5
232
330
1F
100
AcDbEntity
  8
0
  6
Continuous
 62
     7
370
    15
100
AcDbPolyline
 90
       23
 70
   128
 43
0.0
 10
225.7072414817
 20
44.2997186613
 10
226.2020424407
 20
46.2461329893
 10
226.8217664913
 20
48.2077945054
 10
227.561583015
 20
50.169412471
 10
228.4157252979
 20
52.1156964874
 10
229.3775354808
 20
54.0314756806
 10
230.4395164559
 20
55.9018169553
 10
231.5933903051
 20
57.7121413952
 10
232.8301628248
 20
59.4483379024
 10
234.1401936337
 20
61.0968731911
 10
235.5132713176
 20
62.6448972758
 10
236.9386930251
 20
64.0803436347
 10
238.4053478943
 20
65.3920232659
 10
239.9018036594
 20
66.569711903
 10
241.4163957628
 20
67.604229711
 10
242.9373182781
 20
68.4875128415
 10
244.4527159347
 20
69.2126762885
 10
245.9507765269
 20
69.7740675558
 10
247.4198229881
 20
70.1673107166
 10
248.8484044103
 20
70.3893405233
 10
250.2253853024
 20
70.4384263003
 10
251.5400323884
 20
70.3141854344
 10
252.7820982709
 20
70.0175863569
  0
LINE
  5
233
330
1F
100
AcDbEntity
  8
0
  6
Continuous
 62
     7
370
    15
100
AcDbLine
 10
253.0925424133
 20
69.0407567354
 30
0.0
 11
252.7820982709
 21
70.0175863569
 31
0.0
  0
LWPOLYLINE
  5
234
330
1F
100
AcDbEntity
  8
0
  6
Continuous
 62
     7
370
    15
100
AcDbPolyline
 90
       22
 70
   128
 43
0.0
 10
226.9208776436
 20
44.071442863
 10
227.3953873052
 20
45.9683716766
 10
227.9948309664
 20
47.8813349426
 10
228.7143141015
 20
49.7947130985
 10
229.547962049
 20
51.6928831941
 10
230.4889679786
 20
53.560346455
 10
231.5296484701
 20
55.3818548314
 10
232.6615062489
 20
57.1425355005
 10
233.8752995677
 20
58.8280123044
 10
235.161117666
 20
60.4245231336
 10
236.508461693
 20
61.9190322957
 10
237.9063304316
 20
63.2993369535
 10
239.3433101247
 20
64.5541667627
 10
240.8076676698
 20
65.6732758953
 10
242.2874464211
 20
66.6475266981
 10
243.770563817
 20
67.4689643024
 10
245.2449100353
 20
68.130881577
 10
246.6984468718
 20
68.6278738921
 10
248.1193060328
 20
68.9558832489
 10
249.495886042
 20
69.1122314137
 10
250.8169469671
 20
69.0956417861
 10
251.1119092395
 20
69.0673367521
  0
LINE
  5
235
330
1F
100
AcDbEntity
  8
0
  6
Continuous
 62
     7
370
    15
100
AcDbLine
 10
224.2693969437
 20
45.129768645
 30
0.0
 11
225.7072414817
 21
44.2997186613
 31
0.0
  0
ARC
  5
236
330
1F
100
AcDbEntity
  8
0
  6
Continuous
 62
     7
370
    15
100
AcDbCircle
 10
248.3446933767
 20
60.4003201148
 30
0.0
 40
10.86939642541881
100
AcDbArc
 50
73.9805391468
 51
106.2227912348
  0
LINE
  5
237
330
1F
100
AcDbEntity
  8
0
  6
Continuous
 62
     7
370
    15
100
AcDbLine
 10
252.7820982709
 20
70.0175863569
 30
0.0
 11
251.3442537329
 21
70.8476363406
 31
0.0
  0
LINE
  5
238
330
1F
100
AcDbEntity
  8
0
  6
Continuous
 62
     7
370
    15
100
AcDbLine
 10
228.1734684366
 20
43.7451009691
 30
0.0
 11
227.5473647563
 21
44.1065429302
 31
0.0
  0
SPLINE
  5
239
330
1F
100
AcDbEntity
  8
0
  6
Continuous
 62
     7
370
    15
100
AcDbSpline
210
0.0
220
0.0
230
1.0
 70
     8
 71
     3
 72
    11
 73
     7
 74
     0
 42
0.000000001
 43
0.00000001
 40
0.0
 40
0.0
 40
0.0
 40
0.0
 40
0.3012701681339683
 40
0.6175778188828762
 40
0.9334709277742468
 40
1.0
 40
1.0
 40
1.0
 40
1.0
 10
238.7678909188646
 20
62.08918973468617
 30
0.0
 10
238.6405880750906
 20
62.04470084814491
 30
0.0
 10
238.3796282426502
 20
61.9535024739917
 30
0.0
 10
238.0641729737966
 20
61.7014339815539
 30
0.0
 10
237.8757995764357
 20
61.47457069256134
 30
0.0
 10
237.8389277255233
 20
61.34009093746703
 30
0.0
 10
237.8325132178049
 20
61.31669581610291
 30
0.0
  0
SPLINE
  5
23A
330
1F
100
AcDbEntity
  8
0
  6
Continuous
 62
     7
370
    15
100
AcDbSpline
210
0.0
220
0.0
230
1.0
 70
     8
 71
     3
 72
    14
 73
    10
 74
     0
 42
0.000000001
 43
0.00000001
 40
0.0
 40
0.0
 40
0.0
 40
0.0
 40
0.25
 40
0.25
 40
0.5
 40
0.5
 40
0.75
 40
0.75
 40
1.0
 40
1.0
 40
1.0
 40
1.0
 10
227.5473647563469
 20
44.10654293021634
 30
0.0
 10
227.5097307628888
 20
44.12826857219637
 30
0.0
 10
227.4639568061997
 20
44.14548033330787
 30
0.0
 10
227.3640209286897
 20
44.16788566694037
 30
0.0
 10
227.3095870598499
 20
44.1730605505402
 30
0.0
 10
227.2033714093579
 20
44.17111835622544
 30
0.0
 10
227.1500551094078
 20
44.16402995330721
 30
0.0
 10
227.0525620421071
 20
44.13929651702252
 30
0.0
 10
227.0076503515775
 20
44.12153568103648
 30
0.0
 10
226.9698970859775
 20
44.09974118471448
 30
0.0
  0
LINE
  5
23B
330
1F
100
AcDbEntity
  8
0
  6
Continuous
 62
     7
370
    15
100
AcDbLine
 10
226.969897086
 20
44.0997411847
 30
0.0
 11
226.9208776436
 21
44.071442863
 31
0.0
  0
SPLINE
  5
23C
330
1F
100
AcDbEntity
  8
0
  6
Continuous
 62
     7
370
    15
100
AcDbSpline
210
0.0
220
0.0
230
1.0
 70
     8
 71
     3
 72
    10
 73
     6
 74
     0
 42
0.000000001
 43
0.00000001
 40
0.0
 40
0.0
 40
0.0
 40
0.0
 40
0.5
 40
0.5
 40
1.0
 40
1.0
 40
1.0
 40
1.0
 10
224.1673844533273
 20
45.15921687189298
 30
0.0
 10
224.1747007377496
 20
45.16358487178616
 30
0.0
 10
224.186524597958
 20
45.16411692437442
 30
0.0
 10
224.2206759622357
 20
45.15488687473611
 30
0.0
 10
224.2429329256286
 20
45.14504599741981
 30
0.0
 10
224.2693969436502
 20
45.12976864500349
 30
0.0
  0
ARC
  5
23D
330
1F
100
AcDbEntity
  8
0
  6
Continuous
 62
     7
370
    15
100
AcDbCircle
 10
263.9877782523
 20
35.6505817709
 30
0.0
 40
40.92047810780581
100
AcDbArc
 50
143.5835923659
 51
160.8037578069
  0
SPLINE
  5
23E
330
1F
100
AcDbEntity
  8
0
  6
Continuous
 62
     7
370
    15
100
AcDbSpline
210
0.0
220
0.0
230
1.0
 70
     8
 71
     3
 72
    14
 73
    10
 74
     0
 42
0.000000001
 43
0.00000001
 40
0.0
 40
0.0
 40
0.0
 40
0.0
 40
0.25
 40
0.25
 40
0.5
 40
0.5
 40
0.75
 40
0.75
 40
1.0
 40
1.0
 40
1.0
 40
1.0
 10
239.1849700295768
 20
62.39564131787625
 30
0.0
 10
239.1997852217928
 20
62.35719000053884
 30
0.0
 10
239.1992214221946
 20
62.31933119786609
 30
0.0
 10
239.1662506413466
 20
62.25324407019216
 30
0.0
 10
239.1341088026141
 20
62.22500722819685
 30
0.0
 10
239.0494012088357
 20
62.17716763505288
 30
0.0
 10
238.9975864023657
 20
62.15748034118729
 30
0.0
 10
238.8862044863182
 20
62.12155171121643
 30
0.0
 10
238.8273902953266
 20
62.10549094895826
 30
0.0
 10
238.767890918865
 20
62.08918973468625
 30
0.0
  0
LINE
  5
23F
330
1F
100
AcDbEntity
  8
0
  6
Continuous
 62
     7
370
    15
100
AcDbLine
 10
239.1688429667
 20
62.4374974614
 30
0.0
 11
239.1849700296
 21
62.3956413179
 31
0.0
  0
SPLINE
  5
240
330
1F
100
AcDbEntity
  8
0
  6
Continuous
 62
     7
370
    15
100
AcDbSpline
210
0.0
220
0.0
230
1.0
 70
     8
 71
     3
 72
    10
 73
     6
 74
     0
 42
0.000000001
 43
0.00000001
 40
0.0
 40
0.0
 40
0.0
 40
0.0
 40
0.5
 40
0.5
 40
1.0
 40
1.0
 40
1.0
 40
1.0
 10
239.4599151676375
 20
62.98166775425084
 30
0.0
 10
239.4319001178996
 20
62.90964165156281
 30
0.0
 10
239.3940822294497
 20
62.82869516625936
 30
0.0
 10
239.2981064816148
 20
62.64830012991944
 30
0.0
 10
239.2400747043152
 20
62.54897392294465
 30
0.0
 10
239.1688429667251
 20
62.43749746138057
 30
0.0
  0
LINE
  5
241
330
1F
100
AcDbEntity
  8
0
  6
Continuous
 62
     7
370
    15
100
AcDbLine
 10
229.8531873607
 20
41.7393372394
 30
0.0
 11
228.0253332419
 21
42.7945349616
 31
0.0
  0
SPLINE
  5
242
330
1F
100
AcDbEntity
  8
0
  6
Continuous
 62
     7
370
    15
100
AcDbSpline
210
0.0
220
0.0
230
1.0
 70
     8
 71
     3
 72
     8
 73
     4
 74
     0
 42
0.000000001
 43
0.00000001
 40
0.0000000000000004
 40
0.0000000000000004
 40
0.0000000000000004
 40
0.0000000000000004
 40
0.0011862984959128
 40
0.0011862984959128
 40
0.0011862984959128
 40
0.0011862984959128
 10
228.0253332419288
 20
42.79453496160754
 30
0.0
 10
228.0142710426711
 20
42.85664340652632
 30
0.0
 10
228.0036450360973
 20
42.91843619382794
 30
0.0
 10
227.9934319082799
 20
42.97992902054583
 30
0.0
  0
LINE
  5
243
330
1F
100
AcDbEntity
  8
0
  6
Continuous
 62
     7
370
    15
100
AcDbLine
 10
228.0981183014
 20
43.5797100191
 30
0.0
 11
228.078224902
 21
43.350364241
 31
0.0
  0
ARC
  5
244
330
1F
100
AcDbEntity
  8
0
  6
Continuous
 62
     7
370
    15
100
AcDbCircle
 10
244.0807903307
 20
41.923065594
 30
0.0
 40
16.06285239186575
100
AcDbArc
 50
176.9224853833
 51
185.7271838377
  0
LINE
  5
245
330
1F
100
AcDbEntity
  8
0
  6
Continuous
 62
     7
370
    15
100
AcDbLine
 10
227.099329973
 20
42.6795817574
 30
0.0
 11
227.1611026668
 21
44.1397278671
 31
0.0
  0
ARC
  5
246
330
1F
100
AcDbEntity
  8
0
  6
Continuous
 62
     7
370
    15
100
AcDbCircle
 10
238.9343389635
 20
42.4047273097
 30
0.0
 40
11.8382001492149
100
AcDbArc
 50
178.6696106821
 51
203.7430269489
  0
LINE
  5
247
330
1F
100
AcDbEntity
  8
0
  6
Continuous
 62
     7
370
    15
100
AcDbLine
 10
208.6682426875
 20
79.2668075644
 30
0.0
 11
208.7179415979
 21
79.2484714433
 31
0.0
  0
LINE
  5
248
330
1F
100
AcDbEntity
  8
0
  6
Continuous
 62
     7
370
    15
100
AcDbLine
 10
198.5443836147
 20
61.729869118
 30
0.0
 11
198.4827660936
 21
61.7831345298
 31
0.0
  0
LINE
  5
249
330
1F
100
AcDbEntity
  8
0
  6
Continuous
 62
     7
370
    15
100
AcDbLine
 10
224.6029195104
 20
44.7702523545
 30
0.0
 11
224.1673844533
 21
45.1592168719
 31
0.0
  0
LINE
  5
24A
330
1F
100
AcDbEntity
  8
0
  6
Continuous
 62
     7
370
    15
100
AcDbLine
 10
226.059542569
 20
43.9293617616
 30
0.0
 11
224.6029195104
 21
44.7702523545
 31
0.0
  0
LINE
  5
24B
330
1F
100
AcDbEntity
  8
0
  6
Continuous
 62
     7
370
    15
100
AcDbLine
 10
228.0981183014
 20
43.5797100191
 30
0.0
 11
228.0981183014
 21
43.434560252
 31
0.0
  0
LINE
  5
24C
330
1F
100
AcDbEntity
  8
0
  6
Continuous
 62
     7
370
    15
100
AcDbLine
 10
228.0981183014
 20
42.7525170412
 30
0.0
 11
228.0981183014
 21
40.3201239958
 31
0.0
  0
LINE
  5
24D
330
1F
100
AcDbEntity
  8
0
  6
Continuous
 62
     7
370
    15
100
AcDbLine
 10
228.0981183014
 20
43.7885996763
 30
0.0
 11
228.0981183014
 21
43.5797100191
 31
0.0
  0
LINE
  5
24E
330
1F
100
AcDbEntity
  8
0
  6
Continuous
 62
     7
370
    15
100
AcDbLine
 10
228.0981183014
 20
40.3201239958
 30
0.0
 11
228.0981183014
 21
37.4501349755
 31
0.0
  0
LINE
  5
24F
330
1F
100
AcDbEntity
  8
0
  6
Continuous
 62
     7
370
    15
100
AcDbLine
 10
228.0253332419
 20
32.3019855289
 30
0.0
 11
229.8531873607
 21
31.2467878066
 31
0.0
  0
SPLINE
  5
250
330
1F
100
AcDbEntity
  8
0
  6
Continuous
 62
     7
370
    15
100
AcDbSpline
210
0.0
220
0.0
230
1.0
 70
     8
 71
     3
 72
    14
 73
    10
 74
     0
 42
0.000000001
 43
0.00000001
 40
0.0
 40
0.0
 40
0.0
 40
0.0
 40
0.25
 40
0.25
 40
0.5
 40
0.5
 40
0.75
 40
0.75
 40
1.0
 40
1.0
 40
1.0
 40
1.0
 10
229.8076801202538
 20
31.12841978654687
 30
0.0
 10
229.7910052771874
 20
31.08504716844028
 30
0.0
 10
229.7707100342714
 20
31.04481683899444
 30
0.0
 10
229.7224130552011
 20
30.9710449513223
 30
0.0
 10
229.6941942073959
 20
30.93747534464519
 30
0.0
 10
229.6312688589728
 20
30.88392393898257
 30
0.0
 10
229.5961056829558
 20
30.86346790962291
 30
0.0
 10
229.5214226937474
 20
30.84603561611104
 30
0.0
 10
229.482897818539
 20
30.84998292509593
 30
0.0
 10
229.4489541158417
 20
30.86957820756576
 30
0.0
  0
LINE
  5
251
330
1F
100
AcDbEntity
  8
0
  6
Continuous
 62
     7
370
    15
100
AcDbLine
 10
229.4489541158
 20
30.8695782076
 30
0.0
 11
227.9934319083
 21
31.7098332927
 31
0.0
  0
SPLINE
  5
252
330
1F
100
AcDbEntity
  8
0
  6
Continuous
 62
     7
370
    15
100
AcDbSpline
210
0.0
220
0.0
230
1.0
 70
     8
 71
     3
 72
     8
 73
     4
 74
     0
 42
0.000000001
 43
0.00000001
 40
0.0
 40
0.0
 40
0.0
 40
0.0
 40
0.0011862984959113
 40
0.0011862984959113
 40
0.0011862984959113
 40
0.0011862984959113
 10
227.9934319082799
 20
31.70983329265878
 30
0.0
 10
228.0036450360973
 20
31.90723219454772
 30
0.0
 10
228.0142710426725
 20
32.10461803152451
 30
0.0
 10
228.0253332419301
 20
32.30198552887485
 30
0.0
  0
SPLINE
  5
253
330
1F
100
AcDbEntity
  8
0
  6
Continuous
 62
     7
370
    15
100
AcDbSpline
210
0.0
220
0.0
230
1.0
 70
     8
 71
     3
 72
    11
 73
     7
 74
     0
 42
0.000000001
 43
0.00000001
 40
0.0
 40
0.0
 40
0.0
 40
0.0
 40
0.2031965843083634
 40
0.4549896021193595
 40
0.7243125632012638
 40
1.0
 40
1.0
 40
1.0
 40
1.0
 10
262.6100801814353
 20
49.96727534352096
 30
0.0
 10
262.6093292894962
 20
49.96770999152647
 30
0.0
 10
262.6076479225298
 20
49.96868323782272
 30
0.0
 10
262.5962520526595
 20
49.97526653193297
 30
0.0
 10
262.5778923440079
 20
49.98587061808831
 30
0.0
 10
262.5594517858784
 20
49.99651981049571
 30
0.0
 10
262.550123835029
 20
50.00190658581265
 30
0.0
  0
LWPOLYLINE
  5
254
330
1F
100
AcDbEntity
  8
0
  6
Continuous
 62
     7
370
    15
100
AcDbPolyline
 90
       13
 70
   128
 43
0.0
 10
241.4760319135
 20
24.243622463
 10
240.2100330699
 20
23.9689136338
 10
238.8415710028
 20
23.8170405683
 10
237.5254284834
 20
23.8282846261
 10
236.2712650935
 20
24.0025632834
 10
235.0882855303
 20
24.3385974547
 10
233.9851720511
 20
24.83392088
 10
232.9700207507
 20
25.4848982259
 10
232.0502821419
 20
26.2867517659
 10
231.2327064743
 20
27.233596446
 10
230.5232941912
 20
28.3184830771
 10
229.9272518914
 20
29.5334493368
 10
229.4755331728
 20
30.7820314746
  0
SPLINE
  5
255
330
1F
100
AcDbEntity
  8
0
  6
Continuous
 62
     7
370
    15
100
AcDbSpline
210
0.0
220
0.0
230
1.0
 70
     8
 71
     3
 72
     8
 73
     4
 74
     0
 42
0.000000001
 43
0.00000001
 40
0.0
 40
0.0
 40
0.0
 40
0.0
 40
1.0
 40
1.0
 40
1.0
 40
1.0
 10
228.2714515956795
 20
32.7992236834617
 30
0.0
 10
228.1892534148938
 20
32.63350335695824
 30
0.0
 10
228.1072190467419
 20
32.46775648162027
 30
0.0
 10
228.0253332419301
 20
32.30198552887485
 30
0.0
  0
LINE
  5
256
330
1F
100
AcDbEntity
  8
0
  6
Continuous
 62
     7
370
    15
100
AcDbLine
 10
228.320471038
 20
32.8275220052
 30
0.0
 11
228.2714515957
 21
32.7992236835
 31
0.0
  0
SPLINE
  5
257
330
1F
100
AcDbEntity
  8
0
  6
Continuous
 62
     7
370
    15
100
AcDbSpline
210
0.0
220
0.0
230
1.0
 70
     8
 71
     3
 72
    12
 73
     8
 74
     0
 42
0.000000001
 43
0.00000001
 40
0.0
 40
0.0
 40
0.0
 40
0.0
 40
0.2500000000000023
 40
0.2500000000000023
 40
0.5000000000000046
 40
0.5000000000000046
 40
1.0
 40
1.0
 40
1.0
 40
1.0
 10
228.332253283464
 20
33.16088699542284
 30
0.0
 10
228.3698520680386
 20
33.13918167909855
 30
0.0
 10
228.400029627285
 20
33.11237980852538
 30
0.0
 10
228.4386193619659
 20
33.05475610369538
 30
0.0
 10
228.4474788471557
 20
33.02370797812401
 30
0.0
 10
228.4424314133174
 20
32.93151900171871
 30
0.0
 10
228.3957291262421
 20
32.87096757474387
 30
0.0
 10
228.3204710380438
 20
32.82752200519192
 30
0.0
  0
LINE
  5
258
330
1F
100
AcDbEntity
  8
0
  6
Continuous
 62
     7
370
    15
100
AcDbLine
 10
227.5473647563
 20
33.6139934975
 30
0.0
 11
228.3322532835
 21
33.1608869954
 31
0.0
  0
SPLINE
  5
259
330
1F
100
AcDbEntity
  8
0
  6
Continuous
 62
     7
370
    15
100
AcDbSpline
210
0.0
220
0.0
230
1.0
 70
     8
 71
     3
 72
    10
 73
     6
 74
     0
 42
0.000000001
 43
0.00000001
 40
0.0
 40
0.0
 40
0.0
 40
0.0
 40
0.5
 40
0.5
 40
1.0
 40
1.0
 40
1.0
 40
1.0
 10
226.9698970859775
 20
33.6071917519826
 30
0.0
 10
227.046034476316
 20
33.65114493185531
 30
0.0
 10
227.1495422570004
 20
33.6776315980341
 30
0.0
 10
227.3640375490862
 20
33.68145966842144
 30
0.0
 10
227.4714677935044
 20
33.65780788151803
 30
0.0
 10
227.5473647563469
 20
33.61399349748445
 30
0.0
  0
LINE
  5
25A
330
1F
100
AcDbEntity
  8
0
  6
Continuous
 62
     7
370
    15
100
AcDbLine
 10
226.9208776436
 20
33.5788934303
 30
0.0
 11
226.969897086
 21
33.607191752
 31
0.0
  0
SPLINE
  5
25B
330
1F
100
AcDbEntity
  8
0
  6
Continuous
 62
     7
370
    15
100
AcDbSpline
210
0.0
220
0.0
230
1.0
 70
     8
 71
     3
 72
     8
 73
     4
 74
     0
 42
0.000000001
 43
0.00000001
 40
0.0
 40
0.0
 40
0.0
 40
0.0
 40
1.0
 40
1.0
 40
1.0
 40
1.0
 10
226.0595425689586
 20
33.43681232891434
 30
0.0
 10
226.346697395356
 20
33.48408399782636
 30
0.0
 10
226.6338105139412
 20
33.5314414305291
 30
0.0
 10
226.9208776436132
 20
33.5788934302524
 30
0.0
  0
LINE
  5
25C
330
1F
100
AcDbEntity
  8
0
  6
Continuous
 62
     7
370
    15
100
AcDbLine
 10
224.6029195104
 20
34.2777029218
 30
0.0
 11
226.059542569
 21
33.4368123289
 31
0.0
  0
LINE
  5
25D
330
1F
100
AcDbEntity
  8
0
  6
Continuous
 62
     7
370
    15
100
AcDbLine
 10
224.6029195104
 20
34.2777029218
 30
0.0
 11
227.7445649108
 21
36.0913362072
 31
0.0
  0
ARC
  5
25E
330
1F
100
AcDbEntity
  8
0
  6
Continuous
 62
     7
370
    15
100
AcDbCircle
 10
237.5338699126
 20
34.1448432726
 30
0.0
 40
9.846280054784334
100
AcDbArc
 50
194.3179470969
 51
238.1256438388
  0
ELLIPSE
  5
25F
330
1F
100
AcDbEntity
  8
0
  6
Continuous
 62
     7
370
    15
100
AcDbEllipse
 10
227.451671692
 20
37.0769606753
 30
0.0
 11
-7.507462981948265E-5
 21
1.066811201853405
 31
0.0
210
0.0
220
0.0
230
1.0
 40
0.7174342186
 41
3.534193645557408
 42
5.104989972352354
  0
ARC
  5
260
330
1F
100
AcDbEntity
  8
0
  6
Continuous
 62
     7
370
    15
100
AcDbCircle
 10
237.5963487803
 20
36.5463343458
 30
0.0
 40
11.0802251591978
100
AcDbArc
 50
195.5342364505
 51
215.7346142292
  0
ARC
  5
261
330
1F
100
AcDbEntity
  8
0
  6
Continuous
 62
     7
370
    15
100
AcDbCircle
 10
235.0184196151
 20
35.3625321225
 30
0.0
 40
9.59898450444547
100
AcDbArc
 50
194.0658610291
 51
246.8527683333
  0
SPLINE
  5
262
330
1F
100
AcDbEntity
  8
0
  6
Continuous
 62
     7
370
    15
100
AcDbSpline
210
0.0
220
0.0
230
1.0
 70
     8
 71
     3
 72
     8
 73
     4
 74
     0
 42
0.000000001
 43
0.00000001
 40
0.0000000000000004
 40
0.0000000000000004
 40
0.0000000000000004
 40
0.0000000000000004
 40
0.0011862984959128
 40
0.0011862984959128
 40
0.0011862984959128
 40
0.0011862984959128
 10
226.0595425689591
 20
33.43681232891338
 30
0.0
 10
225.9423920999641
 20
33.3006882860786
 30
0.0
 10
225.824952349527
 20
33.16496471091567
 30
0.0
 10
225.7072414816823
 20
33.02962293342119
 30
0.0
  0
LINE
  5
263
330
1F
100
AcDbEntity
  8
0
  6
Continuous
 62
     7
370
    15
100
AcDbLine
 10
224.1673844533
 20
34.0262218442
 30
0.0
 11
224.6029195104
 21
34.2777029218
 31
0.0
  0
LINE
  5
264
330
1F
100
AcDbEntity
  8
0
  6
Continuous
 62
     7
370
    15
100
AcDbLine
 10
225.7072414817
 20
33.0296229334
 30
0.0
 11
224.2693969437
 21
33.8596729171
 31
0.0
  0
SPLINE
  5
265
330
1F
100
AcDbEntity
  8
0
  6
Continuous
 62
     7
370
    15
100
AcDbSpline
210
0.0
220
0.0
230
1.0
 70
     8
 71
     3
 72
    10
 73
     6
 74
     0
 42
0.000000001
 43
0.00000001
 40
0.0
 40
0.0
 40
0.0
 40
0.0
 40
0.5
 40
0.5
 40
1.0
 40
1.0
 40
1.0
 40
1.0
 10
224.2693969436502
 20
33.85967291711643
 30
0.0
 10
224.2429875143695
 20
33.87491875612336
 30
0.0
 10
224.2207041101604
 20
33.89877617853562
 30
0.0
 10
224.1865969753389
 20
33.9567022702699
 30
0.0
 10
224.174696945284
 20
33.99060080175076
 30
0.0
 10
224.1673844533273
 20
34.02622184420512
 30
0.0
  0
ARC
  5
266
330
1F
100
AcDbEntity
  8
0
  6
Continuous
 62
     7
370
    15
100
AcDbCircle
 10
233.8058715552
 20
36.2839931119
 30
0.0
 40
9.835109564081742
100
AcDbArc
 50
194.9325974163
 51
238.1123667193
  0
ELLIPSE
  5
267
330
1F
100
AcDbEntity
  8
0
  6
Continuous
 62
     7
370
    15
100
AcDbEllipse
 10
227.3910115202
 20
37.0419309196
 30
0.0
 11
0.3250094736511642
 21
1.213179526238662
 31
0.0
210
0.0
220
0.0
230
1.0
 40
0.5176380889
 41
3.619174351347738
 42
5.189970678142616
  0
SPLINE
  5
268
330
1F
100
AcDbEntity
  8
0
  6
Continuous
 62
     7
370
    15
100
AcDbSpline
210
0.0
220
0.0
230
1.0
 70
     8
 71
     3
 72
    12
 73
     8
 74
     0
 42
0.000000001
 43
0.00000001
 40
0.0
 40
0.0
 40
0.0
 40
0.0
 40
0.5
 40
0.5
 40
0.75
 40
0.75
 40
1.0
 40
1.0
 40
1.0
 40
1.0
 10
253.9248686092026
 20
69.04625422062593
 30
0.0
 10
253.9879284864322
 20
69.08265791287619
 30
0.0
 10
254.0678614396633
 20
69.10948922472777
 30
0.0
 10
254.2008406279699
 20
69.1232460662383
 30
0.0
 10
254.246511797082
 20
69.12312493243937
 30
0.0
 10
254.3341496157195
 20
69.11035055081773
 30
0.0
 10
254.3748935265736
 20
69.09751056516298
 30
0.0
 10
254.4064072089122
 20
69.07931810358632
 30
0.0
  0
LINE
  5
269
330
1F
100
AcDbEntity
  8
0
  6
Continuous
 62
     7
370
    15
100
AcDbLine
 10
254.4064072089
 20
69.0793181036
 30
0.0
 11
255.0660756204
 21
68.6984996356
 31
0.0
  0
LINE
  5
26A
330
1F
100
AcDbEntity
  8
0
  6
Continuous
 62
     7
370
    15
100
AcDbLine
 10
256.7359429395
 20
66.6237037068
 30
0.0
 11
258.1304421735
 21
66.9294784791
 31
0.0
  0
LINE
  5
26B
330
1F
100
AcDbEntity
  8
0
  6
Continuous
 62
     7
370
    15
100
AcDbLine
 10
258.1304421735
 20
66.9294784791
 30
0.0
 11
259.5859643811
 21
66.089223394
 31
0.0
  0
SPLINE
  5
26C
330
1F
100
AcDbEntity
  8
0
  6
Continuous
 62
     7
370
    15
100
AcDbSpline
210
0.0
220
0.0
230
1.0
 70
     8
 71
     3
 72
    12
 73
     8
 74
     0
 42
0.000000001
 43
0.00000001
 40
0.0
 40
0.0
 40
0.0
 40
0.0
 40
0.2499999999999946
 40
0.2499999999999946
 40
0.4999999999999892
 40
0.4999999999999892
 40
1.0
 40
1.0
 40
1.0
 40
1.0
 10
259.5859643811038
 20
66.08922339403554
 30
0.0
 10
259.6176205116039
 20
66.07094869888562
 30
0.0
 10
259.6399197886141
 20
66.04712458808733
 30
0.0
 10
259.661740359206
 20
65.99709268563961
 30
0.0
 10
259.6620211215321
 20
65.97070147722573
 30
0.0
 10
259.6386537474114
 20
65.8946262472308
 30
0.0
 10
259.5916153446064
 20
65.8475631922804
 30
0.0
 10
259.528689850106
 20
65.81123707752842
 30
0.0
  0
LINE
  5
26D
330
1F
100
AcDbEntity
  8
0
  6
Continuous
 62
     7
370
    15
100
AcDbLine
 10
253.9248686092
 20
69.0462542206
 30
0.0
 11
253.8330781903
 21
68.9932647397
 31
0.0
  0
SPLINE
  5
26E
330
1F
100
AcDbEntity
  8
0
  6
Continuous
 62
     7
370
    15
100
AcDbSpline
210
0.0
220
0.0
230
1.0
 70
     8
 71
     3
 72
    10
 73
     6
 74
     0
 42
0.000000001
 43
0.00000001
 40
0.0
 40
0.0
 40
0.0
 40
0.0
 40
0.4038887746809641
 40
0.8088450561455599
 40
1.0
 40
1.0
 40
1.0
 40
1.0
 10
262.550123835029
 20
60.73529775920194
 30
0.0
 10
262.5683645728503
 20
60.77406158713486
 30
0.0
 10
262.6048942600615
 20
60.85169169855747
 30
0.0
 10
262.6188348090446
 20
60.95907113763428
 30
0.0
 10
262.6007868383733
 20
61.01232835248405
 30
0.0
 10
262.5949993969131
 20
61.02940633974892
 30
0.0
  0
ARC
  5
26F
330
1F
100
AcDbEntity
  8
0
  6
Continuous
 62
     7
370
    15
100
AcDbCircle
 10
252.2569332032
 20
58.4219861868
 30
0.0
 40
10.60665943635996
100
AcDbArc
 50
15.741291384
 51
46.2919543225
  0
LWPOLYLINE
  5
270
330
1F
100
AcDbEntity
  8
0
  6
Continuous
 62
     7
370
    15
100
AcDbPolyline
 90
        3
 70
   128
 43
0.0
 10
256.7359429395
 20
67.3046941928
 10
256.7743971446
 20
67.2572295114
 10
257.154652632
 20
66.7509486863
  0
LINE
  5
271
330
1F
100
AcDbEntity
  8
0
  6
Continuous
 62
     7
370
    15
100
AcDbLine
 10
262.4458419513
 20
50.0621268061
 30
0.0
 11
260.5814386115
 21
51.1384239445
 31
0.0
  0
LINE
  5
272
330
1F
100
AcDbEntity
  8
0
  6
Continuous
 62
     7
370
    15
100
AcDbLine
 10
259.7733524641
 20
50.9848839621
 30
0.0
 11
259.8223719064
 21
51.0131822839
 31
0.0
  0
SPLINE
  5
273
330
1F
100
AcDbEntity
  8
0
  6
Continuous
 62
     7
370
    15
100
AcDbSpline
210
0.0
220
0.0
230
1.0
 70
     8
 71
     3
 72
    10
 73
     6
 74
     0
 42
0.000000001
 43
0.00000001
 40
0.0
 40
0.0
 40
0.0
 40
0.0
 40
0.3482864793192232
 40
0.7262033671299846
 40
1.0
 40
1.0
 40
1.0
 40
1.0
 10
259.4406263774908
 20
50.91371105509842
 30
0.0
 10
259.4832741286374
 20
50.91379885902723
 30
0.0
 10
259.572197880555
 20
50.91398193678803
 30
0.0
 10
259.6881554725236
 20
50.94220458722547
 30
0.0
 10
259.748148365203
 20
50.97225798595754
 30
0.0
 10
259.7733524640754
 20
50.98488396212349
 30
0.0
  0
SPLINE
  5
274
330
1F
100
AcDbEntity
  8
0
  6
Continuous
 62
     7
370
    15
100
AcDbSpline
210
0.0
220
0.0
230
1.0
 70
     8
 71
     3
 72
     8
 73
     4
 74
     0
 42
0.000000001
 43
0.00000001
 40
0.0
 40
0.0
 40
0.0
 40
0.0
 40
1.0
 40
1.0
 40
1.0
 40
1.0
 10
259.8223719064397
 20
51.01318228385369
 30
0.0
 10
260.0753578601207
 20
51.05500068855152
 30
0.0
 10
260.3283811224679
 20
51.0967458931269
 30
0.0
 10
260.5814386114726
 20
51.138423944524
 30
0.0
  0
LWPOLYLINE
  5
275
330
1F
100
AcDbEntity
  8
0
  6
Continuous
 62
     7
370
     0
100
AcDbPolyline
 90
       19
 70
   128
 43
0.0
 10
229.4489541158
 20
42.1396739355
 10
229.9437550749
 20
44.0860882635
 10
230.5634791255
 20
46.0477497795
 10
231.3032956492
 20
48.0093677452
 10
232.1574379321
 20
49.9556517616
 10
233.119248115
 20
51.8714309548
 10
234.18122909
 20
53.7417722295
 10
235.3351029392
 20
55.5520966693
 10
236.5718754589
 20
57.2882931766
 10
237.8819062678
 20
58.9368284652
 10
239.2549839518
 20
60.4848525499
 10
240.6804056593
 20
61.9202989089
 10
242.1470605285
 20
63.2319785401
 10
243.6435162936
 20
64.4096671771
 10
245.158108397
 20
65.4441849851
 10
246.6790309123
 20
66.3274681156
 10
248.1944285688
 20
67.0526315627
 10
249.6924891611
 20
67.6140228299
 10
250.4875276184
 20
67.8468030731
  0
LINE
  5
276
330
1F
100
AcDbEntity
  8
0
  6
Continuous
 62
     7
370
     0
100
AcDbLine
 10
229.8076801203
 20
41.8051637181
 30
0.0
 11
229.887855521
 21
42.1691302986
 31
0.0
  0
LWPOLYLINE
  5
277
330
1F
100
AcDbEntity
  8
0
  6
Continuous
 62
     7
370
     0
100
AcDbPolyline
 90
        9
 70
   128
 43
0.0
 10
246.3808654966
 20
65.680964296
 10
247.3914159994
 20
66.216012569
 10
248.8350090129
 20
66.8588026357
 10
250.2592576418
 20
67.3488939489
 10
251.6537755288
 20
67.6827125093
 10
253.0083931282
 20
67.8578239394
 10
254.3132318681
 20
67.872951236
 10
255.5587761896
 20
67.7279840832
 10
256.7359429395
 20
67.4239796563
  0
LWPOLYLINE
  5
278
330
1F
100
AcDbEntity
  8
0
  6
Continuous
 62
     7
370
     0
100
AcDbPolyline
 90
        3
 70
   128
 43
0.0
 10
262.550123835
 20
50.0019065858
 10
262.0884778348
 20
48.1257800784
 10
261.5246325558
 20
46.2816647972
  0
LWPOLYLINE
  5
279
330
1F
100
AcDbEntity
  8
0
  6
Continuous
 62
     7
370
     0
100
AcDbPolyline
 90
       23
 70
   128
 43
0.0
 10
254.6768919574
 20
33.7992378653
 10
254.5953808739
 20
33.6982938043
 10
253.2889393263
 20
32.1700790944
 10
251.9295714472
 20
30.7442650605
 10
250.5274011649
 20
29.4314704903
 10
249.0928711797
 20
28.241472456
 10
247.6366651915
 20
27.1831334995
 10
246.1696283329
 20
26.2643356281
 10
244.7026863997
 20
25.4919216133
 10
243.2467644808
 20
24.8716440288
 10
241.812705593
 20
24.4081224083
 10
240.411189928
 20
24.1048088414
 10
239.0526553106
 20
23.9639622639
 10
237.7472194633
 20
23.9866316344
 10
236.5046046542
 20
24.1726481221
 10
235.3340652898
 20
24.5206263644
 10
234.244318993
 20
25.0279747841
 10
233.2434816781
 20
25.6909148903
 10
232.3390071076
 20
26.5045094193
 10
231.5376313796
 20
27.4626991041
 10
230.8453227612
 20
28.5583478018
 10
230.267237239
 20
29.7832956398
 10
229.8076801203
 20
31.1284197865
  0
ARC
  5
27A
330
1F
100
AcDbEntity
  8
0
  6
Continuous
 62
     7
370
     0
100
AcDbCircle
 10
252.3699874942
 20
58.1128278217
 30
0.0
 40
10.51249373319284
100
AcDbArc
 50
14.4456909384
 51
47.0804404646
  0
LWPOLYLINE
  5
27B
330
1F
100
AcDbEntity
  8
0
  6
Continuous
 62
     7
370
     0
100
AcDbPolyline
 90
       21
 70
   128
 43
0.0
 10
240.702296676
 20
42.7561200179
 10
240.7665208626
 20
43.7591897227
 10
240.9576880619
 20
44.8128999914
 10
241.2713174767
 20
45.8925527481
 10
241.7000578994
 20
46.9728418475
 10
242.2338600178
 20
48.0284462285
 10
242.8602119628
 20
49.0346234193
 10
243.5644325756
 20
49.9677894792
 10
244.3300155219
 20
50.8060717868
 10
245.1390161864
 20
51.5298217152
 10
245.9724722791
 20
52.1220751795
 10
246.8108482956
 20
52.5689502605
 10
247.6344934127
 20
52.859972585
 10
248.4241020869
 20
52.9883208365
 10
249.1611665602
 20
52.9509866407
 10
249.8284106659
 20
52.7488450794
 10
250.4101947679
 20
52.3866341797
 10
250.8928823398
 20
51.8728438579
 10
251.265159594
 20
51.2195169237
 10
251.5183006673
 20
50.4419668068
 10
251.598594309
 20
50.0096670356
  0
LWPOLYLINE
  5
27C
330
1F
100
AcDbEntity
  8
0
  6
Continuous
 62
     7
370
     0
100
AcDbPolyline
 90
       11
 70
   128
 43
0.0
 10
245.34910223
 20
39.1840562559
 10
245.1390161864
 20
39.1049456311
 10
244.3300155219
 20
38.8946432742
 10
243.5644325756
 20
38.8490023268
 10
242.8602119628
 20
38.969092574
 10
242.2338600178
 20
39.2520992022
 10
241.7000578994
 20
39.6913887759
 10
241.2713174767
 20
40.2766647199
 10
240.9576880619
 20
40.994208662
 10
240.7665208626
 20
41.8272019805
 10
240.702296676
 20
42.7561200179
  0
ARC
  5
27D
330
1F
100
AcDbEntity
  8
0
  6
Continuous
 62
     7
370
     0
100
AcDbCircle
 10
245.8792542934
 20
42.4149675565
 30
0.0
 40
3.074622603022041
100
AcDbArc
 50
173.6294853733
 51
235.0583342334
  0
LWPOLYLINE
  5
27E
330
1F
100
AcDbEntity
  8
0
  6
Continuous
 62
     7
370
     0
100
AcDbPolyline
 90
       15
 70
   128
 43
0.0
 10
250.3677804415
 20
50.7202007572
 10
249.8709665975
 20
50.9275712669
 10
249.2326726575
 20
51.012929116
 10
248.5371404474
 20
50.9341491472
 10
247.8043791625
 20
50.6934977167
 10
247.0554690109
 20
50.2978979282
 10
246.3119547741
 20
49.7587304671
 10
245.595226003
 20
49.0915061997
 10
244.9259016793
 20
48.3154199534
 10
244.3232370453
 20
47.4527983165
 10
243.8045696652
 20
46.5284573428
 10
243.3848206552
 20
45.5689886393
 10
243.0760654301
 20
44.6019943736
 10
242.8871863154
 20
43.6552932102
 10
242.8236170196
 20
42.7561200179
  0
LWPOLYLINE
  5
27F
330
1F
100
AcDbEntity
  8
0
  6
Continuous
 62
     7
370
     0
100
AcDbPolyline
 90
       30
 70
   128
 43
0.0
 10
269.4992203399
 20
35.725335955
 10
268.8911921158
 20
35.297967651
 10
268.3115946156
 20
34.7378604504
 10
267.7875291744
 20
34.0712043436
 10
267.3435005097
 20
33.3291714292
 10
267.0002709083
 20
32.5464583414
 10
266.773889405
 20
31.7596638744
 10
266.6749413472
 20
31.005577663
 10
266.7080534361
 20
30.3194599403
 10
266.8716773873
 20
29.7333928085
 10
267.1581623266
 20
29.2747801153
 10
267.5541125368
 20
28.9650660805
 10
268.041013826
 20
28.8187325881
 10
268.5960992311
 20
28.8426220297
 10
269.1934135755
 20
29.0356173615
 10
269.8050271043
 20
29.3886943362
 10
270.4023414487
 20
29.885343467
 10
270.9574268538
 20
30.5023419925
 10
271.444328143
 20
31.2108397473
 10
271.8402783531
 20
31.9777081639
 10
272.1267632925
 20
32.7670893275
 10
272.2903872436
 20
33.5420726522
 10
272.3234993326
 20
34.266420779
 10
272.2245512748
 20
34.9062639946
 10
271.9981697714
 20
35.4316839413
 10
271.65494017
 20
35.8181125665
 10
271.2109115053
 20
36.047480897
 10
270.6868460641
 20
36.1090639248
 10
270.107248564
 20
35.9999820957
 10
269.4992203399
 20
35.725335955
  0
LWPOLYLINE
  5
280
330
1F
100
AcDbEntity
  8
0
  6
Continuous
 62
     7
370
     0
100
AcDbPolyline
 90
       19
 70
   128
 43
0.0
 10
224.2693969437
 20
45.129768645
 10
224.7641979027
 20
47.076182973
 10
225.3839219533
 20
49.0378444891
 10
226.123738477
 20
50.9994624547
 10
226.9778807599
 20
52.9457464711
 10
227.9396909428
 20
54.8615256643
 10
229.0016719178
 20
56.731866939
 10
230.155545767
 20
58.5421913789
 10
231.3923182867
 20
60.2783878861
 10
232.7023490957
 20
61.9269231748
 10
234.0754267796
 20
63.4749472594
 10
235.5008484871
 20
64.9103936184
 10
236.9675033563
 20
66.2220732496
 10
238.4639591214
 20
67.3997618867
 10
239.9785512248
 20
68.4342796947
 10
241.4994737401
 20
69.3175628252
 10
243.0148713966
 20
70.0427262722
 10
244.5129319889
 20
70.6041175395
 10
245.308076711
 20
70.8369257832
  0
LWPOLYLINE
  5
281
330
1F
100
AcDbEntity
  8
0
  6
Continuous
 62
     7
370
     0
100
AcDbPolyline
 90
       19
 70
   128
 43
0.0
 10
227.5473647563
 20
44.1065429302
 10
228.0235475989
 20
45.9775890175
 10
228.623251537
 20
47.8634295621
 10
229.3415235146
 20
49.7484890889
 10
230.1724312022
 20
51.6171985731
 10
231.1091119932
 20
53.4541240278
 10
232.1438296827
 20
55.2440939759
 10
233.2680383629
 20
56.9723247534
 10
234.4724530045
 20
58.6245426109
 10
235.7471261438
 20
60.1871016022
 10
237.0815300404
 20
61.647096289
 10
238.4646436272
 20
62.9924683289
 10
239.8850435358
 20
64.2121060673
 10
241.3309984438
 20
65.2959363101
 10
242.7905659655
 20
66.2350075207
 10
244.2516912866
 20
67.0215637515
 10
245.7023067265
 20
67.6491087018
 10
247.1304314076
 20
68.1124593719
 10
247.563241248
 20
68.2213064972
  0
LINE
  5
282
330
1F
100
AcDbEntity
  8
0
  6
Continuous
 62
     7
370
     0
100
AcDbLine
 10
238.7678909189
 20
62.0891897347
 30
0.0
 11
239.1263819109
 21
62.4260713017
 31
0.0
  0
LWPOLYLINE
  5
283
330
1F
100
AcDbEntity
  8
0
  6
Continuous
 62
     7
370
     0
100
AcDbPolyline
 90
       16
 70
   128
 43
0.0
 10
267.420842492
 20
29.6180599126
 10
267.6026084151
 20
29.5380954076
 10
268.0718594797
 20
29.4685064
 10
268.5949557345
 20
29.559116417
 10
269.1456669493
 20
29.8053818938
 10
269.696378164
 20
30.1949540513
 10
270.2194744189
 20
30.7082981147
 10
270.6887254834
 20
31.3196728692
 10
271.0806011498
 20
31.9984214315
 10
271.3754511357
 20
32.7105085148
 10
271.5584904318
 20
33.4202270991
 10
271.6205406834
 20
34.0919889311
 10
271.5584904318
 20
34.6921090676
 10
271.3754511357
 20
35.190494979
 10
271.0806011498
 20
35.5621555146
 10
270.8682961565
 20
35.7096828093
  0
LWPOLYLINE
  5
284
330
1F
100
AcDbEntity
  8
0
  6
Continuous
 62
     7
370
     0
100
AcDbPolyline
 90
       21
 70
   128
 43
0.0
 10
226.969897086
 20
44.0997411847
 10
227.4446358617
 20
45.9929642147
 10
228.0441054114
 20
47.9020461845
 10
228.7634031804
 20
49.8113743272
 10
229.5966466405
 20
51.7053338622
 10
230.537021398
 20
53.568435696
 10
231.5768369229
 20
55.385443094
 10
232.7075894432
 20
57.1414962891
 10
233.9200314903
 20
58.8222340072
 10
235.2042475258
 20
60.4139109154
 10
236.5497350326
 20
61.9035100344
 10
237.9454904061
 20
63.2788491923
 10
239.3800989433
 20
64.5286806533
 10
240.841828194
 20
65.6427831025
 10
242.3187239107
 20
66.6120452381
 10
243.798707812
 20
67.4285402847
 10
245.2696763612
 20
68.0855908196
 10
246.7195997502
 20
68.5778233822
 10
248.1366202815
 20
68.9012124184
 10
249.5091493426
 20
69.0531132029
 10
250.8093607339
 20
69.033653948
  0
LINE
  5
285
330
1F
100
AcDbEntity
  8
0
  6
Continuous
 62
     7
370
     0
100
AcDbLine
 10
228.0185687885
 20
42.1489164847
 30
0.0
 11
228.030833365
 21
42.7913598082
 31
0.0
  0
LWPOLYLINE
  5
286
330
1F
100
AcDbEntity
  8
0
  6
Continuous
 62
     7
370
     0
100
AcDbPolyline
 90
        3
 70
   128
 43
0.0
 10
228.0538016612
 20
43.2456409193
 10
228.0819216248
 20
43.6280326122
 10
228.0981183014
 20
43.8107665387
  0
LINE
  5
287
330
1F
100
AcDbEntity
  8
0
  6
Continuous
 62
     7
370
     0
100
AcDbLine
 10
228.0190203232
 20
42.0272374336
 30
0.0
 11
228.0185687885
 21
42.1489164847
 31
0.0
  0
LWPOLYLINE
  5
288
330
1F
100
AcDbEntity
  8
0
  6
Continuous
 62
     7
370
     0
100
AcDbPolyline
 90
       18
 70
   128
 43
0.0
 10
196.9336157747
 20
66.0402229113
 10
196.9978365198
 20
67.1851156037
 10
197.1893527345
 20
68.3837253529
 10
197.5047468073
 20
69.6146629396
 10
197.9383905236
 20
70.8559622534
 10
198.4825455009
 20
72.0854722785
 10
199.1275012808
 20
73.2812523795
 10
199.8617486121
 20
74.4219638322
 10
200.6721848338
 20
75.4872506136
 10
201.5443476924
 20
76.4581026559
 10
202.4626734209
 20
77.3171950814
 10
203.410774475
 20
78.0491973654
 10
204.3717319688
 20
78.6410469098
 10
205.3283975933
 20
79.0821821455
 10
206.2636996275
 20
79.3647310037
 10
207.1609475846
 20
79.4836513934
 10
208.0041300536
 20
79.4368211774
 10
208.6682426875
 20
79.2668075644
  0
ARC
  5
289
330
1F
100
AcDbEntity
  8
0
  6
Continuous
 62
     7
370
     0
100
AcDbCircle
 10
202.3329762252
 20
65.594633587
 30
0.0
 40
5.417715673601815
100
AcDbArc
 50
175.2822811917
 51
224.7105133779
  0
LINE
  5
28A
330
1F
100
AcDbEntity
  8
0
  6
Continuous
 62
     7
370
     0
100
AcDbLine
 10
233.7019395423
 20
43.1446337688
 30
0.0
 11
232.994717827
 21
43.5529041748
 31
0.0
  0
LINE
  5
28B
330
1F
100
AcDbEntity
  8
0
  6
Continuous
 62
     7
370
     0
100
AcDbLine
 10
228.1587784732
 20
37.4851647312
 30
0.0
 11
233.7019395423
 21
34.2851659599
 31
0.0
  0
LINE
  5
28C
330
1F
100
AcDbEntity
  8
0
  6
Continuous
 62
     7
370
     0
100
AcDbLine
 10
228.0981183014
 20
37.4501349755
 30
0.0
 11
228.1587784732
 21
37.4851647312
 31
0.0
  0
LINE
  5
28D
330
1F
100
AcDbEntity
  8
0
  6
Continuous
 62
     7
370
     0
100
AcDbLine
 10
229.4755331728
 20
30.7820314746
 30
0.0
 11
229.4489541158
 21
30.8695782076
 31
0.0
  0
LINE
  5
28E
330
1F
100
AcDbEntity
  8
0
  6
Continuous
 62
     7
370
     0
100
AcDbLine
 10
232.9948327611
 20
33.0604210921
 30
0.0
 11
227.7445649108
 21
36.0913362072
 31
0.0
  0
LINE
  5
28F
330
1F
100
AcDbEntity
  8
0
  6
Continuous
 62
     7
370
     0
100
AcDbLine
 10
228.4096999995
 20
32.9108604876
 30
0.0
 11
228.3322532835
 21
33.1608869954
 31
0.0
  0
LWPOLYLINE
  5
290
330
1F
100
AcDbEntity
  8
0
  6
Continuous
 62
     7
370
     0
100
AcDbPolyline
 90
        3
 70
   128
 43
0.0
 10
228.0187184866
 20
32.3040403928
 10
228.0098041892
 20
32.3249956505
 10
227.5473647563
 20
33.6139934975
  0
ARC
  5
291
330
1F
100
AcDbEntity
  8
0
  6
Continuous
 62
     7
370
     0
100
AcDbCircle
 10
237.7085479084
 20
36.615013273
 30
0.0
 40
11.15193309650968
100
AcDbArc
 50
195.647190411
 51
214.1547951946
  0
LINE
  5
292
330
1F
100
AcDbEntity
  8
0
  6
Continuous
 62
     7
370
     0
100
AcDbLine
 10
224.3028972625
 20
33.7496569604
 30
0.0
 11
224.2693969437
 21
33.8596729171
 31
0.0
  0
LINE
  5
293
330
1F
100
AcDbEntity
  8
0
  6
Continuous
 62
     7
370
     0
100
AcDbLine
 10
259.4406263868
 20
49.1436608896
 30
0.0
 11
260.1477331587
 21
48.7354568391
 31
0.0
  0
OLE2FRAME
  5
294
330
1F
100
AcDbEntity
  8
0
100
AcDbOle2Frame
 70
     2
  3
Paintbrush-Bild
 10
13.8511154363
 20
38.264191557
 30
0.0
 11
51.6290888628
 21
31.9806341108
 31
0.0
 71
     2
 72
     0
 73
     1
 90
    12928
310
80552BED0767C5B32B40DDAF6807D121434000000000000000006FFBDDFB85D0
310
4940DDAF6807D121434000000000000000006FFBDDFB85D04940416F4BD60AFB
310
3F4000000000000000002BED0767C5B32B40416F4BD60AFB3F40000000000000
310
0000000000000100000000010000010000000100000000000100000000320000
310
D0CF11E0A1B11AE1000000000000000000000000000000003E000300FEFF0900
310
0600000000000000000000000100000001000000000000000010000002000000
310
01000000FEFFFFFF0000000000000000FFFFFFFFFFFFFFFFFFFFFFFFFFFFFFFF
310
FFFFFFFFFFFFFFFFFFFFFFFFFFFFFFFFFFFFFFFFFFFFFFFFFFFFFFFFFFFFFFFF
310
FFFFFFFFFFFFFFFFFFFFFFFFFFFFFFFFFFFFFFFFFFFFFFFFFFFFFFFFFFFFFFFF
310
FFFFFFFFFFFFFFFFFFFFFFFFFFFFFFFFFFFFFFFFFFFFFFFFFFFFFFFFFFFFFFFF
310
FFFFFFFFFFFFFFFFFFFFFFFFFFFFFFFFFFFFFFFFFFFFFFFFFFFFFFFFFFFFFFFF
310
FFFFFFFFFFFFFFFFFFFFFFFFFFFFFFFFFFFFFFFFFFFFFFFFFFFFFFFFFFFFFFFF
310
FFFFFFFFFFFFFFFFFFFFFFFFFFFFFFFFFFFFFFFFFFFFFFFFFFFFFFFFFFFFFFFF
310
FFFFFFFFFFFFFFFFFFFFFFFFFFFFFFFFFFFFFFFFFFFFFFFFFFFFFFFFFFFFFFFF
310
FFFFFFFFFFFFFFFFFFFFFFFFFFFFFFFFFFFFFFFFFFFFFFFFFFFFFFFFFFFFFFFF
310
FFFFFFFFFFFFFFFFFFFFFFFFFFFFFFFFFFFFFFFFFFFFFFFFFFFFFFFFFFFFFFFF
310
FFFFFFFFFFFFFFFFFFFFFFFFFFFFFFFFFFFFFFFFFFFFFFFFFFFFFFFFFFFFFFFF
310
FFFFFFFFFFFFFFFFFFFFFFFFFFFFFFFFFFFFFFFFFFFFFFFFFFFFFFFFFFFFFFFF
310
FFFFFFFFFFFFFFFFFFFFFFFFFFFFFFFFFFFFFFFFFFFFFFFFFFFFFFFFFFFFFFFF
310
FFFFFFFFFFFFFFFFFFFFFFFFFFFFFFFFFFFFFFFFFFFFFFFFFFFFFFFFFFFFFFFF
310
FDFFFFFFFEFFFFFFFEFFFFFFFEFFFFFF05000000060000000700000008000000
310
090000000A0000000B0000000C0000000D0000000E0000000F00000010000000
310
11000000120000001300000014000000150000001600000017000000FEFFFFFF
310
FFFFFFFFFFFFFFFFFFFFFFFFFFFFFFFFFFFFFFFFFFFFFFFFFFFFFFFFFFFFFFFF
310
FFFFFFFFFFFFFFFFFFFFFFFFFFFFFFFFFFFFFFFFFFFFFFFFFFFFFFFFFFFFFFFF
310
FFFFFFFFFFFFFFFFFFFFFFFFFFFFFFFFFFFFFFFFFFFFFFFFFFFFFFFFFFFFFFFF
310
FFFFFFFFFFFFFFFFFFFFFFFFFFFFFFFFFFFFFFFFFFFFFFFFFFFFFFFFFFFFFFFF
310
FFFFFFFFFFFFFFFFFFFFFFFFFFFFFFFFFFFFFFFFFFFFFFFFFFFFFFFFFFFFFFFF
310
FFFFFFFFFFFFFFFFFFFFFFFFFFFFFFFFFFFFFFFFFFFFFFFFFFFFFFFFFFFFFFFF
310
FFFFFFFFFFFFFFFFFFFFFFFFFFFFFFFFFFFFFFFFFFFFFFFFFFFFFFFFFFFFFFFF
310
FFFFFFFFFFFFFFFFFFFFFFFFFFFFFFFFFFFFFFFFFFFFFFFFFFFFFFFFFFFFFFFF
310
FFFFFFFFFFFFFFFFFFFFFFFFFFFFFFFFFFFFFFFFFFFFFFFFFFFFFFFFFFFFFFFF
310
FFFFFFFFFFFFFFFFFFFFFFFFFFFFFFFFFFFFFFFFFFFFFFFFFFFFFFFFFFFFFFFF
310
FFFFFFFFFFFFFFFFFFFFFFFFFFFFFFFFFFFFFFFFFFFFFFFFFFFFFFFFFFFFFFFF
310
FFFFFFFFFFFFFFFFFFFFFFFFFFFFFFFFFFFFFFFFFFFFFFFFFFFFFFFFFFFFFFFF
310
FFFFFFFFFFFFFFFFFFFFFFFFFFFFFFFFFFFFFFFFFFFFFFFFFFFFFFFFFFFFFFFF
310
52006F006F007400200045006E00740072007900000000000000000000000000
310
0000000000000000000000000000000000000000000000000000000000000000
310
16000500FFFFFFFFFFFFFFFF020000000A00030000000000C000000000000046
310
000000000000000000000000503C25B49224D20103000000C000000000000000
310
01004F006C006500000000000000000000000000000000000000000000000000
310
0000000000000000000000000000000000000000000000000000000000000000
310
0A000200FFFFFFFFFFFFFFFFFFFFFFFF00000000000000000000000000000000
310
0000000000000000000000000000000000000000000000001400000000000000
310
010043006F006D0070004F0062006A0000000000000000000000000000000000
310
0000000000000000000000000000000000000000000000000000000000000000
310
120002010100000003000000FFFFFFFF00000000000000000000000000000000
310
0000000000000000000000000000000000000000010000004D00000000000000
310
01004F006C006500310030004E00610074006900760065000000000000000000
310
0000000000000000000000000000000000000000000000000000000000000000
310
1A000200FFFFFFFFFFFFFFFFFFFFFFFF00000000000000000000000000000000
310
0000000000000000000000000000000000000000040000002426000000000000
310
FEFFFFFF02000000FEFFFFFFFFFFFFFFFFFFFFFFFFFFFFFFFFFFFFFFFFFFFFFF
310
FFFFFFFFFFFFFFFFFFFFFFFFFFFFFFFFFFFFFFFFFFFFFFFFFFFFFFFFFFFFFFFF
310
FFFFFFFFFFFFFFFFFFFFFFFFFFFFFFFFFFFFFFFFFFFFFFFFFFFFFFFFFFFFFFFF
310
FFFFFFFFFFFFFFFFFFFFFFFFFFFFFFFFFFFFFFFFFFFFFFFFFFFFFFFFFFFFFFFF
310
FFFFFFFFFFFFFFFFFFFFFFFFFFFFFFFFFFFFFFFFFFFFFFFFFFFFFFFFFFFFFFFF
310
FFFFFFFFFFFFFFFFFFFFFFFFFFFFFFFFFFFFFFFFFFFFFFFFFFFFFFFFFFFFFFFF
310
FFFFFFFFFFFFFFFFFFFFFFFFFFFFFFFFFFFFFFFFFFFFFFFFFFFFFFFFFFFFFFFF
310
FFFFFFFFFFFFFFFFFFFFFFFFFFFFFFFFFFFFFFFFFFFFFFFFFFFFFFFFFFFFFFFF
310
FFFFFFFFFFFFFFFFFFFFFFFFFFFFFFFFFFFFFFFFFFFFFFFFFFFFFFFFFFFFFFFF
310
FFFFFFFFFFFFFFFFFFFFFFFFFFFFFFFFFFFFFFFFFFFFFFFFFFFFFFFFFFFFFFFF
310
FFFFFFFFFFFFFFFFFFFFFFFFFFFFFFFFFFFFFFFFFFFFFFFFFFFFFFFFFFFFFFFF
310
FFFFFFFFFFFFFFFFFFFFFFFFFFFFFFFFFFFFFFFFFFFFFFFFFFFFFFFFFFFFFFFF
310
FFFFFFFFFFFFFFFFFFFFFFFFFFFFFFFFFFFFFFFFFFFFFFFFFFFFFFFFFFFFFFFF
310
FFFFFFFFFFFFFFFFFFFFFFFFFFFFFFFFFFFFFFFFFFFFFFFFFFFFFFFFFFFFFFFF
310
FFFFFFFFFFFFFFFFFFFFFFFFFFFFFFFFFFFFFFFFFFFFFFFFFFFFFFFFFFFFFFFF
310
FFFFFFFFFFFFFFFFFFFFFFFFFFFFFFFFFFFFFFFFFFFFFFFFFFFFFFFFFFFFFFFF
310
0100000200000000000000000000000000000000000000000000000000000000
310
0000000000000000000000000000000000000000000000000000000000000000
310
0100FEFF030A0000FFFFFFFF0A00030000000000C00000000000004607000000
310
5042727573680007000000504272757368000700000050427275736800F439B2
310
7100000000000000000000000000000000000000000000000000000000000000
310
0000000000000000000000000000000000000000000000000000000000000000
310
0000000000000000000000000000000000000000000000000000000000000000
310
0000000000000000000000000000000000000000000000000000000000000000
310
0000000000000000000000000000000000000000000000000000000000000000
310
0000000000000000000000000000000000000000000000000000000000000000
310
0000000000000000000000000000000000000000000000000000000000000000
310
0000000000000000000000000000000000000000000000000000000000000000
310
0000000000000000000000000000000000000000000000000000000000000000
310
0000000000000000000000000000000000000000000000000000000000000000
310
0000000000000000000000000000000000000000000000000000000000000000
310
0000000000000000000000000000000000000000000000000000000000000000
310
20260000424D0E260000000000003E00000028000000B40200006E0000000100
310
01000000000000000000130B0000130B00000200000002000000000000FFFFFF
310
FFFFFFFFFFFFFFFFFFFFFFFFFFFFFFFFFFFFFFFFFFFFFFFFFFFFFFFFFFFFFFFF
310
FFFFFFFFFFFFFFFFFFFFFFFFFFFFFFFFFFFFFFFFFFFFFFFFFFFFFFFFFFFFFFFF
310
FFFFFFFFFFFFFFFFFFFFFFFFFFFFFFFFFFFFFFFFFFFFFFFFF000FFFFFFFFFFFF
310
FFFFFFFFFFFFFFFFFFFFFFFFFFFFFFFFFFFFFFFFFFFFFFFFFFFFFFFFFFFFFFFF
310
FFFFFFFFFFFFFFFFFFFFFFFFFFFFFFFFFFFFFFFFFFFFFFFFFFFFFFFFFFFFFFFF
310
FFFFFFFFFFFFFFFFFFFFFFFFFFFFFFFFF000FFFFFFFFFFFFFFFFFFFFFFFFFFFF
310
FFFFFFFFFFFFFFFFFFFFFFFFFFFFFFFFFFFFFFFFFFFFFFFFFFFFFFFFFFFFFFFF
310
FFFFFFFFFFFFFFFFFFFFFFFFFFFFFFFFFFFFFFFFFFFFFFFFFFFFFFFFFFFFFFFF
310
FFFFFFFFFFFFFFFFF000FFFFFFFFFFFFFFFFFFFFFFFFFFFFFFFFFFFFFFFFFFFF
310
FFFFFFFFFFFFFFFFFFFFFFFFFFFFFFFFFFFFFFFFFFFFFFFFFFFFFFFFFFFFFFFF
310
FFFFFFFFFFFFFFFFFFFFFFFFFFFFFFFFFFFFFFFFFFFFFFFFFFFFFFFFFFFFFFFF
310
F000FFFFFFFFFFFFFFFFFFFFFFFFFFFFFFFFFFFFFFFFFFFFFFFFFFFFFFFFFFFF
310
FFFFFFFFFFFFFFFFFFFFFFFFFFFFFFFFFFFFFFFFFFFFFFFFFFFFFFFFFFFFFFFF
310
FFFFFFFFFFFFFFFFFFFFFFFFFFFFFFFFFFFFFFFFFFFFFFFFF000FFFFFFFFFFFF
310
FFFFFFFFFFFFFFFFFFFFFFFFFFFFFFFFFFFFFFFFFFFFFFFFFFFFFFFFFFFFFFFF
310
FFFFFFFFFFFFFFFFFFFFFFFFFFFFFFFFFFFFFFFFFFFFFFFFFFFFFFFFFFFFFFFF
310
FFFFFFFFFFFFFFFFFFFFFFFFFFFFFFFFF000FFFFFFFFFFFFFFFFFFFFFFFFFFFF
310
FFFFFFFFFFFFFFFFFFFFFFFFFFFFFFFFFFFFFFFFFFFFFFFFFFFFFFFFFFFFFFFF
310
FFFFFFFFFFFFFFFFFFFFFFFFFFFFFFFFFFFFFFFFFFFFFFFFFFFFFFFFFFFFFFFF
310
FFFFFFFFFFFFFFFFF000FFFFFFFFFFFFFFFFFFFFFFFFFFFFFFFFFFFFFFFFFFFF
310
FFFFFFFFFFFFFFFFFFFFFFFFFFFFFFFFFFFFFFFFFFFFFFFFFFFFFFFFFFFFFFFF
310
FFFFFFFFFFFFFFFFFFFFFFFFFFFFFFFFFFFFFFFFFFFFFFFFFFFFFFFFFFFFFFFF
310
F000FFFFFFFFFFFFFFFFFFFFFFFFFFFFFFFFFFFFFFFFFFFFFFFFFFFFFFFFFFFF
310
FFFFFFFFFFFFFFFFFFFFFFFFFFFFFFFFFFFFFFFFFFFFFFFFFFFFFFFFFFFFFFFF
310
FFFFFFFFFFFFFFFFFFFFFFFFFFFFFFFFFFFFFFFFFFFFFFFFF000FFFFFFFFFFFF
310
FFFFFFFFFFFFFFFFFFFFFFFFFFFFFFFFFFFFFFFFFFFFFFFFFFFFFFFFFFFFFFFF
310
FFFFFFFFFFFFFFFFFFFFFFFFFFFFFFFFFFFFFFFFFFFFFFFFFFFFFFFFFFFFFFFF
310
FFFFFFFFFFFFFFFFFFFFFFFFFFFFFFFFF000FFFFFFFFFFFFFFFFFFFFFFFFFFFF
310
FFFFFFFFFFFFFFFFFFFFFFFFFFFFFFFFFFFFFFFFFFFFFFFFFFFFFFFFFFFFFFFF
310
FFFFFFFFFFFFFFFFFFFFFFFFFFFFFFFFFFFFFFFFFFFFFFFFFFFFFFFFFFFFFFFF
310
FFFFFFFFFFFFFFFFF000FFFFFFFFFFFFFFFFFFFFFFFFFFFFFFFFFFFFFFFFFFFF
310
FFFFFFFFFFFFFFFFFFFFFFFFFFFFFFFFFFFFFFFFFFFFFFFFFFFFFFFFFFFFFFFF
310
FFFFFFFFFFFFFFFFFFFFFFFFFFFFFFFFFFFFFFFFFFFFFFFFFFFFFFFFFFFFFFFF
310
F000FFFFFFFFFFFFFFFFFFFFFFFFFFFFFFFFFFFFFFFFFFFFFFFFFFFFFFFFFFFF
310
FFFFFFFFFFFFFFFFFFFFFFFFFFFFFFFFFFFFFFFFFFFFFFFFFFFFFFFFFFFFFFFF
310
FFFFFFFFFFFFFFFFFFFFFFFFFFFFFFFFFFFFFFFFFFFFFFFFF000FFFFFFFFFFFF
310
FFFFFFFFFFFFFFFFFFFFFFFFFFFFFFFFFFFFFFFFFFFFFFFFFFFFFFFFFFFFFFFF
310
FFFFFFFFFFFFFFFFFFFFFFFFFFFFFFFFFFFFFFFFFFFFFFFFFFFFFFFFFFFFFFFF
310
FFFFFFFFFFFFFFFFFFFFFFFFFFFFFFFFF000FFFFFFFFFFFFFFFFFFFFFFFFFFFF
310
FFFFFFFFFFFFFFFFFFFFFFFFFFFFFFFFFFFFFFFFFFFFFFFFFFFFFFFFFFFFFFFF
310
FFFFFFFFFFFFFFFFFFFFFFFFFFFFFFFFFFFFFFFFFFFFFFFFFFFFFFFFFFFFFFFF
310
FFFFFFFFFFFFFFFFF000FFFFFFFFFFFFFFFFFFFFFFFFFFFFFFFFFFFFFFFFFFFF
310
FFFFFFFFFFFFFFFFFFFFFFFFFFFFFFFFFFFFFFFFFFFFFFFFFFFFFFFFFFFFFFFF
310
FFFFFFFFFFFFFFFFFFFFFFFFFFFFFFFFFFFFFFFFFFFFFFFFFFFFFFFFFFFFFFFF
310
F000FFFFFFFFFFFFFFFFFFFFFFFFFFFFFFFFFFFFFFFFFFFFFFFFFFFFFFFFFFFF
310
FFFFFFFFFFFFFFFFFFFFFFFFFFFFFFFFFFFFFFFFFFFFFFFFFFFFFFFFFFFFFFFF
310
FFFFFFFFFFFFFFFFFFFFFFFFFFFFFFFFFFFFFFFFFFFFFFFFF000FFFFFFFFFFFF
310
FFFFFFFFFFFFFFFFFFFFFFFFFFFFFFFFFFFFFFFFFFFFFFFFFFFFFFFFFFFFFFFF
310
FFFFFFFFFFFFFFFFFFFFFFFFFFFFFFFFFFFFFFFFFFFFFFFFFFFFFFFFFFFFFFFF
310
FFFFFFFFFFFFFFFFFFFFFFFFFFFFFFFFF000FFFFFFFFFFFFFFFFFFFFFFFFFFFF
310
FFFFFFFFFFFFFFFFFFFFFFFFFFFFFFFFFFFFFFFFFFFFFFFFFFFFFFFFFFFFFFFF
310
FFFFFFFFFFFFFFFFFFFFFFFFFFFFFFFFFFFFFFFFFFFFFFFFFFFFFFFFFFFFFFFF
310
FFFFFFFFFFFFFFFFF000FFFFF80003FFFFFFFFFFFFFFFFFFFFFFFFFFFFFFFFFF
310
FFFFF00007FFFFFFFFFF00007FFFFFF800000000000000007FFFFFFFFFFFFFFF
310
FFFFFFFC001FFFFFFFFFFFFFFC001FFFFFFFFFFFFFFFFFFFFFFFFFFE0007FFFF
310
F000FFFF8000007FFFFFFFF8000FFFFFC0007FFFFF80007FFFFF0000007FFFFF
310
FFF8000007FFFFF800000000000000007FFFFFF0001FFFFFFFFFFFC00001FFFF
310
FFFFFFFFC00001FFFFFFFF000000000003FFFFE000007FFFF000FFFE0000000F
310
FFFFFFF0000FFFFF80007FFFFF80007FFFFC0000001FFFFFFFC0000001FFFFF8
310
00000000000000007FFFFFF0001FFFFFFFFFFE0000003FFFFFFFFFFE0000003F
310
FFFFFF000000000003FFFF0000000FFFF000FFF800000003FFFFFFF00007FFFF
310
80007FFFFF80007FFFF000000007FFFFFF000000003FFFF80000000000000000
310
7FFFFFF0001FFFFFFFFFF80000000FFFFFFFFFF80000000FFFFFFF0000000000
310
03FFFC00000003FFF000FFE000000000FFFFFFF00007FFFF80003FFFFF80007F
310
FFC000000001FFFFFC000000001FFFF800000000000000007FFFFFF0001FFFFF
310
FFFFE000000003FFFFFFFFE000000003FFFFFF000000000003FFF000000000FF
310
F000FF80000000007FFFFFF00007FFFF80003FFFFF80007FFF8000000000FFFF
310
F80000000007FFF800000000000000007FFFFFF0001FFFFFFFFFC000000001FF
310
FFFFFFC000000001FFFFFF000000000003FFC0000000007FF000FF0000000000
310
3FFFFFE00007FFFF00003FFFFF80007FFE00000000003FFFF00000000003FFF8
310
00000000000000007FFFFFF0001FFFFFFFFF8000000000FFFFFFFF8000000000
310
FFFFFF000000000003FF80000000003FF000FE00000000001FFFFFE00003FFFF
310
00003FFFFF80007FFC00000000001FFFE00000000001FFF8000001FFFE000000
310
7FFFFFF0001FFFFFFFFE00000000003FFFFFFE00000000003FFFFF0000000000
310
03FF00000000001FF000FC00000000000FFFFFE00003FFFF00001FFFFF80007F
310
F800000000001FFFC00000000000FFF8000001FFFE0000007FFFFFF0001FFFFF
310
FFFC00000000001FFFFFFC00000000001FFFFF000000000003FE00000000000F
310
F000F8000000000007FFFFE00003FFFF00001FFFFF80007FF800000000000FFF
310
800000000000FFF8000001FFFE0000007FFFFFF0001FFFFFFFF800000000000F
310
FFFFF800000000000FFFFF000000000003FC000000000007F000F80000000000
310
03FFFFC00003FFFE00001FFFFF80007FF0000000000007FF0000000000007FF8
310
000001FFFE0000007FFFFFF0001FFFFFFFF0000000000007FFFFF00000000000
310
07FFFF000000000003F8000000000003F000F0000000000003FFFFC00001FFFE
310
00001FFFFF80007FE0000000000007FE0000000000003FF8000001FFFE000000
310
7FFFFFF0001FFFFFFFF0000000000007FFFFF0000000000007FFFF0000000000
310
03F800001F800003F000E00001FFF00001FFFFC00001FFFE00000FFFFF80007F
310
E00001FFE00003FE00001FFF00003FF8000001FFFE0000007FFFFFF0001FFFFF
310
FFE000003E000003FFFFE000003E000003FFFF000000000003F00001FFF80001
310
F000E00007FFFC0001FFFFC00001FFFE00000FFFFF80007FC0000FFFFC0003FC
310
0000FFFFC0001FF8000001FFFE0000007FFFFFF0001FFFFFFFC00003FFE00001
310
FFFFC00003FFE00001FFFF0001FFFFFFFFF00007FFFE0001F000E0000FFFFF00
310
00FFFF800001FFFC00000FFFFF80007FC0001FFFFE0001FC0001FFFFE0001FF8
310
000001FFFE0000007FFFFFF0001FFFFFFF80000FFFF80000FFFF80000FFFF800
310
00FFFF0003FFFFFFFFE0000FFFFF8000F000C0003FFFFF8000FFFF800000FFFC
310
000007FFFF80007F80003FFFFF0001FC0003FFFFF0001FF8000001FFFE000000
310
7FFFFFF0001FFFFFFF80003FFFFE0000FFFF80003FFFFE0000FFFF0003FFFFFF
310
FFE0003FFFFF8000F000C0003FFFFF8000FFFF800000FFFC000007FFFF80007F
310
80007FFFFF8001F80007FFFFF8000FF8000001FFFE0000007FFFFFF0001FFFFF
310
FF00007FFFFF00007FFF00007FFFFF00007FFF0003FFFFFFFFE0003FFFFFC000
310
F000C0007FFFFFC000FFFF000000FFFC000007FFFF80007F8000FFFFFF8000F8
310
000FFFFFF8000FF8000001FFFE0000007FFFFFF0001FFFFFFF0000FFFFFF8000
310
7FFF0000FFFFFF80007FFF0003FFFFFFFFC0007FFFFFC00070008000FFFFFFC0
310
00FFFF000000FFF8000007FFFF80007F8000FFFFFF8000F8000FFFFFF8000FF8
310
000001FFFE0000007FFFFFF0001FFFFFFE0001FFFFFFC0003FFE0001FFFFFFC0
310
003FFF0003FFFFFFFFC0007FFFFFE00070008000FFFFFFC0007FFF0000007FF8
310
000003FFFF80007F0001FFFFFF8000F8000FFFFFF8000FF8000001FFFE000000
310
7FFFFFF0001FFFFFFE0001FFFFFFC0003FFE0001FFFFFFC0003FFF0003FFFFFF
310
FFC000FFFFFFE00070008000FFFFFFC0007FFF0000007FF8000003FFFF80007F
310
0001FFFFFF8000F8001FFFFFF8000FF8000001FFFE0000007FFFFFF0001FFFFF
310
FE0003FFFFFFE0003FFE0003FFFFFFE0003FFF0003FFFFFFFFC000FFFFFFE000
310
70008000FFFFFFC0007FFE0000007FF8000003FFFF80007F0001FFFFFF8000F0
310
001FFFFFF8000FF8000001FFFE0000007FFFFFF0001FFFFFFC0003FFFFFFE000
310
1FFC0003FFFFFFE0001FFF0003FFFFFFFFC000FFFFFFC00070008000FFFFFF80
310
007FFE0000007FF0000003FFFF80007F0001FFFFFF0000F0001FFFFFF8000FF8
310
000001FFFE0000007FFFFFF0001FFFFFFC0007FFFFFFF0001FFC0007FFFFFFF0
310
001FFF0003FFFFFFFFC000FFFFFFC00070008001FFFFFF0000FFFE0000003FF0
310
000001FFFF80007F0001FFFFFF0000F8001FFFFFF0000FF8000001FFFE000000
310
7FFFFFF0001FFFFFFC0007FFFFFFF0001FFC0007FFFFFFF0001FFF0003FFFFFF
310
FFC001FFFFFF80007000FFFFFFFFFE0000FFFE0008003FF0008001FFFF80007F
310
FFFFFFFFFC0000FFFFFFFFFFE0000FF8000001FFFE0000007FFFFFF0001FFFFF
310
F8000FFFFFFFF8000FF8000FFFFFFFF8000FFF0003FFFFFFFFFFFFFFFFFF0000
310
7000FFFFFFFFFC0000FFFC0008003FF0008001FFFF80007FFFFFFFFFF80001FF
310
FFFFFFFF80000FF8000001FFFE0000007FFFFFF0001FFFFFF8000FFFFFFFF800
310
0FF8000FFFFFFFF8000FFF0003FFFFFFFFFFFFFFFFFE0000F000FFFFFFFFE000
310
00FFFC000C003FE000C001FFFF80007FFFFFFFFFC00001FFFFFFFFFE00001FF8
310
000001FFFE0000007FFFFFF0001FFFFFF8000FFFFFFFF8000FF8000FFFFFFFF8
310
000FFF0003FFFFFFFFFFFFFFFFF00000F000FFFFFFFE000001FFFC000C001FE0
310
00C000FFFF80007FFFFFFFFE000001FFFFFFFFE000001FF80FFFFFFFFFFFFFC0
310
7FFFFFF0001FFFFFF8000FFFFFFFF8000FF8000FFFFFFFF8000FFF0003FFFFFF
310
FFFFFFFFFF800000F000FFFFFFC0000001FFFC001C001FE001C000FFFF80007F
310
FFFFFF80000003FFFFFFF80000001FF80FFFFFFFFFFFFFC07FFFFFF0001FFFFF
310
F8001FFFFFFFFC000FF8001FFFFFFFFC000FFF0003FFFFFFFFFFFFFFF0000001
310
F000FFFFF800000001FFF8001C001FE001C000FFFF80007FFFFFF800000003FF
310
FFFF800000003FF80FFFFFFFFFFFFFC07FFFFFF0001FFFFFF8001FFFFFFFFC00
310
0FF8001FFFFFFFFC000FFF0003FFFFFFFFFFFFFE00000001F000FFFFC0000000
310
03FFF8001E001FC001E000FFFF80007FFFFF8000000007FFFFFC000000003FF8
310
0FFFFFFFFFFFFFC07FFFFFF0001FFFFFF8001FFFFFFFFC000FF8001FFFFFFFFC
310
000FFF0003FFFFFFFFFFFFE000000003F000FFFE0000000007FFF8001E000FC0
310
01E0007FFF80007FFFFE0000000007FFFFE0000000007FF80FFFFFFFFFFFFFC0
310
7FFFFFF0001FFFFFF0001FFFFFFFFC0007F0001FFFFFFFFC0007FF0003FFFFFF
310
FFFFFF0000000003F000FFF80000000007FFF8001E000FC003E0007FFF80007F
310
FFF0000000000FFFFF8000000000FFF80FFFFFFFFFFFFFC07FFFFFF0001FFFFF
310
F0001FFFFFFFFC0007F0001FFFFFFFFC0007FF0003FFFFFFFFFFFC0000000007
310
F000FFE0000000000FFFF0003E000FC003E0007FFF80007FFFC0000000001FFF
310
FE0000000001FFF80FFFFFFFFFFFFFC07FFFFFF0001FFFFFF0001FFFFFFFFC00
310
07F0001FFFFFFFFC0007FF0003FFFFFFFFFFF0000000000FF000FFC000000000
310
1FFFF0003F000F8003F0003FFF80007FFF80000000003FFFF80000000003FFF8
310
0FFFFFFFFFFFFFC07FFFFFF0001FFFFFF0001FFFFFFFFC0007F0001FFFFFFFFC
310
0007FF0003FFFFFFFFFFE0000000001FF000FF00000000007FFFF0003F000780
310
03F0003FFF80007FFF00000000007FFFF00000000007FFF80FFFFFFFFFFFFFC0
310
7FFFFFF0001FFFFFF0001FFFFFFFFC0007F0001FFFFFFFFC0007FF0003FFFFFF
310
FFFF80000000007FF000FE0000000000FFFFE0003F00078007F0003FFF80007F
310
FE0000000001FFFFE0000000001FFFF80FFFFFFFFFFFFFC07FFFFFF0001FFFFF
310
F0001FFFFFFFFC0007F0001FFFFFFFFC0007FF0003FFFFFFFFFF0000000000FF
310
F000FC0000000003FFFFE0007F00078007F0003FFF80007FFC0000000007FFFF
310
C0000000007FFFF80FFFFFFFFFFFFFC07FFFFFF0001FFFFFF8001FFFFFFFFC00
310
0FF8001FFFFFFFFC000FFF0003FFFFFFFFFE0000000003FFF000FC000000000F
310
FFFFE0007F80070007F8001FFF80007FF8000000001FFFFF8000000001FFFFF8
310
0FFFFFFFFFFFFFC07FFFFFF0001FFFFFF8001FFFFFFFFC000FF8001FFFFFFFFC
310
000FFF0003FFFFFFFFFC000000000FFFF000F8000000007FFFFFE0007F800700
310
07F8001FFF80007FF000000000FFFFFF800000000FFFFFF80FFFFFFFFFFFFFC0
310
7FFFFFF0001FFFFFF8000FFFFFFFF8000FF8000FFFFFFFF8000FFF0003FFFFFF
310
FFFC000000007FFFF000F800000007FFFFFFC0007F8003000FF8001FFF80007F
310
F000000007FFFFFF000000007FFFFFF80FFFFFFFFFFFFFC07FFFFFF0001FFFFF
310
F8000FFFFFFFF8000FF8000FFFFFFFF8000FFF0003FFFFFFFFF80000000FFFFF
310
F000F0000000FFFFFFFFC000FF8003000FF8001FFF80007FE0000000FFFFFFFF
310
0000000FFFFFFFF8000001FFFE0000007FFFFFF0001FFFFFF8000FFFFFFFF800
310
0FF8000FFFFFFFF8000FFF0003FFFFFFFFF8000000FFFFFFF000F000000FFFFF
310
FFFFC000FFC002000FF8000FFF80007FE000001FFFFFFFFE000001FFFFFFFFF8
310
000001FFFE0000007FFFFFF0001FFFFFF8000FFFFFFFF8000FF8000FFFFFFFF8
310
000FFF0003FFFFFFFFF000001FFFFFFFF000E00000FFFFFFFFFFC000FFC00200
310
0FFC000FFF80007FE00001FFFFFFFFFE00001FFFFFFFFFF8000001FFFE000000
310
7FFFFFF0001FFFFFFC000FFFFFFFF8001FFC000FFFFFFFF8001FFF0003FFFFFF
310
FFF00001FFFFFFFFF000E00007FFFFFFFFFF8000FFC000001FFC000FFF80007F
310
C0000FFFFFFFFFFE0000FFFFFFFFFFF8000001FFFE0000007FFFFFF0001FFFFF
310
FC0007FFFFFFF0001FFC0007FFFFFFF0001FFF0003FFFFFFFFF00007FFFFFFFF
310
F000E0001FFFFFFFFFFF8000FFC000001FFC000FFF80007FC0003FFFFFFFFFFE
310
0001FFFFFFFFFFF8000001FFFE0000007FFFFFF0001FFFFFFC0007FFFFFFF000
310
1FFC0007FFFFFFF0001FFF0003FFFFFFFFF0001FFFFFFFFFF000E0003FFFFF00
310
03FF8001FFE000001FFC0007FF80007FC0007FFFFF0007FC0003FFFFF0003FF8
310
000001FFFE0000007FFFFFF0001FFFFFFC0003FFFFFFE0001FFC0003FFFFFFE0
310
001FFF0003FFFFFFFFF0003FFFFFFFFFF000E0003FFFFF0001FF8001FFE00000
310
1FFE0007FF80007FC0007FFFFE0003FC0007FFFFE0003FF8000001FFFE000000
310
7FFFFFF0001FFFFFFE0003FFFFFFE0003FFE0003FFFFFFE0003FFF0003FFFFFF
310
FFF0003FFFFF8001F000E0003FFFFF0001FF0001FFE000001FFE0007FF80007F
310
C0007FFFFE0003FC0007FFFFE0003FF8000001FFFE0000007FFFFFF0001FFFFF
310
FE0001FFFFFFC0003FFE0001FFFFFFC0003FFF0003FFFFFFFFF0003FFFFF0001
310
F000E0003FFFFF0003FF0001FFE000003FFE0007FF80007FC0007FFFFE0003FC
310
0007FFFFE0003FF8000001FFFE0000007FFFFFF0001FFFFFFF0001FFFFFFC000
310
7FFF0001FFFFFFC0007FFF0003FFFFFFFFF0003FFFFF0001F000E0003FFFFE00
310
03FF0003FFF000003FFE0003FF80007FC0007FFFFC0003FE0007FFFFE0003FF8
310
000001FFFE0000007FFFFFF0001FFFFFFF0000FFFFFF80007FFF0000FFFFFF80
310
007FFF0003FFFFFFFFF0003FFFFF0001F000E0003FFFFE0003FF0003FFF00000
310
3FFF0003FF80007FC0007FFFFC0007FE0007FFFFC0003FF8000001FFFE000000
310
7FFFFFF0001FFFFFFF80007FFFFF0000FFFF80007FFFFF0000FFFF0003FFFFFF
310
FFF0003FFFFF0003F000E0003FFFFC0003FE0003FFF000003FFF0003FF80007F
310
E0003FFFF80007FE0003FFFFC0007FF8000001FFFE0000007FFFFFF0001FFFFF
310
FF80003FFFFE0000FFFF80003FFFFE0000FFFF0003FFFFFFFFF0001FFFFE0003
310
F000F0001FFFF80003FE0003FFF000007FFF0001FF80007FE0003FFFF00007FE
310
0001FFFF80007FF8000001FFFE0000007FFFFFF0001FFFFFFFC0000FFFF80001
310
FFFFC0000FFFF80001FFFF0003FFFFFFFFF0001FFFFC0003F000F0000FFFF000
310
07FE0007FFF800007FFF0001FF80007FE0001FFFE00007FF0000FFFE00007FF8
310
000001FFFE0000007FFFFFF0001FFFFFFFC00003FFE00001FFFFC00003FFE000
310
01FFFF0003FFFFFFFFF8000FFFF80003F000F00003FFC00007FC0007FFF80000
310
7FFF8001FF80007FF00007FF80000FFF00007FF80000FFF8000001FFFE000000
310
7F80000000000001FFE000003E000003FFFFE000003E000003FFFF0003FFFFFF
310
FFF80003FFE00007F000F800000000000FFC0007FFF800007FFF8001FF80007F
310
F000000000000FFF000000000000FFF8000001FFFE0000007F80000000000001
310
FFF0000000000007FFFFF0000000000007FFFF0003FFFFFFFFFC00007E000007
310
F000F800000000000FFC0007FFF80000FFFF8000FF80007FF800000000001FFF
310
800000000001FFF8000001FFFE0000007F80000000000001FFF800000000000F
310
FFFFF800000000000FFFFF0003FFFFFFFFFC00000000000FF000FC0000000000
310
1FFC0007FFFC0000FFFF8000FF80007FF800000000003FFFC00000000001FFF8
310
000001FFFE0000007F80000000000001FFF800000000000FFFFFF80000000000
310
0FFFFF0003FFFFFFFFFE00000000001FF000FE00000000003FF8000FFFFC0000
310
FFFF8000FF80007FFC00000000003FFFC00000000003FFF8000001FFFE000000
310
7F80000000000001FFFC00000000001FFFFFFC00000000001FFFFF0003FFFFFF
310
FFFF00000000001FF000FF00000000003FF8000FFFFC0000FFFFC000FF80007F
310
FE00000000007FFFE00000000007FFF8000001FFFE0000007F80000000000001
310
FFFE00000000003FFFFFFE00000000003FFFFF0003FFFFFFFFFF80000000003F
310
F000FF80000000007FF8000FFFFC0001FFFFC0007F80007FFF0000000000FFFF
310
F0000000000FFFF800000000000000007F80000000000001FFFF8000000000FF
310
FFFFFF8000000000FFFFFF0003FFFFFFFFFFC0000000007FF000FFC000000000
310
FFF8000FFFFE0001FFFFC0007F80007FFF8000000001FFFFF8000000001FFFF8
310
00000000000000007F80000000000001FFFFC000000001FFFFFFFFC000000001
310
FFFFFF0003FFFFFFFFFFE000000000FFF000FFE000000003FFF0001FFFFE0001
310
FFFFC0007F80007FFFC000000007FFFFFE000000003FFFF80000000000000000
310
7F80000000000001FFFFE000000003FFFFFFFFE000000003FFFFFF0003FFFFFF
310
FFFFF000000003FFF000FFF80000000FFFF0001FFFFE0001FFFFE0007F80007F
310
FFF00000000FFFFFFF00000000FFFFF800000000000000007F80000000000001
310
FFFFF80000000FFFFFFFFFF80000000FFFFFFF0003FFFFFFFFFFFC0000000FFF
310
F000FFFE0000003FFFF0001FFFFE0003FFFFE0003F80007FFFFC0000003FFFFF
310
FFC0000003FFFFF800000000000000007F80000000000001FFFFFE0000003FFF
310
FFFFFFFE0000003FFFFFFF0003FFFFFFFFFFFF0000003FFFF000FFFF800000FF
310
FFF0001FFFFF0003FFFFE0003F80007FFFFF000001FFFFFFFFF800001FFFFFF8
310
00000000000000007F80000000000001FFFFFFC00001FFFFFFFFFFFFC00001FF
310
FFFFFF0003FFFFFFFFFFFFC00000FFFFF000FFFFF8000FFFFFFFFFFFFFFFFFFF
310
FFFFFFFFFFFFFFFFFFFFF0001FFFFFFFFFFF0000FFFFFFF80000000000000000
310
7FFFFFFFFFFFFFFFFFFFFFFC001FFFFFFFFFFFFFFC001FFFFFFFFFFFFFFFFFFF
310
FFFFFFFC001FFFFFF000FFFFFFFFFFFFFFFFFFFFFFFFFFFFFFFFFFFFFFFFFFFF
310
FFFFFFFFFFFFFFFFFFFFFFFFFFFFFFFFFFFFFFFFFFFFFFFFFFFFFFFFFFFFFFFF
310
FFFFFFFFFFFFFFFFFFFFFFFFFFFFFFFFFFFFFFFFFFFFFFFFFFFFFFFFFFFFFFFF
310
F000FFFFFFFFFFFFFFFFFFFFFFFFFFFFFFFFFFFFFFFFFFFFFFFFFFFFFFFFFFFF
310
FFFFFFFFFFFFFFFFFFFFFFFFFFFFFFFFFFFFFFFFFFFFFFFFFFFFFFFFFFFFFFFF
310
FFFFFFFFFFFFFFFFFFFFFFFFFFFFFFFFFFFFFFFFFFFFFFFFF000FFFFFFFFFFFF
310
FFFFFFFFFFFFFFFFFFFFFFFFFFFFFFFFFFFFFFFFFFFFFFFFFFFFFFFFFFFFFFFF
310
FFFFFFFFFFFFFFFFFFFFFFFFFFFFFFFFFFFFFFFFFFFFFFFFFFFFFFFFFFFFFFFF
310
FFFFFFFFFFFFFFFFFFFFFFFFFFFFFFFFF000FFFFFFFFFFFFFFFFFFFFFFFFFFFF
310
FFFFFFFFFFFFFFFFFFFFFFFFFFFFFFFFFFFFFFFFFFFFFFFFFFFFFFFFFFFFFFFF
310
FFFFFFFFFFFFFFFFFFFFFFFFFFFFFFFFFFFFFFFFFFFFFFFFFFFFFFFFFFFFFFFF
310
FFFFFFFFFFFFFFFFF000FFFFFFFFFFFFFFFFFFFFFFFFFFFFFFFFFFFFFFFFFFFF
310
FFFFFFFFFFFFFFFFFFFFFFFFFFFFFFFFFFFFFFFFFFFFFFFFFFFFFFFFFFFFFFFF
310
FFFFFFFFFFFFFFFFFFFFFFFFFFFFFFFFFFFFFFFFFFFFFFFFFFFFFFFFFFFFFFFF
310
F000FFFFFFFFFFFFFFFFFFFFFFFFFFFFFFFFFFFFFFFFFFFFFFFFFFFFFFFFFFFF
310
FFFFFFFFFFFFFFFFFFFFFFFFFFFFFFFFFFFFFFFFFFFFFFFFFFFFFFFFFFFFFFFF
310
FFFFFFFFFFFFFFFFFFFFFFFFFFFFFFFFFFFFFFFFFFFFFFFFF000FFFFFFFFFFFF
310
FFFFFFFFFFFFFFFFFFFFFFFFFFFFFFFFFFFFFFFFFFFFFFFFFFFFFFFFFFFFFFFF
310
FFFFFFFFFFFFFFFFFFFFFFFFFFFFFFFFFFFFFFFFFFFFFFFFFFFFFFFFFFFFFFFF
310
FFFFFFFFFFFFFFFFFFFFFFFFFFFFFFFFF000FFFFFFFFFFFFFFFFFFFFFFFFFFFF
310
FFFFFFFFFFFFFFFFFFFFFFFFFFFFFFFFFFFFFFFFFFFFFFFFFFFFFFFFFFFFFFFF
310
FFFFFFFFFFFFFFFFFFFFFFFFFFFFFFFFFFFFFFFFFFFFFFFFFFFFFFFFFFFFFFFF
310
FFFFFFFFFFFFFFFFF000FFFFFFFFFFFFFFFFFFFFFFFFFFFFFFFFFFFFFFFFFFFF
310
FFFFFFFFFFFFFFFFFFFFFFFFFFFFFFFFFFFFFFFFFFFFFFFFFFFFFFFFFFFFFFFF
310
FFFFFFFFFFFFFFFFFFFFFFFFFFFFFFFFFFFFFFFFFFFFFFFFFFFFFFFFFFFFFFFF
310
F000FFFFFFFFFFFFFFFFFFFFFFFFFFFFFFFFFFFFFFFFFFFFFFFFFFFFFFFFFFFF
310
FFFFFFFFFFFFFFFFFFFFFFFFFFFFFFFFFFFFFFFFFFFFFFFFFFFFFFFFFFFFFFFF
310
FFFFFFFFFFFFFFFFFFFFFFFFFFFFFFFFFFFFFFFFFFFFFFFFF000FFFFFFFFFFFF
310
FFFFFFFFFFFFFFFFFFFFFFFFFFFFFFFFFFFFFFFFFFFFFFFFFFFFFFFFFFFFFFFF
310
FFFFFFFFFFFFFFFFFFFFFFFFFFFFFFFFFFFFFFFFFFFFFFFFFFFFFFFFFFFFFFFF
310
FFFFFFFFFFFFFFFFFFFFFFFFFFFFFFFFF000FFFFFFFFFFFFFFFFFFFFFFFFFFFF
310
FFFFFFFFFFFFFFFFFFFFFFFFFFFFFFFFFFFFFFFFFFFFFFFFFFFFFFFFFFFFFFFF
310
FFFFFFFFFFFFFFFFFFFFFFFFFFFFFFFFFFFFFFFFFFFFFFFFFFFFFFFFFFFFFFFF
310
FFFFFFFFFFFFFFFFF000FFFFFFFFFFFFFFFFFFFFFFFFFFFFFFFFFFFFFFFFFFFF
310
FFFFFFFFFFFFFFFFFFFFFFFFFFFFFFFFFFFFFFFFFFFFFFFFFFFFFFFFFFFFFFFF
310
FFFFFFFFFFFFFFFFFFFFFFFFFFFFFFFFFFFFFFFFFFFFFFFFFFFFFFFFFFFFFFFF
310
F000FFFFFFFFFFFFFFFFFFFFFFFFFFFFFFFFFFFFFFFFFFFFFFFFFFFFFFFFFFFF
310
FFFFFFFFFFFFFFFFFFFFFFFFFFFFFFFFFFFFFFFFFFFFFFFFFFFFFFFFFFFFFFFF
310
FFFFFFFFFFFFFFFFFFFFFFFFFFFFFFFFFFFFFFFFFFFFFFFFF000FFFFFFFFFFFF
310
FFFFFFFFFFFFFFFFFFFFFFFFFFFFFFFFFFFFFFFFFFFFFFFFFFFFFFFFFFFFFFFF
310
FFFFFFFFFFFFFFFFFFFFFFFFFFFFFFFFFFFFFFFFFFFFFFFFFFFFFFFFFFFFFFFF
310
FFFFFFFFFFFFFFFFFFFFFFFFFFFFFFFFF000FFFFFFFFFFFFFFFFFFFFFFFFFFFF
310
FFFFFFFFFFFFFFFFFFFFFFFFFFFFFFFFFFFFFFFFFFFFFFFFFFFFFFFFFFFFFFFF
310
FFFFFFFFFFFFFFFFFFFFFFFFFFFFFFFFFFFFFFFFFFFFFFFFFFFFFFFFFFFFFFFF
310
FFFFFFFFFFFFFFFFF000FFFFFFFFFFFFFFFFFFFFFFFFFFFFFFFFFFFFFFFFFFFF
310
FFFFFFFFFFFFFFFFFFFFFFFFFFFFFFFFFFFFFFFFFFFFFFFFFFFFFFFFFFFFFFFF
310
FFFFFFFFFFFFFFFFFFFFFFFFFFFFFFFFFFFFFFFFFFFFFFFFFFFFFFFFFFFFFFFF
310
F000FFFFFFFFFFFFFFFFFFFFFFFFFFFFFFFFFFFFFFFFFFFFFFFFFFFFFFFFFFFF
310
FFFFFFFFFFFFFFFFFFFFFFFFFFFFFFFFFFFFFFFFFFFFFFFFFFFFFFFFFFFFFFFF
310
FFFFFFFFFFFFFFFFFFFFFFFFFFFFFFFFFFFFFFFFFFFFFFFFF000FFFFFFFFFFFF
310
FFFFFFFFFFFFFFFFFFFFFFFFFFFFFFFFFFFFFFFFFFFFFFFFFFFFFFFFFFFFFFFF
310
FFFFFFFFFFFFFFFFFFFFFFFFFFFFFFFFFFFFFFFFFFFFFFFFFFFFFFFFFFFFFFFF
310
FFFFFFFFFFFFFFFFFFFFFFFFFFFFFFFFF000FFFFFFFFFFFFFFFFFFFFFFFFFFFF
310
FFFFFFFFFFFFFFFFFFFFFFFFFFFFFFFFFFFFFFFFFFFFFFFFFFFFFFFFFFFFFFFF
310
FFFFFFFFFFFFFFFFFFFFFFFFFFFFFFFFFFFFFFFFFFFFFFFFFFFFFFFFFFFFFFFF
310
FFFFFFFFFFFFFFFFF000FFFFFFFFFFFFFFFFFFFFFFFFFFFFFFFFFFFFFFFFFFFF
310
FFFFFFFFFFFFFFFFFFFFFFFFFFFFFFFFFFFFFFFFFFFFFFFFFFFFFFFFFFFFFFFF
310
FFFFFFFFFFFFFFFFFFFFFFFFFFFFFFFFFFFFFFFFFFFFFFFFFFFFFFFFFFFFFFFF
310
F000FFFFFFFFFFFFFFFFFFFFFFFFFFFFFFFFFFFFFFFFFFFFFFFFFFFFFFFFFFFF
310
FFFFFFFFFFFFFFFFFFFFFFFFFFFFFFFFFFFFFFFFFFFFFFFFFFFFFFFFFFFFFFFF
310
FFFFFFFFFFFFFFFFFFFFFFFFFFFFFFFFFFFFFFFFFFFFFFFFF000FFFFFFFFFFFF
310
FFFFFFFFFFFFFFFFFFFFFFFFFFFFFFFFFFFFFFFFFFFFFFFFFFFFFFFFFFFFFFFF
310
FFFFFFFFFFFFFFFFFFFFFFFFFFFFFFFFFFFFFFFFFFFFFFFFFFFFFFFFFFFFFFFF
310
FFFFFFFFFFFFFFFFFFFFFFFFFFFFFFFFF0000000000000000000000000000000
310
0000000000000000000000000000000000000000000000000000000000000000
310
0000000000000000000000000000000000000000000000000000000000000000
310
0000000000000000000000000000000000000000000000000000000000000000
310
0000000000000000000000000000000000000000000000000000000000000000
310
0000000000000000000000000000000000000000000000000000000000000000
310
0000000000000000000000000000000000000000000000000000000000000000
310
0000000000000000000000000000000000000000000000000000000000000000
310
0000000000000000000000000000000000000000000000000000000000000000
310
0000000000000000000000000000000000000000000000000000000000000000
310
0000000000000000000000000000000000000000000000000000000000000000
310
0000000000000000000000000000000000000000000000000000000000000000
310
0000000000000000000000000000000000000000000000000000000000000000
310
0000000000000000000000000000000000000000000000000000000000000000
310
0000000000000000000000000000000000000000000000000000000000000000
310
0000000000000000000000000000000000000000000000000000000000000000
  1
OLE
  0
ENDSEC
  0
SECTION
  2
OBJECTS
  0
DICTIONARY
  5
C
330
0
100
AcDbDictionary
281
     1
  3
ACAD_GROUP
350
D
  3
ACAD_LAYOUT
350
1A
  3
ACAD_MLINESTYLE
350
17
  3
ACAD_PLOTSETTINGS
350
19
  3
ACAD_PLOTSTYLENAME
350
E
  3
ACAD_SCALELIST
350
47
  0
DICTIONARY
  5
D
102
{ACAD_REACTORS
330
C
102
}
330
C
100
AcDbDictionary
281
     1
  0
DICTIONARY
  5
1A
102
{ACAD_REACTORS
330
C
102
}
330
C
100
AcDbDictionary
281
     1
  3
Layout1
350
1E
  3
Layout2
350
26
  3
Model
350
22
  0
DICTIONARY
  5
17
102
{ACAD_REACTORS
330
C
102
}
330
C
100
AcDbDictionary
281
     1
  3
Standard
350
18
  0
DICTIONARY
  5
19
102
{ACAD_REACTORS
330
C
102
}
330
C
100
AcDbDictionary
281
     1
  0
ACDBDICTIONARYWDFLT
  5
E
102
{ACAD_REACTORS
330
C
102
}
330
C
100
AcDbDictionary
281
     1
  3
Normal
350
F
100
AcDbDictionaryWithDefault
340
F
  0
DICTIONARY
  5
47
102
{ACAD_REACTORS
330
C
102
}
330
C
100
AcDbDictionary
281
     1
  3
A0
350
48
  3
A1
350
49
  3
A2
350
4A
  3
A3
350
4B
  3
A4
350
4C
  3
A5
350
4D
  3
A6
350
4E
  3
A7
350
4F
  3
A8
350
50
  3
A9
350
51
  3
B0
350
52
  3
B1
350
53
  3
B2
350
54
  3
B3
350
55
  3
B4
350
56
  3
B5
350
57
  3
B6
350
58
  3
B7
350
59
  3
B8
350
5A
  3
B9
350
5B
  3
C0
350
5C
  3
C1
350
5D
  3
C2
350
5E
  3
C3
350
5F
  3
C4
350
60
  3
C5
350
61
  3
C6
350
62
  3
C7
350
63
  3
C8
350
64
  3
C9
350
65
  3
D0
350
66
  3
D1
350
67
  3
D2
350
68
  0
LAYOUT
  5
1E
102
{ACAD_REACTORS
330
1A
102
}
330
1A
100
AcDbPlotSettings
  1

  2
none_device
  4

  6

 40
0.0
 41
0.0
 42
0.0
 43
0.0
 44
0.0
 45
0.0
 46
0.0
 47
0.0
 48
0.0
 49
0.0
140
0.0
141
0.0
142
1.0
143
1.0
 70
   688
 72
     1
 73
     0
 74
     5
  7

 75
    16
147
1.0
148
0.0
149
0.0
100
AcDbLayout
  1
Layout1
 70
     1
 71
     1
 10
0.0
 20
0.0
 11
420.0
 21
297.0
 12
0.0
 22
0.0
 32
0.0
 14
1.0000000000E+20
 24
1.0000000000E+20
 34
1.0000000000E+20
 15
-1.0000000000E+20
 25
-1.0000000000E+20
 35
-1.0000000000E+20
146
0.0
 13
0.0
 23
0.0
 33
0.0
 16
1.0
 26
0.0
 36
0.0
 17
0.0
 27
1.0
 37
0.0
 76
     0
330
1B
  0
LAYOUT
  5
26
102
{ACAD_REACTORS
330
1A
102
}
330
1A
100
AcDbPlotSettings
  1

  2
none_device
  4

  6

 40
0.0
 41
0.0
 42
0.0
 43
0.0
 44
0.0
 45
0.0
 46
0.0
 47
0.0
 48
0.0
 49
0.0
140
0.0
141
0.0
142
1.0
143
1.0
 70
   688
 72
     1
 73
     0
 74
     5
  7

 75
    16
147
1.0
148
0.0
149
0.0
100
AcDbLayout
  1
Layout2
 70
     1
 71
     2
 10
0.0
 20
0.0
 11
0.0
 21
0.0
 12
0.0
 22
0.0
 32
0.0
 14
0.0
 24
0.0
 34
0.0
 15
0.0
 25
0.0
 35
0.0
146
0.0
 13
0.0
 23
0.0
 33
0.0
 16
1.0
 26
0.0
 36
0.0
 17
0.0
 27
1.0
 37
0.0
 76
     0
330
23
  0
LAYOUT
  5
22
102
{ACAD_REACTORS
330
1A
102
}
330
1A
100
AcDbPlotSettings
  1

  2
none_device
  4
Letter_(8.50_x_11.00_Inches)
  6

 40
6.35
 41
6.35
 42
6.35000508
 43
6.35000508
 44
215.9
 45
279.4
 46
0.0
 47
0.0
 48
0.0
 49
0.0
140
0.0
141
0.0
142
1.0
143
1.0
 70
  1712
 72
     1
 73
     0
 74
     0
  7

 75
     0
147
1.0
148
0.0
149
0.0
100
AcDbLayout
  1
Model
 70
     1
 71
     0
 10
0.0
 20
0.0
 11
297.0
 21
210.0
 12
0.0
 22
0.0
 32
0.0
 14
0.0
 24
0.0
 34
0.0
 15
297.0
 25
210.0
 35
0.0
146
0.0
 13
0.0
 23
0.0
 33
0.0
 16
1.0
 26
0.0
 36
0.0
 17
0.0
 27
1.0
 37
0.0
 76
     0
330
1F
331
29
  0
MLINESTYLE
  5
18
102
{ACAD_REACTORS
330
17
102
}
330
17
100
AcDbMlineStyle
  2
Standard
 70
     0
  3

 62
   256
 51
90.0
 52
90.0
 71
     2
 49
0.5
 62
   256
  6
BYLAYER
 49
-0.5
 62
   256
  6
BYLAYER
  0
ACDBPLACEHOLDER
  5
F
102
{ACAD_REACTORS
330
E
102
}
330
E
  0
SCALE
  5
48
102
{ACAD_REACTORS
330
47
102
}
330
47
100
AcDbScale
 70
     0
300
1:1
140
1.0
141
1.0
290
     1
  0
SCALE
  5
49
102
{ACAD_REACTORS
330
47
102
}
330
47
100
AcDbScale
 70
     0
300
1:2
140
1.0
141
2.0
290
     0
  0
SCALE
  5
4A
102
{ACAD_REACTORS
330
47
102
}
330
47
100
AcDbScale
 70
     0
300
1:4
140
1.0
141
4.0
290
     0
  0
SCALE
  5
4B
102
{ACAD_REACTORS
330
47
102
}
330
47
100
AcDbScale
 70
     0
300
1:5
140
1.0
141
5.0
290
     0
  0
SCALE
  5
4C
102
{ACAD_REACTORS
330
47
102
}
330
47
100
AcDbScale
 70
     0
300
1:8
140
1.0
141
8.0
290
     0
  0
SCALE
  5
4D
102
{ACAD_REACTORS
330
47
102
}
330
47
100
AcDbScale
 70
     0
300
1:10
140
1.0
141
10.0
290
     0
  0
SCALE
  5
4E
102
{ACAD_REACTORS
330
47
102
}
330
47
100
AcDbScale
 70
     0
300
1:16
140
1.0
141
16.0
290
     0
  0
SCALE
  5
4F
102
{ACAD_REACTORS
330
47
102
}
330
47
100
AcDbScale
 70
     0
300
1:20
140
1.0
141
20.0
290
     0
  0
SCALE
  5
50
102
{ACAD_REACTORS
330
47
102
}
330
47
100
AcDbScale
 70
     0
300
1:30
140
1.0
141
30.0
290
     0
  0
SCALE
  5
51
102
{ACAD_REACTORS
330
47
102
}
330
47
100
AcDbScale
 70
     0
300
1:40
140
1.0
141
40.0
290
     0
  0
SCALE
  5
52
102
{ACAD_REACTORS
330
47
102
}
330
47
100
AcDbScale
 70
     0
300
1:50
140
1.0
141
50.0
290
     0
  0
SCALE
  5
53
102
{ACAD_REACTORS
330
47
102
}
330
47
100
AcDbScale
 70
     0
300
1:100
140
1.0
141
100.0
290
     0
  0
SCALE
  5
54
102
{ACAD_REACTORS
330
47
102
}
330
47
100
AcDbScale
 70
     0
300
2:1
140
2.0
141
1.0
290
     0
  0
SCALE
  5
55
102
{ACAD_REACTORS
330
47
102
}
330
47
100
AcDbScale
 70
     0
300
4:1
140
4.0
141
1.0
290
     0
  0
SCALE
  5
56
102
{ACAD_REACTORS
330
47
102
}
330
47
100
AcDbScale
 70
     0
300
8:1
140
8.0
141
1.0
290
     0
  0
SCALE
  5
57
102
{ACAD_REACTORS
330
47
102
}
330
47
100
AcDbScale
 70
     0
300
10:1
140
10.0
141
1.0
290
     0
  0
SCALE
  5
58
102
{ACAD_REACTORS
330
47
102
}
330
47
100
AcDbScale
 70
     0
300
100:1
140
100.0
141
1.0
290
     0
  0
SCALE
  5
59
102
{ACAD_REACTORS
330
47
102
}
330
47
100
AcDbScale
 70
     0
300
1/128" = 1'-0"
140
0.0078125
141
12.0
290
     0
  0
SCALE
  5
5A
102
{ACAD_REACTORS
330
47
102
}
330
47
100
AcDbScale
 70
     0
300
1/64" = 1'-0"
140
0.015625
141
12.0
290
     0
  0
SCALE
  5
5B
102
{ACAD_REACTORS
330
47
102
}
330
47
100
AcDbScale
 70
     0
300
1/32" = 1'-0"
140
0.03125
141
12.0
290
     0
  0
SCALE
  5
5C
102
{ACAD_REACTORS
330
47
102
}
330
47
100
AcDbScale
 70
     0
300
1/16" = 1'-0"
140
0.0625
141
12.0
290
     0
  0
SCALE
  5
5D
102
{ACAD_REACTORS
330
47
102
}
330
47
100
AcDbScale
 70
     0
300
3/32" = 1'-0"
140
0.09375
141
12.0
290
     0
  0
SCALE
  5
5E
102
{ACAD_REACTORS
330
47
102
}
330
47
100
AcDbScale
 70
     0
300
1/8" = 1'-0"
140
0.125
141
12.0
290
     0
  0
SCALE
  5
5F
102
{ACAD_REACTORS
330
47
102
}
330
47
100
AcDbScale
 70
     0
300
3/16" = 1'-0"
140
0.1875
141
12.0
290
     0
  0
SCALE
  5
60
102
{ACAD_REACTORS
330
47
102
}
330
47
100
AcDbScale
 70
     0
300
1/4" = 1'-0"
140
0.25
141
12.0
290
     0
  0
SCALE
  5
61
102
{ACAD_REACTORS
330
47
102
}
330
47
100
AcDbScale
 70
     0
300
3/8" = 1'-0"
140
0.375
141
12.0
290
     0
  0
SCALE
  5
62
102
{ACAD_REACTORS
330
47
102
}
330
47
100
AcDbScale
 70
     0
300
1/2" = 1'-0"
140
0.5
141
12.0
290
     0
  0
SCALE
  5
63
102
{ACAD_REACTORS
330
47
102
}
330
47
100
AcDbScale
 70
     0
300
3/4" = 1'-0"
140
0.75
141
12.0
290
     0
  0
SCALE
  5
64
102
{ACAD_REACTORS
330
47
102
}
330
47
100
AcDbScale
 70
     0
300
1" = 1'-0"
140
1.0
141
12.0
290
     0
  0
SCALE
  5
65
102
{ACAD_REACTORS
330
47
102
}
330
47
100
AcDbScale
 70
     0
300
1-1/2" = 1'-0"
140
1.5
141
12.0
290
     0
  0
SCALE
  5
66
102
{ACAD_REACTORS
330
47
102
}
330
47
100
AcDbScale
 70
     0
300
3" = 1'-0"
140
3.0
141
12.0
290
     0
  0
SCALE
  5
67
102
{ACAD_REACTORS
330
47
102
}
330
47
100
AcDbScale
 70
     0
300
6" = 1'-0"
140
6.0
141
12.0
290
     0
  0
SCALE
  5
68
102
{ACAD_REACTORS
330
47
102
}
330
47
100
AcDbScale
 70
     0
300
1'-0" = 1'-0"
140
12.0
141
12.0
290
     0
  0
ENDSEC
  0
EOF
