  0
SECTION
  2
HEADER
  9
$ACADVER
  1
AC1015
  9
$ACADMAINTVER
 70
     6
  9
$DWGCODEPAGE
  3
ANSI_1252
  9
$INSBASE
 10
0.0
 20
0.0
 30
0.0
  9
$EXTMIN
 10
0.0
 20
0.0
 30
0.0
  9
$EXTMAX
 10
297.0
 20
210.0
 30
0.0
  9
$LIMMIN
 10
0.0
 20
0.0
  9
$LIMMAX
 10
297.0
 20
210.0
  9
$ORTHOMODE
 70
     0
  9
$REGENMODE
 70
     1
  9
$FILLMODE
 70
     1
  9
$QTEXTMODE
 70
     0
  9
$MIRRTEXT
 70
     1
  9
$LTSCALE
 40
1.0
  9
$ATTMODE
 70
     1
  9
$TEXTSIZE
 40
2.0
  9
$TRACEWID
 40
1.0
  9
$TEXTSTYLE
  7
Standard
  9
$CLAYER
  8
0
  9
$CELTYPE
  6
ByLayer
  9
$CECOLOR
 62
   256
  9
$CELTSCALE
 40
1.0
  9
$DISPSILH
 70
     0
  9
$DIMSCALE
 40
1.0
  9
$DIMASZ
 40
3.0
  9
$DIMEXO
 40
0.0
  9
$DIMDLI
 40
3.75
  9
$DIMRND
 40
0.0
  9
$DIMDLE
 40
0.0
  9
$DIMEXE
 40
1.0
  9
$DIMTP
 40
0.0
  9
$DIMTM
 40
0.0
  9
$DIMTXT
 40
2.0
  9
$DIMCEN
 40
2.5
  9
$DIMTSZ
 40
0.0
  9
$DIMTOL
 70
     0
  9
$DIMLIM
 70
     0
  9
$DIMTIH
 70
     1
  9
$DIMTOH
 70
     1
  9
$DIMSE1
 70
     0
  9
$DIMSE2
 70
     0
  9
$DIMTAD
 70
     1
  9
$DIMZIN
 70
     0
  9
$DIMBLK
  1

  9
$DIMASO
 70
     1
  9
$DIMSHO
 70
     1
  9
$DIMPOST
  1

  9
$DIMAPOST
  1

  9
$DIMALT
 70
     0
  9
$DIMALTD
 70
     3
  9
$DIMALTF
 40
0.0393700787
  9
$DIMLFAC
 40
1.0
  9
$DIMTOFL
 70
     1
  9
$DIMTVP
 40
0.0
  9
$DIMTIX
 70
     0
  9
$DIMSOXD
 70
     0
  9
$DIMSAH
 70
     0
  9
$DIMBLK1
  1

  9
$DIMBLK2
  1

  9
$DIMSTYLE
  2
ISO-25
  9
$DIMCLRD
 70
     0
  9
$DIMCLRE
 70
     0
  9
$DIMCLRT
 70
     0
  9
$DIMTFAC
 40
1.0
  9
$DIMGAP
 40
1.524
  9
$DIMJUST
 70
     0
  9
$DIMSD1
 70
     0
  9
$DIMSD2
 70
     0
  9
$DIMTOLJ
 70
     0
  9
$DIMTZIN
 70
     0
  9
$DIMALTZ
 70
     0
  9
$DIMALTTZ
 70
     0
  9
$DIMUPT
 70
     0
  9
$DIMDEC
 70
     2
  9
$DIMTDEC
 70
     3
  9
$DIMALTU
 70
     2
  9
$DIMALTTD
 70
     3
  9
$DIMTXSTY
  7
Standard
  9
$DIMAUNIT
 70
     0
  9
$DIMADEC
 70
     2
  9
$DIMALTRND
 40
0.0
  9
$DIMAZIN
 70
     0
  9
$DIMDSEP
 70
    44
  9
$DIMATFIT
 70
     3
  9
$DIMFRAC
 70
     0
  9
$DIMLDRBLK
  1

  9
$DIMLUNIT
 70
     2
  9
$DIMLWD
 70
    -2
  9
$DIMLWE
 70
    -2
  9
$DIMTMOVE
 70
     0
  9
$LUNITS
 70
     2
  9
$LUPREC
 70
     2
  9
$SKETCHINC
 40
1.0
  9
$FILLETRAD
 40
10.0
  9
$AUNITS
 70
     0
  9
$AUPREC
 70
     2
  9
$MENU
  1
.
  9
$ELEVATION
 40
0.0
  9
$PELEVATION
 40
0.0
  9
$THICKNESS
 40
0.0
  9
$LIMCHECK
 70
     0
  9
$CHAMFERA
 40
0.0
  9
$CHAMFERB
 40
0.0
  9
$CHAMFERC
 40
0.0
  9
$CHAMFERD
 40
0.0
  9
$SKPOLY
 70
     0
  9
$TDCREATE
 40
2457674.417111748
  9
$TDUCREATE
 40
2457674.333778414
  9
$TDUPDATE
 40
2457674.417113229
  9
$TDUUPDATE
 40
2457674.333779896
  9
$TDINDWG
 40
0.0000000116
  9
$TDUSRTIMER
 40
0.0000000116
  9
$USRTIMER
 70
     1
  9
$ANGBASE
 50
0.0
  9
$ANGDIR
 70
     0
  9
$PDMODE
 70
     0
  9
$PDSIZE
 40
-1.0
  9
$PLINEWID
 40
0.0
  9
$SPLFRAME
 70
     0
  9
$SPLINETYPE
 70
     6
  9
$SPLINESEGS
 70
     8
  9
$HANDSEED
  5
2D9
  9
$SURFTAB1
 70
     6
  9
$SURFTAB2
 70
     6
  9
$SURFTYPE
 70
     6
  9
$SURFU
 70
     6
  9
$SURFV
 70
     6
  9
$UCSBASE
  2

  9
$UCSNAME
  2

  9
$UCSORG
 10
0.0
 20
0.0
 30
0.0
  9
$UCSXDIR
 10
1.0
 20
0.0
 30
0.0
  9
$UCSYDIR
 10
0.0
 20
1.0
 30
0.0
  9
$UCSORTHOREF
  2

  9
$UCSORTHOVIEW
 70
     0
  9
$UCSORGTOP
 10
0.0
 20
0.0
 30
0.0
  9
$UCSORGBOTTOM
 10
0.0
 20
0.0
 30
0.0
  9
$UCSORGLEFT
 10
0.0
 20
0.0
 30
0.0
  9
$UCSORGRIGHT
 10
0.0
 20
0.0
 30
0.0
  9
$UCSORGFRONT
 10
0.0
 20
0.0
 30
0.0
  9
$UCSORGBACK
 10
0.0
 20
0.0
 30
0.0
  9
$PUCSBASE
  2

  9
$PUCSNAME
  2

  9
$PUCSORG
 10
0.0
 20
0.0
 30
0.0
  9
$PUCSXDIR
 10
1.0
 20
0.0
 30
0.0
  9
$PUCSYDIR
 10
0.0
 20
1.0
 30
0.0
  9
$PUCSORTHOREF
  2

  9
$PUCSORTHOVIEW
 70
     0
  9
$PUCSORGTOP
 10
0.0
 20
0.0
 30
0.0
  9
$PUCSORGBOTTOM
 10
0.0
 20
0.0
 30
0.0
  9
$PUCSORGLEFT
 10
0.0
 20
0.0
 30
0.0
  9
$PUCSORGRIGHT
 10
0.0
 20
0.0
 30
0.0
  9
$PUCSORGFRONT
 10
0.0
 20
0.0
 30
0.0
  9
$PUCSORGBACK
 10
0.0
 20
0.0
 30
0.0
  9
$USERI1
 70
     0
  9
$USERI2
 70
     0
  9
$USERI3
 70
     0
  9
$USERI4
 70
     0
  9
$USERI5
 70
     0
  9
$USERR1
 40
0.0
  9
$USERR2
 40
0.0
  9
$USERR3
 40
0.0
  9
$USERR4
 40
0.0
  9
$USERR5
 40
0.0
  9
$WORLDVIEW
 70
     1
  9
$SHADEDGE
 70
     3
  9
$SHADEDIF
 70
    70
  9
$TILEMODE
 70
     1
  9
$MAXACTVP
 70
    64
  9
$PINSBASE
 10
0.0
 20
0.0
 30
0.0
  9
$PLIMCHECK
 70
     0
  9
$PEXTMIN
 10
1.0000000000E+20
 20
1.0000000000E+20
 30
1.0000000000E+20
  9
$PEXTMAX
 10
-1.0000000000E+20
 20
-1.0000000000E+20
 30
-1.0000000000E+20
  9
$PLIMMIN
 10
0.0
 20
0.0
  9
$PLIMMAX
 10
420.0
 20
297.0
  9
$UNITMODE
 70
     0
  9
$VISRETAIN
 70
     1
  9
$PLINEGEN
 70
     0
  9
$PSLTSCALE
 70
     1
  9
$TREEDEPTH
 70
  3020
  9
$CMLSTYLE
  2
Standard
  9
$CMLJUST
 70
     0
  9
$CMLSCALE
 40
20.0
  9
$PROXYGRAPHICS
 70
     1
  9
$MEASUREMENT
 70
     1
  9
$CELWEIGHT
370
    -1
  9
$ENDCAPS
280
     0
  9
$JOINSTYLE
280
     0
  9
$LWDISPLAY
290
     1
  9
$INSUNITS
 70
     4
  9
$HYPERLINKBASE
  1

  9
$STYLESHEET
  1

  9
$XEDIT
290
     1
  9
$CEPSNTYPE
380
     0
  9
$PSTYLEMODE
290
     1
  9
$FINGERPRINTGUID
  2
{DCB7AF4E-809B-4D93-A817-F86FC97D2B84}
  9
$VERSIONGUID
  2
{FAEB1C32-E019-11D5-929B-00C0DF256EC4}
  9
$EXTNAMES
290
     1
  9
$PSVPSCALE
 40
0.0
  9
$OLESTARTUP
290
     0
  0
ENDSEC
  0
SECTION
  2
CLASSES
  0
CLASS
  1
ACDBDICTIONARYWDFLT
  2
AcDbDictionaryWithDefault
  3
ObjectDBX Classes
 90
        0
280
     0
281
     0
  0
CLASS
  1
VISUALSTYLE
  2
AcDbVisualStyle
  3
ObjectDBX Classes
 90
     4095
280
     0
281
     0
  0
CLASS
  1
MATERIAL
  2
AcDbMaterial
  3
ObjectDBX Classes
 90
     1153
280
     0
281
     0
  0
CLASS
  1
SCALE
  2
AcDbScale
  3
ObjectDBX Classes
 90
     1153
280
     0
281
     0
  0
CLASS
  1
TABLESTYLE
  2
AcDbTableStyle
  3
ObjectDBX Classes
 90
     4095
280
     0
281
     0
  0
CLASS
  1
MLEADERSTYLE
  2
AcDbMLeaderStyle
  3
ACDB_MLEADERSTYLE_CLASS
 90
     4095
280
     0
281
     0
  0
CLASS
  1
SUN
  2
AcDbSun
  3
SCENEOE
 90
     1153
280
     0
281
     0
  0
CLASS
  1
ACDBPLACEHOLDER
  2
AcDbPlaceHolder
  3
ObjectDBX Classes
 90
        0
280
     0
281
     0
  0
CLASS
  1
LAYOUT
  2
AcDbLayout
  3
ObjectDBX Classes
 90
        0
280
     0
281
     0
  0
ENDSEC
  0
SECTION
  2
TABLES
  0
TABLE
  2
VPORT
  5
8
330
0
100
AcDbSymbolTable
 70
     1
  0
VPORT
  5
29
330
8
100
AcDbSymbolTableRecord
100
AcDbViewportTableRecord
  2
*Active
 70
     0
 10
0.0
 20
0.0
 11
1.0
 21
1.0
 12
148.5
 22
105.0
 13
0.0
 23
0.0
 14
10.0
 24
10.0
 15
10.0
 25
10.0
 16
0.0
 26
0.0
 36
1.0
 17
0.0
 27
0.0
 37
0.0
 40
210.0
 41
1.4142857143
 42
50.0
 43
0.0
 44
0.0
 50
0.0
 51
0.0
 71
     0
 72
  2000
 73
     1
 74
     3
 75
     0
 76
     0
 77
     0
 78
     0
281
     0
 65
     1
110
0.0
120
0.0
130
0.0
111
1.0
121
0.0
131
0.0
112
0.0
122
1.0
132
0.0
 79
     0
146
0.0
  0
ENDTAB
  0
TABLE
  2
LTYPE
  5
5
330
0
100
AcDbSymbolTable
 70
     6
  0
LTYPE
  5
14
330
5
100
AcDbSymbolTableRecord
100
AcDbLinetypeTableRecord
  2
ByBlock
 70
     0
  3

 72
    65
 73
     0
 40
0.0
  0
LTYPE
  5
15
330
5
100
AcDbSymbolTableRecord
100
AcDbLinetypeTableRecord
  2
ByLayer
 70
     0
  3

 72
    65
 73
     0
 40
0.0
  0
LTYPE
  5
16
330
5
100
AcDbSymbolTableRecord
100
AcDbLinetypeTableRecord
  2
Continuous
 70
     0
  3
Solid line
 72
    65
 73
     0
 40
0.0
  0
LTYPE
  5
6E
330
5
100
AcDbSymbolTableRecord
100
AcDbLinetypeTableRecord
  2
HIDDEN
 70
     0
  3
Hidden __ __ __ __ __ __ __ __ __ __ __ __ __ __
 72
    65
 73
     2
 40
1.905
 49
1.27
 74
     0
 49
-0.635
 74
     0
  0
LTYPE
  5
6F
330
5
100
AcDbSymbolTableRecord
100
AcDbLinetypeTableRecord
  2
PHANTOM
 70
     0
  3
Phantom ______  __  __  ______  __  __  ______
 72
    65
 73
     6
 40
12.7
 49
6.35
 74
     0
 49
-1.27
 74
     0
 49
1.27
 74
     0
 49
-1.27
 74
     0
 49
1.27
 74
     0
 49
-1.27
 74
     0
  0
LTYPE
  5
70
330
5
100
AcDbSymbolTableRecord
100
AcDbLinetypeTableRecord
  2
CENTER
 70
     0
  3
Center ____ _ ____ _ ____ _ ____ _ ____ _ ____
 72
    65
 73
     4
 40
10.16
 49
6.35
 74
     0
 49
-1.27
 74
     0
 49
1.27
 74
     0
 49
-1.27
 74
     0
  0
LTYPE
  5
71
330
5
100
AcDbSymbolTableRecord
100
AcDbLinetypeTableRecord
  2
CENTERX2
 70
     0
  3
Center (2x) ________  __  ________  __  _____
 72
    65
 73
     4
 40
20.32
 49
12.7
 74
     0
 49
-2.54
 74
     0
 49
2.54
 74
     0
 49
-2.54
 74
     0
  0
LTYPE
  5
72
330
5
100
AcDbSymbolTableRecord
100
AcDbLinetypeTableRecord
  2
DOT2
 70
     0
  3
Dot (.5x) ........................................
 72
    65
 73
     2
 40
0.635
 49
0.0
 74
     0
 49
-0.635
 74
     0
  0
ENDTAB
  0
TABLE
  2
LAYER
  5
2
330
0
100
AcDbSymbolTable
 70
     5
  0
LAYER
  5
10
330
2
100
AcDbSymbolTableRecord
100
AcDbLayerTableRecord
  2
0
 70
     0
 62
     7
  6
Continuous
370
    -3
390
F
  0
LAYER
  5
73
330
2
100
AcDbSymbolTableRecord
100
AcDbLayerTableRecord
  2
FORMAT
 70
     0
 62
     7
  6
Continuous
370
    -3
390
F
  0
LAYER
  5
74
330
2
100
AcDbSymbolTableRecord
100
AcDbLayerTableRecord
  2
VERMASSUNG
 70
     0
 62
     7
  6
Continuous
370
    -3
390
F
  0
LAYER
  5
75
330
2
100
AcDbSymbolTableRecord
100
AcDbLayerTableRecord
  2
KOPF_DÜNN
 70
     0
 62
     7
  6
Continuous
370
    -3
390
F
  0
LAYER
  5
76
330
2
100
AcDbSymbolTableRecord
100
AcDbLayerTableRecord
  2
KOPF_DICK
 70
     0
 62
     7
  6
Continuous
370
    15
390
F
  0
ENDTAB
  0
TABLE
  2
STYLE
  5
3
330
0
100
AcDbSymbolTable
 70
     2
  0
STYLE
  5
11
330
3
100
AcDbSymbolTableRecord
100
AcDbTextStyleTableRecord
  2
Standard
 70
     0
 40
0.0
 41
1.0
 50
0.0
 71
     0
 42
2.0
  3
txt
  4

  0
STYLE
  5
77
330
3
100
AcDbSymbolTableRecord
100
AcDbTextStyleTableRecord
  2
SLDTEXTSTYLE0
 70
     0
 40
0.0
 41
0.7
 50
0.0
 71
     0
 42
2.0
  3
TXT
  4

  0
ENDTAB
  0
TABLE
  2
VIEW
  5
6
330
0
100
AcDbSymbolTable
 70
     0
  0
ENDTAB
  0
TABLE
  2
UCS
  5
7
330
0
100
AcDbSymbolTable
 70
     0
  0
ENDTAB
  0
TABLE
  2
APPID
  5
9
330
0
100
AcDbSymbolTable
 70
     1
  0
APPID
  5
12
330
9
100
AcDbSymbolTableRecord
100
AcDbRegAppTableRecord
  2
ACAD
 70
     0
  0
ENDTAB
  0
TABLE
  2
DIMSTYLE
  5
A
330
0
100
AcDbSymbolTable
 70
     2
100
AcDbDimStyleTable
  0
DIMSTYLE
105
27
330
A
100
AcDbSymbolTableRecord
100
AcDbDimStyleTableRecord
  2
ISO-25
 70
     0
 41
2.5
 42
0.625
 43
3.75
 44
1.25
 73
     0
 74
     0
 77
     1
 78
     8
140
2.5
141
2.5
143
0.0393700787
147
0.625
171
     3
172
     1
178
     0
271
     2
272
     2
274
     3
278
    44
283
     0
284
     8
340
11
  0
DIMSTYLE
105
203
102
{ACAD_REACTORS
330
202
330
20F
330
21A
330
224
330
22E
330
238
102
}
330
A
100
AcDbSymbolTableRecord
100
AcDbDimStyleTableRecord
  2
SLDDIMSTYLE0
 70
     0
 41
3.0
 44
0.0
 45
0.000000001
 73
     0
 74
     0
 77
     1
 78
    12
 79
     3
140
2.0
147
0.5
173
     1
178
     0
271
     2
272
     3
276
     2
284
    12
340
77
  0
ENDTAB
  0
TABLE
  2
BLOCK_RECORD
  5
1
330
0
100
AcDbSymbolTable
 70
     7
  0
BLOCK_RECORD
  5
1F
330
1
100
AcDbSymbolTableRecord
100
AcDbBlockTableRecord
  2
*Model_Space
340
22
  0
BLOCK_RECORD
  5
1B
330
1
100
AcDbSymbolTableRecord
100
AcDbBlockTableRecord
  2
*Paper_Space
340
1E
  0
BLOCK_RECORD
  5
23
330
1
100
AcDbSymbolTableRecord
100
AcDbBlockTableRecord
  2
*Paper_Space0
340
26
  0
BLOCK_RECORD
  5
204
330
1
100
AcDbSymbolTableRecord
100
AcDbBlockTableRecord
  2
_D
340
0
  0
BLOCK_RECORD
  5
210
330
1
100
AcDbSymbolTableRecord
100
AcDbBlockTableRecord
  2
_D_1
340
0
  0
BLOCK_RECORD
  5
21B
330
1
100
AcDbSymbolTableRecord
100
AcDbBlockTableRecord
  2
_D_2
340
0
  0
BLOCK_RECORD
  5
225
330
1
100
AcDbSymbolTableRecord
100
AcDbBlockTableRecord
  2
_D_3
340
0
  0
BLOCK_RECORD
  5
22F
330
1
100
AcDbSymbolTableRecord
100
AcDbBlockTableRecord
  2
_D_4
340
0
  0
BLOCK_RECORD
  5
239
330
1
100
AcDbSymbolTableRecord
100
AcDbBlockTableRecord
  2
_D_5
340
0
  0
ENDTAB
  0
ENDSEC
  0
SECTION
  2
BLOCKS
  0
BLOCK
  5
20
330
1F
100
AcDbEntity
  8
0
100
AcDbBlockBegin
  2
*Model_Space
 70
     0
 10
0.0
 20
0.0
 30
0.0
  3
*Model_Space
  1

  0
ENDBLK
  5
21
330
1F
100
AcDbEntity
  8
0
100
AcDbBlockEnd
  0
BLOCK
  5
1C
330
1B
100
AcDbEntity
 67
     1
  8
0
100
AcDbBlockBegin
  2
*Paper_Space
 70
     0
 10
0.0
 20
0.0
 30
0.0
  3
*Paper_Space
  1

  0
ENDBLK
  5
1D
330
1B
100
AcDbEntity
 67
     1
  8
0
100
AcDbBlockEnd
  0
BLOCK
  5
24
330
23
100
AcDbEntity
  8
0
100
AcDbBlockBegin
  2
*Paper_Space0
 70
     0
 10
0.0
 20
0.0
 30
0.0
  3
*Paper_Space0
  1

  0
ENDBLK
  5
25
330
23
100
AcDbEntity
  8
0
100
AcDbBlockEnd
  0
BLOCK
  5
205
330
204
100
AcDbEntity
  8
0
100
AcDbBlockBegin
  2
_D
 70
     0
 10
0.0
 20
0.0
 30
0.0
  3
_D
  1

  0
SOLID
  5
207
330
204
100
AcDbEntity
  8
VERMASSUNG
100
AcDbTrace
 10
227.9611207317
 20
145.4910333349
 30
0.0
 11
227.5111207317
 21
142.4910333349
 31
0.0
 12
228.4111207317
 22
142.4910333349
 32
0.0
 13
228.4111207317
 23
142.4910333349
 33
0.0
  0
SOLID
  5
208
330
204
100
AcDbEntity
  8
VERMASSUNG
100
AcDbTrace
 10
227.9611207317
 20
82.4910333349
 30
0.0
 11
228.4111207317
 21
85.4910333349
 31
0.0
 12
227.5111207317
 22
85.4910333349
 32
0.0
 13
227.5111207317
 23
85.4910333349
 33
0.0
  0
LINE
  5
209
330
204
100
AcDbEntity
  8
VERMASSUNG
100
AcDbLine
 10
210.387467514
 20
145.4910333349
 30
0.0
 11
228.9611207317
 21
145.4910333349
 31
0.0
  0
LINE
  5
20A
330
204
100
AcDbEntity
  8
VERMASSUNG
100
AcDbLine
 10
210.387467514
 20
82.4910333349
 30
0.0
 11
228.9611207317
 21
82.4910333349
 31
0.0
  0
LINE
  5
20B
330
204
100
AcDbEntity
  8
VERMASSUNG
100
AcDbLine
 10
227.9611207317
 20
145.4910333349
 30
0.0
 11
227.9611207317
 21
82.4910333349
 31
0.0
  0
MTEXT
  5
20C
330
204
100
AcDbEntity
  8
VERMASSUNG
100
AcDbMText
 10
225.1829854754
 20
108.2860334335
 30
0.0
 40
2.0
 41
0.0
 71
     1
 72
     1
  1
WH
  7
SLDTEXTSTYLE0
 11
-7.044195017643634E-15
 21
1.0
 31
0.0
 73
     1
 44
1.0
  0
MTEXT
  5
20D
330
204
100
AcDbEntity
  8
VERMASSUNG
100
AcDbMText
 10
225.3829854267
 20
113.2860333217
 30
0.0
 40
2.0
 41
0.0
 71
     1
 72
     1
  1
%%c
  7
SLDTEXTSTYLE0
 11
-7.044195017643634E-15
 21
1.0
 31
0.0
 73
     1
 44
1.0
  0
MTEXT
  5
20E
330
204
100
AcDbEntity
  8
VERMASSUNG
100
AcDbMText
 10
225.1829854754
 20
116.896033336
 30
0.0
 40
2.0
 41
0.0
 71
     1
 72
     1
  1
63
  7
SLDTEXTSTYLE0
 11
-7.044195017643634E-15
 21
1.0
 31
0.0
 73
     1
 44
1.0
  0
ENDBLK
  5
206
330
204
100
AcDbEntity
  8
0
100
AcDbBlockEnd
  0
BLOCK
  5
211
330
210
100
AcDbEntity
  8
0
100
AcDbBlockBegin
  2
_D_1
 70
     0
 10
0.0
 20
0.0
 30
0.0
  3
_D_1
  1

  0
SOLID
  5
213
330
210
100
AcDbEntity
  8
VERMASSUNG
100
AcDbTrace
 10
221.5940375623
 20
131.9910333349
 30
0.0
 11
221.1440375623
 21
128.9910333349
 31
0.0
 12
222.0440375623
 22
128.9910333349
 32
0.0
 13
222.0440375623
 23
128.9910333349
 33
0.0
  0
SOLID
  5
214
330
210
100
AcDbEntity
  8
VERMASSUNG
100
AcDbTrace
 10
221.5940375623
 20
95.9910333349
 30
0.0
 11
222.0440375623
 21
98.9910333349
 31
0.0
 12
221.1440375623
 22
98.9910333349
 32
0.0
 13
221.1440375623
 23
98.9910333349
 33
0.0
  0
LINE
  5
215
330
210
100
AcDbEntity
  8
VERMASSUNG
100
AcDbLine
 10
209.987467514
 20
131.9910333349
 30
0.0
 11
222.5940375623
 21
131.9910333349
 31
0.0
  0
LINE
  5
216
330
210
100
AcDbEntity
  8
VERMASSUNG
100
AcDbLine
 10
209.987467514
 20
95.9910333349
 30
0.0
 11
222.5940375623
 21
95.9910333349
 31
0.0
  0
LINE
  5
217
330
210
100
AcDbEntity
  8
VERMASSUNG
100
AcDbLine
 10
221.5940375623
 20
131.9910333349
 30
0.0
 11
221.5940375623
 21
95.9910333349
 31
0.0
  0
MTEXT
  5
218
330
210
100
AcDbEntity
  8
VERMASSUNG
100
AcDbMText
 10
219.0159022574
 20
110.7860333776
 30
0.0
 40
2.0
 41
0.0
 71
     1
 72
     1
  1
%%c
  7
SLDTEXTSTYLE0
 11
-7.044195017643634E-15
 21
1.0
 31
0.0
 73
     1
 44
1.0
  0
MTEXT
  5
219
330
210
100
AcDbEntity
  8
VERMASSUNG
100
AcDbMText
 10
218.8159023061
 20
114.3960333919
 30
0.0
 40
2.0
 41
0.0
 71
     1
 72
     1
  1
36
  7
SLDTEXTSTYLE0
 11
-7.044195017643634E-15
 21
1.0
 31
0.0
 73
     1
 44
1.0
  0
ENDBLK
  5
212
330
210
100
AcDbEntity
  8
0
100
AcDbBlockEnd
  0
BLOCK
  5
21C
330
21B
100
AcDbEntity
  8
0
100
AcDbBlockBegin
  2
_D_2
 70
     0
 10
0.0
 20
0.0
 30
0.0
  3
_D_2
  1

  0
SOLID
  5
21E
330
21B
100
AcDbEntity
  8
VERMASSUNG
100
AcDbTrace
 10
164.037467514
 20
152.7308272702
 30
0.0
 11
167.037467514
 21
152.2808272702
 31
0.0
 12
167.037467514
 22
153.1808272702
 32
0.0
 13
167.037467514
 23
153.1808272702
 33
0.0
  0
SOLID
  5
21F
330
21B
100
AcDbEntity
  8
VERMASSUNG
100
AcDbTrace
 10
210.987467514
 20
152.7308272702
 30
0.0
 11
207.987467514
 21
153.1808272702
 31
0.0
 12
207.987467514
 22
152.2808272702
 32
0.0
 13
207.987467514
 23
152.2808272702
 33
0.0
  0
LINE
  5
220
330
21B
100
AcDbEntity
  8
VERMASSUNG
100
AcDbLine
 10
164.037467514
 20
144.0828926991
 30
0.0
 11
164.037467514
 21
153.7308272702
 31
0.0
  0
LINE
  5
221
330
21B
100
AcDbEntity
  8
VERMASSUNG
100
AcDbLine
 10
210.987467514
 20
144.8910333349
 30
0.0
 11
210.987467514
 21
153.7308272702
 31
0.0
  0
LINE
  5
222
330
21B
100
AcDbEntity
  8
VERMASSUNG
100
AcDbLine
 10
164.037467514
 20
152.7308272702
 30
0.0
 11
210.987467514
 21
152.7308272702
 31
0.0
  0
MTEXT
  5
223
330
21B
100
AcDbEntity
  8
VERMASSUNG
100
AcDbMText
 10
184.3124675948
 20
155.3089628661
 30
0.0
 40
2.0
 41
0.0
 71
     1
 72
     1
  1
46.95
  7
SLDTEXTSTYLE0
 73
     1
 44
1.0
  0
ENDBLK
  5
21D
330
21B
100
AcDbEntity
  8
0
100
AcDbBlockEnd
  0
BLOCK
  5
226
330
225
100
AcDbEntity
  8
0
100
AcDbBlockBegin
  2
_D_3
 70
     0
 10
0.0
 20
0.0
 30
0.0
  3
_D_3
  1

  0
SOLID
  5
228
330
225
100
AcDbEntity
  8
VERMASSUNG
100
AcDbTrace
 10
144.987467514
 20
159.1522619038
 30
0.0
 11
147.987467514
 21
158.7022619038
 31
0.0
 12
147.987467514
 22
159.6022619038
 32
0.0
 13
147.987467514
 23
159.6022619038
 33
0.0
  0
SOLID
  5
229
330
225
100
AcDbEntity
  8
VERMASSUNG
100
AcDbTrace
 10
210.987467514
 20
159.1522619038
 30
0.0
 11
207.987467514
 21
159.6022619038
 31
0.0
 12
207.987467514
 22
158.7022619038
 32
0.0
 13
207.987467514
 23
158.7022619038
 33
0.0
  0
LINE
  5
22A
330
225
100
AcDbEntity
  8
VERMASSUNG
100
AcDbLine
 10
144.987467514
 20
136.2160333349
 30
0.0
 11
144.987467514
 21
160.1522619038
 31
0.0
  0
LINE
  5
22B
330
225
100
AcDbEntity
  8
VERMASSUNG
100
AcDbLine
 10
210.987467514
 20
144.8910333349
 30
0.0
 11
210.987467514
 21
160.1522619038
 31
0.0
  0
LINE
  5
22C
330
225
100
AcDbEntity
  8
VERMASSUNG
100
AcDbLine
 10
144.987467514
 20
159.1522619038
 30
0.0
 11
210.987467514
 21
159.1522619038
 31
0.0
  0
MTEXT
  5
22D
330
225
100
AcDbEntity
  8
VERMASSUNG
100
AcDbMText
 10
176.5874675639
 20
161.7303974998
 30
0.0
 40
2.0
 41
0.0
 71
     1
 72
     1
  1
66
  7
SLDTEXTSTYLE0
 73
     1
 44
1.0
  0
ENDBLK
  5
227
330
225
100
AcDbEntity
  8
0
100
AcDbBlockEnd
  0
BLOCK
  5
230
330
22F
100
AcDbEntity
  8
0
100
AcDbBlockBegin
  2
_D_4
 70
     0
 10
0.0
 20
0.0
 30
0.0
  3
_D_4
  1

  0
SOLID
  5
232
330
22F
100
AcDbEntity
  8
VERMASSUNG
100
AcDbTrace
 10
210.987467514
 20
165.4631170408
 30
0.0
 11
207.987467514
 21
165.9131170408
 31
0.0
 12
207.987467514
 22
165.0131170408
 32
0.0
 13
207.987467514
 23
165.0131170408
 33
0.0
  0
SOLID
  5
233
330
22F
100
AcDbEntity
  8
VERMASSUNG
100
AcDbTrace
 10
76.737467514
 20
165.4631170408
 30
0.0
 11
79.737467514
 21
165.0131170408
 31
0.0
 12
79.737467514
 22
165.9131170408
 32
0.0
 13
79.737467514
 23
165.9131170408
 33
0.0
  0
LINE
  5
234
330
22F
100
AcDbEntity
  8
VERMASSUNG
100
AcDbLine
 10
210.987467514
 20
144.8910333349
 30
0.0
 11
210.987467514
 21
166.4631170408
 31
0.0
  0
LINE
  5
235
330
22F
100
AcDbEntity
  8
VERMASSUNG
100
AcDbLine
 10
76.737467514
 20
125.3981639319
 30
0.0
 11
76.737467514
 21
166.4631170408
 31
0.0
  0
LINE
  5
236
330
22F
100
AcDbEntity
  8
VERMASSUNG
100
AcDbLine
 10
210.987467514
 20
165.4631170408
 30
0.0
 11
76.737467514
 21
165.4631170408
 31
0.0
  0
MTEXT
  5
237
330
22F
100
AcDbEntity
  8
VERMASSUNG
100
AcDbMText
 10
140.1624675129
 20
168.0412526367
 30
0.0
 40
2.0
 41
0.0
 71
     1
 72
     1
  1
134.25
  7
SLDTEXTSTYLE0
 73
     1
 44
1.0
  0
ENDBLK
  5
231
330
22F
100
AcDbEntity
  8
0
100
AcDbBlockEnd
  0
BLOCK
  5
23A
330
239
100
AcDbEntity
  8
0
100
AcDbBlockBegin
  2
_D_5
 70
     0
 10
0.0
 20
0.0
 30
0.0
  3
_D_5
  1

  0
SOLID
  5
23C
330
239
100
AcDbEntity
  8
VERMASSUNG
100
AcDbTrace
 10
68.6368104594
 20
82.2410333349
 30
0.0
 11
69.0868104594
 21
85.2410333349
 31
0.0
 12
68.1868104594
 22
85.2410333349
 32
0.0
 13
68.1868104594
 23
85.2410333349
 33
0.0
  0
SOLID
  5
23D
330
239
100
AcDbEntity
  8
VERMASSUNG
100
AcDbTrace
 10
68.6368104594
 20
145.7410333349
 30
0.0
 11
68.1868104594
 21
142.7410333349
 31
0.0
 12
69.0868104594
 22
142.7410333349
 32
0.0
 13
69.0868104594
 23
142.7410333349
 33
0.0
  0
LINE
  5
23E
330
239
100
AcDbEntity
  8
VERMASSUNG
100
AcDbLine
 10
163.437467514
 20
82.2410333349
 30
0.0
 11
67.6368104594
 21
82.2410333349
 31
0.0
  0
LINE
  5
23F
330
239
100
AcDbEntity
  8
VERMASSUNG
100
AcDbLine
 10
163.437467514
 20
145.7410333349
 30
0.0
 11
67.6368104594
 21
145.7410333349
 31
0.0
  0
LINE
  5
240
330
239
100
AcDbEntity
  8
VERMASSUNG
100
AcDbLine
 10
68.6368104594
 20
82.2410333349
 30
0.0
 11
68.6368104594
 21
145.7410333349
 31
0.0
  0
MTEXT
  5
241
330
239
100
AcDbEntity
  8
VERMASSUNG
100
AcDbMText
 10
65.8586752032
 20
105.1880971866
 30
0.0
 40
2.0
 41
0.0
 71
     1
 72
     1
  1
ISO 40
  7
SLDTEXTSTYLE0
 11
3.391901413832837E-15
 21
1.0
 31
0.0
 73
     1
 44
1.0
  0
MTEXT
  5
242
330
239
100
AcDbEntity
  8
VERMASSUNG
100
AcDbMText
 10
66.0586751545
 20
114.3880973907
 30
0.0
 40
2.0
 41
0.0
 71
     1
 72
     1
  1
%%c
  7
SLDTEXTSTYLE0
 11
3.391901413832837E-15
 21
1.0
 31
0.0
 73
     1
 44
1.0
  0
MTEXT
  5
243
330
239
100
AcDbEntity
  8
VERMASSUNG
100
AcDbMText
 10
66.0586748635
 20
117.9959777221
 30
0.0
 40
2.0
 41
0.0
 71
     1
 72
     1
  1
63.5
  7
SLDTEXTSTYLE0
 11
3.391901413832837E-15
 21
1.0
 31
0.0
 73
     1
 44
1.0
  0
ENDBLK
  5
23B
330
239
100
AcDbEntity
  8
0
100
AcDbBlockEnd
  0
ENDSEC
  0
SECTION
  2
ENTITIES
  0
MTEXT
  5
78
330
1F
100
AcDbEntity
  8
KOPF_DÜNN
100
AcDbMText
 10
13.8892156294
 20
23.8442973028
 30
0.0
 40
3.0
 41
0.0
 71
     1
 72
     1
  1
A14.440.063.066
  7
SLDTEXTSTYLE0
 73
     1
 44
1.0
  0
MTEXT
  5
79
330
1F
100
AcDbEntity
  8
VERMASSUNG
100
AcDbMText
 10
13.9329988022
 20
28.8834360957
 30
0.0
 40
3.0
 41
0.0
 71
     1
 72
     1
  1
Aufnahme_Master shank WH40
  7
SLDTEXTSTYLE0
 73
     1
 44
1.0
  0
MTEXT
  5
7A
330
1F
100
AcDbEntity
  8
VERMASSUNG
100
AcDbMText
 10
98.8601118557
 20
13.8365368761
 30
0.0
 40
2.0
 41
0.0
 71
     1
 72
     1
  1
Datum: 01.09.2011
  7
SLDTEXTSTYLE0
 73
     1
 44
1.0
  0
MTEXT
  5
7B
330
1F
100
AcDbEntity
  8
VERMASSUNG
100
AcDbMText
 10
13.933048693
 20
18.0482802738
 30
0.0
 40
2.0
 41
0.0
 71
     1
 72
     1
  1
DIN 69871 AD/B
  7
SLDTEXTSTYLE0
 73
     1
 44
1.0
  0
MTEXT
  5
7C
330
1F
100
AcDbEntity
  8
VERMASSUNG
100
AcDbMText
 10
13.9808475933
 20
13.9090974274
 30
0.0
 40
2.0
 41
0.0
 71
     1
 72
     1
  1
Gewicht: 1463g
  7
SLDTEXTSTYLE0
 73
     1
 44
1.0
  0
LINE
  5
7D
330
1F
100
AcDbEntity
  8
0
  6
Continuous
 62
     7
370
    15
100
AcDbLine
 10
183.2201255724
 20
145.4910338415
 30
0.0
 11
180.9874659643
 21
145.4910338415
 31
0.0
  0
LINE
  5
7E
330
1F
100
AcDbEntity
  8
0
  6
Continuous
 62
     7
370
    15
100
AcDbLine
 10
210.3874644503
 20
145.4910338415
 30
0.0
 11
202.6702052221
 21
145.4910338415
 31
0.0
  0
LINE
  5
7F
330
1F
100
AcDbEntity
  8
0
  6
Continuous
 62
     7
370
    15
100
AcDbLine
 10
180.9874659643
 20
82.4910328282
 30
0.0
 11
210.3874644503
 21
82.4910328282
 31
0.0
  0
LINE
  5
80
330
1F
100
AcDbEntity
  8
0
  6
Continuous
 62
     7
370
    15
100
AcDbLine
 10
210.3874644503
 20
82.4910328282
 30
0.0
 11
210.9874671564
 21
83.0910336716
 31
0.0
  0
LINE
  5
81
330
1F
100
AcDbEntity
  8
0
  6
Continuous
 62
     7
370
    15
100
AcDbLine
 10
210.9874671564
 20
144.8910329981
 30
0.0
 11
210.3874644503
 21
145.4910338415
 31
0.0
  0
ARC
  5
82
330
1F
100
AcDbEntity
  8
0
  6
Continuous
 62
     7
370
    15
100
AcDbCircle
 10
180.987467514
 20
144.4910333349
 30
0.0
 40
1.0
100
AcDbArc
 50
90.0
 51
180.0
  0
ARC
  5
83
330
1F
100
AcDbEntity
  8
0
  6
Continuous
 62
     7
370
    15
100
AcDbCircle
 10
180.987467514
 20
83.4910333349
 30
0.0
 40
1.0
100
AcDbArc
 50
180.0
 51
270.0
  0
ARC
  5
84
330
1F
100
AcDbEntity
  8
0
  6
Continuous
 62
     7
370
    15
100
AcDbCircle
 10
178.987467514
 20
139.9910333349
 30
0.0
 40
1.0
100
AcDbArc
 50
270.0
 51
0.0
  0
ARC
  5
85
330
1F
100
AcDbEntity
  8
0
  6
Continuous
 62
     7
370
    15
100
AcDbCircle
 10
178.987467514
 20
87.9910333349
 30
0.0
 40
1.0
100
AcDbArc
 50
0.0
 51
90.0
  0
LINE
  5
86
330
1F
100
AcDbEntity
  8
0
  6
Continuous
 62
     7
370
    15
100
AcDbLine
 10
178.9874693618
 20
138.9910337074
 30
0.0
 11
172.0617057994
 21
138.9910337074
 31
0.0
  0
LINE
  5
87
330
1F
100
AcDbEntity
  8
0
  6
Continuous
 62
     7
370
    15
100
AcDbLine
 10
172.0586156711
 20
88.9910329623
 30
0.0
 11
178.9874693618
 21
88.9910329623
 31
0.0
  0
ARC
  5
88
330
1F
100
AcDbEntity
  8
0
  6
Continuous
 62
     7
370
    15
100
AcDbCircle
 10
147.587467514
 20
91.1660333349
 30
0.0
 40
0.6000000000000227
100
AcDbArc
 50
0.0
 51
90.0
  0
ARC
  5
89
330
1F
100
AcDbEntity
  8
0
  6
Continuous
 62
     7
370
    15
100
AcDbCircle
 10
147.587467514
 20
136.8160333349
 30
0.0
 40
0.6000000000000227
100
AcDbArc
 50
270.0
 51
0.0
  0
LINE
  5
8A
330
1F
100
AcDbEntity
  8
0
  6
Continuous
 62
     7
370
    15
100
AcDbLine
 10
144.987467514
 20
91.7660333706
 30
0.0
 11
147.5874675211
 21
91.7660333706
 31
0.0
  0
LINE
  5
8B
330
1F
100
AcDbEntity
  8
0
  6
Continuous
 62
     7
370
    15
100
AcDbLine
 10
147.5874675211
 20
136.2160332991
 30
0.0
 11
144.987467514
 21
136.2160332991
 31
0.0
  0
LINE
  5
8C
330
1F
100
AcDbEntity
  8
0
  6
Continuous
 62
     7
370
    15
100
AcDbLine
 10
144.987467514
 20
136.2160332991
 30
0.0
 11
77.5931587681
 21
126.3876967622
 31
0.0
  0
LINE
  5
8D
330
1F
100
AcDbEntity
  8
0
  6
Continuous
 62
     7
370
    15
100
AcDbLine
 10
77.5931587681
 20
101.5943699075
 30
0.0
 11
144.987467514
 21
91.7660333706
 31
0.0
  0
ARC
  5
8E
330
1F
100
AcDbEntity
  8
0
  6
Continuous
 62
     7
370
    15
100
AcDbCircle
 10
77.737467514
 20
102.5839027378
 30
0.0
 40
0.9999999999999938
100
AcDbArc
 50
180.0
 51
261.7028550302
  0
ARC
  5
8F
330
1F
100
AcDbEntity
  8
0
  6
Continuous
 62
     7
370
    15
100
AcDbCircle
 10
77.737467514
 20
125.3981639319
 30
0.0
 40
0.9999999999999858
100
AcDbArc
 50
98.2971449698
 51
180.0
  0
ARC
  5
90
330
1F
100
AcDbEntity
  8
0
  6
Continuous
 62
     7
370
    15
100
AcDbCircle
 10
157.987467514
 20
105.2695196801
 30
0.0
 40
1.500000000000019
100
AcDbArc
 50
191.5274417159
 51
336.6722113243
  0
SPLINE
  5
91
330
1F
100
AcDbEntity
  8
0
  6
Continuous
 62
     7
370
    15
100
AcDbSpline
210
0.0
220
0.0
230
1.0
 70
     8
 71
     3
 72
    11
 73
     7
 74
     0
 42
0.000000001
 43
0.00000001
 40
0.0
 40
0.0
 40
0.0
 40
0.0
 40
0.2164566282244342
 40
0.4403141857962927
 40
0.751902941575613
 40
1.0
 40
1.0
 40
1.0
 40
1.0
 10
197.4508313700846
 20
114.9723029719798
 30
0.0
 10
197.2380329441741
 20
115.2064443966753
 30
0.0
 10
196.8051602416279
 20
115.6827328412548
 30
0.0
 10
196.0018652470094
 20
116.5665930714953
 30
0.0
 10
195.1401931199532
 20
117.5146866830733
 30
0.0
 10
194.5887767180733
 20
118.1214079486498
 30
0.0
 10
194.3443453178099
 20
118.3903548425196
 30
0.0
  0
SPLINE
  5
92
330
1F
100
AcDbEntity
  8
0
  6
Continuous
 62
     7
370
    15
100
AcDbSpline
210
0.0
220
0.0
230
1.0
 70
     8
 71
     3
 72
    13
 73
     9
 74
     0
 42
0.000000001
 43
0.00000001
 40
0.0
 40
0.0
 40
0.0
 40
0.0
 40
0.1840190865877251
 40
0.3511654483073358
 40
0.5179851131330109
 40
0.6927579335877788
 40
0.8679667676789244
 40
1.0
 40
1.0
 40
1.0
 40
1.0
 10
194.3443453178099
 20
118.3903548425196
 30
0.0
 10
194.0819403591507
 20
118.3333043866072
 30
0.0
 10
193.5811903736232
 20
118.2244344356791
 30
0.0
 10
192.7905809711252
 20
118.0525446094851
 30
0.0
 10
191.9896462586744
 20
117.8784098376952
 30
0.0
 10
191.1799557753355
 20
117.7023720726682
 30
0.0
 10
190.4545981742954
 20
117.5446677508137
 30
0.0
 10
190.0184219999841
 20
117.4498373300197
 30
0.0
 10
189.8309810325792
 20
117.4090852053969
 30
0.0
  0
SPLINE
  5
93
330
1F
100
AcDbEntity
  8
0
  6
Continuous
 62
     7
370
    15
100
AcDbSpline
210
0.0
220
0.0
230
1.0
 70
     8
 71
     3
 72
    11
 73
     7
 74
     0
 42
0.000000001
 43
0.00000001
 40
0.0
 40
0.0
 40
0.0
 40
0.0
 40
0.2164565946616804
 40
0.4403141645238393
 40
0.7519028892419175
 40
1.0
 40
1.0
 40
1.0
 40
1.0
 10
189.8309810325792
 20
117.4090852053969
 30
0.0
 10
189.734609059438
 20
117.1077253923473
 30
0.0
 10
189.5385700110387
 20
116.4947018228349
 30
0.0
 10
189.1747680220956
 20
115.3570994420565
 30
0.0
 10
188.7845318274368
 20
114.1368226122464
 30
0.0
 10
188.5348051681778
 20
113.3559211174324
 30
0.0
 10
188.4241065249136
 20
113.0097636977343
 30
0.0
  0
SPLINE
  5
94
330
1F
100
AcDbEntity
  8
0
  6
Continuous
 62
     7
370
    15
100
AcDbSpline
210
0.0
220
0.0
230
1.0
 70
     8
 71
     3
 72
    11
 73
     7
 74
     0
 42
0.000000001
 43
0.00000001
 40
0.0
 40
0.0
 40
0.0
 40
0.0
 40
0.2164567387468327
 40
0.4403139000216361
 40
0.7519028148976629
 40
1.0
 40
1.0
 40
1.0
 40
1.0
 10
188.4241065249136
 20
113.0097636977343
 30
0.0
 10
188.6369051644018
 20
112.7756224610992
 30
0.0
 10
189.0697777994365
 20
112.2993349513844
 30
0.0
 10
189.8730683886228
 20
111.4154720698191
 30
0.0
 10
190.7347412882022
 20
110.4673801848212
 30
0.0
 10
191.2861575248698
 20
109.8606587819321
 30
0.0
 10
191.530588851898
 20
109.5917118271945
 30
0.0
  0
SPLINE
  5
95
330
1F
100
AcDbEntity
  8
0
  6
Continuous
 62
     7
370
    15
100
AcDbSpline
210
0.0
220
0.0
230
1.0
 70
     8
 71
     3
 72
    13
 73
     9
 74
     0
 42
0.000000001
 43
0.00000001
 40
0.0
 40
0.0
 40
0.0
 40
0.0
 40
0.1320332313222226
 40
0.3072427850805164
 40
0.482014834598574
 40
0.6488345083916278
 40
0.8159816091095965
 40
0.9999999999999999
 40
0.9999999999999999
 40
0.9999999999999999
 40
0.9999999999999999
 10
191.530588851898
 20
109.5917118271945
 30
0.0
 10
191.718029786781
 20
109.6324640093157
 30
0.0
 10
192.1542069089709
 20
109.7272947864438
 30
0.0
 10
192.8795652433221
 20
109.8849978578692
 30
0.0
 10
193.6892552781446
 20
110.0610362903201
 30
0.0
 10
194.4901897609151
 20
110.2351714959094
 30
0.0
 10
195.2808001041366
 20
110.407060240378
 30
0.0
 10
195.7815495077842
 20
110.5159308735907
 30
0.0
 10
196.0439531371286
 20
110.5729814643173
 30
0.0
  0
CIRCLE
  5
96
330
1F
100
AcDbEntity
  8
0
  6
Continuous
 62
     7
370
    15
100
AcDbCircle
 10
192.937467514
 20
113.9910333349
 30
0.0
 40
4.699999999999987
  0
SPLINE
  5
97
330
1F
100
AcDbEntity
  8
0
  6
Continuous
 62
     7
370
    15
100
AcDbSpline
210
0.0
220
0.0
230
1.0
 70
     8
 71
     3
 72
    11
 73
     7
 74
     0
 42
0.000000001
 43
0.00000001
 40
0.0
 40
0.0
 40
0.0
 40
0.0
 40
0.216456768025548
 40
0.440314060620238
 40
0.7519027212744996
 40
1.0
 40
1.0
 40
1.0
 40
1.0
 10
196.0439531371286
 20
110.5729814643173
 30
0.0
 10
196.1403269812124
 20
110.8743410854465
 30
0.0
 10
196.3363696321915
 20
111.4873636289167
 30
0.0
 10
196.7001643798585
 20
112.624968152056
 30
0.0
 10
197.0904017165743
 20
113.8452445756642
 30
0.0
 10
197.3401313527982
 20
114.626145593585
 30
0.0
 10
197.4508313700846
 20
114.9723029719798
 30
0.0
  0
CIRCLE
  5
98
330
1F
100
AcDbEntity
  8
0
  6
Continuous
 62
     7
370
    15
100
AcDbCircle
 10
192.937467514
 20
113.9910333349
 30
0.0
 40
6.999999999999996
  0
ARC
  5
99
330
1F
100
AcDbEntity
  8
0
  6
Continuous
 62
     7
370
    15
100
AcDbCircle
 10
192.937467514
 20
113.9910333349
 30
0.0
 40
4.000000000000003
100
AcDbArc
 50
282.2660321886
 51
342.2660321886
  0
ARC
  5
9A
330
1F
100
AcDbEntity
  8
0
  6
Continuous
 62
     7
370
    15
100
AcDbCircle
 10
192.937467514
 20
113.9910333349
 30
0.0
 40
4.000000000000003
100
AcDbArc
 50
342.2660321886
 51
42.2660321886
  0
ARC
  5
9B
330
1F
100
AcDbEntity
  8
0
  6
Continuous
 62
     7
370
    15
100
AcDbCircle
 10
192.937467514
 20
113.9910333349
 30
0.0
 40
4.000000000000018
100
AcDbArc
 50
102.2660321886
 51
162.2660321886
  0
ARC
  5
9C
330
1F
100
AcDbEntity
  8
0
  6
Continuous
 62
     7
370
    15
100
AcDbCircle
 10
192.937467514
 20
113.9910333349
 30
0.0
 40
4.000000000000018
100
AcDbArc
 50
42.2660321886
 51
102.2660321886
  0
ARC
  5
9D
330
1F
100
AcDbEntity
  8
0
  6
Continuous
 62
     7
370
    15
100
AcDbCircle
 10
192.937467514
 20
113.9910333349
 30
0.0
 40
4.000000000000012
100
AcDbArc
 50
162.2660321886
 51
222.2660321886
  0
ARC
  5
9E
330
1F
100
AcDbEntity
  8
0
  6
Continuous
 62
     7
370
    15
100
AcDbCircle
 10
192.937467514
 20
113.9910333349
 30
0.0
 40
3.99999999999999
100
AcDbArc
 50
222.2660321886
 51
282.2660321886
  0
SPLINE
  5
9F
330
1F
100
AcDbEntity
  8
0
  6
Continuous
 62
     7
370
    15
100
AcDbSpline
210
0.0
220
0.0
230
1.0
 70
     8
 71
     3
 72
     8
 73
     4
 74
     0
 42
0.000000001
 43
0.00000001
 40
0.0
 40
0.0
 40
0.0
 40
0.0
 40
1.0
 40
1.0
 40
1.0
 40
1.0
 10
154.1774675140074
 20
86.17420687535562
 30
0.0
 10
153.641693883808
 20
85.20814220552528
 30
0.0
 10
153.1042739140042
 20
84.24296735219347
 30
0.0
 10
152.5656308719506
 20
83.27849517859262
 30
0.0
  0
LINE
  5
A0
330
1F
100
AcDbEntity
  8
0
  6
Continuous
 62
     7
370
    15
100
AcDbLine
 10
152.5656309218
 20
83.2784958674
 30
0.0
 11
152.5656309218
 21
132.3410328968
 31
0.0
  0
SPLINE
  5
A1
330
1F
100
AcDbEntity
  8
0
  6
Continuous
 62
     7
370
    15
100
AcDbSpline
210
0.0
220
0.0
230
1.0
 70
    24
 71
     3
 72
     8
 73
     4
 74
     0
 42
0.000000001
 43
0.00000001
 40
0.0
 40
0.0
 40
0.0
 40
0.0
 40
1.0
 40
1.0
 40
1.0
 40
1.0
 10
154.1774675140074
 20
132.3410333348571
 30
0.0
 10
153.6527350256455
 20
132.3410333348571
 30
0.0
 10
153.1140595414267
 20
132.3410333348571
 30
0.0
 10
152.5656308719506
 20
132.3410333348571
 30
0.0
  0
LINE
  5
A2
330
1F
100
AcDbEntity
  8
0
  6
Continuous
 62
     7
370
    15
100
AcDbLine
 10
154.1774671763
 20
86.1742068572
 30
0.0
 11
154.1774671763
 21
132.3410328968
 31
0.0
  0
LINE
  5
A3
330
1F
100
AcDbEntity
  8
0
  6
Continuous
 62
     7
370
    15
100
AcDbLine
 10
152.5656309218
 20
83.2784958674
 30
0.0
 11
149.1874673643
 21
83.2784958674
 31
0.0
  0
ARC
  5
A4
330
1F
100
AcDbEntity
  8
0
  6
Continuous
 62
     7
370
    15
100
AcDbCircle
 10
157.237467514
 20
113.9910333349
 30
0.0
 40
31.74999999999999
100
AcDbArc
 50
254.5651942478
 51
255.31271361
  0
LINE
  5
A5
330
1F
100
AcDbEntity
  8
0
  6
Continuous
 62
     7
370
    15
100
AcDbLine
 10
152.5656309218
 20
132.3410328968
 30
0.0
 11
148.7874675781
 21
132.3410328968
 31
0.0
  0
LINE
  5
A6
330
1F
100
AcDbEntity
  8
0
  6
Continuous
 62
     7
370
    15
100
AcDbLine
 10
163.437466906
 20
83.2784958674
 30
0.0
 11
159.6093045786
 21
83.2784958674
 31
0.0
  0
LINE
  5
A7
330
1F
100
AcDbEntity
  8
0
  6
Continuous
 62
     7
370
    15
100
AcDbLine
 10
159.6093045786
 20
83.2784958674
 30
0.0
 11
159.6093045786
 21
102.0395337163
 31
0.0
  0
SPLINE
  5
A8
330
1F
100
AcDbEntity
  8
0
  6
Continuous
 62
     7
370
    15
100
AcDbSpline
210
0.0
220
0.0
230
1.0
 70
     8
 71
     3
 72
    12
 73
     8
 74
     0
 42
0.000000001
 43
0.00000001
 40
0.0
 40
0.0
 40
0.0
 40
0.0
 40
0.2500000000000008
 40
0.2500000000000008
 40
0.5000000000000017
 40
0.5000000000000017
 40
1.0
 40
1.0
 40
1.0
 40
1.0
 10
159.6093041560641
 20
102.03953353665
 30
0.0
 10
159.7322516498596
 20
102.1974903853451
 30
0.0
 10
159.8257958529685
 20
102.3693237523227
 30
0.0
 10
159.9547352421307
 20
102.7409964619685
 30
0.0
 10
159.9872879995158
 20
102.9341849081597
 30
0.0
 10
159.9878243412497
 20
103.522481446436
 30
0.0
 10
159.8552006842817
 20
103.9144996843247
 30
0.0
 10
159.6093041560641
 20
104.2390132670334
 30
0.0
  0
LINE
  5
A9
330
1F
100
AcDbEntity
  8
0
  6
Continuous
 62
     7
370
    15
100
AcDbLine
 10
159.6093045786
 20
104.239013095
 30
0.0
 11
159.6093045786
 21
132.3410328968
 31
0.0
  0
LINE
  5
AA
330
1F
100
AcDbEntity
  8
0
  6
Continuous
 62
     7
370
    15
100
AcDbLine
 10
163.437466906
 20
132.3410328968
 30
0.0
 11
159.6093045786
 21
132.3410328968
 31
0.0
  0
SPLINE
  5
AB
330
1F
100
AcDbEntity
  8
0
  6
Continuous
 62
     7
370
    15
100
AcDbSpline
210
0.0
220
0.0
230
1.0
 70
     8
 71
     3
 72
    12
 73
     8
 74
     0
 42
0.000000001
 43
0.00000001
 40
0.0
 40
0.0
 40
0.0
 40
0.0
 40
0.5000000000000077
 40
0.5000000000000077
 40
0.7500000000000038
 40
0.7500000000000038
 40
1.0
 40
1.0
 40
1.0
 40
1.0
 10
164.0374675140074
 20
83.89917397057053
 30
0.0
 10
164.0374675140074
 20
83.73958406383849
 30
0.0
 10
163.9763777029577
 20
83.58083544267855
 30
0.0
 10
163.80997586092
 20
83.40569398606446
 30
0.0
 10
163.744004560774
 20
83.35921718478683
 30
0.0
 10
163.5969461067176
 20
83.29514346683762
 30
0.0
 10
163.5171906731379
 20
83.2784951785927
 30
0.0
 10
163.4374675140079
 20
83.27849517859262
 30
0.0
  0
SPLINE
  5
AC
330
1F
100
AcDbEntity
  8
0
  6
Continuous
 62
     7
370
    15
100
AcDbSpline
210
0.0
220
0.0
230
1.0
 70
    24
 71
     3
 72
    12
 73
     8
 74
     0
 42
0.000000001
 43
0.00000001
 40
0.0
 40
0.0
 40
0.0
 40
0.0
 40
0.500000000000004
 40
0.500000000000004
 40
0.750000000000002
 40
0.750000000000002
 40
1.0
 40
1.0
 40
1.0
 40
1.0
 10
164.0374675140074
 20
132.3410333348571
 30
0.0
 10
164.0374675140073
 20
132.3410333348571
 30
0.0
 10
163.9871818468357
 20
132.3410333348571
 30
0.0
 10
163.8320597124604
 20
132.3410333348571
 30
0.0
 10
163.7666024371184
 20
132.3410333348571
 30
0.0
 10
163.6126312134761
 20
132.3410333348571
 30
0.0
 10
163.5254089247603
 20
132.3410333348571
 30
0.0
 10
163.4374675140072
 20
132.3410333348571
 30
0.0
  0
LINE
  5
AD
330
1F
100
AcDbEntity
  8
0
  6
Continuous
 62
     7
370
    15
100
AcDbLine
 10
164.0374677494
 20
83.8991739346
 30
0.0
 11
164.0374677494
 21
132.3410328968
 31
0.0
  0
SPLINE
  5
AE
330
1F
100
AcDbEntity
  8
0
  6
Continuous
 62
     7
370
    15
100
AcDbSpline
210
0.0
220
0.0
230
1.0
 70
     8
 71
     3
 72
    14
 73
    10
 74
     0
 42
0.000000001
 43
0.00000001
 40
0.0
 40
0.0
 40
0.0
 40
0.0
 40
0.25
 40
0.25
 40
0.5
 40
0.5
 40
0.75
 40
0.75
 40
1.0
 40
1.0
 40
1.0
 40
1.0
 10
148.7874675140074
 20
83.3861317666442
 30
0.0
 10
148.7146193392518
 20
83.40624511598182
 30
0.0
 10
148.6451618787679
 20
83.43902302246154
 30
0.0
 10
148.5124745673437
 20
83.5278393966492
 30
0.0
 10
148.4492305949325
 20
83.58445329230044
 30
0.0
 10
148.3379490523299
 20
83.7177615612779
 30
0.0
 10
148.2877741051514
 20
83.79676547937966
 30
0.0
 10
148.2127137356508
 20
83.97667468084845
 30
0.0
 10
148.1874675140074
 20
84.07907193654768
 30
0.0
 10
148.1874675140074
 20
84.18465817785419
 30
0.0
  0
LINE
  5
AF
330
1F
100
AcDbEntity
  8
0
  6
Continuous
 62
     7
370
    15
100
AcDbLine
 10
148.1874674332
 20
84.1846578313
 30
0.0
 11
148.1874674332
 21
132.3410328968
 31
0.0
  0
SPLINE
  5
B0
330
1F
100
AcDbEntity
  8
0
  6
Continuous
 62
     7
370
    15
100
AcDbSpline
210
0.0
220
0.0
230
1.0
 70
    24
 71
     3
 72
    12
 73
     8
 74
     0
 42
0.000000001
 43
0.00000001
 40
0.0
 40
0.0
 40
0.0
 40
0.0
 40
0.2499999999999998
 40
0.2499999999999998
 40
0.4999999999999997
 40
0.4999999999999997
 40
1.0
 40
1.0
 40
1.0
 40
1.0
 10
148.7874675140074
 20
132.3410333348571
 30
0.0
 10
148.6999831443546
 20
132.3410333348571
 30
0.0
 10
148.6126502669339
 20
132.3410333348571
 30
0.0
 10
148.4588138534951
 20
132.3410333348571
 30
0.0
 10
148.3931916845216
 20
132.3410333348571
 30
0.0
 10
148.2377734791792
 20
132.3410333348571
 30
0.0
 10
148.1874675140073
 20
132.3410333348571
 30
0.0
 10
148.1874675140074
 20
132.3410333348571
 30
0.0
  0
SPLINE
  5
B1
330
1F
100
AcDbEntity
  8
0
  6
Continuous
 62
     7
370
    15
100
AcDbSpline
210
0.0
220
0.0
230
1.0
 70
     8
 71
     3
 72
    12
 73
     8
 74
     0
 42
0.000000001
 43
0.00000001
 40
0.0
 40
0.0
 40
0.0
 40
0.0
 40
0.2499999999999997
 40
0.2499999999999997
 40
0.4999999999999993
 40
0.4999999999999993
 40
1.0
 40
1.0
 40
1.0
 40
1.0
 10
159.6093041560641
 20
104.2390132670334
 30
0.0
 10
159.4944081048035
 20
104.4587537020899
 30
0.0
 10
159.3676420883308
 20
104.6557220537117
 30
0.0
 10
159.1074271547122
 20
105.0094396265506
 30
0.0
 10
158.97391969675
 20
105.1662649204228
 30
0.0
 10
158.5655214281618
 20
105.5928074913305
 30
0.0
 10
158.2818682932242
 20
105.8194996702857
 30
0.0
 10
157.9974675140075
 20
105.9897508146812
 30
0.0
  0
LINE
  5
B2
330
1F
100
AcDbEntity
  8
0
  6
Continuous
 62
     7
370
    15
100
AcDbLine
 10
157.9974673927
 20
105.9897505237
 30
0.0
 11
157.9974673927
 21
132.3410328968
 31
0.0
  0
SPLINE
  5
B3
330
1F
100
AcDbEntity
  8
0
  6
Continuous
 62
     7
370
    15
100
AcDbSpline
210
0.0
220
0.0
230
1.0
 70
    24
 71
     3
 72
     8
 73
     4
 74
     0
 42
0.000000001
 43
0.00000001
 40
0.0
 40
0.0
 40
0.0
 40
0.0
 40
1.0
 40
1.0
 40
1.0
 40
1.0
 10
159.6093041560641
 20
132.3410333348571
 30
0.0
 10
159.0608818707891
 20
132.3410333348571
 30
0.0
 10
158.5224097766929
 20
132.3410333348571
 30
0.0
 10
157.9974675140074
 20
132.3410333348571
 30
0.0
  0
SPLINE
  5
B4
330
1F
100
AcDbEntity
  8
0
  6
Continuous
 62
     7
370
    15
100
AcDbSpline
210
0.0
220
0.0
230
1.0
 70
     8
 71
     3
 72
    27
 73
    23
 74
     0
 42
0.000000001
 43
0.00000001
 40
0.0
 40
0.0
 40
0.0
 40
0.0
 40
0.008617834597826
 40
0.0545019135667653
 40
0.0964342581799119
 40
0.1394490240448594
 40
0.184152290952807
 40
0.2298756528867472
 40
0.280483533232203
 40
0.3322596906627479
 40
0.3890401016962826
 40
0.4472843444514918
 40
0.5074320400791529
 40
0.5692854525772951
 40
0.6300610705782095
 40
0.6926450141738842
 40
0.7524628070512449
 40
0.8143096019453234
 40
0.8692122847285819
 40
0.9262868060862112
 40
0.9731496214080229
 40
1.0
 40
1.0
 40
1.0
 40
1.0
 10
202.6702052220991
 20
145.4869658244907
 30
0.0
 10
202.6755990358938
 20
145.4882367088077
 30
0.0
 10
202.7097112214893
 20
145.4962741834677
 30
0.0
 10
202.5531812209585
 20
145.4592308762532
 30
0.0
 10
202.2066500559445
 20
145.3792231642622
 30
0.0
 10
201.6644673245059
 20
145.259156322898
 30
0.0
 10
200.9431412775618
 20
145.1096643517893
 30
0.0
 10
200.0237899000088
 20
144.9361135924573
 30
0.0
 10
198.9144543554904
 20
144.7528752047566
 30
0.0
 10
197.5922131991096
 20
144.5731880310157
 30
0.0
 10
196.0971679871418
 20
144.4219652269521
 30
0.0
 10
194.4469811413119
 20
144.3215828785579
 30
0.0
 10
192.7083364099396
 20
144.2918587886282
 30
0.0
 10
190.9509718340636
 20
144.3423155004679
 30
0.0
 10
189.2268542524029
 20
144.4691542769028
 30
0.0
 10
187.6265058136174
 20
144.6545741832072
 30
0.0
 10
186.1733733020145
 20
144.8773353345705
 30
0.0
 10
184.9817061204063
 20
145.0980770461253
 30
0.0
 10
184.0509463669404
 20
145.2929588811638
 30
0.0
 10
183.4785225241497
 20
145.4225270496908
 30
0.0
 10
183.2017289824486
 20
145.4876527209659
 30
0.0
 10
183.2152137003197
 20
145.4844813886313
 30
0.0
 10
183.2201255724123
 20
145.483326215869
 30
0.0
  0
SPLINE
  5
B5
330
1F
100
AcDbEntity
  8
0
  6
Continuous
 62
     7
370
    15
100
AcDbSpline
210
0.0
220
0.0
230
1.0
 70
    11
 71
     3
 72
    96
 73
    92
 74
     0
 42
0.000000001
 43
0.00000001
 40
0.0
 40
0.0
 40
0.0
 40
0.0
 40
0.0312500000000006
 40
0.0312500000000006
 40
0.046875000000001
 40
0.046875000000001
 40
0.0625000000000015
 40
0.0625000000000015
 40
0.0937500000000023
 40
0.0937500000000023
 40
0.1093750000000026
 40
0.1093750000000026
 40
0.1250000000000028
 40
0.1250000000000028
 40
0.1562500000000029
 40
0.1562500000000029
 40
0.171875000000003
 40
0.171875000000003
 40
0.1875000000000031
 40
0.1875000000000031
 40
0.2187500000000031
 40
0.2187500000000031
 40
0.2343750000000034
 40
0.2343750000000034
 40
0.2500000000000036
 40
0.2500000000000036
 40
0.2812500000000037
 40
0.2812500000000037
 40
0.2968750000000038
 40
0.2968750000000038
 40
0.3125000000000038
 40
0.3125000000000038
 40
0.3437500000000041
 40
0.3437500000000041
 40
0.3593750000000041
 40
0.3593750000000041
 40
0.3750000000000042
 40
0.3750000000000042
 40
0.3906250000000043
 40
0.3906250000000043
 40
0.4062500000000043
 40
0.4062500000000043
 40
0.4375000000000044
 40
0.4375000000000044
 40
0.4531250000000045
 40
0.4531250000000045
 40
0.4687500000000046
 40
0.4687500000000046
 40
0.5000000000000046
 40
0.5000000000000046
 40
0.5312500000000044
 40
0.5312500000000044
 40
0.5468750000000047
 40
0.5468750000000047
 40
0.5625000000000047
 40
0.5625000000000047
 40
0.5937500000000047
 40
0.5937500000000047
 40
0.6250000000000046
 40
0.6250000000000046
 40
0.6562500000000044
 40
0.6562500000000044
 40
0.6875000000000043
 40
0.6875000000000043
 40
0.7187500000000042
 40
0.7187500000000042
 40
0.7500000000000041
 40
0.7500000000000041
 40
0.7656250000000039
 40
0.7656250000000039
 40
0.7812500000000037
 40
0.7812500000000037
 40
0.812500000000003
 40
0.812500000000003
 40
0.8281250000000027
 40
0.8281250000000027
 40
0.8437500000000024
 40
0.8437500000000024
 40
0.875000000000002
 40
0.875000000000002
 40
0.8906250000000018
 40
0.8906250000000018
 40
0.9062500000000014
 40
0.9062500000000014
 40
0.9218750000000012
 40
0.9218750000000012
 40
0.937500000000001
 40
0.937500000000001
 40
0.9687500000000006
 40
0.9687500000000006
 40
1.0
 40
1.0
 40
1.0
 40
1.0
 10
186.4372759634771
 20
120.3589743338313
 30
0.0
 10
186.9100437669608
 20
120.731637338969
 30
0.0
 10
187.4104179439863
 20
121.0542689511305
 30
0.0
 10
188.1989475376926
 20
121.4707328561972
 30
0.0
 10
188.4681739760774
 20
121.5982035805765
 30
0.0
 10
189.0194016766662
 20
121.8306248120998
 30
0.0
 10
189.3026673581352
 20
121.9359638772486
 30
0.0
 10
190.1625354412805
 20
122.2145133007943
 30
0.0
 10
190.74524388012
 20
122.3498809614031
 30
0.0
 10
191.6329843306485
 20
122.4809589156413
 30
0.0
 10
191.9311917850551
 20
122.512574076359
 30
0.0
 10
192.5322736349039
 20
122.5512965050646
 30
0.0
 10
192.8364222792529
 20
122.5583100974793
 30
0.0
 10
193.7405938799319
 20
122.5418131183813
 30
0.0
 10
194.3357319123226
 20
122.4817118816023
 30
0.0
 10
195.2172039902021
 20
122.3190271314679
 30
0.0
 10
195.5091448961183
 20
122.2526360253853
 30
0.0
 10
196.0891642215706
 20
122.0947754239594
 30
0.0
 10
196.3782517725538
 20
122.0028355016368
 30
0.0
 10
197.2235042677534
 20
121.6936284080514
 30
0.0
 10
197.7624420440269
 20
121.4424234865109
 30
0.0
 10
198.5338164064904
 20
120.9964972487956
 30
0.0
 10
198.7847290703792
 20
120.8362584260131
 30
0.0
 10
199.2735461184898
 20
120.4912606856813
 30
0.0
 10
199.5121185367917
 20
120.3057400752254
 30
0.0
 10
200.1918174584879
 20
119.7229962420591
 30
0.0
 10
200.602470592547
 20
119.2967153613712
 30
0.0
 10
201.151403227223
 20
118.5965773093372
 30
0.0
 10
201.3231234629255
 20
118.3530044766091
 30
0.0
 10
201.6422552123146
 20
117.8436745785606
 30
0.0
 10
201.7890149695427
 20
117.5783988814032
 30
0.0
 10
202.1786371197412
 20
116.7706694297915
 30
0.0
 10
202.3760831101945
 20
116.209428826299
 30
0.0
 10
202.5722561338025
 20
115.330730229103
 30
0.0
 10
202.621003363409
 20
115.0291770383079
 30
0.0
 10
202.6808237907747
 20
114.4271219304521
 30
0.0
 10
202.6922601583675
 20
114.1267969008853
 30
0.0
 10
202.6790676315159
 20
113.5275190146799
 30
0.0
 10
202.6544372593278
 20
113.2285662132854
 30
0.0
 10
202.5688119290076
 20
112.6320427036653
 30
0.0
 10
202.5071799538457
 20
112.3326509990061
 30
0.0
 10
202.2721922764877
 20
111.458268065298
 30
0.0
 10
202.0495632716381
 20
110.9020330251367
 30
0.0
 10
201.6229067509901
 20
110.1048186628857
 30
0.0
 10
201.4652537806356
 20
109.846067431715
 30
0.0
 10
201.1268435540346
 20
109.3516994170454
 30
0.0
 10
200.9453200373152
 20
109.1145855855804
 30
0.0
 10
200.3654845830642
 20
108.4318369461648
 30
0.0
 10
199.9276740146308
 20
108.0116188311944
 30
0.0
 10
198.9911912494976
 20
107.2689949271642
 30
0.0
 10
198.4912573383009
 20
106.9436115025739
 30
0.0
 10
197.6954345541032
 20
106.5208106029175
 30
0.0
 10
197.4217902059393
 20
106.3906937093862
 30
0.0
 10
196.8688402248997
 20
106.1565835793104
 30
0.0
 10
196.5884262430561
 20
106.0519323735037
 30
0.0
 10
195.7356703693119
 20
105.773957935649
 30
0.0
 10
195.151907080449
 20
105.6363080206368
 30
0.0
 10
193.9531122248293
 20
105.4576380232992
 30
0.0
 10
193.3514909898882
 20
105.4189035125659
 30
0.0
 10
192.1537810726817
 20
105.4390634329878
 30
0.0
 10
191.5560568260649
 20
105.497706935085
 30
0.0
 10
190.3629714924816
 20
105.7169839078314
 30
0.0
 10
189.7846605273055
 20
105.8745044796118
 30
0.0
 10
188.6643786821917
 20
106.2830921510042
 30
0.0
 10
188.121574555181
 20
106.5344829445725
 30
0.0
 10
187.0771482575959
 20
107.1380793174891
 30
0.0
 10
186.5908156894213
 20
107.4813170629213
 30
0.0
 10
185.9153275484379
 20
108.059753676012
 30
0.0
 10
185.699231360431
 20
108.2632385827593
 30
0.0
 10
185.2860825005971
 20
108.692838194792
 30
0.0
 10
185.0882110881856
 20
108.9199987855344
 30
0.0
 10
184.5311714153125
 20
109.6315659474361
 30
0.0
 10
184.215218072272
 20
110.1358660793362
 30
0.0
 10
183.8274041748518
 20
110.9394763928316
 30
0.0
 10
183.7125949036642
 20
111.2152643568553
 30
0.0
 10
183.5139574583406
 20
111.7838891887882
 30
0.0
 10
183.4300510312238
 20
112.078237830983
 30
0.0
 10
183.2346973449748
 20
112.9611753531359
 30
0.0
 10
183.1756045802275
 20
113.5573386806544
 30
0.0
 10
183.1963177267977
 20
114.463199903736
 30
0.0
 10
183.222047312755
 20
114.7688160253811
 30
0.0
 10
183.3092669572741
 20
115.3671538627656
 30
0.0
 10
183.3705924549735
 20
115.6616172196401
 30
0.0
 10
183.5273374788804
 20
116.2415121292511
 30
0.0
 10
183.6227605113073
 20
116.5269427099517
 30
0.0
 10
183.8475256340119
 20
117.0888556053577
 30
0.0
 10
183.976543576714
 20
117.3639533010952
 30
0.0
 10
184.4035839717779
 20
118.1573827381607
 30
0.0
 10
184.7435648570489
 20
118.6504814262612
 30
0.0
 10
185.5280109785782
 20
119.5699432174277
 30
0.0
 10
185.9645081599934
 20
119.9863113286937
 30
0.0
 10
186.4372759634771
 20
120.3589743338313
 30
0.0
  0
LINE
  5
B6
330
1F
100
AcDbEntity
  8
0
  6
Continuous
 62
     7
370
    15
100
AcDbLine
 10
210.3874644503
 20
113.9910333349
 30
0.0
 11
210.3874644503
 21
82.4910328282
 31
0.0
  0
LINE
  5
B7
330
1F
100
AcDbEntity
  8
0
  6
Continuous
 62
     7
370
    15
100
AcDbLine
 10
210.3874644503
 20
145.4910338415
 30
0.0
 11
210.3874644503
 21
113.9910333349
 31
0.0
  0
LINE
  5
B8
330
1F
100
AcDbEntity
  8
0
  6
Continuous
 62
     7
370
    15
100
AcDbLine
 10
210.9874671564
 20
113.9910333349
 30
0.0
 11
210.9874671564
 21
83.0910336716
 31
0.0
  0
LINE
  5
B9
330
1F
100
AcDbEntity
  8
0
  6
Continuous
 62
     7
370
    15
100
AcDbLine
 10
210.9874671564
 20
144.8910329981
 30
0.0
 11
210.9874671564
 21
113.9910333349
 31
0.0
  0
LINE
  5
BA
330
1F
100
AcDbEntity
  8
0
  6
Continuous
 62
     7
370
    15
100
AcDbLine
 10
179.987467663
 20
113.9910333349
 30
0.0
 11
179.987467663
 21
83.4910329921
 31
0.0
  0
LINE
  5
BB
330
1F
100
AcDbEntity
  8
0
  6
Continuous
 62
     7
370
    15
100
AcDbLine
 10
179.987467663
 20
144.4910336776
 30
0.0
 11
179.987467663
 21
113.9910333349
 31
0.0
  0
SPLINE
  5
BC
330
1F
100
AcDbEntity
  8
0
  6
Continuous
 62
     7
370
    15
100
AcDbSpline
210
0.0
220
0.0
230
1.0
 70
     8
 71
     3
 72
    14
 73
    10
 74
     0
 42
0.000000001
 43
0.00000001
 40
0.0
 40
0.0
 40
0.0
 40
0.0
 40
0.2500000000000005
 40
0.2500000000000005
 40
0.5000000000000003
 40
0.5000000000000003
 40
0.7500000000000001
 40
0.7500000000000001
 40
1.0
 40
1.0
 40
1.0
 40
1.0
 10
157.9974675140074
 20
106.0439944645284
 30
0.0
 10
157.9974675140074
 20
106.0802540542035
 30
0.0
 10
157.9763474265092
 20
106.1168821079919
 30
0.0
 10
157.8938797713605
 20
106.1821598404052
 30
0.0
 10
157.8334484170193
 20
106.2100861517334
 30
0.0
 10
157.6809835508716
 20
106.2442505886278
 30
0.0
 10
157.5904026639209
 20
106.2496300855568
 30
0.0
 10
157.3977607479524
 20
106.2287537758777
 30
0.0
 10
157.2959486053448
 20
106.2024077306692
 30
0.0
 10
157.1974675140072
 20
106.1616656215274
 30
0.0
  0
SPLINE
  5
BD
330
1F
100
AcDbEntity
  8
0
  6
Continuous
 62
     7
370
    15
100
AcDbSpline
210
0.0
220
0.0
230
1.0
 70
     8
 71
     3
 72
    12
 73
     8
 74
     0
 42
0.000000001
 43
0.00000001
 40
0.0
 40
0.0
 40
0.0
 40
0.0
 40
0.499999999999999
 40
0.499999999999999
 40
0.7499999999999994
 40
0.7499999999999994
 40
1.0
 40
1.0
 40
1.0
 40
1.0
 10
157.9974675140074
 20
102.2310273164601
 30
0.0
 10
158.2816740485727
 20
102.0635631541664
 30
0.0
 10
158.5603697826764
 20
101.9519260546548
 30
0.0
 10
158.9697158258657
 20
101.8846127890154
 30
0.0
 10
159.1058551631853
 20
101.8794617490015
 30
0.0
 10
159.3671752121813
 20
101.9172276866209
 30
0.0
 10
159.4925963946131
 20
101.9587774449651
 30
0.0
 10
159.6093041560645
 20
102.0395335366479
 30
0.0
  0
LINE
  5
BE
330
1F
100
AcDbEntity
  8
0
  6
Continuous
 62
     7
370
    15
100
AcDbLine
 10
157.9974673927
 20
102.2852706282
 30
0.0
 11
157.9974673927
 21
102.2310276074
 31
0.0
  0
SPLINE
  5
BF
330
1F
100
AcDbEntity
  8
0
  6
Continuous
 62
     7
370
    15
100
AcDbSpline
210
0.0
220
0.0
230
1.0
 70
     8
 71
     3
 72
    14
 73
    10
 74
     0
 42
0.000000001
 43
0.00000001
 40
0.0
 40
0.0
 40
0.0
 40
0.0
 40
0.25
 40
0.25
 40
0.5
 40
0.5
 40
0.75
 40
0.75
 40
1.0
 40
1.0
 40
1.0
 40
1.0
 10
157.1974675140074
 20
102.7085541447489
 30
0.0
 10
157.2959467876215
 20
102.6697175141371
 30
0.0
 10
157.39724414632
 20
102.6324246860415
 30
0.0
 10
157.5902278465624
 20
102.5610133949666
 30
0.0
 10
157.6813232169767
 20
102.5269136321096
 30
0.0
 10
157.8326157402942
 20
102.4600846588793
 30
0.0
 10
157.8938814633228
 20
102.426665253138
 30
0.0
 10
157.9760650642423
 20
102.3576476468438
 30
0.0
 10
157.9974675140074
 20
102.3218513650025
 30
0.0
 10
157.9974675140074
 20
102.2852709663085
 30
0.0
  0
SPLINE
  5
C0
330
1F
100
AcDbEntity
  8
0
  6
Continuous
 62
     7
370
    15
100
AcDbSpline
210
0.0
220
0.0
230
1.0
 70
     8
 71
     3
 72
    22
 73
    18
 74
     0
 42
0.000000001
 43
0.00000001
 40
0.0
 40
0.0
 40
0.0
 40
0.0
 40
0.125
 40
0.125
 40
0.25
 40
0.25
 40
0.375
 40
0.375
 40
0.5
 40
0.5
 40
0.625
 40
0.625
 40
0.75
 40
0.75
 40
0.875
 40
0.875
 40
1.0
 40
1.0
 40
1.0
 40
1.0
 10
157.1974675140074
 20
106.1616656215262
 30
0.0
 10
157.017450819438
 20
106.0871918345496
 30
0.0
 10
156.8530189975677
 20
105.9897425725655
 30
0.0
 10
156.5546227638091
 20
105.7503731390012
 30
0.0
 10
156.4243190364442
 20
105.6104765269308
 30
0.0
 10
156.2111002528252
 20
105.3022249368705
 30
0.0
 10
156.1274723957138
 20
105.1320617187513
 30
0.0
 10
156.0163415187955
 20
104.7815669839608
 30
0.0
 10
155.9875055239418
 20
104.5964420228095
 30
0.0
 10
155.9874295812822
 20
104.2332351481922
 30
0.0
 10
156.0160882067094
 20
104.0498651344846
 30
0.0
 10
156.1272392998221
 20
103.7039740219913
 30
0.0
 10
156.2103064204661
 20
103.5384544947239
 30
0.0
 10
156.4239923785848
 20
103.2379147573201
 30
0.0
 10
156.5529993685091
 20
103.1040428360361
 30
0.0
 10
156.8526086479987
 20
102.872796066632
 30
0.0
 10
157.0174513462578
 20
102.7795459499732
 30
0.0
 10
157.1974675140074
 20
102.7085541447489
 30
0.0
  0
LINE
  5
C1
330
1F
100
AcDbEntity
  8
0
  6
Continuous
 62
     7
370
    15
100
AcDbLine
 10
157.9974673927
 20
86.1742068572
 30
0.0
 11
157.9974673927
 21
102.2310276074
 31
0.0
  0
SPLINE
  5
C2
330
1F
100
AcDbEntity
  8
0
  6
Continuous
 62
     7
370
    15
100
AcDbSpline
210
0.0
220
0.0
230
1.0
 70
     8
 71
     3
 72
     8
 73
     4
 74
     0
 42
0.000000001
 43
0.00000001
 40
0.0
 40
0.0
 40
0.0
 40
0.0
 40
1.0
 40
1.0
 40
1.0
 40
1.0
 10
159.6093041560641
 20
83.27849517859264
 30
0.0
 10
159.0706611403678
 20
84.2429673049993
 30
0.0
 10
158.5332407718378
 20
85.20814287695157
 30
0.0
 10
157.9974675140074
 20
86.17420687535562
 30
0.0
  0
SPLINE
  5
C3
330
1F
100
AcDbEntity
  8
0
  6
Continuous
 62
     7
370
    15
100
AcDbSpline
210
0.0
220
0.0
230
1.0
 70
    24
 71
     3
 72
    14
 73
    10
 74
     0
 42
0.000000001
 43
0.00000001
 40
0.0
 40
0.0
 40
0.0
 40
0.0
 40
0.25
 40
0.25
 40
0.5
 40
0.5
 40
0.75
 40
0.75
 40
1.0
 40
1.0
 40
1.0
 40
1.0
 10
157.9974675140074
 20
132.3410333348571
 30
0.0
 10
157.9974675140074
 20
132.3410333348571
 30
0.0
 10
157.9815357230819
 20
132.3410333348571
 30
0.0
 10
157.9156108851967
 20
132.3410333348571
 30
0.0
 10
157.8668043124092
 20
132.3410333348571
 30
0.0
 10
157.7315064435649
 20
132.3410333348571
 30
0.0
 10
157.645624272991
 20
132.3410333348571
 30
0.0
 10
157.4398414169925
 20
132.3410333348571
 30
0.0
 10
157.3184397149435
 20
132.3410333348571
 30
0.0
 10
157.1974675140074
 20
132.3410333348571
 30
0.0
  0
SPLINE
  5
C4
330
1F
100
AcDbEntity
  8
0
  6
Continuous
 62
     7
370
    15
100
AcDbSpline
210
0.0
220
0.0
230
1.0
 70
     8
 71
     3
 72
    12
 73
     8
 74
     0
 42
0.000000001
 43
0.00000001
 40
0.0
 40
0.0
 40
0.0
 40
0.0
 40
0.2499999999999978
 40
0.2499999999999978
 40
0.4999999999999957
 40
0.4999999999999957
 40
1.0
 40
1.0
 40
1.0
 40
1.0
 10
154.9774675140074
 20
87.17317547857036
 30
0.0
 10
154.8698809130452
 20
87.17317547857036
 30
0.0
 10
154.7638761590758
 20
87.15053409968327
 30
0.0
 10
154.567251112727
 20
87.06363423508955
 30
0.0
 10
154.479365939505
 20
87.00070201998159
 30
0.0
 10
154.2588133464006
 20
86.76569822142221
 30
0.0
 10
154.1774675140074
 20
86.55248053315134
 30
0.0
 10
154.1774675140074
 20
86.33895384705005
 30
0.0
  0
SPLINE
  5
C5
330
1F
100
AcDbEntity
  8
0
  6
Continuous
 62
     7
370
    15
100
AcDbSpline
210
0.0
220
0.0
230
1.0
 70
    24
 71
     3
 72
    12
 73
     8
 74
     0
 42
0.000000001
 43
0.00000001
 40
0.0
 40
0.0
 40
0.0
 40
0.0
 40
0.2500000000000005
 40
0.2500000000000005
 40
0.500000000000001
 40
0.500000000000001
 40
1.0
 40
1.0
 40
1.0
 40
1.0
 10
154.9774675140074
 20
132.3410333348571
 30
0.0
 10
154.8559897422029
 20
132.3410333348571
 30
0.0
 10
154.7334362705409
 20
132.3410333348571
 30
0.0
 10
154.5293831170026
 20
132.3410333348571
 30
0.0
 10
154.4432240537768
 20
132.3410333348571
 30
0.0
 10
154.2411834870811
 20
132.3410333348571
 30
0.0
 10
154.1774675140074
 20
132.3410333348571
 30
0.0
 10
154.1774675140074
 20
132.3410333348571
 30
0.0
  0
LINE
  5
C6
330
1F
100
AcDbEntity
  8
0
  6
Continuous
 62
     7
370
    15
100
AcDbLine
 10
157.1974678204
 20
87.1731751157
 30
0.0
 11
154.97746768
 21
87.1731751157
 31
0.0
  0
LINE
  5
C7
330
1F
100
AcDbEntity
  8
0
  6
Continuous
 62
     7
370
    15
100
AcDbLine
 10
157.1974678204
 20
132.3410328968
 30
0.0
 11
154.97746768
 21
132.3410328968
 31
0.0
  0
SPLINE
  5
C8
330
1F
100
AcDbEntity
  8
0
  6
Continuous
 62
     7
370
    15
100
AcDbSpline
210
0.0
220
0.0
230
1.0
 70
     8
 71
     3
 72
    14
 73
    10
 74
     0
 42
0.000000001
 43
0.00000001
 40
0.0
 40
0.0
 40
0.0
 40
0.0
 40
0.25
 40
0.25
 40
0.5
 40
0.5
 40
0.75
 40
0.75
 40
1.0
 40
1.0
 40
1.0
 40
1.0
 10
157.9974675140074
 20
86.33895384705002
 30
0.0
 10
157.9974675140074
 20
86.44585659809029
 30
0.0
 10
157.9777007349804
 20
86.55232212920441
 30
0.0
 10
157.8998833678509
 20
86.75229223535582
 30
0.0
 10
157.8430459267591
 20
86.84352069735948
 30
0.0
 10
157.6954217219555
 20
87.00090036094613
 30
0.0
 10
157.6079232661415
 20
87.06349817749532
 30
0.0
 10
157.4111876226234
 20
87.15050741421837
 30
0.0
 10
157.3041815424373
 20
87.1731754785704
 30
0.0
 10
157.1974675140071
 20
87.17317547857037
 30
0.0
  0
SPLINE
  5
C9
330
1F
100
AcDbEntity
  8
0
  6
Continuous
 62
     7
370
    15
100
AcDbSpline
210
0.0
220
0.0
230
1.0
 70
     8
 71
     3
 72
     8
 73
     4
 74
     0
 42
0.000000001
 43
0.00000001
 40
0.0
 40
0.0
 40
0.0
 40
0.0
 40
0.0000694974999696
 40
0.0000694974999696
 40
0.0000694974999696
 40
0.0000694974999696
 10
164.0386776380038
 20
132.3410333348571
 30
0.0
 10
164.0378715281842
 20
132.3641851386857
 30
0.0
 10
164.0374675140074
 20
132.3873544650733
 30
0.0
 10
164.0374675140074
 20
132.4105202983965
 30
0.0
  0
SPLINE
  5
CA
330
1F
100
AcDbEntity
  8
0
  6
Continuous
 62
     7
370
    15
100
AcDbSpline
210
0.0
220
0.0
230
1.0
 70
    24
 71
     3
 72
    18
 73
    14
 74
     0
 42
0.000000001
 43
0.00000001
 40
0.0
 40
0.0
 40
0.0
 40
0.0
 40
0.4999999999999987
 40
0.4999999999999987
 40
0.749999999999998
 40
0.749999999999998
 40
0.8749999999999981
 40
0.8749999999999981
 40
0.9374999999999982
 40
0.9374999999999982
 40
0.9687499999999991
 40
0.9687499999999991
 40
1.0
 40
1.0
 40
1.0
 40
1.0
 10
164.1104279044618
 20
138.7910333348571
 30
0.0
 10
164.1695664280604
 20
138.7910333348571
 30
0.0
 10
164.2583578624224
 20
138.7910333348571
 30
0.0
 10
164.44225813966
 20
138.7910333348571
 30
0.0
 10
164.5114729636022
 20
138.7910333348571
 30
0.0
 10
164.643847937732
 20
138.7910333348571
 30
0.0
 10
164.692278881382
 20
138.7910333348571
 30
0.0
 10
164.7852431185657
 20
138.7910333348571
 30
0.0
 10
164.8195123531472
 20
138.7910333348571
 30
0.0
 10
164.8842491442654
 20
138.7910333348571
 30
0.0
 10
164.9084047972505
 20
138.7910333348571
 30
0.0
 10
164.9658002198939
 20
138.7910333348571
 30
0.0
 10
165.0004616420034
 20
138.7910333348571
 30
0.0
 10
165.0374675140074
 20
138.7910333348571
 30
0.0
  0
SPLINE
  5
CB
330
1F
100
AcDbEntity
  8
0
  6
Continuous
 62
     7
370
    15
100
AcDbSpline
210
0.0
220
0.0
230
1.0
 70
     8
 71
     3
 72
    12
 73
     8
 74
     0
 42
0.000000001
 43
0.00000001
 40
0.0
 40
0.0
 40
0.0
 40
0.0
 40
0.2500000000000012
 40
0.2500000000000012
 40
0.5000000000000024
 40
0.5000000000000024
 40
1.0
 40
1.0
 40
1.0
 40
1.0
 10
165.0374675140074
 20
90.29499825769956
 30
0.0
 10
164.9484501710138
 20
90.29499825769956
 30
0.0
 10
164.8614138389023
 20
90.28395310347503
 30
0.0
 10
164.6911962318982
 20
90.23992567546786
 30
0.0
 10
164.6086390833655
 20
90.20667463570742
 30
0.0
 10
164.3815677315719
 20
90.07711789992557
 30
0.0
 10
164.2542505343594
 20
89.9477175884303
 30
0.0
 10
164.1692739954426
 20
89.79103333485708
 30
0.0
  0
SPLINE
  5
CC
330
1F
100
AcDbEntity
  8
0
  6
Continuous
 62
     7
370
    15
100
AcDbSpline
210
0.0
220
0.0
230
1.0
 70
     8
 71
     3
 72
    13
 73
     9
 74
     0
 42
0.000000001
 43
0.00000001
 40
0.0
 40
0.0
 40
0.0
 40
0.0
 40
0.1708597596604557
 40
0.3457095482211253
 40
0.5349507459031768
 40
0.7300349557396818
 40
0.9130209585365112
 40
1.0
 40
1.0
 40
1.0
 40
1.0
 10
169.0815238520792
 20
89.7910334659873
 30
0.0
 10
169.3876603736327
 20
89.72376035101264
 30
0.0
 10
170.0070825170946
 20
89.58764311526602
 30
0.0
 10
170.7882790452799
 20
89.3813333664795
 30
0.0
 10
171.4397757293102
 20
89.19404044654024
 30
0.0
 10
171.8732231682212
 20
89.059798755145
 30
0.0
 10
172.0845512683784
 20
88.99198553943255
 30
0.0
 10
172.0649355780227
 20
88.9982807155928
 30
0.0
 10
172.0586156711271
 20
89.00030893517122
 30
0.0
  0
SPLINE
  5
CD
330
1F
100
AcDbEntity
  8
0
  6
Continuous
 62
     7
370
    15
100
AcDbSpline
210
0.0
220
0.0
230
1.0
 70
     8
 71
     3
 72
    11
 73
     7
 74
     0
 42
0.000000001
 43
0.00000001
 40
0.0
 40
0.0
 40
0.0
 40
0.0
 40
0.1188040072716459
 40
0.4274545369453316
 40
0.7093441413891832
 40
1.0
 40
1.0
 40
1.0
 40
1.0
 10
164.8693492874792
 20
90.27316984963998
 30
0.0
 10
165.0518793071637
 20
90.26955448784857
 30
0.0
 10
165.708618813134
 20
90.25654648554354
 30
0.0
 10
166.764913488512
 20
90.16017145725228
 30
0.0
 10
168.0144331960016
 20
89.9991952519183
 30
0.0
 10
168.7222146815842
 20
89.86112539135993
 30
0.0
 10
169.0815238520792
 20
89.7910334659873
 30
0.0
  0
LINE
  5
CE
330
1F
100
AcDbEntity
  8
0
  6
Continuous
 62
     7
370
    15
100
AcDbLine
 10
165.0374679134
 20
138.7910340471
 30
0.0
 11
171.443039389
 21
138.7910340471
 31
0.0
  0
SPLINE
  5
CF
330
1F
100
AcDbEntity
  8
0
  6
Continuous
 62
     7
370
    15
100
AcDbSpline
210
0.0
220
0.0
230
1.0
 70
     8
 71
     3
 72
    10
 73
     6
 74
     0
 42
0.000000001
 43
0.00000001
 40
0.0
 40
0.0
 40
0.0
 40
0.0
 40
0.3962846266939921
 40
0.8038560553470675
 40
1.0
 40
1.0
 40
1.0
 40
1.0
 10
171.4430393889835
 20
138.7910340471326
 30
0.0
 10
171.5903391933395
 20
138.8358348417366
 30
0.0
 10
171.8891341293701
 20
138.9267124271915
 30
0.0
 10
172.0811607188609
 20
138.9890630522477
 30
0.0
 10
172.0664765941863
 20
138.9842985017624
 30
0.0
 10
172.0617057994297
 20
138.9827505244075
 30
0.0
  0
LINE
  5
D0
330
1F
100
AcDbEntity
  8
0
  6
Continuous
 62
     7
370
    15
100
AcDbLine
 10
144.987467514
 20
91.7660333706
 30
0.0
 11
144.987467514
 21
136.2160332991
 31
0.0
  0
SPLINE
  5
D1
330
1F
100
AcDbEntity
  8
0
  6
Continuous
 62
     7
370
    15
100
AcDbSpline
210
0.0
220
0.0
230
1.0
 70
     8
 71
     3
 72
     8
 73
     4
 74
     0
 42
0.000000001
 43
0.00000001
 40
0.0
 40
0.0
 40
0.0
 40
0.0
 40
1.0
 40
1.0
 40
1.0
 40
1.0
 10
159.6093041560641
 20
144.7035714911215
 30
0.0
 10
159.0706539842615
 20
143.7390865512841
 30
0.0
 10
158.5332390523834
 20
142.7739206923782
 30
0.0
 10
157.9974675140074
 20
141.8078597943586
 30
0.0
  0
LINE
  5
D2
330
1F
100
AcDbEntity
  8
0
  6
Continuous
 62
     7
370
    15
100
AcDbLine
 10
159.6093045786
 20
139.9012636883
 30
0.0
 11
159.6093045786
 21
144.7035708023
 31
0.0
  0
SPLINE
  5
D3
330
1F
100
AcDbEntity
  8
0
  6
Continuous
 62
     7
370
    15
100
AcDbSpline
210
0.0
220
0.0
230
1.0
 70
     8
 71
     3
 72
     8
 73
     4
 74
     0
 42
0.000000001
 43
0.00000001
 40
0.0
 40
0.0
 40
0.0
 40
0.0
 40
1.0
 40
1.0
 40
1.0
 40
1.0
 10
157.9974675140074
 20
136.3931723907156
 30
0.0
 10
158.5222292649793
 20
137.5680838239812
 30
0.0
 10
159.0607367714201
 20
138.7369678534716
 30
0.0
 10
159.6093041560641
 20
139.9012629749047
 30
0.0
  0
LINE
  5
D4
330
1F
100
AcDbEntity
  8
0
  6
Continuous
 62
     7
370
    15
100
AcDbLine
 10
157.9974673927
 20
136.3931727154
 30
0.0
 11
157.9974673927
 21
141.8078598125
 31
0.0
  0
SPLINE
  5
D5
330
1F
100
AcDbEntity
  8
0
  6
Continuous
 62
     7
370
    15
100
AcDbSpline
210
0.0
220
0.0
230
1.0
 70
     8
 71
     3
 72
    10
 73
     6
 74
     0
 42
0.000000001
 43
0.00000001
 40
0.0
 40
0.0
 40
0.0
 40
0.0
 40
0.5
 40
0.5
 40
1.0
 40
1.0
 40
1.0
 40
1.0
 10
164.0374675140074
 20
144.0828926991437
 30
0.0
 10
164.0374675140074
 20
144.2418713461615
 30
0.0
 10
163.9756697325685
 20
144.4017635918404
 30
0.0
 10
163.7559876287621
 20
144.6334084831205
 30
0.0
 10
163.5964409715218
 20
144.7035714911215
 30
0.0
 10
163.4374675140074
 20
144.7035714911215
 30
0.0
  0
LINE
  5
D6
330
1F
100
AcDbEntity
  8
0
  6
Continuous
 62
     7
370
    15
100
AcDbLine
 10
164.0374677494
 20
139.1624454899
 30
0.0
 11
164.0374677494
 21
144.0828927351
 31
0.0
  0
SPLINE
  5
D7
330
1F
100
AcDbEntity
  8
0
  6
Continuous
 62
     7
370
    15
100
AcDbSpline
210
0.0
220
0.0
230
1.0
 70
     8
 71
     3
 72
    12
 73
     8
 74
     0
 42
0.000000001
 43
0.00000001
 40
0.0
 40
0.0
 40
0.0
 40
0.0
 40
0.2500000000000034
 40
0.2500000000000034
 40
0.5000000000000069
 40
0.5000000000000069
 40
1.0
 40
1.0
 40
1.0
 40
1.0
 10
163.4374675140074
 20
139.9012629749047
 30
0.0
 10
163.525207268574
 20
139.9012629749047
 30
0.0
 10
163.6128418665914
 20
139.8768651667677
 30
0.0
 10
163.7673275494804
 20
139.7889170807904
 30
0.0
 10
163.8318042191274
 20
139.7281131733874
 30
0.0
 10
163.9874794852763
 20
139.5152110312262
 30
0.0
 10
164.0374675140074
 20
139.3371189968962
 30
0.0
 10
164.0374675140074
 20
139.1624456909407
 30
0.0
  0
SPLINE
  5
D8
330
1F
100
AcDbEntity
  8
0
  6
Continuous
 62
     7
370
    15
100
AcDbSpline
210
0.0
220
0.0
230
1.0
 70
     8
 71
     3
 72
     8
 73
     4
 74
     0
 42
0.000000001
 43
0.00000001
 40
0.0
 40
0.0
 40
0.0
 40
0.0
 40
1.0
 40
1.0
 40
1.0
 40
1.0
 10
154.1774675140074
 20
141.8078597943586
 30
0.0
 10
153.641695360119
 20
142.7739218022216
 30
0.0
 10
153.1042805670142
 20
143.7390874049134
 30
0.0
 10
152.5656308719506
 20
144.7035714911215
 30
0.0
  0
LINE
  5
D9
330
1F
100
AcDbEntity
  8
0
  6
Continuous
 62
     7
370
    15
100
AcDbLine
 10
154.1774671763
 20
136.3931727154
 30
0.0
 11
154.1774671763
 21
141.8078598125
 31
0.0
  0
SPLINE
  5
DA
330
1F
100
AcDbEntity
  8
0
  6
Continuous
 62
     7
370
    15
100
AcDbSpline
210
0.0
220
0.0
230
1.0
 70
     8
 71
     3
 72
     8
 73
     4
 74
     0
 42
0.000000001
 43
0.00000001
 40
0.0
 40
0.0
 40
0.0
 40
0.0
 40
1.0
 40
1.0
 40
1.0
 40
1.0
 10
152.5656308719506
 20
139.9012629749047
 30
0.0
 10
153.1146246286964
 20
138.7360629091167
 30
0.0
 10
153.6531989967095
 20
137.5669795021021
 30
0.0
 10
154.1774675140074
 20
136.3931723907156
 30
0.0
  0
LINE
  5
DB
330
1F
100
AcDbEntity
  8
0
  6
Continuous
 62
     7
370
    15
100
AcDbLine
 10
152.5656309218
 20
139.9012636883
 30
0.0
 11
152.5656309218
 21
144.7035708023
 31
0.0
  0
SPLINE
  5
DC
330
1F
100
AcDbEntity
  8
0
  6
Continuous
 62
     7
370
    15
100
AcDbSpline
210
0.0
220
0.0
230
1.0
 70
     8
 71
     3
 72
    12
 73
     8
 74
     0
 42
0.000000001
 43
0.00000001
 40
0.0
 40
0.0
 40
0.0
 40
0.0
 40
0.5
 40
0.5
 40
0.75
 40
0.75
 40
1.0
 40
1.0
 40
1.0
 40
1.0
 10
148.1874675140074
 20
139.1624456909407
 30
0.0
 10
148.1874675140074
 20
139.3389140323237
 30
0.0
 10
148.236699702445
 20
139.5141467624157
 30
0.0
 10
148.3934449794589
 20
139.7285581142833
 30
0.0
 10
148.4594987851093
 20
139.7901781543407
 30
0.0
 10
148.6119771476671
 20
139.8766126004861
 30
0.0
 10
148.6992335365973
 20
139.9012629749047
 30
0.0
 10
148.7874675140074
 20
139.9012629749047
 30
0.0
  0
LINE
  5
DD
330
1F
100
AcDbEntity
  8
0
  6
Continuous
 62
     7
370
    15
100
AcDbLine
 10
148.7874675781
 20
139.9012636883
 30
0.0
 11
152.5656309218
 21
139.9012636883
 31
0.0
  0
SPLINE
  5
DE
330
1F
100
AcDbEntity
  8
0
  6
Continuous
 62
     7
370
    15
100
AcDbSpline
210
0.0
220
0.0
230
1.0
 70
     8
 71
     3
 72
    14
 73
    10
 74
     0
 42
0.000000001
 43
0.00000001
 40
0.0
 40
0.0
 40
0.0
 40
0.0
 40
0.25
 40
0.25
 40
0.5
 40
0.5
 40
0.75
 40
0.75
 40
1.0
 40
1.0
 40
1.0
 40
1.0
 10
154.1774675140074
 20
136.1882741543824
 30
0.0
 10
154.1774675140074
 20
136.0673820962939
 30
0.0
 10
154.1939629864005
 20
135.944916821206
 30
0.0
 10
154.2591950531224
 20
135.7130956776542
 30
0.0
 10
154.3088128875412
 20
135.6001218023468
 30
0.0
 10
154.4434537235449
 20
135.3984163324713
 30
0.0
 10
154.5297755886926
 20
135.3082844853932
 30
0.0
 10
154.7349632417945
 20
135.1786636070125
 30
0.0
 10
154.8549312644096
 20
135.1399694783136
 30
0.0
 10
154.9774675140074
 20
135.1399694783136
 30
0.0
  0
LINE
  5
DF
330
1F
100
AcDbEntity
  8
0
  6
Continuous
 62
     7
370
    15
100
AcDbLine
 10
154.97746768
 20
135.1399701579
 30
0.0
 11
157.1974678204
 21
135.1399701579
 31
0.0
  0
SPLINE
  5
E0
330
1F
100
AcDbEntity
  8
0
  6
Continuous
 62
     7
370
    15
100
AcDbSpline
210
0.0
220
0.0
230
1.0
 70
     8
 71
     3
 72
    14
 73
    10
 74
     0
 42
0.000000001
 43
0.00000001
 40
0.0
 40
0.0
 40
0.0
 40
0.0
 40
0.25
 40
0.25
 40
0.5
 40
0.5
 40
0.75
 40
0.75
 40
1.0
 40
1.0
 40
1.0
 40
1.0
 10
157.1974675140074
 20
135.1399694783136
 30
0.0
 10
157.3183809650349
 20
135.1399694783136
 30
0.0
 10
157.4399333004311
 20
135.1785699075047
 30
0.0
 10
157.6458002237881
 20
135.3087588715226
 30
0.0
 10
157.7317805501731
 20
135.398829029071
 30
0.0
 10
157.8660096544223
 20
135.5999889399946
 30
0.0
 10
157.91576189409
 20
135.7131075983494
 30
0.0
 10
157.9810523796667
 20
135.9452684048101
 30
0.0
 10
157.9974675140074
 20
136.067611764701
 30
0.0
 10
157.9974675140074
 20
136.1882741543824
 30
0.0
  0
LINE
  5
E1
330
1F
100
AcDbEntity
  8
0
  6
Continuous
 62
     7
370
    15
100
AcDbLine
 10
157.9974673927
 20
136.1882742984
 30
0.0
 11
157.9974673927
 21
136.3931727154
 31
0.0
  0
LINE
  5
E2
330
1F
100
AcDbEntity
  8
0
  6
Continuous
 62
     7
370
    15
100
AcDbLine
 10
159.6093045786
 20
139.9012636883
 30
0.0
 11
163.437466906
 21
139.9012636883
 31
0.0
  0
LINE
  5
E3
330
1F
100
AcDbEntity
  8
0
  6
Continuous
 62
     7
370
    15
100
AcDbLine
 10
164.0374677494
 20
139.1624454899
 30
0.0
 11
164.0374677494
 21
132.4105207367
 31
0.0
  0
LINE
  5
E4
330
1F
100
AcDbEntity
  8
0
  6
Continuous
 62
     7
370
    15
100
AcDbLine
 10
154.1774671763
 20
136.3931727154
 30
0.0
 11
154.1774671763
 21
136.1882742984
 31
0.0
  0
LINE
  5
E5
330
1F
100
AcDbEntity
  8
0
  6
Continuous
 62
     7
370
    15
100
AcDbLine
 10
148.1874674332
 20
139.1624454899
 30
0.0
 11
148.1874674332
 21
132.3410328968
 31
0.0
  0
SPLINE
  5
E6
330
1F
100
AcDbEntity
  8
0
  6
Continuous
 62
     7
370
    15
100
AcDbSpline
210
0.0
220
0.0
230
1.0
 70
     8
 71
     3
 72
    14
 73
    10
 74
     0
 42
0.000000001
 43
0.00000001
 40
0.0
 40
0.0
 40
0.0
 40
0.0
 40
0.25
 40
0.25
 40
0.5
 40
0.5
 40
0.75
 40
0.75
 40
1.0
 40
1.0
 40
1.0
 40
1.0
 10
157.9974675140074
 20
141.6431128226641
 30
0.0
 10
157.9974675140074
 20
141.5357543358468
 30
0.0
 10
157.9774661987229
 20
141.429005422661
 30
0.0
 10
157.8998301081606
 20
141.2297744994893
 30
0.0
 10
157.8418497287855
 20
141.1371687826935
 30
0.0
 10
157.6958817274941
 20
140.9817591717735
 30
0.0
 10
157.6065426030441
 20
140.917892249603
 30
0.0
 10
157.4117597921246
 20
140.8318782028944
 30
0.0
 10
157.3041813980976
 20
140.8088911911436
 30
0.0
 10
157.1974675140058
 20
140.8088911911438
 30
0.0
  0
LINE
  5
E7
330
1F
100
AcDbEntity
  8
0
  6
Continuous
 62
     7
370
    15
100
AcDbLine
 10
157.1974678204
 20
140.808891554
 30
0.0
 11
154.97746768
 21
140.808891554
 31
0.0
  0
LINE
  5
E8
330
1F
100
AcDbEntity
  8
0
  6
Continuous
 62
     7
370
    15
100
AcDbLine
 10
163.437466906
 20
144.7035708023
 30
0.0
 11
159.6093045786
 21
144.7035708023
 31
0.0
  0
ARC
  5
E9
330
1F
100
AcDbEntity
  8
0
  6
Continuous
 62
     7
370
    15
100
AcDbCircle
 10
157.237467514
 20
113.9910333349
 30
0.0
 40
31.75
100
AcDbArc
 50
104.68728639
 51
105.4348057522
  0
LINE
  5
EA
330
1F
100
AcDbEntity
  8
0
  6
Continuous
 62
     7
370
    15
100
AcDbLine
 10
152.5656309218
 20
144.7035708023
 30
0.0
 11
149.1874673643
 21
144.7035708023
 31
0.0
  0
SPLINE
  5
EB
330
1F
100
AcDbEntity
  8
0
  6
Continuous
 62
     7
370
    15
100
AcDbSpline
210
0.0
220
0.0
230
1.0
 70
     8
 71
     3
 72
    14
 73
    10
 74
     0
 42
0.000000001
 43
0.00000001
 40
0.0
 40
0.0
 40
0.0
 40
0.0
 40
0.25
 40
0.25
 40
0.5
 40
0.5
 40
0.75
 40
0.75
 40
1.0
 40
1.0
 40
1.0
 40
1.0
 10
148.7874675140074
 20
144.59593490307
 30
0.0
 10
148.7146193392518
 20
144.5758215537324
 30
0.0
 10
148.6451618787679
 20
144.5430436472526
 30
0.0
 10
148.5124745673437
 20
144.454227273065
 30
0.0
 10
148.4492305949325
 20
144.3976133774137
 30
0.0
 10
148.3379490523299
 20
144.2643051084363
 30
0.0
 10
148.2877741051514
 20
144.1853011903345
 30
0.0
 10
148.2127137356508
 20
144.0053919888657
 30
0.0
 10
148.1874675140074
 20
143.9029947331665
 30
0.0
 10
148.1874675140074
 20
143.79740849186
 30
0.0
  0
LINE
  5
EC
330
1F
100
AcDbEntity
  8
0
  6
Continuous
 62
     7
370
    15
100
AcDbLine
 10
148.1874674332
 20
139.1624454899
 30
0.0
 11
148.1874674332
 21
143.7974088384
 31
0.0
  0
SPLINE
  5
ED
330
1F
100
AcDbEntity
  8
0
  6
Continuous
 62
     7
370
    15
100
AcDbSpline
210
0.0
220
0.0
230
1.0
 70
     8
 71
     3
 72
    12
 73
     8
 74
     0
 42
0.000000001
 43
0.00000001
 40
0.0
 40
0.0
 40
0.0
 40
0.0
 40
0.25
 40
0.25
 40
0.5
 40
0.5
 40
1.0
 40
1.0
 40
1.0
 40
1.0
 10
154.9774675140074
 20
140.8088911911438
 30
0.0
 10
154.8709893015294
 20
140.8088911911438
 30
0.0
 10
154.7639833530708
 20
140.8315403887534
 30
0.0
 10
154.5678167339786
 20
140.9181274493256
 30
0.0
 10
154.4793480484237
 20
140.9813718977123
 30
0.0
 10
154.2587224349408
 20
141.2164889574454
 30
0.0
 10
154.1774675140074
 20
141.4302567895376
 30
0.0
 10
154.1774675140074
 20
141.6431128226641
 30
0.0
  0
LINE
  5
EE
330
1F
100
AcDbEntity
  8
0
  6
Continuous
 62
     7
370
    15
100
AcDbLine
 10
76.7374670372
 20
102.583902937
 30
0.0
 11
76.7374670372
 21
125.3981637327
 31
0.0
  0
ARC
  5
EF
330
1F
100
AcDbEntity
  8
0
  6
Continuous
 62
     7
370
    15
100
AcDbCircle
 10
157.8699048962
 20
104.7538555099
 30
0.0
 40
1.884756765251835
100
AcDbArc
 50
185.3552650137
 51
252.5089112621
  0
ARC
  5
F0
330
1F
100
AcDbEntity
  8
0
  6
Continuous
 62
     7
370
    15
100
AcDbCircle
 10
157.99555485
 20
104.8714779795
 30
0.0
 40
2.036459202653572
100
AcDbArc
 50
250.131157404
 51
332.1532375407
  0
ARC
  5
F1
330
1F
100
AcDbEntity
  8
0
  6
Continuous
 62
     7
370
    15
100
AcDbCircle
 10
157.8524430595
 20
104.692370618
 30
0.0
 40
1.759047719150941
100
AcDbArc
 50
161.3320521925
 51
252.9823489314
  0
ARC
  5
F2
330
1F
100
AcDbEntity
  8
0
  6
Continuous
 62
     7
370
    15
100
AcDbCircle
 10
157.9973336779
 20
104.8197283195
 30
0.0
 40
1.925898184858421
100
AcDbArc
 50
249.9680640539
 51
335.5837713922
  0
ARC
  5
F3
330
1F
100
AcDbEntity
  8
0
  6
Continuous
 62
     7
370
    15
100
AcDbCircle
 10
157.9129801598
 20
104.6961008893
 30
0.0
 40
1.402856254145512
100
AcDbArc
 50
87.4584475857
 51
251.783593073
  0
ARC
  5
F4
330
1F
100
AcDbEntity
  8
0
  6
Continuous
 62
     7
370
    15
100
AcDbCircle
 10
158.0013011151
 20
104.7640728754
 30
0.0
 40
1.496343349066516
100
AcDbArc
 50
249.3841424024
 51
349.7213275154
  0
CIRCLE
  5
F5
330
1F
100
AcDbEntity
  8
0
  6
HIDDEN
 62
     7
370
     0
100
AcDbCircle
 10
192.937467514
 20
113.9910333349
 30
0.0
 40
7.999999999999988
  0
LINE
  5
F6
330
1F
100
AcDbEntity
  8
0
  6
HIDDEN
 62
     7
370
     0
100
AcDbLine
 10
184.9374657736
 20
142.7532416327
 30
0.0
 11
200.9374683962
 21
142.7532416327
 31
0.0
  0
LINE
  5
F7
330
1F
100
AcDbEntity
  8
0
  6
HIDDEN
 62
     7
370
     0
100
AcDbLine
 10
185.9374678001
 20
143.7532417966
 30
0.0
 11
199.9374663696
 21
143.7532417966
 31
0.0
  0
LINE
  5
F8
330
1F
100
AcDbEntity
  8
0
  6
HIDDEN
 62
     7
370
     0
100
AcDbLine
 10
184.9374657736
 20
132.5833686186
 30
0.0
 11
200.9374683962
 21
132.5833686186
 31
0.0
  0
LINE
  5
F9
330
1F
100
AcDbEntity
  8
0
  6
HIDDEN
 62
     7
370
     0
100
AcDbLine
 10
187.8211310372
 20
123.2532412304
 30
0.0
 11
198.0538031325
 21
123.2532412304
 31
0.0
  0
SPLINE
  5
FA
330
1F
100
AcDbEntity
  8
0
  6
HIDDEN
 62
     7
370
     0
100
AcDbSpline
210
0.0
220
0.0
230
1.0
 70
     8
 71
     3
 72
    11
 73
     7
 74
     0
 42
0.000000001
 43
0.00000001
 40
0.0
 40
0.0
 40
0.0
 40
0.0
 40
0.2164567479655699
 40
0.4403141425618789
 40
0.7519029076061777
 40
1.0
 40
1.0
 40
1.0
 40
1.0
 10
188.5458154842546
 20
143.6720435066281
 30
0.0
 10
188.6113622238968
 20
143.5271653241063
 30
0.0
 10
188.7446967433078
 20
143.2324555804157
 30
0.0
 10
188.9921226933521
 20
142.9868167983925
 30
0.0
 10
189.2575362151395
 20
143.1349222443556
 30
0.0
 10
189.4273820671981
 20
143.5070756480463
 30
0.0
 10
189.5026711985758
 20
143.6720435066281
 30
0.0
  0
SPLINE
  5
FB
330
1F
100
AcDbEntity
  8
0
  6
HIDDEN
 62
     7
370
     0
100
AcDbSpline
210
0.0
220
0.0
230
1.0
 70
     8
 71
     3
 72
    11
 73
     7
 74
     0
 42
0.000000001
 43
0.00000001
 40
0.0
 40
0.0
 40
0.0
 40
0.0
 40
0.2164567095956104
 40
0.4403137872187298
 40
0.7519032776054925
 40
1.0
 40
1.0
 40
1.0
 40
1.0
 10
189.5026711985758
 20
143.6720435066281
 30
0.0
 10
189.8035053164165
 20
143.5271653234818
 30
0.0
 10
190.4154586718867
 20
143.2324557641167
 30
0.0
 10
191.5510777420017
 20
142.9868166665049
 30
0.0
 10
192.7692269466521
 20
143.134921432463
 30
0.0
 10
193.5487662564097
 20
143.5070756417189
 30
0.0
 10
193.8943190738848
 20
143.6720435066281
 30
0.0
  0
SPLINE
  5
FC
330
1F
100
AcDbEntity
  8
0
  6
HIDDEN
 62
     7
370
     0
100
AcDbSpline
210
0.0
220
0.0
230
1.0
 70
     8
 71
     3
 72
    13
 73
     9
 74
     0
 42
0.000000001
 43
0.00000001
 40
0.0
 40
0.0
 40
0.0
 40
0.0
 40
0.1840191031744938
 40
0.3511655582168767
 40
0.5179851302925798
 40
0.6927579239923887
 40
0.8679667977822805
 40
1.0
 40
1.0
 40
1.0
 40
1.0
 10
193.8943190738848
 20
143.6720435066281
 30
0.0
 10
194.0940173356905
 20
143.547139678027
 30
0.0
 10
194.4751035945202
 20
143.3087844098103
 30
0.0
 10
195.0767787401758
 20
143.0956309588606
 30
0.0
 10
195.6863128323275
 20
143.0237565256252
 30
0.0
 10
196.302511469198
 20
143.136633330563
 30
0.0
 10
196.8545267352099
 20
143.3695355825974
 30
0.0
 10
197.1864703324875
 20
143.581118540244
 30
0.0
 10
197.3291186854532
 20
143.6720435066281
 30
0.0
  0
SPLINE
  5
FD
330
1F
100
AcDbEntity
  8
0
  6
HIDDEN
 62
     7
370
     0
100
AcDbSpline
210
0.0
220
0.0
230
1.0
 70
     8
 71
     3
 72
    11
 73
     7
 74
     0
 42
0.000000001
 43
0.00000001
 40
0.0
 40
0.0
 40
0.0
 40
0.0
 40
0.2164567824623498
 40
0.4403142127348821
 40
0.7519028680668661
 40
1.0
 40
1.0
 40
1.0
 40
1.0
 10
197.3291186854532
 20
143.6720435066281
 30
0.0
 10
197.2635720084733
 20
143.527165326984
 30
0.0
 10
197.1302376165291
 20
143.2324555891473
 30
0.0
 10
196.8828106082579
 20
142.9868168081816
 30
0.0
 10
196.6174026072293
 20
143.1349223547058
 30
0.0
 10
196.4475561274806
 20
143.5070756493914
 30
0.0
 10
196.3722666964224
 20
143.6720435066281
 30
0.0
  0
SPLINE
  5
FE
330
1F
100
AcDbEntity
  8
0
  6
HIDDEN
 62
     7
370
     0
100
AcDbSpline
210
0.0
220
0.0
230
1.0
 70
     8
 71
     3
 72
    11
 73
     7
 74
     0
 42
0.000000001
 43
0.00000001
 40
0.0
 40
0.0
 40
0.0
 40
0.0
 40
0.2164565637201557
 40
0.4403142123154001
 40
0.751902761254954
 40
1.0
 40
1.0
 40
1.0
 40
1.0
 10
196.3722666964224
 20
143.6720435066281
 30
0.0
 10
196.0714326328539
 20
143.5271652998747
 30
0.0
 10
195.4594783845686
 20
143.2324552093515
 30
0.0
 10
194.3238582184753
 20
142.9868169556516
 30
0.0
 10
193.10570933258
 20
143.1349224873612
 30
0.0
 10
192.3261692413479
 20
143.5070756410107
 30
0.0
 10
191.9806150958231
 20
143.6720435066281
 30
0.0
  0
SPLINE
  5
FF
330
1F
100
AcDbEntity
  8
0
  6
HIDDEN
 62
     7
370
     0
100
AcDbSpline
210
0.0
220
0.0
230
1.0
 70
     8
 71
     3
 72
    13
 73
     9
 74
     0
 42
0.000000001
 43
0.00000001
 40
0.0
 40
0.0
 40
0.0
 40
0.0
 40
0.1320326157660055
 40
0.3072420799503364
 40
0.4820148370753647
 40
0.6488344048217074
 40
0.8159808867565527
 40
1.0
 40
1.0
 40
1.0
 40
1.0
 10
191.9806150958231
 20
143.6720435066281
 30
0.0
 10
191.8379682379263
 20
143.5811184227695
 30
0.0
 10
191.506026641039
 20
143.3695342492506
 30
0.0
 10
190.9540078236768
 20
143.1366339847473
 30
0.0
 10
190.3378093884189
 20
143.0237563882164
 30
0.0
 10
189.7282750327962
 20
143.0956310135341
 30
0.0
 10
189.1266000644474
 20
143.3087843805558
 30
0.0
 10
188.7455137599167
 20
143.5471396721099
 30
0.0
 10
188.5458154842546
 20
143.6720435066281
 30
0.0
  0
LINE
  5
100
330
1F
100
AcDbEntity
  8
0
  6
HIDDEN
 62
     7
370
     0
100
AcDbLine
 10
188.9374664292
 20
132.7532418562
 30
0.0
 11
196.9374677405
 21
132.7532418562
 31
0.0
  0
LINE
  5
101
330
1F
100
AcDbEntity
  8
0
  6
HIDDEN
 62
     7
370
     0
100
AcDbLine
 10
193.8943190739
 20
133.7532420201
 30
0.0
 11
191.6984951362
 21
133.7532420201
 31
0.0
  0
LINE
  5
102
330
1F
100
AcDbEntity
  8
0
  6
HIDDEN
 62
     7
370
     0
100
AcDbLine
 10
191.6984951362
 20
133.7532420201
 30
0.0
 11
189.5026711986
 21
133.7532420201
 31
0.0
  0
LINE
  5
103
330
1F
100
AcDbEntity
  8
0
  6
HIDDEN
 62
     7
370
     0
100
AcDbLine
 10
195.6117188797
 20
133.7532420201
 30
0.0
 11
193.8943190739
 21
133.7532420201
 31
0.0
  0
LINE
  5
104
330
1F
100
AcDbEntity
  8
0
  6
HIDDEN
 62
     7
370
     0
100
AcDbLine
 10
193.8943190739
 20
133.7532420201
 30
0.0
 11
193.8943190739
 21
143.6720435066
 31
0.0
  0
LINE
  5
105
330
1F
100
AcDbEntity
  8
0
  6
HIDDEN
 62
     7
370
     0
100
AcDbLine
 10
189.5026711986
 20
133.7532420201
 30
0.0
 11
189.0242433414
 21
133.7532420201
 31
0.0
  0
LINE
  5
106
330
1F
100
AcDbEntity
  8
0
  6
HIDDEN
 62
     7
370
     0
100
AcDbLine
 10
189.5026711986
 20
133.7532420201
 30
0.0
 11
189.5026711986
 21
143.6720435066
 31
0.0
  0
LINE
  5
107
330
1F
100
AcDbEntity
  8
0
  6
HIDDEN
 62
     7
370
     0
100
AcDbLine
 10
197.3291186855
 20
133.7532420201
 30
0.0
 11
195.6117188797
 21
133.7532420201
 31
0.0
  0
LINE
  5
108
330
1F
100
AcDbEntity
  8
0
  6
HIDDEN
 62
     7
370
     0
100
AcDbLine
 10
196.3722666964
 20
133.7532420201
 30
0.0
 11
196.3722666964
 21
143.6720435066
 31
0.0
  0
LINE
  5
109
330
1F
100
AcDbEntity
  8
0
  6
HIDDEN
 62
     7
370
     0
100
AcDbLine
 10
197.3291186855
 20
133.7532420201
 30
0.0
 11
197.3291186855
 21
143.6720435066
 31
0.0
  0
LINE
  5
10A
330
1F
100
AcDbEntity
  8
0
  6
HIDDEN
 62
     7
370
     0
100
AcDbLine
 10
189.0242433414
 20
133.7532420201
 30
0.0
 11
188.5458154843
 21
133.7532420201
 31
0.0
  0
LINE
  5
10B
330
1F
100
AcDbEntity
  8
0
  6
HIDDEN
 62
     7
370
     0
100
AcDbLine
 10
191.9806150958
 20
133.7532420201
 30
0.0
 11
191.9806150958
 21
143.6720435066
 31
0.0
  0
LINE
  5
10C
330
1F
100
AcDbEntity
  8
0
  6
HIDDEN
 62
     7
370
     0
100
AcDbLine
 10
188.5458154843
 20
133.7532420201
 30
0.0
 11
188.5458154843
 21
143.6720435066
 31
0.0
  0
LINE
  5
10D
330
1F
100
AcDbEntity
  8
0
  6
HIDDEN
 62
     7
370
     0
100
AcDbLine
 10
186.4372750983
 20
144.84065776
 30
0.0
 11
187.0606875286
 21
144.7495706869
 31
0.0
  0
CIRCLE
  5
10E
330
1F
100
AcDbEntity
  8
0
  6
HIDDEN
 62
     7
370
     0
100
AcDbCircle
 10
192.937467514
 20
113.9910333349
 30
0.0
 40
7.25
  0
SPLINE
  5
10F
330
1F
100
AcDbEntity
  8
0
  6
HIDDEN
 62
     7
370
     0
100
AcDbSpline
210
0.0
220
0.0
230
1.0
 70
     8
 71
     3
 72
     9
 73
     5
 74
     0
 42
0.000000001
 43
0.00000001
 40
0.0
 40
0.0
 40
0.0
 40
0.0
 40
0.9333113421934416
 40
1.0
 40
1.0
 40
1.0
 40
1.0
 10
156.0115766018918
 20
106.2444942562042
 30
0.0
 10
155.997000783343
 20
106.1435241681446
 30
0.0
 10
155.9813834669237
 20
106.0353393818948
 30
0.0
 10
155.9884133218069
 20
105.9428568849199
 30
0.0
 10
155.9888821333936
 20
105.9366893513261
 30
0.0
  0
LWPOLYLINE
  5
110
330
1F
100
AcDbEntity
  8
0
  6
HIDDEN
 62
     7
370
     0
100
AcDbPolyline
 90
       21
 70
   128
 43
0.0
 10
156.0115766019
 20
105.662625332
 10
156.1901064828
 20
105.1292550309
 10
156.527722092
 20
104.6688436089
 10
156.9945419446
 20
104.3221448107
 10
157.5492469833
 20
104.1198438523
 10
158.1427388132
 20
104.0798472731
 10
158.7224880472
 20
104.2056950299
 10
159.2371788115
 20
104.4862485049
 10
159.6412573248
 20
104.896674913
 10
159.8989561439
 20
105.4006480171
 10
159.9874671787
 20
105.9535602598
 10
159.8989561439
 20
106.5064715712
 10
159.6412573248
 20
107.0104446752
 10
159.2371788115
 20
107.4208715489
 10
158.7224880472
 20
107.7014250239
 10
158.1427388132
 20
107.8272727808
 10
157.5492469833
 20
107.7872762015
 10
156.9945419446
 20
107.5849757088
 10
156.527722092
 20
107.2382764449
 10
156.1901064828
 20
106.7778654887
 10
156.0115766019
 20
106.2444942562
  0
LWPOLYLINE
  5
111
330
1F
100
AcDbEntity
  8
0
  6
HIDDEN
 62
     7
370
     0
100
AcDbPolyline
 90
       23
 70
   128
 43
0.0
 10
148.4376791172
 20
105.0928487001
 10
148.5813947633
 20
104.512706448
 10
148.8069820456
 20
103.9795643209
 10
149.09616469
 20
103.5366133345
 10
149.425515277
 20
103.2197392104
 10
149.7683518805
 20
103.0546138553
 10
150.0968996674
 20
103.0546138553
 10
150.3845414385
 20
103.2197392104
 10
150.6079745718
 20
103.5366133345
 10
150.7490978815
 20
103.9795643209
 10
150.7964779862
 20
104.512706448
 10
150.7462769054
 20
105.0928487001
 10
150.6025612593
 20
105.6729909523
 10
150.376973977
 20
106.206133545
 10
150.0877913326
 20
106.6490845313
 10
149.7584407457
 20
106.9659581898
 10
149.4156041421
 20
107.1310840106
 10
149.0870563552
 20
107.1310840106
 10
148.7994143512
 20
106.9659581898
 10
148.575981218
 20
106.6490845313
 10
148.4348581411
 20
106.206133545
 10
148.3874778036
 20
105.6729909523
 10
148.4376791172
 20
105.0928487001
  0
LWPOLYLINE
  5
112
330
1F
100
AcDbEntity
  8
0
  6
HIDDEN
 62
     7
370
     0
100
AcDbPolyline
 90
       21
 70
   128
 43
0.0
 10
148.8191949442
 20
105.1249793289
 10
148.9471437648
 20
104.6250090493
 10
149.1513464839
 20
104.1739788396
 10
149.4118145906
 20
103.8160399092
 10
149.7030512668
 20
103.5862286134
 10
149.996548263
 20
103.5070410488
 10
150.2635766059
 20
103.5862286134
 10
150.4779968649
 20
103.8160399092
 10
150.6188207545
 20
104.1739788396
 10
150.6722633034
 20
104.6250090493
 10
150.6330932729
 20
105.1249793289
 10
150.5051444523
 20
105.6249505399
 10
150.3009417333
 20
106.0759798182
 10
150.0404740922
 20
106.4339196799
 10
149.749237416
 20
106.6637309758
 10
149.4557399541
 20
106.7429185404
 10
149.1887120769
 20
106.6637309758
 10
148.9742913522
 20
106.4339196799
 10
148.8334674627
 20
106.0759798182
 10
148.7800249137
 20
105.6249505399
 10
148.8191949442
 20
105.1249793289
  0
ELLIPSE
  5
113
330
1F
100
AcDbEntity
  8
0
  6
HIDDEN
 62
     7
370
     0
100
AcDbEllipse
 10
157.987467514
 20
107.1034432743
 30
0.0
 11
1.383467579512086
 21
-1.091267719176585
 31
0.0
210
0.0
220
0.0
230
1.0
 40
0.8239737799
 41
2.147131942757446
 42
5.288724596347253
  0
ELLIPSE
  5
114
330
1F
100
AcDbEntity
  8
0
  6
HIDDEN
 62
     7
370
     0
100
AcDbEllipse
 10
157.987467514
 20
107.1034432743
 30
0.0
 11
1.383467579512086
 21
1.753907414218489
 31
0.0
210
0.0
220
0.0
230
1.0
 40
0.5126701559
 41
0.9944607108323444
 42
4.13605336442215
  0
SPLINE
  5
115
330
1F
100
AcDbEntity
  8
0
  6
HIDDEN
 62
     7
370
     0
100
AcDbSpline
210
0.0
220
0.0
230
1.0
 70
     8
 71
     3
 72
    14
 73
    10
 74
     0
 42
0.000000001
 43
0.00000001
 40
0.0
 40
0.0
 40
0.0
 40
0.0
 40
0.25
 40
0.25
 40
0.5
 40
0.5
 40
0.75
 40
0.75
 40
1.0
 40
1.0
 40
1.0
 40
1.0
 10
156.011576751367
 20
105.6626257680192
 30
0.0
 10
156.0479405793972
 20
105.7081204034211
 30
0.0
 10
156.0804183066074
 20
105.7565122096373
 30
0.0
 10
156.1291719360232
 20
105.8619973535669
 30
0.0
 10
156.1440757136977
 20
105.9185818618099
 30
0.0
 10
156.1440861473553
 20
106.0274694557603
 30
0.0
 10
156.1291958515472
 20
106.079654121523
 30
0.0
 10
156.0803069206696
 20
106.1709315204665
 30
0.0
 10
156.0479347423991
 20
106.2095982258407
 30
0.0
 10
156.011576751367
 20
106.2444941653885
 30
0.0
  0
LINE
  5
116
330
1F
100
AcDbEntity
  8
0
  6
HIDDEN
 62
     7
370
     0
100
AcDbLine
 10
164.0374677494
 20
90.2949981881
 30
0.0
 11
164.8693492875
 21
90.2731698496
 31
0.0
  0
LINE
  5
117
330
1F
100
AcDbEntity
  8
0
  6
HIDDEN
 62
     7
370
     0
100
AcDbLine
 10
165.0374679134
 20
90.2949981881
 30
0.0
 11
164.0374677494
 21
90.2949981881
 31
0.0
  0
LWPOLYLINE
  5
118
330
1F
100
AcDbEntity
  8
0
  6
HIDDEN
 62
     7
370
     0
100
AcDbPolyline
 90
       21
 70
   128
 43
0.0
 10
157.9874677822
 20
104.4466365619
 10
158.4973454714
 20
104.5225235192
 10
158.9573135838
 20
104.7427542998
 10
159.3223454669
 20
105.0857725112
 10
159.5567109302
 20
105.5180011807
 10
159.6374677733
 20
105.9971293925
 10
159.5567109302
 20
106.4762585355
 10
159.3223454669
 20
106.9084867394
 10
158.9573135838
 20
107.2515049508
 10
158.4973454714
 20
107.471736197
 10
157.9874677822
 20
107.5476226887
 10
157.4775891617
 20
107.471736197
 10
157.0176219806
 20
107.2515049508
 10
156.6525891662
 20
106.9084867394
 10
156.4182246343
 20
106.4762585355
 10
156.3374677912
 20
105.9971293925
 10
156.4182246343
 20
105.5180011807
 10
156.6525891662
 20
105.0857725112
 10
157.0176219806
 20
104.7427542998
 10
157.4775891617
 20
104.5225235192
 10
157.9874677822
 20
104.4466365619
  0
ELLIPSE
  5
119
330
1F
100
AcDbEntity
  8
0
  6
HIDDEN
 62
     7
370
     0
100
AcDbEllipse
 10
157.987467514
 20
107.1034432743
 30
0.0
 11
1.383467579512086
 21
-1.091267719176585
 31
0.0
210
0.0
220
0.0
230
1.0
 40
0.8239737799
 41
5.288724596347247
 42
5.331125843563867
  0
SPLINE
  5
11A
330
1F
100
AcDbEntity
  8
0
  6
HIDDEN
 62
     7
370
     0
100
AcDbSpline
210
0.0
220
0.0
230
1.0
 70
     8
 71
     3
 72
     8
 73
     4
 74
     0
 42
0.000000001
 43
0.00000001
 40
0.0
 40
0.0
 40
0.0
 40
0.0
 40
1.0
 40
1.0
 40
1.0
 40
1.0
 10
158.0574086100929
 20
105.5418914085171
 30
0.0
 10
158.040423884037
 20
105.5490071185495
 30
0.0
 10
158.0234197395422
 20
105.5568822480497
 30
0.0
 10
158.0064208555091
 20
105.5655053674784
 30
0.0
  0
ELLIPSE
  5
11B
330
1F
100
AcDbEntity
  8
0
  6
HIDDEN
 62
     7
370
     0
100
AcDbEllipse
 10
157.987467514
 20
107.1034432743
 30
0.0
 11
1.383467579512086
 21
1.753907414218489
 31
0.0
210
0.0
220
0.0
230
1.0
 40
0.5126701559
 41
4.13605336442216
 42
4.147540490629202
  0
ELLIPSE
  5
11C
330
1F
100
AcDbEntity
  8
0
  6
HIDDEN
 62
     7
370
     0
100
AcDbEllipse
 10
157.987467514
 20
107.1034432743
 30
0.0
 11
1.383467579512086
 21
1.753907414218489
 31
0.0
210
0.0
220
0.0
230
1.0
 40
0.5126701559
 41
0.9829735846252589
 42
0.9944607108323534
  0
SPLINE
  5
11D
330
1F
100
AcDbEntity
  8
0
  6
HIDDEN
 62
     7
370
     0
100
AcDbSpline
210
0.0
220
0.0
230
1.0
 70
     8
 71
     3
 72
     8
 73
     4
 74
     0
 42
0.000000001
 43
0.00000001
 40
0.0
 40
0.0
 40
0.0
 40
0.0
 40
1.0
 40
1.0
 40
1.0
 40
1.0
 10
158.0064208555088
 20
108.6662864244875
 30
0.0
 10
158.0234197395421
 20
108.6583031509937
 30
0.0
 10
158.040423884037
 20
108.6495667485697
 30
0.0
 10
158.0574086100932
 20
108.6400898967599
 30
0.0
  0
ELLIPSE
  5
11E
330
1F
100
AcDbEntity
  8
0
  6
HIDDEN
 62
     7
370
     0
100
AcDbEllipse
 10
157.987467514
 20
107.1034432743
 30
0.0
 11
1.383467579512086
 21
-1.091267719176585
 31
0.0
210
0.0
220
0.0
230
1.0
 40
0.8239737799
 41
2.104730695540751
 42
2.147131942757441
  0
SPLINE
  5
11F
330
1F
100
AcDbEntity
  8
0
  6
HIDDEN
 62
     7
370
     0
100
AcDbSpline
210
0.0
220
0.0
230
1.0
 70
    11
 71
     3
 72
    58
 73
    54
 74
     0
 42
0.000000001
 43
0.00000001
 40
0.0
 40
0.0
 40
0.0
 40
0.0
 40
0.0312500000000002
 40
0.0312500000000002
 40
0.0625000000000004
 40
0.0625000000000004
 40
0.0937500000000006
 40
0.0937500000000006
 40
0.1250000000000008
 40
0.1250000000000008
 40
0.1875000000000012
 40
0.1875000000000012
 40
0.2500000000000016
 40
0.2500000000000016
 40
0.2812500000000017
 40
0.2812500000000017
 40
0.3125000000000018
 40
0.3125000000000018
 40
0.3750000000000021
 40
0.3750000000000021
 40
0.406250000000002
 40
0.406250000000002
 40
0.4375000000000019
 40
0.4375000000000019
 40
0.4687500000000018
 40
0.4687500000000018
 40
0.5000000000000018
 40
0.5000000000000018
 40
0.5625000000000011
 40
0.5625000000000011
 40
0.5937500000000011
 40
0.5937500000000011
 40
0.6250000000000011
 40
0.6250000000000011
 40
0.6562500000000011
 40
0.6562500000000011
 40
0.687500000000001
 40
0.687500000000001
 40
0.718750000000001
 40
0.718750000000001
 40
0.750000000000001
 40
0.750000000000001
 40
0.781250000000001
 40
0.781250000000001
 40
0.8125000000000009
 40
0.8125000000000009
 40
0.8750000000000008
 40
0.8750000000000008
 40
0.9375000000000006
 40
0.9375000000000006
 40
0.9687500000000003
 40
0.9687500000000003
 40
1.0
 40
1.0
 40
1.0
 40
1.0
 10
157.9874675140074
 20
110.4675407583926
 30
0.0
 10
158.0970443857369
 20
110.4675407583926
 30
0.0
 10
158.2046788368757
 20
110.4766275371739
 30
0.0
 10
158.4162578714838
 20
110.5122703895335
 30
0.0
 10
158.5213259718527
 20
110.5392906142649
 30
0.0
 10
158.7208572237085
 20
110.6098206330588
 30
0.0
 10
158.8154080368871
 20
110.6530691783201
 30
0.0
 10
158.9943501124361
 20
110.7559392718468
 30
0.0
 10
159.0786344216758
 20
110.8158256301123
 30
0.0
 10
159.3056990715147
 20
111.0138468069855
 30
0.0
 10
159.4284639885502
 20
111.1757978253906
 30
0.0
 10
159.5934425992344
 20
111.5341366788696
 30
0.0
 10
159.6373291247382
 20
111.7345810686189
 30
0.0
 10
159.6375362050246
 20
112.0395945505563
 30
0.0
 10
159.6266941613051
 20
112.1439279557655
 30
0.0
 10
159.5843487165941
 20
112.3471048572077
 30
0.0
 10
159.5530234697092
 20
112.4468829629904
 30
0.0
 10
159.4282228828836
 20
112.740346632221
 30
0.0
 10
159.3067000805897
 20
112.9208211109184
 30
0.0
 10
159.0778097846315
 20
113.1513935028759
 30
0.0
 10
158.9950890900651
 20
113.2203200742137
 30
0.0
 10
158.8168442341199
 20
113.3421426217495
 30
0.0
 10
158.7202352384999
 20
113.3953556499335
 30
0.0
 10
158.521281048464
 20
113.4804887459598
 30
0.0
 10
158.4184201191078
 20
113.5130102517102
 30
0.0
 10
158.2057055638976
 20
113.5572037280703
 30
0.0
 10
158.0961752589114
 20
113.5684778117329
 30
0.0
 10
157.7721918043882
 20
113.5686231176488
 30
0.0
 10
157.5540904888734
 20
113.5232973069369
 30
0.0
 10
157.2558430748185
 20
113.3959284407779
 30
0.0
 10
157.159288808996
 20
113.3428753010765
 30
0.0
 10
156.9804734650986
 20
113.2208341981728
 30
0.0
 10
156.8977325306357
 20
113.1519097089001
 30
0.0
 10
156.7454243194194
 20
112.9986723488308
 30
0.0
 10
156.6762414182641
 20
112.9143614327497
 30
0.0
 10
156.5569931449771
 20
112.7376516540835
 30
0.0
 10
156.5060546625951
 20
112.6444484290116
 30
0.0
 10
156.4223438469706
 20
112.4481884139999
 30
0.0
 10
156.3908723021585
 20
112.3480491947771
 30
0.0
 10
156.3484868726632
 20
112.1455308340144
 30
0.0
 10
156.3375116500838
 20
112.0417795327905
 30
0.0
 10
156.3374236478149
 20
111.8372995830854
 30
0.0
 10
156.3480365363507
 20
111.7373289962422
 30
0.0
 10
156.3902410348877
 20
111.5417404775308
 30
0.0
 10
156.4222882630867
 20
111.4456908132633
 30
0.0
 10
156.5461860281908
 20
111.176091214648
 30
0.0
 10
156.6689119170575
 20
111.014231443339
 30
0.0
 10
156.9714472493627
 20
110.7501891201623
 30
0.0
 10
157.1541940210537
 20
110.6452502316498
 30
0.0
 10
157.4522783767893
 20
110.5396999977518
 30
0.0
 10
157.5575465892238
 20
110.5125010880313
 30
0.0
 10
157.7700009698901
 20
110.4766305518636
 30
0.0
 10
157.8778906422778
 20
110.4675407583926
 30
0.0
 10
157.9874675140074
 20
110.4675407583926
 30
0.0
  0
LINE
  5
120
330
1F
100
AcDbEntity
  8
0
  6
HIDDEN
 62
     7
370
     0
100
AcDbLine
 10
170.4874670372
 20
113.9910333349
 30
0.0
 11
170.4874670372
 21
96.4910332604
 31
0.0
  0
LINE
  5
121
330
1F
100
AcDbEntity
  8
0
  6
HIDDEN
 62
     7
370
     0
100
AcDbLine
 10
170.4874670372
 20
131.4910334094
 30
0.0
 11
170.4874670372
 21
113.9910333349
 31
0.0
  0
LINE
  5
122
330
1F
100
AcDbEntity
  8
0
  6
HIDDEN
 62
     7
370
     0
100
AcDbLine
 10
175.3534933791
 20
113.9910333349
 30
0.0
 11
175.3534933791
 21
95.9910341097
 31
0.0
  0
LINE
  5
123
330
1F
100
AcDbEntity
  8
0
  6
HIDDEN
 62
     7
370
     0
100
AcDbLine
 10
175.3534933791
 20
131.99103256
 30
0.0
 11
175.3534933791
 21
113.9910333349
 31
0.0
  0
SPLINE
  5
124
330
1F
100
AcDbEntity
  8
0
  6
HIDDEN
 62
     7
370
     0
100
AcDbSpline
210
0.0
220
0.0
230
1.0
 70
     8
 71
     3
 72
    17
 73
    13
 74
     0
 42
0.000000001
 43
0.00000001
 40
0.0
 40
0.0
 40
0.0
 40
0.0
 40
0.0998063753738503
 40
0.2026812260916645
 40
0.3024430804261102
 40
0.4048317843624989
 40
0.5098279344266391
 40
0.6176311170573079
 40
0.7265541403714862
 40
0.8389503591068816
 40
0.9424571208103965
 40
0.9999999999999999
 40
0.9999999999999999
 40
0.9999999999999999
 40
0.9999999999999999
 10
192.9374670848539
 20
130.4663941754161
 30
0.0
 10
193.3204905892145
 20
130.4742077267393
 30
0.0
 10
194.0983133805436
 20
130.4900750514107
 30
0.0
 10
195.2241603107177
 20
130.6133755778222
 30
0.0
 10
196.2926696020591
 20
130.7943794545498
 30
0.0
 10
197.2773383610925
 20
131.020347832815
 30
0.0
 10
198.1708023508566
 20
131.2714678166056
 30
0.0
 10
198.939590361269
 20
131.5215945248083
 30
0.0
 10
199.5599408772269
 20
131.7453957985237
 30
0.0
 10
199.9708987275637
 20
131.9041339816677
 30
0.0
 10
200.1776733364326
 20
131.9870761304104
 30
0.0
 10
200.1657806503032
 20
131.9823060811108
 30
0.0
 10
200.1615314051798
 20
131.980601747161
 30
0.0
  0
LINE
  5
125
330
1F
100
AcDbEntity
  8
0
  6
HIDDEN
 62
     7
370
     0
100
AcDbLine
 10
193.0143980548
 20
130.4690596206
 30
0.0
 11
192.2733968363
 21
130.4895058764
 31
0.0
  0
SPLINE
  5
126
330
1F
100
AcDbEntity
  8
0
  6
HIDDEN
 62
     7
370
     0
100
AcDbSpline
210
0.0
220
0.0
230
1.0
 70
     8
 71
     3
 72
    18
 73
    14
 74
     0
 42
0.000000001
 43
0.00000001
 40
0.0
 40
0.0
 40
0.0
 40
0.0
 40
0.0287277231810951
 40
0.1323337648010531
 40
0.2298684238592418
 40
0.3300093088836608
 40
0.4319544716440606
 40
0.5365197967828207
 40
0.6447132222671198
 40
0.7560889040194547
 40
0.8629228774279768
 40
0.9733869460877186
 40
0.9999999999999999
 40
0.9999999999999999
 40
0.9999999999999999
 40
0.9999999999999999
 10
185.7062911853483
 20
131.9834664954005
 30
0.0
 10
185.7008198665171
 20
131.9856657533632
 30
0.0
 10
185.6756163300306
 20
131.9957965975006
 30
0.0
 10
185.8203779947899
 20
131.9374503390752
 30
0.0
 10
186.1363560625659
 20
131.8137532131475
 30
0.0
 10
186.6273981434778
 20
131.6307554821922
 30
0.0
 10
187.2815538352077
 20
131.4056252069814
 30
0.0
 10
188.0993701835574
 20
131.1549153215492
 30
0.0
 10
189.0764120289205
 20
130.9024407603012
 30
0.0
 10
190.1786874819095
 20
130.6826790530467
 30
0.0
 10
191.3780406136249
 20
130.5255264829639
 30
0.0
 10
192.3100256552404
 20
130.4700445828837
 30
0.0
 10
192.8354564880561
 20
130.4669876654643
 30
0.0
 10
192.9374670848539
 20
130.4663941754161
 30
0.0
  0
LINE
  5
127
330
1F
100
AcDbEntity
  8
0
  6
HIDDEN
 62
     7
370
     0
100
AcDbLine
 10
192.9374670849
 20
142.9910325004
 30
0.0
 11
200.1874668762
 21
142.9910325004
 31
0.0
  0
LINE
  5
128
330
1F
100
AcDbEntity
  8
0
  6
HIDDEN
 62
     7
370
     0
100
AcDbLine
 10
185.6874672935
 20
142.9910325004
 30
0.0
 11
192.9374670849
 21
142.9910325004
 31
0.0
  0
LINE
  5
129
330
1F
100
AcDbEntity
  8
0
  6
HIDDEN
 62
     7
370
     0
100
AcDbLine
 10
148.1874674332
 20
138.7910340471
 30
0.0
 11
148.5247258801
 21
138.7910340471
 31
0.0
  0
ELLIPSE
  5
12A
330
1F
100
AcDbEntity
  8
0
  6
HIDDEN
 62
     7
370
     0
100
AcDbEllipse
 10
148.5247258142
 20
140.3910333349
 30
0.0
 11
0.0
 21
1.599999999999966
 31
0.0
210
0.0
220
0.0
230
1.0
 40
0.4142135624
 41
3.141592653589793
 42
4.712388980384695
  0
ELLIPSE
  5
12B
330
1F
100
AcDbEntity
  8
0
  6
HIDDEN
 62
     7
370
     0
100
AcDbEllipse
 10
148.5247258142
 20
89.7910333349
 30
0.0
 11
0.0
 21
1.600000000000009
 31
0.0
210
0.0
220
0.0
230
1.0
 40
0.4142135624
 41
4.712388980384695
 42
6.283185307179586
  0
LINE
  5
12C
330
1F
100
AcDbEntity
  8
0
  6
HIDDEN
 62
     7
370
     0
100
AcDbLine
 10
148.5247258801
 20
91.3910326107
 30
0.0
 11
148.1874674332
 21
91.3910326107
 31
0.0
  0
LINE
  5
12D
330
1F
100
AcDbEntity
  8
0
  6
HIDDEN
 62
     7
370
     0
100
AcDbLine
 10
83.7374663219
 20
105.4910328729
 30
0.0
 11
83.7374663219
 21
122.4910337968
 31
0.0
  0
LINE
  5
12E
330
1F
100
AcDbEntity
  8
0
  6
HIDDEN
 62
     7
370
     0
100
AcDbLine
 10
86.733396934
 20
106.9910331188
 30
0.0
 11
86.733396934
 21
120.9910335509
 31
0.0
  0
LINE
  5
12F
330
1F
100
AcDbEntity
  8
0
  6
HIDDEN
 62
     7
370
     0
100
AcDbLine
 10
170.4874670372
 20
91.3910326107
 30
0.0
 11
164.0374677494
 21
91.3910326107
 31
0.0
  0
LINE
  5
130
330
1F
100
AcDbEntity
  8
0
  6
HIDDEN
 62
     7
370
     0
100
AcDbLine
 10
149.1874673643
 20
83.2784958674
 30
0.0
 11
149.1874673643
 21
89.791033466
 31
0.0
  0
LINE
  5
131
330
1F
100
AcDbEntity
  8
0
  6
HIDDEN
 62
     7
370
     0
100
AcDbLine
 10
164.0374677494
 20
91.3910326107
 30
0.0
 11
148.5247258801
 21
91.3910326107
 31
0.0
  0
LINE
  5
132
330
1F
100
AcDbEntity
  8
0
  6
HIDDEN
 62
     7
370
     0
100
AcDbLine
 10
149.1874673643
 20
144.7035708023
 30
0.0
 11
149.1874673643
 21
140.3910331918
 31
0.0
  0
LINE
  5
133
330
1F
100
AcDbEntity
  8
0
  6
HIDDEN
 62
     7
370
     0
100
AcDbLine
 10
148.5247258801
 20
138.7910340471
 30
0.0
 11
164.1104275599
 21
138.7910340471
 31
0.0
  0
LINE
  5
134
330
1F
100
AcDbEntity
  8
0
  6
HIDDEN
 62
     7
370
     0
100
AcDbLine
 10
119.7374666348
 20
106.9910331188
 30
0.0
 11
119.7374666348
 21
120.9910335509
 31
0.0
  0
LINE
  5
135
330
1F
100
AcDbEntity
  8
0
  6
HIDDEN
 62
     7
370
     0
100
AcDbLine
 10
120.3383280203
 20
119.991033387
 30
0.0
 11
120.3383280203
 21
107.9910332827
 31
0.0
  0
SPLINE
  5
136
330
1F
100
AcDbEntity
  8
0
  6
HIDDEN
 62
     7
370
     0
100
AcDbSpline
210
0.0
220
0.0
230
1.0
 70
    11
 71
     3
 72
    58
 73
    54
 74
     0
 42
0.000000001
 43
0.00000001
 40
0.0
 40
0.0
 40
0.0
 40
0.0
 40
0.0312500000000003
 40
0.0312500000000003
 40
0.0625000000000006
 40
0.0625000000000006
 40
0.0937500000000009
 40
0.0937500000000009
 40
0.1250000000000012
 40
0.1250000000000012
 40
0.1875000000000015
 40
0.1875000000000015
 40
0.2500000000000018
 40
0.2500000000000018
 40
0.2812500000000021
 40
0.2812500000000021
 40
0.3125000000000022
 40
0.3125000000000022
 40
0.3750000000000026
 40
0.3750000000000026
 40
0.4062500000000027
 40
0.4062500000000027
 40
0.4375000000000027
 40
0.4375000000000027
 40
0.4687500000000027
 40
0.4687500000000027
 40
0.5000000000000028
 40
0.5000000000000028
 40
0.5625000000000029
 40
0.5625000000000029
 40
0.5937500000000027
 40
0.5937500000000027
 40
0.6250000000000026
 40
0.6250000000000026
 40
0.6562500000000024
 40
0.6562500000000024
 40
0.6875000000000023
 40
0.6875000000000023
 40
0.7187500000000022
 40
0.7187500000000022
 40
0.750000000000002
 40
0.750000000000002
 40
0.7812500000000019
 40
0.7812500000000019
 40
0.8125000000000018
 40
0.8125000000000018
 40
0.8750000000000014
 40
0.8750000000000014
 40
0.937500000000001
 40
0.937500000000001
 40
0.9687500000000006
 40
0.9687500000000006
 40
1.0
 40
1.0
 40
1.0
 40
1.0
 10
157.9874675140074
 20
114.4135402627281
 30
0.0
 10
157.8778906422778
 20
114.4135402627281
 30
0.0
 10
157.7702561911391
 20
114.4247623202087
 30
0.0
 10
157.558677156531
 20
114.4684961855117
 30
0.0
 10
157.4536090561621
 20
114.501571187406
 30
0.0
 10
157.2540778043062
 20
114.5870032152297
 30
0.0
 10
157.1595269911277
 20
114.639045233683
 30
0.0
 10
156.9805849155787
 20
114.7611400150209
 30
0.0
 10
156.896300606339
 20
114.8314766429665
 30
0.0
 10
156.6692359565001
 20
115.0602917523293
 30
0.0
 10
156.5464710394646
 20
115.2426810995671
 30
0.0
 10
156.3814924287803
 20
115.6298358288363
 30
0.0
 10
156.3376059032765
 20
115.8387967559771
 30
0.0
 10
156.3373988229902
 20
116.1438491920033
 30
0.0
 10
156.3482408667097
 20
116.2461255058079
 30
0.0
 10
156.3905863114207
 20
116.4414796334909
 30
0.0
 10
156.4219115583055
 20
116.5355244405805
 30
0.0
 10
156.5467121451311
 20
116.807183615075
 30
0.0
 10
156.668234947425
 20
116.9673981314225
 30
0.0
 10
156.8971252433833
 20
117.1669345240309
 30
0.0
 10
156.9798459379497
 20
117.2256113476903
 30
0.0
 10
157.1580907938949
 20
117.3282619723781
 30
0.0
 10
157.2546997895149
 20
117.372487922268
 30
0.0
 10
157.4536539795508
 20
117.4427698337603
 30
0.0
 10
157.556514908907
 20
117.4693388989523
 30
0.0
 10
157.7692294641172
 20
117.5053579097644
 30
0.0
 10
157.8787597691033
 20
117.5144864801221
 30
0.0
 10
158.2027432236266
 20
117.5146043843655
 30
0.0
 10
158.4208445391413
 20
117.4781063107919
 30
0.0
 10
158.7190919531963
 20
117.3729629109124
 30
0.0
 10
158.8156462190188
 20
117.328875162135
 30
0.0
 10
158.9944615629162
 20
117.2260487020112
 30
0.0
 10
159.0772024973791
 20
117.1673747945961
 30
0.0
 10
159.2295107085954
 20
117.0347766588535
 30
0.0
 10
159.2986936097507
 20
116.9608195917054
 30
0.0
 10
159.4179418830377
 20
116.8029688516841
 30
0.0
 10
159.4688803654196
 20
116.7183919802063
 30
0.0
 10
159.5525911810441
 20
116.5367513058255
 30
0.0
 10
159.5840627258562
 20
116.4423717383947
 30
0.0
 10
159.6264481553515
 20
116.2476823446968
 30
0.0
 10
159.637423377931
 20
116.1460129502142
 30
0.0
 10
159.6375113801999
 20
115.9415495547096
 30
0.0
 10
159.626898491664
 20
115.8395649114558
 30
0.0
 10
159.5846939931271
 20
115.6361784294076
 30
0.0
 10
159.5526467649281
 20
115.5342661399795
 30
0.0
 10
159.428748999824
 20
115.2430207888145
 30
0.0
 10
159.3060231109573
 20
115.0607276544882
 30
0.0
 10
159.003487778652
 20
114.7556416362093
 30
0.0
 10
158.8207410069611
 20
114.6299141355636
 30
0.0
 10
158.5226566512255
 20
114.5020692814592
 30
0.0
 10
158.417388438791
 20
114.4687788333802
 30
0.0
 10
158.2049340581247
 20
114.4247664362558
 30
0.0
 10
158.0970443857369
 20
114.4135402627281
 30
0.0
 10
157.9874675140074
 20
114.4135402627281
 30
0.0
  0
LINE
  5
137
330
1F
100
AcDbEntity
  8
0
  6
HIDDEN
 62
     7
370
     0
100
AcDbLine
 10
172.0874680445
 20
138.7910340471
 30
0.0
 11
171.443039389
 21
138.7910340471
 31
0.0
  0
LINE
  5
138
330
1F
100
AcDbEntity
  8
0
  6
HIDDEN
 62
     7
370
     0
100
AcDbLine
 10
164.0374677494
 20
132.4105207367
 30
0.0
 11
164.0374677494
 21
132.3410328968
 31
0.0
  0
ELLIPSE
  5
139
330
1F
100
AcDbEntity
  8
0
  6
HIDDEN
 62
     7
370
     0
100
AcDbEllipse
 10
157.987467514
 20
120.8786233954
 30
0.0
 11
-1.383467579512143
 21
1.753907414218503
 31
0.0
210
0.0
220
0.0
230
1.0
 40
0.5126701559
 41
5.277237470135421
 42
5.288724596347218
  0
ELLIPSE
  5
13A
330
1F
100
AcDbEntity
  8
0
  6
HIDDEN
 62
     7
370
     0
100
AcDbEllipse
 10
157.987467514
 20
120.8786233954
 30
0.0
 11
1.383467579512114
 21
1.091267719176585
 31
0.0
210
0.0
220
0.0
230
1.0
 40
0.8239737799
 41
0.9944607108323641
 42
4.13605336442217
  0
ELLIPSE
  5
13B
330
1F
100
AcDbEntity
  8
0
  6
HIDDEN
 62
     7
370
     0
100
AcDbEllipse
 10
157.987467514
 20
120.8786233954
 30
0.0
 11
-1.383467579512143
 21
1.753907414218503
 31
0.0
210
0.0
220
0.0
230
1.0
 40
0.5126701559
 41
2.147131942757412
 42
2.158619068967124
  0
SPLINE
  5
13C
330
1F
100
AcDbEntity
  8
0
  6
HIDDEN
 62
     7
370
     0
100
AcDbSpline
210
0.0
220
0.0
230
1.0
 70
     8
 71
     3
 72
     8
 73
     4
 74
     0
 42
0.000000001
 43
0.00000001
 40
0.0
 40
0.0
 40
0.0
 40
0.0
 40
1.0
 40
1.0
 40
1.0
 40
1.0
 10
158.0064208554971
 20
119.3157802452213
 30
0.0
 10
158.0234197395382
 20
119.3237635187184
 30
0.0
 10
158.0404238840409
 20
119.3324999211464
 30
0.0
 10
158.057408610105
 20
119.3419767729609
 30
0.0
  0
ELLIPSE
  5
13D
330
1F
100
AcDbEntity
  8
0
  6
HIDDEN
 62
     7
370
     0
100
AcDbEllipse
 10
157.987467514
 20
120.8786233954
 30
0.0
 11
1.383467579512114
 21
1.091267719176585
 31
0.0
210
0.0
220
0.0
230
1.0
 40
0.8239737799
 41
4.136053364422173
 42
4.178454611648587
  0
ELLIPSE
  5
13E
330
1F
100
AcDbEntity
  8
0
  6
HIDDEN
 62
     7
370
     0
100
AcDbEllipse
 10
157.987467514
 20
120.8786233954
 30
0.0
 11
-1.383467579512143
 21
1.753907414218503
 31
0.0
210
0.0
220
0.0
230
1.0
 40
0.5126701559
 41
5.28872459634723
 42
8.43031724993701
  0
ELLIPSE
  5
13F
330
1F
100
AcDbEntity
  8
0
  6
HIDDEN
 62
     7
370
     0
100
AcDbEllipse
 10
157.987467514
 20
120.8786233954
 30
0.0
 11
1.383467579512114
 21
1.091267719176585
 31
0.0
210
0.0
220
0.0
230
1.0
 40
0.8239737799
 41
0.9520594635980755
 42
0.9944607108323675
  0
SPLINE
  5
140
330
1F
100
AcDbEntity
  8
0
  6
HIDDEN
 62
     7
370
     0
100
AcDbSpline
210
0.0
220
0.0
230
1.0
 70
     8
 71
     3
 72
     8
 73
     4
 74
     0
 42
0.000000001
 43
0.00000001
 40
0.0
 40
0.0
 40
0.0
 40
0.0
 40
1.0
 40
1.0
 40
1.0
 40
1.0
 10
158.0574086101142
 20
122.4401752612061
 30
0.0
 10
158.0404238840441
 20
122.4330595511684
 30
0.0
 10
158.0234197395351
 20
122.4251844216616
 30
0.0
 10
158.0064208554878
 20
122.4165613022251
 30
0.0
  0
LWPOLYLINE
  5
141
330
1F
100
AcDbEntity
  8
0
  6
HIDDEN
 62
     7
370
     0
100
AcDbPolyline
 90
       21
 70
   128
 43
0.0
 10
157.9874677822
 20
120.434443981
 10
158.4973454714
 20
120.5103304727
 10
158.9573135838
 20
120.7305617189
 10
159.3223454669
 20
121.0735799303
 10
159.5567109302
 20
121.5058081342
 10
159.6374677733
 20
121.9849372773
 10
159.5567109302
 20
122.464065489
 10
159.3223454669
 20
122.8962941585
 10
158.9573135838
 20
123.2393123699
 10
158.4973454714
 20
123.4595431505
 10
157.9874677822
 20
123.5354301078
 10
157.4775891617
 20
123.4595431505
 10
157.0176219806
 20
123.2393123699
 10
156.6525891662
 20
122.8962941585
 10
156.4182246343
 20
122.464065489
 10
156.3374677912
 20
121.9849372773
 10
156.4182246343
 20
121.5058081342
 10
156.6525891662
 20
121.0735799303
 10
157.0176219806
 20
120.7305617189
 10
157.4775891617
 20
120.5103304727
 10
157.9874677822
 20
120.434443981
  0
LINE
  5
142
330
1F
100
AcDbEntity
  8
0
  6
HIDDEN
 62
     7
370
     0
100
AcDbLine
 10
154.1774671763
 20
136.1882742984
 30
0.0
 11
154.1774671763
 21
132.3410328968
 31
0.0
  0
LINE
  5
143
330
1F
100
AcDbEntity
  8
0
  6
HIDDEN
 62
     7
370
     0
100
AcDbLine
 10
159.6093045786
 20
139.9012636883
 30
0.0
 11
159.6093045786
 21
132.3410328968
 31
0.0
  0
LINE
  5
144
330
1F
100
AcDbEntity
  8
0
  6
HIDDEN
 62
     7
370
     0
100
AcDbLine
 10
152.5656309218
 20
139.9012636883
 30
0.0
 11
152.5656309218
 21
132.3410328968
 31
0.0
  0
SPLINE
  5
145
330
1F
100
AcDbEntity
  8
0
  6
HIDDEN
 62
     7
370
     0
100
AcDbSpline
210
0.0
220
0.0
230
1.0
 70
     8
 71
     3
 72
    14
 73
    10
 74
     0
 42
0.000000001
 43
0.00000001
 40
0.0
 40
0.0
 40
0.0
 40
0.0
 40
0.25
 40
0.25
 40
0.5
 40
0.5
 40
0.75
 40
0.75
 40
1.0
 40
1.0
 40
1.0
 40
1.0
 10
157.1974675140074
 20
125.2735125249652
 30
0.0
 10
157.2959467876215
 20
125.3123491555771
 30
0.0
 10
157.39724414632
 20
125.3496419836726
 30
0.0
 10
157.5902278465624
 20
125.4210532747475
 30
0.0
 10
157.6813232169767
 20
125.4551530376046
 30
0.0
 10
157.8326157402942
 20
125.5219820108348
 30
0.0
 10
157.8938814633228
 20
125.5554014165762
 30
0.0
 10
157.9760650642423
 20
125.6244190228704
 30
0.0
 10
157.9974675140074
 20
125.6602153047116
 30
0.0
 10
157.9974675140074
 20
125.6967957034057
 30
0.0
  0
LINE
  5
146
330
1F
100
AcDbEntity
  8
0
  6
HIDDEN
 62
     7
370
     0
100
AcDbLine
 10
157.9974673927
 20
136.1882742984
 30
0.0
 11
157.9974673927
 21
132.3410328968
 31
0.0
  0
LINE
  5
147
330
1F
100
AcDbEntity
  8
0
  6
HIDDEN
 62
     7
370
     0
100
AcDbLine
 10
159.6093045786
 20
104.239013095
 30
0.0
 11
159.6093045786
 21
102.0395337163
 31
0.0
  0
SPLINE
  5
148
330
1F
100
AcDbEntity
  8
0
  6
HIDDEN
 62
     7
370
     0
100
AcDbSpline
210
0.0
220
0.0
230
1.0
 70
     8
 71
     3
 72
    14
 73
    10
 74
     0
 42
0.000000001
 43
0.00000001
 40
0.0
 40
0.0
 40
0.0
 40
0.0
 40
0.25
 40
0.25
 40
0.5
 40
0.5
 40
0.75
 40
0.75
 40
1.0
 40
1.0
 40
1.0
 40
1.0
 10
157.9974675140074
 20
121.9380722051858
 30
0.0
 10
157.9974675140074
 20
121.9018126155106
 30
0.0
 10
157.9763474265092
 20
121.8651845617223
 30
0.0
 10
157.8938797713605
 20
121.7999068293089
 30
0.0
 10
157.8334484170193
 20
121.7719805179808
 30
0.0
 10
157.6809835508716
 20
121.7378160810864
 30
0.0
 10
157.5904026639209
 20
121.7324365841573
 30
0.0
 10
157.3977607479524
 20
121.7533128938365
 30
0.0
 10
157.2959486053449
 20
121.7796589390449
 30
0.0
 10
157.1974675140072
 20
121.8204010481868
 30
0.0
  0
LINE
  5
149
330
1F
100
AcDbEntity
  8
0
  6
HIDDEN
 62
     7
370
     0
100
AcDbLine
 10
157.9974673927
 20
105.9897505237
 30
0.0
 11
157.9974673927
 21
102.2310276074
 31
0.0
  0
SPLINE
  5
14A
330
1F
100
AcDbEntity
  8
0
  6
HIDDEN
 62
     7
370
     0
100
AcDbSpline
210
0.0
220
0.0
230
1.0
 70
     8
 71
     3
 72
    10
 73
     6
 74
     0
 42
0.000000001
 43
0.00000001
 40
0.0
 40
0.0
 40
0.0
 40
0.0
 40
0.5
 40
0.5
 40
1.0
 40
1.0
 40
1.0
 40
1.0
 10
156.011576751367
 20
121.7375725043261
 30
0.0
 10
155.9959707003858
 20
121.8428447049346
 30
0.0
 10
155.9874662373572
 20
121.9467832027255
 30
0.0
 10
155.9874687909469
 20
122.1462964746814
 30
0.0
 10
155.9959663785473
 20
122.2375089693517
 30
0.0
 10
156.011576751367
 20
122.3194409016948
 30
0.0
  0
SPLINE
  5
14B
330
1F
100
AcDbEntity
  8
0
  6
HIDDEN
 62
     7
370
     0
100
AcDbSpline
210
0.0
220
0.0
230
1.0
 70
     8
 71
     3
 72
    14
 73
    10
 74
     0
 42
0.000000001
 43
0.00000001
 40
0.0
 40
0.0
 40
0.0
 40
0.0
 40
0.25
 40
0.25
 40
0.5
 40
0.5
 40
0.75
 40
0.75
 40
1.0
 40
1.0
 40
1.0
 40
1.0
 10
156.011576751367
 20
122.3194409016949
 30
0.0
 10
156.0479405793972
 20
122.2739462662931
 30
0.0
 10
156.0804183066074
 20
122.2255544600768
 30
0.0
 10
156.129171936023
 20
122.1200693161473
 30
0.0
 10
156.1440757136975
 20
122.0634848079044
 30
0.0
 10
156.1440861473552
 20
121.9545972139539
 30
0.0
 10
156.129195851547
 20
121.9024125481913
 30
0.0
 10
156.0803069206694
 20
121.8111351492478
 30
0.0
 10
156.0479347423991
 20
121.7724684438737
 30
0.0
 10
156.011576751367
 20
121.737572504326
 30
0.0
  0
LWPOLYLINE
  5
14C
330
1F
100
AcDbEntity
  8
0
  6
HIDDEN
 62
     7
370
     0
100
AcDbPolyline
 90
       21
 70
   128
 43
0.0
 10
148.8191949442
 20
121.9710791974
 10
148.9471437648
 20
121.5961026518
 10
149.1513464839
 20
121.3445603406
 10
149.4118145906
 20
121.2410750358
 10
149.7030512668
 20
121.2957758015
 10
149.996548263
 20
121.5033089301
 10
150.2635766059
 20
121.8433594821
 10
150.4779968649
 20
122.2826401262
 10
150.6188207545
 20
122.7781521646
 10
150.6722633034
 20
123.2813904552
 10
150.6330932729
 20
123.7430954842
 10
150.5051444523
 20
124.1180710985
 10
150.3009417333
 20
124.3696138753
 10
150.0404740922
 20
124.4730996458
 10
149.749237416
 20
124.4183984144
 10
149.4557399541
 20
124.2108652858
 10
149.1887120769
 20
123.8708151994
 10
148.9742913522
 20
123.4315336241
 10
148.8334674627
 20
122.9360225169
 10
148.7800249137
 20
122.432783295
 10
148.8191949442
 20
121.9710791974
  0
LINE
  5
14D
330
1F
100
AcDbEntity
  8
0
  6
HIDDEN
 62
     7
370
     0
100
AcDbLine
 10
193.7874665723
 20
111.7410334317
 30
0.0
 11
193.7874665723
 21
103.2410329698
 31
0.0
  0
LWPOLYLINE
  5
14E
330
1F
100
AcDbEntity
  8
0
  6
HIDDEN
 62
     7
370
     0
100
AcDbPolyline
 90
       21
 70
   128
 43
0.0
 10
156.0115766019
 20
121.7375724135
 10
156.1901064828
 20
121.2042011811
 10
156.527722092
 20
120.7437902248
 10
156.9945419446
 20
120.3970909609
 10
157.5492469833
 20
120.1947904682
 10
158.1427388132
 20
120.1547938889
 10
158.7224880472
 20
120.2806416458
 10
159.2371788115
 20
120.5611951208
 10
159.6412573248
 20
120.9716219945
 10
159.8989561439
 20
121.4755950986
 10
159.9874671787
 20
122.0285064099
 10
159.8989561439
 20
122.5814186527
 10
159.6412573248
 20
123.0853917567
 10
159.2371788115
 20
123.4958181648
 10
158.7224880472
 20
123.7763716398
 10
158.1427388132
 20
123.9022193967
 10
157.5492469833
 20
123.8622228174
 10
156.9945419446
 20
123.659921859
 10
156.527722092
 20
123.3132230608
 10
156.1901064828
 20
122.8528116388
 10
156.0115766019
 20
122.3194413377
  0
SPLINE
  5
14F
330
1F
100
AcDbEntity
  8
0
  6
HIDDEN
 62
     7
370
     0
100
AcDbSpline
210
0.0
220
0.0
230
1.0
 70
     8
 71
     3
 72
    12
 73
     8
 74
     0
 42
0.000000001
 43
0.00000001
 40
0.0
 40
0.0
 40
0.0
 40
0.0
 40
0.25
 40
0.25
 40
0.5
 40
0.5
 40
1.0
 40
1.0
 40
1.0
 40
1.0
 10
159.6093041560641
 20
123.7430534026808
 30
0.0
 10
159.4944081048035
 20
123.5233129676242
 30
0.0
 10
159.3676420883308
 20
123.3263446160025
 30
0.0
 10
159.1074271547122
 20
122.9726270431636
 30
0.0
 10
158.97391969675
 20
122.8158017492913
 30
0.0
 10
158.5655214281618
 20
122.3892591783837
 30
0.0
 10
158.2818682932242
 20
122.1625669994284
 30
0.0
 10
157.9974675140075
 20
121.992315855033
 30
0.0
  0
SPLINE
  5
150
330
1F
100
AcDbEntity
  8
0
  6
HIDDEN
 62
     7
370
     0
100
AcDbSpline
210
0.0
220
0.0
230
1.0
 70
     8
 71
     3
 72
    12
 73
     8
 74
     0
 42
0.000000001
 43
0.00000001
 40
0.0
 40
0.0
 40
0.0
 40
0.0
 40
0.5000000000000013
 40
0.5000000000000013
 40
0.7500000000000007
 40
0.7500000000000007
 40
1.0
 40
1.0
 40
1.0
 40
1.0
 10
157.9974675140074
 20
125.751039353254
 30
0.0
 10
158.2816740485727
 20
125.9185035155478
 30
0.0
 10
158.5603697826765
 20
126.0301406150593
 30
0.0
 10
158.9697158258657
 20
126.0974538806987
 30
0.0
 10
159.1058551631853
 20
126.1026049207127
 30
0.0
 10
159.3671752121813
 20
126.0648389830933
 30
0.0
 10
159.4925963946131
 20
126.023289224749
 30
0.0
 10
159.6093041560645
 20
125.9425331330662
 30
0.0
  0
SPLINE
  5
151
330
1F
100
AcDbEntity
  8
0
  6
HIDDEN
 62
     7
370
     0
100
AcDbSpline
210
0.0
220
0.0
230
1.0
 70
     8
 71
     3
 72
    12
 73
     8
 74
     0
 42
0.000000001
 43
0.00000001
 40
0.0
 40
0.0
 40
0.0
 40
0.0
 40
0.2499999999999997
 40
0.2499999999999997
 40
0.4999999999999993
 40
0.4999999999999993
 40
1.0
 40
1.0
 40
1.0
 40
1.0
 10
159.6093041560641
 20
125.9425331330641
 30
0.0
 10
159.7322516498596
 20
125.784576284369
 30
0.0
 10
159.8257958529685
 20
125.6127429173915
 30
0.0
 10
159.9547352421307
 20
125.2410702077457
 30
0.0
 10
159.9872879995159
 20
125.0478817615544
 30
0.0
 10
159.9878243412497
 20
124.4595852232782
 30
0.0
 10
159.8552006842817
 20
124.0675669853895
 30
0.0
 10
159.6093041560641
 20
123.7430534026808
 30
0.0
  0
SPLINE
  5
152
330
1F
100
AcDbEntity
  8
0
  6
HIDDEN
 62
     7
370
     0
100
AcDbSpline
210
0.0
220
0.0
230
1.0
 70
     8
 71
     3
 72
    22
 73
    18
 74
     0
 42
0.000000001
 43
0.00000001
 40
0.0
 40
0.0
 40
0.0
 40
0.0
 40
0.125
 40
0.125
 40
0.25
 40
0.25
 40
0.375
 40
0.375
 40
0.5
 40
0.5
 40
0.625
 40
0.625
 40
0.75
 40
0.75
 40
0.875
 40
0.875
 40
1.0
 40
1.0
 40
1.0
 40
1.0
 10
157.1974675140074
 20
121.820401048188
 30
0.0
 10
157.017450819438
 20
121.8948748351646
 30
0.0
 10
156.8530189975677
 20
121.9923240971486
 30
0.0
 10
156.5546227638091
 20
122.2316935307129
 30
0.0
 10
156.4243190364443
 20
122.3715901427834
 30
0.0
 10
156.2111002528252
 20
122.6798417328436
 30
0.0
 10
156.1274723957138
 20
122.8500049509629
 30
0.0
 10
156.0163415187956
 20
123.2004996857534
 30
0.0
 10
155.9875055239418
 20
123.3856246469047
 30
0.0
 10
155.9874295812822
 20
123.7488315215219
 30
0.0
 10
156.0160882067094
 20
123.9322015352295
 30
0.0
 10
156.1272392998222
 20
124.2780926477228
 30
0.0
 10
156.2103064204661
 20
124.4436121749903
 30
0.0
 10
156.4239923785848
 20
124.744151912394
 30
0.0
 10
156.5529993685091
 20
124.8780238336781
 30
0.0
 10
156.8526086479987
 20
125.1092706030822
 30
0.0
 10
157.0174513462578
 20
125.2025207197409
 30
0.0
 10
157.1974675140074
 20
125.2735125249652
 30
0.0
  0
LWPOLYLINE
  5
153
330
1F
100
AcDbEntity
  8
0
  6
HIDDEN
 62
     7
370
     0
100
AcDbPolyline
 90
       23
 70
   128
 43
0.0
 10
148.4376791172
 20
121.7615707336
 10
148.5813947633
 20
121.3218258253
 10
148.8069820456
 20
121.0090620933
 10
149.09616469
 20
120.8486170998
 10
149.425515277
 20
120.8534893138
 10
149.7683518805
 20
121.0232843204
 10
150.0968996674
 20
121.3442460193
 10
150.3845414385
 20
121.7903723499
 10
150.6079745718
 20
122.3255200802
 10
150.7490978815
 20
122.9063356785
 10
150.7964779862
 20
123.4857645376
 10
150.7462769054
 20
124.0168652056
 10
150.6025612593
 20
124.4566096483
 10
150.376973977
 20
124.7693738459
 10
150.0877913326
 20
124.9298183737
 10
149.7584407457
 20
124.9249466254
 10
149.4156041421
 20
124.7551516188
 10
149.0870563552
 20
124.43418992
 10
148.7994143512
 20
123.9880631236
 10
148.575981218
 20
123.4529149277
 10
148.4348581411
 20
122.8720993294
 10
148.3874778036
 20
122.2926714016
 10
148.4376791172
 20
121.7615707336
  0
LWPOLYLINE
  5
154
330
1F
100
AcDbEntity
  8
0
  6
HIDDEN
 62
     7
370
     0
100
AcDbPolyline
 90
       19
 70
   128
 43
0.0
 10
157.8867526964
 20
120.5380172959
 10
158.3979752153
 20
120.5893476052
 10
158.8596839696
 20
120.801886127
 10
159.2161905259
 20
121.1499977416
 10
159.4244947896
 20
121.5916942364
 10
159.4594734028
 20
122.0737007005
 10
159.3169056118
 20
122.5378811849
 10
159.0139873565
 20
122.9282469047
 10
158.5872562841
 20
123.1977157785
 10
158.0881819368
 20
123.3137846483
 10
157.5769603491
 20
123.2624538733
 10
157.1152506635
 20
123.0499148859
 10
156.7587441072
 20
122.7018042026
 10
156.5504398436
 20
122.2601067765
 10
156.5154621616
 20
121.7781003123
 10
156.6580299527
 20
121.3139202936
 10
156.9609472767
 20
120.9235541081
 10
157.387678349
 20
120.6540857
 10
157.8867526964
 20
120.5380172959
  0
LWPOLYLINE
  5
155
330
1F
100
AcDbEntity
  8
0
  6
HIDDEN
 62
     7
370
     0
100
AcDbPolyline
 90
       23
 70
   128
 43
0.0
 10
157.8514024854
 20
120.1534756018
 10
158.419073397
 20
120.1934055915
 10
158.9517787338
 20
120.3820040008
 10
159.4063610077
 20
120.7039924828
 10
159.7459929303
 20
121.1332856236
 10
159.9431595072
 20
121.6351036472
 10
159.9818876252
 20
122.168793392
 10
159.8590396583
 20
122.6911172761
 10
159.584568651
 20
123.1597606583
 10
159.1807089985
 20
123.5367572425
 10
158.6801808566
 20
123.7915633736
 10
158.1235330791
 20
123.9035372181
 10
157.5558621675
 20
123.863607694
 10
157.0231568307
 20
123.6750092847
 10
156.5685745567
 20
123.3530203371
 10
156.2289426342
 20
122.9237281276
 10
156.0317751259
 20
122.421910104
 10
155.9930470079
 20
121.8882203592
 10
156.1158949748
 20
121.3658960095
 10
156.3903669134
 20
120.8972526273
 10
156.7942256347
 20
120.5202565087
 10
157.2947537765
 20
120.2654499119
 10
157.8514024854
 20
120.1534756018
  0
LWPOLYLINE
  5
156
330
1F
100
AcDbEntity
  8
0
  6
HIDDEN
 62
     7
370
     0
100
AcDbPolyline
 90
       23
 70
   128
 43
0.0
 10
157.8514024854
 20
120.478394956
 10
158.419073397
 20
120.51832448
 10
158.9517787338
 20
120.706923355
 10
159.4063610077
 20
121.028911837
 10
159.7459929303
 20
121.4582045121
 10
159.9431595072
 20
121.9600225357
 10
159.9818876252
 20
122.4937122805
 10
159.8590396583
 20
123.0160361646
 10
159.584568651
 20
123.4846804781
 10
159.1807089985
 20
123.861676131
 10
158.6801808566
 20
124.1164822621
 10
158.1235330791
 20
124.2284570379
 10
157.5558621675
 20
124.1885265825
 10
157.0231568307
 20
123.9999281732
 10
156.5685745567
 20
123.6779401569
 10
156.2289426342
 20
123.2486470161
 10
156.0317751259
 20
122.7468289925
 10
155.9930470079
 20
122.2131392477
 10
156.1158949748
 20
121.6908153637
 10
156.3903669134
 20
121.2221715158
 10
156.7942256347
 20
120.8451758629
 10
157.2947537765
 20
120.5903692661
 10
157.8514024854
 20
120.478394956
  0
LWPOLYLINE
  5
157
330
1F
100
AcDbEntity
  8
0
  6
HIDDEN
 62
     7
370
     0
100
AcDbPolyline
 90
       20
 70
   128
 43
0.0
 10
157.8854181111
 20
121.8877081318
 10
158.3768686518
 20
121.9327664493
 10
158.8261209667
 20
122.1253341554
 10
159.1844920308
 20
122.4445431052
 10
159.4131475553
 20
122.8558011843
 10
159.4873078406
 20
123.3145427449
 10
159.3989374355
 20
123.7710565819
 10
159.1576121986
 20
124.1758717714
 10
158.7894836679
 20
124.4851211576
 10
158.3344450459
 20
124.6652910976
 10
157.8418052063
 20
124.6968582763
 10
157.3649503529
 20
124.5764028771
 10
156.955554919
 20
124.3169764547
 10
156.6579824552
 20
123.9466928436
 10
156.5044818685
 20
123.5056771455
 10
156.5116847173
 20
123.0417220412
 10
156.6788114846
 20
122.6051021857
 10
156.9877516717
 20
122.2431343539
 10
157.405027026
 20
121.9950411959
 10
157.8854181111
 20
121.8877081318
  0
LWPOLYLINE
  5
158
330
1F
100
AcDbEntity
  8
0
  6
HIDDEN
 62
     7
370
     0
100
AcDbPolyline
 90
       20
 70
   128
 43
0.0
 10
157.8854181111
 20
120.8842294781
 10
158.3768686518
 20
120.9292882612
 10
158.8261209667
 20
121.1218559673
 10
159.1844920308
 20
121.4410644515
 10
159.4131475553
 20
121.8523225306
 10
159.4873078406
 20
122.3110650225
 10
159.3989374355
 20
122.7675788595
 10
159.1576121986
 20
123.172394049
 10
158.7894836679
 20
123.4816425039
 10
158.3344450459
 20
123.6618124439
 10
157.8418052063
 20
123.6933796225
 10
157.3649503529
 20
123.5729242234
 10
156.955554919
 20
123.313497801
 10
156.6579824552
 20
122.9432141898
 10
156.5044818685
 20
122.5021994231
 10
156.5116847173
 20
122.0382433875
 10
156.6788114846
 20
121.6016239977
 10
156.9877516717
 20
121.2396557002
 10
157.405027026
 20
120.9915625421
 10
157.8854181111
 20
120.8842294781
  0
LWPOLYLINE
  5
159
330
1F
100
AcDbEntity
  8
0
  6
HIDDEN
 62
     7
370
     0
100
AcDbPolyline
 90
       23
 70
   128
 43
0.0
 10
157.8514024854
 20
120.6707815198
 10
158.419073397
 20
120.7107110439
 10
158.9517787338
 20
120.8993094532
 10
159.4063610077
 20
121.2212979352
 10
159.7459929303
 20
121.650591076
 10
159.9431595072
 20
122.1524095653
 10
159.9818876252
 20
122.6860983787
 10
159.8590396583
 20
123.2084231941
 10
159.584568651
 20
123.6770665763
 10
159.1807089985
 20
124.0540622292
 10
158.6801808566
 20
124.3088692917
 10
158.1235330791
 20
124.4208431361
 10
157.5558621675
 20
124.3809136121
 10
157.0231568307
 20
124.1923142715
 10
156.5685745567
 20
123.8703262551
 10
156.2289426342
 20
123.4410331143
 10
156.0317751259
 20
122.9392150907
 10
155.9930470079
 20
122.4055253459
 10
156.1158949748
 20
121.8832014619
 10
156.3903669134
 20
121.4145580797
 10
156.7942256347
 20
121.0375619611
 10
157.2947537765
 20
120.7827553643
 10
157.8514024854
 20
120.6707815198
  0
LWPOLYLINE
  5
15A
330
1F
100
AcDbEntity
  8
0
  6
HIDDEN
 62
     7
370
     0
100
AcDbPolyline
 90
       22
 70
   128
 43
0.0
 10
157.8622868523
 20
120.6764937868
 10
158.4089415387
 20
120.7184596477
 10
158.9181458816
 20
120.9099730967
 10
159.3446562305
 20
121.2340174733
 10
159.6505733446
 20
121.6617990775
 10
159.8087165743
 20
122.1553087725
 10
159.8050341249
 20
122.6706952347
 10
159.6398519591
 20
123.1621653332
 10
159.3278495834
 20
123.5860484211
 10
158.8967478141
 20
123.9046808822
 10
158.3848519489
 20
124.0897514416
 10
157.837646851
 20
124.1248157365
 10
157.3037550092
 20
124.0067575617
 10
156.830613339
 20
123.7460673345
 10
156.4602626726
 20
123.3659079788
 10
156.2256112933
 20
122.9000585644
 10
156.1475087196
 20
122.3899126543
 10
156.2328951672
 20
121.8807986496
 10
156.4741822198
 20
121.4179522848
 10
156.8499317631
 20
121.0425007647
 10
157.3267558828
 20
120.7878045296
 10
157.8622868523
 20
120.6764937868
  0
LWPOLYLINE
  5
15B
330
1F
100
AcDbEntity
  8
0
  6
HIDDEN
 62
     7
370
     0
100
AcDbPolyline
 90
       23
 70
   128
 43
0.0
 10
157.8514024854
 20
120.863167618
 10
158.419073397
 20
120.9030971421
 10
158.9517787338
 20
121.0916960171
 10
159.4063610077
 20
121.4136844991
 10
159.7459929303
 20
121.8429776399
 10
159.9431595072
 20
122.3447956635
 10
159.9818876252
 20
122.8784844769
 10
159.8590396583
 20
123.4008092923
 10
159.584568651
 20
123.8694526745
 10
159.1807089985
 20
124.2464483274
 10
158.6801808566
 20
124.5012553899
 10
158.1235330791
 20
124.6132292343
 10
157.5558621675
 20
124.5732997103
 10
157.0231568307
 20
124.384701301
 10
156.5685745567
 20
124.0627123533
 10
156.2289426342
 20
123.6334201438
 10
156.0317751259
 20
123.1316011889
 10
155.9930470079
 20
122.5979123755
 10
156.1158949748
 20
122.0755875601
 10
156.3903669134
 20
121.6069441779
 10
156.7942256347
 20
121.229948525
 10
157.2947537765
 20
120.9751419282
 10
157.8514024854
 20
120.863167618
  0
LWPOLYLINE
  5
15C
330
1F
100
AcDbEntity
  8
0
  6
HIDDEN
 62
     7
370
     0
100
AcDbPolyline
 90
       22
 70
   128
 43
0.0
 10
157.8622868523
 20
120.8688803507
 10
158.4089415387
 20
120.9108462116
 10
158.9181458816
 20
121.1023596605
 10
159.3446562305
 20
121.4264035715
 10
159.6505733446
 20
121.8541851757
 10
159.8087165743
 20
122.3476948707
 10
159.8050341249
 20
122.8630822642
 10
159.6398519591
 20
123.3545514314
 10
159.3278495834
 20
123.7784345193
 10
158.8967478141
 20
124.0970679117
 10
158.3848519489
 20
124.2821384711
 10
157.837646851
 20
124.3172018347
 10
157.3037550092
 20
124.1991436599
 10
156.830613339
 20
123.9384534327
 10
156.4602626726
 20
123.558294077
 10
156.2256112933
 20
123.0924455939
 10
156.1475087196
 20
122.5822996838
 10
156.2328951672
 20
122.0731847478
 10
156.4741822198
 20
121.6103388487
 10
156.8499317631
 20
121.2348873286
 10
157.3267558828
 20
120.9801906278
 10
157.8622868523
 20
120.8688803507
  0
LWPOLYLINE
  5
15D
330
1F
100
AcDbEntity
  8
0
  6
HIDDEN
 62
     7
370
     0
100
AcDbPolyline
 90
       23
 70
   128
 43
0.0
 10
157.8514024854
 20
121.0555541819
 10
158.419073397
 20
121.095483706
 10
158.9517787338
 20
121.2840821153
 10
159.4063610077
 20
121.6060705973
 10
159.7459929303
 20
122.0353637381
 10
159.9431595072
 20
122.5371817617
 10
159.9818876252
 20
123.0708715065
 10
159.8590396583
 20
123.5931953905
 10
159.584568651
 20
124.0618387727
 10
159.1807089985
 20
124.438835357
 10
158.6801808566
 20
124.6936414881
 10
158.1235330791
 20
124.8056153325
 10
157.5558621675
 20
124.7656858085
 10
157.0231568307
 20
124.5770873992
 10
156.5685745567
 20
124.2550984515
 10
156.2289426342
 20
123.8258062421
 10
156.0317751259
 20
123.3239882184
 10
155.9930470079
 20
122.7902984737
 10
156.1158949748
 20
122.2679745896
 10
156.3903669134
 20
121.7993307417
 10
156.7942256347
 20
121.4223346232
 10
157.2947537765
 20
121.1675280264
 10
157.8514024854
 20
121.0555541819
  0
LWPOLYLINE
  5
15E
330
1F
100
AcDbEntity
  8
0
  6
HIDDEN
 62
     7
370
     0
100
AcDbPolyline
 90
       22
 70
   128
 43
0.0
 10
157.8622868523
 20
121.0612664489
 10
158.4089415387
 20
121.1032323098
 10
158.9181458816
 20
121.2947457587
 10
159.3446562305
 20
121.6187901354
 10
159.6505733446
 20
122.0465722053
 10
159.8087165743
 20
122.5400819002
 10
159.8050341249
 20
123.0554683624
 10
159.6398519591
 20
123.5469375296
 10
159.3278495834
 20
123.9708206175
 10
158.8967478141
 20
124.28945401
 10
158.3848519489
 20
124.4745245693
 10
157.837646851
 20
124.509587933
 10
157.3037550092
 20
124.3915297581
 10
156.830613339
 20
124.130839531
 10
156.4602626726
 20
123.7506811066
 10
156.2256112933
 20
123.2848316921
 10
156.1475087196
 20
122.774685782
 10
156.2328951672
 20
122.265570846
 10
156.4741822198
 20
121.8027249469
 10
156.8499317631
 20
121.4272734268
 10
157.3267558828
 20
121.1725771917
 10
157.8622868523
 20
121.0612664489
  0
LWPOLYLINE
  5
15F
330
1F
100
AcDbEntity
  8
0
  6
HIDDEN
 62
     7
370
     0
100
AcDbPolyline
 90
       23
 70
   128
 43
0.0
 10
157.8514024854
 20
121.2479402801
 10
158.419073397
 20
121.2878698042
 10
158.9517787338
 20
121.4764686791
 10
159.4063610077
 20
121.7984571612
 10
159.7459929303
 20
122.2277498363
 10
159.9431595072
 20
122.7295678599
 10
159.9818876252
 20
123.2632576047
 10
159.8590396583
 20
123.7855814887
 10
159.584568651
 20
124.2542258022
 10
159.1807089985
 20
124.6312214552
 10
158.6801808566
 20
124.8860275863
 10
158.1235330791
 20
124.9980023621
 10
157.5558621675
 20
124.9580719067
 10
157.0231568307
 20
124.7694734974
 10
156.5685745567
 20
124.447485481
 10
156.2289426342
 20
124.0181923403
 10
156.0317751259
 20
123.5163743166
 10
155.9930470079
 20
122.9826845719
 10
156.1158949748
 20
122.4603606878
 10
156.3903669134
 20
121.9917173056
 10
156.7942256347
 20
121.614721187
 10
157.2947537765
 20
121.3599145902
 10
157.8514024854
 20
121.2479402801
  0
LWPOLYLINE
  5
160
330
1F
100
AcDbEntity
  8
0
  6
HIDDEN
 62
     7
370
     0
100
AcDbPolyline
 90
       22
 70
   128
 43
0.0
 10
157.8622868523
 20
121.2536530128
 10
158.4089415387
 20
121.2956188737
 10
158.9181458816
 20
121.4871323226
 10
159.3446562305
 20
121.8111766992
 10
159.6505733446
 20
122.2389583035
 10
159.8087165743
 20
122.7324679984
 10
159.8050341249
 20
123.2478544606
 10
159.6398519591
 20
123.7393245591
 10
159.3278495834
 20
124.163207647
 10
158.8967478141
 20
124.4818401082
 10
158.3848519489
 20
124.6669106675
 10
157.837646851
 20
124.7019749625
 10
157.3037550092
 20
124.5839167876
 10
156.830613339
 20
124.3232256292
 10
156.4602626726
 20
123.9430672048
 10
156.2256112933
 20
123.4772177903
 10
156.1475087196
 20
122.9670718802
 10
156.2328951672
 20
122.4579569442
 10
156.4741822198
 20
121.9951110451
 10
156.8499317631
 20
121.6196599906
 10
157.3267558828
 20
121.3649632899
 10
157.8622868523
 20
121.2536530128
  0
LWPOLYLINE
  5
161
330
1F
100
AcDbEntity
  8
0
  6
HIDDEN
 62
     7
370
     0
100
AcDbPolyline
 90
       23
 70
   128
 43
0.0
 10
157.8514024854
 20
121.3847483067
 10
158.419073397
 20
121.4246778308
 10
158.9517787338
 20
121.6132767057
 10
159.4063610077
 20
121.9352651877
 10
159.7459929303
 20
122.3645583285
 10
159.9431595072
 20
122.8663763521
 10
159.9818876252
 20
123.4000660969
 10
159.8590396583
 20
123.922389981
 10
159.584568651
 20
124.3910333632
 10
159.1807089985
 20
124.7680290161
 10
158.6801808566
 20
125.0228360785
 10
158.1235330791
 20
125.134809923
 10
157.5558621675
 20
125.0948803989
 10
157.0231568307
 20
124.9062819896
 10
156.5685745567
 20
124.584293042
 10
156.2289426342
 20
124.1550008325
 10
156.0317751259
 20
123.6531818776
 10
155.9930470079
 20
123.1194930641
 10
156.1158949748
 20
122.5971682487
 10
156.3903669134
 20
122.1285248665
 10
156.7942256347
 20
121.7515292136
 10
157.2947537765
 20
121.4967226168
 10
157.8514024854
 20
121.3847483067
  0
LWPOLYLINE
  5
162
330
1F
100
AcDbEntity
  8
0
  6
HIDDEN
 62
     7
370
     0
100
AcDbPolyline
 90
       22
 70
   128
 43
0.0
 10
157.8582057968
 20
121.5127017839
 10
158.4226850659
 20
121.5560362233
 10
158.948493959
 20
121.7537946558
 10
159.388911748
 20
122.0884053527
 10
159.7048051894
 20
122.5301363064
 10
159.8681051523
 20
123.0397392554
 10
159.8643025622
 20
123.5719314335
 10
159.693734558
 20
124.0794277309
 10
159.3715574831
 20
124.5171325771
 10
158.9263973996
 20
124.8461558042
 10
158.3978103712
 20
125.0372613339
 10
157.8327620641
 20
125.0734683616
 10
157.2814600781
 20
124.9515610306
 10
156.7928891868
 20
124.682369691
 10
156.4104629919
 20
124.2898144318
 10
156.1681598664
 20
123.8087742148
 10
156.0875101254
 20
123.2819930209
 10
156.1756802962
 20
122.75627726
 10
156.4248360932
 20
122.2783383472
 10
156.8128381163
 20
121.8906436606
 10
157.3052106664
 20
121.6276418908
 10
157.8582057968
 20
121.5127017839
  0
ARC
  5
163
330
1F
100
AcDbEntity
  8
0
  6
HIDDEN
 62
     7
370
     0
100
AcDbCircle
 10
157.9688967553
 20
104.6776003024
 30
0.0
 40
1.978033665500636
100
AcDbArc
 50
337.4871793582
 51
182.8877156017
  0
ARC
  5
164
330
1F
100
AcDbEntity
  8
0
  6
HIDDEN
 62
     7
370
     0
100
AcDbCircle
 10
157.9674203777
 20
104.6364969477
 30
0.0
 40
1.885929231981615
100
AcDbArc
 50
341.0364988894
 51
160.8419503386
  0
ARC
  5
165
330
1F
100
AcDbEntity
  8
0
  6
HIDDEN
 62
     7
370
     0
100
AcDbCircle
 10
158.0375478933
 20
104.6542637173
 30
0.0
 40
1.444659993332829
100
AcDbArc
 50
353.7533236906
 51
92.4739747435
  0
LWPOLYLINE
  5
166
330
1F
100
AcDbEntity
  8
0
  6
HIDDEN
 62
     7
370
     0
100
AcDbPolyline
 90
       23
 70
   128
 43
0.0
 10
157.3034271837
 20
103.0930514006
 10
156.8016520009
 20
103.3456828935
 10
156.395943673
 20
103.7209211407
 10
156.1191713676
 20
104.1883687047
 10
155.9937576071
 20
104.7101542844
 10
156.0298621893
 20
105.2440060793
 10
156.2245607615
 20
105.7466744004
 10
156.5620795131
 20
106.1774371682
 10
157.0150738821
 20
106.5013949318
 10
157.5468460337
 20
106.6923039524
 10
158.1143157795
 20
106.7346968247
 10
158.6715074495
 20
106.6251397623
 10
159.1732835636
 20
106.372508735
 10
159.5789909602
 20
105.9972690908
 10
159.8557632655
 20
105.5298224582
 10
159.9811770261
 20
105.0080368785
 10
159.9450724438
 20
104.4741850836
 10
159.7503738717
 20
103.9715158312
 10
159.4128560514
 20
103.5407539947
 10
158.9598607511
 20
103.2167962311
 10
158.4280885995
 20
103.0258872105
 10
157.8606197849
 20
102.9834943382
 10
157.3034271837
 20
103.0930514006
  0
LWPOLYLINE
  5
167
330
1F
100
AcDbEntity
  8
0
  6
HIDDEN
 62
     7
370
     0
100
AcDbPolyline
 90
       20
 70
   128
 43
0.0
 10
157.4744375661
 20
104.3670308335
 10
157.0445576921
 20
104.5953315241
 10
156.7168578744
 20
104.9424270658
 10
156.5268475801
 20
105.3707032023
 10
156.4951183513
 20
105.8337493358
 10
156.625108631
 20
106.281387203
 10
156.9027312339
 20
106.6651088676
 10
157.2979016468
 20
106.9433317078
 10
157.7677976579
 20
107.0859060181
 10
158.2614982739
 20
107.0773816226
 10
158.7255027384
 20
106.9186828589
 10
159.1095308081
 20
106.6270061327
 10
159.3719644711
 20
106.2339600666
 10
159.4843676552
 20
105.7821373014
 10
159.43455773
 20
105.3204983963
 10
159.2279335723
 20
104.899071206
 10
158.8868851081
 20
104.5635222016
 10
158.4483709425
 20
104.3502148731
 10
157.9599108786
 20
104.2822627841
 10
157.4744375661
 20
104.3670308335
  0
LWPOLYLINE
  5
168
330
1F
100
AcDbEntity
  8
0
  6
HIDDEN
 62
     7
370
     0
100
AcDbPolyline
 90
       23
 70
   128
 43
0.0
 10
157.3034271837
 20
103.2854374988
 10
156.8016520009
 20
103.5380689917
 10
156.395943673
 20
103.9133081703
 10
156.1191713676
 20
104.3807548029
 10
155.9937576071
 20
104.9025403826
 10
156.0298621893
 20
105.4363921775
 10
156.2245607615
 20
105.9390614299
 10
156.5620795131
 20
106.3698232664
 10
157.0150738821
 20
106.6937814957
 10
157.5468460337
 20
106.8846900506
 10
158.1143157795
 20
106.9270833885
 10
158.6715074495
 20
106.8175263262
 10
159.1732835636
 20
106.5648948332
 10
159.5789909602
 20
106.1896556547
 10
159.8557632655
 20
105.7222085564
 10
159.9811770261
 20
105.2004229767
 10
159.9450724438
 20
104.6665711818
 10
159.7503738717
 20
104.1639028607
 10
159.4128560514
 20
103.7331400929
 10
158.9598607511
 20
103.4091823293
 10
158.4280885995
 20
103.2182733087
 10
157.8606197849
 20
103.1758804364
 10
157.3034271837
 20
103.2854374988
  0
LWPOLYLINE
  5
169
330
1F
100
AcDbEntity
  8
0
  6
HIDDEN
 62
     7
370
     0
100
AcDbPolyline
 90
       22
 70
   128
 43
0.0
 10
157.3581507668
 20
103.3786247043
 10
156.8764670059
 20
103.6251159875
 10
156.4935015753
 20
103.9940724639
 10
156.2432812766
 20
104.4527106477
 10
156.1480395735
 20
104.9602795882
 10
156.216238463
 20
105.4716781272
 10
156.4418196917
 20
105.9414661048
 10
156.8047384039
 20
106.3279025747
 10
157.2727475554
 20
106.5966492077
 10
157.804262662
 20
106.7238278246
 10
158.3520563558
 20
106.6981372913
 10
158.8674549252
 20
106.5218607454
 10
159.3046624452
 20
106.2106607041
 10
159.6248315886
 20
105.7921890659
 10
159.799514176
 20
105.3036293505
 10
159.813187854
 20
104.7883909686
 10
159.6646381781
 20
104.2922558753
 10
159.367064783
 20
103.8593072934
 10
158.9469079167
 20
103.5280162959
 10
158.4415015072
 20
103.3278173326
 10
157.8957511351
 20
103.2765005274
 10
157.3581507668
 20
103.3786247043
  0
LWPOLYLINE
  5
16A
330
1F
100
AcDbEntity
  8
0
  6
HIDDEN
 62
     7
370
     0
100
AcDbPolyline
 90
       23
 70
   128
 43
0.0
 10
157.3034271837
 20
103.477823597
 10
156.8016520009
 20
103.7304550899
 10
156.395943673
 20
104.1056942685
 10
156.1191713676
 20
104.5731418325
 10
155.9937576071
 20
105.0949274121
 10
156.0298621893
 20
105.628779207
 10
156.2245607615
 20
106.1314475281
 10
156.5620795131
 20
106.5622098303
 10
157.0150738821
 20
106.8861675939
 10
157.5468460337
 20
107.0770766145
 10
158.1143157795
 20
107.1194694867
 10
158.6715074495
 20
107.0099124244
 10
159.1732835636
 20
106.7572813971
 10
159.5789909602
 20
106.3820422186
 10
159.8557632655
 20
105.9145946546
 10
159.9811770261
 20
105.3928090749
 10
159.9450724438
 20
104.85895728
 10
159.7503738717
 20
104.3562889589
 10
159.4128560514
 20
103.9255261911
 10
158.9598607511
 20
103.6015684275
 10
158.4280885995
 20
103.4106594069
 10
157.8606197849
 20
103.3682665346
 10
157.3034271837
 20
103.477823597
  0
LWPOLYLINE
  5
16B
330
1F
100
AcDbEntity
  8
0
  6
HIDDEN
 62
     7
370
     0
100
AcDbPolyline
 90
       22
 70
   128
 43
0.0
 10
157.3581507668
 20
103.5710108025
 10
156.8764670059
 20
103.8175020857
 10
156.4935015753
 20
104.1864585621
 10
156.2432812766
 20
104.6450967459
 10
156.1480395735
 20
105.1526656864
 10
156.216238463
 20
105.6640642254
 10
156.4418196917
 20
106.1338531343
 10
156.8047384039
 20
106.5202886729
 10
157.2727475554
 20
106.7890357716
 10
157.804262662
 20
106.9162139228
 10
158.3520563558
 20
106.8905233896
 10
158.8674549252
 20
106.7142468436
 10
159.3046624452
 20
106.4030472679
 10
159.6248315886
 20
105.9845751641
 10
159.799514176
 20
105.4960154487
 10
159.813187854
 20
104.9807770668
 10
159.6646381781
 20
104.4846419735
 10
159.367064783
 20
104.0516943229
 10
158.9469079167
 20
103.7204023941
 10
158.4415015072
 20
103.5202034308
 10
157.8957511351
 20
103.4688866256
 10
157.3581507668
 20
103.5710108025
  0
LWPOLYLINE
  5
16C
330
1F
100
AcDbEntity
  8
0
  6
HIDDEN
 62
     7
370
     0
100
AcDbPolyline
 90
       23
 70
   128
 43
0.0
 10
157.3034271837
 20
103.6702096952
 10
156.8016520009
 20
103.9228411881
 10
156.395943673
 20
104.2980803667
 10
156.1191713676
 20
104.7655279307
 10
155.9937576071
 20
105.2873135103
 10
156.0298621893
 20
105.8211653052
 10
156.2245607615
 20
106.3238336263
 10
156.5620795131
 20
106.7545959285
 10
157.0150738821
 20
107.0785541577
 10
157.5468460337
 20
107.2694627127
 10
158.1143157795
 20
107.3118560506
 10
158.6715074495
 20
107.2022989882
 10
159.1732835636
 20
106.9496674953
 10
159.5789909602
 20
106.5744283168
 10
159.8557632655
 20
106.1069807528
 10
159.9811770261
 20
105.5851961045
 10
159.9450724438
 20
105.0513443096
 10
159.7503738717
 20
104.5486750571
 10
159.4128560514
 20
104.1179132206
 10
158.9598607511
 20
103.7939545257
 10
158.4280885995
 20
103.6030464364
 10
157.8606197849
 20
103.5606526328
 10
157.3034271837
 20
103.6702096952
  0
LWPOLYLINE
  5
16D
330
1F
100
AcDbEntity
  8
0
  6
HIDDEN
 62
     7
370
     0
100
AcDbPolyline
 90
       22
 70
   128
 43
0.0
 10
157.3581507668
 20
103.7633969007
 10
156.8764670059
 20
104.0098881839
 10
156.4935015753
 20
104.3788446603
 10
156.2432812766
 20
104.8374837754
 10
156.1480395735
 20
105.3450517846
 10
156.216238463
 20
105.8564503236
 10
156.4418196917
 20
106.3262392325
 10
156.8047384039
 20
106.7126752367
 10
157.2727475554
 20
106.9814218698
 10
157.804262662
 20
107.1086004866
 10
158.3520563558
 20
107.0829099534
 10
158.8674549252
 20
106.9066334074
 10
159.3046624452
 20
106.5954333661
 10
159.6248315886
 20
106.1769621937
 10
159.799514176
 20
105.6884015469
 10
159.813187854
 20
105.173163165
 10
159.6646381781
 20
104.6770280717
 10
159.367064783
 20
104.2440804212
 10
158.9469079167
 20
103.9127884923
 10
158.4415015072
 20
103.712589529
 10
157.8957511351
 20
103.6612727238
 10
157.3581507668
 20
103.7633969007
  0
LWPOLYLINE
  5
16E
330
1F
100
AcDbEntity
  8
0
  6
HIDDEN
 62
     7
370
     0
100
AcDbPolyline
 90
       23
 70
   128
 43
0.0
 10
157.3034271837
 20
103.8625967248
 10
156.8016520009
 20
104.1152282177
 10
156.395943673
 20
104.4904664649
 10
156.1191713676
 20
104.9579140289
 10
155.9937576071
 20
105.4796996085
 10
156.0298621893
 20
106.0135514034
 10
156.2245607615
 20
106.5162201902
 10
156.5620795131
 20
106.9469824923
 10
157.0150738821
 20
107.2709402559
 10
157.5468460337
 20
107.4618492765
 10
158.1143157795
 20
107.5042421488
 10
158.6715074495
 20
107.3946850864
 10
159.1732835636
 20
107.1420540592
 10
159.5789909602
 20
106.7668148806
 10
159.8557632655
 20
106.2993673166
 10
159.9811770261
 20
105.7775822027
 10
159.9450724438
 20
105.2437304078
 10
159.7503738717
 20
104.7410611553
 10
159.4128560514
 20
104.3102993189
 10
158.9598607511
 20
103.9863415552
 10
158.4280885995
 20
103.7954325346
 10
157.8606197849
 20
103.7530396624
 10
157.3034271837
 20
103.8625967248
  0
LWPOLYLINE
  5
16F
330
1F
100
AcDbEntity
  8
0
  6
HIDDEN
 62
     7
370
     0
100
AcDbPolyline
 90
       22
 70
   128
 43
0.0
 10
157.3581507668
 20
103.9557829989
 10
156.8764670059
 20
104.2022742821
 10
156.4935015753
 20
104.5712316899
 10
156.2432812766
 20
105.0298698736
 10
156.1480395735
 20
105.5374378828
 10
156.216238463
 20
106.0488364218
 10
156.4418196917
 20
106.5186253308
 10
156.8047384039
 20
106.9050613349
 10
157.2727475554
 20
107.1738084337
 10
157.804262662
 20
107.3009865848
 10
158.3520563558
 20
107.2752960516
 10
158.8674549252
 20
107.0990195057
 10
159.3046624452
 20
106.78781993
 10
159.6248315886
 20
106.3693482919
 10
159.799514176
 20
105.8807876451
 10
159.813187854
 20
105.3655492632
 10
159.6646381781
 20
104.8694151012
 10
159.367064783
 20
104.4364665194
 10
158.9469079167
 20
104.1051745905
 10
158.4415015072
 20
103.9049765585
 10
157.8957511351
 20
103.853658822
 10
157.3581507668
 20
103.9557829989
  0
LWPOLYLINE
  5
170
330
1F
100
AcDbEntity
  8
0
  6
HIDDEN
 62
     7
370
     0
100
AcDbPolyline
 90
       23
 70
   128
 43
0.0
 10
157.3034271837
 20
104.1875156133
 10
156.8016520009
 20
104.4401471062
 10
156.395943673
 20
104.8153862847
 10
156.1191713676
 20
105.2828329174
 10
155.9937576071
 20
105.804618497
 10
156.0298621893
 20
106.3384707576
 10
156.2245607615
 20
106.8411390787
 10
156.5620795131
 20
107.2719013808
 10
157.0150738821
 20
107.5958596101
 10
157.5468460337
 20
107.7867681651
 10
158.1143157795
 20
107.829161503
 10
158.6715074495
 20
107.7196044406
 10
159.1732835636
 20
107.4669729477
 10
159.5789909602
 20
107.0917337692
 10
159.8557632655
 20
106.6242866708
 10
159.9811770261
 20
106.1025010912
 10
159.9450724438
 20
105.5686492963
 10
159.7503738717
 20
105.0659809752
 10
159.4128560514
 20
104.6352182074
 10
158.9598607511
 20
104.3112604438
 10
158.4280885995
 20
104.1203514232
 10
157.8606197849
 20
104.0779585509
 10
157.3034271837
 20
104.1875156133
  0
LWPOLYLINE
  5
171
330
1F
100
AcDbEntity
  8
0
  6
HIDDEN
 62
     7
370
     0
100
AcDbPolyline
 90
       19
 70
   128
 43
0.0
 10
157.4811458826
 20
104.7489531828
 10
157.0358945296
 20
104.9905168383
 10
156.7054165766
 20
105.3606123222
 10
156.5295735613
 20
105.8146032063
 10
156.5295735613
 20
106.2977291202
 10
156.7054165766
 20
106.7517195387
 10
157.0358945296
 20
107.1218154883
 10
157.4811458826
 20
107.3633786781
 10
157.9874677822
 20
107.4472726813
 10
158.4937887505
 20
107.3633786781
 10
158.9390401036
 20
107.1218154883
 10
159.2695180565
 20
106.7517195387
 10
159.4453620032
 20
106.2977291202
 10
159.4453620032
 20
105.8146032063
 10
159.2695180565
 20
105.3606123222
 10
158.9390401036
 20
104.9905168383
 10
158.4937887505
 20
104.7489531828
 10
157.9874677822
 20
104.6650596453
 10
157.4811458826
 20
104.7489531828
  0
LWPOLYLINE
  5
172
330
1F
100
AcDbEntity
  8
0
  6
HIDDEN
 62
     7
370
     0
100
AcDbPolyline
 90
       20
 70
   128
 43
0.0
 10
148.6780923564
 20
105.321969886
 10
148.7706707098
 20
104.802374777
 10
148.9522506722
 20
104.3142565085
 10
149.2031545617
 20
103.9105114086
 10
149.4961938128
 20
103.6348902179
 10
149.799612654
 20
103.5172623141
 10
150.0805312075
 20
103.5703728465
 10
150.3085073322
 20
103.7884671731
 10
150.4588363
 20
104.1479120521
 10
150.5152278818
 20
104.6097558482
 10
150.4715707392
 20
105.1239492862
 10
150.3325964563
 20
105.6347731991
 10
150.1133645192
 20
106.0868707044
 10
149.8376320355
 20
106.4312509751
 10
149.5352795586
 20
106.6305945186
 10
149.2390710168
 20
106.6632993078
 10
148.9811053738
 20
106.5258211946
 10
148.7893372082
 20
106.2330585463
 10
148.6845478189
 20
105.8167368664
 10
148.6780923564
 20
105.321969886
  0
LWPOLYLINE
  5
173
330
1F
100
AcDbEntity
  8
0
  6
HIDDEN
 62
     7
370
     0
100
AcDbPolyline
 90
       23
 70
   128
 43
0.0
 10
148.6411621567
 20
105.4216437532
 10
148.7335621618
 20
104.8634471862
 10
148.9104487241
 20
104.3274151651
 10
149.1574913502
 20
103.8569715364
 10
149.4546759181
 20
103.4902306764
 10
149.7779272735
 20
103.2569027065
 10
150.1010561601
 20
103.175890681
 10
150.3978854284
 20
103.2537576301
 10
150.644367864
 20
103.4841957061
 10
150.8205345139
 20
103.8485356165
 10
150.9121133253
 20
104.3172609551
 10
150.9116853826
 20
104.8523979752
 10
150.8192851447
 20
105.4105936108
 10
150.6423985824
 20
105.9466265632
 10
150.3953559563
 20
106.4170697263
 10
150.0981713884
 20
106.7838105863
 10
149.7749204986
 20
107.0171385562
 10
149.4517911464
 20
107.0981505817
 10
149.1549618781
 20
107.0202836326
 10
148.9084799081
 20
106.7898460223
 10
148.7323132582
 20
106.4255061118
 10
148.640734214
 20
105.9567807732
 10
148.6411621567
 20
105.4216437532
  0
LWPOLYLINE
  5
174
330
1F
100
AcDbEntity
  8
0
  6
HIDDEN
 62
     7
370
     0
100
AcDbPolyline
 90
       23
 70
   128
 43
0.0
 10
150.2998083137
 20
105.8188640071
 10
150.3922085516
 20
105.2606683714
 10
150.5690951139
 20
104.7246363504
 10
150.81613774
 20
104.2541927217
 10
151.1133223079
 20
103.8874518616
 10
151.4365736634
 20
103.6541238917
 10
151.7597025499
 20
103.5731118662
 10
152.0565318182
 20
103.6509788154
 10
152.3030142539
 20
103.8814168913
 10
152.4791809038
 20
104.2457568018
 10
152.5707597152
 20
104.7144821404
 10
152.5703317724
 20
105.2496191604
 10
152.4779315345
 20
105.8078147961
 10
152.3010449723
 20
106.3438477485
 10
152.0540023461
 20
106.8142904459
 10
151.7568177782
 20
107.1810317716
 10
151.4335668885
 20
107.4143597415
 10
151.1104375363
 20
107.495371767
 10
150.8136082679
 20
107.4175048178
 10
150.567126298
 20
107.1870667419
 10
150.3909596481
 20
106.8227272971
 10
150.2993808367
 20
106.3540019585
 10
150.2998083137
 20
105.8188640071
  0
LINE
  5
175
330
1F
100
AcDbEntity
  8
0
  6
HIDDEN
 62
     7
370
     0
100
AcDbLine
 10
150.0020724029
 20
104.040497963
 30
0.0
 11
150.2474214189
 21
104.9285214884
 31
0.0
  0
LINE
  5
176
330
1F
100
AcDbEntity
  8
0
  6
HIDDEN
 62
     7
370
     0
100
AcDbLine
 10
149.837327493
 20
105.9808722256
 30
0.0
 11
150.2474214189
 21
104.9285214884
 31
0.0
  0
LINE
  5
177
330
1F
100
AcDbEntity
  8
0
  6
HIDDEN
 62
     7
370
     0
100
AcDbLine
 10
149.1818836198
 20
106.1451994373
 30
0.0
 11
149.837327493
 21
105.9808722256
 31
0.0
  0
LINE
  5
178
330
1F
100
AcDbEntity
  8
0
  6
HIDDEN
 62
     7
370
     0
100
AcDbLine
 10
149.1818836198
 20
106.1451994373
 30
0.0
 11
148.9365346037
 21
105.2571759118
 31
0.0
  0
LINE
  5
179
330
1F
100
AcDbEntity
  8
0
  6
HIDDEN
 62
     7
370
     0
100
AcDbLine
 10
149.3466285296
 20
104.2048251746
 30
0.0
 11
148.9365346037
 21
105.2571759118
 31
0.0
  0
LINE
  5
17A
330
1F
100
AcDbEntity
  8
0
  6
HIDDEN
 62
     7
370
     0
100
AcDbLine
 10
149.3466285296
 20
104.2048251746
 30
0.0
 11
150.0020724029
 21
104.040497963
 31
0.0
  0
LINE
  5
17B
330
1F
100
AcDbEntity
  8
0
  6
HIDDEN
 62
     7
370
     0
100
AcDbLine
 10
151.4761497505
 20
105.2227840318
 30
0.0
 11
150.2474214189
 21
104.9285214884
 31
0.0
  0
LWPOLYLINE
  5
17C
330
1F
100
AcDbEntity
  8
0
  6
HIDDEN
 62
     7
370
     0
100
AcDbPolyline
 90
       18
 70
   128
 43
0.0
 10
151.3398958609
 20
105.8592619864
 10
151.4250047744
 20
105.4091593741
 10
151.594446344
 20
104.9958207203
 10
151.825336577
 20
104.6750704317
 10
152.0864924655
 20
104.4902261837
 10
152.3426434264
 20
104.4662530093
 10
152.5591950171
 20
104.6063881857
 10
152.7069004491
 20
104.8917063071
 10
152.7658112586
 20
105.2836729704
 10
152.7279716224
 20
105.7293518005
 10
152.5984917075
 20
106.1685504882
 10
152.3948584922
 20
106.5419530986
 10
152.1445739322
 20
106.7991299113
 10
151.8814399146
 20
106.9053467853
 10
151.6409947776
 20
106.8462594902
 10
151.455711411
 20
106.6298480636
 10
151.3506139867
 20
106.285339736
 10
151.3398958609
 20
105.8592619864
  0
LINE
  5
17D
330
1F
100
AcDbEntity
  8
0
  6
HIDDEN
 62
     7
370
     0
100
AcDbLine
 10
151.066055359
 20
106.2751343032
 30
0.0
 11
149.837327493
 21
105.9808722256
 31
0.0
  0
LINE
  5
17E
330
1F
100
AcDbEntity
  8
0
  6
HIDDEN
 62
     7
370
     0
100
AcDbLine
 10
150.4106119514
 20
106.4394615149
 30
0.0
 11
150.1652624697
 21
105.5514375238
 31
0.0
  0
LINE
  5
17F
330
1F
100
AcDbEntity
  8
0
  6
HIDDEN
 62
     7
370
     0
100
AcDbLine
 10
150.5753568612
 20
104.4990867866
 30
0.0
 11
151.2308002688
 21
104.3347605063
 31
0.0
  0
LINE
  5
180
330
1F
100
AcDbEntity
  8
0
  6
HIDDEN
 62
     7
370
     0
100
AcDbLine
 10
150.5753568612
 20
104.4990867866
 30
0.0
 11
150.1652624697
 21
105.5514375238
 31
0.0
  0
LINE
  5
181
330
1F
100
AcDbEntity
  8
0
  6
HIDDEN
 62
     7
370
     0
100
AcDbLine
 10
150.4106119514
 20
106.4394615149
 30
0.0
 11
151.066055359
 21
106.2751343032
 31
0.0
  0
LINE
  5
182
330
1F
100
AcDbEntity
  8
0
  6
HIDDEN
 62
     7
370
     0
100
AcDbLine
 10
151.2308002688
 20
104.3347605063
 30
0.0
 11
151.4761497505
 21
105.2227840318
 31
0.0
  0
LINE
  5
183
330
1F
100
AcDbEntity
  8
0
  6
HIDDEN
 62
     7
370
     0
100
AcDbLine
 10
151.066055359
 20
106.2751343032
 30
0.0
 11
151.4761497505
 21
105.2227840318
 31
0.0
  0
LINE
  5
184
330
1F
100
AcDbEntity
  8
0
  6
HIDDEN
 62
     7
370
     0
100
AcDbLine
 10
150.5753568612
 20
104.4990867866
 30
0.0
 11
149.3466285296
 21
104.2048251746
 31
0.0
  0
LINE
  5
185
330
1F
100
AcDbEntity
  8
0
  6
HIDDEN
 62
     7
370
     0
100
AcDbLine
 10
151.2308002688
 20
104.3347605063
 30
0.0
 11
150.0020724029
 21
104.040497963
 31
0.0
  0
LINE
  5
186
330
1F
100
AcDbEntity
  8
0
  6
HIDDEN
 62
     7
370
     0
100
AcDbLine
 10
150.1652624697
 20
105.5514375238
 30
0.0
 11
148.9365346037
 21
105.2571759118
 31
0.0
  0
LINE
  5
187
330
1F
100
AcDbEntity
  8
0
  6
HIDDEN
 62
     7
370
     0
100
AcDbLine
 10
150.4106119514
 20
106.4394615149
 30
0.0
 11
149.1818836198
 21
106.1451994373
 31
0.0
  0
LWPOLYLINE
  5
188
330
1F
100
AcDbEntity
  8
0
  6
HIDDEN
 62
     7
370
     0
100
AcDbPolyline
 90
       23
 70
   128
 43
0.0
 10
150.2998083137
 20
122.1632026626
 10
150.3922085516
 20
122.7213982983
 10
150.5690951139
 20
123.2574303193
 10
150.81613774
 20
123.727873948
 10
151.1133223079
 20
124.0946148081
 10
151.4365736634
 20
124.327942778
 10
151.7597025499
 20
124.4089548035
 10
152.0565318182
 20
124.3310878543
 10
152.3030142539
 20
124.1006497784
 10
152.4791809038
 20
123.7363098679
 10
152.5707597152
 20
123.2675845293
 10
152.5703317724
 20
122.7324475093
 10
152.4779315345
 20
122.1742518736
 10
152.3010449723
 20
121.6382189212
 10
152.0540023461
 20
121.1677762238
 10
151.7568177782
 20
120.8010348981
 10
151.4335668885
 20
120.5677069282
 10
151.1104375363
 20
120.4866949028
 10
150.8136082679
 20
120.5645618519
 10
150.567126298
 20
120.7949999279
 10
150.3909596481
 20
121.1593393726
 10
150.2993808367
 20
121.6280647112
 10
150.2998083137
 20
122.1632026626
  0
LWPOLYLINE
  5
189
330
1F
100
AcDbEntity
  8
0
  6
HIDDEN
 62
     7
370
     0
100
AcDbPolyline
 90
       18
 70
   128
 43
0.0
 10
151.3398958609
 20
122.1228046833
 10
151.4250047744
 20
122.5729072957
 10
151.594446344
 20
122.9862459494
 10
151.825336577
 20
123.3069962381
 10
152.0864924655
 20
123.4918404861
 10
152.3426434264
 20
123.5158136604
 10
152.5591950171
 20
123.375678484
 10
152.7069004491
 20
123.0903603627
 10
152.7658112586
 20
122.6983936994
 10
152.7279716224
 20
122.2527148692
 10
152.5984917075
 20
121.8135161815
 10
152.3948584922
 20
121.4401135711
 10
152.1445739322
 20
121.1829367584
 10
151.8814399146
 20
121.0767198844
 10
151.6409947776
 20
121.1358071795
 10
151.455711411
 20
121.3522186062
 10
151.3506139867
 20
121.6967269337
 10
151.3398958609
 20
122.1228046833
  0
LWPOLYLINE
  5
18A
330
1F
100
AcDbEntity
  8
0
  6
HIDDEN
 62
     7
370
     0
100
AcDbPolyline
 90
       23
 70
   128
 43
0.0
 10
148.6411621567
 20
122.5604229165
 10
148.7335621618
 20
123.1186194835
 10
148.9104487241
 20
123.6546515046
 10
149.1574913502
 20
124.1250951333
 10
149.4546759181
 20
124.4918359934
 10
149.7779272735
 20
124.7251639633
 10
150.1010561601
 20
124.8061759887
 10
150.3978854284
 20
124.7283090396
 10
150.644367864
 20
124.4978709636
 10
150.8205345139
 20
124.1335310532
 10
150.9121133253
 20
123.6648057146
 10
150.9116853826
 20
123.1296686946
 10
150.8192851447
 20
122.5714730589
 10
150.6423985824
 20
122.0354401065
 10
150.3953559563
 20
121.5649969434
 10
150.0981713884
 20
121.1982560834
 10
149.7749204986
 20
120.9649281135
 10
149.4517911464
 20
120.883916088
 10
149.1549618781
 20
120.9617830372
 10
148.9084799081
 20
121.1922206475
 10
148.7323132582
 20
121.5565605579
 10
148.640734214
 20
122.0252858965
 10
148.6411621567
 20
122.5604229165
  0
LINE
  5
18B
330
1F
100
AcDbEntity
  8
0
  6
HIDDEN
 62
     7
370
     0
100
AcDbLine
 10
150.5753568612
 20
123.4829798831
 30
0.0
 11
150.1652624697
 21
122.4306291459
 31
0.0
  0
LINE
  5
18C
330
1F
100
AcDbEntity
  8
0
  6
HIDDEN
 62
     7
370
     0
100
AcDbLine
 10
150.1652624697
 20
122.4306291459
 30
0.0
 11
148.9365346037
 21
122.7248907579
 31
0.0
  0
LINE
  5
18D
330
1F
100
AcDbEntity
  8
0
  6
HIDDEN
 62
     7
370
     0
100
AcDbLine
 10
150.4106119514
 20
121.5426051548
 30
0.0
 11
150.1652624697
 21
122.4306291459
 31
0.0
  0
LINE
  5
18E
330
1F
100
AcDbEntity
  8
0
  6
HIDDEN
 62
     7
370
     0
100
AcDbLine
 10
149.1818836198
 20
121.8368672324
 30
0.0
 11
148.9365346037
 21
122.7248907579
 31
0.0
  0
LINE
  5
18F
330
1F
100
AcDbEntity
  8
0
  6
HIDDEN
 62
     7
370
     0
100
AcDbLine
 10
149.3466285296
 20
123.7772414951
 30
0.0
 11
148.9365346037
 21
122.7248907579
 31
0.0
  0
LWPOLYLINE
  5
190
330
1F
100
AcDbEntity
  8
0
  6
HIDDEN
 62
     7
370
     0
100
AcDbPolyline
 90
       20
 70
   128
 43
0.0
 10
148.6780923564
 20
122.6600967838
 10
148.7706707098
 20
123.1796918927
 10
148.9522506722
 20
123.6678101612
 10
149.2031545617
 20
124.0715552611
 10
149.4961938128
 20
124.3471764518
 10
149.799612654
 20
124.4648043556
 10
150.0805312075
 20
124.4116938232
 10
150.3085073322
 20
124.1935994966
 10
150.4588363
 20
123.8341546176
 10
150.5152278818
 20
123.3723108215
 10
150.4715707392
 20
122.8581173835
 10
150.3325964563
 20
122.3472934706
 10
150.1133645192
 20
121.8951959653
 10
149.8376320355
 20
121.5508156946
 10
149.5352795586
 20
121.3514721511
 10
149.2390710168
 20
121.3187673619
 10
148.9811053738
 20
121.4562454751
 10
148.7893372082
 20
121.7490081234
 10
148.6845478189
 20
122.1653298034
 10
148.6780923564
 20
122.6600967838
  0
LINE
  5
191
330
1F
100
AcDbEntity
  8
0
  6
HIDDEN
 62
     7
370
     0
100
AcDbLine
 10
149.3466285296
 20
123.7772414951
 30
0.0
 11
150.0020724029
 21
123.9415687068
 31
0.0
  0
LINE
  5
192
330
1F
100
AcDbEntity
  8
0
  6
HIDDEN
 62
     7
370
     0
100
AcDbLine
 10
150.5753568612
 20
123.4829798831
 30
0.0
 11
149.3466285296
 21
123.7772414951
 31
0.0
  0
LINE
  5
193
330
1F
100
AcDbEntity
  8
0
  6
HIDDEN
 62
     7
370
     0
100
AcDbLine
 10
150.5753568612
 20
123.4829798831
 30
0.0
 11
151.2308002688
 21
123.6473061634
 31
0.0
  0
LINE
  5
194
330
1F
100
AcDbEntity
  8
0
  6
HIDDEN
 62
     7
370
     0
100
AcDbLine
 10
151.066055359
 20
121.7069323665
 30
0.0
 11
149.837327493
 21
122.0011944441
 31
0.0
  0
LINE
  5
195
330
1F
100
AcDbEntity
  8
0
  6
HIDDEN
 62
     7
370
     0
100
AcDbLine
 10
149.1818836198
 20
121.8368672324
 30
0.0
 11
149.837327493
 21
122.0011944441
 31
0.0
  0
LINE
  5
196
330
1F
100
AcDbEntity
  8
0
  6
HIDDEN
 62
     7
370
     0
100
AcDbLine
 10
150.4106119514
 20
121.5426051548
 30
0.0
 11
149.1818836198
 21
121.8368672324
 31
0.0
  0
LINE
  5
197
330
1F
100
AcDbEntity
  8
0
  6
HIDDEN
 62
     7
370
     0
100
AcDbLine
 10
150.4106119514
 20
121.5426051548
 30
0.0
 11
151.066055359
 21
121.7069323665
 31
0.0
  0
LINE
  5
198
330
1F
100
AcDbEntity
  8
0
  6
HIDDEN
 62
     7
370
     0
100
AcDbLine
 10
151.4761497505
 20
122.759282638
 30
0.0
 11
150.2474214189
 21
123.0535451813
 31
0.0
  0
LINE
  5
199
330
1F
100
AcDbEntity
  8
0
  6
HIDDEN
 62
     7
370
     0
100
AcDbLine
 10
151.2308002688
 20
123.6473061634
 30
0.0
 11
150.0020724029
 21
123.9415687068
 31
0.0
  0
LINE
  5
19A
330
1F
100
AcDbEntity
  8
0
  6
HIDDEN
 62
     7
370
     0
100
AcDbLine
 10
150.0020724029
 20
123.9415687068
 30
0.0
 11
150.2474214189
 21
123.0535451813
 31
0.0
  0
LINE
  5
19B
330
1F
100
AcDbEntity
  8
0
  6
HIDDEN
 62
     7
370
     0
100
AcDbLine
 10
151.2308002688
 20
123.6473061634
 30
0.0
 11
151.4761497505
 21
122.759282638
 31
0.0
  0
LINE
  5
19C
330
1F
100
AcDbEntity
  8
0
  6
HIDDEN
 62
     7
370
     0
100
AcDbLine
 10
149.837327493
 20
122.0011944441
 30
0.0
 11
150.2474214189
 21
123.0535451813
 31
0.0
  0
LINE
  5
19D
330
1F
100
AcDbEntity
  8
0
  6
HIDDEN
 62
     7
370
     0
100
AcDbLine
 10
151.066055359
 20
121.7069323665
 30
0.0
 11
151.4761497505
 21
122.759282638
 31
0.0
  0
LINE
  5
19E
330
1F
100
AcDbEntity
  8
0
  6
HIDDEN
 62
     7
370
     0
100
AcDbLine
 10
200.9374683962
 20
142.7532416327
 30
0.0
 11
199.9374663696
 21
143.7532417966
 31
0.0
  0
LINE
  5
19F
330
1F
100
AcDbEntity
  8
0
  6
HIDDEN
 62
     7
370
     0
100
AcDbLine
 10
185.9374678001
 20
143.7532417966
 30
0.0
 11
184.9374657736
 21
142.7532416327
 31
0.0
  0
LINE
  5
1A0
330
1F
100
AcDbEntity
  8
0
  6
HIDDEN
 62
     7
370
     0
100
AcDbLine
 10
184.9374657736
 20
142.7532416327
 30
0.0
 11
184.9374657736
 21
132.5833686186
 31
0.0
  0
LINE
  5
1A1
330
1F
100
AcDbEntity
  8
0
  6
HIDDEN
 62
     7
370
     0
100
AcDbLine
 10
200.9374683962
 20
132.5833686186
 30
0.0
 11
200.9374683962
 21
142.7532416327
 31
0.0
  0
LINE
  5
1A2
330
1F
100
AcDbEntity
  8
0
  6
HIDDEN
 62
     7
370
     0
100
AcDbLine
 10
184.9374657736
 20
132.5833686186
 30
0.0
 11
187.3381695018
 21
123.6238321779
 31
0.0
  0
LINE
  5
1A3
330
1F
100
AcDbEntity
  8
0
  6
HIDDEN
 62
     7
370
     0
100
AcDbLine
 10
198.5367683932
 20
123.6238321779
 30
0.0
 11
200.9374683962
 21
132.5833686186
 31
0.0
  0
ARC
  5
1A4
330
1F
100
AcDbEntity
  8
0
  6
HIDDEN
 62
     7
370
     0
100
AcDbCircle
 10
187.821131008
 20
123.753241293
 30
0.0
 40
0.5000000000000079
100
AcDbArc
 50
195.0
 51
270.0
  0
ARC
  5
1A5
330
1F
100
AcDbEntity
  8
0
  6
HIDDEN
 62
     7
370
     0
100
AcDbCircle
 10
198.05380402
 20
123.753241293
 30
0.0
 40
0.5
100
AcDbArc
 50
270.0
 51
345.0
  0
LINE
  5
1A6
330
1F
100
AcDbEntity
  8
0
  6
HIDDEN
 62
     7
370
     0
100
AcDbLine
 10
188.2374657557
 20
143.7532417966
 30
0.0
 11
188.8324579463
 21
143.158249606
 31
0.0
  0
LINE
  5
1A7
330
1F
100
AcDbEntity
  8
0
  6
HIDDEN
 62
     7
370
     0
100
AcDbLine
 10
197.0424762234
 20
143.158249606
 30
0.0
 11
197.637468414
 21
143.7532417966
 31
0.0
  0
LINE
  5
1A8
330
1F
100
AcDbEntity
  8
0
  6
HIDDEN
 62
     7
370
     0
100
AcDbLine
 10
188.9374664292
 20
133.7532420201
 30
0.0
 11
188.9374664292
 21
132.7532418562
 31
0.0
  0
LINE
  5
1A9
330
1F
100
AcDbEntity
  8
0
  6
HIDDEN
 62
     7
370
     0
100
AcDbLine
 10
196.9374677405
 20
132.7532418562
 30
0.0
 11
196.9374677405
 21
133.7532420201
 31
0.0
  0
LINE
  5
1AA
330
1F
100
AcDbEntity
  8
0
  6
HIDDEN
 62
     7
370
     0
100
AcDbLine
 10
188.9374664292
 20
132.7532418562
 30
0.0
 11
192.9374670849
 21
131.2973611547
 31
0.0
  0
LINE
  5
1AB
330
1F
100
AcDbEntity
  8
0
  6
HIDDEN
 62
     7
370
     0
100
AcDbLine
 10
192.9374670849
 20
131.2973611547
 30
0.0
 11
196.9374677405
 21
132.7532418562
 31
0.0
  0
LINE
  5
1AC
330
1F
100
AcDbEntity
  8
0
  6
HIDDEN
 62
     7
370
     0
100
AcDbLine
 10
159.9874671787
 20
103.1321902318
 30
0.0
 11
159.9874671787
 21
105.9535602598
 31
0.0
  0
LINE
  5
1AD
330
1F
100
AcDbEntity
  8
0
  6
HIDDEN
 62
     7
370
     0
100
AcDbLine
 10
155.9874674544
 20
105.9366055323
 30
0.0
 11
155.9874674544
 21
104.415149477
 31
0.0
  0
LINE
  5
1AE
330
1F
100
AcDbEntity
  8
0
  6
HIDDEN
 62
     7
370
     0
100
AcDbLine
 10
148.1874674332
 20
102.5971081598
 30
0.0
 11
150.081066718
 21
103.050597061
 31
0.0
  0
LINE
  5
1AF
330
1F
100
AcDbEntity
  8
0
  6
HIDDEN
 62
     7
370
     0
100
AcDbLine
 10
149.1028893046
 20
107.1351003392
 30
0.0
 11
148.1874674332
 21
106.9158707304
 31
0.0
  0
LINE
  5
1B0
330
1F
100
AcDbEntity
  8
0
  6
HIDDEN
 62
     7
370
     0
100
AcDbLine
 10
150.1104280591
 20
103.5203533737
 30
0.0
 11
157.3174882919
 21
105.2463362483
 31
0.0
  0
LINE
  5
1B1
330
1F
100
AcDbEntity
  8
0
  6
HIDDEN
 62
     7
370
     0
100
AcDbLine
 10
157.3174882919
 20
108.6396500958
 30
0.0
 11
149.341860158
 21
106.7296057498
 31
0.0
  0
LINE
  5
1B2
330
1F
100
AcDbEntity
  8
0
  6
HIDDEN
 62
     7
370
     0
100
AcDbLine
 10
159.6374677733
 20
105.9971293925
 30
0.0
 11
159.6374677733
 21
111.9406889683
 31
0.0
  0
LINE
  5
1B3
330
1F
100
AcDbEntity
  8
0
  6
HIDDEN
 62
     7
370
     0
100
AcDbLine
 10
156.3374677912
 20
106.0193693755
 30
0.0
 11
156.3374677912
 21
105.9971293925
 31
0.0
  0
LINE
  5
1B4
330
1F
100
AcDbEntity
  8
0
  6
HIDDEN
 62
     7
370
     0
100
AcDbLine
 10
156.3374677912
 20
111.9399313374
 30
0.0
 11
156.3374677912
 21
107.3972164212
 31
0.0
  0
ARC
  5
1B5
330
1F
100
AcDbEntity
  8
0
  6
HIDDEN
 62
     7
370
     0
100
AcDbCircle
 10
209.987467514
 20
132.9910333349
 30
0.0
 40
1.0
100
AcDbArc
 50
270.0
 51
0.0
  0
ARC
  5
1B6
330
1F
100
AcDbEntity
  8
0
  6
HIDDEN
 62
     7
370
     0
100
AcDbCircle
 10
209.987467514
 20
94.9910333349
 30
0.0
 40
1.0
100
AcDbArc
 50
0.0
 51
90.0
  0
ARC
  5
1B7
330
1F
100
AcDbEntity
  8
0
  6
HIDDEN
 62
     7
370
     0
100
AcDbCircle
 10
173.3558150164
 20
131.4910333349
 30
0.0
 40
1.00000000000003
100
AcDbArc
 50
75.0
 51
90.0
  0
ARC
  5
1B8
330
1F
100
AcDbEntity
  8
0
  6
HIDDEN
 62
     7
370
     0
100
AcDbCircle
 10
173.3558150164
 20
96.4910333349
 30
0.0
 40
1.000000000000017
100
AcDbArc
 50
270.0
 51
285.0
  0
LINE
  5
1B9
330
1F
100
AcDbEntity
  8
0
  6
HIDDEN
 62
     7
370
     0
100
AcDbLine
 10
173.3558157698
 20
132.4910335733
 30
0.0
 11
171.4874672011
 21
132.4910335733
 31
0.0
  0
LINE
  5
1BA
330
1F
100
AcDbEntity
  8
0
  6
HIDDEN
 62
     7
370
     0
100
AcDbLine
 10
171.4874672011
 20
95.4910330964
 30
0.0
 11
173.3558157698
 21
95.4910330964
 31
0.0
  0
ARC
  5
1BB
330
1F
100
AcDbEntity
  8
0
  6
HIDDEN
 62
     7
370
     0
100
AcDbCircle
 10
171.487467514
 20
131.4910333349
 30
0.0
 40
1.0
100
AcDbArc
 50
90.0
 51
180.0
  0
ARC
  5
1BC
330
1F
100
AcDbEntity
  8
0
  6
HIDDEN
 62
     7
370
     0
100
AcDbCircle
 10
171.487467514
 20
96.4910333349
 30
0.0
 40
1.0
100
AcDbArc
 50
180.0
 51
270.0
  0
LINE
  5
1BD
330
1F
100
AcDbEntity
  8
0
  6
HIDDEN
 62
     7
370
     0
100
AcDbLine
 10
173.6146340385
 20
95.5251083268
 30
0.0
 11
175.3534933791
 21
95.9910341097
 31
0.0
  0
LINE
  5
1BE
330
1F
100
AcDbEntity
  8
0
  6
HIDDEN
 62
     7
370
     0
100
AcDbLine
 10
175.3534933791
 20
131.99103256
 30
0.0
 11
173.6146340385
 21
132.4569583429
 31
0.0
  0
LINE
  5
1BF
330
1F
100
AcDbEntity
  8
0
  6
HIDDEN
 62
     7
370
     0
100
AcDbLine
 10
185.7062911853
 20
131.99103256
 30
0.0
 11
175.3534933791
 21
131.99103256
 31
0.0
  0
LINE
  5
1C0
330
1F
100
AcDbEntity
  8
0
  6
HIDDEN
 62
     7
370
     0
100
AcDbLine
 10
209.9874651298
 20
131.99103256
 30
0.0
 11
200.1615314052
 21
131.99103256
 31
0.0
  0
LINE
  5
1C1
330
1F
100
AcDbEntity
  8
0
  6
HIDDEN
 62
     7
370
     0
100
AcDbLine
 10
175.3534933791
 20
95.9910341097
 30
0.0
 11
209.9874651298
 21
95.9910341097
 31
0.0
  0
ARC
  5
1C2
330
1F
100
AcDbEntity
  8
0
  6
HIDDEN
 62
     7
370
     0
100
AcDbCircle
 10
77.537467514
 20
104.6910333349
 30
0.0
 40
0.7999999999999972
100
AcDbArc
 50
90.0
 51
180.0
  0
ARC
  5
1C3
330
1F
100
AcDbEntity
  8
0
  6
HIDDEN
 62
     7
370
     0
100
AcDbCircle
 10
77.537467514
 20
123.2910333349
 30
0.0
 40
0.8000000000000114
100
AcDbArc
 50
180.0
 51
270.0
  0
LINE
  5
1C4
330
1F
100
AcDbEntity
  8
0
  6
HIDDEN
 62
     7
370
     0
100
AcDbLine
 10
183.1874659524
 20
145.4910338415
 30
0.0
 11
185.6874672935
 21
142.9910325004
 31
0.0
  0
LINE
  5
1C5
330
1F
100
AcDbEntity
  8
0
  6
HIDDEN
 62
     7
370
     0
100
AcDbLine
 10
200.1874668762
 20
142.9910325004
 30
0.0
 11
202.6874682173
 21
145.4910338415
 31
0.0
  0
LINE
  5
1C6
330
1F
100
AcDbEntity
  8
0
  6
HIDDEN
 62
     7
370
     0
100
AcDbLine
 10
84.6298409865
 20
105.2660337208
 30
0.0
 11
85.5065284536
 21
105.2660337208
 31
0.0
  0
LINE
  5
1C7
330
1F
100
AcDbEntity
  8
0
  6
HIDDEN
 62
     7
370
     0
100
AcDbLine
 10
85.5065284536
 20
122.7160329489
 30
0.0
 11
84.6298409865
 21
122.7160329489
 31
0.0
  0
ARC
  5
1C8
330
1F
100
AcDbEntity
  8
0
  6
HIDDEN
 62
     7
370
     0
100
AcDbCircle
 10
85.5065274063
 20
105.6660333349
 30
0.0
 40
0.400000000000005
100
AcDbArc
 50
270.0
 51
330.0
  0
ARC
  5
1C9
330
1F
100
AcDbEntity
  8
0
  6
HIDDEN
 62
     7
370
     0
100
AcDbCircle
 10
85.5065274063
 20
122.3160333349
 30
0.0
 40
0.400000000000005
100
AcDbArc
 50
30.0
 51
90.0
  0
ARC
  5
1CA
330
1F
100
AcDbEntity
  8
0
  6
HIDDEN
 62
     7
370
     0
100
AcDbCircle
 10
84.6298399447
 20
105.6660333349
 30
0.0
 40
0.3999999999999915
100
AcDbArc
 50
255.0
 51
270.0
  0
ARC
  5
1CB
330
1F
100
AcDbEntity
  8
0
  6
HIDDEN
 62
     7
370
     0
100
AcDbCircle
 10
84.6298399447
 20
122.3160333349
 30
0.0
 40
0.3999999999999915
100
AcDbArc
 50
90.0
 51
105.0
  0
LINE
  5
1CC
330
1F
100
AcDbEntity
  8
0
  6
HIDDEN
 62
     7
370
     0
100
AcDbLine
 10
84.5263114438
 20
122.7024039744
 30
0.0
 11
83.7374663219
 21
122.4910337968
 31
0.0
  0
LINE
  5
1CD
330
1F
100
AcDbEntity
  8
0
  6
HIDDEN
 62
     7
370
     0
100
AcDbLine
 10
83.7374663219
 20
105.4910328729
 30
0.0
 11
84.5263114438
 21
105.2796626954
 31
0.0
  0
LINE
  5
1CE
330
1F
100
AcDbEntity
  8
0
  6
HIDDEN
 62
     7
370
     0
100
AcDbLine
 10
85.8529357478
 20
105.4660333811
 30
0.0
 11
86.733396934
 21
106.9910331188
 31
0.0
  0
LINE
  5
1CF
330
1F
100
AcDbEntity
  8
0
  6
HIDDEN
 62
     7
370
     0
100
AcDbLine
 10
86.733396934
 20
120.9910335509
 30
0.0
 11
85.8529357478
 21
122.5160332887
 31
0.0
  0
LINE
  5
1D0
330
1F
100
AcDbEntity
  8
0
  6
HIDDEN
 62
     7
370
     0
100
AcDbLine
 10
77.5374656782
 20
105.4910328729
 30
0.0
 11
83.7374663219
 21
105.4910328729
 31
0.0
  0
LINE
  5
1D1
330
1F
100
AcDbEntity
  8
0
  6
HIDDEN
 62
     7
370
     0
100
AcDbLine
 10
83.7374663219
 20
122.4910337968
 30
0.0
 11
77.5374656782
 21
122.4910337968
 31
0.0
  0
ARC
  5
1D2
330
1F
100
AcDbEntity
  8
0
  6
HIDDEN
 62
     7
370
     0
100
AcDbCircle
 10
170.487467514
 20
89.7910333349
 30
0.0
 40
1.600000000000023
100
AcDbArc
 50
0.0
 51
90.0
  0
LINE
  5
1D3
330
1F
100
AcDbEntity
  8
0
  6
HIDDEN
 62
     7
370
     0
100
AcDbLine
 10
185.6874672935
 20
142.9910325004
 30
0.0
 11
185.6874672935
 21
131.983473946
 31
0.0
  0
LINE
  5
1D4
330
1F
100
AcDbEntity
  8
0
  6
HIDDEN
 62
     7
370
     0
100
AcDbLine
 10
200.1874668762
 20
131.9806036098
 30
0.0
 11
200.1874668762
 21
142.9910325004
 31
0.0
  0
LINE
  5
1D5
330
1F
100
AcDbEntity
  8
0
  6
HIDDEN
 62
     7
370
     0
100
AcDbLine
 10
119.7374666348
 20
106.9910331188
 30
0.0
 11
120.3383280203
 21
107.9910332827
 31
0.0
  0
LINE
  5
1D6
330
1F
100
AcDbEntity
  8
0
  6
HIDDEN
 62
     7
370
     0
100
AcDbLine
 10
120.3383280203
 20
119.991033387
 30
0.0
 11
119.7374666348
 21
120.9910335509
 31
0.0
  0
LINE
  5
1D7
330
1F
100
AcDbEntity
  8
0
  6
HIDDEN
 62
     7
370
     0
100
AcDbLine
 10
86.733396934
 20
106.9910331188
 30
0.0
 11
119.7374666348
 21
106.9910331188
 31
0.0
  0
LINE
  5
1D8
330
1F
100
AcDbEntity
  8
0
  6
HIDDEN
 62
     7
370
     0
100
AcDbLine
 10
119.7374666348
 20
120.9910335509
 30
0.0
 11
86.733396934
 21
120.9910335509
 31
0.0
  0
LINE
  5
1D9
330
1F
100
AcDbEntity
  8
0
  6
HIDDEN
 62
     7
370
     0
100
AcDbLine
 10
172.0874680445
 20
88.9910329623
 30
0.0
 11
172.0874680445
 21
89.791033466
 31
0.0
  0
LINE
  5
1DA
330
1F
100
AcDbEntity
  8
0
  6
HIDDEN
 62
     7
370
     0
100
AcDbLine
 10
170.4874670372
 20
119.991033387
 30
0.0
 11
120.3383280203
 21
119.991033387
 31
0.0
  0
LINE
  5
1DB
330
1F
100
AcDbEntity
  8
0
  6
HIDDEN
 62
     7
370
     0
100
AcDbLine
 10
120.3383280203
 20
107.9910332827
 30
0.0
 11
170.4874670372
 21
107.9910332827
 31
0.0
  0
LINE
  5
1DC
330
1F
100
AcDbEntity
  8
0
  6
HIDDEN
 62
     7
370
     0
100
AcDbLine
 10
172.0874680445
 20
138.7910340471
 30
0.0
 11
172.0874680445
 21
138.9910337074
 31
0.0
  0
LINE
  5
1DD
330
1F
100
AcDbEntity
  8
0
  6
HIDDEN
 62
     7
370
     0
100
AcDbLine
 10
159.6374677733
 20
116.0421353324
 30
0.0
 11
159.6374677733
 21
121.9849372773
 31
0.0
  0
LINE
  5
1DE
330
1F
100
AcDbEntity
  8
0
  6
HIDDEN
 62
     7
370
     0
100
AcDbLine
 10
156.3374677912
 20
120.5848502485
 30
0.0
 11
156.3374677912
 21
116.0413777014
 31
0.0
  0
LINE
  5
1DF
330
1F
100
AcDbEntity
  8
0
  6
HIDDEN
 62
     7
370
     0
100
AcDbLine
 10
156.3374677912
 20
121.9849372773
 30
0.0
 11
156.3374677912
 21
121.9626972942
 31
0.0
  0
LINE
  5
1E0
330
1F
100
AcDbEntity
  8
0
  6
HIDDEN
 62
     7
370
     0
100
AcDbLine
 10
149.341860158
 20
121.2524609199
 30
0.0
 11
157.3174882919
 21
119.3424165739
 31
0.0
  0
LINE
  5
1E1
330
1F
100
AcDbEntity
  8
0
  6
HIDDEN
 62
     7
370
     0
100
AcDbLine
 10
157.3174882919
 20
122.7357304214
 30
0.0
 11
150.1104280591
 21
124.461713296
 31
0.0
  0
LINE
  5
1E2
330
1F
100
AcDbEntity
  8
0
  6
HIDDEN
 62
     7
370
     0
100
AcDbLine
 10
193.7874665723
 20
111.7410334317
 30
0.0
 11
191.233809875
 21
107.4910332007
 31
0.0
  0
LINE
  5
1E3
330
1F
100
AcDbEntity
  8
0
  6
HIDDEN
 62
     7
370
     0
100
AcDbLine
 10
191.233809875
 20
107.4910332007
 30
0.0
 11
193.7874665723
 21
103.2410329698
 31
0.0
  0
LINE
  5
1E4
330
1F
100
AcDbEntity
  8
0
  6
HIDDEN
 62
     7
370
     0
100
AcDbLine
 10
210.9874671564
 20
111.7410334317
 30
0.0
 11
193.7874665723
 21
111.7410334317
 31
0.0
  0
LINE
  5
1E5
330
1F
100
AcDbEntity
  8
0
  6
HIDDEN
 62
     7
370
     0
100
AcDbLine
 10
193.7874665723
 20
103.2410329698
 30
0.0
 11
210.9874671564
 21
103.2410329698
 31
0.0
  0
LINE
  5
1E6
330
1F
100
AcDbEntity
  8
0
  6
HIDDEN
 62
     7
370
     0
100
AcDbLine
 10
159.9874671787
 20
122.0285064099
 30
0.0
 11
159.9874671787
 21
124.8498764379
 31
0.0
  0
LINE
  5
1E7
330
1F
100
AcDbEntity
  8
0
  6
HIDDEN
 62
     7
370
     0
100
AcDbLine
 10
155.9874674544
 20
123.5669171928
 30
0.0
 11
155.9874674544
 21
122.0454611374
 31
0.0
  0
LINE
  5
1E8
330
1F
100
AcDbEntity
  8
0
  6
HIDDEN
 62
     7
370
     0
100
AcDbLine
 10
148.1874674332
 20
121.0661959393
 30
0.0
 11
149.1028893046
 21
120.8469663305
 31
0.0
  0
LINE
  5
1E9
330
1F
100
AcDbEntity
  8
0
  6
HIDDEN
 62
     7
370
     0
100
AcDbLine
 10
150.081066718
 20
124.9314696087
 30
0.0
 11
148.1874674332
 21
125.3849585099
 31
0.0
  0
LINE
  5
1EA
330
1F
100
AcDbEntity
  8
0
  6
HIDDEN
 62
     7
370
     0
100
AcDbLine
 10
159.9874671787
 20
122.0285064099
 30
0.0
 11
159.9874671787
 21
122.3534262298
 31
0.0
  0
LINE
  5
1EB
330
1F
100
AcDbEntity
  8
0
  6
HIDDEN
 62
     7
370
     0
100
AcDbLine
 10
155.9874674544
 20
122.3534262298
 30
0.0
 11
155.9874674544
 21
122.0285064099
 31
0.0
  0
LINE
  5
1EC
330
1F
100
AcDbEntity
  8
0
  6
HIDDEN
 62
     7
370
     0
100
AcDbLine
 10
159.4874670968
 20
122.2905032827
 30
0.0
 11
159.4874670968
 21
123.2939810051
 31
0.0
  0
LINE
  5
1ED
330
1F
100
AcDbEntity
  8
0
  6
HIDDEN
 62
     7
370
     0
100
AcDbLine
 10
156.4874675364
 20
123.2939810051
 30
0.0
 11
156.4874675364
 21
122.2905032827
 31
0.0
  0
LINE
  5
1EE
330
1F
100
AcDbEntity
  8
0
  6
HIDDEN
 62
     7
370
     0
100
AcDbLine
 10
159.9874671787
 20
123.1229715539
 30
0.0
 11
159.9874671787
 21
123.2597791148
 31
0.0
  0
LINE
  5
1EF
330
1F
100
AcDbEntity
  8
0
  6
HIDDEN
 62
     7
370
     0
100
AcDbLine
 10
155.9874674544
 20
123.2597791148
 30
0.0
 11
155.9874674544
 21
123.1229715539
 31
0.0
  0
LINE
  5
1F0
330
1F
100
AcDbEntity
  8
0
  6
HIDDEN
 62
     7
370
     0
100
AcDbLine
 10
155.9874674544
 20
104.8590951158
 30
0.0
 11
155.9874674544
 21
104.7222875549
 31
0.0
  0
LINE
  5
1F1
330
1F
100
AcDbEntity
  8
0
  6
HIDDEN
 62
     7
370
     0
100
AcDbLine
 10
159.9874671787
 20
104.7222875549
 30
0.0
 11
159.9874671787
 21
104.8590951158
 31
0.0
  0
LINE
  5
1F2
330
1F
100
AcDbEntity
  8
0
  6
HIDDEN
 62
     7
370
     0
100
AcDbLine
 10
156.4874675364
 20
105.691563387
 30
0.0
 11
156.4874675364
 21
104.6880856646
 31
0.0
  0
LINE
  5
1F3
330
1F
100
AcDbEntity
  8
0
  6
HIDDEN
 62
     7
370
     0
100
AcDbLine
 10
159.4874670968
 20
104.6880856646
 30
0.0
 11
159.4874670968
 21
105.691563387
 31
0.0
  0
LINE
  5
1F4
330
1F
100
AcDbEntity
  8
0
  6
HIDDEN
 62
     7
370
     0
100
AcDbLine
 10
155.9874674544
 20
105.9535602598
 30
0.0
 11
155.9874674544
 21
105.6286404399
 31
0.0
  0
LINE
  5
1F5
330
1F
100
AcDbEntity
  8
0
  6
HIDDEN
 62
     7
370
     0
100
AcDbLine
 10
159.9874671787
 20
105.6286404399
 30
0.0
 11
159.9874671787
 21
105.9535602598
 31
0.0
  0
ARC
  5
1F6
330
1F
100
AcDbEntity
  8
0
  6
HIDDEN
 62
     7
370
     0
100
AcDbCircle
 10
157.987467514
 20
105.2695196801
 30
0.0
 40
1.499999999999992
100
AcDbArc
 50
71.1182787691
 51
191.5274417159
  0
ARC
  5
1F7
330
1F
100
AcDbEntity
  8
0
  6
HIDDEN
 62
     7
370
     0
100
AcDbCircle
 10
157.987467514
 20
105.2695196801
 30
0.0
 40
1.500000000000019
100
AcDbArc
 50
336.6722113243
 51
71.1182787691
  0
CIRCLE
  5
1F8
330
1F
100
AcDbEntity
  8
0
  6
HIDDEN
 62
     7
370
     0
100
AcDbCircle
 10
157.987467514
 20
122.7125469897
 30
0.0
 40
1.500000000000008
  0
LINE
  5
1F9
330
1F
100
AcDbEntity
  8
0
  6
HIDDEN
 62
     7
370
     0
100
AcDbLine
 10
150.2422227763
 20
103.1920193253
 30
0.0
 11
151.9008691661
 21
103.5892405106
 31
0.0
  0
LINE
  5
1FA
330
1F
100
AcDbEntity
  8
0
  6
HIDDEN
 62
     7
370
     0
100
AcDbLine
 10
150.9692713857
 20
107.4792435883
 30
0.0
 11
149.3106249959
 21
107.082022403
 31
0.0
  0
LINE
  5
1FB
330
1F
100
AcDbEntity
  8
0
  6
HIDDEN
 62
     7
370
     0
100
AcDbLine
 10
152.4638327077
 20
104.2002160592
 30
0.0
 11
152.6924109325
 21
104.8476063205
 31
0.0
  0
LINE
  5
1FC
330
1F
100
AcDbEntity
  8
0
  6
HIDDEN
 62
     7
370
     0
100
AcDbLine
 10
152.2449705057
 20
106.7159506982
 30
0.0
 11
151.7479278386
 21
107.189565946
 31
0.0
  0
LINE
  5
1FD
330
1F
100
AcDbEntity
  8
0
  6
HIDDEN
 62
     7
370
     0
100
AcDbLine
 10
151.7479278386
 20
120.7925007237
 30
0.0
 11
152.2449705057
 21
121.2661159715
 31
0.0
  0
LINE
  5
1FE
330
1F
100
AcDbEntity
  8
0
  6
HIDDEN
 62
     7
370
     0
100
AcDbLine
 10
152.6924109325
 20
123.1344603492
 30
0.0
 11
152.4638327077
 21
123.7818506105
 31
0.0
  0
LINE
  5
1FF
330
1F
100
AcDbEntity
  8
0
  6
HIDDEN
 62
     7
370
     0
100
AcDbLine
 10
149.3106249959
 20
120.9000442667
 30
0.0
 11
150.9692713857
 21
120.5028230814
 31
0.0
  0
LINE
  5
200
330
1F
100
AcDbEntity
  8
0
  6
HIDDEN
 62
     7
370
     0
100
AcDbLine
 10
151.9008691661
 20
124.3928261591
 30
0.0
 11
150.2422227763
 21
124.7900473444
 31
0.0
  0
LINE
  5
201
330
1F
100
AcDbEntity
  8
VERMASSUNG
  6
CENTERX2
100
AcDbLine
 10
72.6494039218
 20
113.9910333349
 30
0.0
 11
214.2550580358
 21
113.9910333349
 31
0.0
  0
DIMENSION
  5
202
330
1F
100
AcDbEntity
  8
VERMASSUNG
100
AcDbDimension
  2
_D
 10
227.9611207317
 20
82.4910333349
 30
0.0
 11
227.9611207317
 21
113.9910333349
 31
0.0
 70
   160
  1
WH %%c<>
 71
     2
 42
-1.0
  3
SLDDIMSTYLE0
100
AcDbAlignedDimension
 13
210.387467514
 23
145.4910333349
 33
0.0
 14
210.387467514
 24
82.4910333349
 34
0.0
 50
90.0
100
AcDbRotatedDimension
  0
DIMENSION
  5
20F
330
1F
100
AcDbEntity
  8
VERMASSUNG
100
AcDbDimension
  2
_D_1
 10
221.5940375623
 20
95.9910333349
 30
0.0
 11
221.5940375623
 21
113.9910333349
 31
0.0
 70
   160
  1
%%c<>
 71
     2
 42
-1.0
  3
SLDDIMSTYLE0
100
AcDbAlignedDimension
 13
209.987467514
 23
131.9910333349
 33
0.0
 14
209.987467514
 24
95.9910333349
 34
0.0
 50
90.0
100
AcDbRotatedDimension
  0
DIMENSION
  5
21A
330
1F
100
AcDbEntity
  8
VERMASSUNG
100
AcDbDimension
  2
_D_2
 10
210.987467514
 20
152.7308272702
 30
0.0
 11
187.512467514
 21
152.7308272702
 31
0.0
 70
   160
  1
<>
 71
     2
 42
-1.0
  3
SLDDIMSTYLE0
100
AcDbAlignedDimension
 13
164.037467514
 23
144.0828926991
 33
0.0
 14
210.987467514
 24
144.8910333349
 34
0.0
100
AcDbRotatedDimension
  0
DIMENSION
  5
224
330
1F
100
AcDbEntity
  8
VERMASSUNG
100
AcDbDimension
  2
_D_3
 10
210.987467514
 20
159.1522619038
 30
0.0
 11
177.987467514
 21
159.1522619038
 31
0.0
 70
   160
  1
<>
 71
     2
 42
-1.0
  3
SLDDIMSTYLE0
100
AcDbAlignedDimension
 13
144.987467514
 23
136.2160333349
 33
0.0
 14
210.987467514
 24
144.8910333349
 34
0.0
100
AcDbRotatedDimension
  0
DIMENSION
  5
22E
330
1F
100
AcDbEntity
  8
VERMASSUNG
100
AcDbDimension
  2
_D_4
 10
76.737467514
 20
165.4631170408
 30
0.0
 11
143.862467514
 21
165.4631170408
 31
0.0
 70
   160
  1
<>
 71
     2
 42
-1.0
  3
SLDDIMSTYLE0
100
AcDbAlignedDimension
 13
210.987467514
 23
144.8910333349
 33
0.0
 14
76.737467514
 24
125.3981639319
 34
0.0
100
AcDbRotatedDimension
  0
DIMENSION
  5
238
330
1F
100
AcDbEntity
  8
VERMASSUNG
100
AcDbDimension
  2
_D_5
 10
66.737467514
 20
145.7410333349
 30
0.0
 11
66.737467514
 21
113.9910333349
 31
0.0
 70
   160
  1
ISO 40 %%c<>
 71
     2
 42
-1.0
  3
SLDDIMSTYLE0
100
AcDbAlignedDimension
 13
163.437467514
 23
82.2410333349
 33
0.0
 14
163.437467514
 24
145.7410333349
 34
0.0
 50
90.0
100
AcDbRotatedDimension
  0
LINE
  5
244
330
1F
100
AcDbEntity
  8
0
  6
Continuous
 62
     7
370
    15
100
AcDbLine
 10
273.0020700047
 20
45.9704773373
 30
0.0
 11
272.7210865145
 21
46.1327387562
 31
0.0
  0
LINE
  5
245
330
1F
100
AcDbEntity
  8
0
  6
Continuous
 62
     7
370
    15
100
AcDbLine
 10
267.770535504
 20
46.1327383961
 30
0.0
 11
267.4895521299
 21
45.9704774244
 31
0.0
  0
LINE
  5
246
330
1F
100
AcDbEntity
  8
0
  6
Continuous
 62
     7
370
    15
100
AcDbLine
 10
274.7606075815
 20
31.7498803818
 30
0.0
 11
277.7080325161
 21
32.3503962587
 31
0.0
  0
SPLINE
  5
247
330
1F
100
AcDbEntity
  8
0
  6
Continuous
 62
     7
370
    15
100
AcDbSpline
210
0.0
220
0.0
230
1.0
 70
     8
 71
     3
 72
    12
 73
     8
 74
     0
 42
0.000000001
 43
0.00000001
 40
0.0
 40
0.0
 40
0.0
 40
0.0
 40
0.2106543829901385
 40
0.4347411361212248
 40
0.6603502416233198
 40
0.8865513745164006
 40
1.0
 40
1.0
 40
1.0
 40
1.0
 10
272.7994985859276
 20
32.63625723740012
 30
0.0
 10
272.9171491485807
 20
32.51767661865534
 30
0.0
 10
273.1599522583337
 20
32.2729540917214
 30
0.0
 10
273.5603011019833
 20
31.99576452483972
 30
0.0
 10
273.9749492550069
 20
31.80525896623293
 30
0.0
 10
274.3243250244284
 20
31.71472596822772
 30
0.0
 10
274.5205733874346
 20
31.73499772780895
 30
0.0
 10
274.5861235799119
 20
31.74176883011039
 30
0.0
  0
LINE
  5
248
330
1F
100
AcDbEntity
  8
0
  6
Continuous
 62
     7
370
    15
100
AcDbLine
 10
276.4171269555
 20
15.896596953
 30
0.0
 11
276.6292254693
 21
16.0190778685
 31
0.0
  0
LINE
  5
249
330
1F
100
AcDbEntity
  8
0
  6
Continuous
 62
     7
370
    15
100
AcDbLine
 10
287.5522495322
 20
34.940360845
 30
0.0
 11
287.5522488737
 21
35.185284003
 31
0.0
  0
LINE
  5
24A
330
1F
100
AcDbEntity
  8
0
  6
Continuous
 62
     7
370
    15
100
AcDbLine
 10
284.2896771355
 20
42.3963395792
 30
0.0
 11
273.8952079874
 21
48.3969388921
 31
0.0
  0
LINE
  5
24B
330
1F
100
AcDbEntity
  8
0
  6
Continuous
 62
     7
370
    15
100
AcDbLine
 10
258.1464874981
 20
21.1163997717
 30
0.0
 11
268.5409566462
 21
15.1158004588
 31
0.0
  0
SPLINE
  5
24C
330
1F
100
AcDbEntity
  8
0
  6
Continuous
 62
     7
370
    15
100
AcDbSpline
210
0.0
220
0.0
230
1.0
 70
     8
 71
     3
 72
    29
 73
    25
 74
     0
 42
0.000000001
 43
0.00000001
 40
0.0
 40
0.0
 40
0.0
 40
0.0
 40
0.0338991005950325
 40
0.0831546383236608
 40
0.1316610726620214
 40
0.1791819469165166
 40
0.2259625348633403
 40
0.2723268048664712
 40
0.3185114499396536
 40
0.3646541394136046
 40
0.4108086050822644
 40
0.4570148285102454
 40
0.5032842056343457
 40
0.549612958168012
 40
0.5959897559301964
 40
0.6423997273177682
 40
0.6888265099774677
 40
0.7352528865232422
 40
0.7816559998411169
 40
0.8280184465174327
 40
0.8743231458115472
 40
0.9205543498064244
 40
0.9667000334038668
 40
1.0
 40
1.0
 40
1.0
 40
1.0
 10
271.7429021184507
 20
21.0751220000468
 30
0.0
 10
271.6365519584706
 20
21.13933313639263
 30
0.0
 10
271.375674562505
 20
21.29684332767987
 30
0.0
 10
271.0254411266515
 20
21.65538102527582
 30
0.0
 10
270.6888873492587
 20
22.13273248278744
 30
0.0
 10
270.4216612124694
 20
22.69496158818964
 30
0.0
 10
270.2239851369355
 20
23.32931191894068
 30
0.0
 10
270.0981669608859
 20
24.02977595834186
 30
0.0
 10
270.0455574171634
 20
24.78878229650111
 30
0.0
 10
270.0674461993471
 20
25.5979892627204
 30
0.0
 10
270.1643128767701
 20
26.44788101966056
 30
0.0
 10
270.3357152570935
 20
27.32809175232443
 30
0.0
 10
270.5801684156226
 20
28.22777062892335
 30
0.0
 10
270.8951435673296
 20
29.13563980808112
 30
0.0
 10
271.277080726366
 20
30.0402374736627
 30
0.0
 10
271.7214235179347
 20
30.93013692912065
 30
0.0
 10
272.2227409044521
 20
31.79409617817343
 30
0.0
 10
272.7747291075401
 20
32.62119836773408
 30
0.0
 10
273.3703280662269
 20
33.40108865595796
 30
0.0
 10
274.0018145167437
 20
34.12389176172285
 30
0.0
 10
274.6609379069062
 20
34.7812160410484
 30
0.0
 10
275.3388095862297
 20
35.36323758854979
 30
0.0
 10
275.963427675426
 20
35.82335321413724
 30
0.0
 10
276.3583453080265
 20
36.06185428481143
 30
0.0
 10
276.5238766359441
 20
36.16182297620285
 30
0.0
  0
SPLINE
  5
24D
330
1F
100
AcDbEntity
  8
0
  6
Continuous
 62
     7
370
    15
100
AcDbSpline
210
0.0
220
0.0
230
1.0
 70
     8
 71
     3
 72
    15
 73
    11
 74
     0
 42
0.000000001
 43
0.00000001
 40
0.0
 40
0.0
 40
0.0
 40
0.0
 40
0.0747540070862688
 40
0.217334842453569
 40
0.3598580058742965
 40
0.5025594996353823
 40
0.6459768080834272
 40
0.7909518290430388
 40
0.9385078038251851
 40
1.0
 40
1.0
 40
1.0
 40
1.0
 10
276.5238766359441
 20
36.16182297620285
 30
0.0
 10
276.6433123242142
 20
36.22841542080317
 30
0.0
 10
276.9905517232147
 20
36.42202187776686
 30
0.0
 10
277.5586218963651
 20
36.67403291824034
 30
0.0
 10
278.2140910104428
 20
36.88475060405838
 30
0.0
 10
278.8409625193976
 20
36.9998618785406
 30
0.0
 10
279.4336879599296
 20
37.02334768613503
 30
0.0
 10
279.9839409233606
 20
36.94904595516346
 30
0.0
 10
280.3996526339714
 20
36.83246849326375
 30
0.0
 10
280.6129086111245
 20
36.70798997040149
 30
0.0
 10
280.6756385471125
 20
36.67137420996523
 30
0.0
  0
SPLINE
  5
24E
330
1F
100
AcDbEntity
  8
0
  6
Continuous
 62
     7
370
    15
100
AcDbSpline
210
0.0
220
0.0
230
1.0
 70
     8
 71
     3
 72
    16
 73
    12
 74
     0
 42
0.000000001
 43
0.00000001
 40
0.0
 40
0.0
 40
0.0
 40
0.0
 40
0.0028770012521283
 40
0.1370709763011447
 40
0.2720206307571755
 40
0.4078655201134955
 40
0.5445546830919793
 40
0.6819144071695166
 40
0.8197298011042106
 40
0.9578050940682549
 40
1.0
 40
1.0
 40
1.0
 40
1.0
 10
272.3097930359905
 20
49.01555053936001
 30
0.0
 10
272.3043312609844
 20
49.01718877108171
 30
0.0
 10
272.0441121067959
 20
49.09524018706091
 30
0.0
 10
271.4894921506715
 20
49.15782387316777
 30
0.0
 10
270.6492021501708
 20
49.19442357798701
 30
0.0
 10
269.7710099887136
 20
49.11752182599225
 30
0.0
 10
268.8671619473529
 20
48.9423495397231
 30
0.0
 10
267.9423328824667
 20
48.66586799660075
 30
0.0
 10
267.0040126451036
 20
48.29002855953014
 30
0.0
 10
266.2779040876453
 20
47.92993124444201
 30
0.0
 10
265.867037580698
 20
47.69656426428615
 30
0.0
 10
265.7708681987517
 20
47.64194127149219
 30
0.0
  0
SPLINE
  5
24F
330
1F
100
AcDbEntity
  8
0
  6
Continuous
 62
     7
370
    15
100
AcDbSpline
210
0.0
220
0.0
230
1.0
 70
     8
 71
     3
 72
    34
 73
    30
 74
     0
 42
0.000000001
 43
0.00000001
 40
0.0
 40
0.0
 40
0.0
 40
0.0
 40
0.020485598945704
 40
0.0592959887025632
 40
0.0980929935410061
 40
0.1368689017365242
 40
0.175622028923984
 40
0.214353792003963
 40
0.2530673572852808
 40
0.2917668502664734
 40
0.3304569716912316
 40
0.3691426162196528
 40
0.4078288407577569
 40
0.4465194891961264
 40
0.4852193749041339
 40
0.5239336596606983
 40
0.5626674671986543
 40
0.6014256242307131
 40
0.6402123271943869
 40
0.679030516124185
 40
0.7178807232080829
 40
0.7567593900251227
 40
0.795656268976653
 40
0.8345420694681581
 40
0.8733768824287546
 40
0.9121052302811729
 40
0.9506603379687417
 40
0.988979181593476
 40
1.0
 40
1.0
 40
1.0
 40
1.0
 10
265.7708681987517
 20
47.64194127149219
 30
0.0
 10
265.6047584274882
 20
47.54346095645842
 30
0.0
 10
265.1239502682376
 20
47.25840765325041
 30
0.0
 10
264.332704689695
 20
46.71871971777807
 30
0.0
 10
263.4062869505276
 20
45.99920174257984
 30
0.0
 10
262.4988725481253
 20
45.20008391063012
 30
0.0
 10
261.6165721813341
 20
44.32873463221027
 30
0.0
 10
260.7653279160593
 20
43.39092509645568
 30
0.0
 10
259.9508576220531
 20
42.39336852133269
 30
0.0
 10
259.1786576044871
 20
41.34299185980058
 30
0.0
 10
258.4539645988274
 20
40.24708610188019
 30
0.0
 10
257.781711351587
 20
39.11321943346782
 30
0.0
 10
257.1665167659982
 20
37.94920758619156
 30
0.0
 10
256.6126395186503
 20
36.76305358576881
 30
0.0
 10
256.1239517634306
 20
35.56288829042215
 30
0.0
 10
255.7039034378226
 20
34.35690333861229
 30
0.0
 10
255.3555289944283
 20
33.15329779469085
 30
0.0
 10
255.0814258742052
 20
31.96023179834891
 30
0.0
 10
254.8837450529505
 20
30.78578667847434
 30
0.0
 10
254.7642108773682
 20
29.63790945470714
 30
0.0
 10
254.7240946354378
 20
28.52441311289473
 30
0.0
 10
254.7642255012517
 20
27.45293106329931
 30
0.0
 10
254.8849919025092
 20
26.43110060533278
 30
0.0
 10
255.086065120415
 20
25.46625937919053
 30
0.0
 10
255.3670307721174
 20
24.56645012898167
 30
0.0
 10
255.7243739339351
 20
23.73659707385976
 30
0.0
 10
256.1619264028976
 20
22.99210962226484
 30
0.0
 10
256.5363570146685
 20
22.46859408771451
 30
0.0
 10
256.7857379789259
 20
22.22425334885368
 30
0.0
 10
256.8414412855149
 20
22.16967585882962
 30
0.0
  0
LINE
  5
250
330
1F
100
AcDbEntity
  8
0
  6
Continuous
 62
     7
370
    15
100
AcDbLine
 10
267.3596087999
 20
48.4171847406
 30
0.0
 11
266.6311637437
 21
48.8377071205
 31
0.0
  0
LINE
  5
251
330
1F
100
AcDbEntity
  8
0
  6
Continuous
 62
     7
370
    15
100
AcDbLine
 10
254.1321799601
 20
27.1864854394
 30
0.0
 11
254.8598532021
 21
26.7664086183
 31
0.0
  0
SPLINE
  5
252
330
1F
100
AcDbEntity
  8
0
  6
Continuous
 62
     7
370
    15
100
AcDbSpline
210
0.0
220
0.0
230
1.0
 70
     8
 71
     3
 72
    29
 73
    25
 74
     0
 42
0.000000001
 43
0.00000001
 40
0.0
 40
0.0
 40
0.0
 40
0.0
 40
0.0459595034581192
 40
0.0922132609895777
 40
0.138637384991689
 40
0.1851907810012657
 40
0.231828288137803
 40
0.2785113907498122
 40
0.3252120451130478
 40
0.3719083725046237
 40
0.418592070781854
 40
0.4652598061999069
 40
0.5119112428845765
 40
0.5585478546285736
 40
0.6051721278356563
 40
0.6517871094333104
 40
0.6983961477669202
 40
0.7450027322146925
 40
0.7916104215914931
 40
0.838221681801735
 40
0.8848401475637655
 40
0.9314694282957073
 40
0.9781130677951412
 40
1.0
 40
1.0
 40
1.0
 40
1.0
 10
260.0828674064779
 20
55.82730786813585
 30
0.0
 10
259.8043539165379
 20
55.8385921397719
 30
0.0
 10
259.2455437640227
 20
55.86123293018863
 30
0.0
 10
258.3669269115904
 20
55.76684848692849
 30
0.0
 10
257.4637900048817
 20
55.57884815115905
 30
0.0
 10
256.5399918237746
 20
55.28906177881271
 30
0.0
 10
255.6031126750115
 20
54.9020221848694
 30
0.0
 10
254.6597096154121
 20
54.41991928341047
 30
0.0
 10
253.7166066933828
 20
53.84654121389297
 30
0.0
 10
252.7804169431705
 20
53.18609956656987
 30
0.0
 10
251.8576186003704
 20
52.44342755254424
 30
0.0
 10
250.9544962588738
 20
51.62382799113865
 30
0.0
 10
250.0771779872296
 20
50.7330850809762
 30
0.0
 10
249.2316098010293
 20
49.77743063676866
 30
0.0
 10
248.423528626588
 20
48.76350892387382
 30
0.0
 10
247.6584286333603
 20
47.69834056698611
 30
0.0
 10
246.9415201688392
 20
46.58927577885885
 30
0.0
 10
246.2777282429223
 20
45.44395454914474
 30
0.0
 10
245.6715395151467
 20
44.27024173939159
 30
0.0
 10
245.1274189781359
 20
43.07626212788289
 30
0.0
 10
244.6481069097365
 20
41.8699681852283
 30
0.0
 10
244.2408303771499
 20
40.66048625067165
 30
0.0
 10
243.955416226874
 20
39.66660439808384
 30
0.0
 10
243.827674361826
 20
39.08332498623265
 30
0.0
 10
243.7868768393408
 20
38.89704028691973
 30
0.0
  0
SPLINE
  5
253
330
1F
100
AcDbEntity
  8
0
  6
Continuous
 62
     7
370
    15
100
AcDbSpline
210
0.0
220
0.0
230
1.0
 70
     8
 71
     3
 72
    10
 73
     6
 74
     0
 42
0.000000001
 43
0.00000001
 40
0.0
 40
0.0
 40
0.0
 40
0.0
 40
0.1905595727542693
 40
0.9981658343006317
 40
1.0
 40
1.0
 40
1.0
 40
1.0
 10
261.0743811550017
 20
55.66880355709954
 30
0.0
 10
261.013509740044
 20
55.68406891374448
 30
0.0
 10
260.6946605433434
 20
55.76403003682612
 30
0.0
 10
260.3646453168374
 20
55.82311107229923
 30
0.0
 10
260.083504462516
 20
55.82729837983307
 30
0.0
 10
260.0828674064779
 20
55.82730786813585
 30
0.0
  0
LINE
  5
254
330
1F
100
AcDbEntity
  8
0
  6
Continuous
 62
     7
370
    15
100
AcDbLine
 10
253.5372317537
 20
53.7046830021
 30
0.0
 11
232.2281937735
 21
61.3836160949
 31
0.0
  0
LINE
  5
255
330
1F
100
AcDbEntity
  8
0
  6
Continuous
 62
     7
370
    15
100
AcDbLine
 10
226.0634117789
 20
50.7047434497
 30
0.0
 11
246.3596498764
 21
33.5667683621
 31
0.0
  0
SPLINE
  5
256
330
1F
100
AcDbEntity
  8
0
  6
Continuous
 62
     7
370
    15
100
AcDbSpline
210
0.0
220
0.0
230
1.0
 70
     8
 71
     3
 72
     9
 73
     5
 74
     0
 42
0.000000001
 43
0.00000001
 40
0.0
 40
0.0
 40
0.0
 40
0.0
 40
0.0500258520149152
 40
1.0
 40
1.0
 40
1.0
 40
1.0
 10
254.8830754571105
 20
23.82263833945676
 30
0.0
 10
254.8960112649654
 20
23.82187042118853
 30
0.0
 10
255.1545937245113
 20
23.80651999261417
 30
0.0
 10
255.4276275140208
 20
23.83822032957939
 30
0.0
 10
255.6870025555812
 20
23.86833483017875
 30
0.0
  0
LINE
  5
257
330
1F
100
AcDbEntity
  8
0
  6
Continuous
 62
     7
370
    15
100
AcDbLine
 10
250.5256714988
 20
25.3714699499
 30
0.0
 11
251.8791312694
 21
24.5901342556
 31
0.0
  0
LINE
  5
258
330
1F
100
AcDbEntity
  8
0
  6
Continuous
 62
     7
370
    15
100
AcDbLine
 10
246.6995743348
 20
27.5802288279
 30
0.0
 11
248.0353567952
 21
26.8090980276
 31
0.0
  0
SPLINE
  5
259
330
1F
100
AcDbEntity
  8
0
  6
Continuous
 62
     7
370
    15
100
AcDbSpline
210
0.0
220
0.0
230
1.0
 70
     8
 71
     3
 72
    11
 73
     7
 74
     0
 42
0.000000001
 43
0.00000001
 40
0.0
 40
0.0
 40
0.0
 40
0.0
 40
0.0870687072298953
 40
0.5253675332456871
 40
0.9630155881621304
 40
1.0
 40
1.0
 40
1.0
 40
1.0
 10
243.7709812212794
 20
31.60742473716723
 30
0.0
 10
243.7878398030051
 20
31.54710915384191
 30
0.0
 10
243.889563508077
 20
31.18316841972454
 30
0.0
 10
244.134665038242
 20
30.56796753179392
 30
0.0
 10
244.3899972245345
 20
30.00509522696728
 30
0.0
 10
244.559468392244
 20
29.75275701860427
 30
0.0
 10
244.5726739605527
 20
29.73309426716136
 30
0.0
  0
SPLINE
  5
25A
330
1F
100
AcDbEntity
  8
0
  6
Continuous
 62
     7
370
    15
100
AcDbSpline
210
0.0
220
0.0
230
1.0
 70
     8
 71
     3
 72
    10
 73
     6
 74
     0
 42
0.000000001
 43
0.00000001
 40
0.0
 40
0.0
 40
0.0
 40
0.0
 40
0.3410014280827171
 40
0.7027410620728247
 40
1.0
 40
1.0
 40
1.0
 40
1.0
 10
270.2869333097414
 20
49.14525617053015
 30
0.0
 10
270.1681754405206
 20
49.3940664904907
 30
0.0
 10
269.9234373711964
 20
49.90681867891071
 30
0.0
 10
269.4953414798194
 20
50.55369220449168
 30
0.0
 10
269.1627098596253
 20
50.91670355018443
 30
0.0
 10
269.0126674674966
 20
51.08044953033457
 30
0.0
  0
SPLINE
  5
25B
330
1F
100
AcDbEntity
  8
0
  6
Continuous
 62
     7
370
    15
100
AcDbSpline
210
0.0
220
0.0
230
1.0
 70
     8
 71
     3
 72
    25
 73
    21
 74
     0
 42
0.000000001
 43
0.00000001
 40
0.0
 40
0.0
 40
0.0
 40
0.0
 40
0.0185101859666817
 40
0.0754904633805648
 40
0.1332843148595372
 40
0.1923488910032108
 40
0.252595367733299
 40
0.3135956859576014
 40
0.3749051416595466
 40
0.4361965605840543
 40
0.4973773584078528
 40
0.5584444886953932
 40
0.6194308440712922
 40
0.6803837011191604
 40
0.7413560978275356
 40
0.802385930045548
 40
0.8635294734232583
 40
0.9248418355571764
 40
0.9830972775634725
 40
1.0
 40
1.0
 40
1.0
 40
1.0
 10
232.1713547970238
 20
61.39078086081921
 30
0.0
 10
232.1194962815179
 20
61.41167375955186
 30
0.0
 10
231.9080006556601
 20
61.49688168828524
 30
0.0
 10
231.4940202634512
 20
61.54418660250158
 30
0.0
 10
230.9417389274421
 20
61.53128732324399
 30
0.0
 10
230.3615327066525
 20
61.41064558570206
 30
0.0
 10
229.7650560745632
 20
61.19165614738272
 30
0.0
 10
229.161898906232
 20
60.87446080061712
 30
0.0
 10
228.5645889129271
 20
60.46592322355504
 30
0.0
 10
227.9847416250388
 20
59.97455844831821
 30
0.0
 10
227.4328351575222
 20
59.41043929349882
 30
0.0
 10
226.918052820142
 20
58.78411964393959
 30
0.0
 10
226.4488360165244
 20
58.1067676045808
 30
0.0
 10
226.0329491207293
 20
57.39011519623322
 30
0.0
 10
225.6774478585046
 20
56.64639871958065
 30
0.0
 10
225.388650839588
 20
55.88817749750044
 30
0.0
 10
225.171686929204
 20
55.12790141081842
 30
0.0
 10
225.0344769575986
 20
54.39175325917746
 30
0.0
 10
224.9869946082422
 20
53.85277212522987
 30
0.0
 10
224.9840864114896
 20
53.56639021983964
 30
0.0
 10
224.9834323715345
 20
53.50198425817812
 30
0.0
  0
SPLINE
  5
25C
330
1F
100
AcDbEntity
  8
0
  6
Continuous
 62
     7
370
    15
100
AcDbSpline
210
0.0
220
0.0
230
1.0
 70
     8
 71
     3
 72
    13
 73
     9
 74
     0
 42
0.000000001
 43
0.00000001
 40
0.0
 40
0.0
 40
0.0
 40
0.0
 40
0.109296402869267
 40
0.3159895172987571
 40
0.522684334259216
 40
0.7274669350386045
 40
0.9283233535402224
 40
1.0
 40
1.0
 40
1.0
 40
1.0
 10
224.9834323715345
 20
53.50198425817812
 30
0.0
 10
224.9857891226078
 20
53.37914328614018
 30
0.0
 10
224.9926027835747
 20
53.02399473193564
 30
0.0
 10
225.0693147724613
 20
52.47029358181423
 30
0.0
 10
225.2408279777034
 20
51.86734086867126
 30
0.0
 10
225.5031669028759
 20
51.34231066888375
 30
0.0
 10
225.7595581946175
 20
50.97468973431953
 30
0.0
 10
225.9502901332143
 20
50.81867552301777
 30
0.0
 10
226.0004529482596
 20
50.77764352762389
 30
0.0
  0
LWPOLYLINE
  5
25D
330
1F
100
AcDbEntity
  8
0
  6
Continuous
 62
     7
370
    15
100
AcDbPolyline
 90
       34
 70
   128
 43
0.0
 10
268.3532243755
 20
43.0046253973
 10
268.9446129841
 20
42.828570257
 10
269.5830302317
 20
42.7203073492
 10
270.2454028589
 20
42.6837490949
 10
270.9077884924
 20
42.7202182944
 10
271.5462501093
 20
42.8283948562
 10
272.1377094703
 20
43.0043705173
 10
272.6607919544
 20
43.2417837595
 10
273.0965897866
 20
43.5320551188
 10
273.429354014
 20
43.8646923733
 10
273.647054752
 20
44.2276747933
 10
273.7418273738
 20
44.6078810369
 10
273.7102439085
 20
44.9915712503
 10
273.5534474246
 20
45.3648767495
 10
273.2771051915
 20
45.7143052184
 10
272.8912027197
 20
46.0272285618
 10
272.4096888049
 20
46.2923364473
 10
271.8499669675
 20
46.5000467939
 10
271.2322678594
 20
46.6428521064
 10
270.5789146578
 20
46.7155918668
 10
269.913522604
 20
46.7156367269
 10
269.2601394386
 20
46.6429853559
 10
268.6423816378
 20
46.5002630629
 10
268.0825765562
 20
46.2926280256
 10
267.6009558132
 20
46.0275854461
 10
267.2149267361
 20
45.7147144711
 10
266.9384421751
 20
45.365322641
 10
266.7814944729
 20
44.9920381937
 10
266.7497555911
 20
44.6083529225
 10
266.8443751014
 20
44.2281329928
 10
267.0619289016
 20
43.8651224878
 10
267.3945582508
 20
43.5324397317
 10
267.8302392789
 20
43.2421093956
 10
268.3532243755
 20
43.0046253973
  0
LWPOLYLINE
  5
25E
330
1F
100
AcDbEntity
  8
0
  6
Continuous
 62
     7
370
    15
100
AcDbPolyline
 90
       28
 70
   128
 43
0.0
 10
268.9750739603
 20
43.5630758932
 10
269.4652080581
 20
43.42466097
 10
269.9974245494
 20
43.3552293983
 10
270.5430311438
 20
43.3585246138
 10
271.0726144036
 20
43.4343685783
 10
271.5576251075
 20
43.5786721869
 10
271.9719152774
 20
43.7836565181
 10
272.2931514105
 20
44.038270257
 10
272.5040141104
 20
44.3287879455
 10
272.5931359265
 20
44.6395475533
 10
272.5557137232
 20
44.9537951701
 10
272.3937643755
 20
45.2545899135
 10
272.1160186194
 20
45.5257158846
 10
271.7374482175
 20
45.7525573186
 10
271.2784642627
 20
45.9228842527
 10
270.7638094248
 20
46.0275147345
 10
270.2212288425
 20
46.0608081868
 10
269.6799737455
 20
46.0209694486
 10
269.1692236238
 20
45.910146122
 10
268.7165117499
 20
45.7343134403
 10
268.3462445858
 20
45.5029502566
 10
268.0783851468
 20
45.2285283572
 10
267.9273708072
 20
44.9258436241
 10
267.9013454575
 20
44.6112123686
 10
268.0017101101
 20
44.3015975466
 10
268.2230544925
 20
44.0136903168
 10
268.5534469307
 20
43.7630113903
 10
268.9750739603
 20
43.5630758932
  0
LINE
  5
25F
330
1F
100
AcDbEntity
  8
0
  6
Continuous
 62
     7
370
    15
100
AcDbLine
 10
271.7307091114
 20
43.6462025583
 30
0.0
 11
272.1884576098
 21
43.9501979755
 31
0.0
  0
SPLINE
  5
260
330
1F
100
AcDbEntity
  8
0
  6
Continuous
 62
     7
370
    15
100
AcDbSpline
210
0.0
220
0.0
230
1.0
 70
     8
 71
     3
 72
    11
 73
     7
 74
     0
 42
0.000000001
 43
0.00000001
 40
0.0
 40
0.0
 40
0.0
 40
0.0
 40
0.2164566282244342
 40
0.4403141857962927
 40
0.751902941575613
 40
1.0
 40
1.0
 40
1.0
 40
1.0
 10
272.1884576098018
 20
43.95019797547958
 30
0.0
 10
272.1960034993876
 20
43.98226982306929
 30
0.0
 10
272.2113532821886
 20
44.04751009579405
 30
0.0
 10
272.2398373944067
 20
44.2915750019889
 30
0.0
 10
272.2703920032795
 20
44.72141886075441
 30
0.0
 10
272.2899452253558
 20
45.10973634720821
 30
0.0
 10
272.2986127612423
 20
45.28186939699974
 30
0.0
  0
SPLINE
  5
261
330
1F
100
AcDbEntity
  8
0
  6
Continuous
 62
     7
370
    15
100
AcDbSpline
210
0.0
220
0.0
230
1.0
 70
     8
 71
     3
 72
    11
 73
     7
 74
     0
 42
0.000000001
 43
0.00000001
 40
0.0
 40
0.0
 40
0.0
 40
0.0
 40
0.1845136963220002
 40
0.5180565320773907
 40
0.8676118864371751
 40
1.0
 40
1.0
 40
1.0
 40
1.0
 10
272.2986127612423
 20
45.28186939699974
 30
0.0
 10
272.1857932243864
 20
45.27288956102777
 30
0.0
 10
271.8690313840504
 20
45.24767700079517
 30
0.0
 10
271.2785962540806
 20
45.36074811687908
 30
0.0
 10
270.7299648325144
 20
45.69217538263874
 30
0.0
 10
270.4365627816179
 20
45.93584258538147
 30
0.0
 10
270.3559663079255
 20
46.00277707760996
 30
0.0
  0
SPLINE
  5
262
330
1F
100
AcDbEntity
  8
0
  6
Continuous
 62
     7
370
    15
100
AcDbSpline
210
0.0
220
0.0
230
1.0
 70
     8
 71
     3
 72
    11
 73
     7
 74
     0
 42
0.000000001
 43
0.00000001
 40
0.0
 40
0.0
 40
0.0
 40
0.0
 40
0.2164565946616804
 40
0.4403141645238393
 40
0.7519028892419175
 40
1.0
 40
1.0
 40
1.0
 40
1.0
 10
270.3559663079255
 20
46.00277707760996
 30
0.0
 10
270.215346886371
 20
45.90178916057966
 30
0.0
 10
269.9293000546061
 20
45.69636039836663
 30
0.0
 10
269.3984734490394
 20
45.43813929119381
 30
0.0
 10
268.8290711086439
 20
45.32919334033966
 30
0.0
 10
268.4646890303305
 20
45.37271869174788
 30
0.0
 10
268.303166020257
 20
45.39201257636071
 30
0.0
  0
SPLINE
  5
263
330
1F
100
AcDbEntity
  8
0
  6
Continuous
 62
     7
370
    15
100
AcDbSpline
210
0.0
220
0.0
230
1.0
 70
     8
 71
     3
 72
    11
 73
     7
 74
     0
 42
0.000000001
 43
0.00000001
 40
0.0
 40
0.0
 40
0.0
 40
0.0
 40
0.2164567387468327
 40
0.4403139000216361
 40
0.7519028148976629
 40
1.0
 40
1.0
 40
1.0
 40
1.0
 10
268.303166020257
 20
45.39201257636071
 30
0.0
 10
268.2956202726717
 20
45.24164177170019
 30
0.0
 10
268.2802707965264
 20
44.93575914668798
 30
0.0
 10
268.2517841893679
 20
44.49112052576961
 30
0.0
 10
268.2212304640615
 20
44.18221099637128
 30
0.0
 10
268.2016771350266
 20
44.09777197414868
 30
0.0
 10
268.1930095517275
 20
44.06034191517985
 30
0.0
  0
SPLINE
  5
264
330
1F
100
AcDbEntity
  8
0
  6
Continuous
 62
     7
370
    15
100
AcDbSpline
210
0.0
220
0.0
230
1.0
 70
     8
 71
     3
 72
     9
 73
     5
 74
     0
 42
0.000000001
 43
0.00000001
 40
0.0
 40
0.0
 40
0.0
 40
0.0
 40
0.4200031684273044
 40
1.0
 40
1.0
 40
1.0
 40
1.0
 10
268.1930095517275
 20
44.06034191517985
 30
0.0
 10
268.2731589733643
 20
43.99146216478574
 30
0.0
 10
268.4639894900411
 20
43.82746399626709
 30
0.0
 10
268.6756120024774
 20
43.71699375543055
 30
0.0
 10
268.7983523891799
 20
43.65292136576227
 30
0.0
  0
LINE
  5
265
330
1F
100
AcDbEntity
  8
0
  6
Continuous
 62
     7
370
    15
100
AcDbLine
 10
268.3031660203
 20
43.9713576285
 30
0.0
 11
268.3031660203
 21
45.3920125764
 31
0.0
  0
LINE
  5
266
330
1F
100
AcDbEntity
  8
0
  6
Continuous
 62
     7
370
    15
100
AcDbLine
 10
270.3559663079
 20
43.3491212863
 30
0.0
 11
270.3559663079
 21
46.0027770776
 31
0.0
  0
LWPOLYLINE
  5
267
330
1F
100
AcDbEntity
  8
0
  6
Continuous
 62
     7
370
    15
100
AcDbPolyline
 90
        3
 70
   128
 43
0.0
 10
274.7606075815
 20
31.7498803818
 10
274.6426543576
 20
31.732668784
 10
274.6111930522
 20
31.7302591569
  0
LWPOLYLINE
  5
268
330
1F
100
AcDbEntity
  8
0
  6
Continuous
 62
     7
370
    15
100
AcDbPolyline
 90
       71
 70
   128
 43
0.0
 10
276.627449882
 20
41.249163656
 10
275.6481583903
 20
40.6330439576
 10
274.6767514873
 20
39.9203123174
 10
273.7210506239
 20
39.1167067872
 10
272.7887501517
 20
38.2286973763
 10
271.8873568197
 20
37.2634336325
 10
271.0241277883
 20
36.2286875663
 10
270.2060139948
 20
35.1327912973
 10
269.4396012135
 20
33.9845665279
 10
268.731060665
 20
32.793258767
 10
268.0860973204
 20
31.5684603384
 10
267.5099044617
 20
30.3200324376
 10
267.0071202178
 20
29.0580264278
 10
266.5817933204
 20
27.7926032345
 10
266.237348201
 20
26.5339512179
 10
265.9765573318
 20
25.2922040465
 10
265.8015221285
 20
24.0773604694
 10
265.7136505592
 20
22.8992007628
 10
265.7136505592
 20
21.7672112546
 10
265.8015221285
 20
20.6905059024
 10
265.9765573318
 20
19.6777536694
 10
266.237348201
 20
18.7371092264
 10
266.5817933204
 20
17.8761450797
 10
267.0071202178
 20
17.1017938693
 10
267.5099044617
 20
16.4202901912
 10
268.0860973204
 20
15.8371204047
 10
268.731060665
 20
15.3569808032
 10
269.4396012135
 20
14.9837365466
 10
270.2060139948
 20
14.7203931392
 10
271.0241277883
 20
14.5690709505
 10
271.8873568197
 20
14.5309879093
 10
272.7887501517
 20
14.6064507542
 10
273.7210506239
 20
14.7948525564
 10
274.6767514873
 20
15.0946757559
 10
275.6481583903
 20
15.5035066528
 10
276.627449882
 20
16.0180528438
 10
277.6067413737
 20
16.6341725422
 10
278.5781482767
 20
17.3469041824
 10
279.5338491401
 20
18.1505097126
 10
280.4661496122
 20
19.0385191235
 10
281.3675429442
 20
20.0037828673
 10
282.2307719757
 20
21.0385289335
 10
283.0488857692
 20
22.1344252025
 10
283.8152985505
 20
23.2826499719
 10
284.523839099
 20
24.4739577328
 10
285.1688024436
 20
25.6987561614
 10
285.7449953023
 20
26.9471840622
 10
286.2477795461
 20
28.209190072
 10
286.6731064435
 20
29.4746132654
 10
287.017551563
 20
30.7332652819
 10
287.2783424321
 20
31.9750124533
 10
287.4533776355
 20
33.1898560304
 10
287.5412492048
 20
34.368015737
 10
287.5412492048
 20
35.5000052452
 10
287.4533776355
 20
36.5767105974
 10
287.2783424321
 20
37.5894628304
 10
287.017551563
 20
38.5301072734
 10
286.6731064435
 20
39.3910714201
 10
286.2477795461
 20
40.1654226305
 10
285.7449953023
 20
40.8469263086
 10
285.1688024436
 20
41.4300960951
 10
284.523839099
 20
41.9102356966
 10
283.8152985505
 20
42.2834799532
 10
283.0488857692
 20
42.5468233606
 10
282.2307719757
 20
42.6981455493
 10
281.3675429442
 20
42.7362285905
 10
280.4661496122
 20
42.6607657456
 10
279.5338491401
 20
42.4723639435
 10
278.5781482767
 20
42.1725407439
 10
277.6067413737
 20
41.763709847
 10
276.627449882
 20
41.249163656
  0
LWPOLYLINE
  5
269
330
1F
100
AcDbEntity
  8
0
  6
Continuous
 62
     7
370
    15
100
AcDbPolyline
 90
       37
 70
   128
 43
0.0
 10
276.4153168909
 20
41.616588013
 10
275.4310337141
 20
40.9980475167
 10
274.4544538617
 20
40.2836976691
 10
273.4932205659
 20
39.4791280108
 10
272.5548562159
 20
38.5906362749
 10
271.6467055587
 20
37.6251750647
 10
270.7758756066
 20
36.5903019539
 10
269.9491822952
 20
35.4941152327
 10
269.1730948365
 20
34.3451936463
 10
268.4536876451
 20
33.152529859
 10
267.7965912765
 20
31.9254580244
 10
267.2069476462
 20
30.6735807854
 10
266.6893724927
 20
29.4066970336
 10
266.2479158647
 20
28.1347209241
 10
265.8860324867
 20
26.8676077325
 10
265.6065554171
 20
25.6152741995
 10
265.4116716823
 20
24.3875219163
 10
265.3029064714
 20
23.1939595684
 10
265.2811099653
 20
22.0439276756
 10
265.3464547026
 20
20.9464279397
 10
265.4984283358
 20
19.9100493381
 10
265.7358415335
 20
18.9429026755
 10
266.0568352244
 20
18.0525572037
 10
266.4588990371
 20
17.2459816599
 10
266.9388844701
 20
16.5294874212
 10
267.4930365027
 20
15.9086832536
 10
268.1170173021
 20
15.3884274012
 10
268.8059431025
 20
14.9727910801
 10
269.5544230583
 20
14.6650280563
 10
270.3565987576
 20
14.4675465051
 10
271.2061919664
 20
14.3818917059
 10
272.0965540194
 20
14.4087342503
 10
273.0207158692
 20
14.5478647143
 10
273.9714450509
 20
14.7981930828
 10
274.9413009992
 20
15.1577609113
 10
275.9226931244
 20
15.6237535597
 10
276.4171269555
 20
15.896596953
  0
LWPOLYLINE
  5
26A
330
1F
100
AcDbEntity
  8
0
  6
Continuous
 62
     7
370
    15
100
AcDbPolyline
 90
       19
 70
   128
 43
0.0
 10
287.5522488737
 20
35.185284003
 10
287.5277273104
 20
36.0240755421
 10
287.4189620995
 20
37.0920602504
 10
287.2240783647
 20
38.0948045629
 10
286.9446012951
 20
39.0244607397
 10
286.5827179171
 20
39.8737522766
 10
286.1412612891
 20
40.6360334126
 10
285.6236861356
 20
41.3053376119
 10
285.0340425053
 20
41.8764268064
 10
284.3769461367
 20
42.3448313226
 10
283.6575389452
 20
42.7068852467
 10
282.8814514866
 20
42.9597553262
 10
282.0547581752
 20
43.1014622668
 10
281.1839282231
 20
43.1308965162
 10
280.2757775659
 20
43.0478292962
 10
279.3374132159
 20
42.8529086147
 10
278.3761799201
 20
42.5476619327
 10
277.3996000677
 20
42.134476683
 10
276.4153168909
 20
41.616588013
  0
SPLINE
  5
26B
330
1F
100
AcDbEntity
  8
0
  6
Continuous
 62
     7
370
    15
100
AcDbSpline
210
0.0
220
0.0
230
1.0
 70
    11
 71
     3
 72
    96
 73
    92
 74
     0
 42
0.000000001
 43
0.00000001
 40
0.0
 40
0.0
 40
0.0
 40
0.0
 40
0.0312500000000006
 40
0.0312500000000006
 40
0.046875000000001
 40
0.046875000000001
 40
0.0625000000000015
 40
0.0625000000000015
 40
0.0937500000000023
 40
0.0937500000000023
 40
0.1093750000000026
 40
0.1093750000000026
 40
0.1250000000000028
 40
0.1250000000000028
 40
0.1562500000000029
 40
0.1562500000000029
 40
0.171875000000003
 40
0.171875000000003
 40
0.1875000000000031
 40
0.1875000000000031
 40
0.2187500000000031
 40
0.2187500000000031
 40
0.2343750000000034
 40
0.2343750000000034
 40
0.2500000000000036
 40
0.2500000000000036
 40
0.2812500000000037
 40
0.2812500000000037
 40
0.2968750000000038
 40
0.2968750000000038
 40
0.3125000000000038
 40
0.3125000000000038
 40
0.3437500000000041
 40
0.3437500000000041
 40
0.3593750000000041
 40
0.3593750000000041
 40
0.3750000000000042
 40
0.3750000000000042
 40
0.3906250000000043
 40
0.3906250000000043
 40
0.4062500000000043
 40
0.4062500000000043
 40
0.4375000000000044
 40
0.4375000000000044
 40
0.4531250000000045
 40
0.4531250000000045
 40
0.4687500000000046
 40
0.4687500000000046
 40
0.5000000000000046
 40
0.5000000000000046
 40
0.5312500000000044
 40
0.5312500000000044
 40
0.5468750000000047
 40
0.5468750000000047
 40
0.5625000000000047
 40
0.5625000000000047
 40
0.5937500000000047
 40
0.5937500000000047
 40
0.6250000000000046
 40
0.6250000000000046
 40
0.6562500000000044
 40
0.6562500000000044
 40
0.6875000000000043
 40
0.6875000000000043
 40
0.7187500000000042
 40
0.7187500000000042
 40
0.7500000000000041
 40
0.7500000000000041
 40
0.7656250000000039
 40
0.7656250000000039
 40
0.7812500000000037
 40
0.7812500000000037
 40
0.812500000000003
 40
0.812500000000003
 40
0.8281250000000027
 40
0.8281250000000027
 40
0.8437500000000024
 40
0.8437500000000024
 40
0.875000000000002
 40
0.875000000000002
 40
0.8906250000000018
 40
0.8906250000000018
 40
0.9062500000000014
 40
0.9062500000000014
 40
0.9218750000000012
 40
0.9218750000000012
 40
0.937500000000001
 40
0.937500000000001
 40
0.9687500000000006
 40
0.9687500000000006
 40
1.0
 40
1.0
 40
1.0
 40
1.0
 10
270.199053677303
 20
47.53905053611748
 30
0.0
 10
270.4979586062032
 20
47.48721289302352
 30
0.0
 10
270.7889350934482
 20
47.42093623907616
 30
0.0
 10
271.2149646305822
 20
47.3042505759238
 30
0.0
 10
271.3552182575162
 20
47.26244158625873
 30
0.0
 10
271.6322799944992
 20
47.1733740675922
 30
0.0
 10
271.7696725202666
 20
47.12589420058771
 30
0.0
 10
272.1721638896679
 20
46.97723383693855
 30
0.0
 10
272.4260421293318
 20
46.87065980884039
 30
0.0
 10
272.7862488307359
 20
46.701328759431
 30
0.0
 10
272.9028587346074
 20
46.64328581610247
 30
0.0
 10
273.1290637066065
 20
46.52405378770101
 30
0.0
 10
273.2390761704389
 20
46.46259647601536
 30
0.0
 10
273.5529165426424
 20
46.27658841799801
 30
0.0
 10
273.7420806158231
 20
46.1498314847335
 30
0.0
 10
273.9962103126629
 20
45.95505239240779
 30
0.0
 10
274.0759542091417
 20
45.88933844668689
 30
0.0
 10
274.2252098573898
 20
45.75607277798311
 30
0.0
 10
274.2949120699501
 20
45.68826782271415
 30
0.0
 10
274.4844327392028
 20
45.48538432998996
 30
0.0
 10
274.5861616655787
 20
45.34984907506298
 30
0.0
 10
274.7012249535456
 20
45.14385317114584
 30
0.0
 10
274.7332829975069
 20
45.07473198751267
 30
0.0
 10
274.7841308014048
 20
44.93507866645735
 30
0.0
 10
274.8028874479459
 20
44.86430945008883
 30
0.0
 10
274.8371662482309
 20
44.65376778752238
 30
0.0
 10
274.831641005423
 20
44.51435237552973
 30
0.0
 10
274.77818181744
 20
44.30385261239011
 30
0.0
 10
274.7527780881387
 20
44.23345741957971
 30
0.0
 10
274.6855328877955
 20
44.09171419136359
 30
0.0
 10
274.6436311753942
 20
44.02054476690657
 30
0.0
 10
274.4958079213478
 20
43.81109448537094
 30
0.0
 10
274.3671871024282
 20
43.67480929163042
 30
0.0
 10
274.1258778717195
 20
43.4740441217909
 30
0.0
 10
274.0364974669791
 20
43.40722718449236
 30
0.0
 10
273.8447885571946
 20
43.27789049701116
 30
0.0
 10
273.7426509912497
 20
43.21536662807472
 30
0.0
 10
273.5261100000754
 20
43.0944725443654
 30
0.0
 10
273.4117060719163
 20
43.03610254703045
 30
0.0
 10
273.1705300366661
 20
42.92362149183462
 30
0.0
 10
273.0428888905809
 20
42.86920884405983
 30
0.0
 10
272.6506671496139
 20
42.71656724412239
 30
0.0
 10
272.3752971256891
 20
42.6277773482024
 30
0.0
 10
271.9425934253919
 20
42.51448699297188
 30
0.0
 10
271.7953723080853
 20
42.48021481471668
 30
0.0
 10
271.5009407372718
 20
42.41996324742069
 30
0.0
 10
271.3529300833922
 20
42.3937659189733
 30
0.0
 10
270.9065391961673
 20
42.32699030286271
 30
0.0
 10
270.6031802459236
 20
42.29816523708036
 30
0.0
 10
270.0095263898731
 20
42.27532420435926
 30
0.0
 10
269.7177326474902
 20
42.28080086954921
 30
0.0
 10
269.2868841122062
 20
42.31563813396464
 30
0.0
 10
269.1441329562148
 20
42.33180182054318
 30
0.0
 10
268.8658651853293
 20
42.37272475559156
 30
0.0
 10
268.729724082636
 20
42.3975128388421
 30
0.0
 10
268.3299505471236
 20
42.48490079733118
 30
0.0
 10
268.0748924628749
 20
42.56044236205756
 30
0.0
 10
267.5878850936887
 20
42.74835484483992
 30
0.0
 10
267.3614851486197
 20
42.85872261910472
 30
0.0
 10
266.9451583546634
 20
43.10961704237101
 30
0.0
 10
266.7545645296349
 20
43.25039818621861
 30
0.0
 10
266.410271281873
 20
43.56338252575226
 30
0.0
 10
266.2614994115589
 20
43.73110756224465
 30
0.0
 10
266.0098775233742
 20
44.08644151800357
 30
0.0
 10
265.9068473512715
 20
44.27433472622086
 30
0.0
 10
265.75099043673
 20
44.66817470616665
 30
0.0
 10
265.700398776973
 20
44.86829341608392
 30
0.0
 10
265.6660858802243
 20
45.17102800492663
 30
0.0
 10
265.6616271189753
 20
45.27236901372761
 30
0.0
 10
265.667443338193
 20
45.47555339107593
 30
0.0
 10
265.6777986264996
 20
45.57784449935103
 30
0.0
 10
265.7324323441855
 20
45.88188469826802
 30
0.0
 10
265.7990229899941
 20
46.07676555922515
 30
0.0
 10
265.9460292226941
 20
46.3547049445046
 30
0.0
 10
266.0029437853595
 20
46.44494314791213
 30
0.0
 10
266.133754080372
 20
46.61996249218488
 30
0.0
 10
266.2081566390368
 20
46.70507636333175
 30
0.0
 10
266.4512542355378
 20
46.9437037524315
 30
0.0
 10
266.6411373539933
 20
47.08321018850207
 30
0.0
 10
266.9687308640206
 20
47.26187223591118
 30
0.0
 10
267.0858792624019
 20
47.31651147864415
 30
0.0
 10
267.3282604345756
 20
47.41247505448641
 30
0.0
 10
267.4540507904454
 20
47.45420462342234
 30
0.0
 10
267.7144923365871
 20
47.52580640064387
 30
0.0
 10
267.849144422828
 20
47.55567707565
 30
0.0
 10
268.1272771034362
 20
47.60389205158297
 30
0.0
 10
268.2701535575982
 20
47.62205385857031
 30
0.0
 10
268.7016548048644
 20
47.65917712882555
 30
0.0
 10
268.9961929126639
 20
47.66151254093798
 30
0.0
 10
269.5986153324562
 20
47.62724176230965
 30
0.0
 10
269.900148748403
 20
47.59088817921145
 30
0.0
 10
270.1990536773031
 20
47.53905053611749
 30
0.0
  0
ARC
  5
26C
330
1F
100
AcDbEntity
  8
0
  6
Continuous
 62
     7
370
    15
100
AcDbCircle
 10
260.8583692813
 20
25.7912894116
 30
0.0
 40
5.404525506622442
100
AcDbArc
 50
223.0636547212
 51
239.8821786766
  0
ARC
  5
26D
330
1F
100
AcDbEntity
  8
0
  6
Continuous
 62
     7
370
    15
100
AcDbCircle
 10
271.1934697056
 20
43.6867535136
 30
0.0
 40
5.430030943104002
100
AcDbArc
 50
60.1616377878
 51
77.1542454412
  0
LWPOLYLINE
  5
26E
330
1F
100
AcDbEntity
  8
0
  6
Continuous
 62
     7
370
    15
100
AcDbPolyline
 90
       27
 70
   128
 43
0.0
 10
275.8319547874
 20
18.375888879
 10
275.7882918871
 20
18.7659313035
 10
275.6598407229
 20
19.0828939758
 10
275.4540665552
 20
19.3083555026
 10
275.1829280585
 20
19.4292139825
 10
274.8621828035
 20
19.4384442542
 10
274.5104714686
 20
19.335510676
 10
274.1482341229
 20
19.1263955074
 10
273.7965227879
 20
18.823251822
 10
273.4757776975
 20
18.4436970564
 10
273.2046391185
 20
18.0097886842
 10
272.9988650332
 20
17.546745408
 10
272.8704139513
 20
17.0814762258
 10
272.826750804
 20
16.6410215471
 10
272.8704139513
 20
16.2509792651
 10
272.9988650332
 20
15.9340173058
 10
273.2046391185
 20
15.7085549709
 10
273.4757776975
 20
15.587697299
 10
273.7965227879
 20
15.5784661718
 10
274.1482341229
 20
15.6813997501
 10
274.5104714686
 20
15.8905149186
 10
274.8621828035
 20
16.1936586041
 10
275.1829280585
 20
16.5732142251
 10
275.4540665552
 20
17.0071217894
 10
275.6598407229
 20
17.4701658736
 10
275.7882918871
 20
17.9354343428
 10
275.8319547874
 20
18.375888879
  0
LINE
  5
26F
330
1F
100
AcDbEntity
  8
0
  6
Continuous
 62
     7
370
    15
100
AcDbLine
 10
271.7328626074
 20
21.0676140397
 30
0.0
 11
271.7742613494
 21
21.0432707798
 31
0.0
  0
LINE
  5
270
330
1F
100
AcDbEntity
  8
0
  6
Continuous
 62
     7
370
    15
100
AcDbLine
 10
280.7735302004
 20
36.6321506031
 30
0.0
 11
280.6705160587
 21
36.688956581
 31
0.0
  0
SPLINE
  5
271
330
1F
100
AcDbEntity
  8
0
  6
Continuous
 62
     7
370
    15
100
AcDbSpline
210
0.0
220
0.0
230
1.0
 70
     8
 71
     3
 72
    32
 73
    28
 74
     0
 42
0.000000001
 43
0.00000001
 40
0.0
 40
0.0
 40
0.0
 40
0.0
 40
0.1250000000000004
 40
0.1250000000000004
 40
0.1875000000000004
 40
0.1875000000000004
 40
0.2500000000000004
 40
0.2500000000000004
 40
0.3125000000000004
 40
0.3125000000000004
 40
0.3750000000000004
 40
0.3750000000000004
 40
0.5000000000000002
 40
0.5000000000000002
 40
0.5625000000000002
 40
0.5625000000000002
 40
0.6250000000000001
 40
0.6250000000000001
 40
0.6875000000000001
 40
0.6875000000000001
 40
0.75
 40
0.75
 40
0.875
 40
0.875
 40
0.9375
 40
0.9375
 40
1.0
 40
1.0
 40
1.0
 40
1.0
 10
253.25546933622
 20
34.80881571508755
 30
0.0
 10
253.3861820721537
 20
34.54030631748392
 30
0.0
 10
253.4986909240026
 20
34.26276217434388
 30
0.0
 10
253.6447626630213
 20
33.83453613880215
 30
0.0
 10
253.6898547541123
 20
33.68893562420939
 30
0.0
 10
253.7714503582127
 20
33.39804485549585
 30
0.0
 10
253.8078329328706
 20
33.25340081928999
 30
0.0
 10
253.8724908654806
 20
32.96589034310144
 30
0.0
 10
253.9007645846803
 20
32.82302343676713
 30
0.0
 10
253.9495022810504
 20
32.53927113887305
 30
0.0
 10
253.9700453717058
 20
32.39769105114672
 30
0.0
 10
254.0192496874571
 20
31.98110478035538
 30
0.0
 10
254.0352792740654
 20
31.71920488343296
 30
0.0
 10
254.0354420699913
 20
31.35004261449617
 30
0.0
 10
254.0314124842266
 20
31.23034703317057
 30
0.0
 10
254.0150614891778
 20
31.00219145930699
 30
0.0
 10
254.002852000975
 20
30.89453808453906
 30
0.0
 10
253.9704592954114
 20
30.69149841657118
 30
0.0
 10
253.950275807416
 20
30.59611360542039
 30
0.0
 10
253.9015996109548
 20
30.41744108510205
 30
0.0
 10
253.8728866560681
 20
30.33369598546395
 30
0.0
 10
253.774999824853
 20
30.10501425117307
 30
0.0
 10
253.6945975008794
 20
29.98205475162732
 30
0.0
 10
253.5483820652527
 20
29.83866553293801
 30
0.0
 10
253.4949764274885
 20
29.79763168992627
 30
0.0
 10
253.380924120845
 20
29.73086494798456
 30
0.0
 10
253.3201884480802
 20
29.70490989537908
 30
0.0
 10
253.25546933622
 20
29.68603883095355
 30
0.0
  0
SPLINE
  5
272
330
1F
100
AcDbEntity
  8
0
  6
Continuous
 62
     7
370
    15
100
AcDbSpline
210
0.0
220
0.0
230
1.0
 70
     8
 71
     3
 72
    11
 73
     7
 74
     0
 42
0.000000001
 43
0.00000001
 40
0.0
 40
0.0
 40
0.0
 40
0.0
 40
0.1694156123509377
 40
0.4603387591900825
 40
0.7260379979788465
 40
1.0
 40
1.0
 40
1.0
 40
1.0
 10
251.8402837288665
 20
36.49981948080927
 30
0.0
 10
251.9362589274972
 20
36.43645061875895
 30
0.0
 10
252.1970442426024
 20
36.26426375284539
 30
0.0
 10
252.5673302038566
 20
35.88275369492128
 30
0.0
 10
252.9516935809562
 20
35.38285316127394
 30
0.0
 10
253.1531825497046
 20
35.00210470960358
 30
0.0
 10
253.2554695347411
 20
34.80881566047803
 30
0.0
  0
LINE
  5
273
330
1F
100
AcDbEntity
  8
0
  6
Continuous
 62
     7
370
    15
100
AcDbLine
 10
254.0208859382
 20
27.2530637621
 30
0.0
 11
254.1321799601
 21
27.1864854394
 31
0.0
  0
LINE
  5
274
330
1F
100
AcDbEntity
  8
0
  6
Continuous
 62
     7
370
    15
100
AcDbLine
 10
251.6503048336
 20
30.1264631046
 30
0.0
 11
252.0038582821
 21
29.9223610432
 31
0.0
  0
SPLINE
  5
275
330
1F
100
AcDbEntity
  8
0
  6
Continuous
 62
     7
370
    15
100
AcDbSpline
210
0.0
220
0.0
230
1.0
 70
     8
 71
     3
 72
    16
 73
    12
 74
     0
 42
0.000000001
 43
0.00000001
 40
0.0
 40
0.0
 40
0.0
 40
0.0
 40
0.25
 40
0.25
 40
0.375
 40
0.375
 40
0.5
 40
0.5
 40
0.75
 40
0.75
 40
1.0
 40
1.0
 40
1.0
 40
1.0
 10
253.25546933622
 20
29.68603883095356
 30
0.0
 10
253.1567908746537
 20
29.65726575987603
 30
0.0
 10
253.0488360489519
 20
29.64735058019502
 30
0.0
 10
252.8723804953889
 20
29.65754061295305
 30
0.0
 10
252.8111351446565
 20
29.66514084115688
 30
0.0
 10
252.6836034850287
 20
29.68850678155697
 30
0.0
 10
252.6169897466128
 20
29.70437657949321
 30
0.0
 10
252.412131389754
 20
29.76325707753813
 30
0.0
 10
252.2689799214419
 20
29.81722819134632
 30
0.0
 10
251.9693999404434
 20
29.95186193945775
 30
0.0
 10
251.8121557259266
 20
30.03302847235893
 30
0.0
 10
251.6503047749222
 20
30.12646303756314
 30
0.0
  0
SPLINE
  5
276
330
1F
100
AcDbEntity
  8
0
  6
Continuous
 62
     7
370
    15
100
AcDbSpline
210
0.0
220
0.0
230
1.0
 70
     8
 71
     3
 72
    12
 73
     8
 74
     0
 42
0.000000001
 43
0.00000001
 40
0.0
 40
0.0
 40
0.0
 40
0.0
 40
0.5000000000000077
 40
0.5000000000000077
 40
0.7500000000000038
 40
0.7500000000000038
 40
1.0
 40
1.0
 40
1.0
 40
1.0
 10
249.3890394125685
 20
35.36096563606348
 30
0.0
 10
249.3326158599389
 20
35.32839301245821
 30
0.0
 10
249.2548912368485
 20
35.30846065126697
 30
0.0
 10
249.1341374455758
 20
35.30667687820837
 30
0.0
 10
249.0943810380516
 20
35.31065574496139
 30
0.0
 10
249.0197345427757
 20
35.32759309789025
 30
0.0
 10
248.9856506800588
 20
35.34047339423156
 30
0.0
 10
248.9574642868396
 20
35.35674505268501
 30
0.0
  0
SPLINE
  5
277
330
1F
100
AcDbEntity
  8
0
  6
Continuous
 62
     7
370
    15
100
AcDbSpline
210
0.0
220
0.0
230
1.0
 70
     8
 71
     3
 72
    12
 73
     8
 74
     0
 42
0.000000001
 43
0.00000001
 40
0.0
 40
0.0
 40
0.0
 40
0.0
 40
0.500000000000004
 40
0.500000000000004
 40
0.750000000000002
 40
0.750000000000002
 40
1.0
 40
1.0
 40
1.0
 40
1.0
 10
266.5158230374545
 20
52.23821334319169
 30
0.0
 10
266.5158230374545
 20
52.30989846936496
 30
0.0
 10
266.4980443693278
 20
52.39264590624135
 30
0.0
 10
266.4432004127633
 20
52.51095045847382
 30
0.0
 10
266.4200577711272
 20
52.54947591569844
 30
0.0
 10
266.3656207229546
 20
52.61660814253278
 30
0.0
 10
266.3347829870438
 20
52.64436277213074
 30
0.0
 10
266.3036910030985
 20
52.6623117924067
 30
0.0
  0
LINE
  5
278
330
1F
100
AcDbEntity
  8
0
  6
Continuous
 62
     7
370
    15
100
AcDbLine
 10
248.9574643154
 20
35.3567454378
 30
0.0
 11
247.6040045448
 21
36.1380811322
 31
0.0
  0
ARC
  5
279
330
1F
100
AcDbEntity
  8
0
  6
Continuous
 62
     7
370
    15
100
AcDbCircle
 10
273.2089109793
 20
30.6355375522
 30
0.0
 40
26.18948680992666
100
AcDbArc
 50
136.4196357795
 51
167.8714911651
  0
SPLINE
  5
27A
330
1F
100
AcDbEntity
  8
0
  6
Continuous
 62
     7
370
    15
100
AcDbSpline
210
0.0
220
0.0
230
1.0
 70
     8
 71
     3
 72
    12
 73
     8
 74
     0
 42
0.000000001
 43
0.00000001
 40
0.0
 40
0.0
 40
0.0
 40
0.0
 40
0.2500000000000008
 40
0.2500000000000008
 40
0.5000000000000017
 40
0.5000000000000017
 40
1.0
 40
1.0
 40
1.0
 40
1.0
 10
254.2370328744353
 20
48.68981873550383
 30
0.0
 10
254.3363475571552
 20
48.72316681979964
 30
0.0
 10
254.4301726968467
 20
48.76704902130416
 30
0.0
 10
254.6071658017523
 20
48.87517929009989
 30
0.0
 10
254.6869773696733
 20
48.93758478028107
 30
0.0
 10
254.8951612308937
 20
49.14498235807084
 30
0.0
 10
254.9868710644797
 20
49.30639289586462
 30
0.0
 10
255.0146663906535
 20
49.46557590340372
 30
0.0
  0
LWPOLYLINE
  5
27B
330
1F
100
AcDbEntity
  8
0
  6
Continuous
 62
     7
370
    15
100
AcDbPolyline
 90
       11
 70
   128
 43
0.0
 10
255.0146664792
 20
49.465575511
 10
256.0198889018
 20
50.3618648435
 10
257.0461505044
 20
51.1613239829
 10
258.084611932
 20
51.8570667927
 10
259.1263284217
 20
52.443101427
 10
260.1623273045
 20
52.9143788739
 10
261.18368522
 20
53.2668405723
 10
262.1816050425
 20
53.497450653
 10
263.1474909553
 20
53.6042225478
 10
264.0730232362
 20
53.5862363069
 10
264.9502308627
 20
53.4436478127
  0
LINE
  5
27C
330
1F
100
AcDbEntity
  8
0
  6
Continuous
 62
     7
370
    15
100
AcDbLine
 10
266.3036906333
 20
52.6623121183
 30
0.0
 11
264.9502308627
 21
53.4436478127
 31
0.0
  0
LINE
  5
27D
330
1F
100
AcDbEntity
  8
0
  6
Continuous
 62
     7
370
    15
100
AcDbLine
 10
266.5158229658
 20
49.4816020638
 30
0.0
 11
266.5158229658
 21
52.2382131236
 31
0.0
  0
LINE
  5
27E
330
1F
100
AcDbEntity
  8
0
  6
Continuous
 62
     7
370
    15
100
AcDbLine
 10
249.3890394831
 20
35.3609657011
 30
0.0
 11
251.2874270533
 21
36.4568815182
 31
0.0
  0
SPLINE
  5
27F
330
1F
100
AcDbEntity
  8
0
  6
Continuous
 62
     7
370
    15
100
AcDbSpline
210
0.0
220
0.0
230
1.0
 70
     8
 71
     3
 72
     8
 73
     4
 74
     0
 42
0.000000001
 43
0.00000001
 40
0.0
 40
0.0
 40
0.0
 40
0.0
 40
1.0
 40
1.0
 40
1.0
 40
1.0
 10
246.7073485785168
 20
37.837750461239
 30
0.0
 10
246.1763685554185
 20
37.74992718743916
 30
0.0
 10
245.645121061011
 20
37.66262154824314
 30
0.0
 10
245.1136895800641
 20
37.57570895893174
 30
0.0
  0
LWPOLYLINE
  5
280
330
1F
100
AcDbEntity
  8
0
  6
Continuous
 62
     7
370
    15
100
AcDbPolyline
 90
       23
 70
   128
 43
0.0
 10
245.1136898412
 20
37.5757092098
 10
245.4049232473
 20
38.8301726468
 10
245.7774882173
 20
40.0979316097
 10
246.2285167897
 20
41.3692288685
 10
246.7545377765
 20
42.6342791121
 10
247.3515031047
 20
43.8833472747
 10
248.014816792
 20
45.1068181144
 10
248.7393751185
 20
46.2952760586
 10
249.5196008709
 20
47.4395744027
 10
250.3494887817
 20
48.5309056488
 10
251.222651957
 20
49.5608708934
 10
252.1323706087
 20
50.5215429415
 10
253.0716421037
 20
51.4055271385
 10
254.0332380929
 20
52.2060209668
 10
255.0097573592
 20
52.9168620443
 10
255.9936841721
 20
53.5325808239
 10
256.9774457083
 20
54.0484375436
 10
257.9534704077
 20
54.4604627593
 10
258.9142463443
 20
54.7654849575
 10
259.8523788866
 20
54.9611562377
 10
260.7606477526
 20
55.0459700397
 10
261.6320624922
 20
55.0192749227
 10
262.459916159
 20
54.8812758903
  0
LINE
  5
281
330
1F
100
AcDbEntity
  8
0
  6
Continuous
 62
     7
370
    15
100
AcDbLine
 10
262.8867237937
 20
53.5693328493
 30
0.0
 11
262.459916159
 21
54.8812758903
 31
0.0
  0
LWPOLYLINE
  5
282
330
1F
100
AcDbEntity
  8
0
  6
Continuous
 62
     7
370
    15
100
AcDbPolyline
 90
       21
 70
   128
 43
0.0
 10
246.7073484527
 20
37.8377506469
 10
247.0181551187
 20
39.0693599571
 10
247.413171188
 20
40.3112192497
 10
247.8889043991
 20
41.5523489088
 10
248.4411479697
 20
42.7817743287
 10
249.0650194508
 20
43.9886247703
 10
249.7550028736
 20
45.1622303162
 10
250.5049968232
 20
46.2922131215
 10
251.3083700858
 20
47.3685822767
 10
252.1580196002
 20
48.3818212551
 10
253.0464323614
 20
49.3229700374
 10
253.9657537444
 20
50.1837079004
 10
254.9078545113
 20
50.9564240386
 10
255.8644050206
 20
51.6342855004
 10
256.8269475029
 20
52.2112994435
 10
257.7869712583
 20
52.6823641505
 10
258.7359877303
 20
53.0433138895
 10
259.665605786
 20
53.2909570481
 10
260.5676062961
 20
53.42310474
 10
261.434013134
 20
53.4385882166
 10
261.7561266799
 20
53.4134176588
  0
SPLINE
  5
283
330
1F
100
AcDbEntity
  8
0
  6
Continuous
 62
     7
370
    15
100
AcDbSpline
210
0.0
220
0.0
230
1.0
 70
     8
 71
     3
 72
     8
 73
     4
 74
     0
 42
0.000000001
 43
0.00000001
 40
0.0
 40
0.0
 40
0.0
 40
0.0
 40
1.0
 40
1.0
 40
1.0
 40
1.0
 10
251.5187268961243
 20
36.53660411058539
 30
0.0
 10
251.4311032712486
 20
36.52159436900735
 30
0.0
 10
251.3520374191918
 20
36.49418026413555
 30
0.0
 10
251.2874268428449
 20
36.4568813723397
 30
0.0
  0
SPLINE
  5
284
330
1F
100
AcDbEntity
  8
0
  6
Continuous
 62
     7
370
    15
100
AcDbSpline
210
0.0
220
0.0
230
1.0
 70
     8
 71
     3
 72
     8
 73
     4
 74
     0
 42
0.000000001
 43
0.00000001
 40
0.0
 40
0.0
 40
0.0
 40
0.0
 40
0.0000694974999696
 40
0.0000694974999696
 40
0.0000694974999696
 40
0.0000694974999696
 10
266.5158230374545
 20
49.48160202228167
 30
0.0
 10
266.5158230374545
 20
49.4721440981068
 30
0.0
 10
266.5159658780366
 20
49.46260228770426
 30
0.0
 10
266.5162508808965
 20
49.45298556270794
 30
0.0
  0
SPLINE
  5
285
330
1F
100
AcDbEntity
  8
0
  6
Continuous
 62
     7
370
    15
100
AcDbSpline
210
0.0
220
0.0
230
1.0
 70
     8
 71
     3
 72
     8
 73
     4
 74
     0
 42
0.000000001
 43
0.00000001
 40
0.0
 40
0.0
 40
0.0
 40
0.0
 40
0.0000694974999696
 40
0.0000694974999696
 40
0.0000694974999696
 40
0.0000694974999696
 10
266.5162508808965
 20
49.45298556270794
 30
0.0
 10
266.5241512767786
 20
49.4578754214691
 30
0.0
 10
266.5322000300986
 20
49.46268678808401
 30
0.0
 10
266.540390389016
 20
49.46741498164456
 30
0.0
  0
SPLINE
  5
286
330
1F
100
AcDbEntity
  8
0
  6
Continuous
 62
     7
370
    15
100
AcDbSpline
210
0.0
220
0.0
230
1.0
 70
     8
 71
     3
 72
    12
 73
     8
 74
     0
 42
0.000000001
 43
0.00000001
 40
0.0
 40
0.0
 40
0.0
 40
0.0
 40
0.2500000000000012
 40
0.2500000000000012
 40
0.5000000000000024
 40
0.5000000000000024
 40
1.0
 40
1.0
 40
1.0
 40
1.0
 10
252.003858165515
 20
36.42901408582909
 30
0.0
 10
251.972385782078
 20
36.44718270605729
 30
0.0
 10
251.9377087400295
 20
36.46424218622403
 30
0.0
 10
251.8619616814835
 20
36.49553340096708
 30
0.0
 10
251.821017303854
 20
36.50959634398841
 30
0.0
 10
251.6949302343109
 20
36.54216005114076
 30
0.0
 10
251.6041668886826
 20
36.55123980056682
 30
0.0
 10
251.5187268961243
 20
36.53660411058539
 30
0.0
  0
LINE
  5
287
330
1F
100
AcDbEntity
  8
0
  6
Continuous
 62
     7
370
    15
100
AcDbLine
 10
245.1136898412
 20
37.5757092098
 30
0.0
 11
243.9193286615
 21
38.2651992427
 31
0.0
  0
ELLIPSE
  5
288
330
1F
100
AcDbEntity
  8
0
  6
Continuous
 62
     7
370
    15
100
AcDbEllipse
 10
257.623955264
 20
39.6040921795
 30
0.0
 11
-11.22577624962693
 21
19.44256145494138
 31
0.0
210
0.0
220
0.0
230
1.0
 40
0.5773346305
 41
1.301367514982107
 42
1.314414189074319
  0
LINE
  5
289
330
1F
100
AcDbEntity
  8
0
  6
Continuous
 62
     7
370
    15
100
AcDbLine
 10
262.459916159
 20
54.8812758903
 30
0.0
 11
261.1241336987
 21
55.6524066907
 31
0.0
  0
SPLINE
  5
28A
330
1F
100
AcDbEntity
  8
0
  6
Continuous
 62
     7
370
    15
100
AcDbSpline
210
0.0
220
0.0
230
1.0
 70
     8
 71
     3
 72
    14
 73
    10
 74
     0
 42
0.000000001
 43
0.00000001
 40
0.0
 40
0.0
 40
0.0
 40
0.0
 40
0.1134875903227499
 40
0.2884507601050068
 40
0.4634438893900288
 40
0.6380744063983101
 40
0.8124676993590939
 40
0.9871167959912229
 40
0.9999999999999999
 40
0.9999999999999999
 40
0.9999999999999999
 40
0.9999999999999999
 10
254.7281153245706
 20
48.99012623337548
 30
0.0
 10
254.6585648621613
 20
48.99347626279815
 30
0.0
 10
254.4817888491138
 20
49.00199101344704
 30
0.0
 10
254.1869533267252
 20
48.91684496690598
 30
0.0
 10
253.8943072174221
 20
48.75340935463878
 30
0.0
 10
253.6687648575976
 20
48.52272166201396
 30
0.0
 10
253.5496733568988
 20
48.25998799373053
 30
0.0
 10
253.5156063785104
 20
48.06503021983892
 30
0.0
 10
253.5472686498152
 20
47.97925113162476
 30
0.0
 10
253.5494438031045
 20
47.97335822949872
 30
0.0
  0
LINE
  5
28B
330
1F
100
AcDbEntity
  8
0
  6
Continuous
 62
     7
370
    15
100
AcDbLine
 10
247.9338905623
 20
37.5374658535
 30
0.0
 11
247.3433799582
 21
37.8783603692
 31
0.0
  0
SPLINE
  5
28C
330
1F
100
AcDbEntity
  8
0
  6
Continuous
 62
     7
370
    15
100
AcDbSpline
210
0.0
220
0.0
230
1.0
 70
     8
 71
     3
 72
    12
 73
     8
 74
     0
 42
0.000000001
 43
0.00000001
 40
0.0
 40
0.0
 40
0.0
 40
0.0
 40
0.2499999999999978
 40
0.2499999999999978
 40
0.4999999999999957
 40
0.4999999999999957
 40
1.0
 40
1.0
 40
1.0
 40
1.0
 10
247.3433800277543
 20
37.87836035665463
 30
0.0
 10
247.3053424202017
 20
37.90031900009187
 30
0.0
 10
247.2598591437435
 20
37.91733363400341
 30
0.0
 10
247.1596179501622
 20
37.93972876611741
 30
0.0
 10
247.1062959511577
 20
37.94482171547198
 30
0.0
 10
246.9452324442785
 20
37.94187219513222
 30
0.0
 10
246.8410885128026
 20
37.91495688191732
 30
0.0
 10
246.7655954289494
 20
37.87137565226138
 30
0.0
  0
SPLINE
  5
28D
330
1F
100
AcDbEntity
  8
0
  6
Continuous
 62
     7
370
    15
100
AcDbSpline
210
0.0
220
0.0
230
1.0
 70
     8
 71
     3
 72
     9
 73
     5
 74
     0
 42
0.000000001
 43
0.00000001
 40
0.0
 40
0.0
 40
0.0
 40
0.0
 40
0.5391701134361231
 40
1.0
 40
1.0
 40
1.0
 40
1.0
 10
243.8159626923068
 20
38.53211675885654
 30
0.0
 10
243.7950504726459
 20
38.5994287687055
 30
0.0
 10
243.7562645326618
 20
38.72427250201257
 30
0.0
 10
243.7767486978539
 20
38.84261495821943
 30
0.0
 10
243.7861884133758
 20
38.89715069888892
 30
0.0
  0
LINE
  5
28E
330
1F
100
AcDbEntity
  8
0
  6
Continuous
 62
     7
370
    15
100
AcDbLine
 10
246.7655953974
 20
37.8713758923
 30
0.0
 11
246.7073484527
 21
37.8377506469
 31
0.0
  0
LINE
  5
28F
330
1F
100
AcDbEntity
  8
0
  6
Continuous
 62
     7
370
    15
100
AcDbLine
 10
246.4339901671
 20
37.7926085563
 30
0.0
 11
246.4339901671
 21
35.5332808161
 31
0.0
  0
LINE
  5
290
330
1F
100
AcDbEntity
  8
0
  6
Continuous
 62
     7
370
    15
100
AcDbLine
 10
246.4339901671
 20
35.5332808161
 30
0.0
 11
246.4339901671
 21
34.0674729087
 31
0.0
  0
ARC
  5
291
330
1F
100
AcDbEntity
  8
0
  6
Continuous
 62
     7
370
    15
100
AcDbCircle
 10
256.7095798247
 20
36.8232917145
 30
0.0
 40
10.35624791746346
100
AcDbArc
 50
174.7115954871
 51
187.1555514557
  0
ARC
  5
292
330
1F
100
AcDbEntity
  8
0
  6
Continuous
 62
     7
370
    15
100
AcDbCircle
 10
252.3910362019
 20
37.3131645281
 30
0.0
 40
6.960506994291552
100
AcDbArc
 50
177.9004024711
 51
210.688955664
  0
LINE
  5
293
330
1F
100
AcDbEntity
  8
0
  6
Continuous
 62
     7
370
    15
100
AcDbLine
 10
232.1821656283
 20
61.3996122831
 30
0.0
 11
232.2281937735
 21
61.3836160949
 31
0.0
  0
LINE
  5
294
330
1F
100
AcDbEntity
  8
0
  6
Continuous
 62
     7
370
    15
100
AcDbLine
 10
226.0634117789
 20
50.7047434497
 30
0.0
 11
226.0009382956
 21
50.7596070134
 31
0.0
  0
SPLINE
  5
295
330
1F
100
AcDbEntity
  8
0
  6
Continuous
 62
     7
370
    15
100
AcDbSpline
210
0.0
220
0.0
230
1.0
 70
     8
 71
     3
 72
     8
 73
     4
 74
     0
 42
0.000000001
 43
0.00000001
 40
0.0
 40
0.0
 40
0.0
 40
0.0
 40
1.0
 40
1.0
 40
1.0
 40
1.0
 10
251.2874268428449
 20
29.88372783665941
 30
0.0
 10
251.3520314127035
 20
29.92102326098334
 30
0.0
 10
251.4311222733631
 20
29.94844408834917
 30
0.0
 10
251.5187268961243
 20
29.96345057490518
 30
0.0
  0
SPLINE
  5
296
330
1F
100
AcDbEntity
  8
0
  6
Continuous
 62
     7
370
    15
100
AcDbSpline
210
0.0
220
0.0
230
1.0
 70
     8
 71
     3
 72
    10
 73
     6
 74
     0
 42
0.000000001
 43
0.00000001
 40
0.0
 40
0.0
 40
0.0
 40
0.0
 40
0.5
 40
0.5
 40
1.0
 40
1.0
 40
1.0
 40
1.0
 10
251.5187268961243
 20
29.96345057490511
 30
0.0
 10
251.6040636902372
 20
29.97806858721115
 30
0.0
 10
251.694262537377
 20
29.98800061672269
 30
0.0
 10
251.8627745193679
 20
29.97842953937528
 30
0.0
 10
251.9409826680117
 20
29.95865826170857
 30
0.0
 10
252.003858165515
 20
29.92236100960865
 30
0.0
  0
LINE
  5
297
330
1F
100
AcDbEntity
  8
0
  6
Continuous
 62
     7
370
    15
100
AcDbLine
 10
249.3890394831
 20
28.7878119245
 30
0.0
 11
251.2874270533
 21
29.8837277416
 31
0.0
  0
SPLINE
  5
298
330
1F
100
AcDbEntity
  8
0
  6
Continuous
 62
     7
370
    15
100
AcDbSpline
210
0.0
220
0.0
230
1.0
 70
     8
 71
     3
 72
    10
 73
     6
 74
     0
 42
0.000000001
 43
0.00000001
 40
0.0
 40
0.0
 40
0.0
 40
0.0
 40
0.5
 40
0.5
 40
1.0
 40
1.0
 40
1.0
 40
1.0
 10
248.9574642868393
 20
28.78359151700487
 30
0.0
 10
249.0138495485246
 20
28.75104099829121
 30
0.0
 10
249.0944796397481
 20
28.73296251719948
 30
0.0
 10
249.2539666815777
 20
28.7352685107758
 30
0.0
 10
249.3321424572011
 20
28.75496618719452
 30
0.0
 10
249.3890394125685
 20
28.7878121003832
 30
0.0
  0
LINE
  5
299
330
1F
100
AcDbEntity
  8
0
  6
Continuous
 62
     7
370
    15
100
AcDbLine
 10
247.6040045448
 20
29.5649273556
 30
0.0
 11
248.9574643154
 21
28.7835916612
 31
0.0
  0
SPLINE
  5
29A
330
1F
100
AcDbEntity
  8
0
  6
Continuous
 62
     7
370
    15
100
AcDbSpline
210
0.0
220
0.0
230
1.0
 70
     8
 71
     3
 72
     8
 73
     4
 74
     0
 42
0.000000001
 43
0.00000001
 40
0.0
 40
0.0
 40
0.0
 40
0.0
 40
1.0
 40
1.0
 40
1.0
 40
1.0
 10
248.0579225305831
 20
30.48492717876801
 30
0.0
 10
247.9057917803124
 20
30.17839914911117
 30
0.0
 10
247.7545574777986
 20
29.87171627046078
 30
0.0
 10
247.6040041518936
 20
29.56492742170667
 30
0.0
  0
LINE
  5
29B
330
1F
100
AcDbEntity
  8
0
  6
Continuous
 62
     7
370
    15
100
AcDbLine
 10
248.1161694259
 20
30.5185523248
 30
0.0
 11
248.0579224813
 21
30.4849270794
 31
0.0
  0
SPLINE
  5
29C
330
1F
100
AcDbEntity
  8
0
  6
Continuous
 62
     7
370
    15
100
AcDbSpline
210
0.0
220
0.0
230
1.0
 70
     8
 71
     3
 72
    14
 73
    10
 74
     0
 42
0.000000001
 43
0.00000001
 40
0.0
 40
0.0
 40
0.0
 40
0.0
 40
0.25
 40
0.25
 40
0.5
 40
0.5
 40
0.75
 40
0.75
 40
1.0
 40
1.0
 40
1.0
 40
1.0
 10
248.1282685548713
 20
30.85210031891274
 30
0.0
 10
248.166171771779
 20
30.83021925754342
 30
0.0
 10
248.196143916535
 20
30.8034101246018
 30
0.0
 10
248.2344381193647
 20
30.74614904665368
 30
0.0
 10
248.2433930786829
 20
30.71496266599033
 30
0.0
 10
248.2399855593505
 20
30.65340856495025
 30
0.0
 10
248.2278143199945
 20
30.62285041730433
 30
0.0
 10
248.184635577168
 20
30.56615302164689
 30
0.0
 10
248.1542182685832
 20
30.54051752504165
 30
0.0
 10
248.1161693810157
 20
30.5185523697904
 30
0.0
  0
LINE
  5
29D
330
1F
100
AcDbEntity
  8
0
  6
Continuous
 62
     7
370
    15
100
AcDbLine
 10
247.3433799582
 20
31.3052065926
 30
0.0
 11
248.1282685349
 21
30.8521000619
 31
0.0
  0
SPLINE
  5
29E
330
1F
100
AcDbEntity
  8
0
  6
Continuous
 62
     7
370
    15
100
AcDbSpline
210
0.0
220
0.0
230
1.0
 70
     8
 71
     3
 72
    12
 73
     8
 74
     0
 42
0.000000001
 43
0.00000001
 40
0.0
 40
0.0
 40
0.0
 40
0.0
 40
0.5
 40
0.5
 40
0.75
 40
0.75
 40
1.0
 40
1.0
 40
1.0
 40
1.0
 10
246.7655954289494
 20
31.29822211658109
 30
0.0
 10
246.8408395662548
 20
31.34165963245401
 30
0.0
 10
246.9455556686661
 20
31.36866868828952
 30
0.0
 10
247.1055779750421
 20
31.37168283131674
 30
0.0
 10
247.1602133287279
 20
31.36646548003452
 30
0.0
 10
247.2597785877057
 20
31.34417471036766
 30
0.0
 10
247.3057587253398
 20
31.32692513657084
 30
0.0
 10
247.3433800277543
 20
31.30520682097434
 30
0.0
  0
LINE
  5
29F
330
1F
100
AcDbEntity
  8
0
  6
Continuous
 62
     7
370
    15
100
AcDbLine
 10
246.7073484527
 20
31.2645968703
 30
0.0
 11
246.7655953974
 21
31.2982221157
 31
0.0
  0
SPLINE
  5
2A0
330
1F
100
AcDbEntity
  8
0
  6
Continuous
 62
     7
370
    15
100
AcDbSpline
210
0.0
220
0.0
230
1.0
 70
     8
 71
     3
 72
     8
 73
     4
 74
     0
 42
0.000000001
 43
0.00000001
 40
0.0
 40
0.0
 40
0.0
 40
0.0
 40
1.0
 40
1.0
 40
1.0
 40
1.0
 10
245.1136895800641
 20
31.00255542325145
 30
0.0
 10
245.645121061011
 20
31.08946801256286
 30
0.0
 10
246.1763685554185
 20
31.17677365175888
 30
0.0
 10
246.7073485785168
 20
31.26459692555871
 30
0.0
  0
LINE
  5
2A1
330
1F
100
AcDbEntity
  8
0
  6
Continuous
 62
     7
370
    15
100
AcDbLine
 10
243.9193286615
 20
31.6920454661
 30
0.0
 11
245.1136898412
 21
31.0025554332
 31
0.0
  0
LINE
  5
2A2
330
1F
100
AcDbEntity
  8
0
  6
Continuous
 62
     7
370
    15
100
AcDbLine
 10
243.9193286615
 20
31.6920454661
 30
0.0
 11
246.2218584108
 21
33.0212675971
 31
0.0
  0
ARC
  5
2A3
330
1F
100
AcDbEntity
  8
0
  6
Continuous
 62
     7
370
    15
100
AcDbCircle
 10
254.6891734848
 20
29.4577936292
 30
0.0
 40
5.612119260806305
100
AcDbArc
 50
209.0081293269
 51
270.9985287719
  0
ARC
  5
2A4
330
1F
100
AcDbEntity
  8
0
  6
Continuous
 62
     7
370
    15
100
AcDbCircle
 10
254.0336941743
 20
30.9301016639
 30
0.0
 40
6.573021346606763
100
AcDbArc
 50
191.9872240498
 51
237.7441963076
  0
ELLIPSE
  5
2A5
330
1F
100
AcDbEntity
  8
0
  6
Continuous
 62
     7
370
    15
100
AcDbEllipse
 10
245.9875438423
 20
33.8097672347
 30
0.0
 11
-6.005970382716441E-5
 21
0.8534489614827264
 31
0.0
210
0.0
220
0.0
230
1.0
 40
0.7174342186
 41
3.534193645557471
 42
5.104989972352371
  0
ARC
  5
2A6
330
1F
100
AcDbEntity
  8
0
  6
Continuous
 62
     7
370
    15
100
AcDbCircle
 10
253.3507784828
 20
33.1209857042
 30
0.0
 40
6.897923025542446
100
AcDbArc
 50
195.6120791138
 51
215.4531392794
  0
ARC
  5
2A7
330
1F
100
AcDbEntity
  8
0
  6
Continuous
 62
     7
370
    15
100
AcDbCircle
 10
251.1300023505
 20
32.1246191622
 30
0.0
 40
6.120052550560888
100
AcDbArc
 50
190.5644927547
 51
253.3725276198
  0
ARC
  5
2A8
330
1F
100
AcDbEntity
  8
0
  6
Continuous
 62
     7
370
    15
100
AcDbCircle
 10
249.6250158822
 20
32.5358752669
 30
0.0
 40
5.754705889513168
100
AcDbArc
 50
209.9544338428
 51
239.4455879901
  0
ELLIPSE
  5
2A9
330
1F
100
AcDbEntity
  8
0
  6
Continuous
 62
     7
370
    15
100
AcDbEllipse
 10
257.623955264
 20
39.6040921795
 30
0.0
 11
15.8749999647564
 21
9.16593207022629
 31
0.0
210
0.0
220
0.0
230
1.0
 40
0.0000703729
 41
2.612495364419785
 42
2.6255420385071
  0
SPLINE
  5
2AA
330
1F
100
AcDbEntity
  8
0
  6
Continuous
 62
     7
370
    15
100
AcDbSpline
210
0.0
220
0.0
230
1.0
 70
     8
 71
     3
 72
     9
 73
     5
 74
     0
 42
0.000000001
 43
0.00000001
 40
0.0
 40
0.0
 40
0.0
 40
0.0
 40
0.4579510485823076
 40
1.0
 40
1.0
 40
1.0
 40
1.0
 10
243.7751520306026
 20
31.60876558705876
 30
0.0
 10
243.7742006005507
 20
31.60821937694556
 30
0.0
 10
243.772123020305
 20
31.60702665096558
 30
0.0
 10
243.8005525146875
 20
31.62344672722332
 30
0.0
 10
243.8159626923068
 20
31.63234721234104
 30
0.0
  0
ELLIPSE
  5
2AB
330
1F
100
AcDbEntity
  8
0
  6
Continuous
 62
     7
370
    15
100
AcDbEllipse
 10
245.8683050268
 20
33.7409097545
 30
0.0
 11
0.2600075789209199
 21
0.9705436209909308
 31
0.0
210
0.0
220
0.0
230
1.0
 40
0.5176380889
 41
3.619174351347694
 42
5.189970678142641
  0
SPLINE
  5
2AC
330
1F
100
AcDbEntity
  8
0
  6
Continuous
 62
     7
370
    15
100
AcDbSpline
210
0.0
220
0.0
230
1.0
 70
     8
 71
     3
 72
    12
 73
     8
 74
     0
 42
0.000000001
 43
0.00000001
 40
0.0
 40
0.0
 40
0.0
 40
0.0
 40
0.5
 40
0.5
 40
0.75
 40
0.75
 40
1.0
 40
1.0
 40
1.0
 40
1.0
 10
263.3237352636794
 20
54.08051378996575
 30
0.0
 10
263.3861262441077
 20
54.11653133631199
 30
0.0
 10
263.4654865771231
 20
54.14224830238717
 30
0.0
 10
263.5967102617053
 20
54.15401806520904
 30
0.0
 10
263.6418497827454
 20
54.15311312466002
 30
0.0
 10
263.7263182163186
 20
54.13963342738611
 30
0.0
 10
263.7658832319308
 20
54.12685541286208
 30
0.0
 10
263.7970786538098
 20
54.10884667913809
 30
0.0
  0
LINE
  5
2AD
330
1F
100
AcDbEntity
  8
0
  6
Continuous
 62
     7
370
    15
100
AcDbLine
 10
263.7970789287
 20
54.1088466328
 30
0.0
 11
264.9487422228
 21
53.4440055647
 31
0.0
  0
SPLINE
  5
2AE
330
1F
100
AcDbEntity
  8
0
  6
Continuous
 62
     7
370
    15
100
AcDbSpline
210
0.0
220
0.0
230
1.0
 70
     8
 71
     3
 72
     9
 73
     5
 74
     0
 42
0.000000001
 43
0.00000001
 40
0.0
 40
0.0
 40
0.0
 40
0.0
 40
0.9179880848222475
 40
1.0
 40
1.0
 40
1.0
 40
1.0
 10
266.5158229658049
 20
51.66354999881659
 30
0.0
 10
266.8540203933359
 20
51.73695364831924
 30
0.0
 10
267.2224319589354
 20
51.81691508868678
 30
0.0
 10
267.5928013866036
 20
51.89378361937485
 30
0.0
 10
267.62317609269
 20
51.90008775479347
 30
0.0
  0
LINE
  5
2AF
330
1F
100
AcDbEntity
  8
0
  6
Continuous
 62
     7
370
    15
100
AcDbLine
 10
267.6231760927
 20
51.9000877548
 30
0.0
 11
268.9766358633
 21
51.1187520604
 31
0.0
  0
SPLINE
  5
2B0
330
1F
100
AcDbEntity
  8
0
  6
Continuous
 62
     7
370
    15
100
AcDbSpline
210
0.0
220
0.0
230
1.0
 70
     8
 71
     3
 72
    12
 73
     8
 74
     0
 42
0.000000001
 43
0.00000001
 40
0.0
 40
0.0
 40
0.0
 40
0.0
 40
0.2500000000000034
 40
0.2500000000000034
 40
0.5000000000000069
 40
0.5000000000000069
 40
1.0
 40
1.0
 40
1.0
 40
1.0
 10
268.9766358260012
 20
51.11875196958741
 30
0.0
 10
269.007656513718
 20
51.10084410774805
 30
0.0
 10
269.0300140951904
 20
51.07797806645516
 30
0.0
 10
269.0535386881805
 20
51.02849684258462
 30
0.0
 10
269.0548372057248
 20
51.00292682274527
 30
0.0
 10
269.0346044496775
 20
50.92769942625051
 30
0.0
 10
268.9893128441495
 20
50.8811478228435
 30
0.0
 10
268.9275565045828
 20
50.84549664686826
 30
0.0
  0
LINE
  5
2B1
330
1F
100
AcDbEntity
  8
0
  6
Continuous
 62
     7
370
    15
100
AcDbLine
 10
268.9275565167
 20
50.8454963789
 30
0.0
 11
266.5403906272
 21
49.4674148442
 31
0.0
  0
LINE
  5
2B2
330
1F
100
AcDbEntity
  8
0
  6
Continuous
 62
     7
370
    15
100
AcDbLine
 10
263.323735164
 20
54.0805135866
 30
0.0
 11
262.815814273
 21
53.7872970975
 31
0.0
  0
LWPOLYLINE
  5
2B3
330
1F
100
AcDbEntity
  8
0
  6
Continuous
 62
     7
370
    15
100
AcDbPolyline
 90
        3
 70
   128
 43
0.0
 10
253.7456584563
 20
48.1596704113
 10
253.8346409903
 20
48.287029294
 10
254.0361335485
 20
48.4769496729
  0
LWPOLYLINE
  5
2B4
330
1F
100
AcDbEntity
  8
0
  6
Continuous
 62
     7
370
    15
100
AcDbPolyline
 90
        3
 70
   128
 43
0.0
 10
253.8036265074
 20
48.2239016943
 10
253.8614226783
 20
48.3018684838
 10
254.0104249587
 20
48.4493266493
  0
LWPOLYLINE
  5
2B5
330
1F
100
AcDbEntity
  8
0
  6
Continuous
 62
     7
370
     0
100
AcDbPolyline
 90
       10
 70
   128
 43
0.0
 10
275.0474906426
 20
35.0987514611
 10
275.2522018371
 20
34.7047752261
 10
275.4594062811
 20
34.1714590391
 10
275.5875959208
 20
33.643050167
 10
275.6311704938
 20
33.1426413966
 10
275.5882254894
 20
32.6921030253
 10
275.4606364422
 20
32.3111265213
 10
275.2539799072
 20
32.0163621699
 10
274.9772884809
 20
31.8206922042
 10
274.7606075815
 20
31.7498803818
  0
LWPOLYLINE
  5
2B6
330
1F
100
AcDbEntity
  8
0
  6
Continuous
 62
     7
370
     0
100
AcDbPolyline
 90
       14
 70
   128
 43
0.0
 10
274.8236029613
 20
34.9045857666
 10
274.9988719479
 20
34.5583181156
 10
275.1937537071
 20
34.0357546683
 10
275.3047303105
 20
33.5218331854
 10
275.3262383741
 20
33.0423229986
 10
275.2571992021
 20
32.6212688927
 10
275.1010754214
 20
32.2797838287
 10
274.865693175
 20
32.034992787
 10
274.5628588488
 20
31.8991687028
 10
274.2077545279
 20
31.8791241815
 10
273.818188573
 20
31.9758633744
 10
273.4136960482
 20
32.1845348403
 10
273.0145574903
 20
32.4946765129
 10
272.8347195218
 20
32.6710587016
  0
LWPOLYLINE
  5
2B7
330
1F
100
AcDbEntity
  8
0
  6
Continuous
 62
     7
370
     0
100
AcDbPolyline
 90
       26
 70
   128
 43
0.0
 10
266.0208477427
 20
47.6171873259
 10
265.0365645659
 20
46.9986468295
 10
264.0599847135
 20
46.2842969819
 10
263.0987514177
 20
45.4797273237
 10
262.1603870678
 20
44.5912355878
 10
261.2522364105
 20
43.6257743776
 10
260.3814064584
 20
42.5909012667
 10
259.554713147
 20
41.4947145456
 10
258.7786256884
 20
40.3457929592
 10
258.059218497
 20
39.1531291719
 10
257.4021221283
 20
37.9260573373
 10
256.8124784981
 20
36.6741800983
 10
256.2949033445
 20
35.4072963465
 10
255.8534467165
 20
34.135320237
 10
255.4915633385
 20
32.8682070454
 10
255.2120862689
 20
31.6158735124
 10
255.0172025341
 20
30.3881212292
 10
254.9084373232
 20
29.1945588813
 10
254.8866408171
 20
28.0445269885
 10
254.9519855544
 20
26.9470272526
 10
255.1039591876
 20
25.910648651
 10
255.3413723853
 20
24.9435019884
 10
255.6623660763
 20
24.0531565166
 10
256.0644298889
 20
23.2465809728
 10
256.5444153219
 20
22.5300867341
 10
256.9098469377
 20
22.1010228556
  0
ARC
  5
2B8
330
1F
100
AcDbEntity
  8
0
  6
Continuous
 62
     7
370
     0
100
AcDbCircle
 10
271.0109389281
 20
39.8772328687
 30
0.0
 40
9.209120752761695
100
AcDbArc
 50
81.3201723981
 51
122.810621089
  0
LWPOLYLINE
  5
2B9
330
1F
100
AcDbEntity
  8
0
  6
Continuous
 62
     7
370
     0
100
AcDbPolyline
 90
       56
 70
   128
 43
0.0
 10
276.627449882
 20
36.3907457134
 10
275.8617109563
 20
35.8981308633
 10
275.1059545776
 20
35.3108125414
 10
274.3700332302
 20
34.6364457834
 10
273.6635409198
 20
33.8838231116
 10
272.9956875559
 20
33.0627556292
 10
272.3751795909
 20
32.1839478406
 10
271.8101065855
 20
31.2588557404
 10
271.3078350185
 20
30.2995395789
 10
270.8749127981
 20
29.3185053144
 10
270.5169839798
 20
28.3285428327
 10
270.2387140223
 20
27.3425569414
 10
270.0437308473
 20
26.3734017847
 10
269.9345770951
 20
25.4337121673
 10
269.9126752219
 20
24.5357381336
 10
269.9783103773
 20
23.6911859137
 10
270.1306271122
 20
22.9110655935
 10
270.3676399148
 20
22.2055474809
 10
270.6862588943
 20
21.5838290942
 10
271.0823306105
 20
21.0540150761
 10
271.5506910865
 20
20.6230128155
 10
272.0852352857
 20
20.2964409949
 10
272.6789938313
 20
20.0785569594
 10
273.3242268499
 20
19.9722006233
 10
274.0125222585
 20
19.9787599553
 10
274.7349073881
 20
20.098147964
 10
275.4819645585
 20
20.3288085803
 10
276.2439549665
 20
20.6677349447
 10
277.0109447974
 20
21.1105087494
 10
277.7729352054
 20
21.6513577835
 10
278.5199923758
 20
22.2832310166
 10
279.2423775055
 20
22.9978911254
 10
279.9306729141
 20
23.7860207567
 10
280.5759059326
 20
24.6373472789
 10
281.1696644783
 20
25.5407703392
 10
281.7042086774
 20
26.4845137552
 10
282.1725691535
 20
27.4562735111
 10
282.5686408696
 20
28.4433821988
 10
282.8872598491
 20
29.4329702289
 10
283.1242726517
 20
30.4121374986
 10
283.2765893866
 20
31.3681189777
 10
283.3422245421
 20
32.288451935
 10
283.3203226689
 20
33.1611386041
 10
283.2111689167
 20
33.9748019817
 10
283.0161857416
 20
34.7188343565
 10
282.7379157842
 20
35.3835365935
 10
282.3799869659
 20
35.9602432581
 10
281.9470647454
 20
36.4414361663
 10
281.4447931785
 20
36.8208419203
 10
280.879720173
 20
37.0935146156
 10
280.259212208
 20
37.2558991572
 10
279.5913588442
 20
37.3058795588
 10
278.8848665337
 20
37.2428035716
 10
278.1489451863
 20
37.0674936278
 10
277.3931888076
 20
36.7822342082
 10
276.627449882
 20
36.3907457134
  0
LWPOLYLINE
  5
2BA
330
1F
100
AcDbEntity
  8
0
  6
Continuous
 62
     7
370
     0
100
AcDbPolyline
 90
       29
 70
   128
 43
0.0
 10
271.7742613494
 20
21.0432707798
 10
271.8410720068
 20
21.0058303447
 10
272.4122431344
 20
20.7671463464
 10
273.0376236702
 20
20.6417552056
 10
273.7084338989
 20
20.6314174571
 10
274.4152577865
 20
20.7362776171
 10
275.1481729605
 20
20.9548646929
 10
275.8968907332
 20
21.2841098991
 10
276.6509008165
 20
21.719390655
 10
277.3996185892
 20
22.2545965888
 10
278.1325337633
 20
22.8822153609
 10
278.8393576509
 20
23.5934366908
 10
279.5101678796
 20
24.3782754436
 10
280.1355484154
 20
25.2257155819
 10
280.706719543
 20
26.1238597271
 10
281.2156634829
 20
27.060100537
 10
281.6552356858
 20
28.0212948414
 10
282.0192659189
 20
28.9939501361
 10
282.3026435476
 20
29.964412029
 10
282.501390963
 20
30.9190575808
 10
282.6127179121
 20
31.8444855584
 10
282.6350616687
 20
32.727705002
 10
282.5681087657
 20
33.5563175205
 10
282.412798946
 20
34.3186911041
 10
282.1713126506
 20
35.0041241004
 10
281.8470387494
 20
35.6029933893
 10
281.4445307485
 20
36.1068935272
 10
280.9694379719
 20
36.5087501582
 10
280.7735302004
 20
36.6321506031
  0
LWPOLYLINE
  5
2BB
330
1F
100
AcDbEntity
  8
0
  6
Continuous
 62
     7
370
     0
100
AcDbPolyline
 90
       22
 70
   128
 43
0.0
 10
266.6311637437
 20
48.8377071205
 10
266.3848904882
 20
48.969091068
 10
265.7096920481
 20
49.2318179264
 10
264.9816266428
 20
49.3832185485
 10
264.2079188347
 20
49.4217905324
 10
263.3962456065
 20
49.3471504547
 10
262.5546604635
 20
49.1600402468
 10
261.6915140794
 20
48.8623156052
 10
260.8153709902
 20
48.4569313604
 10
259.9349245596
 20
47.9479091175
 10
259.0589109567
 20
47.3402997643
 10
258.1960222281
 20
46.6401325281
 10
257.3548205227
 20
45.8543548124
 10
256.5436520688
 20
44.9907627649
 10
255.770566256
 20
44.057925667
 10
255.0432334815
 20
43.0650997236
 10
254.3688707344
 20
42.0221356739
 10
253.7541694856
 20
40.9393831703
 10
253.2052285157
 20
39.8275843196
 10
252.7274953049
 20
38.6977717864
 10
252.325709398
 20
37.5611554897
 10
252.0038582821
 20
36.4290138609
  0
ARC
  5
2BC
330
1F
100
AcDbEntity
  8
0
  6
Continuous
 62
     7
370
     0
100
AcDbCircle
 10
256.698389549
 20
31.3730144249
 30
0.0
 40
4.913554624701425
100
AcDbArc
 50
197.1716305334
 51
236.9806720496
  0
LWPOLYLINE
  5
2BD
330
1F
100
AcDbEntity
  8
0
  6
Continuous
 62
     7
370
     0
100
AcDbPolyline
 90
       23
 70
   128
 43
0.0
 10
248.9574643154
 20
35.3567454378
 10
249.2486977215
 20
36.6112088748
 10
249.6212626915
 20
37.8789678377
 10
250.0722912639
 20
39.1502650965
 10
250.5983122507
 20
40.4153153401
 10
251.1952775789
 20
41.6643835027
 10
251.8585912662
 20
42.8878543424
 10
252.5831495927
 20
44.0763122866
 10
253.3633753451
 20
45.2206106307
 10
254.1932632559
 20
46.3119418768
 10
255.0664264312
 20
47.3419071214
 10
255.9761450829
 20
48.3025791695
 10
256.9154165779
 20
49.1865633665
 10
257.8770125671
 20
49.9870571948
 10
258.8535318334
 20
50.6978982723
 10
259.8374586463
 20
51.3136170519
 10
260.8212201825
 20
51.8294737716
 10
261.7972448819
 20
52.2414989873
 10
262.7580208186
 20
52.5465211855
 10
263.6961533609
 20
52.7421924657
 10
264.6044222268
 20
52.8270062677
 10
265.4758369665
 20
52.8003111507
 10
266.3036906333
 20
52.6623121183
  0
LWPOLYLINE
  5
2BE
330
1F
100
AcDbEntity
  8
0
  6
Continuous
 62
     7
370
     0
100
AcDbPolyline
 90
       22
 70
   128
 43
0.0
 10
249.3890394831
 20
35.3609657011
 10
249.6968352836
 20
36.6576001943
 10
250.0926778263
 20
37.9675177962
 10
250.573192729
 20
39.2795544678
 10
251.1342845036
 20
40.5825291271
 10
251.7711727755
 20
41.8653371832
 10
252.4784285036
 20
43.1170459706
 10
253.2500253473
 20
44.3269886613
 10
254.0793864225
 20
45.4848536157
 10
254.9594445588
 20
46.5807731599
 10
255.8826992636
 20
47.6054074222
 10
256.8412825763
 20
48.5500241751
 10
257.8270245938
 20
49.4065724042
 10
258.8315252516
 20
50.1677541649
 10
259.8462234711
 20
50.8270812308
 10
260.8624719044
 20
51.3789342121
 10
261.8716097034
 20
51.8186114092
 10
262.8650369353
 20
52.1423649273
 10
263.8342870227
 20
52.3474356507
 10
264.7710998418
 20
52.4320764307
 10
265.6674918575
 20
52.3955651964
 10
266.5158229658
 20
52.2382131236
  0
LWPOLYLINE
  5
2BF
330
1F
100
AcDbEntity
  8
0
  6
Continuous
 62
     7
370
     0
100
AcDbPolyline
 90
       22
 70
   128
 43
0.0
 10
251.2874270533
 20
36.4568815182
 10
251.6045959178
 20
37.6032229496
 10
252.0011549569
 20
38.7553413925
 10
252.4733669305
 20
39.9023789282
 10
253.0167813949
 20
41.0335244734
 10
253.6262761909
 20
42.1381164389
 10
254.2961081517
 20
43.2057457671
 10
255.0199628234
 20
44.2263488946
 10
255.7910186728
 20
45.1903071762
 10
256.6020086611
 20
46.0885356635
 10
257.4452893916
 20
46.9125686501
 10
258.3129127259
 20
47.6546397991
 10
259.1967015991
 20
48.3077548073
 10
260.0883264781
 20
48.8657583578
 10
260.9793838871
 20
49.3233916192
 10
261.8614758558
 20
49.6763419123
 10
262.7262885222
 20
49.9212812424
 10
263.5656713277
 20
50.0559021317
 10
264.3717136711
 20
50.0789360149
 10
265.1368179245
 20
49.9901649719
 10
265.853773684
 20
49.7904265685
 10
266.5158229658
 20
49.4816020638
  0
ARC
  5
2C0
330
1F
100
AcDbEntity
  8
0
  6
Continuous
 62
     7
370
     0
100
AcDbCircle
 10
264.2584198296
 20
45.5765710295
 30
0.0
 40
4.510660296584598
100
AcDbArc
 50
41.0461204799
 51
59.6084766979
  0
LWPOLYLINE
  5
2C1
330
1F
100
AcDbEntity
  8
0
  6
Continuous
 62
     7
370
     0
100
AcDbPolyline
 90
       22
 70
   128
 43
0.0
 10
243.8159626923
 20
38.5321167589
 10
244.1334726828
 20
39.8404474005
 10
244.5385019214
 20
41.1611798239
 10
245.0276740503
 20
42.4833089268
 10
245.5969133375
 20
43.7958167449
 10
246.2414769456
 20
45.0877675064
 10
246.9559924684
 20
46.3483958422
 10
247.7345079807
 20
47.567196516
 10
248.5705348434
 20
48.7340137745
 10
249.457107302
 20
49.8391251829
 10
250.3868378042
 20
50.8733214683
 10
251.3519785738
 20
51.8279861724
 10
252.3444882886
 20
52.6951630415
 10
253.3560958764
 20
53.4676270757
 10
254.378372194
 20
54.1389403575
 10
255.4027987828
 20
54.7035107549
 10
256.420839445
 20
55.1566324808
 10
257.42401116
 20
55.4945308349
 10
258.4039546931
 20
55.7143885164
 10
259.3525044217
 20
55.8143752868
 10
260.2617564946
 20
55.7936568995
 10
261.1241336987
 20
55.6524066907
  0
LWPOLYLINE
  5
2C2
330
1F
100
AcDbEntity
  8
0
  6
Continuous
 62
     7
370
     0
100
AcDbPolyline
 90
       18
 70
   128
 43
0.0
 10
247.3433799582
 20
37.8783603692
 10
247.655900157
 20
39.0819533052
 10
248.0510117152
 20
40.2944039679
 10
248.525156517
 20
41.5047920637
 10
249.074062584
 20
42.7022140962
 10
249.6927862227
 20
43.8758841238
 10
250.3757541708
 20
45.0152295735
 10
251.1168143057
 20
46.109988576
 10
251.9092919493
 20
47.1502995044
 10
252.7460474915
 20
48.126791274
 10
253.6195445489
 20
49.0306683179
 10
254.5219148317
 20
49.8537883376
 10
255.4450297604
 20
50.5887371074
 10
256.3805743874
 20
51.2288947226
 10
257.3201216479
 20
51.7684936727
 10
258.2552082572
 20
52.2026755841
 10
259.1774114311
 20
52.5275271446
 10
259.4534016721
 20
52.6040012479
  0
LWPOLYLINE
  5
2C3
330
1F
100
AcDbEntity
  8
0
  6
Continuous
 62
     7
370
     0
100
AcDbPolyline
 90
       21
 70
   128
 43
0.0
 10
246.7655953974
 20
37.8713758923
 10
247.0766654812
 20
39.0983383693
 10
247.4716756236
 20
40.3353249965
 10
247.9471223678
 20
41.5713652845
 10
248.498789712
 20
42.7954986973
 10
249.1217846703
 20
43.9968681849
 10
249.8105833715
 20
45.1648217015
 10
250.5590778153
 20
46.2890011749
 10
251.3606292145
 20
47.359436419
 10
252.2081298981
 20
48.3666356225
 10
253.0940645564
 20
49.3016670936
 10
254.0105760947
 20
50.1562391019
 10
254.9495372506
 20
50.9227724012
 10
255.9026212228
 20
51.5944698998
 10
256.8613758599
 20
52.1653746988
 10
257.8172989615
 20
52.6304234479
 10
258.7619134751
 20
52.9854935582
 10
259.6868425293
 20
53.2274351111
 10
260.5838835407
 20
53.3541029925
 10
261.4450816208
 20
53.3643741748
 10
261.5265139419
 20
53.3591592641
  0
ARC
  5
2C4
330
1F
100
AcDbEntity
  8
0
  6
Continuous
 62
     7
370
     0
100
AcDbCircle
 10
250.7870107697
 20
31.0338101884
 30
0.0
 40
1.252419806310402
100
AcDbArc
 50
313.5747922337
 51
357.086329625
  0
ARC
  5
2C5
330
1F
100
AcDbEntity
  8
0
  6
Continuous
 62
     7
370
     0
100
AcDbCircle
 10
252.9320635792
 20
32.0534694405
 30
0.0
 40
1.404731915881172
100
AcDbArc
 50
230.4612599704
 51
322.761427577
  0
LWPOLYLINE
  5
2C6
330
1F
100
AcDbEntity
  8
0
  6
Continuous
 62
     7
370
     0
100
AcDbPolyline
 90
        3
 70
   128
 43
0.0
 10
252.6906260321
 20
35.7497669702
 10
252.4826991648
 20
35.9294092894
 10
252.0378115199
 20
36.2368365695
  0
LWPOLYLINE
  5
2C7
330
1F
100
AcDbEntity
  8
0
  6
Continuous
 62
     7
370
     0
100
AcDbPolyline
 90
        3
 70
   128
 43
0.0
 10
252.0194401037
 20
36.3913573186
 10
252.0309165589
 20
36.3345380667
 10
252.0378115199
 20
36.2368365695
  0
LINE
  5
2C8
330
1F
100
AcDbEntity
  8
0
  6
Continuous
 62
     7
370
     0
100
AcDbLine
 10
253.4692159599
 20
29.7824132705
 30
0.0
 11
253.2554695347
 21
29.6860387634
 31
0.0
  0
LINE
  5
2C9
330
1F
100
AcDbEntity
  8
0
  6
Continuous
 62
     7
370
     0
100
AcDbLine
 10
252.0378115199
 20
36.2368365695
 30
0.0
 11
251.5266189797
 21
36.5319417415
 31
0.0
  0
LINE
  5
2CA
330
1F
100
AcDbEntity
  8
0
  6
Continuous
 62
     7
370
     0
100
AcDbLine
 10
246.5532290346
 20
34.1363302287
 30
0.0
 11
252.0378115199
 21
30.970148154
 31
0.0
  0
LINE
  5
2CB
330
1F
100
AcDbEntity
  8
0
  6
Continuous
 62
     7
370
     0
100
AcDbLine
 10
246.4339901671
 20
34.0674729087
 30
0.0
 11
246.5532290346
 21
34.1363302287
 31
0.0
  0
LWPOLYLINE
  5
2CC
330
1F
100
AcDbEntity
  8
0
  6
Continuous
 62
     7
370
     0
100
AcDbPolyline
 90
        3
 70
   128
 43
0.0
 10
246.3551469137
 20
36.9162710854
 10
246.354440954
 20
37.0375091838
 10
246.3791903737
 20
37.771408495
  0
LWPOLYLINE
  5
2CD
330
1F
100
AcDbEntity
  8
0
  6
Continuous
 62
     7
370
     0
100
AcDbPolyline
 90
       17
 70
   128
 43
0.0
 10
225.0825574787
 20
53.3294729643
 10
225.12716893
 20
54.075509158
 10
225.2600948219
 20
54.8578653278
 10
225.4786298534
 20
55.6606154008
 10
225.7783245686
 20
56.4674171141
 10
226.1530782112
 20
57.2618466578
 10
226.5952622017
 20
58.0277317932
 10
227.0958747304
 20
58.7494809291
 10
227.6447246565
 20
59.4124016427
 10
228.2306391962
 20
60.0029990952
 10
228.8416906679
 20
60.5092495149
 10
229.4654398655
 20
60.9208479195
 10
230.0891890631
 20
61.2294150093
 10
230.7002405348
 20
61.4286696017
 10
231.2861550745
 20
61.5145546774
 10
231.8350050006
 20
61.4853226
 10
232.1821656283
 20
61.3996122831
  0
ARC
  5
2CE
330
1F
100
AcDbEntity
  8
0
  6
Continuous
 62
     7
370
     0
100
AcDbCircle
 10
228.4917884506
 20
53.0987820055
 30
0.0
 40
3.417027090646954
100
AcDbArc
 50
176.1288923493
 51
223.2013568164
  0
ARC
  5
2CF
330
1F
100
AcDbEntity
  8
0
  6
Continuous
 62
     7
370
     0
100
AcDbCircle
 10
255.9941725647
 20
31.2117861498
 30
0.0
 40
4.890520672114405
100
AcDbArc
 50
195.7569784486
 51
256.7514880831
  0
ARC
  5
2D0
330
1F
100
AcDbEntity
  8
0
  6
Continuous
 62
     7
370
     0
100
AcDbCircle
 10
255.1603780403
 20
29.8712706907
 30
0.0
 40
5.872157324210485
100
AcDbArc
 50
190.6324368001
 51
274.2137382214
  0
LINE
  5
2D1
330
1F
100
AcDbEntity
  8
0
  6
Continuous
 62
     7
370
     0
100
AcDbLine
 10
251.5187269823
 20
29.9634504582
 30
0.0
 11
246.2218584108
 21
33.0212675971
 31
0.0
  0
ARC
  5
2D2
330
1F
100
AcDbEntity
  8
0
  6
Continuous
 62
     7
370
     0
100
AcDbCircle
 10
256.7928043277
 20
30.7464060313
 30
0.0
 40
8.077449681688854
100
AcDbArc
 50
194.0636275329
 51
209.7659687672
  0
LINE
  5
2D3
330
1F
100
AcDbEntity
  8
0
  6
Continuous
 62
     7
370
     0
100
AcDbLine
 10
248.2076778073
 20
30.606644087
 30
0.0
 11
248.1282685349
 21
30.8521000619
 31
0.0
  0
LWPOLYLINE
  5
2D4
330
1F
100
AcDbEntity
  8
0
  6
Continuous
 62
     7
370
     0
100
AcDbPolyline
 90
        3
 70
   128
 43
0.0
 10
247.8467456968
 20
30.066537175
 10
247.6551895874
 20
30.4640483421
 10
247.3433799582
 20
31.3052065926
  0
ARC
  5
2D5
330
1F
100
AcDbEntity
  8
0
  6
Continuous
 62
     7
370
     0
100
AcDbCircle
 10
251.4830392924
 20
33.6789246422
 30
0.0
 40
7.935524101654927
100
AcDbArc
 50
194.9455350561
 51
210.4066537866
  0
ARC
  5
2D6
330
1F
100
AcDbEntity
  8
0
  6
Continuous
 62
     7
370
     0
100
AcDbCircle
 10
253.4173820152
 20
33.1762195467
 30
0.0
 40
6.911811597563881
100
AcDbArc
 50
195.7659533105
 51
213.6534807002
  0
ARC
  5
2D7
330
1F
100
AcDbEntity
  8
0
  6
Continuous
 62
     7
370
     0
100
AcDbCircle
 10
264.381878771
 20
46.4077095066
 30
0.0
 40
6.352726854854102
100
AcDbArc
 50
25.6360936285
 51
44.3119141924
  0
OLE2FRAME
  5
2D8
330
1F
100
AcDbEntity
  8
0
100
AcDbOle2Frame
 70
     2
  3
Paintbrush-Bild
 10
13.8511154363
 20
38.264191557
 30
0.0
 11
51.6290888628
 21
31.9806341108
 31
0.0
 71
     2
 72
     0
 73
     1
 90
    12928
310
80552BED0767C5B32B40DDAF6807D121434000000000000000006FFBDDFB85D0
310
4940DDAF6807D121434000000000000000006FFBDDFB85D04940416F4BD60AFB
310
3F4000000000000000002BED0767C5B32B40416F4BD60AFB3F40000000000000
310
0000000000000100000000010000010000000100000000000100000000320000
310
D0CF11E0A1B11AE1000000000000000000000000000000003E000300FEFF0900
310
0600000000000000000000000100000001000000000000000010000002000000
310
01000000FEFFFFFF0000000000000000FFFFFFFFFFFFFFFFFFFFFFFFFFFFFFFF
310
FFFFFFFFFFFFFFFFFFFFFFFFFFFFFFFFFFFFFFFFFFFFFFFFFFFFFFFFFFFFFFFF
310
FFFFFFFFFFFFFFFFFFFFFFFFFFFFFFFFFFFFFFFFFFFFFFFFFFFFFFFFFFFFFFFF
310
FFFFFFFFFFFFFFFFFFFFFFFFFFFFFFFFFFFFFFFFFFFFFFFFFFFFFFFFFFFFFFFF
310
FFFFFFFFFFFFFFFFFFFFFFFFFFFFFFFFFFFFFFFFFFFFFFFFFFFFFFFFFFFFFFFF
310
FFFFFFFFFFFFFFFFFFFFFFFFFFFFFFFFFFFFFFFFFFFFFFFFFFFFFFFFFFFFFFFF
310
FFFFFFFFFFFFFFFFFFFFFFFFFFFFFFFFFFFFFFFFFFFFFFFFFFFFFFFFFFFFFFFF
310
FFFFFFFFFFFFFFFFFFFFFFFFFFFFFFFFFFFFFFFFFFFFFFFFFFFFFFFFFFFFFFFF
310
FFFFFFFFFFFFFFFFFFFFFFFFFFFFFFFFFFFFFFFFFFFFFFFFFFFFFFFFFFFFFFFF
310
FFFFFFFFFFFFFFFFFFFFFFFFFFFFFFFFFFFFFFFFFFFFFFFFFFFFFFFFFFFFFFFF
310
FFFFFFFFFFFFFFFFFFFFFFFFFFFFFFFFFFFFFFFFFFFFFFFFFFFFFFFFFFFFFFFF
310
FFFFFFFFFFFFFFFFFFFFFFFFFFFFFFFFFFFFFFFFFFFFFFFFFFFFFFFFFFFFFFFF
310
FFFFFFFFFFFFFFFFFFFFFFFFFFFFFFFFFFFFFFFFFFFFFFFFFFFFFFFFFFFFFFFF
310
FFFFFFFFFFFFFFFFFFFFFFFFFFFFFFFFFFFFFFFFFFFFFFFFFFFFFFFFFFFFFFFF
310
FDFFFFFFFEFFFFFFFEFFFFFFFEFFFFFF05000000060000000700000008000000
310
090000000A0000000B0000000C0000000D0000000E0000000F00000010000000
310
11000000120000001300000014000000150000001600000017000000FEFFFFFF
310
FFFFFFFFFFFFFFFFFFFFFFFFFFFFFFFFFFFFFFFFFFFFFFFFFFFFFFFFFFFFFFFF
310
FFFFFFFFFFFFFFFFFFFFFFFFFFFFFFFFFFFFFFFFFFFFFFFFFFFFFFFFFFFFFFFF
310
FFFFFFFFFFFFFFFFFFFFFFFFFFFFFFFFFFFFFFFFFFFFFFFFFFFFFFFFFFFFFFFF
310
FFFFFFFFFFFFFFFFFFFFFFFFFFFFFFFFFFFFFFFFFFFFFFFFFFFFFFFFFFFFFFFF
310
FFFFFFFFFFFFFFFFFFFFFFFFFFFFFFFFFFFFFFFFFFFFFFFFFFFFFFFFFFFFFFFF
310
FFFFFFFFFFFFFFFFFFFFFFFFFFFFFFFFFFFFFFFFFFFFFFFFFFFFFFFFFFFFFFFF
310
FFFFFFFFFFFFFFFFFFFFFFFFFFFFFFFFFFFFFFFFFFFFFFFFFFFFFFFFFFFFFFFF
310
FFFFFFFFFFFFFFFFFFFFFFFFFFFFFFFFFFFFFFFFFFFFFFFFFFFFFFFFFFFFFFFF
310
FFFFFFFFFFFFFFFFFFFFFFFFFFFFFFFFFFFFFFFFFFFFFFFFFFFFFFFFFFFFFFFF
310
FFFFFFFFFFFFFFFFFFFFFFFFFFFFFFFFFFFFFFFFFFFFFFFFFFFFFFFFFFFFFFFF
310
FFFFFFFFFFFFFFFFFFFFFFFFFFFFFFFFFFFFFFFFFFFFFFFFFFFFFFFFFFFFFFFF
310
FFFFFFFFFFFFFFFFFFFFFFFFFFFFFFFFFFFFFFFFFFFFFFFFFFFFFFFFFFFFFFFF
310
FFFFFFFFFFFFFFFFFFFFFFFFFFFFFFFFFFFFFFFFFFFFFFFFFFFFFFFFFFFFFFFF
310
52006F006F007400200045006E00740072007900000000000000000000000000
310
0000000000000000000000000000000000000000000000000000000000000000
310
16000500FFFFFFFFFFFFFFFF020000000A00030000000000C000000000000046
310
00000000000000000000000060655DB85E24D20103000000C000000000000000
310
01004F006C006500000000000000000000000000000000000000000000000000
310
0000000000000000000000000000000000000000000000000000000000000000
310
0A000200FFFFFFFFFFFFFFFFFFFFFFFF00000000000000000000000000000000
310
0000000000000000000000000000000000000000000000001400000000000000
310
010043006F006D0070004F0062006A0000000000000000000000000000000000
310
0000000000000000000000000000000000000000000000000000000000000000
310
120002010100000003000000FFFFFFFF00000000000000000000000000000000
310
0000000000000000000000000000000000000000010000004D00000000000000
310
01004F006C006500310030004E00610074006900760065000000000000000000
310
0000000000000000000000000000000000000000000000000000000000000000
310
1A000200FFFFFFFFFFFFFFFFFFFFFFFF00000000000000000000000000000000
310
0000000000000000000000000000000000000000040000002426000000000000
310
FEFFFFFF02000000FEFFFFFFFFFFFFFFFFFFFFFFFFFFFFFFFFFFFFFFFFFFFFFF
310
FFFFFFFFFFFFFFFFFFFFFFFFFFFFFFFFFFFFFFFFFFFFFFFFFFFFFFFFFFFFFFFF
310
FFFFFFFFFFFFFFFFFFFFFFFFFFFFFFFFFFFFFFFFFFFFFFFFFFFFFFFFFFFFFFFF
310
FFFFFFFFFFFFFFFFFFFFFFFFFFFFFFFFFFFFFFFFFFFFFFFFFFFFFFFFFFFFFFFF
310
FFFFFFFFFFFFFFFFFFFFFFFFFFFFFFFFFFFFFFFFFFFFFFFFFFFFFFFFFFFFFFFF
310
FFFFFFFFFFFFFFFFFFFFFFFFFFFFFFFFFFFFFFFFFFFFFFFFFFFFFFFFFFFFFFFF
310
FFFFFFFFFFFFFFFFFFFFFFFFFFFFFFFFFFFFFFFFFFFFFFFFFFFFFFFFFFFFFFFF
310
FFFFFFFFFFFFFFFFFFFFFFFFFFFFFFFFFFFFFFFFFFFFFFFFFFFFFFFFFFFFFFFF
310
FFFFFFFFFFFFFFFFFFFFFFFFFFFFFFFFFFFFFFFFFFFFFFFFFFFFFFFFFFFFFFFF
310
FFFFFFFFFFFFFFFFFFFFFFFFFFFFFFFFFFFFFFFFFFFFFFFFFFFFFFFFFFFFFFFF
310
FFFFFFFFFFFFFFFFFFFFFFFFFFFFFFFFFFFFFFFFFFFFFFFFFFFFFFFFFFFFFFFF
310
FFFFFFFFFFFFFFFFFFFFFFFFFFFFFFFFFFFFFFFFFFFFFFFFFFFFFFFFFFFFFFFF
310
FFFFFFFFFFFFFFFFFFFFFFFFFFFFFFFFFFFFFFFFFFFFFFFFFFFFFFFFFFFFFFFF
310
FFFFFFFFFFFFFFFFFFFFFFFFFFFFFFFFFFFFFFFFFFFFFFFFFFFFFFFFFFFFFFFF
310
FFFFFFFFFFFFFFFFFFFFFFFFFFFFFFFFFFFFFFFFFFFFFFFFFFFFFFFFFFFFFFFF
310
FFFFFFFFFFFFFFFFFFFFFFFFFFFFFFFFFFFFFFFFFFFFFFFFFFFFFFFFFFFFFFFF
310
0100000200000000000000000000000000000000000000000000000000000000
310
0000000000000000000000000000000000000000000000000000000000000000
310
0100FEFF030A0000FFFFFFFF0A00030000000000C00000000000004607000000
310
5042727573680007000000504272757368000700000050427275736800F439B2
310
7100000000000000000000000000000000000000000000000000000000000000
310
0000000000000000000000000000000000000000000000000000000000000000
310
0000000000000000000000000000000000000000000000000000000000000000
310
0000000000000000000000000000000000000000000000000000000000000000
310
0000000000000000000000000000000000000000000000000000000000000000
310
0000000000000000000000000000000000000000000000000000000000000000
310
0000000000000000000000000000000000000000000000000000000000000000
310
0000000000000000000000000000000000000000000000000000000000000000
310
0000000000000000000000000000000000000000000000000000000000000000
310
0000000000000000000000000000000000000000000000000000000000000000
310
0000000000000000000000000000000000000000000000000000000000000000
310
0000000000000000000000000000000000000000000000000000000000000000
310
20260000424D0E260000000000003E00000028000000B40200006E0000000100
310
01000000000000000000130B0000130B00000200000002000000000000FFFFFF
310
FFFFFFFFFFFFFFFFFFFFFFFFFFFFFFFFFFFFFFFFFFFFFFFFFFFFFFFFFFFFFFFF
310
FFFFFFFFFFFFFFFFFFFFFFFFFFFFFFFFFFFFFFFFFFFFFFFFFFFFFFFFFFFFFFFF
310
FFFFFFFFFFFFFFFFFFFFFFFFFFFFFFFFFFFFFFFFFFFFFFFFF000FFFFFFFFFFFF
310
FFFFFFFFFFFFFFFFFFFFFFFFFFFFFFFFFFFFFFFFFFFFFFFFFFFFFFFFFFFFFFFF
310
FFFFFFFFFFFFFFFFFFFFFFFFFFFFFFFFFFFFFFFFFFFFFFFFFFFFFFFFFFFFFFFF
310
FFFFFFFFFFFFFFFFFFFFFFFFFFFFFFFFF000FFFFFFFFFFFFFFFFFFFFFFFFFFFF
310
FFFFFFFFFFFFFFFFFFFFFFFFFFFFFFFFFFFFFFFFFFFFFFFFFFFFFFFFFFFFFFFF
310
FFFFFFFFFFFFFFFFFFFFFFFFFFFFFFFFFFFFFFFFFFFFFFFFFFFFFFFFFFFFFFFF
310
FFFFFFFFFFFFFFFFF000FFFFFFFFFFFFFFFFFFFFFFFFFFFFFFFFFFFFFFFFFFFF
310
FFFFFFFFFFFFFFFFFFFFFFFFFFFFFFFFFFFFFFFFFFFFFFFFFFFFFFFFFFFFFFFF
310
FFFFFFFFFFFFFFFFFFFFFFFFFFFFFFFFFFFFFFFFFFFFFFFFFFFFFFFFFFFFFFFF
310
F000FFFFFFFFFFFFFFFFFFFFFFFFFFFFFFFFFFFFFFFFFFFFFFFFFFFFFFFFFFFF
310
FFFFFFFFFFFFFFFFFFFFFFFFFFFFFFFFFFFFFFFFFFFFFFFFFFFFFFFFFFFFFFFF
310
FFFFFFFFFFFFFFFFFFFFFFFFFFFFFFFFFFFFFFFFFFFFFFFFF000FFFFFFFFFFFF
310
FFFFFFFFFFFFFFFFFFFFFFFFFFFFFFFFFFFFFFFFFFFFFFFFFFFFFFFFFFFFFFFF
310
FFFFFFFFFFFFFFFFFFFFFFFFFFFFFFFFFFFFFFFFFFFFFFFFFFFFFFFFFFFFFFFF
310
FFFFFFFFFFFFFFFFFFFFFFFFFFFFFFFFF000FFFFFFFFFFFFFFFFFFFFFFFFFFFF
310
FFFFFFFFFFFFFFFFFFFFFFFFFFFFFFFFFFFFFFFFFFFFFFFFFFFFFFFFFFFFFFFF
310
FFFFFFFFFFFFFFFFFFFFFFFFFFFFFFFFFFFFFFFFFFFFFFFFFFFFFFFFFFFFFFFF
310
FFFFFFFFFFFFFFFFF000FFFFFFFFFFFFFFFFFFFFFFFFFFFFFFFFFFFFFFFFFFFF
310
FFFFFFFFFFFFFFFFFFFFFFFFFFFFFFFFFFFFFFFFFFFFFFFFFFFFFFFFFFFFFFFF
310
FFFFFFFFFFFFFFFFFFFFFFFFFFFFFFFFFFFFFFFFFFFFFFFFFFFFFFFFFFFFFFFF
310
F000FFFFFFFFFFFFFFFFFFFFFFFFFFFFFFFFFFFFFFFFFFFFFFFFFFFFFFFFFFFF
310
FFFFFFFFFFFFFFFFFFFFFFFFFFFFFFFFFFFFFFFFFFFFFFFFFFFFFFFFFFFFFFFF
310
FFFFFFFFFFFFFFFFFFFFFFFFFFFFFFFFFFFFFFFFFFFFFFFFF000FFFFFFFFFFFF
310
FFFFFFFFFFFFFFFFFFFFFFFFFFFFFFFFFFFFFFFFFFFFFFFFFFFFFFFFFFFFFFFF
310
FFFFFFFFFFFFFFFFFFFFFFFFFFFFFFFFFFFFFFFFFFFFFFFFFFFFFFFFFFFFFFFF
310
FFFFFFFFFFFFFFFFFFFFFFFFFFFFFFFFF000FFFFFFFFFFFFFFFFFFFFFFFFFFFF
310
FFFFFFFFFFFFFFFFFFFFFFFFFFFFFFFFFFFFFFFFFFFFFFFFFFFFFFFFFFFFFFFF
310
FFFFFFFFFFFFFFFFFFFFFFFFFFFFFFFFFFFFFFFFFFFFFFFFFFFFFFFFFFFFFFFF
310
FFFFFFFFFFFFFFFFF000FFFFFFFFFFFFFFFFFFFFFFFFFFFFFFFFFFFFFFFFFFFF
310
FFFFFFFFFFFFFFFFFFFFFFFFFFFFFFFFFFFFFFFFFFFFFFFFFFFFFFFFFFFFFFFF
310
FFFFFFFFFFFFFFFFFFFFFFFFFFFFFFFFFFFFFFFFFFFFFFFFFFFFFFFFFFFFFFFF
310
F000FFFFFFFFFFFFFFFFFFFFFFFFFFFFFFFFFFFFFFFFFFFFFFFFFFFFFFFFFFFF
310
FFFFFFFFFFFFFFFFFFFFFFFFFFFFFFFFFFFFFFFFFFFFFFFFFFFFFFFFFFFFFFFF
310
FFFFFFFFFFFFFFFFFFFFFFFFFFFFFFFFFFFFFFFFFFFFFFFFF000FFFFFFFFFFFF
310
FFFFFFFFFFFFFFFFFFFFFFFFFFFFFFFFFFFFFFFFFFFFFFFFFFFFFFFFFFFFFFFF
310
FFFFFFFFFFFFFFFFFFFFFFFFFFFFFFFFFFFFFFFFFFFFFFFFFFFFFFFFFFFFFFFF
310
FFFFFFFFFFFFFFFFFFFFFFFFFFFFFFFFF000FFFFFFFFFFFFFFFFFFFFFFFFFFFF
310
FFFFFFFFFFFFFFFFFFFFFFFFFFFFFFFFFFFFFFFFFFFFFFFFFFFFFFFFFFFFFFFF
310
FFFFFFFFFFFFFFFFFFFFFFFFFFFFFFFFFFFFFFFFFFFFFFFFFFFFFFFFFFFFFFFF
310
FFFFFFFFFFFFFFFFF000FFFFFFFFFFFFFFFFFFFFFFFFFFFFFFFFFFFFFFFFFFFF
310
FFFFFFFFFFFFFFFFFFFFFFFFFFFFFFFFFFFFFFFFFFFFFFFFFFFFFFFFFFFFFFFF
310
FFFFFFFFFFFFFFFFFFFFFFFFFFFFFFFFFFFFFFFFFFFFFFFFFFFFFFFFFFFFFFFF
310
F000FFFFFFFFFFFFFFFFFFFFFFFFFFFFFFFFFFFFFFFFFFFFFFFFFFFFFFFFFFFF
310
FFFFFFFFFFFFFFFFFFFFFFFFFFFFFFFFFFFFFFFFFFFFFFFFFFFFFFFFFFFFFFFF
310
FFFFFFFFFFFFFFFFFFFFFFFFFFFFFFFFFFFFFFFFFFFFFFFFF000FFFFFFFFFFFF
310
FFFFFFFFFFFFFFFFFFFFFFFFFFFFFFFFFFFFFFFFFFFFFFFFFFFFFFFFFFFFFFFF
310
FFFFFFFFFFFFFFFFFFFFFFFFFFFFFFFFFFFFFFFFFFFFFFFFFFFFFFFFFFFFFFFF
310
FFFFFFFFFFFFFFFFFFFFFFFFFFFFFFFFF000FFFFFFFFFFFFFFFFFFFFFFFFFFFF
310
FFFFFFFFFFFFFFFFFFFFFFFFFFFFFFFFFFFFFFFFFFFFFFFFFFFFFFFFFFFFFFFF
310
FFFFFFFFFFFFFFFFFFFFFFFFFFFFFFFFFFFFFFFFFFFFFFFFFFFFFFFFFFFFFFFF
310
FFFFFFFFFFFFFFFFF000FFFFF80003FFFFFFFFFFFFFFFFFFFFFFFFFFFFFFFFFF
310
FFFFF00007FFFFFFFFFF00007FFFFFF800000000000000007FFFFFFFFFFFFFFF
310
FFFFFFFC001FFFFFFFFFFFFFFC001FFFFFFFFFFFFFFFFFFFFFFFFFFE0007FFFF
310
F000FFFF8000007FFFFFFFF8000FFFFFC0007FFFFF80007FFFFF0000007FFFFF
310
FFF8000007FFFFF800000000000000007FFFFFF0001FFFFFFFFFFFC00001FFFF
310
FFFFFFFFC00001FFFFFFFF000000000003FFFFE000007FFFF000FFFE0000000F
310
FFFFFFF0000FFFFF80007FFFFF80007FFFFC0000001FFFFFFFC0000001FFFFF8
310
00000000000000007FFFFFF0001FFFFFFFFFFE0000003FFFFFFFFFFE0000003F
310
FFFFFF000000000003FFFF0000000FFFF000FFF800000003FFFFFFF00007FFFF
310
80007FFFFF80007FFFF000000007FFFFFF000000003FFFF80000000000000000
310
7FFFFFF0001FFFFFFFFFF80000000FFFFFFFFFF80000000FFFFFFF0000000000
310
03FFFC00000003FFF000FFE000000000FFFFFFF00007FFFF80003FFFFF80007F
310
FFC000000001FFFFFC000000001FFFF800000000000000007FFFFFF0001FFFFF
310
FFFFE000000003FFFFFFFFE000000003FFFFFF000000000003FFF000000000FF
310
F000FF80000000007FFFFFF00007FFFF80003FFFFF80007FFF8000000000FFFF
310
F80000000007FFF800000000000000007FFFFFF0001FFFFFFFFFC000000001FF
310
FFFFFFC000000001FFFFFF000000000003FFC0000000007FF000FF0000000000
310
3FFFFFE00007FFFF00003FFFFF80007FFE00000000003FFFF00000000003FFF8
310
00000000000000007FFFFFF0001FFFFFFFFF8000000000FFFFFFFF8000000000
310
FFFFFF000000000003FF80000000003FF000FE00000000001FFFFFE00003FFFF
310
00003FFFFF80007FFC00000000001FFFE00000000001FFF8000001FFFE000000
310
7FFFFFF0001FFFFFFFFE00000000003FFFFFFE00000000003FFFFF0000000000
310
03FF00000000001FF000FC00000000000FFFFFE00003FFFF00001FFFFF80007F
310
F800000000001FFFC00000000000FFF8000001FFFE0000007FFFFFF0001FFFFF
310
FFFC00000000001FFFFFFC00000000001FFFFF000000000003FE00000000000F
310
F000F8000000000007FFFFE00003FFFF00001FFFFF80007FF800000000000FFF
310
800000000000FFF8000001FFFE0000007FFFFFF0001FFFFFFFF800000000000F
310
FFFFF800000000000FFFFF000000000003FC000000000007F000F80000000000
310
03FFFFC00003FFFE00001FFFFF80007FF0000000000007FF0000000000007FF8
310
000001FFFE0000007FFFFFF0001FFFFFFFF0000000000007FFFFF00000000000
310
07FFFF000000000003F8000000000003F000F0000000000003FFFFC00001FFFE
310
00001FFFFF80007FE0000000000007FE0000000000003FF8000001FFFE000000
310
7FFFFFF0001FFFFFFFF0000000000007FFFFF0000000000007FFFF0000000000
310
03F800001F800003F000E00001FFF00001FFFFC00001FFFE00000FFFFF80007F
310
E00001FFE00003FE00001FFF00003FF8000001FFFE0000007FFFFFF0001FFFFF
310
FFE000003E000003FFFFE000003E000003FFFF000000000003F00001FFF80001
310
F000E00007FFFC0001FFFFC00001FFFE00000FFFFF80007FC0000FFFFC0003FC
310
0000FFFFC0001FF8000001FFFE0000007FFFFFF0001FFFFFFFC00003FFE00001
310
FFFFC00003FFE00001FFFF0001FFFFFFFFF00007FFFE0001F000E0000FFFFF00
310
00FFFF800001FFFC00000FFFFF80007FC0001FFFFE0001FC0001FFFFE0001FF8
310
000001FFFE0000007FFFFFF0001FFFFFFF80000FFFF80000FFFF80000FFFF800
310
00FFFF0003FFFFFFFFE0000FFFFF8000F000C0003FFFFF8000FFFF800000FFFC
310
000007FFFF80007F80003FFFFF0001FC0003FFFFF0001FF8000001FFFE000000
310
7FFFFFF0001FFFFFFF80003FFFFE0000FFFF80003FFFFE0000FFFF0003FFFFFF
310
FFE0003FFFFF8000F000C0003FFFFF8000FFFF800000FFFC000007FFFF80007F
310
80007FFFFF8001F80007FFFFF8000FF8000001FFFE0000007FFFFFF0001FFFFF
310
FF00007FFFFF00007FFF00007FFFFF00007FFF0003FFFFFFFFE0003FFFFFC000
310
F000C0007FFFFFC000FFFF000000FFFC000007FFFF80007F8000FFFFFF8000F8
310
000FFFFFF8000FF8000001FFFE0000007FFFFFF0001FFFFFFF0000FFFFFF8000
310
7FFF0000FFFFFF80007FFF0003FFFFFFFFC0007FFFFFC00070008000FFFFFFC0
310
00FFFF000000FFF8000007FFFF80007F8000FFFFFF8000F8000FFFFFF8000FF8
310
000001FFFE0000007FFFFFF0001FFFFFFE0001FFFFFFC0003FFE0001FFFFFFC0
310
003FFF0003FFFFFFFFC0007FFFFFE00070008000FFFFFFC0007FFF0000007FF8
310
000003FFFF80007F0001FFFFFF8000F8000FFFFFF8000FF8000001FFFE000000
310
7FFFFFF0001FFFFFFE0001FFFFFFC0003FFE0001FFFFFFC0003FFF0003FFFFFF
310
FFC000FFFFFFE00070008000FFFFFFC0007FFF0000007FF8000003FFFF80007F
310
0001FFFFFF8000F8001FFFFFF8000FF8000001FFFE0000007FFFFFF0001FFFFF
310
FE0003FFFFFFE0003FFE0003FFFFFFE0003FFF0003FFFFFFFFC000FFFFFFE000
310
70008000FFFFFFC0007FFE0000007FF8000003FFFF80007F0001FFFFFF8000F0
310
001FFFFFF8000FF8000001FFFE0000007FFFFFF0001FFFFFFC0003FFFFFFE000
310
1FFC0003FFFFFFE0001FFF0003FFFFFFFFC000FFFFFFC00070008000FFFFFF80
310
007FFE0000007FF0000003FFFF80007F0001FFFFFF0000F0001FFFFFF8000FF8
310
000001FFFE0000007FFFFFF0001FFFFFFC0007FFFFFFF0001FFC0007FFFFFFF0
310
001FFF0003FFFFFFFFC000FFFFFFC00070008001FFFFFF0000FFFE0000003FF0
310
000001FFFF80007F0001FFFFFF0000F8001FFFFFF0000FF8000001FFFE000000
310
7FFFFFF0001FFFFFFC0007FFFFFFF0001FFC0007FFFFFFF0001FFF0003FFFFFF
310
FFC001FFFFFF80007000FFFFFFFFFE0000FFFE0008003FF0008001FFFF80007F
310
FFFFFFFFFC0000FFFFFFFFFFE0000FF8000001FFFE0000007FFFFFF0001FFFFF
310
F8000FFFFFFFF8000FF8000FFFFFFFF8000FFF0003FFFFFFFFFFFFFFFFFF0000
310
7000FFFFFFFFFC0000FFFC0008003FF0008001FFFF80007FFFFFFFFFF80001FF
310
FFFFFFFF80000FF8000001FFFE0000007FFFFFF0001FFFFFF8000FFFFFFFF800
310
0FF8000FFFFFFFF8000FFF0003FFFFFFFFFFFFFFFFFE0000F000FFFFFFFFE000
310
00FFFC000C003FE000C001FFFF80007FFFFFFFFFC00001FFFFFFFFFE00001FF8
310
000001FFFE0000007FFFFFF0001FFFFFF8000FFFFFFFF8000FF8000FFFFFFFF8
310
000FFF0003FFFFFFFFFFFFFFFFF00000F000FFFFFFFE000001FFFC000C001FE0
310
00C000FFFF80007FFFFFFFFE000001FFFFFFFFE000001FF80FFFFFFFFFFFFFC0
310
7FFFFFF0001FFFFFF8000FFFFFFFF8000FF8000FFFFFFFF8000FFF0003FFFFFF
310
FFFFFFFFFF800000F000FFFFFFC0000001FFFC001C001FE001C000FFFF80007F
310
FFFFFF80000003FFFFFFF80000001FF80FFFFFFFFFFFFFC07FFFFFF0001FFFFF
310
F8001FFFFFFFFC000FF8001FFFFFFFFC000FFF0003FFFFFFFFFFFFFFF0000001
310
F000FFFFF800000001FFF8001C001FE001C000FFFF80007FFFFFF800000003FF
310
FFFF800000003FF80FFFFFFFFFFFFFC07FFFFFF0001FFFFFF8001FFFFFFFFC00
310
0FF8001FFFFFFFFC000FFF0003FFFFFFFFFFFFFE00000001F000FFFFC0000000
310
03FFF8001E001FC001E000FFFF80007FFFFF8000000007FFFFFC000000003FF8
310
0FFFFFFFFFFFFFC07FFFFFF0001FFFFFF8001FFFFFFFFC000FF8001FFFFFFFFC
310
000FFF0003FFFFFFFFFFFFE000000003F000FFFE0000000007FFF8001E000FC0
310
01E0007FFF80007FFFFE0000000007FFFFE0000000007FF80FFFFFFFFFFFFFC0
310
7FFFFFF0001FFFFFF0001FFFFFFFFC0007F0001FFFFFFFFC0007FF0003FFFFFF
310
FFFFFF0000000003F000FFF80000000007FFF8001E000FC003E0007FFF80007F
310
FFF0000000000FFFFF8000000000FFF80FFFFFFFFFFFFFC07FFFFFF0001FFFFF
310
F0001FFFFFFFFC0007F0001FFFFFFFFC0007FF0003FFFFFFFFFFFC0000000007
310
F000FFE0000000000FFFF0003E000FC003E0007FFF80007FFFC0000000001FFF
310
FE0000000001FFF80FFFFFFFFFFFFFC07FFFFFF0001FFFFFF0001FFFFFFFFC00
310
07F0001FFFFFFFFC0007FF0003FFFFFFFFFFF0000000000FF000FFC000000000
310
1FFFF0003F000F8003F0003FFF80007FFF80000000003FFFF80000000003FFF8
310
0FFFFFFFFFFFFFC07FFFFFF0001FFFFFF0001FFFFFFFFC0007F0001FFFFFFFFC
310
0007FF0003FFFFFFFFFFE0000000001FF000FF00000000007FFFF0003F000780
310
03F0003FFF80007FFF00000000007FFFF00000000007FFF80FFFFFFFFFFFFFC0
310
7FFFFFF0001FFFFFF0001FFFFFFFFC0007F0001FFFFFFFFC0007FF0003FFFFFF
310
FFFF80000000007FF000FE0000000000FFFFE0003F00078007F0003FFF80007F
310
FE0000000001FFFFE0000000001FFFF80FFFFFFFFFFFFFC07FFFFFF0001FFFFF
310
F0001FFFFFFFFC0007F0001FFFFFFFFC0007FF0003FFFFFFFFFF0000000000FF
310
F000FC0000000003FFFFE0007F00078007F0003FFF80007FFC0000000007FFFF
310
C0000000007FFFF80FFFFFFFFFFFFFC07FFFFFF0001FFFFFF8001FFFFFFFFC00
310
0FF8001FFFFFFFFC000FFF0003FFFFFFFFFE0000000003FFF000FC000000000F
310
FFFFE0007F80070007F8001FFF80007FF8000000001FFFFF8000000001FFFFF8
310
0FFFFFFFFFFFFFC07FFFFFF0001FFFFFF8001FFFFFFFFC000FF8001FFFFFFFFC
310
000FFF0003FFFFFFFFFC000000000FFFF000F8000000007FFFFFE0007F800700
310
07F8001FFF80007FF000000000FFFFFF800000000FFFFFF80FFFFFFFFFFFFFC0
310
7FFFFFF0001FFFFFF8000FFFFFFFF8000FF8000FFFFFFFF8000FFF0003FFFFFF
310
FFFC000000007FFFF000F800000007FFFFFFC0007F8003000FF8001FFF80007F
310
F000000007FFFFFF000000007FFFFFF80FFFFFFFFFFFFFC07FFFFFF0001FFFFF
310
F8000FFFFFFFF8000FF8000FFFFFFFF8000FFF0003FFFFFFFFF80000000FFFFF
310
F000F0000000FFFFFFFFC000FF8003000FF8001FFF80007FE0000000FFFFFFFF
310
0000000FFFFFFFF8000001FFFE0000007FFFFFF0001FFFFFF8000FFFFFFFF800
310
0FF8000FFFFFFFF8000FFF0003FFFFFFFFF8000000FFFFFFF000F000000FFFFF
310
FFFFC000FFC002000FF8000FFF80007FE000001FFFFFFFFE000001FFFFFFFFF8
310
000001FFFE0000007FFFFFF0001FFFFFF8000FFFFFFFF8000FF8000FFFFFFFF8
310
000FFF0003FFFFFFFFF000001FFFFFFFF000E00000FFFFFFFFFFC000FFC00200
310
0FFC000FFF80007FE00001FFFFFFFFFE00001FFFFFFFFFF8000001FFFE000000
310
7FFFFFF0001FFFFFFC000FFFFFFFF8001FFC000FFFFFFFF8001FFF0003FFFFFF
310
FFF00001FFFFFFFFF000E00007FFFFFFFFFF8000FFC000001FFC000FFF80007F
310
C0000FFFFFFFFFFE0000FFFFFFFFFFF8000001FFFE0000007FFFFFF0001FFFFF
310
FC0007FFFFFFF0001FFC0007FFFFFFF0001FFF0003FFFFFFFFF00007FFFFFFFF
310
F000E0001FFFFFFFFFFF8000FFC000001FFC000FFF80007FC0003FFFFFFFFFFE
310
0001FFFFFFFFFFF8000001FFFE0000007FFFFFF0001FFFFFFC0007FFFFFFF000
310
1FFC0007FFFFFFF0001FFF0003FFFFFFFFF0001FFFFFFFFFF000E0003FFFFF00
310
03FF8001FFE000001FFC0007FF80007FC0007FFFFF0007FC0003FFFFF0003FF8
310
000001FFFE0000007FFFFFF0001FFFFFFC0003FFFFFFE0001FFC0003FFFFFFE0
310
001FFF0003FFFFFFFFF0003FFFFFFFFFF000E0003FFFFF0001FF8001FFE00000
310
1FFE0007FF80007FC0007FFFFE0003FC0007FFFFE0003FF8000001FFFE000000
310
7FFFFFF0001FFFFFFE0003FFFFFFE0003FFE0003FFFFFFE0003FFF0003FFFFFF
310
FFF0003FFFFF8001F000E0003FFFFF0001FF0001FFE000001FFE0007FF80007F
310
C0007FFFFE0003FC0007FFFFE0003FF8000001FFFE0000007FFFFFF0001FFFFF
310
FE0001FFFFFFC0003FFE0001FFFFFFC0003FFF0003FFFFFFFFF0003FFFFF0001
310
F000E0003FFFFF0003FF0001FFE000003FFE0007FF80007FC0007FFFFE0003FC
310
0007FFFFE0003FF8000001FFFE0000007FFFFFF0001FFFFFFF0001FFFFFFC000
310
7FFF0001FFFFFFC0007FFF0003FFFFFFFFF0003FFFFF0001F000E0003FFFFE00
310
03FF0003FFF000003FFE0003FF80007FC0007FFFFC0003FE0007FFFFE0003FF8
310
000001FFFE0000007FFFFFF0001FFFFFFF0000FFFFFF80007FFF0000FFFFFF80
310
007FFF0003FFFFFFFFF0003FFFFF0001F000E0003FFFFE0003FF0003FFF00000
310
3FFF0003FF80007FC0007FFFFC0007FE0007FFFFC0003FF8000001FFFE000000
310
7FFFFFF0001FFFFFFF80007FFFFF0000FFFF80007FFFFF0000FFFF0003FFFFFF
310
FFF0003FFFFF0003F000E0003FFFFC0003FE0003FFF000003FFF0003FF80007F
310
E0003FFFF80007FE0003FFFFC0007FF8000001FFFE0000007FFFFFF0001FFFFF
310
FF80003FFFFE0000FFFF80003FFFFE0000FFFF0003FFFFFFFFF0001FFFFE0003
310
F000F0001FFFF80003FE0003FFF000007FFF0001FF80007FE0003FFFF00007FE
310
0001FFFF80007FF8000001FFFE0000007FFFFFF0001FFFFFFFC0000FFFF80001
310
FFFFC0000FFFF80001FFFF0003FFFFFFFFF0001FFFFC0003F000F0000FFFF000
310
07FE0007FFF800007FFF0001FF80007FE0001FFFE00007FF0000FFFE00007FF8
310
000001FFFE0000007FFFFFF0001FFFFFFFC00003FFE00001FFFFC00003FFE000
310
01FFFF0003FFFFFFFFF8000FFFF80003F000F00003FFC00007FC0007FFF80000
310
7FFF8001FF80007FF00007FF80000FFF00007FF80000FFF8000001FFFE000000
310
7F80000000000001FFE000003E000003FFFFE000003E000003FFFF0003FFFFFF
310
FFF80003FFE00007F000F800000000000FFC0007FFF800007FFF8001FF80007F
310
F000000000000FFF000000000000FFF8000001FFFE0000007F80000000000001
310
FFF0000000000007FFFFF0000000000007FFFF0003FFFFFFFFFC00007E000007
310
F000F800000000000FFC0007FFF80000FFFF8000FF80007FF800000000001FFF
310
800000000001FFF8000001FFFE0000007F80000000000001FFF800000000000F
310
FFFFF800000000000FFFFF0003FFFFFFFFFC00000000000FF000FC0000000000
310
1FFC0007FFFC0000FFFF8000FF80007FF800000000003FFFC00000000001FFF8
310
000001FFFE0000007F80000000000001FFF800000000000FFFFFF80000000000
310
0FFFFF0003FFFFFFFFFE00000000001FF000FE00000000003FF8000FFFFC0000
310
FFFF8000FF80007FFC00000000003FFFC00000000003FFF8000001FFFE000000
310
7F80000000000001FFFC00000000001FFFFFFC00000000001FFFFF0003FFFFFF
310
FFFF00000000001FF000FF00000000003FF8000FFFFC0000FFFFC000FF80007F
310
FE00000000007FFFE00000000007FFF8000001FFFE0000007F80000000000001
310
FFFE00000000003FFFFFFE00000000003FFFFF0003FFFFFFFFFF80000000003F
310
F000FF80000000007FF8000FFFFC0001FFFFC0007F80007FFF0000000000FFFF
310
F0000000000FFFF800000000000000007F80000000000001FFFF8000000000FF
310
FFFFFF8000000000FFFFFF0003FFFFFFFFFFC0000000007FF000FFC000000000
310
FFF8000FFFFE0001FFFFC0007F80007FFF8000000001FFFFF8000000001FFFF8
310
00000000000000007F80000000000001FFFFC000000001FFFFFFFFC000000001
310
FFFFFF0003FFFFFFFFFFE000000000FFF000FFE000000003FFF0001FFFFE0001
310
FFFFC0007F80007FFFC000000007FFFFFE000000003FFFF80000000000000000
310
7F80000000000001FFFFE000000003FFFFFFFFE000000003FFFFFF0003FFFFFF
310
FFFFF000000003FFF000FFF80000000FFFF0001FFFFE0001FFFFE0007F80007F
310
FFF00000000FFFFFFF00000000FFFFF800000000000000007F80000000000001
310
FFFFF80000000FFFFFFFFFF80000000FFFFFFF0003FFFFFFFFFFFC0000000FFF
310
F000FFFE0000003FFFF0001FFFFE0003FFFFE0003F80007FFFFC0000003FFFFF
310
FFC0000003FFFFF800000000000000007F80000000000001FFFFFE0000003FFF
310
FFFFFFFE0000003FFFFFFF0003FFFFFFFFFFFF0000003FFFF000FFFF800000FF
310
FFF0001FFFFF0003FFFFE0003F80007FFFFF000001FFFFFFFFF800001FFFFFF8
310
00000000000000007F80000000000001FFFFFFC00001FFFFFFFFFFFFC00001FF
310
FFFFFF0003FFFFFFFFFFFFC00000FFFFF000FFFFF8000FFFFFFFFFFFFFFFFFFF
310
FFFFFFFFFFFFFFFFFFFFF0001FFFFFFFFFFF0000FFFFFFF80000000000000000
310
7FFFFFFFFFFFFFFFFFFFFFFC001FFFFFFFFFFFFFFC001FFFFFFFFFFFFFFFFFFF
310
FFFFFFFC001FFFFFF000FFFFFFFFFFFFFFFFFFFFFFFFFFFFFFFFFFFFFFFFFFFF
310
FFFFFFFFFFFFFFFFFFFFFFFFFFFFFFFFFFFFFFFFFFFFFFFFFFFFFFFFFFFFFFFF
310
FFFFFFFFFFFFFFFFFFFFFFFFFFFFFFFFFFFFFFFFFFFFFFFFFFFFFFFFFFFFFFFF
310
F000FFFFFFFFFFFFFFFFFFFFFFFFFFFFFFFFFFFFFFFFFFFFFFFFFFFFFFFFFFFF
310
FFFFFFFFFFFFFFFFFFFFFFFFFFFFFFFFFFFFFFFFFFFFFFFFFFFFFFFFFFFFFFFF
310
FFFFFFFFFFFFFFFFFFFFFFFFFFFFFFFFFFFFFFFFFFFFFFFFF000FFFFFFFFFFFF
310
FFFFFFFFFFFFFFFFFFFFFFFFFFFFFFFFFFFFFFFFFFFFFFFFFFFFFFFFFFFFFFFF
310
FFFFFFFFFFFFFFFFFFFFFFFFFFFFFFFFFFFFFFFFFFFFFFFFFFFFFFFFFFFFFFFF
310
FFFFFFFFFFFFFFFFFFFFFFFFFFFFFFFFF000FFFFFFFFFFFFFFFFFFFFFFFFFFFF
310
FFFFFFFFFFFFFFFFFFFFFFFFFFFFFFFFFFFFFFFFFFFFFFFFFFFFFFFFFFFFFFFF
310
FFFFFFFFFFFFFFFFFFFFFFFFFFFFFFFFFFFFFFFFFFFFFFFFFFFFFFFFFFFFFFFF
310
FFFFFFFFFFFFFFFFF000FFFFFFFFFFFFFFFFFFFFFFFFFFFFFFFFFFFFFFFFFFFF
310
FFFFFFFFFFFFFFFFFFFFFFFFFFFFFFFFFFFFFFFFFFFFFFFFFFFFFFFFFFFFFFFF
310
FFFFFFFFFFFFFFFFFFFFFFFFFFFFFFFFFFFFFFFFFFFFFFFFFFFFFFFFFFFFFFFF
310
F000FFFFFFFFFFFFFFFFFFFFFFFFFFFFFFFFFFFFFFFFFFFFFFFFFFFFFFFFFFFF
310
FFFFFFFFFFFFFFFFFFFFFFFFFFFFFFFFFFFFFFFFFFFFFFFFFFFFFFFFFFFFFFFF
310
FFFFFFFFFFFFFFFFFFFFFFFFFFFFFFFFFFFFFFFFFFFFFFFFF000FFFFFFFFFFFF
310
FFFFFFFFFFFFFFFFFFFFFFFFFFFFFFFFFFFFFFFFFFFFFFFFFFFFFFFFFFFFFFFF
310
FFFFFFFFFFFFFFFFFFFFFFFFFFFFFFFFFFFFFFFFFFFFFFFFFFFFFFFFFFFFFFFF
310
FFFFFFFFFFFFFFFFFFFFFFFFFFFFFFFFF000FFFFFFFFFFFFFFFFFFFFFFFFFFFF
310
FFFFFFFFFFFFFFFFFFFFFFFFFFFFFFFFFFFFFFFFFFFFFFFFFFFFFFFFFFFFFFFF
310
FFFFFFFFFFFFFFFFFFFFFFFFFFFFFFFFFFFFFFFFFFFFFFFFFFFFFFFFFFFFFFFF
310
FFFFFFFFFFFFFFFFF000FFFFFFFFFFFFFFFFFFFFFFFFFFFFFFFFFFFFFFFFFFFF
310
FFFFFFFFFFFFFFFFFFFFFFFFFFFFFFFFFFFFFFFFFFFFFFFFFFFFFFFFFFFFFFFF
310
FFFFFFFFFFFFFFFFFFFFFFFFFFFFFFFFFFFFFFFFFFFFFFFFFFFFFFFFFFFFFFFF
310
F000FFFFFFFFFFFFFFFFFFFFFFFFFFFFFFFFFFFFFFFFFFFFFFFFFFFFFFFFFFFF
310
FFFFFFFFFFFFFFFFFFFFFFFFFFFFFFFFFFFFFFFFFFFFFFFFFFFFFFFFFFFFFFFF
310
FFFFFFFFFFFFFFFFFFFFFFFFFFFFFFFFFFFFFFFFFFFFFFFFF000FFFFFFFFFFFF
310
FFFFFFFFFFFFFFFFFFFFFFFFFFFFFFFFFFFFFFFFFFFFFFFFFFFFFFFFFFFFFFFF
310
FFFFFFFFFFFFFFFFFFFFFFFFFFFFFFFFFFFFFFFFFFFFFFFFFFFFFFFFFFFFFFFF
310
FFFFFFFFFFFFFFFFFFFFFFFFFFFFFFFFF000FFFFFFFFFFFFFFFFFFFFFFFFFFFF
310
FFFFFFFFFFFFFFFFFFFFFFFFFFFFFFFFFFFFFFFFFFFFFFFFFFFFFFFFFFFFFFFF
310
FFFFFFFFFFFFFFFFFFFFFFFFFFFFFFFFFFFFFFFFFFFFFFFFFFFFFFFFFFFFFFFF
310
FFFFFFFFFFFFFFFFF000FFFFFFFFFFFFFFFFFFFFFFFFFFFFFFFFFFFFFFFFFFFF
310
FFFFFFFFFFFFFFFFFFFFFFFFFFFFFFFFFFFFFFFFFFFFFFFFFFFFFFFFFFFFFFFF
310
FFFFFFFFFFFFFFFFFFFFFFFFFFFFFFFFFFFFFFFFFFFFFFFFFFFFFFFFFFFFFFFF
310
F000FFFFFFFFFFFFFFFFFFFFFFFFFFFFFFFFFFFFFFFFFFFFFFFFFFFFFFFFFFFF
310
FFFFFFFFFFFFFFFFFFFFFFFFFFFFFFFFFFFFFFFFFFFFFFFFFFFFFFFFFFFFFFFF
310
FFFFFFFFFFFFFFFFFFFFFFFFFFFFFFFFFFFFFFFFFFFFFFFFF000FFFFFFFFFFFF
310
FFFFFFFFFFFFFFFFFFFFFFFFFFFFFFFFFFFFFFFFFFFFFFFFFFFFFFFFFFFFFFFF
310
FFFFFFFFFFFFFFFFFFFFFFFFFFFFFFFFFFFFFFFFFFFFFFFFFFFFFFFFFFFFFFFF
310
FFFFFFFFFFFFFFFFFFFFFFFFFFFFFFFFF000FFFFFFFFFFFFFFFFFFFFFFFFFFFF
310
FFFFFFFFFFFFFFFFFFFFFFFFFFFFFFFFFFFFFFFFFFFFFFFFFFFFFFFFFFFFFFFF
310
FFFFFFFFFFFFFFFFFFFFFFFFFFFFFFFFFFFFFFFFFFFFFFFFFFFFFFFFFFFFFFFF
310
FFFFFFFFFFFFFFFFF000FFFFFFFFFFFFFFFFFFFFFFFFFFFFFFFFFFFFFFFFFFFF
310
FFFFFFFFFFFFFFFFFFFFFFFFFFFFFFFFFFFFFFFFFFFFFFFFFFFFFFFFFFFFFFFF
310
FFFFFFFFFFFFFFFFFFFFFFFFFFFFFFFFFFFFFFFFFFFFFFFFFFFFFFFFFFFFFFFF
310
F000FFFFFFFFFFFFFFFFFFFFFFFFFFFFFFFFFFFFFFFFFFFFFFFFFFFFFFFFFFFF
310
FFFFFFFFFFFFFFFFFFFFFFFFFFFFFFFFFFFFFFFFFFFFFFFFFFFFFFFFFFFFFFFF
310
FFFFFFFFFFFFFFFFFFFFFFFFFFFFFFFFFFFFFFFFFFFFFFFFF000FFFFFFFFFFFF
310
FFFFFFFFFFFFFFFFFFFFFFFFFFFFFFFFFFFFFFFFFFFFFFFFFFFFFFFFFFFFFFFF
310
FFFFFFFFFFFFFFFFFFFFFFFFFFFFFFFFFFFFFFFFFFFFFFFFFFFFFFFFFFFFFFFF
310
FFFFFFFFFFFFFFFFFFFFFFFFFFFFFFFFF000FFFFFFFFFFFFFFFFFFFFFFFFFFFF
310
FFFFFFFFFFFFFFFFFFFFFFFFFFFFFFFFFFFFFFFFFFFFFFFFFFFFFFFFFFFFFFFF
310
FFFFFFFFFFFFFFFFFFFFFFFFFFFFFFFFFFFFFFFFFFFFFFFFFFFFFFFFFFFFFFFF
310
FFFFFFFFFFFFFFFFF000FFFFFFFFFFFFFFFFFFFFFFFFFFFFFFFFFFFFFFFFFFFF
310
FFFFFFFFFFFFFFFFFFFFFFFFFFFFFFFFFFFFFFFFFFFFFFFFFFFFFFFFFFFFFFFF
310
FFFFFFFFFFFFFFFFFFFFFFFFFFFFFFFFFFFFFFFFFFFFFFFFFFFFFFFFFFFFFFFF
310
F000FFFFFFFFFFFFFFFFFFFFFFFFFFFFFFFFFFFFFFFFFFFFFFFFFFFFFFFFFFFF
310
FFFFFFFFFFFFFFFFFFFFFFFFFFFFFFFFFFFFFFFFFFFFFFFFFFFFFFFFFFFFFFFF
310
FFFFFFFFFFFFFFFFFFFFFFFFFFFFFFFFFFFFFFFFFFFFFFFFF000FFFFFFFFFFFF
310
FFFFFFFFFFFFFFFFFFFFFFFFFFFFFFFFFFFFFFFFFFFFFFFFFFFFFFFFFFFFFFFF
310
FFFFFFFFFFFFFFFFFFFFFFFFFFFFFFFFFFFFFFFFFFFFFFFFFFFFFFFFFFFFFFFF
310
FFFFFFFFFFFFFFFFFFFFFFFFFFFFFFFFF0000000000000000000000000000000
310
0000000000000000000000000000000000000000000000000000000000000000
310
0000000000000000000000000000000000000000000000000000000000000000
310
0000000000000000000000000000000000000000000000000000000000000000
310
0000000000000000000000000000000000000000000000000000000000000000
310
0000000000000000000000000000000000000000000000000000000000000000
310
0000000000000000000000000000000000000000000000000000000000000000
310
0000000000000000000000000000000000000000000000000000000000000000
310
0000000000000000000000000000000000000000000000000000000000000000
310
0000000000000000000000000000000000000000000000000000000000000000
310
0000000000000000000000000000000000000000000000000000000000000000
310
0000000000000000000000000000000000000000000000000000000000000000
310
0000000000000000000000000000000000000000000000000000000000000000
310
0000000000000000000000000000000000000000000000000000000000000000
310
0000000000000000000000000000000000000000000000000000000000000000
310
0000000000000000000000000000000000000000000000000000000000000000
  1
OLE
  0
ENDSEC
  0
SECTION
  2
OBJECTS
  0
DICTIONARY
  5
C
330
0
100
AcDbDictionary
281
     1
  3
ACAD_GROUP
350
D
  3
ACAD_LAYOUT
350
1A
  3
ACAD_MLINESTYLE
350
17
  3
ACAD_PLOTSETTINGS
350
19
  3
ACAD_PLOTSTYLENAME
350
E
  3
ACAD_SCALELIST
350
47
  0
DICTIONARY
  5
D
102
{ACAD_REACTORS
330
C
102
}
330
C
100
AcDbDictionary
281
     1
  0
DICTIONARY
  5
1A
102
{ACAD_REACTORS
330
C
102
}
330
C
100
AcDbDictionary
281
     1
  3
Layout1
350
1E
  3
Layout2
350
26
  3
Model
350
22
  0
DICTIONARY
  5
17
102
{ACAD_REACTORS
330
C
102
}
330
C
100
AcDbDictionary
281
     1
  3
Standard
350
18
  0
DICTIONARY
  5
19
102
{ACAD_REACTORS
330
C
102
}
330
C
100
AcDbDictionary
281
     1
  0
ACDBDICTIONARYWDFLT
  5
E
102
{ACAD_REACTORS
330
C
102
}
330
C
100
AcDbDictionary
281
     1
  3
Normal
350
F
100
AcDbDictionaryWithDefault
340
F
  0
DICTIONARY
  5
47
102
{ACAD_REACTORS
330
C
102
}
330
C
100
AcDbDictionary
281
     1
  3
A0
350
48
  3
A1
350
49
  3
A2
350
4A
  3
A3
350
4B
  3
A4
350
4C
  3
A5
350
4D
  3
A6
350
4E
  3
A7
350
4F
  3
A8
350
50
  3
A9
350
51
  3
B0
350
52
  3
B1
350
53
  3
B2
350
54
  3
B3
350
55
  3
B4
350
56
  3
B5
350
57
  3
B6
350
58
  3
B7
350
59
  3
B8
350
5A
  3
B9
350
5B
  3
C0
350
5C
  3
C1
350
5D
  3
C2
350
5E
  3
C3
350
5F
  3
C4
350
60
  3
C5
350
61
  3
C6
350
62
  3
C7
350
63
  3
C8
350
64
  3
C9
350
65
  3
D0
350
66
  3
D1
350
67
  3
D2
350
68
  0
LAYOUT
  5
1E
102
{ACAD_REACTORS
330
1A
102
}
330
1A
100
AcDbPlotSettings
  1

  2
none_device
  4

  6

 40
0.0
 41
0.0
 42
0.0
 43
0.0
 44
0.0
 45
0.0
 46
0.0
 47
0.0
 48
0.0
 49
0.0
140
0.0
141
0.0
142
1.0
143
1.0
 70
   688
 72
     1
 73
     0
 74
     5
  7

 75
    16
147
1.0
148
0.0
149
0.0
100
AcDbLayout
  1
Layout1
 70
     1
 71
     1
 10
0.0
 20
0.0
 11
420.0
 21
297.0
 12
0.0
 22
0.0
 32
0.0
 14
1.0000000000E+20
 24
1.0000000000E+20
 34
1.0000000000E+20
 15
-1.0000000000E+20
 25
-1.0000000000E+20
 35
-1.0000000000E+20
146
0.0
 13
0.0
 23
0.0
 33
0.0
 16
1.0
 26
0.0
 36
0.0
 17
0.0
 27
1.0
 37
0.0
 76
     0
330
1B
  0
LAYOUT
  5
26
102
{ACAD_REACTORS
330
1A
102
}
330
1A
100
AcDbPlotSettings
  1

  2
none_device
  4

  6

 40
0.0
 41
0.0
 42
0.0
 43
0.0
 44
0.0
 45
0.0
 46
0.0
 47
0.0
 48
0.0
 49
0.0
140
0.0
141
0.0
142
1.0
143
1.0
 70
   688
 72
     1
 73
     0
 74
     5
  7

 75
    16
147
1.0
148
0.0
149
0.0
100
AcDbLayout
  1
Layout2
 70
     1
 71
     2
 10
0.0
 20
0.0
 11
0.0
 21
0.0
 12
0.0
 22
0.0
 32
0.0
 14
0.0
 24
0.0
 34
0.0
 15
0.0
 25
0.0
 35
0.0
146
0.0
 13
0.0
 23
0.0
 33
0.0
 16
1.0
 26
0.0
 36
0.0
 17
0.0
 27
1.0
 37
0.0
 76
     0
330
23
  0
LAYOUT
  5
22
102
{ACAD_REACTORS
330
1A
102
}
330
1A
100
AcDbPlotSettings
  1

  2
none_device
  4
Letter_(8.50_x_11.00_Inches)
  6

 40
6.35
 41
6.35
 42
6.35000508
 43
6.35000508
 44
215.9
 45
279.4
 46
0.0
 47
0.0
 48
0.0
 49
0.0
140
0.0
141
0.0
142
1.0
143
1.0
 70
  1712
 72
     1
 73
     0
 74
     0
  7

 75
     0
147
1.0
148
0.0
149
0.0
100
AcDbLayout
  1
Model
 70
     1
 71
     0
 10
0.0
 20
0.0
 11
297.0
 21
210.0
 12
0.0
 22
0.0
 32
0.0
 14
0.0
 24
0.0
 34
0.0
 15
297.0
 25
210.0
 35
0.0
146
0.0
 13
0.0
 23
0.0
 33
0.0
 16
1.0
 26
0.0
 36
0.0
 17
0.0
 27
1.0
 37
0.0
 76
     0
330
1F
331
29
  0
MLINESTYLE
  5
18
102
{ACAD_REACTORS
330
17
102
}
330
17
100
AcDbMlineStyle
  2
Standard
 70
     0
  3

 62
   256
 51
90.0
 52
90.0
 71
     2
 49
0.5
 62
   256
  6
BYLAYER
 49
-0.5
 62
   256
  6
BYLAYER
  0
ACDBPLACEHOLDER
  5
F
102
{ACAD_REACTORS
330
E
102
}
330
E
  0
SCALE
  5
48
102
{ACAD_REACTORS
330
47
102
}
330
47
100
AcDbScale
 70
     0
300
1:1
140
1.0
141
1.0
290
     1
  0
SCALE
  5
49
102
{ACAD_REACTORS
330
47
102
}
330
47
100
AcDbScale
 70
     0
300
1:2
140
1.0
141
2.0
290
     0
  0
SCALE
  5
4A
102
{ACAD_REACTORS
330
47
102
}
330
47
100
AcDbScale
 70
     0
300
1:4
140
1.0
141
4.0
290
     0
  0
SCALE
  5
4B
102
{ACAD_REACTORS
330
47
102
}
330
47
100
AcDbScale
 70
     0
300
1:5
140
1.0
141
5.0
290
     0
  0
SCALE
  5
4C
102
{ACAD_REACTORS
330
47
102
}
330
47
100
AcDbScale
 70
     0
300
1:8
140
1.0
141
8.0
290
     0
  0
SCALE
  5
4D
102
{ACAD_REACTORS
330
47
102
}
330
47
100
AcDbScale
 70
     0
300
1:10
140
1.0
141
10.0
290
     0
  0
SCALE
  5
4E
102
{ACAD_REACTORS
330
47
102
}
330
47
100
AcDbScale
 70
     0
300
1:16
140
1.0
141
16.0
290
     0
  0
SCALE
  5
4F
102
{ACAD_REACTORS
330
47
102
}
330
47
100
AcDbScale
 70
     0
300
1:20
140
1.0
141
20.0
290
     0
  0
SCALE
  5
50
102
{ACAD_REACTORS
330
47
102
}
330
47
100
AcDbScale
 70
     0
300
1:30
140
1.0
141
30.0
290
     0
  0
SCALE
  5
51
102
{ACAD_REACTORS
330
47
102
}
330
47
100
AcDbScale
 70
     0
300
1:40
140
1.0
141
40.0
290
     0
  0
SCALE
  5
52
102
{ACAD_REACTORS
330
47
102
}
330
47
100
AcDbScale
 70
     0
300
1:50
140
1.0
141
50.0
290
     0
  0
SCALE
  5
53
102
{ACAD_REACTORS
330
47
102
}
330
47
100
AcDbScale
 70
     0
300
1:100
140
1.0
141
100.0
290
     0
  0
SCALE
  5
54
102
{ACAD_REACTORS
330
47
102
}
330
47
100
AcDbScale
 70
     0
300
2:1
140
2.0
141
1.0
290
     0
  0
SCALE
  5
55
102
{ACAD_REACTORS
330
47
102
}
330
47
100
AcDbScale
 70
     0
300
4:1
140
4.0
141
1.0
290
     0
  0
SCALE
  5
56
102
{ACAD_REACTORS
330
47
102
}
330
47
100
AcDbScale
 70
     0
300
8:1
140
8.0
141
1.0
290
     0
  0
SCALE
  5
57
102
{ACAD_REACTORS
330
47
102
}
330
47
100
AcDbScale
 70
     0
300
10:1
140
10.0
141
1.0
290
     0
  0
SCALE
  5
58
102
{ACAD_REACTORS
330
47
102
}
330
47
100
AcDbScale
 70
     0
300
100:1
140
100.0
141
1.0
290
     0
  0
SCALE
  5
59
102
{ACAD_REACTORS
330
47
102
}
330
47
100
AcDbScale
 70
     0
300
1/128" = 1'-0"
140
0.0078125
141
12.0
290
     0
  0
SCALE
  5
5A
102
{ACAD_REACTORS
330
47
102
}
330
47
100
AcDbScale
 70
     0
300
1/64" = 1'-0"
140
0.015625
141
12.0
290
     0
  0
SCALE
  5
5B
102
{ACAD_REACTORS
330
47
102
}
330
47
100
AcDbScale
 70
     0
300
1/32" = 1'-0"
140
0.03125
141
12.0
290
     0
  0
SCALE
  5
5C
102
{ACAD_REACTORS
330
47
102
}
330
47
100
AcDbScale
 70
     0
300
1/16" = 1'-0"
140
0.0625
141
12.0
290
     0
  0
SCALE
  5
5D
102
{ACAD_REACTORS
330
47
102
}
330
47
100
AcDbScale
 70
     0
300
3/32" = 1'-0"
140
0.09375
141
12.0
290
     0
  0
SCALE
  5
5E
102
{ACAD_REACTORS
330
47
102
}
330
47
100
AcDbScale
 70
     0
300
1/8" = 1'-0"
140
0.125
141
12.0
290
     0
  0
SCALE
  5
5F
102
{ACAD_REACTORS
330
47
102
}
330
47
100
AcDbScale
 70
     0
300
3/16" = 1'-0"
140
0.1875
141
12.0
290
     0
  0
SCALE
  5
60
102
{ACAD_REACTORS
330
47
102
}
330
47
100
AcDbScale
 70
     0
300
1/4" = 1'-0"
140
0.25
141
12.0
290
     0
  0
SCALE
  5
61
102
{ACAD_REACTORS
330
47
102
}
330
47
100
AcDbScale
 70
     0
300
3/8" = 1'-0"
140
0.375
141
12.0
290
     0
  0
SCALE
  5
62
102
{ACAD_REACTORS
330
47
102
}
330
47
100
AcDbScale
 70
     0
300
1/2" = 1'-0"
140
0.5
141
12.0
290
     0
  0
SCALE
  5
63
102
{ACAD_REACTORS
330
47
102
}
330
47
100
AcDbScale
 70
     0
300
3/4" = 1'-0"
140
0.75
141
12.0
290
     0
  0
SCALE
  5
64
102
{ACAD_REACTORS
330
47
102
}
330
47
100
AcDbScale
 70
     0
300
1" = 1'-0"
140
1.0
141
12.0
290
     0
  0
SCALE
  5
65
102
{ACAD_REACTORS
330
47
102
}
330
47
100
AcDbScale
 70
     0
300
1-1/2" = 1'-0"
140
1.5
141
12.0
290
     0
  0
SCALE
  5
66
102
{ACAD_REACTORS
330
47
102
}
330
47
100
AcDbScale
 70
     0
300
3" = 1'-0"
140
3.0
141
12.0
290
     0
  0
SCALE
  5
67
102
{ACAD_REACTORS
330
47
102
}
330
47
100
AcDbScale
 70
     0
300
6" = 1'-0"
140
6.0
141
12.0
290
     0
  0
SCALE
  5
68
102
{ACAD_REACTORS
330
47
102
}
330
47
100
AcDbScale
 70
     0
300
1'-0" = 1'-0"
140
12.0
141
12.0
290
     0
  0
ENDSEC
  0
EOF
