  0
SECTION
  2
HEADER
  9
$ACADVER
  1
AC1015
  9
$ACADMAINTVER
 70
     6
  9
$DWGCODEPAGE
  3
ANSI_1252
  9
$INSBASE
 10
0.0
 20
0.0
 30
0.0
  9
$EXTMIN
 10
0.0
 20
0.0
 30
0.0
  9
$EXTMAX
 10
297.0
 20
210.0
 30
0.0
  9
$LIMMIN
 10
0.0
 20
0.0
  9
$LIMMAX
 10
297.0
 20
210.0
  9
$ORTHOMODE
 70
     0
  9
$REGENMODE
 70
     1
  9
$FILLMODE
 70
     1
  9
$QTEXTMODE
 70
     0
  9
$MIRRTEXT
 70
     1
  9
$LTSCALE
 40
1.0
  9
$ATTMODE
 70
     1
  9
$TEXTSIZE
 40
2.0
  9
$TRACEWID
 40
1.0
  9
$TEXTSTYLE
  7
Standard
  9
$CLAYER
  8
0
  9
$CELTYPE
  6
ByLayer
  9
$CECOLOR
 62
   256
  9
$CELTSCALE
 40
1.0
  9
$DISPSILH
 70
     0
  9
$DIMSCALE
 40
1.0
  9
$DIMASZ
 40
3.0
  9
$DIMEXO
 40
0.0
  9
$DIMDLI
 40
3.75
  9
$DIMRND
 40
0.0
  9
$DIMDLE
 40
0.0
  9
$DIMEXE
 40
1.0
  9
$DIMTP
 40
0.0
  9
$DIMTM
 40
0.0
  9
$DIMTXT
 40
2.0
  9
$DIMCEN
 40
2.5
  9
$DIMTSZ
 40
0.0
  9
$DIMTOL
 70
     0
  9
$DIMLIM
 70
     0
  9
$DIMTIH
 70
     1
  9
$DIMTOH
 70
     1
  9
$DIMSE1
 70
     0
  9
$DIMSE2
 70
     0
  9
$DIMTAD
 70
     1
  9
$DIMZIN
 70
     0
  9
$DIMBLK
  1

  9
$DIMASO
 70
     1
  9
$DIMSHO
 70
     1
  9
$DIMPOST
  1

  9
$DIMAPOST
  1

  9
$DIMALT
 70
     0
  9
$DIMALTD
 70
     3
  9
$DIMALTF
 40
0.0393700787
  9
$DIMLFAC
 40
2.0
  9
$DIMTOFL
 70
     1
  9
$DIMTVP
 40
0.0
  9
$DIMTIX
 70
     0
  9
$DIMSOXD
 70
     0
  9
$DIMSAH
 70
     0
  9
$DIMBLK1
  1

  9
$DIMBLK2
  1

  9
$DIMSTYLE
  2
ISO-25
  9
$DIMCLRD
 70
     0
  9
$DIMCLRE
 70
     0
  9
$DIMCLRT
 70
     0
  9
$DIMTFAC
 40
1.0
  9
$DIMGAP
 40
1.524
  9
$DIMJUST
 70
     0
  9
$DIMSD1
 70
     0
  9
$DIMSD2
 70
     0
  9
$DIMTOLJ
 70
     0
  9
$DIMTZIN
 70
     0
  9
$DIMALTZ
 70
     0
  9
$DIMALTTZ
 70
     0
  9
$DIMUPT
 70
     0
  9
$DIMDEC
 70
     2
  9
$DIMTDEC
 70
     3
  9
$DIMALTU
 70
     2
  9
$DIMALTTD
 70
     3
  9
$DIMTXSTY
  7
Standard
  9
$DIMAUNIT
 70
     0
  9
$DIMADEC
 70
     2
  9
$DIMALTRND
 40
0.0
  9
$DIMAZIN
 70
     0
  9
$DIMDSEP
 70
    44
  9
$DIMATFIT
 70
     3
  9
$DIMFRAC
 70
     0
  9
$DIMLDRBLK
  1

  9
$DIMLUNIT
 70
     2
  9
$DIMLWD
 70
    -2
  9
$DIMLWE
 70
    -2
  9
$DIMTMOVE
 70
     0
  9
$LUNITS
 70
     2
  9
$LUPREC
 70
     2
  9
$SKETCHINC
 40
1.0
  9
$FILLETRAD
 40
10.0
  9
$AUNITS
 70
     0
  9
$AUPREC
 70
     2
  9
$MENU
  1
.
  9
$ELEVATION
 40
0.0
  9
$PELEVATION
 40
0.0
  9
$THICKNESS
 40
0.0
  9
$LIMCHECK
 70
     0
  9
$CHAMFERA
 40
0.0
  9
$CHAMFERB
 40
0.0
  9
$CHAMFERC
 40
0.0
  9
$CHAMFERD
 40
0.0
  9
$SKPOLY
 70
     0
  9
$TDCREATE
 40
2457674.421317731
  9
$TDUCREATE
 40
2457674.337984398
  9
$TDUPDATE
 40
2457674.421319132
  9
$TDUUPDATE
 40
2457674.337985799
  9
$TDINDWG
 40
0.0000000116
  9
$TDUSRTIMER
 40
0.0000000116
  9
$USRTIMER
 70
     1
  9
$ANGBASE
 50
0.0
  9
$ANGDIR
 70
     0
  9
$PDMODE
 70
     0
  9
$PDSIZE
 40
-1.0
  9
$PLINEWID
 40
0.0
  9
$SPLFRAME
 70
     0
  9
$SPLINETYPE
 70
     6
  9
$SPLINESEGS
 70
     8
  9
$HANDSEED
  5
2F6
  9
$SURFTAB1
 70
     6
  9
$SURFTAB2
 70
     6
  9
$SURFTYPE
 70
     6
  9
$SURFU
 70
     6
  9
$SURFV
 70
     6
  9
$UCSBASE
  2

  9
$UCSNAME
  2

  9
$UCSORG
 10
0.0
 20
0.0
 30
0.0
  9
$UCSXDIR
 10
1.0
 20
0.0
 30
0.0
  9
$UCSYDIR
 10
0.0
 20
1.0
 30
0.0
  9
$UCSORTHOREF
  2

  9
$UCSORTHOVIEW
 70
     0
  9
$UCSORGTOP
 10
0.0
 20
0.0
 30
0.0
  9
$UCSORGBOTTOM
 10
0.0
 20
0.0
 30
0.0
  9
$UCSORGLEFT
 10
0.0
 20
0.0
 30
0.0
  9
$UCSORGRIGHT
 10
0.0
 20
0.0
 30
0.0
  9
$UCSORGFRONT
 10
0.0
 20
0.0
 30
0.0
  9
$UCSORGBACK
 10
0.0
 20
0.0
 30
0.0
  9
$PUCSBASE
  2

  9
$PUCSNAME
  2

  9
$PUCSORG
 10
0.0
 20
0.0
 30
0.0
  9
$PUCSXDIR
 10
1.0
 20
0.0
 30
0.0
  9
$PUCSYDIR
 10
0.0
 20
1.0
 30
0.0
  9
$PUCSORTHOREF
  2

  9
$PUCSORTHOVIEW
 70
     0
  9
$PUCSORGTOP
 10
0.0
 20
0.0
 30
0.0
  9
$PUCSORGBOTTOM
 10
0.0
 20
0.0
 30
0.0
  9
$PUCSORGLEFT
 10
0.0
 20
0.0
 30
0.0
  9
$PUCSORGRIGHT
 10
0.0
 20
0.0
 30
0.0
  9
$PUCSORGFRONT
 10
0.0
 20
0.0
 30
0.0
  9
$PUCSORGBACK
 10
0.0
 20
0.0
 30
0.0
  9
$USERI1
 70
     0
  9
$USERI2
 70
     0
  9
$USERI3
 70
     0
  9
$USERI4
 70
     0
  9
$USERI5
 70
     0
  9
$USERR1
 40
0.0
  9
$USERR2
 40
0.0
  9
$USERR3
 40
0.0
  9
$USERR4
 40
0.0
  9
$USERR5
 40
0.0
  9
$WORLDVIEW
 70
     1
  9
$SHADEDGE
 70
     3
  9
$SHADEDIF
 70
    70
  9
$TILEMODE
 70
     1
  9
$MAXACTVP
 70
    64
  9
$PINSBASE
 10
0.0
 20
0.0
 30
0.0
  9
$PLIMCHECK
 70
     0
  9
$PEXTMIN
 10
1.0000000000E+20
 20
1.0000000000E+20
 30
1.0000000000E+20
  9
$PEXTMAX
 10
-1.0000000000E+20
 20
-1.0000000000E+20
 30
-1.0000000000E+20
  9
$PLIMMIN
 10
0.0
 20
0.0
  9
$PLIMMAX
 10
420.0
 20
297.0
  9
$UNITMODE
 70
     0
  9
$VISRETAIN
 70
     1
  9
$PLINEGEN
 70
     0
  9
$PSLTSCALE
 70
     1
  9
$TREEDEPTH
 70
  3020
  9
$CMLSTYLE
  2
Standard
  9
$CMLJUST
 70
     0
  9
$CMLSCALE
 40
20.0
  9
$PROXYGRAPHICS
 70
     1
  9
$MEASUREMENT
 70
     1
  9
$CELWEIGHT
370
    -1
  9
$ENDCAPS
280
     0
  9
$JOINSTYLE
280
     0
  9
$LWDISPLAY
290
     1
  9
$INSUNITS
 70
     4
  9
$HYPERLINKBASE
  1

  9
$STYLESHEET
  1

  9
$XEDIT
290
     1
  9
$CEPSNTYPE
380
     0
  9
$PSTYLEMODE
290
     1
  9
$FINGERPRINTGUID
  2
{1BE619E6-6CDD-4042-824B-C1F080BB65E7}
  9
$VERSIONGUID
  2
{FAEB1C32-E019-11D5-929B-00C0DF256EC4}
  9
$EXTNAMES
290
     1
  9
$PSVPSCALE
 40
0.0
  9
$OLESTARTUP
290
     0
  0
ENDSEC
  0
SECTION
  2
CLASSES
  0
CLASS
  1
ACDBDICTIONARYWDFLT
  2
AcDbDictionaryWithDefault
  3
ObjectDBX Classes
 90
        0
280
     0
281
     0
  0
CLASS
  1
VISUALSTYLE
  2
AcDbVisualStyle
  3
ObjectDBX Classes
 90
     4095
280
     0
281
     0
  0
CLASS
  1
MATERIAL
  2
AcDbMaterial
  3
ObjectDBX Classes
 90
     1153
280
     0
281
     0
  0
CLASS
  1
SCALE
  2
AcDbScale
  3
ObjectDBX Classes
 90
     1153
280
     0
281
     0
  0
CLASS
  1
TABLESTYLE
  2
AcDbTableStyle
  3
ObjectDBX Classes
 90
     4095
280
     0
281
     0
  0
CLASS
  1
MLEADERSTYLE
  2
AcDbMLeaderStyle
  3
ACDB_MLEADERSTYLE_CLASS
 90
     4095
280
     0
281
     0
  0
CLASS
  1
SUN
  2
AcDbSun
  3
SCENEOE
 90
     1153
280
     0
281
     0
  0
CLASS
  1
ACDBPLACEHOLDER
  2
AcDbPlaceHolder
  3
ObjectDBX Classes
 90
        0
280
     0
281
     0
  0
CLASS
  1
LAYOUT
  2
AcDbLayout
  3
ObjectDBX Classes
 90
        0
280
     0
281
     0
  0
ENDSEC
  0
SECTION
  2
TABLES
  0
TABLE
  2
VPORT
  5
8
330
0
100
AcDbSymbolTable
 70
     1
  0
VPORT
  5
29
330
8
100
AcDbSymbolTableRecord
100
AcDbViewportTableRecord
  2
*Active
 70
     0
 10
0.0
 20
0.0
 11
1.0
 21
1.0
 12
148.5
 22
105.0
 13
0.0
 23
0.0
 14
10.0
 24
10.0
 15
10.0
 25
10.0
 16
0.0
 26
0.0
 36
1.0
 17
0.0
 27
0.0
 37
0.0
 40
210.0
 41
1.4142857143
 42
50.0
 43
0.0
 44
0.0
 50
0.0
 51
0.0
 71
     0
 72
  2000
 73
     1
 74
     3
 75
     0
 76
     0
 77
     0
 78
     0
281
     0
 65
     1
110
0.0
120
0.0
130
0.0
111
1.0
121
0.0
131
0.0
112
0.0
122
1.0
132
0.0
 79
     0
146
0.0
  0
ENDTAB
  0
TABLE
  2
LTYPE
  5
5
330
0
100
AcDbSymbolTable
 70
     6
  0
LTYPE
  5
14
330
5
100
AcDbSymbolTableRecord
100
AcDbLinetypeTableRecord
  2
ByBlock
 70
     0
  3

 72
    65
 73
     0
 40
0.0
  0
LTYPE
  5
15
330
5
100
AcDbSymbolTableRecord
100
AcDbLinetypeTableRecord
  2
ByLayer
 70
     0
  3

 72
    65
 73
     0
 40
0.0
  0
LTYPE
  5
16
330
5
100
AcDbSymbolTableRecord
100
AcDbLinetypeTableRecord
  2
Continuous
 70
     0
  3
Solid line
 72
    65
 73
     0
 40
0.0
  0
LTYPE
  5
6E
330
5
100
AcDbSymbolTableRecord
100
AcDbLinetypeTableRecord
  2
HIDDEN
 70
     0
  3
Hidden __ __ __ __ __ __ __ __ __ __ __ __ __ __
 72
    65
 73
     2
 40
1.905
 49
1.27
 74
     0
 49
-0.635
 74
     0
  0
LTYPE
  5
6F
330
5
100
AcDbSymbolTableRecord
100
AcDbLinetypeTableRecord
  2
PHANTOM
 70
     0
  3
Phantom ______  __  __  ______  __  __  ______
 72
    65
 73
     6
 40
12.7
 49
6.35
 74
     0
 49
-1.27
 74
     0
 49
1.27
 74
     0
 49
-1.27
 74
     0
 49
1.27
 74
     0
 49
-1.27
 74
     0
  0
LTYPE
  5
70
330
5
100
AcDbSymbolTableRecord
100
AcDbLinetypeTableRecord
  2
CENTER
 70
     0
  3
Center ____ _ ____ _ ____ _ ____ _ ____ _ ____
 72
    65
 73
     4
 40
10.16
 49
6.35
 74
     0
 49
-1.27
 74
     0
 49
1.27
 74
     0
 49
-1.27
 74
     0
  0
LTYPE
  5
71
330
5
100
AcDbSymbolTableRecord
100
AcDbLinetypeTableRecord
  2
CENTERX2
 70
     0
  3
Center (2x) ________  __  ________  __  _____
 72
    65
 73
     4
 40
20.32
 49
12.7
 74
     0
 49
-2.54
 74
     0
 49
2.54
 74
     0
 49
-2.54
 74
     0
  0
LTYPE
  5
72
330
5
100
AcDbSymbolTableRecord
100
AcDbLinetypeTableRecord
  2
DOT2
 70
     0
  3
Dot (.5x) ........................................
 72
    65
 73
     2
 40
0.635
 49
0.0
 74
     0
 49
-0.635
 74
     0
  0
ENDTAB
  0
TABLE
  2
LAYER
  5
2
330
0
100
AcDbSymbolTable
 70
     5
  0
LAYER
  5
10
330
2
100
AcDbSymbolTableRecord
100
AcDbLayerTableRecord
  2
0
 70
     0
 62
     7
  6
Continuous
370
    -3
390
F
  0
LAYER
  5
73
330
2
100
AcDbSymbolTableRecord
100
AcDbLayerTableRecord
  2
FORMAT
 70
     0
 62
     7
  6
Continuous
370
    -3
390
F
  0
LAYER
  5
74
330
2
100
AcDbSymbolTableRecord
100
AcDbLayerTableRecord
  2
VERMASSUNG
 70
     0
 62
     7
  6
Continuous
370
    -3
390
F
  0
LAYER
  5
75
330
2
100
AcDbSymbolTableRecord
100
AcDbLayerTableRecord
  2
KOPF_DÜNN
 70
     0
 62
     7
  6
Continuous
370
    -3
390
F
  0
LAYER
  5
76
330
2
100
AcDbSymbolTableRecord
100
AcDbLayerTableRecord
  2
KOPF_DICK
 70
     0
 62
     7
  6
Continuous
370
    15
390
F
  0
ENDTAB
  0
TABLE
  2
STYLE
  5
3
330
0
100
AcDbSymbolTable
 70
     2
  0
STYLE
  5
11
330
3
100
AcDbSymbolTableRecord
100
AcDbTextStyleTableRecord
  2
Standard
 70
     0
 40
0.0
 41
1.0
 50
0.0
 71
     0
 42
2.0
  3
txt
  4

  0
STYLE
  5
77
330
3
100
AcDbSymbolTableRecord
100
AcDbTextStyleTableRecord
  2
SLDTEXTSTYLE0
 70
     0
 40
0.0
 41
0.7
 50
0.0
 71
     0
 42
2.0
  3
TXT
  4

  0
ENDTAB
  0
TABLE
  2
VIEW
  5
6
330
0
100
AcDbSymbolTable
 70
     0
  0
ENDTAB
  0
TABLE
  2
UCS
  5
7
330
0
100
AcDbSymbolTable
 70
     0
  0
ENDTAB
  0
TABLE
  2
APPID
  5
9
330
0
100
AcDbSymbolTable
 70
     1
  0
APPID
  5
12
330
9
100
AcDbSymbolTableRecord
100
AcDbRegAppTableRecord
  2
ACAD
 70
     0
  0
ENDTAB
  0
TABLE
  2
DIMSTYLE
  5
A
330
0
100
AcDbSymbolTable
 70
     2
100
AcDbDimStyleTable
  0
DIMSTYLE
105
27
330
A
100
AcDbSymbolTableRecord
100
AcDbDimStyleTableRecord
  2
ISO-25
 70
     0
 41
2.5
 42
0.625
 43
3.75
 44
1.25
 73
     0
 74
     0
 77
     1
 78
     8
140
2.5
141
2.5
143
0.0393700787
147
0.625
171
     3
172
     1
178
     0
271
     2
272
     2
274
     3
278
    44
283
     0
284
     8
340
11
  0
DIMSTYLE
105
210
102
{ACAD_REACTORS
330
20F
330
21C
330
227
330
233
330
23D
330
247
102
}
330
A
100
AcDbSymbolTableRecord
100
AcDbDimStyleTableRecord
  2
SLDDIMSTYLE0
 70
     0
 41
3.0
 44
0.0
 45
0.000000001
 73
     0
 74
     0
 77
     1
 78
    12
 79
     3
140
2.0
147
0.5
173
     1
178
     0
271
     2
272
     3
276
     2
284
    12
340
77
  0
ENDTAB
  0
TABLE
  2
BLOCK_RECORD
  5
1
330
0
100
AcDbSymbolTable
 70
     7
  0
BLOCK_RECORD
  5
1F
330
1
100
AcDbSymbolTableRecord
100
AcDbBlockTableRecord
  2
*Model_Space
340
22
  0
BLOCK_RECORD
  5
1B
330
1
100
AcDbSymbolTableRecord
100
AcDbBlockTableRecord
  2
*Paper_Space
340
1E
  0
BLOCK_RECORD
  5
23
330
1
100
AcDbSymbolTableRecord
100
AcDbBlockTableRecord
  2
*Paper_Space0
340
26
  0
BLOCK_RECORD
  5
211
330
1
100
AcDbSymbolTableRecord
100
AcDbBlockTableRecord
  2
_D
340
0
  0
BLOCK_RECORD
  5
21D
330
1
100
AcDbSymbolTableRecord
100
AcDbBlockTableRecord
  2
_D_1
340
0
  0
BLOCK_RECORD
  5
228
330
1
100
AcDbSymbolTableRecord
100
AcDbBlockTableRecord
  2
_D_2
340
0
  0
BLOCK_RECORD
  5
234
330
1
100
AcDbSymbolTableRecord
100
AcDbBlockTableRecord
  2
_D_3
340
0
  0
BLOCK_RECORD
  5
23E
330
1
100
AcDbSymbolTableRecord
100
AcDbBlockTableRecord
  2
_D_4
340
0
  0
BLOCK_RECORD
  5
248
330
1
100
AcDbSymbolTableRecord
100
AcDbBlockTableRecord
  2
_D_5
340
0
  0
ENDTAB
  0
ENDSEC
  0
SECTION
  2
BLOCKS
  0
BLOCK
  5
20
330
1F
100
AcDbEntity
  8
0
100
AcDbBlockBegin
  2
*Model_Space
 70
     0
 10
0.0
 20
0.0
 30
0.0
  3
*Model_Space
  1

  0
ENDBLK
  5
21
330
1F
100
AcDbEntity
  8
0
100
AcDbBlockEnd
  0
BLOCK
  5
1C
330
1B
100
AcDbEntity
 67
     1
  8
0
100
AcDbBlockBegin
  2
*Paper_Space
 70
     0
 10
0.0
 20
0.0
 30
0.0
  3
*Paper_Space
  1

  0
ENDBLK
  5
1D
330
1B
100
AcDbEntity
 67
     1
  8
0
100
AcDbBlockEnd
  0
BLOCK
  5
24
330
23
100
AcDbEntity
  8
0
100
AcDbBlockBegin
  2
*Paper_Space0
 70
     0
 10
0.0
 20
0.0
 30
0.0
  3
*Paper_Space0
  1

  0
ENDBLK
  5
25
330
23
100
AcDbEntity
  8
0
100
AcDbBlockEnd
  0
BLOCK
  5
212
330
211
100
AcDbEntity
  8
0
100
AcDbBlockBegin
  2
_D
 70
     0
 10
0.0
 20
0.0
 30
0.0
  3
_D
  1

  0
SOLID
  5
214
330
211
100
AcDbEntity
  8
VERMASSUNG
100
AcDbTrace
 10
53.4283077501
 20
85.5189692647
 30
0.0
 11
53.8783077501
 21
88.5189692647
 31
0.0
 12
52.9783077501
 22
88.5189692647
 32
0.0
 13
52.9783077501
 23
88.5189692647
 33
0.0
  0
SOLID
  5
215
330
211
100
AcDbEntity
  8
VERMASSUNG
100
AcDbTrace
 10
53.4283077501
 20
149.0189692647
 30
0.0
 11
52.9783077501
 21
146.0189692647
 31
0.0
 12
53.8783077501
 22
146.0189692647
 32
0.0
 13
53.8783077501
 23
146.0189692647
 33
0.0
  0
LINE
  5
216
330
211
100
AcDbEntity
  8
VERMASSUNG
100
AcDbLine
 10
148.2289648046
 20
85.5189692647
 30
0.0
 11
52.4283077501
 21
85.5189692647
 31
0.0
  0
LINE
  5
217
330
211
100
AcDbEntity
  8
VERMASSUNG
100
AcDbLine
 10
148.2289648046
 20
149.0189692647
 30
0.0
 11
52.4283077501
 21
149.0189692647
 31
0.0
  0
LINE
  5
218
330
211
100
AcDbEntity
  8
VERMASSUNG
100
AcDbLine
 10
53.4283077501
 20
85.5189692647
 30
0.0
 11
53.4283077501
 21
149.0189692647
 31
0.0
  0
MTEXT
  5
219
330
211
100
AcDbEntity
  8
VERMASSUNG
100
AcDbMText
 10
50.6501724938
 20
108.4660331164
 30
0.0
 40
2.0
 41
0.0
 71
     1
 72
     1
  1
ISO 40
  7
SLDTEXTSTYLE0
 11
3.391901413832837E-15
 21
1.0
 31
0.0
 73
     1
 44
1.0
  0
MTEXT
  5
21A
330
211
100
AcDbEntity
  8
VERMASSUNG
100
AcDbMText
 10
50.8501724451
 20
117.6660333205
 30
0.0
 40
2.0
 41
0.0
 71
     1
 72
     1
  1
%%c
  7
SLDTEXTSTYLE0
 11
3.391901413832837E-15
 21
1.0
 31
0.0
 73
     1
 44
1.0
  0
MTEXT
  5
21B
330
211
100
AcDbEntity
  8
VERMASSUNG
100
AcDbMText
 10
50.8501721541
 20
121.2739136519
 30
0.0
 40
2.0
 41
0.0
 71
     1
 72
     1
  1
63.5
  7
SLDTEXTSTYLE0
 11
3.391901413832837E-15
 21
1.0
 31
0.0
 73
     1
 44
1.0
  0
ENDBLK
  5
213
330
211
100
AcDbEntity
  8
0
100
AcDbBlockEnd
  0
BLOCK
  5
21E
330
21D
100
AcDbEntity
  8
0
100
AcDbBlockBegin
  2
_D_1
 70
     0
 10
0.0
 20
0.0
 30
0.0
  3
_D_1
  1

  0
SOLID
  5
220
330
21D
100
AcDbEntity
  8
VERMASSUNG
100
AcDbTrace
 10
237.8997039092
 20
103.2689692647
 30
0.0
 11
238.3497039092
 21
106.2689692647
 31
0.0
 12
237.4497039092
 22
106.2689692647
 32
0.0
 13
237.4497039092
 23
106.2689692647
 33
0.0
  0
SOLID
  5
221
330
21D
100
AcDbEntity
  8
VERMASSUNG
100
AcDbTrace
 10
237.8997039092
 20
131.2689692647
 30
0.0
 11
237.4497039092
 21
128.2689692647
 31
0.0
 12
238.3497039092
 22
128.2689692647
 32
0.0
 13
238.3497039092
 23
128.2689692647
 33
0.0
  0
LINE
  5
222
330
21D
100
AcDbEntity
  8
VERMASSUNG
100
AcDbLine
 10
228.7789648046
 20
103.2689692647
 30
0.0
 11
238.8997039092
 21
103.2689692647
 31
0.0
  0
LINE
  5
223
330
21D
100
AcDbEntity
  8
VERMASSUNG
100
AcDbLine
 10
228.7789648046
 20
131.2689692647
 30
0.0
 11
238.8997039092
 21
131.2689692647
 31
0.0
  0
LINE
  5
224
330
21D
100
AcDbEntity
  8
VERMASSUNG
100
AcDbLine
 10
237.8997039092
 20
103.2689692647
 30
0.0
 11
237.8997039092
 21
131.2689692647
 31
0.0
  0
MTEXT
  5
225
330
21D
100
AcDbEntity
  8
VERMASSUNG
100
AcDbMText
 10
235.3215686043
 20
114.0639693074
 30
0.0
 40
2.0
 41
0.0
 71
     1
 72
     1
  1
%%c
  7
SLDTEXTSTYLE0
 11
6.123233995736766E-17
 21
1.0
 31
0.0
 73
     1
 44
1.0
  0
MTEXT
  5
226
330
21D
100
AcDbEntity
  8
VERMASSUNG
100
AcDbMText
 10
235.121568653
 20
117.6739693217
 30
0.0
 40
2.0
 41
0.0
 71
     1
 72
     1
  1
28
  7
SLDTEXTSTYLE0
 11
6.123233995736766E-17
 21
1.0
 31
0.0
 73
     1
 44
1.0
  0
ENDBLK
  5
21F
330
21D
100
AcDbEntity
  8
0
100
AcDbBlockEnd
  0
BLOCK
  5
229
330
228
100
AcDbEntity
  8
0
100
AcDbBlockBegin
  2
_D_2
 70
     0
 10
0.0
 20
0.0
 30
0.0
  3
_D_2
  1

  0
SOLID
  5
22B
330
228
100
AcDbEntity
  8
VERMASSUNG
100
AcDbTrace
 10
243.8997039092
 20
92.2689692647
 30
0.0
 11
244.3497039092
 21
95.2689692647
 31
0.0
 12
243.4497039092
 22
95.2689692647
 32
0.0
 13
243.4497039092
 23
95.2689692647
 33
0.0
  0
SOLID
  5
22C
330
228
100
AcDbEntity
  8
VERMASSUNG
100
AcDbTrace
 10
243.8997039092
 20
142.2689692647
 30
0.0
 11
243.4497039092
 21
139.2689692647
 31
0.0
 12
244.3497039092
 22
139.2689692647
 32
0.0
 13
244.3497039092
 23
139.2689692647
 33
0.0
  0
LINE
  5
22D
330
228
100
AcDbEntity
  8
VERMASSUNG
100
AcDbLine
 10
229.2789648046
 20
92.2689692647
 30
0.0
 11
244.8997039092
 21
92.2689692647
 31
0.0
  0
LINE
  5
22E
330
228
100
AcDbEntity
  8
VERMASSUNG
100
AcDbLine
 10
229.2789648046
 20
142.2689692647
 30
0.0
 11
244.8997039092
 21
142.2689692647
 31
0.0
  0
LINE
  5
22F
330
228
100
AcDbEntity
  8
VERMASSUNG
100
AcDbLine
 10
243.8997039092
 20
92.2689692647
 30
0.0
 11
243.8997039092
 21
142.2689692647
 31
0.0
  0
MTEXT
  5
230
330
228
100
AcDbEntity
  8
VERMASSUNG
100
AcDbMText
 10
241.121568653
 20
111.5639693633
 30
0.0
 40
2.0
 41
0.0
 71
     1
 72
     1
  1
WH
  7
SLDTEXTSTYLE0
 11
6.123233995736766E-17
 21
1.0
 31
0.0
 73
     1
 44
1.0
  0
MTEXT
  5
231
330
228
100
AcDbEntity
  8
VERMASSUNG
100
AcDbMText
 10
241.3215686043
 20
116.5639692516
 30
0.0
 40
2.0
 41
0.0
 71
     1
 72
     1
  1
%%c
  7
SLDTEXTSTYLE0
 11
6.123233995736766E-17
 21
1.0
 31
0.0
 73
     1
 44
1.0
  0
MTEXT
  5
232
330
228
100
AcDbEntity
  8
VERMASSUNG
100
AcDbMText
 10
241.121568653
 20
120.1739692659
 30
0.0
 40
2.0
 41
0.0
 71
     1
 72
     1
  1
50
  7
SLDTEXTSTYLE0
 11
6.123233995736766E-17
 21
1.0
 31
0.0
 73
     1
 44
1.0
  0
ENDBLK
  5
22A
330
228
100
AcDbEntity
  8
0
100
AcDbBlockEnd
  0
BLOCK
  5
235
330
234
100
AcDbEntity
  8
0
100
AcDbBlockBegin
  2
_D_3
 70
     0
 10
0.0
 20
0.0
 30
0.0
  3
_D_3
  1

  0
SOLID
  5
237
330
234
100
AcDbEntity
  8
VERMASSUNG
100
AcDbTrace
 10
229.7789648046
 20
153.7423924575
 30
0.0
 11
226.7789648046
 21
154.1923924575
 31
0.0
 12
226.7789648046
 22
153.2923924575
 32
0.0
 13
226.7789648046
 23
153.2923924575
 33
0.0
  0
SOLID
  5
238
330
234
100
AcDbEntity
  8
VERMASSUNG
100
AcDbTrace
 10
148.8289648046
 20
153.7423924575
 30
0.0
 11
151.8289648046
 21
153.2923924575
 31
0.0
 12
151.8289648046
 22
154.1923924575
 32
0.0
 13
151.8289648046
 23
154.1923924575
 33
0.0
  0
LINE
  5
239
330
234
100
AcDbEntity
  8
VERMASSUNG
100
AcDbLine
 10
229.7789648046
 20
141.7689692647
 30
0.0
 11
229.7789648046
 21
154.7423924575
 31
0.0
  0
LINE
  5
23A
330
234
100
AcDbEntity
  8
VERMASSUNG
100
AcDbLine
 10
148.8289648046
 20
135.6189692647
 30
0.0
 11
148.8289648046
 21
154.7423924575
 31
0.0
  0
LINE
  5
23B
330
234
100
AcDbEntity
  8
VERMASSUNG
100
AcDbLine
 10
229.7789648046
 20
153.7423924575
 30
0.0
 11
148.8289648046
 21
153.7423924575
 31
0.0
  0
MTEXT
  5
23C
330
234
100
AcDbEntity
  8
VERMASSUNG
100
AcDbMText
 10
186.2039649484
 20
156.3205280535
 30
0.0
 40
2.0
 41
0.0
 71
     1
 72
     1
  1
80.95
  7
SLDTEXTSTYLE0
 73
     1
 44
1.0
  0
ENDBLK
  5
236
330
234
100
AcDbEntity
  8
0
100
AcDbBlockEnd
  0
BLOCK
  5
23F
330
23E
100
AcDbEntity
  8
0
100
AcDbBlockBegin
  2
_D_4
 70
     0
 10
0.0
 20
0.0
 30
0.0
  3
_D_4
  1

  0
SOLID
  5
241
330
23E
100
AcDbEntity
  8
VERMASSUNG
100
AcDbTrace
 10
229.7789648046
 20
159.7423924575
 30
0.0
 11
226.7789648046
 21
160.1923924575
 31
0.0
 12
226.7789648046
 22
159.2923924575
 32
0.0
 13
226.7789648046
 23
159.2923924575
 33
0.0
  0
SOLID
  5
242
330
23E
100
AcDbEntity
  8
VERMASSUNG
100
AcDbTrace
 10
129.7789648046
 20
159.7423924575
 30
0.0
 11
132.7789648046
 21
159.2923924575
 31
0.0
 12
132.7789648046
 22
160.1923924575
 32
0.0
 13
132.7789648046
 23
160.1923924575
 33
0.0
  0
LINE
  5
243
330
23E
100
AcDbEntity
  8
VERMASSUNG
100
AcDbLine
 10
229.7789648046
 20
141.7689692647
 30
0.0
 11
229.7789648046
 21
160.7423924575
 31
0.0
  0
LINE
  5
244
330
23E
100
AcDbEntity
  8
VERMASSUNG
100
AcDbLine
 10
129.7789648046
 20
139.4939692647
 30
0.0
 11
129.7789648046
 21
160.7423924575
 31
0.0
  0
LINE
  5
245
330
23E
100
AcDbEntity
  8
VERMASSUNG
100
AcDbLine
 10
229.7789648046
 20
159.7423924575
 30
0.0
 11
129.7789648046
 21
159.7423924575
 31
0.0
  0
MTEXT
  5
246
330
23E
100
AcDbEntity
  8
VERMASSUNG
100
AcDbMText
 10
177.8789647726
 20
162.3205280535
 30
0.0
 40
2.0
 41
0.0
 71
     1
 72
     1
  1
100
  7
SLDTEXTSTYLE0
 73
     1
 44
1.0
  0
ENDBLK
  5
240
330
23E
100
AcDbEntity
  8
0
100
AcDbBlockEnd
  0
BLOCK
  5
249
330
248
100
AcDbEntity
  8
0
100
AcDbBlockBegin
  2
_D_5
 70
     0
 10
0.0
 20
0.0
 30
0.0
  3
_D_5
  1

  0
SOLID
  5
24B
330
248
100
AcDbEntity
  8
VERMASSUNG
100
AcDbTrace
 10
229.7789648046
 20
165.7423924575
 30
0.0
 11
226.7789648046
 21
166.1923924575
 31
0.0
 12
226.7789648046
 22
165.2923924575
 32
0.0
 13
226.7789648046
 23
165.2923924575
 33
0.0
  0
SOLID
  5
24C
330
248
100
AcDbEntity
  8
VERMASSUNG
100
AcDbTrace
 10
61.5289648046
 20
165.7423924575
 30
0.0
 11
64.5289648046
 21
165.2923924575
 31
0.0
 12
64.5289648046
 22
166.1923924575
 32
0.0
 13
64.5289648046
 23
166.1923924575
 33
0.0
  0
LINE
  5
24D
330
248
100
AcDbEntity
  8
VERMASSUNG
100
AcDbLine
 10
229.7789648046
 20
141.7689692647
 30
0.0
 11
229.7789648046
 21
166.7423924575
 31
0.0
  0
LINE
  5
24E
330
248
100
AcDbEntity
  8
VERMASSUNG
100
AcDbLine
 10
61.5289648046
 20
128.6760998617
 30
0.0
 11
61.5289648046
 21
166.7423924575
 31
0.0
  0
LINE
  5
24F
330
248
100
AcDbEntity
  8
VERMASSUNG
100
AcDbLine
 10
229.7789648046
 20
165.7423924575
 30
0.0
 11
61.5289648046
 21
165.7423924575
 31
0.0
  0
MTEXT
  5
250
330
248
100
AcDbEntity
  8
VERMASSUNG
100
AcDbMText
 10
142.0539648665
 20
168.3205280535
 30
0.0
 40
2.0
 41
0.0
 71
     1
 72
     1
  1
168.25
  7
SLDTEXTSTYLE0
 73
     1
 44
1.0
  0
ENDBLK
  5
24A
330
248
100
AcDbEntity
  8
0
100
AcDbBlockEnd
  0
ENDSEC
  0
SECTION
  2
ENTITIES
  0
MTEXT
  5
78
330
1F
100
AcDbEntity
  8
KOPF_DÜNN
100
AcDbMText
 10
13.8892156294
 20
23.8442973028
 30
0.0
 40
3.0
 41
0.0
 71
     1
 72
     1
  1
A14.440.050.100
  7
SLDTEXTSTYLE0
 73
     1
 44
1.0
  0
MTEXT
  5
79
330
1F
100
AcDbEntity
  8
VERMASSUNG
100
AcDbMText
 10
13.9329988022
 20
28.8834360957
 30
0.0
 40
3.0
 41
0.0
 71
     1
 72
     1
  1
Aufnahme_Master shank WH50
  7
SLDTEXTSTYLE0
 73
     1
 44
1.0
  0
MTEXT
  5
7A
330
1F
100
AcDbEntity
  8
VERMASSUNG
100
AcDbMText
 10
98.8601118557
 20
13.8365368761
 30
0.0
 40
2.0
 41
0.0
 71
     1
 72
     1
  1
Datum: 21.10.2011
  7
SLDTEXTSTYLE0
 73
     1
 44
1.0
  0
MTEXT
  5
7B
330
1F
100
AcDbEntity
  8
VERMASSUNG
100
AcDbMText
 10
13.933048693
 20
18.0482802738
 30
0.0
 40
2.0
 41
0.0
 71
     1
 72
     1
  1
DIN 69871 AD/B
  7
SLDTEXTSTYLE0
 73
     1
 44
1.0
  0
MTEXT
  5
7C
330
1F
100
AcDbEntity
  8
VERMASSUNG
100
AcDbMText
 10
13.9808475933
 20
13.9090974274
 30
0.0
 40
2.0
 41
0.0
 71
     1
 72
     1
  1
Gewicht: 1891g
  7
SLDTEXTSTYLE0
 73
     1
 44
1.0
  0
LINE
  5
7D
330
1F
100
AcDbEntity
  8
0
  6
Continuous
 62
     7
370
    15
100
AcDbLine
 10
229.2789663748
 20
92.2689701098
 30
0.0
 11
229.778967388
 21
92.7689692605
 31
0.0
  0
LINE
  5
7E
330
1F
100
AcDbEntity
  8
0
  6
Continuous
 62
     7
370
    15
100
AcDbLine
 10
229.778967388
 20
141.7689698416
 30
0.0
 11
229.2789663748
 21
142.2689689923
 31
0.0
  0
LINE
  5
7F
330
1F
100
AcDbEntity
  8
0
  6
Continuous
 62
     7
370
    15
100
AcDbLine
 10
208.5027839617
 20
142.2689689923
 30
0.0
 11
156.8501131237
 21
142.2689689923
 31
0.0
  0
LINE
  5
80
330
1F
100
AcDbEntity
  8
0
  6
Continuous
 62
     7
370
    15
100
AcDbLine
 10
229.2789663748
 20
142.2689689923
 30
0.0
 11
222.8945787624
 21
142.2689689923
 31
0.0
  0
LINE
  5
81
330
1F
100
AcDbEntity
  8
0
  6
Continuous
 62
     7
370
    15
100
AcDbLine
 10
156.8501131237
 20
92.2689701098
 30
0.0
 11
229.2789663748
 21
92.2689701098
 31
0.0
  0
ARC
  5
82
330
1F
100
AcDbEntity
  8
0
  6
Continuous
 62
     7
370
    15
100
AcDbCircle
 10
132.3789648046
 20
94.4439692647
 30
0.0
 40
0.5999999999999943
100
AcDbArc
 50
0.0
 51
90.0
  0
ARC
  5
83
330
1F
100
AcDbEntity
  8
0
  6
Continuous
 62
     7
370
    15
100
AcDbCircle
 10
132.3789648046
 20
140.0939692647
 30
0.0
 40
0.5999999999999943
100
AcDbArc
 50
270.0
 51
0.0
  0
LINE
  5
84
330
1F
100
AcDbEntity
  8
0
  6
Continuous
 62
     7
370
    15
100
AcDbLine
 10
129.7789640353
 20
95.0439686555
 30
0.0
 11
132.3789652065
 21
95.0439686555
 31
0.0
  0
LINE
  5
85
330
1F
100
AcDbEntity
  8
0
  6
Continuous
 62
     7
370
    15
100
AcDbLine
 10
132.3789652065
 20
139.493968584
 30
0.0
 11
129.7789640353
 21
139.493968584
 31
0.0
  0
LINE
  5
86
330
1F
100
AcDbEntity
  8
0
  6
Continuous
 62
     7
370
    15
100
AcDbLine
 10
129.7789640353
 20
139.493968584
 30
0.0
 11
62.3846571521
 21
129.6656320471
 31
0.0
  0
LINE
  5
87
330
1F
100
AcDbEntity
  8
0
  6
Continuous
 62
     7
370
    15
100
AcDbLine
 10
62.3846571521
 20
104.8723061237
 30
0.0
 11
129.7789640353
 21
95.0439686555
 31
0.0
  0
ARC
  5
88
330
1F
100
AcDbEntity
  8
0
  6
Continuous
 62
     7
370
    15
100
AcDbCircle
 10
62.5289648046
 20
105.8618386676
 30
0.0
 40
0.9999999999999949
100
AcDbArc
 50
180.0
 51
261.7028550302
  0
ARC
  5
89
330
1F
100
AcDbEntity
  8
0
  6
Continuous
 62
     7
370
    15
100
AcDbCircle
 10
62.5289648046
 20
128.6760998617
 30
0.0
 40
0.9999999999999858
100
AcDbArc
 50
98.2971449698
 51
180.0
  0
LINE
  5
8A
330
1F
100
AcDbEntity
  8
0
  6
Continuous
 62
     7
370
    15
100
AcDbLine
 10
221.3526364044
 20
141.9452990073
 30
0.0
 11
221.0289682821
 21
142.2689689923
 31
0.0
  0
LINE
  5
8B
330
1F
100
AcDbEntity
  8
0
  6
Continuous
 62
     7
370
    15
100
AcDbLine
 10
210.4289676622
 20
142.2689689923
 30
0.0
 11
210.1038690284
 21
141.9438703585
 31
0.0
  0
ARC
  5
8C
330
1F
100
AcDbEntity
  8
0
  6
Continuous
 62
     7
370
    15
100
AcDbCircle
 10
142.7789648046
 20
108.5474556099
 30
0.0
 40
1.500000000000023
100
AcDbArc
 50
191.5274417161
 51
336.6037645748
  0
SPLINE
  5
8D
330
1F
100
AcDbEntity
  8
0
  6
Continuous
 62
     7
370
    15
100
AcDbSpline
210
0.0
220
0.0
230
1.0
 70
     8
 71
     3
 72
    12
 73
     8
 74
     0
 42
0.000000001
 43
0.00000001
 40
0.0
 40
0.0
 40
0.0
 40
0.0
 40
0.1441259156620581
 40
0.2876450922645845
 40
0.4853450615099167
 40
0.753798034732206
 40
1.0
 40
1.0
 40
1.0
 40
1.0
 10
148.2289648242869
 20
86.82087647202356
 30
0.0
 10
148.2833628605608
 20
86.82393101013477
 30
0.0
 10
148.3919299290935
 20
86.8300272274097
 30
0.0
 10
148.5515161395882
 20
86.879487937556
 30
0.0
 10
148.702977054917
 20
86.96790921604261
 30
0.0
 10
148.8094224283392
 20
87.09555235134748
 30
0.0
 10
148.8226411364667
 20
87.19329513868703
 30
0.0
 10
148.82896473637
 20
87.24005358698709
 30
0.0
  0
SPLINE
  5
8E
330
1F
100
AcDbEntity
  8
0
  6
Continuous
 62
     7
370
    15
100
AcDbSpline
210
0.0
220
0.0
230
1.0
 70
    24
 71
     3
 72
    12
 73
     8
 74
     0
 42
0.000000001
 43
0.00000001
 40
0.0
 40
0.0
 40
0.0
 40
0.0
 40
0.1654889027683258
 40
0.457612844370697
 40
0.6640796028265854
 40
0.8392447698687371
 40
1.0
 40
1.0
 40
1.0
 40
1.0
 10
148.82896473637
 20
135.6189700442825
 30
0.0
 10
148.8257005242553
 20
135.6189700442825
 30
0.0
 10
148.8166742671141
 20
135.6189700442825
 30
0.0
 10
148.7286262082096
 20
135.6189700442825
 30
0.0
 10
148.5716109491757
 20
135.6189700442825
 30
0.0
 10
148.4035430604275
 20
135.6189700442825
 30
0.0
 10
148.2854692367924
 20
135.6189700442825
 30
0.0
 10
148.2289648242869
 20
135.6189700442825
 30
0.0
  0
LINE
  5
8F
330
1F
100
AcDbEntity
  8
0
  6
Continuous
 62
     7
370
    15
100
AcDbLine
 10
148.8289647364
 20
87.240053587
 30
0.0
 11
148.8289647364
 21
135.6189700443
 31
0.0
  0
LINE
  5
90
330
1F
100
AcDbEntity
  8
0
  6
Continuous
 62
     7
370
    15
100
AcDbLine
 10
144.4008014491
 20
107.5169493112
 30
0.0
 11
144.4008014491
 21
135.6189700443
 31
0.0
  0
LINE
  5
91
330
1F
100
AcDbEntity
  8
0
  6
Continuous
 62
     7
370
    15
100
AcDbLine
 10
148.2289648243
 20
135.6189700443
 30
0.0
 11
144.4008014491
 21
135.6189700443
 31
0.0
  0
LINE
  5
92
330
1F
100
AcDbEntity
  8
0
  6
Continuous
 62
     7
370
    15
100
AcDbLine
 10
144.4008014491
 20
86.820876472
 30
0.0
 11
148.2289648243
 21
86.820876472
 31
0.0
  0
LINE
  5
93
330
1F
100
AcDbEntity
  8
0
  6
Continuous
 62
     7
370
    15
100
AcDbLine
 10
144.4008014491
 20
86.820876472
 30
0.0
 11
144.4008014491
 21
105.3174694668
 31
0.0
  0
SPLINE
  5
94
330
1F
100
AcDbEntity
  8
0
  6
Continuous
 62
     7
370
    15
100
AcDbSpline
210
0.0
220
0.0
230
1.0
 70
     8
 71
     3
 72
    11
 73
     7
 74
     0
 42
0.000000001
 43
0.00000001
 40
0.0
 40
0.0
 40
0.0
 40
0.0
 40
0.2695276051158721
 40
0.5390691054178184
 40
0.80829719352951
 40
1.0
 40
1.0
 40
1.0
 40
1.0
 10
144.4008014491402
 20
105.3174694668029
 30
0.0
 10
144.5145289213094
 20
105.4987774083596
 30
0.0
 10
144.741989728737
 20
105.8614026385956
 30
0.0
 10
144.8107424975239
 20
106.5031215495079
 30
0.0
 10
144.6875048768568
 20
107.076887283658
 30
0.0
 10
144.4850169158397
 20
107.387686716342
 30
0.0
 10
144.4008014491402
 20
107.5169493112241
 30
0.0
  0
SPLINE
  5
95
330
1F
100
AcDbEntity
  8
0
  6
Continuous
 62
     7
370
    15
100
AcDbSpline
210
0.0
220
0.0
230
1.0
 70
     8
 71
     3
 72
     9
 73
     5
 74
     0
 42
0.000000001
 43
0.00000001
 40
0.0
 40
0.0
 40
0.0
 40
0.0
 40
0.3493420726882911
 40
1.0
 40
1.0
 40
1.0
 40
1.0
 10
138.9689646289326
 20
89.45214214208467
 30
0.0
 10
138.8347152078802
 20
89.21020117488342
 30
0.0
 10
138.4504230439869
 20
88.51763939628219
 30
0.0
 10
138.0649721035044
 20
87.82572174697134
 30
0.0
 10
137.8141753934898
 20
87.37552004340036
 30
0.0
  0
LINE
  5
96
330
1F
100
AcDbEntity
  8
0
  6
Continuous
 62
     7
370
    15
100
AcDbLine
 10
137.3571283743
 20
86.820876472
 30
0.0
 11
137.8141753935
 21
87.3755200434
 31
0.0
  0
LINE
  5
97
330
1F
100
AcDbEntity
  8
0
  6
Continuous
 62
     7
370
    15
100
AcDbLine
 10
137.3571283743
 20
86.820876472
 30
0.0
 11
137.3571283743
 21
135.6189700443
 31
0.0
  0
SPLINE
  5
98
330
1F
100
AcDbEntity
  8
0
  6
Continuous
 62
     7
370
    15
100
AcDbSpline
210
0.0
220
0.0
230
1.0
 70
    24
 71
     3
 72
     9
 73
     5
 74
     0
 42
0.000000001
 43
0.00000001
 40
0.0
 40
0.0
 40
0.0
 40
0.0
 40
0.2448175124262434
 40
1.0
 40
1.0
 40
1.0
 40
1.0
 10
138.9689646289326
 20
135.6189700442825
 30
0.0
 10
138.8400381106373
 20
135.6189700442825
 30
0.0
 10
138.3134151700741
 20
135.6189700442825
 30
0.0
 10
137.7685790618583
 20
135.6189700442825
 30
0.0
 10
137.3571283743359
 20
135.6189700442825
 30
0.0
  0
LINE
  5
99
330
1F
100
AcDbEntity
  8
0
  6
Continuous
 62
     7
370
    15
100
AcDbLine
 10
138.9689646289
 20
89.4521421421
 30
0.0
 11
138.9689646289
 21
135.6189700443
 31
0.0
  0
LINE
  5
9A
330
1F
100
AcDbEntity
  8
0
  6
Continuous
 62
     7
370
    15
100
AcDbLine
 10
133.5789650307
 20
86.820876472
 30
0.0
 11
137.3571283743
 21
86.820876472
 31
0.0
  0
LINE
  5
9B
330
1F
100
AcDbEntity
  8
0
  6
Continuous
 62
     7
370
    15
100
AcDbLine
 10
137.3571283743
 20
135.6189700443
 30
0.0
 11
133.5789650307
 21
135.6189700443
 31
0.0
  0
SPLINE
  5
9C
330
1F
100
AcDbEntity
  8
0
  6
Continuous
 62
     7
370
    15
100
AcDbSpline
210
0.0
220
0.0
230
1.0
 70
     8
 71
     3
 72
    10
 73
     6
 74
     0
 42
0.000000001
 43
0.00000001
 40
0.0
 40
0.0
 40
0.0
 40
0.0
 40
0.4238753971872142
 40
0.8509159969799078
 40
1.0
 40
1.0
 40
1.0
 40
1.0
 10
133.1951092556693
 20
86.91723855617387
 30
0.0
 10
133.2397937291761
 20
86.89513140699468
 30
0.0
 10
133.3294963483322
 20
86.85075202803327
 30
0.0
 10
133.4726324230012
 20
86.82340363375386
 30
0.0
 10
133.5571058157124
 20
86.82139599066136
 30
0.0
 10
133.5789650306679
 20
86.82087647202356
 30
0.0
  0
SPLINE
  5
9D
330
1F
100
AcDbEntity
  8
0
  6
Continuous
 62
     7
370
    15
100
AcDbSpline
210
0.0
220
0.0
230
1.0
 70
     8
 71
     3
 72
    11
 73
     7
 74
     0
 42
0.000000001
 43
0.00000001
 40
0.0
 40
0.0
 40
0.0
 40
0.0
 40
0.3719370214399876
 40
0.7123414718333838
 40
0.9831549916863469
 40
1.0
 40
1.0
 40
1.0
 40
1.0
 10
133.1951092556693
 20
86.91723855617387
 30
0.0
 10
133.1535338649271
 20
86.97167783298987
 30
0.0
 10
133.073907817166
 20
87.07594106127112
 30
0.0
 10
132.99988425404
 20
87.26320439762623
 30
0.0
 10
132.9793102676464
 20
87.39731375635346
 30
0.0
 10
132.9789842120866
 20
87.45898364890537
 30
0.0
 10
132.9789651185848
 20
87.4625949788366
 30
0.0
  0
LINE
  5
9E
330
1F
100
AcDbEntity
  8
0
  6
Continuous
 62
     7
370
    15
100
AcDbLine
 10
132.9789651186
 20
87.4625949788
 30
0.0
 11
132.9789651186
 21
135.6189700443
 31
0.0
  0
SPLINE
  5
9F
330
1F
100
AcDbEntity
  8
0
  6
Continuous
 62
     7
370
    15
100
AcDbSpline
210
0.0
220
0.0
230
1.0
 70
    24
 71
     3
 72
    14
 73
    10
 74
     0
 42
0.000000001
 43
0.00000001
 40
0.0
 40
0.0
 40
0.0
 40
0.0
 40
0.0101842694941135
 40
0.1697193628423563
 40
0.329274820786217
 40
0.5060142023942953
 40
0.7131838319940628
 40
0.9593412176262412
 40
1.0
 40
1.0
 40
1.0
 40
1.0
 10
133.5789650306679
 20
135.6189700442825
 30
0.0
 10
133.5753976889732
 20
135.6189700442825
 30
0.0
 10
133.515948460943
 20
135.6189700442825
 30
0.0
 10
133.4002147623514
 20
135.6189700442825
 30
0.0
 10
133.2473780982687
 20
135.6189700442825
 30
0.0
 10
133.1152028169782
 20
135.6189700442825
 30
0.0
 10
133.0141375347283
 20
135.6189700442825
 30
0.0
 10
132.9806647780364
 20
135.6189700442825
 30
0.0
 10
132.9791761456684
 20
135.6189700442825
 30
0.0
 10
132.9789651185848
 20
135.6189700442825
 30
0.0
  0
LINE
  5
A0
330
1F
100
AcDbEntity
  8
0
  6
Continuous
 62
     7
370
    15
100
AcDbLine
 10
142.7889648453
 20
109.2676867399
 30
0.0
 11
142.7889648453
 21
135.6189700443
 31
0.0
  0
SPLINE
  5
A1
330
1F
100
AcDbEntity
  8
0
  6
Continuous
 62
     7
370
    15
100
AcDbSpline
210
0.0
220
0.0
230
1.0
 70
    24
 71
     3
 72
     9
 73
     5
 74
     0
 42
0.000000001
 43
0.00000001
 40
0.0
 40
0.0
 40
0.0
 40
0.0
 40
0.7551824968710945
 40
1.0
 40
1.0
 40
1.0
 40
1.0
 10
144.4008014491402
 20
135.6189700442825
 30
0.0
 10
143.9893506087753
 20
135.6189700442825
 30
0.0
 10
143.4445143048758
 20
135.6189700442825
 30
0.0
 10
142.9178913598011
 20
135.6189700442825
 30
0.0
 10
142.7889648452975
 20
135.6189700442825
 30
0.0
  0
SPLINE
  5
A2
330
1F
100
AcDbEntity
  8
0
  6
Continuous
 62
     7
370
    15
100
AcDbSpline
210
0.0
220
0.0
230
1.0
 70
     8
 71
     3
 72
    10
 73
     6
 74
     0
 42
0.000000001
 43
0.00000001
 40
0.0
 40
0.0
 40
0.0
 40
0.0
 40
0.1756415372211174
 40
0.706546808730767
 40
0.9999999999999999
 40
0.9999999999999999
 40
0.9999999999999999
 40
0.9999999999999999
 10
144.4008014491402
 20
107.5169493112241
 30
0.0
 10
144.3166369500949
 20
107.6635389516964
 30
0.0
 10
143.9780714880199
 20
108.2532197544688
 30
0.0
 10
143.4193270232602
 20
108.8419193862801
 30
0.0
 10
142.9544504994403
 20
109.1559122846826
 30
0.0
 10
142.7889648452975
 20
109.2676867398892
 30
0.0
  0
SPLINE
  5
A3
330
1F
100
AcDbEntity
  8
0
  6
Continuous
 62
     7
370
    15
100
AcDbSpline
210
0.0
220
0.0
230
1.0
 70
     8
 71
     3
 72
    13
 73
     9
 74
     0
 42
0.000000001
 43
0.00000001
 40
0.0
 40
0.0
 40
0.0
 40
0.0
 40
0.0054352273557359
 40
0.2179769255258269
 40
0.4304032388757169
 40
0.6392196775569781
 40
0.8385650771859327
 40
1.0
 40
1.0
 40
1.0
 40
1.0
 10
142.7889648452975
 20
109.3219304590945
 30
0.0
 10
142.7889583868306
 20
109.3227172603853
 30
0.0
 10
142.7886993734225
 20
109.3542715110471
 30
0.0
 10
142.7558137359219
 20
109.4174213400935
 30
0.0
 10
142.6210870069889
 20
109.4949571251292
 30
0.0
 10
142.4194544214823
 20
109.5311881250457
 30
0.0
 10
142.1955864256628
 20
109.5131840460168
 30
0.0
 10
142.0528387468582
 20
109.4623483842873
 30
0.0
 10
141.9889648072995
 20
109.4396014365826
 30
0.0
  0
SPLINE
  5
A4
330
1F
100
AcDbEntity
  8
0
  6
Continuous
 62
     7
370
    15
100
AcDbSpline
210
0.0
220
0.0
230
1.0
 70
     8
 71
     3
 72
    10
 73
     6
 74
     0
 42
0.000000001
 43
0.00000001
 40
0.0
 40
0.0
 40
0.0
 40
0.0
 40
0.32722837581256
 40
0.6620388740220702
 40
0.9999999999999999
 40
0.9999999999999999
 40
0.9999999999999999
 40
0.9999999999999999
 10
142.7889648452975
 20
105.5089633579825
 30
0.0
 10
142.9737857833751
 20
105.4147722551399
 30
0.0
 10
143.3477100967443
 20
105.2242075722516
 30
0.0
 10
143.9023575546638
 20
105.1121943827876
 30
0.0
 10
144.2341355725407
 20
105.2488311462205
 30
0.0
 10
144.4008014491402
 20
105.3174694668029
 30
0.0
  0
LINE
  5
A5
330
1F
100
AcDbEntity
  8
0
  6
Continuous
 62
     7
370
    15
100
AcDbLine
 10
142.7889648453
 20
105.5632068444
 30
0.0
 11
142.7889648453
 21
105.508963358
 31
0.0
  0
SPLINE
  5
A6
330
1F
100
AcDbEntity
  8
0
  6
Continuous
 62
     7
370
    15
100
AcDbSpline
210
0.0
220
0.0
230
1.0
 70
     8
 71
     3
 72
    13
 73
     9
 74
     0
 42
0.000000001
 43
0.00000001
 40
0.0
 40
0.0
 40
0.0
 40
0.0
 40
0.1471856756401512
 40
0.3569687738205152
 40
0.5536108556432835
 40
0.7519948408537412
 40
0.959473331216405
 40
1.0
 40
1.0
 40
1.0
 40
1.0
 10
141.9889648072995
 20
105.9864901605521
 30
0.0
 10
142.0471023593429
 20
105.9640603737923
 30
0.0
 10
142.1881031094199
 20
105.9096615103033
 30
0.0
 10
142.4073017764343
 20
105.8305881764995
 30
0.0
 10
142.6059911799989
 20
105.74964243665
 30
0.0
 10
142.7416782069209
 20
105.6688531433417
 30
0.0
 10
142.7864956656294
 20
105.6049832814892
 30
0.0
 10
142.7886180287009
 20
105.569074688618
 30
0.0
 10
142.7889648452975
 20
105.5632068443571
 30
0.0
  0
SPLINE
  5
A7
330
1F
100
AcDbEntity
  8
0
  6
Continuous
 62
     7
370
    15
100
AcDbSpline
210
0.0
220
0.0
230
1.0
 70
     8
 71
     3
 72
    14
 73
    10
 74
     0
 42
0.000000001
 43
0.00000001
 40
0.0
 40
0.0
 40
0.0
 40
0.0
 40
0.1448791458880436
 40
0.2897545245820492
 40
0.4346549261376114
 40
0.5792547807003614
 40
0.7236584311396519
 40
0.8682738553856886
 40
1.0
 40
1.0
 40
1.0
 40
1.0
 10
141.9889648072995
 20
109.4396014365826
 30
0.0
 10
141.7910245294407
 20
109.3346105586381
 30
0.0
 10
141.3951491206296
 20
109.1246315327555
 30
0.0
 10
140.981356851916
 20
108.5959146720443
 30
0.0
 10
140.7640676274173
 20
107.9836371756396
 30
0.0
 10
140.7752855179486
 20
107.3397944944665
 30
0.0
 10
141.0127174988484
 20
106.746154116804
 30
0.0
 10
141.4298091358597
 20
106.2638861659851
 30
0.0
 10
141.8084667712976
 20
106.0760348736488
 30
0.0
 10
141.9889648072995
 20
105.9864901605521
 30
0.0
  0
LINE
  5
A8
330
1F
100
AcDbEntity
  8
0
  6
Continuous
 62
     7
370
    15
100
AcDbLine
 10
143.94375443
 20
87.3755200434
 30
0.0
 11
144.4008014491
 21
86.820876472
 31
0.0
  0
SPLINE
  5
A9
330
1F
100
AcDbEntity
  8
0
  6
Continuous
 62
     7
370
    15
100
AcDbSpline
210
0.0
220
0.0
230
1.0
 70
     8
 71
     3
 72
     9
 73
     5
 74
     0
 42
0.000000001
 43
0.00000001
 40
0.0
 40
0.0
 40
0.0
 40
0.0
 40
0.6506579046904392
 40
1.0
 40
1.0
 40
1.0
 40
1.0
 10
143.9437544299863
 20
87.37552004340036
 30
0.0
 10
143.692957707476
 20
87.82572176156265
 30
0.0
 10
143.3075067343878
 20
88.51763945735472
 30
0.0
 10
142.9232143515349
 20
89.21020117908441
 30
0.0
 10
142.7889648452975
 20
89.45214214208467
 30
0.0
  0
LINE
  5
AA
330
1F
100
AcDbEntity
  8
0
  6
Continuous
 62
     7
370
    15
100
AcDbLine
 10
142.7889648453
 20
89.4521421421
 30
0.0
 11
142.7889648453
 21
105.508963358
 31
0.0
  0
SPLINE
  5
AB
330
1F
100
AcDbEntity
  8
0
  6
Continuous
 62
     7
370
    15
100
AcDbSpline
210
0.0
220
0.0
230
1.0
 70
     8
 71
     3
 72
    13
 73
     9
 74
     0
 42
0.000000001
 43
0.00000001
 40
0.0
 40
0.0
 40
0.0
 40
0.0
 40
0.100507180140837
 40
0.3018561500801362
 40
0.4149624824853331
 40
0.6331955720914499
 40
0.8511810273045269
 40
1.0
 40
1.0
 40
1.0
 40
1.0
 10
139.7689646669306
 20
90.45111226322992
 30
0.0
 10
139.7260942357825
 20
90.4489512028706
 30
0.0
 10
139.5973402176067
 20
90.44246082716573
 30
0.0
 10
139.4267258526138
 20
90.38029270946669
 30
0.0
 10
139.2374645928085
 20
90.25350719155972
 30
0.0
 10
139.0815278373291
 20
90.07281367688617
 30
0.0
 10
138.9833203474205
 20
89.83706748959416
 30
0.0
 10
138.9731079693535
 20
89.68043707805035
 30
0.0
 10
138.9689646289326
 20
89.61688938024385
 30
0.0
  0
SPLINE
  5
AC
330
1F
100
AcDbEntity
  8
0
  6
Continuous
 62
     7
370
    15
100
AcDbSpline
210
0.0
220
0.0
230
1.0
 70
    24
 71
     3
 72
    14
 73
    10
 74
     0
 42
0.000000001
 43
0.00000001
 40
0.0
 40
0.0
 40
0.0
 40
0.0
 40
0.047077491182094
 40
0.0973027841785507
 40
0.266284395376284
 40
0.4342102438484979
 40
0.6788778278677813
 40
0.9281563940362773
 40
1.0
 40
1.0
 40
1.0
 40
1.0
 10
139.7689646669306
 20
135.6189700442825
 30
0.0
 10
139.7461647507461
 20
135.6189700442825
 30
0.0
 10
139.6990404187545
 20
135.6189700442825
 30
0.0
 10
139.5718266303543
 20
135.6189700442825
 30
0.0
 10
139.3970909282775
 20
135.6189700442825
 30
0.0
 10
139.1897874715946
 20
135.6189700442825
 30
0.0
 10
139.0333367544819
 20
135.6189700442825
 30
0.0
 10
138.9735738465235
 20
135.6189700442825
 30
0.0
 10
138.9698073048878
 20
135.6189700442825
 30
0.0
 10
138.9689646289326
 20
135.6189700442825
 30
0.0
  0
SPLINE
  5
AD
330
1F
100
AcDbEntity
  8
0
  6
Continuous
 62
     7
370
    15
100
AcDbSpline
210
0.0
220
0.0
230
1.0
 70
    24
 71
     3
 72
    13
 73
     9
 74
     0
 42
0.000000001
 43
0.00000001
 40
0.0
 40
0.0
 40
0.0
 40
0.0
 40
0.297448327384706
 40
0.5450427487441095
 40
0.7318519317155582
 40
0.8168457291450689
 40
0.960997540945994
 40
0.9999999999999999
 40
0.9999999999999999
 40
0.9999999999999999
 40
0.9999999999999999
 10
142.7889648452975
 20
135.6189700442825
 30
0.0
 10
142.7758420230752
 20
135.6189700442825
 30
0.0
 10
142.7517958327394
 20
135.6189700442825
 30
0.0
 10
142.5818467330899
 20
135.6189700442825
 30
0.0
 10
142.4000500695952
 20
135.6189700442825
 30
0.0
 10
142.2242994719178
 20
135.6189700442825
 30
0.0
 10
142.09643060403
 20
135.6189700442825
 30
0.0
 10
142.0078318042093
 20
135.6189700442825
 30
0.0
 10
141.9889648072995
 20
135.6189700442825
 30
0.0
  0
SPLINE
  5
AE
330
1F
100
AcDbEntity
  8
0
  6
Continuous
 62
     7
370
    15
100
AcDbSpline
210
0.0
220
0.0
230
1.0
 70
     8
 71
     3
 72
    10
 73
     6
 74
     0
 42
0.000000001
 43
0.00000001
 40
0.0
 40
0.0
 40
0.0
 40
0.0
 40
0.0672463414092257
 40
0.5804907559351886
 40
1.0
 40
1.0
 40
1.0
 40
1.0
 10
150.2237055078723
 20
141.4689684886013
 30
0.0
 10
150.2567308238224
 20
141.4495188885805
 30
0.0
 10
150.5418153387438
 20
141.2816240591798
 30
0.0
 10
151.0941967206552
 20
141.0898955020238
 30
0.0
 10
151.6010194530181
 20
141.1153721602278
 30
0.0
 10
151.828964762447
 20
141.1268303770099
 30
0.0
  0
SPLINE
  5
AF
330
1F
100
AcDbEntity
  8
0
  6
Continuous
 62
     7
370
    15
100
AcDbSpline
210
0.0
220
0.0
230
1.0
 70
     8
 71
     3
 72
    10
 73
     6
 74
     0
 42
0.000000001
 43
0.00000001
 40
0.0
 40
0.0
 40
0.0
 40
0.0
 40
0.4929173076844027
 40
0.9873466773916462
 40
0.9999999999999999
 40
0.9999999999999999
 40
0.9999999999999999
 40
0.9999999999999999
 10
151.828964762447
 20
93.4111087250982
 30
0.0
 10
151.5597991993902
 20
93.42143352019482
 30
0.0
 10
151.0206423870622
 20
93.44211478249682
 30
0.0
 10
150.4772818988249
 20
93.22238800600154
 30
0.0
 10
150.2298789955438
 20
93.07270384574426
 30
0.0
 10
150.2237055078723
 20
93.06896875086171
 30
0.0
  0
SPLINE
  5
B0
330
1F
100
AcDbEntity
  8
0
  6
Continuous
 62
     7
370
    15
100
AcDbSpline
210
0.0
220
0.0
230
1.0
 70
     8
 71
     3
 72
    11
 73
     7
 74
     0
 42
0.000000001
 43
0.00000001
 40
0.0
 40
0.0
 40
0.0
 40
0.0
 40
0.2577222716060329
 40
0.5423933607431963
 40
0.8649890857213071
 40
1.0
 40
1.0
 40
1.0
 40
1.0
 10
150.2237055078723
 20
93.06896875086171
 30
0.0
 10
150.0100028223129
 20
92.91090415982536
 30
0.0
 10
149.5602515567429
 20
92.5782468996963
 30
0.0
 10
149.0775122323303
 20
91.80670211319978
 30
0.0
 10
148.8525642197557
 20
91.06223587315024
 30
0.0
 10
148.8343412018652
 20
90.59033925173271
 30
0.0
 10
148.82896473637
 20
90.45111226322992
 30
0.0
  0
SPLINE
  5
B1
330
1F
100
AcDbEntity
  8
0
  6
Continuous
 62
     7
370
    15
100
AcDbSpline
210
0.0
220
0.0
230
1.0
 70
    24
 71
     3
 72
     9
 73
     5
 74
     0
 42
0.000000001
 43
0.00000001
 40
0.0
 40
0.0
 40
0.0
 40
0.0
 40
0.5147775913060906
 40
1.0
 40
1.0
 40
1.0
 40
1.0
 10
148.82896473637
 20
135.6189700442825
 30
0.0
 10
148.864968003958
 20
135.6189700442825
 30
0.0
 10
148.9349074655742
 20
135.6189700442825
 30
0.0
 10
149.4082180342148
 20
135.6189700442825
 30
0.0
 10
149.6378789283909
 20
135.6189700442825
 30
0.0
  0
SPLINE
  5
B2
330
1F
100
AcDbEntity
  8
0
  6
Continuous
 62
     7
370
    15
100
AcDbSpline
210
0.0
220
0.0
230
1.0
 70
     8
 71
     3
 72
     9
 73
     5
 74
     0
 42
0.000000001
 43
0.00000001
 40
0.0
 40
0.0
 40
0.0
 40
0.0
 40
0.5165922701434406
 40
0.9999999999999999
 40
0.9999999999999999
 40
0.9999999999999999
 40
0.9999999999999999
 10
149.6378789283909
 20
135.6189700442825
 30
0.0
 10
149.3955115102575
 20
136.0716830331521
 30
0.0
 10
148.9263457248962
 20
136.948027909052
 30
0.0
 10
148.860698912785
 20
137.9389068859548
 30
0.0
 10
148.82896473637
 20
138.4179054427419
 30
0.0
  0
LINE
  5
B3
330
1F
100
AcDbEntity
  8
0
  6
Continuous
 62
     7
370
    15
100
AcDbLine
 10
148.855744917
 20
143.6689684767
 30
0.0
 11
148.8574036025
 21
143.6562913138
 31
0.0
  0
SPLINE
  5
B4
330
1F
100
AcDbEntity
  8
0
  6
Continuous
 62
     7
370
    15
100
AcDbSpline
210
0.0
220
0.0
230
1.0
 70
     8
 71
     3
 72
    10
 73
     6
 74
     0
 42
0.000000001
 43
0.00000001
 40
0.0
 40
0.0
 40
0.0
 40
0.0
 40
0.2469439487745615
 40
0.6554787850795392
 40
1.0
 40
1.0
 40
1.0
 40
1.0
 10
148.8574036025085
 20
143.6562913137947
 30
0.0
 10
148.8995650068001
 20
143.4414995489672
 30
0.0
 10
149.0114766620542
 20
142.8713643188762
 30
0.0
 10
149.4502479383162
 20
142.060374217672
 30
0.0
 10
149.9809230179537
 20
141.6546062806501
 30
0.0
 10
150.2237055078723
 20
141.4689684886013
 30
0.0
  0
LINE
  5
B5
330
1F
100
AcDbEntity
  8
0
  6
Continuous
 62
     7
370
    15
100
AcDbLine
 10
141.9889648073
 20
90.4511122632
 30
0.0
 11
139.7689646669
 21
90.4511122632
 31
0.0
  0
LINE
  5
B6
330
1F
100
AcDbEntity
  8
0
  6
Continuous
 62
     7
370
    15
100
AcDbLine
 10
141.9889648073
 20
135.6189700443
 30
0.0
 11
139.7689646669
 21
135.6189700443
 31
0.0
  0
SPLINE
  5
B7
330
1F
100
AcDbEntity
  8
0
  6
Continuous
 62
     7
370
    15
100
AcDbSpline
210
0.0
220
0.0
230
1.0
 70
     8
 71
     3
 72
    13
 73
     9
 74
     0
 42
0.000000001
 43
0.00000001
 40
0.0
 40
0.0
 40
0.0
 40
0.0
 40
0.0981903382171274
 40
0.3257849213701693
 40
0.5513276683094769
 40
0.6976294440780522
 40
0.9007459855668957
 40
1.0
 40
1.0
 40
1.0
 40
1.0
 10
142.7889648452975
 20
89.61688938024385
 30
0.0
 10
142.7871196168073
 20
89.65875524318801
 30
0.0
 10
142.7809973482676
 20
89.79766164798312
 30
0.0
 10
142.7045263795434
 20
90.02590846792259
 30
0.0
 10
142.5457855285586
 20
90.2327227207431
 30
0.0
 10
142.344705973007
 20
90.37561503513383
 30
0.0
 10
142.1602424982854
 20
90.44256146750867
 30
0.0
 10
142.0312928909578
 20
90.44899909370649
 30
0.0
 10
141.9889648072995
 20
90.45111226322992
 30
0.0
  0
LINE
  5
B8
330
1F
100
AcDbEntity
  8
0
  6
Continuous
 62
     7
370
    15
100
AcDbLine
 10
229.778967388
 20
117.2689690854
 30
0.0
 11
229.778967388
 21
92.7689692605
 31
0.0
  0
LINE
  5
B9
330
1F
100
AcDbEntity
  8
0
  6
Continuous
 62
     7
370
    15
100
AcDbLine
 10
229.778967388
 20
141.7689698416
 30
0.0
 11
229.778967388
 21
117.2689690854
 31
0.0
  0
LINE
  5
BA
330
1F
100
AcDbEntity
  8
0
  6
Continuous
 62
     7
370
    15
100
AcDbLine
 10
229.2789663748
 20
117.2689690854
 30
0.0
 11
229.2789663748
 21
92.2689701098
 31
0.0
  0
LINE
  5
BB
330
1F
100
AcDbEntity
  8
0
  6
Continuous
 62
     7
370
    15
100
AcDbLine
 10
229.2789663748
 20
142.2689689923
 30
0.0
 11
229.2789663748
 21
117.2689690854
 31
0.0
  0
SPLINE
  5
BC
330
1F
100
AcDbEntity
  8
0
  6
Continuous
 62
     7
370
    15
100
AcDbSpline
210
0.0
220
0.0
230
1.0
 70
     8
 71
     3
 72
    23
 73
    19
 74
     0
 42
0.000000001
 43
0.00000001
 40
0.0
 40
0.0
 40
0.0
 40
0.0
 40
0.0521421365185155
 40
0.1381329758386768
 40
0.2291164488381376
 40
0.3313381629771485
 40
0.3878768149352625
 40
0.4458750471285952
 40
0.5057315854591632
 40
0.5672819970251219
 40
0.627828437426681
 40
0.6901784837554584
 40
0.7497406608406553
 40
0.811308093169229
 40
0.8662114702680312
 40
0.9232403485661734
 40
0.9706132704443861
 40
1.0
 40
1.0
 40
1.0
 40
1.0
 10
222.8945787624099
 20
142.2501078474794
 30
0.0
 10
222.9057297791202
 20
142.25254737618
 30
0.0
 10
222.9352706308128
 20
142.2590100833408
 30
0.0
 10
222.2669312091414
 20
142.111618994589
 30
0.0
 10
221.0374306659185
 20
141.8752474948001
 30
0.0
 10
219.5384203927088
 20
141.6547511898121
 30
0.0
 10
218.0951586728551
 20
141.516232137535
 30
0.0
 10
216.8717759064828
 20
141.4450428654174
 30
0.0
 10
215.5831331796576
 20
141.4232961488139
 30
0.0
 10
214.2795683452155
 20
141.4575364405397
 30
0.0
 10
212.9994846201294
 20
141.5454059808817
 30
0.0
 10
211.8103570416658
 20
141.6746919442778
 30
0.0
 10
210.7301819509753
 20
141.8306002596801
 30
0.0
 10
209.8420369429231
 20
141.9858816405132
 30
0.0
 10
209.1454994831847
 20
142.123848730744
 30
0.0
 10
208.710443719907
 20
142.2172007173228
 30
0.0
 10
208.4938875598394
 20
142.2656023152541
 30
0.0
 10
208.5003209840951
 20
142.2641724674602
 30
0.0
 10
208.5027839616515
 20
142.2636250633274
 30
0.0
  0
SPLINE
  5
BD
330
1F
100
AcDbEntity
  8
0
  6
Continuous
 62
     7
370
    15
100
AcDbSpline
210
0.0
220
0.0
230
1.0
 70
     8
 71
     3
 72
    13
 73
     9
 74
     0
 42
0.000000001
 43
0.00000001
 40
0.0
 40
0.0
 40
0.0
 40
0.0
 40
0.1708599439262366
 40
0.3457094844398801
 40
0.5349507369185617
 40
0.7300349407154613
 40
0.913020958332196
 40
1.0
 40
1.0
 40
1.0
 40
1.0
 10
153.8730203733422
 20
93.06896875086171
 30
0.0
 10
154.1791576954859
 20
93.00169549697307
 30
0.0
 10
154.7985806765201
 20
92.86557815206467
 30
0.0
 10
155.5797756642622
 20
92.65927082890448
 30
0.0
 10
156.2312721595579
 20
92.4719781320894
 30
0.0
 10
156.664719919386
 20
92.337733417446
 30
0.0
 10
156.8760472193037
 20
92.269920887824
 30
0.0
 10
156.8564326644335
 20
92.27621601602661
 30
0.0
 10
156.8501131237127
 20
92.27824422004564
 30
0.0
  0
SPLINE
  5
BE
330
1F
100
AcDbEntity
  8
0
  6
Continuous
 62
     7
370
    15
100
AcDbSpline
210
0.0
220
0.0
230
1.0
 70
     8
 71
     3
 72
     9
 73
     5
 74
     0
 42
0.000000001
 43
0.00000001
 40
0.0
 40
0.0
 40
0.0
 40
0.0
 40
0.9103521883595357
 40
1.0
 40
1.0
 40
1.0
 40
1.0
 10
151.828964762447
 20
93.4111087250982
 30
0.0
 10
152.4822816833372
 20
93.31451974045154
 30
0.0
 10
153.1999346194689
 20
93.2084190621847
 30
0.0
 10
153.8176440726361
 20
93.08044164614873
 30
0.0
 10
153.8730203733422
 20
93.06896875086171
 30
0.0
  0
SPLINE
  5
BF
330
1F
100
AcDbEntity
  8
0
  6
Continuous
 62
     7
370
    15
100
AcDbSpline
210
0.0
220
0.0
230
1.0
 70
     8
 71
     3
 72
     9
 73
     5
 74
     0
 42
0.000000001
 43
0.00000001
 40
0.0
 40
0.0
 40
0.0
 40
0.0
 40
0.6067794031514996
 40
1.0
 40
1.0
 40
1.0
 40
1.0
 10
153.8730203733422
 20
141.4689684886013
 30
0.0
 10
153.4848284721046
 20
141.3918643861613
 30
0.0
 10
152.8450705976261
 20
141.264793325345
 30
0.0
 10
152.1157490260979
 20
141.1657688430433
 30
0.0
 10
151.828964762447
 20
141.1268303770099
 30
0.0
  0
SPLINE
  5
C0
330
1F
100
AcDbEntity
  8
0
  6
Continuous
 62
     7
370
    15
100
AcDbSpline
210
0.0
220
0.0
230
1.0
 70
     8
 71
     3
 72
    13
 73
     9
 74
     0
 42
0.000000001
 43
0.00000001
 40
0.0
 40
0.0
 40
0.0
 40
0.0
 40
0.1017247009672222
 40
0.2782414061204769
 40
0.4597661087808871
 40
0.6386993453935542
 40
0.8224024165460074
 40
1.0
 40
1.0
 40
1.0
 40
1.0
 10
156.8501131237127
 20
142.2596948820625
 30
0.0
 10
156.8548890939795
 20
142.2612235063687
 30
0.0
 10
156.8679525158424
 20
142.2654046597401
 30
0.0
 10
156.6518605882825
 20
142.1961860735451
 30
0.0
 10
156.2387157168009
 20
142.0684537467555
 30
0.0
 10
155.6161107473835
 20
141.8888485655689
 30
0.0
 10
154.8372123913763
 20
141.6812985922803
 30
0.0
 10
154.1907764176091
 20
141.5389433199231
 30
0.0
 10
153.8730203733422
 20
141.4689684886013
 30
0.0
  0
SPLINE
  5
C1
330
1F
100
AcDbEntity
  8
0
  6
Continuous
 62
     7
370
    15
100
AcDbSpline
210
0.0
220
0.0
230
1.0
 70
    11
 71
     3
 72
    38
 73
    34
 74
     0
 42
0.000000001
 43
0.00000001
 40
0.0
 40
0.0
 40
0.0
 40
0.0
 40
0.0292113609816593
 40
0.058432615170237
 40
0.0877925080145154
 40
0.1171541968853663
 40
0.1477459532067962
 40
0.1783364423698344
 40
0.2090149149384432
 40
0.2396826246641331
 40
0.2694042675280948
 40
0.2990988696090226
 40
0.3256838041069694
 40
0.3522488004367545
 40
0.3978817952457559
 40
0.4408700744812145
 40
0.4863542560144311
 40
0.5374566248275309
 40
0.566083386705093
 40
0.5947136367560468
 40
0.6250591173681622
 40
0.6554043325348446
 40
0.6861250404964214
 40
0.716839735712501
 40
0.7471263443087776
 40
0.7773913958336819
 40
0.8053805533393069
 40
0.8333431073704147
 40
0.8574490736842793
 40
0.8815496252827167
 40
0.9248451408272552
 40
0.9689175228959699
 40
1.0
 40
1.0
 40
1.0
 40
1.0
 10
210.8792360500075
 20
122.0259091484819
 30
0.0
 10
211.2179358522993
 20
122.2688347043487
 30
0.0
 10
211.8954501666092
 20
122.7547680893043
 30
0.0
 10
213.0519029657276
 20
123.2587248890859
 30
0.0
 10
214.2716370280423
 20
123.5834082777836
 30
0.0
 10
215.5507689777571
 20
123.7150786824175
 30
0.0
 10
216.8523554111755
 20
123.6390937735365
 30
0.0
 10
218.1419994113035
 20
123.3524575395932
 30
0.0
 10
219.3626202517723
 20
122.8531641291444
 30
0.0
 10
220.468406123901
 20
122.162190986777
 30
0.0
 10
221.4176823697218
 20
121.2908231759293
 30
0.0
 10
222.1562611425231
 20
120.3036739399598
 30
0.0
 10
222.6662967577407
 20
119.2283550823928
 30
0.0
 10
223.0238419829591
 20
117.851792564077
 30
0.0
 10
222.9800573226344
 20
116.1614322995337
 30
0.0
 10
222.2861948227695
 20
114.3405482368129
 30
0.0
 10
221.0312586852266
 20
112.7631859876902
 30
0.0
 10
219.5351773201906
 20
111.7423928826134
 30
0.0
 10
218.0896133354108
 20
111.1758423088711
 30
0.0
 10
216.8607737354333
 20
110.9007872941448
 30
0.0
 10
215.5769107425624
 20
110.8231359287046
 30
0.0
 10
214.2670980379184
 20
110.9515192163945
 30
0.0
 10
212.9937026811969
 20
111.2955953158326
 30
0.0
 10
211.7979600587701
 20
111.8431739905664
 30
0.0
 10
210.7255987453262
 20
112.5883569354207
 30
0.0
 10
209.8311813053148
 20
113.4864980281042
 30
0.0
 10
209.1453983836757
 20
114.5144003774977
 30
0.0
 10
208.6991697997318
 20
115.5764877924523
 30
0.0
 10
208.482833048374
 20
116.6520622662314
 30
0.0
 10
208.4562871917164
 20
117.9711239021693
 30
0.0
 10
208.8513572474295
 20
119.5468149882335
 30
0.0
 10
209.748846262328
 20
121.0160129364093
 30
0.0
 10
210.5485113168248
 20
121.7304379234936
 30
0.0
 10
210.8792360500075
 20
122.0259091484819
 30
0.0
  0
LINE
  5
C2
330
1F
100
AcDbEntity
  8
0
  6
Continuous
 62
     7
370
    15
100
AcDbLine
 10
129.7789640353
 20
95.0439686555
 30
0.0
 11
129.7789640353
 21
139.493968584
 31
0.0
  0
SPLINE
  5
C3
330
1F
100
AcDbEntity
  8
0
  6
Continuous
 62
     7
370
    15
100
AcDbSpline
210
0.0
220
0.0
230
1.0
 70
     8
 71
     3
 72
    13
 73
     9
 74
     0
 42
0.000000001
 43
0.00000001
 40
0.0
 40
0.0
 40
0.0
 40
0.0
 40
0.2778216074855544
 40
0.5181533609110525
 40
0.7148653309847609
 40
0.8289582380650953
 40
0.9882576995081614
 40
1.0
 40
1.0
 40
1.0
 40
1.0
 10
132.9789651185848
 20
142.4403807747636
 30
0.0
 10
132.9878214368061
 20
142.5381309012976
 30
0.0
 10
133.0043389823391
 20
142.7204405389511
 30
0.0
 10
133.125891496183
 20
142.9465438441332
 30
0.0
 10
133.267550983392
 20
143.0823330371383
 30
0.0
 10
133.4148506013125
 20
143.158245094633
 30
0.0
 10
133.5149838302847
 20
143.1786848712697
 30
0.0
 10
133.5748547900334
 20
143.179165946588
 30
0.0
 10
133.5789650306679
 20
143.1791989732061
 30
0.0
  0
LINE
  5
C4
330
1F
100
AcDbEntity
  8
0
  6
Continuous
 62
     7
370
    15
100
AcDbLine
 10
133.5789650307
 20
143.1791989732
 30
0.0
 11
137.3571283743
 21
143.1791989732
 31
0.0
  0
SPLINE
  5
C5
330
1F
100
AcDbEntity
  8
0
  6
Continuous
 62
     7
370
    15
100
AcDbSpline
210
0.0
220
0.0
230
1.0
 70
     8
 71
     3
 72
     9
 73
     5
 74
     0
 42
0.000000001
 43
0.00000001
 40
0.0
 40
0.0
 40
0.0
 40
0.0
 40
0.0816859580138157
 40
1.0
 40
1.0
 40
1.0
 40
1.0
 10
137.3571283743359
 20
143.1791989732061
 30
0.0
 10
137.401902816183
 20
143.0840899699519
 30
0.0
 10
137.9500318084324
 20
141.9197649676291
 30
0.0
 10
138.481192399555
 20
140.7475601470903
 30
0.0
 10
138.9689646289326
 20
139.6711080003057
 30
0.0
  0
LINE
  5
C6
330
1F
100
AcDbEntity
  8
0
  6
Continuous
 62
     7
370
    15
100
AcDbLine
 10
138.9689646289
 20
139.6711080003
 30
0.0
 11
138.9689646289
 21
139.4662095833
 31
0.0
  0
SPLINE
  5
C7
330
1F
100
AcDbEntity
  8
0
  6
Continuous
 62
     7
370
    15
100
AcDbSpline
210
0.0
220
0.0
230
1.0
 70
     8
 71
     3
 72
    12
 73
     8
 74
     0
 42
0.000000001
 43
0.00000001
 40
0.0
 40
0.0
 40
0.0
 40
0.0
 40
0.2843014991913757
 40
0.5352437546146043
 40
0.7267875561767237
 40
0.883351999482822
 40
1.0
 40
1.0
 40
1.0
 40
1.0
 10
138.9689646289326
 20
139.4662095833097
 30
0.0
 10
138.9809749483623
 20
139.3281668637127
 30
0.0
 10
139.003586325664
 20
139.0682790201928
 30
0.0
 10
139.1677143352401
 20
138.7468918508105
 30
0.0
 10
139.3740300316429
 20
138.5390011060391
 30
0.0
 10
139.5798887509931
 20
138.4337920831994
 30
0.0
 10
139.7123923014592
 20
138.4226587971055
 30
0.0
 10
139.7689646669306
 20
138.4179054427419
 30
0.0
  0
LINE
  5
C8
330
1F
100
AcDbEntity
  8
0
  6
Continuous
 62
     7
370
    15
100
AcDbLine
 10
139.7689646669
 20
138.4179054427
 30
0.0
 11
141.9889648073
 21
138.4179054427
 31
0.0
  0
SPLINE
  5
C9
330
1F
100
AcDbEntity
  8
0
  6
Continuous
 62
     7
370
    15
100
AcDbSpline
210
0.0
220
0.0
230
1.0
 70
     8
 71
     3
 72
    13
 73
     9
 74
     0
 42
0.000000001
 43
0.00000001
 40
0.0
 40
0.0
 40
0.0
 40
0.0
 40
0.0169923751325408
 40
0.1601714940098783
 40
0.3043863106798165
 40
0.5097508700172808
 40
0.7753347231078926
 40
1.0
 40
1.0
 40
1.0
 40
1.0
 10
141.9889648072995
 20
138.4179054427419
 30
0.0
 10
141.9971851509803
 20
138.4180121637129
 30
0.0
 10
142.0746707713459
 20
138.4190181241638
 30
0.0
 10
142.2217134850279
 20
138.4517874604703
 30
0.0
 10
142.4298048524338
 20
138.5746225753938
 30
0.0
 10
142.6282949372697
 20
138.8030039838724
 30
0.0
 10
142.7645772381676
 20
139.1196388463405
 30
0.0
 10
142.7813009229372
 20
139.3572980690989
 30
0.0
 10
142.7889648452975
 20
139.4662095833097
 30
0.0
  0
LINE
  5
CA
330
1F
100
AcDbEntity
  8
0
  6
Continuous
 62
     7
370
    15
100
AcDbLine
 10
142.7889648453
 20
139.4662095833
 30
0.0
 11
142.7889648453
 21
139.6711080003
 31
0.0
  0
SPLINE
  5
CB
330
1F
100
AcDbEntity
  8
0
  6
Continuous
 62
     7
370
    15
100
AcDbSpline
210
0.0
220
0.0
230
1.0
 70
     8
 71
     3
 72
     9
 73
     5
 74
     0
 42
0.000000001
 43
0.00000001
 40
0.0
 40
0.0
 40
0.0
 40
0.0
 40
0.9183140706882641
 40
1.0
 40
1.0
 40
1.0
 40
1.0
 10
142.7889648452975
 20
139.6711080003057
 30
0.0
 10
143.2767376698943
 20
140.7475599592791
 30
0.0
 10
143.8078988925806
 20
141.9197645386629
 30
0.0
 10
144.3560270881067
 20
143.0840899684524
 30
0.0
 10
144.4008014491402
 20
143.1791989732061
 30
0.0
  0
LINE
  5
CC
330
1F
100
AcDbEntity
  8
0
  6
Continuous
 62
     7
370
    15
100
AcDbLine
 10
144.4008014491
 20
143.1791989732
 30
0.0
 11
148.2289648243
 21
143.1791989732
 31
0.0
  0
SPLINE
  5
CD
330
1F
100
AcDbEntity
  8
0
  6
Continuous
 62
     7
370
    15
100
AcDbSpline
210
0.0
220
0.0
230
1.0
 70
     8
 71
     3
 72
    13
 73
     9
 74
     0
 42
0.000000001
 43
0.00000001
 40
0.0
 40
0.0
 40
0.0
 40
0.0
 40
0.1382193195525717
 40
0.1682713143596672
 40
0.3569090584190503
 40
0.5445760490161672
 40
0.7584542910880286
 40
1.0
 40
1.0
 40
1.0
 40
1.0
 10
148.2289648242869
 20
143.1791989732061
 30
0.0
 10
148.2776067865825
 20
143.1752890571719
 30
0.0
 10
148.3368246076152
 20
143.170529037283
 30
0.0
 10
148.4553059503977
 20
143.1300686238539
 30
0.0
 10
148.5801336000624
 20
143.0546573305117
 30
0.0
 10
148.7142449763614
 20
142.894254222511
 30
0.0
 10
148.8096445155457
 20
142.685410049399
 30
0.0
 10
148.8222690124327
 20
142.525299492538
 30
0.0
 10
148.82896473637
 20
142.4403807747636
 30
0.0
  0
LINE
  5
CE
330
1F
100
AcDbEntity
  8
0
  6
Continuous
 62
     7
370
    15
100
AcDbLine
 10
148.8289647364
 20
142.4403807748
 30
0.0
 11
148.8289647364
 21
138.4179054427
 31
0.0
  0
LINE
  5
CF
330
1F
100
AcDbEntity
  8
0
  6
Continuous
 62
     7
370
    15
100
AcDbLine
 10
132.9789651186
 20
142.4403807748
 30
0.0
 11
132.9789651186
 21
135.6189700443
 31
0.0
  0
LINE
  5
D0
330
1F
100
AcDbEntity
  8
0
  6
Continuous
 62
     7
370
    15
100
AcDbLine
 10
148.2289648243
 20
147.7653051394
 30
0.0
 11
144.4008014491
 21
147.7653051394
 31
0.0
  0
LINE
  5
D1
330
1F
100
AcDbEntity
  8
0
  6
Continuous
 62
     7
370
    15
100
AcDbLine
 10
144.4008014491
 20
143.1791989732
 30
0.0
 11
144.4008014491
 21
147.7653051394
 31
0.0
  0
LINE
  5
D2
330
1F
100
AcDbEntity
  8
0
  6
Continuous
 62
     7
370
    15
100
AcDbLine
 10
137.9150101543
 20
146.9815077859
 30
0.0
 11
137.3571283743
 21
147.7653051394
 31
0.0
  0
LINE
  5
D3
330
1F
100
AcDbEntity
  8
0
  6
Continuous
 62
     7
370
    15
100
AcDbLine
 10
138.9689646289
 20
145.08579696
 30
0.0
 11
137.9150101543
 21
146.9815077859
 31
0.0
  0
LINE
  5
D4
330
1F
100
AcDbEntity
  8
0
  6
Continuous
 62
     7
370
    15
100
AcDbLine
 10
138.9689646289
 20
139.6711080003
 30
0.0
 11
138.9689646289
 21
145.08579696
 31
0.0
  0
LINE
  5
D5
330
1F
100
AcDbEntity
  8
0
  6
Continuous
 62
     7
370
    15
100
AcDbLine
 10
137.3571283743
 20
143.1791989732
 30
0.0
 11
137.3571283743
 21
147.7653051394
 31
0.0
  0
LINE
  5
D6
330
1F
100
AcDbEntity
  8
0
  6
Continuous
 62
     7
370
    15
100
AcDbLine
 10
143.8429194363
 20
146.9815077859
 30
0.0
 11
142.7889648453
 21
145.08579696
 31
0.0
  0
LINE
  5
D7
330
1F
100
AcDbEntity
  8
0
  6
Continuous
 62
     7
370
    15
100
AcDbLine
 10
144.4008014491
 20
147.7653051394
 30
0.0
 11
143.8429194363
 21
146.9815077859
 31
0.0
  0
LINE
  5
D8
330
1F
100
AcDbEntity
  8
0
  6
Continuous
 62
     7
370
    15
100
AcDbLine
 10
142.7889648453
 20
139.6711080003
 30
0.0
 11
142.7889648453
 21
145.08579696
 31
0.0
  0
SPLINE
  5
D9
330
1F
100
AcDbEntity
  8
0
  6
Continuous
 62
     7
370
    15
100
AcDbSpline
210
0.0
220
0.0
230
1.0
 70
     8
 71
     3
 72
    12
 73
     8
 74
     0
 42
0.000000001
 43
0.00000001
 40
0.0
 40
0.0
 40
0.0
 40
0.0
 40
0.2567711878508657
 40
0.5142487724969567
 40
0.7493626870980821
 40
0.9521183943480432
 40
1.0
 40
1.0
 40
1.0
 40
1.0
 10
148.82896473637
 20
147.2795198339496
 30
0.0
 10
148.8207789539203
 20
147.3407235617349
 30
0.0
 10
148.8043848693194
 20
147.4632993933507
 30
0.0
 10
148.6745907244411
 20
147.62241288845
 30
0.0
 10
148.4899674250303
 20
147.7287847295044
 30
0.0
 10
148.3291156628275
 20
147.7632825847876
 30
0.0
 10
148.2450287407044
 20
147.7649807272978
 30
0.0
 10
148.2289648242869
 20
147.7653051394497
 30
0.0
  0
LINE
  5
DA
330
1F
100
AcDbEntity
  8
0
  6
Continuous
 62
     7
370
    15
100
AcDbLine
 10
148.8289647364
 20
142.4403807748
 30
0.0
 11
148.8289647364
 21
147.2795198339
 31
0.0
  0
LINE
  5
DB
330
1F
100
AcDbEntity
  8
0
  6
Continuous
 62
     7
370
    15
100
AcDbLine
 10
141.9889648073
 20
144.0868268389
 30
0.0
 11
139.7689646669
 21
144.0868268389
 31
0.0
  0
SPLINE
  5
DC
330
1F
100
AcDbEntity
  8
0
  6
Continuous
 62
     7
370
    15
100
AcDbSpline
210
0.0
220
0.0
230
1.0
 70
     8
 71
     3
 72
    12
 73
     8
 74
     0
 42
0.000000001
 43
0.00000001
 40
0.0
 40
0.0
 40
0.0
 40
0.0
 40
0.1356345474410524
 40
0.3634934657084627
 40
0.588281344481851
 40
0.8050121084221383
 40
1.0
 40
1.0
 40
1.0
 40
1.0
 10
142.7889648452975
 20
144.9210497218643
 30
0.0
 10
142.7855108559055
 20
144.863229620377
 30
0.0
 10
142.7762543456851
 20
144.7082747842107
 30
0.0
 10
142.6804741031187
 20
144.4692678301666
 30
0.0
 10
142.4910411791511
 20
144.2509717841668
 30
0.0
 10
142.2484051963889
 20
144.1117266340872
 30
0.0
 10
142.0723457015734
 20
144.0948293214487
 30
0.0
 10
141.9889648072995
 20
144.0868268388782
 30
0.0
  0
LINE
  5
DD
330
1F
100
AcDbEntity
  8
0
  6
Continuous
 62
     7
370
    15
100
AcDbLine
 10
137.3571283743
 20
147.7653051394
 30
0.0
 11
133.5789650307
 21
147.7653051394
 31
0.0
  0
SPLINE
  5
DE
330
1F
100
AcDbEntity
  8
0
  6
Continuous
 62
     7
370
    15
100
AcDbSpline
210
0.0
220
0.0
230
1.0
 70
     8
 71
     3
 72
    11
 73
     7
 74
     0
 42
0.000000001
 43
0.00000001
 40
0.0
 40
0.0
 40
0.0
 40
0.0
 40
0.4730470549747465
 40
0.7586498077082992
 40
0.9858667635492432
 40
1.0
 40
1.0
 40
1.0
 40
1.0
 10
133.2662064210154
 20
147.6942675787483
 30
0.0
 10
133.1979407766471
 20
147.6191991026849
 30
0.0
 10
133.0884596638732
 20
147.4988079400478
 30
0.0
 10
132.9998659647906
 20
147.2746886870598
 30
0.0
 10
132.9793104450881
 20
147.1406257889737
 30
0.0
 10
132.9789842219026
 20
147.0789554777214
 30
0.0
 10
132.9789651185848
 20
147.0753441232715
 30
0.0
  0
SPLINE
  5
DF
330
1F
100
AcDbEntity
  8
0
  6
Continuous
 62
     7
370
    15
100
AcDbSpline
210
0.0
220
0.0
230
1.0
 70
     8
 71
     3
 72
     9
 73
     5
 74
     0
 42
0.000000001
 43
0.00000001
 40
0.0
 40
0.0
 40
0.0
 40
0.0
 40
0.5527071161400404
 40
0.9999999999999999
 40
0.9999999999999999
 40
0.9999999999999999
 40
0.9999999999999999
 10
133.5789650306679
 20
147.7653051394497
 30
0.0
 10
133.5170170149351
 20
147.7612368968404
 30
0.0
 10
133.4049359254687
 20
147.7538763210664
 30
0.0
 10
133.3090814470833
 20
147.7126899496119
 30
0.0
 10
133.2662064210154
 20
147.6942675787483
 30
0.0
  0
LINE
  5
E0
330
1F
100
AcDbEntity
  8
0
  6
Continuous
 62
     7
370
    15
100
AcDbLine
 10
132.9789651186
 20
142.4403807748
 30
0.0
 11
132.9789651186
 21
147.0753441233
 31
0.0
  0
SPLINE
  5
E1
330
1F
100
AcDbEntity
  8
0
  6
Continuous
 62
     7
370
    15
100
AcDbSpline
210
0.0
220
0.0
230
1.0
 70
     8
 71
     3
 72
    12
 73
     8
 74
     0
 42
0.000000001
 43
0.00000001
 40
0.0
 40
0.0
 40
0.0
 40
0.0
 40
0.1783610980655263
 40
0.3801793217446857
 40
0.5865659578232052
 40
0.8009864632231007
 40
1.0
 40
1.0
 40
1.0
 40
1.0
 10
139.7689646669306
 20
144.0868268388782
 30
0.0
 10
139.6927243645557
 20
144.0935131365971
 30
0.0
 10
139.5302170310573
 20
144.1077650791974
 30
0.0
 10
139.3023536091319
 20
144.2264648225832
 30
0.0
 10
139.1140796942016
 20
144.4173959645823
 30
0.0
 10
138.9914054689889
 20
144.659267622381
 30
0.0
 10
138.9762567321286
 20
144.8359841860154
 30
0.0
 10
138.9689646289326
 20
144.9210497218643
 30
0.0
  0
LINE
  5
E2
330
1F
100
AcDbEntity
  8
0
  6
Continuous
 62
     7
370
    15
100
AcDbLine
 10
61.5289654211
 20
105.8618386875
 30
0.0
 11
61.5289654211
 21
128.6760999489
 31
0.0
  0
LINE
  5
E3
330
1F
100
AcDbEntity
  8
0
  6
Continuous
 62
     7
370
    15
100
AcDbLine
 10
212.8497209028
 20
141.5689701814
 30
0.0
 11
218.5885157064
 21
141.5689701814
 31
0.0
  0
LINE
  5
E4
330
1F
100
AcDbEntity
  8
0
  6
Continuous
 62
     7
370
    15
100
AcDbLine
 10
219.398736544
 20
142.2689689923
 30
0.0
 11
221.0289682821
 21
142.2689689923
 31
0.0
  0
LINE
  5
E5
330
1F
100
AcDbEntity
  8
0
  6
Continuous
 62
     7
370
    15
100
AcDbLine
 10
210.4289676622
 20
142.2689689923
 30
0.0
 11
219.398736544
 21
142.2689689923
 31
0.0
  0
SPLINE
  5
E6
330
1F
100
AcDbEntity
  8
0
  6
Continuous
 62
     7
370
    15
100
AcDbSpline
210
0.0
220
0.0
230
1.0
 70
     8
 71
     3
 72
    11
 73
     7
 74
     0
 42
0.000000001
 43
0.00000001
 40
0.0
 40
0.0
 40
0.0
 40
0.0
 40
0.2164555883284395
 40
0.4403116708173596
 40
0.7519010579829218
 40
0.9999999999999999
 40
0.9999999999999999
 40
0.9999999999999999
 40
0.9999999999999999
 10
218.9198132232406
 20
118.6174845922266
 30
0.0
 10
218.730526263404
 20
118.760589907222
 30
0.0
 10
218.345480729615
 20
119.0516932270072
 30
0.0
 10
217.6309384202059
 20
119.5919024864074
 30
0.0
 10
216.8644646508663
 20
120.1713730842051
 30
0.0
 10
216.3739690457329
 20
120.5422009721992
 30
0.0
 10
216.1565418914535
 20
120.7065817567979
 30
0.0
  0
SPLINE
  5
E7
330
1F
100
AcDbEntity
  8
0
  6
Continuous
 62
     7
370
    15
100
AcDbSpline
210
0.0
220
0.0
230
1.0
 70
     8
 71
     3
 72
    11
 73
     7
 74
     0
 42
0.000000001
 43
0.00000001
 40
0.0
 40
0.0
 40
0.0
 40
0.0
 40
0.2164552070846363
 40
0.4403105438123459
 40
0.7519004019268296
 40
0.9999999999999999
 40
0.9999999999999999
 40
0.9999999999999999
 40
0.9999999999999999
 10
216.1565418914534
 20
120.7065817567979
 30
0.0
 10
215.9379655865745
 20
120.6142072510494
 30
0.0
 10
215.4933403314838
 20
120.4263001574371
 30
0.0
 10
214.6682339371804
 20
120.0775923701434
 30
0.0
 10
213.7831579001786
 20
119.7035441625888
 30
0.0
 10
213.2167617407422
 20
119.4641743122277
 30
0.0
 10
212.9656891897895
 20
119.3580662499641
 30
0.0
  0
SPLINE
  5
E8
330
1F
100
AcDbEntity
  8
0
  6
Continuous
 62
     7
370
    15
100
AcDbSpline
210
0.0
220
0.0
230
1.0
 70
     8
 71
     3
 72
    11
 73
     7
 74
     0
 42
0.000000001
 43
0.00000001
 40
0.0
 40
0.0
 40
0.0
 40
0.0
 40
0.1849306140462732
 40
0.5198463210719876
 40
0.8714437716008685
 40
1.0
 40
1.0
 40
1.0
 40
1.0
 10
212.9656891897895
 20
119.3580662499641
 30
0.0
 10
212.940804559473
 20
119.1579803949174
 30
0.0
 10
212.870853007168
 20
118.5955321697764
 30
0.0
 10
212.7402539598934
 20
117.5456172798986
 30
0.0
 10
212.6196592390838
 20
116.5759758993293
 30
0.0
 10
212.5553369140454
 20
116.0588965182414
 30
0.0
 10
212.5381152704932
 20
115.9204538113896
 30
0.0
  0
SPLINE
  5
E9
330
1F
100
AcDbEntity
  8
0
  6
Continuous
 62
     7
370
    15
100
AcDbSpline
210
0.0
220
0.0
230
1.0
 70
     8
 71
     3
 72
    11
 73
     7
 74
     0
 42
0.000000001
 43
0.00000001
 40
0.0
 40
0.0
 40
0.0
 40
0.0
 40
0.2164555557046017
 40
0.4403116416295889
 40
0.7519010722393858
 40
1.0
 40
1.0
 40
1.0
 40
1.0
 10
212.5381152704932
 20
115.9204538113896
 30
0.0
 10
212.727402237138
 20
115.7773485844553
 30
0.0
 10
213.1124478172857
 20
115.4862454192252
 30
0.0
 10
213.8269901320753
 20
114.9460361488794
 30
0.0
 10
214.5934637462232
 20
114.3665652936555
 30
0.0
 10
215.0839594348311
 20
113.9957374916826
 30
0.0
 10
215.3013866022803
 20
113.8313567632337
 30
0.0
  0
SPLINE
  5
EA
330
1F
100
AcDbEntity
  8
0
  6
Continuous
 62
     7
370
    15
100
AcDbSpline
210
0.0
220
0.0
230
1.0
 70
     8
 71
     3
 72
    11
 73
     7
 74
     0
 42
0.000000001
 43
0.00000001
 40
0.0
 40
0.0
 40
0.0
 40
0.0
 40
0.2164552215212464
 40
0.4403124136292363
 40
0.7519003986774487
 40
0.9999999999999999
 40
0.9999999999999999
 40
0.9999999999999999
 40
0.9999999999999999
 10
215.3013866022803
 20
113.8313567632337
 30
0.0
 10
215.5199627499238
 20
113.9237316458193
 30
0.0
 10
215.9645895436518
 20
114.1116402914234
 30
0.0
 10
216.7896989415298
 20
114.4603423134913
 30
0.0
 10
217.6747720256038
 20
114.8343963427216
 30
0.0
 10
218.2411666093777
 20
115.0737646516369
 30
0.0
 10
218.4922393039443
 20
115.1798723864828
 30
0.0
  0
SPLINE
  5
EB
330
1F
100
AcDbEntity
  8
0
  6
Continuous
 62
     7
370
    15
100
AcDbSpline
210
0.0
220
0.0
230
1.0
 70
     8
 71
     3
 72
    11
 73
     7
 74
     0
 42
0.000000001
 43
0.00000001
 40
0.0
 40
0.0
 40
0.0
 40
0.0
 40
0.1285560036999628
 40
0.480153412933087
 40
0.8150691402393279
 40
1.0
 40
1.0
 40
1.0
 40
1.0
 10
218.4922393039443
 20
115.1798723864828
 30
0.0
 10
218.5094580756206
 20
115.3183151374613
 30
0.0
 10
218.573769751069
 20
115.8353953006975
 30
0.0
 10
218.6943740405233
 20
116.8050353384166
 30
0.0
 10
218.8249655566202
 20
117.854951210243
 30
0.0
 10
218.8949255645713
 20
118.4173987998091
 30
0.0
 10
218.9198132232405
 20
118.6174845922266
 30
0.0
  0
CIRCLE
  5
EC
330
1F
100
AcDbEntity
  8
0
  6
Continuous
 62
     7
370
    15
100
AcDbCircle
 10
215.7289648046
 20
117.2689692647
 30
0.0
 40
3.599999999999975
  0
CIRCLE
  5
ED
330
1F
100
AcDbEntity
  8
0
  6
Continuous
 62
     7
370
    15
100
AcDbCircle
 10
215.7289648046
 20
117.2689692647
 30
0.0
 40
6.000000000000012
  0
CIRCLE
  5
EE
330
1F
100
AcDbEntity
  8
0
  6
Continuous
 62
     7
370
    15
100
AcDbCircle
 10
215.7289648046
 20
117.2689692647
 30
0.0
 40
5.299999999999966
  0
ARC
  5
EF
330
1F
100
AcDbEntity
  8
0
  6
Continuous
 62
     7
370
    15
100
AcDbCircle
 10
215.7289648046
 20
117.2689692647
 30
0.0
 40
2.999999999999994
100
AcDbArc
 50
292.9098872211
 51
352.9098872211
  0
ARC
  5
F0
330
1F
100
AcDbEntity
  8
0
  6
Continuous
 62
     7
370
    15
100
AcDbCircle
 10
215.7289648046
 20
117.2689692647
 30
0.0
 40
2.999999999999984
100
AcDbArc
 50
352.9098872211
 51
52.9098872211
  0
ARC
  5
F1
330
1F
100
AcDbEntity
  8
0
  6
Continuous
 62
     7
370
    15
100
AcDbCircle
 10
215.7289648046
 20
117.2689692647
 30
0.0
 40
3.000000000000034
100
AcDbArc
 50
112.9098872211
 51
172.9098872211
  0
ARC
  5
F2
330
1F
100
AcDbEntity
  8
0
  6
Continuous
 62
     7
370
    15
100
AcDbCircle
 10
215.7289648046
 20
117.2689692647
 30
0.0
 40
3.000000000000034
100
AcDbArc
 50
172.9098872211
 51
232.9098872211
  0
ARC
  5
F3
330
1F
100
AcDbEntity
  8
0
  6
Continuous
 62
     7
370
    15
100
AcDbCircle
 10
215.7289648046
 20
117.2689692647
 30
0.0
 40
3.000000000000012
100
AcDbArc
 50
232.9098872211
 51
292.9098872211
  0
ARC
  5
F4
330
1F
100
AcDbEntity
  8
0
  6
Continuous
 62
     7
370
    15
100
AcDbCircle
 10
215.7289648046
 20
117.2689692647
 30
0.0
 40
3.000000000000005
100
AcDbArc
 50
52.9098872211
 51
112.9098872211
  0
ARC
  5
F5
330
1F
100
AcDbEntity
  8
0
  6
Continuous
 62
     7
370
    15
100
AcDbCircle
 10
142.6716012621
 20
108.0400311057
 30
0.0
 40
1.895694484132249
100
AcDbArc
 50
185.5744360017
 51
252.2897502295
  0
ARC
  5
F6
330
1F
100
AcDbEntity
  8
0
  6
Continuous
 62
     7
370
    15
100
AcDbCircle
 10
142.7823114556
 20
108.1616731429
 30
0.0
 40
2.046395404174409
100
AcDbArc
 50
250.3726399333
 51
331.9117381901
  0
ARC
  5
F7
330
1F
100
AcDbEntity
  8
0
  6
Continuous
 62
     7
370
    15
100
AcDbCircle
 10
142.6423124455
 20
107.969471538
 30
0.0
 40
1.75777345176183
100
AcDbArc
 50
161.2892906929
 51
253.0251292474
  0
ARC
  5
F8
330
1F
100
AcDbEntity
  8
0
  6
Continuous
 62
     7
370
    15
100
AcDbCircle
 10
142.7837322243
 20
108.1098071969
 30
0.0
 40
1.935580767964927
100
AcDbArc
 50
250.2329965341
 51
335.3188636281
  0
ARC
  5
F9
330
1F
100
AcDbEntity
  8
0
  6
Continuous
 62
     7
370
    15
100
AcDbCircle
 10
142.6984961798
 20
107.9750624107
 30
0.0
 40
1.401973771375043
100
AcDbArc
 50
87.3111862549
 51
252.0288782636
  0
ARC
  5
FA
330
1F
100
AcDbEntity
  8
0
  6
Continuous
 62
     7
370
    15
100
AcDbCircle
 10
142.7871848471
 20
108.0519090522
 30
0.0
 40
1.503658741261926
100
AcDbArc
 50
249.7171655054
 51
349.3882986864
  0
SPLINE
  5
FB
330
1F
100
AcDbEntity
  8
0
  6
HIDDEN
 62
     7
370
     0
100
AcDbSpline
210
0.0
220
0.0
230
1.0
 70
     8
 71
     3
 72
     9
 73
     5
 74
     0
 42
0.000000001
 43
0.00000001
 40
0.0
 40
0.0
 40
0.0
 40
0.0
 40
0.9333100953496709
 40
1.0
 40
1.0
 40
1.0
 40
1.0
 10
140.8030740544774
 20
109.5224300067399
 30
0.0
 10
140.7884983016541
 20
109.4214603562063
 30
0.0
 10
140.772881034793
 20
109.3132758942181
 30
0.0
 10
140.7799107733829
 20
109.2207927911848
 30
0.0
 10
140.7803795859791
 20
109.2146251018618
 30
0.0
  0
LWPOLYLINE
  5
FC
330
1F
100
AcDbEntity
  8
0
  6
HIDDEN
 62
     7
370
     0
100
AcDbPolyline
 90
       20
 70
   128
 43
0.0
 10
140.8030740545
 20
108.9405615482
 10
140.9956119583
 20
108.3807486709
 10
141.3629083522
 20
107.9043040651
 10
141.8689704128
 20
107.5579167943
 10
142.4642070756
 20
107.3755307722
 10
143.0902882107
 20
107.3750194761
 10
143.6858611974
 20
107.5564322661
 10
144.1925635422
 20
107.9019925225
 10
144.5607409673
 20
108.3778359595
 10
144.754314269
 20
108.9373340498
 10
144.754314269
 20
109.5256579708
 10
144.5607409673
 20
110.0851555954
 10
144.1925635422
 20
110.5609994981
 10
143.6858611974
 20
110.9065592888
 10
143.0902882107
 20
111.0879721952
 10
142.4642070756
 20
111.0874607827
 10
141.8689704128
 20
110.9050749935
 10
141.3629083522
 20
110.5586879555
 10
140.9956119583
 20
110.0822433497
 10
140.8030740545
 20
109.5224300067
  0
LWPOLYLINE
  5
FD
330
1F
100
AcDbEntity
  8
0
  6
HIDDEN
 62
     7
370
     0
100
AcDbPolyline
 90
       21
 70
   128
 43
0.0
 10
133.2291761041
 20
108.3707849163
 10
133.3920206503
 20
107.7344583015
 10
133.6519145966
 20
107.1604204032
 10
133.983418867
 20
106.7048611719
 10
134.3540843204
 20
106.412374195
 10
134.7276256979
 20
106.3115897256
 10
135.0674802065
 20
106.412374195
 10
135.3403791413
 20
106.7048611719
 10
135.5196093768
 20
107.1604204032
 10
135.5876275898
 20
107.7344583015
 10
135.5377738923
 20
108.3707849163
 10
135.3749302775
 20
109.0071108326
 10
135.1150363312
 20
109.5811489637
 10
134.7835311294
 20
110.0367084279
 10
134.4128666074
 20
110.3291954048
 10
134.0393242986
 20
110.4299796413
 10
133.6994707212
 20
110.3291954048
 10
133.4265717865
 20
110.0367084279
 10
133.2473415509
 20
109.5811489637
 10
133.179323338
 20
109.0071108326
 10
133.2291761041
 20
108.3707849163
  0
LWPOLYLINE
  5
FE
330
1F
100
AcDbEntity
  8
0
  6
HIDDEN
 62
     7
370
     0
100
AcDbPolyline
 90
       19
 70
   128
 43
0.0
 10
133.6106923968
 20
108.4029155451
 10
133.7578720973
 20
107.8495478857
 10
133.9966902137
 20
107.3629243899
 10
134.298343733
 20
107.0017393346
 10
134.6264477447
 20
106.8095567304
 10
134.9414275587
 20
106.8095567304
 10
135.2052926645
 20
107.0017393346
 10
135.3862169758
 20
107.3629243899
 10
135.4623786733
 20
107.8495478857
 10
135.4245902598
 20
108.4029155451
 10
135.2774114907
 20
108.9562832046
 10
135.0385924429
 20
109.4429064676
 10
134.7369389237
 20
109.8040915228
 10
134.4088358433
 20
109.996274127
 10
134.0938550979
 20
109.996274127
 10
133.8299899921
 20
109.8040915228
 10
133.6490656809
 20
109.4429064676
 10
133.5729039834
 20
108.9562832046
 10
133.6106923968
 20
108.4029155451
  0
ELLIPSE
  5
FF
330
1F
100
AcDbEntity
  8
0
  6
HIDDEN
 62
     7
370
     0
100
AcDbEllipse
 10
142.7789648046
 20
110.3813792041
 30
0.0
 11
1.383467579512114
 21
-1.091267719176585
 31
0.0
210
0.0
220
0.0
230
1.0
 40
0.8239737799
 41
2.147131942757432
 42
5.288724596347238
  0
ELLIPSE
  5
100
330
1F
100
AcDbEntity
  8
0
  6
HIDDEN
 62
     7
370
     0
100
AcDbEllipse
 10
142.7789648046
 20
110.3813792041
 30
0.0
 11
1.383467579512114
 21
1.753907414218503
 31
0.0
210
0.0
220
0.0
230
1.0
 40
0.5126701559
 41
0.9944607108323525
 42
4.136053364422159
  0
SPLINE
  5
101
330
1F
100
AcDbEntity
  8
0
  6
HIDDEN
 62
     7
370
     0
100
AcDbSpline
210
0.0
220
0.0
230
1.0
 70
     8
 71
     3
 72
    12
 73
     8
 74
     0
 42
0.000000001
 43
0.00000001
 40
0.0
 40
0.0
 40
0.0
 40
0.0
 40
0.2360056954125552
 40
0.4148422115379526
 40
0.5949525610695825
 40
0.7559204152354166
 40
0.9999999999999999
 40
0.9999999999999999
 40
0.9999999999999999
 40
0.9999999999999999
 10
140.8030740544774
 20
108.9405615482007
 30
0.0
 10
140.8355326725755
 20
108.9851318714582
 30
0.0
 10
140.8925872487023
 20
109.0634759615735
 30
0.0
 10
140.9377435900297
 20
109.1945092390699
 30
0.0
 10
140.936479383246
 20
109.3104587990472
 30
0.0
 10
140.8922888527562
 20
109.4256980919397
 30
0.0
 10
140.8366198939262
 20
109.4860576408761
 30
0.0
 10
140.8030740544774
 20
109.5224300067399
 30
0.0
  0
CIRCLE
  5
102
330
1F
100
AcDbEntity
  8
0
  6
HIDDEN
 62
     7
370
     0
100
AcDbCircle
 10
215.7289648046
 20
117.2689692647
 30
0.0
 40
5.5
  0
LWPOLYLINE
  5
103
330
1F
100
AcDbEntity
  8
0
  6
HIDDEN
 62
     7
370
     0
100
AcDbPolyline
 90
       19
 70
   128
 43
0.0
 10
142.7789647692
 20
107.7245727781
 10
143.3432980534
 20
107.8180789615
 10
143.8395643468
 20
108.0873191956
 10
144.2079067324
 20
108.4998191934
 10
144.403897631
 20
109.0058253746
 10
144.403897631
 20
109.5443058427
 10
144.2079067324
 20
110.0503120239
 10
143.8395643468
 20
110.4628120217
 10
143.3432980534
 20
110.7320522557
 10
142.7789647692
 20
110.8255584392
 10
142.2146314849
 20
110.7320522557
 10
141.718365308
 20
110.4628120217
 10
141.3500230387
 20
110.0503120239
 10
141.1540317909
 20
109.5443058427
 10
141.1540317909
 20
109.0058253746
 10
141.3500230387
 20
108.4998191934
 10
141.718365308
 20
108.0873191956
 10
142.2146314849
 20
107.8180789615
 10
142.7789647692
 20
107.7245727781
  0
SPLINE
  5
104
330
1F
100
AcDbEntity
  8
0
  6
HIDDEN
 62
     7
370
     0
100
AcDbSpline
210
0.0
220
0.0
230
1.0
 70
    11
 71
     3
 72
    26
 73
    22
 74
     0
 42
0.000000001
 43
0.00000001
 40
0.0
 40
0.0
 40
0.0
 40
0.0
 40
0.050885237535785
 40
0.101673004639829
 40
0.1549358750325569
 40
0.2101228662410773
 40
0.2627547053965537
 40
0.3126185825025157
 40
0.3632493537205271
 40
0.4170364113975553
 40
0.4721379921477895
 40
0.5240058488939047
 40
0.5731920468026649
 40
0.6243288156248744
 40
0.6789693448655393
 40
0.73346660731209
 40
0.7845862840672024
 40
0.8343205471617731
 40
0.8862263133413366
 40
0.9411054676328579
 40
1.0
 40
1.0
 40
1.0
 40
1.0
 10
142.7789647691526
 20
114.3789097101886
 30
0.0
 10
142.6013854212257
 20
114.3922223190159
 30
0.0
 10
142.2465668777727
 20
114.4188220364311
 30
0.0
 10
141.7692871317604
 20
114.6293246098537
 30
0.0
 10
141.3875169320048
 20
114.9606402758638
 30
0.0
 10
141.1526468350086
 20
115.414053979469
 30
0.0
 10
141.1042572625185
 20
115.9310011578296
 30
0.0
 10
141.2326544744537
 20
116.4406489907307
 30
0.0
 10
141.5154270102943
 20
116.9020711917289
 30
0.0
 10
141.9404947536627
 20
117.2725557082107
 30
0.0
 10
142.4707381921428
 20
117.483686763292
 30
0.0
 10
143.0250798219119
 20
117.491143452551
 30
0.0
 10
143.5335140032717
 20
117.3153982338781
 30
0.0
 10
143.9692600461315
 20
116.9846879859853
 30
0.0
 10
144.2935523607512
 20
116.5220178645167
 30
0.0
 10
144.4496709150559
 20
115.9900343938246
 30
0.0
 10
144.4180001211925
 20
115.4779522711529
 30
0.0
 10
144.2208915114393
 20
115.035583452687
 30
0.0
 10
143.8743945853086
 20
114.6846895678925
 30
0.0
 10
143.3823554785254
 20
114.4312748618996
 30
0.0
 10
142.9847722643806
 20
114.3967706758009
 30
0.0
 10
142.7789647691526
 20
114.3789097101886
 30
0.0
  0
ELLIPSE
  5
105
330
1F
100
AcDbEntity
  8
0
  6
HIDDEN
 62
     7
370
     0
100
AcDbEllipse
 10
142.7789648046
 20
110.3813792041
 30
0.0
 11
1.383467579512114
 21
-1.091267719176585
 31
0.0
210
0.0
220
0.0
230
1.0
 40
0.8239737799
 41
5.288724596347236
 42
5.331125843627542
  0
LINE
  5
106
330
1F
100
AcDbEntity
  8
0
  6
HIDDEN
 62
     7
370
     0
100
AcDbLine
 10
142.8489059304
 20
108.8198272179
 30
0.0
 11
142.7979181149
 21
108.8434413675
 31
0.0
  0
ELLIPSE
  5
107
330
1F
100
AcDbEntity
  8
0
  6
HIDDEN
 62
     7
370
     0
100
AcDbEllipse
 10
142.7789648046
 20
110.3813792041
 30
0.0
 11
1.383467579512114
 21
1.753907414218503
 31
0.0
210
0.0
220
0.0
230
1.0
 40
0.5126701559
 41
4.136053364422175
 42
4.147540490646943
  0
ELLIPSE
  5
108
330
1F
100
AcDbEntity
  8
0
  6
HIDDEN
 62
     7
370
     0
100
AcDbEllipse
 10
142.7789648046
 20
110.3813792041
 30
0.0
 11
1.383467579512114
 21
1.753907414218503
 31
0.0
210
0.0
220
0.0
230
1.0
 40
0.5126701559
 41
0.9829735846075481
 42
0.9944607108323685
  0
LINE
  5
109
330
1F
100
AcDbEntity
  8
0
  6
HIDDEN
 62
     7
370
     0
100
AcDbLine
 10
142.7979181149
 20
111.9442223705
 30
0.0
 11
142.8489059304
 21
111.9180258381
 31
0.0
  0
ELLIPSE
  5
10A
330
1F
100
AcDbEntity
  8
0
  6
HIDDEN
 62
     7
370
     0
100
AcDbEllipse
 10
142.7789648046
 20
110.3813792041
 30
0.0
 11
1.383467579512114
 21
-1.091267719176585
 31
0.0
210
0.0
220
0.0
230
1.0
 40
0.8239737799
 41
2.104730695476996
 42
2.147131942757429
  0
LINE
  5
10B
330
1F
100
AcDbEntity
  8
0
  6
HIDDEN
 62
     7
370
     0
100
AcDbLine
 10
201.2789655105
 20
117.2689690854
 30
0.0
 11
201.2789655105
 21
103.7689692009
 31
0.0
  0
LINE
  5
10C
330
1F
100
AcDbEntity
  8
0
  6
HIDDEN
 62
     7
370
     0
100
AcDbLine
 10
201.2789655105
 20
130.7689699012
 30
0.0
 11
201.2789655105
 21
117.2689690854
 31
0.0
  0
LINE
  5
10D
330
1F
100
AcDbEntity
  8
0
  6
HIDDEN
 62
     7
370
     0
100
AcDbLine
 10
206.1449918524
 20
117.2689690854
 30
0.0
 11
206.1449918524
 21
103.2689691189
 31
0.0
  0
LINE
  5
10E
330
1F
100
AcDbEntity
  8
0
  6
HIDDEN
 62
     7
370
     0
100
AcDbLine
 10
206.1449918524
 20
131.2689690519
 30
0.0
 11
206.1449918524
 21
117.2689690854
 31
0.0
  0
SPLINE
  5
10F
330
1F
100
AcDbEntity
  8
0
  6
HIDDEN
 62
     7
370
     0
100
AcDbSpline
210
0.0
220
0.0
230
1.0
 70
     8
 71
     3
 72
    12
 73
     8
 74
     0
 42
0.000000001
 43
0.00000001
 40
0.0
 40
0.0
 40
0.0
 40
0.0
 40
0.2033275644612175
 40
0.4062567628128972
 40
0.6193196562240296
 40
0.8402928812640188
 40
1.0
 40
1.0
 40
1.0
 40
1.0
 10
215.7289679721572
 20
130.1433632749591
 30
0.0
 10
216.3199855259728
 20
130.1679016126734
 30
0.0
 10
217.5008626924061
 20
130.2169302117767
 30
0.0
 10
219.0943760863456
 20
130.5552780143114
 30
0.0
 10
220.3513586649001
 20
130.9345976607015
 30
0.0
 10
221.1309375331739
 20
131.230013779892
 30
0.0
 10
221.1606443080953
 20
131.2421616532926
 30
0.0
 10
221.1731072143294
 20
131.2472580600057
 30
0.0
  0
LINE
  5
110
330
1F
100
AcDbEntity
  8
0
  6
HIDDEN
 62
     7
370
     0
100
AcDbLine
 10
216.2385653332
 20
130.1776247698
 30
0.0
 11
215.1370193437
 21
130.171088748
 31
0.0
  0
SPLINE
  5
111
330
1F
100
AcDbEntity
  8
0
  6
HIDDEN
 62
     7
370
     0
100
AcDbSpline
210
0.0
220
0.0
230
1.0
 70
     8
 71
     3
 72
    15
 73
    11
 74
     0
 42
0.000000001
 43
0.00000001
 40
0.0
 40
0.0
 40
0.0
 40
0.0
 40
0.0095516333662436
 40
0.1774856920813973
 40
0.334793790471531
 40
0.4876524942837151
 40
0.6472459638648782
 40
0.8162532106242083
 40
0.9702404219452295
 40
1.0
 40
1.0
 40
1.0
 40
1.0
 10
210.8440618590094
 20
131.0410110879217
 30
0.0
 10
210.8232146795492
 20
131.0477312780759
 30
0.0
 10
210.4358384128348
 20
131.1726039102959
 30
0.0
 10
210.1961277924889
 20
131.2885071145878
 30
0.0
 10
210.2534598859495
 20
131.2567792240297
 30
0.0
 10
210.9156972847668
 20
131.0061151028346
 30
0.0
 10
212.0610400197
 20
130.6336926236569
 30
0.0
 10
213.6093339885425
 20
130.2807851232524
 30
0.0
 10
214.9259861140974
 20
130.1498982822347
 30
0.0
 10
215.6170443720834
 20
130.1442741567349
 30
0.0
 10
215.7289679721572
 20
130.1433632749591
 30
0.0
  0
LINE
  5
112
330
1F
100
AcDbEntity
  8
0
  6
HIDDEN
 62
     7
370
     0
100
AcDbLine
 10
135.5789644272
 20
94.6689697582
 30
0.0
 11
132.9789651186
 21
94.6689697582
 31
0.0
  0
LINE
  5
113
330
1F
100
AcDbEntity
  8
0
  6
HIDDEN
 62
     7
370
     0
100
AcDbLine
 10
132.9789651186
 20
139.8689693439
 30
0.0
 11
135.5789644272
 21
139.8689693439
 31
0.0
  0
LINE
  5
114
330
1F
100
AcDbEntity
  8
0
  6
HIDDEN
 62
     7
370
     0
100
AcDbLine
 10
133.9789643512
 20
87.3755200434
 30
0.0
 11
133.1951092557
 21
86.9172385562
 31
0.0
  0
LINE
  5
115
330
1F
100
AcDbEntity
  8
0
  6
HIDDEN
 62
     7
370
     0
100
AcDbLine
 10
133.266206421
 20
147.6942675787
 30
0.0
 11
133.9789643512
 21
146.9815077859
 31
0.0
  0
LINE
  5
116
330
1F
100
AcDbEntity
  8
0
  6
HIDDEN
 62
     7
370
     0
100
AcDbLine
 10
68.5289647058
 20
108.7689690891
 30
0.0
 11
68.5289647058
 21
125.7689690817
 31
0.0
  0
LINE
  5
117
330
1F
100
AcDbEntity
  8
0
  6
HIDDEN
 62
     7
370
     0
100
AcDbLine
 10
71.5248953179
 20
110.268969335
 30
0.0
 11
71.5248953179
 21
124.2689688358
 31
0.0
  0
LINE
  5
118
330
1F
100
AcDbEntity
  8
0
  6
HIDDEN
 62
     7
370
     0
100
AcDbLine
 10
137.8141753935
 20
87.3755200434
 30
0.0
 11
133.9789643512
 21
87.3755200434
 31
0.0
  0
LINE
  5
119
330
1F
100
AcDbEntity
  8
0
  6
HIDDEN
 62
     7
370
     0
100
AcDbLine
 10
148.8289647364
 20
87.3755200434
 30
0.0
 11
143.94375443
 21
87.3755200434
 31
0.0
  0
LINE
  5
11A
330
1F
100
AcDbEntity
  8
0
  6
HIDDEN
 62
     7
370
     0
100
AcDbLine
 10
133.9789643512
 20
87.3755200434
 30
0.0
 11
133.9789643512
 21
93.0689687509
 31
0.0
  0
LINE
  5
11B
330
1F
100
AcDbEntity
  8
0
  6
HIDDEN
 62
     7
370
     0
100
AcDbLine
 10
148.8289647364
 20
94.6689697582
 30
0.0
 11
135.5789644272
 21
94.6689697582
 31
0.0
  0
ARC
  5
11C
330
1F
100
AcDbEntity
  8
0
  6
HIDDEN
 62
     7
370
     0
100
AcDbCircle
 10
135.5789648046
 20
93.0689692647
 30
0.0
 40
1.600000000000009
100
AcDbArc
 50
90.0
 51
180.0
  0
SPLINE
  5
11D
330
1F
100
AcDbEntity
  8
0
  6
HIDDEN
 62
     7
370
     0
100
AcDbSpline
210
0.0
220
0.0
230
1.0
 70
    24
 71
     3
 72
     9
 73
     5
 74
     0
 42
0.000000001
 43
0.00000001
 40
0.0
 40
0.0
 40
0.0
 40
0.0
 40
0.0372159691950351
 40
1.0
 40
1.0
 40
1.0
 40
1.0
 10
151.2096264027633
 20
94.66896975818021
 30
0.0
 10
151.1947590801603
 20
94.66896975818021
 30
0.0
 10
150.7952713622644
 20
94.66896975818025
 30
0.0
 10
150.3628338367976
 20
94.66896975818022
 30
0.0
 10
149.9464898929574
 20
94.66896975818021
 30
0.0
  0
LINE
  5
11E
330
1F
100
AcDbEntity
  8
0
  6
HIDDEN
 62
     7
370
     0
100
AcDbLine
 10
149.946489893
 20
94.6689697582
 30
0.0
 11
148.8289647364
 21
94.6689697582
 31
0.0
  0
LINE
  5
11F
330
1F
100
AcDbEntity
  8
0
  6
HIDDEN
 62
     7
370
     0
100
AcDbLine
 10
133.9789643512
 20
146.9815077859
 30
0.0
 11
137.9150101543
 21
146.9815077859
 31
0.0
  0
LINE
  5
120
330
1F
100
AcDbEntity
  8
0
  6
HIDDEN
 62
     7
370
     0
100
AcDbLine
 10
143.8429194363
 20
146.9815077859
 30
0.0
 11
148.8289647364
 21
146.9815077859
 31
0.0
  0
LINE
  5
121
330
1F
100
AcDbEntity
  8
0
  6
HIDDEN
 62
     7
370
     0
100
AcDbLine
 10
133.9789643512
 20
146.9815077859
 30
0.0
 11
133.9789643512
 21
141.4689684886
 31
0.0
  0
LINE
  5
122
330
1F
100
AcDbEntity
  8
0
  6
HIDDEN
 62
     7
370
     0
100
AcDbLine
 10
135.5789644272
 20
139.8689693439
 30
0.0
 11
148.8289647364
 21
139.8689693439
 31
0.0
  0
ARC
  5
123
330
1F
100
AcDbEntity
  8
0
  6
HIDDEN
 62
     7
370
     0
100
AcDbCircle
 10
135.5789648046
 20
141.4689692647
 30
0.0
 40
1.599999999999994
100
AcDbArc
 50
180.0
 51
270.0
  0
LINE
  5
124
330
1F
100
AcDbEntity
  8
0
  6
HIDDEN
 62
     7
370
     0
100
AcDbLine
 10
148.8289647364
 20
139.8689693439
 30
0.0
 11
149.946489893
 21
139.8689693439
 31
0.0
  0
LINE
  5
125
330
1F
100
AcDbEntity
  8
0
  6
HIDDEN
 62
     7
370
     0
100
AcDbLine
 10
149.946489893
 20
139.8689693439
 30
0.0
 11
151.2096264028
 21
139.8689693439
 31
0.0
  0
LINE
  5
126
330
1F
100
AcDbEntity
  8
0
  6
HIDDEN
 62
     7
370
     0
100
AcDbLine
 10
152.8704753705
 20
94.6689697582
 30
0.0
 11
151.2096264028
 21
94.6689697582
 31
0.0
  0
SPLINE
  5
127
330
1F
100
AcDbEntity
  8
0
  6
HIDDEN
 62
     7
370
     0
100
AcDbSpline
210
0.0
220
0.0
230
1.0
 70
    24
 71
     3
 72
     9
 73
     5
 74
     0
 42
0.000000001
 43
0.00000001
 40
0.0
 40
0.0
 40
0.0
 40
0.0
 40
0.0211455609965179
 40
1.0
 40
1.0
 40
1.0
 40
1.0
 10
151.2096264027633
 20
139.8689693439279
 30
0.0
 10
151.2221951217313
 20
139.8689693439279
 30
0.0
 10
151.8165855458072
 20
139.8689693439278
 30
0.0
 10
152.3491612643213
 20
139.8689693439279
 30
0.0
 10
152.8704753704943
 20
139.8689693439279
 30
0.0
  0
LINE
  5
128
330
1F
100
AcDbEntity
  8
0
  6
HIDDEN
 62
     7
370
     0
100
AcDbLine
 10
104.5289631561
 20
110.268969335
 30
0.0
 11
104.5289631561
 21
124.2689688358
 31
0.0
  0
LINE
  5
129
330
1F
100
AcDbEntity
  8
0
  6
HIDDEN
 62
     7
370
     0
100
AcDbLine
 10
106.1813305691
 20
113.0189692619
 30
0.0
 11
106.1813305691
 21
121.5189688507
 31
0.0
  0
LINE
  5
12A
330
1F
100
AcDbEntity
  8
0
  6
HIDDEN
 62
     7
370
     0
100
AcDbLine
 10
215.7289679722
 20
140.5189691711
 30
0.0
 11
221.2289642171
 21
140.5189691711
 31
0.0
  0
LINE
  5
12B
330
1F
100
AcDbEntity
  8
0
  6
HIDDEN
 62
     7
370
     0
100
AcDbLine
 10
210.2289642767
 20
140.5189691711
 30
0.0
 11
215.7289679722
 21
140.5189691711
 31
0.0
  0
LINE
  5
12C
330
1F
100
AcDbEntity
  8
0
  6
HIDDEN
 62
     7
370
     0
100
AcDbLine
 10
155.2789644898
 20
94.6689697582
 30
0.0
 11
152.8704753705
 21
94.6689697582
 31
0.0
  0
LINE
  5
12D
330
1F
100
AcDbEntity
  8
0
  6
HIDDEN
 62
     7
370
     0
100
AcDbLine
 10
152.8704753705
 20
139.8689693439
 30
0.0
 11
155.2789644898
 21
139.8689693439
 31
0.0
  0
SPLINE
  5
12E
330
1F
100
AcDbEntity
  8
0
  6
HIDDEN
 62
     7
370
     0
100
AcDbSpline
210
0.0
220
0.0
230
1.0
 70
    11
 71
     3
 72
    26
 73
    22
 74
     0
 42
0.000000001
 43
0.00000001
 40
0.0
 40
0.0
 40
0.0
 40
0.0
 40
0.0508852401931762
 40
0.1016730168854035
 40
0.1549358848642108
 40
0.210122895447773
 40
0.2627547181348818
 40
0.312618594534419
 40
0.3632493522209808
 40
0.417036426338228
 40
0.4721380114565599
 40
0.5240058689444392
 40
0.5731920601180395
 40
0.62432881608857
 40
0.6789693540381828
 40
0.7334666149867504
 40
0.7845862869859306
 40
0.8343205603830326
 40
0.8862263105625654
 40
0.9411054625630596
 40
1.0
 40
1.0
 40
1.0
 40
1.0
 10
142.7789647691526
 20
117.0580431486939
 30
0.0
 10
142.956544102952
 20
117.0763520200227
 30
0.0
 10
143.3113626423821
 20
117.1129346946197
 30
0.0
 10
143.7886426042585
 20
117.3917594139866
 30
0.0
 10
144.1704123512915
 20
117.8012365055501
 30
0.0
 10
144.4052830259561
 20
118.3146922256771
 30
0.0
 10
144.4536724421917
 20
118.8448305137297
 30
0.0
 10
144.325274783023
 20
119.3201411086439
 30
0.0
 10
144.0425028615022
 20
119.7141314611074
 30
0.0
 10
143.6174347346656
 20
120.0058153248192
 30
0.0
 10
143.0871913798848
 20
120.1619431626917
 30
0.0
 10
142.5328497737354
 20
120.1673499211597
 30
0.0
 10
142.0244154921063
 20
120.0377259269817
 30
0.0
 10
141.5886697137945
 20
119.780962887525
 30
0.0
 10
141.2643774250578
 20
119.3931525391239
 30
0.0
 10
141.1082588752912
 20
118.9027730476155
 30
0.0
 10
141.1399295865144
 20
118.3820556793206
 30
0.0
 10
141.3370378508169
 20
117.888679194178
 30
0.0
 10
141.6835352347962
 20
117.4629241835083
 30
0.0
 10
142.1755740340289
 20
117.1302778801129
 30
0.0
 10
142.5731572567797
 20
117.0826813300826
 30
0.0
 10
142.7789647691526
 20
117.0580431486939
 30
0.0
  0
ELLIPSE
  5
12F
330
1F
100
AcDbEntity
  8
0
  6
HIDDEN
 62
     7
370
     0
100
AcDbEllipse
 10
142.7789648046
 20
124.1565593252
 30
0.0
 11
-1.383467579512143
 21
1.753907414218489
 31
0.0
210
0.0
220
0.0
230
1.0
 40
0.5126701559
 41
5.27723747012871
 42
5.288724596347225
  0
ELLIPSE
  5
130
330
1F
100
AcDbEntity
  8
0
  6
HIDDEN
 62
     7
370
     0
100
AcDbEllipse
 10
142.7789648046
 20
124.1565593252
 30
0.0
 11
1.383467579512114
 21
1.091267719176585
 31
0.0
210
0.0
220
0.0
230
1.0
 40
0.8239737799
 41
0.994460710832362
 42
4.136053364422151
  0
ELLIPSE
  5
131
330
1F
100
AcDbEntity
  8
0
  6
HIDDEN
 62
     7
370
     0
100
AcDbEllipse
 10
142.7789648046
 20
124.1565593252
 30
0.0
 11
-1.383467579512143
 21
1.753907414218489
 31
0.0
210
0.0
220
0.0
230
1.0
 40
0.5126701559
 41
2.147131942757402
 42
2.158619068973902
  0
LINE
  5
132
330
1F
100
AcDbEntity
  8
0
  6
HIDDEN
 62
     7
370
     0
100
AcDbLine
 10
142.7979181149
 20
122.5937160331
 30
0.0
 11
142.8489059304
 21
122.6199122745
 31
0.0
  0
ELLIPSE
  5
133
330
1F
100
AcDbEntity
  8
0
  6
HIDDEN
 62
     7
370
     0
100
AcDbEllipse
 10
142.7789648046
 20
124.1565593252
 30
0.0
 11
1.383467579512114
 21
1.091267719176585
 31
0.0
210
0.0
220
0.0
230
1.0
 40
0.8239737799
 41
4.136053364422156
 42
4.178454611673845
  0
ELLIPSE
  5
134
330
1F
100
AcDbEntity
  8
0
  6
HIDDEN
 62
     7
370
     0
100
AcDbEllipse
 10
142.7789648046
 20
124.1565593252
 30
0.0
 11
-1.383467579512143
 21
1.753907414218489
 31
0.0
210
0.0
220
0.0
230
1.0
 40
0.5126701559
 41
5.28872459634722
 42
8.430317249936982
  0
ELLIPSE
  5
135
330
1F
100
AcDbEntity
  8
0
  6
HIDDEN
 62
     7
370
     0
100
AcDbEllipse
 10
142.7789648046
 20
124.1565593252
 30
0.0
 11
1.383467579512114
 21
1.091267719176585
 31
0.0
210
0.0
220
0.0
230
1.0
 40
0.8239737799
 41
0.9520594635687807
 42
0.9944607108323675
  0
LINE
  5
136
330
1F
100
AcDbEntity
  8
0
  6
HIDDEN
 62
     7
370
     0
100
AcDbLine
 10
142.8489059304
 20
125.7181114185
 30
0.0
 11
142.7979181149
 21
125.6944968033
 31
0.0
  0
LWPOLYLINE
  5
137
330
1F
100
AcDbEntity
  8
0
  6
HIDDEN
 62
     7
370
     0
100
AcDbPolyline
 90
       19
 70
   128
 43
0.0
 10
142.7789647692
 20
123.7123797316
 10
143.3432980534
 20
123.8058863807
 10
143.8395643468
 20
124.0751261491
 10
144.2079067324
 20
124.4876266125
 10
144.403897631
 20
124.9936327938
 10
144.403897631
 20
125.5321132618
 10
144.2079067324
 20
126.0381194431
 10
143.8395643468
 20
126.4506189752
 10
143.3432980534
 20
126.7198596749
 10
142.7789647692
 20
126.8133653927
 10
142.2146314849
 20
126.7198596749
 10
141.718365308
 20
126.4506189752
 10
141.3500230387
 20
126.0381194431
 10
141.1540317909
 20
125.5321132618
 10
141.1540317909
 20
124.9936327938
 10
141.3500230387
 20
124.4876266125
 10
141.718365308
 20
124.0751261491
 10
142.2146314849
 20
123.8058863807
 10
142.7789647692
 20
123.7123797316
  0
LINE
  5
138
330
1F
100
AcDbEntity
  8
0
  6
HIDDEN
 62
     7
370
     0
100
AcDbLine
 10
148.8289647364
 20
138.4179054427
 30
0.0
 11
148.8289647364
 21
135.6189700443
 31
0.0
  0
LINE
  5
139
330
1F
100
AcDbEntity
  8
0
  6
HIDDEN
 62
     7
370
     0
100
AcDbLine
 10
138.9689646289
 20
139.4662095833
 30
0.0
 11
138.9689646289
 21
135.6189700443
 31
0.0
  0
SPLINE
  5
13A
330
1F
100
AcDbEntity
  8
0
  6
HIDDEN
 62
     7
370
     0
100
AcDbSpline
210
0.0
220
0.0
230
1.0
 70
     8
 71
     3
 72
    13
 73
     9
 74
     0
 42
0.000000001
 43
0.00000001
 40
0.0
 40
0.0
 40
0.0
 40
0.0
 40
0.1667082780950563
 40
0.3740839324370145
 40
0.5701632673003177
 40
0.7692905121694128
 40
0.9774349923678313
 40
1.0
 40
1.0
 40
1.0
 40
1.0
 10
141.9889648072995
 20
128.5514480102335
 30
0.0
 10
142.05498827511
 20
128.5768411438607
 30
0.0
 10
142.203141196812
 20
128.6338218972625
 30
0.0
 10
142.4267467094495
 20
128.7146013166141
 30
0.0
 10
142.6200746045505
 20
128.7950300544814
 30
0.0
 10
142.7500851700817
 20
128.8762117117101
 30
0.0
 10
142.7877359740905
 20
128.9380614268253
 30
0.0
 10
142.7888553613634
 20
128.9714651400801
 30
0.0
 10
142.7889648452975
 20
128.974732257751
 30
0.0
  0
LINE
  5
13B
330
1F
100
AcDbEntity
  8
0
  6
HIDDEN
 62
     7
370
     0
100
AcDbLine
 10
142.7889648453
 20
139.4662095833
 30
0.0
 11
142.7889648453
 21
135.6189700443
 31
0.0
  0
LINE
  5
13C
330
1F
100
AcDbEntity
  8
0
  6
HIDDEN
 62
     7
370
     0
100
AcDbLine
 10
142.7889648453
 20
109.2676867399
 30
0.0
 11
142.7889648453
 21
105.508963358
 31
0.0
  0
SPLINE
  5
13D
330
1F
100
AcDbEntity
  8
0
  6
HIDDEN
 62
     7
370
     0
100
AcDbSpline
210
0.0
220
0.0
230
1.0
 70
     8
 71
     3
 72
    13
 73
     9
 74
     0
 42
0.000000001
 43
0.00000001
 40
0.0
 40
0.0
 40
0.0
 40
0.0
 40
0.0234157067760767
 40
0.2359308398767299
 40
0.4482481293939279
 40
0.6563997525336215
 40
0.8549549406695084
 40
1.0
 40
1.0
 40
1.0
 40
1.0
 10
142.7889648452975
 20
125.216008410183
 30
0.0
 10
142.7888470313721
 20
125.2126183082532
 30
0.0
 10
142.7876599675513
 20
125.1784604840535
 30
0.0
 10
142.7474578823779
 20
125.1130754594544
 30
0.0
 10
142.6063398144064
 20
125.0379695470154
 30
0.0
 10
142.4003588600446
 20
125.0061490014451
 30
0.0
 10
142.1818919950737
 20
125.0285374063272
 30
0.0
 10
142.0462315711627
 20
125.0776181321573
 30
0.0
 10
141.9889648072995
 20
125.0983367342029
 30
0.0
  0
LINE
  5
13E
330
1F
100
AcDbEntity
  8
0
  6
HIDDEN
 62
     7
370
     0
100
AcDbLine
 10
137.3571283743
 20
143.1791989732
 30
0.0
 11
137.3571283743
 21
135.6189700443
 31
0.0
  0
LINE
  5
13F
330
1F
100
AcDbEntity
  8
0
  6
HIDDEN
 62
     7
370
     0
100
AcDbLine
 10
144.4008014491
 20
107.5169493112
 30
0.0
 11
144.4008014491
 21
105.3174694668
 31
0.0
  0
LINE
  5
140
330
1F
100
AcDbEntity
  8
0
  6
HIDDEN
 62
     7
370
     0
100
AcDbLine
 10
144.4008014491
 20
143.1791989732
 30
0.0
 11
144.4008014491
 21
135.6189700443
 31
0.0
  0
SPLINE
  5
141
330
1F
100
AcDbEntity
  8
0
  6
HIDDEN
 62
     7
370
     0
100
AcDbSpline
210
0.0
220
0.0
230
1.0
 70
     8
 71
     3
 72
    10
 73
     6
 74
     0
 42
0.000000001
 43
0.00000001
 40
0.0
 40
0.0
 40
0.0
 40
0.0
 40
0.4669170411687886
 40
0.9347279027921327
 40
1.0
 40
1.0
 40
1.0
 40
1.0
 10
140.8030740544774
 20
125.0155086297069
 30
0.0
 10
140.7920415909896
 20
125.1134498106057
 30
0.0
 10
140.7699555445416
 20
125.3095196614498
 30
0.0
 10
140.7853316523246
 20
125.4995927895251
 30
0.0
 10
140.8011386086474
 20
125.586709785575
 30
0.0
 10
140.8030740544774
 20
125.5973766225849
 30
0.0
  0
SPLINE
  5
142
330
1F
100
AcDbEntity
  8
0
  6
HIDDEN
 62
     7
370
     0
100
AcDbSpline
210
0.0
220
0.0
230
1.0
 70
     8
 71
     3
 72
    12
 73
     8
 74
     0
 42
0.000000001
 43
0.00000001
 40
0.0
 40
0.0
 40
0.0
 40
0.0
 40
0.2360055504205155
 40
0.4148418580590198
 40
0.5949519972878681
 40
0.7559205036006202
 40
1.0
 40
1.0
 40
1.0
 40
1.0
 10
140.8030740544774
 20
125.5973766225849
 30
0.0
 10
140.835532666787
 20
125.5528063808262
 30
0.0
 10
140.892587219176
 20
125.4744624525907
 30
0.0
 10
140.937743616529
 20
125.3434293769592
 30
0.0
 10
140.9364792938945
 20
125.2274799536006
 30
0.0
 10
140.892289014629
 20
125.1122403502922
 30
0.0
 10
140.8366199180788
 20
125.0518808827368
 30
0.0
 10
140.8030740544774
 20
125.0155086297069
 30
0.0
  0
LWPOLYLINE
  5
143
330
1F
100
AcDbEntity
  8
0
  6
HIDDEN
 62
     7
370
     0
100
AcDbPolyline
 90
       19
 70
   128
 43
0.0
 10
133.6106923968
 20
125.2490144822
 10
133.7578720973
 20
124.8394281271
 10
133.9966902137
 20
124.5861093182
 10
134.298343733
 20
124.5196128863
 10
134.6264477447
 20
124.6479584503
 10
134.9414275587
 20
124.9556655664
 10
135.2052926645
 20
125.4056210298
 10
135.3862169758
 20
125.9435529489
 10
135.4623786733
 20
126.5045788738
 10
135.4245902598
 20
127.0210317004
 10
135.2774114907
 20
127.4306180555
 10
135.0385924429
 20
127.6839368645
 10
134.7369389237
 20
127.7504332963
 10
134.4088358433
 20
127.6220877323
 10
134.0938550979
 20
127.3143806163
 10
133.8299899921
 20
126.8644251529
 10
133.6490656809
 20
126.3264932338
 10
133.5729039834
 20
125.7654673088
 10
133.6106923968
 20
125.2490144822
  0
LWPOLYLINE
  5
144
330
1F
100
AcDbEntity
  8
0
  6
HIDDEN
 62
     7
370
     0
100
AcDbPolyline
 90
       20
 70
   128
 43
0.0
 10
140.8030740545
 20
125.0155086297
 10
140.9956119583
 20
124.4556952867
 10
141.3629083522
 20
123.9792502153
 10
141.8689704128
 20
123.6328634101
 10
142.4642070756
 20
123.4504778537
 10
143.0902882107
 20
123.4499665576
 10
143.6858611974
 20
123.631378882
 10
144.1925635422
 20
123.9769386727
 10
144.5607409673
 20
124.452783041
 10
144.754314269
 20
125.0122806657
 10
144.754314269
 20
125.6006045866
 10
144.5607409673
 20
126.1601022113
 10
144.1925635422
 20
126.6359465796
 10
143.6858611974
 20
126.9815063703
 10
143.0902882107
 20
127.1629186946
 10
142.4642070756
 20
127.1624073985
 10
141.8689704128
 20
126.9800218421
 10
141.3629083522
 20
126.633635037
 10
140.9956119583
 20
126.1571899656
 10
140.8030740545
 20
125.5973766226
  0
SPLINE
  5
145
330
1F
100
AcDbEntity
  8
0
  6
HIDDEN
 62
     7
370
     0
100
AcDbSpline
210
0.0
220
0.0
230
1.0
 70
     8
 71
     3
 72
    11
 73
     7
 74
     0
 42
0.000000001
 43
0.00000001
 40
0.0
 40
0.0
 40
0.0
 40
0.0
 40
0.2695279085687074
 40
0.5390693112664989
 40
0.8082971500235805
 40
1.0
 40
1.0
 40
1.0
 40
1.0
 10
144.4008014491402
 20
129.2204691696439
 30
0.0
 10
144.5145289097639
 20
129.0391607975384
 30
0.0
 10
144.7419895248671
 20
128.6765349759794
 30
0.0
 10
144.8107425882734
 20
128.0348177650449
 30
0.0
 10
144.687504711391
 20
127.4610507506755
 30
0.0
 10
144.4850169072971
 20
127.1502521336103
 30
0.0
 10
144.4008014491402
 20
127.0209897908841
 30
0.0
  0
SPLINE
  5
146
330
1F
100
AcDbEntity
  8
0
  6
HIDDEN
 62
     7
370
     0
100
AcDbSpline
210
0.0
220
0.0
230
1.0
 70
     8
 71
     3
 72
    10
 73
     6
 74
     0
 42
0.000000001
 43
0.00000001
 40
0.0
 40
0.0
 40
0.0
 40
0.0
 40
0.1756417119702837
 40
0.7065472283950484
 40
1.0
 40
1.0
 40
1.0
 40
1.0
 10
144.4008014491402
 20
127.0209897908841
 30
0.0
 10
144.3166369490542
 20
126.8743997843664
 30
0.0
 10
143.9780716185418
 20
126.2847177455522
 30
0.0
 10
143.4193278071675
 20
125.6960203372791
 30
0.0
 10
142.9544505565753
 20
125.3820261933343
 30
0.0
 10
142.7889648452975
 20
125.2702514308964
 30
0.0
  0
SPLINE
  5
147
330
1F
100
AcDbEntity
  8
0
  6
HIDDEN
 62
     7
370
     0
100
AcDbSpline
210
0.0
220
0.0
230
1.0
 70
     8
 71
     3
 72
    10
 73
     6
 74
     0
 42
0.000000001
 43
0.00000001
 40
0.0
 40
0.0
 40
0.0
 40
0.0
 40
0.3272285169576282
 40
0.6620391806946448
 40
1.0
 40
1.0
 40
1.0
 40
1.0
 10
142.7889648452975
 20
129.0289762097869
 30
0.0
 10
142.9737858009238
 20
129.123167159264
 30
0.0
 10
143.3477101617213
 20
129.3137315379448
 30
0.0
 10
143.9023571082085
 20
129.4257441704001
 30
0.0
 10
144.234135500651
 20
129.2891074305141
 30
0.0
 10
144.4008014491402
 20
129.2204691696439
 30
0.0
  0
SPLINE
  5
148
330
1F
100
AcDbEntity
  8
0
  6
HIDDEN
 62
     7
370
     0
100
AcDbSpline
210
0.0
220
0.0
230
1.0
 70
     8
 71
     3
 72
    11
 73
     7
 74
     0
 42
0.000000001
 43
0.00000001
 40
0.0
 40
0.0
 40
0.0
 40
0.0
 40
0.1586630300858679
 40
0.4474175930084263
 40
0.7365956587826046
 40
1.0
 40
1.0
 40
1.0
 40
1.0
 10
140.8070196025647
 20
126.8444222066079
 30
0.0
 10
140.8026787759723
 20
126.960567424706
 30
0.0
 10
140.790437977441
 20
127.2880880443033
 30
0.0
 10
141.0195270375964
 20
127.7915831970635
 30
0.0
 10
141.4282817945926
 20
128.2740971720592
 30
0.0
 10
141.8079737067479
 20
128.4619178616425
 30
0.0
 10
141.9889648072995
 20
128.5514480102335
 30
0.0
  0
LWPOLYLINE
  5
149
330
1F
100
AcDbEntity
  8
0
  6
HIDDEN
 62
     7
370
     0
100
AcDbPolyline
 90
       21
 70
   128
 43
0.0
 10
133.2291761041
 20
125.0395069498
 10
133.3920206503
 20
124.5622646663
 10
133.6519145966
 20
124.2421197373
 10
133.983418867
 20
124.1104111675
 10
134.3540843204
 20
124.1800303239
 10
134.7276256979
 20
124.4441636506
 10
135.0674802065
 20
124.876954839
 10
135.3403791413
 20
125.4360398877
 10
135.5196093768
 20
126.0666914884
 10
135.5876275898
 20
126.7071769241
 10
135.5377738923
 20
127.2948004905
 10
135.3749302775
 20
127.772042774
 10
135.1150363312
 20
128.092187703
 10
134.7835311294
 20
128.2238962728
 10
134.4128666074
 20
128.1542771164
 10
134.0393242986
 20
127.8901437897
 10
133.6994707212
 20
127.4573526013
 10
133.4265717865
 20
126.8982675526
 10
133.2473415509
 20
126.2676168832
 10
133.179323338
 20
125.6271314475
 10
133.2291761041
 20
125.0395069498
  0
LINE
  5
14A
330
1F
100
AcDbEntity
  8
0
  6
HIDDEN
 62
     7
370
     0
100
AcDbLine
 10
219.8834266142
 20
141.5689701814
 30
0.0
 11
221.7289652303
 21
141.5689701814
 31
0.0
  0
LINE
  5
14B
330
1F
100
AcDbEntity
  8
0
  6
HIDDEN
 62
     7
370
     0
100
AcDbLine
 10
209.7289632634
 20
141.5689701814
 30
0.0
 11
212.8497209028
 21
141.5689701814
 31
0.0
  0
LINE
  5
14C
330
1F
100
AcDbEntity
  8
0
  6
HIDDEN
 62
     7
370
     0
100
AcDbLine
 10
218.5885157064
 20
141.5689701814
 30
0.0
 11
219.8834266142
 21
141.5689701814
 31
0.0
  0
LINE
  5
14D
330
1F
100
AcDbEntity
  8
0
  6
HIDDEN
 62
     7
370
     0
100
AcDbLine
 10
219.8834266142
 20
134.1660844761
 30
0.0
 11
221.7289652303
 21
134.1660844761
 31
0.0
  0
LINE
  5
14E
330
1F
100
AcDbEntity
  8
0
  6
HIDDEN
 62
     7
370
     0
100
AcDbLine
 10
209.7289632634
 20
134.1660844761
 30
0.0
 11
219.8834266142
 21
134.1660844761
 31
0.0
  0
LINE
  5
14F
330
1F
100
AcDbEntity
  8
0
  6
HIDDEN
 62
     7
370
     0
100
AcDbLine
 10
218.1661124901
 20
125.7689690817
 30
0.0
 11
219.2487638072
 21
125.7689690817
 31
0.0
  0
LINE
  5
150
330
1F
100
AcDbEntity
  8
0
  6
HIDDEN
 62
     7
370
     0
100
AcDbLine
 10
212.2091646866
 20
125.7689690817
 30
0.0
 11
218.1661124901
 21
125.7689690817
 31
0.0
  0
SPLINE
  5
151
330
1F
100
AcDbEntity
  8
0
  6
HIDDEN
 62
     7
370
     0
100
AcDbSpline
210
0.0
220
0.0
230
1.0
 70
     8
 71
     3
 72
    11
 73
     7
 74
     0
 42
0.000000001
 43
0.00000001
 40
0.0
 40
0.0
 40
0.0
 40
0.0
 40
0.2164554809307115
 40
0.4403115216725337
 40
0.751900642952104
 40
0.9999999999999999
 40
0.9999999999999999
 40
0.9999999999999999
 40
0.9999999999999999
 10
219.0558757261016
 20
142.1330704021726
 30
0.0
 10
218.9991875989081
 20
142.0244124007076
 30
0.0
 10
218.8838731913543
 20
141.803381407354
 30
0.0
 10
218.6698800543565
 20
141.619150386752
 30
0.0
 10
218.4403417172116
 20
141.7302279855427
 30
0.0
 10
218.2934476575554
 20
142.0093436756974
 30
0.0
 10
218.2283322886206
 20
142.1330704021726
 30
0.0
  0
SPLINE
  5
152
330
1F
100
AcDbEntity
  8
0
  6
HIDDEN
 62
     7
370
     0
100
AcDbSpline
210
0.0
220
0.0
230
1.0
 70
     8
 71
     3
 72
    11
 73
     7
 74
     0
 42
0.000000001
 43
0.00000001
 40
0.0
 40
0.0
 40
0.0
 40
0.0
 40
0.2164566357400577
 40
0.4403120837757037
 40
0.7519001277686401
 40
0.9999999999999999
 40
0.9999999999999999
 40
0.9999999999999999
 40
0.9999999999999999
 10
218.2283322886206
 20
142.1330704021726
 30
0.0
 10
218.0004335581675
 20
142.0244125131908
 30
0.0
 10
217.5368461770157
 20
141.8033826456947
 30
0.0
 10
216.676556824553
 20
141.6191499563425
 30
0.0
 10
215.7537428541567
 20
141.7302290245859
 30
0.0
 10
215.1631961276436
 20
142.0093437307162
 30
0.0
 10
214.9014170840956
 20
142.1330704021726
 30
0.0
  0
SPLINE
  5
153
330
1F
100
AcDbEntity
  8
0
  6
HIDDEN
 62
     7
370
     0
100
AcDbSpline
210
0.0
220
0.0
230
1.0
 70
     8
 71
     3
 72
    11
 73
     7
 74
     0
 42
0.000000001
 43
0.00000001
 40
0.0
 40
0.0
 40
0.0
 40
0.0
 40
0.1849311379609702
 40
0.5198468609912473
 40
0.8714445069868691
 40
1.0
 40
1.0
 40
1.0
 40
1.0
 10
214.9014170840957
 20
142.1330704021726
 30
0.0
 10
214.7559411525778
 20
142.0394649371093
 30
0.0
 10
214.3470040358586
 20
141.7763372252415
 30
0.0
 10
213.5836485911469
 20
141.5819297812897
 30
0.0
 10
212.8786558287371
 20
141.8199922350732
 30
0.0
 10
212.5027083822706
 20
142.0669502323478
 30
0.0
 10
212.4020527676322
 20
142.1330704021726
 30
0.0
  0
SPLINE
  5
154
330
1F
100
AcDbEntity
  8
0
  6
HIDDEN
 62
     7
370
     0
100
AcDbSpline
210
0.0
220
0.0
230
1.0
 70
     8
 71
     3
 72
    11
 73
     7
 74
     0
 42
0.000000001
 43
0.00000001
 40
0.0
 40
0.0
 40
0.0
 40
0.0
 40
0.2164554809127022
 40
0.4403115153966645
 40
0.7519006429727462
 40
1.0
 40
1.0
 40
1.0
 40
1.0
 10
212.4020527676322
 20
142.1330704021726
 30
0.0
 10
212.458740894174
 20
142.0244124009076
 30
0.0
 10
212.5740552987683
 20
141.8033814110929
 30
0.0
 10
212.7880484470976
 20
141.6191503841877
 30
0.0
 10
213.0175867727572
 20
141.7302279829466
 30
0.0
 10
213.1644808355316
 20
142.0093436758684
 30
0.0
 10
213.2295962051131
 20
142.1330704021726
 30
0.0
  0
SPLINE
  5
155
330
1F
100
AcDbEntity
  8
0
  6
HIDDEN
 62
     7
370
     0
100
AcDbSpline
210
0.0
220
0.0
230
1.0
 70
     8
 71
     3
 72
    11
 73
     7
 74
     0
 42
0.000000001
 43
0.00000001
 40
0.0
 40
0.0
 40
0.0
 40
0.0
 40
0.2164566357400577
 40
0.4403120837757037
 40
0.7519001277686401
 40
0.9999999999999999
 40
0.9999999999999999
 40
0.9999999999999999
 40
0.9999999999999999
 10
213.2295962051131
 20
142.1330704021726
 30
0.0
 10
213.4574949355662
 20
142.0244125131908
 30
0.0
 10
213.921082316718
 20
141.8033826456947
 30
0.0
 10
214.7813716691806
 20
141.6191499563425
 30
0.0
 10
215.7041856395771
 20
141.7302290245859
 30
0.0
 10
216.2947323660902
 20
142.0093437307162
 30
0.0
 10
216.5565114096381
 20
142.1330704021726
 30
0.0
  0
SPLINE
  5
156
330
1F
100
AcDbEntity
  8
0
  6
HIDDEN
 62
     7
370
     0
100
AcDbSpline
210
0.0
220
0.0
230
1.0
 70
     8
 71
     3
 72
    11
 73
     7
 74
     0
 42
0.000000001
 43
0.00000001
 40
0.0
 40
0.0
 40
0.0
 40
0.0
 40
0.1285555134405251
 40
0.4801531814078137
 40
0.8150688825231853
 40
1.0
 40
1.0
 40
1.0
 40
1.0
 10
216.5565114096381
 20
142.1330704021726
 30
0.0
 10
216.6571670231993
 20
142.0669502329731
 30
0.0
 10
217.0331144391015
 20
141.8199922554682
 30
0.0
 10
217.7381071721931
 20
141.5819297802848
 30
0.0
 10
218.5014626634895
 20
141.776337215548
 30
0.0
 10
218.9103997939456
 20
142.0394649365823
 30
0.0
 10
219.0558757261016
 20
142.1330704021726
 30
0.0
  0
LINE
  5
157
330
1F
100
AcDbEntity
  8
0
  6
HIDDEN
 62
     7
370
     0
100
AcDbLine
 10
217.8061972932
 20
134.2689695436
 30
0.0
 11
218.7289666013
 21
134.2689695436
 31
0.0
  0
LINE
  5
158
330
1F
100
AcDbEntity
  8
0
  6
HIDDEN
 62
     7
370
     0
100
AcDbLine
 10
212.7289618925
 20
134.2689695436
 30
0.0
 11
217.8061972932
 21
134.2689695436
 31
0.0
  0
LINE
  5
159
330
1F
100
AcDbEntity
  8
0
  6
HIDDEN
 62
     7
370
     0
100
AcDbLine
 10
216.5565114096
 20
135.2689697075
 30
0.0
 11
214.8930575327
 21
135.2689697075
 31
0.0
  0
LINE
  5
15A
330
1F
100
AcDbEntity
  8
0
  6
HIDDEN
 62
     7
370
     0
100
AcDbLine
 10
214.8930575327
 20
135.2689697075
 30
0.0
 11
213.2295962051
 21
135.2689697075
 31
0.0
  0
LINE
  5
15B
330
1F
100
AcDbEntity
  8
0
  6
HIDDEN
 62
     7
370
     0
100
AcDbLine
 10
217.8061972932
 20
135.2689697075
 30
0.0
 11
216.5565114096
 21
135.2689697075
 31
0.0
  0
LINE
  5
15C
330
1F
100
AcDbEntity
  8
0
  6
HIDDEN
 62
     7
370
     0
100
AcDbLine
 10
216.5565114096
 20
135.2689697075
 30
0.0
 11
216.5565114096
 21
142.1330704022
 31
0.0
  0
LINE
  5
15D
330
1F
100
AcDbEntity
  8
0
  6
HIDDEN
 62
     7
370
     0
100
AcDbLine
 10
213.2295962051
 20
135.2689697075
 30
0.0
 11
212.8158282117
 21
135.2689697075
 31
0.0
  0
LINE
  5
15E
330
1F
100
AcDbEntity
  8
0
  6
HIDDEN
 62
     7
370
     0
100
AcDbLine
 10
213.2295962051
 20
135.2689697075
 30
0.0
 11
213.2295962051
 21
142.1330704022
 31
0.0
  0
LINE
  5
15F
330
1F
100
AcDbEntity
  8
0
  6
HIDDEN
 62
     7
370
     0
100
AcDbLine
 10
219.0558757261
 20
135.2689697075
 30
0.0
 11
217.8061972932
 21
135.2689697075
 31
0.0
  0
LINE
  5
160
330
1F
100
AcDbEntity
  8
0
  6
HIDDEN
 62
     7
370
     0
100
AcDbLine
 10
218.2283322886
 20
135.2689697075
 30
0.0
 11
218.2283322886
 21
142.1330704022
 31
0.0
  0
LINE
  5
161
330
1F
100
AcDbEntity
  8
0
  6
HIDDEN
 62
     7
370
     0
100
AcDbLine
 10
219.0558757261
 20
135.2689697075
 30
0.0
 11
219.0558757261
 21
142.1330704022
 31
0.0
  0
LINE
  5
162
330
1F
100
AcDbEntity
  8
0
  6
HIDDEN
 62
     7
370
     0
100
AcDbLine
 10
212.8158282117
 20
135.2689697075
 30
0.0
 11
212.4020527676
 21
135.2689697075
 31
0.0
  0
LINE
  5
163
330
1F
100
AcDbEntity
  8
0
  6
HIDDEN
 62
     7
370
     0
100
AcDbLine
 10
214.9014170841
 20
135.2689697075
 30
0.0
 11
214.9014170841
 21
142.1330704022
 31
0.0
  0
LINE
  5
164
330
1F
100
AcDbEntity
  8
0
  6
HIDDEN
 62
     7
370
     0
100
AcDbLine
 10
212.4020527676
 20
135.2689697075
 30
0.0
 11
212.4020527676
 21
142.1330704022
 31
0.0
  0
LWPOLYLINE
  5
165
330
1F
100
AcDbEntity
  8
0
  6
HIDDEN
 62
     7
370
     0
100
AcDbPolyline
 90
       14
 70
   128
 43
0.0
 10
140.7848718204
 20
107.8558855358
 10
140.7801830769
 20
108.0658130947
 10
140.8995795623
 20
108.6430109705
 10
141.2029434555
 20
109.1572884604
 10
141.6605790705
 20
109.5583043195
 10
142.2276900244
 20
109.8068044655
 10
142.8487639037
 20
109.878463684
 10
143.4630051349
 20
109.7662677191
 10
144.0102877655
 20
109.4811991922
 10
144.437039909
 20
109.0511621575
 10
144.7014881974
 20
108.5182519298
 10
144.7777464614
 20
107.9346339818
 10
144.6583500342
 20
107.3574356403
 10
144.5876892517
 20
107.1981664415
  0
ARC
  5
166
330
1F
100
AcDbEntity
  8
0
  6
HIDDEN
 62
     7
370
     0
100
AcDbCircle
 10
142.760526738
 20
107.9190906668
 30
0.0
 40
1.885927282868141
100
AcDbArc
 50
340.886792566
 51
160.9916711885
  0
ARC
  5
167
330
1F
100
AcDbEntity
  8
0
  6
HIDDEN
 62
     7
370
     0
100
AcDbCircle
 10
142.8317913994
 20
107.9348526938
 30
0.0
 40
1.442221697134622
100
AcDbArc
 50
353.6366721571
 51
92.683641277
  0
LWPOLYLINE
  5
168
330
1F
100
AcDbEntity
  8
0
  6
HIDDEN
 62
     7
370
     0
100
AcDbPolyline
 90
       21
 70
   128
 43
0.0
 10
142.0949244034
 20
106.3709871511
 10
141.5476417728
 20
106.656055678
 10
141.1208897457
 20
107.0860924799
 10
140.856441632
 20
107.6190027076
 10
140.7801830769
 20
108.2026211213
 10
140.8995795623
 20
108.7798189971
 10
141.2029434555
 20
109.294096487
 10
141.6605790705
 20
109.6951123461
 10
142.2276900244
 20
109.943612492
 10
142.8487639037
 20
110.0152717106
 10
143.4630051349
 20
109.9030759785
 10
144.0102877655
 20
109.6180072188
 10
144.437039909
 20
109.1879704169
 10
144.7014881974
 20
108.655060422
 10
144.7777464614
 20
108.0714420083
 10
144.6583500342
 20
107.4942436669
 10
144.3549863157
 20
106.9799664098
 10
143.8973505842
 20
106.5789505507
 10
143.3302395139
 20
106.3304504048
 10
142.7091658675
 20
106.2587911862
 10
142.0949244034
 20
106.3709871511
  0
LWPOLYLINE
  5
169
330
1F
100
AcDbEntity
  8
0
  6
HIDDEN
 62
     7
370
     0
100
AcDbPolyline
 90
       18
 70
   128
 43
0.0
 10
142.2659345531
 20
107.644966584
 10
141.7913942692
 20
107.908560675
 10
141.4502305538
 20
108.315440141
 10
141.2885198929
 20
108.8106541562
 10
141.3281020336
 20
109.3273214198
 10
141.5636316501
 20
109.7956628207
 10
141.9632982556
 20
110.1524261891
 10
142.4731251877
 20
110.3494288533
 10
143.024257673
 20
110.3600643243
 10
143.5422618501
 20
110.1828965026
 10
143.9571785136
 20
109.8418526951
 10
144.2129709153
 20
109.3829928565
 10
144.275092925
 20
108.8682881224
 10
144.1351544904
 20
108.3672528754
 10
143.812055057
 20
107.9475546855
 10
143.3494310454
 20
107.6658752415
 10
142.8097626754
 20
107.5602581393
 10
142.2659345531
 20
107.644966584
  0
LWPOLYLINE
  5
16A
330
1F
100
AcDbEntity
  8
0
  6
HIDDEN
 62
     7
370
     0
100
AcDbPolyline
 90
       21
 70
   128
 43
0.0
 10
142.0949244034
 20
106.5633732493
 10
141.5476417728
 20
106.8484417762
 10
141.1208897457
 20
107.2784790437
 10
140.856441632
 20
107.8113888058
 10
140.7801830769
 20
108.3950072195
 10
140.8995795623
 20
108.972205561
 10
141.2029434555
 20
109.486482818
 10
141.6605790705
 20
109.8874986771
 10
142.2276900244
 20
110.1359988231
 10
142.8487639037
 20
110.2076580416
 10
143.4630051349
 20
110.0954623095
 10
144.0102877655
 20
109.8103935498
 10
144.437039909
 20
109.380356748
 10
144.7014881974
 20
108.8474465202
 10
144.7777464614
 20
108.2638281065
 10
144.6583500342
 20
107.6866302307
 10
144.3549863157
 20
107.172352508
 10
143.8973505842
 20
106.7713366489
 10
143.3302395139
 20
106.522836503
 10
142.7091658675
 20
106.4511772844
 10
142.0949244034
 20
106.5633732493
  0
LWPOLYLINE
  5
16B
330
1F
100
AcDbEntity
  8
0
  6
HIDDEN
 62
     7
370
     0
100
AcDbPolyline
 90
       20
 70
   128
 43
0.0
 10
142.1496477537
 20
106.6565604548
 10
141.6223291867
 20
106.9366100844
 10
141.2203503401
 20
107.3623800318
 10
140.9872714989
 20
107.8877316456
 10
140.9483501316
 20
108.4557350393
 10
141.1078046635
 20
109.004837707
 10
141.4483548701
 20
109.4755360525
 10
141.9330977928
 20
109.8168229352
 10
142.5095031132
 20
109.9917141389
 10
143.1151091215
 20
109.9812579475
 10
143.6842885428
 20
109.7865870822
 10
144.1553620948
 20
109.4287973962
 10
144.477281659
 20
108.9466607797
 10
144.6151622199
 20
108.3924241963
 10
144.5540623367
 20
107.8261479403
 10
144.3006030145
 20
107.3091968562
 10
143.8822507021
 20
106.8975904624
 10
143.3443402034
 20
106.6359330568
 10
142.7451624163
 20
106.552578755
 10
142.1496477537
 20
106.6565604548
  0
LWPOLYLINE
  5
16C
330
1F
100
AcDbEntity
  8
0
  6
HIDDEN
 62
     7
370
     0
100
AcDbPolyline
 90
       21
 70
   128
 43
0.0
 10
142.0949244034
 20
106.7557598132
 10
141.5476417728
 20
107.0408283401
 10
141.1208897457
 20
107.4708651419
 10
140.856441632
 20
108.0037753697
 10
140.7801830769
 20
108.5873937834
 10
140.8995795623
 20
109.1645916592
 10
141.2029434555
 20
109.678869149
 10
141.6605790705
 20
110.0798850081
 10
142.2276900244
 20
110.3283851541
 10
142.8487639037
 20
110.4000443726
 10
143.4630051349
 20
110.2878486406
 10
144.0102877655
 20
110.0027798809
 10
144.437039909
 20
109.572743079
 10
144.7014881974
 20
109.0398328512
 10
144.7777464614
 20
108.4562146704
 10
144.6583500342
 20
107.8790163289
 10
144.3549863157
 20
107.3647390719
 10
143.8973505842
 20
106.9637232128
 10
143.3302395139
 20
106.7152230668
 10
142.7091658675
 20
106.6435638483
 10
142.0949244034
 20
106.7557598132
  0
LWPOLYLINE
  5
16D
330
1F
100
AcDbEntity
  8
0
  6
HIDDEN
 62
     7
370
     0
100
AcDbPolyline
 90
       20
 70
   128
 43
0.0
 10
142.1496477537
 20
106.848946553
 10
141.6223291867
 20
107.1289966482
 10
141.2203503401
 20
107.5547665957
 10
140.9872714989
 20
108.0801182094
 10
140.9483501316
 20
108.6481211375
 10
141.1078046635
 20
109.197224038
 10
141.4483548701
 20
109.6679223835
 10
141.9330977928
 20
110.0092092663
 10
142.5095031132
 20
110.1841004699
 10
143.1151091215
 20
110.1736442785
 10
143.6842885428
 20
109.9789734132
 10
144.1553620948
 20
109.6211837273
 10
144.477281659
 20
109.1390471108
 10
144.6151622199
 20
108.5848107602
 10
144.5540623367
 20
108.0185345042
 10
144.3006030145
 20
107.5015834201
 10
143.8822507021
 20
107.0899770263
 10
143.3443402034
 20
106.828319155
 10
142.7451624163
 20
106.7449648533
 10
142.1496477537
 20
106.848946553
  0
LWPOLYLINE
  5
16E
330
1F
100
AcDbEntity
  8
0
  6
HIDDEN
 62
     7
370
     0
100
AcDbPolyline
 90
       21
 70
   128
 43
0.0
 10
142.0949244034
 20
106.9481459114
 10
141.5476417728
 20
107.2332144383
 10
141.1208897457
 20
107.6632517058
 10
140.856441632
 20
108.1961614679
 10
140.7801830769
 20
108.7797798816
 10
140.8995795623
 20
109.3569779902
 10
141.2029434555
 20
109.8712554801
 10
141.6605790705
 20
110.2722713392
 10
142.2276900244
 20
110.5207714851
 10
142.8487639037
 20
110.5924307037
 10
143.4630051349
 20
110.4802349716
 10
144.0102877655
 20
110.1951662119
 10
144.437039909
 20
109.7651294101
 10
144.7014881974
 20
109.2322191823
 10
144.7777464614
 20
108.6486007686
 10
144.6583500342
 20
108.0714028928
 10
144.3549863157
 20
107.5571251701
 10
143.8973505842
 20
107.156109311
 10
143.3302395139
 20
106.907609165
 10
142.7091658675
 20
106.8359499465
 10
142.0949244034
 20
106.9481459114
  0
LWPOLYLINE
  5
16F
330
1F
100
AcDbEntity
  8
0
  6
HIDDEN
 62
     7
370
     0
100
AcDbPolyline
 90
       20
 70
   128
 43
0.0
 10
142.1496477537
 20
107.0413331169
 10
141.6223291867
 20
107.3213827464
 10
141.2203503401
 20
107.7471526939
 10
140.9872714989
 20
108.2725043077
 10
140.9483501316
 20
108.8405077014
 10
141.1078046635
 20
109.3896103691
 10
141.4483548701
 20
109.8603087145
 10
141.9330977928
 20
110.2015955973
 10
142.5095031132
 20
110.3764868009
 10
143.1151091215
 20
110.3660306096
 10
143.6842885428
 20
110.1713597442
 10
144.1553620948
 20
109.8135700583
 10
144.477281659
 20
109.3314334418
 10
144.6151622199
 20
108.7771968584
 10
144.5540623367
 20
108.2109206024
 10
144.3006030145
 20
107.6939695183
 10
143.8822507021
 20
107.2823631245
 10
143.3443402034
 20
107.0207057189
 10
142.7451624163
 20
106.9373514171
 10
142.1496477537
 20
107.0413331169
  0
LWPOLYLINE
  5
170
330
1F
100
AcDbEntity
  8
0
  6
HIDDEN
 62
     7
370
     0
100
AcDbPolyline
 90
       21
 70
   128
 43
0.0
 10
142.0949244034
 20
107.1405324753
 10
141.5476417728
 20
107.4256010022
 10
141.1208897457
 20
107.855637804
 10
140.856441632
 20
108.3885480318
 10
140.7801830769
 20
108.9721664454
 10
140.8995795623
 20
109.5493643213
 10
141.2029434555
 20
110.0636418111
 10
141.6605790705
 20
110.4646576702
 10
142.2276900244
 20
110.7131578162
 10
142.8487639037
 20
110.7848170347
 10
143.4630051349
 20
110.6726213026
 10
144.0102877655
 20
110.3875525429
 10
144.437039909
 20
109.9575157411
 10
144.7014881974
 20
109.4246055133
 10
144.7777464614
 20
108.8409873325
 10
144.6583500342
 20
108.263788991
 10
144.3549863157
 20
107.749511734
 10
143.8973505842
 20
107.3484958749
 10
143.3302395139
 20
107.0999957289
 10
142.7091658675
 20
107.0283365104
 10
142.0949244034
 20
107.1405324753
  0
LWPOLYLINE
  5
171
330
1F
100
AcDbEntity
  8
0
  6
HIDDEN
 62
     7
370
     0
100
AcDbPolyline
 90
       20
 70
   128
 43
0.0
 10
142.1496477537
 20
107.2337192151
 10
141.6223291867
 20
107.5137693103
 10
141.2203503401
 20
107.9395392578
 10
140.9872714989
 20
108.4648908715
 10
140.9483501316
 20
109.0328940324
 10
141.1078046635
 20
109.5819967001
 10
141.4483548701
 20
110.0526950456
 10
141.9330977928
 20
110.3939819283
 10
142.5095031132
 20
110.568873132
 10
143.1151091215
 20
110.5584169406
 10
143.6842885428
 20
110.3637460753
 10
144.1553620948
 20
110.0059563893
 10
144.477281659
 20
109.5238197729
 10
144.6151622199
 20
108.9695834223
 10
144.5540623367
 20
108.4033071663
 10
144.3006030145
 20
107.8863560821
 10
143.8822507021
 20
107.4747496884
 10
143.3443402034
 20
107.2130918171
 10
142.7451624163
 20
107.1297375153
 10
142.1496477537
 20
107.2337192151
  0
LWPOLYLINE
  5
172
330
1F
100
AcDbEntity
  8
0
  6
HIDDEN
 62
     7
370
     0
100
AcDbPolyline
 90
       21
 70
   128
 43
0.0
 10
142.0949244034
 20
107.4654513638
 10
141.5476417728
 20
107.7505198907
 10
141.1208897457
 20
108.1805571582
 10
140.856441632
 20
108.7134669203
 10
140.7801830769
 20
109.2970855668
 10
140.8995795623
 20
109.8742834426
 10
141.2029434555
 20
110.3885609325
 10
141.6605790705
 20
110.7895767916
 10
142.2276900244
 20
111.0380769375
 10
142.8487639037
 20
111.1097362725
 10
143.4630051349
 20
110.9975403076
 10
144.0102877655
 20
110.7124716643
 10
144.437039909
 20
110.2824348624
 10
144.7014881974
 20
109.7495246347
 10
144.7777464614
 20
109.165906221
 10
144.6583500342
 20
108.5887083452
 10
144.3549863157
 20
108.0744306225
 10
143.8973505842
 20
107.6734147634
 10
143.3302395139
 20
107.4249150831
 10
142.7091658675
 20
107.3532553989
 10
142.0949244034
 20
107.4654513638
  0
LWPOLYLINE
  5
173
330
1F
100
AcDbEntity
  8
0
  6
HIDDEN
 62
     7
370
     0
100
AcDbPolyline
 90
       18
 70
   128
 43
0.0
 10
142.2726433352
 20
108.026889399
 10
141.8043084536
 20
108.2870361994
 10
141.4676062391
 20
108.6885954853
 10
141.3080101461
 20
109.1773337818
 10
141.3470749371
 20
109.687244533
 10
141.5795242042
 20
110.1494613237
 10
141.9739644603
 20
110.5015594646
 10
142.4771247525
 20
110.6959858577
 10
143.0210499652
 20
110.7064823288
 10
143.5322804005
 20
110.531631172
 10
143.9417711786
 20
110.1950472354
 10
144.1942187353
 20
109.7421876754
 10
144.2555282824
 20
109.2342140752
 10
144.1174197803
 20
108.7397306825
 10
143.7985455245
 20
108.3255203109
 10
143.3419711516
 20
108.0475247133
 10
142.8093598784
 20
107.9432887624
 10
142.2726433352
 20
108.026889399
  0
LWPOLYLINE
  5
174
330
1F
100
AcDbEntity
  8
0
  6
HIDDEN
 62
     7
370
     0
100
AcDbPolyline
 90
       18
 70
   128
 43
0.0
 10
141.8318886404
 20
126.2730176229
 10
141.4848222025
 20
125.8793270815
 10
141.3125368395
 20
125.394407906
 10
141.3383009472
 20
124.8837516311
 10
141.5586346388
 20
124.4163236249
 10
141.9437805284
 20
124.0552545193
 10
142.4417228532
 20
123.8493074331
 10
142.9852115084
 20
123.8262963149
 10
143.5008452368
 20
123.9893308509
 10
143.9189852076
 20
124.3163899187
 10
144.1831590469
 20
124.7633046139
 10
144.2576886016
 20
125.2697149891
 10
144.1325083702
 20
125.7672284398
 10
143.8245246513
 20
126.1886519048
 10
143.3753320575
 20
126.4770713303
 10
142.8455969412
 20
126.5935332182
 10
142.3068626877
 20
126.522309393
 10
141.8318886404
 20
126.2730176229
  0
LWPOLYLINE
  5
175
330
1F
100
AcDbEntity
  8
0
  6
HIDDEN
 62
     7
370
     0
100
AcDbPolyline
 90
       21
 70
   128
 43
0.0
 10
141.4994649217
 20
126.7509062442
 10
141.087077614
 20
126.3086667884
 10
140.8403041401
 20
125.7683227438
 10
140.7833002136
 20
125.1827657822
 10
140.9216458537
 20
124.6093160141
 10
141.241798699
 20
124.1041061136
 10
141.7124202103
 20
123.7165883783
 10
142.2874425166
 20
123.4846974391
 10
142.9105785769
 20
123.4311314899
 10
143.5208311864
 20
123.5611338768
 10
144.0584648494
 20
123.861979008
 10
144.4708521572
 20
124.3042184639
 10
144.7176256893
 20
124.8445625085
 10
144.7746295576
 20
125.4301194701
 10
144.6362838592
 20
126.0035692382
 10
144.3161308393
 20
126.5087791387
 10
143.845509328
 20
126.896296874
 10
143.2704870217
 20
127.1281878132
 10
142.6473509614
 20
127.1817537624
 10
142.0370983519
 20
127.0517513755
 10
141.4994649217
 20
126.7509062442
  0
LWPOLYLINE
  5
176
330
1F
100
AcDbEntity
  8
0
  6
HIDDEN
 62
     7
370
     0
100
AcDbPolyline
 90
       21
 70
   128
 43
0.0
 10
141.4994649217
 20
127.0758251328
 10
141.087077614
 20
126.6335856769
 10
140.8403041401
 20
126.0932416323
 10
140.7833002136
 20
125.507685602
 10
140.9216458537
 20
124.9342349026
 10
141.241798699
 20
124.4290250021
 10
141.7124202103
 20
124.0415072668
 10
142.2874425166
 20
123.8096163276
 10
142.9105785769
 20
123.7560503784
 10
143.5208311864
 20
123.8860527653
 10
144.0584648494
 20
124.1868978966
 10
144.4708521572
 20
124.6291373524
 10
144.7176256893
 20
125.1694823283
 10
144.7746295576
 20
125.7550383586
 10
144.6362838592
 20
126.3284881267
 10
144.3161308393
 20
126.8336989585
 10
143.845509328
 20
127.2212157625
 10
143.2704870217
 20
127.4531067017
 10
142.6473509614
 20
127.5066735822
 10
142.0370983519
 20
127.3766711954
 10
141.4994649217
 20
127.0758251328
  0
LWPOLYLINE
  5
177
330
1F
100
AcDbEntity
  8
0
  6
HIDDEN
 62
     7
370
     0
100
AcDbPolyline
 90
       18
 70
   128
 43
0.0
 10
141.8193397672
 20
127.6552651677
 10
141.4676746913
 20
127.2563582886
 10
141.2931066566
 20
126.7650139186
 10
141.319212094
 20
126.2475906539
 10
141.5424650163
 20
125.7739702839
 10
141.9327143208
 20
125.4081160429
 10
142.4372543675
 20
125.1994401816
 10
142.9879442417
 20
125.1761245209
 10
143.5104103853
 20
125.3413187939
 10
143.9340905613
 20
125.672712237
 10
144.2017647764
 20
126.1255482811
 10
144.2772818823
 20
126.6386688355
 10
144.1504429654
 20
127.1427741874
 10
143.8383783075
 20
127.5697818625
 10
143.3832340967
 20
127.8620225045
 10
142.846479835
 20
127.980027594
 10
142.3006074597
 20
127.9078594077
 10
141.8193397672
 20
127.6552651677
  0
LWPOLYLINE
  5
178
330
1F
100
AcDbEntity
  8
0
  6
HIDDEN
 62
     7
370
     0
100
AcDbPolyline
 90
       18
 70
   128
 43
0.0
 10
141.8193397672
 20
126.651786514
 10
141.4676746913
 20
126.2528796348
 10
141.2931066566
 20
125.7615352649
 10
141.319212094
 20
125.2441129315
 10
141.5424650163
 20
124.7704916302
 10
141.9327143208
 20
124.4046373892
 10
142.4372543675
 20
124.1959615279
 10
142.9879442417
 20
124.1726467985
 10
143.5104103853
 20
124.3378401402
 10
143.9340905613
 20
124.6692335832
 10
144.2017647764
 20
125.1220696274
 10
144.2772818823
 20
125.6351901818
 10
144.1504429654
 20
126.1392955336
 10
143.8383783075
 20
126.5663032088
 10
143.3832340967
 20
126.8585438508
 10
142.846479835
 20
126.9765489403
 10
142.3006074597
 20
126.904380754
 10
141.8193397672
 20
126.651786514
  0
LWPOLYLINE
  5
179
330
1F
100
AcDbEntity
  8
0
  6
HIDDEN
 62
     7
370
     0
100
AcDbPolyline
 90
       21
 70
   128
 43
0.0
 10
141.4994649217
 20
127.2682121623
 10
141.087077614
 20
126.8259717751
 10
140.8403041401
 20
126.2856277305
 10
140.7833002136
 20
125.7000717002
 10
140.9216458537
 20
125.1266219321
 10
141.241798699
 20
124.6214111004
 10
141.7124202103
 20
124.2338942963
 10
142.2874425166
 20
124.0020024258
 10
142.9105785769
 20
123.9484364766
 10
143.5208311864
 20
124.0784388635
 10
144.0584648494
 20
124.3792849261
 10
144.4708521572
 20
124.821524382
 10
144.7176256893
 20
125.3618684265
 10
144.7746295576
 20
125.9474244568
 10
144.6362838592
 20
126.5208742249
 10
144.3161308393
 20
127.0260850567
 10
143.845509328
 20
127.4136018607
 10
143.2704870217
 20
127.6454937312
 10
142.6473509614
 20
127.6990596804
 10
142.0370983519
 20
127.5690572936
 10
141.4994649217
 20
127.2682121623
  0
LWPOLYLINE
  5
17A
330
1F
100
AcDbEntity
  8
0
  6
HIDDEN
 62
     7
370
     0
100
AcDbPolyline
 90
       20
 70
   128
 43
0.0
 10
141.6018247232
 20
127.0083647821
 10
141.2064177543
 20
126.5771950263
 10
140.9814204649
 20
126.048741177
 10
140.9512153455
 20
125.4802693281
 10
141.1190750637
 20
124.9333836738
 10
141.4668094926
 20
124.4673461321
 10
141.9567366224
 20
124.1326604638
 10
142.5357645471
 20
123.9655933011
 10
143.1411472709
 20
123.9842504862
 10
143.707281733
 20
124.1866101179
 10
144.1728186887
 20
124.5507423434
 10
144.487310024
 20
125.0371888879
 10
144.6166755609
 20
125.5932350311
 10
144.5468966244
 20
126.1586251337
 10
144.2855349137
 20
126.6720902774
 10
143.8609128213
 20
127.0779876638
 10
143.3190450166
 20
127.3323327902
 10
142.7186511551
 20
127.4075631652
 10
142.1247930825
 20
127.2955269221
 10
141.6018247232
 20
127.0083647821
  0
LWPOLYLINE
  5
17B
330
1F
100
AcDbEntity
  8
0
  6
HIDDEN
 62
     7
370
     0
100
AcDbPolyline
 90
       21
 70
   128
 43
0.0
 10
141.4994649217
 20
127.4605982605
 10
141.087077614
 20
127.0183588046
 10
140.8403041401
 20
126.4780138287
 10
140.7833002136
 20
125.8924577984
 10
140.9216458537
 20
125.3190080303
 10
141.241798699
 20
124.8137971986
 10
141.7124202103
 20
124.4262803945
 10
142.2874425166
 20
124.1943894553
 10
142.9105785769
 20
124.1408225748
 10
143.5208311864
 20
124.2708249617
 10
144.0584648494
 20
124.5716710243
 10
144.4708521572
 20
125.0139104802
 10
144.7176256893
 20
125.5542545247
 10
144.7746295576
 20
126.139810555
 10
144.6362838592
 20
126.7132612545
 10
144.3161308393
 20
127.2184711549
 10
143.845509328
 20
127.6059888903
 10
143.2704870217
 20
127.8378798294
 10
142.6473509614
 20
127.8914457786
 10
142.0370983519
 20
127.7614433918
 10
141.4994649217
 20
127.4605982605
  0
LWPOLYLINE
  5
17C
330
1F
100
AcDbEntity
  8
0
  6
HIDDEN
 62
     7
370
     0
100
AcDbPolyline
 90
       20
 70
   128
 43
0.0
 10
141.6018247232
 20
127.2007508803
 10
141.2064177543
 20
126.7695811245
 10
140.9814204649
 20
126.2411272753
 10
140.9512153455
 20
125.6726563576
 10
141.1190750637
 20
125.125769772
 10
141.4668094926
 20
124.6597322303
 10
141.9567366224
 20
124.325046562
 10
142.5357645471
 20
124.1579803306
 10
143.1411472709
 20
124.1766375158
 10
143.707281733
 20
124.3789962161
 10
144.1728186887
 20
124.7431293729
 10
144.487310024
 20
125.2295749861
 10
144.6166755609
 20
125.7856220606
 10
144.5468966244
 20
126.3510112319
 10
144.2855349137
 20
126.8644763756
 10
143.8609128213
 20
127.270373762
 10
143.3190450166
 20
127.5247188884
 10
142.7186511551
 20
127.5999501947
 10
142.1247930825
 20
127.4879139516
 10
141.6018247232
 20
127.2007508803
  0
LWPOLYLINE
  5
17D
330
1F
100
AcDbEntity
  8
0
  6
HIDDEN
 62
     7
370
     0
100
AcDbPolyline
 90
       21
 70
   128
 43
0.0
 10
141.4994649217
 20
127.6529843587
 10
141.087077614
 20
127.2107449028
 10
140.8403041401
 20
126.6704008583
 10
140.7833002136
 20
126.0848438967
 10
140.9216458537
 20
125.5113941285
 10
141.241798699
 20
125.0061842281
 10
141.7124202103
 20
124.6186664927
 10
142.2874425166
 20
124.3867755536
 10
142.9105785769
 20
124.3332096044
 10
143.5208311864
 20
124.4632119912
 10
144.0584648494
 20
124.7640571225
 10
144.4708521572
 20
125.2062965784
 10
144.7176256893
 20
125.7466406229
 10
144.7746295576
 20
126.3321975845
 10
144.6362838592
 20
126.9056473527
 10
144.3161308393
 20
127.4108572531
 10
143.845509328
 20
127.7983749885
 10
143.2704870217
 20
128.0302659276
 10
142.6473509614
 20
128.0838318768
 10
142.0370983519
 20
127.95382949
 10
141.4994649217
 20
127.6529843587
  0
LWPOLYLINE
  5
17E
330
1F
100
AcDbEntity
  8
0
  6
HIDDEN
 62
     7
370
     0
100
AcDbPolyline
 90
       20
 70
   128
 43
0.0
 10
141.6018247232
 20
127.3931379098
 10
141.2064177543
 20
126.9619672227
 10
140.9814204649
 20
126.4335133735
 10
140.9512153455
 20
125.8650424558
 10
141.1190750637
 20
125.3181558702
 10
141.4668094926
 20
124.8521192599
 10
141.9567366224
 20
124.5174326602
 10
142.5357645471
 20
124.3503664288
 10
143.1411472709
 20
124.369023614
 10
143.707281733
 20
124.5713823143
 10
144.1728186887
 20
124.9355154711
 10
144.487310024
 20
125.4219620157
 10
144.6166755609
 20
125.9780081588
 10
144.5468966244
 20
126.5433982614
 10
144.2855349137
 20
127.0568624738
 10
143.8609128213
 20
127.4627598602
 10
143.3190450166
 20
127.717105918
 10
142.7186511551
 20
127.7923362929
 10
142.1247930825
 20
127.6803000498
 10
141.6018247232
 20
127.3931379098
  0
LWPOLYLINE
  5
17F
330
1F
100
AcDbEntity
  8
0
  6
HIDDEN
 62
     7
370
     0
100
AcDbPolyline
 90
       21
 70
   128
 43
0.0
 10
141.4994649217
 20
127.8453704569
 10
141.087077614
 20
127.403131001
 10
140.8403041401
 20
126.8627869565
 10
140.7833002136
 20
126.2772309262
 10
140.9216458537
 20
125.7037802267
 10
141.241798699
 20
125.1985703263
 10
141.7124202103
 20
124.8110525909
 10
142.2874425166
 20
124.5791616518
 10
142.9105785769
 20
124.5255957026
 10
143.5208311864
 20
124.6555980894
 10
144.0584648494
 20
124.9564432207
 10
144.4708521572
 20
125.3986826766
 10
144.7176256893
 20
125.9390276525
 10
144.7746295576
 20
126.5245836827
 10
144.6362838592
 20
127.0980334509
 10
144.3161308393
 20
127.6032442826
 10
143.845509328
 20
127.9907610867
 10
143.2704870217
 20
128.2226520258
 10
142.6473509614
 20
128.2762189064
 10
142.0370983519
 20
128.1462165195
 10
141.4994649217
 20
127.8453704569
  0
LWPOLYLINE
  5
180
330
1F
100
AcDbEntity
  8
0
  6
HIDDEN
 62
     7
370
     0
100
AcDbPolyline
 90
       20
 70
   128
 43
0.0
 10
141.6018247232
 20
127.585524008
 10
141.2064177543
 20
127.1543533209
 10
140.9814204649
 20
126.625900403
 10
140.9512153455
 20
126.057428554
 10
141.1190750637
 20
125.5105428997
 10
141.4668094926
 20
125.0445053581
 10
141.9567366224
 20
124.7098187584
 10
142.5357645471
 20
124.542752527
 10
143.1411472709
 20
124.5614097122
 10
143.707281733
 20
124.7637693438
 10
144.1728186887
 20
125.1279015693
 10
144.487310024
 20
125.6143481139
 10
144.6166755609
 20
126.170394257
 10
144.5468966244
 20
126.7357843596
 10
144.2855349137
 20
127.249248572
 10
143.8609128213
 20
127.6551468897
 10
143.3190450166
 20
127.9094920162
 10
142.7186511551
 20
127.9847223911
 10
142.1247930825
 20
127.872686148
 10
141.6018247232
 20
127.585524008
  0
LWPOLYLINE
  5
181
330
1F
100
AcDbEntity
  8
0
  6
HIDDEN
 62
     7
370
     0
100
AcDbPolyline
 90
       21
 70
   128
 43
0.0
 10
141.4994649217
 20
127.9821789491
 10
141.087077614
 20
127.5399394933
 10
140.8403041401
 20
126.9995945174
 10
140.7833002136
 20
126.4140384871
 10
140.9216458537
 20
125.840588719
 10
141.241798699
 20
125.3353788185
 10
141.7124202103
 20
124.9478610832
 10
142.2874425166
 20
124.715970144
 10
142.9105785769
 20
124.6624032635
 10
143.5208311864
 20
124.7924065817
 10
144.0584648494
 20
125.0932517129
 10
144.4708521572
 20
125.5354911688
 10
144.7176256893
 20
126.0758352134
 10
144.7746295576
 20
126.6613912437
 10
144.6362838592
 20
127.2348419431
 10
144.3161308393
 20
127.7400518436
 10
143.845509328
 20
128.1275695789
 10
143.2704870217
 20
128.3594605181
 10
142.6473509614
 20
128.4130264673
 10
142.0370983519
 20
128.2830240804
 10
141.4994649217
 20
127.9821789491
  0
LWPOLYLINE
  5
182
330
1F
100
AcDbEntity
  8
0
  6
HIDDEN
 62
     7
370
     0
100
AcDbPolyline
 90
       20
 70
   128
 43
0.0
 10
141.5634397977
 20
127.944157705
 10
141.1551391334
 20
127.4989277724
 10
140.9228053503
 20
126.9532416615
 10
140.8916148916
 20
126.3662336993
 10
141.0649484583
 20
125.801514149
 10
141.4240222052
 20
125.320280217
 10
141.9299247768
 20
124.974679448
 10
142.5278341026
 20
124.8021659109
 10
143.1529576053
 20
124.8214312497
 10
143.7375529763
 20
125.0303893018
 10
144.21827049
 20
125.4063958901
 10
144.543016851
 20
125.9087047208
 10
144.6766008717
 20
126.4828827831
 10
144.6045465395
 20
127.0667093474
 10
144.3346621795
 20
127.5969168771
 10
143.8961937652
 20
128.0160502199
 10
143.3366563265
 20
128.2786897052
 10
142.7166842018
 20
128.3563741151
 10
142.1034613718
 20
128.2406842935
 10
141.5634397977
 20
127.944157705
  0
LWPOLYLINE
  5
183
330
1F
100
AcDbEntity
  8
0
  6
HIDDEN
 62
     7
370
     0
100
AcDbPolyline
 90
       21
 70
   128
 43
0.0
 10
137.2965961323
 20
125.5709531385
 10
137.1164410934
 20
124.974396326
 10
136.8491794542
 20
124.4513879198
 10
136.5209711344
 20
124.0531236533
 10
136.1639449001
 20
123.8185896206
 10
135.813048631
 20
123.770741992
 10
135.502630435
 20
123.9142662514
 10
135.2630765737
 20
124.2351115349
 10
135.1178358868
 20
124.7018717829
 10
135.0811250136
 20
125.268857241
 10
135.1565379277
 20
125.8805685345
 10
135.3366938979
 20
126.477125347
 10
135.6039555371
 20
127.0001337531
 10
135.932163857
 20
127.3983970884
 10
136.2891900913
 20
127.6329320523
 10
136.6400863603
 20
127.6807787496
 10
136.950503625
 20
127.5372554216
 10
137.1900584177
 20
127.216410138
 10
137.3352991045
 20
126.7496498901
 10
137.3720099778
 20
126.1826635006
 10
137.2965961323
 20
125.5709531385
  0
LWPOLYLINE
  5
184
330
1F
100
AcDbEntity
  8
0
  6
HIDDEN
 62
     7
370
     0
100
AcDbPolyline
 90
       17
 70
   128
 43
0.0
 10
137.5096995012
 20
125.4818749282
 10
137.3598888144
 20
125.0216441828
 10
137.1310712398
 20
124.6462094265
 10
136.8580819667
 20
124.4127277884
 10
136.5824821964
 20
124.3567431945
 10
136.3462289423
 20
124.4867800403
 10
136.1852898822
 20
124.7830412019
 10
136.1241662503
 20
125.2004236582
 10
136.1721628905
 20
125.6753842014
 10
136.3219745085
 20
126.1356149468
 10
136.5507920832
 20
126.5110497031
 10
136.823780425
 20
126.7445322725
 10
137.0993801952
 20
126.8005159352
 10
137.3356334493
 20
126.6704790893
 10
137.4965734408
 20
126.3742179278
 10
137.5576970727
 20
125.9568354714
 10
137.5096995012
 20
125.4818749282
  0
LWPOLYLINE
  5
185
330
1F
100
AcDbEntity
  8
0
  6
HIDDEN
 62
     7
370
     0
100
AcDbPolyline
 90
       21
 70
   128
 43
0.0
 10
135.6379497424
 20
125.9681743238
 10
135.4577947036
 20
125.3716175112
 10
135.1905330644
 20
124.8486091051
 10
134.8623247445
 20
124.4503448385
 10
134.5052985103
 20
124.2158108059
 10
134.1544022412
 20
124.1679631773
 10
133.8439840451
 20
124.3114874366
 10
133.6044301838
 20
124.6323327202
 10
133.459189497
 20
125.0990929681
 10
133.4224786237
 20
125.6660784263
 10
133.4978915379
 20
126.2777897197
 10
133.6780475081
 20
126.8743465323
 10
133.9453091473
 20
127.3973549384
 10
134.2735174671
 20
127.7956182736
 10
134.6305437014
 20
128.0301532376
 10
134.9814399705
 20
128.0779999349
 10
135.2918572352
 20
127.9344766069
 10
135.5314120278
 20
127.6136313233
 10
135.6766527147
 20
127.1468710754
 10
135.7133635879
 20
126.5798846859
 10
135.6379497424
 20
125.9681743238
  0
LINE
  5
186
330
1F
100
AcDbEntity
  8
0
  6
HIDDEN
 62
     7
370
     0
100
AcDbLine
 10
135.5100717024
 20
126.89508988
 30
0.0
 11
134.9944216759
 21
125.9622697386
 31
0.0
  0
LINE
  5
187
330
1F
100
AcDbEntity
  8
0
  6
HIDDEN
 62
     7
370
     0
100
AcDbLine
 10
135.0965533034
 20
124.9400715012
 30
0.0
 11
134.9944216759
 21
125.9622697386
 31
0.0
  0
LINE
  5
188
330
1F
100
AcDbEntity
  8
0
  6
HIDDEN
 62
     7
370
     0
100
AcDbLine
 10
134.9944216759
 20
125.9622697386
 30
0.0
 11
133.7656933442
 21
126.256532282
 31
0.0
  0
LINE
  5
189
330
1F
100
AcDbEntity
  8
0
  6
HIDDEN
 62
     7
370
     0
100
AcDbLine
 10
133.8678249717
 20
125.2343340445
 30
0.0
 11
133.7656933442
 21
126.256532282
 31
0.0
  0
LINE
  5
18A
330
1F
100
AcDbEntity
  8
0
  6
HIDDEN
 62
     7
370
     0
100
AcDbLine
 10
134.2813433707
 20
127.1893524233
 30
0.0
 11
133.7656933442
 21
126.256532282
 31
0.0
  0
LWPOLYLINE
  5
18B
330
1F
100
AcDbEntity
  8
0
  6
HIDDEN
 62
     7
370
     0
100
AcDbPolyline
 90
       19
 70
   128
 43
0.0
 10
135.2448487282
 20
126.0425339121
 10
135.0790490956
 20
125.5117815587
 10
134.8293531314
 20
125.0600770715
 10
134.5258770139
 20
124.7419018898
 10
134.2052263767
 20
124.5956330228
 10
133.9060743899
 20
124.6389134455
 10
133.6645042152
 20
124.8665221635
 10
133.5096522794
 20
125.2510056499
 10
133.4601962567
 20
125.7459905598
 10
133.5221021996
 20
126.2917735282
 10
133.6879018322
 20
126.8225258816
 10
133.9375977964
 20
127.2742313001
 10
134.2410729826
 20
127.5924055505
 10
134.5617245511
 20
127.7386744175
 10
134.8608765379
 20
127.6953939948
 10
135.1024467126
 20
127.4677852768
 10
135.2572986484
 20
127.0833017904
 10
135.3067537398
 20
126.5883168805
 10
135.2448487282
 20
126.0425339121
  0
LINE
  5
18C
330
1F
100
AcDbEntity
  8
0
  6
HIDDEN
 62
     7
370
     0
100
AcDbLine
 10
134.8991250247
 20
127.0999733958
 30
0.0
 11
134.2813433707
 21
127.1893524233
 31
0.0
  0
LINE
  5
18D
330
1F
100
AcDbEntity
  8
0
  6
HIDDEN
 62
     7
370
     0
100
AcDbLine
 10
136.1278533564
 20
126.8057117838
 30
0.0
 11
135.5100717024
 21
126.89508988
 31
0.0
  0
LINE
  5
18E
330
1F
100
AcDbEntity
  8
0
  6
HIDDEN
 62
     7
370
     0
100
AcDbLine
 10
135.5100717024
 20
126.89508988
 30
0.0
 11
134.2813433707
 21
127.1893524233
 31
0.0
  0
LINE
  5
18F
330
1F
100
AcDbEntity
  8
0
  6
HIDDEN
 62
     7
370
     0
100
AcDbLine
 10
135.7143349574
 20
124.850693405
 30
0.0
 11
134.4856066257
 21
125.1449559483
 31
0.0
  0
LINE
  5
190
330
1F
100
AcDbEntity
  8
0
  6
HIDDEN
 62
     7
370
     0
100
AcDbLine
 10
134.4856066257
 20
125.1449559483
 30
0.0
 11
133.8678249717
 21
125.2343340445
 31
0.0
  0
LINE
  5
191
330
1F
100
AcDbEntity
  8
0
  6
HIDDEN
 62
     7
370
     0
100
AcDbLine
 10
135.0965533034
 20
124.9400715012
 30
0.0
 11
133.8678249717
 21
125.2343340445
 31
0.0
  0
LINE
  5
192
330
1F
100
AcDbEntity
  8
0
  6
HIDDEN
 62
     7
370
     0
100
AcDbLine
 10
135.7143349574
 20
124.850693405
 30
0.0
 11
135.0965533034
 21
124.9400715012
 31
0.0
  0
LINE
  5
193
330
1F
100
AcDbEntity
  8
0
  6
HIDDEN
 62
     7
370
     0
100
AcDbLine
 10
136.2299849839
 20
125.7835135463
 30
0.0
 11
135.0012566522
 21
126.0777751583
 31
0.0
  0
LINE
  5
194
330
1F
100
AcDbEntity
  8
0
  6
HIDDEN
 62
     7
370
     0
100
AcDbLine
 10
136.1278533564
 20
126.8057117838
 30
0.0
 11
134.8991250247
 21
127.0999733958
 31
0.0
  0
LINE
  5
195
330
1F
100
AcDbEntity
  8
0
  6
HIDDEN
 62
     7
370
     0
100
AcDbLine
 10
134.8991250247
 20
127.0999733958
 30
0.0
 11
135.0012566522
 21
126.0777751583
 31
0.0
  0
LINE
  5
196
330
1F
100
AcDbEntity
  8
0
  6
HIDDEN
 62
     7
370
     0
100
AcDbLine
 10
136.1278533564
 20
126.8057117838
 30
0.0
 11
136.2299849839
 21
125.7835135463
 31
0.0
  0
LINE
  5
197
330
1F
100
AcDbEntity
  8
0
  6
HIDDEN
 62
     7
370
     0
100
AcDbLine
 10
134.4856066257
 20
125.1449559483
 30
0.0
 11
135.0012566522
 21
126.0777751583
 31
0.0
  0
LINE
  5
198
330
1F
100
AcDbEntity
  8
0
  6
HIDDEN
 62
     7
370
     0
100
AcDbLine
 10
135.7143349574
 20
124.850693405
 30
0.0
 11
136.2299849839
 21
125.7835135463
 31
0.0
  0
LWPOLYLINE
  5
199
330
1F
100
AcDbEntity
  8
0
  6
HIDDEN
 62
     7
370
     0
100
AcDbPolyline
 90
       19
 70
   128
 43
0.0
 10
134.6993162856
 20
106.7948446277
 10
134.9770627544
 20
106.9218909967
 10
135.1832138002
 20
107.2236958559
 10
135.2929040418
 20
107.6638561341
 10
135.2929040418
 20
108.1892827194
 10
135.1832138002
 20
108.736600973
 10
134.9770627544
 20
109.2397964227
 10
134.6993162856
 20
109.6381761733
 10
134.3834749982
 20
109.8836898006
 10
134.0676337109
 20
109.9467247393
 10
133.7898881734
 20
109.8196781374
 10
133.5837371275
 20
109.5178737439
 10
133.474046886
 20
109.0777132328
 10
133.474046886
 20
108.5522866476
 10
133.5837371275
 20
108.0049683939
 10
133.7898881734
 20
107.5017729442
 10
134.0676337109
 20
107.1033931937
 10
134.3834749982
 20
106.8578797992
 10
134.6993162856
 20
106.7948446277
  0
LWPOLYLINE
  5
19A
330
1F
100
AcDbEntity
  8
0
  6
HIDDEN
 62
     7
370
     0
100
AcDbPolyline
 90
       21
 70
   128
 43
0.0
 10
134.960270077
 20
106.4572672028
 10
135.2741788701
 20
106.5890055749
 10
135.5189537258
 20
106.8994805816
 10
135.6706354395
 20
107.3583013046
 10
135.7143750042
 20
107.9205547127
 10
135.6458920614
 20
108.5312033671
 10
135.4718902708
 20
109.1304733552
 10
135.2094007284
 20
109.6597034618
 10
134.8841195554
 20
110.0670891016
 10
134.5278858767
 20
110.312752439
 10
134.1755712033
 20
110.3726462595
 10
133.8616633416
 20
110.2409078873
 10
133.6168884859
 20
109.9304326478
 10
133.4652067721
 20
109.4716121576
 10
133.4214672074
 20
108.9093589823
 10
133.4899501503
 20
108.2987098623
 10
133.6639519409
 20
107.6994401071
 10
133.9264414833
 20
107.1702100005
 10
134.2517226562
 20
106.7628243606
 10
134.607956335
 20
106.5171610232
 10
134.960270077
 20
106.4572672028
  0
LWPOLYLINE
  5
19B
330
1F
100
AcDbEntity
  8
0
  6
HIDDEN
 62
     7
370
     0
100
AcDbPolyline
 90
       21
 70
   128
 43
0.0
 10
136.6189164669
 20
106.854488388
 10
136.9328252599
 20
106.9862267602
 10
137.1776001156
 20
107.2967017669
 10
137.3292818294
 20
107.7555224899
 10
137.3730213941
 20
108.317775898
 10
137.3045384512
 20
108.9284245524
 10
137.1305366606
 20
109.5276945404
 10
136.8680471182
 20
110.0569244142
 10
136.5427659453
 20
110.4643100541
 10
136.1865322665
 20
110.7099733915
 10
135.8342175931
 20
110.7698674447
 10
135.5203097314
 20
110.6381290726
 10
135.2755348757
 20
110.3276538331
 10
135.123853162
 20
109.8688331101
 10
135.0801135973
 20
109.3065799348
 10
135.1485965402
 20
108.6959310475
 10
135.3225983307
 20
108.0966612923
 10
135.5850878731
 20
107.5674311857
 10
135.9103690461
 20
107.1600455459
 10
136.2666027248
 20
106.9143822085
 10
136.6189164669
 20
106.854488388
  0
LINE
  5
19C
330
1F
100
AcDbEntity
  8
0
  6
HIDDEN
 62
     7
370
     0
100
AcDbLine
 10
134.8091993109
 20
108.9940443769
 30
0.0
 11
134.1569522024
 21
109.5010573178
 31
0.0
  0
LINE
  5
19D
330
1F
100
AcDbEntity
  8
0
  6
HIDDEN
 62
     7
370
     0
100
AcDbLine
 10
133.7312278897
 20
108.8777973916
 30
0.0
 11
134.1569522024
 21
109.5010573178
 31
0.0
  0
LINE
  5
19E
330
1F
100
AcDbEntity
  8
0
  6
HIDDEN
 62
     7
370
     0
100
AcDbLine
 10
133.9577516169
 20
107.7475247573
 30
0.0
 11
133.7312278897
 21
108.8777973916
 31
0.0
  0
LINE
  5
19F
330
1F
100
AcDbEntity
  8
0
  6
HIDDEN
 62
     7
370
     0
100
AcDbLine
 10
133.9577516169
 20
107.7475247573
 30
0.0
 11
134.6099987254
 21
107.240512282
 31
0.0
  0
LINE
  5
1A0
330
1F
100
AcDbEntity
  8
0
  6
HIDDEN
 62
     7
370
     0
100
AcDbLine
 10
135.0357221068
 20
107.8637719754
 30
0.0
 11
134.6099987254
 21
107.240512282
 31
0.0
  0
LINE
  5
1A1
330
1F
100
AcDbEntity
  8
0
  6
HIDDEN
 62
     7
370
     0
100
AcDbLine
 10
135.0357221068
 20
107.8637719754
 30
0.0
 11
134.8091993109
 21
108.9940443769
 31
0.0
  0
LINE
  5
1A2
330
1F
100
AcDbEntity
  8
0
  6
HIDDEN
 62
     7
370
     0
100
AcDbLine
 10
136.0379276425
 20
109.2883064545
 30
0.0
 11
134.8091993109
 21
108.9940443769
 31
0.0
  0
LINE
  5
1A3
330
1F
100
AcDbEntity
  8
0
  6
HIDDEN
 62
     7
370
     0
100
AcDbLine
 10
136.2644504384
 20
108.158034053
 30
0.0
 11
135.0357221068
 21
107.8637719754
 31
0.0
  0
LWPOLYLINE
  5
1A4
330
1F
100
AcDbEntity
  8
0
  6
HIDDEN
 62
     7
370
     0
100
AcDbPolyline
 90
       17
 70
   128
 43
0.0
 10
137.0861498267
 20
107.7357528399
 10
137.3253097386
 20
107.8566939238
 10
137.490727529
 20
108.1454984512
 10
137.5572193042
 20
108.558197752
 10
137.5146634505
 20
109.0319631755
 10
137.3695373163
 20
109.4946672808
 10
137.1439365298
 20
109.8758678551
 10
136.8722054735
 20
110.1175306964
 10
136.5957134963
 20
110.1828648377
 10
136.3565535844
 20
110.061923521
 10
136.191135794
 20
109.7731192264
 10
136.1246430874
 20
109.3604196928
 10
136.1671998725
 20
108.8866547349
 10
136.3123250753
 20
108.4239503968
 10
136.5379267932
 20
108.0427498225
 10
136.8096578494
 20
107.8010869812
 10
137.0861498267
 20
107.7357528399
  0
LINE
  5
1A5
330
1F
100
AcDbEntity
  8
0
  6
HIDDEN
 62
     7
370
     0
100
AcDbLine
 10
135.1864790172
 20
108.0417868349
 30
0.0
 11
135.8387261257
 21
107.5347743596
 31
0.0
  0
LINE
  5
1A6
330
1F
100
AcDbEntity
  8
0
  6
HIDDEN
 62
     7
370
     0
100
AcDbLine
 10
135.1864790172
 20
108.0417868349
 30
0.0
 11
134.9599562213
 21
109.1720597021
 31
0.0
  0
LINE
  5
1A7
330
1F
100
AcDbEntity
  8
0
  6
HIDDEN
 62
     7
370
     0
100
AcDbLine
 10
134.9599562213
 20
109.1720597021
 30
0.0
 11
135.385680534
 21
109.7953193955
 31
0.0
  0
LINE
  5
1A8
330
1F
100
AcDbEntity
  8
0
  6
HIDDEN
 62
     7
370
     0
100
AcDbLine
 10
136.2644504384
 20
108.158034053
 30
0.0
 11
135.8387261257
 21
107.5347743596
 31
0.0
  0
LINE
  5
1A9
330
1F
100
AcDbEntity
  8
0
  6
HIDDEN
 62
     7
370
     0
100
AcDbLine
 10
136.2644504384
 20
108.158034053
 30
0.0
 11
136.0379276425
 21
109.2883064545
 31
0.0
  0
LINE
  5
1AA
330
1F
100
AcDbEntity
  8
0
  6
HIDDEN
 62
     7
370
     0
100
AcDbLine
 10
136.0379276425
 20
109.2883064545
 30
0.0
 11
135.385680534
 21
109.7953193955
 31
0.0
  0
LINE
  5
1AB
330
1F
100
AcDbEntity
  8
0
  6
HIDDEN
 62
     7
370
     0
100
AcDbLine
 10
134.9599562213
 20
109.1720597021
 30
0.0
 11
133.7312278897
 21
108.8777973916
 31
0.0
  0
LINE
  5
1AC
330
1F
100
AcDbEntity
  8
0
  6
HIDDEN
 62
     7
370
     0
100
AcDbLine
 10
135.385680534
 20
109.7953193955
 30
0.0
 11
134.1569522024
 21
109.5010573178
 31
0.0
  0
LINE
  5
1AD
330
1F
100
AcDbEntity
  8
0
  6
HIDDEN
 62
     7
370
     0
100
AcDbLine
 10
135.1864790172
 20
108.0417868349
 30
0.0
 11
133.9577516169
 21
107.7475247573
 31
0.0
  0
LINE
  5
1AE
330
1F
100
AcDbEntity
  8
0
  6
HIDDEN
 62
     7
370
     0
100
AcDbLine
 10
135.8387261257
 20
107.5347743596
 30
0.0
 11
134.6099987254
 21
107.240512282
 31
0.0
  0
LINE
  5
1AF
330
1F
100
AcDbEntity
  8
0
  6
HIDDEN
 62
     7
370
     0
100
AcDbLine
 10
144.7789648059
 20
106.4101259823
 30
0.0
 11
144.7789648059
 21
109.2314960103
 31
0.0
  0
LINE
  5
1B0
330
1F
100
AcDbEntity
  8
0
  6
HIDDEN
 62
     7
370
     0
100
AcDbLine
 10
140.778964907
 20
109.2145417485
 30
0.0
 11
140.778964907
 21
107.6930856931
 31
0.0
  0
LINE
  5
1B1
330
1F
100
AcDbEntity
  8
0
  6
HIDDEN
 62
     7
370
     0
100
AcDbLine
 10
132.9789651186
 20
105.875044376
 30
0.0
 11
134.8725637049
 21
106.3285328116
 31
0.0
  0
LINE
  5
1B2
330
1F
100
AcDbEntity
  8
0
  6
HIDDEN
 62
     7
370
     0
100
AcDbLine
 10
133.8943862916
 20
110.4130365554
 30
0.0
 11
132.9789651186
 21
110.1938067138
 31
0.0
  0
LINE
  5
1B3
330
1F
100
AcDbEntity
  8
0
  6
HIDDEN
 62
     7
370
     0
100
AcDbLine
 10
134.9019255117
 20
106.7982891242
 30
0.0
 11
142.1089859773
 21
108.5242724645
 31
0.0
  0
LINE
  5
1B4
330
1F
100
AcDbEntity
  8
0
  6
HIDDEN
 62
     7
370
     0
100
AcDbLine
 10
142.1089859773
 20
111.9175859046
 30
0.0
 11
134.1333571449
 21
110.007541966
 31
0.0
  0
LINE
  5
1B5
330
1F
100
AcDbEntity
  8
0
  6
HIDDEN
 62
     7
370
     0
100
AcDbLine
 10
144.4289647602
 20
109.2750656086
 30
0.0
 11
144.4289647602
 21
115.8178788743
 31
0.0
  0
LINE
  5
1B6
330
1F
100
AcDbEntity
  8
0
  6
HIDDEN
 62
     7
370
     0
100
AcDbLine
 10
141.1289647781
 20
109.2973051261
 30
0.0
 11
141.1289647781
 21
109.2750656086
 31
0.0
  0
LINE
  5
1B7
330
1F
100
AcDbEntity
  8
0
  6
HIDDEN
 62
     7
370
     0
100
AcDbLine
 10
141.1289647781
 20
115.8175866719
 30
0.0
 11
141.1289647781
 21
110.6751524046
 31
0.0
  0
ARC
  5
1B8
330
1F
100
AcDbEntity
  8
0
  6
HIDDEN
 62
     7
370
     0
100
AcDbCircle
 10
228.7789648046
 20
132.2689692647
 30
0.0
 40
1.0
100
AcDbArc
 50
270.0
 51
0.0
  0
ARC
  5
1B9
330
1F
100
AcDbEntity
  8
0
  6
HIDDEN
 62
     7
370
     0
100
AcDbCircle
 10
228.7789648046
 20
102.2689692647
 30
0.0
 40
1.0
100
AcDbArc
 50
0.0
 51
90.0
  0
ARC
  5
1BA
330
1F
100
AcDbEntity
  8
0
  6
HIDDEN
 62
     7
370
     0
100
AcDbCircle
 10
204.1473123071
 20
130.7689692647
 30
0.0
 40
1.0
100
AcDbArc
 50
75.0
 51
90.0
  0
ARC
  5
1BB
330
1F
100
AcDbEntity
  8
0
  6
HIDDEN
 62
     7
370
     0
100
AcDbCircle
 10
204.1473123071
 20
103.7689692647
 30
0.0
 40
1.0
100
AcDbArc
 50
270.0
 51
285.0
  0
LINE
  5
1BC
330
1F
100
AcDbEntity
  8
0
  6
HIDDEN
 62
     7
370
     0
100
AcDbLine
 10
204.1473123804
 20
131.7689700651
 30
0.0
 11
202.2789638118
 21
131.7689700651
 31
0.0
  0
LINE
  5
1BD
330
1F
100
AcDbEntity
  8
0
  6
HIDDEN
 62
     7
370
     0
100
AcDbLine
 10
202.2789638118
 20
102.768969037
 30
0.0
 11
204.1473123804
 21
102.768969037
 31
0.0
  0
ARC
  5
1BE
330
1F
100
AcDbEntity
  8
0
  6
HIDDEN
 62
     7
370
     0
100
AcDbCircle
 10
202.2789648046
 20
130.7689692647
 30
0.0
 40
1.0
100
AcDbArc
 50
90.0
 51
180.0
  0
ARC
  5
1BF
330
1F
100
AcDbEntity
  8
0
  6
HIDDEN
 62
     7
370
     0
100
AcDbCircle
 10
202.2789648046
 20
103.7689692647
 30
0.0
 40
1.0
100
AcDbArc
 50
180.0
 51
270.0
  0
LINE
  5
1C0
330
1F
100
AcDbEntity
  8
0
  6
HIDDEN
 62
     7
370
     0
100
AcDbLine
 10
204.4061306492
 20
102.803043336
 30
0.0
 11
206.1449918524
 21
103.2689691189
 31
0.0
  0
LINE
  5
1C1
330
1F
100
AcDbEntity
  8
0
  6
HIDDEN
 62
     7
370
     0
100
AcDbLine
 10
206.1449918524
 20
131.2689690519
 30
0.0
 11
204.4061306492
 21
131.7348948348
 31
0.0
  0
LINE
  5
1C2
330
1F
100
AcDbEntity
  8
0
  6
HIDDEN
 62
     7
370
     0
100
AcDbLine
 10
210.293054171
 20
131.2689690519
 30
0.0
 11
206.1449918524
 21
131.2689690519
 31
0.0
  0
LINE
  5
1C3
330
1F
100
AcDbEntity
  8
0
  6
HIDDEN
 62
     7
370
     0
100
AcDbLine
 10
228.7789653615
 20
131.2689690519
 30
0.0
 11
221.1731072143
 21
131.2689690519
 31
0.0
  0
LINE
  5
1C4
330
1F
100
AcDbEntity
  8
0
  6
HIDDEN
 62
     7
370
     0
100
AcDbLine
 10
206.1449918524
 20
103.2689691189
 30
0.0
 11
228.7789653615
 21
103.2689691189
 31
0.0
  0
ARC
  5
1C5
330
1F
100
AcDbEntity
  8
0
  6
HIDDEN
 62
     7
370
     0
100
AcDbCircle
 10
62.3289648046
 20
107.9689692647
 30
0.0
 40
0.7999999999999972
100
AcDbArc
 50
90.0
 51
180.0
  0
ARC
  5
1C6
330
1F
100
AcDbEntity
  8
0
  6
HIDDEN
 62
     7
370
     0
100
AcDbCircle
 10
62.3289648046
 20
126.5689692647
 30
0.0
 40
0.8000000000000256
100
AcDbArc
 50
180.0
 51
270.0
  0
LINE
  5
1C7
330
1F
100
AcDbEntity
  8
0
  6
HIDDEN
 62
     7
370
     0
100
AcDbLine
 10
69.4213356451
 20
108.5439694713
 30
0.0
 11
70.2980231122
 21
108.5439694713
 31
0.0
  0
LINE
  5
1C8
330
1F
100
AcDbEntity
  8
0
  6
HIDDEN
 62
     7
370
     0
100
AcDbLine
 10
70.2980231122
 20
125.9939691651
 30
0.0
 11
69.4213356451
 21
125.9939691651
 31
0.0
  0
ARC
  5
1C9
330
1F
100
AcDbEntity
  8
0
  6
HIDDEN
 62
     7
370
     0
100
AcDbCircle
 10
70.298024697
 20
108.9439692647
 30
0.0
 40
0.4000000000000244
100
AcDbArc
 50
270.0
 51
330.0
  0
ARC
  5
1CA
330
1F
100
AcDbEntity
  8
0
  6
HIDDEN
 62
     7
370
     0
100
AcDbCircle
 10
70.298024697
 20
125.5939692647
 30
0.0
 40
0.4000000000000102
100
AcDbArc
 50
30.0
 51
90.0
  0
ARC
  5
1CB
330
1F
100
AcDbEntity
  8
0
  6
HIDDEN
 62
     7
370
     0
100
AcDbCircle
 10
69.4213372354
 20
108.9439692647
 30
0.0
 40
0.4000000000000057
100
AcDbArc
 50
255.0
 51
270.0
  0
ARC
  5
1CC
330
1F
100
AcDbEntity
  8
0
  6
HIDDEN
 62
     7
370
     0
100
AcDbCircle
 10
69.4213372354
 20
125.5939692647
 30
0.0
 40
0.3999999999999885
100
AcDbArc
 50
90.0
 51
105.0
  0
LINE
  5
1CD
330
1F
100
AcDbEntity
  8
0
  6
HIDDEN
 62
     7
370
     0
100
AcDbLine
 10
69.3178098277
 20
125.9803392592
 30
0.0
 11
68.5289647058
 21
125.7689690817
 31
0.0
  0
LINE
  5
1CE
330
1F
100
AcDbEntity
  8
0
  6
HIDDEN
 62
     7
370
     0
100
AcDbLine
 10
68.5289647058
 20
108.7689690891
 30
0.0
 11
69.3178098277
 21
108.5575989116
 31
0.0
  0
LINE
  5
1CF
330
1F
100
AcDbEntity
  8
0
  6
HIDDEN
 62
     7
370
     0
100
AcDbLine
 10
70.644437857
 20
108.7439691316
 30
0.0
 11
71.5248953179
 21
110.268969335
 31
0.0
  0
LINE
  5
1D0
330
1F
100
AcDbEntity
  8
0
  6
HIDDEN
 62
     7
370
     0
100
AcDbLine
 10
71.5248953179
 20
124.2689688358
 30
0.0
 11
70.644437857
 21
125.7939695049
 31
0.0
  0
LINE
  5
1D1
330
1F
100
AcDbEntity
  8
0
  6
HIDDEN
 62
     7
370
     0
100
AcDbLine
 10
62.3289640621
 20
108.7689690891
 30
0.0
 11
68.5289647058
 21
108.7689690891
 31
0.0
  0
LINE
  5
1D2
330
1F
100
AcDbEntity
  8
0
  6
HIDDEN
 62
     7
370
     0
100
AcDbLine
 10
68.5289647058
 20
125.7689690817
 30
0.0
 11
62.3289640621
 21
125.7689690817
 31
0.0
  0
LINE
  5
1D3
330
1F
100
AcDbEntity
  8
0
  6
HIDDEN
 62
     7
370
     0
100
AcDbLine
 10
71.5248953179
 20
110.268969335
 30
0.0
 11
104.5289631561
 21
110.268969335
 31
0.0
  0
LINE
  5
1D4
330
1F
100
AcDbEntity
  8
0
  6
HIDDEN
 62
     7
370
     0
100
AcDbLine
 10
104.5289631561
 20
124.2689688358
 30
0.0
 11
71.5248953179
 21
124.2689688358
 31
0.0
  0
LINE
  5
1D5
330
1F
100
AcDbEntity
  8
0
  6
HIDDEN
 62
     7
370
     0
100
AcDbLine
 10
104.5289631561
 20
110.268969335
 30
0.0
 11
106.1813305691
 21
113.0189692619
 31
0.0
  0
LINE
  5
1D6
330
1F
100
AcDbEntity
  8
0
  6
HIDDEN
 62
     7
370
     0
100
AcDbLine
 10
106.1813305691
 20
121.5189688507
 30
0.0
 11
104.5289631561
 21
124.2689688358
 31
0.0
  0
LINE
  5
1D7
330
1F
100
AcDbEntity
  8
0
  6
HIDDEN
 62
     7
370
     0
100
AcDbLine
 10
208.4789644555
 20
142.2689689923
 30
0.0
 11
210.2289642767
 21
140.5189691711
 31
0.0
  0
LINE
  5
1D8
330
1F
100
AcDbEntity
  8
0
  6
HIDDEN
 62
     7
370
     0
100
AcDbLine
 10
221.2289642171
 20
140.5189691711
 30
0.0
 11
222.9789640383
 21
142.2689689923
 31
0.0
  0
ARC
  5
1D9
330
1F
100
AcDbEntity
  8
0
  6
HIDDEN
 62
     7
370
     0
100
AcDbCircle
 10
155.2789648046
 20
93.0689692647
 30
0.0
 40
1.600000000000023
100
AcDbArc
 50
0.0
 51
90.0
  0
LINE
  5
1DA
330
1F
100
AcDbEntity
  8
0
  6
HIDDEN
 62
     7
370
     0
100
AcDbLine
 10
156.8789645658
 20
92.2689701098
 30
0.0
 11
156.8789645658
 21
93.0689687509
 31
0.0
  0
ARC
  5
1DB
330
1F
100
AcDbEntity
  8
0
  6
HIDDEN
 62
     7
370
     0
100
AcDbCircle
 10
155.2789648046
 20
141.4689692647
 30
0.0
 40
1.600000000000023
100
AcDbArc
 50
270.0
 51
0.0
  0
LINE
  5
1DC
330
1F
100
AcDbEntity
  8
0
  6
HIDDEN
 62
     7
370
     0
100
AcDbLine
 10
156.8789645658
 20
141.4689684886
 30
0.0
 11
156.8789645658
 21
142.2689689923
 31
0.0
  0
LINE
  5
1DD
330
1F
100
AcDbEntity
  8
0
  6
HIDDEN
 62
     7
370
     0
100
AcDbLine
 10
210.2289642767
 20
140.5189691711
 30
0.0
 11
210.2289642767
 21
131.2440412718
 31
0.0
  0
LINE
  5
1DE
330
1F
100
AcDbEntity
  8
0
  6
HIDDEN
 62
     7
370
     0
100
AcDbLine
 10
221.2289642171
 20
131.2473958957
 30
0.0
 11
221.2289642171
 21
140.5189691711
 31
0.0
  0
LINE
  5
1DF
330
1F
100
AcDbEntity
  8
0
  6
HIDDEN
 62
     7
370
     0
100
AcDbLine
 10
201.2789655105
 20
121.5189688507
 30
0.0
 11
106.1813305691
 21
121.5189688507
 31
0.0
  0
LINE
  5
1E0
330
1F
100
AcDbEntity
  8
0
  6
HIDDEN
 62
     7
370
     0
100
AcDbLine
 10
106.1813305691
 20
113.0189692619
 30
0.0
 11
201.2789655105
 21
113.0189692619
 31
0.0
  0
LINE
  5
1E1
330
1F
100
AcDbEntity
  8
0
  6
HIDDEN
 62
     7
370
     0
100
AcDbLine
 10
144.4289647602
 20
118.7203519646
 30
0.0
 11
144.4289647602
 21
125.2628725621
 31
0.0
  0
LINE
  5
1E2
330
1F
100
AcDbEntity
  8
0
  6
HIDDEN
 62
     7
370
     0
100
AcDbLine
 10
141.1289647781
 20
123.8627864647
 30
0.0
 11
141.1289647781
 21
118.7200595293
 31
0.0
  0
LINE
  5
1E3
330
1F
100
AcDbEntity
  8
0
  6
HIDDEN
 62
     7
370
     0
100
AcDbLine
 10
141.1289647781
 20
125.2628725621
 30
0.0
 11
141.1289647781
 21
125.2406335104
 31
0.0
  0
LINE
  5
1E4
330
1F
100
AcDbEntity
  8
0
  6
HIDDEN
 62
     7
370
     0
100
AcDbLine
 10
134.1333571449
 20
124.5303966704
 30
0.0
 11
142.1089859773
 21
122.6203527901
 31
0.0
  0
LINE
  5
1E5
330
1F
100
AcDbEntity
  8
0
  6
HIDDEN
 62
     7
370
     0
100
AcDbLine
 10
142.1089859773
 20
126.0136657062
 30
0.0
 11
134.9019255117
 21
127.7396495122
 31
0.0
  0
LINE
  5
1E6
330
1F
100
AcDbEntity
  8
0
  6
HIDDEN
 62
     7
370
     0
100
AcDbLine
 10
144.7789648059
 20
125.3064426261
 30
0.0
 11
144.7789648059
 21
128.1278126541
 31
0.0
  0
LINE
  5
1E7
330
1F
100
AcDbEntity
  8
0
  6
HIDDEN
 62
     7
370
     0
100
AcDbLine
 10
140.778964907
 20
126.8448524776
 30
0.0
 11
140.778964907
 21
125.3233964223
 31
0.0
  0
LINE
  5
1E8
330
1F
100
AcDbEntity
  8
0
  6
HIDDEN
 62
     7
370
     0
100
AcDbLine
 10
132.9789651186
 20
124.3441321555
 30
0.0
 11
133.8943862916
 21
124.1249025467
 31
0.0
  0
LINE
  5
1E9
330
1F
100
AcDbEntity
  8
0
  6
HIDDEN
 62
     7
370
     0
100
AcDbLine
 10
134.8725637049
 20
128.2094058249
 30
0.0
 11
132.9789651186
 21
128.6628937948
 31
0.0
  0
LINE
  5
1EA
330
1F
100
AcDbEntity
  8
0
  6
HIDDEN
 62
     7
370
     0
100
AcDbLine
 10
221.7289652303
 20
141.5689701814
 30
0.0
 11
221.3526364044
 21
141.9452990073
 31
0.0
  0
LINE
  5
1EB
330
1F
100
AcDbEntity
  8
0
  6
HIDDEN
 62
     7
370
     0
100
AcDbLine
 10
210.1038690284
 20
141.9438703585
 30
0.0
 11
209.7289632634
 21
141.5689701814
 31
0.0
  0
LINE
  5
1EC
330
1F
100
AcDbEntity
  8
0
  6
HIDDEN
 62
     7
370
     0
100
AcDbLine
 10
209.7289632634
 20
141.5689701814
 30
0.0
 11
209.7289632634
 21
134.1660844761
 31
0.0
  0
LINE
  5
1ED
330
1F
100
AcDbEntity
  8
0
  6
HIDDEN
 62
     7
370
     0
100
AcDbLine
 10
221.7289652303
 20
134.1660844761
 30
0.0
 11
221.7289652303
 21
141.5689701814
 31
0.0
  0
LINE
  5
1EE
330
1F
100
AcDbEntity
  8
0
  6
HIDDEN
 62
     7
370
     0
100
AcDbLine
 10
209.7289632634
 20
134.1660844761
 30
0.0
 11
211.9193818048
 21
125.9913232777
 31
0.0
  0
LINE
  5
1EF
330
1F
100
AcDbEntity
  8
0
  6
HIDDEN
 62
     7
370
     0
100
AcDbLine
 10
219.5385466889
 20
125.9913232777
 30
0.0
 11
221.7289652303
 21
134.1660844761
 31
0.0
  0
ARC
  5
1F0
330
1F
100
AcDbEntity
  8
0
  6
HIDDEN
 62
     7
370
     0
100
AcDbCircle
 10
212.209162901
 20
126.0689692647
 30
0.0
 40
0.3000000000000256
100
AcDbArc
 50
195.0
 51
270.0
  0
ARC
  5
1F1
330
1F
100
AcDbEntity
  8
0
  6
HIDDEN
 62
     7
370
     0
100
AcDbCircle
 10
219.2487667082
 20
126.0689692647
 30
0.0
 40
0.3000000000000256
100
AcDbArc
 50
270.0
 51
345.0
  0
LINE
  5
1F2
330
1F
100
AcDbEntity
  8
0
  6
HIDDEN
 62
     7
370
     0
100
AcDbLine
 10
212.128966637
 20
142.2689689923
 30
0.0
 11
212.6284461097
 21
141.769487657
 31
0.0
  0
LINE
  5
1F3
330
1F
100
AcDbEntity
  8
0
  6
HIDDEN
 62
     7
370
     0
100
AcDbLine
 10
218.8294823841
 20
141.769487657
 30
0.0
 11
219.3289618567
 21
142.2689689923
 31
0.0
  0
LINE
  5
1F4
330
1F
100
AcDbEntity
  8
0
  6
HIDDEN
 62
     7
370
     0
100
AcDbLine
 10
212.7289618925
 20
135.2689697075
 30
0.0
 11
212.7289618925
 21
134.2689695436
 31
0.0
  0
LINE
  5
1F5
330
1F
100
AcDbEntity
  8
0
  6
HIDDEN
 62
     7
370
     0
100
AcDbLine
 10
218.7289666013
 20
134.2689695436
 30
0.0
 11
218.7289666013
 21
135.2689697075
 31
0.0
  0
LINE
  5
1F6
330
1F
100
AcDbEntity
  8
0
  6
HIDDEN
 62
     7
370
     0
100
AcDbLine
 10
212.7289618925
 20
134.2689695436
 30
0.0
 11
215.7289679722
 21
133.1770590174
 31
0.0
  0
LINE
  5
1F7
330
1F
100
AcDbEntity
  8
0
  6
HIDDEN
 62
     7
370
     0
100
AcDbLine
 10
215.7289679722
 20
133.1770590174
 30
0.0
 11
218.7289666013
 21
134.2689695436
 31
0.0
  0
LINE
  5
1F8
330
1F
100
AcDbEntity
  8
0
  6
HIDDEN
 62
     7
370
     0
100
AcDbLine
 10
140.778964907
 20
108.137031332
 30
0.0
 11
140.778964907
 21
108.0002233054
 31
0.0
  0
LINE
  5
1F9
330
1F
100
AcDbEntity
  8
0
  6
HIDDEN
 62
     7
370
     0
100
AcDbLine
 10
144.7789648059
 20
108.0002233054
 30
0.0
 11
144.7789648059
 21
108.137031332
 31
0.0
  0
LINE
  5
1FA
330
1F
100
AcDbEntity
  8
0
  6
HIDDEN
 62
     7
370
     0
100
AcDbLine
 10
141.2789649889
 20
108.9694996032
 30
0.0
 11
141.2789649889
 21
107.9660214152
 31
0.0
  0
LINE
  5
1FB
330
1F
100
AcDbEntity
  8
0
  6
HIDDEN
 62
     7
370
     0
100
AcDbLine
 10
144.2789647822
 20
107.9660214152
 30
0.0
 11
144.2789647822
 21
108.9694996032
 31
0.0
  0
LINE
  5
1FC
330
1F
100
AcDbEntity
  8
0
  6
HIDDEN
 62
     7
370
     0
100
AcDbLine
 10
140.778964907
 20
109.2314960103
 30
0.0
 11
140.778964907
 21
108.9065766561
 31
0.0
  0
LINE
  5
1FD
330
1F
100
AcDbEntity
  8
0
  6
HIDDEN
 62
     7
370
     0
100
AcDbLine
 10
144.7789648059
 20
108.9065766561
 30
0.0
 11
144.7789648059
 21
109.2314960103
 31
0.0
  0
LINE
  5
1FE
330
1F
100
AcDbEntity
  8
0
  6
HIDDEN
 62
     7
370
     0
100
AcDbLine
 10
144.7789648059
 20
125.3064426261
 30
0.0
 11
144.7789648059
 21
125.6313615147
 31
0.0
  0
LINE
  5
1FF
330
1F
100
AcDbEntity
  8
0
  6
HIDDEN
 62
     7
370
     0
100
AcDbLine
 10
140.778964907
 20
125.6313615147
 30
0.0
 11
140.778964907
 21
125.3064426261
 31
0.0
  0
LINE
  5
200
330
1F
100
AcDbEntity
  8
0
  6
HIDDEN
 62
     7
370
     0
100
AcDbLine
 10
144.2789647822
 20
125.5684385675
 30
0.0
 11
144.2789647822
 21
126.5719172213
 31
0.0
  0
LINE
  5
201
330
1F
100
AcDbEntity
  8
0
  6
HIDDEN
 62
     7
370
     0
100
AcDbLine
 10
141.2789649889
 20
126.5719172213
 30
0.0
 11
141.2789649889
 21
125.5684385675
 31
0.0
  0
LINE
  5
202
330
1F
100
AcDbEntity
  8
0
  6
HIDDEN
 62
     7
370
     0
100
AcDbLine
 10
144.7789648059
 20
126.4009068388
 30
0.0
 11
144.7789648059
 21
126.537715331
 31
0.0
  0
LINE
  5
203
330
1F
100
AcDbEntity
  8
0
  6
HIDDEN
 62
     7
370
     0
100
AcDbLine
 10
140.778964907
 20
126.537715331
 30
0.0
 11
140.778964907
 21
126.4009068388
 31
0.0
  0
ARC
  5
204
330
1F
100
AcDbEntity
  8
0
  6
HIDDEN
 62
     7
370
     0
100
AcDbCircle
 10
142.7789648046
 20
108.5474556099
 30
0.0
 40
1.500000000000023
100
AcDbArc
 50
71.1182787691
 51
191.5274417161
  0
ARC
  5
205
330
1F
100
AcDbEntity
  8
0
  6
HIDDEN
 62
     7
370
     0
100
AcDbCircle
 10
142.7789648046
 20
108.5474556099
 30
0.0
 40
1.499999999999992
100
AcDbArc
 50
336.6037645748
 51
71.1182787691
  0
CIRCLE
  5
206
330
1F
100
AcDbEntity
  8
0
  6
HIDDEN
 62
     7
370
     0
100
AcDbCircle
 10
142.7789648046
 20
125.9904829195
 30
0.0
 40
1.499999999999985
  0
LINE
  5
207
330
1F
100
AcDbEntity
  8
0
  6
HIDDEN
 62
     7
370
     0
100
AcDbLine
 10
136.5394252912
 20
124.0704369399
 30
0.0
 11
137.0364674926
 21
124.544051722
 31
0.0
  0
LINE
  5
208
330
1F
100
AcDbEntity
  8
0
  6
HIDDEN
 62
     7
370
     0
100
AcDbLine
 10
137.4839083851
 20
126.4123956341
 30
0.0
 11
137.2553301603
 21
127.0597868267
 31
0.0
  0
LINE
  5
209
330
1F
100
AcDbEntity
  8
0
  6
HIDDEN
 62
     7
370
     0
100
AcDbLine
 10
134.1021224484
 20
124.1779804829
 30
0.0
 11
135.7607688383
 21
123.7807592976
 31
0.0
  0
LINE
  5
20A
330
1F
100
AcDbEntity
  8
0
  6
HIDDEN
 62
     7
370
     0
100
AcDbLine
 10
136.6923661531
 20
127.6707623753
 30
0.0
 11
135.0337197632
 21
128.0679835606
 31
0.0
  0
LINE
  5
20B
330
1F
100
AcDbEntity
  8
0
  6
HIDDEN
 62
     7
370
     0
100
AcDbLine
 10
135.0337197632
 20
106.4699550759
 30
0.0
 11
136.6923661531
 21
106.8671762611
 31
0.0
  0
LINE
  5
20C
330
1F
100
AcDbEntity
  8
0
  6
HIDDEN
 62
     7
370
     0
100
AcDbLine
 10
135.7607688383
 20
110.7571793388
 30
0.0
 11
134.1021224484
 21
110.3599583864
 31
0.0
  0
LINE
  5
20D
330
1F
100
AcDbEntity
  8
0
  6
HIDDEN
 62
     7
370
     0
100
AcDbLine
 10
137.2553301603
 20
107.4781518097
 30
0.0
 11
137.4839083851
 21
108.1255425367
 31
0.0
  0
LINE
  5
20E
330
1F
100
AcDbEntity
  8
0
  6
HIDDEN
 62
     7
370
     0
100
AcDbLine
 10
137.0364674926
 20
109.9938864488
 30
0.0
 11
136.5394252912
 21
110.4675019294
 31
0.0
  0
DIMENSION
  5
20F
330
1F
100
AcDbEntity
  8
VERMASSUNG
100
AcDbDimension
  2
_D
 10
51.5289648046
 20
149.0189692647
 30
0.0
 11
51.5289648046
 21
117.2689692647
 31
0.0
 70
   160
  1
ISO 40 %%c<>
 71
     2
 42
-1.0
  3
SLDDIMSTYLE0
100
AcDbAlignedDimension
 13
148.2289648046
 23
85.5189692647
 33
0.0
 14
148.2289648046
 24
149.0189692647
 34
0.0
 50
90.0
100
AcDbRotatedDimension
  0
DIMENSION
  5
21C
330
1F
100
AcDbEntity
  8
VERMASSUNG
100
AcDbDimension
  2
_D_1
 10
237.8997039092
 20
131.2689692647
 30
0.0
 11
237.8997039092
 21
117.2689692647
 31
0.0
 70
   160
  1
%%c<>
 71
     2
 42
-1.0
  3
SLDDIMSTYLE0
100
AcDbAlignedDimension
 13
228.7789648046
 23
103.2689692647
 33
0.0
 14
228.7789648046
 24
131.2689692647
 34
0.0
 50
90.0
100
AcDbRotatedDimension
  0
DIMENSION
  5
227
330
1F
100
AcDbEntity
  8
VERMASSUNG
100
AcDbDimension
  2
_D_2
 10
243.8997039092
 20
142.2689692647
 30
0.0
 11
243.8997039092
 21
117.2689692647
 31
0.0
 70
   160
  1
WH %%c<>
 71
     2
 42
-1.0
  3
SLDDIMSTYLE0
100
AcDbAlignedDimension
 13
229.2789648046
 23
92.2689692647
 33
0.0
 14
229.2789648046
 24
142.2689692647
 34
0.0
 50
90.0
100
AcDbRotatedDimension
  0
DIMENSION
  5
233
330
1F
100
AcDbEntity
  8
VERMASSUNG
100
AcDbDimension
  2
_D_3
 10
148.8289648046
 20
153.7423924575
 30
0.0
 11
189.3039648046
 21
153.7423924575
 31
0.0
 70
   160
  1
<>
 71
     2
 42
-1.0
  3
SLDDIMSTYLE0
100
AcDbAlignedDimension
 13
229.7789648046
 23
141.7689692647
 33
0.0
 14
148.8289648046
 24
135.6189692647
 34
0.0
100
AcDbRotatedDimension
  0
DIMENSION
  5
23D
330
1F
100
AcDbEntity
  8
VERMASSUNG
100
AcDbDimension
  2
_D_4
 10
129.7789648046
 20
159.7423924575
 30
0.0
 11
179.7789648046
 21
159.7423924575
 31
0.0
 70
   160
  1
<>
 71
     2
 42
-1.0
  3
SLDDIMSTYLE0
100
AcDbAlignedDimension
 13
229.7789648046
 23
141.7689692647
 33
0.0
 14
129.7789648046
 24
139.4939692647
 34
0.0
100
AcDbRotatedDimension
  0
DIMENSION
  5
247
330
1F
100
AcDbEntity
  8
VERMASSUNG
100
AcDbDimension
  2
_D_5
 10
61.5289648046
 20
165.7423924575
 30
0.0
 11
145.6539648046
 21
165.7423924575
 31
0.0
 70
   160
  1
<>
 71
     2
 42
-1.0
  3
SLDDIMSTYLE0
100
AcDbAlignedDimension
 13
229.7789648046
 23
141.7689692647
 33
0.0
 14
61.5289648046
 24
128.6760998617
 34
0.0
100
AcDbRotatedDimension
  0
LINE
  5
251
330
1F
100
AcDbEntity
  8
VERMASSUNG
  6
CENTERX2
370
     0
100
AcDbLine
 10
148.8289648046
 20
89.1327427701
 30
0.0
 11
148.8289648046
 21
95.0689692647
 31
0.0
  0
LINE
  5
252
330
1F
100
AcDbEntity
  8
VERMASSUNG
  6
CENTERX2
370
     0
100
AcDbLine
 10
148.8289648046
 20
145.1360748432
 30
0.0
 11
148.8289648046
 21
139.4347581076
 31
0.0
  0
LINE
  5
253
330
1F
100
AcDbEntity
  8
VERMASSUNG
  6
CENTERX2
370
     0
100
AcDbLine
 10
59.9430768156
 20
117.2689692647
 30
0.0
 11
231.2248931898
 21
117.2689692647
 31
0.0
  0
LINE
  5
254
330
1F
100
AcDbEntity
  8
0
  6
Continuous
 62
     7
370
    15
100
AcDbLine
 10
274.2423260131
 20
18.7131093356
 30
0.0
 11
274.41907442
 21
18.8151764336
 31
0.0
  0
LINE
  5
255
330
1F
100
AcDbEntity
  8
0
  6
Continuous
 62
     7
370
    15
100
AcDbLine
 10
283.0797247887
 20
33.8174885819
 30
0.0
 11
283.0797241302
 21
34.0215906433
 31
0.0
  0
LINE
  5
256
330
1F
100
AcDbEntity
  8
0
  6
Continuous
 62
     7
370
    15
100
AcDbLine
 10
280.490381784
 20
39.7446506614
 30
0.0
 11
253.1076711125
 21
55.5523530556
 31
0.0
  0
LINE
  5
257
330
1F
100
AcDbEntity
  8
0
  6
Continuous
 62
     7
370
    15
100
AcDbLine
 10
240.6086866703
 20
33.9011317548
 30
0.0
 11
267.9913973418
 21
18.0934293605
 31
0.0
  0
SPLINE
  5
258
330
1F
100
AcDbEntity
  8
0
  6
Continuous
 62
     7
370
    15
100
AcDbSpline
210
0.0
220
0.0
230
1.0
 70
     8
 71
     3
 72
    27
 73
    23
 74
     0
 42
0.000000001
 43
0.00000001
 40
0.0
 40
0.0
 40
0.0
 40
0.0
 40
0.0075759327233455
 40
0.0654572735121358
 40
0.1240887798118554
 40
0.1810802723124177
 40
0.2363543986427189
 40
0.2906660515587353
 40
0.3446044160669802
 40
0.3984704957594428
 40
0.4523754890520748
 40
0.5063830456342617
 40
0.5604989556231268
 40
0.6147028395248046
 40
0.6689635101993052
 40
0.7232457166990731
 40
0.7775072069049811
 40
0.8317037378268615
 40
0.8857981896396859
 40
0.9397564201529626
 40
0.9907323336189889
 40
1.0
 40
1.0
 40
1.0
 40
1.0
 10
270.7297925116888
 20
22.88055920875851
 30
0.0
 10
270.7091496820642
 20
22.88774164256897
 30
0.0
 10
270.5307923240796
 20
22.94979902237722
 30
0.0
 10
270.2507081017594
 20
23.16521133225599
 30
0.0
 10
269.8958218356149
 20
23.53719500015402
 30
0.0
 10
269.6157269041445
 20
24.02267831014638
 30
0.0
 10
269.4117267836755
 20
24.59321272541386
 30
0.0
 10
269.2884034349993
 20
25.24009402842623
 30
0.0
 10
269.246914985864
 20
25.95284410650575
 30
0.0
 10
269.2889153299224
 20
26.72065868843291
 30
0.0
 10
269.4148182039589
 20
27.53054455780357
 30
0.0
 10
269.6235109817507
 20
28.36816126249119
 30
0.0
 10
269.912154954343
 20
29.21840406540316
 30
0.0
 10
270.2761774811744
 20
30.06566357562598
 30
0.0
 10
270.7093398592293
 20
30.89430755762583
 30
0.0
 10
271.2038660112605
 20
31.68903117841669
 30
0.0
 10
271.7505981124686
 20
32.43520446383638
 30
0.0
 10
272.3391460399781
 20
33.11913635908285
 30
0.0
 10
272.9581482782281
 20
33.72875118699015
 30
0.0
 10
273.584160293251
 20
34.24344261387441
 30
0.0
 10
274.0389757694946
 20
34.55104615258598
 30
0.0
 10
274.2774105760452
 20
34.69064794810082
 30
0.0
 10
274.3140905715956
 20
34.71212381109413
 30
0.0
  0
SPLINE
  5
259
330
1F
100
AcDbEntity
  8
0
  6
Continuous
 62
     7
370
    15
100
AcDbSpline
210
0.0
220
0.0
230
1.0
 70
     8
 71
     3
 72
    14
 73
    10
 74
     0
 42
0.000000001
 43
0.00000001
 40
0.0
 40
0.0
 40
0.0
 40
0.0
 40
0.0877449621514467
 40
0.2552055641201836
 40
0.4225810912721162
 40
0.5904788369540789
 40
0.7603114516022563
 40
0.9342671012555671
 40
1.0
 40
1.0
 40
1.0
 40
1.0
 10
274.3140905715956
 20
34.71212381109413
 30
0.0
 10
274.4248912728011
 20
34.77347179811076
 30
0.0
 10
274.747154280987
 20
34.95190195809185
 30
0.0
 10
275.2710364190677
 20
35.17039065625423
 30
0.0
 10
275.8658892881946
 20
35.32980057831143
 30
0.0
 10
276.4229049070273
 20
35.3855243634024
 30
0.0
 10
276.9308158090656
 20
35.33382496689824
 30
0.0
 10
277.3019819576538
 20
35.23404338078154
 30
0.0
 10
277.484427537353
 20
35.11646713851178
 30
0.0
 10
277.5344619545036
 20
35.08422268094577
 30
0.0
  0
SPLINE
  5
25A
330
1F
100
AcDbEntity
  8
0
  6
Continuous
 62
     7
370
    15
100
AcDbSpline
210
0.0
220
0.0
230
1.0
 70
     8
 71
     3
 72
    30
 73
    26
 74
     0
 42
0.000000001
 43
0.00000001
 40
0.0
 40
0.0
 40
0.0
 40
0.0
 40
0.008078529113889
 40
0.0543345814337104
 40
0.1007266697492123
 40
0.147321147672387
 40
0.194092077942005
 40
0.2409910825677963
 40
0.2879680826554523
 40
0.3349828099460135
 40
0.3820057781594458
 40
0.429019222233771
 40
0.4760169601157305
 40
0.522997345516917
 40
0.5699613866505032
 40
0.6169116279672592
 40
0.6638514117827977
 40
0.7107844729822004
 40
0.7577147891799773
 40
0.8046463849950845
 40
0.8515820721902884
 40
0.8985259354873685
 40
0.9454821523863017
 40
0.9924547273243303
 40
1.0
 40
1.0
 40
1.0
 40
1.0
 10
246.7775657996506
 20
62.8072135057583
 30
0.0
 10
246.7296720610898
 20
62.81921773414839
 30
0.0
 10
246.4075482930978
 20
62.89995578878871
 30
0.0
 10
245.7780512450309
 20
62.97177824341033
 30
0.0
 10
244.8770173078095
 20
62.97521479398971
 30
0.0
 10
243.9387193914736
 20
62.85948660798818
 30
0.0
 10
242.9727452976399
 20
62.63140387286425
 30
0.0
 10
241.9861308763947
 20
62.29084617194887
 30
0.0
 10
240.9871630520194
 20
61.84099284772849
 30
0.0
 10
239.9839447517547
 20
61.28549175469364
 30
0.0
 10
238.984555255373
 20
60.62905471591282
 30
0.0
 10
237.9968701551944
 20
59.87712665837737
 30
0.0
 10
237.028547463092
 20
59.03583959247888
 30
0.0
 10
236.0870201239914
 20
58.1119234078499
 30
0.0
 10
235.1794967174264
 20
57.11269663002675
 30
0.0
 10
234.3129288470207
 20
56.0460163277212
 30
0.0
 10
233.4939680904611
 20
54.92022609240474
 30
0.0
 10
232.7289128680256
 20
53.74410263122209
 30
0.0
 10
232.0236818112933
 20
52.52679352642792
 30
0.0
 10
231.3837077803656
 20
51.27774632559132
 30
0.0
 10
230.8141286387445
 20
50.00668708572128
 30
0.0
 10
230.3188723299005
 20
48.72330525614934
 30
0.0
 10
229.9038838758012
 20
47.43806305305354
 30
0.0
 10
229.6598091465825
 20
46.51687911538655
 30
0.0
 10
229.5527399935208
 20
46.02737611026104
 30
0.0
 10
229.5379216176977
 20
45.95962887131274
 30
0.0
  0
LINE
  5
25B
330
1F
100
AcDbEntity
  8
0
  6
Continuous
 62
     7
370
    15
100
AcDbLine
 10
239.3107066404
 20
60.826064544
 30
0.0
 11
217.9975942453
 21
68.5064657727
 31
0.0
  0
LINE
  5
25C
330
1F
100
AcDbEntity
  8
0
  6
Continuous
 62
     7
370
    15
100
AcDbLine
 10
211.8328125799
 20
57.8275933175
 30
0.0
 11
232.2033910505
 21
40.6268454991
 31
0.0
  0
SPLINE
  5
25D
330
1F
100
AcDbEntity
  8
0
  6
Continuous
 62
     7
370
    15
100
AcDbSpline
210
0.0
220
0.0
230
1.0
 70
     8
 71
     3
 72
    12
 73
     8
 74
     0
 42
0.000000001
 43
0.00000001
 40
0.0
 40
0.0
 40
0.0
 40
0.0
 40
0.0655314465783755
 40
0.3754288321848117
 40
0.6864113952088065
 40
0.9981421431170551
 40
1.0
 40
1.0
 40
1.0
 40
1.0
 10
241.2000014396402
 20
30.97247970075578
 30
0.0
 10
241.2644213425071
 20
30.97429365931537
 30
0.0
 10
241.6334821547665
 20
30.98468580505941
 30
0.0
 10
242.3387966428641
 20
31.11339527318568
 30
0.0
 10
243.3101629461268
 20
31.37783686835799
 30
0.0
 10
243.9713434696756
 20
31.60323508447976
 30
0.0
 10
244.3062497448826
 20
31.76447311215218
 30
0.0
 10
244.3082338983851
 20
31.76542836746097
 30
0.0
  0
LINE
  5
25E
330
1F
100
AcDbEntity
  8
0
  6
Continuous
 62
     7
370
    15
100
AcDbLine
 10
236.2950714355
 20
32.4943195564
 30
0.0
 11
237.6485315765
 21
31.7129836482
 31
0.0
  0
LINE
  5
25F
330
1F
100
AcDbEntity
  8
0
  6
Continuous
 62
     7
370
    15
100
AcDbLine
 10
232.4689744773
 20
34.7030783156
 30
0.0
 11
233.8047569376
 21
33.9319475152
 31
0.0
  0
SPLINE
  5
260
330
1F
100
AcDbEntity
  8
0
  6
Continuous
 62
     7
370
    15
100
AcDbSpline
210
0.0
220
0.0
230
1.0
 70
     8
 71
     3
 72
    10
 73
     6
 74
     0
 42
0.000000001
 43
0.00000001
 40
0.0
 40
0.0
 40
0.0
 40
0.0
 40
0.2351205878587204
 40
0.9176806080810845
 40
1.0
 40
1.0
 40
1.0
 40
1.0
 10
229.5493779872309
 20
38.70073123439352
 30
0.0
 10
229.5822030341982
 20
38.59121008646476
 30
0.0
 10
229.7103198840906
 20
38.1637467386383
 30
0.0
 10
229.874881056376
 20
37.7173722703979
 30
0.0
 10
230.0411278384667
 20
37.41790990550224
 30
0.0
 10
230.0590199843303
 20
37.38568056400147
 30
0.0
  0
SPLINE
  5
261
330
1F
100
AcDbEntity
  8
0
  6
Continuous
 62
     7
370
    15
100
AcDbSpline
210
0.0
220
0.0
230
1.0
 70
     8
 71
     3
 72
    10
 73
     6
 74
     0
 42
0.000000001
 43
0.00000001
 40
0.0
 40
0.0
 40
0.0
 40
0.0
 40
0.0768620243262246
 40
0.7380058431328805
 40
1.0
 40
1.0
 40
1.0
 40
1.0
 10
255.5885754620497
 20
57.15349255180121
 30
0.0
 10
255.5716651436469
 20
57.18464267982997
 30
0.0
 10
255.4092973957252
 20
57.4837367604385
 30
0.0
 10
255.1358335742043
 20
57.83148581390956
 30
0.0
 10
254.8627913713096
 20
58.12308736563386
 30
0.0
 10
254.7852997464155
 20
58.2058462865085
 30
0.0
  0
SPLINE
  5
262
330
1F
100
AcDbEntity
  8
0
  6
Continuous
 62
     7
370
    15
100
AcDbSpline
210
0.0
220
0.0
230
1.0
 70
     8
 71
     3
 72
    10
 73
     6
 74
     0
 42
0.000000001
 43
0.00000001
 40
0.0
 40
0.0
 40
0.0
 40
0.0
 40
0.1779870569003568
 40
0.6146258989679245
 40
1.0
 40
1.0
 40
1.0
 40
1.0
 10
256.4557746936669
 20
55.16751570004777
 30
0.0
 10
256.4171019269617
 20
55.29730510358053
 30
0.0
 10
256.2835569129833
 20
55.74549459674963
 30
0.0
 10
256.0110231545739
 20
56.42729405359081
 30
0.0
 10
255.723412423015
 20
56.92170433212562
 30
0.0
 10
255.5885754620497
 20
57.15349255180121
 30
0.0
  0
SPLINE
  5
263
330
1F
100
AcDbEntity
  8
0
  6
Continuous
 62
     7
370
    15
100
AcDbSpline
210
0.0
220
0.0
230
1.0
 70
     8
 71
     3
 72
    23
 73
    19
 74
     0
 42
0.000000001
 43
0.00000001
 40
0.0
 40
0.0
 40
0.0
 40
0.0
 40
0.0438801347687608
 40
0.1065845742837259
 40
0.1707120315526097
 40
0.2362358334058468
 40
0.3026532121517907
 40
0.3694221716210133
 40
0.4361526723832065
 40
0.5027541773618154
 40
0.5692341073180406
 40
0.6356387507255249
 40
0.7020291342144176
 40
0.7684632262985623
 40
0.8349967530475599
 40
0.9016995903618933
 40
0.9686347738080086
 40
0.9999999999999999
 40
0.9999999999999999
 40
0.9999999999999999
 40
0.9999999999999999
 10
217.7282966274211
 20
68.57405727907319
 30
0.0
 10
217.6008012422049
 20
68.60369366772804
 30
0.0
 10
217.2911157449286
 20
68.67568027134107
 30
0.0
 10
216.7578155069321
 20
68.65776943577089
 30
0.0
 10
216.1453119282043
 20
68.54055630503342
 30
0.0
 10
215.5118342911403
 20
68.30608157428564
 30
0.0
 10
214.8716565059864
 20
67.96287536964401
 30
0.0
 10
214.2388462654853
 20
67.51681097503297
 30
0.0
 10
213.6275150860578
 20
66.97892657166935
 30
0.0
 10
213.0500288340288
 20
66.36136785692514
 30
0.0
 10
212.5172460957797
 20
65.67705641594173
 30
0.0
 10
212.0390747990392
 20
64.93963942843381
 30
0.0
 10
211.6245053264028
 20
64.16345677937457
 30
0.0
 10
211.2817144385091
 20
63.36344616462108
 30
0.0
 10
211.0172793075203
 20
62.55449709262106
 30
0.0
 10
210.838546484243
 20
61.75239355018114
 30
0.0
 10
210.7614639753917
 20
61.10863199054269
 30
0.0
 10
210.7549187826448
 20
60.74186262142753
 30
0.0
 10
210.7528303737385
 20
60.62483559921121
 30
0.0
  0
SPLINE
  5
264
330
1F
100
AcDbEntity
  8
0
  6
Continuous
 62
     7
370
    15
100
AcDbSpline
210
0.0
220
0.0
230
1.0
 70
     8
 71
     3
 72
    13
 73
     9
 74
     0
 42
0.000000001
 43
0.00000001
 40
0.0
 40
0.0
 40
0.0
 40
0.0
 40
0.1160706576817354
 40
0.3356818519757336
 40
0.5552483640380972
 40
0.7724141479651208
 40
0.9847996933804644
 40
1.0
 40
1.0
 40
1.0
 40
1.0
 10
210.7528303737385
 20
60.62483559921121
 30
0.0
 10
210.7554870267778
 20
60.49440858411894
 30
0.0
 10
210.7631701934806
 20
60.11720746500497
 30
0.0
 10
210.8499915109514
 20
59.53191736978616
 30
0.0
 10
211.0431034280542
 20
58.89842472363735
 30
0.0
 10
211.3415163016432
 20
58.36017246313062
 30
0.0
 10
211.588794873503
 20
58.02256063045248
 30
0.0
 10
211.7540212244958
 20
57.90095519510248
 30
0.0
 10
211.7650565818093
 20
57.89283324952724
 30
0.0
  0
LINE
  5
265
330
1F
100
AcDbEntity
  8
0
  6
Continuous
 62
     7
370
    15
100
AcDbLine
 10
273.2886460582
 20
31.7409286213
 30
0.0
 11
275.8217799842
 21
32.257036748
 31
0.0
  0
LINE
  5
266
330
1F
100
AcDbEntity
  8
0
  6
Continuous
 62
     7
370
    15
100
AcDbLine
 10
271.5719044903
 20
42.8300077756
 30
0.0
 11
271.3243773661
 21
42.9729478274
 31
0.0
  0
LINE
  5
267
330
1F
100
AcDbEntity
  8
0
  6
Continuous
 62
     7
370
    15
100
AcDbLine
 10
267.5761040286
 20
42.9729470671
 30
0.0
 11
267.3285749287
 21
42.8300073954
 31
0.0
  0
LINE
  5
268
330
1F
100
AcDbEntity
  8
0
  6
Continuous
 62
     7
370
    15
100
AcDbLine
 10
266.4502405121
 20
41.6055938438
 30
0.0
 11
266.4502405121
 21
41.3810451218
 31
0.0
  0
LINE
  5
269
330
1F
100
AcDbEntity
  8
0
  6
Continuous
 62
     7
370
    15
100
AcDbLine
 10
272.4502398742
 20
41.3810453237
 30
0.0
 11
272.4502398742
 21
41.6055940458
 31
0.0
  0
LWPOLYLINE
  5
26A
330
1F
100
AcDbEntity
  8
0
  6
Continuous
 62
     7
370
    15
100
AcDbPolyline
 90
       60
 70
   128
 43
0.0
 10
274.4176664518
 20
38.8196137593
 10
273.4969461556
 20
38.2314265933
 10
272.5866579452
 20
37.5365695068
 10
271.6971157802
 20
36.7429167907
 10
270.8383985195
 20
35.8594594978
 10
270.0202359937
 20
34.8962084942
 10
269.2518979575
 20
33.8640778814
 10
268.5420900401
 20
32.7747610509
 10
267.8988547163
 20
31.6406012717
 10
267.3294804274
 20
30.4744491124
 10
266.8404176169
 20
29.2895166303
 10
266.4372085954
 20
28.0992307987
 10
266.1244210275
 20
26.9170774279
 10
265.9055998584
 20
25.7564509786
 10
265.783223191
 20
24.6305012378
 10
265.7586779201
 20
23.5519859691
 10
265.8322432686
 20
22.5331257255
 10
266.0030842019
 20
21.5854639011
 10
266.2692659164
 20
20.7197382354
 10
266.6277729368
 20
19.9457579368
 10
267.0745413848
 20
19.2722915239
 10
267.6045113337
 20
18.7069709067
 10
268.2116765285
 20
18.2562006969
 10
268.8891584716
 20
17.9250880482
 10
269.6292801805
 20
17.7173852345
 10
270.4236565726
 20
17.6354456297
 10
271.263286497
 20
17.680197748
 10
272.1386568665
 20
17.8511331146
 10
273.0398492807
 20
18.1463168661
 10
273.9566529452
 20
18.5624027476
 10
274.8786800407
 20
19.0946776601
 10
275.7954836435
 20
19.7371107227
 10
276.6966761194
 20
20.4824216208
 10
277.5720464067
 20
21.3221673224
 10
278.4116768249
 20
22.2468315653
 10
279.2060527231
 20
23.2459383448
 10
279.946174432
 20
24.3081674945
 10
280.6236567044
 20
25.4214843351
 10
281.2308215699
 20
26.5732723671
 10
281.7607911896
 20
27.7504830729
 10
282.2075602961
 20
28.9397777363
 10
282.5660666579
 20
30.1276810498
 10
282.8322483724
 20
31.3007335814
 10
283.0030899643
 20
32.445644529
 10
283.0766546542
 20
33.5494411359
 10
283.0521100419
 20
34.5996174182
 10
282.9297333745
 20
35.5842740664
 10
282.7109115468
 20
36.4922545913
 10
282.3981246375
 20
37.3132715034
 10
281.9949149574
 20
38.0380217279
 10
281.5058528055
 20
38.6582946882
 10
280.9364785166
 20
39.1670612864
 10
280.2932431928
 20
39.5585573688
 10
279.5834349461
 20
39.8283472319
 10
278.8150972392
 20
39.9733738207
 10
277.9969343841
 20
39.991994289
 10
277.1382173704
 20
39.883997879
 10
276.2486752054
 20
39.6506070725
 10
275.3383869127
 20
39.2944677149
 10
274.4176664518
 20
38.8196137593
  0
LWPOLYLINE
  5
26B
330
1F
100
AcDbEntity
  8
0
  6
Continuous
 62
     7
370
    15
100
AcDbPolyline
 90
       31
 70
   128
 43
0.0
 10
274.2408893983
 20
39.1257998363
 10
273.3013788927
 20
38.5256086493
 10
272.3725133888
 20
37.8165715761
 10
271.4648173331
 20
37.006721682
 10
270.5885752152
 20
36.105234888
 10
269.753715458
 20
35.1223256793
 10
268.9696968186
 20
34.0691305751
 10
268.2454032269
 20
32.9575827811
 10
267.5890408062
 20
31.8002774542
 10
267.0080461702
 20
30.6103256079
 10
266.5090031176
 20
29.4012117226
 10
266.0975649239
 20
28.1866340563
 10
265.7783940842
 20
26.9803548388
 10
265.5551066662
 20
25.7960419105
 10
265.430232798
 20
24.647113782
 10
265.4051870333
 20
23.5465882807
 10
265.4802532047
 20
22.5069346664
 10
265.6545811312
 20
21.539932993
 10
265.9261951793
 20
20.6565393634
 10
266.2920179706
 20
19.8667631839
 10
266.7479046259
 20
19.17955283
 10
267.2886901806
 20
18.602695166
 10
267.9082468781
 20
18.1427258046
 10
268.5995546339
 20
17.8048560964
 10
269.3547810489
 20
17.5929139958
 10
270.1653689958
 20
17.5093026082
 10
271.0221342482
 20
17.554967195
 10
271.9153693662
 20
17.7293912674
 10
272.8349534983
 20
18.0305991357
 10
273.7704674309
 20
18.4551766993
 10
274.2423260131
 20
18.7131093356
  0
LWPOLYLINE
  5
26C
330
1F
100
AcDbEntity
  8
0
  6
Continuous
 62
     7
370
    15
100
AcDbPolyline
 90
       16
 70
   128
 43
0.0
 10
283.0797241302
 20
34.0215906433
 10
283.0515463278
 20
34.8196815535
 10
282.9266718011
 20
35.8244330025
 10
282.7033843831
 20
36.7509437655
 10
282.3842135433
 20
37.5887161753
 10
281.9727760082
 20
38.3282577948
 10
281.4737322971
 20
38.9611884559
 10
280.8927379904
 20
39.480338364
 10
280.2363758989
 20
39.8798239605
 10
279.5120823072
 20
40.1551201738
 10
278.7280633385
 20
40.3031064347
 10
277.893203746
 20
40.3221071802
 10
277.0169615458
 20
40.2119063118
 10
276.1092656136
 20
39.9737527186
 10
275.1803999449
 20
39.6103444134
 10
274.2408893983
 20
39.1257998363
  0
SPLINE
  5
26D
330
1F
100
AcDbEntity
  8
0
  6
Continuous
 62
     7
370
    15
100
AcDbSpline
210
0.0
220
0.0
230
1.0
 70
     8
 71
     3
 72
     9
 73
     5
 74
     0
 42
0.000000001
 43
0.00000001
 40
0.0
 40
0.0
 40
0.0
 40
0.0
 40
0.6067793924089635
 40
1.0
 40
1.0
 40
1.0
 40
1.0
 10
239.0248693479425
 20
36.8088888213641
 30
0.0
 10
238.9148830972449
 20
36.78773639430638
 30
0.0
 10
238.7336207602677
 20
36.75287623372358
 30
0.0
 10
238.5107777629147
 20
36.79206938553328
 30
0.0
 10
238.4231513040981
 20
36.8074809405013
 30
0.0
  0
SPLINE
  5
26E
330
1F
100
AcDbEntity
  8
0
  6
Continuous
 62
     7
370
    15
100
AcDbSpline
210
0.0
220
0.0
230
1.0
 70
     8
 71
     3
 72
    13
 73
     9
 74
     0
 42
0.000000001
 43
0.00000001
 40
0.0
 40
0.0
 40
0.0
 40
0.0
 40
0.1729017614912388
 40
0.3649364429982184
 40
0.5506530067855459
 40
0.7296191992022046
 40
0.9109200924005866
 40
1.0
 40
1.0
 40
1.0
 40
1.0
 10
239.0248693479425
 20
41.93166571843082
 30
0.0
 10
239.1864587271484
 20
41.54784296506532
 30
0.0
 10
239.5275186027975
 20
40.73772449578595
 30
0.0
 10
239.7805539882137
 20
39.43620628525908
 30
0.0
 10
239.8331591824054
 20
38.2684508814211
 30
0.0
 10
239.6705432932802
 20
37.39829275034436
 30
0.0
 10
239.3773009189273
 20
36.95268361653076
 30
0.0
 10
239.1122073268788
 20
36.84452338939196
 30
0.0
 10
239.0248693479425
 20
36.8088888213641
 30
0.0
  0
SPLINE
  5
26F
330
1F
100
AcDbEntity
  8
0
  6
Continuous
 62
     7
370
    15
100
AcDbSpline
210
0.0
220
0.0
230
1.0
 70
     8
 71
     3
 72
     9
 73
     5
 74
     0
 42
0.000000001
 43
0.00000001
 40
0.0
 40
0.0
 40
0.0
 40
0.0
 40
0.9103521883595357
 40
1.0
 40
1.0
 40
1.0
 40
1.0
 10
238.4231513040981
 20
42.90712850545785
 30
0.0
 10
238.619984353595
 20
42.62519293596537
 30
0.0
 10
238.8362007278881
 20
42.31549348876514
 30
0.0
 10
239.009347150098
 20
41.96324410485047
 30
0.0
 10
239.0248693479425
 20
41.93166571843081
 30
0.0
  0
LINE
  5
270
330
1F
100
AcDbEntity
  8
0
  6
Continuous
 62
     7
370
    15
100
AcDbLine
 10
240.5457344252
 20
33.9382128893
 30
0.0
 11
240.6086866703
 21
33.9011317548
 31
0.0
  0
SPLINE
  5
271
330
1F
100
AcDbEntity
  8
0
  6
Continuous
 62
     7
370
    15
100
AcDbSpline
210
0.0
220
0.0
230
1.0
 70
    11
 71
     3
 72
    26
 73
    22
 74
     0
 42
0.000000001
 43
0.00000001
 40
0.0
 40
0.0
 40
0.0
 40
0.0
 40
0.0583872418828975
 40
0.1170766087848906
 40
0.1782091639337358
 40
0.2394889506348338
 40
0.2988016579506658
 40
0.3518427693581346
 40
0.3975985319815084
 40
0.4407024638737225
 40
0.4863090128644931
 40
0.5375488639128636
 40
0.594780815610575
 40
0.6554264120060808
 40
0.7168037689274809
 40
0.777266708639833
 40
0.8331027073525807
 40
0.8812309546875365
 40
0.9246429494558862
 40
0.9688339007757186
 40
1.0
 40
1.0
 40
1.0
 40
1.0
 10
269.4174346441049
 20
43.66564935717525
 30
0.0
 10
269.8263320710327
 20
43.57477042748469
 30
0.0
 10
270.6462427662767
 20
43.3925423147146
 30
0.0
 10
271.7072253271392
 20
42.90173226239624
 30
0.0
 10
272.5034600160633
 20
42.33944766336528
 30
0.0
 10
272.9123680076815
 20
41.73284222933721
 30
0.0
 10
272.8587296595927
 20
41.13626811517519
 30
0.0
 10
272.374648894358
 20
40.60270487987404
 30
0.0
 10
271.6225202418164
 20
40.18543976525561
 30
0.0
 10
270.7332238480514
 20
39.89279708189411
 30
0.0
 10
269.7315851968357
 20
39.72828473254675
 30
0.0
 10
268.641060298766
 20
39.73709839718111
 30
0.0
 10
267.5596658898119
 20
39.99391878680341
 30
0.0
 10
266.6539137924161
 20
40.54201417651065
 30
0.0
 10
266.088216214817
 20
41.3277982789525
 30
0.0
 10
265.9666822984042
 20
42.20265094866986
 30
0.0
 10
266.304563702683
 20
42.96821117800446
 30
0.0
 10
266.9788785816235
 20
43.47762908208068
 30
0.0
 10
267.8237016849955
 20
43.72590325663806
 30
0.0
 10
268.660775714631
 20
43.76621289125573
 30
0.0
 10
269.1960545278936
 20
43.69507181687825
 30
0.0
 10
269.4174346441049
 20
43.66564935717525
 30
0.0
  0
LINE
  5
272
330
1F
100
AcDbEntity
  8
0
  6
Continuous
 62
     7
370
    15
100
AcDbLine
 10
270.5643969182
 20
22.958749374
 30
0.0
 11
270.7533633014
 21
22.8608511331
 31
0.0
  0
SPLINE
  5
273
330
1F
100
AcDbEntity
  8
0
  6
Continuous
 62
     7
370
    15
100
AcDbSpline
210
0.0
220
0.0
230
1.0
 70
     8
 71
     3
 72
    15
 73
    11
 74
     0
 42
0.000000001
 43
0.00000001
 40
0.0
 40
0.0
 40
0.0
 40
0.0
 40
0.0875288417465249
 40
0.2438853083226449
 40
0.3928474609401789
 40
0.5337906669305333
 40
0.6769155769835391
 40
0.8291536531741858
 40
0.9852833876347518
 40
1.0
 40
1.0
 40
1.0
 40
1.0
 10
275.5477029796376
 20
35.22906467140224
 30
0.0
 10
275.6644236300281
 20
35.09285336729107
 30
0.0
 10
275.9896473076196
 20
34.71332205809831
 30
0.0
 10
276.300171729545
 20
34.01490939521895
 30
0.0
 10
276.3864077593429
 20
33.23945541008642
 30
0.0
 10
276.1752892447407
 20
32.58017540621857
 30
0.0
 10
275.7248569144182
 20
32.07885669996824
 30
0.0
 10
275.0934722684593
 20
31.8330025312446
 30
0.0
 10
274.565378547871
 20
31.79149671304524
 30
0.0
 10
274.3177417620085
 20
31.93398011708519
 30
0.0
 10
274.2964104625536
 20
31.94625356082394
 30
0.0
  0
SPLINE
  5
274
330
1F
100
AcDbEntity
  8
0
  6
Continuous
 62
     7
370
    15
100
AcDbSpline
210
0.0
220
0.0
230
1.0
 70
     8
 71
     3
 72
    12
 73
     8
 74
     0
 42
0.000000001
 43
0.00000001
 40
0.0
 40
0.0
 40
0.0
 40
0.0
 40
0.1441259156620581
 40
0.2876450922645845
 40
0.4853450615099167
 40
0.753798034732206
 40
1.0
 40
1.0
 40
1.0
 40
1.0
 10
234.8203601619543
 20
42.92088533481446
 30
0.0
 10
234.8406727144265
 20
42.90827305904361
 30
0.0
 10
234.8812123079003
 20
42.88310160246614
 30
0.0
 10
234.9551215554861
 20
42.82608548434628
 30
0.0
 10
235.0399327184524
 20
42.75147310329255
 30
0.0
 10
235.1226955044118
 20
42.66666394913931
 30
0.0
 10
235.1619263173595
 20
42.6156609746743
 30
0.0
 10
235.1806936554814
 20
42.59126203937092
 30
0.0
  0
SPLINE
  5
275
330
1F
100
AcDbEntity
  8
0
  6
Continuous
 62
     7
370
    15
100
AcDbSpline
210
0.0
220
0.0
230
1.0
 70
     8
 71
     3
 72
    12
 73
     8
 74
     0
 42
0.000000001
 43
0.00000001
 40
0.0
 40
0.0
 40
0.0
 40
0.0
 40
0.1654889027683258
 40
0.457612844370697
 40
0.6640796028265854
 40
0.8392447698687371
 40
1.0
 40
1.0
 40
1.0
 40
1.0
 10
252.285223602187
 20
59.36106384695044
 30
0.0
 10
252.2840695289262
 20
59.38537932782615
 30
0.0
 10
252.2808782651095
 20
59.45261692611606
 30
0.0
 10
252.2497485753487
 20
59.56183042531475
 30
0.0
 10
252.1942352981424
 20
59.66710259302072
 30
0.0
 10
252.1348143262256
 20
59.7422067994336
 30
0.0
 10
252.0930689255391
 20
59.77125894265207
 30
0.0
 10
252.0730915989143
 20
59.78516189111304
 30
0.0
  0
ARC
  5
276
330
1F
100
AcDbEntity
  8
0
  6
Continuous
 62
     7
370
    15
100
AcDbCircle
 10
260.7229858714
 20
36.7317711025
 30
0.0
 40
26.22511277712394
100
AcDbArc
 50
138.4154896185
 51
163.413332184
  0
LWPOLYLINE
  5
277
330
1F
100
AcDbEntity
  8
0
  6
Continuous
 62
     7
370
    15
100
AcDbPolyline
 90
       10
 70
   128
 43
0.0
 10
240.7840667452
 20
56.5884260679
 10
241.9024395443
 20
57.5784587835
 10
243.0455794203
 20
58.4479720855
 10
244.2013325639
 20
59.1877208124
 10
245.357410905
 20
59.789840103
 10
246.5015231632
 20
60.2479278942
 10
247.6215051981
 20
60.5571140874
 10
248.7054493726
 20
60.7141116533
 10
249.7418304993
 20
60.7172505563
 10
250.7196314579
 20
60.5664977993
  0
LINE
  5
278
330
1F
100
AcDbEntity
  8
0
  6
Continuous
 62
     7
370
    15
100
AcDbLine
 10
252.0730915989
 20
59.7851618911
 30
0.0
 11
250.7196314579
 21
60.5664977993
 31
0.0
  0
LINE
  5
279
330
1F
100
AcDbEntity
  8
0
  6
Continuous
 62
     7
370
    15
100
AcDbLine
 10
233.4669000209
 20
43.702221243
 30
0.0
 11
234.820360162
 21
42.9208853348
 31
0.0
  0
ARC
  5
27A
330
1F
100
AcDbEntity
  8
0
  6
Continuous
 62
     7
370
    15
100
AcDbCircle
 10
259.1200196536
 20
37.6706355142
 30
0.0
 40
26.35265780318228
100
AcDbArc
 50
136.4938218934
 51
166.7688820108
  0
SPLINE
  5
27B
330
1F
100
AcDbEntity
  8
0
  6
Continuous
 62
     7
370
    15
100
AcDbSpline
210
0.0
220
0.0
230
1.0
 70
     8
 71
     3
 72
    11
 73
     7
 74
     0
 42
0.000000001
 43
0.00000001
 40
0.0
 40
0.0
 40
0.0
 40
0.0
 40
0.2695276051158721
 40
0.5390691054178184
 40
0.80829719352951
 40
1.0
 40
1.0
 40
1.0
 40
1.0
 10
240.0064331886543
 20
55.81266918570384
 30
0.0
 10
240.1107439595221
 20
55.85612614081428
 30
0.0
 10
240.3193708788798
 20
55.94304229140857
 30
0.0
 10
240.570560550158
 20
56.15751572605379
 30
0.0
 10
240.7298462922375
 20
56.38142085758812
 30
0.0
 10
240.7681401802855
 20
56.52762093374005
 30
0.0
 10
240.7840667451909
 20
56.58842606794552
 30
0.0
  0
LINE
  5
27C
330
1F
100
AcDbEntity
  8
0
  6
Continuous
 62
     7
370
    15
100
AcDbLine
 10
235.1806936555
 20
42.5912620394
 30
0.0
 11
235.2285882805
 21
42.5243117156
 31
0.0
  0
LINE
  5
27D
330
1F
100
AcDbEntity
  8
0
  6
Continuous
 62
     7
370
    15
100
AcDbLine
 10
252.2852236022
 20
57.7188054498
 30
0.0
 11
252.2852236022
 21
59.361063847
 31
0.0
  0
LINE
  5
27E
330
1F
100
AcDbEntity
  8
0
  6
Continuous
 62
     7
370
    15
100
AcDbLine
 10
235.2285882805
 20
42.5243117156
 30
0.0
 11
236.3159743379
 21
43.1520463248
 31
0.0
  0
SPLINE
  5
27F
330
1F
100
AcDbEntity
  8
0
  6
Continuous
 62
     7
370
    15
100
AcDbSpline
210
0.0
220
0.0
230
1.0
 70
     8
 71
     3
 72
    10
 73
     6
 74
     0
 42
0.000000001
 43
0.00000001
 40
0.0
 40
0.0
 40
0.0
 40
0.0
 40
0.4929173076844027
 40
0.9873466773916462
 40
0.9999999999999999
 40
0.9999999999999999
 40
0.9999999999999999
 40
0.9999999999999999
 10
238.4231513040981
 20
42.90712850545785
 30
0.0
 10
238.331637272962
 20
43.00441813272599
 30
0.0
 10
238.1483284843106
 20
43.19929583073001
 30
0.0
 10
237.8785363945458
 20
43.31323708962802
 30
0.0
 10
237.7381449168711
 20
43.35103772142076
 30
0.0
 10
237.7346417039132
 20
43.35198096715981
 30
0.0
  0
SPLINE
  5
280
330
1F
100
AcDbEntity
  8
0
  6
Continuous
 62
     7
370
    15
100
AcDbSpline
210
0.0
220
0.0
230
1.0
 70
     8
 71
     3
 72
    11
 73
     7
 74
     0
 42
0.000000001
 43
0.00000001
 40
0.0
 40
0.0
 40
0.0
 40
0.0
 40
0.2577222716060329
 40
0.5423933607431963
 40
0.8649890857213071
 40
1.0
 40
1.0
 40
1.0
 40
1.0
 10
237.7346417039132
 20
43.35198096715981
 30
0.0
 10
237.6032021227611
 20
43.37630349364618
 30
0.0
 10
237.3265789356711
 20
43.42749183992489
 30
0.0
 10
236.8831225354919
 20
43.37723090460388
 30
0.0
 10
236.5403828395873
 20
43.27200239712766
 30
0.0
 10
236.3670993793135
 20
43.1793748757372
 30
0.0
 10
236.315974337861
 20
43.15204632479963
 30
0.0
  0
SPLINE
  5
281
330
1F
100
AcDbEntity
  8
0
  6
Continuous
 62
     7
370
    15
100
AcDbSpline
210
0.0
220
0.0
230
1.0
 70
     8
 71
     3
 72
     9
 73
     5
 74
     0
 42
0.000000001
 43
0.00000001
 40
0.0
 40
0.0
 40
0.0
 40
0.0
 40
0.5147775913060906
 40
1.0
 40
1.0
 40
1.0
 40
1.0
 10
252.285223602187
 20
57.71880544978784
 30
0.0
 10
252.2979526795152
 20
57.50305052704806
 30
0.0
 10
252.3226800133058
 20
57.08392792656272
 30
0.0
 10
252.4900205696524
 20
56.63083350029618
 30
0.0
 10
252.571217957475
 20
56.41098193141735
 30
0.0
  0
SPLINE
  5
282
330
1F
100
AcDbEntity
  8
0
  6
Continuous
 62
     7
370
    15
100
AcDbSpline
210
0.0
220
0.0
230
1.0
 70
     8
 71
     3
 72
     9
 73
     5
 74
     0
 42
0.000000001
 43
0.00000001
 40
0.0
 40
0.0
 40
0.0
 40
0.0
 40
0.5165922701434406
 40
0.9999999999999999
 40
0.9999999999999999
 40
0.9999999999999999
 40
0.9999999999999999
 10
252.571217957475
 20
56.41098193141735
 30
0.0
 10
252.6455863472051
 20
56.55284925207892
 30
0.0
 10
252.7895458952437
 20
56.82747070667829
 30
0.0
 10
253.1166648641916
 20
57.04310976280352
 30
0.0
 10
253.2747967023639
 20
57.14735134939344
 30
0.0
  0
SPLINE
  5
283
330
1F
100
AcDbEntity
  8
0
  6
Continuous
 62
     7
370
    15
100
AcDbSpline
210
0.0
220
0.0
230
1.0
 70
     8
 71
     3
 72
     9
 73
     5
 74
     0
 42
0.000000001
 43
0.00000001
 40
0.0
 40
0.0
 40
0.0
 40
0.0
 40
0.3493420726882911
 40
1.0
 40
1.0
 40
1.0
 40
1.0
 10
232.4767485951942
 20
44.96060051477793
 30
0.0
 10
232.3437452079186
 20
44.93862045181526
 30
0.0
 10
231.9630198453758
 20
44.87570199829629
 30
0.0
 10
231.5821125275357
 20
44.8131515215235
 30
0.0
 10
231.334272161612
 20
44.77245255795417
 30
0.0
  0
LINE
  5
284
330
1F
100
AcDbEntity
  8
0
  6
Continuous
 62
     7
370
    15
100
AcDbLine
 10
230.9765855231
 20
45.1398492019
 30
0.0
 11
231.3342721616
 21
44.772452558
 31
0.0
  0
LWPOLYLINE
  5
285
330
1F
100
AcDbEntity
  8
0
  6
Continuous
 62
     7
370
    15
100
AcDbPolyline
 90
       21
 70
   128
 43
0.0
 10
230.9765855231
 20
45.1398492019
 10
231.3268429564
 20
46.504448363
 10
231.7709884216
 20
47.8796490729
 10
232.3050179682
 20
49.2530542609
 10
232.9241182943
 20
50.6122825218
 10
233.6227069182
 20
51.9450814211
 10
234.3944874958
 20
53.2394350954
 10
235.2325015166
 20
54.4836747042
 10
236.1291948164
 20
55.6665845091
 10
237.0764834323
 20
56.7774992062
 10
238.0658276882
 20
57.8064060116
 10
239.0883089983
 20
58.7440285426
 10
240.1347095865
 20
59.5819131436
 10
241.1955962708
 20
60.3125076726
 10
242.2614051997
 20
60.9292248665
 10
243.3225285021
 20
61.426506052
 10
244.3693995843
 20
61.7998673443
 10
245.3925815035
 20
62.0459438204
 10
246.3828503559
 20
62.1625171247
 10
247.3312789123
 20
62.1485356144
 10
248.2293169601
 20
62.0041257582
  0
LINE
  5
286
330
1F
100
AcDbEntity
  8
0
  6
Continuous
 62
     7
370
    15
100
AcDbLine
 10
248.6600913376
 20
60.6799900175
 30
0.0
 11
248.2293169601
 21
62.0041257582
 31
0.0
  0
LWPOLYLINE
  5
287
330
1F
100
AcDbEntity
  8
0
  6
Continuous
 62
     7
370
    15
100
AcDbPolyline
 90
       20
 70
   128
 43
0.0
 10
232.4767485952
 20
44.9606005148
 10
232.8053320116
 20
46.2541505211
 10
233.2265765916
 20
47.5583968688
 10
233.7363756516
 20
48.8606261445
 10
234.3297604732
 20
50.148145548
 10
235.0009464016
 20
51.4084038018
 10
235.743392114
 20
52.6291181429
 10
236.5498602065
 20
53.7983887667
 10
237.4124893039
 20
54.904818783
 10
238.3228714391
 20
55.9376227653
 10
239.2721323958
 20
56.8867339682
 10
240.2510192943
 20
57.7428997573
 10
241.2499905243
 20
58.4977768727
 10
242.2593085586
 20
59.1440047809
 10
243.2691351951
 20
59.6752857524
 10
244.2696271279
 20
60.0864415544
 10
245.2510319713
 20
60.373462801
 10
246.2037838724
 20
60.5335535024
 10
247.118595378
 20
60.5651513986
 10
247.5255271517
 20
60.5362673365
  0
LINE
  5
288
330
1F
100
AcDbEntity
  8
0
  6
Continuous
 62
     7
370
    15
100
AcDbLine
 10
229.6408030627
 20
45.9109800022
 30
0.0
 11
230.9765855231
 21
45.1398492019
 31
0.0
  0
LINE
  5
289
330
1F
100
AcDbEntity
  8
0
  6
Continuous
 62
     7
370
    15
100
AcDbLine
 10
248.2293169601
 20
62.0041257582
 30
0.0
 11
246.8935344997
 21
62.7752565585
 31
0.0
  0
LINE
  5
28A
330
1F
100
AcDbEntity
  8
0
  6
Continuous
 62
     7
370
    15
100
AcDbLine
 10
233.7032913633
 20
44.6603161016
 30
0.0
 11
233.1127805945
 21
45.0012107123
 31
0.0
  0
SPLINE
  5
28B
330
1F
100
AcDbEntity
  8
0
  6
Continuous
 62
     7
370
    15
100
AcDbSpline
210
0.0
220
0.0
230
1.0
 70
     8
 71
     3
 72
    14
 73
    10
 74
     0
 42
0.000000001
 43
0.00000001
 40
0.0
 40
0.0
 40
0.0
 40
0.0
 40
0.1134874994734508
 40
0.2884506118285484
 40
0.4634439437956841
 40
0.6380743111393935
 40
0.8124677266669501
 40
0.9871168972073846
 40
1.0
 40
1.0
 40
1.0
 40
1.0
 10
240.4975156316804
 20
56.11297676660213
 30
0.0
 10
240.4279652231396
 20
56.11632675332515
 30
0.0
 10
240.251189296367
 20
56.12484139788386
 30
0.0
 10
239.9563537516827
 20
56.03969541361069
 30
0.0
 10
239.6637079783603
 20
55.87625890502819
 30
0.0
 10
239.438165175964
 20
55.645571806634
 30
0.0
 10
239.3190736898264
 20
55.38283977262195
 30
0.0
 10
239.2850066180135
 20
55.18787724547143
 30
0.0
 10
239.3166691223261
 20
55.1021013079251
 30
0.0
 10
239.3188442748505
 20
55.09620866768296
 30
0.0
  0
SPLINE
  5
28C
330
1F
100
AcDbEntity
  8
0
  6
Continuous
 62
     7
370
    15
100
AcDbSpline
210
0.0
220
0.0
230
1.0
 70
     8
 71
     3
 72
    13
 73
     9
 74
     0
 42
0.000000001
 43
0.00000001
 40
0.0
 40
0.0
 40
0.0
 40
0.0
 40
0.100507180140837
 40
0.3018561500801362
 40
0.4149624824853331
 40
0.6331955720914499
 40
0.8511810273045269
 40
1.0
 40
1.0
 40
1.0
 40
1.0
 10
233.1127805945355
 20
45.0012107122508
 30
0.0
 10
233.0968595580295
 20
45.0095195773856
 30
0.0
 10
233.0490434440142
 20
45.03447383475916
 30
0.0
 10
232.9667424079878
 20
45.05660793375601
 30
0.0
 10
232.8550029981415
 20
45.0693593593755
 30
0.0
 10
232.7359862247527
 20
45.06430645461835
 30
0.0
 10
232.6179157698773
 20
45.03623452756002
 30
0.0
 10
232.5589279359143
 20
45.00635030999813
 30
0.0
 10
232.5349955398363
 20
44.99422576018632
 30
0.0
  0
SPLINE
  5
28D
330
1F
100
AcDbEntity
  8
0
  6
Continuous
 62
     7
370
    15
100
AcDbSpline
210
0.0
220
0.0
230
1.0
 70
     8
 71
     3
 72
    10
 73
     6
 74
     0
 42
0.000000001
 43
0.00000001
 40
0.0
 40
0.0
 40
0.0
 40
0.0
 40
0.4238753971872142
 40
0.8509159969799078
 40
1.0
 40
1.0
 40
1.0
 40
1.0
 10
229.5391586935559
 20
45.94170198106977
 30
0.0
 10
229.5471409831225
 20
45.94350782904558
 30
0.0
 10
229.563165168366
 20
45.94713300979664
 30
0.0
 10
229.6041022953567
 20
45.93143306694125
 30
0.0
 10
229.6332583407422
 20
45.91518461969285
 30
0.0
 10
229.6408030627296
 20
45.91098000224234
 30
0.0
  0
LINE
  5
28E
330
1F
100
AcDbEntity
  8
0
  6
Continuous
 62
     7
370
    15
100
AcDbLine
 10
232.5349955398
 20
44.9942257602
 30
0.0
 11
232.4767485952
 21
44.9606005148
 31
0.0
  0
LINE
  5
28F
330
1F
100
AcDbEntity
  8
0
  6
Continuous
 62
     7
370
    15
100
AcDbLine
 10
235.2285882805
 20
42.5243117156
 30
0.0
 11
233.5014056129
 21
43.5213930461
 31
0.0
  0
LINE
  5
290
330
1F
100
AcDbEntity
  8
0
  6
Continuous
 62
     7
370
    15
100
AcDbLine
 10
233.5014056129
 20
43.5213930461
 30
0.0
 11
233.4669000209
 21
43.702221243
 31
0.0
  0
LINE
  5
291
330
1F
100
AcDbEntity
  8
0
  6
Continuous
 62
     7
370
    15
100
AcDbLine
 10
239.2538627248
 20
36.9139327053
 30
0.0
 11
239.0248693479
 21
36.8088888214
 31
0.0
  0
LINE
  5
292
330
1F
100
AcDbEntity
  8
0
  6
Continuous
 62
     7
370
    15
100
AcDbLine
 10
232.2033910505
 20
42.6561311116
 30
0.0
 11
232.2033910505
 21
40.2665846527
 31
0.0
  0
LINE
  5
293
330
1F
100
AcDbEntity
  8
0
  6
Continuous
 62
     7
370
    15
100
AcDbLine
 10
232.2033910505
 20
44.9154588518
 30
0.0
 11
232.2033910505
 21
42.6561311116
 31
0.0
  0
ARC
  5
294
330
1F
100
AcDbEntity
  8
0
  6
Continuous
 62
     7
370
    15
100
AcDbCircle
 10
242.4784114877
 20
43.9461065886
 30
0.0
 40
10.35567871828571
100
AcDbArc
 50
174.7157593518
 51
187.1557492998
  0
LINE
  5
295
330
1F
100
AcDbEntity
  8
0
  6
Continuous
 62
     7
370
    15
100
AcDbLine
 10
229.978320294
 20
45.5552269093
 30
0.0
 11
229.5391586936
 21
45.9417019811
 31
0.0
  0
LINE
  5
296
330
1F
100
AcDbEntity
  8
0
  6
Continuous
 62
     7
370
    15
100
AcDbLine
 10
231.3342721616
 20
44.772452558
 30
0.0
 11
229.978320294
 21
45.5552269093
 31
0.0
  0
LINE
  5
297
330
1F
100
AcDbEntity
  8
0
  6
Continuous
 62
     7
370
    15
100
AcDbLine
 10
231.2046019492
 20
44.6910245635
 30
0.0
 11
231.2052921038
 21
44.8116570361
 31
0.0
  0
ARC
  5
298
330
1F
100
AcDbEntity
  8
0
  6
Continuous
 62
     7
370
    15
100
AcDbCircle
 10
238.0822956548
 20
44.4201012396
 30
0.0
 40
6.883027688153891
100
AcDbArc
 50
177.7441941618
 51
211.337769951
  0
LWPOLYLINE
  5
299
330
1F
100
AcDbEntity
  8
0
  6
Continuous
 62
     7
370
    15
100
AcDbPolyline
 90
        3
 70
   128
 43
0.0
 10
217.7668468351
 20
68.5753838415
 10
217.9675231274
 20
68.5170492948
 10
217.9975942453
 20
68.5064657727
  0
LINE
  5
29A
330
1F
100
AcDbEntity
  8
0
  6
Continuous
 62
     7
370
    15
100
AcDbLine
 10
211.8328125799
 20
57.8275933175
 30
0.0
 11
211.771515751
 21
57.8813829022
 31
0.0
  0
LINE
  5
29B
330
1F
100
AcDbEntity
  8
0
  6
Continuous
 62
     7
370
    15
100
AcDbLine
 10
233.5014056129
 20
36.9482394596
 30
0.0
 11
235.2285882805
 21
35.9511581291
 31
0.0
  0
LINE
  5
29C
330
1F
100
AcDbEntity
  8
0
  6
Continuous
 62
     7
370
    15
100
AcDbLine
 10
235.2285882805
 20
35.9511581291
 30
0.0
 11
235.1806936555
 21
35.8289096582
 31
0.0
  0
SPLINE
  5
29D
330
1F
100
AcDbEntity
  8
0
  6
Continuous
 62
     7
370
    15
100
AcDbSpline
210
0.0
220
0.0
230
1.0
 70
     8
 71
     3
 72
    12
 73
     8
 74
     0
 42
0.000000001
 43
0.00000001
 40
0.0
 40
0.0
 40
0.0
 40
0.0
 40
0.3344128340927898
 40
0.5723529476043767
 40
0.7520661863541283
 40
0.8974993352723039
 40
1.0
 40
1.0
 40
1.0
 40
1.0
 10
235.1806936554814
 20
35.82890965822176
 30
0.0
 10
235.154155572706
 20
35.77367472154535
 30
0.0
 10
235.1087352169309
 20
35.67913923847021
 30
0.0
 10
235.0149701229003
 20
35.5907261987788
 30
0.0
 10
234.9342413132131
 20
35.55384920644881
 30
0.0
 10
234.868866320514
 20
35.5509423226247
 30
0.0
 10
234.8345480167534
 20
35.56661823475066
 30
0.0
 10
234.8203601619543
 20
35.57309896196368
 30
0.0
  0
LINE
  5
29E
330
1F
100
AcDbEntity
  8
0
  6
Continuous
 62
     7
370
    15
100
AcDbLine
 10
234.820360162
 20
35.573098962
 30
0.0
 11
233.4669000209
 21
36.3544348702
 31
0.0
  0
LINE
  5
29F
330
1F
100
AcDbEntity
  8
0
  6
Continuous
 62
     7
370
    15
100
AcDbLine
 10
233.4669000209
 20
36.3544348702
 30
0.0
 11
233.5014056129
 21
36.9482394596
 31
0.0
  0
SPLINE
  5
2A0
330
1F
100
AcDbEntity
  8
0
  6
Continuous
 62
     7
370
    15
100
AcDbSpline
210
0.0
220
0.0
230
1.0
 70
     8
 71
     3
 72
    10
 73
     6
 74
     0
 42
0.000000001
 43
0.00000001
 40
0.0
 40
0.0
 40
0.0
 40
0.0
 40
0.3513855718953175
 40
0.7032916761679624
 40
1.0
 40
1.0
 40
1.0
 40
1.0
 10
236.315974337861
 20
36.57889273832043
 30
0.0
 10
236.4565289164279
 20
36.64546914897559
 30
0.0
 10
236.7378462870308
 20
36.77872059464639
 30
0.0
 10
237.2524296891147
 20
36.86953903525781
 30
0.0
 10
237.5832898842839
 20
36.87550813879255
 30
0.0
 10
237.7346417039132
 20
36.87823870201753
 30
0.0
  0
SPLINE
  5
2A1
330
1F
100
AcDbEntity
  8
0
  6
Continuous
 62
     7
370
    15
100
AcDbSpline
210
0.0
220
0.0
230
1.0
 70
     8
 71
     3
 72
    10
 73
     6
 74
     0
 42
0.000000001
 43
0.00000001
 40
0.0
 40
0.0
 40
0.0
 40
0.0
 40
0.0673419667165661
 40
0.5805723408803561
 40
0.9999999999999999
 40
0.9999999999999999
 40
0.9999999999999999
 40
0.9999999999999999
 10
237.7346417039132
 20
36.87823870201753
 30
0.0
 10
237.7532207403014
 20
36.87789685930782
 30
0.0
 10
237.9133953709687
 20
36.87494974576382
 30
0.0
 10
238.1764660186844
 20
36.85359230361697
 30
0.0
 10
238.3466275805045
 20
36.82178504947834
 30
0.0
 10
238.4231513040981
 20
36.8074809405013
 30
0.0
  0
ARC
  5
2A2
330
1F
100
AcDbEntity
  8
0
  6
Continuous
 62
     7
370
    15
100
AcDbCircle
 10
240.5241408861
 20
36.6893667146
 30
0.0
 40
5.728733297328603
100
AcDbArc
 50
205.4500916744
 51
275.6597457831
  0
LINE
  5
2A3
330
1F
100
AcDbEntity
  8
0
  6
Continuous
 62
     7
370
    15
100
AcDbLine
 10
235.2285882805
 20
35.9511581291
 30
0.0
 11
236.3159743379
 21
36.5788927383
 31
0.0
  0
SPLINE
  5
2A4
330
1F
100
AcDbEntity
  8
0
  6
Continuous
 62
     7
370
    15
100
AcDbSpline
210
0.0
220
0.0
230
1.0
 70
     8
 71
     3
 72
     9
 73
     5
 74
     0
 42
0.000000001
 43
0.00000001
 40
0.0
 40
0.0
 40
0.0
 40
0.0
 40
0.3493420953095609
 40
1.0
 40
1.0
 40
1.0
 40
1.0
 10
233.8273226237571
 20
37.60777713734753
 30
0.0
 10
233.7892479440806
 20
37.53099589967853
 30
0.0
 10
233.6802582741048
 20
37.31120779312081
 30
0.0
 10
233.5719059251888
 20
37.09131466294646
 30
0.0
 10
233.5014056128748
 20
36.9482394596114
 30
0.0
  0
LINE
  5
2A5
330
1F
100
AcDbEntity
  8
0
  6
Continuous
 62
     7
370
    15
100
AcDbLine
 10
233.8855695684
 20
37.6414023828
 30
0.0
 11
233.8273226238
 21
37.6077771373
 31
0.0
  0
SPLINE
  5
2A6
330
1F
100
AcDbEntity
  8
0
  6
Continuous
 62
     7
370
    15
100
AcDbSpline
210
0.0
220
0.0
230
1.0
 70
     8
 71
     3
 72
    13
 73
     9
 74
     0
 42
0.000000001
 43
0.00000001
 40
0.0
 40
0.0
 40
0.0
 40
0.0
 40
0.1897170306295753
 40
0.3025463382546795
 40
0.5163277406983756
 40
0.7298467150860659
 40
0.9499224928022411
 40
1.0
 40
1.0
 40
1.0
 40
1.0
 10
233.8976691712804
 20
37.97495059506041
 30
0.0
 10
233.923803126709
 20
37.95687033225374
 30
0.0
 10
233.9654795776464
 20
37.92803729977013
 30
0.0
 10
234.0050620014352
 20
37.86814523332169
 30
0.0
 10
234.0184708702461
 20
37.80088250440297
 30
0.0
 10
233.9870724013481
 20
37.72195636394171
 30
0.0
 10
233.9326937693362
 20
37.66989556914369
 30
0.0
 10
233.8929388238541
 20
37.64585813086499
 30
0.0
 10
233.8855695683991
 20
37.64140238275591
 30
0.0
  0
LINE
  5
2A7
330
1F
100
AcDbEntity
  8
0
  6
Continuous
 62
     7
370
    15
100
AcDbLine
 10
233.1127805945
 20
38.4280571258
 30
0.0
 11
233.8976691713
 21
37.9749505951
 31
0.0
  0
SPLINE
  5
2A8
330
1F
100
AcDbEntity
  8
0
  6
Continuous
 62
     7
370
    15
100
AcDbSpline
210
0.0
220
0.0
230
1.0
 70
     8
 71
     3
 72
    13
 73
     9
 74
     0
 42
0.000000001
 43
0.00000001
 40
0.0
 40
0.0
 40
0.0
 40
0.0
 40
0.2059763529195891
 40
0.433503836849635
 40
0.5855107176151912
 40
0.7915000366445789
 40
0.9976747253363044
 40
1.0
 40
1.0
 40
1.0
 40
1.0
 10
232.5349955398363
 20
38.4210721737071
 30
0.0
 10
232.5688836080966
 20
38.43745375058505
 30
0.0
 10
232.6402054244412
 20
38.47193089482793
 30
0.0
 10
232.7632446940418
 20
38.49338599997422
 30
0.0
 10
232.8886454577224
 20
38.4948387212479
 30
0.0
 10
233.0068908827394
 20
38.47617851024105
 30
0.0
 10
233.08096801604
 20
38.44635443510101
 30
0.0
 10
233.1124297210658
 20
38.42825893400953
 30
0.0
 10
233.1127805945355
 20
38.42805712577159
 30
0.0
  0
LINE
  5
2A9
330
1F
100
AcDbEntity
  8
0
  6
Continuous
 62
     7
370
    15
100
AcDbLine
 10
232.4767485952
 20
38.3874469283
 30
0.0
 11
232.5349955398
 21
38.4210721737
 31
0.0
  0
SPLINE
  5
2AA
330
1F
100
AcDbEntity
  8
0
  6
Continuous
 62
     7
370
    15
100
AcDbSpline
210
0.0
220
0.0
230
1.0
 70
     8
 71
     3
 72
     9
 73
     5
 74
     0
 42
0.000000001
 43
0.00000001
 40
0.0
 40
0.0
 40
0.0
 40
0.0
 40
0.6506579273117089
 40
1.0
 40
1.0
 40
1.0
 40
1.0
 10
231.334272161612
 20
38.19929897147496
 30
0.0
 10
231.5821125275357
 20
38.23999793504429
 30
0.0
 10
231.9630198453758
 20
38.30254841181707
 30
0.0
 10
232.3437452079186
 20
38.36546686533605
 30
0.0
 10
232.4767485951942
 20
38.38744692829872
 30
0.0
  0
LINE
  5
2AB
330
1F
100
AcDbEntity
  8
0
  6
Continuous
 62
     7
370
    15
100
AcDbLine
 10
229.978320294
 20
38.9820733228
 30
0.0
 11
231.3342721616
 21
38.1992989715
 31
0.0
  0
LINE
  5
2AC
330
1F
100
AcDbEntity
  8
0
  6
Continuous
 62
     7
370
    15
100
AcDbLine
 10
229.978320294
 20
38.9820733228
 30
0.0
 11
231.9912583887
 21
40.1441177501
 31
0.0
  0
ARC
  5
2AD
330
1F
100
AcDbEntity
  8
0
  6
Continuous
 62
     7
370
    15
100
AcDbCircle
 10
239.6514464655
 20
37.9195268642
 30
0.0
 40
6.37950841951144
100
AcDbArc
 50
194.2014031772
 51
238.2564543493
  0
ELLIPSE
  5
2AE
330
1F
100
AcDbEntity
  8
0
  6
Continuous
 62
     7
370
    15
100
AcDbEllipse
 10
232.5569441556
 20
40.4707871427
 30
0.0
 11
0.8000000000812123
 21
0.4619052392569857
 31
0.0
210
0.0
220
0.0
230
1.0
 40
0.0000703729
 41
3.926950185619059
 42
5.497746511255924
  0
ARC
  5
2AF
330
1F
100
AcDbEntity
  8
0
  6
Continuous
 62
     7
370
    15
100
AcDbCircle
 10
239.0856953554
 20
40.2273667632
 30
0.0
 40
6.860282959005778
100
AcDbArc
 50
195.5571145685
 51
215.5081443254
  0
ARC
  5
2B0
330
1F
100
AcDbEntity
  8
0
  6
Continuous
 62
     7
370
    15
100
AcDbCircle
 10
236.9244384987
 20
39.2420025753
 30
0.0
 40
6.122032365730837
100
AcDbArc
 50
193.7000862221
 51
253.1333754699
  0
LINE
  5
2B1
330
1F
100
AcDbEntity
  8
0
  6
Continuous
 62
     7
370
    15
100
AcDbLine
 10
231.3342721616
 20
38.1992989715
 30
0.0
 11
230.9765855231
 21
37.792062829
 31
0.0
  0
LINE
  5
2B2
330
1F
100
AcDbEntity
  8
0
  6
Continuous
 62
     7
370
    15
100
AcDbLine
 10
229.5391586936
 20
38.7284985284
 30
0.0
 11
229.978320294
 21
38.9820733228
 31
0.0
  0
LINE
  5
2B3
330
1F
100
AcDbEntity
  8
0
  6
Continuous
 62
     7
370
    15
100
AcDbLine
 10
230.9765855231
 20
37.792062829
 30
0.0
 11
229.6408030627
 21
38.5631936294
 31
0.0
  0
SPLINE
  5
2B4
330
1F
100
AcDbEntity
  8
0
  6
Continuous
 62
     7
370
    15
100
AcDbSpline
210
0.0
220
0.0
230
1.0
 70
     8
 71
     3
 72
    10
 73
     6
 74
     0
 42
0.000000001
 43
0.00000001
 40
0.0
 40
0.0
 40
0.0
 40
0.0
 40
0.3686894759638287
 40
0.7358265162859366
 40
1.0
 40
1.0
 40
1.0
 40
1.0
 10
229.6408030627296
 20
38.56319362939156
 30
0.0
 10
229.6226914776192
 20
38.57706085324904
 30
0.0
 10
229.5865445695976
 20
38.60473691043762
 30
0.0
 10
229.5546289988478
 20
38.66681434094306
 30
0.0
 10
229.5437225321144
 20
38.710301300358
 30
0.0
 10
229.5391586935559
 20
38.72849852838982
 30
0.0
  0
ARC
  5
2B5
330
1F
100
AcDbEntity
  8
0
  6
Continuous
 62
     7
370
    15
100
AcDbCircle
 10
235.5218101748
 20
39.8026766643
 30
0.0
 40
5.943543481262625
100
AcDbArc
 50
204.8707841221
 51
239.0934731973
  0
SPLINE
  5
2B6
330
1F
100
AcDbEntity
  8
0
  6
Continuous
 62
     7
370
    15
100
AcDbSpline
210
0.0
220
0.0
230
1.0
 70
     8
 71
     3
 72
    13
 73
     9
 74
     0
 42
0.000000001
 43
0.00000001
 40
0.0
 40
0.0
 40
0.0
 40
0.0
 40
0.2778216074855544
 40
0.5181533609110525
 40
0.7148653309847609
 40
0.8289582380650953
 40
0.9882576995081614
 40
1.0
 40
1.0
 40
1.0
 40
1.0
 10
249.0931353888079
 20
61.20336378714742
 30
0.0
 10
249.1308264588102
 20
61.22150719369673
 30
0.0
 10
249.2011224835679
 20
61.25534569591757
 30
0.0
 10
249.324037377144
 20
61.27668472445405
 30
0.0
 10
249.4221302987494
 20
61.27548658550234
 30
0.0
 10
249.5010475434124
 20
61.26091623964864
 30
0.0
 10
249.5436765383594
 20
61.24465064441216
 30
0.0
 10
249.5650142049866
 20
61.23252904855986
 30
0.0
 10
249.5664790711719
 20
61.2316968809107
 30
0.0
  0
LINE
  5
2B7
330
1F
100
AcDbEntity
  8
0
  6
Continuous
 62
     7
370
    15
100
AcDbLine
 10
249.5664790712
 20
61.2316968809
 30
0.0
 11
250.7181423653
 21
60.5668558128
 31
0.0
  0
SPLINE
  5
2B8
330
1F
100
AcDbEntity
  8
0
  6
Continuous
 62
     7
370
    15
100
AcDbSpline
210
0.0
220
0.0
230
1.0
 70
     8
 71
     3
 72
     9
 73
     5
 74
     0
 42
0.000000001
 43
0.00000001
 40
0.0
 40
0.0
 40
0.0
 40
0.0
 40
0.8664449848498728
 40
1.0
 40
1.0
 40
1.0
 40
1.0
 10
252.285223602187
 20
58.78654214523873
 30
0.0
 10
252.6044002239014
 20
58.85583227309078
 30
0.0
 10
252.9727751666795
 20
58.93580287602992
 30
0.0
 10
253.3431152534669
 20
59.01267188062291
 30
0.0
 10
253.3925760293685
 20
59.02293812169591
 30
0.0
  0
LINE
  5
2B9
330
1F
100
AcDbEntity
  8
0
  6
Continuous
 62
     7
370
    15
100
AcDbLine
 10
253.3925760294
 20
59.0229381217
 30
0.0
 11
254.7460361704
 21
58.2416022135
 31
0.0
  0
SPLINE
  5
2BA
330
1F
100
AcDbEntity
  8
0
  6
Continuous
 62
     7
370
    15
100
AcDbSpline
210
0.0
220
0.0
230
1.0
 70
     8
 71
     3
 72
    13
 73
     9
 74
     0
 42
0.000000001
 43
0.00000001
 40
0.0
 40
0.0
 40
0.0
 40
0.0
 40
0.1382193195525717
 40
0.1682713143596672
 40
0.3569090584190503
 40
0.5445760490161672
 40
0.7584542910880286
 40
1.0
 40
1.0
 40
1.0
 40
1.0
 10
254.7460361703966
 20
58.24160221348282
 30
0.0
 10
254.7618513370205
 20
58.23087626854281
 30
0.0
 10
254.7811050772592
 20
58.21781826146648
 30
0.0
 10
254.8086896413693
 20
58.18537792669687
 30
0.0
 10
254.8261609616979
 20
58.14450875235345
 30
0.0
 10
254.8168654308102
 20
58.08439774884555
 30
0.0
 10
254.7767566958404
 20
58.02230099017314
 30
0.0
 10
254.7246124992714
 20
57.98704541540413
 30
0.0
 10
254.6969564945779
 20
57.96834672206075
 30
0.0
  0
LINE
  5
2BB
330
1F
100
AcDbEntity
  8
0
  6
Continuous
 62
     7
370
    15
100
AcDbLine
 10
254.6969564946
 20
57.9683467221
 30
0.0
 11
253.2747967024
 21
57.1473513494
 31
0.0
  0
LINE
  5
2BC
330
1F
100
AcDbEntity
  8
0
  6
Continuous
 62
     7
370
    15
100
AcDbLine
 10
249.0931353888
 20
61.2033637871
 30
0.0
 11
248.5852151563
 21
60.9101476782
 31
0.0
  0
LINE
  5
2BD
330
1F
100
AcDbEntity
  8
0
  6
Continuous
 62
     7
370
    15
100
AcDbLine
 10
256.3024873465
 20
54.6900146921
 30
0.0
 11
256.4078505165
 21
54.8725094355
 31
0.0
  0
LINE
  5
2BE
330
1F
100
AcDbEntity
  8
0
  6
Continuous
 62
     7
370
    15
100
AcDbLine
 10
255.4519665777
 20
54.1990195034
 30
0.0
 11
256.3024873465
 21
54.6900146921
 31
0.0
  0
SPLINE
  5
2BF
330
1F
100
AcDbEntity
  8
0
  6
Continuous
 62
     7
370
    15
100
AcDbSpline
210
0.0
220
0.0
230
1.0
 70
     8
 71
     3
 72
    10
 73
     6
 74
     0
 42
0.000000001
 43
0.00000001
 40
0.0
 40
0.0
 40
0.0
 40
0.0
 40
0.405524303776032
 40
0.8121642353254563
 40
1.0
 40
1.0
 40
1.0
 40
1.0
 10
256.4078505165055
 20
54.87250943552202
 30
0.0
 10
256.4261691688668
 20
54.91143532675684
 30
0.0
 10
256.4628568695759
 20
54.98939419727265
 30
0.0
 10
256.4768771123265
 20
55.0968752616284
 30
0.0
 10
256.4588176131046
 20
55.14996737306654
 30
0.0
 10
256.4531113750405
 20
55.16674282312028
 30
0.0
  0
LWPOLYLINE
  5
2C0
330
1F
100
AcDbEntity
  8
0
  6
Continuous
 62
     7
370
    15
100
AcDbPolyline
 90
        8
 70
   128
 43
0.0
 10
273.7662093645
 20
32.1253951713
 10
273.6752617337
 20
31.979978718
 10
273.4399374392
 20
31.7909185375
 10
273.1374257999
 20
31.7260092641
 10
272.7901673783
 20
31.7900623135
 10
272.4239138989
 20
31.9783287298
 10
272.0658290056
 20
32.2768455412
 10
271.8446950282
 20
32.5266524408
  0
LWPOLYLINE
  5
2C1
330
1F
100
AcDbEntity
  8
0
  6
Continuous
 62
     7
370
    15
100
AcDbPolyline
 90
        9
 70
   128
 43
0.0
 10
271.2935046349
 20
40.239191798
 10
271.759230439
 20
40.4998865792
 10
272.1169924809
 20
40.8122817718
 10
272.3500581323
 20
41.1617725886
 10
272.447532927
 20
41.5320150609
 10
272.4048562794
 20
41.9056988288
 10
272.2240239088
 20
42.265350725
 10
271.9134958071
 20
42.5941514737
 10
271.5719044903
 20
42.8300077756
  0
LWPOLYLINE
  5
2C2
330
1F
100
AcDbEntity
  8
0
  6
Continuous
 62
     7
370
    15
100
AcDbPolyline
 90
       15
 70
   128
 43
0.0
 10
267.3285749287
 20
42.8300073954
 10
266.9477003619
 20
42.5607020093
 10
266.6505445827
 20
42.2278075462
 10
266.4843004752
 20
41.8658184739
 10
266.4567384531
 20
41.4916627491
 10
266.5691519388
 20
41.1228327615
 10
266.8162799851
 20
40.7765772836
 10
267.1865692722
 20
40.4690855666
 10
267.6627054302
 20
40.2147356744
 10
268.222425827
 20
40.0254201452
 10
268.8395568581
 20
39.9099921325
 10
269.4852419623
 20
39.8738490205
 10
270.1292907172
 20
39.9186802208
 10
270.7415880316
 20
40.0423895642
 10
271.2935046349
 20
40.239191798
  0
LWPOLYLINE
  5
2C3
330
1F
100
AcDbEntity
  8
0
  6
Continuous
 62
     7
370
    15
100
AcDbPolyline
 90
       28
 70
   128
 43
0.0
 10
271.0784570904
 20
40.6843941907
 10
271.51673904
 20
40.9336954774
 10
271.843612381
 20
41.2346276047
 10
272.0414623649
 20
41.5709634109
 10
272.0996169487
 20
41.9245743163
 10
272.0149436007
 20
42.2763952879
 10
271.7920055406
 20
42.6074608973
 10
271.4428218642
 20
42.8999225596
 10
270.986219371
 20
43.1380125483
 10
270.44681215
 20
43.308896526
 10
269.853677246
 20
43.4033627919
 10
269.2387942389
 20
43.416317453
 10
268.6353096494
 20
43.3470628979
 10
268.0757605153
 20
43.1993306817
 10
267.5903070226
 20
42.9810884952
 10
267.2051250808
 20
42.7040988349
 10
266.94097547
 20
42.3832967607
 10
266.8121024257
 20
42.0359746217
 10
266.8254530213
 20
41.6808569644
 10
266.9803057648
 20
41.3370892899
 10
267.2683127967
 20
41.0232040222
 10
267.6739501394
 20
40.7561213098
 10
268.1753446897
 20
40.5502426206
 10
268.7454714892
 20
40.4166638117
 10
269.3535916969
 20
40.3625879814
 10
269.9669222471
 20
40.3909298547
 10
270.5523976611
 20
40.5001619337
 10
271.0784570904
 20
40.6843941907
  0
LWPOLYLINE
  5
2C4
330
1F
100
AcDbEntity
  8
0
  6
Continuous
 62
     7
370
    15
100
AcDbPolyline
 90
       23
 70
   128
 43
0.0
 10
270.5562000147
 20
41.0715409065
 10
270.9115043685
 20
41.2846251413
 10
271.1484287615
 20
41.5468637914
 10
271.2477759628
 20
41.8370133569
 10
271.2014969121
 20
42.131567758
 10
271.0133388924
 20
42.4066653615
 10
270.698552642
 20
42.6400153949
 10
270.2826330529
 20
42.8127165836
 10
269.7992786708
 20
42.9107768784
 10
269.2876450705
 20
42.9262529196
 10
268.7891876287
 20
42.8578878664
 10
268.3442831909
 20
42.7112231667
 10
267.9889761206
 20
42.4981404051
 10
267.7520518099
 20
42.2359018025
 10
267.6527072428
 20
41.9457507164
 10
267.6989862112
 20
41.6511962677
 10
267.8871415556
 20
41.3761001611
 10
268.2019306666
 20
41.1427487377
 10
268.6178499881
 20
40.9700473946
 10
269.101204576
 20
40.8719872186
 10
269.612835501
 20
40.8565126743
 10
270.111295577
 20
40.9248762068
 10
270.5562000147
 20
41.0715409065
  0
SPLINE
  5
2C5
330
1F
100
AcDbEntity
  8
0
  6
Continuous
 62
     7
370
    15
100
AcDbSpline
210
0.0
220
0.0
230
1.0
 70
     8
 71
     3
 72
    10
 73
     6
 74
     0
 42
0.000000001
 43
0.00000001
 40
0.0
 40
0.0
 40
0.0
 40
0.0
 40
0.4391282856248758
 40
0.7513764863616363
 40
0.9999999999999999
 40
0.9999999999999999
 40
0.9999999999999999
 40
0.9999999999999999
 10
271.0551479075829
 20
41.4598753795914
 30
0.0
 10
271.0210242190099
 20
41.51777148187402
 30
0.0
 10
270.9626364128471
 20
41.61683540312712
 30
0.0
 10
270.8777604196572
 20
42.03330145484839
 30
0.0
 10
270.8355170211885
 20
42.32219343746335
 30
0.0
 10
270.8167913449133
 20
42.45025363008639
 30
0.0
  0
SPLINE
  5
2C6
330
1F
100
AcDbEntity
  8
0
  6
Continuous
 62
     7
370
    15
100
AcDbSpline
210
0.0
220
0.0
230
1.0
 70
     8
 71
     3
 72
    10
 73
     6
 74
     0
 42
0.000000001
 43
0.00000001
 40
0.0
 40
0.0
 40
0.0
 40
0.0
 40
0.4391271623698215
 40
0.7513758316369811
 40
0.9999999999999999
 40
0.9999999999999999
 40
0.9999999999999999
 40
0.9999999999999999
 10
270.8167913449133
 20
42.45025363008639
 30
0.0
 10
270.5870300380925
 20
42.42019744896316
 30
0.0
 10
270.1938931342882
 20
42.36876932056995
 30
0.0
 10
269.6224093070692
 20
42.56647394579381
 30
0.0
 10
269.3379691764563
 20
42.74648357337551
 30
0.0
 10
269.2118823236476
 20
42.82627838772941
 30
0.0
  0
SPLINE
  5
2C7
330
1F
100
AcDbEntity
  8
0
  6
Continuous
 62
     7
370
    15
100
AcDbSpline
210
0.0
220
0.0
230
1.0
 70
     8
 71
     3
 72
    11
 73
     7
 74
     0
 42
0.000000001
 43
0.00000001
 40
0.0
 40
0.0
 40
0.0
 40
0.0
 40
0.1849306140462732
 40
0.5198463210719876
 40
0.8714437716008685
 40
1.0
 40
1.0
 40
1.0
 40
1.0
 10
269.2118823236476
 20
42.82627838772941
 30
0.0
 10
269.132343245764
 20
42.75230307460246
 30
0.0
 10
268.9087561602375
 20
42.54435592330191
 30
0.0
 10
268.4913814551147
 20
42.27735254590464
 30
0.0
 10
268.105924784925
 20
42.20125338006741
 30
0.0
 10
267.9003682404273
 20
42.20966996683912
 30
0.0
 10
267.8453325815475
 20
42.21192342172002
 30
0.0
  0
SPLINE
  5
2C8
330
1F
100
AcDbEntity
  8
0
  6
Continuous
 62
     7
370
    15
100
AcDbSpline
210
0.0
220
0.0
230
1.0
 70
     8
 71
     3
 72
    10
 73
     6
 74
     0
 42
0.000000001
 43
0.00000001
 40
0.0
 40
0.0
 40
0.0
 40
0.0
 40
0.4391282556263741
 40
0.7513765003162189
 40
1.0
 40
1.0
 40
1.0
 40
1.0
 10
267.8453325815475
 20
42.21192342172002
 30
0.0
 10
267.8794563264437
 20
41.98625070894067
 30
0.0
 10
267.937844234052
 20
41.60011027964138
 30
0.0
 10
268.0227200242867
 20
41.31125846425098
 30
0.0
 10
268.0649634840034
 20
41.24909918883127
 30
0.0
 10
268.0836891853761
 20
41.22154519498564
 30
0.0
  0
LINE
  5
2C9
330
1F
100
AcDbEntity
  8
0
  6
Continuous
 62
     7
370
    15
100
AcDbLine
 10
268.0836891854
 20
41.221545195
 30
0.0
 11
268.2968688918
 21
41.1150084463
 31
0.0
  0
SPLINE
  5
2CA
330
1F
100
AcDbEntity
  8
0
  6
Continuous
 62
     7
370
    15
100
AcDbSpline
210
0.0
220
0.0
230
1.0
 70
     8
 71
     3
 72
     9
 73
     5
 74
     0
 42
0.000000001
 43
0.00000001
 40
0.0
 40
0.0
 40
0.0
 40
0.0
 40
0.5317515372286246
 40
1.0
 40
1.0
 40
1.0
 40
1.0
 10
270.5187913939725
 20
41.06022991623222
 30
0.0
 10
270.6187288713177
 20
41.1161042519206
 30
0.0
 10
270.8066690470358
 20
41.2211802729126
 30
0.0
 10
270.9759039325796
 20
41.38375160380863
 30
0.0
 10
271.0551479075829
 20
41.4598753795914
 30
0.0
  0
LINE
  5
2CB
330
1F
100
AcDbEntity
  8
0
  6
Continuous
 62
     7
370
    15
100
AcDbLine
 10
270.8167913449
 20
41.2472104618
 30
0.0
 11
270.8167913449
 21
42.4502536301
 31
0.0
  0
LINE
  5
2CC
330
1F
100
AcDbEntity
  8
0
  6
Continuous
 62
     7
370
    15
100
AcDbLine
 10
269.2118823236
 20
40.8614164229
 30
0.0
 11
269.2118823236
 21
42.8262783877
 31
0.0
  0
LWPOLYLINE
  5
2CD
330
1F
100
AcDbEntity
  8
0
  6
Continuous
 62
     7
370
    15
100
AcDbPolyline
 90
        3
 70
   128
 43
0.0
 10
239.5150585988
 20
55.2825208495
 10
239.6461069803
 20
55.4578771947
 10
239.8055336909
 20
55.5998001111
  0
LWPOLYLINE
  5
2CE
330
1F
100
AcDbEntity
  8
0
  6
Continuous
 62
     7
370
    15
100
AcDbPolyline
 90
        3
 70
   128
 43
0.0
 10
239.5730269791
 20
55.346751372
 10
239.6707856064
 20
55.4703167871
 10
239.7798252658
 20
55.572176232
  0
LWPOLYLINE
  5
2CF
330
1F
100
AcDbEntity
  8
0
  6
Continuous
 62
     7
370
     0
100
AcDbPolyline
 90
       21
 70
   128
 43
0.0
 10
253.1076711125
 20
55.5523530556
 10
252.8134722805
 20
55.70690558
 10
252.0917680858
 20
55.9731969092
 10
251.3117418724
 20
56.1141603008
 10
250.4820867571
 20
56.128225534
 10
249.6120473877
 20
56.0152350859
 10
248.7113195149
 20
55.776448514
 10
247.7899408388
 20
55.4145265916
 10
246.8581787268
 20
54.9335022306
 10
245.9264166971
 20
54.3387370034
 10
245.0050379593
 20
53.6368577144
 10
244.1043101482
 20
52.8356860562
 10
243.2342708611
 20
51.9441504778
 10
242.4046152519
 20
50.9721855528
 10
241.6245893678
 20
49.930623255
 10
240.9028851731
 20
48.8310699992
 10
240.247545472
 20
47.6857795099
 10
239.6658728644
 20
46.5075139505
 10
239.1643497333
 20
45.3094038157
 10
238.7485651458
 20
44.1048007885
 10
238.4231513041
 20
42.9071285055
  0
ARC
  5
2D0
330
1F
100
AcDbEntity
  8
0
  6
Continuous
 62
     7
370
     0
100
AcDbCircle
 10
243.2061089953
 20
38.1260040165
 30
0.0
 40
4.96136950628981
100
AcDbArc
 50
195.4119914143
 51
237.5734636219
  0
LWPOLYLINE
  5
2D1
330
1F
100
AcDbEntity
  8
0
  6
Continuous
 62
     7
370
     0
100
AcDbPolyline
 90
       47
 70
   128
 43
0.0
 10
274.4176664518
 20
34.9410446474
 10
273.6955337916
 20
34.4671266763
 10
272.9868530658
 20
33.8879573886
 10
272.3048256735
 20
33.2143251178
 10
271.6621565334
 20
32.4587791314
 10
271.0708173156
 20
31.6353933276
 10
270.5418234942
 20
30.7595059699
 10
270.0850295293
 20
29.8474333857
 10
269.7089439804
 20
28.9161651336
 10
269.4205732672
 20
27.9830498517
 10
269.2252891374
 20
27.0654691264
 10
269.1267287321
 20
26.1805157784
 10
269.1267287321
 20
25.3446750449
 10
269.2252891374
 20
24.5735171186
 10
269.4205732672
 20
23.8814067454
 10
269.7089439804
 20
23.2812370118
 10
270.0850295293
 20
22.7841878919
 10
270.5418234942
 20
22.3995183936
 10
271.0708173156
 20
22.1343943015
 10
271.6621565334
 20
21.9937542259
 10
272.3048256735
 20
21.9802182347
 10
272.9868530658
 20
22.0940384098
 10
273.6955337916
 20
22.3330940915
 10
274.4176664518
 20
22.6929327428
 10
275.1397991943
 20
23.1668507614
 10
275.8484800128
 20
23.7460204828
 10
276.5305072301
 20
24.4196522725
 10
277.1731765349
 20
25.1751983539
 10
277.764515588
 20
25.9985840626
 10
278.293509574
 20
26.8744715154
 10
278.7503037036
 20
27.7865441946
 10
279.1263892525
 20
28.7178124467
 10
279.4147599657
 20
29.6509279187
 10
279.6100440955
 20
30.568508549
 10
279.7086038422
 20
31.4534615168
 10
279.7086038422
 20
32.2893022503
 10
279.6100440955
 20
33.0604605568
 10
279.4147599657
 20
33.752571025
 10
279.1263892525
 20
34.3527405685
 10
278.7503037036
 20
34.8497896884
 10
278.293509574
 20
35.2344590917
 10
277.764515588
 20
35.4995830887
 10
277.1731765349
 20
35.6402232593
 10
276.5305072301
 20
35.6537591555
 10
275.8484800128
 20
35.5399394617
 10
275.1397991943
 20
35.3008833463
 10
274.4176664518
 20
34.9410446474
  0
LWPOLYLINE
  5
2D2
330
1F
100
AcDbEntity
  8
0
  6
Continuous
 62
     7
370
     0
100
AcDbPolyline
 90
       24
 70
   128
 43
0.0
 10
270.7533633014
 20
22.8608511331
 10
270.822717093
 20
22.8301708794
 10
271.3880768946
 20
22.6678240223
 10
272.0079129796
 20
22.6348109165
 10
272.6696073985
 20
22.7318044786
 10
273.359689922
 20
22.9568297016
 10
274.0641123447
 20
23.3053056573
 10
274.7685348498
 20
23.7701385666
 10
275.4586173835
 20
24.3418656718
 10
276.1203117099
 20
25.0088481707
 10
276.7401479595
 20
25.7575088822
 10
277.305507761
 20
26.5726062721
 10
277.8048820614
 20
27.4375479299
 10
278.2281049091
 20
28.3347259109
 10
278.5665612248
 20
29.2458764161
 10
278.8133599988
 20
30.1524505959
 10
278.9634785121
 20
31.0359939608
 10
279.0138598012
 20
31.8785195688
 10
278.9634785121
 20
32.6628762261
 10
278.8133599988
 20
33.3730963972
 10
278.5665612248
 20
33.994722873
 10
278.2281049091
 20
34.5150998437
 10
277.8048820614
 20
34.9236351259
 10
277.5374257341
 20
35.0984467242
  0
LWPOLYLINE
  5
2D3
330
1F
100
AcDbEntity
  8
0
  6
Continuous
 62
     7
370
     0
100
AcDbPolyline
 90
       21
 70
   128
 43
0.0
 10
234.820360162
 20
42.9208853348
 10
235.1706175952
 20
44.285484496
 10
235.6147630605
 20
45.6606852059
 10
236.1487926071
 20
47.0340903938
 10
236.7678929332
 20
48.3933186547
 10
237.4664815571
 20
49.7261175541
 10
238.2382621347
 20
51.0204712283
 10
239.0762761554
 20
52.2647108372
 10
239.9729694553
 20
53.4476206421
 10
240.9202580711
 20
54.5585353392
 10
241.9096023271
 20
55.5874421446
 10
242.9320836372
 20
56.5250646756
 10
243.9784842253
 20
57.3629492766
 10
245.0393709096
 20
58.0935438056
 10
246.1051798386
 20
58.7102609994
 10
247.166303141
 20
59.2075421849
 10
248.2131742232
 20
59.5809034773
 10
249.2363561423
 20
59.8269799533
 10
250.2266249948
 20
59.9435532577
 10
251.1750535512
 20
59.9295717473
 10
252.0730915989
 20
59.7851618911
  0
LWPOLYLINE
  5
2D4
330
1F
100
AcDbEntity
  8
0
  6
Continuous
 62
     7
370
     0
100
AcDbPolyline
 90
        3
 70
   128
 43
0.0
 10
235.1806936555
 20
42.5912620394
 10
235.5125236963
 20
43.9493016558
 10
235.5891255935
 20
44.2181325489
  0
LWPOLYLINE
  5
2D5
330
1F
100
AcDbEntity
  8
0
  6
Continuous
 62
     7
370
     0
100
AcDbPolyline
 90
       13
 70
   128
 43
0.0
 10
241.1071902103
 20
54.138008512
 10
241.1817759734
 20
54.2212153554
 10
242.1675253996
 20
55.2504499724
 10
243.1871087022
 20
56.1873044701
 10
244.2310226122
 20
57.0230455514
 10
245.2895373156
 20
57.7498844324
 10
246.3527868113
 20
58.3610464949
 10
247.4108605587
 20
58.8508348405
 10
248.4538972655
 20
59.2146844327
 10
249.4721746744
 20
59.4492048045
 10
250.4562018421
 20
59.5522082342
 10
251.3968068897
 20
59.5227360685
 10
252.2852236022
 20
59.361063847
  0
LWPOLYLINE
  5
2D6
330
1F
100
AcDbEntity
  8
0
  6
Continuous
 62
     7
370
     0
100
AcDbPolyline
 90
       21
 70
   128
 43
0.0
 10
236.3159743379
 20
43.1520463248
 10
236.646314751
 20
44.4161419175
 10
237.0675283794
 20
45.6894016867
 10
237.5754334654
 20
46.9591833293
 10
238.164985558
 20
48.212876182
 10
238.8303301966
 20
49.438030496
 10
239.5648608626
 20
50.6224817661
 10
240.3612831879
 20
51.7544676468
 10
241.2116883821
 20
52.8227463869
 10
242.1076320936
 20
53.8167107967
 10
243.0402172216
 20
54.7264900472
 10
244.0001829633
 20
55.5430497457
 10
244.9779966195
 20
56.2582806758
 10
245.9639483834
 20
56.8650824153
 10
246.9482473652
 20
57.3574271353
 10
247.9211192828
 20
57.7304266418
 10
248.8729034527
 20
57.9803769612
 10
249.7941486089
 20
58.1047969245
 10
250.6757059218
 20
58.1024491666
 10
251.5088220178
 20
57.973358083
 10
252.2852236022
 20
57.7188054498
  0
ARC
  5
2D7
330
1F
100
AcDbEntity
  8
0
  6
Continuous
 62
     7
370
     0
100
AcDbCircle
 10
249.6662417833
 20
52.6067050662
 30
0.0
 40
5.799925626498033
100
AcDbArc
 50
17.4368781391
 51
51.5250351888
  0
LWPOLYLINE
  5
2D8
330
1F
100
AcDbEntity
  8
0
  6
Continuous
 62
     7
370
     0
100
AcDbPolyline
 90
       21
 70
   128
 43
0.0
 10
229.6408030627
 20
45.9109800022
 10
229.991060496
 20
47.2755791634
 10
230.4352059613
 20
48.6507798733
 10
230.9692355078
 20
50.0241850612
 10
231.588335834
 20
51.3834133222
 10
232.2869244579
 20
52.7162122215
 10
233.0587050354
 20
54.0105658958
 10
233.8967190562
 20
55.2548055046
 10
234.7934123561
 20
56.4377153095
 10
235.7407009719
 20
57.5486300066
 10
236.7300452279
 20
58.577536812
 10
237.752526538
 20
59.515159343
 10
238.7989271261
 20
60.353043944
 10
239.8598138104
 20
61.083638473
 10
240.9256227393
 20
61.7003556669
 10
241.9867460418
 20
62.1976368524
 10
243.0336171239
 20
62.5709981447
 10
244.0567990431
 20
62.8170746208
 10
245.0470678955
 20
62.9336479251
 10
245.9954964519
 20
62.9196664147
 10
246.8935344997
 20
62.7752565585
  0
LWPOLYLINE
  5
2D9
330
1F
100
AcDbEntity
  8
0
  6
Continuous
 62
     7
370
     0
100
AcDbPolyline
 90
       17
 70
   128
 43
0.0
 10
233.1127805945
 20
45.0012107123
 10
233.4431210077
 20
46.265306305
 10
233.8643346361
 20
47.5385660742
 10
234.3722397221
 20
48.8083477167
 10
234.9617918147
 20
50.0620405695
 10
235.6271364532
 20
51.2871948834
 10
236.3616671193
 20
52.4716461536
 10
237.1580894445
 20
53.6036320343
 10
238.0084946387
 20
54.6719107744
 10
238.9044383503
 20
55.6658751842
 10
239.8370234783
 20
56.5756544346
 10
240.79698922
 20
57.3922141331
 10
241.7748028761
 20
58.1074450632
 10
242.7607546401
 20
58.7142468028
 10
243.7450536219
 20
59.2065915228
 10
244.7179255394
 20
59.5795910293
 10
245.2228019792
 20
59.7268510206
  0
LWPOLYLINE
  5
2DA
330
1F
100
AcDbEntity
  8
0
  6
Continuous
 62
     7
370
     0
100
AcDbPolyline
 90
       20
 70
   128
 43
0.0
 10
232.5349955398
 20
44.9942257602
 10
232.8638489595
 20
46.2828909078
 10
233.2850652221
 20
47.582002993
 10
233.7945257902
 20
48.8788615312
 10
234.3872507502
 20
50.160787792
 10
235.0574449105
 20
51.4152498908
 10
235.7985564118
 20
52.6299833164
 10
236.6033402767
 20
53.7931135505
 10
237.4639285447
 20
54.8932680383
 10
238.3719074864
 20
55.9196922476
 10
239.3184010744
 20
56.862351848
 10
240.2941556882
 20
57.7120302795
 10
241.2896322695
 20
58.4604214972
 10
242.2950988063
 20
59.1002092164
 10
243.3007254106
 20
59.62513777
 10
244.2966807948
 20
60.030076168
 10
245.2732285432
 20
60.3110645479
 10
246.2208214066
 20
60.4653572039
 10
247.1301956395
 20
60.4914458665
 10
247.2959144137
 20
60.4820089418
  0
ARC
  5
2DB
330
1F
100
AcDbEntity
  8
0
  6
Continuous
 62
     7
370
     0
100
AcDbCircle
 10
238.555214544
 20
37.4458399956
 30
0.0
 40
0.7913800814158538
100
AcDbArc
 50
306.403140844
 51
30.6407515406
  0
LWPOLYLINE
  5
2DC
330
1F
100
AcDbEntity
  8
0
  6
Continuous
 62
     7
370
     0
100
AcDbPolyline
 90
        3
 70
   128
 43
0.0
 10
239.2361019441
 20
37.8491696148
 10
239.5943440649
 20
38.0589317659
 10
239.8013707018
 20
38.2977581178
  0
LINE
  5
2DD
330
1F
100
AcDbEntity
  8
0
  6
Continuous
 62
     7
370
     0
100
AcDbLine
 10
238.4304418857
 20
42.8955508585
 30
0.0
 11
238.2023169644
 21
43.0917715598
 31
0.0
  0
SPLINE
  5
2DE
330
1F
100
AcDbEntity
  8
0
  6
Continuous
 62
     7
370
     0
100
AcDbSpline
210
0.0
220
0.0
230
1.0
 70
     8
 71
     3
 72
     9
 73
     5
 74
     0
 42
0.000000001
 43
0.00000001
 40
0.0
 40
0.0
 40
0.0
 40
0.0
 40
0.0211455636385235
 40
0.9999999999999999
 40
0.9999999999999999
 40
0.9999999999999999
 40
0.9999999999999999
 10
238.6489031602487
 20
37.77650856114246
 30
0.0
 10
238.6533468734501
 20
37.77616779491853
 30
0.0
 10
238.8634955967171
 20
37.76005253642901
 30
0.0
 10
239.0517895613916
 20
37.80508721748852
 30
0.0
 10
239.2361019440534
 20
37.84916961483374
 30
0.0
  0
LINE
  5
2DF
330
1F
100
AcDbEntity
  8
0
  6
Continuous
 62
     7
370
     0
100
AcDbLine
 10
238.2023169644
 20
37.9047357385
 30
0.0
 11
238.6489031602
 21
37.7765085611
 31
0.0
  0
ARC
  5
2E0
330
1F
100
AcDbEntity
  8
0
  6
Continuous
 62
     7
370
     0
100
AcDbCircle
 10
239.1416303165
 20
40.3847914199
 30
0.0
 40
2.65197770660064
100
AcDbArc
 50
239.7894884885
 51
249.2559740462
  0
LINE
  5
2E1
330
1F
100
AcDbEntity
  8
0
  6
Continuous
 62
     7
370
     0
100
AcDbLine
 10
233.1226296216
 20
40.7973506207
 30
0.0
 11
237.8072121562
 21
38.0929986872
 31
0.0
  0
LWPOLYLINE
  5
2E2
330
1F
100
AcDbEntity
  8
0
  6
Continuous
 62
     7
370
     0
100
AcDbPolyline
 90
        3
 70
   128
 43
0.0
 10
232.1245477971
 20
44.0391213275
 10
232.1238411788
 20
44.1603590517
 10
232.1485254026
 20
44.893263731
  0
LWPOLYLINE
  5
2E3
330
1F
100
AcDbEntity
  8
0
  6
Continuous
 62
     7
370
     0
100
AcDbPolyline
 90
       16
 70
   128
 43
0.0
 10
210.8519582797
 20
60.4523228797
 10
210.9009111857
 20
61.2349141172
 10
211.0466772137
 20
62.0565439012
 10
211.2859998612
 20
62.8988582423
 10
211.6135332284
 20
63.7430411289
 10
212.021960392
 20
64.5702346231
 10
212.502158041
 20
65.3619611884
 10
213.0433993496
 20
66.1005347239
 10
213.6335938061
 20
66.7694564315
 10
214.2595574882
 20
67.3537841524
 10
214.9073073816
 20
67.8404650125
 10
215.5623737044
 20
68.2186267513
 10
216.2101236801
 20
68.4798220466
 10
216.8360873571
 20
68.6182166065
 10
217.4262818599
 20
68.6307189406
 10
217.7668468351
 20
68.5753838415
  0
ARC
  5
2E4
330
1F
100
AcDbEntity
  8
0
  6
Continuous
 62
     7
370
     0
100
AcDbCircle
 10
214.234675842
 20
60.2123110735
 30
0.0
 40
3.391221575421283
100
AcDbArc
 50
175.9415303383
 51
223.4200519323
  0
ARC
  5
2E5
330
1F
100
AcDbEntity
  8
0
  6
Continuous
 62
     7
370
     0
100
AcDbCircle
 10
237.7190310866
 20
37.4823282278
 30
0.0
 40
0.975296950651327
100
AcDbArc
 50
316.2161008009
 51
17.5556243278
  0
ARC
  5
2E6
330
1F
100
AcDbEntity
  8
0
  6
Continuous
 62
     7
370
     0
100
AcDbCircle
 10
241.4611293836
 20
37.8451077091
 30
0.0
 40
5.298671606802371
100
AcDbArc
 50
193.825661332
 51
283.5287268379
  0
LWPOLYLINE
  5
2E7
330
1F
100
AcDbEntity
  8
0
  6
Continuous
 62
     7
370
     0
100
AcDbPolyline
 90
        3
 70
   128
 43
0.0
 10
235.3513241839
 20
34.2275883825
 10
235.1718200975
 20
34.6101412543
 10
234.820360162
 20
35.573098962
  0
LWPOLYLINE
  5
2E8
330
1F
100
AcDbEntity
  8
0
  6
Continuous
 62
     7
370
     0
100
AcDbPolyline
 90
       13
 70
   128
 43
0.0
 10
244.1941177972
 20
31.8313066166
 10
243.1587521873
 20
31.4685424595
 10
242.1424758482
 20
31.2322228824
 10
241.1600973468
 20
31.1267323942
 10
240.2207270701
 20
31.1530504243
 10
239.3330775619
 20
31.310932807
 10
238.5053806287
 20
31.5989156392
 10
237.7453122652
 20
32.0143266947
 10
237.0599221904
 20
32.5533147081
 10
236.4555666758
 20
33.2108797998
 10
235.9378505937
 20
33.9809251931
 10
235.5115747337
 20
34.8563074098
 10
235.1806936555
 20
35.8289096582
  0
LINE
  5
2E9
330
1F
100
AcDbEntity
  8
0
  6
Continuous
 62
     7
370
     0
100
AcDbLine
 10
237.2415263751
 20
37.1132025563
 30
0.0
 11
231.9912583887
 21
40.1441177501
 31
0.0
  0
LINE
  5
2EA
330
1F
100
AcDbEntity
  8
0
  6
Continuous
 62
     7
370
     0
100
AcDbLine
 10
236.3159743379
 20
36.5788927383
 30
0.0
 11
237.2415263751
 21
37.1132025563
 31
0.0
  0
ARC
  5
2EB
330
1F
100
AcDbEntity
  8
0
  6
Continuous
 62
     7
370
     0
100
AcDbCircle
 10
237.1343559109
 20
37.7715164609
 30
0.0
 40
1.076237979160082
100
AcDbArc
 50
303.9012394554
 51
7.1104440861
  0
ARC
  5
2EC
330
1F
100
AcDbEntity
  8
0
  6
Continuous
 62
     7
370
     0
100
AcDbCircle
 10
238.9069644379
 20
39.9735049191
 30
0.0
 40
3.309835879244934
100
AcDbArc
 50
239.7894921951
 51
249.255969015
  0
ARC
  5
2ED
330
1F
100
AcDbEntity
  8
0
  6
Continuous
 62
     7
370
     0
100
AcDbCircle
 10
236.5790388068
 20
38.1488876301
 30
0.0
 40
1.229444325813171
100
AcDbArc
 50
302.6054702472
 51
357.3945103512
  0
LINE
  5
2EE
330
1F
100
AcDbEntity
  8
0
  6
Continuous
 62
     7
370
     0
100
AcDbLine
 10
233.9747109762
 20
37.7364331156
 30
0.0
 11
233.8976691713
 21
37.9749505951
 31
0.0
  0
LWPOLYLINE
  5
2EF
330
1F
100
AcDbEntity
  8
0
  6
Continuous
 62
     7
370
     0
100
AcDbPolyline
 90
        3
 70
   128
 43
0.0
 10
233.6130426129
 20
37.1953175187
 10
233.4531302257
 20
37.5232319551
 10
233.1127805945
 20
38.4280571258
  0
ARC
  5
2F0
330
1F
100
AcDbEntity
  8
0
  6
Continuous
 62
     7
370
     0
100
AcDbCircle
 10
239.1481478959
 20
40.2825953432
 30
0.0
 40
6.870156664474435
100
AcDbArc
 50
195.7212749662
 51
214.1765209161
  0
LWPOLYLINE
  5
2F1
330
1F
100
AcDbEntity
  8
0
  6
Continuous
 62
     7
370
     0
100
AcDbPolyline
 90
        3
 70
   128
 43
0.0
 10
230.1294793076
 20
37.3029812963
 10
229.9922629983
 20
37.6002359218
 10
229.6408030627
 20
38.5631936294
  0
ARC
  5
2F2
330
1F
100
AcDbEntity
  8
0
  6
Continuous
 62
     7
370
     0
100
AcDbCircle
 10
249.6091010166
 20
53.1359012262
 30
0.0
 40
7.017036613521176
100
AcDbArc
 50
14.3287111028
 51
43.5251776228
  0
ARC
  5
2F3
330
1F
100
AcDbEntity
  8
0
  6
Continuous
 62
     7
370
     0
100
AcDbCircle
 10
271.7871299295
 20
32.8021230313
 30
0.0
 40
2.091582177788845
100
AcDbArc
 50
341.1223525766
 51
36.5830020993
  0
LWPOLYLINE
  5
2F4
330
1F
100
AcDbEntity
  8
0
  6
Continuous
 62
     7
370
     0
100
AcDbPolyline
 90
       12
 70
   128
 43
0.0
 10
273.3171060469
 20
33.9588875885
 10
273.5351606702
 20
33.5106807648
 10
273.6657421436
 20
33.0550867242
 10
273.6982742423
 20
32.6290134931
 10
273.6301201541
 20
32.2669796606
 10
273.4668011161
 20
31.9983151825
 10
273.2215459704
 20
31.8447870314
 10
272.9142269562
 20
31.8188312581
 10
272.5697396898
 20
31.9225515476
 10
272.2159932878
 20
32.1475446472
 10
271.8816449727
 20
32.4755837147
 10
271.8420717161
 20
32.5232349788
  0
OLE2FRAME
  5
2F5
330
1F
100
AcDbEntity
  8
0
100
AcDbOle2Frame
 70
     2
  3
Paintbrush-Bild
 10
13.8511154363
 20
38.264191557
 30
0.0
 11
51.6290888628
 21
31.9806341108
 31
0.0
 71
     2
 72
     0
 73
     1
 90
    12928
310
80552BED0767C5B32B40DDAF6807D121434000000000000000006FFBDDFB85D0
310
4940DDAF6807D121434000000000000000006FFBDDFB85D04940416F4BD60AFB
310
3F4000000000000000002BED0767C5B32B40416F4BD60AFB3F40000000000000
310
0000000000000100000000010000010000000100000000000100000000320000
310
D0CF11E0A1B11AE1000000000000000000000000000000003E000300FEFF0900
310
0600000000000000000000000100000001000000000000000010000002000000
310
01000000FEFFFFFF0000000000000000FFFFFFFFFFFFFFFFFFFFFFFFFFFFFFFF
310
FFFFFFFFFFFFFFFFFFFFFFFFFFFFFFFFFFFFFFFFFFFFFFFFFFFFFFFFFFFFFFFF
310
FFFFFFFFFFFFFFFFFFFFFFFFFFFFFFFFFFFFFFFFFFFFFFFFFFFFFFFFFFFFFFFF
310
FFFFFFFFFFFFFFFFFFFFFFFFFFFFFFFFFFFFFFFFFFFFFFFFFFFFFFFFFFFFFFFF
310
FFFFFFFFFFFFFFFFFFFFFFFFFFFFFFFFFFFFFFFFFFFFFFFFFFFFFFFFFFFFFFFF
310
FFFFFFFFFFFFFFFFFFFFFFFFFFFFFFFFFFFFFFFFFFFFFFFFFFFFFFFFFFFFFFFF
310
FFFFFFFFFFFFFFFFFFFFFFFFFFFFFFFFFFFFFFFFFFFFFFFFFFFFFFFFFFFFFFFF
310
FFFFFFFFFFFFFFFFFFFFFFFFFFFFFFFFFFFFFFFFFFFFFFFFFFFFFFFFFFFFFFFF
310
FFFFFFFFFFFFFFFFFFFFFFFFFFFFFFFFFFFFFFFFFFFFFFFFFFFFFFFFFFFFFFFF
310
FFFFFFFFFFFFFFFFFFFFFFFFFFFFFFFFFFFFFFFFFFFFFFFFFFFFFFFFFFFFFFFF
310
FFFFFFFFFFFFFFFFFFFFFFFFFFFFFFFFFFFFFFFFFFFFFFFFFFFFFFFFFFFFFFFF
310
FFFFFFFFFFFFFFFFFFFFFFFFFFFFFFFFFFFFFFFFFFFFFFFFFFFFFFFFFFFFFFFF
310
FFFFFFFFFFFFFFFFFFFFFFFFFFFFFFFFFFFFFFFFFFFFFFFFFFFFFFFFFFFFFFFF
310
FFFFFFFFFFFFFFFFFFFFFFFFFFFFFFFFFFFFFFFFFFFFFFFFFFFFFFFFFFFFFFFF
310
FDFFFFFFFEFFFFFFFEFFFFFFFEFFFFFF05000000060000000700000008000000
310
090000000A0000000B0000000C0000000D0000000E0000000F00000010000000
310
11000000120000001300000014000000150000001600000017000000FEFFFFFF
310
FFFFFFFFFFFFFFFFFFFFFFFFFFFFFFFFFFFFFFFFFFFFFFFFFFFFFFFFFFFFFFFF
310
FFFFFFFFFFFFFFFFFFFFFFFFFFFFFFFFFFFFFFFFFFFFFFFFFFFFFFFFFFFFFFFF
310
FFFFFFFFFFFFFFFFFFFFFFFFFFFFFFFFFFFFFFFFFFFFFFFFFFFFFFFFFFFFFFFF
310
FFFFFFFFFFFFFFFFFFFFFFFFFFFFFFFFFFFFFFFFFFFFFFFFFFFFFFFFFFFFFFFF
310
FFFFFFFFFFFFFFFFFFFFFFFFFFFFFFFFFFFFFFFFFFFFFFFFFFFFFFFFFFFFFFFF
310
FFFFFFFFFFFFFFFFFFFFFFFFFFFFFFFFFFFFFFFFFFFFFFFFFFFFFFFFFFFFFFFF
310
FFFFFFFFFFFFFFFFFFFFFFFFFFFFFFFFFFFFFFFFFFFFFFFFFFFFFFFFFFFFFFFF
310
FFFFFFFFFFFFFFFFFFFFFFFFFFFFFFFFFFFFFFFFFFFFFFFFFFFFFFFFFFFFFFFF
310
FFFFFFFFFFFFFFFFFFFFFFFFFFFFFFFFFFFFFFFFFFFFFFFFFFFFFFFFFFFFFFFF
310
FFFFFFFFFFFFFFFFFFFFFFFFFFFFFFFFFFFFFFFFFFFFFFFFFFFFFFFFFFFFFFFF
310
FFFFFFFFFFFFFFFFFFFFFFFFFFFFFFFFFFFFFFFFFFFFFFFFFFFFFFFFFFFFFFFF
310
FFFFFFFFFFFFFFFFFFFFFFFFFFFFFFFFFFFFFFFFFFFFFFFFFFFFFFFFFFFFFFFF
310
FFFFFFFFFFFFFFFFFFFFFFFFFFFFFFFFFFFFFFFFFFFFFFFFFFFFFFFFFFFFFFFF
310
52006F006F007400200045006E00740072007900000000000000000000000000
310
0000000000000000000000000000000000000000000000000000000000000000
310
16000500FFFFFFFFFFFFFFFF020000000A00030000000000C000000000000046
310
0000000000000000000000003028F6905F24D20103000000C000000000000000
310
01004F006C006500000000000000000000000000000000000000000000000000
310
0000000000000000000000000000000000000000000000000000000000000000
310
0A000200FFFFFFFFFFFFFFFFFFFFFFFF00000000000000000000000000000000
310
0000000000000000000000000000000000000000000000001400000000000000
310
010043006F006D0070004F0062006A0000000000000000000000000000000000
310
0000000000000000000000000000000000000000000000000000000000000000
310
120002010100000003000000FFFFFFFF00000000000000000000000000000000
310
0000000000000000000000000000000000000000010000004D00000000000000
310
01004F006C006500310030004E00610074006900760065000000000000000000
310
0000000000000000000000000000000000000000000000000000000000000000
310
1A000200FFFFFFFFFFFFFFFFFFFFFFFF00000000000000000000000000000000
310
0000000000000000000000000000000000000000040000002426000000000000
310
FEFFFFFF02000000FEFFFFFFFFFFFFFFFFFFFFFFFFFFFFFFFFFFFFFFFFFFFFFF
310
FFFFFFFFFFFFFFFFFFFFFFFFFFFFFFFFFFFFFFFFFFFFFFFFFFFFFFFFFFFFFFFF
310
FFFFFFFFFFFFFFFFFFFFFFFFFFFFFFFFFFFFFFFFFFFFFFFFFFFFFFFFFFFFFFFF
310
FFFFFFFFFFFFFFFFFFFFFFFFFFFFFFFFFFFFFFFFFFFFFFFFFFFFFFFFFFFFFFFF
310
FFFFFFFFFFFFFFFFFFFFFFFFFFFFFFFFFFFFFFFFFFFFFFFFFFFFFFFFFFFFFFFF
310
FFFFFFFFFFFFFFFFFFFFFFFFFFFFFFFFFFFFFFFFFFFFFFFFFFFFFFFFFFFFFFFF
310
FFFFFFFFFFFFFFFFFFFFFFFFFFFFFFFFFFFFFFFFFFFFFFFFFFFFFFFFFFFFFFFF
310
FFFFFFFFFFFFFFFFFFFFFFFFFFFFFFFFFFFFFFFFFFFFFFFFFFFFFFFFFFFFFFFF
310
FFFFFFFFFFFFFFFFFFFFFFFFFFFFFFFFFFFFFFFFFFFFFFFFFFFFFFFFFFFFFFFF
310
FFFFFFFFFFFFFFFFFFFFFFFFFFFFFFFFFFFFFFFFFFFFFFFFFFFFFFFFFFFFFFFF
310
FFFFFFFFFFFFFFFFFFFFFFFFFFFFFFFFFFFFFFFFFFFFFFFFFFFFFFFFFFFFFFFF
310
FFFFFFFFFFFFFFFFFFFFFFFFFFFFFFFFFFFFFFFFFFFFFFFFFFFFFFFFFFFFFFFF
310
FFFFFFFFFFFFFFFFFFFFFFFFFFFFFFFFFFFFFFFFFFFFFFFFFFFFFFFFFFFFFFFF
310
FFFFFFFFFFFFFFFFFFFFFFFFFFFFFFFFFFFFFFFFFFFFFFFFFFFFFFFFFFFFFFFF
310
FFFFFFFFFFFFFFFFFFFFFFFFFFFFFFFFFFFFFFFFFFFFFFFFFFFFFFFFFFFFFFFF
310
FFFFFFFFFFFFFFFFFFFFFFFFFFFFFFFFFFFFFFFFFFFFFFFFFFFFFFFFFFFFFFFF
310
0100000200000000000000000000000000000000000000000000000000000000
310
0000000000000000000000000000000000000000000000000000000000000000
310
0100FEFF030A0000FFFFFFFF0A00030000000000C00000000000004607000000
310
5042727573680007000000504272757368000700000050427275736800F439B2
310
7100000000000000000000000000000000000000000000000000000000000000
310
0000000000000000000000000000000000000000000000000000000000000000
310
0000000000000000000000000000000000000000000000000000000000000000
310
0000000000000000000000000000000000000000000000000000000000000000
310
0000000000000000000000000000000000000000000000000000000000000000
310
0000000000000000000000000000000000000000000000000000000000000000
310
0000000000000000000000000000000000000000000000000000000000000000
310
0000000000000000000000000000000000000000000000000000000000000000
310
0000000000000000000000000000000000000000000000000000000000000000
310
0000000000000000000000000000000000000000000000000000000000000000
310
0000000000000000000000000000000000000000000000000000000000000000
310
0000000000000000000000000000000000000000000000000000000000000000
310
20260000424D0E260000000000003E00000028000000B40200006E0000000100
310
01000000000000000000130B0000130B00000200000002000000000000FFFFFF
310
FFFFFFFFFFFFFFFFFFFFFFFFFFFFFFFFFFFFFFFFFFFFFFFFFFFFFFFFFFFFFFFF
310
FFFFFFFFFFFFFFFFFFFFFFFFFFFFFFFFFFFFFFFFFFFFFFFFFFFFFFFFFFFFFFFF
310
FFFFFFFFFFFFFFFFFFFFFFFFFFFFFFFFFFFFFFFFFFFFFFFFF000FFFFFFFFFFFF
310
FFFFFFFFFFFFFFFFFFFFFFFFFFFFFFFFFFFFFFFFFFFFFFFFFFFFFFFFFFFFFFFF
310
FFFFFFFFFFFFFFFFFFFFFFFFFFFFFFFFFFFFFFFFFFFFFFFFFFFFFFFFFFFFFFFF
310
FFFFFFFFFFFFFFFFFFFFFFFFFFFFFFFFF000FFFFFFFFFFFFFFFFFFFFFFFFFFFF
310
FFFFFFFFFFFFFFFFFFFFFFFFFFFFFFFFFFFFFFFFFFFFFFFFFFFFFFFFFFFFFFFF
310
FFFFFFFFFFFFFFFFFFFFFFFFFFFFFFFFFFFFFFFFFFFFFFFFFFFFFFFFFFFFFFFF
310
FFFFFFFFFFFFFFFFF000FFFFFFFFFFFFFFFFFFFFFFFFFFFFFFFFFFFFFFFFFFFF
310
FFFFFFFFFFFFFFFFFFFFFFFFFFFFFFFFFFFFFFFFFFFFFFFFFFFFFFFFFFFFFFFF
310
FFFFFFFFFFFFFFFFFFFFFFFFFFFFFFFFFFFFFFFFFFFFFFFFFFFFFFFFFFFFFFFF
310
F000FFFFFFFFFFFFFFFFFFFFFFFFFFFFFFFFFFFFFFFFFFFFFFFFFFFFFFFFFFFF
310
FFFFFFFFFFFFFFFFFFFFFFFFFFFFFFFFFFFFFFFFFFFFFFFFFFFFFFFFFFFFFFFF
310
FFFFFFFFFFFFFFFFFFFFFFFFFFFFFFFFFFFFFFFFFFFFFFFFF000FFFFFFFFFFFF
310
FFFFFFFFFFFFFFFFFFFFFFFFFFFFFFFFFFFFFFFFFFFFFFFFFFFFFFFFFFFFFFFF
310
FFFFFFFFFFFFFFFFFFFFFFFFFFFFFFFFFFFFFFFFFFFFFFFFFFFFFFFFFFFFFFFF
310
FFFFFFFFFFFFFFFFFFFFFFFFFFFFFFFFF000FFFFFFFFFFFFFFFFFFFFFFFFFFFF
310
FFFFFFFFFFFFFFFFFFFFFFFFFFFFFFFFFFFFFFFFFFFFFFFFFFFFFFFFFFFFFFFF
310
FFFFFFFFFFFFFFFFFFFFFFFFFFFFFFFFFFFFFFFFFFFFFFFFFFFFFFFFFFFFFFFF
310
FFFFFFFFFFFFFFFFF000FFFFFFFFFFFFFFFFFFFFFFFFFFFFFFFFFFFFFFFFFFFF
310
FFFFFFFFFFFFFFFFFFFFFFFFFFFFFFFFFFFFFFFFFFFFFFFFFFFFFFFFFFFFFFFF
310
FFFFFFFFFFFFFFFFFFFFFFFFFFFFFFFFFFFFFFFFFFFFFFFFFFFFFFFFFFFFFFFF
310
F000FFFFFFFFFFFFFFFFFFFFFFFFFFFFFFFFFFFFFFFFFFFFFFFFFFFFFFFFFFFF
310
FFFFFFFFFFFFFFFFFFFFFFFFFFFFFFFFFFFFFFFFFFFFFFFFFFFFFFFFFFFFFFFF
310
FFFFFFFFFFFFFFFFFFFFFFFFFFFFFFFFFFFFFFFFFFFFFFFFF000FFFFFFFFFFFF
310
FFFFFFFFFFFFFFFFFFFFFFFFFFFFFFFFFFFFFFFFFFFFFFFFFFFFFFFFFFFFFFFF
310
FFFFFFFFFFFFFFFFFFFFFFFFFFFFFFFFFFFFFFFFFFFFFFFFFFFFFFFFFFFFFFFF
310
FFFFFFFFFFFFFFFFFFFFFFFFFFFFFFFFF000FFFFFFFFFFFFFFFFFFFFFFFFFFFF
310
FFFFFFFFFFFFFFFFFFFFFFFFFFFFFFFFFFFFFFFFFFFFFFFFFFFFFFFFFFFFFFFF
310
FFFFFFFFFFFFFFFFFFFFFFFFFFFFFFFFFFFFFFFFFFFFFFFFFFFFFFFFFFFFFFFF
310
FFFFFFFFFFFFFFFFF000FFFFFFFFFFFFFFFFFFFFFFFFFFFFFFFFFFFFFFFFFFFF
310
FFFFFFFFFFFFFFFFFFFFFFFFFFFFFFFFFFFFFFFFFFFFFFFFFFFFFFFFFFFFFFFF
310
FFFFFFFFFFFFFFFFFFFFFFFFFFFFFFFFFFFFFFFFFFFFFFFFFFFFFFFFFFFFFFFF
310
F000FFFFFFFFFFFFFFFFFFFFFFFFFFFFFFFFFFFFFFFFFFFFFFFFFFFFFFFFFFFF
310
FFFFFFFFFFFFFFFFFFFFFFFFFFFFFFFFFFFFFFFFFFFFFFFFFFFFFFFFFFFFFFFF
310
FFFFFFFFFFFFFFFFFFFFFFFFFFFFFFFFFFFFFFFFFFFFFFFFF000FFFFFFFFFFFF
310
FFFFFFFFFFFFFFFFFFFFFFFFFFFFFFFFFFFFFFFFFFFFFFFFFFFFFFFFFFFFFFFF
310
FFFFFFFFFFFFFFFFFFFFFFFFFFFFFFFFFFFFFFFFFFFFFFFFFFFFFFFFFFFFFFFF
310
FFFFFFFFFFFFFFFFFFFFFFFFFFFFFFFFF000FFFFFFFFFFFFFFFFFFFFFFFFFFFF
310
FFFFFFFFFFFFFFFFFFFFFFFFFFFFFFFFFFFFFFFFFFFFFFFFFFFFFFFFFFFFFFFF
310
FFFFFFFFFFFFFFFFFFFFFFFFFFFFFFFFFFFFFFFFFFFFFFFFFFFFFFFFFFFFFFFF
310
FFFFFFFFFFFFFFFFF000FFFFFFFFFFFFFFFFFFFFFFFFFFFFFFFFFFFFFFFFFFFF
310
FFFFFFFFFFFFFFFFFFFFFFFFFFFFFFFFFFFFFFFFFFFFFFFFFFFFFFFFFFFFFFFF
310
FFFFFFFFFFFFFFFFFFFFFFFFFFFFFFFFFFFFFFFFFFFFFFFFFFFFFFFFFFFFFFFF
310
F000FFFFFFFFFFFFFFFFFFFFFFFFFFFFFFFFFFFFFFFFFFFFFFFFFFFFFFFFFFFF
310
FFFFFFFFFFFFFFFFFFFFFFFFFFFFFFFFFFFFFFFFFFFFFFFFFFFFFFFFFFFFFFFF
310
FFFFFFFFFFFFFFFFFFFFFFFFFFFFFFFFFFFFFFFFFFFFFFFFF000FFFFFFFFFFFF
310
FFFFFFFFFFFFFFFFFFFFFFFFFFFFFFFFFFFFFFFFFFFFFFFFFFFFFFFFFFFFFFFF
310
FFFFFFFFFFFFFFFFFFFFFFFFFFFFFFFFFFFFFFFFFFFFFFFFFFFFFFFFFFFFFFFF
310
FFFFFFFFFFFFFFFFFFFFFFFFFFFFFFFFF000FFFFFFFFFFFFFFFFFFFFFFFFFFFF
310
FFFFFFFFFFFFFFFFFFFFFFFFFFFFFFFFFFFFFFFFFFFFFFFFFFFFFFFFFFFFFFFF
310
FFFFFFFFFFFFFFFFFFFFFFFFFFFFFFFFFFFFFFFFFFFFFFFFFFFFFFFFFFFFFFFF
310
FFFFFFFFFFFFFFFFF000FFFFF80003FFFFFFFFFFFFFFFFFFFFFFFFFFFFFFFFFF
310
FFFFF00007FFFFFFFFFF00007FFFFFF800000000000000007FFFFFFFFFFFFFFF
310
FFFFFFFC001FFFFFFFFFFFFFFC001FFFFFFFFFFFFFFFFFFFFFFFFFFE0007FFFF
310
F000FFFF8000007FFFFFFFF8000FFFFFC0007FFFFF80007FFFFF0000007FFFFF
310
FFF8000007FFFFF800000000000000007FFFFFF0001FFFFFFFFFFFC00001FFFF
310
FFFFFFFFC00001FFFFFFFF000000000003FFFFE000007FFFF000FFFE0000000F
310
FFFFFFF0000FFFFF80007FFFFF80007FFFFC0000001FFFFFFFC0000001FFFFF8
310
00000000000000007FFFFFF0001FFFFFFFFFFE0000003FFFFFFFFFFE0000003F
310
FFFFFF000000000003FFFF0000000FFFF000FFF800000003FFFFFFF00007FFFF
310
80007FFFFF80007FFFF000000007FFFFFF000000003FFFF80000000000000000
310
7FFFFFF0001FFFFFFFFFF80000000FFFFFFFFFF80000000FFFFFFF0000000000
310
03FFFC00000003FFF000FFE000000000FFFFFFF00007FFFF80003FFFFF80007F
310
FFC000000001FFFFFC000000001FFFF800000000000000007FFFFFF0001FFFFF
310
FFFFE000000003FFFFFFFFE000000003FFFFFF000000000003FFF000000000FF
310
F000FF80000000007FFFFFF00007FFFF80003FFFFF80007FFF8000000000FFFF
310
F80000000007FFF800000000000000007FFFFFF0001FFFFFFFFFC000000001FF
310
FFFFFFC000000001FFFFFF000000000003FFC0000000007FF000FF0000000000
310
3FFFFFE00007FFFF00003FFFFF80007FFE00000000003FFFF00000000003FFF8
310
00000000000000007FFFFFF0001FFFFFFFFF8000000000FFFFFFFF8000000000
310
FFFFFF000000000003FF80000000003FF000FE00000000001FFFFFE00003FFFF
310
00003FFFFF80007FFC00000000001FFFE00000000001FFF8000001FFFE000000
310
7FFFFFF0001FFFFFFFFE00000000003FFFFFFE00000000003FFFFF0000000000
310
03FF00000000001FF000FC00000000000FFFFFE00003FFFF00001FFFFF80007F
310
F800000000001FFFC00000000000FFF8000001FFFE0000007FFFFFF0001FFFFF
310
FFFC00000000001FFFFFFC00000000001FFFFF000000000003FE00000000000F
310
F000F8000000000007FFFFE00003FFFF00001FFFFF80007FF800000000000FFF
310
800000000000FFF8000001FFFE0000007FFFFFF0001FFFFFFFF800000000000F
310
FFFFF800000000000FFFFF000000000003FC000000000007F000F80000000000
310
03FFFFC00003FFFE00001FFFFF80007FF0000000000007FF0000000000007FF8
310
000001FFFE0000007FFFFFF0001FFFFFFFF0000000000007FFFFF00000000000
310
07FFFF000000000003F8000000000003F000F0000000000003FFFFC00001FFFE
310
00001FFFFF80007FE0000000000007FE0000000000003FF8000001FFFE000000
310
7FFFFFF0001FFFFFFFF0000000000007FFFFF0000000000007FFFF0000000000
310
03F800001F800003F000E00001FFF00001FFFFC00001FFFE00000FFFFF80007F
310
E00001FFE00003FE00001FFF00003FF8000001FFFE0000007FFFFFF0001FFFFF
310
FFE000003E000003FFFFE000003E000003FFFF000000000003F00001FFF80001
310
F000E00007FFFC0001FFFFC00001FFFE00000FFFFF80007FC0000FFFFC0003FC
310
0000FFFFC0001FF8000001FFFE0000007FFFFFF0001FFFFFFFC00003FFE00001
310
FFFFC00003FFE00001FFFF0001FFFFFFFFF00007FFFE0001F000E0000FFFFF00
310
00FFFF800001FFFC00000FFFFF80007FC0001FFFFE0001FC0001FFFFE0001FF8
310
000001FFFE0000007FFFFFF0001FFFFFFF80000FFFF80000FFFF80000FFFF800
310
00FFFF0003FFFFFFFFE0000FFFFF8000F000C0003FFFFF8000FFFF800000FFFC
310
000007FFFF80007F80003FFFFF0001FC0003FFFFF0001FF8000001FFFE000000
310
7FFFFFF0001FFFFFFF80003FFFFE0000FFFF80003FFFFE0000FFFF0003FFFFFF
310
FFE0003FFFFF8000F000C0003FFFFF8000FFFF800000FFFC000007FFFF80007F
310
80007FFFFF8001F80007FFFFF8000FF8000001FFFE0000007FFFFFF0001FFFFF
310
FF00007FFFFF00007FFF00007FFFFF00007FFF0003FFFFFFFFE0003FFFFFC000
310
F000C0007FFFFFC000FFFF000000FFFC000007FFFF80007F8000FFFFFF8000F8
310
000FFFFFF8000FF8000001FFFE0000007FFFFFF0001FFFFFFF0000FFFFFF8000
310
7FFF0000FFFFFF80007FFF0003FFFFFFFFC0007FFFFFC00070008000FFFFFFC0
310
00FFFF000000FFF8000007FFFF80007F8000FFFFFF8000F8000FFFFFF8000FF8
310
000001FFFE0000007FFFFFF0001FFFFFFE0001FFFFFFC0003FFE0001FFFFFFC0
310
003FFF0003FFFFFFFFC0007FFFFFE00070008000FFFFFFC0007FFF0000007FF8
310
000003FFFF80007F0001FFFFFF8000F8000FFFFFF8000FF8000001FFFE000000
310
7FFFFFF0001FFFFFFE0001FFFFFFC0003FFE0001FFFFFFC0003FFF0003FFFFFF
310
FFC000FFFFFFE00070008000FFFFFFC0007FFF0000007FF8000003FFFF80007F
310
0001FFFFFF8000F8001FFFFFF8000FF8000001FFFE0000007FFFFFF0001FFFFF
310
FE0003FFFFFFE0003FFE0003FFFFFFE0003FFF0003FFFFFFFFC000FFFFFFE000
310
70008000FFFFFFC0007FFE0000007FF8000003FFFF80007F0001FFFFFF8000F0
310
001FFFFFF8000FF8000001FFFE0000007FFFFFF0001FFFFFFC0003FFFFFFE000
310
1FFC0003FFFFFFE0001FFF0003FFFFFFFFC000FFFFFFC00070008000FFFFFF80
310
007FFE0000007FF0000003FFFF80007F0001FFFFFF0000F0001FFFFFF8000FF8
310
000001FFFE0000007FFFFFF0001FFFFFFC0007FFFFFFF0001FFC0007FFFFFFF0
310
001FFF0003FFFFFFFFC000FFFFFFC00070008001FFFFFF0000FFFE0000003FF0
310
000001FFFF80007F0001FFFFFF0000F8001FFFFFF0000FF8000001FFFE000000
310
7FFFFFF0001FFFFFFC0007FFFFFFF0001FFC0007FFFFFFF0001FFF0003FFFFFF
310
FFC001FFFFFF80007000FFFFFFFFFE0000FFFE0008003FF0008001FFFF80007F
310
FFFFFFFFFC0000FFFFFFFFFFE0000FF8000001FFFE0000007FFFFFF0001FFFFF
310
F8000FFFFFFFF8000FF8000FFFFFFFF8000FFF0003FFFFFFFFFFFFFFFFFF0000
310
7000FFFFFFFFFC0000FFFC0008003FF0008001FFFF80007FFFFFFFFFF80001FF
310
FFFFFFFF80000FF8000001FFFE0000007FFFFFF0001FFFFFF8000FFFFFFFF800
310
0FF8000FFFFFFFF8000FFF0003FFFFFFFFFFFFFFFFFE0000F000FFFFFFFFE000
310
00FFFC000C003FE000C001FFFF80007FFFFFFFFFC00001FFFFFFFFFE00001FF8
310
000001FFFE0000007FFFFFF0001FFFFFF8000FFFFFFFF8000FF8000FFFFFFFF8
310
000FFF0003FFFFFFFFFFFFFFFFF00000F000FFFFFFFE000001FFFC000C001FE0
310
00C000FFFF80007FFFFFFFFE000001FFFFFFFFE000001FF80FFFFFFFFFFFFFC0
310
7FFFFFF0001FFFFFF8000FFFFFFFF8000FF8000FFFFFFFF8000FFF0003FFFFFF
310
FFFFFFFFFF800000F000FFFFFFC0000001FFFC001C001FE001C000FFFF80007F
310
FFFFFF80000003FFFFFFF80000001FF80FFFFFFFFFFFFFC07FFFFFF0001FFFFF
310
F8001FFFFFFFFC000FF8001FFFFFFFFC000FFF0003FFFFFFFFFFFFFFF0000001
310
F000FFFFF800000001FFF8001C001FE001C000FFFF80007FFFFFF800000003FF
310
FFFF800000003FF80FFFFFFFFFFFFFC07FFFFFF0001FFFFFF8001FFFFFFFFC00
310
0FF8001FFFFFFFFC000FFF0003FFFFFFFFFFFFFE00000001F000FFFFC0000000
310
03FFF8001E001FC001E000FFFF80007FFFFF8000000007FFFFFC000000003FF8
310
0FFFFFFFFFFFFFC07FFFFFF0001FFFFFF8001FFFFFFFFC000FF8001FFFFFFFFC
310
000FFF0003FFFFFFFFFFFFE000000003F000FFFE0000000007FFF8001E000FC0
310
01E0007FFF80007FFFFE0000000007FFFFE0000000007FF80FFFFFFFFFFFFFC0
310
7FFFFFF0001FFFFFF0001FFFFFFFFC0007F0001FFFFFFFFC0007FF0003FFFFFF
310
FFFFFF0000000003F000FFF80000000007FFF8001E000FC003E0007FFF80007F
310
FFF0000000000FFFFF8000000000FFF80FFFFFFFFFFFFFC07FFFFFF0001FFFFF
310
F0001FFFFFFFFC0007F0001FFFFFFFFC0007FF0003FFFFFFFFFFFC0000000007
310
F000FFE0000000000FFFF0003E000FC003E0007FFF80007FFFC0000000001FFF
310
FE0000000001FFF80FFFFFFFFFFFFFC07FFFFFF0001FFFFFF0001FFFFFFFFC00
310
07F0001FFFFFFFFC0007FF0003FFFFFFFFFFF0000000000FF000FFC000000000
310
1FFFF0003F000F8003F0003FFF80007FFF80000000003FFFF80000000003FFF8
310
0FFFFFFFFFFFFFC07FFFFFF0001FFFFFF0001FFFFFFFFC0007F0001FFFFFFFFC
310
0007FF0003FFFFFFFFFFE0000000001FF000FF00000000007FFFF0003F000780
310
03F0003FFF80007FFF00000000007FFFF00000000007FFF80FFFFFFFFFFFFFC0
310
7FFFFFF0001FFFFFF0001FFFFFFFFC0007F0001FFFFFFFFC0007FF0003FFFFFF
310
FFFF80000000007FF000FE0000000000FFFFE0003F00078007F0003FFF80007F
310
FE0000000001FFFFE0000000001FFFF80FFFFFFFFFFFFFC07FFFFFF0001FFFFF
310
F0001FFFFFFFFC0007F0001FFFFFFFFC0007FF0003FFFFFFFFFF0000000000FF
310
F000FC0000000003FFFFE0007F00078007F0003FFF80007FFC0000000007FFFF
310
C0000000007FFFF80FFFFFFFFFFFFFC07FFFFFF0001FFFFFF8001FFFFFFFFC00
310
0FF8001FFFFFFFFC000FFF0003FFFFFFFFFE0000000003FFF000FC000000000F
310
FFFFE0007F80070007F8001FFF80007FF8000000001FFFFF8000000001FFFFF8
310
0FFFFFFFFFFFFFC07FFFFFF0001FFFFFF8001FFFFFFFFC000FF8001FFFFFFFFC
310
000FFF0003FFFFFFFFFC000000000FFFF000F8000000007FFFFFE0007F800700
310
07F8001FFF80007FF000000000FFFFFF800000000FFFFFF80FFFFFFFFFFFFFC0
310
7FFFFFF0001FFFFFF8000FFFFFFFF8000FF8000FFFFFFFF8000FFF0003FFFFFF
310
FFFC000000007FFFF000F800000007FFFFFFC0007F8003000FF8001FFF80007F
310
F000000007FFFFFF000000007FFFFFF80FFFFFFFFFFFFFC07FFFFFF0001FFFFF
310
F8000FFFFFFFF8000FF8000FFFFFFFF8000FFF0003FFFFFFFFF80000000FFFFF
310
F000F0000000FFFFFFFFC000FF8003000FF8001FFF80007FE0000000FFFFFFFF
310
0000000FFFFFFFF8000001FFFE0000007FFFFFF0001FFFFFF8000FFFFFFFF800
310
0FF8000FFFFFFFF8000FFF0003FFFFFFFFF8000000FFFFFFF000F000000FFFFF
310
FFFFC000FFC002000FF8000FFF80007FE000001FFFFFFFFE000001FFFFFFFFF8
310
000001FFFE0000007FFFFFF0001FFFFFF8000FFFFFFFF8000FF8000FFFFFFFF8
310
000FFF0003FFFFFFFFF000001FFFFFFFF000E00000FFFFFFFFFFC000FFC00200
310
0FFC000FFF80007FE00001FFFFFFFFFE00001FFFFFFFFFF8000001FFFE000000
310
7FFFFFF0001FFFFFFC000FFFFFFFF8001FFC000FFFFFFFF8001FFF0003FFFFFF
310
FFF00001FFFFFFFFF000E00007FFFFFFFFFF8000FFC000001FFC000FFF80007F
310
C0000FFFFFFFFFFE0000FFFFFFFFFFF8000001FFFE0000007FFFFFF0001FFFFF
310
FC0007FFFFFFF0001FFC0007FFFFFFF0001FFF0003FFFFFFFFF00007FFFFFFFF
310
F000E0001FFFFFFFFFFF8000FFC000001FFC000FFF80007FC0003FFFFFFFFFFE
310
0001FFFFFFFFFFF8000001FFFE0000007FFFFFF0001FFFFFFC0007FFFFFFF000
310
1FFC0007FFFFFFF0001FFF0003FFFFFFFFF0001FFFFFFFFFF000E0003FFFFF00
310
03FF8001FFE000001FFC0007FF80007FC0007FFFFF0007FC0003FFFFF0003FF8
310
000001FFFE0000007FFFFFF0001FFFFFFC0003FFFFFFE0001FFC0003FFFFFFE0
310
001FFF0003FFFFFFFFF0003FFFFFFFFFF000E0003FFFFF0001FF8001FFE00000
310
1FFE0007FF80007FC0007FFFFE0003FC0007FFFFE0003FF8000001FFFE000000
310
7FFFFFF0001FFFFFFE0003FFFFFFE0003FFE0003FFFFFFE0003FFF0003FFFFFF
310
FFF0003FFFFF8001F000E0003FFFFF0001FF0001FFE000001FFE0007FF80007F
310
C0007FFFFE0003FC0007FFFFE0003FF8000001FFFE0000007FFFFFF0001FFFFF
310
FE0001FFFFFFC0003FFE0001FFFFFFC0003FFF0003FFFFFFFFF0003FFFFF0001
310
F000E0003FFFFF0003FF0001FFE000003FFE0007FF80007FC0007FFFFE0003FC
310
0007FFFFE0003FF8000001FFFE0000007FFFFFF0001FFFFFFF0001FFFFFFC000
310
7FFF0001FFFFFFC0007FFF0003FFFFFFFFF0003FFFFF0001F000E0003FFFFE00
310
03FF0003FFF000003FFE0003FF80007FC0007FFFFC0003FE0007FFFFE0003FF8
310
000001FFFE0000007FFFFFF0001FFFFFFF0000FFFFFF80007FFF0000FFFFFF80
310
007FFF0003FFFFFFFFF0003FFFFF0001F000E0003FFFFE0003FF0003FFF00000
310
3FFF0003FF80007FC0007FFFFC0007FE0007FFFFC0003FF8000001FFFE000000
310
7FFFFFF0001FFFFFFF80007FFFFF0000FFFF80007FFFFF0000FFFF0003FFFFFF
310
FFF0003FFFFF0003F000E0003FFFFC0003FE0003FFF000003FFF0003FF80007F
310
E0003FFFF80007FE0003FFFFC0007FF8000001FFFE0000007FFFFFF0001FFFFF
310
FF80003FFFFE0000FFFF80003FFFFE0000FFFF0003FFFFFFFFF0001FFFFE0003
310
F000F0001FFFF80003FE0003FFF000007FFF0001FF80007FE0003FFFF00007FE
310
0001FFFF80007FF8000001FFFE0000007FFFFFF0001FFFFFFFC0000FFFF80001
310
FFFFC0000FFFF80001FFFF0003FFFFFFFFF0001FFFFC0003F000F0000FFFF000
310
07FE0007FFF800007FFF0001FF80007FE0001FFFE00007FF0000FFFE00007FF8
310
000001FFFE0000007FFFFFF0001FFFFFFFC00003FFE00001FFFFC00003FFE000
310
01FFFF0003FFFFFFFFF8000FFFF80003F000F00003FFC00007FC0007FFF80000
310
7FFF8001FF80007FF00007FF80000FFF00007FF80000FFF8000001FFFE000000
310
7F80000000000001FFE000003E000003FFFFE000003E000003FFFF0003FFFFFF
310
FFF80003FFE00007F000F800000000000FFC0007FFF800007FFF8001FF80007F
310
F000000000000FFF000000000000FFF8000001FFFE0000007F80000000000001
310
FFF0000000000007FFFFF0000000000007FFFF0003FFFFFFFFFC00007E000007
310
F000F800000000000FFC0007FFF80000FFFF8000FF80007FF800000000001FFF
310
800000000001FFF8000001FFFE0000007F80000000000001FFF800000000000F
310
FFFFF800000000000FFFFF0003FFFFFFFFFC00000000000FF000FC0000000000
310
1FFC0007FFFC0000FFFF8000FF80007FF800000000003FFFC00000000001FFF8
310
000001FFFE0000007F80000000000001FFF800000000000FFFFFF80000000000
310
0FFFFF0003FFFFFFFFFE00000000001FF000FE00000000003FF8000FFFFC0000
310
FFFF8000FF80007FFC00000000003FFFC00000000003FFF8000001FFFE000000
310
7F80000000000001FFFC00000000001FFFFFFC00000000001FFFFF0003FFFFFF
310
FFFF00000000001FF000FF00000000003FF8000FFFFC0000FFFFC000FF80007F
310
FE00000000007FFFE00000000007FFF8000001FFFE0000007F80000000000001
310
FFFE00000000003FFFFFFE00000000003FFFFF0003FFFFFFFFFF80000000003F
310
F000FF80000000007FF8000FFFFC0001FFFFC0007F80007FFF0000000000FFFF
310
F0000000000FFFF800000000000000007F80000000000001FFFF8000000000FF
310
FFFFFF8000000000FFFFFF0003FFFFFFFFFFC0000000007FF000FFC000000000
310
FFF8000FFFFE0001FFFFC0007F80007FFF8000000001FFFFF8000000001FFFF8
310
00000000000000007F80000000000001FFFFC000000001FFFFFFFFC000000001
310
FFFFFF0003FFFFFFFFFFE000000000FFF000FFE000000003FFF0001FFFFE0001
310
FFFFC0007F80007FFFC000000007FFFFFE000000003FFFF80000000000000000
310
7F80000000000001FFFFE000000003FFFFFFFFE000000003FFFFFF0003FFFFFF
310
FFFFF000000003FFF000FFF80000000FFFF0001FFFFE0001FFFFE0007F80007F
310
FFF00000000FFFFFFF00000000FFFFF800000000000000007F80000000000001
310
FFFFF80000000FFFFFFFFFF80000000FFFFFFF0003FFFFFFFFFFFC0000000FFF
310
F000FFFE0000003FFFF0001FFFFE0003FFFFE0003F80007FFFFC0000003FFFFF
310
FFC0000003FFFFF800000000000000007F80000000000001FFFFFE0000003FFF
310
FFFFFFFE0000003FFFFFFF0003FFFFFFFFFFFF0000003FFFF000FFFF800000FF
310
FFF0001FFFFF0003FFFFE0003F80007FFFFF000001FFFFFFFFF800001FFFFFF8
310
00000000000000007F80000000000001FFFFFFC00001FFFFFFFFFFFFC00001FF
310
FFFFFF0003FFFFFFFFFFFFC00000FFFFF000FFFFF8000FFFFFFFFFFFFFFFFFFF
310
FFFFFFFFFFFFFFFFFFFFF0001FFFFFFFFFFF0000FFFFFFF80000000000000000
310
7FFFFFFFFFFFFFFFFFFFFFFC001FFFFFFFFFFFFFFC001FFFFFFFFFFFFFFFFFFF
310
FFFFFFFC001FFFFFF000FFFFFFFFFFFFFFFFFFFFFFFFFFFFFFFFFFFFFFFFFFFF
310
FFFFFFFFFFFFFFFFFFFFFFFFFFFFFFFFFFFFFFFFFFFFFFFFFFFFFFFFFFFFFFFF
310
FFFFFFFFFFFFFFFFFFFFFFFFFFFFFFFFFFFFFFFFFFFFFFFFFFFFFFFFFFFFFFFF
310
F000FFFFFFFFFFFFFFFFFFFFFFFFFFFFFFFFFFFFFFFFFFFFFFFFFFFFFFFFFFFF
310
FFFFFFFFFFFFFFFFFFFFFFFFFFFFFFFFFFFFFFFFFFFFFFFFFFFFFFFFFFFFFFFF
310
FFFFFFFFFFFFFFFFFFFFFFFFFFFFFFFFFFFFFFFFFFFFFFFFF000FFFFFFFFFFFF
310
FFFFFFFFFFFFFFFFFFFFFFFFFFFFFFFFFFFFFFFFFFFFFFFFFFFFFFFFFFFFFFFF
310
FFFFFFFFFFFFFFFFFFFFFFFFFFFFFFFFFFFFFFFFFFFFFFFFFFFFFFFFFFFFFFFF
310
FFFFFFFFFFFFFFFFFFFFFFFFFFFFFFFFF000FFFFFFFFFFFFFFFFFFFFFFFFFFFF
310
FFFFFFFFFFFFFFFFFFFFFFFFFFFFFFFFFFFFFFFFFFFFFFFFFFFFFFFFFFFFFFFF
310
FFFFFFFFFFFFFFFFFFFFFFFFFFFFFFFFFFFFFFFFFFFFFFFFFFFFFFFFFFFFFFFF
310
FFFFFFFFFFFFFFFFF000FFFFFFFFFFFFFFFFFFFFFFFFFFFFFFFFFFFFFFFFFFFF
310
FFFFFFFFFFFFFFFFFFFFFFFFFFFFFFFFFFFFFFFFFFFFFFFFFFFFFFFFFFFFFFFF
310
FFFFFFFFFFFFFFFFFFFFFFFFFFFFFFFFFFFFFFFFFFFFFFFFFFFFFFFFFFFFFFFF
310
F000FFFFFFFFFFFFFFFFFFFFFFFFFFFFFFFFFFFFFFFFFFFFFFFFFFFFFFFFFFFF
310
FFFFFFFFFFFFFFFFFFFFFFFFFFFFFFFFFFFFFFFFFFFFFFFFFFFFFFFFFFFFFFFF
310
FFFFFFFFFFFFFFFFFFFFFFFFFFFFFFFFFFFFFFFFFFFFFFFFF000FFFFFFFFFFFF
310
FFFFFFFFFFFFFFFFFFFFFFFFFFFFFFFFFFFFFFFFFFFFFFFFFFFFFFFFFFFFFFFF
310
FFFFFFFFFFFFFFFFFFFFFFFFFFFFFFFFFFFFFFFFFFFFFFFFFFFFFFFFFFFFFFFF
310
FFFFFFFFFFFFFFFFFFFFFFFFFFFFFFFFF000FFFFFFFFFFFFFFFFFFFFFFFFFFFF
310
FFFFFFFFFFFFFFFFFFFFFFFFFFFFFFFFFFFFFFFFFFFFFFFFFFFFFFFFFFFFFFFF
310
FFFFFFFFFFFFFFFFFFFFFFFFFFFFFFFFFFFFFFFFFFFFFFFFFFFFFFFFFFFFFFFF
310
FFFFFFFFFFFFFFFFF000FFFFFFFFFFFFFFFFFFFFFFFFFFFFFFFFFFFFFFFFFFFF
310
FFFFFFFFFFFFFFFFFFFFFFFFFFFFFFFFFFFFFFFFFFFFFFFFFFFFFFFFFFFFFFFF
310
FFFFFFFFFFFFFFFFFFFFFFFFFFFFFFFFFFFFFFFFFFFFFFFFFFFFFFFFFFFFFFFF
310
F000FFFFFFFFFFFFFFFFFFFFFFFFFFFFFFFFFFFFFFFFFFFFFFFFFFFFFFFFFFFF
310
FFFFFFFFFFFFFFFFFFFFFFFFFFFFFFFFFFFFFFFFFFFFFFFFFFFFFFFFFFFFFFFF
310
FFFFFFFFFFFFFFFFFFFFFFFFFFFFFFFFFFFFFFFFFFFFFFFFF000FFFFFFFFFFFF
310
FFFFFFFFFFFFFFFFFFFFFFFFFFFFFFFFFFFFFFFFFFFFFFFFFFFFFFFFFFFFFFFF
310
FFFFFFFFFFFFFFFFFFFFFFFFFFFFFFFFFFFFFFFFFFFFFFFFFFFFFFFFFFFFFFFF
310
FFFFFFFFFFFFFFFFFFFFFFFFFFFFFFFFF000FFFFFFFFFFFFFFFFFFFFFFFFFFFF
310
FFFFFFFFFFFFFFFFFFFFFFFFFFFFFFFFFFFFFFFFFFFFFFFFFFFFFFFFFFFFFFFF
310
FFFFFFFFFFFFFFFFFFFFFFFFFFFFFFFFFFFFFFFFFFFFFFFFFFFFFFFFFFFFFFFF
310
FFFFFFFFFFFFFFFFF000FFFFFFFFFFFFFFFFFFFFFFFFFFFFFFFFFFFFFFFFFFFF
310
FFFFFFFFFFFFFFFFFFFFFFFFFFFFFFFFFFFFFFFFFFFFFFFFFFFFFFFFFFFFFFFF
310
FFFFFFFFFFFFFFFFFFFFFFFFFFFFFFFFFFFFFFFFFFFFFFFFFFFFFFFFFFFFFFFF
310
F000FFFFFFFFFFFFFFFFFFFFFFFFFFFFFFFFFFFFFFFFFFFFFFFFFFFFFFFFFFFF
310
FFFFFFFFFFFFFFFFFFFFFFFFFFFFFFFFFFFFFFFFFFFFFFFFFFFFFFFFFFFFFFFF
310
FFFFFFFFFFFFFFFFFFFFFFFFFFFFFFFFFFFFFFFFFFFFFFFFF000FFFFFFFFFFFF
310
FFFFFFFFFFFFFFFFFFFFFFFFFFFFFFFFFFFFFFFFFFFFFFFFFFFFFFFFFFFFFFFF
310
FFFFFFFFFFFFFFFFFFFFFFFFFFFFFFFFFFFFFFFFFFFFFFFFFFFFFFFFFFFFFFFF
310
FFFFFFFFFFFFFFFFFFFFFFFFFFFFFFFFF000FFFFFFFFFFFFFFFFFFFFFFFFFFFF
310
FFFFFFFFFFFFFFFFFFFFFFFFFFFFFFFFFFFFFFFFFFFFFFFFFFFFFFFFFFFFFFFF
310
FFFFFFFFFFFFFFFFFFFFFFFFFFFFFFFFFFFFFFFFFFFFFFFFFFFFFFFFFFFFFFFF
310
FFFFFFFFFFFFFFFFF000FFFFFFFFFFFFFFFFFFFFFFFFFFFFFFFFFFFFFFFFFFFF
310
FFFFFFFFFFFFFFFFFFFFFFFFFFFFFFFFFFFFFFFFFFFFFFFFFFFFFFFFFFFFFFFF
310
FFFFFFFFFFFFFFFFFFFFFFFFFFFFFFFFFFFFFFFFFFFFFFFFFFFFFFFFFFFFFFFF
310
F000FFFFFFFFFFFFFFFFFFFFFFFFFFFFFFFFFFFFFFFFFFFFFFFFFFFFFFFFFFFF
310
FFFFFFFFFFFFFFFFFFFFFFFFFFFFFFFFFFFFFFFFFFFFFFFFFFFFFFFFFFFFFFFF
310
FFFFFFFFFFFFFFFFFFFFFFFFFFFFFFFFFFFFFFFFFFFFFFFFF000FFFFFFFFFFFF
310
FFFFFFFFFFFFFFFFFFFFFFFFFFFFFFFFFFFFFFFFFFFFFFFFFFFFFFFFFFFFFFFF
310
FFFFFFFFFFFFFFFFFFFFFFFFFFFFFFFFFFFFFFFFFFFFFFFFFFFFFFFFFFFFFFFF
310
FFFFFFFFFFFFFFFFFFFFFFFFFFFFFFFFF000FFFFFFFFFFFFFFFFFFFFFFFFFFFF
310
FFFFFFFFFFFFFFFFFFFFFFFFFFFFFFFFFFFFFFFFFFFFFFFFFFFFFFFFFFFFFFFF
310
FFFFFFFFFFFFFFFFFFFFFFFFFFFFFFFFFFFFFFFFFFFFFFFFFFFFFFFFFFFFFFFF
310
FFFFFFFFFFFFFFFFF000FFFFFFFFFFFFFFFFFFFFFFFFFFFFFFFFFFFFFFFFFFFF
310
FFFFFFFFFFFFFFFFFFFFFFFFFFFFFFFFFFFFFFFFFFFFFFFFFFFFFFFFFFFFFFFF
310
FFFFFFFFFFFFFFFFFFFFFFFFFFFFFFFFFFFFFFFFFFFFFFFFFFFFFFFFFFFFFFFF
310
F000FFFFFFFFFFFFFFFFFFFFFFFFFFFFFFFFFFFFFFFFFFFFFFFFFFFFFFFFFFFF
310
FFFFFFFFFFFFFFFFFFFFFFFFFFFFFFFFFFFFFFFFFFFFFFFFFFFFFFFFFFFFFFFF
310
FFFFFFFFFFFFFFFFFFFFFFFFFFFFFFFFFFFFFFFFFFFFFFFFF000FFFFFFFFFFFF
310
FFFFFFFFFFFFFFFFFFFFFFFFFFFFFFFFFFFFFFFFFFFFFFFFFFFFFFFFFFFFFFFF
310
FFFFFFFFFFFFFFFFFFFFFFFFFFFFFFFFFFFFFFFFFFFFFFFFFFFFFFFFFFFFFFFF
310
FFFFFFFFFFFFFFFFFFFFFFFFFFFFFFFFF0000000000000000000000000000000
310
0000000000000000000000000000000000000000000000000000000000000000
310
0000000000000000000000000000000000000000000000000000000000000000
310
0000000000000000000000000000000000000000000000000000000000000000
310
0000000000000000000000000000000000000000000000000000000000000000
310
0000000000000000000000000000000000000000000000000000000000000000
310
0000000000000000000000000000000000000000000000000000000000000000
310
0000000000000000000000000000000000000000000000000000000000000000
310
0000000000000000000000000000000000000000000000000000000000000000
310
0000000000000000000000000000000000000000000000000000000000000000
310
0000000000000000000000000000000000000000000000000000000000000000
310
0000000000000000000000000000000000000000000000000000000000000000
310
0000000000000000000000000000000000000000000000000000000000000000
310
0000000000000000000000000000000000000000000000000000000000000000
310
0000000000000000000000000000000000000000000000000000000000000000
310
0000000000000000000000000000000000000000000000000000000000000000
  1
OLE
  0
ENDSEC
  0
SECTION
  2
OBJECTS
  0
DICTIONARY
  5
C
330
0
100
AcDbDictionary
281
     1
  3
ACAD_GROUP
350
D
  3
ACAD_LAYOUT
350
1A
  3
ACAD_MLINESTYLE
350
17
  3
ACAD_PLOTSETTINGS
350
19
  3
ACAD_PLOTSTYLENAME
350
E
  3
ACAD_SCALELIST
350
47
  0
DICTIONARY
  5
D
102
{ACAD_REACTORS
330
C
102
}
330
C
100
AcDbDictionary
281
     1
  0
DICTIONARY
  5
1A
102
{ACAD_REACTORS
330
C
102
}
330
C
100
AcDbDictionary
281
     1
  3
Layout1
350
1E
  3
Layout2
350
26
  3
Model
350
22
  0
DICTIONARY
  5
17
102
{ACAD_REACTORS
330
C
102
}
330
C
100
AcDbDictionary
281
     1
  3
Standard
350
18
  0
DICTIONARY
  5
19
102
{ACAD_REACTORS
330
C
102
}
330
C
100
AcDbDictionary
281
     1
  0
ACDBDICTIONARYWDFLT
  5
E
102
{ACAD_REACTORS
330
C
102
}
330
C
100
AcDbDictionary
281
     1
  3
Normal
350
F
100
AcDbDictionaryWithDefault
340
F
  0
DICTIONARY
  5
47
102
{ACAD_REACTORS
330
C
102
}
330
C
100
AcDbDictionary
281
     1
  3
A0
350
48
  3
A1
350
49
  3
A2
350
4A
  3
A3
350
4B
  3
A4
350
4C
  3
A5
350
4D
  3
A6
350
4E
  3
A7
350
4F
  3
A8
350
50
  3
A9
350
51
  3
B0
350
52
  3
B1
350
53
  3
B2
350
54
  3
B3
350
55
  3
B4
350
56
  3
B5
350
57
  3
B6
350
58
  3
B7
350
59
  3
B8
350
5A
  3
B9
350
5B
  3
C0
350
5C
  3
C1
350
5D
  3
C2
350
5E
  3
C3
350
5F
  3
C4
350
60
  3
C5
350
61
  3
C6
350
62
  3
C7
350
63
  3
C8
350
64
  3
C9
350
65
  3
D0
350
66
  3
D1
350
67
  3
D2
350
68
  0
LAYOUT
  5
1E
102
{ACAD_REACTORS
330
1A
102
}
330
1A
100
AcDbPlotSettings
  1

  2
none_device
  4

  6

 40
0.0
 41
0.0
 42
0.0
 43
0.0
 44
0.0
 45
0.0
 46
0.0
 47
0.0
 48
0.0
 49
0.0
140
0.0
141
0.0
142
1.0
143
1.0
 70
   688
 72
     1
 73
     0
 74
     5
  7

 75
    16
147
1.0
148
0.0
149
0.0
100
AcDbLayout
  1
Layout1
 70
     1
 71
     1
 10
0.0
 20
0.0
 11
420.0
 21
297.0
 12
0.0
 22
0.0
 32
0.0
 14
1.0000000000E+20
 24
1.0000000000E+20
 34
1.0000000000E+20
 15
-1.0000000000E+20
 25
-1.0000000000E+20
 35
-1.0000000000E+20
146
0.0
 13
0.0
 23
0.0
 33
0.0
 16
1.0
 26
0.0
 36
0.0
 17
0.0
 27
1.0
 37
0.0
 76
     0
330
1B
  0
LAYOUT
  5
26
102
{ACAD_REACTORS
330
1A
102
}
330
1A
100
AcDbPlotSettings
  1

  2
none_device
  4

  6

 40
0.0
 41
0.0
 42
0.0
 43
0.0
 44
0.0
 45
0.0
 46
0.0
 47
0.0
 48
0.0
 49
0.0
140
0.0
141
0.0
142
1.0
143
1.0
 70
   688
 72
     1
 73
     0
 74
     5
  7

 75
    16
147
1.0
148
0.0
149
0.0
100
AcDbLayout
  1
Layout2
 70
     1
 71
     2
 10
0.0
 20
0.0
 11
0.0
 21
0.0
 12
0.0
 22
0.0
 32
0.0
 14
0.0
 24
0.0
 34
0.0
 15
0.0
 25
0.0
 35
0.0
146
0.0
 13
0.0
 23
0.0
 33
0.0
 16
1.0
 26
0.0
 36
0.0
 17
0.0
 27
1.0
 37
0.0
 76
     0
330
23
  0
LAYOUT
  5
22
102
{ACAD_REACTORS
330
1A
102
}
330
1A
100
AcDbPlotSettings
  1

  2
none_device
  4
Letter_(8.50_x_11.00_Inches)
  6

 40
6.35
 41
6.35
 42
6.35000508
 43
6.35000508
 44
215.9
 45
279.4
 46
0.0
 47
0.0
 48
0.0
 49
0.0
140
0.0
141
0.0
142
1.0
143
1.0
 70
  1712
 72
     1
 73
     0
 74
     0
  7

 75
     0
147
1.0
148
0.0
149
0.0
100
AcDbLayout
  1
Model
 70
     1
 71
     0
 10
0.0
 20
0.0
 11
297.0
 21
210.0
 12
0.0
 22
0.0
 32
0.0
 14
0.0
 24
0.0
 34
0.0
 15
297.0
 25
210.0
 35
0.0
146
0.0
 13
0.0
 23
0.0
 33
0.0
 16
1.0
 26
0.0
 36
0.0
 17
0.0
 27
1.0
 37
0.0
 76
     0
330
1F
331
29
  0
MLINESTYLE
  5
18
102
{ACAD_REACTORS
330
17
102
}
330
17
100
AcDbMlineStyle
  2
Standard
 70
     0
  3

 62
   256
 51
90.0
 52
90.0
 71
     2
 49
0.5
 62
   256
  6
BYLAYER
 49
-0.5
 62
   256
  6
BYLAYER
  0
ACDBPLACEHOLDER
  5
F
102
{ACAD_REACTORS
330
E
102
}
330
E
  0
SCALE
  5
48
102
{ACAD_REACTORS
330
47
102
}
330
47
100
AcDbScale
 70
     0
300
1:1
140
1.0
141
1.0
290
     1
  0
SCALE
  5
49
102
{ACAD_REACTORS
330
47
102
}
330
47
100
AcDbScale
 70
     0
300
1:2
140
1.0
141
2.0
290
     0
  0
SCALE
  5
4A
102
{ACAD_REACTORS
330
47
102
}
330
47
100
AcDbScale
 70
     0
300
1:4
140
1.0
141
4.0
290
     0
  0
SCALE
  5
4B
102
{ACAD_REACTORS
330
47
102
}
330
47
100
AcDbScale
 70
     0
300
1:5
140
1.0
141
5.0
290
     0
  0
SCALE
  5
4C
102
{ACAD_REACTORS
330
47
102
}
330
47
100
AcDbScale
 70
     0
300
1:8
140
1.0
141
8.0
290
     0
  0
SCALE
  5
4D
102
{ACAD_REACTORS
330
47
102
}
330
47
100
AcDbScale
 70
     0
300
1:10
140
1.0
141
10.0
290
     0
  0
SCALE
  5
4E
102
{ACAD_REACTORS
330
47
102
}
330
47
100
AcDbScale
 70
     0
300
1:16
140
1.0
141
16.0
290
     0
  0
SCALE
  5
4F
102
{ACAD_REACTORS
330
47
102
}
330
47
100
AcDbScale
 70
     0
300
1:20
140
1.0
141
20.0
290
     0
  0
SCALE
  5
50
102
{ACAD_REACTORS
330
47
102
}
330
47
100
AcDbScale
 70
     0
300
1:30
140
1.0
141
30.0
290
     0
  0
SCALE
  5
51
102
{ACAD_REACTORS
330
47
102
}
330
47
100
AcDbScale
 70
     0
300
1:40
140
1.0
141
40.0
290
     0
  0
SCALE
  5
52
102
{ACAD_REACTORS
330
47
102
}
330
47
100
AcDbScale
 70
     0
300
1:50
140
1.0
141
50.0
290
     0
  0
SCALE
  5
53
102
{ACAD_REACTORS
330
47
102
}
330
47
100
AcDbScale
 70
     0
300
1:100
140
1.0
141
100.0
290
     0
  0
SCALE
  5
54
102
{ACAD_REACTORS
330
47
102
}
330
47
100
AcDbScale
 70
     0
300
2:1
140
2.0
141
1.0
290
     0
  0
SCALE
  5
55
102
{ACAD_REACTORS
330
47
102
}
330
47
100
AcDbScale
 70
     0
300
4:1
140
4.0
141
1.0
290
     0
  0
SCALE
  5
56
102
{ACAD_REACTORS
330
47
102
}
330
47
100
AcDbScale
 70
     0
300
8:1
140
8.0
141
1.0
290
     0
  0
SCALE
  5
57
102
{ACAD_REACTORS
330
47
102
}
330
47
100
AcDbScale
 70
     0
300
10:1
140
10.0
141
1.0
290
     0
  0
SCALE
  5
58
102
{ACAD_REACTORS
330
47
102
}
330
47
100
AcDbScale
 70
     0
300
100:1
140
100.0
141
1.0
290
     0
  0
SCALE
  5
59
102
{ACAD_REACTORS
330
47
102
}
330
47
100
AcDbScale
 70
     0
300
1/128" = 1'-0"
140
0.0078125
141
12.0
290
     0
  0
SCALE
  5
5A
102
{ACAD_REACTORS
330
47
102
}
330
47
100
AcDbScale
 70
     0
300
1/64" = 1'-0"
140
0.015625
141
12.0
290
     0
  0
SCALE
  5
5B
102
{ACAD_REACTORS
330
47
102
}
330
47
100
AcDbScale
 70
     0
300
1/32" = 1'-0"
140
0.03125
141
12.0
290
     0
  0
SCALE
  5
5C
102
{ACAD_REACTORS
330
47
102
}
330
47
100
AcDbScale
 70
     0
300
1/16" = 1'-0"
140
0.0625
141
12.0
290
     0
  0
SCALE
  5
5D
102
{ACAD_REACTORS
330
47
102
}
330
47
100
AcDbScale
 70
     0
300
3/32" = 1'-0"
140
0.09375
141
12.0
290
     0
  0
SCALE
  5
5E
102
{ACAD_REACTORS
330
47
102
}
330
47
100
AcDbScale
 70
     0
300
1/8" = 1'-0"
140
0.125
141
12.0
290
     0
  0
SCALE
  5
5F
102
{ACAD_REACTORS
330
47
102
}
330
47
100
AcDbScale
 70
     0
300
3/16" = 1'-0"
140
0.1875
141
12.0
290
     0
  0
SCALE
  5
60
102
{ACAD_REACTORS
330
47
102
}
330
47
100
AcDbScale
 70
     0
300
1/4" = 1'-0"
140
0.25
141
12.0
290
     0
  0
SCALE
  5
61
102
{ACAD_REACTORS
330
47
102
}
330
47
100
AcDbScale
 70
     0
300
3/8" = 1'-0"
140
0.375
141
12.0
290
     0
  0
SCALE
  5
62
102
{ACAD_REACTORS
330
47
102
}
330
47
100
AcDbScale
 70
     0
300
1/2" = 1'-0"
140
0.5
141
12.0
290
     0
  0
SCALE
  5
63
102
{ACAD_REACTORS
330
47
102
}
330
47
100
AcDbScale
 70
     0
300
3/4" = 1'-0"
140
0.75
141
12.0
290
     0
  0
SCALE
  5
64
102
{ACAD_REACTORS
330
47
102
}
330
47
100
AcDbScale
 70
     0
300
1" = 1'-0"
140
1.0
141
12.0
290
     0
  0
SCALE
  5
65
102
{ACAD_REACTORS
330
47
102
}
330
47
100
AcDbScale
 70
     0
300
1-1/2" = 1'-0"
140
1.5
141
12.0
290
     0
  0
SCALE
  5
66
102
{ACAD_REACTORS
330
47
102
}
330
47
100
AcDbScale
 70
     0
300
3" = 1'-0"
140
3.0
141
12.0
290
     0
  0
SCALE
  5
67
102
{ACAD_REACTORS
330
47
102
}
330
47
100
AcDbScale
 70
     0
300
6" = 1'-0"
140
6.0
141
12.0
290
     0
  0
SCALE
  5
68
102
{ACAD_REACTORS
330
47
102
}
330
47
100
AcDbScale
 70
     0
300
1'-0" = 1'-0"
140
12.0
141
12.0
290
     0
  0
ENDSEC
  0
EOF
