  0
SECTION
  2
HEADER
  9
$ACADVER
  1
AC1015
  9
$ACADMAINTVER
 70
     6
  9
$DWGCODEPAGE
  3
ANSI_1252
  9
$INSBASE
 10
0.0
 20
0.0
 30
0.0
  9
$EXTMIN
 10
0.0
 20
0.0
 30
0.0
  9
$EXTMAX
 10
297.0
 20
210.0
 30
0.0
  9
$LIMMIN
 10
0.0
 20
0.0
  9
$LIMMAX
 10
297.0
 20
210.0
  9
$ORTHOMODE
 70
     0
  9
$REGENMODE
 70
     1
  9
$FILLMODE
 70
     1
  9
$QTEXTMODE
 70
     0
  9
$MIRRTEXT
 70
     1
  9
$LTSCALE
 40
1.0
  9
$ATTMODE
 70
     1
  9
$TEXTSIZE
 40
2.0
  9
$TRACEWID
 40
1.0
  9
$TEXTSTYLE
  7
Standard
  9
$CLAYER
  8
0
  9
$CELTYPE
  6
ByLayer
  9
$CECOLOR
 62
   256
  9
$CELTSCALE
 40
1.0
  9
$DISPSILH
 70
     0
  9
$DIMSCALE
 40
1.0
  9
$DIMASZ
 40
3.0
  9
$DIMEXO
 40
0.0
  9
$DIMDLI
 40
3.75
  9
$DIMRND
 40
0.0
  9
$DIMDLE
 40
0.0
  9
$DIMEXE
 40
1.0
  9
$DIMTP
 40
0.0
  9
$DIMTM
 40
0.0
  9
$DIMTXT
 40
2.0
  9
$DIMCEN
 40
2.5
  9
$DIMTSZ
 40
0.0
  9
$DIMTOL
 70
     0
  9
$DIMLIM
 70
     0
  9
$DIMTIH
 70
     1
  9
$DIMTOH
 70
     1
  9
$DIMSE1
 70
     0
  9
$DIMSE2
 70
     0
  9
$DIMTAD
 70
     1
  9
$DIMZIN
 70
     0
  9
$DIMBLK
  1

  9
$DIMASO
 70
     1
  9
$DIMSHO
 70
     1
  9
$DIMPOST
  1

  9
$DIMAPOST
  1

  9
$DIMALT
 70
     0
  9
$DIMALTD
 70
     3
  9
$DIMALTF
 40
0.0393700787
  9
$DIMLFAC
 40
2.0
  9
$DIMTOFL
 70
     1
  9
$DIMTVP
 40
0.0
  9
$DIMTIX
 70
     0
  9
$DIMSOXD
 70
     0
  9
$DIMSAH
 70
     0
  9
$DIMBLK1
  1

  9
$DIMBLK2
  1

  9
$DIMSTYLE
  2
ISO-25
  9
$DIMCLRD
 70
     0
  9
$DIMCLRE
 70
     0
  9
$DIMCLRT
 70
     0
  9
$DIMTFAC
 40
1.0
  9
$DIMGAP
 40
1.524
  9
$DIMJUST
 70
     0
  9
$DIMSD1
 70
     0
  9
$DIMSD2
 70
     0
  9
$DIMTOLJ
 70
     0
  9
$DIMTZIN
 70
     0
  9
$DIMALTZ
 70
     0
  9
$DIMALTTZ
 70
     0
  9
$DIMUPT
 70
     0
  9
$DIMDEC
 70
     2
  9
$DIMTDEC
 70
     3
  9
$DIMALTU
 70
     2
  9
$DIMALTTD
 70
     3
  9
$DIMTXSTY
  7
Standard
  9
$DIMAUNIT
 70
     0
  9
$DIMADEC
 70
     2
  9
$DIMALTRND
 40
0.0
  9
$DIMAZIN
 70
     0
  9
$DIMDSEP
 70
    44
  9
$DIMATFIT
 70
     3
  9
$DIMFRAC
 70
     0
  9
$DIMLDRBLK
  1

  9
$DIMLUNIT
 70
     2
  9
$DIMLWD
 70
    -2
  9
$DIMLWE
 70
    -2
  9
$DIMTMOVE
 70
     0
  9
$LUNITS
 70
     2
  9
$LUPREC
 70
     2
  9
$SKETCHINC
 40
1.0
  9
$FILLETRAD
 40
10.0
  9
$AUNITS
 70
     0
  9
$AUPREC
 70
     2
  9
$MENU
  1
.
  9
$ELEVATION
 40
0.0
  9
$PELEVATION
 40
0.0
  9
$THICKNESS
 40
0.0
  9
$LIMCHECK
 70
     0
  9
$CHAMFERA
 40
0.0
  9
$CHAMFERB
 40
0.0
  9
$CHAMFERC
 40
0.0
  9
$CHAMFERD
 40
0.0
  9
$SKPOLY
 70
     0
  9
$TDCREATE
 40
2457674.422600278
  9
$TDUCREATE
 40
2457674.339266945
  9
$TDUPDATE
 40
2457674.422601794
  9
$TDUUPDATE
 40
2457674.339268461
  9
$TDINDWG
 40
0.0000000116
  9
$TDUSRTIMER
 40
0.0000000116
  9
$USRTIMER
 70
     1
  9
$ANGBASE
 50
0.0
  9
$ANGDIR
 70
     0
  9
$PDMODE
 70
     0
  9
$PDSIZE
 40
-1.0
  9
$PLINEWID
 40
0.0
  9
$SPLFRAME
 70
     0
  9
$SPLINETYPE
 70
     6
  9
$SPLINESEGS
 70
     8
  9
$HANDSEED
  5
2DC
  9
$SURFTAB1
 70
     6
  9
$SURFTAB2
 70
     6
  9
$SURFTYPE
 70
     6
  9
$SURFU
 70
     6
  9
$SURFV
 70
     6
  9
$UCSBASE
  2

  9
$UCSNAME
  2

  9
$UCSORG
 10
0.0
 20
0.0
 30
0.0
  9
$UCSXDIR
 10
1.0
 20
0.0
 30
0.0
  9
$UCSYDIR
 10
0.0
 20
1.0
 30
0.0
  9
$UCSORTHOREF
  2

  9
$UCSORTHOVIEW
 70
     0
  9
$UCSORGTOP
 10
0.0
 20
0.0
 30
0.0
  9
$UCSORGBOTTOM
 10
0.0
 20
0.0
 30
0.0
  9
$UCSORGLEFT
 10
0.0
 20
0.0
 30
0.0
  9
$UCSORGRIGHT
 10
0.0
 20
0.0
 30
0.0
  9
$UCSORGFRONT
 10
0.0
 20
0.0
 30
0.0
  9
$UCSORGBACK
 10
0.0
 20
0.0
 30
0.0
  9
$PUCSBASE
  2

  9
$PUCSNAME
  2

  9
$PUCSORG
 10
0.0
 20
0.0
 30
0.0
  9
$PUCSXDIR
 10
1.0
 20
0.0
 30
0.0
  9
$PUCSYDIR
 10
0.0
 20
1.0
 30
0.0
  9
$PUCSORTHOREF
  2

  9
$PUCSORTHOVIEW
 70
     0
  9
$PUCSORGTOP
 10
0.0
 20
0.0
 30
0.0
  9
$PUCSORGBOTTOM
 10
0.0
 20
0.0
 30
0.0
  9
$PUCSORGLEFT
 10
0.0
 20
0.0
 30
0.0
  9
$PUCSORGRIGHT
 10
0.0
 20
0.0
 30
0.0
  9
$PUCSORGFRONT
 10
0.0
 20
0.0
 30
0.0
  9
$PUCSORGBACK
 10
0.0
 20
0.0
 30
0.0
  9
$USERI1
 70
     0
  9
$USERI2
 70
     0
  9
$USERI3
 70
     0
  9
$USERI4
 70
     0
  9
$USERI5
 70
     0
  9
$USERR1
 40
0.0
  9
$USERR2
 40
0.0
  9
$USERR3
 40
0.0
  9
$USERR4
 40
0.0
  9
$USERR5
 40
0.0
  9
$WORLDVIEW
 70
     1
  9
$SHADEDGE
 70
     3
  9
$SHADEDIF
 70
    70
  9
$TILEMODE
 70
     1
  9
$MAXACTVP
 70
    64
  9
$PINSBASE
 10
0.0
 20
0.0
 30
0.0
  9
$PLIMCHECK
 70
     0
  9
$PEXTMIN
 10
1.0000000000E+20
 20
1.0000000000E+20
 30
1.0000000000E+20
  9
$PEXTMAX
 10
-1.0000000000E+20
 20
-1.0000000000E+20
 30
-1.0000000000E+20
  9
$PLIMMIN
 10
0.0
 20
0.0
  9
$PLIMMAX
 10
420.0
 20
297.0
  9
$UNITMODE
 70
     0
  9
$VISRETAIN
 70
     1
  9
$PLINEGEN
 70
     0
  9
$PSLTSCALE
 70
     1
  9
$TREEDEPTH
 70
  3020
  9
$CMLSTYLE
  2
Standard
  9
$CMLJUST
 70
     0
  9
$CMLSCALE
 40
20.0
  9
$PROXYGRAPHICS
 70
     1
  9
$MEASUREMENT
 70
     1
  9
$CELWEIGHT
370
    -1
  9
$ENDCAPS
280
     0
  9
$JOINSTYLE
280
     0
  9
$LWDISPLAY
290
     1
  9
$INSUNITS
 70
     4
  9
$HYPERLINKBASE
  1

  9
$STYLESHEET
  1

  9
$XEDIT
290
     1
  9
$CEPSNTYPE
380
     0
  9
$PSTYLEMODE
290
     1
  9
$FINGERPRINTGUID
  2
{5AA7C74F-0517-4111-85C9-5C3D18A7630F}
  9
$VERSIONGUID
  2
{FAEB1C32-E019-11D5-929B-00C0DF256EC4}
  9
$EXTNAMES
290
     1
  9
$PSVPSCALE
 40
0.0
  9
$OLESTARTUP
290
     0
  0
ENDSEC
  0
SECTION
  2
CLASSES
  0
CLASS
  1
ACDBDICTIONARYWDFLT
  2
AcDbDictionaryWithDefault
  3
ObjectDBX Classes
 90
        0
280
     0
281
     0
  0
CLASS
  1
VISUALSTYLE
  2
AcDbVisualStyle
  3
ObjectDBX Classes
 90
     4095
280
     0
281
     0
  0
CLASS
  1
MATERIAL
  2
AcDbMaterial
  3
ObjectDBX Classes
 90
     1153
280
     0
281
     0
  0
CLASS
  1
SCALE
  2
AcDbScale
  3
ObjectDBX Classes
 90
     1153
280
     0
281
     0
  0
CLASS
  1
TABLESTYLE
  2
AcDbTableStyle
  3
ObjectDBX Classes
 90
     4095
280
     0
281
     0
  0
CLASS
  1
MLEADERSTYLE
  2
AcDbMLeaderStyle
  3
ACDB_MLEADERSTYLE_CLASS
 90
     4095
280
     0
281
     0
  0
CLASS
  1
SUN
  2
AcDbSun
  3
SCENEOE
 90
     1153
280
     0
281
     0
  0
CLASS
  1
ACDBPLACEHOLDER
  2
AcDbPlaceHolder
  3
ObjectDBX Classes
 90
        0
280
     0
281
     0
  0
CLASS
  1
LAYOUT
  2
AcDbLayout
  3
ObjectDBX Classes
 90
        0
280
     0
281
     0
  0
ENDSEC
  0
SECTION
  2
TABLES
  0
TABLE
  2
VPORT
  5
8
330
0
100
AcDbSymbolTable
 70
     1
  0
VPORT
  5
29
330
8
100
AcDbSymbolTableRecord
100
AcDbViewportTableRecord
  2
*Active
 70
     0
 10
0.0
 20
0.0
 11
1.0
 21
1.0
 12
148.5
 22
105.0
 13
0.0
 23
0.0
 14
10.0
 24
10.0
 15
10.0
 25
10.0
 16
0.0
 26
0.0
 36
1.0
 17
0.0
 27
0.0
 37
0.0
 40
210.0
 41
1.4142857143
 42
50.0
 43
0.0
 44
0.0
 50
0.0
 51
0.0
 71
     0
 72
  2000
 73
     1
 74
     3
 75
     0
 76
     0
 77
     0
 78
     0
281
     0
 65
     1
110
0.0
120
0.0
130
0.0
111
1.0
121
0.0
131
0.0
112
0.0
122
1.0
132
0.0
 79
     0
146
0.0
  0
ENDTAB
  0
TABLE
  2
LTYPE
  5
5
330
0
100
AcDbSymbolTable
 70
     6
  0
LTYPE
  5
14
330
5
100
AcDbSymbolTableRecord
100
AcDbLinetypeTableRecord
  2
ByBlock
 70
     0
  3

 72
    65
 73
     0
 40
0.0
  0
LTYPE
  5
15
330
5
100
AcDbSymbolTableRecord
100
AcDbLinetypeTableRecord
  2
ByLayer
 70
     0
  3

 72
    65
 73
     0
 40
0.0
  0
LTYPE
  5
16
330
5
100
AcDbSymbolTableRecord
100
AcDbLinetypeTableRecord
  2
Continuous
 70
     0
  3
Solid line
 72
    65
 73
     0
 40
0.0
  0
LTYPE
  5
6E
330
5
100
AcDbSymbolTableRecord
100
AcDbLinetypeTableRecord
  2
HIDDEN
 70
     0
  3
Hidden __ __ __ __ __ __ __ __ __ __ __ __ __ __
 72
    65
 73
     2
 40
1.905
 49
1.27
 74
     0
 49
-0.635
 74
     0
  0
LTYPE
  5
6F
330
5
100
AcDbSymbolTableRecord
100
AcDbLinetypeTableRecord
  2
PHANTOM
 70
     0
  3
Phantom ______  __  __  ______  __  __  ______
 72
    65
 73
     6
 40
12.7
 49
6.35
 74
     0
 49
-1.27
 74
     0
 49
1.27
 74
     0
 49
-1.27
 74
     0
 49
1.27
 74
     0
 49
-1.27
 74
     0
  0
LTYPE
  5
70
330
5
100
AcDbSymbolTableRecord
100
AcDbLinetypeTableRecord
  2
CENTER
 70
     0
  3
Center ____ _ ____ _ ____ _ ____ _ ____ _ ____
 72
    65
 73
     4
 40
10.16
 49
6.35
 74
     0
 49
-1.27
 74
     0
 49
1.27
 74
     0
 49
-1.27
 74
     0
  0
LTYPE
  5
71
330
5
100
AcDbSymbolTableRecord
100
AcDbLinetypeTableRecord
  2
CENTERX2
 70
     0
  3
Center (2x) ________  __  ________  __  _____
 72
    65
 73
     4
 40
20.32
 49
12.7
 74
     0
 49
-2.54
 74
     0
 49
2.54
 74
     0
 49
-2.54
 74
     0
  0
LTYPE
  5
72
330
5
100
AcDbSymbolTableRecord
100
AcDbLinetypeTableRecord
  2
DOT2
 70
     0
  3
Dot (.5x) ........................................
 72
    65
 73
     2
 40
0.635
 49
0.0
 74
     0
 49
-0.635
 74
     0
  0
ENDTAB
  0
TABLE
  2
LAYER
  5
2
330
0
100
AcDbSymbolTable
 70
     5
  0
LAYER
  5
10
330
2
100
AcDbSymbolTableRecord
100
AcDbLayerTableRecord
  2
0
 70
     0
 62
     7
  6
Continuous
370
    -3
390
F
  0
LAYER
  5
73
330
2
100
AcDbSymbolTableRecord
100
AcDbLayerTableRecord
  2
FORMAT
 70
     0
 62
     7
  6
Continuous
370
    -3
390
F
  0
LAYER
  5
74
330
2
100
AcDbSymbolTableRecord
100
AcDbLayerTableRecord
  2
VERMASSUNG
 70
     0
 62
     7
  6
Continuous
370
    -3
390
F
  0
LAYER
  5
75
330
2
100
AcDbSymbolTableRecord
100
AcDbLayerTableRecord
  2
KOPF_DÜNN
 70
     0
 62
     7
  6
Continuous
370
    -3
390
F
  0
LAYER
  5
76
330
2
100
AcDbSymbolTableRecord
100
AcDbLayerTableRecord
  2
KOPF_DICK
 70
     0
 62
     7
  6
Continuous
370
    15
390
F
  0
ENDTAB
  0
TABLE
  2
STYLE
  5
3
330
0
100
AcDbSymbolTable
 70
     2
  0
STYLE
  5
11
330
3
100
AcDbSymbolTableRecord
100
AcDbTextStyleTableRecord
  2
Standard
 70
     0
 40
0.0
 41
1.0
 50
0.0
 71
     0
 42
2.0
  3
txt
  4

  0
STYLE
  5
77
330
3
100
AcDbSymbolTableRecord
100
AcDbTextStyleTableRecord
  2
SLDTEXTSTYLE0
 70
     0
 40
0.0
 41
0.7
 50
0.0
 71
     0
 42
2.0
  3
TXT
  4

  0
ENDTAB
  0
TABLE
  2
VIEW
  5
6
330
0
100
AcDbSymbolTable
 70
     0
  0
ENDTAB
  0
TABLE
  2
UCS
  5
7
330
0
100
AcDbSymbolTable
 70
     0
  0
ENDTAB
  0
TABLE
  2
APPID
  5
9
330
0
100
AcDbSymbolTable
 70
     1
  0
APPID
  5
12
330
9
100
AcDbSymbolTableRecord
100
AcDbRegAppTableRecord
  2
ACAD
 70
     0
  0
ENDTAB
  0
TABLE
  2
DIMSTYLE
  5
A
330
0
100
AcDbSymbolTable
 70
     2
100
AcDbDimStyleTable
  0
DIMSTYLE
105
27
330
A
100
AcDbSymbolTableRecord
100
AcDbDimStyleTableRecord
  2
ISO-25
 70
     0
 41
2.5
 42
0.625
 43
3.75
 44
1.25
 73
     0
 74
     0
 77
     1
 78
     8
140
2.5
141
2.5
143
0.0393700787
147
0.625
171
     3
172
     1
178
     0
271
     2
272
     2
274
     3
278
    44
283
     0
284
     8
340
11
  0
DIMSTYLE
105
1FB
102
{ACAD_REACTORS
330
1FA
330
207
330
212
330
21C
330
226
330
230
102
}
330
A
100
AcDbSymbolTableRecord
100
AcDbDimStyleTableRecord
  2
SLDDIMSTYLE0
 70
     0
 41
3.0
 44
0.0
 45
0.000000001
 73
     0
 74
     0
 77
     1
 78
    12
 79
     3
140
2.0
147
0.5
173
     1
178
     0
271
     2
272
     3
276
     2
284
    12
340
77
  0
ENDTAB
  0
TABLE
  2
BLOCK_RECORD
  5
1
330
0
100
AcDbSymbolTable
 70
     7
  0
BLOCK_RECORD
  5
1F
330
1
100
AcDbSymbolTableRecord
100
AcDbBlockTableRecord
  2
*Model_Space
340
22
  0
BLOCK_RECORD
  5
1B
330
1
100
AcDbSymbolTableRecord
100
AcDbBlockTableRecord
  2
*Paper_Space
340
1E
  0
BLOCK_RECORD
  5
23
330
1
100
AcDbSymbolTableRecord
100
AcDbBlockTableRecord
  2
*Paper_Space0
340
26
  0
BLOCK_RECORD
  5
1FC
330
1
100
AcDbSymbolTableRecord
100
AcDbBlockTableRecord
  2
_D
340
0
  0
BLOCK_RECORD
  5
208
330
1
100
AcDbSymbolTableRecord
100
AcDbBlockTableRecord
  2
_D_1
340
0
  0
BLOCK_RECORD
  5
213
330
1
100
AcDbSymbolTableRecord
100
AcDbBlockTableRecord
  2
_D_2
340
0
  0
BLOCK_RECORD
  5
21D
330
1
100
AcDbSymbolTableRecord
100
AcDbBlockTableRecord
  2
_D_3
340
0
  0
BLOCK_RECORD
  5
227
330
1
100
AcDbSymbolTableRecord
100
AcDbBlockTableRecord
  2
_D_4
340
0
  0
BLOCK_RECORD
  5
231
330
1
100
AcDbSymbolTableRecord
100
AcDbBlockTableRecord
  2
_D_5
340
0
  0
ENDTAB
  0
ENDSEC
  0
SECTION
  2
BLOCKS
  0
BLOCK
  5
20
330
1F
100
AcDbEntity
  8
0
100
AcDbBlockBegin
  2
*Model_Space
 70
     0
 10
0.0
 20
0.0
 30
0.0
  3
*Model_Space
  1

  0
ENDBLK
  5
21
330
1F
100
AcDbEntity
  8
0
100
AcDbBlockEnd
  0
BLOCK
  5
1C
330
1B
100
AcDbEntity
 67
     1
  8
0
100
AcDbBlockBegin
  2
*Paper_Space
 70
     0
 10
0.0
 20
0.0
 30
0.0
  3
*Paper_Space
  1

  0
ENDBLK
  5
1D
330
1B
100
AcDbEntity
 67
     1
  8
0
100
AcDbBlockEnd
  0
BLOCK
  5
24
330
23
100
AcDbEntity
  8
0
100
AcDbBlockBegin
  2
*Paper_Space0
 70
     0
 10
0.0
 20
0.0
 30
0.0
  3
*Paper_Space0
  1

  0
ENDBLK
  5
25
330
23
100
AcDbEntity
  8
0
100
AcDbBlockEnd
  0
BLOCK
  5
1FD
330
1FC
100
AcDbEntity
  8
0
100
AcDbBlockBegin
  2
_D
 70
     0
 10
0.0
 20
0.0
 30
0.0
  3
_D
  1

  0
SOLID
  5
1FF
330
1FC
100
AcDbEntity
  8
VERMASSUNG
100
AcDbTrace
 10
80.8585534717
 20
79.5616642655
 30
0.0
 11
81.3085534717
 21
82.5616642655
 31
0.0
 12
80.4085534717
 22
82.5616642655
 32
0.0
 13
80.4085534717
 23
82.5616642655
 33
0.0
  0
SOLID
  5
200
330
1FC
100
AcDbEntity
  8
VERMASSUNG
100
AcDbTrace
 10
80.8585534717
 20
143.0616642655
 30
0.0
 11
80.4085534717
 21
140.0616642655
 31
0.0
 12
81.3085534717
 22
140.0616642655
 32
0.0
 13
81.3085534717
 23
140.0616642655
 33
0.0
  0
LINE
  5
201
330
1FC
100
AcDbEntity
  8
VERMASSUNG
100
AcDbLine
 10
175.6592105263
 20
79.5616642655
 30
0.0
 11
79.8585534717
 21
79.5616642655
 31
0.0
  0
LINE
  5
202
330
1FC
100
AcDbEntity
  8
VERMASSUNG
100
AcDbLine
 10
175.6592105263
 20
143.0616642655
 30
0.0
 11
79.8585534717
 21
143.0616642655
 31
0.0
  0
LINE
  5
203
330
1FC
100
AcDbEntity
  8
VERMASSUNG
100
AcDbLine
 10
80.8585534717
 20
79.5616642655
 30
0.0
 11
80.8585534717
 21
143.0616642655
 31
0.0
  0
MTEXT
  5
204
330
1FC
100
AcDbEntity
  8
VERMASSUNG
100
AcDbMText
 10
78.0804182155
 20
102.5087281172
 30
0.0
 40
2.0
 41
0.0
 71
     1
 72
     1
  1
ISO 40
  7
SLDTEXTSTYLE0
 11
3.391901413832837E-15
 21
1.0
 31
0.0
 73
     1
 44
1.0
  0
MTEXT
  5
205
330
1FC
100
AcDbEntity
  8
VERMASSUNG
100
AcDbMText
 10
78.2804181668
 20
111.7087283213
 30
0.0
 40
2.0
 41
0.0
 71
     1
 72
     1
  1
%%c
  7
SLDTEXTSTYLE0
 11
3.391901413832837E-15
 21
1.0
 31
0.0
 73
     1
 44
1.0
  0
MTEXT
  5
206
330
1FC
100
AcDbEntity
  8
VERMASSUNG
100
AcDbMText
 10
78.2804178758
 20
115.3166086527
 30
0.0
 40
2.0
 41
0.0
 71
     1
 72
     1
  1
63.5
  7
SLDTEXTSTYLE0
 11
3.391901413832837E-15
 21
1.0
 31
0.0
 73
     1
 44
1.0
  0
ENDBLK
  5
1FE
330
1FC
100
AcDbEntity
  8
0
100
AcDbBlockEnd
  0
BLOCK
  5
209
330
208
100
AcDbEntity
  8
0
100
AcDbBlockBegin
  2
_D_1
 70
     0
 10
0.0
 20
0.0
 30
0.0
  3
_D_1
  1

  0
SOLID
  5
20B
330
208
100
AcDbEntity
  8
VERMASSUNG
100
AcDbTrace
 10
212.1157894737
 20
125.3116642655
 30
0.0
 11
211.6657894737
 21
122.3116642655
 31
0.0
 12
212.5657894737
 22
122.3116642655
 32
0.0
 13
212.5657894737
 23
122.3116642655
 33
0.0
  0
SOLID
  5
20C
330
208
100
AcDbEntity
  8
VERMASSUNG
100
AcDbTrace
 10
212.1157894737
 20
97.3116642655
 30
0.0
 11
212.5657894737
 21
100.3116642655
 31
0.0
 12
211.6657894737
 22
100.3116642655
 32
0.0
 13
211.6657894737
 23
100.3116642655
 33
0.0
  0
LINE
  5
20D
330
208
100
AcDbEntity
  8
VERMASSUNG
100
AcDbLine
 10
202.2092105263
 20
125.3116642655
 30
0.0
 11
213.1157894737
 21
125.3116642655
 31
0.0
  0
LINE
  5
20E
330
208
100
AcDbEntity
  8
VERMASSUNG
100
AcDbLine
 10
202.2092105263
 20
97.3116642655
 30
0.0
 11
213.1157894737
 21
97.3116642655
 31
0.0
  0
LINE
  5
20F
330
208
100
AcDbEntity
  8
VERMASSUNG
100
AcDbLine
 10
212.1157894737
 20
125.3116642655
 30
0.0
 11
212.1157894737
 21
97.3116642655
 31
0.0
  0
MTEXT
  5
210
330
208
100
AcDbEntity
  8
VERMASSUNG
100
AcDbMText
 10
209.5376541688
 20
108.1066643082
 30
0.0
 40
2.0
 41
0.0
 71
     1
 72
     1
  1
%%c
  7
SLDTEXTSTYLE0
 11
-7.044195017643634E-15
 21
1.0
 31
0.0
 73
     1
 44
1.0
  0
MTEXT
  5
211
330
208
100
AcDbEntity
  8
VERMASSUNG
100
AcDbMText
 10
209.3376542175
 20
111.7166643226
 30
0.0
 40
2.0
 41
0.0
 71
     1
 72
     1
  1
28
  7
SLDTEXTSTYLE0
 11
-7.044195017643634E-15
 21
1.0
 31
0.0
 73
     1
 44
1.0
  0
ENDBLK
  5
20A
330
208
100
AcDbEntity
  8
0
100
AcDbBlockEnd
  0
BLOCK
  5
214
330
213
100
AcDbEntity
  8
0
100
AcDbBlockBegin
  2
_D_2
 70
     0
 10
0.0
 20
0.0
 30
0.0
  3
_D_2
  1

  0
SOLID
  5
216
330
213
100
AcDbEntity
  8
VERMASSUNG
100
AcDbTrace
 10
203.2092105263
 20
147.9995658042
 30
0.0
 11
200.2092105263
 21
148.4495658042
 31
0.0
 12
200.2092105263
 22
147.5495658042
 32
0.0
 13
200.2092105263
 23
147.5495658042
 33
0.0
  0
SOLID
  5
217
330
213
100
AcDbEntity
  8
VERMASSUNG
100
AcDbTrace
 10
176.2592105263
 20
147.9995658042
 30
0.0
 11
179.2592105263
 21
147.5495658042
 31
0.0
 12
179.2592105263
 22
148.4495658042
 32
0.0
 13
179.2592105263
 23
148.4495658042
 33
0.0
  0
LINE
  5
218
330
213
100
AcDbEntity
  8
VERMASSUNG
100
AcDbLine
 10
203.2092105263
 20
135.8116642655
 30
0.0
 11
203.2092105263
 21
148.9995658042
 31
0.0
  0
LINE
  5
219
330
213
100
AcDbEntity
  8
VERMASSUNG
100
AcDbLine
 10
176.2592105263
 20
141.3222153989
 30
0.0
 11
176.2592105263
 21
148.9995658042
 31
0.0
  0
LINE
  5
21A
330
213
100
AcDbEntity
  8
VERMASSUNG
100
AcDbLine
 10
203.2092105263
 20
147.9995658042
 30
0.0
 11
176.2592105263
 21
147.9995658042
 31
0.0
  0
MTEXT
  5
21B
330
213
100
AcDbEntity
  8
VERMASSUNG
100
AcDbMText
 10
186.6342106701
 20
150.5777014002
 30
0.0
 40
2.0
 41
0.0
 71
     1
 72
     1
  1
26.95
  7
SLDTEXTSTYLE0
 73
     1
 44
1.0
  0
ENDBLK
  5
215
330
213
100
AcDbEntity
  8
0
100
AcDbBlockEnd
  0
BLOCK
  5
21E
330
21D
100
AcDbEntity
  8
0
100
AcDbBlockBegin
  2
_D_3
 70
     0
 10
0.0
 20
0.0
 30
0.0
  3
_D_3
  1

  0
SOLID
  5
220
330
21D
100
AcDbEntity
  8
VERMASSUNG
100
AcDbTrace
 10
203.2092105263
 20
153.9995658042
 30
0.0
 11
200.2092105263
 21
154.4495658042
 31
0.0
 12
200.2092105263
 22
153.5495658042
 32
0.0
 13
200.2092105263
 23
153.5495658042
 33
0.0
  0
SOLID
  5
221
330
21D
100
AcDbEntity
  8
VERMASSUNG
100
AcDbTrace
 10
157.2092105263
 20
153.9995658042
 30
0.0
 11
160.2092105263
 21
153.5495658042
 31
0.0
 12
160.2092105263
 22
154.4495658042
 32
0.0
 13
160.2092105263
 23
154.4495658042
 33
0.0
  0
LINE
  5
222
330
21D
100
AcDbEntity
  8
VERMASSUNG
100
AcDbLine
 10
203.2092105263
 20
135.8116642655
 30
0.0
 11
203.2092105263
 21
154.9995658042
 31
0.0
  0
LINE
  5
223
330
21D
100
AcDbEntity
  8
VERMASSUNG
100
AcDbLine
 10
157.2092105263
 20
133.5366642655
 30
0.0
 11
157.2092105263
 21
154.9995658042
 31
0.0
  0
LINE
  5
224
330
21D
100
AcDbEntity
  8
VERMASSUNG
100
AcDbLine
 10
203.2092105263
 20
153.9995658042
 30
0.0
 11
157.2092105263
 21
153.9995658042
 31
0.0
  0
MTEXT
  5
225
330
21D
100
AcDbEntity
  8
VERMASSUNG
100
AcDbMText
 10
178.7092105133
 20
156.5777014002
 30
0.0
 40
2.0
 41
0.0
 71
     1
 72
     1
  1
46
  7
SLDTEXTSTYLE0
 73
     1
 44
1.0
  0
ENDBLK
  5
21F
330
21D
100
AcDbEntity
  8
0
100
AcDbBlockEnd
  0
BLOCK
  5
228
330
227
100
AcDbEntity
  8
0
100
AcDbBlockBegin
  2
_D_4
 70
     0
 10
0.0
 20
0.0
 30
0.0
  3
_D_4
  1

  0
SOLID
  5
22A
330
227
100
AcDbEntity
  8
VERMASSUNG
100
AcDbTrace
 10
88.9592105263
 20
159.9995658042
 30
0.0
 11
91.9592105263
 21
159.5495658042
 31
0.0
 12
91.9592105263
 22
160.4495658042
 32
0.0
 13
91.9592105263
 23
160.4495658042
 33
0.0
  0
SOLID
  5
22B
330
227
100
AcDbEntity
  8
VERMASSUNG
100
AcDbTrace
 10
203.2092105263
 20
159.9995658042
 30
0.0
 11
200.2092105263
 21
160.4495658042
 31
0.0
 12
200.2092105263
 22
159.5495658042
 32
0.0
 13
200.2092105263
 23
159.5495658042
 33
0.0
  0
LINE
  5
22C
330
227
100
AcDbEntity
  8
VERMASSUNG
100
AcDbLine
 10
88.9592105263
 20
122.7187948625
 30
0.0
 11
88.9592105263
 21
160.9995658042
 31
0.0
  0
LINE
  5
22D
330
227
100
AcDbEntity
  8
VERMASSUNG
100
AcDbLine
 10
203.2092105263
 20
135.8116642655
 30
0.0
 11
203.2092105263
 21
160.9995658042
 31
0.0
  0
LINE
  5
22E
330
227
100
AcDbEntity
  8
VERMASSUNG
100
AcDbLine
 10
88.9592105263
 20
159.9995658042
 30
0.0
 11
203.2092105263
 21
159.9995658042
 31
0.0
  0
MTEXT
  5
22F
330
227
100
AcDbEntity
  8
VERMASSUNG
100
AcDbMText
 10
142.5842106511
 20
162.5777014002
 30
0.0
 40
2.0
 41
0.0
 71
     1
 72
     1
  1
114.25
  7
SLDTEXTSTYLE0
 73
     1
 44
1.0
  0
ENDBLK
  5
229
330
227
100
AcDbEntity
  8
0
100
AcDbBlockEnd
  0
BLOCK
  5
232
330
231
100
AcDbEntity
  8
0
100
AcDbBlockBegin
  2
_D_5
 70
     0
 10
0.0
 20
0.0
 30
0.0
  3
_D_5
  1

  0
SOLID
  5
234
330
231
100
AcDbEntity
  8
VERMASSUNG
100
AcDbTrace
 10
218.1157894737
 20
136.3116642655
 30
0.0
 11
217.6657894737
 21
133.3116642655
 31
0.0
 12
218.5657894737
 22
133.3116642655
 32
0.0
 13
218.5657894737
 23
133.3116642655
 33
0.0
  0
SOLID
  5
235
330
231
100
AcDbEntity
  8
VERMASSUNG
100
AcDbTrace
 10
218.1157894737
 20
86.3116642655
 30
0.0
 11
218.5657894737
 21
89.3116642655
 31
0.0
 12
217.6657894737
 22
89.3116642655
 32
0.0
 13
217.6657894737
 23
89.3116642655
 33
0.0
  0
LINE
  5
236
330
231
100
AcDbEntity
  8
VERMASSUNG
100
AcDbLine
 10
202.7092105263
 20
136.3116642655
 30
0.0
 11
219.1157894737
 21
136.3116642655
 31
0.0
  0
LINE
  5
237
330
231
100
AcDbEntity
  8
VERMASSUNG
100
AcDbLine
 10
202.7092105263
 20
86.3116642655
 30
0.0
 11
219.1157894737
 21
86.3116642655
 31
0.0
  0
LINE
  5
238
330
231
100
AcDbEntity
  8
VERMASSUNG
100
AcDbLine
 10
218.1157894737
 20
136.3116642655
 30
0.0
 11
218.1157894737
 21
86.3116642655
 31
0.0
  0
MTEXT
  5
239
330
231
100
AcDbEntity
  8
VERMASSUNG
100
AcDbMText
 10
215.3376542175
 20
105.6066643641
 30
0.0
 40
2.0
 41
0.0
 71
     1
 72
     1
  1
WH
  7
SLDTEXTSTYLE0
 11
-7.044195017643634E-15
 21
1.0
 31
0.0
 73
     1
 44
1.0
  0
MTEXT
  5
23A
330
231
100
AcDbEntity
  8
VERMASSUNG
100
AcDbMText
 10
215.5376541688
 20
110.6066642524
 30
0.0
 40
2.0
 41
0.0
 71
     1
 72
     1
  1
%%c
  7
SLDTEXTSTYLE0
 11
-7.044195017643634E-15
 21
1.0
 31
0.0
 73
     1
 44
1.0
  0
MTEXT
  5
23B
330
231
100
AcDbEntity
  8
VERMASSUNG
100
AcDbMText
 10
215.3376542175
 20
114.2166642667
 30
0.0
 40
2.0
 41
0.0
 71
     1
 72
     1
  1
50
  7
SLDTEXTSTYLE0
 11
-7.044195017643634E-15
 21
1.0
 31
0.0
 73
     1
 44
1.0
  0
ENDBLK
  5
233
330
231
100
AcDbEntity
  8
0
100
AcDbBlockEnd
  0
ENDSEC
  0
SECTION
  2
ENTITIES
  0
MTEXT
  5
78
330
1F
100
AcDbEntity
  8
KOPF_DÜNN
100
AcDbMText
 10
13.8892156294
 20
23.8442973028
 30
0.0
 40
3.0
 41
0.0
 71
     1
 72
     1
  1
A14.440.050.046
  7
SLDTEXTSTYLE0
 73
     1
 44
1.0
  0
MTEXT
  5
79
330
1F
100
AcDbEntity
  8
VERMASSUNG
100
AcDbMText
 10
13.9329988022
 20
28.8834360957
 30
0.0
 40
3.0
 41
0.0
 71
     1
 72
     1
  1
Aufnahme_Master shank WH50
  7
SLDTEXTSTYLE0
 73
     1
 44
1.0
  0
MTEXT
  5
7A
330
1F
100
AcDbEntity
  8
VERMASSUNG
100
AcDbMText
 10
98.8601118557
 20
13.8365368761
 30
0.0
 40
2.0
 41
0.0
 71
     1
 72
     1
  1
Datum: 19.10.2011
  7
SLDTEXTSTYLE0
 73
     1
 44
1.0
  0
MTEXT
  5
7B
330
1F
100
AcDbEntity
  8
VERMASSUNG
100
AcDbMText
 10
13.933048693
 20
18.0482802738
 30
0.0
 40
2.0
 41
0.0
 71
     1
 72
     1
  1
DIN 69871 AD/B
  7
SLDTEXTSTYLE0
 73
     1
 44
1.0
  0
MTEXT
  5
7C
330
1F
100
AcDbEntity
  8
VERMASSUNG
100
AcDbMText
 10
13.9808475933
 20
13.9090974274
 30
0.0
 40
2.0
 41
0.0
 71
     1
 72
     1
  1
Gewicht: 1089g
  7
SLDTEXTSTYLE0
 73
     1
 44
1.0
  0
LINE
  5
7D
330
1F
100
AcDbEntity
  8
0
  6
Continuous
 62
     7
370
    15
100
AcDbLine
 10
202.7092096024
 20
86.311663893
 30
0.0
 11
203.2092106157
 21
86.8116649062
 31
0.0
  0
LINE
  5
7E
330
1F
100
AcDbEntity
  8
0
  6
Continuous
 62
     7
370
    15
100
AcDbLine
 10
203.2092106157
 20
135.8116636247
 30
0.0
 11
202.7092096024
 21
136.311664638
 31
0.0
  0
LINE
  5
7F
330
1F
100
AcDbEntity
  8
0
  6
Continuous
 62
     7
370
    15
100
AcDbLine
 10
184.3062308246
 20
86.311663893
 30
0.0
 11
202.7092096024
 21
86.311663893
 31
0.0
  0
LINE
  5
80
330
1F
100
AcDbEntity
  8
0
  6
Continuous
 62
     7
370
    15
100
AcDbLine
 10
202.7092096024
 20
136.311664638
 30
0.0
 11
196.4016412013
 21
136.311664638
 31
0.0
  0
ARC
  5
81
330
1F
100
AcDbEntity
  8
0
  6
Continuous
 62
     7
370
    15
100
AcDbCircle
 10
159.8092105263
 20
88.4866642655
 30
0.0
 40
0.6000000000000227
100
AcDbArc
 50
0.0
 51
90.0
  0
ARC
  5
82
330
1F
100
AcDbEntity
  8
0
  6
Continuous
 62
     7
370
    15
100
AcDbCircle
 10
159.8092105263
 20
134.1366642655
 30
0.0
 40
0.6000000000000227
100
AcDbArc
 50
270.0
 51
0.0
  0
LINE
  5
83
330
1F
100
AcDbEntity
  8
0
  6
Continuous
 62
     7
370
    15
100
AcDbLine
 10
157.2092105263
 20
133.5366642297
 30
0.0
 11
89.8149017805
 21
123.7083276928
 31
0.0
  0
LINE
  5
84
330
1F
100
AcDbEntity
  8
0
  6
Continuous
 62
     7
370
    15
100
AcDbLine
 10
89.8149017805
 20
98.9150008381
 30
0.0
 11
157.2092105263
 21
89.0866643012
 31
0.0
  0
LINE
  5
85
330
1F
100
AcDbEntity
  8
0
  6
Continuous
 62
     7
370
    15
100
AcDbLine
 10
157.2092105263
 20
89.0866643012
 30
0.0
 11
159.8092105334
 21
89.0866643012
 31
0.0
  0
LINE
  5
86
330
1F
100
AcDbEntity
  8
0
  6
Continuous
 62
     7
370
    15
100
AcDbLine
 10
159.8092105334
 20
133.5366642297
 30
0.0
 11
157.2092105263
 21
133.5366642297
 31
0.0
  0
ARC
  5
87
330
1F
100
AcDbEntity
  8
0
  6
Continuous
 62
     7
370
    15
100
AcDbCircle
 10
89.9592105263
 20
99.9045336684
 30
0.0
 40
0.9999999999999959
100
AcDbArc
 50
180.0
 51
261.7028550302
  0
ARC
  5
88
330
1F
100
AcDbEntity
  8
0
  6
Continuous
 62
     7
370
    15
100
AcDbCircle
 10
89.9592105263
 20
122.7187948625
 30
0.0
 40
0.9999999999999959
100
AcDbArc
 50
98.2971449698
 51
180.0
  0
ARC
  5
89
330
1F
100
AcDbEntity
  8
0
  6
Continuous
 62
     7
370
    15
100
AcDbCircle
 10
170.2092105263
 20
102.5901506107
 30
0.0
 40
1.500000000000011
100
AcDbArc
 50
191.5274417165
 51
336.4972103285
  0
SPLINE
  5
8A
330
1F
100
AcDbEntity
  8
0
  6
Continuous
 62
     7
370
    15
100
AcDbSpline
210
0.0
220
0.0
230
1.0
 70
     8
 71
     3
 72
    11
 73
     7
 74
     0
 42
0.000000001
 43
0.00000001
 40
0.0
 40
0.0
 40
0.0
 40
0.0
 40
0.2164554190417476
 40
0.440311563890956
 40
0.7519004605252788
 40
0.9999999999999999
 40
0.9999999999999999
 40
0.9999999999999999
 40
0.9999999999999999
 10
189.6185990982933
 20
114.7451702699921
 30
0.0
 10
189.3991767577519
 20
114.6548235153223
 30
0.0
 10
188.9528299102389
 20
114.4710410024277
 30
0.0
 10
188.1245304337104
 20
114.1299903360764
 30
0.0
 10
187.2360304413116
 20
113.764151145663
 30
0.0
 10
186.6674444471109
 20
113.5300368073925
 30
0.0
 10
186.4154007845803
 20
113.4262582481763
 30
0.0
  0
SPLINE
  5
8B
330
1F
100
AcDbEntity
  8
0
  6
Continuous
 62
     7
370
    15
100
AcDbSpline
210
0.0
220
0.0
230
1.0
 70
     8
 71
     3
 72
    11
 73
     7
 74
     0
 42
0.000000001
 43
0.00000001
 40
0.0
 40
0.0
 40
0.0
 40
0.0
 40
0.2164553532462104
 40
0.440311253491584
 40
0.7519004321591006
 40
0.9999999999999999
 40
0.9999999999999999
 40
0.9999999999999999
 40
0.9999999999999999
 10
186.4154007845803
 20
113.4262582481763
 30
0.0
 10
186.3839320258368
 20
113.1910597331541
 30
0.0
 10
186.3199186004335
 20
112.7126213327371
 30
0.0
 10
186.2011289755722
 20
111.8247677244049
 30
0.0
 10
186.0737055550685
 20
110.8723846019133
 30
0.0
 10
185.9921603517294
 20
110.2629175071464
 30
0.0
 10
185.9560128861351
 20
109.9927521272487
 30
0.0
  0
SPLINE
  5
8C
330
1F
100
AcDbEntity
  8
0
  6
Continuous
 62
     7
370
    15
100
AcDbSpline
210
0.0
220
0.0
230
1.0
 70
     8
 71
     3
 72
    11
 73
     7
 74
     0
 42
0.000000001
 43
0.00000001
 40
0.0
 40
0.0
 40
0.0
 40
0.0
 40
0.1849310462526322
 40
0.5198463959505323
 40
0.8714435793142177
 40
1.0
 40
1.0
 40
1.0
 40
1.0
 10
185.9560128861351
 20
109.9927521272487
 30
0.0
 10
186.1157165872553
 20
109.8696724691384
 30
0.0
 10
186.5646482032796
 20
109.5236920727691
 30
0.0
 10
187.4026616368049
 20
108.8778521446653
 30
0.0
 10
188.1766024503904
 20
108.2813920050592
 30
0.0
 10
188.5893217537021
 20
107.9633191499519
 30
0.0
 10
188.6998233014031
 20
107.8781582609675
 30
0.0
  0
SPLINE
  5
8D
330
1F
100
AcDbEntity
  8
0
  6
Continuous
 62
     7
370
    15
100
AcDbSpline
210
0.0
220
0.0
230
1.0
 70
     8
 71
     3
 72
    11
 73
     7
 74
     0
 42
0.000000001
 43
0.00000001
 40
0.0
 40
0.0
 40
0.0
 40
0.0
 40
0.2164554257653376
 40
0.4403115775680192
 40
0.7519000096460435
 40
1.0
 40
1.0
 40
1.0
 40
1.0
 10
188.6998233014031
 20
107.8781582609675
 30
0.0
 10
188.9192456343103
 20
107.9685050296501
 30
0.0
 10
189.3655924662939
 20
108.1522875710493
 30
0.0
 10
190.193891555716
 20
108.4933377739219
 30
0.0
 10
191.0823908246911
 20
108.8591781626007
 30
0.0
 10
191.6509772827564
 20
109.0932918298728
 30
0.0
 10
191.9030216151162
 20
109.1970702827833
 30
0.0
  0
SPLINE
  5
8E
330
1F
100
AcDbEntity
  8
0
  6
Continuous
 62
     7
370
    15
100
AcDbSpline
210
0.0
220
0.0
230
1.0
 70
     8
 71
     3
 72
    11
 73
     7
 74
     0
 42
0.000000001
 43
0.00000001
 40
0.0
 40
0.0
 40
0.0
 40
0.0
 40
0.2164553817251987
 40
0.4403113114232491
 40
0.7519004630746399
 40
1.0
 40
1.0
 40
1.0
 40
1.0
 10
191.9030216151162
 20
109.1970702827833
 30
0.0
 10
191.9344903505261
 20
109.4322688010766
 30
0.0
 10
191.9985037284645
 20
109.9107072081476
 30
0.0
 10
192.1172937561629
 20
110.7985606781916
 30
0.0
 10
192.2447151199548
 20
111.7509439225728
 30
0.0
 10
192.3262589376636
 20
112.3604110257751
 30
0.0
 10
192.362405788271
 20
112.6305764037109
 30
0.0
  0
SPLINE
  5
8F
330
1F
100
AcDbEntity
  8
0
  6
Continuous
 62
     7
370
    15
100
AcDbSpline
210
0.0
220
0.0
230
1.0
 70
     8
 71
     3
 72
    11
 73
     7
 74
     0
 42
0.000000001
 43
0.00000001
 40
0.0
 40
0.0
 40
0.0
 40
0.0
 40
0.1285557644475949
 40
0.480153973122028
 40
0.8150695953358839
 40
1.0
 40
1.0
 40
1.0
 40
1.0
 10
192.362405788271
 20
112.6305764037109
 30
0.0
 10
192.25190559042
 20
112.7157374144795
 30
0.0
 10
191.8391889047318
 20
113.0338125926045
 30
0.0
 10
191.0652439800934
 20
113.6302686988443
 30
0.0
 10
190.2272307140055
 20
114.2761091713591
 30
0.0
 10
189.7783015031237
 20
114.6220905884077
 30
0.0
 10
189.6185990982933
 20
114.7451702699921
 30
0.0
  0
CIRCLE
  5
90
330
1F
100
AcDbEntity
  8
0
  6
Continuous
 62
     7
370
    15
100
AcDbCircle
 10
189.1592105263
 20
111.3116642655
 30
0.0
 40
3.600000000000007
  0
CIRCLE
  5
91
330
1F
100
AcDbEntity
  8
0
  6
Continuous
 62
     7
370
    15
100
AcDbCircle
 10
189.1592105263
 20
111.3116642655
 30
0.0
 40
5.300000000000006
  0
ARC
  5
92
330
1F
100
AcDbEntity
  8
0
  6
Continuous
 62
     7
370
    15
100
AcDbCircle
 10
189.1592105263
 20
111.3116642655
 30
0.0
 40
3.000000000000004
100
AcDbArc
 50
52.3793500272
 51
112.3793500272
  0
ARC
  5
93
330
1F
100
AcDbEntity
  8
0
  6
Continuous
 62
     7
370
    15
100
AcDbCircle
 10
189.1592105263
 20
111.3116642655
 30
0.0
 40
2.999999999999997
100
AcDbArc
 50
352.3793500272
 51
52.3793500272
  0
ARC
  5
94
330
1F
100
AcDbEntity
  8
0
  6
Continuous
 62
     7
370
    15
100
AcDbCircle
 10
189.1592105263
 20
111.3116642655
 30
0.0
 40
3.000000000000004
100
AcDbArc
 50
292.3793500272
 51
352.3793500272
  0
ARC
  5
95
330
1F
100
AcDbEntity
  8
0
  6
Continuous
 62
     7
370
    15
100
AcDbCircle
 10
189.1592105263
 20
111.3116642655
 30
0.0
 40
3.000000000000014
100
AcDbArc
 50
232.3793500272
 51
292.3793500272
  0
ARC
  5
96
330
1F
100
AcDbEntity
  8
0
  6
Continuous
 62
     7
370
    15
100
AcDbCircle
 10
189.1592105263
 20
111.3116642655
 30
0.0
 40
3.000000000000007
100
AcDbArc
 50
112.3793500272
 51
172.3793500272
  0
ARC
  5
97
330
1F
100
AcDbEntity
  8
0
  6
Continuous
 62
     7
370
    15
100
AcDbCircle
 10
189.1592105263
 20
111.3116642655
 30
0.0
 40
3.000000000000014
100
AcDbArc
 50
172.3793500272
 51
232.3793500272
  0
SPLINE
  5
98
330
1F
100
AcDbEntity
  8
0
  6
Continuous
 62
     7
370
    15
100
AcDbSpline
210
0.0
220
0.0
230
1.0
 70
     8
 71
     3
 72
    12
 73
     8
 74
     0
 42
0.000000001
 43
0.00000001
 40
0.0
 40
0.0
 40
0.0
 40
0.0
 40
0.2500000000000001
 40
0.2500000000000001
 40
0.5000000000000002
 40
0.5000000000000002
 40
1.0
 40
1.0
 40
1.0
 40
1.0
 10
175.6592105263157
 20
80.86357191684311
 30
0.0
 10
175.7547524364517
 20
80.86357191684311
 30
0.0
 10
175.8468973783145
 20
80.87982558603932
 30
0.0
 10
176.0032236549244
 20
80.9334340069528
 30
0.0
 10
176.0668917975444
 20
80.96984513223447
 30
0.0
 10
176.2157596429747
 20
81.09196877192097
 30
0.0
 10
176.2592105263157
 20
81.18712144735801
 30
0.0
 10
176.2592105263157
 20
81.28274790297768
 30
0.0
  0
SPLINE
  5
99
330
1F
100
AcDbEntity
  8
0
  6
Continuous
 62
     7
370
    15
100
AcDbSpline
210
0.0
220
0.0
230
1.0
 70
    24
 71
     3
 72
    12
 73
     8
 74
     0
 42
0.000000001
 43
0.00000001
 40
0.0
 40
0.0
 40
0.0
 40
0.0
 40
0.5
 40
0.5
 40
0.75
 40
0.75
 40
1.0
 40
1.0
 40
1.0
 40
1.0
 10
176.2592105263157
 20
129.6616642654798
 30
0.0
 10
176.2592105263157
 20
129.6616642654798
 30
0.0
 10
176.2091439684755
 20
129.6616642654798
 30
0.0
 10
176.0537184156887
 20
129.6616642654798
 30
0.0
 10
175.9877811539245
 20
129.6616642654798
 30
0.0
 10
175.8351461553682
 20
129.6616642654798
 30
0.0
 10
175.7483061545107
 20
129.6616642654798
 30
0.0
 10
175.6592105263168
 20
129.6616642654798
 30
0.0
  0
LINE
  5
9A
330
1F
100
AcDbEntity
  8
0
  6
Continuous
 62
     7
370
    15
100
AcDbLine
 10
176.2592107618
 20
81.2827473701
 30
0.0
 11
176.2592107618
 21
129.6616638274
 31
0.0
  0
SPLINE
  5
9B
330
1F
100
AcDbEntity
  8
0
  6
Continuous
 62
     7
370
    15
100
AcDbSpline
210
0.0
220
0.0
230
1.0
 70
     8
 71
     3
 72
     8
 73
     4
 74
     0
 42
0.000000001
 43
0.00000001
 40
0.0
 40
0.0
 40
0.0
 40
0.0
 40
1.0
 40
1.0
 40
1.0
 40
1.0
 10
166.3992105263157
 20
83.49483780597834
 30
0.0
 10
166.0150757777314
 20
82.80219638403415
 30
0.0
 10
165.6300895012384
 20
82.11001020971042
 30
0.0
 10
165.2444209226121
 20
81.41821591886625
 30
0.0
  0
SPLINE
  5
9C
330
1F
100
AcDbEntity
  8
0
  6
Continuous
 62
     7
370
    15
100
AcDbSpline
210
0.0
220
0.0
230
1.0
 70
     8
 71
     3
 72
     8
 73
     4
 74
     0
 42
0.000000001
 43
0.00000001
 40
0.0
 40
0.0
 40
0.0
 40
0.0
 40
0.0011901715795577
 40
0.0011901715795577
 40
0.0011901715795577
 40
0.0011901715795577
 10
164.787373884259
 20
80.86357191684311
 30
0.0
 10
164.9412200737549
 20
81.04813715452669
 30
0.0
 10
165.0936153414276
 20
81.23301251505532
 30
0.0
 10
165.2444209226121
 20
81.41821591886625
 30
0.0
  0
LINE
  5
9D
330
1F
100
AcDbEntity
  8
0
  6
Continuous
 62
     7
370
    15
100
AcDbLine
 10
164.7873739341
 20
80.8635721178
 30
0.0
 11
164.7873739341
 21
129.6616638274
 31
0.0
  0
SPLINE
  5
9E
330
1F
100
AcDbEntity
  8
0
  6
Continuous
 62
     7
370
    15
100
AcDbSpline
210
0.0
220
0.0
230
1.0
 70
    24
 71
     3
 72
     8
 73
     4
 74
     0
 42
0.000000001
 43
0.00000001
 40
0.0
 40
0.0
 40
0.0
 40
0.0
 40
1.0
 40
1.0
 40
1.0
 40
1.0
 10
166.3992105263157
 20
129.6616642654798
 30
0.0
 10
165.8744780379538
 20
129.6616642654798
 30
0.0
 10
165.335802553735
 20
129.6616642654798
 30
0.0
 10
164.787373884259
 20
129.6616642654798
 30
0.0
  0
LINE
  5
9F
330
1F
100
AcDbEntity
  8
0
  6
Continuous
 62
     7
370
    15
100
AcDbLine
 10
166.3992101887
 20
83.4948377878
 30
0.0
 11
166.3992101887
 21
129.6616638274
 31
0.0
  0
LINE
  5
A0
330
1F
100
AcDbEntity
  8
0
  6
Continuous
 62
     7
370
    15
100
AcDbLine
 10
171.8310475909
 20
101.5596440256
 30
0.0
 11
171.8310475909
 21
129.6616638274
 31
0.0
  0
LINE
  5
A1
330
1F
100
AcDbEntity
  8
0
  6
Continuous
 62
     7
370
    15
100
AcDbLine
 10
175.6592099183
 20
129.6616638274
 30
0.0
 11
171.8310475909
 21
129.6616638274
 31
0.0
  0
LINE
  5
A2
330
1F
100
AcDbEntity
  8
0
  6
Continuous
 62
     7
370
    15
100
AcDbLine
 10
171.8310475909
 20
80.8635721178
 30
0.0
 11
175.6592099183
 21
80.8635721178
 31
0.0
  0
LINE
  5
A3
330
1F
100
AcDbEntity
  8
0
  6
Continuous
 62
     7
370
    15
100
AcDbLine
 10
171.8310475909
 20
80.8635721178
 30
0.0
 11
171.8310475909
 21
99.3601646469
 31
0.0
  0
SPLINE
  5
A4
330
1F
100
AcDbEntity
  8
0
  6
Continuous
 62
     7
370
    15
100
AcDbSpline
210
0.0
220
0.0
230
1.0
 70
     8
 71
     3
 72
    12
 73
     8
 74
     0
 42
0.000000001
 43
0.00000001
 40
0.0
 40
0.0
 40
0.0
 40
0.0
 40
0.2500000000000001
 40
0.2500000000000001
 40
0.5000000000000002
 40
0.5000000000000002
 40
1.0
 40
1.0
 40
1.0
 40
1.0
 10
171.8310471683724
 20
99.36016446727277
 30
0.0
 10
171.953994662168
 20
99.51812131596783
 30
0.0
 10
172.0475388652769
 20
99.68995468294538
 30
0.0
 10
172.1764782544391
 20
100.0616273925912
 30
0.0
 10
172.2090310118242
 20
100.2548158387825
 30
0.0
 10
172.209567353558
 20
100.8431123770587
 30
0.0
 10
172.07694369659
 20
101.2351306149474
 30
0.0
 10
171.8310471683724
 20
101.5596441976561
 30
0.0
  0
LINE
  5
A5
330
1F
100
AcDbEntity
  8
0
  6
Continuous
 62
     7
370
    15
100
AcDbLine
 10
161.0092105904
 20
80.8635721178
 30
0.0
 11
164.7873739341
 21
80.8635721178
 31
0.0
  0
LINE
  5
A6
330
1F
100
AcDbEntity
  8
0
  6
Continuous
 62
     7
370
    15
100
AcDbLine
 10
164.7873739341
 20
129.6616638274
 30
0.0
 11
161.0092105904
 21
129.6616638274
 31
0.0
  0
LINE
  5
A7
330
1F
100
AcDbEntity
  8
0
  6
Continuous
 62
     7
370
    15
100
AcDbLine
 10
170.219210405
 20
103.3103814543
 30
0.0
 11
170.219210405
 21
129.6616638274
 31
0.0
  0
SPLINE
  5
A8
330
1F
100
AcDbEntity
  8
0
  6
Continuous
 62
     7
370
    15
100
AcDbSpline
210
0.0
220
0.0
230
1.0
 70
    24
 71
     3
 72
     8
 73
     4
 74
     0
 42
0.000000001
 43
0.00000001
 40
0.0
 40
0.0
 40
0.0
 40
0.0
 40
1.0
 40
1.0
 40
1.0
 40
1.0
 10
171.8310471683724
 20
129.6616642654798
 30
0.0
 10
171.2826184988965
 20
129.6616642654798
 30
0.0
 10
170.7439430146776
 20
129.6616642654798
 30
0.0
 10
170.2192105263157
 20
129.6616642654798
 30
0.0
  0
SPLINE
  5
A9
330
1F
100
AcDbEntity
  8
0
  6
Continuous
 62
     7
370
    15
100
AcDbSpline
210
0.0
220
0.0
230
1.0
 70
     8
 71
     3
 72
    12
 73
     8
 74
     0
 42
0.000000001
 43
0.00000001
 40
0.0
 40
0.0
 40
0.0
 40
0.0
 40
0.2499999999999994
 40
0.2499999999999994
 40
0.4999999999999989
 40
0.4999999999999989
 40
1.0
 40
1.0
 40
1.0
 40
1.0
 10
171.8310471683724
 20
101.5596441976561
 30
0.0
 10
171.7161511171118
 20
101.7793846327126
 30
0.0
 10
171.5893851006391
 20
101.9763529843344
 30
0.0
 10
171.3291701670206
 20
102.3300705571733
 30
0.0
 10
171.1956627090584
 20
102.4868958510455
 30
0.0
 10
170.7872644404702
 20
102.9134384219532
 30
0.0
 10
170.5036113055326
 20
103.1401306009084
 30
0.0
 10
170.2192105263159
 20
103.3103817453039
 30
0.0
  0
SPLINE
  5
AA
330
1F
100
AcDbEntity
  8
0
  6
Continuous
 62
     7
370
    15
100
AcDbSpline
210
0.0
220
0.0
230
1.0
 70
     8
 71
     3
 72
    10
 73
     6
 74
     0
 42
0.000000001
 43
0.00000001
 40
0.0
 40
0.0
 40
0.0
 40
0.0
 40
0.5
 40
0.5
 40
1.0
 40
1.0
 40
1.0
 40
1.0
 10
160.625355067663
 20
80.95993441601156
 30
0.0
 10
160.6741250406443
 20
80.93170640880356
 30
0.0
 10
160.7315771639466
 20
80.90761180456197
 30
0.0
 10
160.8621740669354
 20
80.8733483314694
 30
0.0
 10
160.9346637467775
 20
80.8635719168431
 30
0.0
 10
161.0092105263157
 20
80.86357191684311
 30
0.0
  0
SPLINE
  5
AB
330
1F
100
AcDbEntity
  8
0
  6
Continuous
 62
     7
370
    15
100
AcDbSpline
210
0.0
220
0.0
230
1.0
 70
     8
 71
     3
 72
    10
 73
     6
 74
     0
 42
0.000000001
 43
0.00000001
 40
0.0
 40
0.0
 40
0.0
 40
0.0
 40
0.5
 40
0.5
 40
1.0
 40
1.0
 40
1.0
 40
1.0
 10
160.625355067663
 20
80.95993441601156
 30
0.0
 10
160.5672324075868
 20
81.02723957587338
 30
0.0
 10
160.5148292415833
 20
81.10732496290701
 30
0.0
 10
160.435926220037
 20
81.29134440459579
 30
0.0
 10
160.4092105263157
 20
81.39655576201623
 30
0.0
 10
160.4092105263157
 20
81.50528910847689
 30
0.0
  0
LINE
  5
AC
330
1F
100
AcDbEntity
  8
0
  6
Continuous
 62
     7
370
    15
100
AcDbLine
 10
160.4092104455
 20
81.5052887619
 30
0.0
 11
160.4092104455
 21
129.6616638274
 31
0.0
  0
SPLINE
  5
AD
330
1F
100
AcDbEntity
  8
0
  6
Continuous
 62
     7
370
    15
100
AcDbSpline
210
0.0
220
0.0
230
1.0
 70
    24
 71
     3
 72
    12
 73
     8
 74
     0
 42
0.000000001
 43
0.00000001
 40
0.0
 40
0.0
 40
0.0
 40
0.0
 40
0.2499999999999998
 40
0.2499999999999998
 40
0.4999999999999997
 40
0.4999999999999997
 40
1.0
 40
1.0
 40
1.0
 40
1.0
 10
161.0092105263157
 20
129.6616642654798
 30
0.0
 10
160.921726156663
 20
129.6616642654798
 30
0.0
 10
160.8343932792423
 20
129.6616642654798
 30
0.0
 10
160.6805568658035
 20
129.6616642654798
 30
0.0
 10
160.61493469683
 20
129.6616642654798
 30
0.0
 10
160.4595164914875
 20
129.6616642654798
 30
0.0
 10
160.4092105263157
 20
129.6616642654798
 30
0.0
 10
160.4092105263157
 20
129.6616642654798
 30
0.0
  0
SPLINE
  5
AE
330
1F
100
AcDbEntity
  8
0
  6
Continuous
 62
     7
370
    15
100
AcDbSpline
210
0.0
220
0.0
230
1.0
 70
     8
 71
     3
 72
    14
 73
    10
 74
     0
 42
0.000000001
 43
0.00000001
 40
0.0
 40
0.0
 40
0.0
 40
0.0
 40
0.25
 40
0.25
 40
0.5
 40
0.5
 40
0.75
 40
0.75
 40
1.0
 40
1.0
 40
1.0
 40
1.0
 10
170.2192105263157
 20
103.3646253951502
 30
0.0
 10
170.2192105263157
 20
103.4011387280777
 30
0.0
 10
170.198009325735
 20
103.4376424632507
 30
0.0
 10
170.1153014343825
 20
103.5029795993585
 30
0.0
 10
170.0543951546525
 20
103.5309391064794
 30
0.0
 10
169.902830599903
 20
103.5648144127022
 30
0.0
 10
169.8115694140902
 20
103.5702419585646
 30
0.0
 10
169.61922961353
 20
103.5493114143249
 30
0.0
 10
169.516969061716
 20
103.5227397363655
 30
0.0
 10
169.4192105263156
 20
103.4822965521488
 30
0.0
  0
SPLINE
  5
AF
330
1F
100
AcDbEntity
  8
0
  6
Continuous
 62
     7
370
    15
100
AcDbSpline
210
0.0
220
0.0
230
1.0
 70
     8
 71
     3
 72
    12
 73
     8
 74
     0
 42
0.000000001
 43
0.00000001
 40
0.0
 40
0.0
 40
0.0
 40
0.0
 40
0.4999999999999991
 40
0.4999999999999991
 40
0.7499999999999996
 40
0.7499999999999996
 40
1.0
 40
1.0
 40
1.0
 40
1.0
 10
170.2192105263157
 20
99.55165824708287
 30
0.0
 10
170.503417060881
 20
99.38419408478913
 30
0.0
 10
170.7821127949848
 20
99.27255698527752
 30
0.0
 10
171.1914588381741
 20
99.20524371963815
 30
0.0
 10
171.3275981754936
 20
99.20009267962419
 30
0.0
 10
171.5889182244897
 20
99.23785861724357
 30
0.0
 10
171.7143394069214
 20
99.27940837558783
 30
0.0
 10
171.8310471683729
 20
99.36016446727065
 30
0.0
  0
LINE
  5
B0
330
1F
100
AcDbEntity
  8
0
  6
Continuous
 62
     7
370
    15
100
AcDbLine
 10
170.219210405
 20
99.6059015588
 30
0.0
 11
170.219210405
 21
99.5516585381
 31
0.0
  0
SPLINE
  5
B1
330
1F
100
AcDbEntity
  8
0
  6
Continuous
 62
     7
370
    15
100
AcDbSpline
210
0.0
220
0.0
230
1.0
 70
     8
 71
     3
 72
    14
 73
    10
 74
     0
 42
0.000000001
 43
0.00000001
 40
0.0
 40
0.0
 40
0.0
 40
0.0
 40
0.25
 40
0.25
 40
0.5
 40
0.5
 40
0.75
 40
0.75
 40
1.0
 40
1.0
 40
1.0
 40
1.0
 10
169.4192105263156
 20
100.0291850753717
 30
0.0
 10
169.5168448112189
 20
99.99068167746182
 30
0.0
 10
169.6190000992219
 20
99.95304961873255
 30
0.0
 10
169.8111348057751
 20
99.88195490119439
 30
0.0
 10
169.9025628414943
 20
99.84774682150994
 30
0.0
 10
170.0541121184343
 20
99.78084453134896
 30
0.0
 10
170.115238291677
 20
99.74759139821677
 30
0.0
 10
170.1979906506619
 20
99.67815428256081
 30
0.0
 10
170.2192105263157
 20
99.64237650489275
 30
0.0
 10
170.2192105263157
 20
99.60590189693116
 30
0.0
  0
SPLINE
  5
B2
330
1F
100
AcDbEntity
  8
0
  6
Continuous
 62
     7
370
    15
100
AcDbSpline
210
0.0
220
0.0
230
1.0
 70
     8
 71
     3
 72
    22
 73
    18
 74
     0
 42
0.000000001
 43
0.00000001
 40
0.0
 40
0.0
 40
0.0
 40
0.0
 40
0.125
 40
0.125
 40
0.25
 40
0.25
 40
0.375
 40
0.375
 40
0.5
 40
0.5
 40
0.625
 40
0.625
 40
0.75
 40
0.75
 40
0.875
 40
0.875
 40
1.0
 40
1.0
 40
1.0
 40
1.0
 10
169.4192105263157
 20
103.4822965521489
 30
0.0
 10
169.2391938317463
 20
103.4078227651723
 30
0.0
 10
169.074762009876
 20
103.3103735031882
 30
0.0
 10
168.7763657761174
 20
103.0710040696239
 30
0.0
 10
168.6460620487526
 20
102.9311074575534
 30
0.0
 10
168.4328432651336
 20
102.6228558674932
 30
0.0
 10
168.3492154080221
 20
102.452692649374
 30
0.0
 10
168.2380845311039
 20
102.1021979145835
 30
0.0
 10
168.2092485362502
 20
101.9170729534322
 30
0.0
 10
168.2091725935906
 20
101.5538660788149
 30
0.0
 10
168.2378312190178
 20
101.3704960651074
 30
0.0
 10
168.3489823121305
 20
101.0246049526141
 30
0.0
 10
168.4320494327744
 20
100.8590854253466
 30
0.0
 10
168.6457353908931
 20
100.5585456879429
 30
0.0
 10
168.7747423808174
 20
100.4246737666589
 30
0.0
 10
169.0743516603069
 20
100.1934269972547
 30
0.0
 10
169.2391943585662
 20
100.1001768805959
 30
0.0
 10
169.4192105263157
 20
100.0291850753716
 30
0.0
  0
SPLINE
  5
B3
330
1F
100
AcDbEntity
  8
0
  6
Continuous
 62
     7
370
    15
100
AcDbSpline
210
0.0
220
0.0
230
1.0
 70
     8
 71
     3
 72
     8
 73
     4
 74
     0
 42
0.000000001
 43
0.00000001
 40
0.0
 40
0.0
 40
0.0
 40
0.0
 40
0.0011901715795577
 40
0.0011901715795577
 40
0.0011901715795577
 40
0.0011901715795577
 10
171.3740001300194
 20
81.41821591886625
 30
0.0
 10
171.5248057112039
 20
81.23301251505532
 30
0.0
 10
171.6772009788765
 20
81.04813715452669
 30
0.0
 10
171.8310471683724
 20
80.86357191684311
 30
0.0
  0
SPLINE
  5
B4
330
1F
100
AcDbEntity
  8
0
  6
Continuous
 62
     7
370
    15
100
AcDbSpline
210
0.0
220
0.0
230
1.0
 70
     8
 71
     3
 72
     8
 73
     4
 74
     0
 42
0.000000001
 43
0.00000001
 40
0.0
 40
0.0
 40
0.0
 40
0.0
 40
1.0
 40
1.0
 40
1.0
 40
1.0
 10
171.3740001300194
 20
81.41821591886625
 30
0.0
 10
170.988331551393
 20
82.11001020971042
 30
0.0
 10
170.6033452749001
 20
82.80219638403413
 30
0.0
 10
170.2192105263157
 20
83.49483780597834
 30
0.0
  0
LINE
  5
B5
330
1F
100
AcDbEntity
  8
0
  6
Continuous
 62
     7
370
    15
100
AcDbLine
 10
170.219210405
 20
83.4948377878
 30
0.0
 11
170.219210405
 21
99.5516585381
 31
0.0
  0
SPLINE
  5
B6
330
1F
100
AcDbEntity
  8
0
  6
Continuous
 62
     7
370
    15
100
AcDbSpline
210
0.0
220
0.0
230
1.0
 70
     8
 71
     3
 72
    12
 73
     8
 74
     0
 42
0.000000001
 43
0.00000001
 40
0.0
 40
0.0
 40
0.0
 40
0.0
 40
0.2500000000000015
 40
0.2500000000000015
 40
0.500000000000003
 40
0.500000000000003
 40
1.0
 40
1.0
 40
1.0
 40
1.0
 10
167.1992105263157
 20
84.49380640919306
 30
0.0
 10
167.0928086759583
 20
84.49380640919307
 30
0.0
 10
166.9854932645617
 20
84.47103564517455
 30
0.0
 10
166.7900216735345
 20
84.38479269852245
 30
0.0
 10
166.699839557597
 20
84.32011637805192
 30
0.0
 10
166.4816180708762
 20
84.08718705399512
 30
0.0
 10
166.3992105263154
 20
83.87260181610411
 30
0.0
 10
166.3992105263157
 20
83.65958477767138
 30
0.0
  0
SPLINE
  5
B7
330
1F
100
AcDbEntity
  8
0
  6
Continuous
 62
     7
370
    15
100
AcDbSpline
210
0.0
220
0.0
230
1.0
 70
    24
 71
     3
 72
    14
 73
    10
 74
     0
 42
0.000000001
 43
0.00000001
 40
0.0
 40
0.0
 40
0.0
 40
0.0
 40
0.124999999999999
 40
0.124999999999999
 40
0.249999999999998
 40
0.249999999999998
 40
0.499999999999996
 40
0.499999999999996
 40
1.0
 40
1.0
 40
1.0
 40
1.0
 10
167.1992105263157
 20
129.6616642654798
 30
0.0
 10
167.138472248172
 20
129.6616642654798
 30
0.0
 10
167.0763126090774
 20
129.6616642654798
 30
0.0
 10
166.9604115592112
 20
129.6616642654798
 30
0.0
 10
166.9057203157501
 20
129.6616642654798
 30
0.0
 10
166.7503913059461
 20
129.6616642654798
 30
0.0
 10
166.664796840932
 20
129.6616642654798
 30
0.0
 10
166.4637326082188
 20
129.6616642654798
 30
0.0
 10
166.3992105263159
 20
129.6616642654798
 30
0.0
 10
166.3992105263157
 20
129.6616642654798
 30
0.0
  0
SPLINE
  5
B8
330
1F
100
AcDbEntity
  8
0
  6
Continuous
 62
     7
370
    15
100
AcDbSpline
210
0.0
220
0.0
230
1.0
 70
    24
 71
     3
 72
    14
 73
    10
 74
     0
 42
0.000000001
 43
0.00000001
 40
0.0
 40
0.0
 40
0.0
 40
0.0
 40
0.25
 40
0.25
 40
0.5
 40
0.5
 40
0.75
 40
0.75
 40
1.0
 40
1.0
 40
1.0
 40
1.0
 10
170.2192105263157
 20
129.6616642654798
 30
0.0
 10
170.2192105263157
 20
129.6616642654798
 30
0.0
 10
170.2032703249336
 20
129.6616642654798
 30
0.0
 10
170.1373736916343
 20
129.6616642654798
 30
0.0
 10
170.0885306885633
 20
129.6616642654798
 30
0.0
 10
169.953278547686
 20
129.6616642654798
 30
0.0
 10
169.8673934395476
 20
129.6616642654798
 30
0.0
 10
169.6615643823332
 20
129.6616642654798
 30
0.0
 10
169.5401711764046
 20
129.6616642654798
 30
0.0
 10
169.4192105263157
 20
129.6616642654798
 30
0.0
  0
SPLINE
  5
B9
330
1F
100
AcDbEntity
  8
0
  6
Continuous
 62
     7
370
    15
100
AcDbSpline
210
0.0
220
0.0
230
1.0
 70
     8
 71
     3
 72
    20
 73
    16
 74
     0
 42
0.000000001
 43
0.00000001
 40
0.0
 40
0.0
 40
0.0
 40
0.0
 40
0.1249999999999996
 40
0.1249999999999996
 40
0.2499999999999992
 40
0.2499999999999992
 40
0.3749999999999988
 40
0.3749999999999988
 40
0.4999999999999983
 40
0.4999999999999983
 40
0.6249999999999984
 40
0.6249999999999984
 40
0.7499999999999986
 40
0.7499999999999986
 40
1.0
 40
1.0
 40
1.0
 40
1.0
 10
177.4635952482869
 20
136.1116642654798
 30
0.0
 10
177.4253196136366
 20
136.1116642654798
 30
0.0
 10
177.3769263520939
 20
136.121898947902
 30
0.0
 10
177.2703308234398
 20
136.1585247919641
 30
0.0
 10
177.2115952289601
 20
136.1852478612689
 30
0.0
 10
177.0900760583746
 20
136.2549128835728
 30
0.0
 10
177.0279388672667
 20
136.2974151846313
 30
0.0
 10
176.9038588014218
 20
136.398954984443
 30
0.0
 10
176.8413573352489
 20
136.4586219586008
 30
0.0
 10
176.7216858548088
 20
136.5943742889216
 30
0.0
 10
176.664565044748
 20
136.6701753585381
 30
0.0
 10
176.5576523497338
 20
136.8400606512816
 30
0.0
 10
176.5077350731243
 20
136.934891367716
 30
0.0
 10
176.3782780171035
 20
137.2374646904585
 30
0.0
 10
176.3170166166524
 20
137.4705898150375
 30
0.0
 10
176.2859924321286
 20
137.7116642654798
 30
0.0
  0
SPLINE
  5
BA
330
1F
100
AcDbEntity
  8
0
  6
Continuous
 62
     7
370
    15
100
AcDbSpline
210
0.0
220
0.0
230
1.0
 70
    24
 71
     3
 72
    16
 73
    12
 74
     0
 42
0.000000001
 43
0.00000001
 40
0.0
 40
0.0
 40
0.0
 40
0.0
 40
0.0625000000000013
 40
0.0625000000000013
 40
0.1250000000000027
 40
0.1250000000000027
 40
0.2500000000000032
 40
0.2500000000000032
 40
0.5000000000000024
 40
0.5000000000000024
 40
1.0
 40
1.0
 40
1.0
 40
1.0
 10
179.2592105263158
 20
136.1116642654798
 30
0.0
 10
179.1797142626268
 20
136.1116642654798
 30
0.0
 10
179.1014577598503
 20
136.1116642654798
 30
0.0
 10
178.964907064201
 20
136.1116642654798
 30
0.0
 10
178.9038918842716
 20
136.1116642654798
 30
0.0
 10
178.7387518927284
 20
136.1116642654798
 30
0.0
 10
178.6482631828564
 20
136.1116642654798
 30
0.0
 10
178.3963720701885
 20
136.1116642654798
 30
0.0
 10
178.2599870399555
 20
136.1116642654798
 30
0.0
 10
177.8764269237808
 20
136.1116642654798
 30
0.0
 10
177.660463481835
 20
136.1116642654798
 30
0.0
 10
177.4635952482867
 20
136.1116642654798
 30
0.0
  0
SPLINE
  5
BB
330
1F
100
AcDbEntity
  8
0
  6
Continuous
 62
     7
370
    15
100
AcDbSpline
210
0.0
220
0.0
230
1.0
 70
     8
 71
     3
 72
    10
 73
     6
 74
     0
 42
0.000000001
 43
0.00000001
 40
0.0
 40
0.0
 40
0.0
 40
0.0
 40
0.5000000000000002
 40
0.5000000000000002
 40
1.0
 40
1.0
 40
1.0
 40
1.0
 10
179.2592105263158
 20
87.45380392554151
 30
0.0
 10
178.989833642797
 20
87.48767664669259
 30
0.0
 10
178.7161538840304
 20
87.48020766486843
 30
0.0
 10
178.164077669516
 20
87.36588445571608
 30
0.0
 10
177.9007893975333
 20
87.26195956071109
 30
0.0
 10
177.6539510478264
 20
87.1116642654798
 30
0.0
  0
SPLINE
  5
BC
330
1F
100
AcDbEntity
  8
0
  6
Continuous
 62
     7
370
    15
100
AcDbSpline
210
0.0
220
0.0
230
1.0
 70
     8
 71
     3
 72
    14
 73
    10
 74
     0
 42
0.000000001
 43
0.00000001
 40
0.0
 40
0.0
 40
0.0
 40
0.0
 40
0.25
 40
0.25
 40
0.5
 40
0.5
 40
0.75
 40
0.75
 40
1.0
 40
1.0
 40
1.0
 40
1.0
 10
177.6539510478264
 20
87.1116642654798
 30
0.0
 10
177.433833658866
 20
86.97763886789217
 30
0.0
 10
177.2370436602509
 20
86.8132527147624
 30
0.0
 10
176.8872332335648
 20
86.42909052035859
 30
0.0
 10
176.7407703673007
 20
86.21635592907536
 30
0.0
 10
176.5017247037997
 20
85.75667516380621
 30
0.0
 10
176.4111782861252
 20
85.51246048049056
 30
0.0
 10
176.290162802245
 20
85.01174030876652
 30
0.0
 10
176.2592105263157
 20
84.7508012787986
 30
0.0
 10
176.2592105263157
 20
84.49380640919306
 30
0.0
  0
SPLINE
  5
BD
330
1F
100
AcDbEntity
  8
0
  6
Continuous
 62
     7
370
    15
100
AcDbSpline
210
0.0
220
0.0
230
1.0
 70
    24
 71
     3
 72
    14
 73
    10
 74
     0
 42
0.000000001
 43
0.00000001
 40
0.0
 40
0.0
 40
0.0
 40
0.0
 40
0.25
 40
0.25
 40
0.5
 40
0.5
 40
0.75
 40
0.75
 40
1.0
 40
1.0
 40
1.0
 40
1.0
 10
177.0429741432011
 20
129.6616642654798
 30
0.0
 10
176.9119315860177
 20
129.6616642654798
 30
0.0
 10
176.7970119818431
 20
129.6616642654798
 30
0.0
 10
176.6006976316984
 20
129.6616642654798
 30
0.0
 10
176.5198129283669
 20
129.6616642654798
 30
0.0
 10
176.390424654446
 20
129.6616642654798
 30
0.0
 10
176.3416744758173
 20
129.6616642654798
 30
0.0
 10
176.2758791725705
 20
129.6616642654798
 30
0.0
 10
176.2592105263157
 20
129.6616642654798
 30
0.0
 10
176.2592105263157
 20
129.6616642654798
 30
0.0
  0
SPLINE
  5
BE
330
1F
100
AcDbEntity
  8
0
  6
Continuous
 62
     7
370
    15
100
AcDbSpline
210
0.0
220
0.0
230
1.0
 70
     8
 71
     3
 72
    14
 73
    10
 74
     0
 42
0.000000001
 43
0.00000001
 40
0.0
 40
0.0
 40
0.0
 40
0.0
 40
0.25
 40
0.25
 40
0.5
 40
0.5
 40
0.75
 40
0.75
 40
1.0
 40
1.0
 40
1.0
 40
1.0
 10
176.2592105263157
 20
132.4606004089362
 30
0.0
 10
176.2592105263157
 20
132.2157324305946
 30
0.0
 10
176.276187870666
 20
131.9713772082974
 30
0.0
 10
176.3437013514222
 20
131.483680450399
 30
0.0
 10
176.394331300758
 20
131.2415773940253
 30
0.0
 10
176.5262121307885
 20
130.7712208759142
 30
0.0
 10
176.6076614169913
 20
130.5414200711222
 30
0.0
 10
176.801759373823
 20
130.0926816259204
 30
0.0
 10
176.9150387475934
 20
129.8728059646838
 30
0.0
 10
177.0429741432011
 20
129.6616642654798
 30
0.0
  0
LINE
  5
BF
330
1F
100
AcDbEntity
  8
0
  6
Continuous
 62
     7
370
    15
100
AcDbLine
 10
169.4192108327
 20
84.4938060463
 30
0.0
 11
167.1992106923
 21
84.4938060463
 31
0.0
  0
LINE
  5
C0
330
1F
100
AcDbEntity
  8
0
  6
Continuous
 62
     7
370
    15
100
AcDbLine
 10
169.4192108327
 20
129.6616638274
 30
0.0
 11
167.1992106923
 21
129.6616638274
 31
0.0
  0
SPLINE
  5
C1
330
1F
100
AcDbEntity
  8
0
  6
Continuous
 62
     7
370
    15
100
AcDbSpline
210
0.0
220
0.0
230
1.0
 70
     8
 71
     3
 72
    12
 73
     8
 74
     0
 42
0.000000001
 43
0.00000001
 40
0.0
 40
0.0
 40
0.0
 40
0.0
 40
0.5000000000000013
 40
0.5000000000000013
 40
0.7500000000000007
 40
0.7500000000000007
 40
1.0
 40
1.0
 40
1.0
 40
1.0
 10
170.2192105263157
 20
83.65958477767273
 30
0.0
 10
170.2192105263157
 20
83.87240733660562
 30
0.0
 10
170.137285168496
 20
84.0866638432436
 30
0.0
 10
169.9183633650276
 20
84.32035347169348
 30
0.0
 10
169.8283160735366
 20
84.38483829653745
 30
0.0
 10
169.6329026055167
 20
84.47103790769303
 30
0.0
 10
169.5256196385329
 20
84.49380640919307
 30
0.0
 10
169.4192105263157
 20
84.49380640919307
 30
0.0
  0
LINE
  5
C2
330
1F
100
AcDbEntity
  8
0
  6
Continuous
 62
     7
370
    15
100
AcDbLine
 10
203.2092106157
 20
111.3116642655
 30
0.0
 11
203.2092106157
 21
86.8116649062
 31
0.0
  0
LINE
  5
C3
330
1F
100
AcDbEntity
  8
0
  6
Continuous
 62
     7
370
    15
100
AcDbLine
 10
203.2092106157
 20
135.8116636247
 30
0.0
 11
203.2092106157
 21
111.3116642655
 31
0.0
  0
LINE
  5
C4
330
1F
100
AcDbEntity
  8
0
  6
Continuous
 62
     7
370
    15
100
AcDbLine
 10
202.7092096024
 20
111.3116642655
 30
0.0
 11
202.7092096024
 21
86.311663893
 31
0.0
  0
LINE
  5
C5
330
1F
100
AcDbEntity
  8
0
  6
Continuous
 62
     7
370
    15
100
AcDbLine
 10
202.7092096024
 20
136.311664638
 30
0.0
 11
202.7092096024
 21
111.3116642655
 31
0.0
  0
SPLINE
  5
C6
330
1F
100
AcDbEntity
  8
0
  6
Continuous
 62
     7
370
    15
100
AcDbSpline
210
0.0
220
0.0
230
1.0
 70
     8
 71
     3
 72
    13
 73
     9
 74
     0
 42
0.000000001
 43
0.00000001
 40
0.0
 40
0.0
 40
0.0
 40
0.0
 40
0.1815907743930952
 40
0.3578015823120785
 40
0.538905248819081
 40
0.7194227701789245
 40
0.9047607907732567
 40
1.0
 40
1.0
 40
1.0
 40
1.0
 10
184.3062308245583
 20
86.31261756726717
 30
0.0
 10
184.2867489703397
 20
86.31893718709749
 30
0.0
 10
184.2483624482873
 20
86.33138919619573
 30
0.0
 10
183.9222253130727
 20
86.43456073159078
 30
0.0
 10
183.4182770333969
 20
86.58647746966436
 30
0.0
 10
182.7148364923651
 20
86.78209184529224
 30
0.0
 10
181.9865402621203
 20
86.96482173541091
 30
0.0
 10
181.4764216583892
 20
87.07445160472473
 30
0.0
 10
181.3032668643876
 20
87.11166439661001
 30
0.0
  0
SPLINE
  5
C7
330
1F
100
AcDbEntity
  8
0
  6
Continuous
 62
     7
370
    15
100
AcDbSpline
210
0.0
220
0.0
230
1.0
 70
     8
 71
     3
 72
    10
 73
     6
 74
     0
 42
0.000000001
 43
0.00000001
 40
0.0
 40
0.0
 40
0.0
 40
0.0
 40
0.5
 40
0.5
 40
1.0
 40
1.0
 40
1.0
 40
1.0
 10
181.3032664340154
 20
87.1116642654798
 30
0.0
 10
180.9957830954066
 20
87.17575365186941
 30
0.0
 10
180.6718959663353
 20
87.23768175884723
 30
0.0
 10
179.990738677734
 20
87.35317634821098
 30
0.0
 10
179.6316854149302
 20
87.40696717446988
 30
0.0
 10
179.2592105263158
 20
87.45380392554151
 30
0.0
  0
LINE
  5
C8
330
1F
100
AcDbEntity
  8
0
  6
Continuous
 62
     7
370
    15
100
AcDbLine
 10
182.8550458514
 20
136.1116649778
 30
0.0
 11
179.2592112535
 21
136.1116649778
 31
0.0
  0
SPLINE
  5
C9
330
1F
100
AcDbEntity
  8
0
  6
Continuous
 62
     7
370
    15
100
AcDbSpline
210
0.0
220
0.0
230
1.0
 70
     8
 71
     3
 72
    22
 73
    18
 74
     0
 42
0.000000001
 43
0.00000001
 40
0.0
 40
0.0
 40
0.0
 40
0.0
 40
0.0684235667755367
 40
0.1270728573859183
 40
0.1870773884803112
 40
0.2528870369232476
 40
0.320361880124734
 40
0.3907510243939268
 40
0.463109581317208
 40
0.5347094996286766
 40
0.6084191098316689
 40
0.6792853977238265
 40
0.7524710341224108
 40
0.8187504039965269
 40
0.8875612753748382
 40
0.9450672152201591
 40
1.0
 40
1.0
 40
1.0
 40
1.0
 10
182.8550458514376
 20
136.1116649777553
 30
0.0
 10
183.0977616908627
 20
136.0648569731794
 30
0.0
 10
183.5485215197057
 20
135.9779274667198
 30
0.0
 10
184.3992070564872
 20
135.8375176408399
 30
0.0
 10
185.3284179974212
 20
135.7079901050498
 30
0.0
 10
186.3936715457814
 20
135.5926945018217
 30
0.0
 10
187.5836369264479
 20
135.5073497832072
 30
0.0
 10
188.8537222284568
 20
135.4672895041562
 30
0.0
 10
190.1574497048842
 20
135.482059148477
 30
0.0
 10
191.4531420803513
 20
135.5521713482731
 30
0.0
 10
192.6754825598874
 20
135.6686160805797
 30
0.0
 10
193.8037638805221
 20
135.8181312320775
 30
0.0
 10
194.7572848360201
 20
135.9755205936579
 30
0.0
 10
195.5310382044605
 20
136.1230832780558
 30
0.0
 10
196.0510634641105
 20
136.2321865229814
 30
0.0
 10
196.358552289499
 20
136.3002080413492
 30
0.0
 10
196.3874990457942
 20
136.306767043651
 30
0.0
 10
196.4016412013455
 20
136.3099714935682
 30
0.0
  0
SPLINE
  5
CA
330
1F
100
AcDbEntity
  8
0
  6
Continuous
 62
     7
370
    15
100
AcDbSpline
210
0.0
220
0.0
230
1.0
 70
    11
 71
     3
 72
    88
 73
    84
 74
     0
 42
0.000000001
 43
0.00000001
 40
0.0
 40
0.0
 40
0.0
 40
0.0
 40
0.0312499999999998
 40
0.0312499999999998
 40
0.0624999999999996
 40
0.0624999999999996
 40
0.0937499999999994
 40
0.0937499999999994
 40
0.1093749999999993
 40
0.1093749999999993
 40
0.1249999999999992
 40
0.1249999999999992
 40
0.1406249999999991
 40
0.1406249999999991
 40
0.1562499999999989
 40
0.1562499999999989
 40
0.1874999999999986
 40
0.1874999999999986
 40
0.2187499999999984
 40
0.2187499999999984
 40
0.2499999999999981
 40
0.2499999999999981
 40
0.2812499999999979
 40
0.2812499999999979
 40
0.3124999999999976
 40
0.3124999999999976
 40
0.3437499999999974
 40
0.3437499999999974
 40
0.3749999999999971
 40
0.3749999999999971
 40
0.3906249999999972
 40
0.3906249999999972
 40
0.4062499999999974
 40
0.4062499999999974
 40
0.4374999999999976
 40
0.4374999999999976
 40
0.4531249999999975
 40
0.4531249999999975
 40
0.4687499999999974
 40
0.4687499999999974
 40
0.4999999999999976
 40
0.4999999999999976
 40
0.5156249999999974
 40
0.5156249999999974
 40
0.5312499999999973
 40
0.5312499999999973
 40
0.5624999999999971
 40
0.5624999999999971
 40
0.5781249999999972
 40
0.5781249999999972
 40
0.5937499999999972
 40
0.5937499999999972
 40
0.6249999999999971
 40
0.6249999999999971
 40
0.6406249999999971
 40
0.6406249999999971
 40
0.6562499999999971
 40
0.6562499999999971
 40
0.6874999999999969
 40
0.6874999999999969
 40
0.7187499999999968
 40
0.7187499999999968
 40
0.7499999999999966
 40
0.7499999999999966
 40
0.7812499999999963
 40
0.7812499999999963
 40
0.8124999999999961
 40
0.8124999999999961
 40
0.8281249999999963
 40
0.8281249999999963
 40
0.8437499999999964
 40
0.8437499999999964
 40
0.8749999999999971
 40
0.8749999999999971
 40
0.8906249999999974
 40
0.8906249999999974
 40
0.9062499999999978
 40
0.9062499999999978
 40
0.9374999999999984
 40
0.9374999999999984
 40
0.9687499999999992
 40
0.9687499999999992
 40
1.0
 40
1.0
 40
1.0
 40
1.0
 10
184.3094803326159
 20
116.0686038341794
 30
0.0
 10
183.9584189725911
 20
115.7882835812427
 30
0.0
 10
183.6386863972846
 20
115.4788781544076
 30
0.0
 10
183.0642589853265
 20
114.7986697975551
 30
0.0
 10
182.8081545728613
 20
114.4236755195009
 30
0.0
 10
182.3902014003189
 20
113.6397030179691
 30
0.0
 10
182.2249659620867
 20
113.2280770884036
 30
0.0
 10
182.048803476937
 20
112.5781598335902
 30
0.0
 10
182.002200959938
 20
112.3551469187771
 30
0.0
 10
181.9367800767554
 20
111.911165866773
 30
0.0
 10
181.9174328562308
 20
111.688665867228
 30
0.0
 10
181.9052084089854
 20
111.2426556587927
 30
0.0
 10
181.912330343152
 20
111.0191454816736
 30
0.0
 10
181.9536412694912
 20
110.5710925265273
 30
0.0
 10
181.9881741904016
 20
110.3458549388447
 30
0.0
 10
182.1294804608316
 20
109.6871330970551
 30
0.0
 10
182.2737277402679
 20
109.2643735332207
 30
0.0
 10
182.657955615842
 20
108.4499626841904
 30
0.0
 10
182.8938263782287
 20
108.0681664393812
 30
0.0
 10
183.4372614778817
 20
107.3620391897181
 30
0.0
 10
183.7490585311476
 20
107.0336133316582
 30
0.0
 10
184.421211145513
 20
106.4495912696277
 30
0.0
 10
184.7831355365108
 20
106.1909922952191
 30
0.0
 10
185.5571264210977
 20
105.7374948459019
 30
0.0
 10
185.9634785362745
 20
105.5464954266913
 30
0.0
 10
186.7989746315213
 20
105.2375772219561
 30
0.0
 10
187.2319829958579
 20
105.1181163134298
 30
0.0
 10
188.1187028076745
 20
104.9525893067198
 30
0.0
 10
188.5635552435786
 20
104.9078806066264
 30
0.0
 10
189.2329901854392
 20
104.8955573023129
 30
0.0
 10
189.456496724689
 20
104.9006324492198
 30
0.0
 10
189.9042447294177
 20
104.9294577846286
 30
0.0
 10
190.1295593403545
 20
104.9533893281009
 30
0.0
 10
190.7977162554584
 20
105.0529299775023
 30
0.0
 10
191.2317261408933
 20
105.1554240447268
 30
0.0
 10
191.8659556306321
 20
105.3627407032783
 30
0.0
 10
192.0745509342491
 20
105.4408324868408
 30
0.0
 10
192.4859543388729
 20
105.6156191079315
 30
0.0
 10
192.6897871127537
 20
105.7129009528901
 30
0.0
 10
193.2823874944917
 20
106.0290199098551
 30
0.0
 10
193.6532420783163
 20
106.2716747334424
 30
0.0
 10
194.172698884816
 20
106.6850174370361
 30
0.0
 10
194.3396710549571
 20
106.8310825439643
 30
0.0
 10
194.6605774380079
 20
107.1408413227403
 30
0.0
 10
194.8152655267739
 20
107.3055503148557
 30
0.0
 10
195.2483356503983
 20
107.8165827443368
 30
0.0
 10
195.4987862855797
 20
108.1815587696287
 30
0.0
 10
195.8140568569105
 20
108.7678892340628
 30
0.0
 10
195.9090039708115
 20
108.9698578580799
 30
0.0
 10
196.0769917233853
 20
109.3879615025312
 30
0.0
 10
196.1492775810816
 20
109.6027669636897
 30
0.0
 10
196.3259853213615
 20
110.2500944244521
 30
0.0
 10
196.3929919614416
 20
110.6909319250101
 30
0.0
 10
196.4134576968784
 20
111.3668719465876
 30
0.0
 10
196.4065535766965
 20
111.595073192713
 30
0.0
 10
196.3659957614544
 20
112.0429729238207
 30
0.0
 10
196.3324763992744
 20
112.2643715039661
 30
0.0
 10
196.1932802338924
 20
112.9211354275923
 30
0.0
 10
196.0464685391998
 20
113.3537975048046
 30
0.0
 10
195.66545135104
 20
114.1641679036899
 30
0.0
 10
195.4315078897837
 20
114.5453767835252
 30
0.0
 10
194.8827537118513
 20
115.2600080532748
 30
0.0
 10
194.5759667731927
 20
115.5832401708212
 30
0.0
 10
193.9036092043457
 20
116.1688996225936
 30
0.0
 10
193.5348610093026
 20
116.4324488110076
 30
0.0
 10
192.7650907425579
 20
116.8837450213691
 30
0.0
 10
192.3619358768254
 20
117.0740112032913
 30
0.0
 10
191.7302116177488
 20
117.3079390873586
 30
0.0
 10
191.5144200899157
 20
117.3773852046762
 30
0.0
 10
191.081330710554
 20
117.4966684311175
 30
0.0
 10
190.8632277813682
 20
117.546864509378
 30
0.0
 10
190.2043529888231
 20
117.6699042473287
 30
0.0
 10
189.7590506621717
 20
117.7154283958493
 30
0.0
 10
189.0817870954714
 20
117.7278094519415
 30
0.0
 10
188.8550260151828
 20
117.7224462179295
 30
0.0
 10
188.4068867094816
 20
117.6932009647863
 30
0.0
 10
188.1844715255326
 20
117.6693542971841
 30
0.0
 10
187.5221194165183
 20
117.5704698701768
 30
0.0
 10
187.0870338773326
 20
117.4683402922212
 30
0.0
 10
186.2304130951774
 20
117.1876745227144
 30
0.0
 10
185.8175535535433
 20
117.0116065366332
 30
0.0
 10
185.0339981976009
 20
116.5928164097737
 30
0.0
 10
184.6605416926408
 20
116.348924087116
 30
0.0
 10
184.3094803326159
 20
116.0686038341794
 30
0.0
  0
CIRCLE
  5
CB
330
1F
100
AcDbEntity
  8
0
  6
Continuous
 62
     7
370
    15
100
AcDbCircle
 10
189.1592105263
 20
111.3116642655
 30
0.0
 40
5.500000000000028
  0
LINE
  5
CC
330
1F
100
AcDbEntity
  8
0
  6
Continuous
 62
     7
370
    15
100
AcDbLine
 10
157.2092105263
 20
89.0866643012
 30
0.0
 11
157.2092105263
 21
133.5366642297
 31
0.0
  0
SPLINE
  5
CD
330
1F
100
AcDbEntity
  8
0
  6
Continuous
 62
     7
370
    15
100
AcDbSpline
210
0.0
220
0.0
230
1.0
 70
     8
 71
     3
 72
     8
 73
     4
 74
     0
 42
0.000000001
 43
0.00000001
 40
0.0
 40
0.0
 40
0.0
 40
0.0
 40
0.0012409313617635
 40
0.0012409313617635
 40
0.0012409313617635
 40
0.0012409313617635
 10
165.3452558400197
 20
141.0242024217443
 30
0.0
 10
165.1600320004637
 20
141.2857299652214
 30
0.0
 10
164.9740468124912
 20
141.5469884669968
 30
0.0
 10
164.787373884259
 20
141.8080003446954
 30
0.0
  0
SPLINE
  5
CE
330
1F
100
AcDbEntity
  8
0
  6
Continuous
 62
     7
370
    15
100
AcDbSpline
210
0.0
220
0.0
230
1.0
 70
     8
 71
     3
 72
     8
 73
     4
 74
     0
 42
0.000000001
 43
0.00000001
 40
0.0
 40
0.0
 40
0.0
 40
0.0
 40
1.0
 40
1.0
 40
1.0
 40
1.0
 10
166.3992105263157
 20
139.1284907249813
 30
0.0
 10
166.0485582859882
 20
139.7607591340316
 30
0.0
 10
165.697199862928
 20
140.3926410337305
 30
0.0
 10
165.3452558400197
 20
141.0242024217443
 30
0.0
  0
SPLINE
  5
CF
330
1F
100
AcDbEntity
  8
0
  6
Continuous
 62
     7
370
    15
100
AcDbSpline
210
0.0
220
0.0
230
1.0
 70
     8
 71
     3
 72
     8
 73
     4
 74
     0
 42
0.000000001
 43
0.00000001
 40
0.0
 40
0.0
 40
0.0
 40
0.0
 40
1.0
 40
1.0
 40
1.0
 40
1.0
 10
164.787373884259
 20
137.2218939055274
 30
0.0
 10
165.3363186624559
 20
136.0567977932137
 30
0.0
 10
165.8749290369726
 20
134.8876394763892
 30
0.0
 10
166.3992105263157
 20
133.7138033213383
 30
0.0
  0
LINE
  5
D0
330
1F
100
AcDbEntity
  8
0
  6
Continuous
 62
     7
370
    15
100
AcDbLine
 10
164.7873739341
 20
137.221894619
 30
0.0
 11
164.7873739341
 21
141.8080007852
 31
0.0
  0
LINE
  5
D1
330
1F
100
AcDbEntity
  8
0
  6
Continuous
 62
     7
370
    15
100
AcDbLine
 10
166.3992101887
 20
133.7138036461
 30
0.0
 11
166.3992101887
 21
139.1284907431
 31
0.0
  0
LINE
  5
D2
330
1F
100
AcDbEntity
  8
0
  6
Continuous
 62
     7
370
    15
100
AcDbLine
 10
169.4192108327
 20
138.1295224846
 30
0.0
 11
167.1992106923
 21
138.1295224846
 31
0.0
  0
LINE
  5
D3
330
1F
100
AcDbEntity
  8
0
  6
Continuous
 62
     7
370
    15
100
AcDbLine
 10
167.1992106923
 20
132.4606010885
 30
0.0
 11
169.4192108327
 21
132.4606010885
 31
0.0
  0
SPLINE
  5
D4
330
1F
100
AcDbEntity
  8
0
  6
Continuous
 62
     7
370
    15
100
AcDbSpline
210
0.0
220
0.0
230
1.0
 70
     8
 71
     3
 72
    12
 73
     8
 74
     0
 42
0.000000001
 43
0.00000001
 40
0.0
 40
0.0
 40
0.0
 40
0.0
 40
0.5
 40
0.5
 40
0.75
 40
0.75
 40
1.0
 40
1.0
 40
1.0
 40
1.0
 10
176.2592105263157
 20
141.322215398921
 30
0.0
 10
176.2592105263157
 20
141.4425424319741
 30
0.0
 10
176.2054157147227
 20
141.5606400054559
 30
0.0
 10
176.0444921447565
 20
141.7002827478949
 30
0.0
 10
175.9797406836539
 20
141.7385587012894
 30
0.0
 10
175.8275205003362
 20
141.7933985309238
 30
0.0
 10
175.7447129848113
 20
141.8080003446954
 30
0.0
 10
175.6592105263157
 20
141.8080003446954
 30
0.0
  0
SPLINE
  5
D5
330
1F
100
AcDbEntity
  8
0
  6
Continuous
 62
     7
370
    15
100
AcDbSpline
210
0.0
220
0.0
230
1.0
 70
     8
 71
     3
 72
    12
 73
     8
 74
     0
 42
0.000000001
 43
0.00000001
 40
0.0
 40
0.0
 40
0.0
 40
0.0
 40
0.25
 40
0.25
 40
0.5
 40
0.5
 40
1.0
 40
1.0
 40
1.0
 40
1.0
 10
175.6592105263158
 20
137.2218939055274
 30
0.0
 10
175.7473948041161
 20
137.2218939055274
 30
0.0
 10
175.8345465128897
 20
137.1974553786321
 30
0.0
 10
175.9885174054029
 20
137.1099252416103
 30
0.0
 10
176.0537306662955
 20
137.0485014714439
 30
0.0
 10
176.2089250113575
 20
136.8362323323057
 30
0.0
 10
176.2592105263157
 20
136.6578253500943
 30
0.0
 10
176.2592105263157
 20
136.4830766215634
 30
0.0
  0
LINE
  5
D6
330
1F
100
AcDbEntity
  8
0
  6
Continuous
 62
     7
370
    15
100
AcDbLine
 10
176.2592107618
 20
136.4830764205
 30
0.0
 11
176.2592107618
 21
141.3222154797
 31
0.0
  0
LINE
  5
D7
330
1F
100
AcDbEntity
  8
0
  6
Continuous
 62
     7
370
    15
100
AcDbLine
 10
175.6592099183
 20
141.8080007852
 30
0.0
 11
171.8310475909
 21
141.8080007852
 31
0.0
  0
LINE
  5
D8
330
1F
100
AcDbEntity
  8
0
  6
Continuous
 62
     7
370
    15
100
AcDbLine
 10
171.8310475909
 20
137.221894619
 30
0.0
 11
175.6592099183
 21
137.221894619
 31
0.0
  0
LINE
  5
D9
330
1F
100
AcDbEntity
  8
0
  6
Continuous
 62
     7
370
    15
100
AcDbLine
 10
171.8310475909
 20
137.221894619
 30
0.0
 11
171.8310475909
 21
141.8080007852
 31
0.0
  0
SPLINE
  5
DA
330
1F
100
AcDbEntity
  8
0
  6
Continuous
 62
     7
370
    15
100
AcDbSpline
210
0.0
220
0.0
230
1.0
 70
     8
 71
     3
 72
     8
 73
     4
 74
     0
 42
0.000000001
 43
0.00000001
 40
0.0
 40
0.0
 40
0.0
 40
0.0
 40
1.0
 40
1.0
 40
1.0
 40
1.0
 10
171.2731652126118
 20
141.0242024217443
 30
0.0
 10
170.9212211897035
 20
140.3926410337305
 30
0.0
 10
170.5698627666433
 20
139.7607591340316
 30
0.0
 10
170.2192105263157
 20
139.1284907249813
 30
0.0
  0
SPLINE
  5
DB
330
1F
100
AcDbEntity
  8
0
  6
Continuous
 62
     7
370
    15
100
AcDbSpline
210
0.0
220
0.0
230
1.0
 70
     8
 71
     3
 72
     8
 73
     4
 74
     0
 42
0.000000001
 43
0.00000001
 40
0.0
 40
0.0
 40
0.0
 40
0.0
 40
0.0012409313617635
 40
0.0012409313617635
 40
0.0012409313617635
 40
0.0012409313617635
 10
171.8310471683724
 20
141.8080003446954
 30
0.0
 10
171.6443742401403
 20
141.5469884669968
 30
0.0
 10
171.4583890521677
 20
141.2857299652215
 30
0.0
 10
171.2731652126118
 20
141.0242024217443
 30
0.0
  0
SPLINE
  5
DC
330
1F
100
AcDbEntity
  8
0
  6
Continuous
 62
     7
370
    15
100
AcDbSpline
210
0.0
220
0.0
230
1.0
 70
     8
 71
     3
 72
     8
 73
     4
 74
     0
 42
0.000000001
 43
0.00000001
 40
0.0
 40
0.0
 40
0.0
 40
0.0
 40
1.0
 40
1.0
 40
1.0
 40
1.0
 10
170.2192105263157
 20
133.7138033213383
 30
0.0
 10
170.7440016458117
 20
134.888780509043
 30
0.0
 10
171.2825178969945
 20
136.0576796767812
 30
0.0
 10
171.8310471683724
 20
137.2218939055274
 30
0.0
  0
LINE
  5
DD
330
1F
100
AcDbEntity
  8
0
  6
Continuous
 62
     7
370
    15
100
AcDbLine
 10
170.219210405
 20
133.7138036461
 30
0.0
 11
170.219210405
 21
139.1284907431
 31
0.0
  0
SPLINE
  5
DE
330
1F
100
AcDbEntity
  8
0
  6
Continuous
 62
     7
370
    15
100
AcDbSpline
210
0.0
220
0.0
230
1.0
 70
     8
 71
     3
 72
    12
 73
     8
 74
     0
 42
0.000000001
 43
0.00000001
 40
0.0
 40
0.0
 40
0.0
 40
0.0
 40
0.5
 40
0.5
 40
0.75
 40
0.75
 40
1.0
 40
1.0
 40
1.0
 40
1.0
 10
160.4092105263157
 20
136.4830766215634
 30
0.0
 10
160.4092105263157
 20
136.6578367968976
 30
0.0
 10
160.4591307276339
 20
136.8355419006829
 30
0.0
 10
160.6144726255458
 20
137.0482986425281
 30
0.0
 10
160.6803233240701
 20
137.1100920152532
 30
0.0
 10
160.8327693919086
 20
137.1968986029342
 30
0.0
 10
160.9217794920281
 20
137.2218939055275
 30
0.0
 10
161.0092105263157
 20
137.2218939055275
 30
0.0
  0
LINE
  5
DF
330
1F
100
AcDbEntity
  8
0
  6
Continuous
 62
     7
370
    15
100
AcDbLine
 10
161.0092105904
 20
137.221894619
 30
0.0
 11
164.7873739341
 21
137.221894619
 31
0.0
  0
SPLINE
  5
E0
330
1F
100
AcDbEntity
  8
0
  6
Continuous
 62
     7
370
    15
100
AcDbSpline
210
0.0
220
0.0
230
1.0
 70
     8
 71
     3
 72
    14
 73
    10
 74
     0
 42
0.000000001
 43
0.00000001
 40
0.0
 40
0.0
 40
0.0
 40
0.0
 40
0.25
 40
0.25
 40
0.5
 40
0.5
 40
0.75
 40
0.75
 40
1.0
 40
1.0
 40
1.0
 40
1.0
 10
166.3992105263157
 20
133.5089050850051
 30
0.0
 10
166.3992105263157
 20
133.386703151276
 30
0.0
 10
166.4153343463986
 20
133.2671335047907
 30
0.0
 10
166.4809032632558
 20
133.0335869455389
 30
0.0
 10
166.5303249346826
 20
132.9211673637182
 30
0.0
 10
166.6650699434653
 20
132.7191687709465
 30
0.0
 10
166.7508003078541
 20
132.6293260654257
 30
0.0
 10
166.9577966763821
 20
132.4986488848675
 30
0.0
 10
167.0779428147846
 20
132.4606004089364
 30
0.0
 10
167.1992105263157
 20
132.4606004089364
 30
0.0
  0
SPLINE
  5
E1
330
1F
100
AcDbEntity
  8
0
  6
Continuous
 62
     7
370
    15
100
AcDbSpline
210
0.0
220
0.0
230
1.0
 70
     8
 71
     3
 72
    14
 73
    10
 74
     0
 42
0.000000001
 43
0.00000001
 40
0.0
 40
0.0
 40
0.0
 40
0.0
 40
0.25
 40
0.25
 40
0.5
 40
0.5
 40
0.75
 40
0.75
 40
1.0
 40
1.0
 40
1.0
 40
1.0
 10
169.4192105263157
 20
132.4606004089363
 30
0.0
 10
169.5401263360517
 20
132.4606004089363
 30
0.0
 10
169.661653037643
 20
132.4991878266481
 30
0.0
 10
169.8675517180205
 20
132.629393458637
 30
0.0
 10
169.9535305535958
 20
132.7194701700784
 30
0.0
 10
170.087747073433
 20
132.9206117550469
 30
0.0
 10
170.1375088036657
 20
133.0337505939929
 30
0.0
 10
170.2027942695682
 20
133.2658971373752
 30
0.0
 10
170.2192105263157
 20
133.3882414167159
 30
0.0
 10
170.2192105263157
 20
133.5089050850051
 30
0.0
  0
LINE
  5
E2
330
1F
100
AcDbEntity
  8
0
  6
Continuous
 62
     7
370
    15
100
AcDbLine
 10
176.2592107618
 20
136.4830764205
 30
0.0
 11
176.2592107618
 21
132.4606010885
 31
0.0
  0
LINE
  5
E3
330
1F
100
AcDbEntity
  8
0
  6
Continuous
 62
     7
370
    15
100
AcDbLine
 10
170.219210405
 20
133.5089052291
 30
0.0
 11
170.219210405
 21
133.7138036461
 31
0.0
  0
LINE
  5
E4
330
1F
100
AcDbEntity
  8
0
  6
Continuous
 62
     7
370
    15
100
AcDbLine
 10
166.3992101887
 20
133.7138036461
 30
0.0
 11
166.3992101887
 21
133.5089052291
 31
0.0
  0
LINE
  5
E5
330
1F
100
AcDbEntity
  8
0
  6
Continuous
 62
     7
370
    15
100
AcDbLine
 10
160.4092104455
 20
136.4830764205
 30
0.0
 11
160.4092104455
 21
129.6616638274
 31
0.0
  0
SPLINE
  5
E6
330
1F
100
AcDbEntity
  8
0
  6
Continuous
 62
     7
370
    15
100
AcDbSpline
210
0.0
220
0.0
230
1.0
 70
     8
 71
     3
 72
    14
 73
    10
 74
     0
 42
0.000000001
 43
0.00000001
 40
0.0
 40
0.0
 40
0.0
 40
0.0
 40
0.25
 40
0.25
 40
0.5
 40
0.5
 40
0.75
 40
0.75
 40
1.0
 40
1.0
 40
1.0
 40
1.0
 10
170.2192105263157
 20
138.9637437532868
 30
0.0
 10
170.2192105263157
 20
138.8564131531222
 30
0.0
 10
170.1992025904417
 20
138.7496207461421
 30
0.0
 10
170.1215826582864
 20
138.5504285235407
 30
0.0
 10
170.0635872140526
 20
138.4577949954762
 30
0.0
 10
169.9176386803024
 20
138.3024037779676
 30
0.0
 10
169.8282889704816
 20
138.2385255571818
 30
0.0
 10
169.6335104611054
 20
138.1525116193077
 30
0.0
 10
169.5259383206535
 20
138.1295221217663
 30
0.0
 10
169.4192105263144
 20
138.1295221217665
 30
0.0
  0
SPLINE
  5
E7
330
1F
100
AcDbEntity
  8
0
  6
Continuous
 62
     7
370
    15
100
AcDbSpline
210
0.0
220
0.0
230
1.0
 70
     8
 71
     3
 72
    10
 73
     6
 74
     0
 42
0.000000001
 43
0.00000001
 40
0.0
 40
0.0
 40
0.0
 40
0.0
 40
0.5
 40
0.5
 40
1.0
 40
1.0
 40
1.0
 40
1.0
 10
160.6964521276233
 20
141.7369608204367
 30
0.0
 10
160.621192979605
 20
141.6674477626239
 30
0.0
 10
160.5522275913748
 20
141.5798557182924
 30
0.0
 10
160.446887142594
 20
141.3716860932722
 30
0.0
 10
160.4092105263157
 20
141.2463805905949
 30
0.0
 10
160.4092105263157
 20
141.1180394224827
 30
0.0
  0
SPLINE
  5
E8
330
1F
100
AcDbEntity
  8
0
  6
Continuous
 62
     7
370
    15
100
AcDbSpline
210
0.0
220
0.0
230
1.0
 70
     8
 71
     3
 72
     8
 73
     4
 74
     0
 42
0.000000001
 43
0.00000001
 40
0.0
 40
0.0
 40
0.0
 40
0.0
 40
1.0
 40
1.0
 40
1.0
 40
1.0
 10
161.0092105263157
 20
141.8080003446954
 30
0.0
 10
160.8970322721361
 20
141.8080003446954
 30
0.0
 10
160.7883627594076
 20
141.7823192794344
 30
0.0
 10
160.6964521276233
 20
141.7369608204367
 30
0.0
  0
LINE
  5
E9
330
1F
100
AcDbEntity
  8
0
  6
Continuous
 62
     7
370
    15
100
AcDbLine
 10
160.4092104455
 20
136.4830764205
 30
0.0
 11
160.4092104455
 21
141.118039769
 31
0.0
  0
SPLINE
  5
EA
330
1F
100
AcDbEntity
  8
0
  6
Continuous
 62
     7
370
    15
100
AcDbSpline
210
0.0
220
0.0
230
1.0
 70
     8
 71
     3
 72
    14
 73
    10
 74
     0
 42
0.000000001
 43
0.00000001
 40
0.0
 40
0.0
 40
0.0
 40
0.0
 40
0.25
 40
0.25
 40
0.5
 40
0.5
 40
0.75
 40
0.75
 40
1.0
 40
1.0
 40
1.0
 40
1.0
 10
167.1992105263157
 20
138.1295221217665
 30
0.0
 10
167.0920890680192
 20
138.1295221217665
 30
0.0
 10
166.9850621318919
 20
138.1524507530084
 30
0.0
 10
166.7900548971527
 20
138.2385535905544
 30
0.0
 10
166.7008177063728
 20
138.3023639004275
 30
0.0
 10
166.5547822344116
 20
138.4578521960477
 30
0.0
 10
166.4968660411686
 20
138.5503274506872
 30
0.0
 10
166.4191273558129
 20
138.7498846967308
 30
0.0
 10
166.3992105263157
 20
138.8561217271074
 30
0.0
 10
166.3992105263157
 20
138.9637437532868
 30
0.0
  0
LINE
  5
EB
330
1F
100
AcDbEntity
  8
0
  6
Continuous
 62
     7
370
    15
100
AcDbLine
 10
164.7873739341
 20
141.8080007852
 30
0.0
 11
161.0092105904
 21
141.8080007852
 31
0.0
  0
LINE
  5
EC
330
1F
100
AcDbEntity
  8
0
  6
Continuous
 62
     7
370
    15
100
AcDbLine
 10
88.9592100495
 20
99.9045338676
 30
0.0
 11
88.9592100495
 21
122.7187946633
 31
0.0
  0
ARC
  5
ED
330
1F
100
AcDbEntity
  8
0
  6
Continuous
 62
     7
370
    15
100
AcDbCircle
 10
170.2185858656
 20
102.165007506
 30
0.0
 40
2.022726835979857
100
AcDbArc
 50
188.5069041985
 51
333.024918204
  0
LWPOLYLINE
  5
EE
330
1F
100
AcDbEntity
  8
0
  6
Continuous
 62
     7
370
    15
100
AcDbPolyline
 90
        3
 70
   128
 43
0.0
 10
168.3092130908
 20
102.0118188308
 10
168.3871070483
 20
102.5147022874
 10
168.4230058083
 20
102.6173256532
  0
ARC
  5
EF
330
1F
100
AcDbEntity
  8
0
  6
Continuous
 62
     7
370
    15
100
AcDbCircle
 10
170.22055383
 20
102.114922039
 30
0.0
 40
1.914119560764715
100
AcDbArc
 50
183.087706298
 51
336.3966906885
  0
ARC
  5
F0
330
1F
100
AcDbEntity
  8
0
  6
Continuous
 62
     7
370
    15
100
AcDbCircle
 10
170.168149911
 20
101.9586108227
 30
0.0
 40
1.459883787084321
100
AcDbArc
 50
88.8667295996
 51
177.9369322762
  0
ARC
  5
F1
330
1F
100
AcDbEntity
  8
0
  6
Continuous
 62
     7
370
    15
100
AcDbCircle
 10
170.2132449711
 20
102.0824599089
 30
0.0
 40
1.505721344092334
100
AcDbArc
 50
182.7138948751
 51
349.7155336388
  0
CIRCLE
  5
F2
330
1F
100
AcDbEntity
  8
0
  6
HIDDEN
 62
     7
370
     0
100
AcDbCircle
 10
189.1592105263
 20
111.3116642655
 30
0.0
 40
6.000000000000011
  0
LINE
  5
F3
330
1F
100
AcDbEntity
  8
0
  6
HIDDEN
 62
     7
370
     0
100
AcDbLine
 10
183.1592102164
 20
133.8616641433
 30
0.0
 11
195.1592121833
 21
133.8616641433
 31
0.0
  0
LINE
  5
F4
330
1F
100
AcDbEntity
  8
0
  6
HIDDEN
 62
     7
370
     0
100
AcDbLine
 10
183.1592102164
 20
126.4587784381
 30
0.0
 11
195.1592121833
 21
126.4587784381
 31
0.0
  0
LINE
  5
F5
330
1F
100
AcDbEntity
  8
0
  6
HIDDEN
 62
     7
370
     0
100
AcDbLine
 10
185.6394079142
 20
118.0616644406
 30
0.0
 11
192.6790107602
 21
118.0616644406
 31
0.0
  0
SPLINE
  5
F6
330
1F
100
AcDbEntity
  8
0
  6
HIDDEN
 62
     7
370
     0
100
AcDbSpline
210
0.0
220
0.0
230
1.0
 70
     8
 71
     3
 72
    11
 73
     7
 74
     0
 42
0.000000001
 43
0.00000001
 40
0.0
 40
0.0
 40
0.0
 40
0.0
 40
0.2164554190417476
 40
0.440311563890956
 40
0.7519004605252788
 40
0.9999999999999999
 40
0.9999999999999999
 40
0.9999999999999999
 40
0.9999999999999999
 10
189.6185990982933
 20
134.4257662267349
 30
0.0
 10
189.3991767577519
 20
134.3171081797568
 30
0.0
 10
188.9528299102389
 20
134.0960770094305
 30
0.0
 10
188.1245304337104
 20
133.9118468613311
 30
0.0
 10
187.2360304413116
 20
134.0229210224026
 30
0.0
 10
186.6674444471109
 20
134.3020385745596
 30
0.0
 10
186.4154007845803
 20
134.4257662267349
 30
0.0
  0
SPLINE
  5
F7
330
1F
100
AcDbEntity
  8
0
  6
HIDDEN
 62
     7
370
     0
100
AcDbSpline
210
0.0
220
0.0
230
1.0
 70
     8
 71
     3
 72
    11
 73
     7
 74
     0
 42
0.000000001
 43
0.00000001
 40
0.0
 40
0.0
 40
0.0
 40
0.0
 40
0.2164553532462104
 40
0.440311253491584
 40
0.7519004321591006
 40
0.9999999999999999
 40
0.9999999999999999
 40
0.9999999999999999
 40
0.9999999999999999
 10
186.4154007845803
 20
134.4257662267349
 30
0.0
 10
186.3839320258368
 20
134.317108183562
 30
0.0
 10
186.3199186004335
 20
134.0960771096067
 30
0.0
 10
186.2011289755722
 20
133.9118467675338
 30
0.0
 10
186.0737055550685
 20
134.0229209207212
 30
0.0
 10
185.9921603517294
 20
134.3020385810716
 30
0.0
 10
185.9560128861351
 20
134.4257662267349
 30
0.0
  0
SPLINE
  5
F8
330
1F
100
AcDbEntity
  8
0
  6
HIDDEN
 62
     7
370
     0
100
AcDbSpline
210
0.0
220
0.0
230
1.0
 70
     8
 71
     3
 72
    11
 73
     7
 74
     0
 42
0.000000001
 43
0.00000001
 40
0.0
 40
0.0
 40
0.0
 40
0.0
 40
0.1849310462526322
 40
0.5198463959505323
 40
0.8714435793142177
 40
1.0
 40
1.0
 40
1.0
 40
1.0
 10
185.9560128861351
 20
134.4257662267349
 30
0.0
 10
186.1157165872553
 20
134.3321607422804
 30
0.0
 10
186.5646482032796
 20
134.0690330808039
 30
0.0
 10
187.4026616368049
 20
133.8746263282571
 30
0.0
 10
188.1766024503904
 20
134.1126862286539
 30
0.0
 10
188.5893217537021
 20
134.3596453443671
 30
0.0
 10
188.6998233014031
 20
134.4257662267349
 30
0.0
  0
SPLINE
  5
F9
330
1F
100
AcDbEntity
  8
0
  6
HIDDEN
 62
     7
370
     0
100
AcDbSpline
210
0.0
220
0.0
230
1.0
 70
     8
 71
     3
 72
    11
 73
     7
 74
     0
 42
0.000000001
 43
0.00000001
 40
0.0
 40
0.0
 40
0.0
 40
0.0
 40
0.2164554257653376
 40
0.4403115775680192
 40
0.7519000096460435
 40
1.0
 40
1.0
 40
1.0
 40
1.0
 10
188.6998233014031
 20
134.4257662267349
 30
0.0
 10
188.9192456343103
 20
134.3171081897009
 30
0.0
 10
189.3655924662939
 20
134.0960770396027
 30
0.0
 10
190.193891555716
 20
133.9118468314434
 30
0.0
 10
191.0823908246911
 20
134.0229215868924
 30
0.0
 10
191.6509772827564
 20
134.3020385900455
 30
0.0
 10
191.9030216151162
 20
134.4257662267349
 30
0.0
  0
SPLINE
  5
FA
330
1F
100
AcDbEntity
  8
0
  6
HIDDEN
 62
     7
370
     0
100
AcDbSpline
210
0.0
220
0.0
230
1.0
 70
     8
 71
     3
 72
    11
 73
     7
 74
     0
 42
0.000000001
 43
0.00000001
 40
0.0
 40
0.0
 40
0.0
 40
0.0
 40
0.2164553817251987
 40
0.4403113114232491
 40
0.7519004630746399
 40
1.0
 40
1.0
 40
1.0
 40
1.0
 10
191.9030216151162
 20
134.4257662267349
 30
0.0
 10
191.9344903505261
 20
134.317108183978
 30
0.0
 10
191.9985037284645
 20
134.0960771108688
 30
0.0
 10
192.1172937561629
 20
133.9118467780876
 30
0.0
 10
192.2447151199548
 20
134.0229209104029
 30
0.0
 10
192.3262589376636
 20
134.3020385797116
 30
0.0
 10
192.362405788271
 20
134.4257662267349
 30
0.0
  0
SPLINE
  5
FB
330
1F
100
AcDbEntity
  8
0
  6
HIDDEN
 62
     7
370
     0
100
AcDbSpline
210
0.0
220
0.0
230
1.0
 70
     8
 71
     3
 72
    11
 73
     7
 74
     0
 42
0.000000001
 43
0.00000001
 40
0.0
 40
0.0
 40
0.0
 40
0.0
 40
0.1285557644475949
 40
0.480153973122028
 40
0.8150695953358839
 40
1.0
 40
1.0
 40
1.0
 40
1.0
 10
192.362405788271
 20
134.4257662267349
 30
0.0
 10
192.25190559042
 20
134.3596453020526
 30
0.0
 10
191.8391889047318
 20
134.1126845778165
 30
0.0
 10
191.0652439800934
 20
133.874627076626
 30
0.0
 10
190.2272307140055
 20
134.0690321576133
 30
0.0
 10
189.7783015031237
 20
134.3321606905568
 30
0.0
 10
189.6185990982933
 20
134.4257662267349
 30
0.0
  0
LINE
  5
FC
330
1F
100
AcDbEntity
  8
0
  6
HIDDEN
 62
     7
370
     0
100
AcDbLine
 10
186.1592107081
 20
126.5616644368
 30
0.0
 11
192.1592098289
 21
126.5616644368
 31
0.0
  0
LINE
  5
FD
330
1F
100
AcDbEntity
  8
0
  6
HIDDEN
 62
     7
370
     0
100
AcDbLine
 10
190.3014224583
 20
127.5616636694
 30
0.0
 11
188.6998233014
 21
127.5616636694
 31
0.0
  0
LINE
  5
FE
330
1F
100
AcDbEntity
  8
0
  6
HIDDEN
 62
     7
370
     0
100
AcDbLine
 10
188.6998233014
 20
127.5616636694
 30
0.0
 11
187.3279180938
 21
127.5616636694
 31
0.0
  0
LINE
  5
FF
330
1F
100
AcDbEntity
  8
0
  6
HIDDEN
 62
     7
370
     0
100
AcDbLine
 10
188.6998233014
 20
127.5616636694
 30
0.0
 11
188.6998233014
 21
134.4257662267
 31
0.0
  0
LINE
  5
100
330
1F
100
AcDbEntity
  8
0
  6
HIDDEN
 62
     7
370
     0
100
AcDbLine
 10
191.9030216151
 20
127.5616636694
 30
0.0
 11
190.3014224583
 21
127.5616636694
 31
0.0
  0
LINE
  5
101
330
1F
100
AcDbEntity
  8
0
  6
HIDDEN
 62
     7
370
     0
100
AcDbLine
 10
187.3279180938
 20
127.5616636694
 30
0.0
 11
185.9560128861
 21
127.5616636694
 31
0.0
  0
LINE
  5
102
330
1F
100
AcDbEntity
  8
0
  6
HIDDEN
 62
     7
370
     0
100
AcDbLine
 10
192.1327155643
 20
127.5616636694
 30
0.0
 11
191.9030216151
 21
127.5616636694
 31
0.0
  0
LINE
  5
103
330
1F
100
AcDbEntity
  8
0
  6
HIDDEN
 62
     7
370
     0
100
AcDbLine
 10
191.9030216151
 20
127.5616636694
 30
0.0
 11
191.9030216151
 21
134.4257662267
 31
0.0
  0
LINE
  5
104
330
1F
100
AcDbEntity
  8
0
  6
HIDDEN
 62
     7
370
     0
100
AcDbLine
 10
186.4154007846
 20
127.5616636694
 30
0.0
 11
186.4154007846
 21
134.4257662267
 31
0.0
  0
LINE
  5
105
330
1F
100
AcDbEntity
  8
0
  6
HIDDEN
 62
     7
370
     0
100
AcDbLine
 10
185.9560128861
 20
127.5616636694
 30
0.0
 11
185.9560128861
 21
134.4257662267
 31
0.0
  0
LINE
  5
106
330
1F
100
AcDbEntity
  8
0
  6
HIDDEN
 62
     7
370
     0
100
AcDbLine
 10
192.3624057883
 20
127.5616636694
 30
0.0
 11
192.1327155643
 21
127.5616636694
 31
0.0
  0
LINE
  5
107
330
1F
100
AcDbEntity
  8
0
  6
HIDDEN
 62
     7
370
     0
100
AcDbLine
 10
189.6185990983
 20
127.5616636694
 30
0.0
 11
189.6185990983
 21
134.4257662267
 31
0.0
  0
LINE
  5
108
330
1F
100
AcDbEntity
  8
0
  6
HIDDEN
 62
     7
370
     0
100
AcDbLine
 10
192.3624057883
 20
127.5616636694
 30
0.0
 11
192.3624057883
 21
134.4257662267
 31
0.0
  0
SPLINE
  5
109
330
1F
100
AcDbEntity
  8
0
  6
HIDDEN
 62
     7
370
     0
100
AcDbSpline
210
0.0
220
0.0
230
1.0
 70
     8
 71
     3
 72
     9
 73
     5
 74
     0
 42
0.000000001
 43
0.00000001
 40
0.0
 40
0.0
 40
0.0
 40
0.0
 40
0.9333113421934416
 40
1.0
 40
1.0
 40
1.0
 40
1.0
 10
168.2333196142002
 20
103.5651251868269
 30
0.0
 10
168.2187437956514
 20
103.4641550987673
 30
0.0
 10
168.2031264792321
 20
103.3559703125175
 30
0.0
 10
168.2101563341152
 20
103.2634878155426
 30
0.0
 10
168.2106251457019
 20
103.2573202819488
 30
0.0
  0
LWPOLYLINE
  5
10A
330
1F
100
AcDbEntity
  8
0
  6
HIDDEN
 62
     7
370
     0
100
AcDbPolyline
 90
       23
 70
   128
 43
0.0
 10
168.2333196142
 20
102.9832562626
 10
168.3887014725
 20
102.4960339264
 10
168.6774245092
 20
102.0658066691
 10
169.0783421138
 20
101.7240867213
 10
169.5620887541
 20
101.495902446
 10
170.0932341256
 20
101.3979682893
 10
170.6328740903
 20
101.4374563665
 10
171.1414823869
 20
101.6114739896
 10
171.5818079748
 20
101.9072769404
 10
171.9215982222
 20
102.3031979994
 10
172.1359663272
 20
102.7702385754
 10
172.209210191
 20
103.2741911904
 10
172.1359663272
 20
103.7781433397
 10
171.9215982222
 20
104.2451839157
 10
171.5818079748
 20
104.6411049747
 10
171.1414823869
 20
104.9369074599
 10
170.6328740903
 20
105.1109255486
 10
170.0932341256
 20
105.1504136258
 10
169.5620887541
 20
105.0524790035
 10
169.0783421138
 20
104.8242951938
 10
168.6774245092
 20
104.482575246
 10
168.3887014725
 20
104.0523479887
 10
168.2333196142
 20
103.5651251868
  0
LWPOLYLINE
  5
10B
330
1F
100
AcDbEntity
  8
0
  6
HIDDEN
 62
     7
370
     0
100
AcDbPolyline
 90
       24
 70
   128
 43
0.0
 10
160.6594221295
 20
102.4134796307
 10
160.7950774116
 20
101.8579159127
 10
161.0062808824
 20
101.3435548366
 10
161.2773686276
 20
100.9085461692
 10
161.5882347898
 20
100.5851509244
 10
161.9158242458
 20
100.3973543839
 10
162.2358415836
 20
100.3590854079
 10
162.5245520474
 20
100.4731808052
 10
162.7605431342
 20
100.7311795101
 10
162.9263129645
 20
101.1139465691
 10
163.0095671491
 20
101.5930943386
 10
163.0041305536
 20
102.1330863432
 10
162.9104069063
 20
102.6938729183
 10
162.7353471332
 20
103.2338649229
 10
162.4919343368
 20
103.7130126924
 10
162.1982217395
 20
104.0957797513
 10
161.8759925106
 20
104.3537784562
 10
161.549144853
 20
104.4678738535
 10
161.2419196964
 20
104.429604412
 10
160.9771020805
 20
104.2418083371
 10
160.7743328997
 20
103.9184135579
 10
160.6486504526
 20
103.4834044249
 10
160.6093758811
 20
102.9690442801
 10
160.6594221295
 20
102.4134796307
  0
LWPOLYLINE
  5
10C
330
1F
100
AcDbEntity
  8
0
  6
HIDDEN
 62
     7
370
     0
100
AcDbPolyline
 90
       22
 70
   128
 43
0.0
 10
161.0409379565
 20
102.4456102596
 10
161.1609342137
 20
101.968714428
 10
161.3508546354
 20
101.5341928423
 10
161.5938241222
 20
101.1806553424
 10
161.8682536857
 20
100.9395135761
 10
162.1497589723
 20
100.8321954132
 10
162.4133269863
 20
100.8682366655
 10
162.6355386899
 20
101.0444345147
 10
162.7966495791
 20
101.345132497
 10
162.8823438288
 20
101.7436128304
 10
162.885007877
 20
102.2044694246
 10
162.8044047022
 20
102.6867520259
 10
162.6476961748
 20
103.1476076887
 10
162.4288064988
 20
103.5460884877
 10
162.167184949
 20
103.8467864701
 10
161.8860778027
 20
104.0229843193
 10
161.6104626657
 20
104.0590251059
 10
161.3648291306
 20
103.9517074087
 10
161.1710032077
 20
103.710566108
 10
161.0462066812
 20
103.3570276768
 10
161.0015283433
 20
102.9225060911
 10
161.0409379565
 20
102.4456102596
  0
ELLIPSE
  5
10D
330
1F
100
AcDbEntity
  8
0
  6
HIDDEN
 62
     7
370
     0
100
AcDbEllipse
 10
170.2092105263
 20
104.4240742049
 30
0.0
 11
1.383467579512114
 21
-1.091267719176599
 31
0.0
210
0.0
220
0.0
230
1.0
 40
0.8239737799
 41
2.147131942757438
 42
5.288724596347245
  0
ELLIPSE
  5
10E
330
1F
100
AcDbEntity
  8
0
  6
HIDDEN
 62
     7
370
     0
100
AcDbEllipse
 10
170.2092105263
 20
104.4240742049
 30
0.0
 11
1.383467579512114
 21
1.753907414218489
 31
0.0
210
0.0
220
0.0
230
1.0
 40
0.5126701559
 41
0.9944607108323573
 42
4.136053364422164
  0
SPLINE
  5
10F
330
1F
100
AcDbEntity
  8
0
  6
HIDDEN
 62
     7
370
     0
100
AcDbSpline
210
0.0
220
0.0
230
1.0
 70
     8
 71
     3
 72
    14
 73
    10
 74
     0
 42
0.000000001
 43
0.00000001
 40
0.0
 40
0.0
 40
0.0
 40
0.0
 40
0.25
 40
0.25
 40
0.5
 40
0.5
 40
0.75
 40
0.75
 40
1.0
 40
1.0
 40
1.0
 40
1.0
 10
168.2333197636753
 20
102.983256698642
 30
0.0
 10
168.2696835917056
 20
103.0287513340438
 30
0.0
 10
168.3021613189158
 20
103.0771431402601
 30
0.0
 10
168.3509149483315
 20
103.1826282841897
 30
0.0
 10
168.365818726006
 20
103.2392127924326
 30
0.0
 10
168.3658291596636
 20
103.348100386383
 30
0.0
 10
168.3509388638555
 20
103.4002850521456
 30
0.0
 10
168.3020499329779
 20
103.4915624510892
 30
0.0
 10
168.2696777547075
 20
103.5302291564634
 30
0.0
 10
168.2333197636753
 20
103.5651250960111
 30
0.0
  0
LWPOLYLINE
  5
110
330
1F
100
AcDbEntity
  8
0
  6
HIDDEN
 62
     7
370
     0
100
AcDbPolyline
 90
       22
 70
   128
 43
0.0
 10
170.2092107945
 20
101.7672674925
 10
170.6955567562
 20
101.8361518354
 10
171.1386884191
 20
102.0366832809
 10
171.4992322588
 20
102.3510446967
 10
171.7451526412
 20
102.7513019935
 10
171.8545970136
 20
103.2018926189
 10
171.8178414368
 20
103.6627776184
 10
171.6381520593
 20
104.093007204
 10
171.3314954751
 20
104.4543524467
 10
170.9251184576
 20
104.7147064664
 10
170.4551302457
 20
104.850935676
 10
169.9632904121
 20
104.850935676
 10
169.4933022001
 20
104.7147064664
 10
169.0869251826
 20
104.4543524467
 10
168.7802685985
 20
104.093007204
 10
168.6005792209
 20
103.6627776184
 10
168.5638245755
 20
103.2018926189
 10
168.6732689479
 20
102.7513019935
 10
168.919188399
 20
102.3510446967
 10
169.2797322386
 20
102.0366832809
 10
169.7228648328
 20
101.8361518354
 10
170.2092107945
 20
101.7672674925
  0
ELLIPSE
  5
111
330
1F
100
AcDbEntity
  8
0
  6
HIDDEN
 62
     7
370
     0
100
AcDbEllipse
 10
170.2092105263
 20
104.4240742049
 30
0.0
 11
1.383467579512114
 21
1.753907414218489
 31
0.0
210
0.0
220
0.0
230
1.0
 40
0.5126701559
 41
0.9829735846098713
 42
0.9944607108323662
  0
SPLINE
  5
112
330
1F
100
AcDbEntity
  8
0
  6
HIDDEN
 62
     7
370
     0
100
AcDbSpline
210
0.0
220
0.0
230
1.0
 70
     8
 71
     3
 72
     8
 73
     4
 74
     0
 42
0.000000001
 43
0.00000001
 40
0.0
 40
0.0
 40
0.0
 40
0.0
 40
1.0
 40
1.0
 40
1.0
 40
1.0
 10
170.228163867748
 20
105.9869173551427
 30
0.0
 10
170.2451627518274
 20
105.9789340816293
 30
0.0
 10
170.2621668963685
 20
105.9701976791816
 30
0.0
 10
170.2791516224707
 20
105.960720827344
 30
0.0
  0
ELLIPSE
  5
113
330
1F
100
AcDbEntity
  8
0
  6
HIDDEN
 62
     7
370
     0
100
AcDbEllipse
 10
170.2092105263
 20
104.4240742049
 30
0.0
 11
1.383467579512114
 21
-1.091267719176599
 31
0.0
210
0.0
220
0.0
230
1.0
 40
0.8239737799
 41
2.104730695483414
 42
2.147131942757429
  0
ELLIPSE
  5
114
330
1F
100
AcDbEntity
  8
0
  6
HIDDEN
 62
     7
370
     0
100
AcDbEllipse
 10
170.2092105263
 20
104.4240742049
 30
0.0
 11
1.383467579512114
 21
-1.091267719176599
 31
0.0
210
0.0
220
0.0
230
1.0
 40
0.8239737799
 41
5.288724596347236
 42
5.33112584362125
  0
SPLINE
  5
115
330
1F
100
AcDbEntity
  8
0
  6
HIDDEN
 62
     7
370
     0
100
AcDbSpline
210
0.0
220
0.0
230
1.0
 70
     8
 71
     3
 72
     8
 73
     4
 74
     0
 42
0.000000001
 43
0.00000001
 40
0.0
 40
0.0
 40
0.0
 40
0.0
 40
1.0
 40
1.0
 40
1.0
 40
1.0
 10
170.2791516224707
 20
102.8625223391107
 30
0.0
 10
170.2621668963685
 20
102.8696380491605
 30
0.0
 10
170.2451627518274
 20
102.8775131786821
 30
0.0
 10
170.228163867748
 20
102.8861362981363
 30
0.0
  0
ELLIPSE
  5
116
330
1F
100
AcDbEntity
  8
0
  6
HIDDEN
 62
     7
370
     0
100
AcDbEllipse
 10
170.2092105263
 20
104.4240742049
 30
0.0
 11
1.383467579512114
 21
1.753907414218489
 31
0.0
210
0.0
220
0.0
230
1.0
 40
0.5126701559
 41
4.136053364422173
 42
4.147540490644667
  0
SPLINE
  5
117
330
1F
100
AcDbEntity
  8
0
  6
HIDDEN
 62
     7
370
     0
100
AcDbSpline
210
0.0
220
0.0
230
1.0
 70
    11
 71
     3
 72
    58
 73
    54
 74
     0
 42
0.000000001
 43
0.00000001
 40
0.0
 40
0.0
 40
0.0
 40
0.0
 40
0.03125
 40
0.03125
 40
0.0624999999999999
 40
0.0624999999999999
 40
0.0937499999999999
 40
0.0937499999999999
 40
0.1249999999999999
 40
0.1249999999999999
 40
0.1562499999999999
 40
0.1562499999999999
 40
0.1874999999999998
 40
0.1874999999999998
 40
0.2499999999999999
 40
0.2499999999999999
 40
0.2812499999999999
 40
0.2812499999999999
 40
0.3124999999999999
 40
0.3124999999999999
 40
0.3749999999999999
 40
0.3749999999999999
 40
0.4062499999999999
 40
0.4062499999999999
 40
0.4375
 40
0.4375
 40
0.5000000000000001
 40
0.5000000000000001
 40
0.5625000000000001
 40
0.5625000000000001
 40
0.5937500000000001
 40
0.5937500000000001
 40
0.6250000000000001
 40
0.6250000000000001
 40
0.6562500000000001
 40
0.6562500000000001
 40
0.6875
 40
0.6875
 40
0.71875
 40
0.71875
 40
0.75
 40
0.75
 40
0.8125
 40
0.8125
 40
0.8750000000000001
 40
0.8750000000000001
 40
0.9062500000000001
 40
0.9062500000000001
 40
0.9375
 40
0.9375
 40
0.96875
 40
0.96875
 40
1.0
 40
1.0
 40
1.0
 40
1.0
 10
169.4284487976697
 20
111.3116642654798
 30
0.0
 10
169.3328704610576
 20
111.257031705168
 30
0.0
 10
169.2442409485535
 20
111.1939693099508
 30
0.0
 10
169.0797332514412
 20
111.0524735198404
 30
0.0
 10
169.0031890862088
 20
110.973143563294
 30
0.0
 10
168.8669034790438
 20
110.8030690633548
 30
0.0
 10
168.8074386857444
 20
110.7130458822357
 30
0.0
 10
168.7056813906659
 20
110.5234311586213
 30
0.0
 10
168.6632190303407
 20
110.4227670718573
 30
0.0
 10
168.5999139655151
 20
110.2204754863212
 30
0.0
 10
168.5784600911733
 20
110.1181002593298
 30
0.0
 10
168.5565748470277
 20
109.9110334054104
 30
0.0
 10
168.5565258597658
 20
109.8070873693125
 30
0.0
 10
168.5884535794275
 20
109.5069366471735
 30
0.0
 10
168.653557444357
 20
109.3157855227579
 30
0.0
 10
168.8060327781755
 20
109.0668407640415
 30
0.0
 10
168.8667793837842
 20
108.9886918590613
 30
0.0
 10
169.0024309325632
 20
108.8479862348214
 30
0.0
 10
169.0776958668867
 20
108.7845892315931
 30
0.0
 10
169.3267505385164
 20
108.614012081366
 30
0.0
 10
169.5171812531473
 20
108.5308175499363
 30
0.0
 10
169.8299603204364
 20
108.4538417618725
 30
0.0
 10
169.9360225303594
 20
108.4368655160543
 30
0.0
 10
170.1517583067819
 20
108.4195626454363
 30
0.0
 10
170.2628283534709
 20
108.4194312104909
 30
0.0
 10
170.5881587784829
 20
108.4450035348532
 30
0.0
 10
170.8001971374588
 20
108.4968389729017
 30
0.0
 10
171.1780713811171
 20
108.6620615348568
 30
0.0
 10
171.3468972302141
 20
108.7766335819764
 30
0.0
 10
171.5506624531997
 20
108.9875207783544
 30
0.0
 10
171.6115335923446
 20
109.0656742954861
 30
0.0
 10
171.7132086161185
 20
109.2312238041517
 30
0.0
 10
171.7547027348336
 20
109.3190759795148
 30
0.0
 10
171.8184280644798
 20
109.5060083841556
 30
0.0
 10
171.8402189693494
 20
109.6048492542796
 30
0.0
 10
171.8618083881629
 20
109.8047663984736
 30
0.0
 10
171.862032478859
 20
109.9072521002179
 30
0.0
 10
171.8404066141326
 20
110.1158450186175
 30
0.0
 10
171.8189587125296
 20
110.2186458904186
 30
0.0
 10
171.75581224525
 20
110.4211970947371
 30
0.0
 10
171.7134853748
 20
110.5218513023434
 30
0.0
 10
171.5606644972514
 20
110.8071850723024
 30
0.0
 10
171.4214089221118
 20
110.9812455172621
 30
0.0
 10
171.0921816584737
 20
111.264575556096
 30
0.0
 10
170.8983959238764
 20
111.3765695712371
 30
0.0
 10
170.5892154282958
 20
111.4784704629839
 30
0.0
 10
170.4807845123494
 20
111.502167906138
 30
0.0
 10
170.2638038632714
 20
111.5255071839624
 30
0.0
 10
170.1552874964622
 20
111.5255345347457
 30
0.0
 10
169.9382026080258
 20
111.5022732904674
 30
0.0
 10
169.8298198456654
 20
111.4786348062408
 30
0.0
 10
169.623470984796
 20
111.4107015626245
 30
0.0
 10
169.5240271342819
 20
111.3662968257916
 30
0.0
 10
169.4284487976697
 20
111.3116642654798
 30
0.0
  0
LINE
  5
118
330
1F
100
AcDbEntity
  8
0
  6
HIDDEN
 62
     7
370
     0
100
AcDbLine
 10
174.7092106008
 20
111.3116642655
 30
0.0
 11
174.7092106008
 21
97.8116639153
 31
0.0
  0
LINE
  5
119
330
1F
100
AcDbEntity
  8
0
  6
HIDDEN
 62
     7
370
     0
100
AcDbLine
 10
174.7092106008
 20
124.8116646157
 30
0.0
 11
174.7092106008
 21
111.3116642655
 31
0.0
  0
LINE
  5
11A
330
1F
100
AcDbEntity
  8
0
  6
HIDDEN
 62
     7
370
     0
100
AcDbLine
 10
179.5752350801
 20
111.3116642655
 30
0.0
 11
179.5752350801
 21
97.3116638333
 31
0.0
  0
LINE
  5
11B
330
1F
100
AcDbEntity
  8
0
  6
HIDDEN
 62
     7
370
     0
100
AcDbLine
 10
179.5752350801
 20
125.3116646976
 30
0.0
 11
179.5752350801
 21
111.3116642655
 31
0.0
  0
SPLINE
  5
11C
330
1F
100
AcDbEntity
  8
0
  6
HIDDEN
 62
     7
370
     0
100
AcDbSpline
210
0.0
220
0.0
230
1.0
 70
     8
 71
     3
 72
    28
 73
    24
 74
     0
 42
0.000000001
 43
0.00000001
 40
0.0
 40
0.0
 40
0.0
 40
0.0
 40
0.047219214722249
 40
0.0958687344442845
 40
0.1430723668687506
 40
0.1915445022965404
 40
0.2407238283644302
 40
0.2912134943293753
 40
0.3423641643486798
 40
0.3951274199879757
 40
0.4439561189887273
 40
0.4944101430407641
 40
0.5400928321263951
 40
0.5870563068632473
 40
0.6337305746794053
 40
0.6815810889768197
 40
0.7316728148867153
 40
0.7831597509290963
 40
0.8340513871356092
 40
0.8865965260695198
 40
0.9345643021053661
 40
0.9840531341652213
 40
1.0
 40
1.0
 40
1.0
 40
1.0
 10
183.6592112296505
 20
125.3116646976135
 30
0.0
 10
183.6727361297624
 20
125.306322892969
 30
0.0
 10
183.7001956092314
 20
125.2954774764594
 30
0.0
 10
183.9201634491078
 20
125.2103990693606
 30
0.0
 10
184.2653119350883
 20
125.0831348214678
 30
0.0
 10
184.7371498157129
 20
124.921220661525
 30
0.0
 10
185.3335011043106
 20
124.7375899374718
 30
0.0
 10
186.0454891894587
 20
124.5502572625843
 30
0.0
 10
186.8670385911547
 20
124.3791733568266
 30
0.0
 10
187.7539576550403
 20
124.2518873592039
 30
0.0
 10
188.6826987005533
 20
124.1838568228042
 30
0.0
 10
189.5843103594721
 20
124.1827341078303
 30
0.0
 10
190.4597536239476
 20
124.2426659460768
 30
0.0
 10
191.2759595748836
 20
124.3510113674011
 30
0.0
 10
192.047173679621
 20
124.4994433131544
 30
0.0
 10
192.759502882985
 20
124.674655896012
 30
0.0
 10
193.3989908996505
 20
124.8622869288568
 30
0.0
 10
193.9341454028267
 20
125.0406689731924
 30
0.0
 10
194.3409105900157
 20
125.1885858539395
 30
0.0
 10
194.5922555413555
 20
125.2852248391073
 30
0.0
 10
194.6775818257836
 20
125.3190724690332
 30
0.0
 10
194.6534074849954
 20
125.3089214593492
 30
0.0
 10
194.5564336853504
 20
125.271788102291
 30
0.0
 10
194.5328008943482
 20
125.2627385974786
 30
0.0
  0
LINE
  5
11D
330
1F
100
AcDbEntity
  8
0
  6
HIDDEN
 62
     7
370
     0
100
AcDbLine
 10
160.4092104455
 20
136.1116649778
 30
0.0
 11
160.7464688924
 21
136.1116649778
 31
0.0
  0
ELLIPSE
  5
11E
330
1F
100
AcDbEntity
  8
0
  6
HIDDEN
 62
     7
370
     0
100
AcDbEllipse
 10
160.7464688265
 20
137.7116642655
 30
0.0
 11
0.0
 21
1.600000000000023
 31
0.0
210
0.0
220
0.0
230
1.0
 40
0.4142135624
 41
3.141592653589793
 42
4.712388980384695
  0
ELLIPSE
  5
11F
330
1F
100
AcDbEntity
  8
0
  6
HIDDEN
 62
     7
370
     0
100
AcDbEllipse
 10
160.7464688265
 20
87.1116642655
 30
0.0
 11
0.0
 21
1.599999999999994
 31
0.0
210
0.0
220
0.0
230
1.0
 40
0.4142135624
 41
4.712388980384695
 42
6.283185307179586
  0
LINE
  5
120
330
1F
100
AcDbEntity
  8
0
  6
HIDDEN
 62
     7
370
     0
100
AcDbLine
 10
160.7464688924
 20
88.7116635413
 30
0.0
 11
160.4092104455
 21
88.7116635413
 31
0.0
  0
LINE
  5
121
330
1F
100
AcDbEntity
  8
0
  6
HIDDEN
 62
     7
370
     0
100
AcDbLine
 10
161.4092103766
 20
81.4182156891
 30
0.0
 11
160.6253550482
 21
80.9599342019
 31
0.0
  0
LINE
  5
122
330
1F
100
AcDbEntity
  8
0
  6
HIDDEN
 62
     7
370
     0
100
AcDbLine
 10
160.6964522136
 20
141.7369613619
 30
0.0
 11
161.4092103766
 21
141.024201569
 31
0.0
  0
LINE
  5
123
330
1F
100
AcDbEntity
  8
0
  6
HIDDEN
 62
     7
370
     0
100
AcDbLine
 10
95.9592093342
 20
102.8116638035
 30
0.0
 11
95.9592093342
 21
119.8116647274
 31
0.0
  0
LINE
  5
124
330
1F
100
AcDbEntity
  8
0
  6
HIDDEN
 62
     7
370
     0
100
AcDbLine
 10
98.9551399463
 20
104.3116640494
 30
0.0
 11
98.9551399463
 21
118.3116644815
 31
0.0
  0
LINE
  5
125
330
1F
100
AcDbEntity
  8
0
  6
HIDDEN
 62
     7
370
     0
100
AcDbLine
 10
176.2592107618
 20
136.1116649778
 30
0.0
 11
177.4635952526
 21
136.1116649778
 31
0.0
  0
LINE
  5
126
330
1F
100
AcDbEntity
  8
0
  6
HIDDEN
 62
     7
370
     0
100
AcDbLine
 10
165.2444204876
 20
81.4182156891
 30
0.0
 11
161.4092103766
 21
81.4182156891
 31
0.0
  0
LINE
  5
127
330
1F
100
AcDbEntity
  8
0
  6
HIDDEN
 62
     7
370
     0
100
AcDbLine
 10
176.2592107618
 20
81.4182156891
 30
0.0
 11
171.3740001061
 21
81.4182156891
 31
0.0
  0
LINE
  5
128
330
1F
100
AcDbEntity
  8
0
  6
HIDDEN
 62
     7
370
     0
100
AcDbLine
 10
161.4092103766
 20
81.4182156891
 30
0.0
 11
161.4092103766
 21
87.1116643966
 31
0.0
  0
LINE
  5
129
330
1F
100
AcDbEntity
  8
0
  6
HIDDEN
 62
     7
370
     0
100
AcDbLine
 10
176.2592107618
 20
88.7116635413
 30
0.0
 11
160.7464688924
 21
88.7116635413
 31
0.0
  0
LINE
  5
12A
330
1F
100
AcDbEntity
  8
0
  6
HIDDEN
 62
     7
370
     0
100
AcDbLine
 10
177.376736384
 20
88.7116635413
 30
0.0
 11
176.2592107618
 21
88.7116635413
 31
0.0
  0
LINE
  5
12B
330
1F
100
AcDbEntity
  8
0
  6
HIDDEN
 62
     7
370
     0
100
AcDbLine
 10
160.7464688924
 20
136.1116649778
 30
0.0
 11
176.2592107618
 21
136.1116649778
 31
0.0
  0
LINE
  5
12C
330
1F
100
AcDbEntity
  8
0
  6
HIDDEN
 62
     7
370
     0
100
AcDbLine
 10
161.4092103766
 20
141.024201569
 30
0.0
 11
165.345255714
 21
141.024201569
 31
0.0
  0
LINE
  5
12D
330
1F
100
AcDbEntity
  8
0
  6
HIDDEN
 62
     7
370
     0
100
AcDbLine
 10
171.2731648796
 20
141.024201569
 30
0.0
 11
176.2592107618
 21
141.024201569
 31
0.0
  0
LINE
  5
12E
330
1F
100
AcDbEntity
  8
0
  6
HIDDEN
 62
     7
370
     0
100
AcDbLine
 10
161.4092103766
 20
141.024201569
 30
0.0
 11
161.4092103766
 21
137.7116641224
 31
0.0
  0
LINE
  5
12F
330
1F
100
AcDbEntity
  8
0
  6
HIDDEN
 62
     7
370
     0
100
AcDbLine
 10
131.9592096471
 20
104.3116640494
 30
0.0
 11
131.9592096471
 21
118.3116644815
 31
0.0
  0
LINE
  5
130
330
1F
100
AcDbEntity
  8
0
  6
HIDDEN
 62
     7
370
     0
100
AcDbLine
 10
133.6115770602
 20
107.0616640345
 30
0.0
 11
133.6115770602
 21
115.5616644964
 31
0.0
  0
LINE
  5
131
330
1F
100
AcDbEntity
  8
0
  6
HIDDEN
 62
     7
370
     0
100
AcDbLine
 10
183.6592112297
 20
134.5616648168
 30
0.0
 11
194.65921117
 21
134.5616648168
 31
0.0
  0
SPLINE
  5
132
330
1F
100
AcDbEntity
  8
0
  6
HIDDEN
 62
     7
370
     0
100
AcDbSpline
210
0.0
220
0.0
230
1.0
 70
    24
 71
     3
 72
     8
 73
     4
 74
     0
 42
0.000000001
 43
0.00000001
 40
0.0
 40
0.0
 40
0.0
 40
0.0
 40
1.0
 40
1.0
 40
1.0
 40
1.0
 10
180.3007211604353
 20
88.7116642654798
 30
0.0
 10
179.7936966357382
 20
88.7116642654798
 30
0.0
 10
179.2373232688593
 20
88.7116642654798
 30
0.0
 10
178.6398723298819
 20
88.7116642654798
 30
0.0
  0
SPLINE
  5
133
330
1F
100
AcDbEntity
  8
0
  6
HIDDEN
 62
     7
370
     0
100
AcDbSpline
210
0.0
220
0.0
230
1.0
 70
    24
 71
     3
 72
    10
 73
     6
 74
     0
 42
0.000000001
 43
0.00000001
 40
0.0
 40
0.0
 40
0.0
 40
0.0
 40
0.5
 40
0.5
 40
1.0
 40
1.0
 40
1.0
 40
1.0
 10
178.6398723298819
 20
88.7116642654798
 30
0.0
 10
178.4381808452009
 20
88.7116642654798
 30
0.0
 10
178.2304339302156
 20
88.71166426547978
 30
0.0
 10
177.8067611222238
 20
88.7116642654798
 30
0.0
 10
177.590991970485
 20
88.71166426547978
 30
0.0
 10
177.3767355404454
 20
88.7116642654798
 30
0.0
  0
LINE
  5
134
330
1F
100
AcDbEntity
  8
0
  6
HIDDEN
 62
     7
370
     0
100
AcDbLine
 10
182.7092100495
 20
88.7116635413
 30
0.0
 11
180.3007204646
 21
88.7116635413
 31
0.0
  0
SPLINE
  5
135
330
1F
100
AcDbEntity
  8
0
  6
HIDDEN
 62
     7
370
     0
100
AcDbSpline
210
0.0
220
0.0
230
1.0
 70
    11
 71
     3
 72
    60
 73
    56
 74
     0
 42
0.000000001
 43
0.00000001
 40
0.0
 40
0.0
 40
0.0
 40
0.0
 40
0.0312500000000002
 40
0.0312500000000002
 40
0.0625000000000003
 40
0.0625000000000003
 40
0.1250000000000002
 40
0.1250000000000002
 40
0.1875000000000001
 40
0.1875000000000001
 40
0.2187500000000002
 40
0.2187500000000002
 40
0.2500000000000002
 40
0.2500000000000002
 40
0.2812500000000003
 40
0.2812500000000003
 40
0.3125000000000003
 40
0.3125000000000003
 40
0.3437500000000003
 40
0.3437500000000003
 40
0.3750000000000003
 40
0.3750000000000003
 40
0.4062500000000004
 40
0.4062500000000004
 40
0.4375000000000004
 40
0.4375000000000004
 40
0.4999999999999999
 40
0.4999999999999999
 40
0.53125
 40
0.53125
 40
0.5625
 40
0.5625
 40
0.5937500000000001
 40
0.5937500000000001
 40
0.6250000000000001
 40
0.6250000000000001
 40
0.6562500000000002
 40
0.6562500000000002
 40
0.6875000000000002
 40
0.6875000000000002
 40
0.7187500000000003
 40
0.7187500000000003
 40
0.7500000000000003
 40
0.7500000000000003
 40
0.8125000000000004
 40
0.8125000000000004
 40
0.8437500000000002
 40
0.8437500000000002
 40
0.8750000000000001
 40
0.8750000000000001
 40
0.9062499999999999
 40
0.9062499999999999
 40
0.9374999999999998
 40
0.9374999999999998
 40
1.0
 40
1.0
 40
1.0
 40
1.0
 10
170.2092105263157
 20
111.1007382074465
 30
0.0
 10
170.0990176153454
 20
111.1007382074465
 30
0.0
 10
169.990908412058
 20
111.1125958297512
 30
0.0
 10
169.7786032575716
 20
111.1586015566414
 30
0.0
 10
169.6732945941126
 20
111.1933614089551
 30
0.0
 10
169.3744966335041
 20
111.3269152471194
 30
0.0
 10
169.193074429118
 20
111.456823660263
 30
0.0
 10
168.8918685284611
 20
111.7692821473733
 30
0.0
 10
168.769314049669
 20
111.9550596302009
 30
0.0
 10
168.6451805990497
 20
112.2498703787045
 30
0.0
 10
168.6128774822138
 20
112.3528494651257
 30
0.0
 10
168.5700278203818
 20
112.5591271048306
 30
0.0
 10
168.5592826528693
 20
112.66189508975
 30
0.0
 10
168.5591391165163
 20
112.8665607432684
 30
0.0
 10
168.5701222375526
 20
112.9689148294625
 30
0.0
 10
168.6127938970799
 20
113.1631749384698
 30
0.0
 10
168.6443567911873
 20
113.2563432472133
 30
0.0
 10
168.728321886675
 20
113.4351267678554
 30
0.0
 10
168.7793564396757
 20
113.5178441595672
 30
0.0
 10
168.8985897704545
 20
113.6713957749811
 30
0.0
 10
168.967648827789
 20
113.7428462357344
 30
0.0
 10
169.1189473516434
 20
113.8700582781218
 30
0.0
 10
169.2011800563984
 20
113.926201161969
 30
0.0
 10
169.3792925735466
 20
114.0245229748129
 30
0.0
 10
169.4754274577508
 20
114.0665172689642
 30
0.0
 10
169.7726741428697
 20
114.1666563792407
 30
0.0
 10
169.9917318836487
 20
114.2016704871416
 30
0.0
 10
170.3171855585366
 20
114.2017504466016
 30
0.0
 10
170.4270221597296
 20
114.1931450421787
 30
0.0
 10
170.640954456712
 20
114.1588322467045
 30
0.0
 10
170.7441941176555
 20
114.1334904335099
 30
0.0
 10
170.943623174218
 20
114.0663053443251
 30
0.0
 10
171.0397156814915
 20
114.0242233592665
 30
0.0
 10
171.2172597310575
 20
113.9261662037026
 30
0.0
 10
171.2999562981707
 20
113.8697767393787
 30
0.0
 10
171.4524308565359
 20
113.7413256697291
 30
0.0
 10
171.5201077775776
 20
113.671068153096
 30
0.0
 10
171.6390854418463
 20
113.5177888087279
 30
0.0
 10
171.6908297250465
 20
113.4337096319685
 30
0.0
 10
171.7740064317027
 20
113.2563268440842
 30
0.0
 10
171.8055174686517
 20
113.1635502018093
 30
0.0
 10
171.8482530761035
 20
112.9692466821576
 30
0.0
 10
171.8592587805236
 20
112.8667802672193
 30
0.0
 10
171.8591135275201
 20
112.560118550848
 30
0.0
 10
171.8147606389358
 20
112.3483466664494
 30
0.0
 10
171.6901754306542
 20
112.0526613253751
 30
0.0
 10
171.6383916169881
 20
111.956084797536
 30
0.0
 10
171.5184339386579
 20
111.7749205492204
 30
0.0
 10
171.4505828766622
 20
111.690331230521
 30
0.0
 10
171.299057137907
 20
111.533433197728
 30
0.0
 10
171.2150878646441
 20
111.461236966775
 30
0.0
 10
171.0375965963051
 20
111.3358751235459
 30
0.0
 10
170.9433150613509
 20
111.281808770435
 30
0.0
 10
170.6424299541215
 20
111.147736788419
 30
0.0
 10
170.4295963482564
 20
111.1007382074465
 30
0.0
 10
170.2092105263158
 20
111.1007382074465
 30
0.0
  0
LINE
  5
136
330
1F
100
AcDbEntity
  8
0
  6
HIDDEN
 62
     7
370
     0
100
AcDbLine
 10
176.2592107618
 20
132.4606010885
 30
0.0
 11
176.2592107618
 21
129.6616638274
 31
0.0
  0
SPLINE
  5
137
330
1F
100
AcDbEntity
  8
0
  6
HIDDEN
 62
     7
370
     0
100
AcDbSpline
210
0.0
220
0.0
230
1.0
 70
     8
 71
     3
 72
     8
 73
     4
 74
     0
 42
0.000000001
 43
0.00000001
 40
0.0
 40
0.0
 40
0.0
 40
0.0
 40
1.0
 40
1.0
 40
1.0
 40
1.0
 10
170.2281638677393
 20
119.7371922328192
 30
0.0
 10
170.2451655125407
 20
119.7453104505459
 30
0.0
 10
170.2621641379456
 20
119.7531817016626
 30
0.0
 10
170.2791516224706
 20
119.7608061918489
 30
0.0
  0
ELLIPSE
  5
138
330
1F
100
AcDbEntity
  8
0
  6
HIDDEN
 62
     7
370
     0
100
AcDbEllipse
 10
170.2092105263
 20
118.199254326
 30
0.0
 11
-1.383467579512114
 21
1.753907414218503
 31
0.0
210
0.0
220
0.0
230
1.0
 40
0.5126701559
 41
5.277237470129608
 42
5.288724596347235
  0
ELLIPSE
  5
139
330
1F
100
AcDbEntity
  8
0
  6
HIDDEN
 62
     7
370
     0
100
AcDbEllipse
 10
170.2092105263
 20
118.199254326
 30
0.0
 11
1.383467579512114
 21
1.091267719176585
 31
0.0
210
0.0
220
0.0
230
1.0
 40
0.8239737799
 41
0.9944607108323675
 42
4.136053364422156
  0
ELLIPSE
  5
13A
330
1F
100
AcDbEntity
  8
0
  6
HIDDEN
 62
     7
370
     0
100
AcDbEllipse
 10
170.2092105263
 20
118.199254326
 30
0.0
 11
-1.383467579512114
 21
1.753907414218503
 31
0.0
210
0.0
220
0.0
230
1.0
 40
0.5126701559
 41
2.147131942757411
 42
2.15861906898008
  0
SPLINE
  5
13B
330
1F
100
AcDbEntity
  8
0
  6
HIDDEN
 62
     7
370
     0
100
AcDbSpline
210
0.0
220
0.0
230
1.0
 70
     8
 71
     3
 72
     8
 73
     4
 74
     0
 42
0.000000001
 43
0.00000001
 40
0.0
 40
0.0
 40
0.0
 40
0.0
 40
1.0
 40
1.0
 40
1.0
 40
1.0
 10
170.2791516224707
 20
116.6626077036155
 30
0.0
 10
170.2621641379487
 20
116.6536286981926
 30
0.0
 10
170.2451655125467
 20
116.6448964536999
 30
0.0
 10
170.2281638677483
 20
116.6364111758171
 30
0.0
  0
ELLIPSE
  5
13C
330
1F
100
AcDbEntity
  8
0
  6
HIDDEN
 62
     7
370
     0
100
AcDbEllipse
 10
170.2092105263
 20
118.199254326
 30
0.0
 11
1.383467579512114
 21
1.091267719176585
 31
0.0
210
0.0
220
0.0
230
1.0
 40
0.8239737799
 41
4.136053364422156
 42
4.178454611696189
  0
ELLIPSE
  5
13D
330
1F
100
AcDbEntity
  8
0
  6
HIDDEN
 62
     7
370
     0
100
AcDbEllipse
 10
170.2092105263
 20
118.199254326
 30
0.0
 11
-1.383467579512114
 21
1.753907414218503
 31
0.0
210
0.0
220
0.0
230
1.0
 40
0.5126701559
 41
5.28872459634724
 42
8.430317249937001
  0
ELLIPSE
  5
13E
330
1F
100
AcDbEntity
  8
0
  6
HIDDEN
 62
     7
370
     0
100
AcDbEllipse
 10
170.2092105263
 20
118.199254326
 30
0.0
 11
1.383467579512114
 21
1.091267719176585
 31
0.0
210
0.0
220
0.0
230
1.0
 40
0.8239737799
 41
0.9520594635583363
 42
0.9944607108323675
  0
LWPOLYLINE
  5
13F
330
1F
100
AcDbEntity
  8
0
  6
HIDDEN
 62
     7
370
     0
100
AcDbPolyline
 90
       22
 70
   128
 43
0.0
 10
170.2092107945
 20
117.7550749117
 10
170.6955567562
 20
117.8239592546
 10
171.1386884191
 20
118.0244907
 10
171.4992322588
 20
118.3388511845
 10
171.7451526412
 20
118.7391094127
 10
171.8545970136
 20
119.1896995724
 10
171.8178414368
 20
119.6505850376
 10
171.6381520593
 20
120.0808141575
 10
171.3314954751
 20
120.4421598659
 10
170.9251184576
 20
120.7025138856
 10
170.4551302457
 20
120.8387430952
 10
169.9632904121
 20
120.8387430952
 10
169.4933022001
 20
120.7025138856
 10
169.0869251826
 20
120.4421598659
 10
168.7802685985
 20
120.0808141575
 10
168.6005792209
 20
119.6505850376
 10
168.5638245755
 20
119.1896995724
 10
168.6732689479
 20
118.7391094127
 10
168.919188399
 20
118.3388511845
 10
169.2797322386
 20
118.0244907
 10
169.7228648328
 20
117.8239592546
 10
170.2092107945
 20
117.7550749117
  0
ARC
  5
140
330
1F
100
AcDbEntity
  8
0
  6
HIDDEN
 62
     7
370
     0
100
AcDbCircle
 10
163.0092105263
 20
87.1116642655
 30
0.0
 40
1.599999999999994
100
AcDbArc
 50
90.0
 51
180.0
  0
LINE
  5
141
330
1F
100
AcDbEntity
  8
0
  6
HIDDEN
 62
     7
370
     0
100
AcDbLine
 10
166.3992101887
 20
133.5089052291
 30
0.0
 11
166.3992101887
 21
129.6616638274
 31
0.0
  0
SPLINE
  5
142
330
1F
100
AcDbEntity
  8
0
  6
HIDDEN
 62
     7
370
     0
100
AcDbSpline
210
0.0
220
0.0
230
1.0
 70
     8
 71
     3
 72
    14
 73
    10
 74
     0
 42
0.000000001
 43
0.00000001
 40
0.0
 40
0.0
 40
0.0
 40
0.0
 40
0.25
 40
0.25
 40
0.5
 40
0.5
 40
0.75
 40
0.75
 40
1.0
 40
1.0
 40
1.0
 40
1.0
 10
169.4192105263157
 20
122.5941434555879
 30
0.0
 10
169.5168927774296
 20
122.6326657696203
 30
0.0
 10
169.6190062864669
 20
122.6702811290791
 30
0.0
 10
169.8111784576358
 20
122.741389854666
 30
0.0
 10
169.9025971309626
 20
122.7755959051701
 30
0.0
 10
170.0541131199769
 20
122.842485383527
 30
0.0
 10
170.1152603225158
 20
122.8757558460879
 30
0.0
 10
170.1979670242042
 20
122.9451541961817
 30
0.0
 10
170.2192105263157
 20
122.9809313017777
 30
0.0
 10
170.2192105263157
 20
123.0174266340284
 30
0.0
  0
LINE
  5
143
330
1F
100
AcDbEntity
  8
0
  6
HIDDEN
 62
     7
370
     0
100
AcDbLine
 10
170.219210405
 20
133.5089052291
 30
0.0
 11
170.219210405
 21
129.6616638274
 31
0.0
  0
LINE
  5
144
330
1F
100
AcDbEntity
  8
0
  6
HIDDEN
 62
     7
370
     0
100
AcDbLine
 10
170.219210405
 20
103.3103814543
 30
0.0
 11
170.219210405
 21
99.5516585381
 31
0.0
  0
SPLINE
  5
145
330
1F
100
AcDbEntity
  8
0
  6
HIDDEN
 62
     7
370
     0
100
AcDbSpline
210
0.0
220
0.0
230
1.0
 70
     8
 71
     3
 72
    14
 73
    10
 74
     0
 42
0.000000001
 43
0.00000001
 40
0.0
 40
0.0
 40
0.0
 40
0.0
 40
0.25
 40
0.25
 40
0.5
 40
0.5
 40
0.75
 40
0.75
 40
1.0
 40
1.0
 40
1.0
 40
1.0
 10
170.2192105263157
 20
119.2587031358094
 30
0.0
 10
170.2192105263157
 20
119.2222142049022
 30
0.0
 10
170.1980411501434
 20
119.1857154131684
 30
0.0
 10
170.1152955322911
 20
119.1203400654315
 30
0.0
 10
170.0544419074633
 20
119.0924032310851
 30
0.0
 10
169.9028370407723
 20
119.0585122018384
 30
0.0
 10
169.811614730305
 20
119.053086749252
 30
0.0
 10
169.6192841806017
 20
119.0740060730646
 30
0.0
 10
169.5170332961247
 20
119.100562220505
 30
0.0
 10
169.4192105263157
 20
119.1410319788108
 30
0.0
  0
LINE
  5
146
330
1F
100
AcDbEntity
  8
0
  6
HIDDEN
 62
     7
370
     0
100
AcDbLine
 10
164.7873739341
 20
137.221894619
 30
0.0
 11
164.7873739341
 21
129.6616638274
 31
0.0
  0
LINE
  5
147
330
1F
100
AcDbEntity
  8
0
  6
HIDDEN
 62
     7
370
     0
100
AcDbLine
 10
171.8310475909
 20
101.5596440256
 30
0.0
 11
171.8310475909
 21
99.3601646469
 31
0.0
  0
LINE
  5
148
330
1F
100
AcDbEntity
  8
0
  6
HIDDEN
 62
     7
370
     0
100
AcDbLine
 10
171.8310475909
 20
137.221894619
 30
0.0
 11
171.8310475909
 21
129.6616638274
 31
0.0
  0
LWPOLYLINE
  5
149
330
1F
100
AcDbEntity
  8
0
  6
HIDDEN
 62
     7
370
     0
100
AcDbPolyline
 90
       22
 70
   128
 43
0.0
 10
161.0409379565
 20
119.291710128
 10
161.1609342137
 20
118.9320394033
 10
161.3508546354
 20
118.6830531069
 10
161.5938241222
 20
118.566874341
 10
161.8682536857
 20
118.5938263507
 10
162.1497589723
 20
118.7615137742
 10
162.4133269863
 20
119.055037313
 10
162.6355386899
 20
119.4483157442
 10
162.7966495791
 20
119.906405379
 10
162.8823438288
 20
120.3886013673
 10
162.885007877
 20
120.8520600767
 10
162.8044047022
 20
121.2556002856
 10
162.6476961748
 20
121.5633660749
 10
162.4288064988
 20
121.7480110199
 10
162.167184949
 20
121.7931280107
 10
161.8860778027
 20
121.6947095663
 10
161.6104626657
 20
121.4614989431
 10
161.3648291306
 20
121.1142189995
 10
161.1710032077
 20
120.6837272466
 10
161.0462066812
 20
120.2082740338
 10
161.0015283433
 20
119.7301060156
 10
161.0409379565
 20
119.291710128
  0
SPLINE
  5
14A
330
1F
100
AcDbEntity
  8
0
  6
HIDDEN
 62
     7
370
     0
100
AcDbSpline
210
0.0
220
0.0
230
1.0
 70
     8
 71
     3
 72
    10
 73
     6
 74
     0
 42
0.000000001
 43
0.00000001
 40
0.0
 40
0.0
 40
0.0
 40
0.0
 40
0.5
 40
0.5
 40
1.0
 40
1.0
 40
1.0
 40
1.0
 10
168.2333197636753
 20
119.6400718323176
 30
0.0
 10
168.2177137126941
 20
119.5581625833901
 30
0.0
 10
168.2092092496655
 20
119.4668841020971
 30
0.0
 10
168.2092118032552
 20
119.2673670223229
 30
0.0
 10
168.2177093908557
 20
119.1635047889569
 30
0.0
 10
168.2333197636753
 20
119.0582034349486
 30
0.0
  0
SPLINE
  5
14B
330
1F
100
AcDbEntity
  8
0
  6
HIDDEN
 62
     7
370
     0
100
AcDbSpline
210
0.0
220
0.0
230
1.0
 70
     8
 71
     3
 72
    14
 73
    10
 74
     0
 42
0.000000001
 43
0.00000001
 40
0.0
 40
0.0
 40
0.0
 40
0.0
 40
0.25
 40
0.25
 40
0.5
 40
0.5
 40
0.75
 40
0.75
 40
1.0
 40
1.0
 40
1.0
 40
1.0
 10
168.2333197636753
 20
119.0582034349486
 30
0.0
 10
168.2696835917056
 20
119.0931049767732
 30
0.0
 10
168.3021613189157
 20
119.1319469612071
 30
0.0
 10
168.3509149483314
 20
119.2230259565135
 30
0.0
 10
168.365818726006
 20
119.2751689905763
 30
0.0
 10
168.3658291596636
 20
119.3840534813451
 30
0.0
 10
168.3509388638554
 20
119.440675708759
 30
0.0
 10
168.3020499329778
 20
119.5463991341778
 30
0.0
 10
168.2696777547075
 20
119.5945844995601
 30
0.0
 10
168.2333197636753
 20
119.6400718323176
 30
0.0
  0
LWPOLYLINE
  5
14C
330
1F
100
AcDbEntity
  8
0
  6
HIDDEN
 62
     7
370
     0
100
AcDbPolyline
 90
       23
 70
   128
 43
0.0
 10
168.2333196142
 20
119.0582033441
 10
168.3887014725
 20
118.5709805422
 10
168.6774245092
 20
118.1407532849
 10
169.0783421138
 20
117.7990333372
 10
169.5620887541
 20
117.5708495275
 10
170.0932341256
 20
117.4729149052
 10
170.6328740903
 20
117.5124029824
 10
171.1414823869
 20
117.6864210711
 10
171.5818079748
 20
117.9822235563
 10
171.9215982222
 20
118.3781446152
 10
172.1359663272
 20
118.8451851913
 10
172.209210191
 20
119.3491373406
 10
172.1359663272
 20
119.8530899555
 10
171.9215982222
 20
120.3201305316
 10
171.5818079748
 20
120.7160515905
 10
171.1414823869
 20
121.0118545414
 10
170.6328740903
 20
121.1858721645
 10
170.0932341256
 20
121.2253602416
 10
169.5620887541
 20
121.127426085
 10
169.0783421138
 20
120.8992418096
 10
168.6774245092
 20
120.5575218619
 10
168.3887014725
 20
120.1272946046
 10
168.2333196142
 20
119.6400722683
  0
SPLINE
  5
14D
330
1F
100
AcDbEntity
  8
0
  6
HIDDEN
 62
     7
370
     0
100
AcDbSpline
210
0.0
220
0.0
230
1.0
 70
     8
 71
     3
 72
    12
 73
     8
 74
     0
 42
0.000000001
 43
0.00000001
 40
0.0
 40
0.0
 40
0.0
 40
0.0
 40
0.2500000000000008
 40
0.2500000000000008
 40
0.5000000000000017
 40
0.5000000000000017
 40
1.0
 40
1.0
 40
1.0
 40
1.0
 10
171.8310471683724
 20
123.2631640636868
 30
0.0
 10
171.953994662168
 20
123.1052072149918
 30
0.0
 10
172.0475388652769
 20
122.9333738480142
 30
0.0
 10
172.1764782544391
 20
122.5617011383684
 30
0.0
 10
172.2090310118242
 20
122.3685126921771
 30
0.0
 10
172.209567353558
 20
121.7802161539009
 30
0.0
 10
172.07694369659
 20
121.3881979160122
 30
0.0
 10
171.8310471683724
 20
121.0636843333035
 30
0.0
  0
SPLINE
  5
14E
330
1F
100
AcDbEntity
  8
0
  6
HIDDEN
 62
     7
370
     0
100
AcDbSpline
210
0.0
220
0.0
230
1.0
 70
     8
 71
     3
 72
    12
 73
     8
 74
     0
 42
0.000000001
 43
0.00000001
 40
0.0
 40
0.0
 40
0.0
 40
0.0
 40
0.2500000000000003
 40
0.2500000000000003
 40
0.5000000000000007
 40
0.5000000000000007
 40
1.0
 40
1.0
 40
1.0
 40
1.0
 10
171.8310471683724
 20
121.0636843333035
 30
0.0
 10
171.7161511171118
 20
120.8439438982469
 30
0.0
 10
171.5893851006391
 20
120.6469755466252
 30
0.0
 10
171.3291701670206
 20
120.2932579737863
 30
0.0
 10
171.1956627090584
 20
120.1364326799141
 30
0.0
 10
170.7872644404702
 20
119.7098901090064
 30
0.0
 10
170.5036113055326
 20
119.4831979300511
 30
0.0
 10
170.2192105263159
 20
119.3129467856557
 30
0.0
  0
SPLINE
  5
14F
330
1F
100
AcDbEntity
  8
0
  6
HIDDEN
 62
     7
370
     0
100
AcDbSpline
210
0.0
220
0.0
230
1.0
 70
     8
 71
     3
 72
    12
 73
     8
 74
     0
 42
0.000000001
 43
0.00000001
 40
0.0
 40
0.0
 40
0.0
 40
0.0
 40
0.4999999999999987
 40
0.4999999999999987
 40
0.7499999999999993
 40
0.7499999999999993
 40
1.0
 40
1.0
 40
1.0
 40
1.0
 10
170.2192105263157
 20
123.0716702838767
 30
0.0
 10
170.503417060881
 20
123.2391344461705
 30
0.0
 10
170.7821127949848
 20
123.3507715456821
 30
0.0
 10
171.1914588381741
 20
123.4180848113214
 30
0.0
 10
171.3275981754936
 20
123.4232358513354
 30
0.0
 10
171.5889182244897
 20
123.385469913716
 30
0.0
 10
171.7143394069214
 20
123.3439201553718
 30
0.0
 10
171.8310471683729
 20
123.2631640636889
 30
0.0
  0
SPLINE
  5
150
330
1F
100
AcDbEntity
  8
0
  6
HIDDEN
 62
     7
370
     0
100
AcDbSpline
210
0.0
220
0.0
230
1.0
 70
     8
 71
     3
 72
    22
 73
    18
 74
     0
 42
0.000000001
 43
0.00000001
 40
0.0
 40
0.0
 40
0.0
 40
0.0
 40
0.125
 40
0.125
 40
0.25
 40
0.25
 40
0.375
 40
0.375
 40
0.5
 40
0.5
 40
0.625
 40
0.625
 40
0.75
 40
0.75
 40
0.875
 40
0.875
 40
1.0
 40
1.0
 40
1.0
 40
1.0
 10
169.4192105263157
 20
119.1410319788107
 30
0.0
 10
169.2391938317463
 20
119.2155057657873
 30
0.0
 10
169.074762009876
 20
119.3129550277714
 30
0.0
 10
168.7763657761174
 20
119.5523244613357
 30
0.0
 10
168.6460620487526
 20
119.6922210734061
 30
0.0
 10
168.4328432651336
 20
120.0004726634664
 30
0.0
 10
168.3492154080221
 20
120.1706358815856
 30
0.0
 10
168.2380845311039
 20
120.5211306163761
 30
0.0
 10
168.2092485362502
 20
120.7062555775274
 30
0.0
 10
168.2091725935906
 20
121.0694624521447
 30
0.0
 10
168.2378312190178
 20
121.2528324658522
 30
0.0
 10
168.3489823121305
 20
121.5987235783455
 30
0.0
 10
168.4320494327744
 20
121.764243105613
 30
0.0
 10
168.6457353908932
 20
122.0647828430167
 30
0.0
 10
168.7747423808175
 20
122.1986547643008
 30
0.0
 10
169.074351660307
 20
122.4299015337049
 30
0.0
 10
169.2391943585662
 20
122.5231516503637
 30
0.0
 10
169.4192105263157
 20
122.594143455588
 30
0.0
  0
LWPOLYLINE
  5
151
330
1F
100
AcDbEntity
  8
0
  6
HIDDEN
 62
     7
370
     0
100
AcDbPolyline
 90
       24
 70
   128
 43
0.0
 10
160.6594221295
 20
119.0822016642
 10
160.7950774116
 20
118.6591609576
 10
161.0062808824
 20
118.351127413
 10
161.2773686276
 20
118.1809463733
 10
161.5882347898
 20
118.1612400533
 10
161.9158242458
 20
118.2934696981
 10
162.2358415836
 20
118.567828481
 10
162.5245520474
 20
118.9639684007
 10
162.7605431342
 20
119.4525094897
 10
162.9263129645
 20
119.9972186432
 10
163.0095671491
 20
120.5576978818
 10
163.0041305536
 20
121.0923794852
 10
162.9104069063
 20
121.5616068066
 10
162.7353471332
 20
121.9305809782
 10
162.4919343368
 20
122.1719360174
 10
162.1982217395
 20
122.2677719043
 10
161.8759925106
 20
122.210980785
 10
161.549144853
 20
122.0057759629
 10
161.2419196964
 20
121.6673743174
 10
160.9771020805
 20
121.2208759234
 10
160.7743328997
 20
120.6993930236
 10
160.6486504526
 20
120.1416034446
 10
160.6093758811
 20
119.5888756038
 10
160.6594221295
 20
119.0822016642
  0
LWPOLYLINE
  5
152
330
1F
100
AcDbEntity
  8
0
  6
HIDDEN
 62
     7
370
     0
100
AcDbPolyline
 90
       16
 70
   128
 43
0.0
 10
168.2181129792
 20
101.8657883824
 10
168.2092132607
 20
102.0461846338
 10
168.2843169757
 20
102.553114687
 10
168.5021803343
 20
103.0222060353
 10
168.8466467523
 20
103.4186681927
 10
169.2921672576
 20
103.7130969771
 10
169.8057022506
 20
103.8836561338
 10
170.3491625005
 20
103.9176964396
 10
170.8822431603
 20
103.8126930789
 10
171.3654086554
 20
103.5764337712
 10
171.7628244871
 20
103.2264404193
 10
172.0450152272
 20
102.7886713118
 10
172.1910531261
 20
102.2955918879
 10
172.1901059711
 20
101.7837733225
 10
172.0422454738
 20
101.291174461
 10
172.0212478751
 20
101.2474926383
  0
ARC
  5
153
330
1F
100
AcDbEntity
  8
0
  6
HIDDEN
 62
     7
370
     0
100
AcDbCircle
 10
170.187273649
 20
101.9507315456
 30
0.0
 40
1.885998069535177
100
AcDbArc
 50
341.3785197982
 51
159.3019084569
  0
ARC
  5
154
330
1F
100
AcDbEntity
  8
0
  6
HIDDEN
 62
     7
370
     0
100
AcDbCircle
 10
170.2650949293
 20
101.9804417917
 30
0.0
 40
1.439377785570544
100
AcDbArc
 50
353.3451566647
 51
92.710657707
  0
LWPOLYLINE
  5
155
330
1F
100
AcDbEntity
  8
0
  6
HIDDEN
 62
     7
370
     0
100
AcDbPolyline
 90
       24
 70
   128
 43
0.0
 10
168.2092132607
 20
102.1829921947
 10
168.2843169757
 20
102.6899222479
 10
168.5021803343
 20
103.1590135963
 10
168.8466467523
 20
103.5554757536
 10
169.2921672576
 20
103.8499050037
 10
169.8057022506
 20
104.0204641604
 10
170.3491625005
 20
104.0545044661
 10
170.8822431603
 20
103.9495015711
 10
171.3654086554
 20
103.7132417978
 10
171.7628244871
 20
103.3632489116
 10
172.0450152272
 20
102.9254788727
 10
172.1910531261
 20
102.4324003802
 10
172.1901059711
 20
101.9205818147
 10
172.0422454738
 20
101.4279829533
 10
171.7584370264
 20
100.9911377177
 10
171.3597303816
 20
100.6424440266
 10
170.8756940999
 20
100.4077637763
 10
170.3422278726
 20
100.3045024545
 10
169.7988961452
 20
100.3403173954
 10
169.2859963143
 20
100.5125533984
 10
168.8415663877
 20
100.8084355117
 10
168.4985686654
 20
101.2060199127
 10
168.2824412921
 20
101.6758199976
 10
168.2092132607
 20
102.1829921947
  0
LWPOLYLINE
  5
156
330
1F
100
AcDbEntity
  8
0
  6
HIDDEN
 62
     7
370
     0
100
AcDbPolyline
 90
       21
 70
   128
 43
0.0
 10
168.7092124113
 20
103.0146446274
 10
168.7834332326
 20
103.4500947417
 10
168.9972192609
 20
103.8426812001
 10
169.3296427467
 20
104.1539739081
 10
169.7481651419
 20
104.3535009221
 10
170.2118175664
 20
104.4217314766
 10
170.6752148086
 20
104.3519870573
 10
171.092995871
 20
104.1510942587
 10
171.4242663794
 20
103.8387179569
 10
171.6365986132
 20
103.4454362662
 10
171.7092082464
 20
103.0097449393
 10
171.6349874252
 20
102.574294825
 10
171.4212023282
 20
102.1817079008
 10
171.088777911
 20
101.8704161243
 10
170.6702564472
 20
101.6708886445
 10
170.2066040227
 20
101.6026580901
 10
169.7432067805
 20
101.672402975
 10
169.3254247868
 20
101.8732948423
 10
168.9941542783
 20
102.1856716097
 10
168.7818220445
 20
102.5789533005
 10
168.7092124113
 20
103.0146446274
  0
LWPOLYLINE
  5
157
330
1F
100
AcDbEntity
  8
0
  6
HIDDEN
 62
     7
370
     0
100
AcDbPolyline
 90
       24
 70
   128
 43
0.0
 10
168.2092132607
 20
102.3753782929
 10
168.2843169757
 20
102.8823092774
 10
168.5021803343
 20
103.3513996945
 10
168.8466467523
 20
103.7478623175
 10
169.2921672576
 20
104.0422911019
 10
169.8057022506
 20
104.2128507242
 10
170.3491625005
 20
104.24689103
 10
170.8822431603
 20
104.1418876694
 10
171.3654086554
 20
103.9056283616
 10
171.7628244871
 20
103.5556350098
 10
172.0450152272
 20
103.1178649709
 10
172.1910531261
 20
102.6247864784
 10
172.1901059711
 20
102.1129679129
 10
172.0422454738
 20
101.6203690515
 10
171.7584370264
 20
101.183523816
 10
171.3597303816
 20
100.8348301248
 10
170.8756940999
 20
100.6001508058
 10
170.3422278726
 20
100.4968885527
 10
169.7988961452
 20
100.5327034936
 10
169.2859963143
 20
100.7049394966
 10
168.8415663877
 20
101.0008216099
 10
168.4985686654
 20
101.398406011
 10
168.2824412921
 20
101.8682060958
 10
168.2092132607
 20
102.3753782929
  0
LWPOLYLINE
  5
158
330
1F
100
AcDbEntity
  8
0
  6
HIDDEN
 62
     7
370
     0
100
AcDbPolyline
 90
       23
 70
   128
 43
0.0
 10
168.3692135477
 20
102.3270212308
 10
168.4446469509
 20
102.8140237749
 10
168.6630346441
 20
103.2613286943
 10
169.0066852235
 20
103.6326986932
 10
169.4477568009
 20
103.8980469302
 10
169.9505163917
 20
104.0358766177
 10
170.4742344656
 20
104.0350211979
 10
170.976481829
 20
103.8955505201
 10
171.4165689984
 20
103.6287638553
 10
171.7588430831
 20
103.2562734754
 10
171.975575816
 20
102.8082579569
 10
172.0492080414
 20
102.3210114063
 10
171.9737737068
 20
101.8340088622
 10
171.7553860137
 20
101.3867030115
 10
171.4117363655
 20
101.0153334782
 10
170.9706647882
 20
100.7499857069
 10
170.4679042661
 20
100.6121555538
 10
169.9441871234
 20
100.6130114392
 10
169.4419397601
 20
100.7524816514
 10
169.0018516594
 20
101.0192683161
 10
168.6595775747
 20
101.3917582304
 10
168.4428448417
 20
101.8397746802
 10
168.3692135477
 20
102.3270212308
  0
LWPOLYLINE
  5
159
330
1F
100
AcDbEntity
  8
0
  6
HIDDEN
 62
     7
370
     0
100
AcDbPolyline
 90
       24
 70
   128
 43
0.0
 10
168.2092132607
 20
102.5677653224
 10
168.2843169757
 20
103.0746953756
 10
168.5021803343
 20
103.5437862583
 10
168.8466467523
 20
103.9402484157
 10
169.2921672576
 20
104.2346776658
 10
169.8057022506
 20
104.4052368225
 10
170.3491625005
 20
104.4392771282
 10
170.8822431603
 20
104.3342742332
 10
171.3654086554
 20
104.0980144598
 10
171.7628244871
 20
103.748021108
 10
172.0450152272
 20
103.3102520005
 10
172.1910531261
 20
102.8171725766
 10
172.1901059711
 20
102.3053540111
 10
172.0422454738
 20
101.8127551497
 10
171.7584370264
 20
101.3759099142
 10
171.3597303816
 20
101.0272171543
 10
170.8756940999
 20
100.792536904
 10
170.3422278726
 20
100.6892746509
 10
169.7988961452
 20
100.7250905231
 10
169.2859963143
 20
100.8973255948
 10
168.8415663877
 20
101.1932077081
 10
168.4985686654
 20
101.5907930405
 10
168.2824412921
 20
102.060592194
 10
168.2092132607
 20
102.5677653224
  0
LWPOLYLINE
  5
15A
330
1F
100
AcDbEntity
  8
0
  6
HIDDEN
 62
     7
370
     0
100
AcDbPolyline
 90
       23
 70
   128
 43
0.0
 10
168.3692135477
 20
102.519407329
 10
168.4446469509
 20
103.0064098732
 10
168.6630346441
 20
103.4537157238
 10
169.0066852235
 20
103.8250852571
 10
169.4477568009
 20
104.0904334941
 10
169.9505163917
 20
104.2282627159
 10
170.4742344656
 20
104.2274077617
 10
170.976481829
 20
104.0879370839
 10
171.4165689984
 20
103.8211499535
 10
171.7588430831
 20
103.4486605049
 10
171.975575816
 20
103.0006440551
 10
172.0492080414
 20
102.5133975045
 10
171.9737737068
 20
102.0263949604
 10
171.7553860137
 20
101.579090041
 10
171.4117363655
 20
101.2077195764
 10
170.9706647882
 20
100.9423718051
 10
170.4679042661
 20
100.8045425833
 10
169.9441871234
 20
100.8053975374
 10
169.4419397601
 20
100.9448677496
 10
169.0018516594
 20
101.2116553456
 10
168.6595775747
 20
101.5841452599
 10
168.4428448417
 20
102.0321607784
 10
168.3692135477
 20
102.519407329
  0
LWPOLYLINE
  5
15B
330
1F
100
AcDbEntity
  8
0
  6
HIDDEN
 62
     7
370
     0
100
AcDbPolyline
 90
       24
 70
   128
 43
0.0
 10
168.2092132607
 20
102.7601514206
 10
168.2843169757
 20
103.2670814739
 10
168.5021803343
 20
103.7361728222
 10
168.8466467523
 20
104.1326349796
 10
169.2921672576
 20
104.427063764
 10
169.8057022506
 20
104.5976233863
 10
170.3491625005
 20
104.6316636921
 10
170.8822431603
 20
104.5266603314
 10
171.3654086554
 20
104.2904010237
 10
171.7628244871
 20
103.9404076719
 10
172.0450152272
 20
103.5026380987
 10
172.1910531261
 20
103.0095596061
 10
172.1901059711
 20
102.4977410407
 10
172.0422454738
 20
102.0051421792
 10
171.7584370264
 20
101.5682960124
 10
171.3597303816
 20
101.2196032525
 10
170.8756940999
 20
100.9849230022
 10
170.3422278726
 20
100.8816616804
 10
169.7988961452
 20
100.9174766214
 10
169.2859963143
 20
101.089711693
 10
168.8415663877
 20
101.3855947376
 10
168.4985686654
 20
101.7831791387
 10
168.2824412921
 20
102.2529792235
 10
168.2092132607
 20
102.7601514206
  0
LWPOLYLINE
  5
15C
330
1F
100
AcDbEntity
  8
0
  6
HIDDEN
 62
     7
370
     0
100
AcDbPolyline
 90
       23
 70
   128
 43
0.0
 10
168.3692135477
 20
102.7117934273
 10
168.4446469509
 20
103.1987959714
 10
168.6630346441
 20
103.646101822
 10
169.0066852235
 20
104.0174713553
 10
169.4477568009
 20
104.2828195923
 10
169.9505163917
 20
104.4206492797
 10
170.4742344656
 20
104.41979386
 10
170.976481829
 20
104.2803231821
 10
171.4165689984
 20
104.0135365174
 10
171.7588430831
 20
103.6410466031
 10
171.975575816
 20
103.1930301533
 10
172.0492080414
 20
102.705784534
 10
171.9737737068
 20
102.2187810586
 10
171.7553860137
 20
101.7714761392
 10
171.4117363655
 20
101.400106606
 10
170.9706647882
 20
101.1347579033
 10
170.4679042661
 20
100.9969286815
 10
169.9441871234
 20
100.9977836356
 10
169.4419397601
 20
101.1372547791
 10
169.0018516594
 20
101.4040414439
 10
168.6595775747
 20
101.7765313581
 10
168.4428448417
 20
102.2245468766
 10
168.3692135477
 20
102.7117934273
  0
LWPOLYLINE
  5
15D
330
1F
100
AcDbEntity
  8
0
  6
HIDDEN
 62
     7
370
     0
100
AcDbPolyline
 90
       24
 70
   128
 43
0.0
 10
168.2092132607
 20
102.9525375188
 10
168.2843169757
 20
103.4594675721
 10
168.5021803343
 20
103.9285589204
 10
168.8466467523
 20
104.3250210778
 10
169.2921672576
 20
104.6194503278
 10
169.8057022506
 20
104.7900094845
 10
170.3491625005
 20
104.8240497903
 10
170.8822431603
 20
104.7190468953
 10
171.3654086554
 20
104.4827871219
 10
171.7628244871
 20
104.1327937701
 10
172.0450152272
 20
103.6950241969
 10
172.1910531261
 20
103.2019457043
 10
172.1901059711
 20
102.6901271389
 10
172.0422454738
 20
102.1975282774
 10
171.7584370264
 20
101.7606830419
 10
171.3597303816
 20
101.4119893507
 10
170.8756940999
 20
101.1773091004
 10
170.3422278726
 20
101.0740477786
 10
169.7988961452
 20
101.1098627196
 10
169.2859963143
 20
101.2820987225
 10
168.8415663877
 20
101.5779808358
 10
168.4985686654
 20
101.9755652369
 10
168.2824412921
 20
102.4453653217
 10
168.2092132607
 20
102.9525375188
  0
LWPOLYLINE
  5
15E
330
1F
100
AcDbEntity
  8
0
  6
HIDDEN
 62
     7
370
     0
100
AcDbPolyline
 90
       23
 70
   128
 43
0.0
 10
168.3692135477
 20
102.9041795255
 10
168.4446469509
 20
103.3911830009
 10
168.6630346441
 20
103.8384879203
 10
169.0066852235
 20
104.2098579192
 10
169.4477568009
 20
104.4752061562
 10
169.9505163917
 20
104.6130353779
 10
170.4742344656
 20
104.6121804238
 10
170.976481829
 20
104.472709746
 10
171.4165689984
 20
104.2059226156
 10
171.7588430831
 20
103.8334327013
 10
171.975575816
 20
103.3854171828
 10
172.0492080414
 20
102.8981706322
 10
171.9737737068
 20
102.4111680881
 10
171.7553860137
 20
101.9638622374
 10
171.4117363655
 20
101.5924927042
 10
170.9706647882
 20
101.3271440015
 10
170.4679042661
 20
101.1893147797
 10
169.9441871234
 20
101.1901697338
 10
169.4419397601
 20
101.3296408773
 10
169.0018516594
 20
101.5964275421
 10
168.6595775747
 20
101.9689174564
 10
168.4428448417
 20
102.4169339062
 10
168.3692135477
 20
102.9041795255
  0
LWPOLYLINE
  5
15F
330
1F
100
AcDbEntity
  8
0
  6
HIDDEN
 62
     7
370
     0
100
AcDbPolyline
 90
       24
 70
   128
 43
0.0
 10
168.2092132607
 20
103.2774564073
 10
168.2843169757
 20
103.7843869262
 10
168.5021803343
 20
104.2534782746
 10
168.8466467523
 20
104.6499404319
 10
169.2921672576
 20
104.9443692163
 10
169.8057022506
 20
105.1149288387
 10
170.3491625005
 20
105.1489691445
 10
170.8822431603
 20
105.0439657838
 10
171.3654086554
 20
104.8077064761
 10
171.7628244871
 20
104.4577131242
 10
172.0450152272
 20
104.0199435511
 10
172.1910531261
 20
103.5268645928
 10
172.1901059711
 20
103.0150460274
 10
172.0422454738
 20
102.5224471659
 10
171.7584370264
 20
102.0856019304
 10
171.3597303816
 20
101.7369082392
 10
170.8756940999
 20
101.5022289202
 10
170.3422278726
 20
101.3989666671
 10
169.7988961452
 20
101.4347816081
 10
169.2859963143
 20
101.6070176111
 10
168.8415663877
 20
101.9028997243
 10
168.4985686654
 20
102.3004841254
 10
168.2824412921
 20
102.7702842102
 10
168.2092132607
 20
103.2774564073
  0
LWPOLYLINE
  5
160
330
1F
100
AcDbEntity
  8
0
  6
HIDDEN
 62
     7
370
     0
100
AcDbPolyline
 90
       21
 70
   128
 43
0.0
 10
168.7288279274
 20
103.3792145745
 10
168.8020783105
 20
103.8089710482
 10
169.0130675772
 20
104.196423591
 10
169.3411445805
 20
104.5036450223
 10
169.7541935929
 20
104.7005629362
 10
170.2117831075
 20
104.7679012836
 10
170.6691202336
 20
104.6990690947
 10
171.0814390891
 20
104.5008030915
 10
171.408377085
 20
104.1925120362
 10
171.6179330462
 20
103.804372643
 10
171.6895927304
 20
103.3743791477
 10
171.6163432786
 20
102.9446231396
 10
171.4053530806
 20
102.5571705968
 10
171.0772760772
 20
102.2499486999
 10
170.6642270648
 20
102.053030786
 10
170.2066375503
 20
101.9856924386
 10
169.7493004241
 20
102.0545246274
 10
169.3369824999
 20
102.2527910964
 10
169.0100435728
 20
102.5610821516
 10
168.8004885429
 20
102.9492210791
 10
168.7288279274
 20
103.3792145745
  0
LWPOLYLINE
  5
161
330
1F
100
AcDbEntity
  8
0
  6
HIDDEN
 62
     7
370
     0
100
AcDbPolyline
 90
       21
 70
   128
 43
0.0
 10
170.2228760907
 20
117.855484058
 10
170.6796516293
 20
117.9275353634
 10
171.0903769919
 20
118.1286987112
 10
171.4148479142
 20
118.4392831483
 10
171.6213025713
 20
118.8288870462
 10
171.6895321944
 20
119.2593727455
 10
171.6128573382
 20
119.6886016251
 10
171.3987835312
 20
120.0745575325
 10
171.0682664627
 20
120.3794604362
 10
170.6536584162
 20
120.5734642417
 10
170.1955445671
 20
120.6375792817
 10
169.7387690285
 20
120.5655284421
 10
169.3280436659
 20
120.3643646286
 10
169.0035727435
 20
120.0537797258
 10
168.7971180865
 20
119.6641758279
 10
168.7288884633
 20
119.2336905942
 10
168.8055642509
 20
118.804461249
 10
169.0196371266
 20
118.4185053416
 10
169.3501551264
 20
118.1136024379
 10
169.7647622415
 20
117.9195986324
 10
170.2228760907
 20
117.855484058
  0
LWPOLYLINE
  5
162
330
1F
100
AcDbEntity
  8
0
  6
HIDDEN
 62
     7
370
     0
100
AcDbPolyline
 90
       24
 70
   128
 43
0.0
 10
170.2276724019
 20
117.4698326931
 10
170.7665589267
 20
117.5442029917
 10
171.2641086989
 20
117.7524369405
 10
171.683421787
 20
118.0790908829
 10
171.9933994674
 20
118.4999387906
 10
172.1710511112
 20
118.9837673874
 10
172.2032031604
 20
119.4946946771
 10
172.0874695667
 20
119.9948260755
 10
171.8324343303
 20
120.4470688672
 10
171.4570116812
 20
120.8178842635
 10
170.9890453705
 20
121.0797693775
 10
170.4632420653
 20
121.2133014769
 10
169.9185990357
 20
121.2085768775
 10
169.3955086732
 20
121.0659457565
 10
168.9327670821
 20
120.7959870071
 10
168.5646934995
 20
120.418722202
 10
168.3185868525
 20
119.9621319965
 10
168.2126982698
 20
119.460077417
 10
168.2548815944
 20
118.9497959995
 10
168.4420094454
 20
118.4691315711
 10
168.7602023223
 20
118.0537328319
 10
169.1858614424
 20
117.7344088637
 10
169.6874177643
 20
117.5348418028
 10
170.2276724019
 20
117.4698326931
  0
LWPOLYLINE
  5
163
330
1F
100
AcDbEntity
  8
0
  6
HIDDEN
 62
     7
370
     0
100
AcDbPolyline
 90
       24
 70
   128
 43
0.0
 10
170.2276724019
 20
117.7947515816
 10
170.7665589267
 20
117.8691218802
 10
171.2641086989
 20
118.0773562946
 10
171.683421787
 20
118.4040102371
 10
171.9933994674
 20
118.8248576791
 10
172.1710511112
 20
119.3086862759
 10
172.2032031604
 20
119.8196135656
 10
172.0874695667
 20
120.319744964
 10
171.8324343303
 20
120.771988687
 10
171.4570116812
 20
121.142803152
 10
170.9890453705
 20
121.404688266
 10
170.4632420653
 20
121.5382203654
 10
169.9185990357
 20
121.533495766
 10
169.3955086732
 20
121.390864645
 10
168.9327670821
 20
121.1209068269
 10
168.5646934995
 20
120.7436420218
 10
168.3185868525
 20
120.287050885
 10
168.2126982698
 20
119.7849972368
 10
168.2548815944
 20
119.2747153536
 10
168.4420094454
 20
118.7940504596
 10
168.7602023223
 20
118.378652186
 10
169.1858614424
 20
118.0593277522
 10
169.6874177643
 20
117.8597606913
 10
170.2276724019
 20
117.7947515816
  0
LWPOLYLINE
  5
164
330
1F
100
AcDbEntity
  8
0
  6
HIDDEN
 62
     7
370
     0
100
AcDbPolyline
 90
       21
 70
   128
 43
0.0
 10
170.2230567673
 20
119.2051334501
 10
170.6858849713
 20
119.2781388954
 10
171.102052983
 20
119.4819681541
 10
171.4308228904
 20
119.79666764
 10
171.6400137731
 20
120.191433859
 10
171.7091467791
 20
120.6276234434
 10
171.63145585
 20
121.0625399099
 10
171.4145452344
 20
121.4536097095
 10
171.0796490872
 20
121.7625526906
 10
170.6595471689
 20
121.9591269464
 10
170.1953638905
 20
122.0240913526
 10
169.7325356865
 20
121.9510859073
 10
169.3163676747
 20
121.7472566486
 10
168.9875977674
 20
121.4325562314
 10
168.778407816
 20
121.0377900124
 10
168.7092748099
 20
120.601600428
 10
168.7869657391
 20
120.1666848929
 10
169.0038754233
 20
119.7756150932
 10
169.3387725019
 20
119.4666721121
 10
169.7588734889
 20
119.270096925
 10
170.2230567673
 20
119.2051334501
  0
LWPOLYLINE
  5
165
330
1F
100
AcDbEntity
  8
0
  6
HIDDEN
 62
     7
370
     0
100
AcDbPolyline
 90
       21
 70
   128
 43
0.0
 10
170.2230567673
 20
118.2016547964
 10
170.6858849713
 20
118.2746602417
 10
171.102052983
 20
118.4784895004
 10
171.4308228904
 20
118.7931894519
 10
171.6400137731
 20
119.1879552052
 10
171.7091467791
 20
119.624145721
 10
171.63145585
 20
120.0590612561
 10
171.4145452344
 20
120.4501310558
 10
171.0796490872
 20
120.7590740369
 10
170.6595471689
 20
120.9556482927
 10
170.1953638905
 20
121.0206126989
 10
169.7325356865
 20
120.9476072536
 10
169.3163676747
 20
120.7437779949
 10
168.9875977674
 20
120.429078509
 10
168.778407816
 20
120.03431229
 10
168.7092748099
 20
119.5981217743
 10
168.7869657391
 20
119.1632062391
 10
169.0038754233
 20
118.7721364395
 10
169.3387725019
 20
118.4631934584
 10
169.7588734889
 20
118.2666187369
 10
170.2230567673
 20
118.2016547964
  0
LWPOLYLINE
  5
166
330
1F
100
AcDbEntity
  8
0
  6
HIDDEN
 62
     7
370
     0
100
AcDbPolyline
 90
       24
 70
   128
 43
0.0
 10
170.2276724019
 20
117.9871381455
 10
170.7665589267
 20
118.061508444
 10
171.2641086989
 20
118.2697423928
 10
171.683421787
 20
118.5963963353
 10
171.9933994674
 20
119.017244243
 10
172.1710511112
 20
119.5010733054
 10
172.2032031604
 20
120.0119996638
 10
172.0874695667
 20
120.5121310622
 10
171.8324343303
 20
120.9643747852
 10
171.4570116812
 20
121.3351901815
 10
170.9890453705
 20
121.5970743642
 10
170.4632420653
 20
121.7306064636
 10
169.9185990357
 20
121.7258818642
 10
169.3955086732
 20
121.5832516746
 10
168.9327670821
 20
121.3132929251
 10
168.5646934995
 20
120.93602812
 10
168.3185868525
 20
120.4794369833
 10
168.2126982698
 20
119.977383335
 10
168.2548815944
 20
119.4671014518
 10
168.4420094454
 20
118.9864370235
 10
168.7602023223
 20
118.5710382842
 10
169.1858614424
 20
118.2517143161
 10
169.6874177643
 20
118.0521472552
 10
170.2276724019
 20
117.9871381455
  0
LWPOLYLINE
  5
167
330
1F
100
AcDbEntity
  8
0
  6
HIDDEN
 62
     7
370
     0
100
AcDbPolyline
 90
       23
 70
   128
 43
0.0
 10
170.2261953243
 20
117.9931926736
 10
170.7438737714
 20
118.0677245566
 10
171.2182364055
 20
118.2762881935
 10
171.610853132
 20
118.6019870647
 10
171.8899183535
 20
119.0184354045
 10
172.0328214207
 20
119.4918951214
 10
172.0279869252
 20
119.9840087638
 10
171.8758060226
 20
120.4549078093
 10
171.588607561
 20
120.8664443538
 10
171.1896587723
 20
121.1852770493
 10
170.7112793439
 20
121.3855756641
 10
170.1922253334
 20
121.451113765
 10
169.6745478177
 20
121.3765828133
 10
169.2001851836
 20
121.1680187107
 10
168.8075675258
 20
120.8423193739
 10
168.5285032355
 20
120.4258710341
 10
168.3855992371
 20
119.9524117828
 10
168.3904337325
 20
119.4602981404
 10
168.5426146352
 20
118.9893986293
 10
168.8298130968
 20
118.5778625504
 10
169.2287628168
 20
118.2590298549
 10
169.7071422451
 20
118.0587307745
 10
170.2261953243
 20
117.9931926736
  0
LWPOLYLINE
  5
168
330
1F
100
AcDbEntity
  8
0
  6
HIDDEN
 62
     7
370
     0
100
AcDbPolyline
 90
       24
 70
   128
 43
0.0
 10
170.2276724019
 20
118.1795242437
 10
170.7665589267
 20
118.2538945422
 10
171.2641086989
 20
118.4621289567
 10
171.683421787
 20
118.7887828992
 10
171.9933994674
 20
119.2096308068
 10
172.1710511112
 20
119.6934594036
 10
172.2032031604
 20
120.204385762
 10
172.0874695667
 20
120.7045171604
 10
171.8324343303
 20
121.1567608834
 10
171.4570116812
 20
121.5275762797
 10
170.9890453705
 20
121.7894613937
 10
170.4632420653
 20
121.9229925618
 10
169.9185990357
 20
121.9182679624
 10
169.3955086732
 20
121.7756377728
 10
168.9327670821
 20
121.5056790234
 10
168.5646934995
 20
121.1284142182
 10
168.3185868525
 20
120.6718230815
 10
168.2126982698
 20
120.1697694332
 10
168.2548815944
 20
119.65948755
 10
168.4420094454
 20
119.1788235874
 10
168.7602023223
 20
118.7634248481
 10
169.1858614424
 20
118.4441004143
 10
169.6874177643
 20
118.2445333534
 10
170.2276724019
 20
118.1795242437
  0
LWPOLYLINE
  5
169
330
1F
100
AcDbEntity
  8
0
  6
HIDDEN
 62
     7
370
     0
100
AcDbPolyline
 90
       23
 70
   128
 43
0.0
 10
170.2261953243
 20
118.1855787718
 10
170.7438737714
 20
118.2601106548
 10
171.2182364055
 20
118.4686742918
 10
171.610853132
 20
118.7943736286
 10
171.8899183535
 20
119.2108219684
 10
172.0328214207
 20
119.6842812196
 10
172.0279869252
 20
120.176394862
 10
171.8758060226
 20
120.6472948388
 10
171.588607561
 20
121.0588304521
 10
171.1896587723
 20
121.3776631475
 10
170.7112793439
 20
121.5779617623
 10
170.1922253334
 20
121.6435007946
 10
169.6745478177
 20
121.5689689116
 10
169.2001851836
 20
121.3604048089
 10
168.8075675258
 20
121.0347054721
 10
168.5285032355
 20
120.6182571323
 10
168.3855992371
 20
120.144797881
 10
168.3904337325
 20
119.6526842386
 10
168.5426146352
 20
119.1817851932
 10
168.8298130968
 20
118.7702486486
 10
169.2287628168
 20
118.4514164188
 10
169.7071422451
 20
118.2511173383
 10
170.2261953243
 20
118.1855787718
  0
LWPOLYLINE
  5
16A
330
1F
100
AcDbEntity
  8
0
  6
HIDDEN
 62
     7
370
     0
100
AcDbPolyline
 90
       24
 70
   128
 43
0.0
 10
170.2276724019
 20
118.3719108076
 10
170.7665589267
 20
118.4462811061
 10
171.2641086989
 20
118.6545150549
 10
171.683421787
 20
118.9811689974
 10
171.9933994674
 20
119.402016905
 10
172.1710511112
 20
119.8858455018
 10
172.2032031604
 20
120.3967727915
 10
172.0874695667
 20
120.89690419
 10
171.8324343303
 20
121.3491479129
 10
171.4570116812
 20
121.7199623779
 10
170.9890453705
 20
121.9818474919
 10
170.4632420653
 20
122.1153795914
 10
169.9185990357
 20
122.110654992
 10
169.3955086732
 20
121.968023871
 10
168.9327670821
 20
121.6980651216
 10
168.5646934995
 20
121.3208003164
 10
168.3185868525
 20
120.864210111
 10
168.2126982698
 20
120.3621555314
 10
168.2548815944
 20
119.8518736483
 10
168.4420094454
 20
119.3712096856
 10
168.7602023223
 20
118.9558109463
 10
169.1858614424
 20
118.6364869782
 10
169.6874177643
 20
118.4369199173
 10
170.2276724019
 20
118.3719108076
  0
LWPOLYLINE
  5
16B
330
1F
100
AcDbEntity
  8
0
  6
HIDDEN
 62
     7
370
     0
100
AcDbPolyline
 90
       23
 70
   128
 43
0.0
 10
170.2261953243
 20
118.3779653356
 10
170.7438737714
 20
118.4524972186
 10
171.2182364055
 20
118.6610608556
 10
171.610853132
 20
118.9867597268
 10
171.8899183535
 20
119.4032080666
 10
172.0328214207
 20
119.8766673178
 10
172.0279869252
 20
120.3687809602
 10
171.8758060226
 20
120.839680937
 10
171.588607561
 20
121.2512165503
 10
171.1896587723
 20
121.5700492457
 10
170.7112793439
 20
121.7703487919
 10
170.1922253334
 20
121.8358868928
 10
169.6745478177
 20
121.7613550098
 10
169.2001851836
 20
121.5527909071
 10
168.8075675258
 20
121.2270925016
 10
168.5285032355
 20
120.8106441618
 10
168.3855992371
 20
120.3371839792
 10
168.3904337325
 20
119.8450712682
 10
168.5426146352
 20
119.3741712914
 10
168.8298130968
 20
118.9626352125
 10
169.2287628168
 20
118.643802517
 10
169.7071422451
 20
118.4435034365
 10
170.2261953243
 20
118.3779653356
  0
LWPOLYLINE
  5
16C
330
1F
100
AcDbEntity
  8
0
  6
HIDDEN
 62
     7
370
     0
100
AcDbPolyline
 90
       24
 70
   128
 43
0.0
 10
170.2276724019
 20
118.5642969058
 10
170.7665589267
 20
118.6386672043
 10
171.2641086989
 20
118.8469016188
 10
171.683421787
 20
119.1735550956
 10
171.9933994674
 20
119.5944030032
 10
172.1710511112
 20
120.0782316
 10
172.2032031604
 20
120.5891588897
 10
172.0874695667
 20
121.0892902882
 10
171.8324343303
 20
121.5415340112
 10
171.4570116812
 20
121.9123484761
 10
170.9890453705
 20
122.1742335902
 10
170.4632420653
 20
122.3077656896
 10
169.9185990357
 20
122.3030410902
 10
169.3955086732
 20
122.1604099692
 10
168.9327670821
 20
121.8904521511
 10
168.5646934995
 20
121.5131873459
 10
168.3185868525
 20
121.0565962092
 10
168.2126982698
 20
120.554542561
 10
168.2548815944
 20
120.0442606778
 10
168.4420094454
 20
119.5635957838
 10
168.7602023223
 20
119.1481970445
 10
169.1858614424
 20
118.8288730764
 10
169.6874177643
 20
118.6293060155
 10
170.2276724019
 20
118.5642969058
  0
LWPOLYLINE
  5
16D
330
1F
100
AcDbEntity
  8
0
  6
HIDDEN
 62
     7
370
     0
100
AcDbPolyline
 90
       23
 70
   128
 43
0.0
 10
170.2261953243
 20
118.5703514338
 10
170.7438737714
 20
118.6448833168
 10
171.2182364055
 20
118.8534469538
 10
171.610853132
 20
119.179145825
 10
171.8899183535
 20
119.5955941648
 10
172.0328214207
 20
120.0690543474
 10
172.0279869252
 20
120.5611670584
 10
171.8758060226
 20
121.0320670352
 10
171.588607561
 20
121.4436035798
 10
171.1896587723
 20
121.7624353439
 10
170.7112793439
 20
121.9627348901
 10
170.1922253334
 20
122.028272991
 10
169.6745478177
 20
121.953741108
 10
169.2001851836
 20
121.7451779366
 10
168.8075675258
 20
121.4194785998
 10
168.5285032355
 20
121.00303026
 10
168.3855992371
 20
120.5295710088
 10
168.3904337325
 20
120.0374573664
 10
168.5426146352
 20
119.5665573896
 10
168.8298130968
 20
119.1550217763
 10
169.2287628168
 20
118.8361890809
 10
169.7071422451
 20
118.6358900004
 10
170.2261953243
 20
118.5703514338
  0
LWPOLYLINE
  5
16E
330
1F
100
AcDbEntity
  8
0
  6
HIDDEN
 62
     7
370
     0
100
AcDbPolyline
 90
       24
 70
   128
 43
0.0
 10
170.2276724019
 20
118.7011049324
 10
170.7665589267
 20
118.7754752309
 10
171.2641086989
 20
118.9837096454
 10
171.683421787
 20
119.3103635878
 10
171.9933994674
 20
119.7312114955
 10
172.1710511112
 20
120.2150400923
 10
172.2032031604
 20
120.7259664507
 10
172.0874695667
 20
121.2260978491
 10
171.8324343303
 20
121.6783415721
 10
171.4570116812
 20
122.0491569684
 10
170.9890453705
 20
122.3110420824
 10
170.4632420653
 20
122.4445732505
 10
169.9185990357
 20
122.4398486511
 10
169.3955086732
 20
122.2972184614
 10
168.9327670821
 20
122.027259712
 10
168.5646934995
 20
121.6499949069
 10
168.3185868525
 20
121.1934037701
 10
168.2126982698
 20
120.6913501219
 10
168.2548815944
 20
120.1810682387
 10
168.4420094454
 20
119.700404276
 10
168.7602023223
 20
119.2850055368
 10
169.1858614424
 20
118.965681103
 10
169.6874177643
 20
118.766114042
 10
170.2276724019
 20
118.7011049324
  0
LWPOLYLINE
  5
16F
330
1F
100
AcDbEntity
  8
0
  6
HIDDEN
 62
     7
370
     0
100
AcDbPolyline
 90
       23
 70
   128
 43
0.0
 10
170.2267494613
 20
118.8292721481
 10
170.76130813
 20
118.9062343174
 10
171.2511391008
 20
119.1215989374
 10
171.6565587186
 20
119.4579186113
 10
171.9447238931
 20
119.8879474969
 10
172.0922872984
 20
120.3768452824
 10
172.0872954094
 20
120.8850056128
 10
171.9301514887
 20
121.3712612362
 10
171.6335876473
 20
121.7962172077
 10
171.2216292137
 20
122.1254462571
 10
170.7276510635
 20
122.3322762371
 10
170.1916711965
 20
122.3999517233
 10
169.6571125278
 20
122.3229900197
 10
169.167281557
 20
122.1076253996
 10
168.7618619391
 20
121.7713052601
 10
168.473697696
 20
121.3412773059
 10
168.3261342907
 20
120.852378589
 10
168.3311261797
 20
120.3442182586
 10
168.488269169
 20
119.8579635666
 10
168.7848330104
 20
119.433007595
 10
169.1967914441
 20
119.10377808
 10
169.6907695943
 20
118.8969476343
 10
170.2267494613
 20
118.8292721481
  0
LWPOLYLINE
  5
170
330
1F
100
AcDbEntity
  8
0
  6
HIDDEN
 62
     7
370
     0
100
AcDbPolyline
 90
       24
 70
   128
 43
0.0
 10
164.7728872114
 20
119.8791083143
 10
164.6599466541
 20
119.3467391849
 10
164.4726078586
 20
118.8456466616
 10
164.224765692
 20
118.4129951716
 10
163.9348007367
 20
118.0808715717
 10
163.6242190936
 20
117.8739084125
 10
163.3160546982
 20
117.8074552872
 10
163.0331626722
 20
117.8864407548
 10
162.7965238505
 20
118.1050063305
 10
162.6236890071
 20
118.4469428108
 10
162.5274759346
 20
118.8868893505
 10
162.5150208921
 20
119.3922175289
 10
162.5872472861
 20
119.9254499943
 10
162.7387986147
 20
120.4470390649
 10
162.9584347458
 20
120.9183003948
 10
163.2298663819
 20
121.3042833106
 10
163.5329629855
 20
121.5763608188
 10
163.8452447579
 20
121.7143539534
 10
164.1435511039
 20
121.7080284105
 10
164.4057589212
 20
121.5578545079
 10
164.6124203318
 20
121.2749690012
 10
164.7482090258
 20
120.8803517939
 10
164.8030541466
 20
120.4032706291
 10
164.7728872114
 20
119.8791083143
  0
LWPOLYLINE
  5
171
330
1F
100
AcDbEntity
  8
0
  6
HIDDEN
 62
     7
370
     0
100
AcDbPolyline
 90
       19
 70
   128
 43
0.0
 10
164.9687233941
 20
119.6904828967
 10
164.86996362
 20
119.267761168
 10
164.6989811772
 20
118.8876856313
 10
164.4763992728
 20
118.5960973808
 10
164.229064677
 20
118.428166882
 10
163.9868095146
 20
118.4041485385
 10
163.7788530999
 20
118.5269396947
 10
163.6302782783
 20
118.7817299933
 10
163.5590050929
 20
119.1377876521
 10
163.5736305827
 20
119.5521665932
 10
163.6723908224
 20
119.9748873905
 10
163.8433732652
 20
120.3549638585
 10
164.065954704
 20
120.6465516434
 10
164.3132897654
 20
120.8144821421
 10
164.5555449278
 20
120.8385009513
 10
164.7635013425
 20
120.7157097951
 10
164.9120761642
 20
120.4609194965
 10
164.9833488838
 20
120.1048618377
 10
164.9687233941
 20
119.6904828967
  0
LWPOLYLINE
  5
172
330
1F
100
AcDbEntity
  8
0
  6
HIDDEN
 62
     7
370
     0
100
AcDbPolyline
 90
       24
 70
   128
 43
0.0
 10
163.1142408216
 20
120.2763294996
 10
163.0013002643
 20
119.7439603702
 10
162.8139614688
 20
119.2428678469
 10
162.5661193022
 20
118.8102158912
 10
162.2761543469
 20
118.478092757
 10
161.9655727037
 20
118.2711295978
 10
161.6574078427
 20
118.2046764725
 10
161.3745162823
 20
118.28366194
 10
161.1378774607
 20
118.5022275158
 10
160.9650423845
 20
118.8441635304
 10
160.8688295448
 20
119.2841105358
 10
160.8563745023
 20
119.7894387142
 10
160.9286008963
 20
120.3226711796
 10
161.0801522249
 20
120.8442602501
 10
161.2997883559
 20
121.3155215801
 10
161.571219992
 20
121.7015044958
 10
161.8743165956
 20
121.9735810728
 10
162.1865983681
 20
122.1115751387
 10
162.484904714
 20
122.1052495957
 10
162.7471125313
 20
121.9550756932
 10
162.953773942
 20
121.6721901865
 10
163.089562636
 20
121.2775729791
 10
163.1444077567
 20
120.8004918144
 10
163.1142408216
 20
120.2763294996
  0
LINE
  5
173
330
1F
100
AcDbEntity
  8
0
  6
HIDDEN
 62
     7
370
     0
100
AcDbLine
 10
162.8528730572
 20
120.862651077
 30
0.0
 11
162.398083564
 21
119.8517013536
 31
0.0
  0
LINE
  5
174
330
1F
100
AcDbEntity
  8
0
  6
HIDDEN
 62
     7
370
     0
100
AcDbLine
 10
162.5876593963
 20
118.9046370991
 30
0.0
 11
162.398083564
 21
119.8517013536
 31
0.0
  0
LINE
  5
175
330
1F
100
AcDbEntity
  8
0
  6
HIDDEN
 62
     7
370
     0
100
AcDbLine
 10
162.398083564
 20
119.8517013536
 30
0.0
 11
161.1693552324
 21
120.1459638969
 31
0.0
  0
LINE
  5
176
330
1F
100
AcDbEntity
  8
0
  6
HIDDEN
 62
     7
370
     0
100
AcDbLine
 10
161.3589315304
 20
119.1988991768
 30
0.0
 11
161.1693552324
 21
120.1459638969
 31
0.0
  0
LINE
  5
177
330
1F
100
AcDbEntity
  8
0
  6
HIDDEN
 62
     7
370
     0
100
AcDbLine
 10
161.6241447256
 20
121.156912689
 30
0.0
 11
161.1693552324
 21
120.1459638969
 31
0.0
  0
LWPOLYLINE
  5
178
330
1F
100
AcDbEntity
  8
0
  6
HIDDEN
 62
     7
370
     0
100
AcDbPolyline
 90
       21
 70
   128
 43
0.0
 10
162.7121609264
 20
120.2989243166
 10
162.6022136399
 20
119.807491471
 10
162.4150839263
 20
119.355444257
 10
162.1690881067
 20
118.9870326043
 10
161.8883069233
 20
118.7383182541
 10
161.600224171
 20
118.6336478413
 10
161.3330402971
 20
118.6832668454
 10
161.1129089353
 20
118.8823184193
 10
160.961377863
 20
119.211317432
 10
160.893280022
 20
119.6380606116
 10
160.9152813536
 20
120.1207734839
 10
161.0252281745
 20
120.6122063295
 10
161.2123581209
 20
121.0642535434
 10
161.4583539405
 20
121.4326651961
 10
161.7391355896
 20
121.6813795463
 10
162.0272178763
 20
121.7860499591
 10
162.2944017501
 20
121.736430955
 10
162.5145333448
 20
121.5373793811
 10
162.6660641843
 20
121.2083794371
 10
162.7341620253
 20
120.7816371889
 10
162.7121609264
 20
120.2989243166
  0
LINE
  5
179
330
1F
100
AcDbEntity
  8
0
  6
HIDDEN
 62
     7
370
     0
100
AcDbLine
 10
162.2685105169
 20
121.2207986236
 30
0.0
 11
161.6241447256
 21
121.156912689
 31
0.0
  0
LINE
  5
17A
330
1F
100
AcDbEntity
  8
0
  6
HIDDEN
 62
     7
370
     0
100
AcDbLine
 10
163.4972388485
 20
120.9265360803
 30
0.0
 11
162.8528730572
 21
120.862651077
 31
0.0
  0
LINE
  5
17B
330
1F
100
AcDbEntity
  8
0
  6
HIDDEN
 62
     7
370
     0
100
AcDbLine
 10
162.8528730572
 20
120.862651077
 30
0.0
 11
161.6241447256
 21
121.156912689
 31
0.0
  0
LINE
  5
17C
330
1F
100
AcDbEntity
  8
0
  6
HIDDEN
 62
     7
370
     0
100
AcDbLine
 10
163.2320251876
 20
118.9685225681
 30
0.0
 11
162.0032973216
 21
119.2627841801
 31
0.0
  0
LINE
  5
17D
330
1F
100
AcDbEntity
  8
0
  6
HIDDEN
 62
     7
370
     0
100
AcDbLine
 10
162.0032973216
 20
119.2627841801
 30
0.0
 11
161.3589315304
 21
119.1988991768
 31
0.0
  0
LINE
  5
17E
330
1F
100
AcDbEntity
  8
0
  6
HIDDEN
 62
     7
370
     0
100
AcDbLine
 10
162.5876593963
 20
118.9046370991
 30
0.0
 11
161.3589315304
 21
119.1988991768
 31
0.0
  0
LINE
  5
17F
330
1F
100
AcDbEntity
  8
0
  6
HIDDEN
 62
     7
370
     0
100
AcDbLine
 10
163.2320251876
 20
118.9685225681
 30
0.0
 11
162.5876593963
 21
118.9046370991
 31
0.0
  0
LINE
  5
180
330
1F
100
AcDbEntity
  8
0
  6
HIDDEN
 62
     7
370
     0
100
AcDbLine
 10
163.6868146808
 20
119.9794722916
 30
0.0
 11
162.4580868148
 21
120.2737339036
 31
0.0
  0
LINE
  5
181
330
1F
100
AcDbEntity
  8
0
  6
HIDDEN
 62
     7
370
     0
100
AcDbLine
 10
163.4972388485
 20
120.9265360803
 30
0.0
 11
162.2685105169
 21
121.2207986236
 31
0.0
  0
LINE
  5
182
330
1F
100
AcDbEntity
  8
0
  6
HIDDEN
 62
     7
370
     0
100
AcDbLine
 10
162.2685105169
 20
121.2207986236
 30
0.0
 11
162.4580868148
 21
120.2737339036
 31
0.0
  0
LINE
  5
183
330
1F
100
AcDbEntity
  8
0
  6
HIDDEN
 62
     7
370
     0
100
AcDbLine
 10
163.4972388485
 20
120.9265360803
 30
0.0
 11
163.6868146808
 21
119.9794722916
 31
0.0
  0
LINE
  5
184
330
1F
100
AcDbEntity
  8
0
  6
HIDDEN
 62
     7
370
     0
100
AcDbLine
 10
162.0032973216
 20
119.2627841801
 30
0.0
 11
162.4580868148
 21
120.2737339036
 31
0.0
  0
LINE
  5
185
330
1F
100
AcDbEntity
  8
0
  6
HIDDEN
 62
     7
370
     0
100
AcDbLine
 10
163.2320251876
 20
118.9685225681
 30
0.0
 11
163.6868146808
 21
119.9794722916
 31
0.0
  0
LWPOLYLINE
  5
186
330
1F
100
AcDbEntity
  8
0
  6
HIDDEN
 62
     7
370
     0
100
AcDbPolyline
 90
       21
 70
   128
 43
0.0
 10
162.7121609264
 20
102.3244042144
 10
162.6022136399
 20
102.81583706
 10
162.4150839263
 20
103.2678842739
 10
162.1690881067
 20
103.6362959267
 10
161.8883069233
 20
103.8850102768
 10
161.600224171
 20
103.9896806897
 10
161.3330402971
 20
103.9400616855
 10
161.1129089353
 20
103.7410101117
 10
160.961377863
 20
103.4120110989
 10
160.893280022
 20
102.9852679194
 10
160.9152813536
 20
102.5025550471
 10
161.0252281745
 20
102.0111222015
 10
161.2123581209
 20
101.5590749876
 10
161.4583539405
 20
101.1906633348
 10
161.7391355896
 20
100.9419489846
 10
162.0272178763
 20
100.8372785718
 10
162.2944017501
 20
100.8868975759
 10
162.5145333448
 20
101.0859491498
 10
162.6660641843
 20
101.4149490938
 10
162.7341620253
 20
101.8416913421
 10
162.7121609264
 20
102.3244042144
  0
LWPOLYLINE
  5
187
330
1F
100
AcDbEntity
  8
0
  6
HIDDEN
 62
     7
370
     0
100
AcDbPolyline
 90
       24
 70
   128
 43
0.0
 10
163.1142408216
 20
102.3469990314
 10
163.0013002643
 20
102.8793681608
 10
162.8139614688
 20
103.3804606841
 10
162.5661193022
 20
103.8131126397
 10
162.2761543469
 20
104.145235774
 10
161.9655727037
 20
104.3521989332
 10
161.6574078427
 20
104.4186520585
 10
161.3745162823
 20
104.3396665909
 10
161.1378774607
 20
104.1211010151
 10
160.9650423845
 20
103.7791650006
 10
160.8688295448
 20
103.3392179952
 10
160.8563745023
 20
102.8338898168
 10
160.9286008963
 20
102.3006573514
 10
161.0801522249
 20
101.7790682808
 10
161.2997883559
 20
101.3078069509
 10
161.571219992
 20
100.9218240351
 10
161.8743165956
 20
100.6497474582
 10
162.1865983681
 20
100.5117533923
 10
162.484904714
 20
100.5180789352
 10
162.7471125313
 20
100.6682528377
 10
162.953773942
 20
100.9511383445
 10
163.089562636
 20
101.3457555518
 10
163.1444077567
 20
101.8228367166
 10
163.1142408216
 20
102.3469990314
  0
LWPOLYLINE
  5
188
330
1F
100
AcDbEntity
  8
0
  6
HIDDEN
 62
     7
370
     0
100
AcDbPolyline
 90
       24
 70
   128
 43
0.0
 10
164.7728872114
 20
102.7442202167
 10
164.6599466541
 20
103.276589346
 10
164.4726078586
 20
103.7776818694
 10
164.224765692
 20
104.2103333593
 10
163.9348007367
 20
104.5424569593
 10
163.6242190936
 20
104.7494201184
 10
163.3160546982
 20
104.8158732437
 10
163.0331626722
 20
104.7368877762
 10
162.7965238505
 20
104.5183222004
 10
162.6236890071
 20
104.1763857202
 10
162.5274759346
 20
103.7364391805
 10
162.5150208921
 20
103.2311110021
 10
162.5872472861
 20
102.6978785367
 10
162.7387986147
 20
102.1762894661
 10
162.9584347458
 20
101.7050281362
 10
163.2298663819
 20
101.3190452204
 10
163.5329629855
 20
101.0469677121
 10
163.8452447579
 20
100.9089745776
 10
164.1435511039
 20
100.9153001205
 10
164.4057589212
 20
101.065474023
 10
164.6124203318
 20
101.3483595298
 10
164.7482090258
 20
101.7429767371
 10
164.8030541466
 20
102.2200579018
 10
164.7728872114
 20
102.7442202167
  0
LINE
  5
189
330
1F
100
AcDbEntity
  8
0
  6
HIDDEN
 62
     7
370
     0
100
AcDbLine
 10
161.3589315304
 20
103.4244293542
 30
0.0
 11
161.1693552324
 21
102.4773646341
 31
0.0
  0
LINE
  5
18A
330
1F
100
AcDbEntity
  8
0
  6
HIDDEN
 62
     7
370
     0
100
AcDbLine
 10
161.6241447256
 20
101.466415842
 30
0.0
 11
161.1693552324
 21
102.4773646341
 31
0.0
  0
LINE
  5
18B
330
1F
100
AcDbEntity
  8
0
  6
HIDDEN
 62
     7
370
     0
100
AcDbLine
 10
162.2685105169
 20
101.4025299073
 30
0.0
 11
161.6241447256
 21
101.466415842
 31
0.0
  0
LINE
  5
18C
330
1F
100
AcDbEntity
  8
0
  6
HIDDEN
 62
     7
370
     0
100
AcDbLine
 10
162.2685105169
 20
101.4025299073
 30
0.0
 11
162.4580868148
 21
102.3495946274
 31
0.0
  0
LINE
  5
18D
330
1F
100
AcDbEntity
  8
0
  6
HIDDEN
 62
     7
370
     0
100
AcDbLine
 10
162.0032973216
 20
103.3605443508
 30
0.0
 11
162.4580868148
 21
102.3495946274
 31
0.0
  0
LINE
  5
18E
330
1F
100
AcDbEntity
  8
0
  6
HIDDEN
 62
     7
370
     0
100
AcDbLine
 10
162.0032973216
 20
103.3605443508
 30
0.0
 11
161.3589315304
 21
103.4244293542
 31
0.0
  0
LINE
  5
18F
330
1F
100
AcDbEntity
  8
0
  6
HIDDEN
 62
     7
370
     0
100
AcDbLine
 10
163.6868146808
 20
102.6438562394
 30
0.0
 11
162.4580868148
 21
102.3495946274
 31
0.0
  0
LWPOLYLINE
  5
190
330
1F
100
AcDbEntity
  8
0
  6
HIDDEN
 62
     7
370
     0
100
AcDbPolyline
 90
       19
 70
   128
 43
0.0
 10
164.9687233941
 20
102.9328456343
 10
164.86996362
 20
103.355567363
 10
164.6989811772
 20
103.7356428997
 10
164.4763992728
 20
104.0272311502
 10
164.229064677
 20
104.1951616489
 10
163.9868095146
 20
104.2191799925
 10
163.7788530999
 20
104.0963888363
 10
163.6302782783
 20
103.8415985376
 10
163.5590050929
 20
103.4855408789
 10
163.5736305827
 20
103.0711619378
 10
163.6723908224
 20
102.6484411404
 10
163.8433732652
 20
102.2683646724
 10
164.065954704
 20
101.9767768876
 10
164.3132897654
 20
101.8088463888
 10
164.5555449278
 20
101.7848275796
 10
164.7635013425
 20
101.9076187358
 10
164.9120761642
 20
102.1624090345
 10
164.9833488838
 20
102.5184666932
 10
164.9687233941
 20
102.9328456343
  0
LINE
  5
191
330
1F
100
AcDbEntity
  8
0
  6
HIDDEN
 62
     7
370
     0
100
AcDbLine
 10
163.2320251876
 20
103.6548059628
 30
0.0
 11
162.0032973216
 21
103.3605443508
 31
0.0
  0
LINE
  5
192
330
1F
100
AcDbEntity
  8
0
  6
HIDDEN
 62
     7
370
     0
100
AcDbLine
 10
162.8528730572
 20
101.760677454
 30
0.0
 11
161.6241447256
 21
101.466415842
 31
0.0
  0
LINE
  5
193
330
1F
100
AcDbEntity
  8
0
  6
HIDDEN
 62
     7
370
     0
100
AcDbLine
 10
163.4972388485
 20
101.6967924506
 30
0.0
 11
162.8528730572
 21
101.760677454
 31
0.0
  0
LINE
  5
194
330
1F
100
AcDbEntity
  8
0
  6
HIDDEN
 62
     7
370
     0
100
AcDbLine
 10
163.4972388485
 20
101.6967924506
 30
0.0
 11
162.2685105169
 21
101.4025299073
 31
0.0
  0
LINE
  5
195
330
1F
100
AcDbEntity
  8
0
  6
HIDDEN
 62
     7
370
     0
100
AcDbLine
 10
162.8528730572
 20
101.760677454
 30
0.0
 11
162.398083564
 21
102.7716271774
 31
0.0
  0
LINE
  5
196
330
1F
100
AcDbEntity
  8
0
  6
HIDDEN
 62
     7
370
     0
100
AcDbLine
 10
162.5876593963
 20
103.7186914318
 30
0.0
 11
162.398083564
 21
102.7716271774
 31
0.0
  0
LINE
  5
197
330
1F
100
AcDbEntity
  8
0
  6
HIDDEN
 62
     7
370
     0
100
AcDbLine
 10
163.2320251876
 20
103.6548059628
 30
0.0
 11
162.5876593963
 21
103.7186914318
 31
0.0
  0
LINE
  5
198
330
1F
100
AcDbEntity
  8
0
  6
HIDDEN
 62
     7
370
     0
100
AcDbLine
 10
163.4972388485
 20
101.6967924506
 30
0.0
 11
163.6868146808
 21
102.6438562394
 31
0.0
  0
LINE
  5
199
330
1F
100
AcDbEntity
  8
0
  6
HIDDEN
 62
     7
370
     0
100
AcDbLine
 10
163.2320251876
 20
103.6548059628
 30
0.0
 11
163.6868146808
 21
102.6438562394
 31
0.0
  0
LINE
  5
19A
330
1F
100
AcDbEntity
  8
0
  6
HIDDEN
 62
     7
370
     0
100
AcDbLine
 10
162.398083564
 20
102.7716271774
 30
0.0
 11
161.1693552324
 21
102.4773646341
 31
0.0
  0
LINE
  5
19B
330
1F
100
AcDbEntity
  8
0
  6
HIDDEN
 62
     7
370
     0
100
AcDbLine
 10
162.5876593963
 20
103.7186914318
 30
0.0
 11
161.3589315304
 21
103.4244293542
 31
0.0
  0
LINE
  5
19C
330
1F
100
AcDbEntity
  8
0
  6
HIDDEN
 62
     7
370
     0
100
AcDbLine
 10
195.1592121833
 20
133.8616641433
 30
0.0
 11
194.4592115098
 21
134.5616648168
 31
0.0
  0
LINE
  5
19D
330
1F
100
AcDbEntity
  8
0
  6
HIDDEN
 62
     7
370
     0
100
AcDbLine
 10
183.8592108899
 20
134.5616648168
 30
0.0
 11
183.1592102164
 21
133.8616641433
 31
0.0
  0
LINE
  5
19E
330
1F
100
AcDbEntity
  8
0
  6
HIDDEN
 62
     7
370
     0
100
AcDbLine
 10
183.1592102164
 20
133.8616641433
 30
0.0
 11
183.1592102164
 21
126.4587784381
 31
0.0
  0
LINE
  5
19F
330
1F
100
AcDbEntity
  8
0
  6
HIDDEN
 62
     7
370
     0
100
AcDbLine
 10
195.1592121833
 20
126.4587784381
 30
0.0
 11
195.1592121833
 21
133.8616641433
 31
0.0
  0
LINE
  5
1A0
330
1F
100
AcDbEntity
  8
0
  6
HIDDEN
 62
     7
370
     0
100
AcDbLine
 10
183.1592102164
 20
126.4587784381
 30
0.0
 11
185.3496306204
 21
118.2840186366
 31
0.0
  0
LINE
  5
1A1
330
1F
100
AcDbEntity
  8
0
  6
HIDDEN
 62
     7
370
     0
100
AcDbLine
 10
192.9687899166
 20
118.2840186366
 30
0.0
 11
195.1592121833
 21
126.4587784381
 31
0.0
  0
ARC
  5
1A2
330
1F
100
AcDbEntity
  8
0
  6
HIDDEN
 62
     7
370
     0
100
AcDbCircle
 10
185.6394086227
 20
118.3616642655
 30
0.0
 40
0.3000000000000241
100
AcDbArc
 50
195.0
 51
270.0
  0
ARC
  5
1A3
330
1F
100
AcDbEntity
  8
0
  6
HIDDEN
 62
     7
370
     0
100
AcDbCircle
 10
192.6790124299
 20
118.3616642655
 30
0.0
 40
0.3000000000000114
100
AcDbArc
 50
270.0
 51
345.0
  0
LINE
  5
1A4
330
1F
100
AcDbEntity
  8
0
  6
HIDDEN
 62
     7
370
     0
100
AcDbLine
 10
185.5592098647
 20
134.5616648168
 30
0.0
 11
186.107429173
 21
134.0134473712
 31
0.0
  0
LINE
  5
1A5
330
1F
100
AcDbEntity
  8
0
  6
HIDDEN
 62
     7
370
     0
100
AcDbLine
 10
192.2109913641
 20
134.0134473712
 30
0.0
 11
192.7592088097
 21
134.5616648168
 31
0.0
  0
LINE
  5
1A6
330
1F
100
AcDbEntity
  8
0
  6
HIDDEN
 62
     7
370
     0
100
AcDbLine
 10
186.1592107081
 20
127.5616636694
 30
0.0
 11
186.1592107081
 21
126.5616644368
 31
0.0
  0
LINE
  5
1A7
330
1F
100
AcDbEntity
  8
0
  6
HIDDEN
 62
     7
370
     0
100
AcDbLine
 10
192.1592098289
 20
126.5616644368
 30
0.0
 11
192.1592098289
 21
127.5616636694
 31
0.0
  0
LINE
  5
1A8
330
1F
100
AcDbEntity
  8
0
  6
HIDDEN
 62
     7
370
     0
100
AcDbLine
 10
186.1592107081
 20
126.5616644368
 30
0.0
 11
189.1592111998
 21
125.4697539107
 31
0.0
  0
LINE
  5
1A9
330
1F
100
AcDbEntity
  8
0
  6
HIDDEN
 62
     7
370
     0
100
AcDbLine
 10
189.1592111998
 20
125.4697539107
 30
0.0
 11
192.1592098289
 21
126.5616644368
 31
0.0
  0
LINE
  5
1AA
330
1F
100
AcDbEntity
  8
0
  6
HIDDEN
 62
     7
370
     0
100
AcDbLine
 10
172.209210191
 20
100.4528211624
 30
0.0
 11
172.209210191
 21
103.2741911904
 31
0.0
  0
LINE
  5
1AB
330
1F
100
AcDbEntity
  8
0
  6
HIDDEN
 62
     7
370
     0
100
AcDbLine
 10
168.2092104667
 20
103.2572364629
 30
0.0
 11
168.2092104667
 21
101.7357804076
 31
0.0
  0
LINE
  5
1AC
330
1F
100
AcDbEntity
  8
0
  6
HIDDEN
 62
     7
370
     0
100
AcDbLine
 10
160.4092104455
 20
99.9177390904
 30
0.0
 11
162.3028097303
 21
100.3712279917
 31
0.0
  0
LINE
  5
1AD
330
1F
100
AcDbEntity
  8
0
  6
HIDDEN
 62
     7
370
     0
100
AcDbLine
 10
161.3246323169
 20
104.4557312698
 30
0.0
 11
160.4092104455
 21
104.236501661
 31
0.0
  0
LINE
  5
1AE
330
1F
100
AcDbEntity
  8
0
  6
HIDDEN
 62
     7
370
     0
100
AcDbLine
 10
162.3321710714
 20
100.8409843043
 30
0.0
 11
169.5392313042
 21
102.566967179
 31
0.0
  0
LINE
  5
1AF
330
1F
100
AcDbEntity
  8
0
  6
HIDDEN
 62
     7
370
     0
100
AcDbLine
 10
169.5392313042
 20
105.9602810264
 30
0.0
 11
161.5636031703
 21
104.0502366804
 31
0.0
  0
LINE
  5
1B0
330
1F
100
AcDbEntity
  8
0
  6
HIDDEN
 62
     7
370
     0
100
AcDbLine
 10
171.8592107856
 20
103.3177603231
 30
0.0
 11
171.8592107856
 21
109.8604562421
 31
0.0
  0
LINE
  5
1B1
330
1F
100
AcDbEntity
  8
0
  6
HIDDEN
 62
     7
370
     0
100
AcDbLine
 10
168.5592108035
 20
103.3400003062
 30
0.0
 11
168.5592108035
 21
103.3177603231
 31
0.0
  0
LINE
  5
1B2
330
1F
100
AcDbEntity
  8
0
  6
HIDDEN
 62
     7
370
     0
100
AcDbLine
 10
168.5592108035
 20
109.8595443609
 30
0.0
 11
168.5592108035
 21
104.7178473518
 31
0.0
  0
ARC
  5
1B3
330
1F
100
AcDbEntity
  8
0
  6
HIDDEN
 62
     7
370
     0
100
AcDbCircle
 10
202.2092105263
 20
126.3116642655
 30
0.0
 40
1.0
100
AcDbArc
 50
270.0
 51
0.0
  0
ARC
  5
1B4
330
1F
100
AcDbEntity
  8
0
  6
HIDDEN
 62
     7
370
     0
100
AcDbCircle
 10
202.2092105263
 20
96.3116642655
 30
0.0
 40
1.0
100
AcDbArc
 50
0.0
 51
90.0
  0
LINE
  5
1B5
330
1F
100
AcDbEntity
  8
0
  6
HIDDEN
 62
     7
370
     0
100
AcDbLine
 10
177.5775574708
 20
125.8116638482
 30
0.0
 11
175.7092107647
 21
125.8116638482
 31
0.0
  0
LINE
  5
1B6
330
1F
100
AcDbEntity
  8
0
  6
HIDDEN
 62
     7
370
     0
100
AcDbLine
 10
175.7092107647
 20
96.8116646827
 30
0.0
 11
177.5775574708
 21
96.8116646827
 31
0.0
  0
ARC
  5
1B7
330
1F
100
AcDbEntity
  8
0
  6
HIDDEN
 62
     7
370
     0
100
AcDbCircle
 10
175.7092105263
 20
124.8116642655
 30
0.0
 40
1.0
100
AcDbArc
 50
90.0
 51
180.0
  0
ARC
  5
1B8
330
1F
100
AcDbEntity
  8
0
  6
HIDDEN
 62
     7
370
     0
100
AcDbCircle
 10
175.7092105263
 20
97.8116642655
 30
0.0
 40
1.0
100
AcDbArc
 50
180.0
 51
270.0
  0
ARC
  5
1B9
330
1F
100
AcDbEntity
  8
0
  6
HIDDEN
 62
     7
370
     0
100
AcDbCircle
 10
177.5775580287
 20
124.8116642655
 30
0.0
 40
1.000000000000009
100
AcDbArc
 50
75.0
 51
90.0
  0
ARC
  5
1BA
330
1F
100
AcDbEntity
  8
0
  6
HIDDEN
 62
     7
370
     0
100
AcDbCircle
 10
177.5775580287
 20
97.8116642655
 30
0.0
 40
1.0
100
AcDbArc
 50
270.0
 51
285.0
  0
LINE
  5
1BB
330
1F
100
AcDbEntity
  8
0
  6
HIDDEN
 62
     7
370
     0
100
AcDbLine
 10
177.8363776022
 20
96.8457380504
 30
0.0
 11
179.5752350801
 21
97.3116638333
 31
0.0
  0
LINE
  5
1BC
330
1F
100
AcDbEntity
  8
0
  6
HIDDEN
 62
     7
370
     0
100
AcDbLine
 10
179.5752350801
 20
125.3116646976
 30
0.0
 11
177.8363776022
 21
125.7775904805
 31
0.0
  0
LINE
  5
1BD
330
1F
100
AcDbEntity
  8
0
  6
HIDDEN
 62
     7
370
     0
100
AcDbLine
 10
183.6592112297
 20
125.3116646976
 30
0.0
 11
179.5752350801
 21
125.3116646976
 31
0.0
  0
LINE
  5
1BE
330
1F
100
AcDbEntity
  8
0
  6
HIDDEN
 62
     7
370
     0
100
AcDbLine
 10
202.2092123145
 20
125.3116646976
 30
0.0
 11
194.6515966767
 21
125.3116646976
 31
0.0
  0
LINE
  5
1BF
330
1F
100
AcDbEntity
  8
0
  6
HIDDEN
 62
     7
370
     0
100
AcDbLine
 10
179.5752350801
 20
97.3116638333
 30
0.0
 11
202.2092123145
 21
97.3116638333
 31
0.0
  0
ARC
  5
1C0
330
1F
100
AcDbEntity
  8
0
  6
HIDDEN
 62
     7
370
     0
100
AcDbCircle
 10
89.7592105263
 20
102.0116642655
 30
0.0
 40
0.7999999999999972
100
AcDbArc
 50
90.0
 51
180.0
  0
ARC
  5
1C1
330
1F
100
AcDbEntity
  8
0
  6
HIDDEN
 62
     7
370
     0
100
AcDbCircle
 10
89.7592105263
 20
120.6116642655
 30
0.0
 40
0.7999999999999972
100
AcDbArc
 50
180.0
 51
270.0
  0
LINE
  5
1C2
330
1F
100
AcDbEntity
  8
0
  6
HIDDEN
 62
     7
370
     0
100
AcDbLine
 10
96.8515839988
 20
102.5866646514
 30
0.0
 11
97.7282714659
 21
102.5866646514
 31
0.0
  0
LINE
  5
1C3
330
1F
100
AcDbEntity
  8
0
  6
HIDDEN
 62
     7
370
     0
100
AcDbLine
 10
97.7282714659
 20
120.0366638795
 30
0.0
 11
96.8515839988
 21
120.0366638795
 31
0.0
  0
ARC
  5
1C4
330
1F
100
AcDbEntity
  8
0
  6
HIDDEN
 62
     7
370
     0
100
AcDbCircle
 10
97.7282704186
 20
102.9866642655
 30
0.0
 40
0.4000000000000199
100
AcDbArc
 50
270.0
 51
330.0
  0
ARC
  5
1C5
330
1F
100
AcDbEntity
  8
0
  6
HIDDEN
 62
     7
370
     0
100
AcDbCircle
 10
97.7282704186
 20
119.6366642655
 30
0.0
 40
0.4000000000000057
100
AcDbArc
 50
30.0
 51
90.0
  0
ARC
  5
1C6
330
1F
100
AcDbEntity
  8
0
  6
HIDDEN
 62
     7
370
     0
100
AcDbCircle
 10
96.8515829571
 20
102.9866642655
 30
0.0
 40
0.4000000000000057
100
AcDbArc
 50
255.0
 51
270.0
  0
ARC
  5
1C7
330
1F
100
AcDbEntity
  8
0
  6
HIDDEN
 62
     7
370
     0
100
AcDbCircle
 10
96.8515829571
 20
119.6366642655
 30
0.0
 40
0.4000000000000023
100
AcDbArc
 50
90.0
 51
105.0
  0
LINE
  5
1C8
330
1F
100
AcDbEntity
  8
0
  6
HIDDEN
 62
     7
370
     0
100
AcDbLine
 10
96.7480544561
 20
120.023034905
 30
0.0
 11
95.9592093342
 21
119.8116647274
 31
0.0
  0
LINE
  5
1C9
330
1F
100
AcDbEntity
  8
0
  6
HIDDEN
 62
     7
370
     0
100
AcDbLine
 10
95.9592093342
 20
102.8116638035
 30
0.0
 11
96.7480544561
 21
102.600293626
 31
0.0
  0
LINE
  5
1CA
330
1F
100
AcDbEntity
  8
0
  6
HIDDEN
 62
     7
370
     0
100
AcDbLine
 10
98.0746787601
 20
102.7866643117
 30
0.0
 11
98.9551399463
 21
104.3116640494
 31
0.0
  0
LINE
  5
1CB
330
1F
100
AcDbEntity
  8
0
  6
HIDDEN
 62
     7
370
     0
100
AcDbLine
 10
98.9551399463
 20
118.3116644815
 30
0.0
 11
98.0746787601
 21
119.8366642193
 31
0.0
  0
LINE
  5
1CC
330
1F
100
AcDbEntity
  8
0
  6
HIDDEN
 62
     7
370
     0
100
AcDbLine
 10
89.7592086905
 20
102.8116638035
 30
0.0
 11
95.9592093342
 21
102.8116638035
 31
0.0
  0
LINE
  5
1CD
330
1F
100
AcDbEntity
  8
0
  6
HIDDEN
 62
     7
370
     0
100
AcDbLine
 10
95.9592093342
 20
119.8116647274
 30
0.0
 11
89.7592086905
 21
119.8116647274
 31
0.0
  0
LINE
  5
1CE
330
1F
100
AcDbEntity
  8
0
  6
HIDDEN
 62
     7
370
     0
100
AcDbLine
 10
98.9551399463
 20
104.3116640494
 30
0.0
 11
131.9592096471
 21
104.3116640494
 31
0.0
  0
LINE
  5
1CF
330
1F
100
AcDbEntity
  8
0
  6
HIDDEN
 62
     7
370
     0
100
AcDbLine
 10
131.9592096471
 20
118.3116644815
 30
0.0
 11
98.9551399463
 21
118.3116644815
 31
0.0
  0
LINE
  5
1D0
330
1F
100
AcDbEntity
  8
0
  6
HIDDEN
 62
     7
370
     0
100
AcDbLine
 10
131.9592096471
 20
104.3116640494
 30
0.0
 11
133.6115770602
 21
107.0616640345
 31
0.0
  0
LINE
  5
1D1
330
1F
100
AcDbEntity
  8
0
  6
HIDDEN
 62
     7
370
     0
100
AcDbLine
 10
133.6115770602
 20
115.5616644964
 30
0.0
 11
131.9592096471
 21
118.3116644815
 31
0.0
  0
LINE
  5
1D2
330
1F
100
AcDbEntity
  8
0
  6
HIDDEN
 62
     7
370
     0
100
AcDbLine
 10
182.1092110687
 20
136.1116649778
 30
0.0
 11
183.6592112297
 21
134.5616648168
 31
0.0
  0
LINE
  5
1D3
330
1F
100
AcDbEntity
  8
0
  6
HIDDEN
 62
     7
370
     0
100
AcDbLine
 10
194.65921117
 20
134.5616648168
 30
0.0
 11
196.4092109912
 21
136.311664638
 31
0.0
  0
ARC
  5
1D4
330
1F
100
AcDbEntity
  8
0
  6
HIDDEN
 62
     7
370
     0
100
AcDbCircle
 10
182.7092105263
 20
87.1116642655
 30
0.0
 40
1.599999999999994
100
AcDbArc
 50
0.0
 51
90.0
  0
LINE
  5
1D5
330
1F
100
AcDbEntity
  8
0
  6
HIDDEN
 62
     7
370
     0
100
AcDbLine
 10
184.3092110568
 20
86.311663893
 30
0.0
 11
184.3092110568
 21
87.1116643966
 31
0.0
  0
LINE
  5
1D6
330
1F
100
AcDbEntity
  8
0
  6
HIDDEN
 62
     7
370
     0
100
AcDbLine
 10
183.6592112297
 20
134.5616648168
 30
0.0
 11
183.6592112297
 21
125.3116646976
 31
0.0
  0
LINE
  5
1D7
330
1F
100
AcDbEntity
  8
0
  6
HIDDEN
 62
     7
370
     0
100
AcDbLine
 10
194.65921117
 20
125.3086956412
 30
0.0
 11
194.65921117
 21
134.5616648168
 31
0.0
  0
LINE
  5
1D8
330
1F
100
AcDbEntity
  8
0
  6
HIDDEN
 62
     7
370
     0
100
AcDbLine
 10
174.7092106008
 20
115.5616644964
 30
0.0
 11
133.6115770602
 21
115.5616644964
 31
0.0
  0
LINE
  5
1D9
330
1F
100
AcDbEntity
  8
0
  6
HIDDEN
 62
     7
370
     0
100
AcDbLine
 10
133.6115770602
 20
107.0616640345
 30
0.0
 11
174.7092106008
 21
107.0616640345
 31
0.0
  0
LINE
  5
1DA
330
1F
100
AcDbEntity
  8
0
  6
HIDDEN
 62
     7
370
     0
100
AcDbLine
 10
171.8592107856
 20
112.7627547094
 30
0.0
 11
171.8592107856
 21
119.3055682079
 31
0.0
  0
LINE
  5
1DB
330
1F
100
AcDbEntity
  8
0
  6
HIDDEN
 62
     7
370
     0
100
AcDbLine
 10
168.5592108035
 20
117.9054811791
 30
0.0
 11
168.5592108035
 21
112.7630467954
 31
0.0
  0
LINE
  5
1DC
330
1F
100
AcDbEntity
  8
0
  6
HIDDEN
 62
     7
370
     0
100
AcDbLine
 10
168.5592108035
 20
119.3055682079
 30
0.0
 11
168.5592108035
 21
119.2833282248
 31
0.0
  0
LINE
  5
1DD
330
1F
100
AcDbEntity
  8
0
  6
HIDDEN
 62
     7
370
     0
100
AcDbLine
 10
161.5636031703
 20
118.5730918505
 30
0.0
 11
169.5392313042
 21
116.6630475045
 31
0.0
  0
LINE
  5
1DE
330
1F
100
AcDbEntity
  8
0
  6
HIDDEN
 62
     7
370
     0
100
AcDbLine
 10
169.5392313042
 20
120.056361352
 30
0.0
 11
162.3321710714
 21
121.7823442266
 31
0.0
  0
LINE
  5
1DF
330
1F
100
AcDbEntity
  8
0
  6
HIDDEN
 62
     7
370
     0
100
AcDbLine
 10
172.209210191
 20
119.3491373406
 30
0.0
 11
172.209210191
 21
122.1705073685
 31
0.0
  0
LINE
  5
1E0
330
1F
100
AcDbEntity
  8
0
  6
HIDDEN
 62
     7
370
     0
100
AcDbLine
 10
168.2092104667
 20
120.8875481234
 30
0.0
 11
168.2092104667
 21
119.366092068
 31
0.0
  0
LINE
  5
1E1
330
1F
100
AcDbEntity
  8
0
  6
HIDDEN
 62
     7
370
     0
100
AcDbLine
 10
160.4092104455
 20
118.3868268699
 30
0.0
 11
161.3246323169
 21
118.1675972612
 31
0.0
  0
LINE
  5
1E2
330
1F
100
AcDbEntity
  8
0
  6
HIDDEN
 62
     7
370
     0
100
AcDbLine
 10
162.3028097303
 20
122.2521005393
 30
0.0
 11
160.4092104455
 21
122.7055894406
 31
0.0
  0
LINE
  5
1E3
330
1F
100
AcDbEntity
  8
0
  6
HIDDEN
 62
     7
370
     0
100
AcDbLine
 10
168.2092104667
 20
102.1797260464
 30
0.0
 11
168.2092104667
 21
102.0429184855
 31
0.0
  0
LINE
  5
1E4
330
1F
100
AcDbEntity
  8
0
  6
HIDDEN
 62
     7
370
     0
100
AcDbLine
 10
172.209210191
 20
102.0429184855
 30
0.0
 11
172.209210191
 21
102.1797260464
 31
0.0
  0
LINE
  5
1E5
330
1F
100
AcDbEntity
  8
0
  6
HIDDEN
 62
     7
370
     0
100
AcDbLine
 10
168.7092105487
 20
103.0121943177
 30
0.0
 11
168.7092105487
 21
102.0087165953
 31
0.0
  0
LINE
  5
1E6
330
1F
100
AcDbEntity
  8
0
  6
HIDDEN
 62
     7
370
     0
100
AcDbLine
 10
171.7092101091
 20
102.0087165953
 30
0.0
 11
171.7092101091
 21
103.0121943177
 31
0.0
  0
LINE
  5
1E7
330
1F
100
AcDbEntity
  8
0
  6
HIDDEN
 62
     7
370
     0
100
AcDbLine
 10
168.2092104667
 20
103.2741911904
 30
0.0
 11
168.2092104667
 21
102.9492713706
 31
0.0
  0
LINE
  5
1E8
330
1F
100
AcDbEntity
  8
0
  6
HIDDEN
 62
     7
370
     0
100
AcDbLine
 10
172.209210191
 20
102.9492713706
 30
0.0
 11
172.209210191
 21
103.2741911904
 31
0.0
  0
LINE
  5
1E9
330
1F
100
AcDbEntity
  8
0
  6
HIDDEN
 62
     7
370
     0
100
AcDbLine
 10
172.209210191
 20
119.3491373406
 30
0.0
 11
172.209210191
 21
119.6740571604
 31
0.0
  0
LINE
  5
1EA
330
1F
100
AcDbEntity
  8
0
  6
HIDDEN
 62
     7
370
     0
100
AcDbLine
 10
168.2092104667
 20
119.6740571604
 30
0.0
 11
168.2092104667
 21
119.3491373406
 31
0.0
  0
LINE
  5
1EB
330
1F
100
AcDbEntity
  8
0
  6
HIDDEN
 62
     7
370
     0
100
AcDbLine
 10
171.7092101091
 20
119.6111342133
 30
0.0
 11
171.7092101091
 21
120.6146119357
 31
0.0
  0
LINE
  5
1EC
330
1F
100
AcDbEntity
  8
0
  6
HIDDEN
 62
     7
370
     0
100
AcDbLine
 10
168.7092105487
 20
120.6146119357
 30
0.0
 11
168.7092105487
 21
119.6111342133
 31
0.0
  0
LINE
  5
1ED
330
1F
100
AcDbEntity
  8
0
  6
HIDDEN
 62
     7
370
     0
100
AcDbLine
 10
172.209210191
 20
120.4436024846
 30
0.0
 11
172.209210191
 21
120.5804100455
 31
0.0
  0
LINE
  5
1EE
330
1F
100
AcDbEntity
  8
0
  6
HIDDEN
 62
     7
370
     0
100
AcDbLine
 10
168.2092104667
 20
120.5804100455
 30
0.0
 11
168.2092104667
 21
120.4436024846
 31
0.0
  0
CIRCLE
  5
1EF
330
1F
100
AcDbEntity
  8
0
  6
HIDDEN
 62
     7
370
     0
100
AcDbCircle
 10
170.2092105263
 20
120.0331779203
 30
0.0
 40
1.500000000000012
  0
ARC
  5
1F0
330
1F
100
AcDbEntity
  8
0
  6
HIDDEN
 62
     7
370
     0
100
AcDbCircle
 10
170.2092105263
 20
102.5901506107
 30
0.0
 40
1.499999999999992
100
AcDbArc
 50
89.9064390912
 51
191.5274417165
  0
ARC
  5
1F1
330
1F
100
AcDbEntity
  8
0
  6
HIDDEN
 62
     7
370
     0
100
AcDbCircle
 10
170.2092105263
 20
102.5901506107
 30
0.0
 40
1.500000000000011
100
AcDbArc
 50
336.4972103285
 51
89.9064390912
  0
LINE
  5
1F2
330
1F
100
AcDbEntity
  8
0
  6
HIDDEN
 62
     7
370
     0
100
AcDbLine
 10
163.9696708509
 20
118.1131316543
 30
0.0
 11
164.466713518
 21
118.5867469021
 31
0.0
  0
LINE
  5
1F3
330
1F
100
AcDbEntity
  8
0
  6
HIDDEN
 62
     7
370
     0
100
AcDbLine
 10
164.9141539448
 20
120.4550912798
 30
0.0
 11
164.68557572
 21
121.1024815411
 31
0.0
  0
LINE
  5
1F4
330
1F
100
AcDbEntity
  8
0
  6
HIDDEN
 62
     7
370
     0
100
AcDbLine
 10
161.5323680082
 20
118.2206751973
 30
0.0
 11
163.191014398
 21
117.8234540121
 31
0.0
  0
LINE
  5
1F5
330
1F
100
AcDbEntity
  8
0
  6
HIDDEN
 62
     7
370
     0
100
AcDbLine
 10
164.1226121784
 20
121.7134570897
 30
0.0
 11
162.4639657886
 21
122.110678275
 31
0.0
  0
LINE
  5
1F6
330
1F
100
AcDbEntity
  8
0
  6
HIDDEN
 62
     7
370
     0
100
AcDbLine
 10
162.4639657886
 20
100.5126502559
 30
0.0
 11
164.1226121784
 21
100.9098714412
 31
0.0
  0
LINE
  5
1F7
330
1F
100
AcDbEntity
  8
0
  6
HIDDEN
 62
     7
370
     0
100
AcDbLine
 10
163.191014398
 20
104.7998745189
 30
0.0
 11
161.5323680082
 21
104.4026533336
 31
0.0
  0
LINE
  5
1F8
330
1F
100
AcDbEntity
  8
0
  6
HIDDEN
 62
     7
370
     0
100
AcDbLine
 10
164.68557572
 20
101.5208469898
 30
0.0
 11
164.9141539448
 21
102.1682372511
 31
0.0
  0
LINE
  5
1F9
330
1F
100
AcDbEntity
  8
0
  6
HIDDEN
 62
     7
370
     0
100
AcDbLine
 10
164.466713518
 20
104.0365816289
 30
0.0
 11
163.9696708509
 21
104.5101968766
 31
0.0
  0
DIMENSION
  5
1FA
330
1F
100
AcDbEntity
  8
VERMASSUNG
100
AcDbDimension
  2
_D
 10
78.9592105263
 20
143.0616642655
 30
0.0
 11
78.9592105263
 21
111.3116642655
 31
0.0
 70
   160
  1
ISO 40 %%c<>
 71
     2
 42
-1.0
  3
SLDDIMSTYLE0
100
AcDbAlignedDimension
 13
175.6592105263
 23
79.5616642655
 33
0.0
 14
175.6592105263
 24
143.0616642655
 34
0.0
 50
90.0
100
AcDbRotatedDimension
  0
DIMENSION
  5
207
330
1F
100
AcDbEntity
  8
VERMASSUNG
100
AcDbDimension
  2
_D_1
 10
212.1157894737
 20
97.3116642655
 30
0.0
 11
212.1157894737
 21
111.3116642655
 31
0.0
 70
   160
  1
%%c<>
 71
     2
 42
-1.0
  3
SLDDIMSTYLE0
100
AcDbAlignedDimension
 13
202.2092105263
 23
125.3116642655
 33
0.0
 14
202.2092105263
 24
97.3116642655
 34
0.0
 50
90.0
100
AcDbRotatedDimension
  0
DIMENSION
  5
212
330
1F
100
AcDbEntity
  8
VERMASSUNG
100
AcDbDimension
  2
_D_2
 10
176.2592105263
 20
147.9995658042
 30
0.0
 11
189.7342105263
 21
147.9995658042
 31
0.0
 70
   160
  1
<>
 71
     2
 42
-1.0
  3
SLDDIMSTYLE0
100
AcDbAlignedDimension
 13
203.2092105263
 23
135.8116642655
 33
0.0
 14
176.2592105263
 24
141.3222153989
 34
0.0
100
AcDbRotatedDimension
  0
DIMENSION
  5
21C
330
1F
100
AcDbEntity
  8
VERMASSUNG
100
AcDbDimension
  2
_D_3
 10
157.2092105263
 20
153.9995658042
 30
0.0
 11
180.2092105263
 21
153.9995658042
 31
0.0
 70
   160
  1
<>
 71
     2
 42
-1.0
  3
SLDDIMSTYLE0
100
AcDbAlignedDimension
 13
203.2092105263
 23
135.8116642655
 33
0.0
 14
157.2092105263
 24
133.5366642655
 34
0.0
100
AcDbRotatedDimension
  0
DIMENSION
  5
226
330
1F
100
AcDbEntity
  8
VERMASSUNG
100
AcDbDimension
  2
_D_4
 10
203.2092105263
 20
159.9995658042
 30
0.0
 11
146.0842105263
 21
159.9995658042
 31
0.0
 70
   160
  1
<>
 71
     2
 42
-1.0
  3
SLDDIMSTYLE0
100
AcDbAlignedDimension
 13
88.9592105263
 23
122.7187948625
 33
0.0
 14
203.2092105263
 24
135.8116642655
 34
0.0
100
AcDbRotatedDimension
  0
DIMENSION
  5
230
330
1F
100
AcDbEntity
  8
VERMASSUNG
100
AcDbDimension
  2
_D_5
 10
218.1157894737
 20
86.3116642655
 30
0.0
 11
218.1157894737
 21
111.3116642655
 31
0.0
 70
   160
  1
WH %%c<>
 71
     2
 42
-1.0
  3
SLDDIMSTYLE0
100
AcDbAlignedDimension
 13
202.7092105263
 23
136.3116642655
 33
0.0
 14
202.7092105263
 24
86.3116642655
 34
0.0
 50
90.0
100
AcDbRotatedDimension
  0
LINE
  5
23C
330
1F
100
AcDbEntity
  8
VERMASSUNG
  6
CENTERX2
370
     0
100
AcDbLine
 10
85.5357475366
 20
111.3116642655
 30
0.0
 11
205.9210292459
 21
111.3116642655
 31
0.0
  0
LINE
  5
23D
330
1F
100
AcDbEntity
  8
0
  6
Continuous
 62
     7
370
    15
100
AcDbLine
 10
266.7022999869
 20
45.3018187555
 30
0.0
 11
266.6315774104
 21
45.3426591097
 31
0.0
  0
LINE
  5
23E
330
1F
100
AcDbEntity
  8
0
  6
Continuous
 62
     7
370
    15
100
AcDbLine
 10
262.883302667
 20
45.3426590584
 30
0.0
 11
262.8125806184
 21
45.3018188188
 31
0.0
  0
LINE
  5
23F
330
1F
100
AcDbEntity
  8
0
  6
Continuous
 62
     7
370
    15
100
AcDbLine
 10
267.9771264151
 20
34.4679349087
 30
0.0
 11
270.5424327099
 21
34.9905970405
 31
0.0
  0
LINE
  5
240
330
1F
100
AcDbEntity
  8
0
  6
Continuous
 62
     7
370
    15
100
AcDbLine
 10
269.5495246847
 20
21.797293723
 30
0.0
 11
269.7262730072
 21
21.8993615328
 31
0.0
  0
LINE
  5
241
330
1F
100
AcDbEntity
  8
0
  6
Continuous
 62
     7
370
    15
100
AcDbLine
 10
278.3869230221
 20
36.901673049
 30
0.0
 11
278.3869230221
 21
37.1057754906
 31
0.0
  0
LINE
  5
242
330
1F
100
AcDbEntity
  8
0
  6
Continuous
 62
     7
370
    15
100
AcDbLine
 10
255.0077698081
 20
25.9638060937
 30
0.0
 11
263.2985962337
 21
21.1776138751
 31
0.0
  0
LINE
  5
243
330
1F
100
AcDbEntity
  8
0
  6
Continuous
 62
     7
370
    15
100
AcDbLine
 10
275.7975800173
 20
42.8288355563
 30
0.0
 11
267.5067535917
 21
47.6150277748
 31
0.0
  0
SPLINE
  5
244
330
1F
100
AcDbEntity
  8
0
  6
Continuous
 62
     7
370
    15
100
AcDbSpline
210
0.0
220
0.0
230
1.0
 70
     8
 71
     3
 72
    28
 73
    24
 74
     0
 42
0.000000001
 43
0.00000001
 40
0.0
 40
0.0
 40
0.0
 40
0.0
 40
0.0154778968241338
 40
0.0698004919151881
 40
0.123275981364664
 40
0.1751600284286082
 40
0.2258511696341143
 40
0.2759167556290197
 40
0.3257412594691966
 40
0.3755215076297326
 40
0.4253392053073117
 40
0.4752429357694254
 40
0.525240521966823
 40
0.575319612663826
 40
0.6254586904359529
 40
0.675632258826409
 40
0.7258133623223744
 40
0.7759673541853568
 40
0.8260641070015697
 40
0.8760760803900572
 40
0.9259778431219047
 40
0.9757502009082045
 40
1.0
 40
1.0
 40
1.0
 40
1.0
 10
265.8296774765736
 20
26.07944190023615
 30
0.0
 10
265.7919728420446
 20
26.09924033447405
 30
0.0
 10
265.6219366887153
 20
26.18852510388798
 30
0.0
 10
265.3705008197128
 20
26.43233259442236
 30
0.0
 10
265.0804240639131
 20
26.81351964643702
 30
0.0
 10
264.8538938132604
 20
27.27750296887611
 30
0.0
 10
264.6896539005297
 20
27.80671652635949
 30
0.0
 10
264.5902487785141
 20
28.39613391565581
 30
0.0
 10
264.5568076586292
 20
29.03837411362336
 30
0.0
 10
264.590649870521
 20
29.72541118097124
 30
0.0
 10
264.6922208837199
 20
30.44775927516811
 30
0.0
 10
264.8609356402295
 20
31.19506522269893
 30
0.0
 10
265.0950751462984
 20
31.95642701012002
 30
0.0
 10
265.3917559999637
 20
32.72054902630249
 30
0.0
 10
265.7469834801714
 20
33.4760249372192
 30
0.0
 10
266.1557191426952
 20
34.21158248465084
 30
0.0
 10
266.6119585858044
 20
34.91623384643841
 30
0.0
 10
267.1088239867154
 20
35.57953604652998
 30
0.0
 10
267.6386573421051
 20
36.19161980558687
 30
0.0
 10
268.1932177681078
 20
36.74397943189149
 30
0.0
 10
268.7635280431883
 20
37.22744387068031
 30
0.0
 10
269.2427591470179
 20
37.5702736826098
 30
0.0
 10
269.5278843690995
 20
37.74053060069282
 30
0.0
 10
269.6212919330384
 20
37.79630709021475
 30
0.0
  0
SPLINE
  5
245
330
1F
100
AcDbEntity
  8
0
  6
Continuous
 62
     7
370
    15
100
AcDbSpline
210
0.0
220
0.0
230
1.0
 70
     8
 71
     3
 72
    14
 73
    10
 74
     0
 42
0.000000001
 43
0.00000001
 40
0.0
 40
0.0
 40
0.0
 40
0.0
 40
0.0811616958454234
 40
0.2360328440949419
 40
0.3908115198428987
 40
0.5459039831129714
 40
0.7022436018525013
 40
0.8613251770874286
 40
1.0
 40
1.0
 40
1.0
 40
1.0
 10
269.6212919330384
 20
37.79630709021475
 30
0.0
 10
269.7209483043559
 20
37.85172290210883
 30
0.0
 10
270.0107669991136
 20
38.01288207396869
 30
0.0
 10
270.4830717321415
 20
38.21758861420107
 30
0.0
 10
271.0236284707398
 20
38.38027863589487
 30
0.0
 10
271.5352494819353
 20
38.45807278634361
 30
0.0
 10
272.0107333281923
 20
38.4513137797543
 30
0.0
 10
272.4303039951276
 20
38.3751561006879
 30
0.0
 10
272.6679954571062
 20
38.26314009928536
 30
0.0
 10
272.7786960889072
 20
38.21097061021808
 30
0.0
  0
SPLINE
  5
246
330
1F
100
AcDbEntity
  8
0
  6
Continuous
 62
     7
370
    15
100
AcDbSpline
210
0.0
220
0.0
230
1.0
 70
     8
 71
     3
 72
    32
 73
    28
 74
     0
 42
0.000000001
 43
0.00000001
 40
0.0
 40
0.0
 40
0.0
 40
0.0
 40
0.0092297823716175
 40
0.0506588333296415
 40
0.0921960096141025
 40
0.1338971762758435
 40
0.1757481665634254
 40
0.2177163242710987
 40
0.2597641551186084
 40
0.3018582563789259
 40
0.3439732264542291
 40
0.3860895816084016
 40
0.4281970256082266
 40
0.4702914163610306
 40
0.5123715458289411
 40
0.5544379736942963
 40
0.596492352971224
 40
0.6385369807464365
 40
0.6805744453748337
 40
0.7226075959294195
 40
0.764639281202708
 40
0.8066723463588131
 40
0.8487088477970264
 40
0.8907518837876827
 40
0.9328043794044042
 40
0.9748692733521407
 40
0.9999999999999999
 40
0.9999999999999999
 40
0.9999999999999999
 40
0.9999999999999999
 10
261.2430037996645
 20
54.8546940547764
 30
0.0
 10
261.1881962031209
 20
54.86869694395899
 30
0.0
 10
260.8873777453597
 20
54.94555358051588
 30
0.0
 10
260.3131631550449
 20
55.0214972110755
 30
0.0
 10
259.5101750580581
 20
55.04502436597043
 30
0.0
 10
258.6757883097297
 20
54.97269232000816
 30
0.0
 10
257.8168468219271
 20
54.80915484909178
 30
0.0
 10
256.9383864474003
 20
54.55404224667492
 30
0.0
 10
256.0463717315851
 20
54.20927996772843
 30
0.0
 10
255.146676702256
 20
53.7770958451061
 30
0.0
 10
254.2452120398154
 20
53.26047123249794
 30
0.0
 10
253.3477849184027
 20
52.66291975558558
 30
0.0
 10
252.4600823058754
 20
51.98844717001511
 30
0.0
 10
251.5876415798833
 20
51.24148580074469
 30
0.0
 10
250.7358656764241
 20
50.42686907775258
 30
0.0
 10
249.9100194094287
 20
49.54981449074855
 30
0.0
 10
249.1152066643989
 20
48.61590395725821
 30
0.0
 10
248.3563483971428
 20
47.63104654297621
 30
0.0
 10
247.6381543843714
 20
46.60145340918699
 30
0.0
 10
246.9650890745461
 20
45.53360118820848
 30
0.0
 10
246.3413672952036
 20
44.43419491910522
 30
0.0
 10
245.7708615016948
 20
43.31012230638556
 30
0.0
 10
245.2573229723303
 20
42.16846069305962
 30
0.0
 10
244.8034195365325
 20
41.01620995756942
 30
0.0
 10
244.4142464707506
 20
39.86106709935446
 30
0.0
 10
244.128447404737
 20
38.86313154444313
 30
0.0
 10
243.9917687179977
 20
38.25660191905698
 30
0.0
 10
243.9406517748905
 20
38.0297637697207
 30
0.0
  0
LINE
  5
247
330
1F
100
AcDbEntity
  8
0
  6
Continuous
 62
     7
370
    15
100
AcDbLine
 10
253.7085201043
 20
52.8891969627
 30
0.0
 11
232.3966767244
 21
60.5691408721
 31
0.0
  0
LINE
  5
248
330
1F
100
AcDbEntity
  8
0
  6
Continuous
 62
     7
370
    15
100
AcDbLine
 10
226.2318947298
 20
49.8902682268
 30
0.0
 11
246.6024732827
 21
32.6895203608
 31
0.0
  0
SPLINE
  5
249
330
1F
100
AcDbEntity
  8
0
  6
Continuous
 62
     7
370
    15
100
AcDbSpline
210
0.0
220
0.0
230
1.0
 70
     8
 71
     3
 72
    13
 73
     9
 74
     0
 42
0.000000001
 43
0.00000001
 40
0.0
 40
0.0
 40
0.0
 40
0.0
 40
0.0419025255818668
 40
0.2527262808871391
 40
0.4643661301005798
 40
0.6767013529232945
 40
0.8895485717295074
 40
1.0
 40
1.0
 40
1.0
 40
1.0
 10
254.6638673292696
 20
23.02461891659915
 30
0.0
 10
254.7158222466915
 20
23.01929050387491
 30
0.0
 10
255.0291774173288
 20
22.98715330182973
 30
0.0
 10
255.6354408868138
 20
23.01866993428292
 30
0.0
 10
256.4785597195058
 20
23.12246299823794
 30
0.0
 10
257.347491447995
 20
23.33072057884427
 30
0.0
 10
258.0890479568584
 20
23.56586550449092
 30
0.0
 10
258.5423306372578
 20
23.76568343634916
 30
0.0
 10
258.6971896814051
 20
23.83394903587257
 30
0.0
  0
LINE
  5
24A
330
1F
100
AcDbEntity
  8
0
  6
Continuous
 62
     7
370
    15
100
AcDbLine
 10
250.6941544497
 20
24.5569947271
 30
0.0
 11
252.0476142203
 21
23.7756590327
 31
0.0
  0
LINE
  5
24B
330
1F
100
AcDbEntity
  8
0
  6
Continuous
 62
     7
370
    15
100
AcDbLine
 10
246.8680572857
 20
26.7657536051
 30
0.0
 11
248.2038397461
 21
25.9946228047
 31
0.0
  0
SPLINE
  5
24C
330
1F
100
AcDbEntity
  8
0
  6
Continuous
 62
     7
370
    15
100
AcDbSpline
210
0.0
220
0.0
230
1.0
 70
     8
 71
     3
 72
    11
 73
     7
 74
     0
 42
0.000000001
 43
0.00000001
 40
0.0
 40
0.0
 40
0.0
 40
0.0
 40
0.1180302128941085
 40
0.4827379409526625
 40
0.846884106566007
 40
1.0
 40
1.0
 40
1.0
 40
1.0
 10
243.9480699495007
 20
30.76290294184946
 30
0.0
 10
243.975379846864
 20
30.67001502101715
 30
0.0
 10
244.087076024457
 20
30.29010785536463
 30
0.0
 10
244.3363261286557
 20
29.67102870977877
 30
0.0
 10
244.6329112975644
 20
29.06157899713875
 30
0.0
 10
244.8487512213152
 20
28.75043523520025
 30
0.0
 10
244.9126424775669
 20
28.65833287767693
 30
0.0
  0
SPLINE
  5
24D
330
1F
100
AcDbEntity
  8
0
  6
Continuous
 62
     7
370
    15
100
AcDbSpline
210
0.0
220
0.0
230
1.0
 70
     8
 71
     3
 72
    12
 73
     8
 74
     0
 42
0.000000001
 43
0.00000001
 40
0.0
 40
0.0
 40
0.0
 40
0.0
 40
0.0932893153745303
 40
0.3300641976916078
 40
0.5664712014449339
 40
0.8021290781233285
 40
1.0
 40
1.0
 40
1.0
 40
1.0
 10
270.8551264352157
 20
47.23048017937973
 30
0.0
 10
270.8217730966319
 20
47.34345880669392
 30
0.0
 10
270.7037666250893
 20
47.74318518297881
 30
0.0
 10
270.4500954780371
 20
48.38455737140536
 30
0.0
 10
270.0681370833517
 20
49.12211526189741
 30
0.0
 10
269.6491486617929
 20
49.75792763196534
 30
0.0
 10
269.3277564155467
 20
50.1070931975599
 30
0.0
 10
269.1810667832531
 20
50.26645910954097
 30
0.0
  0
SPLINE
  5
24E
330
1F
100
AcDbEntity
  8
0
  6
Continuous
 62
     7
370
    15
100
AcDbSpline
210
0.0
220
0.0
230
1.0
 70
     8
 71
     3
 72
    26
 73
    22
 74
     0
 42
0.000000001
 43
0.00000001
 40
0.0
 40
0.0
 40
0.0
 40
0.0
 40
0.0073241667259556
 40
0.0609613944674346
 40
0.1150337922428609
 40
0.1701275362067594
 40
0.2263845539547432
 40
0.2835519922205795
 40
0.3412214380077846
 40
0.3990421752259526
 40
0.456800975556303
 40
0.5144522763549512
 40
0.5720037689529229
 40
0.6294873250829268
 40
0.6869448094022034
 40
0.7444215668897094
 40
0.8019502894913987
 40
0.8595796749797635
 40
0.9173570505578378
 40
0.9753217851374012
 40
0.9999999999999999
 40
0.9999999999999999
 40
0.9999999999999999
 40
0.9999999999999999
 10
232.4531785261127
 20
60.541672857943
 30
0.0
 10
232.4331259295837
 20
60.55152489151436
 30
0.0
 10
232.266221721523
 20
60.63352653447561
 30
0.0
 10
231.9112962027203
 20
60.70138233458727
 30
0.0
 10
231.3983196728233
 20
60.73772523420686
 30
0.0
 10
230.8553874389608
 20
60.67345448798038
 30
0.0
 10
230.2935810106543
 20
60.51964445888935
 30
0.0
 10
229.7195336476128
 20
60.27407084170886
 30
0.0
 10
229.1438301443763
 20
59.941251494446
 30
0.0
 10
228.5770243529949
 20
59.52729190827387
 30
0.0
 10
228.0289631804521
 20
59.04029192601805
 30
0.0
 10
227.5083710814191
 20
58.48907557199038
 30
0.0
 10
227.0230464631365
 20
57.88292592454851
 30
0.0
 10
226.5802401599624
 20
57.23162350135962
 30
0.0
 10
226.1866365549919
 20
56.54543294916702
 30
0.0
 10
225.8483283727492
 20
55.8350231309886
 30
0.0
 10
225.5708373219874
 20
55.11133817783448
 30
0.0
 10
225.3585517801937
 20
54.38517721118134
 30
0.0
 10
225.2165952664725
 20
53.66792221140232
 30
0.0
 10
225.1580099562478
 20
53.10270043828114
 30
0.0
 10
225.1533167671959
 20
52.78298118861636
 30
0.0
 10
225.1519153224436
 20
52.68750903530873
 30
0.0
  0
SPLINE
  5
24F
330
1F
100
AcDbEntity
  8
0
  6
Continuous
 62
     7
370
    15
100
AcDbSpline
210
0.0
220
0.0
230
1.0
 70
     8
 71
     3
 72
    13
 73
     9
 74
     0
 42
0.000000001
 43
0.00000001
 40
0.0
 40
0.0
 40
0.0
 40
0.0
 40
0.1025645524583161
 40
0.296461134912834
 40
0.4903842566651621
 40
0.6827275968552563
 40
0.8717653131650821
 40
1.0
 40
1.0
 40
1.0
 40
1.0
 10
225.1519153224436
 20
52.68750903530873
 30
0.0
 10
225.1540683085187
 20
52.57013027867428
 30
0.0
 10
225.1602914790001
 20
52.23084893270782
 30
0.0
 10
225.2301255578681
 20
51.70013946337876
 30
0.0
 10
225.3868740565844
 20
51.11965365357275
 30
0.0
 10
225.624736227273
 20
50.60630251942493
 30
0.0
 10
225.89589828841
 20
50.20148497959529
 30
0.0
 10
226.1152455438863
 20
50.00745354014084
 30
0.0
 10
226.2039009905477
 20
49.92903020225216
 30
0.0
  0
LWPOLYLINE
  5
250
330
1F
100
AcDbEntity
  8
0
  6
Continuous
 62
     7
370
    15
100
AcDbPolyline
 90
       20
 70
   128
 43
0.0
 10
267.385491017
 20
44.4575808198
 10
267.2572970967
 20
44.7687183162
 10
267.0198475144
 20
45.0576703473
 10
266.6835194499
 20
45.3118083425
 10
266.2630117813
 20
45.5200253602
 10
265.7767041564
 20
45.6732207093
 10
265.2458499467
 20
45.764699317
 10
264.6936495931
 20
45.7904632717
 10
264.14423727
 20
45.749386416
 10
263.6216249919
 20
45.6432640059
 10
263.1486528315
 20
45.4767343608
 10
262.7459924187
 20
45.2570754008
 10
262.4312424088
 20
44.9938870037
 10
262.2181581502
 20
44.6986721528
 10
262.1160527998
 20
44.3843330577
 10
262.12938882
 20
44.0646076238
 10
262.2575827403
 20
43.7534701274
 10
262.4950329811
 20
43.4645177162
 10
262.8313610456
 20
43.210379721
 10
263.2358137284
 20
43.0086120914
  0
ARC
  5
251
330
1F
100
AcDbEntity
  8
0
  6
Continuous
 62
     7
370
    15
100
AcDbCircle
 10
266.0881948252
 20
44.3451401891
 30
0.0
 40
1.302159861405193
100
AcDbArc
 50
288.7845416267
 51
4.9536210582
  0
LWPOLYLINE
  5
252
330
1F
100
AcDbEntity
  8
0
  6
Continuous
 62
     7
370
    15
100
AcDbPolyline
 90
       26
 70
   128
 43
0.0
 10
266.5425311623
 20
44.39455677
 10
266.4289557777
 20
44.6466410887
 10
266.2103521752
 20
44.8745004745
 10
265.9004555354
 20
45.0638180707
 10
265.5187409127
 20
45.2026964208
 10
265.0891901931
 20
45.2824108212
 10
264.638794482
 20
45.2979521566
 10
264.1958536593
 20
45.2483439137
 10
263.7881989478
 20
45.1367033767
 10
263.4414461752
 20
44.9700445392
 10
263.1773812389
 20
44.7588402731
 10
263.0125976391
 20
44.5163604892
 10
262.9574487759
 20
44.2578414903
 10
263.0154003633
 20
43.9995266662
 10
263.1828101152
 20
43.7576474316
 10
263.4491598408
 20
43.5474014959
 10
263.7977132079
 20
43.3819997072
 10
264.2065712242
 20
43.2718337651
 10
264.6500407758
 20
43.2238276997
 10
265.1002592562
 20
43.2409964939
 10
265.5289374866
 20
43.3222615588
 10
265.9091394428
 20
43.4625170793
 10
266.2169753219
 20
43.6529504676
 10
266.4331030029
 20
43.8815958778
 10
266.5439434933
 20
44.1340860514
 10
266.5425311623
 20
44.39455677
  0
SPLINE
  5
253
330
1F
100
AcDbEntity
  8
0
  6
Continuous
 62
     7
370
    15
100
AcDbSpline
210
0.0
220
0.0
230
1.0
 70
     8
 71
     3
 72
    10
 73
     6
 74
     0
 42
0.000000001
 43
0.00000001
 40
0.0
 40
0.0
 40
0.0
 40
0.0
 40
0.4391282046130086
 40
0.7513758992284028
 40
0.9999999999999999
 40
0.9999999999999999
 40
0.9999999999999999
 40
0.9999999999999999
 10
266.1337860863704
 20
44.81263419601889
 30
0.0
 10
265.9048979073251
 20
44.78380373079924
 30
0.0
 10
265.5132558776255
 20
44.73447299662634
 30
0.0
 10
264.9439439373054
 20
44.93522571287557
 30
0.0
 10
264.6605859869377
 20
45.11675310952729
 30
0.0
 10
264.5349786446073
 20
45.19722084944422
 30
0.0
  0
SPLINE
  5
254
330
1F
100
AcDbEntity
  8
0
  6
Continuous
 62
     7
370
    15
100
AcDbSpline
210
0.0
220
0.0
230
1.0
 70
     8
 71
     3
 72
    10
 73
     6
 74
     0
 42
0.000000001
 43
0.00000001
 40
0.0
 40
0.0
 40
0.0
 40
0.0
 40
0.439127894820067
 40
0.7513758713619867
 40
1.0
 40
1.0
 40
1.0
 40
1.0
 10
264.5349786446073
 20
45.19722084944422
 30
0.0
 10
264.3379385689303
 20
45.02642968298344
 30
0.0
 10
264.0007904161906
 20
44.734195090205
 30
0.0
 10
263.51069443589
 20
44.58184970813122
 30
0.0
 10
263.2667630099649
 20
44.58763345977631
 30
0.0
 10
263.1586327648378
 20
44.59019728885561
 30
0.0
  0
SPLINE
  5
255
330
1F
100
AcDbEntity
  8
0
  6
Continuous
 62
     7
370
    15
100
AcDbSpline
210
0.0
220
0.0
230
1.0
 70
     8
 71
     3
 72
    11
 73
     7
 74
     0
 42
0.000000001
 43
0.00000001
 40
0.0
 40
0.0
 40
0.0
 40
0.0
 40
0.1849310462526322
 40
0.5198463959505323
 40
0.8714435793142177
 40
1.0
 40
1.0
 40
1.0
 40
1.0
 10
263.1586327648378
 20
44.59019728885561
 30
0.0
 10
263.1715813194211
 20
44.49426428262785
 30
0.0
 10
263.2079800721959
 20
44.22459389168617
 30
0.0
 10
263.2759236666199
 20
43.8423658876085
 30
0.0
 10
263.33867256067
 20
43.65985708612345
 30
0.0
 10
263.3721351333404
 20
43.61152702299953
 30
0.0
 10
263.3810944091495
 20
43.59858712236288
 30
0.0
  0
LINE
  5
256
330
1F
100
AcDbEntity
  8
0
  6
Continuous
 62
     7
370
    15
100
AcDbLine
 10
263.3810944091
 20
43.5985871224
 30
0.0
 11
263.6086235946
 21
43.4832258605
 31
0.0
  0
SPLINE
  5
257
330
1F
100
AcDbEntity
  8
0
  6
Continuous
 62
     7
370
    15
100
AcDbSpline
210
0.0
220
0.0
230
1.0
 70
     8
 71
     3
 72
     9
 73
     5
 74
     0
 42
0.000000001
 43
0.00000001
 40
0.0
 40
0.0
 40
0.0
 40
0.0
 40
0.3587103533489407
 40
1.0
 40
1.0
 40
1.0
 40
1.0
 10
265.8279662093595
 20
43.42991415362999
 30
0.0
 10
265.8946770096507
 20
43.46368959562884
 30
0.0
 10
266.0806510125429
 20
43.55784757485505
 30
0.0
 10
266.2485649463281
 20
43.718195393747
 30
0.0
 10
266.3562464135931
 20
43.82102478986547
 30
0.0
  0
SPLINE
  5
258
330
1F
100
AcDbEntity
  8
0
  6
Continuous
 62
     7
370
    15
100
AcDbSpline
210
0.0
220
0.0
230
1.0
 70
     8
 71
     3
 72
    11
 73
     7
 74
     0
 42
0.000000001
 43
0.00000001
 40
0.0
 40
0.0
 40
0.0
 40
0.0
 40
0.1285557644475949
 40
0.480153973122028
 40
0.8150695953358839
 40
1.0
 40
1.0
 40
1.0
 40
1.0
 10
266.3562464135931
 20
43.82102478986547
 30
0.0
 10
266.3472876580852
 20
43.83396442257565
 30
0.0
 10
266.3138268321954
 20
43.88229376885759
 30
0.0
 10
266.2510750586582
 20
44.06480356572363
 30
0.0
 10
266.1831317159106
 20
44.44703096429405
 30
0.0
 10
266.1467341743468
 20
44.71670142845819
 30
0.0
 10
266.1337860863704
 20
44.81263419601889
 30
0.0
  0
LINE
  5
259
330
1F
100
AcDbEntity
  8
0
  6
Continuous
 62
     7
370
    15
100
AcDbLine
 10
266.1337860864
 20
43.6316855165
 30
0.0
 11
266.1337860864
 21
44.812634196
 31
0.0
  0
LINE
  5
25A
330
1F
100
AcDbEntity
  8
0
  6
Continuous
 62
     7
370
    15
100
AcDbLine
 10
264.5349786446
 20
43.229942894
 30
0.0
 11
264.5349786446
 21
45.1972208494
 31
0.0
  0
ARC
  5
25B
330
1F
100
AcDbEntity
  8
0
  6
Continuous
 62
     7
370
    15
100
AcDbCircle
 10
267.9038959762
 20
36.0093121561
 30
0.0
 40
1.530498625904972
100
AcDbArc
 50
219.4569677784
 51
275.2794358261
  0
LWPOLYLINE
  5
25C
330
1F
100
AcDbEntity
  8
0
  6
Continuous
 62
     7
370
    15
100
AcDbPolyline
 90
       66
 70
   128
 43
0.0
 10
269.7248651791
 20
41.9037981789
 10
268.8888560148
 20
41.3744848978
 10
268.0606524139
 20
40.7567209701
 10
267.2479870883
 20
40.0562761102
 10
266.4584478703
 20
39.2796888739
 10
265.6994061776
 20
38.4342101538
 10
264.9779489372
 20
37.5277342203
 10
264.3008127299
 20
36.5687249637
 10
263.6743189246
 20
35.5661358612
 10
263.1043177013
 20
34.5293274718
 10
262.5961314169
 20
33.4679815098
 10
262.1545035673
 20
32.3920067417
 10
261.7835579583
 20
31.3114484953
 10
261.486758534
 20
30.2363968376
 10
261.2668757911
 20
29.1768884782
 10
261.1259630715
 20
28.1428161811
 10
261.065336147
 20
27.1438346835
 10
261.0855613659
 20
26.1892714137
 10
261.1864484089
 20
25.2880380402
 10
261.3670568744
 20
24.4485500999
 10
261.6257002299
 20
23.6786455571
 10
261.9599629342
 20
22.9855119632
 10
262.3667248033
 20
22.3756221008
 10
262.8421873527
 20
21.8546691515
 10
263.3819113336
 20
21.427518213
 10
263.9808582222
 20
21.098156865
 10
264.6334353291
 20
20.8696603739
 10
265.3335494713
 20
20.7441614592
 10
266.0746642653
 20
20.7228335582
 10
266.8498600548
 20
20.8058737097
 10
267.6518989415
 20
20.9925089169
 10
268.4732926159
 20
21.2809950004
 10
269.3063718746
 20
21.6686384786
 10
270.1433584836
 20
22.1518205632
 10
270.9764377422
 20
22.7260299234
 10
271.7978314167
 20
23.38590479
 10
272.5998703034
 20
24.1252839706
 10
273.3750660928
 20
24.9372658265
 10
274.1161808868
 20
25.8142666552
 10
274.8162950291
 20
26.7481001526
 10
275.468872136
 20
27.7300461337
 10
276.0678190245
 20
28.7509368396
 10
276.6075430055
 20
29.8012398224
 10
277.0830055548
 20
30.8711501462
 10
277.489767424
 20
31.9506772662
 10
277.8240301282
 20
33.0297423637
 10
278.0826734838
 20
34.0982701684
 10
278.2632819492
 20
35.1462842043
 10
278.3641689922
 20
36.1639992783
 10
278.3843942112
 20
37.1419140888
 10
278.3237672867
 20
38.0708972294
 10
278.182854567
 20
38.9422751634
 10
277.9629718242
 20
39.7479123118
 10
277.6661723999
 20
40.4802866482
 10
277.2952267909
 20
41.1325602107
 10
276.8535989413
 20
41.6986423171
 10
276.3454126568
 20
42.1732488842
 10
275.7754114336
 20
42.5519478694
 10
275.1489176282
 20
42.8312026209
 10
274.471781421
 20
43.0084070538
 10
273.7503241805
 20
43.0819061879
 10
272.9912824879
 20
43.0510140238
 10
272.2017432698
 20
42.9160186824
 10
271.3890779443
 20
42.6781801294
 10
270.5608743434
 20
42.3397205333
 10
269.7248651791
 20
41.9037981789
  0
LWPOLYLINE
  5
25D
330
1F
100
AcDbEntity
  8
0
  6
Continuous
 62
     7
370
    15
100
AcDbPolyline
 90
       35
 70
   128
 43
0.0
 10
269.5480881255
 20
42.2099850164
 10
268.7079034598
 20
41.6787396007
 10
267.8753276172
 20
41.0598714159
 10
267.0579006856
 20
40.3589849837
 10
266.2630251168
 20
39.5824266705
 10
265.4978994607
 20
38.7372304628
 10
264.7694534167
 20
37.8310508151
 10
264.0842829664
 20
36.8720925029
 10
263.4485935749
 20
35.8690413315
 10
262.8681425674
 20
34.8309806798
 10
262.3481861169
 20
33.7673114674
 10
261.8934328167
 20
32.687666416
 10
261.5080012042
 20
31.6018227909
 10
261.1953822237
 20
30.5196145705
 10
260.9584062996
 20
29.4508417648
 10
260.7992196284
 20
28.4051838192
 10
260.7192650811
 20
27.3921108804
 10
260.7192650811
 20
26.4207964396
 10
260.7992196284
 20
25.5000370561
 10
260.9584062996
 20
24.638172129
 10
261.1953822237
 20
23.8430059013
 10
261.5080012042
 20
23.1217398729
 10
261.8934328167
 20
22.4809061153
 10
262.3481861169
 20
21.9263080484
 10
262.8681425674
 20
21.4629677753
 10
263.4485935749
 20
21.0950815919
 10
264.0842829664
 20
20.8259817693
 10
264.7694534167
 20
20.6581044204
 10
265.4978994607
 20
20.5929706729
 10
266.2630251168
 20
20.6311697442
 10
267.0579006856
 20
20.772355228
 10
267.8753276172
 20
21.0152498421
 10
268.7079034598
 20
21.3576532638
 10
269.5480881255
 20
21.796464415
 10
269.5495246847
 20
21.797293723
  0
LWPOLYLINE
  5
25E
330
1F
100
AcDbEntity
  8
0
  6
Continuous
 62
     7
370
    15
100
AcDbPolyline
 90
       18
 70
   128
 43
0.0
 10
278.3869230221
 20
37.1057754906
 10
278.3769111699
 20
37.5856529918
 10
278.2969566227
 20
38.5064123753
 10
278.1377699515
 20
39.3682773024
 10
277.9007940274
 20
40.1634435301
 10
277.5881750469
 20
40.8847095585
 10
277.2027434343
 20
41.5255433161
 10
276.7479901342
 20
42.080141383
 10
276.2280336837
 20
42.5434816561
 10
275.6475826762
 20
42.9113678395
 10
275.0118932846
 20
43.1804676621
 10
274.3267228344
 20
43.348345011
 10
273.5982767903
 20
43.4134787585
 10
272.8331511343
 20
43.3752796872
 10
272.0382755654
 20
43.2340942034
 10
271.2208486338
 20
42.9911995893
 10
270.3882727913
 20
42.6487961676
 10
269.5480881255
 20
42.2099850164
  0
SPLINE
  5
25F
330
1F
100
AcDbEntity
  8
0
  6
Continuous
 62
     7
370
    15
100
AcDbSpline
210
0.0
220
0.0
230
1.0
 70
     8
 71
     3
 72
     8
 73
     4
 74
     0
 42
0.000000001
 43
0.00000001
 40
0.0
 40
0.0
 40
0.0
 40
0.0
 40
1.0
 40
1.0
 40
1.0
 40
1.0
 10
252.8222340272709
 20
28.870155748812
 30
0.0
 10
253.0527927134706
 20
28.82107085488702
 30
0.0
 10
253.2509171262438
 20
28.82110930525012
 30
0.0
 10
253.4239522871291
 20
28.87156360808417
 30
0.0
  0
SPLINE
  5
260
330
1F
100
AcDbEntity
  8
0
  6
Continuous
 62
     7
370
    15
100
AcDbSpline
210
0.0
220
0.0
230
1.0
 70
     8
 71
     3
 72
    33
 73
    29
 74
     0
 42
0.000000001
 43
0.00000001
 40
0.0
 40
0.0
 40
0.0
 40
0.0
 40
0.0624999999999999
 40
0.0624999999999999
 40
0.1249999999999999
 40
0.1249999999999999
 40
0.1874999999999998
 40
0.1874999999999998
 40
0.2499999999999998
 40
0.2499999999999998
 40
0.3749999999999998
 40
0.3749999999999998
 40
0.4374999999999998
 40
0.4374999999999998
 40
0.4999999999999998
 40
0.5624999999999997
 40
0.5624999999999997
 40
0.6249999999999997
 40
0.6249999999999997
 40
0.7499999999999998
 40
0.7499999999999998
 40
0.8124999999999998
 40
0.8124999999999998
 40
0.8749999999999999
 40
0.8749999999999999
 40
0.9374999999999999
 40
0.9374999999999999
 40
1.0
 40
1.0
 40
1.0
 40
1.0
 10
253.4239522871291
 20
28.87156360808417
 30
0.0
 10
253.4891211397891
 20
28.89056580977911
 30
0.0
 10
253.5507307468171
 20
28.91704060572186
 30
0.0
 10
253.6643648314347
 20
28.98381298373558
 30
0.0
 10
253.7168071695808
 20
29.02418552760807
 30
0.0
 10
253.813718525345
 20
29.11912014331008
 30
0.0
 10
253.858186229705
 20
29.17368073449497
 30
0.0
 10
253.9395521367365
 20
29.29776018420261
 30
0.0
 10
253.976524250206
 20
29.3676462547874
 30
0.0
 10
254.0739266156117
 20
29.59544846120305
 30
0.0
 10
254.1221199646408
 20
29.77252684013002
 30
0.0
 10
254.1711003692237
 20
30.07812696803031
 30
0.0
 10
254.1834970594222
 20
30.18740565660576
 30
0.0
 10
254.1998059700456
 20
30.41427582967505
 30
0.0
 10
254.2078810461249
 20
30.6503516911013
 30
0.0
 10
254.1999165324313
 20
30.90458002253712
 30
0.0
 10
254.1837089467782
 20
31.1680259049018
 30
0.0
 10
254.1713686807885
 20
31.30496728907327
 30
0.0
 10
254.1225273486576
 20
31.71909845042266
 30
0.0
 10
254.0743591208223
 20
32.00255927963204
 30
0.0
 10
253.9766281789578
 20
32.43773606738097
 30
0.0
 10
253.939708473318
 20
32.58437122832409
 30
0.0
 10
253.8585621362444
 20
32.87366024798457
 30
0.0
 10
253.8141462792991
 20
33.01722076957984
 30
0.0
 10
253.7171414351079
 20
33.30199663569203
 30
0.0
 10
253.6645544306182
 20
33.44321264901723
 30
0.0
 10
253.5503312447139
 20
33.72300763090978
 30
0.0
 10
253.4888558521013
 20
33.86101593888724
 30
0.0
 10
253.4239522871291
 20
33.99434049221816
 30
0.0
  0
SPLINE
  5
261
330
1F
100
AcDbEntity
  8
0
  6
Continuous
 62
     7
370
    15
100
AcDbSpline
210
0.0
220
0.0
230
1.0
 70
     8
 71
     3
 72
    10
 73
     6
 74
     0
 42
0.000000001
 43
0.00000001
 40
0.0
 40
0.0
 40
0.0
 40
0.0
 40
0.5
 40
0.5
 40
1.0
 40
1.0
 40
1.0
 40
1.0
 10
253.4239522871291
 20
33.99434049221816
 30
0.0
 10
253.3378995300721
 20
34.17110960193381
 30
0.0
 10
253.2452830296144
 20
34.34106503210177
 30
0.0
 10
253.0452910643668
 20
34.6667426022972
 30
0.0
 10
252.9373644949056
 20
34.82314910049171
 30
0.0
 10
252.8222340272709
 20
34.96980306044821
 30
0.0
  0
SPLINE
  5
262
330
1F
100
AcDbEntity
  8
0
  6
Continuous
 62
     7
370
    15
100
AcDbSpline
210
0.0
220
0.0
230
1.0
 70
    11
 71
     3
 72
    88
 73
    84
 74
     0
 42
0.000000001
 43
0.00000001
 40
0.0
 40
0.0
 40
0.0
 40
0.0
 40
0.0312499999999998
 40
0.0312499999999998
 40
0.0624999999999996
 40
0.0624999999999996
 40
0.0937499999999994
 40
0.0937499999999994
 40
0.1093749999999993
 40
0.1093749999999993
 40
0.1249999999999992
 40
0.1249999999999992
 40
0.1406249999999991
 40
0.1406249999999991
 40
0.1562499999999989
 40
0.1562499999999989
 40
0.1874999999999986
 40
0.1874999999999986
 40
0.2187499999999984
 40
0.2187499999999984
 40
0.2499999999999981
 40
0.2499999999999981
 40
0.2812499999999979
 40
0.2812499999999979
 40
0.3124999999999976
 40
0.3124999999999976
 40
0.3437499999999974
 40
0.3437499999999974
 40
0.3749999999999971
 40
0.3749999999999971
 40
0.3906249999999972
 40
0.3906249999999972
 40
0.4062499999999974
 40
0.4062499999999974
 40
0.4374999999999976
 40
0.4374999999999976
 40
0.4531249999999975
 40
0.4531249999999975
 40
0.4687499999999974
 40
0.4687499999999974
 40
0.4999999999999976
 40
0.4999999999999976
 40
0.5156249999999974
 40
0.5156249999999974
 40
0.5312499999999973
 40
0.5312499999999973
 40
0.5624999999999971
 40
0.5624999999999971
 40
0.5781249999999972
 40
0.5781249999999972
 40
0.5937499999999972
 40
0.5937499999999972
 40
0.6249999999999971
 40
0.6249999999999971
 40
0.6406249999999971
 40
0.6406249999999971
 40
0.6562499999999971
 40
0.6562499999999971
 40
0.6874999999999969
 40
0.6874999999999969
 40
0.7187499999999968
 40
0.7187499999999968
 40
0.7499999999999966
 40
0.7499999999999966
 40
0.7812499999999963
 40
0.7812499999999963
 40
0.8124999999999961
 40
0.8124999999999961
 40
0.8281249999999963
 40
0.8281249999999963
 40
0.8437499999999964
 40
0.8437499999999964
 40
0.8749999999999971
 40
0.8749999999999971
 40
0.8906249999999974
 40
0.8906249999999974
 40
0.9062499999999978
 40
0.9062499999999978
 40
0.9374999999999984
 40
0.9374999999999984
 40
0.9687499999999992
 40
0.9687499999999992
 40
1.0
 40
1.0
 40
1.0
 40
1.0
 10
264.7246335695462
 20
46.74983385698461
 30
0.0
 10
264.5014064595254
 20
46.78645411179317
 30
0.0
 10
264.2789725857171
 20
46.81103828312188
 30
0.0
 10
263.8353918556945
 20
46.83246815258359
 30
0.0
 10
263.6122647738624
 20
46.82889034345204
 30
0.0
 10
263.1873198765524
 20
46.78921726069671
 30
0.0
 10
262.9833685840653
 20
46.7535142308385
 30
0.0
 10
262.6913052911009
 20
46.67258921157948
 30
0.0
 10
262.5959818410274
 20
46.64081258496351
 30
0.0
 10
262.4158810596674
 20
46.56950719370406
 30
0.0
 10
262.3303751550062
 20
46.52982096697291
 30
0.0
 10
262.168364738803
 20
46.44240610064168
 30
0.0
 10
262.0918599418226
 20
46.39467770314623
 30
0.0
 10
261.9480549184411
 20
46.29101713741234
 30
0.0
 10
261.8806306369017
 20
46.23484198584904
 30
0.0
 10
261.6976966073019
 20
46.05878854771804
 30
0.0
 10
261.599227644831
 20
45.93014155600001
 30
0.0
 10
261.4471349959901
 20
45.6526936947535
 30
0.0
 10
261.3955425469057
 20
45.50712152144333
 30
0.0
 10
261.3380221856467
 20
45.21017311757942
 30
0.0
 10
261.3321430153302
 20
45.05681103443686
 30
0.0
 10
261.3633018709231
 20
44.75608896156159
 30
0.0
 10
261.3998329222927
 20
44.60764136029815
 30
0.0
 10
261.5131444629952
 20
44.3165673178296
 30
0.0
 10
261.5892831388274
 20
44.17624948917926
 30
0.0
 10
261.7754565374292
 20
43.91193423387477
 30
0.0
 10
261.8863123035429
 20
43.78667922984089
 30
0.0
 10
262.1412924650598
 20
43.55438610887676
 30
0.0
 10
262.2827646395803
 20
43.44958566745477
 30
0.0
 10
262.5150886870334
 20
43.30910235571095
 30
0.0
 10
262.5959045172016
 20
43.26507176160311
 30
0.0
 10
262.7643986374736
 20
43.18268363265401
 30
0.0
 10
262.8525204604572
 20
43.14416360688248
 30
0.0
 10
263.1239425373383
 20
43.0387355914724
 30
0.0
 10
263.3136253288677
 20
42.98192978741553
 30
0.0
 10
263.6111568229365
 20
42.9157882456334
 30
0.0
 10
263.7125160146481
 20
42.8969341226933
 30
0.0
 10
263.9197654857714
 20
42.86560874912123
 30
0.0
 10
264.0262255802193
 20
42.8531016368182
 30
0.0
 10
264.3475063835154
 20
42.82574122497544
 30
0.0
 10
264.5644147146668
 20
42.82074602439135
 30
0.0
 10
264.894209144204
 20
42.83184931730923
 30
0.0
 10
265.004884534894
 20
42.83867056594598
 30
0.0
 10
265.2278583411868
 20
42.8586124782579
 30
0.0
 10
265.3407822620781
 20
42.87184624215592
 30
0.0
 10
265.6745729207963
 20
42.92015379781722
 30
0.0
 10
265.8921591032681
 20
42.96374162871979
 30
0.0
 10
266.2109232064253
 20
43.04545309247156
 30
0.0
 10
266.3158987722867
 20
43.07543600629668
 30
0.0
 10
266.5231133729025
 20
43.14110084175278
 30
0.0
 10
266.6246154820935
 20
43.17659970503948
 30
0.0
 10
266.9159559213902
 20
43.28846673503955
 30
0.0
 10
267.0955059392057
 20
43.37095683404829
 30
0.0
 10
267.3417225558268
 20
43.50661824581638
 30
0.0
 10
267.4199629050327
 20
43.55396791668775
 30
0.0
 10
267.5639800205178
 20
43.64995121750899
 30
0.0
 10
267.6304053550514
 20
43.69891696665908
 30
0.0
 10
267.8133931908404
 20
43.84879392092121
 30
0.0
 10
267.9144565627826
 20
43.95391607554359
 30
0.0
 10
268.0662558461967
 20
44.16453655081126
 30
0.0
 10
268.1183220342525
 20
44.27071427171371
 30
0.0
 10
268.1769684424862
 20
44.48622550826897
 30
0.0
 10
268.1827826912408
 20
44.59247607686366
 30
0.0
 10
268.1521302779911
 20
44.8048382552855
 30
0.0
 10
268.1149368125103
 20
44.9116845089976
 30
0.0
 10
268.00233923006
 20
45.12057006430568
 30
0.0
 10
267.9270717140801
 20
45.22337779563521
 30
0.0
 10
267.7864294569297
 20
45.37678840008849
 30
0.0
 10
267.7346885408443
 20
45.42793566539665
 30
0.0
 10
267.6237413114902
 20
45.5283687408936
 30
0.0
 10
267.5643772750417
 20
45.57785694447671
 30
0.0
 10
267.3749309746911
 20
45.7244190059106
 30
0.0
 10
267.2335880443278
 20
45.81963122351625
 30
0.0
 10
266.9985165783561
 20
45.95904775756382
 30
0.0
 10
266.916448239996
 20
46.00481846510223
 30
0.0
 10
266.7476673105998
 20
46.09347556095623
 30
0.0
 10
266.66060059801
 20
46.13657687747843
 30
0.0
 10
266.3914628396561
 20
46.26213877532745
 30
0.0
 10
266.2015286135128
 20
46.34092113174486
 30
0.0
 10
265.7994370970966
 20
46.48688559964973
 30
0.0
 10
265.5912197728592
 20
46.55253324204998
 30
0.0
 10
265.16612645075
 20
46.66547317660268
 30
0.0
 10
264.947860679567
 20
46.71321360217604
 30
0.0
 10
264.7246335695461
 20
46.74983385698461
 30
0.0
  0
SPLINE
  5
263
330
1F
100
AcDbEntity
  8
0
  6
Continuous
 62
     7
370
    15
100
AcDbSpline
210
0.0
220
0.0
230
1.0
 70
     8
 71
     3
 72
    12
 73
     8
 74
     0
 42
0.000000001
 43
0.00000001
 40
0.0
 40
0.0
 40
0.0
 40
0.0
 40
0.2500000000000001
 40
0.2500000000000001
 40
0.5000000000000002
 40
0.5000000000000002
 40
1.0
 40
1.0
 40
1.0
 40
1.0
 10
249.2194429496634
 20
34.98356014949993
 30
0.0
 10
249.2532221159358
 20
34.96405985188641
 30
0.0
 10
249.2915468124112
 20
34.93722010330925
 30
0.0
 10
249.3657699365238
 20
34.87881959998659
 30
0.0
 10
249.4011533010186
 20
34.8478299415057
 30
0.0
 10
249.4969632594035
 20
34.75709058848495
 30
0.0
 10
249.5459670175578
 20
34.70119645976742
 30
0.0
 10
249.5797760751725
 20
34.65393659600075
 30
0.0
  0
SPLINE
  5
264
330
1F
100
AcDbEntity
  8
0
  6
Continuous
 62
     7
370
    15
100
AcDbSpline
210
0.0
220
0.0
230
1.0
 70
     8
 71
     3
 72
    12
 73
     8
 74
     0
 42
0.000000001
 43
0.00000001
 40
0.0
 40
0.0
 40
0.0
 40
0.0
 40
0.5
 40
0.5
 40
0.75
 40
0.75
 40
1.0
 40
1.0
 40
1.0
 40
1.0
 10
266.6843059883636
 20
51.4237381203223
 30
0.0
 10
266.6843059883636
 20
51.4951300374435
 30
0.0
 10
266.6666047870839
 20
51.57799867462628
 30
0.0
 10
266.6116535559113
 20
51.69654198572734
 30
0.0
 10
266.5883412134481
 20
51.73523785791568
 30
0.0
 10
266.5343765921853
 20
51.80180521301628
 30
0.0
 10
266.503674015443
 20
51.82965197114062
 30
0.0
 10
266.472173954008
 20
51.84783656953705
 30
0.0
  0
LWPOLYLINE
  5
265
330
1F
100
AcDbEntity
  8
0
  6
Continuous
 62
     7
370
    15
100
AcDbPolyline
 90
       12
 70
   128
 43
0.0
 10
255.1831494301
 20
48.6511002881
 10
256.0959869486
 20
49.4698004659
 10
257.0268722086
 20
50.2090174601
 10
257.969177824
 20
50.8634896082
 10
258.9161952841
 20
51.4285563299
 10
259.8611824104
 20
51.9001961696
 10
260.7974114298
 20
52.2750492256
 10
261.7182171722
 20
52.5504495364
 10
262.617043827
 20
52.7244345821
 10
263.4874924819
 20
52.795765884
 10
264.3233665622
 20
52.763936985
 10
265.1187138136
 20
52.6291725898
  0
LINE
  5
266
330
1F
100
AcDbEntity
  8
0
  6
Continuous
 62
     7
370
    15
100
AcDbLine
 10
266.4721735842
 20
51.8478368955
 30
0.0
 11
265.1187138136
 21
52.6291725898
 31
0.0
  0
LINE
  5
267
330
1F
100
AcDbEntity
  8
0
  6
Continuous
 62
     7
370
    15
100
AcDbLine
 10
247.8659830352
 20
35.7648960335
 30
0.0
 11
249.2194428058
 21
34.9835603391
 31
0.0
  0
ARC
  5
268
330
1F
100
AcDbEntity
  8
0
  6
Continuous
 62
     7
370
    15
100
AcDbCircle
 10
273.4819304409
 20
29.7533825216
 30
0.0
 40
26.31188051429233
100
AcDbArc
 50
136.4697995832
 51
166.7929036469
  0
SPLINE
  5
269
330
1F
100
AcDbEntity
  8
0
  6
Continuous
 62
     7
370
    15
100
AcDbSpline
210
0.0
220
0.0
230
1.0
 70
     8
 71
     3
 72
    12
 73
     8
 74
     0
 42
0.000000001
 43
0.00000001
 40
0.0
 40
0.0
 40
0.0
 40
0.0
 40
0.2500000000000001
 40
0.2500000000000001
 40
0.5000000000000002
 40
0.5000000000000002
 40
1.0
 40
1.0
 40
1.0
 40
1.0
 10
254.4055158253444
 20
47.87534351263444
 30
0.0
 10
254.5048305080643
 20
47.90869159693026
 30
0.0
 10
254.5986556477557
 20
47.95257379843478
 30
0.0
 10
254.7756487526613
 20
48.06070406723051
 30
0.0
 10
254.8554603205824
 20
48.12310955741168
 30
0.0
 10
255.0636441818027
 20
48.33050713520146
 30
0.0
 10
255.1553540153888
 20
48.49191767299522
 30
0.0
 10
255.1831493415625
 20
48.65110068053433
 30
0.0
  0
LINE
  5
26A
330
1F
100
AcDbEntity
  8
0
  6
Continuous
 62
     7
370
    15
100
AcDbLine
 10
249.6276712535
 20
34.5869865298
 30
0.0
 11
250.7150566524
 21
35.2147207589
 31
0.0
  0
LINE
  5
26B
330
1F
100
AcDbEntity
  8
0
  6
Continuous
 62
     7
370
    15
100
AcDbLine
 10
249.57977597
 20
34.6539364734
 30
0.0
 11
249.6276712535
 21
34.5869865298
 31
0.0
  0
LINE
  5
26C
330
1F
100
AcDbEntity
  8
0
  6
Continuous
 62
     7
370
    15
100
AcDbLine
 10
266.6843059167
 20
49.7814802641
 30
0.0
 11
266.6843059167
 21
51.4237379008
 31
0.0
  0
SPLINE
  5
26D
330
1F
100
AcDbEntity
  8
0
  6
Continuous
 62
     7
370
    15
100
AcDbSpline
210
0.0
220
0.0
230
1.0
 70
     8
 71
     3
 72
    10
 73
     6
 74
     0
 42
0.000000001
 43
0.00000001
 40
0.0
 40
0.0
 40
0.0
 40
0.0
 40
0.5000000000000002
 40
0.5000000000000002
 40
1.0
 40
1.0
 40
1.0
 40
1.0
 10
252.8222340272709
 20
34.96980306044821
 30
0.0
 10
252.7389707321669
 20
35.07586440282682
 30
0.0
 10
252.6395696416701
 20
35.16815405000796
 30
0.0
 10
252.4039618659433
 20
35.3209371080553
 30
0.0
 10
252.2741324056842
 20
35.37722256055864
 30
0.0
 10
252.1337244589977
 20
35.41465587541834
 30
0.0
  0
SPLINE
  5
26E
330
1F
100
AcDbEntity
  8
0
  6
Continuous
 62
     7
370
    15
100
AcDbSpline
210
0.0
220
0.0
230
1.0
 70
     8
 71
     3
 72
    14
 73
    10
 74
     0
 42
0.000000001
 43
0.00000001
 40
0.0
 40
0.0
 40
0.0
 40
0.0
 40
0.25
 40
0.25
 40
0.5
 40
0.5
 40
0.75
 40
0.75
 40
1.0
 40
1.0
 40
1.0
 40
1.0
 10
252.1337244589977
 20
35.41465587541834
 30
0.0
 10
252.0085160760595
 20
35.44803692636457
 30
0.0
 10
251.8808210230087
 20
35.46499929188525
 30
0.0
 10
251.6213225142197
 20
35.47230438134485
 30
0.0
 10
251.4943270352113
 20
35.46248701598481
 30
0.0
 10
251.2472899372226
 20
35.42184859479719
 30
0.0
 10
251.1289340149287
 20
35.39112037899863
 30
0.0
 10
250.9091172658372
 20
35.31418325616127
 30
0.0
 10
250.8059181049525
 20
35.2671739345675
 30
0.0
 10
250.7150566974384
 20
35.2147207605068
 30
0.0
  0
SPLINE
  5
26F
330
1F
100
AcDbEntity
  8
0
  6
Continuous
 62
     7
370
    15
100
AcDbSpline
210
0.0
220
0.0
230
1.0
 70
     8
 71
     3
 72
    14
 73
    10
 74
     0
 42
0.000000001
 43
0.00000001
 40
0.0
 40
0.0
 40
0.0
 40
0.0
 40
0.25
 40
0.25
 40
0.5
 40
0.5
 40
0.75
 40
0.75
 40
1.0
 40
1.0
 40
1.0
 40
1.0
 10
266.9614082725371
 20
48.49450203825141
 30
0.0
 10
266.9150777321328
 20
48.6040929726669
 30
0.0
 10
266.8744475164313
 20
48.71571302707046
 30
0.0
 10
266.8050399123156
 20
48.93810717349051
 30
0.0
 10
266.7764428512056
 20
49.04816410476872
 30
0.0
 10
266.7306971882578
 20
49.26434349742094
 30
0.0
 10
266.7134613973116
 20
49.37078664733811
 30
0.0
 10
266.6901992447636
 20
49.58039873873931
 30
0.0
 10
266.6843059883636
 20
49.68321907135577
 30
0.0
 10
266.6843059883636
 20
49.78148012409746
 30
0.0
  0
SPLINE
  5
270
330
1F
100
AcDbEntity
  8
0
  6
Continuous
 62
     7
370
    15
100
AcDbSpline
210
0.0
220
0.0
230
1.0
 70
     8
 71
     3
 72
    14
 73
    10
 74
     0
 42
0.000000001
 43
0.00000001
 40
0.0
 40
0.0
 40
0.0
 40
0.0
 40
0.25
 40
0.25
 40
0.5
 40
0.5
 40
0.75
 40
0.75
 40
1.0
 40
1.0
 40
1.0
 40
1.0
 10
267.6738793519367
 20
49.21002587159818
 30
0.0
 10
267.5873054479463
 20
49.16004782063725
 30
0.0
 10
267.5069152282522
 20
49.10668759050321
 30
0.0
 10
267.358358005948
 20
48.99354286111003
 30
0.0
 10
267.2906620397474
 20
48.93399725415214
 30
0.0
 10
267.1709928125931
 20
48.81243303587713
 30
0.0
 10
267.1185426301962
 20
48.75005612292553
 30
0.0
 10
267.0285136221506
 20
48.62327169213593
 30
0.0
 10
266.9908261432923
 20
48.55856640890453
 30
0.0
 10
266.9614082725371
 20
48.49450203825141
 30
0.0
  0
LINE
  5
271
330
1F
100
AcDbEntity
  8
0
  6
Continuous
 62
     7
370
    15
100
AcDbLine
 10
265.8166847227
 20
26.0756436985
 30
0.0
 11
265.871596798
 21
26.0429329381
 31
0.0
  0
LWPOLYLINE
  5
272
330
1F
100
AcDbEntity
  8
0
  6
Continuous
 62
     7
370
    15
100
AcDbPolyline
 90
        3
 70
   128
 43
0.0
 10
272.8710279802
 20
38.1676174142
 10
272.8147652302
 20
38.1990689747
 10
272.76690913
 20
38.22424992
  0
LINE
  5
273
330
1F
100
AcDbEntity
  8
0
  6
Continuous
 62
     7
370
    15
100
AcDbLine
 10
270.5925828499
 20
35.0427098008
 30
0.0
 11
270.4169328952
 21
34.9878636207
 31
0.0
  0
ARC
  5
274
330
1F
100
AcDbEntity
  8
0
  6
Continuous
 62
     7
370
    15
100
AcDbCircle
 10
263.2196134655
 20
44.2735692419
 30
0.0
 40
1.182247600681565
100
AcDbArc
 50
110.1219862606
 51
242.5700933041
  0
LWPOLYLINE
  5
275
330
1F
100
AcDbEntity
  8
0
  6
Continuous
 62
     7
370
    15
100
AcDbPolyline
 90
       16
 70
   128
 43
0.0
 10
266.9721738105
 20
43.32001655
 10
267.1949297625
 20
43.5260681095
 10
267.4013362564
 20
43.8243675857
 10
267.4995011233
 20
44.1405468445
 10
267.4854047312
 20
44.461661941
 10
267.3596263521
 20
44.7745649453
 10
267.1273130878
 20
45.066447134
 10
266.7979774489
 20
45.3253577789
 10
266.3851018171
 20
45.5406973702
 10
265.905589713
 20
45.7036497734
 10
265.3790721836
 20
45.8075436764
 10
264.8271050371
 20
45.8481259314
 10
264.2722859812
 20
45.8237346742
 10
263.7373284631
 20
45.7353691333
 10
263.2441347676
 20
45.5866464801
 10
262.81289661
 20
45.3836551794
  0
SPLINE
  5
276
330
1F
100
AcDbEntity
  8
0
  6
Continuous
 62
     7
370
    15
100
AcDbSpline
210
0.0
220
0.0
230
1.0
 70
     8
 71
     3
 72
     8
 73
     4
 74
     0
 42
0.000000001
 43
0.00000001
 40
0.0
 40
0.0
 40
0.0
 40
0.0
 40
1.0
 40
1.0
 40
1.0
 40
1.0
 10
246.8758315294259
 20
37.02327523836961
 30
0.0
 10
246.4951336634255
 20
36.96030840069901
 30
0.0
 10
246.1142956911856
 20
36.89760827856397
 30
0.0
 10
245.7333550404459
 20
36.83512739989094
 30
0.0
  0
SPLINE
  5
277
330
1F
100
AcDbEntity
  8
0
  6
Continuous
 62
     7
370
    15
100
AcDbSpline
210
0.0
220
0.0
230
1.0
 70
     8
 71
     3
 72
     8
 73
     4
 74
     0
 42
0.000000001
 43
0.00000001
 40
0.0
 40
0.0
 40
0.0
 40
0.0
 40
0.0011901715795577
 40
0.0011901715795577
 40
0.0011901715795577
 40
0.0011901715795577
 10
245.3756682428881
 20
37.20252405574654
 30
0.0
 10
245.4953147503829
 20
37.07990914599107
 30
0.0
 10
245.614557924531
 20
36.95743710549535
 30
0.0
 10
245.7333550404459
 20
36.83512739989094
 30
0.0
  0
LWPOLYLINE
  5
278
330
1F
100
AcDbEntity
  8
0
  6
Continuous
 62
     7
370
    15
100
AcDbPolyline
 90
       23
 70
   128
 43
0.0
 10
245.3756683315
 20
37.2025241111
 10
245.6901503344
 20
38.4424445557
 10
246.0825032497
 20
39.6920570173
 10
246.5498024813
 20
40.9420502825
 10
247.0885669629
 20
42.1831101483
 10
247.6947815487
 20
43.4059890022
 10
248.3639292818
 20
44.6015750214
 10
249.0910243218
 20
45.7609594707
 10
249.8706481645
 20
46.8755024793
 10
250.6969927765
 20
47.9369012879
 10
251.5639001083
 20
48.9372449986
 10
252.4649101674
 20
49.8690803506
 10
253.3933100804
 20
50.7254651375
 10
254.3421813434
 20
51.5000160176
 10
255.3044540694
 20
52.1869641651
 10
256.2729578303
 20
52.7811876617
 10
257.2404760589
 20
53.2782619145
 10
258.199799411
 20
53.6744805749
 10
259.1437799931
 20
53.9668936881
 10
260.0653833976
 20
54.153320241
 10
260.9577424867
 20
54.2323723679
 10
261.814208266
 20
54.2034603833
 10
262.6283991099
 20
54.0668006675
  0
SPLINE
  5
279
330
1F
100
AcDbEntity
  8
0
  6
Continuous
 62
     7
370
    15
100
AcDbSpline
210
0.0
220
0.0
230
1.0
 70
     8
 71
     3
 72
     9
 73
     5
 74
     0
 42
0.000000001
 43
0.00000001
 40
0.0
 40
0.0
 40
0.0
 40
0.0
 40
0.0031051604420238
 40
1.0
 40
1.0
 40
1.0
 40
1.0
 10
263.0624540269673
 20
52.73248891032959
 30
0.0
 10
263.0620147933871
 20
52.73386948870616
 30
0.0
 10
262.9205620123261
 20
53.17847723196238
 30
0.0
 10
262.7742534052884
 20
53.62332961873562
 30
0.0
 10
262.6283991099495
 20
54.06680066747492
 30
0.0
  0
LWPOLYLINE
  5
27A
330
1F
100
AcDbEntity
  8
0
  6
Continuous
 62
     7
370
    15
100
AcDbPolyline
 90
       22
 70
   128
 43
0.0
 10
246.8758314036
 20
37.023275424
 10
247.1706598042
 20
38.1985971506
 10
247.5423502271
 20
39.3837125107
 10
247.9879082703
 20
40.5690737935
 10
248.5037435492
 20
41.7451299219
 10
249.085700648
 20
42.9024055381
 10
249.7290900712
 20
44.0315766663
 10
250.4287290736
 20
45.1235456147
 10
251.1789798556
 20
46.1695154976
 10
251.9737986249
 20
47.1610573408
 10
252.8067803778
 20
48.0901838433
 10
253.671214875
 20
48.9494083071
 10
254.560137185
 20
49.7318087971
 10
255.4663851425
 20
50.431080322
 10
256.382657341
 20
51.0415903669
 10
257.3015714555
 20
51.5584186451
 10
258.2157238404
 20
51.9774021509
 10
259.1177493751
 20
52.2951651439
 10
260.0003804448
 20
52.5091471144
 10
260.8565057566
 20
52.6176245702
 10
261.6792277153
 20
52.6197228659
 10
261.9246096308
 20
52.598942436
  0
LINE
  5
27B
330
1F
100
AcDbEntity
  8
0
  6
Continuous
 62
     7
370
    15
100
AcDbLine
 10
244.0398858712
 20
37.9736549115
 30
0.0
 11
245.3756683315
 21
37.2025241111
 31
0.0
  0
LINE
  5
27C
330
1F
100
AcDbEntity
  8
0
  6
Continuous
 62
     7
370
    15
100
AcDbLine
 10
262.6283991099
 20
54.0668006675
 30
0.0
 11
261.2926166496
 21
54.8379314679
 31
0.0
  0
LINE
  5
27D
330
1F
100
AcDbEntity
  8
0
  6
Continuous
 62
     7
370
    15
100
AcDbLine
 10
248.1023735132
 20
36.7229906307
 30
0.0
 11
247.5118629091
 21
37.0638851463
 31
0.0
  0
SPLINE
  5
27E
330
1F
100
AcDbEntity
  8
0
  6
Continuous
 62
     7
370
    15
100
AcDbSpline
210
0.0
220
0.0
230
1.0
 70
     8
 71
     3
 72
    14
 73
    10
 74
     0
 42
0.000000001
 43
0.00000001
 40
0.0
 40
0.0
 40
0.0
 40
0.0
 40
0.1133499026822865
 40
0.2881008002156852
 40
0.4628816209037933
 40
0.6373002692507401
 40
0.8114819813598014
 40
0.9859191867890602
 40
0.9999999999999999
 40
0.9999999999999999
 40
0.9999999999999999
 40
0.9999999999999999
 10
254.8965982754797
 20
48.17565101050609
 30
0.0
 10
254.8270477438
 20
48.17900101874574
 30
0.0
 10
254.6502715546884
 20
48.1875157155539
 30
0.0
 10
254.355437906378
 20
48.10237024210937
 30
0.0
 10
254.0627841514672
 20
47.93893229180146
 30
0.0
 10
253.8372701836232
 20
47.70825328149599
 30
0.0
 10
253.7180728757072
 20
47.44548725717281
 30
0.0
 10
253.684165689946
 20
47.24995898538647
 30
0.0
 10
253.7161327443586
 20
47.16365579410178
 30
0.0
 10
253.7185204318875
 20
47.15720962452735
 30
0.0
  0
SPLINE
  5
27F
330
1F
100
AcDbEntity
  8
0
  6
Continuous
 62
     7
370
    15
100
AcDbSpline
210
0.0
220
0.0
230
1.0
 70
     8
 71
     3
 72
    12
 73
     8
 74
     0
 42
0.000000001
 43
0.00000001
 40
0.0
 40
0.0
 40
0.0
 40
0.0
 40
0.2500000000000015
 40
0.2500000000000015
 40
0.500000000000003
 40
0.500000000000003
 40
1.0
 40
1.0
 40
1.0
 40
1.0
 10
247.5118629786633
 20
37.06388513378524
 30
0.0
 10
247.474244243704
 20
37.08560196722144
 30
0.0
 10
247.4282518353168
 20
37.10285770120409
 30
0.0
 10
247.3286507053408
 20
37.12515148903191
 30
0.0
 10
247.2738999800867
 20
37.13035727361135
 30
0.0
 10
247.1143940812674
 20
37.12735537418422
 30
0.0
 10
247.0093912760499
 20
37.10037763892501
 30
0.0
 10
246.934078379858
 20
37.05690042939172
 30
0.0
  0
SPLINE
  5
280
330
1F
100
AcDbEntity
  8
0
  6
Continuous
 62
     7
370
    15
100
AcDbSpline
210
0.0
220
0.0
230
1.0
 70
     8
 71
     3
 72
    10
 73
     6
 74
     0
 42
0.000000001
 43
0.00000001
 40
0.0
 40
0.0
 40
0.0
 40
0.0
 40
0.5
 40
0.5
 40
1.0
 40
1.0
 40
1.0
 40
1.0
 10
243.9382416668746
 20
38.00437691034438
 30
0.0
 10
243.9455043485232
 20
38.0083735158322
 30
0.0
 10
243.9572980124889
 20
38.00855529421737
 30
0.0
 10
243.9913570232562
 20
37.99883366470762
 30
0.0
 10
244.0135295108084
 20
37.98887000793192
 30
0.0
 10
244.039885777472
 20
37.97365485905061
 30
0.0
  0
LINE
  5
281
330
1F
100
AcDbEntity
  8
0
  6
Continuous
 62
     7
370
    15
100
AcDbLine
 10
246.9340783483
 20
37.0569006694
 30
0.0
 11
246.8758314036
 21
37.023275424
 31
0.0
  0
LINE
  5
282
330
1F
100
AcDbEntity
  8
0
  6
Continuous
 62
     7
370
    15
100
AcDbLine
 10
249.6276712535
 20
34.5869865298
 30
0.0
 11
247.9004884625
 21
35.5840679316
 31
0.0
  0
SPLINE
  5
283
330
1F
100
AcDbEntity
  8
0
  6
Continuous
 62
     7
370
    15
100
AcDbSpline
210
0.0
220
0.0
230
1.0
 70
     8
 71
     3
 72
     8
 73
     4
 74
     0
 42
0.000000001
 43
0.00000001
 40
0.0
 40
0.0
 40
0.0
 40
0.0
 40
0.0011901715795577
 40
0.0011901715795577
 40
0.0011901715795577
 40
0.0011901715795577
 10
247.9004885521348
 20
35.58406785314415
 30
0.0
 10
247.8883270853162
 20
35.64481810885498
 30
0.0
 10
247.8768436383602
 20
35.70508178298503
 30
0.0
 10
247.8659828147176
 20
35.76489605420177
 30
0.0
  0
LINE
  5
284
330
1F
100
AcDbEntity
  8
0
  6
Continuous
 62
     7
370
    15
100
AcDbLine
 10
253.6529455332
 20
28.9766076146
 30
0.0
 11
253.4239524857
 21
28.8715635405
 31
0.0
  0
LINE
  5
285
330
1F
100
AcDbEntity
  8
0
  6
Continuous
 62
     7
370
    15
100
AcDbLine
 10
246.602473118
 20
36.9781333334
 30
0.0
 11
246.602473118
 21
34.7188055932
 31
0.0
  0
LINE
  5
286
330
1F
100
AcDbEntity
  8
0
  6
Continuous
 62
     7
370
    15
100
AcDbLine
 10
246.602473118
 20
34.7188055932
 30
0.0
 11
246.602473118
 21
32.3292592294
 31
0.0
  0
ARC
  5
287
330
1F
100
AcDbEntity
  8
0
  6
Continuous
 62
     7
370
    15
100
AcDbCircle
 10
256.8783752803
 20
36.0088413662
 30
0.0
 40
10.35656108681231
100
AcDbArc
 50
174.7086322964
 51
187.155472643
  0
LINE
  5
288
330
1F
100
AcDbEntity
  8
0
  6
Continuous
 62
     7
370
    15
100
AcDbLine
 10
244.377403267
 20
37.6179017235
 30
0.0
 11
243.9382415843
 21
38.0043768428
 31
0.0
  0
LINE
  5
289
330
1F
100
AcDbEntity
  8
0
  6
Continuous
 62
     7
370
    15
100
AcDbLine
 10
245.7333548054
 20
36.8351275623
 30
0.0
 11
244.377403267
 21
37.6179017235
 31
0.0
  0
LINE
  5
28A
330
1F
100
AcDbEntity
  8
0
  6
Continuous
 62
     7
370
    15
100
AcDbLine
 10
245.6036850869
 20
36.7536992351
 30
0.0
 11
245.6043765586
 21
36.8744758391
 31
0.0
  0
ARC
  5
28B
330
1F
100
AcDbEntity
  8
0
  6
Continuous
 62
     7
370
    15
100
AcDbCircle
 10
252.3316351232
 20
36.443934652
 30
0.0
 40
6.735077266634074
100
AcDbArc
 50
177.3638808084
 51
211.7180730924
  0
SPLINE
  5
28C
330
1F
100
AcDbEntity
  8
0
  6
Continuous
 62
     7
370
    15
100
AcDbSpline
210
0.0
220
0.0
230
1.0
 70
     8
 71
     3
 72
    18
 73
    14
 74
     0
 42
0.000000001
 43
0.00000001
 40
0.0
 40
0.0
 40
0.0
 40
0.0
 40
0.2500000000000024
 40
0.2500000000000024
 40
0.3750000000000024
 40
0.3750000000000024
 40
0.5000000000000024
 40
0.5000000000000024
 40
0.6250000000000024
 40
0.6250000000000024
 40
0.7500000000000024
 40
0.7500000000000024
 40
1.0
 40
1.0
 40
1.0
 40
1.0
 10
250.7150566974278
 20
28.64156722482036
 30
0.0
 10
250.8069317873536
 20
28.69460558528226
 30
0.0
 10
250.9081400409478
 20
28.74052106411147
 30
0.0
 10
251.0738632131573
 20
28.7994082844778
 30
0.0
 10
251.1318229796611
 20
28.81744554725869
 30
0.0
 10
251.2496779616725
 20
28.84941925721202
 30
0.0
 10
251.3097988476065
 20
28.86346544448493
 30
0.0
 10
251.4324321796807
 20
28.88798763503202
 30
0.0
 10
251.4949438382194
 20
28.89846333033535
 30
0.0
 10
251.6225029415214
 20
28.91602315107212
 30
0.0
 10
251.687722021437
 20
28.9230875772043
 30
0.0
 10
251.8807690168298
 20
28.93890128168939
 30
0.0
 10
252.0081210585042
 20
28.94268117499473
 30
0.0
 10
252.1337244589878
 20
28.9409135668262
 30
0.0
  0
SPLINE
  5
28D
330
1F
100
AcDbEntity
  8
0
  6
Continuous
 62
     7
370
    15
100
AcDbSpline
210
0.0
220
0.0
230
1.0
 70
     8
 71
     3
 72
    12
 73
     8
 74
     0
 42
0.000000001
 43
0.00000001
 40
0.0
 40
0.0
 40
0.0
 40
0.0
 40
0.5
 40
0.5
 40
0.75
 40
0.75
 40
1.0
 40
1.0
 40
1.0
 40
1.0
 10
252.1337244589878
 20
28.9409135668262
 30
0.0
 10
252.273968640297
 20
28.93893991993832
 30
0.0
 10
252.4038338490267
 20
28.93016668041981
 30
0.0
 10
252.5798989788755
 20
28.91083148690887
 30
0.0
 10
252.6347569531386
 20
28.90340118647184
 30
0.0
 10
252.734884548984
 20
28.88752102935983
 30
0.0
 10
252.7805947233506
 20
28.87902056691894
 30
0.0
 10
252.8222340272723
 20
28.87015574881213
 30
0.0
  0
LINE
  5
28E
330
1F
100
AcDbEntity
  8
0
  6
Continuous
 62
     7
370
    15
100
AcDbLine
 10
226.2318947298
 20
49.8902682268
 30
0.0
 11
226.2020988835
 21
49.9159005232
 31
0.0
  0
LINE
  5
28F
330
1F
100
AcDbEntity
  8
0
  6
Continuous
 62
     7
370
    15
100
AcDbLine
 10
247.9004884625
 20
29.010914155
 30
0.0
 11
249.6276712535
 21
28.0138327532
 31
0.0
  0
LINE
  5
290
330
1F
100
AcDbEntity
  8
0
  6
Continuous
 62
     7
370
    15
100
AcDbLine
 10
249.6276712535
 20
28.0138327532
 30
0.0
 11
249.57977597
 21
27.8915840923
 31
0.0
  0
SPLINE
  5
291
330
1F
100
AcDbEntity
  8
0
  6
Continuous
 62
     7
370
    15
100
AcDbSpline
210
0.0
220
0.0
230
1.0
 70
     8
 71
     3
 72
    14
 73
    10
 74
     0
 42
0.000000001
 43
0.00000001
 40
0.0
 40
0.0
 40
0.0
 40
0.0
 40
0.25
 40
0.25
 40
0.5
 40
0.5
 40
0.75
 40
0.75
 40
1.0
 40
1.0
 40
1.0
 40
1.0
 10
249.5797760751725
 20
27.8915842833268
 30
0.0
 10
249.5628678776345
 20
27.84842743377765
 30
0.0
 10
249.5423446867535
 20
27.80841146128865
 30
0.0
 10
249.4935612511912
 20
27.73510183430373
 30
0.0
 10
249.4651042728154
 20
27.70181467569766
 30
0.0
 10
249.4017416503071
 20
27.64889182936733
 30
0.0
 10
249.3664225895662
 20
27.62882816294207
 30
0.0
 10
249.2916045125151
 20
27.61206917246004
 30
0.0
 10
249.2532350384504
 20
27.61626606807122
 30
0.0
 10
249.2194429496634
 20
27.63577382569365
 30
0.0
  0
LINE
  5
292
330
1F
100
AcDbEntity
  8
0
  6
Continuous
 62
     7
370
    15
100
AcDbLine
 10
249.2194428058
 20
27.6357739663
 30
0.0
 11
247.8659830352
 21
28.4171096606
 31
0.0
  0
SPLINE
  5
293
330
1F
100
AcDbEntity
  8
0
  6
Continuous
 62
     7
370
    15
100
AcDbSpline
210
0.0
220
0.0
230
1.0
 70
     8
 71
     3
 72
     8
 73
     4
 74
     0
 42
0.000000001
 43
0.00000001
 40
0.0
 40
0.0
 40
0.0
 40
0.0
 40
0.0011901715795577
 40
0.0011901715795577
 40
0.0011901715795577
 40
0.0011901715795577
 10
247.8659828147176
 20
28.4171097303955
 30
0.0
 10
247.8768436383602
 20
28.61506491875366
 30
0.0
 10
247.8883270853162
 20
28.81300383125523
 30
0.0
 10
247.9004885521348
 20
29.01091431746386
 30
0.0
  0
ARC
  5
294
330
1F
100
AcDbEntity
  8
0
  6
Continuous
 62
     7
370
    15
100
AcDbCircle
 10
254.8247667921
 20
28.5864037351
 30
0.0
 40
5.548849642152194
100
AcDbArc
 50
212.5485790507
 51
267.4372536367
  0
LINE
  5
295
330
1F
100
AcDbEntity
  8
0
  6
Continuous
 62
     7
370
    15
100
AcDbLine
 10
249.6276712535
 20
28.0138327532
 30
0.0
 11
250.7150566524
 21
28.6415669823
 31
0.0
  0
SPLINE
  5
296
330
1F
100
AcDbEntity
  8
0
  6
Continuous
 62
     7
370
    15
100
AcDbSpline
210
0.0
220
0.0
230
1.0
 70
     8
 71
     3
 72
     8
 73
     4
 74
     0
 42
0.000000001
 43
0.00000001
 40
0.0
 40
0.0
 40
0.0
 40
0.0
 40
1.0
 40
1.0
 40
1.0
 40
1.0
 10
248.2264054814922
 20
29.67045195589863
 30
0.0
 10
248.1173319011052
 20
29.45067975583941
 30
0.0
 10
248.0087203356372
 20
29.23082667416974
 30
0.0
 10
247.9004885521348
 20
29.01091431746386
 30
0.0
  0
LINE
  5
297
330
1F
100
AcDbEntity
  8
0
  6
Continuous
 62
     7
370
    15
100
AcDbLine
 10
248.2846523768
 20
29.7040771019
 30
0.0
 11
248.2264054322
 21
29.6704518565
 31
0.0
  0
SPLINE
  5
298
330
1F
100
AcDbEntity
  8
0
  6
Continuous
 62
     7
370
    15
100
AcDbSpline
210
0.0
220
0.0
230
1.0
 70
     8
 71
     3
 72
    12
 73
     8
 74
     0
 42
0.000000001
 43
0.00000001
 40
0.0
 40
0.0
 40
0.0
 40
0.0
 40
0.2499999999999986
 40
0.2499999999999986
 40
0.4999999999999971
 40
0.4999999999999971
 40
1.0
 40
1.0
 40
1.0
 40
1.0
 10
248.2967515057804
 20
30.03762509604335
 30
0.0
 10
248.334789113333
 20
30.01566645260611
 30
0.0
 10
248.3642625172446
 20
29.98940951600144
 30
0.0
 10
248.4030562272876
 20
29.93154150670213
 30
0.0
 10
248.4118784302341
 20
29.900759371893
 30
0.0
 10
248.4067691575474
 20
29.80777938850625
 30
0.0
 10
248.360145415778
 20
29.74765837657694
 30
0.0
 10
248.2846523319247
 20
29.70407714692101
 30
0.0
  0
LINE
  5
299
330
1F
100
AcDbEntity
  8
0
  6
Continuous
 62
     7
370
    15
100
AcDbLine
 10
247.5118629091
 20
30.4907313697
 30
0.0
 11
248.2967514858
 21
30.037624839
 31
0.0
  0
SPLINE
  5
29A
330
1F
100
AcDbEntity
  8
0
  6
Continuous
 62
     7
370
    15
100
AcDbSpline
210
0.0
220
0.0
230
1.0
 70
     8
 71
     3
 72
    12
 73
     8
 74
     0
 42
0.000000001
 43
0.00000001
 40
0.0
 40
0.0
 40
0.0
 40
0.0
 40
0.4999999999999984
 40
0.4999999999999984
 40
0.7499999999999992
 40
0.7499999999999992
 40
1.0
 40
1.0
 40
1.0
 40
1.0
 10
246.9340783798584
 20
30.4837468937117
 30
0.0
 10
247.0100091876097
 20
30.52758081599525
 30
0.0
 10
247.1138991470339
 20
30.55423815850445
 30
0.0
 10
247.2746012268662
 20
30.55719402127818
 30
0.0
 10
247.3283860272891
 20
30.55204074964223
 30
0.0
 10
247.4281549127317
 20
30.52974224703888
 30
0.0
 10
247.473707138559
 20
30.51275849574145
 30
0.0
 10
247.5118629786633
 20
30.49073159810495
 30
0.0
  0
LINE
  5
29B
330
1F
100
AcDbEntity
  8
0
  6
Continuous
 62
     7
370
    15
100
AcDbLine
 10
246.8758314036
 20
30.4501216474
 30
0.0
 11
246.9340783483
 21
30.4837468929
 31
0.0
  0
SPLINE
  5
29C
330
1F
100
AcDbEntity
  8
0
  6
Continuous
 62
     7
370
    15
100
AcDbSpline
210
0.0
220
0.0
230
1.0
 70
     8
 71
     3
 72
     8
 73
     4
 74
     0
 42
0.000000001
 43
0.00000001
 40
0.0
 40
0.0
 40
0.0
 40
0.0
 40
1.0
 40
1.0
 40
1.0
 40
1.0
 10
245.7333550404459
 20
30.26197386421065
 30
0.0
 10
246.1142956911856
 20
30.32445474288368
 30
0.0
 10
246.4951336634255
 20
30.38715486501872
 30
0.0
 10
246.8758315294259
 20
30.45012170268932
 30
0.0
  0
LINE
  5
29D
330
1F
100
AcDbEntity
  8
0
  6
Continuous
 62
     7
370
    15
100
AcDbLine
 10
244.377403267
 20
31.044747947
 30
0.0
 11
245.7333548054
 21
30.2619737857
 31
0.0
  0
LINE
  5
29E
330
1F
100
AcDbEntity
  8
0
  6
Continuous
 62
     7
370
    15
100
AcDbLine
 10
244.377403267
 20
31.044747947
 30
0.0
 11
246.3903413617
 21
32.2067923742
 31
0.0
  0
ARC
  5
29F
330
1F
100
AcDbEntity
  8
0
  6
Continuous
 62
     7
370
    15
100
AcDbCircle
 10
254.1024358217
 20
30.0202321532
 30
0.0
 40
6.439203761766407
100
AcDbArc
 50
194.4161472332
 51
238.0417156746
  0
ELLIPSE
  5
2A0
330
1F
100
AcDbEntity
  8
0
  6
Continuous
 62
     7
370
    15
100
AcDbEllipse
 10
246.9560267933
 20
32.5334618421
 30
0.0
 11
0.8000000000812408
 21
0.4619052392569857
 31
0.0
210
0.0
220
0.0
230
1.0
 40
0.0000703729
 41
3.926950185688488
 42
5.497746511473603
  0
ARC
  5
2A1
330
1F
100
AcDbEntity
  8
0
  6
Continuous
 62
     7
370
    15
100
AcDbCircle
 10
253.5348564001
 20
32.3139597966
 30
0.0
 40
6.914948051164759
100
AcDbArc
 50
195.6367501838
 51
215.4284682093
  0
ARC
  5
2A2
330
1F
100
AcDbEntity
  8
0
  6
Continuous
 62
     7
370
    15
100
AcDbCircle
 10
251.2375856896
 20
31.2233651616
 30
0.0
 40
6.019569431173201
100
AcDbArc
 50
193.1418706541
 51
253.6915959719
  0
SPLINE
  5
2A3
330
1F
100
AcDbEntity
  8
0
  6
Continuous
 62
     7
370
    15
100
AcDbSpline
210
0.0
220
0.0
230
1.0
 70
     8
 71
     3
 72
     8
 73
     4
 74
     0
 42
0.000000001
 43
0.00000001
 40
0.0
 40
0.0
 40
0.0
 40
0.0
 40
0.0011901715795577
 40
0.0011901715795577
 40
0.0011901715795577
 40
0.0011901715795577
 10
245.7333550404459
 20
30.26197386421065
 30
0.0
 10
245.614557924531
 20
30.1256228278956
 30
0.0
 10
245.4953147503829
 20
29.9898922817597
 30
0.0
 10
245.3756682428881
 20
29.85473773194028
 30
0.0
  0
LINE
  5
2A4
330
1F
100
AcDbEntity
  8
0
  6
Continuous
 62
     7
370
    15
100
AcDbLine
 10
243.9382415843
 20
30.7911733901
 30
0.0
 11
244.377403267
 21
31.044747947
 31
0.0
  0
LINE
  5
2A5
330
1F
100
AcDbEntity
  8
0
  6
Continuous
 62
     7
370
    15
100
AcDbLine
 10
245.3756683315
 20
29.8547377383
 30
0.0
 11
244.0398858712
 21
30.6258685387
 31
0.0
  0
SPLINE
  5
2A6
330
1F
100
AcDbEntity
  8
0
  6
Continuous
 62
     7
370
    15
100
AcDbSpline
210
0.0
220
0.0
230
1.0
 70
     8
 71
     3
 72
    10
 73
     6
 74
     0
 42
0.000000001
 43
0.00000001
 40
0.0
 40
0.0
 40
0.0
 40
0.0
 40
0.5
 40
0.5
 40
1.0
 40
1.0
 40
1.0
 40
1.0
 10
244.039885777472
 20
30.62586853524434
 30
0.0
 10
244.0135815250951
 20
30.6410536569171
 30
0.0
 10
243.9913834109765
 20
30.66468330785098
 30
0.0
 10
243.9573715245448
 20
30.72212570066087
 30
0.0
 10
243.9455006441387
 20
30.75576397881149
 30
0.0
 10
243.9382416668746
 20
30.79117340205462
 30
0.0
  0
ARC
  5
2A7
330
1F
100
AcDbEntity
  8
0
  6
Continuous
 62
     7
370
    15
100
AcDbCircle
 10
249.7535093572
 20
31.6710790224
 30
0.0
 40
5.691050088252605
100
AcDbArc
 50
212.7820291147
 51
239.5347455062
  0
SPLINE
  5
2A8
330
1F
100
AcDbEntity
  8
0
  6
Continuous
 62
     7
370
    15
100
AcDbSpline
210
0.0
220
0.0
230
1.0
 70
     8
 71
     3
 72
    12
 73
     8
 74
     0
 42
0.000000001
 43
0.00000001
 40
0.0
 40
0.0
 40
0.0
 40
0.0
 40
0.5
 40
0.5
 40
0.75
 40
0.75
 40
1.0
 40
1.0
 40
1.0
 40
1.0
 10
263.4922182145884
 20
53.26603856709636
 30
0.0
 10
263.5540052671186
 20
53.30170747328796
 30
0.0
 10
263.6344829655227
 20
53.32778863102359
 30
0.0
 10
263.7646254876816
 20
53.33950711710516
 30
0.0
 10
263.8097544818609
 20
53.33867900868147
 30
0.0
 10
263.8943430694283
 20
53.32528185766738
 30
0.0
 10
263.9346500661034
 20
53.31221630767309
 30
0.0
 10
263.9655616047189
 20
53.29437145626873
 30
0.0
  0
LINE
  5
2A9
330
1F
100
AcDbEntity
  8
0
  6
Continuous
 62
     7
370
    15
100
AcDbLine
 10
263.9655618796
 20
53.2943714099
 30
0.0
 11
265.1172251737
 21
52.6295303418
 31
0.0
  0
SPLINE
  5
2AA
330
1F
100
AcDbEntity
  8
0
  6
Continuous
 62
     7
370
    15
100
AcDbSpline
210
0.0
220
0.0
230
1.0
 70
     8
 71
     3
 72
     9
 73
     5
 74
     0
 42
0.000000001
 43
0.00000001
 40
0.0
 40
0.0
 40
0.0
 40
0.0
 40
0.8664443272572582
 40
1.0
 40
1.0
 40
1.0
 40
1.0
 10
266.684305916714
 20
50.84921619905787
 30
0.0
 10
267.0034826148399
 20
50.91850619029378
 30
0.0
 10
267.3718579253879
 20
50.9984766962526
 30
0.0
 10
267.7421980227519
 20
51.07534617674371
 30
0.0
 10
267.7916590435991
 20
51.08561253192409
 30
0.0
  0
LINE
  5
2AB
330
1F
100
AcDbEntity
  8
0
  6
Continuous
 62
     7
370
    15
100
AcDbLine
 10
267.7916590436
 20
51.0856125319
 30
0.0
 11
269.1451188142
 21
50.3042768376
 31
0.0
  0
SPLINE
  5
2AC
330
1F
100
AcDbEntity
  8
0
  6
Continuous
 62
     7
370
    15
100
AcDbSpline
210
0.0
220
0.0
230
1.0
 70
     8
 71
     3
 72
    12
 73
     8
 74
     0
 42
0.000000001
 43
0.00000001
 40
0.0
 40
0.0
 40
0.0
 40
0.0
 40
0.25
 40
0.25
 40
0.5
 40
0.5
 40
1.0
 40
1.0
 40
1.0
 40
1.0
 10
269.1451187769103
 20
50.30427674671802
 30
0.0
 10
269.1762966273236
 20
50.28627815678517
 30
0.0
 10
269.1984690854115
 20
50.26350236338511
 30
0.0
 10
269.2219594397891
 20
50.21421151350361
 30
0.0
 10
269.223299227084
 20
50.18836463865019
 30
0.0
 10
269.2031202401209
 20
50.11336459632527
 30
0.0
 10
269.1578224609657
 20
50.06668799387469
 30
0.0
 10
269.0960394554918
 20
50.03102142399887
 30
0.0
  0
LINE
  5
2AD
330
1F
100
AcDbEntity
  8
0
  6
Continuous
 62
     7
370
    15
100
AcDbLine
 10
269.0960394676
 20
50.031021156
 30
0.0
 11
267.6738796754
 21
49.2100257834
 31
0.0
  0
LINE
  5
2AE
330
1F
100
AcDbEntity
  8
0
  6
Continuous
 62
     7
370
    15
100
AcDbLine
 10
263.4922181149
 20
53.2660383637
 30
0.0
 11
262.9842972239
 21
52.9728218746
 31
0.0
  0
LINE
  5
2AF
330
1F
100
AcDbEntity
  8
0
  6
Continuous
 62
     7
370
    15
100
AcDbLine
 10
270.701569661
 20
46.7526891262
 30
0.0
 11
270.8069334896
 21
46.9351842497
 31
0.0
  0
LINE
  5
2B0
330
1F
100
AcDbEntity
  8
0
  6
Continuous
 62
     7
370
    15
100
AcDbLine
 10
270.701569661
 20
46.7526891262
 30
0.0
 11
269.8510495508
 21
46.2616943177
 31
0.0
  0
SPLINE
  5
2B1
330
1F
100
AcDbEntity
  8
0
  6
Continuous
 62
     7
370
    15
100
AcDbSpline
210
0.0
220
0.0
230
1.0
 70
     8
 71
     3
 72
    10
 73
     6
 74
     0
 42
0.000000001
 43
0.00000001
 40
0.0
 40
0.0
 40
0.0
 40
0.0
 40
0.4052288462014568
 40
0.8115752064537689
 40
1.0
 40
1.0
 40
1.0
 40
1.0
 10
270.806933489577
 20
46.93518424974225
 30
0.0
 10
270.8252530363169
 20
46.97411066041138
 30
0.0
 10
270.8619426502646
 20
47.05207083050151
 30
0.0
 10
270.8759582963813
 20
47.15962223513724
 30
0.0
 10
270.85786826343
 20
47.21277655338119
 30
0.0
 10
270.8521373016939
 20
47.22961595686813
 30
0.0
  0
LWPOLYLINE
  5
2B2
330
1F
100
AcDbEntity
  8
0
  6
Continuous
 62
     7
370
    15
100
AcDbPolyline
 90
        3
 70
   128
 43
0.0
 10
253.9141414073
 20
47.3451951884
 10
254.0746557042
 20
47.5510057518
 10
254.2046164994
 20
47.6624744501
  0
LWPOLYLINE
  5
2B3
330
1F
100
AcDbEntity
  8
0
  6
Continuous
 62
     7
370
    15
100
AcDbPolyline
 90
        3
 70
   128
 43
0.0
 10
253.9721094583
 20
47.4094264714
 10
254.097860837
 20
47.5619217112
 10
254.1789079096
 20
47.6348514264
  0
LWPOLYLINE
  5
2B4
330
1F
100
AcDbEntity
  8
0
  6
Continuous
 62
     7
370
     0
100
AcDbPolyline
 90
        8
 70
   128
 43
0.0
 10
268.189240967
 20
36.7168309404
 10
268.338889938
 20
36.4176223216
 10
268.4912244536
 20
35.9817513112
 10
268.5638421565
 20
35.5590837484
 10
268.5521806504
 20
35.1761771834
 10
268.4569735538
 20
34.857090497
 10
268.2842017679
 20
34.621873807
 10
268.0447220576
 20
34.4853062314
  0
ARC
  5
2B5
330
1F
100
AcDbEntity
  8
0
  6
Continuous
 62
     7
370
     0
100
AcDbCircle
 10
267.7280549727
 20
35.8511054642
 30
0.0
 40
1.293335527823657
100
AcDbArc
 50
218.9903132315
 51
277.7994587638
  0
LWPOLYLINE
  5
2B6
330
1F
100
AcDbEntity
  8
0
  6
Continuous
 62
     7
370
     0
100
AcDbPolyline
 90
        8
 70
   128
 43
0.0
 10
268.0606538956
 20
36.5890891702
 10
268.1296074568
 20
36.4546813528
 10
268.2926301498
 20
36.0360850223
 10
268.3773716571
 20
35.6250122816
 10
268.3780565434
 20
35.2494773765
 10
268.2946360764
 20
34.9350735859
 10
268.1327974464
 20
34.7032257268
 10
267.9035686399
 20
34.569734425
  0
ARC
  5
2B7
330
1F
100
AcDbEntity
  8
0
  6
Continuous
 62
     7
370
     0
100
AcDbCircle
 10
257.6749710761
 20
30.244426417
 30
0.0
 40
5.043577396652238
100
AcDbArc
 50
195.8118568242
 51
238.0734798889
  0
LWPOLYLINE
  5
2B8
330
1F
100
AcDbEntity
  8
0
  6
Continuous
 62
     7
370
     0
100
AcDbPolyline
 90
       23
 70
   128
 43
0.0
 10
252.8222344418
 20
34.9698030345
 10
253.1171247456
 20
36.067561913
 10
253.4882975524
 20
37.1720857459
 10
253.9322731132
 20
38.2730232486
 10
254.4448920607
 20
39.3600576114
 10
255.0213496543
 20
40.4230025045
 10
255.656244512
 20
41.4518971313
 10
256.3436270132
 20
42.4370991905
 10
257.077055605
 20
43.3693766967
 10
257.8496567291
 20
44.2399927663
 10
258.6541908409
 20
45.0407893575
 10
259.4831184292
 20
45.7642618843
 10
260.3286717144
 20
46.4036302655
 10
261.1829268627
 20
46.952903427
 10
262.0378785453
 20
47.4069337504
 10
262.8855151361
 20
47.7614673284
 10
263.7178931683
 20
48.0131808635
 10
264.5272124292
 20
48.1597158941
 10
265.3058889556
 20
48.1996988805
 10
266.0466254158
 20
48.1327559792
 10
266.7424804215
 20
47.9595135126
 10
267.3869333941
 20
47.6815958709
 10
267.5067535917
 20
47.6150277748
  0
LWPOLYLINE
  5
2B9
330
1F
100
AcDbEntity
  8
0
  6
Continuous
 62
     7
370
     0
100
AcDbPolyline
 90
       52
 70
   128
 43
0.0
 10
269.7248651791
 20
38.0252294472
 10
269.0731515886
 20
37.6025860657
 10
268.4313173183
 20
37.0935150545
 10
267.8090918692
 20
36.5057331534
 10
267.215907739
 20
35.8481514371
 10
266.6607566944
 20
35.1307368291
 10
266.1520544403
 20
34.3643659157
 10
265.6975125329
 20
33.5606551848
 10
265.3040209941
 20
32.7317886967
 10
264.9775449201
 20
31.8903304495
 10
264.7230336021
 20
31.049036934
 10
264.5443447939
 20
30.220660941
 10
264.4441874182
 20
29.4177597401
 10
264.4240794202
 20
28.6525043499
 10
264.4843263645
 20
27.9364957457
 10
264.6240145206
 20
27.2805875772
 10
264.8410260094
 20
26.6947225726
 10
265.1320720596
 20
26.1877824868
 10
265.4927397645
 20
25.7674512606
 10
265.9175622168
 20
25.4401009454
 10
266.4000995098
 20
25.2106939757
 10
266.9330371896
 20
25.0827082545
 10
267.5082957383
 20
25.0580830548
 10
268.117155368
 20
25.1371922018
 10
268.750386166
 20
25.3188363136
 10
269.3983891668
 20
25.6002622627
 10
270.0513411913
 20
25.977203443
 10
270.6993441922
 20
26.4439458335
 10
271.3325749901
 20
26.9934144389
 10
271.9414346199
 20
27.6172796571
 10
272.5166931686
 20
28.3060842397
 10
273.0496308484
 20
29.0493867087
 10
273.5321681414
 20
29.835919378
 10
273.9569905936
 20
30.6537592563
 10
274.3176582985
 20
31.4905085508
 10
274.6087043487
 20
32.3334832535
 10
274.8257158375
 20
33.1699043898
 10
274.9654039936
 20
33.9870930704
 10
275.025650938
 20
34.7726613159
 10
275.00554294
 20
35.5147005058
 10
274.9053855643
 20
36.2019624622
 10
274.726696756
 20
36.8240287486
 10
274.472185438
 20
37.3714697511
 10
274.145709364
 20
37.8359867467
 10
273.7522178252
 20
38.2105375746
 10
273.2976759179
 20
38.48944539
 10
272.7889736638
 20
38.6684811825
 10
272.2338226192
 20
38.7449320377
 10
271.640638489
 20
38.7176379353
 10
271.0184130399
 20
38.5870136246
 10
270.3765787695
 20
38.3550385608
 10
269.7248651791
 20
38.0252294472
  0
LWPOLYLINE
  5
2BA
330
1F
100
AcDbEntity
  8
0
  6
Continuous
 62
     7
370
     0
100
AcDbPolyline
 90
       23
 70
   128
 43
0.0
 10
249.2194428058
 20
34.9835603391
 10
249.5339248086
 20
36.2234807837
 10
249.926277724
 20
37.4730932453
 10
250.3935769556
 20
38.7230865105
 10
250.9323414372
 20
39.9641463763
 10
251.5385560229
 20
41.1870252302
 10
252.207703756
 20
42.3826112494
 10
252.934798796
 20
43.5419956987
 10
253.7144226387
 20
44.6565387073
 10
254.5407672508
 20
45.7179375159
 10
255.4076745825
 20
46.7182812266
 10
256.3086846416
 20
47.6501165786
 10
257.2370845546
 20
48.5065013655
 10
258.1859558176
 20
49.2810522456
 10
259.1482285436
 20
49.9680003931
 10
260.1167323046
 20
50.5622238897
 10
261.0842505331
 20
51.0592981425
 10
262.0435738852
 20
51.4555168029
 10
262.9875544674
 20
51.7479299161
 10
263.9091578718
 20
51.934356469
 10
264.801516961
 20
52.0134085959
 10
265.6579827403
 20
51.9844966113
 10
266.4721735842
 20
51.8478368955
  0
LWPOLYLINE
  5
2BB
330
1F
100
AcDbEntity
  8
0
  6
Continuous
 62
     7
370
     0
100
AcDbPolyline
 90
       23
 70
   128
 43
0.0
 10
249.57977597
 20
34.6539364734
 10
249.8774255753
 20
35.8877915245
 10
250.2545746735
 20
37.1333099398
 10
250.7083177664
 20
38.3808960911
 10
251.2351592997
 20
39.620939196
 10
251.8310400051
 20
40.8438844194
 10
252.4913691686
 20
42.0403119578
 10
253.2110601927
 20
43.2010031969
 10
253.9845681326
 20
44.3170163739
 10
254.8059341482
 20
45.3797533038
 10
255.6688299561
 20
46.3810276272
 10
256.566608208
 20
47.3131250718
 10
257.4923518817
 20
48.1688639046
 10
258.4389294342
 20
48.9416526272
 10
259.3990479788
 20
49.6255366441
 10
260.365311042
 20
50.2152483345
 10
261.3302743648
 20
50.7062430687
 10
262.2865037102
 20
51.0947394238
 10
263.2266324655
 20
51.3777440713
 10
264.1434176291
 20
51.5530764931
 10
265.0297961463
 20
51.6193862946
 10
265.8789395692
 20
51.5761627053
 10
266.6843059167
 20
51.4237379008
  0
LWPOLYLINE
  5
2BC
330
1F
100
AcDbEntity
  8
0
  6
Continuous
 62
     7
370
     0
100
AcDbPolyline
 90
       23
 70
   128
 43
0.0
 10
250.7150566524
 20
35.2147207589
 10
251.0115551219
 20
36.3633299289
 10
251.3834444251
 20
37.5204625174
 10
251.8276722084
 20
38.676620629
 10
252.3405914523
 20
39.8223144095
 10
252.9179927402
 20
40.9481392289
 10
253.5551371858
 20
42.044856288
 10
254.2467939702
 20
43.1034618168
 10
254.9872870982
 20
44.1152676791
 10
255.770538204
 20
45.0719694301
 10
256.5901182469
 20
45.9657134222
 10
257.4393000301
 20
46.7891643861
 10
258.3111138477
 20
47.5355634115
 10
259.1984036259
 20
48.1987846906
 10
260.0938866341
 20
48.7733829171
 10
260.9902127646
 20
49.2546434771
 10
261.8800248505
 20
49.6386157492
 10
262.7560196026
 20
49.9221475217
 10
263.6110064556
 20
50.1029113598
 10
264.4379681239
 20
50.1794251143
 10
265.2301168245
 20
50.1510592836
 10
265.9809500891
 20
50.018046419
 10
266.6843059167
 20
49.7814802641
  0
ARC
  5
2BD
330
1F
100
AcDbEntity
  8
0
  6
Continuous
 62
     7
370
     0
100
AcDbCircle
 10
264.0653306214
 20
44.6693848284
 30
0.0
 40
5.799917806068553
100
AcDbArc
 50
17.4368472336
 51
51.5250477996
  0
LWPOLYLINE
  5
2BE
330
1F
100
AcDbEntity
  8
0
  6
Continuous
 62
     7
370
     0
100
AcDbPolyline
 90
       26
 70
   128
 43
0.0
 10
265.871596798
 20
26.0429329381
 10
266.1627455811
 20
25.9007471574
 10
266.6710523792
 20
25.7561160739
 10
267.2236974973
 20
25.7157386765
 10
267.8116063567
 20
25.7802767539
 10
268.4251254359
 20
25.9486711741
 10
269.0541809793
 20
26.218157079
 10
269.6884437988
 20
26.5843092109
 10
270.3174993423
 20
27.041115377
 10
270.9310184214
 20
27.5810750077
 10
271.5189272808
 20
28.1953220511
 10
272.0715723989
 20
28.8737699202
 10
272.579879197
 20
29.6052795407
 10
273.0355014467
 20
30.3778387584
 10
273.4309580823
 20
31.1787626137
 10
273.7597551964
 20
31.9948995102
 10
274.0164940412
 20
32.8128488873
 10
274.1969592733
 20
33.619179845
 10
274.2981877716
 20
34.4006527646
 10
274.3185167113
 20
35.1444353831
 10
274.2576128688
 20
35.8383152324
 10
274.116476244
 20
36.470898714
 10
273.8974239258
 20
37.0317986738
 10
273.6040532135
 20
37.5118052833
 10
273.2411807016
 20
37.9030366533
 10
272.8710279802
 20
38.1676174142
  0
LWPOLYLINE
  5
2BF
330
1F
100
AcDbEntity
  8
0
  6
Continuous
 62
     7
370
     0
100
AcDbPolyline
 90
       23
 70
   128
 43
0.0
 10
244.0398858712
 20
37.9736549115
 10
244.3543678741
 20
39.213575356
 10
244.7467207894
 20
40.4631878177
 10
245.214020021
 20
41.7131810829
 10
245.7527845026
 20
42.9542409487
 10
246.3589990883
 20
44.1771198026
 10
247.0281468214
 20
45.3727058218
 10
247.7552418614
 20
46.5320902711
 10
248.5348657041
 20
47.6466332797
 10
249.3612103162
 20
48.7080320883
 10
250.2281176479
 20
49.708375799
 10
251.129127707
 20
50.640211151
 10
252.0575276201
 20
51.4965959379
 10
253.006398883
 20
52.271146818
 10
253.968671609
 20
52.9580949655
 10
254.93717537
 20
53.5523184621
 10
255.9046935985
 20
54.0493927148
 10
256.8640169506
 20
54.4456113753
 10
257.8079975328
 20
54.7380244885
 10
258.7296009372
 20
54.9244510414
 10
259.6219600264
 20
55.0035031683
 10
260.4784258057
 20
54.9745911837
 10
261.2926166496
 20
54.8379314679
  0
LWPOLYLINE
  5
2C0
330
1F
100
AcDbEntity
  8
0
  6
Continuous
 62
     7
370
     0
100
AcDbPolyline
 90
       19
 70
   128
 43
0.0
 10
247.5118629091
 20
37.0638851463
 10
247.8083613785
 20
38.2124943164
 10
248.1802506818
 20
39.3696269048
 10
248.6244784651
 20
40.5257850165
 10
249.137397709
 20
41.6714787969
 10
249.7147989968
 20
42.7973036163
 10
250.3519434425
 20
43.8940206754
 10
251.0436002269
 20
44.9526262043
 10
251.7840933549
 20
45.9644320666
 10
252.5673444607
 20
46.9211338176
 10
253.3869245036
 20
47.8148778096
 10
254.2361062868
 20
48.6383287736
 10
255.1079201044
 20
49.3847277989
 10
255.9952098826
 20
50.047949078
 10
256.8906928908
 20
50.6225473045
 10
257.7870190212
 20
51.1038078645
 10
258.6768311072
 20
51.4877801366
 10
259.5528258593
 20
51.7713119092
 10
259.621884623
 20
51.789526025
  0
LWPOLYLINE
  5
2C1
330
1F
100
AcDbEntity
  8
0
  6
Continuous
 62
     7
370
     0
100
AcDbPolyline
 90
       22
 70
   128
 43
0.0
 10
246.9340783483
 20
37.0569006694
 10
247.2291642398
 20
38.227791915
 10
247.6008671749
 20
39.4082707317
 10
248.0461822152
 20
40.5887962538
 10
248.561511732
 20
41.759830713
 10
249.1426917483
 20
42.9119101591
 10
249.7850248661
 20
44.0357254463
 10
250.4833217547
 20
45.1221956135
 10
251.2319390171
 20
46.1625403155
 10
252.0248275925
 20
47.1483541531
 10
252.8555801722
 20
48.0716697876
 10
253.7174835536
 20
48.9250269474
 10
254.603573299
 20
49.7015290777
 10
255.5066890542
 20
50.3949026513
 10
256.4195329317
 20
50.9995438008
 10
257.334728554
 20
51.5105676128
 10
258.2448804045
 20
51.9238431506
 10
259.1426341257
 20
52.2360320662
 10
260.0207347385
 20
52.444611563
 10
260.8720869197
 20
52.5478955052
 10
261.6898111841
 20
52.5450493599
 10
261.6949968929
 20
52.5446840412
  0
ARC
  5
2C2
330
1F
100
AcDbEntity
  8
0
  6
Continuous
 62
     7
370
     0
100
AcDbCircle
 10
252.9542972518
 20
29.508514011
 30
0.0
 40
0.7913797700720662
100
AcDbArc
 50
306.4031961401
 51
30.6408161238
  0
LWPOLYLINE
  5
2C3
330
1F
100
AcDbEntity
  8
0
  6
Continuous
 62
     7
370
     0
100
AcDbPolyline
 90
        3
 70
   128
 43
0.0
 10
253.6351839293
 20
29.911844239
 10
253.9577179559
 20
30.0915019219
 10
254.1898911149
 20
30.3447859874
  0
LINE
  5
2C4
330
1F
100
AcDbEntity
  8
0
  6
Continuous
 62
     7
370
     0
100
AcDbLine
 10
252.8338202153
 20
34.9545300362
 30
0.0
 11
252.6013994436
 21
35.1544457087
 31
0.0
  0
SPLINE
  5
2C5
330
1F
100
AcDbEntity
  8
0
  6
Continuous
 62
     7
370
     0
100
AcDbSpline
210
0.0
220
0.0
230
1.0
 70
     8
 71
     3
 72
     8
 73
     4
 74
     0
 42
0.000000001
 43
0.00000001
 40
0.0
 40
0.0
 40
0.0
 40
0.0
 40
1.0
 40
1.0
 40
1.0
 40
1.0
 10
253.0479856960758
 20
29.83918310620001
 30
0.0
 10
253.2601488482226
 20
29.82244032386436
 30
0.0
 10
253.455243138366
 20
29.84866072797386
 30
0.0
 10
253.6351844313808
 20
29.91184421568536
 30
0.0
  0
SPLINE
  5
2C6
330
1F
100
AcDbEntity
  8
0
  6
Continuous
 62
     7
370
     0
100
AcDbSpline
210
0.0
220
0.0
230
1.0
 70
     8
 71
     3
 72
    10
 73
     6
 74
     0
 42
0.000000001
 43
0.00000001
 40
0.0
 40
0.0
 40
0.0
 40
0.0
 40
0.5
 40
0.5
 40
1.0
 40
1.0
 40
1.0
 40
1.0
 10
252.6013994013824
 20
29.96741033169779
 30
0.0
 10
252.6771800645092
 20
29.93905764328569
 30
0.0
 10
252.7535089310986
 20
29.90786912643659
 30
0.0
 10
252.9033145563419
 20
29.86024590102412
 30
0.0
 10
252.9765969319465
 20
29.84481672602017
 30
0.0
 10
253.0479856960758
 20
29.83918310620012
 30
0.0
  0
ARC
  5
2C7
330
1F
100
AcDbEntity
  8
0
  6
Continuous
 62
     7
370
     0
100
AcDbCircle
 10
253.5407160016
 20
32.4474748115
 30
0.0
 40
2.651987307785194
100
AcDbArc
 50
239.7895250029
 51
249.2559785457
  0
LINE
  5
2C8
330
1F
100
AcDbEntity
  8
0
  6
Continuous
 62
     7
370
     0
100
AcDbLine
 10
247.5217119361
 20
32.8600248647
 30
0.0
 11
252.2062944708
 21
30.1556729311
 31
0.0
  0
LWPOLYLINE
  5
2C9
330
1F
100
AcDbEntity
  8
0
  6
Continuous
 62
     7
370
     0
100
AcDbPolyline
 90
        3
 70
   128
 43
0.0
 10
246.5236298646
 20
36.1017958625
 10
246.5229239049
 20
36.223033961
 10
246.5477227155
 20
36.9576772378
  0
ARC
  5
2CA
330
1F
100
AcDbEntity
  8
0
  6
Continuous
 62
     7
370
     0
100
AcDbCircle
 10
255.8479485181
 20
29.8876305325
 30
0.0
 40
5.281974372889856
100
AcDbArc
 50
193.645191814
 51
283.7091989799
  0
LWPOLYLINE
  5
2CB
330
1F
100
AcDbEntity
  8
0
  6
Continuous
 62
     7
370
     0
100
AcDbPolyline
 90
       18
 70
   128
 43
0.0
 10
225.2510404296
 20
52.5149977414
 10
225.2918626158
 20
53.2277292956
 10
225.4135695434
 20
53.9743167677
 10
225.6138935144
 20
54.7408522647
 10
225.8891028863
 20
55.513056925
 10
226.2340715486
 20
56.2765462186
 10
226.6423727656
 20
57.0170970505
 10
227.1064006773
 20
57.7209149575
 10
227.6175118872
 20
58.3748892294
 10
228.1661848295
 20
58.9668371938
 10
228.742199058
 20
59.4857320521
 10
229.3348243515
 20
59.9219082464
 10
229.9330212813
 20
60.2672399834
 10
230.5256465748
 20
60.5152943886
 10
231.1016608033
 20
60.6614514026
 10
231.6503337455
 20
60.7029877333
 10
232.1614449554
 20
60.6391299032
 10
232.3966767244
 20
60.5691408721
  0
ARC
  5
2CC
330
1F
100
AcDbEntity
  8
0
  6
Continuous
 62
     7
370
     0
100
AcDbCircle
 10
228.6625229504
 20
52.2897695467
 30
0.0
 40
3.418909289487738
100
AcDbArc
 50
176.2227786418
 51
223.9742639153
  0
ARC
  5
2CD
330
1F
100
AcDbEntity
  8
0
  6
Continuous
 62
     7
370
     0
100
AcDbCircle
 10
252.11811293
 20
29.545002372
 30
0.0
 40
0.9752974871719463
100
AcDbArc
 50
316.2161777959
 51
17.5556322154
  0
ARC
  5
2CE
330
1F
100
AcDbEntity
  8
0
  6
Continuous
 62
     7
370
     0
100
AcDbCircle
 10
256.5965048818
 20
29.7713195234
 30
0.0
 40
7.679947897001763
100
AcDbArc
 50
196.1449136506
 51
212.8886793686
  0
LWPOLYLINE
  5
2CF
330
1F
100
AcDbEntity
  8
0
  6
Continuous
 62
     7
370
     0
100
AcDbPolyline
 90
       15
 70
   128
 43
0.0
 10
258.5932005645
 20
23.8939809318
 10
258.2843603124
 20
23.7733594317
 10
257.3523163434
 20
23.4735746971
 10
256.4416424729
 20
23.2784354458
 10
255.5591799906
 20
23.1894073986
 10
254.7115597811
 20
23.2071595206
 10
253.9051496405
 20
23.3315587039
 10
253.1460091662
 20
23.5616703413
 10
252.4398406951
 20
23.8957657457
 10
251.7919507787
 20
24.3313341312
 10
251.2072073781
 20
24.8651035297
 10
250.6900029851
 20
25.4930628478
 10
250.244223671
 20
26.21049533
 10
249.873218793
 20
27.0120093602
 10
249.57977597
 20
27.8915840923
  0
LINE
  5
2D0
330
1F
100
AcDbEntity
  8
0
  6
Continuous
 62
     7
370
     0
100
AcDbLine
 10
251.6406093482
 20
29.1758771804
 30
0.0
 11
246.3903413617
 21
32.2067923742
 31
0.0
  0
LINE
  5
2D1
330
1F
100
AcDbEntity
  8
0
  6
Continuous
 62
     7
370
     0
100
AcDbLine
 10
250.7150566524
 20
28.6415669823
 30
0.0
 11
251.6406093482
 21
29.1758771804
 31
0.0
  0
ARC
  5
2D2
330
1F
100
AcDbEntity
  8
0
  6
Continuous
 62
     7
370
     0
100
AcDbCircle
 10
251.5334415088
 20
29.8341900406
 30
0.0
 40
1.076234978359656
100
AcDbArc
 50
303.9011467692
 51
7.1105047482
  0
ARC
  5
2D3
330
1F
100
AcDbEntity
  8
0
  6
Continuous
 62
     7
370
     0
100
AcDbCircle
 10
253.3060345744
 20
32.0361563995
 30
0.0
 40
3.309809419687423
100
AcDbArc
 50
239.7894826347
 51
249.256024009
  0
ARC
  5
2D4
330
1F
100
AcDbEntity
  8
0
  6
Continuous
 62
     7
370
     0
100
AcDbCircle
 10
250.9781215205
 20
30.2115616001
 30
0.0
 40
1.229443914554715
100
AcDbArc
 50
302.6054968531
 51
357.3945222572
  0
LINE
  5
2D5
330
1F
100
AcDbEntity
  8
0
  6
Continuous
 62
     7
370
     0
100
AcDbLine
 10
248.3749747196
 20
29.7956427699
 30
0.0
 11
248.2967514858
 21
30.037624839
 31
0.0
  0
LWPOLYLINE
  5
2D6
330
1F
100
AcDbEntity
  8
0
  6
Continuous
 62
     7
370
     0
100
AcDbPolyline
 90
        3
 70
   128
 43
0.0
 10
248.0092622345
 20
29.2634785809
 10
247.8111009237
 20
29.6781737873
 10
247.5118629091
 20
30.4907313697
  0
ARC
  5
2D7
330
1F
100
AcDbEntity
  8
0
  6
Continuous
 62
     7
370
     0
100
AcDbCircle
 10
253.6112181214
 20
32.3739625804
 30
0.0
 40
6.939532469492479
100
AcDbArc
 50
195.8061616042
 51
213.7821435981
  0
ARC
  5
2D8
330
1F
100
AcDbEntity
  8
0
  6
Continuous
 62
     7
370
     0
100
AcDbCircle
 10
251.4163062186
 20
32.761165197
 30
0.0
 40
7.679262266745241
100
AcDbArc
 50
196.1444612194
 51
212.9026224552
  0
LINE
  5
2D9
330
1F
100
AcDbEntity
  8
0
  6
Continuous
 62
     7
370
     0
100
AcDbLine
 10
267.6738796754
 20
49.2100257834
 30
0.0
 11
266.8674280466
 21
48.7444711677
 31
0.0
  0
ARC
  5
2DA
330
1F
100
AcDbEntity
  8
0
  6
Continuous
 62
     7
370
     0
100
AcDbCircle
 10
264.0081757663
 20
45.1985709023
 30
0.0
 40
7.017045852610807
100
AcDbArc
 50
14.3287351339
 51
43.52515955
  0
OLE2FRAME
  5
2DB
330
1F
100
AcDbEntity
  8
0
100
AcDbOle2Frame
 70
     2
  3
Paintbrush-Bild
 10
13.8511154363
 20
38.264191557
 30
0.0
 11
51.6290888628
 21
31.9806341108
 31
0.0
 71
     2
 72
     0
 73
     1
 90
    12928
310
80552BED0767C5B32B40DDAF6807D121434000000000000000006FFBDDFB85D0
310
4940DDAF6807D121434000000000000000006FFBDDFB85D04940416F4BD60AFB
310
3F4000000000000000002BED0767C5B32B40416F4BD60AFB3F40000000000000
310
0000000000000100000000010000010000000100000000000100000000320000
310
D0CF11E0A1B11AE1000000000000000000000000000000003E000300FEFF0900
310
0600000000000000000000000100000001000000000000000010000002000000
310
01000000FEFFFFFF0000000000000000FFFFFFFFFFFFFFFFFFFFFFFFFFFFFFFF
310
FFFFFFFFFFFFFFFFFFFFFFFFFFFFFFFFFFFFFFFFFFFFFFFFFFFFFFFFFFFFFFFF
310
FFFFFFFFFFFFFFFFFFFFFFFFFFFFFFFFFFFFFFFFFFFFFFFFFFFFFFFFFFFFFFFF
310
FFFFFFFFFFFFFFFFFFFFFFFFFFFFFFFFFFFFFFFFFFFFFFFFFFFFFFFFFFFFFFFF
310
FFFFFFFFFFFFFFFFFFFFFFFFFFFFFFFFFFFFFFFFFFFFFFFFFFFFFFFFFFFFFFFF
310
FFFFFFFFFFFFFFFFFFFFFFFFFFFFFFFFFFFFFFFFFFFFFFFFFFFFFFFFFFFFFFFF
310
FFFFFFFFFFFFFFFFFFFFFFFFFFFFFFFFFFFFFFFFFFFFFFFFFFFFFFFFFFFFFFFF
310
FFFFFFFFFFFFFFFFFFFFFFFFFFFFFFFFFFFFFFFFFFFFFFFFFFFFFFFFFFFFFFFF
310
FFFFFFFFFFFFFFFFFFFFFFFFFFFFFFFFFFFFFFFFFFFFFFFFFFFFFFFFFFFFFFFF
310
FFFFFFFFFFFFFFFFFFFFFFFFFFFFFFFFFFFFFFFFFFFFFFFFFFFFFFFFFFFFFFFF
310
FFFFFFFFFFFFFFFFFFFFFFFFFFFFFFFFFFFFFFFFFFFFFFFFFFFFFFFFFFFFFFFF
310
FFFFFFFFFFFFFFFFFFFFFFFFFFFFFFFFFFFFFFFFFFFFFFFFFFFFFFFFFFFFFFFF
310
FFFFFFFFFFFFFFFFFFFFFFFFFFFFFFFFFFFFFFFFFFFFFFFFFFFFFFFFFFFFFFFF
310
FFFFFFFFFFFFFFFFFFFFFFFFFFFFFFFFFFFFFFFFFFFFFFFFFFFFFFFFFFFFFFFF
310
FDFFFFFFFEFFFFFFFEFFFFFFFEFFFFFF05000000060000000700000008000000
310
090000000A0000000B0000000C0000000D0000000E0000000F00000010000000
310
11000000120000001300000014000000150000001600000017000000FEFFFFFF
310
FFFFFFFFFFFFFFFFFFFFFFFFFFFFFFFFFFFFFFFFFFFFFFFFFFFFFFFFFFFFFFFF
310
FFFFFFFFFFFFFFFFFFFFFFFFFFFFFFFFFFFFFFFFFFFFFFFFFFFFFFFFFFFFFFFF
310
FFFFFFFFFFFFFFFFFFFFFFFFFFFFFFFFFFFFFFFFFFFFFFFFFFFFFFFFFFFFFFFF
310
FFFFFFFFFFFFFFFFFFFFFFFFFFFFFFFFFFFFFFFFFFFFFFFFFFFFFFFFFFFFFFFF
310
FFFFFFFFFFFFFFFFFFFFFFFFFFFFFFFFFFFFFFFFFFFFFFFFFFFFFFFFFFFFFFFF
310
FFFFFFFFFFFFFFFFFFFFFFFFFFFFFFFFFFFFFFFFFFFFFFFFFFFFFFFFFFFFFFFF
310
FFFFFFFFFFFFFFFFFFFFFFFFFFFFFFFFFFFFFFFFFFFFFFFFFFFFFFFFFFFFFFFF
310
FFFFFFFFFFFFFFFFFFFFFFFFFFFFFFFFFFFFFFFFFFFFFFFFFFFFFFFFFFFFFFFF
310
FFFFFFFFFFFFFFFFFFFFFFFFFFFFFFFFFFFFFFFFFFFFFFFFFFFFFFFFFFFFFFFF
310
FFFFFFFFFFFFFFFFFFFFFFFFFFFFFFFFFFFFFFFFFFFFFFFFFFFFFFFFFFFFFFFF
310
FFFFFFFFFFFFFFFFFFFFFFFFFFFFFFFFFFFFFFFFFFFFFFFFFFFFFFFFFFFFFFFF
310
FFFFFFFFFFFFFFFFFFFFFFFFFFFFFFFFFFFFFFFFFFFFFFFFFFFFFFFFFFFFFFFF
310
FFFFFFFFFFFFFFFFFFFFFFFFFFFFFFFFFFFFFFFFFFFFFFFFFFFFFFFFFFFFFFFF
310
52006F006F007400200045006E00740072007900000000000000000000000000
310
0000000000000000000000000000000000000000000000000000000000000000
310
16000500FFFFFFFFFFFFFFFF020000000A00030000000000C000000000000046
310
000000000000000000000000904004D35F24D20103000000C000000000000000
310
01004F006C006500000000000000000000000000000000000000000000000000
310
0000000000000000000000000000000000000000000000000000000000000000
310
0A000200FFFFFFFFFFFFFFFFFFFFFFFF00000000000000000000000000000000
310
0000000000000000000000000000000000000000000000001400000000000000
310
010043006F006D0070004F0062006A0000000000000000000000000000000000
310
0000000000000000000000000000000000000000000000000000000000000000
310
120002010100000003000000FFFFFFFF00000000000000000000000000000000
310
0000000000000000000000000000000000000000010000004D00000000000000
310
01004F006C006500310030004E00610074006900760065000000000000000000
310
0000000000000000000000000000000000000000000000000000000000000000
310
1A000200FFFFFFFFFFFFFFFFFFFFFFFF00000000000000000000000000000000
310
0000000000000000000000000000000000000000040000002426000000000000
310
FEFFFFFF02000000FEFFFFFFFFFFFFFFFFFFFFFFFFFFFFFFFFFFFFFFFFFFFFFF
310
FFFFFFFFFFFFFFFFFFFFFFFFFFFFFFFFFFFFFFFFFFFFFFFFFFFFFFFFFFFFFFFF
310
FFFFFFFFFFFFFFFFFFFFFFFFFFFFFFFFFFFFFFFFFFFFFFFFFFFFFFFFFFFFFFFF
310
FFFFFFFFFFFFFFFFFFFFFFFFFFFFFFFFFFFFFFFFFFFFFFFFFFFFFFFFFFFFFFFF
310
FFFFFFFFFFFFFFFFFFFFFFFFFFFFFFFFFFFFFFFFFFFFFFFFFFFFFFFFFFFFFFFF
310
FFFFFFFFFFFFFFFFFFFFFFFFFFFFFFFFFFFFFFFFFFFFFFFFFFFFFFFFFFFFFFFF
310
FFFFFFFFFFFFFFFFFFFFFFFFFFFFFFFFFFFFFFFFFFFFFFFFFFFFFFFFFFFFFFFF
310
FFFFFFFFFFFFFFFFFFFFFFFFFFFFFFFFFFFFFFFFFFFFFFFFFFFFFFFFFFFFFFFF
310
FFFFFFFFFFFFFFFFFFFFFFFFFFFFFFFFFFFFFFFFFFFFFFFFFFFFFFFFFFFFFFFF
310
FFFFFFFFFFFFFFFFFFFFFFFFFFFFFFFFFFFFFFFFFFFFFFFFFFFFFFFFFFFFFFFF
310
FFFFFFFFFFFFFFFFFFFFFFFFFFFFFFFFFFFFFFFFFFFFFFFFFFFFFFFFFFFFFFFF
310
FFFFFFFFFFFFFFFFFFFFFFFFFFFFFFFFFFFFFFFFFFFFFFFFFFFFFFFFFFFFFFFF
310
FFFFFFFFFFFFFFFFFFFFFFFFFFFFFFFFFFFFFFFFFFFFFFFFFFFFFFFFFFFFFFFF
310
FFFFFFFFFFFFFFFFFFFFFFFFFFFFFFFFFFFFFFFFFFFFFFFFFFFFFFFFFFFFFFFF
310
FFFFFFFFFFFFFFFFFFFFFFFFFFFFFFFFFFFFFFFFFFFFFFFFFFFFFFFFFFFFFFFF
310
FFFFFFFFFFFFFFFFFFFFFFFFFFFFFFFFFFFFFFFFFFFFFFFFFFFFFFFFFFFFFFFF
310
0100000200000000000000000000000000000000000000000000000000000000
310
0000000000000000000000000000000000000000000000000000000000000000
310
0100FEFF030A0000FFFFFFFF0A00030000000000C00000000000004607000000
310
5042727573680007000000504272757368000700000050427275736800F439B2
310
7100000000000000000000000000000000000000000000000000000000000000
310
0000000000000000000000000000000000000000000000000000000000000000
310
0000000000000000000000000000000000000000000000000000000000000000
310
0000000000000000000000000000000000000000000000000000000000000000
310
0000000000000000000000000000000000000000000000000000000000000000
310
0000000000000000000000000000000000000000000000000000000000000000
310
0000000000000000000000000000000000000000000000000000000000000000
310
0000000000000000000000000000000000000000000000000000000000000000
310
0000000000000000000000000000000000000000000000000000000000000000
310
0000000000000000000000000000000000000000000000000000000000000000
310
0000000000000000000000000000000000000000000000000000000000000000
310
0000000000000000000000000000000000000000000000000000000000000000
310
20260000424D0E260000000000003E00000028000000B40200006E0000000100
310
01000000000000000000130B0000130B00000200000002000000000000FFFFFF
310
FFFFFFFFFFFFFFFFFFFFFFFFFFFFFFFFFFFFFFFFFFFFFFFFFFFFFFFFFFFFFFFF
310
FFFFFFFFFFFFFFFFFFFFFFFFFFFFFFFFFFFFFFFFFFFFFFFFFFFFFFFFFFFFFFFF
310
FFFFFFFFFFFFFFFFFFFFFFFFFFFFFFFFFFFFFFFFFFFFFFFFF000FFFFFFFFFFFF
310
FFFFFFFFFFFFFFFFFFFFFFFFFFFFFFFFFFFFFFFFFFFFFFFFFFFFFFFFFFFFFFFF
310
FFFFFFFFFFFFFFFFFFFFFFFFFFFFFFFFFFFFFFFFFFFFFFFFFFFFFFFFFFFFFFFF
310
FFFFFFFFFFFFFFFFFFFFFFFFFFFFFFFFF000FFFFFFFFFFFFFFFFFFFFFFFFFFFF
310
FFFFFFFFFFFFFFFFFFFFFFFFFFFFFFFFFFFFFFFFFFFFFFFFFFFFFFFFFFFFFFFF
310
FFFFFFFFFFFFFFFFFFFFFFFFFFFFFFFFFFFFFFFFFFFFFFFFFFFFFFFFFFFFFFFF
310
FFFFFFFFFFFFFFFFF000FFFFFFFFFFFFFFFFFFFFFFFFFFFFFFFFFFFFFFFFFFFF
310
FFFFFFFFFFFFFFFFFFFFFFFFFFFFFFFFFFFFFFFFFFFFFFFFFFFFFFFFFFFFFFFF
310
FFFFFFFFFFFFFFFFFFFFFFFFFFFFFFFFFFFFFFFFFFFFFFFFFFFFFFFFFFFFFFFF
310
F000FFFFFFFFFFFFFFFFFFFFFFFFFFFFFFFFFFFFFFFFFFFFFFFFFFFFFFFFFFFF
310
FFFFFFFFFFFFFFFFFFFFFFFFFFFFFFFFFFFFFFFFFFFFFFFFFFFFFFFFFFFFFFFF
310
FFFFFFFFFFFFFFFFFFFFFFFFFFFFFFFFFFFFFFFFFFFFFFFFF000FFFFFFFFFFFF
310
FFFFFFFFFFFFFFFFFFFFFFFFFFFFFFFFFFFFFFFFFFFFFFFFFFFFFFFFFFFFFFFF
310
FFFFFFFFFFFFFFFFFFFFFFFFFFFFFFFFFFFFFFFFFFFFFFFFFFFFFFFFFFFFFFFF
310
FFFFFFFFFFFFFFFFFFFFFFFFFFFFFFFFF000FFFFFFFFFFFFFFFFFFFFFFFFFFFF
310
FFFFFFFFFFFFFFFFFFFFFFFFFFFFFFFFFFFFFFFFFFFFFFFFFFFFFFFFFFFFFFFF
310
FFFFFFFFFFFFFFFFFFFFFFFFFFFFFFFFFFFFFFFFFFFFFFFFFFFFFFFFFFFFFFFF
310
FFFFFFFFFFFFFFFFF000FFFFFFFFFFFFFFFFFFFFFFFFFFFFFFFFFFFFFFFFFFFF
310
FFFFFFFFFFFFFFFFFFFFFFFFFFFFFFFFFFFFFFFFFFFFFFFFFFFFFFFFFFFFFFFF
310
FFFFFFFFFFFFFFFFFFFFFFFFFFFFFFFFFFFFFFFFFFFFFFFFFFFFFFFFFFFFFFFF
310
F000FFFFFFFFFFFFFFFFFFFFFFFFFFFFFFFFFFFFFFFFFFFFFFFFFFFFFFFFFFFF
310
FFFFFFFFFFFFFFFFFFFFFFFFFFFFFFFFFFFFFFFFFFFFFFFFFFFFFFFFFFFFFFFF
310
FFFFFFFFFFFFFFFFFFFFFFFFFFFFFFFFFFFFFFFFFFFFFFFFF000FFFFFFFFFFFF
310
FFFFFFFFFFFFFFFFFFFFFFFFFFFFFFFFFFFFFFFFFFFFFFFFFFFFFFFFFFFFFFFF
310
FFFFFFFFFFFFFFFFFFFFFFFFFFFFFFFFFFFFFFFFFFFFFFFFFFFFFFFFFFFFFFFF
310
FFFFFFFFFFFFFFFFFFFFFFFFFFFFFFFFF000FFFFFFFFFFFFFFFFFFFFFFFFFFFF
310
FFFFFFFFFFFFFFFFFFFFFFFFFFFFFFFFFFFFFFFFFFFFFFFFFFFFFFFFFFFFFFFF
310
FFFFFFFFFFFFFFFFFFFFFFFFFFFFFFFFFFFFFFFFFFFFFFFFFFFFFFFFFFFFFFFF
310
FFFFFFFFFFFFFFFFF000FFFFFFFFFFFFFFFFFFFFFFFFFFFFFFFFFFFFFFFFFFFF
310
FFFFFFFFFFFFFFFFFFFFFFFFFFFFFFFFFFFFFFFFFFFFFFFFFFFFFFFFFFFFFFFF
310
FFFFFFFFFFFFFFFFFFFFFFFFFFFFFFFFFFFFFFFFFFFFFFFFFFFFFFFFFFFFFFFF
310
F000FFFFFFFFFFFFFFFFFFFFFFFFFFFFFFFFFFFFFFFFFFFFFFFFFFFFFFFFFFFF
310
FFFFFFFFFFFFFFFFFFFFFFFFFFFFFFFFFFFFFFFFFFFFFFFFFFFFFFFFFFFFFFFF
310
FFFFFFFFFFFFFFFFFFFFFFFFFFFFFFFFFFFFFFFFFFFFFFFFF000FFFFFFFFFFFF
310
FFFFFFFFFFFFFFFFFFFFFFFFFFFFFFFFFFFFFFFFFFFFFFFFFFFFFFFFFFFFFFFF
310
FFFFFFFFFFFFFFFFFFFFFFFFFFFFFFFFFFFFFFFFFFFFFFFFFFFFFFFFFFFFFFFF
310
FFFFFFFFFFFFFFFFFFFFFFFFFFFFFFFFF000FFFFFFFFFFFFFFFFFFFFFFFFFFFF
310
FFFFFFFFFFFFFFFFFFFFFFFFFFFFFFFFFFFFFFFFFFFFFFFFFFFFFFFFFFFFFFFF
310
FFFFFFFFFFFFFFFFFFFFFFFFFFFFFFFFFFFFFFFFFFFFFFFFFFFFFFFFFFFFFFFF
310
FFFFFFFFFFFFFFFFF000FFFFFFFFFFFFFFFFFFFFFFFFFFFFFFFFFFFFFFFFFFFF
310
FFFFFFFFFFFFFFFFFFFFFFFFFFFFFFFFFFFFFFFFFFFFFFFFFFFFFFFFFFFFFFFF
310
FFFFFFFFFFFFFFFFFFFFFFFFFFFFFFFFFFFFFFFFFFFFFFFFFFFFFFFFFFFFFFFF
310
F000FFFFFFFFFFFFFFFFFFFFFFFFFFFFFFFFFFFFFFFFFFFFFFFFFFFFFFFFFFFF
310
FFFFFFFFFFFFFFFFFFFFFFFFFFFFFFFFFFFFFFFFFFFFFFFFFFFFFFFFFFFFFFFF
310
FFFFFFFFFFFFFFFFFFFFFFFFFFFFFFFFFFFFFFFFFFFFFFFFF000FFFFFFFFFFFF
310
FFFFFFFFFFFFFFFFFFFFFFFFFFFFFFFFFFFFFFFFFFFFFFFFFFFFFFFFFFFFFFFF
310
FFFFFFFFFFFFFFFFFFFFFFFFFFFFFFFFFFFFFFFFFFFFFFFFFFFFFFFFFFFFFFFF
310
FFFFFFFFFFFFFFFFFFFFFFFFFFFFFFFFF000FFFFFFFFFFFFFFFFFFFFFFFFFFFF
310
FFFFFFFFFFFFFFFFFFFFFFFFFFFFFFFFFFFFFFFFFFFFFFFFFFFFFFFFFFFFFFFF
310
FFFFFFFFFFFFFFFFFFFFFFFFFFFFFFFFFFFFFFFFFFFFFFFFFFFFFFFFFFFFFFFF
310
FFFFFFFFFFFFFFFFF000FFFFF80003FFFFFFFFFFFFFFFFFFFFFFFFFFFFFFFFFF
310
FFFFF00007FFFFFFFFFF00007FFFFFF800000000000000007FFFFFFFFFFFFFFF
310
FFFFFFFC001FFFFFFFFFFFFFFC001FFFFFFFFFFFFFFFFFFFFFFFFFFE0007FFFF
310
F000FFFF8000007FFFFFFFF8000FFFFFC0007FFFFF80007FFFFF0000007FFFFF
310
FFF8000007FFFFF800000000000000007FFFFFF0001FFFFFFFFFFFC00001FFFF
310
FFFFFFFFC00001FFFFFFFF000000000003FFFFE000007FFFF000FFFE0000000F
310
FFFFFFF0000FFFFF80007FFFFF80007FFFFC0000001FFFFFFFC0000001FFFFF8
310
00000000000000007FFFFFF0001FFFFFFFFFFE0000003FFFFFFFFFFE0000003F
310
FFFFFF000000000003FFFF0000000FFFF000FFF800000003FFFFFFF00007FFFF
310
80007FFFFF80007FFFF000000007FFFFFF000000003FFFF80000000000000000
310
7FFFFFF0001FFFFFFFFFF80000000FFFFFFFFFF80000000FFFFFFF0000000000
310
03FFFC00000003FFF000FFE000000000FFFFFFF00007FFFF80003FFFFF80007F
310
FFC000000001FFFFFC000000001FFFF800000000000000007FFFFFF0001FFFFF
310
FFFFE000000003FFFFFFFFE000000003FFFFFF000000000003FFF000000000FF
310
F000FF80000000007FFFFFF00007FFFF80003FFFFF80007FFF8000000000FFFF
310
F80000000007FFF800000000000000007FFFFFF0001FFFFFFFFFC000000001FF
310
FFFFFFC000000001FFFFFF000000000003FFC0000000007FF000FF0000000000
310
3FFFFFE00007FFFF00003FFFFF80007FFE00000000003FFFF00000000003FFF8
310
00000000000000007FFFFFF0001FFFFFFFFF8000000000FFFFFFFF8000000000
310
FFFFFF000000000003FF80000000003FF000FE00000000001FFFFFE00003FFFF
310
00003FFFFF80007FFC00000000001FFFE00000000001FFF8000001FFFE000000
310
7FFFFFF0001FFFFFFFFE00000000003FFFFFFE00000000003FFFFF0000000000
310
03FF00000000001FF000FC00000000000FFFFFE00003FFFF00001FFFFF80007F
310
F800000000001FFFC00000000000FFF8000001FFFE0000007FFFFFF0001FFFFF
310
FFFC00000000001FFFFFFC00000000001FFFFF000000000003FE00000000000F
310
F000F8000000000007FFFFE00003FFFF00001FFFFF80007FF800000000000FFF
310
800000000000FFF8000001FFFE0000007FFFFFF0001FFFFFFFF800000000000F
310
FFFFF800000000000FFFFF000000000003FC000000000007F000F80000000000
310
03FFFFC00003FFFE00001FFFFF80007FF0000000000007FF0000000000007FF8
310
000001FFFE0000007FFFFFF0001FFFFFFFF0000000000007FFFFF00000000000
310
07FFFF000000000003F8000000000003F000F0000000000003FFFFC00001FFFE
310
00001FFFFF80007FE0000000000007FE0000000000003FF8000001FFFE000000
310
7FFFFFF0001FFFFFFFF0000000000007FFFFF0000000000007FFFF0000000000
310
03F800001F800003F000E00001FFF00001FFFFC00001FFFE00000FFFFF80007F
310
E00001FFE00003FE00001FFF00003FF8000001FFFE0000007FFFFFF0001FFFFF
310
FFE000003E000003FFFFE000003E000003FFFF000000000003F00001FFF80001
310
F000E00007FFFC0001FFFFC00001FFFE00000FFFFF80007FC0000FFFFC0003FC
310
0000FFFFC0001FF8000001FFFE0000007FFFFFF0001FFFFFFFC00003FFE00001
310
FFFFC00003FFE00001FFFF0001FFFFFFFFF00007FFFE0001F000E0000FFFFF00
310
00FFFF800001FFFC00000FFFFF80007FC0001FFFFE0001FC0001FFFFE0001FF8
310
000001FFFE0000007FFFFFF0001FFFFFFF80000FFFF80000FFFF80000FFFF800
310
00FFFF0003FFFFFFFFE0000FFFFF8000F000C0003FFFFF8000FFFF800000FFFC
310
000007FFFF80007F80003FFFFF0001FC0003FFFFF0001FF8000001FFFE000000
310
7FFFFFF0001FFFFFFF80003FFFFE0000FFFF80003FFFFE0000FFFF0003FFFFFF
310
FFE0003FFFFF8000F000C0003FFFFF8000FFFF800000FFFC000007FFFF80007F
310
80007FFFFF8001F80007FFFFF8000FF8000001FFFE0000007FFFFFF0001FFFFF
310
FF00007FFFFF00007FFF00007FFFFF00007FFF0003FFFFFFFFE0003FFFFFC000
310
F000C0007FFFFFC000FFFF000000FFFC000007FFFF80007F8000FFFFFF8000F8
310
000FFFFFF8000FF8000001FFFE0000007FFFFFF0001FFFFFFF0000FFFFFF8000
310
7FFF0000FFFFFF80007FFF0003FFFFFFFFC0007FFFFFC00070008000FFFFFFC0
310
00FFFF000000FFF8000007FFFF80007F8000FFFFFF8000F8000FFFFFF8000FF8
310
000001FFFE0000007FFFFFF0001FFFFFFE0001FFFFFFC0003FFE0001FFFFFFC0
310
003FFF0003FFFFFFFFC0007FFFFFE00070008000FFFFFFC0007FFF0000007FF8
310
000003FFFF80007F0001FFFFFF8000F8000FFFFFF8000FF8000001FFFE000000
310
7FFFFFF0001FFFFFFE0001FFFFFFC0003FFE0001FFFFFFC0003FFF0003FFFFFF
310
FFC000FFFFFFE00070008000FFFFFFC0007FFF0000007FF8000003FFFF80007F
310
0001FFFFFF8000F8001FFFFFF8000FF8000001FFFE0000007FFFFFF0001FFFFF
310
FE0003FFFFFFE0003FFE0003FFFFFFE0003FFF0003FFFFFFFFC000FFFFFFE000
310
70008000FFFFFFC0007FFE0000007FF8000003FFFF80007F0001FFFFFF8000F0
310
001FFFFFF8000FF8000001FFFE0000007FFFFFF0001FFFFFFC0003FFFFFFE000
310
1FFC0003FFFFFFE0001FFF0003FFFFFFFFC000FFFFFFC00070008000FFFFFF80
310
007FFE0000007FF0000003FFFF80007F0001FFFFFF0000F0001FFFFFF8000FF8
310
000001FFFE0000007FFFFFF0001FFFFFFC0007FFFFFFF0001FFC0007FFFFFFF0
310
001FFF0003FFFFFFFFC000FFFFFFC00070008001FFFFFF0000FFFE0000003FF0
310
000001FFFF80007F0001FFFFFF0000F8001FFFFFF0000FF8000001FFFE000000
310
7FFFFFF0001FFFFFFC0007FFFFFFF0001FFC0007FFFFFFF0001FFF0003FFFFFF
310
FFC001FFFFFF80007000FFFFFFFFFE0000FFFE0008003FF0008001FFFF80007F
310
FFFFFFFFFC0000FFFFFFFFFFE0000FF8000001FFFE0000007FFFFFF0001FFFFF
310
F8000FFFFFFFF8000FF8000FFFFFFFF8000FFF0003FFFFFFFFFFFFFFFFFF0000
310
7000FFFFFFFFFC0000FFFC0008003FF0008001FFFF80007FFFFFFFFFF80001FF
310
FFFFFFFF80000FF8000001FFFE0000007FFFFFF0001FFFFFF8000FFFFFFFF800
310
0FF8000FFFFFFFF8000FFF0003FFFFFFFFFFFFFFFFFE0000F000FFFFFFFFE000
310
00FFFC000C003FE000C001FFFF80007FFFFFFFFFC00001FFFFFFFFFE00001FF8
310
000001FFFE0000007FFFFFF0001FFFFFF8000FFFFFFFF8000FF8000FFFFFFFF8
310
000FFF0003FFFFFFFFFFFFFFFFF00000F000FFFFFFFE000001FFFC000C001FE0
310
00C000FFFF80007FFFFFFFFE000001FFFFFFFFE000001FF80FFFFFFFFFFFFFC0
310
7FFFFFF0001FFFFFF8000FFFFFFFF8000FF8000FFFFFFFF8000FFF0003FFFFFF
310
FFFFFFFFFF800000F000FFFFFFC0000001FFFC001C001FE001C000FFFF80007F
310
FFFFFF80000003FFFFFFF80000001FF80FFFFFFFFFFFFFC07FFFFFF0001FFFFF
310
F8001FFFFFFFFC000FF8001FFFFFFFFC000FFF0003FFFFFFFFFFFFFFF0000001
310
F000FFFFF800000001FFF8001C001FE001C000FFFF80007FFFFFF800000003FF
310
FFFF800000003FF80FFFFFFFFFFFFFC07FFFFFF0001FFFFFF8001FFFFFFFFC00
310
0FF8001FFFFFFFFC000FFF0003FFFFFFFFFFFFFE00000001F000FFFFC0000000
310
03FFF8001E001FC001E000FFFF80007FFFFF8000000007FFFFFC000000003FF8
310
0FFFFFFFFFFFFFC07FFFFFF0001FFFFFF8001FFFFFFFFC000FF8001FFFFFFFFC
310
000FFF0003FFFFFFFFFFFFE000000003F000FFFE0000000007FFF8001E000FC0
310
01E0007FFF80007FFFFE0000000007FFFFE0000000007FF80FFFFFFFFFFFFFC0
310
7FFFFFF0001FFFFFF0001FFFFFFFFC0007F0001FFFFFFFFC0007FF0003FFFFFF
310
FFFFFF0000000003F000FFF80000000007FFF8001E000FC003E0007FFF80007F
310
FFF0000000000FFFFF8000000000FFF80FFFFFFFFFFFFFC07FFFFFF0001FFFFF
310
F0001FFFFFFFFC0007F0001FFFFFFFFC0007FF0003FFFFFFFFFFFC0000000007
310
F000FFE0000000000FFFF0003E000FC003E0007FFF80007FFFC0000000001FFF
310
FE0000000001FFF80FFFFFFFFFFFFFC07FFFFFF0001FFFFFF0001FFFFFFFFC00
310
07F0001FFFFFFFFC0007FF0003FFFFFFFFFFF0000000000FF000FFC000000000
310
1FFFF0003F000F8003F0003FFF80007FFF80000000003FFFF80000000003FFF8
310
0FFFFFFFFFFFFFC07FFFFFF0001FFFFFF0001FFFFFFFFC0007F0001FFFFFFFFC
310
0007FF0003FFFFFFFFFFE0000000001FF000FF00000000007FFFF0003F000780
310
03F0003FFF80007FFF00000000007FFFF00000000007FFF80FFFFFFFFFFFFFC0
310
7FFFFFF0001FFFFFF0001FFFFFFFFC0007F0001FFFFFFFFC0007FF0003FFFFFF
310
FFFF80000000007FF000FE0000000000FFFFE0003F00078007F0003FFF80007F
310
FE0000000001FFFFE0000000001FFFF80FFFFFFFFFFFFFC07FFFFFF0001FFFFF
310
F0001FFFFFFFFC0007F0001FFFFFFFFC0007FF0003FFFFFFFFFF0000000000FF
310
F000FC0000000003FFFFE0007F00078007F0003FFF80007FFC0000000007FFFF
310
C0000000007FFFF80FFFFFFFFFFFFFC07FFFFFF0001FFFFFF8001FFFFFFFFC00
310
0FF8001FFFFFFFFC000FFF0003FFFFFFFFFE0000000003FFF000FC000000000F
310
FFFFE0007F80070007F8001FFF80007FF8000000001FFFFF8000000001FFFFF8
310
0FFFFFFFFFFFFFC07FFFFFF0001FFFFFF8001FFFFFFFFC000FF8001FFFFFFFFC
310
000FFF0003FFFFFFFFFC000000000FFFF000F8000000007FFFFFE0007F800700
310
07F8001FFF80007FF000000000FFFFFF800000000FFFFFF80FFFFFFFFFFFFFC0
310
7FFFFFF0001FFFFFF8000FFFFFFFF8000FF8000FFFFFFFF8000FFF0003FFFFFF
310
FFFC000000007FFFF000F800000007FFFFFFC0007F8003000FF8001FFF80007F
310
F000000007FFFFFF000000007FFFFFF80FFFFFFFFFFFFFC07FFFFFF0001FFFFF
310
F8000FFFFFFFF8000FF8000FFFFFFFF8000FFF0003FFFFFFFFF80000000FFFFF
310
F000F0000000FFFFFFFFC000FF8003000FF8001FFF80007FE0000000FFFFFFFF
310
0000000FFFFFFFF8000001FFFE0000007FFFFFF0001FFFFFF8000FFFFFFFF800
310
0FF8000FFFFFFFF8000FFF0003FFFFFFFFF8000000FFFFFFF000F000000FFFFF
310
FFFFC000FFC002000FF8000FFF80007FE000001FFFFFFFFE000001FFFFFFFFF8
310
000001FFFE0000007FFFFFF0001FFFFFF8000FFFFFFFF8000FF8000FFFFFFFF8
310
000FFF0003FFFFFFFFF000001FFFFFFFF000E00000FFFFFFFFFFC000FFC00200
310
0FFC000FFF80007FE00001FFFFFFFFFE00001FFFFFFFFFF8000001FFFE000000
310
7FFFFFF0001FFFFFFC000FFFFFFFF8001FFC000FFFFFFFF8001FFF0003FFFFFF
310
FFF00001FFFFFFFFF000E00007FFFFFFFFFF8000FFC000001FFC000FFF80007F
310
C0000FFFFFFFFFFE0000FFFFFFFFFFF8000001FFFE0000007FFFFFF0001FFFFF
310
FC0007FFFFFFF0001FFC0007FFFFFFF0001FFF0003FFFFFFFFF00007FFFFFFFF
310
F000E0001FFFFFFFFFFF8000FFC000001FFC000FFF80007FC0003FFFFFFFFFFE
310
0001FFFFFFFFFFF8000001FFFE0000007FFFFFF0001FFFFFFC0007FFFFFFF000
310
1FFC0007FFFFFFF0001FFF0003FFFFFFFFF0001FFFFFFFFFF000E0003FFFFF00
310
03FF8001FFE000001FFC0007FF80007FC0007FFFFF0007FC0003FFFFF0003FF8
310
000001FFFE0000007FFFFFF0001FFFFFFC0003FFFFFFE0001FFC0003FFFFFFE0
310
001FFF0003FFFFFFFFF0003FFFFFFFFFF000E0003FFFFF0001FF8001FFE00000
310
1FFE0007FF80007FC0007FFFFE0003FC0007FFFFE0003FF8000001FFFE000000
310
7FFFFFF0001FFFFFFE0003FFFFFFE0003FFE0003FFFFFFE0003FFF0003FFFFFF
310
FFF0003FFFFF8001F000E0003FFFFF0001FF0001FFE000001FFE0007FF80007F
310
C0007FFFFE0003FC0007FFFFE0003FF8000001FFFE0000007FFFFFF0001FFFFF
310
FE0001FFFFFFC0003FFE0001FFFFFFC0003FFF0003FFFFFFFFF0003FFFFF0001
310
F000E0003FFFFF0003FF0001FFE000003FFE0007FF80007FC0007FFFFE0003FC
310
0007FFFFE0003FF8000001FFFE0000007FFFFFF0001FFFFFFF0001FFFFFFC000
310
7FFF0001FFFFFFC0007FFF0003FFFFFFFFF0003FFFFF0001F000E0003FFFFE00
310
03FF0003FFF000003FFE0003FF80007FC0007FFFFC0003FE0007FFFFE0003FF8
310
000001FFFE0000007FFFFFF0001FFFFFFF0000FFFFFF80007FFF0000FFFFFF80
310
007FFF0003FFFFFFFFF0003FFFFF0001F000E0003FFFFE0003FF0003FFF00000
310
3FFF0003FF80007FC0007FFFFC0007FE0007FFFFC0003FF8000001FFFE000000
310
7FFFFFF0001FFFFFFF80007FFFFF0000FFFF80007FFFFF0000FFFF0003FFFFFF
310
FFF0003FFFFF0003F000E0003FFFFC0003FE0003FFF000003FFF0003FF80007F
310
E0003FFFF80007FE0003FFFFC0007FF8000001FFFE0000007FFFFFF0001FFFFF
310
FF80003FFFFE0000FFFF80003FFFFE0000FFFF0003FFFFFFFFF0001FFFFE0003
310
F000F0001FFFF80003FE0003FFF000007FFF0001FF80007FE0003FFFF00007FE
310
0001FFFF80007FF8000001FFFE0000007FFFFFF0001FFFFFFFC0000FFFF80001
310
FFFFC0000FFFF80001FFFF0003FFFFFFFFF0001FFFFC0003F000F0000FFFF000
310
07FE0007FFF800007FFF0001FF80007FE0001FFFE00007FF0000FFFE00007FF8
310
000001FFFE0000007FFFFFF0001FFFFFFFC00003FFE00001FFFFC00003FFE000
310
01FFFF0003FFFFFFFFF8000FFFF80003F000F00003FFC00007FC0007FFF80000
310
7FFF8001FF80007FF00007FF80000FFF00007FF80000FFF8000001FFFE000000
310
7F80000000000001FFE000003E000003FFFFE000003E000003FFFF0003FFFFFF
310
FFF80003FFE00007F000F800000000000FFC0007FFF800007FFF8001FF80007F
310
F000000000000FFF000000000000FFF8000001FFFE0000007F80000000000001
310
FFF0000000000007FFFFF0000000000007FFFF0003FFFFFFFFFC00007E000007
310
F000F800000000000FFC0007FFF80000FFFF8000FF80007FF800000000001FFF
310
800000000001FFF8000001FFFE0000007F80000000000001FFF800000000000F
310
FFFFF800000000000FFFFF0003FFFFFFFFFC00000000000FF000FC0000000000
310
1FFC0007FFFC0000FFFF8000FF80007FF800000000003FFFC00000000001FFF8
310
000001FFFE0000007F80000000000001FFF800000000000FFFFFF80000000000
310
0FFFFF0003FFFFFFFFFE00000000001FF000FE00000000003FF8000FFFFC0000
310
FFFF8000FF80007FFC00000000003FFFC00000000003FFF8000001FFFE000000
310
7F80000000000001FFFC00000000001FFFFFFC00000000001FFFFF0003FFFFFF
310
FFFF00000000001FF000FF00000000003FF8000FFFFC0000FFFFC000FF80007F
310
FE00000000007FFFE00000000007FFF8000001FFFE0000007F80000000000001
310
FFFE00000000003FFFFFFE00000000003FFFFF0003FFFFFFFFFF80000000003F
310
F000FF80000000007FF8000FFFFC0001FFFFC0007F80007FFF0000000000FFFF
310
F0000000000FFFF800000000000000007F80000000000001FFFF8000000000FF
310
FFFFFF8000000000FFFFFF0003FFFFFFFFFFC0000000007FF000FFC000000000
310
FFF8000FFFFE0001FFFFC0007F80007FFF8000000001FFFFF8000000001FFFF8
310
00000000000000007F80000000000001FFFFC000000001FFFFFFFFC000000001
310
FFFFFF0003FFFFFFFFFFE000000000FFF000FFE000000003FFF0001FFFFE0001
310
FFFFC0007F80007FFFC000000007FFFFFE000000003FFFF80000000000000000
310
7F80000000000001FFFFE000000003FFFFFFFFE000000003FFFFFF0003FFFFFF
310
FFFFF000000003FFF000FFF80000000FFFF0001FFFFE0001FFFFE0007F80007F
310
FFF00000000FFFFFFF00000000FFFFF800000000000000007F80000000000001
310
FFFFF80000000FFFFFFFFFF80000000FFFFFFF0003FFFFFFFFFFFC0000000FFF
310
F000FFFE0000003FFFF0001FFFFE0003FFFFE0003F80007FFFFC0000003FFFFF
310
FFC0000003FFFFF800000000000000007F80000000000001FFFFFE0000003FFF
310
FFFFFFFE0000003FFFFFFF0003FFFFFFFFFFFF0000003FFFF000FFFF800000FF
310
FFF0001FFFFF0003FFFFE0003F80007FFFFF000001FFFFFFFFF800001FFFFFF8
310
00000000000000007F80000000000001FFFFFFC00001FFFFFFFFFFFFC00001FF
310
FFFFFF0003FFFFFFFFFFFFC00000FFFFF000FFFFF8000FFFFFFFFFFFFFFFFFFF
310
FFFFFFFFFFFFFFFFFFFFF0001FFFFFFFFFFF0000FFFFFFF80000000000000000
310
7FFFFFFFFFFFFFFFFFFFFFFC001FFFFFFFFFFFFFFC001FFFFFFFFFFFFFFFFFFF
310
FFFFFFFC001FFFFFF000FFFFFFFFFFFFFFFFFFFFFFFFFFFFFFFFFFFFFFFFFFFF
310
FFFFFFFFFFFFFFFFFFFFFFFFFFFFFFFFFFFFFFFFFFFFFFFFFFFFFFFFFFFFFFFF
310
FFFFFFFFFFFFFFFFFFFFFFFFFFFFFFFFFFFFFFFFFFFFFFFFFFFFFFFFFFFFFFFF
310
F000FFFFFFFFFFFFFFFFFFFFFFFFFFFFFFFFFFFFFFFFFFFFFFFFFFFFFFFFFFFF
310
FFFFFFFFFFFFFFFFFFFFFFFFFFFFFFFFFFFFFFFFFFFFFFFFFFFFFFFFFFFFFFFF
310
FFFFFFFFFFFFFFFFFFFFFFFFFFFFFFFFFFFFFFFFFFFFFFFFF000FFFFFFFFFFFF
310
FFFFFFFFFFFFFFFFFFFFFFFFFFFFFFFFFFFFFFFFFFFFFFFFFFFFFFFFFFFFFFFF
310
FFFFFFFFFFFFFFFFFFFFFFFFFFFFFFFFFFFFFFFFFFFFFFFFFFFFFFFFFFFFFFFF
310
FFFFFFFFFFFFFFFFFFFFFFFFFFFFFFFFF000FFFFFFFFFFFFFFFFFFFFFFFFFFFF
310
FFFFFFFFFFFFFFFFFFFFFFFFFFFFFFFFFFFFFFFFFFFFFFFFFFFFFFFFFFFFFFFF
310
FFFFFFFFFFFFFFFFFFFFFFFFFFFFFFFFFFFFFFFFFFFFFFFFFFFFFFFFFFFFFFFF
310
FFFFFFFFFFFFFFFFF000FFFFFFFFFFFFFFFFFFFFFFFFFFFFFFFFFFFFFFFFFFFF
310
FFFFFFFFFFFFFFFFFFFFFFFFFFFFFFFFFFFFFFFFFFFFFFFFFFFFFFFFFFFFFFFF
310
FFFFFFFFFFFFFFFFFFFFFFFFFFFFFFFFFFFFFFFFFFFFFFFFFFFFFFFFFFFFFFFF
310
F000FFFFFFFFFFFFFFFFFFFFFFFFFFFFFFFFFFFFFFFFFFFFFFFFFFFFFFFFFFFF
310
FFFFFFFFFFFFFFFFFFFFFFFFFFFFFFFFFFFFFFFFFFFFFFFFFFFFFFFFFFFFFFFF
310
FFFFFFFFFFFFFFFFFFFFFFFFFFFFFFFFFFFFFFFFFFFFFFFFF000FFFFFFFFFFFF
310
FFFFFFFFFFFFFFFFFFFFFFFFFFFFFFFFFFFFFFFFFFFFFFFFFFFFFFFFFFFFFFFF
310
FFFFFFFFFFFFFFFFFFFFFFFFFFFFFFFFFFFFFFFFFFFFFFFFFFFFFFFFFFFFFFFF
310
FFFFFFFFFFFFFFFFFFFFFFFFFFFFFFFFF000FFFFFFFFFFFFFFFFFFFFFFFFFFFF
310
FFFFFFFFFFFFFFFFFFFFFFFFFFFFFFFFFFFFFFFFFFFFFFFFFFFFFFFFFFFFFFFF
310
FFFFFFFFFFFFFFFFFFFFFFFFFFFFFFFFFFFFFFFFFFFFFFFFFFFFFFFFFFFFFFFF
310
FFFFFFFFFFFFFFFFF000FFFFFFFFFFFFFFFFFFFFFFFFFFFFFFFFFFFFFFFFFFFF
310
FFFFFFFFFFFFFFFFFFFFFFFFFFFFFFFFFFFFFFFFFFFFFFFFFFFFFFFFFFFFFFFF
310
FFFFFFFFFFFFFFFFFFFFFFFFFFFFFFFFFFFFFFFFFFFFFFFFFFFFFFFFFFFFFFFF
310
F000FFFFFFFFFFFFFFFFFFFFFFFFFFFFFFFFFFFFFFFFFFFFFFFFFFFFFFFFFFFF
310
FFFFFFFFFFFFFFFFFFFFFFFFFFFFFFFFFFFFFFFFFFFFFFFFFFFFFFFFFFFFFFFF
310
FFFFFFFFFFFFFFFFFFFFFFFFFFFFFFFFFFFFFFFFFFFFFFFFF000FFFFFFFFFFFF
310
FFFFFFFFFFFFFFFFFFFFFFFFFFFFFFFFFFFFFFFFFFFFFFFFFFFFFFFFFFFFFFFF
310
FFFFFFFFFFFFFFFFFFFFFFFFFFFFFFFFFFFFFFFFFFFFFFFFFFFFFFFFFFFFFFFF
310
FFFFFFFFFFFFFFFFFFFFFFFFFFFFFFFFF000FFFFFFFFFFFFFFFFFFFFFFFFFFFF
310
FFFFFFFFFFFFFFFFFFFFFFFFFFFFFFFFFFFFFFFFFFFFFFFFFFFFFFFFFFFFFFFF
310
FFFFFFFFFFFFFFFFFFFFFFFFFFFFFFFFFFFFFFFFFFFFFFFFFFFFFFFFFFFFFFFF
310
FFFFFFFFFFFFFFFFF000FFFFFFFFFFFFFFFFFFFFFFFFFFFFFFFFFFFFFFFFFFFF
310
FFFFFFFFFFFFFFFFFFFFFFFFFFFFFFFFFFFFFFFFFFFFFFFFFFFFFFFFFFFFFFFF
310
FFFFFFFFFFFFFFFFFFFFFFFFFFFFFFFFFFFFFFFFFFFFFFFFFFFFFFFFFFFFFFFF
310
F000FFFFFFFFFFFFFFFFFFFFFFFFFFFFFFFFFFFFFFFFFFFFFFFFFFFFFFFFFFFF
310
FFFFFFFFFFFFFFFFFFFFFFFFFFFFFFFFFFFFFFFFFFFFFFFFFFFFFFFFFFFFFFFF
310
FFFFFFFFFFFFFFFFFFFFFFFFFFFFFFFFFFFFFFFFFFFFFFFFF000FFFFFFFFFFFF
310
FFFFFFFFFFFFFFFFFFFFFFFFFFFFFFFFFFFFFFFFFFFFFFFFFFFFFFFFFFFFFFFF
310
FFFFFFFFFFFFFFFFFFFFFFFFFFFFFFFFFFFFFFFFFFFFFFFFFFFFFFFFFFFFFFFF
310
FFFFFFFFFFFFFFFFFFFFFFFFFFFFFFFFF000FFFFFFFFFFFFFFFFFFFFFFFFFFFF
310
FFFFFFFFFFFFFFFFFFFFFFFFFFFFFFFFFFFFFFFFFFFFFFFFFFFFFFFFFFFFFFFF
310
FFFFFFFFFFFFFFFFFFFFFFFFFFFFFFFFFFFFFFFFFFFFFFFFFFFFFFFFFFFFFFFF
310
FFFFFFFFFFFFFFFFF000FFFFFFFFFFFFFFFFFFFFFFFFFFFFFFFFFFFFFFFFFFFF
310
FFFFFFFFFFFFFFFFFFFFFFFFFFFFFFFFFFFFFFFFFFFFFFFFFFFFFFFFFFFFFFFF
310
FFFFFFFFFFFFFFFFFFFFFFFFFFFFFFFFFFFFFFFFFFFFFFFFFFFFFFFFFFFFFFFF
310
F000FFFFFFFFFFFFFFFFFFFFFFFFFFFFFFFFFFFFFFFFFFFFFFFFFFFFFFFFFFFF
310
FFFFFFFFFFFFFFFFFFFFFFFFFFFFFFFFFFFFFFFFFFFFFFFFFFFFFFFFFFFFFFFF
310
FFFFFFFFFFFFFFFFFFFFFFFFFFFFFFFFFFFFFFFFFFFFFFFFF000FFFFFFFFFFFF
310
FFFFFFFFFFFFFFFFFFFFFFFFFFFFFFFFFFFFFFFFFFFFFFFFFFFFFFFFFFFFFFFF
310
FFFFFFFFFFFFFFFFFFFFFFFFFFFFFFFFFFFFFFFFFFFFFFFFFFFFFFFFFFFFFFFF
310
FFFFFFFFFFFFFFFFFFFFFFFFFFFFFFFFF000FFFFFFFFFFFFFFFFFFFFFFFFFFFF
310
FFFFFFFFFFFFFFFFFFFFFFFFFFFFFFFFFFFFFFFFFFFFFFFFFFFFFFFFFFFFFFFF
310
FFFFFFFFFFFFFFFFFFFFFFFFFFFFFFFFFFFFFFFFFFFFFFFFFFFFFFFFFFFFFFFF
310
FFFFFFFFFFFFFFFFF000FFFFFFFFFFFFFFFFFFFFFFFFFFFFFFFFFFFFFFFFFFFF
310
FFFFFFFFFFFFFFFFFFFFFFFFFFFFFFFFFFFFFFFFFFFFFFFFFFFFFFFFFFFFFFFF
310
FFFFFFFFFFFFFFFFFFFFFFFFFFFFFFFFFFFFFFFFFFFFFFFFFFFFFFFFFFFFFFFF
310
F000FFFFFFFFFFFFFFFFFFFFFFFFFFFFFFFFFFFFFFFFFFFFFFFFFFFFFFFFFFFF
310
FFFFFFFFFFFFFFFFFFFFFFFFFFFFFFFFFFFFFFFFFFFFFFFFFFFFFFFFFFFFFFFF
310
FFFFFFFFFFFFFFFFFFFFFFFFFFFFFFFFFFFFFFFFFFFFFFFFF000FFFFFFFFFFFF
310
FFFFFFFFFFFFFFFFFFFFFFFFFFFFFFFFFFFFFFFFFFFFFFFFFFFFFFFFFFFFFFFF
310
FFFFFFFFFFFFFFFFFFFFFFFFFFFFFFFFFFFFFFFFFFFFFFFFFFFFFFFFFFFFFFFF
310
FFFFFFFFFFFFFFFFFFFFFFFFFFFFFFFFF0000000000000000000000000000000
310
0000000000000000000000000000000000000000000000000000000000000000
310
0000000000000000000000000000000000000000000000000000000000000000
310
0000000000000000000000000000000000000000000000000000000000000000
310
0000000000000000000000000000000000000000000000000000000000000000
310
0000000000000000000000000000000000000000000000000000000000000000
310
0000000000000000000000000000000000000000000000000000000000000000
310
0000000000000000000000000000000000000000000000000000000000000000
310
0000000000000000000000000000000000000000000000000000000000000000
310
0000000000000000000000000000000000000000000000000000000000000000
310
0000000000000000000000000000000000000000000000000000000000000000
310
0000000000000000000000000000000000000000000000000000000000000000
310
0000000000000000000000000000000000000000000000000000000000000000
310
0000000000000000000000000000000000000000000000000000000000000000
310
0000000000000000000000000000000000000000000000000000000000000000
310
0000000000000000000000000000000000000000000000000000000000000000
  1
OLE
  0
ENDSEC
  0
SECTION
  2
OBJECTS
  0
DICTIONARY
  5
C
330
0
100
AcDbDictionary
281
     1
  3
ACAD_GROUP
350
D
  3
ACAD_LAYOUT
350
1A
  3
ACAD_MLINESTYLE
350
17
  3
ACAD_PLOTSETTINGS
350
19
  3
ACAD_PLOTSTYLENAME
350
E
  3
ACAD_SCALELIST
350
47
  0
DICTIONARY
  5
D
102
{ACAD_REACTORS
330
C
102
}
330
C
100
AcDbDictionary
281
     1
  0
DICTIONARY
  5
1A
102
{ACAD_REACTORS
330
C
102
}
330
C
100
AcDbDictionary
281
     1
  3
Layout1
350
1E
  3
Layout2
350
26
  3
Model
350
22
  0
DICTIONARY
  5
17
102
{ACAD_REACTORS
330
C
102
}
330
C
100
AcDbDictionary
281
     1
  3
Standard
350
18
  0
DICTIONARY
  5
19
102
{ACAD_REACTORS
330
C
102
}
330
C
100
AcDbDictionary
281
     1
  0
ACDBDICTIONARYWDFLT
  5
E
102
{ACAD_REACTORS
330
C
102
}
330
C
100
AcDbDictionary
281
     1
  3
Normal
350
F
100
AcDbDictionaryWithDefault
340
F
  0
DICTIONARY
  5
47
102
{ACAD_REACTORS
330
C
102
}
330
C
100
AcDbDictionary
281
     1
  3
A0
350
48
  3
A1
350
49
  3
A2
350
4A
  3
A3
350
4B
  3
A4
350
4C
  3
A5
350
4D
  3
A6
350
4E
  3
A7
350
4F
  3
A8
350
50
  3
A9
350
51
  3
B0
350
52
  3
B1
350
53
  3
B2
350
54
  3
B3
350
55
  3
B4
350
56
  3
B5
350
57
  3
B6
350
58
  3
B7
350
59
  3
B8
350
5A
  3
B9
350
5B
  3
C0
350
5C
  3
C1
350
5D
  3
C2
350
5E
  3
C3
350
5F
  3
C4
350
60
  3
C5
350
61
  3
C6
350
62
  3
C7
350
63
  3
C8
350
64
  3
C9
350
65
  3
D0
350
66
  3
D1
350
67
  3
D2
350
68
  0
LAYOUT
  5
1E
102
{ACAD_REACTORS
330
1A
102
}
330
1A
100
AcDbPlotSettings
  1

  2
none_device
  4

  6

 40
0.0
 41
0.0
 42
0.0
 43
0.0
 44
0.0
 45
0.0
 46
0.0
 47
0.0
 48
0.0
 49
0.0
140
0.0
141
0.0
142
1.0
143
1.0
 70
   688
 72
     1
 73
     0
 74
     5
  7

 75
    16
147
1.0
148
0.0
149
0.0
100
AcDbLayout
  1
Layout1
 70
     1
 71
     1
 10
0.0
 20
0.0
 11
420.0
 21
297.0
 12
0.0
 22
0.0
 32
0.0
 14
1.0000000000E+20
 24
1.0000000000E+20
 34
1.0000000000E+20
 15
-1.0000000000E+20
 25
-1.0000000000E+20
 35
-1.0000000000E+20
146
0.0
 13
0.0
 23
0.0
 33
0.0
 16
1.0
 26
0.0
 36
0.0
 17
0.0
 27
1.0
 37
0.0
 76
     0
330
1B
  0
LAYOUT
  5
26
102
{ACAD_REACTORS
330
1A
102
}
330
1A
100
AcDbPlotSettings
  1

  2
none_device
  4

  6

 40
0.0
 41
0.0
 42
0.0
 43
0.0
 44
0.0
 45
0.0
 46
0.0
 47
0.0
 48
0.0
 49
0.0
140
0.0
141
0.0
142
1.0
143
1.0
 70
   688
 72
     1
 73
     0
 74
     5
  7

 75
    16
147
1.0
148
0.0
149
0.0
100
AcDbLayout
  1
Layout2
 70
     1
 71
     2
 10
0.0
 20
0.0
 11
0.0
 21
0.0
 12
0.0
 22
0.0
 32
0.0
 14
0.0
 24
0.0
 34
0.0
 15
0.0
 25
0.0
 35
0.0
146
0.0
 13
0.0
 23
0.0
 33
0.0
 16
1.0
 26
0.0
 36
0.0
 17
0.0
 27
1.0
 37
0.0
 76
     0
330
23
  0
LAYOUT
  5
22
102
{ACAD_REACTORS
330
1A
102
}
330
1A
100
AcDbPlotSettings
  1

  2
none_device
  4
Letter_(8.50_x_11.00_Inches)
  6

 40
6.35
 41
6.35
 42
6.35000508
 43
6.35000508
 44
215.9
 45
279.4
 46
0.0
 47
0.0
 48
0.0
 49
0.0
140
0.0
141
0.0
142
1.0
143
1.0
 70
  1712
 72
     1
 73
     0
 74
     0
  7

 75
     0
147
1.0
148
0.0
149
0.0
100
AcDbLayout
  1
Model
 70
     1
 71
     0
 10
0.0
 20
0.0
 11
297.0
 21
210.0
 12
0.0
 22
0.0
 32
0.0
 14
0.0
 24
0.0
 34
0.0
 15
297.0
 25
210.0
 35
0.0
146
0.0
 13
0.0
 23
0.0
 33
0.0
 16
1.0
 26
0.0
 36
0.0
 17
0.0
 27
1.0
 37
0.0
 76
     0
330
1F
331
29
  0
MLINESTYLE
  5
18
102
{ACAD_REACTORS
330
17
102
}
330
17
100
AcDbMlineStyle
  2
Standard
 70
     0
  3

 62
   256
 51
90.0
 52
90.0
 71
     2
 49
0.5
 62
   256
  6
BYLAYER
 49
-0.5
 62
   256
  6
BYLAYER
  0
ACDBPLACEHOLDER
  5
F
102
{ACAD_REACTORS
330
E
102
}
330
E
  0
SCALE
  5
48
102
{ACAD_REACTORS
330
47
102
}
330
47
100
AcDbScale
 70
     0
300
1:1
140
1.0
141
1.0
290
     1
  0
SCALE
  5
49
102
{ACAD_REACTORS
330
47
102
}
330
47
100
AcDbScale
 70
     0
300
1:2
140
1.0
141
2.0
290
     0
  0
SCALE
  5
4A
102
{ACAD_REACTORS
330
47
102
}
330
47
100
AcDbScale
 70
     0
300
1:4
140
1.0
141
4.0
290
     0
  0
SCALE
  5
4B
102
{ACAD_REACTORS
330
47
102
}
330
47
100
AcDbScale
 70
     0
300
1:5
140
1.0
141
5.0
290
     0
  0
SCALE
  5
4C
102
{ACAD_REACTORS
330
47
102
}
330
47
100
AcDbScale
 70
     0
300
1:8
140
1.0
141
8.0
290
     0
  0
SCALE
  5
4D
102
{ACAD_REACTORS
330
47
102
}
330
47
100
AcDbScale
 70
     0
300
1:10
140
1.0
141
10.0
290
     0
  0
SCALE
  5
4E
102
{ACAD_REACTORS
330
47
102
}
330
47
100
AcDbScale
 70
     0
300
1:16
140
1.0
141
16.0
290
     0
  0
SCALE
  5
4F
102
{ACAD_REACTORS
330
47
102
}
330
47
100
AcDbScale
 70
     0
300
1:20
140
1.0
141
20.0
290
     0
  0
SCALE
  5
50
102
{ACAD_REACTORS
330
47
102
}
330
47
100
AcDbScale
 70
     0
300
1:30
140
1.0
141
30.0
290
     0
  0
SCALE
  5
51
102
{ACAD_REACTORS
330
47
102
}
330
47
100
AcDbScale
 70
     0
300
1:40
140
1.0
141
40.0
290
     0
  0
SCALE
  5
52
102
{ACAD_REACTORS
330
47
102
}
330
47
100
AcDbScale
 70
     0
300
1:50
140
1.0
141
50.0
290
     0
  0
SCALE
  5
53
102
{ACAD_REACTORS
330
47
102
}
330
47
100
AcDbScale
 70
     0
300
1:100
140
1.0
141
100.0
290
     0
  0
SCALE
  5
54
102
{ACAD_REACTORS
330
47
102
}
330
47
100
AcDbScale
 70
     0
300
2:1
140
2.0
141
1.0
290
     0
  0
SCALE
  5
55
102
{ACAD_REACTORS
330
47
102
}
330
47
100
AcDbScale
 70
     0
300
4:1
140
4.0
141
1.0
290
     0
  0
SCALE
  5
56
102
{ACAD_REACTORS
330
47
102
}
330
47
100
AcDbScale
 70
     0
300
8:1
140
8.0
141
1.0
290
     0
  0
SCALE
  5
57
102
{ACAD_REACTORS
330
47
102
}
330
47
100
AcDbScale
 70
     0
300
10:1
140
10.0
141
1.0
290
     0
  0
SCALE
  5
58
102
{ACAD_REACTORS
330
47
102
}
330
47
100
AcDbScale
 70
     0
300
100:1
140
100.0
141
1.0
290
     0
  0
SCALE
  5
59
102
{ACAD_REACTORS
330
47
102
}
330
47
100
AcDbScale
 70
     0
300
1/128" = 1'-0"
140
0.0078125
141
12.0
290
     0
  0
SCALE
  5
5A
102
{ACAD_REACTORS
330
47
102
}
330
47
100
AcDbScale
 70
     0
300
1/64" = 1'-0"
140
0.015625
141
12.0
290
     0
  0
SCALE
  5
5B
102
{ACAD_REACTORS
330
47
102
}
330
47
100
AcDbScale
 70
     0
300
1/32" = 1'-0"
140
0.03125
141
12.0
290
     0
  0
SCALE
  5
5C
102
{ACAD_REACTORS
330
47
102
}
330
47
100
AcDbScale
 70
     0
300
1/16" = 1'-0"
140
0.0625
141
12.0
290
     0
  0
SCALE
  5
5D
102
{ACAD_REACTORS
330
47
102
}
330
47
100
AcDbScale
 70
     0
300
3/32" = 1'-0"
140
0.09375
141
12.0
290
     0
  0
SCALE
  5
5E
102
{ACAD_REACTORS
330
47
102
}
330
47
100
AcDbScale
 70
     0
300
1/8" = 1'-0"
140
0.125
141
12.0
290
     0
  0
SCALE
  5
5F
102
{ACAD_REACTORS
330
47
102
}
330
47
100
AcDbScale
 70
     0
300
3/16" = 1'-0"
140
0.1875
141
12.0
290
     0
  0
SCALE
  5
60
102
{ACAD_REACTORS
330
47
102
}
330
47
100
AcDbScale
 70
     0
300
1/4" = 1'-0"
140
0.25
141
12.0
290
     0
  0
SCALE
  5
61
102
{ACAD_REACTORS
330
47
102
}
330
47
100
AcDbScale
 70
     0
300
3/8" = 1'-0"
140
0.375
141
12.0
290
     0
  0
SCALE
  5
62
102
{ACAD_REACTORS
330
47
102
}
330
47
100
AcDbScale
 70
     0
300
1/2" = 1'-0"
140
0.5
141
12.0
290
     0
  0
SCALE
  5
63
102
{ACAD_REACTORS
330
47
102
}
330
47
100
AcDbScale
 70
     0
300
3/4" = 1'-0"
140
0.75
141
12.0
290
     0
  0
SCALE
  5
64
102
{ACAD_REACTORS
330
47
102
}
330
47
100
AcDbScale
 70
     0
300
1" = 1'-0"
140
1.0
141
12.0
290
     0
  0
SCALE
  5
65
102
{ACAD_REACTORS
330
47
102
}
330
47
100
AcDbScale
 70
     0
300
1-1/2" = 1'-0"
140
1.5
141
12.0
290
     0
  0
SCALE
  5
66
102
{ACAD_REACTORS
330
47
102
}
330
47
100
AcDbScale
 70
     0
300
3" = 1'-0"
140
3.0
141
12.0
290
     0
  0
SCALE
  5
67
102
{ACAD_REACTORS
330
47
102
}
330
47
100
AcDbScale
 70
     0
300
6" = 1'-0"
140
6.0
141
12.0
290
     0
  0
SCALE
  5
68
102
{ACAD_REACTORS
330
47
102
}
330
47
100
AcDbScale
 70
     0
300
1'-0" = 1'-0"
140
12.0
141
12.0
290
     0
  0
ENDSEC
  0
EOF
