  0
SECTION
  2
HEADER
  9
$ACADVER
  1
AC1015
  9
$ACADMAINTVER
 70
     6
  9
$DWGCODEPAGE
  3
ANSI_1252
  9
$INSBASE
 10
0.0
 20
0.0
 30
0.0
  9
$EXTMIN
 10
0.0
 20
0.0
 30
0.0
  9
$EXTMAX
 10
297.0
 20
210.0
 30
0.0
  9
$LIMMIN
 10
0.0
 20
0.0
  9
$LIMMAX
 10
297.0
 20
210.0
  9
$ORTHOMODE
 70
     0
  9
$REGENMODE
 70
     1
  9
$FILLMODE
 70
     1
  9
$QTEXTMODE
 70
     0
  9
$MIRRTEXT
 70
     1
  9
$LTSCALE
 40
1.0
  9
$ATTMODE
 70
     1
  9
$TEXTSIZE
 40
2.0
  9
$TRACEWID
 40
1.0
  9
$TEXTSTYLE
  7
Standard
  9
$CLAYER
  8
0
  9
$CELTYPE
  6
ByLayer
  9
$CECOLOR
 62
   256
  9
$CELTSCALE
 40
1.0
  9
$DISPSILH
 70
     0
  9
$DIMSCALE
 40
1.0
  9
$DIMASZ
 40
3.0
  9
$DIMEXO
 40
0.0
  9
$DIMDLI
 40
3.75
  9
$DIMRND
 40
0.0
  9
$DIMDLE
 40
0.0
  9
$DIMEXE
 40
1.0
  9
$DIMTP
 40
0.0
  9
$DIMTM
 40
0.0
  9
$DIMTXT
 40
2.0
  9
$DIMCEN
 40
2.5
  9
$DIMTSZ
 40
0.0
  9
$DIMTOL
 70
     0
  9
$DIMLIM
 70
     0
  9
$DIMTIH
 70
     1
  9
$DIMTOH
 70
     1
  9
$DIMSE1
 70
     0
  9
$DIMSE2
 70
     0
  9
$DIMTAD
 70
     1
  9
$DIMZIN
 70
     0
  9
$DIMBLK
  1

  9
$DIMASO
 70
     1
  9
$DIMSHO
 70
     1
  9
$DIMPOST
  1

  9
$DIMAPOST
  1

  9
$DIMALT
 70
     0
  9
$DIMALTD
 70
     3
  9
$DIMALTF
 40
0.0393700787
  9
$DIMLFAC
 40
2.0
  9
$DIMTOFL
 70
     1
  9
$DIMTVP
 40
0.0
  9
$DIMTIX
 70
     0
  9
$DIMSOXD
 70
     0
  9
$DIMSAH
 70
     0
  9
$DIMBLK1
  1

  9
$DIMBLK2
  1

  9
$DIMSTYLE
  2
ISO-25
  9
$DIMCLRD
 70
     0
  9
$DIMCLRE
 70
     0
  9
$DIMCLRT
 70
     0
  9
$DIMTFAC
 40
1.0
  9
$DIMGAP
 40
1.524
  9
$DIMJUST
 70
     0
  9
$DIMSD1
 70
     0
  9
$DIMSD2
 70
     0
  9
$DIMTOLJ
 70
     0
  9
$DIMTZIN
 70
     0
  9
$DIMALTZ
 70
     0
  9
$DIMALTTZ
 70
     0
  9
$DIMUPT
 70
     0
  9
$DIMDEC
 70
     2
  9
$DIMTDEC
 70
     3
  9
$DIMALTU
 70
     2
  9
$DIMALTTD
 70
     3
  9
$DIMTXSTY
  7
Standard
  9
$DIMAUNIT
 70
     0
  9
$DIMADEC
 70
     2
  9
$DIMALTRND
 40
0.0
  9
$DIMAZIN
 70
     0
  9
$DIMDSEP
 70
    44
  9
$DIMATFIT
 70
     3
  9
$DIMFRAC
 70
     0
  9
$DIMLDRBLK
  1

  9
$DIMLUNIT
 70
     2
  9
$DIMLWD
 70
    -2
  9
$DIMLWE
 70
    -2
  9
$DIMTMOVE
 70
     0
  9
$LUNITS
 70
     2
  9
$LUPREC
 70
     2
  9
$SKETCHINC
 40
1.0
  9
$FILLETRAD
 40
10.0
  9
$AUNITS
 70
     0
  9
$AUPREC
 70
     2
  9
$MENU
  1
.
  9
$ELEVATION
 40
0.0
  9
$PELEVATION
 40
0.0
  9
$THICKNESS
 40
0.0
  9
$LIMCHECK
 70
     0
  9
$CHAMFERA
 40
0.0
  9
$CHAMFERB
 40
0.0
  9
$CHAMFERC
 40
0.0
  9
$CHAMFERD
 40
0.0
  9
$SKPOLY
 70
     0
  9
$TDCREATE
 40
2457674.42358941
  9
$TDUCREATE
 40
2457674.340256076
  9
$TDUPDATE
 40
2457674.423591065
  9
$TDUUPDATE
 40
2457674.340257731
  9
$TDINDWG
 40
0.0000000116
  9
$TDUSRTIMER
 40
0.0000000116
  9
$USRTIMER
 70
     1
  9
$ANGBASE
 50
0.0
  9
$ANGDIR
 70
     0
  9
$PDMODE
 70
     0
  9
$PDSIZE
 40
-1.0
  9
$PLINEWID
 40
0.0
  9
$SPLFRAME
 70
     0
  9
$SPLINETYPE
 70
     6
  9
$SPLINESEGS
 70
     8
  9
$HANDSEED
  5
2DB
  9
$SURFTAB1
 70
     6
  9
$SURFTAB2
 70
     6
  9
$SURFTYPE
 70
     6
  9
$SURFU
 70
     6
  9
$SURFV
 70
     6
  9
$UCSBASE
  2

  9
$UCSNAME
  2

  9
$UCSORG
 10
0.0
 20
0.0
 30
0.0
  9
$UCSXDIR
 10
1.0
 20
0.0
 30
0.0
  9
$UCSYDIR
 10
0.0
 20
1.0
 30
0.0
  9
$UCSORTHOREF
  2

  9
$UCSORTHOVIEW
 70
     0
  9
$UCSORGTOP
 10
0.0
 20
0.0
 30
0.0
  9
$UCSORGBOTTOM
 10
0.0
 20
0.0
 30
0.0
  9
$UCSORGLEFT
 10
0.0
 20
0.0
 30
0.0
  9
$UCSORGRIGHT
 10
0.0
 20
0.0
 30
0.0
  9
$UCSORGFRONT
 10
0.0
 20
0.0
 30
0.0
  9
$UCSORGBACK
 10
0.0
 20
0.0
 30
0.0
  9
$PUCSBASE
  2

  9
$PUCSNAME
  2

  9
$PUCSORG
 10
0.0
 20
0.0
 30
0.0
  9
$PUCSXDIR
 10
1.0
 20
0.0
 30
0.0
  9
$PUCSYDIR
 10
0.0
 20
1.0
 30
0.0
  9
$PUCSORTHOREF
  2

  9
$PUCSORTHOVIEW
 70
     0
  9
$PUCSORGTOP
 10
0.0
 20
0.0
 30
0.0
  9
$PUCSORGBOTTOM
 10
0.0
 20
0.0
 30
0.0
  9
$PUCSORGLEFT
 10
0.0
 20
0.0
 30
0.0
  9
$PUCSORGRIGHT
 10
0.0
 20
0.0
 30
0.0
  9
$PUCSORGFRONT
 10
0.0
 20
0.0
 30
0.0
  9
$PUCSORGBACK
 10
0.0
 20
0.0
 30
0.0
  9
$USERI1
 70
     0
  9
$USERI2
 70
     0
  9
$USERI3
 70
     0
  9
$USERI4
 70
     0
  9
$USERI5
 70
     0
  9
$USERR1
 40
0.0
  9
$USERR2
 40
0.0
  9
$USERR3
 40
0.0
  9
$USERR4
 40
0.0
  9
$USERR5
 40
0.0
  9
$WORLDVIEW
 70
     1
  9
$SHADEDGE
 70
     3
  9
$SHADEDIF
 70
    70
  9
$TILEMODE
 70
     1
  9
$MAXACTVP
 70
    64
  9
$PINSBASE
 10
0.0
 20
0.0
 30
0.0
  9
$PLIMCHECK
 70
     0
  9
$PEXTMIN
 10
1.0000000000E+20
 20
1.0000000000E+20
 30
1.0000000000E+20
  9
$PEXTMAX
 10
-1.0000000000E+20
 20
-1.0000000000E+20
 30
-1.0000000000E+20
  9
$PLIMMIN
 10
0.0
 20
0.0
  9
$PLIMMAX
 10
420.0
 20
297.0
  9
$UNITMODE
 70
     0
  9
$VISRETAIN
 70
     1
  9
$PLINEGEN
 70
     0
  9
$PSLTSCALE
 70
     1
  9
$TREEDEPTH
 70
  3020
  9
$CMLSTYLE
  2
Standard
  9
$CMLJUST
 70
     0
  9
$CMLSCALE
 40
20.0
  9
$PROXYGRAPHICS
 70
     1
  9
$MEASUREMENT
 70
     1
  9
$CELWEIGHT
370
    -1
  9
$ENDCAPS
280
     0
  9
$JOINSTYLE
280
     0
  9
$LWDISPLAY
290
     1
  9
$INSUNITS
 70
     4
  9
$HYPERLINKBASE
  1

  9
$STYLESHEET
  1

  9
$XEDIT
290
     1
  9
$CEPSNTYPE
380
     0
  9
$PSTYLEMODE
290
     1
  9
$FINGERPRINTGUID
  2
{0F14B7BC-449A-49DF-8C52-54AD8B100ADF}
  9
$VERSIONGUID
  2
{FAEB1C32-E019-11D5-929B-00C0DF256EC4}
  9
$EXTNAMES
290
     1
  9
$PSVPSCALE
 40
0.0
  9
$OLESTARTUP
290
     0
  0
ENDSEC
  0
SECTION
  2
CLASSES
  0
CLASS
  1
ACDBDICTIONARYWDFLT
  2
AcDbDictionaryWithDefault
  3
ObjectDBX Classes
 90
        0
280
     0
281
     0
  0
CLASS
  1
VISUALSTYLE
  2
AcDbVisualStyle
  3
ObjectDBX Classes
 90
     4095
280
     0
281
     0
  0
CLASS
  1
MATERIAL
  2
AcDbMaterial
  3
ObjectDBX Classes
 90
     1153
280
     0
281
     0
  0
CLASS
  1
SCALE
  2
AcDbScale
  3
ObjectDBX Classes
 90
     1153
280
     0
281
     0
  0
CLASS
  1
TABLESTYLE
  2
AcDbTableStyle
  3
ObjectDBX Classes
 90
     4095
280
     0
281
     0
  0
CLASS
  1
MLEADERSTYLE
  2
AcDbMLeaderStyle
  3
ACDB_MLEADERSTYLE_CLASS
 90
     4095
280
     0
281
     0
  0
CLASS
  1
SUN
  2
AcDbSun
  3
SCENEOE
 90
     1153
280
     0
281
     0
  0
CLASS
  1
ACDBPLACEHOLDER
  2
AcDbPlaceHolder
  3
ObjectDBX Classes
 90
        0
280
     0
281
     0
  0
CLASS
  1
LAYOUT
  2
AcDbLayout
  3
ObjectDBX Classes
 90
        0
280
     0
281
     0
  0
ENDSEC
  0
SECTION
  2
TABLES
  0
TABLE
  2
VPORT
  5
8
330
0
100
AcDbSymbolTable
 70
     1
  0
VPORT
  5
29
330
8
100
AcDbSymbolTableRecord
100
AcDbViewportTableRecord
  2
*Active
 70
     0
 10
0.0
 20
0.0
 11
1.0
 21
1.0
 12
148.5
 22
105.0
 13
0.0
 23
0.0
 14
10.0
 24
10.0
 15
10.0
 25
10.0
 16
0.0
 26
0.0
 36
1.0
 17
0.0
 27
0.0
 37
0.0
 40
210.0
 41
1.4142857143
 42
50.0
 43
0.0
 44
0.0
 50
0.0
 51
0.0
 71
     0
 72
  2000
 73
     1
 74
     3
 75
     0
 76
     0
 77
     0
 78
     0
281
     0
 65
     1
110
0.0
120
0.0
130
0.0
111
1.0
121
0.0
131
0.0
112
0.0
122
1.0
132
0.0
 79
     0
146
0.0
  0
ENDTAB
  0
TABLE
  2
LTYPE
  5
5
330
0
100
AcDbSymbolTable
 70
     6
  0
LTYPE
  5
14
330
5
100
AcDbSymbolTableRecord
100
AcDbLinetypeTableRecord
  2
ByBlock
 70
     0
  3

 72
    65
 73
     0
 40
0.0
  0
LTYPE
  5
15
330
5
100
AcDbSymbolTableRecord
100
AcDbLinetypeTableRecord
  2
ByLayer
 70
     0
  3

 72
    65
 73
     0
 40
0.0
  0
LTYPE
  5
16
330
5
100
AcDbSymbolTableRecord
100
AcDbLinetypeTableRecord
  2
Continuous
 70
     0
  3
Solid line
 72
    65
 73
     0
 40
0.0
  0
LTYPE
  5
6E
330
5
100
AcDbSymbolTableRecord
100
AcDbLinetypeTableRecord
  2
HIDDEN
 70
     0
  3
Hidden __ __ __ __ __ __ __ __ __ __ __ __ __ __
 72
    65
 73
     2
 40
1.905
 49
1.27
 74
     0
 49
-0.635
 74
     0
  0
LTYPE
  5
6F
330
5
100
AcDbSymbolTableRecord
100
AcDbLinetypeTableRecord
  2
PHANTOM
 70
     0
  3
Phantom ______  __  __  ______  __  __  ______
 72
    65
 73
     6
 40
12.7
 49
6.35
 74
     0
 49
-1.27
 74
     0
 49
1.27
 74
     0
 49
-1.27
 74
     0
 49
1.27
 74
     0
 49
-1.27
 74
     0
  0
LTYPE
  5
70
330
5
100
AcDbSymbolTableRecord
100
AcDbLinetypeTableRecord
  2
CENTER
 70
     0
  3
Center ____ _ ____ _ ____ _ ____ _ ____ _ ____
 72
    65
 73
     4
 40
10.16
 49
6.35
 74
     0
 49
-1.27
 74
     0
 49
1.27
 74
     0
 49
-1.27
 74
     0
  0
LTYPE
  5
71
330
5
100
AcDbSymbolTableRecord
100
AcDbLinetypeTableRecord
  2
CENTERX2
 70
     0
  3
Center (2x) ________  __  ________  __  _____
 72
    65
 73
     4
 40
20.32
 49
12.7
 74
     0
 49
-2.54
 74
     0
 49
2.54
 74
     0
 49
-2.54
 74
     0
  0
LTYPE
  5
72
330
5
100
AcDbSymbolTableRecord
100
AcDbLinetypeTableRecord
  2
DOT2
 70
     0
  3
Dot (.5x) ........................................
 72
    65
 73
     2
 40
0.635
 49
0.0
 74
     0
 49
-0.635
 74
     0
  0
ENDTAB
  0
TABLE
  2
LAYER
  5
2
330
0
100
AcDbSymbolTable
 70
     5
  0
LAYER
  5
10
330
2
100
AcDbSymbolTableRecord
100
AcDbLayerTableRecord
  2
0
 70
     0
 62
     7
  6
Continuous
370
    -3
390
F
  0
LAYER
  5
73
330
2
100
AcDbSymbolTableRecord
100
AcDbLayerTableRecord
  2
FORMAT
 70
     0
 62
     7
  6
Continuous
370
    -3
390
F
  0
LAYER
  5
74
330
2
100
AcDbSymbolTableRecord
100
AcDbLayerTableRecord
  2
VERMASSUNG
 70
     0
 62
     7
  6
Continuous
370
    -3
390
F
  0
LAYER
  5
75
330
2
100
AcDbSymbolTableRecord
100
AcDbLayerTableRecord
  2
KOPF_DÜNN
 70
     0
 62
     7
  6
Continuous
370
    -3
390
F
  0
LAYER
  5
76
330
2
100
AcDbSymbolTableRecord
100
AcDbLayerTableRecord
  2
KOPF_DICK
 70
     0
 62
     7
  6
Continuous
370
    15
390
F
  0
ENDTAB
  0
TABLE
  2
STYLE
  5
3
330
0
100
AcDbSymbolTable
 70
     2
  0
STYLE
  5
11
330
3
100
AcDbSymbolTableRecord
100
AcDbTextStyleTableRecord
  2
Standard
 70
     0
 40
0.0
 41
1.0
 50
0.0
 71
     0
 42
2.0
  3
txt
  4

  0
STYLE
  5
77
330
3
100
AcDbSymbolTableRecord
100
AcDbTextStyleTableRecord
  2
SLDTEXTSTYLE0
 70
     0
 40
0.0
 41
0.7
 50
0.0
 71
     0
 42
2.0
  3
TXT
  4

  0
ENDTAB
  0
TABLE
  2
VIEW
  5
6
330
0
100
AcDbSymbolTable
 70
     0
  0
ENDTAB
  0
TABLE
  2
UCS
  5
7
330
0
100
AcDbSymbolTable
 70
     0
  0
ENDTAB
  0
TABLE
  2
APPID
  5
9
330
0
100
AcDbSymbolTable
 70
     1
  0
APPID
  5
12
330
9
100
AcDbSymbolTableRecord
100
AcDbRegAppTableRecord
  2
ACAD
 70
     0
  0
ENDTAB
  0
TABLE
  2
DIMSTYLE
  5
A
330
0
100
AcDbSymbolTable
 70
     2
100
AcDbDimStyleTable
  0
DIMSTYLE
105
27
330
A
100
AcDbSymbolTableRecord
100
AcDbDimStyleTableRecord
  2
ISO-25
 70
     0
 41
2.5
 42
0.625
 43
3.75
 44
1.25
 73
     0
 74
     0
 77
     1
 78
     8
140
2.5
141
2.5
143
0.0393700787
147
0.625
171
     3
172
     1
178
     0
271
     2
272
     2
274
     3
278
    44
283
     0
284
     8
340
11
  0
DIMSTYLE
105
201
102
{ACAD_REACTORS
330
200
330
20D
330
218
330
224
330
22E
330
238
102
}
330
A
100
AcDbSymbolTableRecord
100
AcDbDimStyleTableRecord
  2
SLDDIMSTYLE0
 70
     0
 41
3.0
 44
0.0
 45
0.000000001
 73
     0
 74
     0
 77
     1
 78
    12
 79
     3
140
2.0
147
0.5
173
     1
178
     0
271
     2
272
     3
276
     2
284
    12
340
77
  0
ENDTAB
  0
TABLE
  2
BLOCK_RECORD
  5
1
330
0
100
AcDbSymbolTable
 70
     7
  0
BLOCK_RECORD
  5
1F
330
1
100
AcDbSymbolTableRecord
100
AcDbBlockTableRecord
  2
*Model_Space
340
22
  0
BLOCK_RECORD
  5
1B
330
1
100
AcDbSymbolTableRecord
100
AcDbBlockTableRecord
  2
*Paper_Space
340
1E
  0
BLOCK_RECORD
  5
23
330
1
100
AcDbSymbolTableRecord
100
AcDbBlockTableRecord
  2
*Paper_Space0
340
26
  0
BLOCK_RECORD
  5
202
330
1
100
AcDbSymbolTableRecord
100
AcDbBlockTableRecord
  2
_D
340
0
  0
BLOCK_RECORD
  5
20E
330
1
100
AcDbSymbolTableRecord
100
AcDbBlockTableRecord
  2
_D_1
340
0
  0
BLOCK_RECORD
  5
219
330
1
100
AcDbSymbolTableRecord
100
AcDbBlockTableRecord
  2
_D_2
340
0
  0
BLOCK_RECORD
  5
225
330
1
100
AcDbSymbolTableRecord
100
AcDbBlockTableRecord
  2
_D_3
340
0
  0
BLOCK_RECORD
  5
22F
330
1
100
AcDbSymbolTableRecord
100
AcDbBlockTableRecord
  2
_D_4
340
0
  0
BLOCK_RECORD
  5
239
330
1
100
AcDbSymbolTableRecord
100
AcDbBlockTableRecord
  2
_D_5
340
0
  0
ENDTAB
  0
ENDSEC
  0
SECTION
  2
BLOCKS
  0
BLOCK
  5
20
330
1F
100
AcDbEntity
  8
0
100
AcDbBlockBegin
  2
*Model_Space
 70
     0
 10
0.0
 20
0.0
 30
0.0
  3
*Model_Space
  1

  0
ENDBLK
  5
21
330
1F
100
AcDbEntity
  8
0
100
AcDbBlockEnd
  0
BLOCK
  5
1C
330
1B
100
AcDbEntity
 67
     1
  8
0
100
AcDbBlockBegin
  2
*Paper_Space
 70
     0
 10
0.0
 20
0.0
 30
0.0
  3
*Paper_Space
  1

  0
ENDBLK
  5
1D
330
1B
100
AcDbEntity
 67
     1
  8
0
100
AcDbBlockEnd
  0
BLOCK
  5
24
330
23
100
AcDbEntity
  8
0
100
AcDbBlockBegin
  2
*Paper_Space0
 70
     0
 10
0.0
 20
0.0
 30
0.0
  3
*Paper_Space0
  1

  0
ENDBLK
  5
25
330
23
100
AcDbEntity
  8
0
100
AcDbBlockEnd
  0
BLOCK
  5
203
330
202
100
AcDbEntity
  8
0
100
AcDbBlockBegin
  2
_D
 70
     0
 10
0.0
 20
0.0
 30
0.0
  3
_D
  1

  0
SOLID
  5
205
330
202
100
AcDbEntity
  8
VERMASSUNG
100
AcDbTrace
 10
56.5068062159
 20
84.2203409869
 30
0.0
 11
56.9568062159
 21
87.2203409869
 31
0.0
 12
56.0568062159
 22
87.2203409869
 32
0.0
 13
56.0568062159
 23
87.2203409869
 33
0.0
  0
SOLID
  5
206
330
202
100
AcDbEntity
  8
VERMASSUNG
100
AcDbTrace
 10
56.5068062159
 20
147.7203409869
 30
0.0
 11
56.0568062159
 21
144.7203409869
 31
0.0
 12
56.9568062159
 22
144.7203409869
 32
0.0
 13
56.9568062159
 23
144.7203409869
 33
0.0
  0
LINE
  5
207
330
202
100
AcDbEntity
  8
VERMASSUNG
100
AcDbLine
 10
148.8384038218
 20
84.2203409869
 30
0.0
 11
55.5068062159
 21
84.2203409869
 31
0.0
  0
LINE
  5
208
330
202
100
AcDbEntity
  8
VERMASSUNG
100
AcDbLine
 10
148.8384038218
 20
147.7203409869
 30
0.0
 11
55.5068062159
 21
147.7203409869
 31
0.0
  0
LINE
  5
209
330
202
100
AcDbEntity
  8
VERMASSUNG
100
AcDbLine
 10
56.5068062159
 20
84.2203409869
 30
0.0
 11
56.5068062159
 21
147.7203409869
 31
0.0
  0
MTEXT
  5
20A
330
202
100
AcDbEntity
  8
VERMASSUNG
100
AcDbMText
 10
53.7286709597
 20
107.1674048386
 30
0.0
 40
2.0
 41
0.0
 71
     1
 72
     1
  1
ISO 40
  7
SLDTEXTSTYLE0
 11
3.391901413832837E-15
 21
1.0
 31
0.0
 73
     1
 44
1.0
  0
MTEXT
  5
20B
330
202
100
AcDbEntity
  8
VERMASSUNG
100
AcDbMText
 10
53.928670911
 20
116.3674050427
 30
0.0
 40
2.0
 41
0.0
 71
     1
 72
     1
  1
%%c
  7
SLDTEXTSTYLE0
 11
3.391901413832837E-15
 21
1.0
 31
0.0
 73
     1
 44
1.0
  0
MTEXT
  5
20C
330
202
100
AcDbEntity
  8
VERMASSUNG
100
AcDbMText
 10
53.92867062
 20
119.9752853741
 30
0.0
 40
2.0
 41
0.0
 71
     1
 72
     1
  1
63.5
  7
SLDTEXTSTYLE0
 11
3.391901413832837E-15
 21
1.0
 31
0.0
 73
     1
 44
1.0
  0
ENDBLK
  5
204
330
202
100
AcDbEntity
  8
0
100
AcDbBlockEnd
  0
BLOCK
  5
20F
330
20E
100
AcDbEntity
  8
0
100
AcDbBlockBegin
  2
_D_1
 70
     0
 10
0.0
 20
0.0
 30
0.0
  3
_D_1
  1

  0
SOLID
  5
211
330
20E
100
AcDbEntity
  8
VERMASSUNG
100
AcDbTrace
 10
238.8115257801
 20
104.9703409869
 30
0.0
 11
239.2615257801
 21
107.9703409869
 31
0.0
 12
238.3615257801
 22
107.9703409869
 32
0.0
 13
238.3615257801
 23
107.9703409869
 33
0.0
  0
SOLID
  5
212
330
20E
100
AcDbEntity
  8
VERMASSUNG
100
AcDbTrace
 10
238.8115257801
 20
126.9703409869
 30
0.0
 11
238.3615257801
 21
123.9703409869
 31
0.0
 12
239.2615257801
 22
123.9703409869
 32
0.0
 13
239.2615257801
 23
123.9703409869
 33
0.0
  0
LINE
  5
213
330
20E
100
AcDbEntity
  8
VERMASSUNG
100
AcDbLine
 10
229.3884038218
 20
104.9703409869
 30
0.0
 11
239.8115257801
 21
104.9703409869
 31
0.0
  0
LINE
  5
214
330
20E
100
AcDbEntity
  8
VERMASSUNG
100
AcDbLine
 10
229.3884038218
 20
126.9703409869
 30
0.0
 11
239.8115257801
 21
126.9703409869
 31
0.0
  0
LINE
  5
215
330
20E
100
AcDbEntity
  8
VERMASSUNG
100
AcDbLine
 10
238.8115257801
 20
104.9703409869
 30
0.0
 11
238.8115257801
 21
126.9703409869
 31
0.0
  0
MTEXT
  5
216
330
20E
100
AcDbEntity
  8
VERMASSUNG
100
AcDbMText
 10
236.2333904752
 20
112.7653410296
 30
0.0
 40
2.0
 41
0.0
 71
     1
 72
     1
  1
%%c
  7
SLDTEXTSTYLE0
 11
6.123233995736766E-17
 21
1.0
 31
0.0
 73
     1
 44
1.0
  0
MTEXT
  5
217
330
20E
100
AcDbEntity
  8
VERMASSUNG
100
AcDbMText
 10
236.0333905239
 20
116.375341044
 30
0.0
 40
2.0
 41
0.0
 71
     1
 72
     1
  1
22
  7
SLDTEXTSTYLE0
 11
6.123233995736766E-17
 21
1.0
 31
0.0
 73
     1
 44
1.0
  0
ENDBLK
  5
210
330
20E
100
AcDbEntity
  8
0
100
AcDbBlockEnd
  0
BLOCK
  5
21A
330
219
100
AcDbEntity
  8
0
100
AcDbBlockBegin
  2
_D_2
 70
     0
 10
0.0
 20
0.0
 30
0.0
  3
_D_2
  1

  0
SOLID
  5
21C
330
219
100
AcDbEntity
  8
VERMASSUNG
100
AcDbTrace
 10
244.8115257801
 20
95.9703409869
 30
0.0
 11
245.2615257801
 21
98.9703409869
 31
0.0
 12
244.3615257801
 22
98.9703409869
 32
0.0
 13
244.3615257801
 23
98.9703409869
 33
0.0
  0
SOLID
  5
21D
330
219
100
AcDbEntity
  8
VERMASSUNG
100
AcDbTrace
 10
244.8115257801
 20
135.9703409869
 30
0.0
 11
244.3615257801
 21
132.9703409869
 31
0.0
 12
245.2615257801
 22
132.9703409869
 32
0.0
 13
245.2615257801
 23
132.9703409869
 33
0.0
  0
LINE
  5
21E
330
219
100
AcDbEntity
  8
VERMASSUNG
100
AcDbLine
 10
229.9884038218
 20
95.9703409869
 30
0.0
 11
245.8115257801
 21
95.9703409869
 31
0.0
  0
LINE
  5
21F
330
219
100
AcDbEntity
  8
VERMASSUNG
100
AcDbLine
 10
229.9884038218
 20
135.9703409869
 30
0.0
 11
245.8115257801
 21
135.9703409869
 31
0.0
  0
LINE
  5
220
330
219
100
AcDbEntity
  8
VERMASSUNG
100
AcDbLine
 10
244.8115257801
 20
95.9703409869
 30
0.0
 11
244.8115257801
 21
135.9703409869
 31
0.0
  0
MTEXT
  5
221
330
219
100
AcDbEntity
  8
VERMASSUNG
100
AcDbMText
 10
242.0333905239
 20
110.1653412554
 30
0.0
 40
2.0
 41
0.0
 71
     1
 72
     1
  1
WH
  7
SLDTEXTSTYLE0
 11
6.123233995736766E-17
 21
1.0
 31
0.0
 73
     1
 44
1.0
  0
MTEXT
  5
222
330
219
100
AcDbEntity
  8
VERMASSUNG
100
AcDbMText
 10
242.2333904752
 20
115.1653411436
 30
0.0
 40
2.0
 41
0.0
 71
     1
 72
     1
  1
%%c
  7
SLDTEXTSTYLE0
 11
6.123233995736766E-17
 21
1.0
 31
0.0
 73
     1
 44
1.0
  0
MTEXT
  5
223
330
219
100
AcDbEntity
  8
VERMASSUNG
100
AcDbMText
 10
242.0333905239
 20
118.7753411579
 30
0.0
 40
2.0
 41
0.0
 71
     1
 72
     1
  1
40
  7
SLDTEXTSTYLE0
 11
6.123233995736766E-17
 21
1.0
 31
0.0
 73
     1
 44
1.0
  0
ENDBLK
  5
21B
330
219
100
AcDbEntity
  8
0
100
AcDbBlockEnd
  0
BLOCK
  5
226
330
225
100
AcDbEntity
  8
0
100
AcDbBlockBegin
  2
_D_3
 70
     0
 10
0.0
 20
0.0
 30
0.0
  3
_D_3
  1

  0
SOLID
  5
228
330
225
100
AcDbEntity
  8
VERMASSUNG
100
AcDbTrace
 10
230.3884038218
 20
152.8273783858
 30
0.0
 11
227.3884038218
 21
153.2773783858
 31
0.0
 12
227.3884038218
 22
152.3773783858
 32
0.0
 13
227.3884038218
 23
152.3773783858
 33
0.0
  0
SOLID
  5
229
330
225
100
AcDbEntity
  8
VERMASSUNG
100
AcDbTrace
 10
149.4384038218
 20
152.8273783858
 30
0.0
 11
152.4384038218
 21
152.3773783858
 31
0.0
 12
152.4384038218
 22
153.2773783858
 32
0.0
 13
152.4384038218
 23
153.2773783858
 33
0.0
  0
LINE
  5
22A
330
225
100
AcDbEntity
  8
VERMASSUNG
100
AcDbLine
 10
230.3884038218
 20
135.5703409869
 30
0.0
 11
230.3884038218
 21
153.8273783858
 31
0.0
  0
LINE
  5
22B
330
225
100
AcDbEntity
  8
VERMASSUNG
100
AcDbLine
 10
149.4384038218
 20
145.9808921203
 30
0.0
 11
149.4384038218
 21
153.8273783858
 31
0.0
  0
LINE
  5
22C
330
225
100
AcDbEntity
  8
VERMASSUNG
100
AcDbLine
 10
230.3884038218
 20
152.8273783858
 30
0.0
 11
149.4384038218
 21
152.8273783858
 31
0.0
  0
MTEXT
  5
22D
330
225
100
AcDbEntity
  8
VERMASSUNG
100
AcDbMText
 10
186.8134039656
 20
155.4055139818
 30
0.0
 40
2.0
 41
0.0
 71
     1
 72
     1
  1
80.95
  7
SLDTEXTSTYLE0
 73
     1
 44
1.0
  0
ENDBLK
  5
227
330
225
100
AcDbEntity
  8
0
100
AcDbBlockEnd
  0
BLOCK
  5
230
330
22F
100
AcDbEntity
  8
0
100
AcDbBlockBegin
  2
_D_4
 70
     0
 10
0.0
 20
0.0
 30
0.0
  3
_D_4
  1

  0
SOLID
  5
232
330
22F
100
AcDbEntity
  8
VERMASSUNG
100
AcDbTrace
 10
230.3884038218
 20
158.8273783858
 30
0.0
 11
227.3884038218
 21
159.2773783858
 31
0.0
 12
227.3884038218
 22
158.3773783858
 32
0.0
 13
227.3884038218
 23
158.3773783858
 33
0.0
  0
SOLID
  5
233
330
22F
100
AcDbEntity
  8
VERMASSUNG
100
AcDbTrace
 10
130.3884038218
 20
158.8273783858
 30
0.0
 11
133.3884038218
 21
158.3773783858
 31
0.0
 12
133.3884038218
 22
159.2773783858
 32
0.0
 13
133.3884038218
 23
159.2773783858
 33
0.0
  0
LINE
  5
234
330
22F
100
AcDbEntity
  8
VERMASSUNG
100
AcDbLine
 10
230.3884038218
 20
135.5703409869
 30
0.0
 11
230.3884038218
 21
159.8273783858
 31
0.0
  0
LINE
  5
235
330
22F
100
AcDbEntity
  8
VERMASSUNG
100
AcDbLine
 10
130.3884038218
 20
138.1953409869
 30
0.0
 11
130.3884038218
 21
159.8273783858
 31
0.0
  0
LINE
  5
236
330
22F
100
AcDbEntity
  8
VERMASSUNG
100
AcDbLine
 10
230.3884038218
 20
158.8273783858
 30
0.0
 11
130.3884038218
 21
158.8273783858
 31
0.0
  0
MTEXT
  5
237
330
22F
100
AcDbEntity
  8
VERMASSUNG
100
AcDbMText
 10
178.4884037898
 20
161.4055139818
 30
0.0
 40
2.0
 41
0.0
 71
     1
 72
     1
  1
100
  7
SLDTEXTSTYLE0
 73
     1
 44
1.0
  0
ENDBLK
  5
231
330
22F
100
AcDbEntity
  8
0
100
AcDbBlockEnd
  0
BLOCK
  5
23A
330
239
100
AcDbEntity
  8
0
100
AcDbBlockBegin
  2
_D_5
 70
     0
 10
0.0
 20
0.0
 30
0.0
  3
_D_5
  1

  0
SOLID
  5
23C
330
239
100
AcDbEntity
  8
VERMASSUNG
100
AcDbTrace
 10
230.3884038218
 20
164.8273783858
 30
0.0
 11
227.3884038218
 21
165.2773783858
 31
0.0
 12
227.3884038218
 22
164.3773783858
 32
0.0
 13
227.3884038218
 23
164.3773783858
 33
0.0
  0
SOLID
  5
23D
330
239
100
AcDbEntity
  8
VERMASSUNG
100
AcDbTrace
 10
62.1384038218
 20
164.8273783858
 30
0.0
 11
65.1384038218
 21
164.3773783858
 31
0.0
 12
65.1384038218
 22
165.2773783858
 32
0.0
 13
65.1384038218
 23
165.2773783858
 33
0.0
  0
LINE
  5
23E
330
239
100
AcDbEntity
  8
VERMASSUNG
100
AcDbLine
 10
230.3884038218
 20
135.5703409869
 30
0.0
 11
230.3884038218
 21
165.8273783858
 31
0.0
  0
LINE
  5
23F
330
239
100
AcDbEntity
  8
VERMASSUNG
100
AcDbLine
 10
62.1384038218
 20
127.3774715839
 30
0.0
 11
62.1384038218
 21
165.8273783858
 31
0.0
  0
LINE
  5
240
330
239
100
AcDbEntity
  8
VERMASSUNG
100
AcDbLine
 10
230.3884038218
 20
164.8273783858
 30
0.0
 11
62.1384038218
 21
164.8273783858
 31
0.0
  0
MTEXT
  5
241
330
239
100
AcDbEntity
  8
VERMASSUNG
100
AcDbMText
 10
142.6634038837
 20
167.4055139818
 30
0.0
 40
2.0
 41
0.0
 71
     1
 72
     1
  1
168.25
  7
SLDTEXTSTYLE0
 73
     1
 44
1.0
  0
ENDBLK
  5
23B
330
239
100
AcDbEntity
  8
0
100
AcDbBlockEnd
  0
ENDSEC
  0
SECTION
  2
ENTITIES
  0
MTEXT
  5
78
330
1F
100
AcDbEntity
  8
KOPF_DÜNN
100
AcDbMText
 10
13.8892156294
 20
23.8442973028
 30
0.0
 40
3.0
 41
0.0
 71
     1
 72
     1
  1
A14.440.040.100
  7
SLDTEXTSTYLE0
 73
     1
 44
1.0
  0
MTEXT
  5
79
330
1F
100
AcDbEntity
  8
VERMASSUNG
100
AcDbMText
 10
13.9329988022
 20
28.8834360957
 30
0.0
 40
3.0
 41
0.0
 71
     1
 72
     1
  1
Aufnahme_Master shank WH40
  7
SLDTEXTSTYLE0
 73
     1
 44
1.0
  0
MTEXT
  5
7A
330
1F
100
AcDbEntity
  8
VERMASSUNG
100
AcDbMText
 10
98.8601118557
 20
13.8365368761
 30
0.0
 40
2.0
 41
0.0
 71
     1
 72
     1
  1
Datum: 19.10.2011
  7
SLDTEXTSTYLE0
 73
     1
 44
1.0
  0
MTEXT
  5
7B
330
1F
100
AcDbEntity
  8
VERMASSUNG
100
AcDbMText
 10
13.933048693
 20
18.0482802738
 30
0.0
 40
2.0
 41
0.0
 71
     1
 72
     1
  1
DIN 69871 AD/B
  7
SLDTEXTSTYLE0
 73
     1
 44
1.0
  0
MTEXT
  5
7C
330
1F
100
AcDbEntity
  8
VERMASSUNG
100
AcDbMText
 10
13.9808475933
 20
13.9090974274
 30
0.0
 40
2.0
 41
0.0
 71
     1
 72
     1
  1
Gewicht: 1518g
  7
SLDTEXTSTYLE0
 73
     1
 44
1.0
  0
ARC
  5
7D
330
1F
100
AcDbEntity
  8
0
  6
Continuous
 62
     7
370
    15
100
AcDbCircle
 10
152.4384038218
 20
138.9703409869
 30
0.0
 40
3.0
100
AcDbArc
 50
180.0
 51
270.0
  0
ARC
  5
7E
330
1F
100
AcDbEntity
  8
0
  6
Continuous
 62
     7
370
    15
100
AcDbCircle
 10
132.9884038218
 20
93.1453409869
 30
0.0
 40
0.6000000000000227
100
AcDbArc
 50
0.0
 51
90.0
  0
ARC
  5
7F
330
1F
100
AcDbEntity
  8
0
  6
Continuous
 62
     7
370
    15
100
AcDbCircle
 10
132.9884038218
 20
138.7953409869
 30
0.0
 40
0.6000000000000227
100
AcDbArc
 50
270.0
 51
0.0
  0
LINE
  5
80
330
1F
100
AcDbEntity
  8
0
  6
Continuous
 62
     7
370
    15
100
AcDbLine
 10
130.3884038218
 20
93.7453410226
 30
0.0
 11
132.9884038289
 21
93.7453410226
 31
0.0
  0
LINE
  5
81
330
1F
100
AcDbEntity
  8
0
  6
Continuous
 62
     7
370
    15
100
AcDbLine
 10
132.9884038289
 20
138.1953409511
 30
0.0
 11
130.3884038218
 21
138.1953409511
 31
0.0
  0
LINE
  5
82
330
1F
100
AcDbEntity
  8
0
  6
Continuous
 62
     7
370
    15
100
AcDbLine
 10
130.3884038218
 20
138.1953409511
 30
0.0
 11
62.994095076
 21
128.3670044142
 31
0.0
  0
LINE
  5
83
330
1F
100
AcDbEntity
  8
0
  6
Continuous
 62
     7
370
    15
100
AcDbLine
 10
62.994095076
 20
103.5736775595
 30
0.0
 11
130.3884038218
 21
93.7453410226
 31
0.0
  0
LINE
  5
84
330
1F
100
AcDbEntity
  8
0
  6
Continuous
 62
     7
370
    15
100
AcDbLine
 10
229.9884059914
 20
95.9703414339
 30
0.0
 11
230.388405312
 21
96.3703407544
 31
0.0
  0
LINE
  5
85
330
1F
100
AcDbEntity
  8
0
  6
Continuous
 62
     7
370
    15
100
AcDbLine
 10
230.388405312
 20
135.5703412193
 30
0.0
 11
229.9884059914
 21
135.9703405398
 31
0.0
  0
LINE
  5
86
330
1F
100
AcDbEntity
  8
0
  6
Continuous
 62
     7
370
    15
100
AcDbLine
 10
212.146962572
 20
135.9703405398
 30
0.0
 11
152.438404549
 21
135.9703405398
 31
0.0
  0
LINE
  5
87
330
1F
100
AcDbEntity
  8
0
  6
Continuous
 62
     7
370
    15
100
AcDbLine
 10
229.9884059914
 20
135.9703405398
 30
0.0
 11
224.5194563159
 21
135.9703405398
 31
0.0
  0
LINE
  5
88
330
1F
100
AcDbEntity
  8
0
  6
Continuous
 62
     7
370
    15
100
AcDbLine
 10
152.4144956359
 20
95.9703414339
 30
0.0
 11
229.9884059914
 21
95.9703414339
 31
0.0
  0
ARC
  5
89
330
1F
100
AcDbEntity
  8
0
  6
Continuous
 62
     7
370
    15
100
AcDbCircle
 10
63.1384038218
 20
104.5632103899
 30
0.0
 40
0.9999999999999858
100
AcDbArc
 50
180.0
 51
261.7028550302
  0
ARC
  5
8A
330
1F
100
AcDbEntity
  8
0
  6
Continuous
 62
     7
370
    15
100
AcDbCircle
 10
63.1384038218
 20
127.3774715839
 30
0.0
 40
0.9999999999999858
100
AcDbArc
 50
98.2971449698
 51
180.0
  0
SPLINE
  5
8B
330
1F
100
AcDbEntity
  8
0
  6
Continuous
 62
     7
370
    15
100
AcDbSpline
210
0.0
220
0.0
230
1.0
 70
     8
 71
     3
 72
    12
 73
     8
 74
     0
 42
0.000000001
 43
0.00000001
 40
0.0
 40
0.0
 40
0.0
 40
0.0
 40
0.3476177681142853
 40
0.6531360562471763
 40
0.8948915740634156
 40
0.9755465574519163
 40
1.0
 40
1.0
 40
1.0
 40
1.0
 10
149.4539441057573
 20
93.36964363340115
 30
0.0
 10
149.4540254485211
 20
93.39760711333432
 30
0.0
 10
149.4541782827454
 20
93.45014745700423
 30
0.0
 10
149.4741904444637
 20
93.58416269631434
 30
0.0
 10
149.4909811406109
 20
93.65522894520839
 30
0.0
 10
149.4888054517821
 20
93.65033731043513
 30
0.0
 10
149.478318419766
 20
93.59988763672803
 30
0.0
 10
149.4758786150346
 20
93.58815053585744
 30
0.0
  0
SPLINE
  5
8C
330
1F
100
AcDbEntity
  8
0
  6
Continuous
 62
     7
370
    15
100
AcDbSpline
210
0.0
220
0.0
230
1.0
 70
     8
 71
     3
 72
    18
 73
    14
 74
     0
 42
0.000000001
 43
0.00000001
 40
0.0
 40
0.0
 40
0.0
 40
0.0
 40
0.192714168732951
 40
0.3242305101251818
 40
0.4200762832660035
 40
0.4618471428168889
 40
0.4969492623280218
 40
0.5444622888178596
 40
0.6167158389986224
 40
0.7235540942727043
 40
0.8200312314782066
 40
0.9106442567282904
 40
1.0
 40
1.0
 40
1.0
 40
1.0
 10
149.4533555098901
 20
93.36910719159818
 30
0.0
 10
149.4542601844776
 20
93.40228427101108
 30
0.0
 10
149.4557822474631
 20
93.4581027998366
 30
0.0
 10
149.4860750626722
 20
93.62916799848973
 30
0.0
 10
149.5215669323389
 20
93.77965606674645
 30
0.0
 10
149.5852214364063
 20
93.97993835194168
 30
0.0
 10
149.6730938411895
 20
94.20363054737145
 30
0.0
 10
149.829770824834
 20
94.51615041096663
 30
0.0
 10
150.1259789705633
 20
94.9461442984813
 30
0.0
 10
150.5910079107929
 20
95.390031701085
 30
0.0
 10
151.182153665994
 20
95.7302934998669
 30
0.0
 10
151.7938301911079
 20
95.93521615119987
 30
0.0
 10
152.2101686239881
 20
95.95556854187656
 30
0.0
 10
152.4168835469614
 20
95.96567364517426
 30
0.0
  0
LINE
  5
8D
330
1F
100
AcDbEntity
  8
0
  6
Continuous
 62
     7
370
    15
100
AcDbLine
 10
222.9756140598
 20
135.6331347126
 30
0.0
 11
222.638400782
 21
135.9703405398
 31
0.0
  0
LINE
  5
8E
330
1F
100
AcDbEntity
  8
0
  6
Continuous
 62
     7
370
    15
100
AcDbLine
 10
214.0384042152
 20
135.9703405398
 30
0.0
 11
213.7021669635
 21
135.6341051507
 31
0.0
  0
ARC
  5
8F
330
1F
100
AcDbEntity
  8
0
  6
Continuous
 62
     7
370
    15
100
AcDbCircle
 10
143.3884038218
 20
107.2488273321
 30
0.0
 40
1.500000000000004
100
AcDbArc
 50
191.527441716
 51
336.6037645748
  0
SPLINE
  5
90
330
1F
100
AcDbEntity
  8
0
  6
Continuous
 62
     7
370
    15
100
AcDbSpline
210
0.0
220
0.0
230
1.0
 70
     8
 71
     3
 72
     8
 73
     4
 74
     0
 42
0.000000001
 43
0.00000001
 40
0.0
 40
0.0
 40
0.0
 40
0.0
 40
1.0
 40
1.0
 40
1.0
 40
1.0
 10
139.5784038218389
 20
88.15351452738193
 30
0.0
 10
139.1942690732546
 20
87.46087310543776
 30
0.0
 10
138.8092827967616
 20
86.76868693111406
 30
0.0
 10
138.4236142181353
 20
86.07689264026988
 30
0.0
  0
SPLINE
  5
91
330
1F
100
AcDbEntity
  8
0
  6
Continuous
 62
     7
370
    15
100
AcDbSpline
210
0.0
220
0.0
230
1.0
 70
     8
 71
     3
 72
     8
 73
     4
 74
     0
 42
0.000000001
 43
0.00000001
 40
0.0
 40
0.0
 40
0.0
 40
0.0
 40
0.0011901715795577
 40
0.0011901715795577
 40
0.0011901715795577
 40
0.0011901715795577
 10
137.9665671797822
 20
85.52224863824672
 30
0.0
 10
138.1204133692781
 20
85.70681387593031
 30
0.0
 10
138.2728086369508
 20
85.89168923645894
 30
0.0
 10
138.4236142181353
 20
86.07689264026988
 30
0.0
  0
LINE
  5
92
330
1F
100
AcDbEntity
  8
0
  6
Continuous
 62
     7
370
    15
100
AcDbLine
 10
137.9665672296
 20
85.5222488392
 30
0.0
 11
137.9665672296
 21
134.3203405488
 31
0.0
  0
SPLINE
  5
93
330
1F
100
AcDbEntity
  8
0
  6
Continuous
 62
     7
370
    15
100
AcDbSpline
210
0.0
220
0.0
230
1.0
 70
    24
 71
     3
 72
     8
 73
     4
 74
     0
 42
0.000000001
 43
0.00000001
 40
0.0
 40
0.0
 40
0.0
 40
0.0
 40
1.0
 40
1.0
 40
1.0
 40
1.0
 10
139.5784038218389
 20
134.3203409868834
 30
0.0
 10
139.053671333477
 20
134.3203409868834
 30
0.0
 10
138.5149958492582
 20
134.3203409868834
 30
0.0
 10
137.9665671797822
 20
134.3203409868834
 30
0.0
  0
LINE
  5
94
330
1F
100
AcDbEntity
  8
0
  6
Continuous
 62
     7
370
    15
100
AcDbLine
 10
139.5784034842
 20
88.1535145092
 30
0.0
 11
139.5784034842
 21
134.3203405488
 31
0.0
  0
LINE
  5
95
330
1F
100
AcDbEntity
  8
0
  6
Continuous
 62
     7
370
    15
100
AcDbLine
 10
145.0102408865
 20
106.2183207471
 30
0.0
 11
145.0102408865
 21
134.3203405488
 31
0.0
  0
LINE
  5
96
330
1F
100
AcDbEntity
  8
0
  6
Continuous
 62
     7
370
    15
100
AcDbLine
 10
148.8384032139
 20
134.3203405488
 30
0.0
 11
145.0102408865
 21
134.3203405488
 31
0.0
  0
LINE
  5
97
330
1F
100
AcDbEntity
  8
0
  6
Continuous
 62
     7
370
    15
100
AcDbLine
 10
145.0102408865
 20
85.5222488392
 30
0.0
 11
148.8384032139
 21
85.5222488392
 31
0.0
  0
LINE
  5
98
330
1F
100
AcDbEntity
  8
0
  6
Continuous
 62
     7
370
    15
100
AcDbLine
 10
145.0102408865
 20
85.5222488392
 30
0.0
 11
145.0102408865
 21
104.0188413683
 31
0.0
  0
SPLINE
  5
99
330
1F
100
AcDbEntity
  8
0
  6
Continuous
 62
     7
370
    15
100
AcDbSpline
210
0.0
220
0.0
230
1.0
 70
     8
 71
     3
 72
    12
 73
     8
 74
     0
 42
0.000000001
 43
0.00000001
 40
0.0
 40
0.0
 40
0.0
 40
0.0
 40
0.2499999999999997
 40
0.2499999999999997
 40
0.4999999999999993
 40
0.4999999999999993
 40
1.0
 40
1.0
 40
1.0
 40
1.0
 10
145.0102404638956
 20
104.0188411886764
 30
0.0
 10
145.1331879576912
 20
104.1767980373715
 30
0.0
 10
145.2267321608001
 20
104.348631404349
 30
0.0
 10
145.3556715499623
 20
104.7203041139948
 30
0.0
 10
145.3882243073474
 20
104.9134925601861
 30
0.0
 10
145.3887606490812
 20
105.5017890984623
 30
0.0
 10
145.2561369921132
 20
105.893807336351
 30
0.0
 10
145.0102404638956
 20
106.2183209190597
 30
0.0
  0
SPLINE
  5
9A
330
1F
100
AcDbEntity
  8
0
  6
Continuous
 62
     7
370
    15
100
AcDbSpline
210
0.0
220
0.0
230
1.0
 70
     8
 71
     3
 72
    12
 73
     8
 74
     0
 42
0.000000001
 43
0.00000001
 40
0.0
 40
0.0
 40
0.0
 40
0.0
 40
0.2499999999999992
 40
0.2499999999999992
 40
0.4999999999999983
 40
0.4999999999999983
 40
1.0
 40
1.0
 40
1.0
 40
1.0
 10
148.8384038218389
 20
85.52224863824672
 30
0.0
 10
148.9339457319749
 20
85.52224863824672
 30
0.0
 10
149.0260906738377
 20
85.53850230744294
 30
0.0
 10
149.1824169504476
 20
85.5921107283564
 30
0.0
 10
149.2460850930676
 20
85.62852185363809
 30
0.0
 10
149.3949529384979
 20
85.75064549332457
 30
0.0
 10
149.4384038218389
 20
85.84579816876162
 30
0.0
 10
149.4384038218389
 20
85.9414246243813
 30
0.0
  0
SPLINE
  5
9B
330
1F
100
AcDbEntity
  8
0
  6
Continuous
 62
     7
370
    15
100
AcDbSpline
210
0.0
220
0.0
230
1.0
 70
    24
 71
     3
 72
    12
 73
     8
 74
     0
 42
0.000000001
 43
0.00000001
 40
0.0
 40
0.0
 40
0.0
 40
0.0
 40
0.4999999999999971
 40
0.4999999999999971
 40
0.7499999999999986
 40
0.7499999999999986
 40
1.0
 40
1.0
 40
1.0
 40
1.0
 10
149.4384038218389
 20
134.3203409868834
 30
0.0
 10
149.4384038218389
 20
134.3203409868834
 30
0.0
 10
149.3887238268839
 20
134.3203409868834
 30
0.0
 10
149.2328052698664
 20
134.3203409868834
 30
0.0
 10
149.1669242052902
 20
134.3203409868834
 30
0.0
 10
149.0142785498014
 20
134.3203409868834
 30
0.0
 10
148.9270286419405
 20
134.3203409868834
 30
0.0
 10
148.8384038218388
 20
134.3203409868834
 30
0.0
  0
LINE
  5
9C
330
1F
100
AcDbEntity
  8
0
  6
Continuous
 62
     7
370
    15
100
AcDbLine
 10
149.4384040573
 20
85.9414240915
 30
0.0
 11
149.4384040573
 21
134.3203405488
 31
0.0
  0
LINE
  5
9D
330
1F
100
AcDbEntity
  8
0
  6
Continuous
 62
     7
370
    15
100
AcDbLine
 10
134.1884038859
 20
85.5222488392
 30
0.0
 11
137.9665672296
 21
85.5222488392
 31
0.0
  0
LINE
  5
9E
330
1F
100
AcDbEntity
  8
0
  6
Continuous
 62
     7
370
    15
100
AcDbLine
 10
137.9665672296
 20
134.3203405488
 30
0.0
 11
134.1884038859
 21
134.3203405488
 31
0.0
  0
LINE
  5
9F
330
1F
100
AcDbEntity
  8
0
  6
Continuous
 62
     7
370
    15
100
AcDbLine
 10
143.3984037005
 20
107.9690581757
 30
0.0
 11
143.3984037005
 21
134.3203405488
 31
0.0
  0
SPLINE
  5
A0
330
1F
100
AcDbEntity
  8
0
  6
Continuous
 62
     7
370
    15
100
AcDbSpline
210
0.0
220
0.0
230
1.0
 70
    24
 71
     3
 72
     8
 73
     4
 74
     0
 42
0.000000001
 43
0.00000001
 40
0.0
 40
0.0
 40
0.0
 40
0.0
 40
1.0
 40
1.0
 40
1.0
 40
1.0
 10
145.0102404638956
 20
134.3203409868834
 30
0.0
 10
144.4618117944196
 20
134.3203409868834
 30
0.0
 10
143.9231363102008
 20
134.3203409868834
 30
0.0
 10
143.3984038218389
 20
134.3203409868834
 30
0.0
  0
SPLINE
  5
A1
330
1F
100
AcDbEntity
  8
0
  6
Continuous
 62
     7
370
    15
100
AcDbSpline
210
0.0
220
0.0
230
1.0
 70
     8
 71
     3
 72
    12
 73
     8
 74
     0
 42
0.000000001
 43
0.00000001
 40
0.0
 40
0.0
 40
0.0
 40
0.0
 40
0.2499999999999994
 40
0.2499999999999994
 40
0.4999999999999989
 40
0.4999999999999989
 40
1.0
 40
1.0
 40
1.0
 40
1.0
 10
145.0102404638956
 20
106.2183209190597
 30
0.0
 10
144.895344412635
 20
106.4380613541163
 30
0.0
 10
144.7685783961623
 20
106.635029705738
 30
0.0
 10
144.5083634625438
 20
106.9887472785769
 30
0.0
 10
144.3748560045816
 20
107.1455725724491
 30
0.0
 10
143.9664577359933
 20
107.5721151433568
 30
0.0
 10
143.6828046010558
 20
107.798807322312
 30
0.0
 10
143.3984038218391
 20
107.9690584667075
 30
0.0
  0
SPLINE
  5
A2
330
1F
100
AcDbEntity
  8
0
  6
Continuous
 62
     7
370
    15
100
AcDbSpline
210
0.0
220
0.0
230
1.0
 70
     8
 71
     3
 72
    10
 73
     6
 74
     0
 42
0.000000001
 43
0.00000001
 40
0.0
 40
0.0
 40
0.0
 40
0.0
 40
0.5
 40
0.5
 40
1.0
 40
1.0
 40
1.0
 40
1.0
 10
133.8045483631861
 20
85.61861113741519
 30
0.0
 10
133.8533183361675
 20
85.59038313020717
 30
0.0
 10
133.9107704594698
 20
85.56628852596558
 30
0.0
 10
134.0413673624585
 20
85.53202505287302
 30
0.0
 10
134.1138570423007
 20
85.52224863824671
 30
0.0
 10
134.1884038218389
 20
85.52224863824671
 30
0.0
  0
SPLINE
  5
A3
330
1F
100
AcDbEntity
  8
0
  6
Continuous
 62
     7
370
    15
100
AcDbSpline
210
0.0
220
0.0
230
1.0
 70
     8
 71
     3
 72
    10
 73
     6
 74
     0
 42
0.000000001
 43
0.00000001
 40
0.0
 40
0.0
 40
0.0
 40
0.0
 40
0.5
 40
0.5
 40
1.0
 40
1.0
 40
1.0
 40
1.0
 10
133.8045483631861
 20
85.61861113741519
 30
0.0
 10
133.74642570311
 20
85.68591629727699
 30
0.0
 10
133.6940225371065
 20
85.76600168431064
 30
0.0
 10
133.6151195155602
 20
85.9500211259994
 30
0.0
 10
133.5884038218389
 20
86.05523248341986
 30
0.0
 10
133.5884038218389
 20
86.1639658298805
 30
0.0
  0
LINE
  5
A4
330
1F
100
AcDbEntity
  8
0
  6
Continuous
 62
     7
370
    15
100
AcDbLine
 10
133.588403741
 20
86.1639654833
 30
0.0
 11
133.588403741
 21
134.3203405488
 31
0.0
  0
SPLINE
  5
A5
330
1F
100
AcDbEntity
  8
0
  6
Continuous
 62
     7
370
    15
100
AcDbSpline
210
0.0
220
0.0
230
1.0
 70
    24
 71
     3
 72
    12
 73
     8
 74
     0
 42
0.000000001
 43
0.00000001
 40
0.0
 40
0.0
 40
0.0
 40
0.0
 40
0.25
 40
0.25
 40
0.5
 40
0.5
 40
1.0
 40
1.0
 40
1.0
 40
1.0
 10
134.1884038218389
 20
134.3203409868834
 30
0.0
 10
134.0999884445284
 20
134.3203409868834
 30
0.0
 10
134.0127180073579
 20
134.3203409868834
 30
0.0
 10
133.860254282586
 20
134.3203409868834
 30
0.0
 10
133.7946156703636
 20
134.3203409868834
 30
0.0
 10
133.6379572690797
 20
134.3203409868834
 30
0.0
 10
133.5884038218389
 20
134.3203409868834
 30
0.0
 10
133.5884038218389
 20
134.3203409868834
 30
0.0
  0
SPLINE
  5
A6
330
1F
100
AcDbEntity
  8
0
  6
Continuous
 62
     7
370
    15
100
AcDbSpline
210
0.0
220
0.0
230
1.0
 70
     8
 71
     3
 72
    14
 73
    10
 74
     0
 42
0.000000001
 43
0.00000001
 40
0.0
 40
0.0
 40
0.0
 40
0.0
 40
0.2499999999999995
 40
0.2499999999999995
 40
0.4999999999999997
 40
0.4999999999999997
 40
0.7499999999999998
 40
0.7499999999999998
 40
1.0
 40
1.0
 40
1.0
 40
1.0
 10
143.3984038218389
 20
108.0233021165537
 30
0.0
 10
143.3984038218389
 20
108.0599529847175
 30
0.0
 10
143.3770760331271
 20
108.0964197819665
 30
0.0
 10
143.2946176304705
 20
108.1615586365074
 30
0.0
 10
143.2335014386153
 20
108.1896297670983
 30
0.0
 10
143.0821983455532
 20
108.2234576488251
 30
0.0
 10
142.9908203221626
 20
108.2289207902216
 30
0.0
 10
142.7984466091098
 20
108.207994872209
 30
0.0
 10
142.6962662696307
 20
108.1814594468337
 30
0.0
 10
142.5984038218389
 20
108.1409732735525
 30
0.0
  0
SPLINE
  5
A7
330
1F
100
AcDbEntity
  8
0
  6
Continuous
 62
     7
370
    15
100
AcDbSpline
210
0.0
220
0.0
230
1.0
 70
     8
 71
     3
 72
    12
 73
     8
 74
     0
 42
0.000000001
 43
0.00000001
 40
0.0
 40
0.0
 40
0.0
 40
0.0
 40
0.500000000000001
 40
0.500000000000001
 40
0.7500000000000004
 40
0.7500000000000004
 40
1.0
 40
1.0
 40
1.0
 40
1.0
 10
143.3984038218389
 20
104.2103349684865
 30
0.0
 10
143.6826103564042
 20
104.0428708061927
 30
0.0
 10
143.961306090508
 20
103.9312337066811
 30
0.0
 10
144.3706521336973
 20
103.8639204410418
 30
0.0
 10
144.5067914710168
 20
103.8587694010278
 30
0.0
 10
144.7681115200128
 20
103.8965353386472
 30
0.0
 10
144.8935327024446
 20
103.9380850969914
 30
0.0
 10
145.0102404638961
 20
104.0188411886743
 30
0.0
  0
LINE
  5
A8
330
1F
100
AcDbEntity
  8
0
  6
Continuous
 62
     7
370
    15
100
AcDbLine
 10
143.3984037005
 20
104.2645782802
 30
0.0
 11
143.3984037005
 21
104.2103352595
 31
0.0
  0
SPLINE
  5
A9
330
1F
100
AcDbEntity
  8
0
  6
Continuous
 62
     7
370
    15
100
AcDbSpline
210
0.0
220
0.0
230
1.0
 70
     8
 71
     3
 72
    14
 73
    10
 74
     0
 42
0.000000001
 43
0.00000001
 40
0.0
 40
0.0
 40
0.0
 40
0.0
 40
0.25
 40
0.25
 40
0.5
 40
0.5
 40
0.75
 40
0.75
 40
1.0
 40
1.0
 40
1.0
 40
1.0
 10
142.5984038218354
 20
104.6878617967766
 30
0.0
 10
142.6958132418192
 20
104.6494470773824
 30
0.0
 10
142.7981374848328
 20
104.6117466725997
 30
0.0
 10
142.9901391703703
 20
104.5407018870056
 30
0.0
 10
143.0815738000247
 20
104.5065004256475
 30
0.0
 10
143.2333526673197
 20
104.4395040002421
 30
0.0
 10
143.2943295572343
 20
104.4063625319326
 30
0.0
 10
143.3773474957986
 20
104.3366849642825
 30
0.0
 10
143.3984038218389
 20
104.3009512531154
 30
0.0
 10
143.3984038218389
 20
104.2645786183346
 30
0.0
  0
SPLINE
  5
AA
330
1F
100
AcDbEntity
  8
0
  6
Continuous
 62
     7
370
    15
100
AcDbSpline
210
0.0
220
0.0
230
1.0
 70
     8
 71
     3
 72
    22
 73
    18
 74
     0
 42
0.000000001
 43
0.00000001
 40
0.0
 40
0.0
 40
0.0
 40
0.0
 40
0.125
 40
0.125
 40
0.25
 40
0.25
 40
0.375
 40
0.375
 40
0.5
 40
0.5
 40
0.625
 40
0.625
 40
0.75
 40
0.75
 40
0.875
 40
0.875
 40
1.0
 40
1.0
 40
1.0
 40
1.0
 10
142.5984038218389
 20
108.1409732735525
 30
0.0
 10
142.4183871272696
 20
108.0664994865759
 30
0.0
 10
142.2539553053994
 20
107.969050224592
 30
0.0
 10
141.9555590716409
 20
107.7296807910278
 30
0.0
 10
141.8252553442761
 20
107.5897841789574
 30
0.0
 10
141.6120365606571
 20
107.2815325888974
 30
0.0
 10
141.5284087035456
 20
107.1113693707783
 30
0.0
 10
141.4172778266273
 20
106.760874635988
 30
0.0
 10
141.3884418317735
 20
106.5757496748368
 30
0.0
 10
141.3883658891136
 20
106.2125428002198
 30
0.0
 10
141.4170245145407
 20
106.0291727865123
 30
0.0
 10
141.5281756076531
 20
105.6832816740191
 30
0.0
 10
141.6112427282968
 20
105.5177621467516
 30
0.0
 10
141.8249286864151
 20
105.2172224093478
 30
0.0
 10
141.9539356763392
 20
105.0833504880638
 30
0.0
 10
142.2535449558283
 20
104.8521037186595
 30
0.0
 10
142.4183876540895
 20
104.7588536019995
 30
0.0
 10
142.5984038218389
 20
104.6878617967752
 30
0.0
  0
SPLINE
  5
AB
330
1F
100
AcDbEntity
  8
0
  6
Continuous
 62
     7
370
    15
100
AcDbSpline
210
0.0
220
0.0
230
1.0
 70
     8
 71
     3
 72
     8
 73
     4
 74
     0
 42
0.000000001
 43
0.00000001
 40
0.0
 40
0.0
 40
0.0
 40
0.0
 40
0.0011901715795577
 40
0.0011901715795577
 40
0.0011901715795577
 40
0.0011901715795577
 10
144.5531934255426
 20
86.07689264026988
 30
0.0
 10
144.7039990067271
 20
85.89168923645894
 30
0.0
 10
144.8563942743997
 20
85.70681387593031
 30
0.0
 10
145.0102404638956
 20
85.52224863824672
 30
0.0
  0
SPLINE
  5
AC
330
1F
100
AcDbEntity
  8
0
  6
Continuous
 62
     7
370
    15
100
AcDbSpline
210
0.0
220
0.0
230
1.0
 70
     8
 71
     3
 72
     8
 73
     4
 74
     0
 42
0.000000001
 43
0.00000001
 40
0.0
 40
0.0
 40
0.0
 40
0.0
 40
1.0
 40
1.0
 40
1.0
 40
1.0
 10
144.5531934255426
 20
86.07689264026988
 30
0.0
 10
144.1675248469162
 20
86.76868693111405
 30
0.0
 10
143.7825385704233
 20
87.46087310543776
 30
0.0
 10
143.3984038218389
 20
88.15351452738193
 30
0.0
  0
LINE
  5
AD
330
1F
100
AcDbEntity
  8
0
  6
Continuous
 62
     7
370
    15
100
AcDbLine
 10
143.3984037005
 20
88.1535145092
 30
0.0
 11
143.3984037005
 21
104.2103352595
 31
0.0
  0
SPLINE
  5
AE
330
1F
100
AcDbEntity
  8
0
  6
Continuous
 62
     7
370
    15
100
AcDbSpline
210
0.0
220
0.0
230
1.0
 70
    24
 71
     3
 72
    14
 73
    10
 74
     0
 42
0.000000001
 43
0.00000001
 40
0.0
 40
0.0
 40
0.0
 40
0.0
 40
0.25
 40
0.25
 40
0.5
 40
0.5
 40
0.75
 40
0.75
 40
1.0
 40
1.0
 40
1.0
 40
1.0
 10
143.3984038218389
 20
134.3203409868834
 30
0.0
 10
143.3984038218389
 20
134.3203409868834
 30
0.0
 10
143.3823222203791
 20
134.3203409868834
 30
0.0
 10
143.3168307071122
 20
134.3203409868834
 30
0.0
 10
143.2675227339849
 20
134.3203409868834
 30
0.0
 10
143.1329532122879
 20
134.3203409868834
 30
0.0
 10
143.0474301362026
 20
134.3203409868834
 30
0.0
 10
142.8404346406476
 20
134.3203409868834
 30
0.0
 10
142.719741006704
 20
134.3203409868834
 30
0.0
 10
142.598403821839
 20
134.3203409868834
 30
0.0
  0
SPLINE
  5
AF
330
1F
100
AcDbEntity
  8
0
  6
Continuous
 62
     7
370
    15
100
AcDbSpline
210
0.0
220
0.0
230
1.0
 70
     8
 71
     3
 72
    12
 73
     8
 74
     0
 42
0.000000001
 43
0.00000001
 40
0.0
 40
0.0
 40
0.0
 40
0.0
 40
0.2500000000000015
 40
0.2500000000000015
 40
0.500000000000003
 40
0.500000000000003
 40
1.0
 40
1.0
 40
1.0
 40
1.0
 10
140.3784038218389
 20
89.15248313059666
 30
0.0
 10
140.2720019714814
 20
89.15248313059668
 30
0.0
 10
140.1646865600849
 20
89.12971236657816
 30
0.0
 10
139.9692149690577
 20
89.04346941992605
 30
0.0
 10
139.8790328531202
 20
88.97879309945553
 30
0.0
 10
139.6608113663993
 20
88.74586377539873
 30
0.0
 10
139.5784038218385
 20
88.53127853750772
 30
0.0
 10
139.5784038218389
 20
88.31826149907498
 30
0.0
  0
SPLINE
  5
B0
330
1F
100
AcDbEntity
  8
0
  6
Continuous
 62
     7
370
    15
100
AcDbSpline
210
0.0
220
0.0
230
1.0
 70
    24
 71
     3
 72
    14
 73
    10
 74
     0
 42
0.000000001
 43
0.00000001
 40
0.0
 40
0.0
 40
0.0
 40
0.0
 40
0.1250000000000007
 40
0.1250000000000007
 40
0.2500000000000014
 40
0.2500000000000014
 40
0.499999999999999
 40
0.499999999999999
 40
1.0
 40
1.0
 40
1.0
 40
1.0
 10
140.3784038218389
 20
134.3203409868834
 30
0.0
 10
140.3177864984213
 20
134.3203409868834
 30
0.0
 10
140.2556613502863
 20
134.3203409868834
 30
0.0
 10
140.1394436872649
 20
134.3203409868834
 30
0.0
 10
140.0848270475725
 20
134.3203409868834
 30
0.0
 10
139.9301507090643
 20
134.3203409868834
 30
0.0
 10
139.8440339602803
 20
134.3203409868834
 30
0.0
 10
139.6427263797397
 20
134.3203409868834
 30
0.0
 10
139.5784038218389
 20
134.3203409868834
 30
0.0
 10
139.5784038218389
 20
134.3203409868834
 30
0.0
  0
LINE
  5
B1
330
1F
100
AcDbEntity
  8
0
  6
Continuous
 62
     7
370
    15
100
AcDbLine
 10
142.5984041282
 20
89.1524827677
 30
0.0
 11
140.3784039878
 21
89.1524827677
 31
0.0
  0
LINE
  5
B2
330
1F
100
AcDbEntity
  8
0
  6
Continuous
 62
     7
370
    15
100
AcDbLine
 10
142.5984041282
 20
134.3203405488
 30
0.0
 11
140.3784039878
 21
134.3203405488
 31
0.0
  0
SPLINE
  5
B3
330
1F
100
AcDbEntity
  8
0
  6
Continuous
 62
     7
370
    15
100
AcDbSpline
210
0.0
220
0.0
230
1.0
 70
     8
 71
     3
 72
    12
 73
     8
 74
     0
 42
0.000000001
 43
0.00000001
 40
0.0
 40
0.0
 40
0.0
 40
0.0
 40
0.5000000000000013
 40
0.5000000000000013
 40
0.7500000000000007
 40
0.7500000000000007
 40
1.0
 40
1.0
 40
1.0
 40
1.0
 10
143.3984038218389
 20
88.31826149907634
 30
0.0
 10
143.3984038218389
 20
88.53108405800921
 30
0.0
 10
143.3164784640192
 20
88.7453405646472
 30
0.0
 10
143.0975566605508
 20
88.97903019309707
 30
0.0
 10
143.0075093690598
 20
89.04351501794106
 30
0.0
 10
142.8120959010399
 20
89.12971462909664
 30
0.0
 10
142.7048129340561
 20
89.15248313059668
 30
0.0
 10
142.5984038218389
 20
89.15248313059668
 30
0.0
  0
LINE
  5
B4
330
1F
100
AcDbEntity
  8
0
  6
Continuous
 62
     7
370
    15
100
AcDbLine
 10
130.3884038218
 20
93.7453410226
 30
0.0
 11
130.3884038218
 21
138.1953409511
 31
0.0
  0
LINE
  5
B5
330
1F
100
AcDbEntity
  8
0
  6
Continuous
 62
     7
370
    15
100
AcDbLine
 10
230.388405312
 20
115.9703409869
 30
0.0
 11
230.388405312
 21
96.3703407544
 31
0.0
  0
LINE
  5
B6
330
1F
100
AcDbEntity
  8
0
  6
Continuous
 62
     7
370
    15
100
AcDbLine
 10
230.388405312
 20
135.5703412193
 30
0.0
 11
230.388405312
 21
115.9703409869
 31
0.0
  0
LINE
  5
B7
330
1F
100
AcDbEntity
  8
0
  6
Continuous
 62
     7
370
    15
100
AcDbLine
 10
229.9884059914
 20
115.9703409869
 30
0.0
 11
229.9884059914
 21
95.9703414339
 31
0.0
  0
LINE
  5
B8
330
1F
100
AcDbEntity
  8
0
  6
Continuous
 62
     7
370
    15
100
AcDbLine
 10
229.9884059914
 20
135.9703405398
 30
0.0
 11
229.9884059914
 21
115.9703409869
 31
0.0
  0
SPLINE
  5
B9
330
1F
100
AcDbEntity
  8
0
  6
Continuous
 62
     7
370
    15
100
AcDbSpline
210
0.0
220
0.0
230
1.0
 70
     8
 71
     3
 72
    21
 73
    17
 74
     0
 42
0.000000001
 43
0.00000001
 40
0.0
 40
0.0
 40
0.0
 40
0.0
 40
0.0550085346603778
 40
0.1396836092054182
 40
0.2299866097165057
 40
0.332357113364826
 40
0.4473970512718426
 40
0.5077272568891682
 40
0.5697697119263009
 40
0.6307111106631592
 40
0.6934657353646944
 40
0.7534409429466774
 40
0.815454358111558
 40
0.8704398764488545
 40
0.9276082668863528
 40
1.0
 40
1.0
 40
1.0
 40
1.0
 10
224.519456315888
 20
135.9540237683413
 30
0.0
 10
224.5253429967973
 20
135.9553557058182
 30
0.0
 10
224.5402910924107
 20
135.9587379052381
 30
0.0
 10
223.9528019796225
 20
135.8218621703229
 30
0.0
 10
222.8898827282343
 20
135.6060729044357
 30
0.0
 10
221.3023378887761
 20
135.3584923275893
 30
0.0
 10
219.6411415538287
 20
135.2199305358197
 30
0.0
 10
218.1774290703399
 20
135.1957783502075
 30
0.0
 10
217.0503997046815
 20
135.2290121365048
 30
0.0
 10
215.9455331361452
 20
135.3116139095702
 30
0.0
 10
214.9202295308008
 20
135.4319480991481
 30
0.0
 10
213.990728029807
 20
135.5759513670148
 30
0.0
 10
213.2259086158223
 20
135.7191868565492
 30
0.0
 10
212.6415496967676
 20
135.8423784976038
 30
0.0
 10
212.1793957858976
 20
135.9483140430476
 30
0.0
 10
212.1585885931823
 20
135.9535950350295
 30
0.0
 10
212.1469625719915
 20
135.9565457898734
 30
0.0
  0
SPLINE
  5
BA
330
1F
100
AcDbEntity
  8
0
  6
Continuous
 62
     7
370
    15
100
AcDbSpline
210
0.0
220
0.0
230
1.0
 70
    11
 71
     3
 72
    88
 73
    84
 74
     0
 42
0.000000001
 43
0.00000001
 40
0.0
 40
0.0
 40
0.0
 40
0.0
 40
0.0312499999999994
 40
0.0312499999999994
 40
0.0624999999999988
 40
0.0624999999999988
 40
0.0937499999999982
 40
0.0937499999999982
 40
0.1093749999999985
 40
0.1093749999999985
 40
0.1249999999999987
 40
0.1249999999999987
 40
0.1562499999999981
 40
0.1562499999999981
 40
0.1718749999999984
 40
0.1718749999999984
 40
0.1874999999999986
 40
0.1874999999999986
 40
0.2187499999999992
 40
0.2187499999999992
 40
0.234374999999999
 40
0.234374999999999
 40
0.2499999999999988
 40
0.2499999999999988
 40
0.2812499999999992
 40
0.2812499999999992
 40
0.2968749999999994
 40
0.2968749999999994
 40
0.3124999999999996
 40
0.3124999999999996
 40
0.3437499999999995
 40
0.3437499999999995
 40
0.3593749999999995
 40
0.3593749999999995
 40
0.3749999999999994
 40
0.3749999999999994
 40
0.3906249999999994
 40
0.3906249999999994
 40
0.4062499999999994
 40
0.4062499999999994
 40
0.4374999999999993
 40
0.4374999999999993
 40
0.4531249999999992
 40
0.4531249999999992
 40
0.4687499999999991
 40
0.4687499999999991
 40
0.499999999999999
 40
0.499999999999999
 40
0.5312499999999989
 40
0.5312499999999989
 40
0.5624999999999987
 40
0.5624999999999987
 40
0.5937499999999986
 40
0.5937499999999986
 40
0.6249999999999983
 40
0.6249999999999983
 40
0.6562499999999982
 40
0.6562499999999982
 40
0.687499999999998
 40
0.687499999999998
 40
0.7187499999999979
 40
0.7187499999999979
 40
0.7499999999999977
 40
0.7499999999999977
 40
0.7812499999999976
 40
0.7812499999999976
 40
0.8124999999999974
 40
0.8124999999999974
 40
0.8281249999999976
 40
0.8281249999999976
 40
0.8437499999999977
 40
0.8437499999999977
 40
0.874999999999998
 40
0.874999999999998
 40
0.8906249999999981
 40
0.8906249999999981
 40
0.9062499999999982
 40
0.9062499999999982
 40
0.9374999999999989
 40
0.9374999999999989
 40
0.9687499999999994
 40
0.9687499999999994
 40
1.0
 40
1.0
 40
1.0
 40
1.0
 10
214.1811577086463
 20
120.0553443492122
 30
0.0
 10
214.4846326164739
 20
120.2933370536469
 30
0.0
 10
214.80569802985
 20
120.4992795747658
 30
0.0
 10
215.4800903748989
 20
120.8535358308762
 30
0.0
 10
215.8354674920147
 20
121.0024153505182
 30
0.0
 10
216.5705581407895
 20
121.2389509369389
 30
0.0
 10
216.9440843179737
 20
121.3250012462625
 30
0.0
 10
217.5130179531594
 20
121.4080137772192
 30
0.0
 10
217.704112265521
 20
121.4279550957319
 30
0.0
 10
218.0892499737635
 20
121.4521549752608
 30
0.0
 10
218.2841281375018
 20
121.4563541069434
 30
0.0
 10
218.8635139054855
 20
121.4449352113691
 30
0.0
 10
219.2447952312885
 20
121.4059044092099
 30
0.0
 10
219.809406768892
 20
121.3009659432656
 30
0.0
 10
219.9963853028203
 20
121.2582070639049
 30
0.0
 10
220.3678299622372
 20
121.1566524836743
 30
0.0
 10
220.5529801146375
 20
121.097544544668
 30
0.0
 10
221.0943882187281
 20
120.8988311989173
 30
0.0
 10
221.4395184804125
 20
120.7375344674534
 30
0.0
 10
221.9333941357837
 20
120.4513960284149
 30
0.0
 10
222.0940235908447
 20
120.3486017399105
 30
0.0
 10
222.4069173092142
 20
120.1273364051803
 30
0.0
 10
222.5596659871001
 20
120.008335606107
 30
0.0
 10
222.9948599230472
 20
119.6345230115482
 30
0.0
 10
223.2576893078944
 20
119.3611598695585
 30
0.0
 10
223.6088589800857
 20
118.9123037438347
 30
0.0
 10
223.7186831934271
 20
118.7561690989868
 30
0.0
 10
223.9227159853337
 20
118.4297192281503
 30
0.0
 10
224.0165924066795
 20
118.2595619585044
 30
0.0
 10
224.2656105821501
 20
117.741598708004
 30
0.0
 10
224.391568045313
 20
117.3818059411498
 30
0.0
 10
224.5162688335043
 20
116.8186860557567
 30
0.0
 10
224.547145360299
 20
116.6254653059828
 30
0.0
 10
224.5847318325337
 20
116.2395216900015
 30
0.0
 10
224.5916574728451
 20
116.0470438380709
 30
0.0
 10
224.582358451895
 20
115.6630521600892
 30
0.0
 10
224.5661327517766
 20
115.4715383765416
 30
0.0
 10
224.510355805309
 20
115.0894810608297
 30
0.0
 10
224.4703918767883
 20
114.8977576445732
 30
0.0
 10
224.3183878018136
 20
114.3378629094253
 30
0.0
 10
224.1747846836921
 20
113.9818585631425
 30
0.0
 10
223.900053208996
 20
113.4718352231692
 30
0.0
 10
223.7986016490958
 20
113.3063362789577
 30
0.0
 10
223.5809386650837
 20
112.9901913418934
 30
0.0
 10
223.4642344845744
 20
112.8385892445453
 30
0.0
 10
223.091590064469
 20
112.4021471387077
 30
0.0
 10
222.8104111767125
 20
112.1336523776087
 30
0.0
 10
222.2092668320561
 20
111.6593452121776
 30
0.0
 10
221.8884756969357
 20
111.4516211997801
 30
0.0
 10
221.2078259749027
 20
111.0919299582078
 30
0.0
 10
220.8503267543353
 20
110.9419175948987
 30
0.0
 10
220.121345598663
 20
110.7058540015964
 30
0.0
 10
219.7471494452945
 20
110.6183351226304
 30
0.0
 10
218.9788676985328
 20
110.5051504466028
 30
0.0
 10
218.593279086784
 20
110.4809274998202
 30
0.0
 10
217.8258661639704
 20
110.4949600646202
 30
0.0
 10
217.4429512820361
 20
110.5330499665989
 30
0.0
 10
216.6787752335042
 20
110.674472594111
 30
0.0
 10
216.3082397394058
 20
110.7758496748019
 30
0.0
 10
215.5907592661656
 20
111.0383993694015
 30
0.0
 10
215.2433023073524
 20
111.1997291284494
 30
0.0
 10
214.5744046865332
 20
111.5871398493382
 30
0.0
 10
214.2630076615959
 20
111.8073474249473
 30
0.0
 10
213.6864697362542
 20
112.3019838588304
 30
0.0
 10
213.4201799055103
 20
112.577708305668
 30
0.0
 10
212.9448157113295
 20
113.1862254021076
 30
0.0
 10
212.7427432666926
 20
113.5095976203124
 30
0.0
 10
212.494964441943
 20
114.0247766444351
 30
0.0
 10
212.4216635007799
 20
114.2015600736302
 30
0.0
 10
212.2949652147178
 20
114.5660153263695
 30
0.0
 10
212.2414963981039
 20
114.7547290904261
 30
0.0
 10
212.1172833040126
 20
115.3208151075432
 30
0.0
 10
212.0801930032821
 20
115.7029047423046
 30
0.0
 10
212.0947577098737
 20
116.2832724548133
 30
0.0
 10
212.1117010450297
 20
116.4790640010401
 30
0.0
 10
212.1685252792624
 20
116.8623484976393
 30
0.0
 10
212.2082992309314
 20
117.0509351093741
 30
0.0
 10
212.3603998001536
 20
117.6079035252494
 30
0.0
 10
212.5077897511495
 20
117.9714427689333
 30
0.0
 10
212.8744530343764
 20
118.6482417804632
 30
0.0
 10
213.0931518614599
 20
118.9635765015256
 30
0.0
 10
213.5973520798346
 20
119.5513503099811
 30
0.0
 10
213.8776828008185
 20
119.8173516447776
 30
0.0
 10
214.1811577086462
 20
120.0553443492122
 30
0.0
  0
LINE
  5
BB
330
1F
100
AcDbEntity
  8
0
  6
Continuous
 62
     7
370
    15
100
AcDbLine
 10
148.8384032139
 20
146.4666775066
 30
0.0
 11
145.0102408865
 21
146.4666775066
 31
0.0
  0
LINE
  5
BC
330
1F
100
AcDbEntity
  8
0
  6
Continuous
 62
     7
370
    15
100
AcDbLine
 10
145.0102408865
 20
141.8805713404
 30
0.0
 11
148.8384032139
 21
141.8805713404
 31
0.0
  0
LINE
  5
BD
330
1F
100
AcDbEntity
  8
0
  6
Continuous
 62
     7
370
    15
100
AcDbLine
 10
145.0102408865
 20
141.8805713404
 30
0.0
 11
145.0102408865
 21
146.4666775066
 31
0.0
  0
SPLINE
  5
BE
330
1F
100
AcDbEntity
  8
0
  6
Continuous
 62
     7
370
    15
100
AcDbSpline
210
0.0
220
0.0
230
1.0
 70
     8
 71
     3
 72
    12
 73
     8
 74
     0
 42
0.000000001
 43
0.00000001
 40
0.0
 40
0.0
 40
0.0
 40
0.0
 40
0.4999999999999971
 40
0.4999999999999971
 40
0.7499999999999986
 40
0.7499999999999986
 40
1.0
 40
1.0
 40
1.0
 40
1.0
 10
149.4384038218389
 20
145.9808921203246
 30
0.0
 10
149.4384038218389
 20
146.1012191533777
 30
0.0
 10
149.384609010246
 20
146.2193167268595
 30
0.0
 10
149.2236854402797
 20
146.3589594692985
 30
0.0
 10
149.1589339791771
 20
146.397235422693
 30
0.0
 10
149.0067137958594
 20
146.4520752523274
 30
0.0
 10
148.9239062803345
 20
146.466677066099
 30
0.0
 10
148.8384038218389
 20
146.466677066099
 30
0.0
  0
SPLINE
  5
BF
330
1F
100
AcDbEntity
  8
0
  6
Continuous
 62
     7
370
    15
100
AcDbSpline
210
0.0
220
0.0
230
1.0
 70
     8
 71
     3
 72
    14
 73
    10
 74
     0
 42
0.000000001
 43
0.00000001
 40
0.0
 40
0.0
 40
0.0
 40
0.0
 40
0.25
 40
0.25
 40
0.5
 40
0.5
 40
0.75
 40
0.75
 40
1.0
 40
1.0
 40
1.0
 40
1.0
 10
148.8384038218389
 20
141.880570626931
 30
0.0
 10
148.9268263599614
 20
141.880570626931
 30
0.0
 10
149.0148803496544
 20
141.8554982764716
 30
0.0
 10
149.1667101135258
 20
141.7691562115002
 30
0.0
 10
149.2325530580896
 20
141.7076129569874
 30
0.0
 10
149.3363521186351
 20
141.5657852107365
 30
0.0
 10
149.3748242281098
 20
141.4857366207664
 30
0.0
 10
149.4260468913844
 20
141.3167241240927
 30
0.0
 10
149.4384038218389
 20
141.2299448172231
 30
0.0
 10
149.4384038218389
 20
141.141753342967
 30
0.0
  0
LINE
  5
C0
330
1F
100
AcDbEntity
  8
0
  6
Continuous
 62
     7
370
    15
100
AcDbLine
 10
149.4384040573
 20
141.1417531419
 30
0.0
 11
149.4384040573
 21
145.9808922011
 31
0.0
  0
SPLINE
  5
C1
330
1F
100
AcDbEntity
  8
0
  6
Continuous
 62
     7
370
    15
100
AcDbSpline
210
0.0
220
0.0
230
1.0
 70
     8
 71
     3
 72
     8
 73
     4
 74
     0
 42
0.000000001
 43
0.00000001
 40
0.0
 40
0.0
 40
0.0
 40
0.0
 40
0.0012409313617635
 40
0.0012409313617635
 40
0.0012409313617635
 40
0.0012409313617635
 10
138.5244491355429
 20
145.6828791431479
 30
0.0
 10
138.3392252959869
 20
145.9444066866251
 30
0.0
 10
138.1532401080144
 20
146.2056651884004
 30
0.0
 10
137.9665671797822
 20
146.466677066099
 30
0.0
  0
SPLINE
  5
C2
330
1F
100
AcDbEntity
  8
0
  6
Continuous
 62
     7
370
    15
100
AcDbSpline
210
0.0
220
0.0
230
1.0
 70
     8
 71
     3
 72
     8
 73
     4
 74
     0
 42
0.000000001
 43
0.00000001
 40
0.0
 40
0.0
 40
0.0
 40
0.0
 40
1.0
 40
1.0
 40
1.0
 40
1.0
 10
139.5784038218389
 20
143.7871674463849
 30
0.0
 10
139.2277515815113
 20
144.4194358554352
 30
0.0
 10
138.8763931584512
 20
145.0513177551341
 30
0.0
 10
138.5244491355429
 20
145.6828791431479
 30
0.0
  0
LINE
  5
C3
330
1F
100
AcDbEntity
  8
0
  6
Continuous
 62
     7
370
    15
100
AcDbLine
 10
139.5784034842
 20
138.3724803675
 30
0.0
 11
139.5784034842
 21
143.7871674645
 31
0.0
  0
SPLINE
  5
C4
330
1F
100
AcDbEntity
  8
0
  6
Continuous
 62
     7
370
    15
100
AcDbSpline
210
0.0
220
0.0
230
1.0
 70
     8
 71
     3
 72
     8
 73
     4
 74
     0
 42
0.000000001
 43
0.00000001
 40
0.0
 40
0.0
 40
0.0
 40
0.0
 40
1.0
 40
1.0
 40
1.0
 40
1.0
 10
137.9665671797822
 20
141.880570626931
 30
0.0
 10
138.5155119579791
 20
140.7154745146173
 30
0.0
 10
139.0541223324958
 20
139.5463161977928
 30
0.0
 10
139.5784038218389
 20
138.3724800427419
 30
0.0
  0
LINE
  5
C5
330
1F
100
AcDbEntity
  8
0
  6
Continuous
 62
     7
370
    15
100
AcDbLine
 10
137.9665672296
 20
141.8805713404
 30
0.0
 11
137.9665672296
 21
146.4666775066
 31
0.0
  0
SPLINE
  5
C6
330
1F
100
AcDbEntity
  8
0
  6
Continuous
 62
     7
370
    15
100
AcDbSpline
210
0.0
220
0.0
230
1.0
 70
     8
 71
     3
 72
     8
 73
     4
 74
     0
 42
0.000000001
 43
0.00000001
 40
0.0
 40
0.0
 40
0.0
 40
0.0
 40
1.0
 40
1.0
 40
1.0
 40
1.0
 10
144.4523585081349
 20
145.6828791431479
 30
0.0
 10
144.1004144852267
 20
145.0513177551341
 30
0.0
 10
143.7490560621665
 20
144.4194358554352
 30
0.0
 10
143.3984038218389
 20
143.7871674463849
 30
0.0
  0
SPLINE
  5
C7
330
1F
100
AcDbEntity
  8
0
  6
Continuous
 62
     7
370
    15
100
AcDbSpline
210
0.0
220
0.0
230
1.0
 70
     8
 71
     3
 72
     8
 73
     4
 74
     0
 42
0.000000001
 43
0.00000001
 40
0.0
 40
0.0
 40
0.0
 40
0.0
 40
0.0012409313617635
 40
0.0012409313617635
 40
0.0012409313617635
 40
0.0012409313617635
 10
145.0102404638956
 20
146.466677066099
 30
0.0
 10
144.8235675356634
 20
146.2056651884004
 30
0.0
 10
144.6375823476909
 20
145.9444066866251
 30
0.0
 10
144.4523585081349
 20
145.6828791431479
 30
0.0
  0
SPLINE
  5
C8
330
1F
100
AcDbEntity
  8
0
  6
Continuous
 62
     7
370
    15
100
AcDbSpline
210
0.0
220
0.0
230
1.0
 70
     8
 71
     3
 72
     8
 73
     4
 74
     0
 42
0.000000001
 43
0.00000001
 40
0.0
 40
0.0
 40
0.0
 40
0.0
 40
1.0
 40
1.0
 40
1.0
 40
1.0
 10
143.3984038218389
 20
138.3724800427419
 30
0.0
 10
143.9231949413349
 20
139.5474572304466
 30
0.0
 10
144.4617111925177
 20
140.7163563981848
 30
0.0
 10
145.0102404638956
 20
141.880570626931
 30
0.0
  0
LINE
  5
C9
330
1F
100
AcDbEntity
  8
0
  6
Continuous
 62
     7
370
    15
100
AcDbLine
 10
143.3984037005
 20
138.3724803675
 30
0.0
 11
143.3984037005
 21
143.7871674645
 31
0.0
  0
SPLINE
  5
CA
330
1F
100
AcDbEntity
  8
0
  6
Continuous
 62
     7
370
    15
100
AcDbSpline
210
0.0
220
0.0
230
1.0
 70
     8
 71
     3
 72
    12
 73
     8
 74
     0
 42
0.000000001
 43
0.00000001
 40
0.0
 40
0.0
 40
0.0
 40
0.0
 40
0.5000000000000003
 40
0.5000000000000003
 40
0.7500000000000001
 40
0.7500000000000001
 40
1.0
 40
1.0
 40
1.0
 40
1.0
 10
133.5884038218389
 20
141.141753342967
 30
0.0
 10
133.5884038218389
 20
141.3183697394888
 30
0.0
 10
133.6377444566608
 20
141.4934269108625
 30
0.0
 10
133.7939600149489
 20
141.7073771233551
 30
0.0
 10
133.8592625948496
 20
141.7687097662021
 30
0.0
 10
134.01303161281
 20
141.8560978641733
 30
0.0
 10
134.1000447194204
 20
141.880570626931
 30
0.0
 10
134.1884038218389
 20
141.880570626931
 30
0.0
  0
LINE
  5
CB
330
1F
100
AcDbEntity
  8
0
  6
Continuous
 62
     7
370
    15
100
AcDbLine
 10
134.1884038859
 20
141.8805713404
 30
0.0
 11
137.9665672296
 21
141.8805713404
 31
0.0
  0
LINE
  5
CC
330
1F
100
AcDbEntity
  8
0
  6
Continuous
 62
     7
370
    15
100
AcDbLine
 10
139.5784034842
 20
138.3724803675
 30
0.0
 11
139.5784034842
 21
138.1675819505
 31
0.0
  0
SPLINE
  5
CD
330
1F
100
AcDbEntity
  8
0
  6
Continuous
 62
     7
370
    15
100
AcDbSpline
210
0.0
220
0.0
230
1.0
 70
     8
 71
     3
 72
    14
 73
    10
 74
     0
 42
0.000000001
 43
0.00000001
 40
0.0
 40
0.0
 40
0.0
 40
0.0
 40
0.25
 40
0.25
 40
0.5
 40
0.5
 40
0.75
 40
0.75
 40
1.0
 40
1.0
 40
1.0
 40
1.0
 10
139.5784038218389
 20
138.1675818064087
 30
0.0
 10
139.5784038218389
 20
138.0456464712271
 30
0.0
 10
139.5944481893789
 20
137.9260922307257
 30
0.0
 10
139.6601775315582
 20
137.6919762475825
 30
0.0
 10
139.7093849018065
 20
137.5800437074477
 30
0.0
 10
139.8443978827054
 20
137.3776438982109
 30
0.0
 10
139.9303179513117
 20
137.287778704648
 30
0.0
 10
140.1368327533171
 20
137.1574441950377
 30
0.0
 10
140.2569714656882
 20
137.1192771303399
 30
0.0
 10
140.3784038218389
 20
137.1192771303399
 30
0.0
  0
LINE
  5
CE
330
1F
100
AcDbEntity
  8
0
  6
Continuous
 62
     7
370
    15
100
AcDbLine
 10
140.3784039878
 20
137.1192778099
 30
0.0
 11
142.5984041282
 21
137.1192778099
 31
0.0
  0
SPLINE
  5
CF
330
1F
100
AcDbEntity
  8
0
  6
Continuous
 62
     7
370
    15
100
AcDbSpline
210
0.0
220
0.0
230
1.0
 70
     8
 71
     3
 72
    12
 73
     8
 74
     0
 42
0.000000001
 43
0.00000001
 40
0.0
 40
0.0
 40
0.0
 40
0.0
 40
0.2500000000000015
 40
0.2500000000000015
 40
0.500000000000003
 40
0.500000000000003
 40
1.0
 40
1.0
 40
1.0
 40
1.0
 10
142.5984038218389
 20
137.1192771303399
 30
0.0
 10
142.7204858193272
 20
137.1192771303399
 30
0.0
 10
142.8410763618129
 20
137.1580034865136
 30
0.0
 10
143.0465716455127
 20
137.2879670742599
 30
0.0
 10
143.1320881284652
 20
137.3771733108066
 30
0.0
 10
143.3354824800094
 20
137.6820498483522
 30
0.0
 10
143.3984038218389
 20
137.9248204624543
 30
0.0
 10
143.3984038218389
 20
138.1675818064087
 30
0.0
  0
LINE
  5
D0
330
1F
100
AcDbEntity
  8
0
  6
Continuous
 62
     7
370
    15
100
AcDbLine
 10
143.3984037005
 20
138.1675819505
 30
0.0
 11
143.3984037005
 21
138.3724803675
 31
0.0
  0
LINE
  5
D1
330
1F
100
AcDbEntity
  8
0
  6
Continuous
 62
     7
370
    15
100
AcDbLine
 10
133.588403741
 20
141.1417531419
 30
0.0
 11
133.588403741
 21
134.3203405488
 31
0.0
  0
LINE
  5
D2
330
1F
100
AcDbEntity
  8
0
  6
Continuous
 62
     7
370
    15
100
AcDbLine
 10
149.4384040573
 20
141.1417531419
 30
0.0
 11
149.4384040573
 21
134.3203405488
 31
0.0
  0
LINE
  5
D3
330
1F
100
AcDbEntity
  8
0
  6
Continuous
 62
     7
370
    15
100
AcDbLine
 10
142.5984041282
 20
142.788199206
 30
0.0
 11
140.3784039878
 21
142.788199206
 31
0.0
  0
SPLINE
  5
D4
330
1F
100
AcDbEntity
  8
0
  6
Continuous
 62
     7
370
    15
100
AcDbSpline
210
0.0
220
0.0
230
1.0
 70
     8
 71
     3
 72
    12
 73
     8
 74
     0
 42
0.000000001
 43
0.00000001
 40
0.0
 40
0.0
 40
0.0
 40
0.0
 40
0.5
 40
0.5
 40
0.75
 40
0.75
 40
1.0
 40
1.0
 40
1.0
 40
1.0
 10
143.3984038218389
 20
143.6224204746904
 30
0.0
 10
143.3984038218389
 20
143.4092830730389
 30
0.0
 10
143.315761406691
 20
143.1943035483013
 30
0.0
 10
143.0971779958806
 20
142.9613844794155
 30
0.0
 10
143.0080880428999
 20
142.897517569595
 30
0.0
 10
142.8126827250024
 20
142.8111314152132
 30
0.0
 10
142.706158678059
 20
142.7881988431701
 30
0.0
 10
142.5984038218389
 20
142.7881988431701
 30
0.0
  0
SPLINE
  5
D5
330
1F
100
AcDbEntity
  8
0
  6
Continuous
 62
     7
370
    15
100
AcDbSpline
210
0.0
220
0.0
230
1.0
 70
     8
 71
     3
 72
    10
 73
     6
 74
     0
 42
0.000000001
 43
0.00000001
 40
0.0
 40
0.0
 40
0.0
 40
0.0
 40
0.5
 40
0.5
 40
1.0
 40
1.0
 40
1.0
 40
1.0
 10
133.8756454231465
 20
146.3956375418404
 30
0.0
 10
133.799805829143
 20
146.3255883555117
 30
0.0
 10
133.732482311417
 20
146.2403695819381
 30
0.0
 10
133.6258386731119
 20
146.0301434552763
 30
0.0
 10
133.5884038218389
 20
145.906634264409
 30
0.0
 10
133.5884038218389
 20
145.7767161438863
 30
0.0
  0
SPLINE
  5
D6
330
1F
100
AcDbEntity
  8
0
  6
Continuous
 62
     7
370
    15
100
AcDbSpline
210
0.0
220
0.0
230
1.0
 70
     8
 71
     3
 72
     8
 73
     4
 74
     0
 42
0.000000001
 43
0.00000001
 40
0.0
 40
0.0
 40
0.0
 40
0.0
 40
1.0
 40
1.0
 40
1.0
 40
1.0
 10
134.1884038218389
 20
146.466677066099
 30
0.0
 10
134.0762255676592
 20
146.466677066099
 30
0.0
 10
133.9675560549308
 20
146.440996000838
 30
0.0
 10
133.8756454231465
 20
146.3956375418404
 30
0.0
  0
LINE
  5
D7
330
1F
100
AcDbEntity
  8
0
  6
Continuous
 62
     7
370
    15
100
AcDbLine
 10
133.588403741
 20
141.1417531419
 30
0.0
 11
133.588403741
 21
145.7767164904
 31
0.0
  0
LINE
  5
D8
330
1F
100
AcDbEntity
  8
0
  6
Continuous
 62
     7
370
    15
100
AcDbLine
 10
137.9665672296
 20
146.4666775066
 30
0.0
 11
134.1884038859
 21
146.4666775066
 31
0.0
  0
SPLINE
  5
D9
330
1F
100
AcDbEntity
  8
0
  6
Continuous
 62
     7
370
    15
100
AcDbSpline
210
0.0
220
0.0
230
1.0
 70
     8
 71
     3
 72
    14
 73
    10
 74
     0
 42
0.000000001
 43
0.00000001
 40
0.0
 40
0.0
 40
0.0
 40
0.0
 40
0.25
 40
0.25
 40
0.5
 40
0.5
 40
0.75
 40
0.75
 40
1.0
 40
1.0
 40
1.0
 40
1.0
 10
140.3784038218389
 20
142.7881988431701
 30
0.0
 10
140.2710347773246
 20
142.7881988431701
 30
0.0
 10
140.1642292855617
 20
142.8111238385751
 30
0.0
 10
139.9690879170449
 20
142.8973162724493
 30
0.0
 10
139.879878199455
 20
142.9611602691133
 30
0.0
 10
139.7339514066386
 20
143.1165763770547
 30
0.0
 10
139.6759616628405
 20
143.2092309552624
 30
0.0
 10
139.598367821318
 20
143.4084642953119
 30
0.0
 10
139.5784038218389
 20
143.5150693903672
 30
0.0
 10
139.5784038218389
 20
143.6224204746904
 30
0.0
  0
LINE
  5
DA
330
1F
100
AcDbEntity
  8
0
  6
Continuous
 62
     7
370
    15
100
AcDbLine
 10
62.138403345
 20
104.563210589
 30
0.0
 11
62.138403345
 21
127.3774713847
 31
0.0
  0
SPLINE
  5
DB
330
1F
100
AcDbEntity
  8
0
  6
Continuous
 62
     7
370
    15
100
AcDbSpline
210
0.0
220
0.0
230
1.0
 70
     8
 71
     3
 72
    10
 73
     6
 74
     0
 42
0.000000001
 43
0.00000001
 40
0.0
 40
0.0
 40
0.0
 40
0.0
 40
0.4391258813989651
 40
0.7513737753541946
 40
1.0
 40
1.0
 40
1.0
 40
1.0
 10
219.3751880415807
 20
113.2761956762133
 30
0.0
 10
219.6349981438588
 20
113.5975845290858
 30
0.0
 10
220.0795506188847
 20
114.1475023680669
 30
0.0
 10
220.7257719720476
 20
114.9468996076571
 30
0.0
 10
221.0474142903486
 20
115.3447749629402
 30
0.0
 10
221.1899930127989
 20
115.5211465304328
 30
0.0
  0
SPLINE
  5
DC
330
1F
100
AcDbEntity
  8
0
  6
Continuous
 62
     7
370
    15
100
AcDbSpline
210
0.0
220
0.0
230
1.0
 70
     8
 71
     3
 72
    10
 73
     6
 74
     0
 42
0.000000001
 43
0.00000001
 40
0.0
 40
0.0
 40
0.0
 40
0.0
 40
0.4391254469889075
 40
0.7513743692729966
 40
1.0
 40
1.0
 40
1.0
 40
1.0
 10
221.1899930127989
 20
115.5211465304328
 30
0.0
 10
221.0415680856567
 20
115.9068431781572
 30
0.0
 10
220.7876026487171
 20
116.5667971330051
 30
0.0
 10
220.4184149417215
 20
117.5261406466371
 30
0.0
 10
220.2346670607486
 20
118.0036296469021
 30
0.0
 10
220.1532149204145
 20
118.2152919575182
 30
0.0
  0
SPLINE
  5
DD
330
1F
100
AcDbEntity
  8
0
  6
Continuous
 62
     7
370
    15
100
AcDbSpline
210
0.0
220
0.0
230
1.0
 70
     8
 71
     3
 72
    11
 73
     7
 74
     0
 42
0.000000001
 43
0.00000001
 40
0.0
 40
0.0
 40
0.0
 40
0.0
 40
0.1849311452264442
 40
0.5198474294363762
 40
0.8714449275487244
 40
1.0
 40
1.0
 40
1.0
 40
1.0
 10
220.1532149204145
 20
118.2152919575182
 30
0.0
 10
219.9872378745434
 20
118.2414373095991
 30
0.0
 10
219.5206710313225
 20
118.3149327397728
 30
0.0
 10
218.6497376393166
 20
118.4521254212126
 30
0.0
 10
217.8453944178664
 20
118.5788285514431
 30
0.0
 10
217.4164650757133
 20
118.64639594189
 30
0.0
 10
217.3016244062315
 20
118.6644862975535
 30
0.0
  0
SPLINE
  5
DE
330
1F
100
AcDbEntity
  8
0
  6
Continuous
 62
     7
370
    15
100
AcDbSpline
210
0.0
220
0.0
230
1.0
 70
     8
 71
     3
 72
    10
 73
     6
 74
     0
 42
0.000000001
 43
0.00000001
 40
0.0
 40
0.0
 40
0.0
 40
0.0
 40
0.4391259512221414
 40
0.7513737390920935
 40
1.0
 40
1.0
 40
1.0
 40
1.0
 10
215.4868119844328
 20
116.419535443334
 30
0.0
 10
215.6352416120522
 20
116.0338396189062
 30
0.0
 10
215.8892145871999
 20
115.3738883840817
 30
0.0
 10
216.2583865972417
 20
114.4145383838616
 30
0.0
 10
216.4421418427888
 20
113.9370519264422
 30
0.0
 10
216.5235975273977
 20
113.7253900162486
 30
0.0
  0
SPLINE
  5
DF
330
1F
100
AcDbEntity
  8
0
  6
Continuous
 62
     7
370
    15
100
AcDbSpline
210
0.0
220
0.0
230
1.0
 70
     8
 71
     3
 72
    11
 73
     7
 74
     0
 42
0.000000001
 43
0.00000001
 40
0.0
 40
0.0
 40
0.0
 40
0.0
 40
0.1285550834396424
 40
0.480152569769372
 40
0.8150688658637681
 40
1.0
 40
1.0
 40
1.0
 40
1.0
 10
216.5235975273977
 20
113.7253900162486
 30
0.0
 10
216.6384381940944
 20
113.7072995640915
 30
0.0
 10
217.0673674884721
 20
113.639731819129
 30
0.0
 10
217.87171082568
 20
113.5130294287706
 30
0.0
 10
218.7426441066309
 20
113.3758360526363
 30
0.0
 10
219.2092109912055
 20
113.3023409206195
 30
0.0
 10
219.3751880415807
 20
113.2761956762133
 30
0.0
  0
CIRCLE
  5
E0
330
1F
100
AcDbEntity
  8
0
  6
Continuous
 62
     7
370
    15
100
AcDbCircle
 10
218.3384038218
 20
115.9703409869
 30
0.0
 40
3.000000000000004
  0
SPLINE
  5
E1
330
1F
100
AcDbEntity
  8
0
  6
Continuous
 62
     7
370
    15
100
AcDbSpline
210
0.0
220
0.0
230
1.0
 70
     8
 71
     3
 72
    10
 73
     6
 74
     0
 42
0.000000001
 43
0.00000001
 40
0.0
 40
0.0
 40
0.0
 40
0.0
 40
0.4391252003642758
 40
0.7513741609454131
 40
1.0
 40
1.0
 40
1.0
 40
1.0
 10
217.3016244062315
 20
118.6644862975535
 30
0.0
 10
217.0418151433778
 20
118.3430967700399
 30
0.0
 10
216.5972631870779
 20
117.7931766416303
 30
0.0
 10
215.9510328180858
 20
116.993784372885
 30
0.0
 10
215.6293903701155
 20
116.5959072892745
 30
0.0
 10
215.4868119844328
 20
116.419535443334
 30
0.0
  0
CIRCLE
  5
E2
330
1F
100
AcDbEntity
  8
0
  6
Continuous
 62
     7
370
    15
100
AcDbCircle
 10
218.3384038218
 20
115.9703409869
 30
0.0
 40
4.299999999999994
  0
CIRCLE
  5
E3
330
1F
100
AcDbEntity
  8
0
  6
Continuous
 62
     7
370
    15
100
AcDbCircle
 10
218.3384038218
 20
115.9703409869
 30
0.0
 40
4.999999999999995
  0
ARC
  5
E4
330
1F
100
AcDbEntity
  8
0
  6
Continuous
 62
     7
370
    15
100
AcDbCircle
 10
218.3384038218
 20
115.9703409869
 30
0.0
 40
2.500000000000009
100
AcDbArc
 50
201.0480837968
 51
261.0480837968
  0
ARC
  5
E5
330
1F
100
AcDbEntity
  8
0
  6
Continuous
 62
     7
370
    15
100
AcDbCircle
 10
218.3384038218
 20
115.9703409869
 30
0.0
 40
2.500000000000024
100
AcDbArc
 50
321.0480837968
 51
21.0480837968
  0
ARC
  5
E6
330
1F
100
AcDbEntity
  8
0
  6
Continuous
 62
     7
370
    15
100
AcDbCircle
 10
218.3384038218
 20
115.9703409869
 30
0.0
 40
2.500000000000009
100
AcDbArc
 50
81.0480837968
 51
141.0480837968
  0
ARC
  5
E7
330
1F
100
AcDbEntity
  8
0
  6
Continuous
 62
     7
370
    15
100
AcDbCircle
 10
218.3384038218
 20
115.9703409869
 30
0.0
 40
2.500000000000024
100
AcDbArc
 50
21.0480837968
 51
81.0480837968
  0
ARC
  5
E8
330
1F
100
AcDbEntity
  8
0
  6
Continuous
 62
     7
370
    15
100
AcDbCircle
 10
218.3384038218
 20
115.9703409869
 30
0.0
 40
2.500000000000013
100
AcDbArc
 50
261.0480837968
 51
321.0480837968
  0
ARC
  5
E9
330
1F
100
AcDbEntity
  8
0
  6
Continuous
 62
     7
370
    15
100
AcDbCircle
 10
218.3384038218
 20
115.9703409869
 30
0.0
 40
2.499999999999997
100
AcDbArc
 50
141.0480837968
 51
201.0480837968
  0
LINE
  5
EA
330
1F
100
AcDbEntity
  8
0
  6
Continuous
 62
     7
370
    15
100
AcDbLine
 10
217.5603756198
 20
135.270341729
 30
0.0
 11
219.9277156481
 21
135.270341729
 31
0.0
  0
LINE
  5
EB
330
1F
100
AcDbEntity
  8
0
  6
Continuous
 62
     7
370
    15
100
AcDbLine
 10
216.5685096272
 20
135.270341729
 30
0.0
 11
217.5603756198
 21
135.270341729
 31
0.0
  0
LINE
  5
EC
330
1F
100
AcDbEntity
  8
0
  6
Continuous
 62
     7
370
    15
100
AcDbLine
 10
217.6693031081
 20
135.9703405398
 30
0.0
 11
222.638400782
 21
135.9703405398
 31
0.0
  0
LINE
  5
ED
330
1F
100
AcDbEntity
  8
0
  6
Continuous
 62
     7
370
    15
100
AcDbLine
 10
214.0384042152
 20
135.9703405398
 30
0.0
 11
217.6693031081
 21
135.9703405398
 31
0.0
  0
ARC
  5
EE
330
1F
100
AcDbEntity
  8
0
  6
Continuous
 62
     7
370
    15
100
AcDbCircle
 10
143.2810397867
 20
106.7414018155
 30
0.0
 40
1.895693621063961
100
AcDbArc
 50
185.5744164986
 51
252.2897597772
  0
ARC
  5
EF
330
1F
100
AcDbEntity
  8
0
  6
Continuous
 62
     7
370
    15
100
AcDbCircle
 10
143.3917498846
 20
106.8630460357
 30
0.0
 40
2.046396555096204
100
AcDbArc
 50
250.3726710173
 51
331.9117239273
  0
ARC
  5
F0
330
1F
100
AcDbEntity
  8
0
  6
Continuous
 62
     7
370
    15
100
AcDbCircle
 10
143.251749779
 20
106.6708423136
 30
0.0
 40
1.757771930600353
100
AcDbArc
 50
161.2892351507
 51
253.0251659732
  0
ARC
  5
F1
330
1F
100
AcDbEntity
  8
0
  6
Continuous
 62
     7
370
    15
100
AcDbCircle
 10
143.3931714306
 20
106.8111792398
 30
0.0
 40
1.935581019847018
100
AcDbArc
 50
250.2329881711
 51
335.318847275
  0
ARC
  5
F2
330
1F
100
AcDbEntity
  8
0
  6
Continuous
 62
     7
370
    15
100
AcDbCircle
 10
143.3079350894
 20
106.6764342679
 30
0.0
 40
1.401973602343364
100
AcDbArc
 50
87.3111691038
 51
252.0288936932
  0
ARC
  5
F3
330
1F
100
AcDbEntity
  8
0
  6
Continuous
 62
     7
370
    15
100
AcDbCircle
 10
143.3966239306
 20
106.7532810688
 30
0.0
 40
1.503658766943873
100
AcDbArc
 50
249.7171755107
 51
349.3882944071
  0
SPLINE
  5
F4
330
1F
100
AcDbEntity
  8
0
  6
HIDDEN
 62
     7
370
     0
100
AcDbSpline
210
0.0
220
0.0
230
1.0
 70
     8
 71
     3
 72
     9
 73
     5
 74
     0
 42
0.000000001
 43
0.00000001
 40
0.0
 40
0.0
 40
0.0
 40
0.0
 40
0.9333113421934416
 40
1.0
 40
1.0
 40
1.0
 40
1.0
 10
141.4125129097233
 20
108.2238019082305
 30
0.0
 10
141.3979370911746
 20
108.1228318201709
 30
0.0
 10
141.3823197747553
 20
108.0146470339211
 30
0.0
 10
141.3893496296384
 20
107.9221645369463
 30
0.0
 10
141.3898184412251
 20
107.9159970033524
 30
0.0
  0
LWPOLYLINE
  5
F5
330
1F
100
AcDbEntity
  8
0
  6
HIDDEN
 62
     7
370
     0
100
AcDbPolyline
 90
       20
 70
   128
 43
0.0
 10
141.4125129097
 20
107.641932984
 10
141.6050508135
 20
107.0821205724
 10
141.9723476731
 20
106.605675501
 10
142.4784097337
 20
106.2592886958
 10
143.0736459308
 20
106.0769031394
 10
143.6997275316
 20
106.076390912
 10
144.2952999362
 20
106.2578041676
 10
144.8020027467
 20
106.6033639583
 10
145.1701797062
 20
107.0792083267
 10
145.3637532407
 20
107.6387059513
 10
145.3637532407
 20
108.2270294066
 10
145.1701797062
 20
108.7865274969
 10
144.8020027467
 20
109.2623713996
 10
144.2952999362
 20
109.6079311903
 10
143.6997275316
 20
109.7893439803
 10
143.0736459308
 20
109.7888326842
 10
142.4784097337
 20
109.6064466621
 10
141.9723476731
 20
109.2600593913
 10
141.6050508135
 20
108.7836147856
 10
141.4125129097
 20
108.2238019082
  0
LWPOLYLINE
  5
F6
330
1F
100
AcDbEntity
  8
0
  6
HIDDEN
 62
     7
370
     0
100
AcDbPolyline
 90
       21
 70
   128
 43
0.0
 10
133.838615425
 20
107.0721563521
 10
134.0014592727
 20
106.435830203
 10
134.2613536847
 20
105.861791839
 10
134.592858188
 20
105.4062326077
 10
134.9635231757
 20
105.1137460965
 10
135.3370650188
 20
105.0129611615
 10
135.6769190618
 20
105.1137460965
 10
135.9498179966
 20
105.4062326077
 10
136.1290482321
 20
105.861791839
 10
136.197066445
 20
106.435830203
 10
136.1472132132
 20
107.0721563521
 10
135.9843695984
 20
107.7084825012
 10
135.7244751864
 20
108.2825208652
 10
135.3929704503
 20
108.7380800966
 10
135.0223054626
 20
109.0305670734
 10
134.6487636195
 20
109.1313510771
 10
134.3089095765
 20
109.0305670734
 10
134.0360106417
 20
108.7380800966
 10
133.8567801734
 20
108.2825208652
 10
133.7887624261
 20
107.7084825012
 10
133.838615425
 20
107.0721563521
  0
LWPOLYLINE
  5
F7
330
1F
100
AcDbEntity
  8
0
  6
HIDDEN
 62
     7
370
     0
100
AcDbPolyline
 90
       19
 70
   128
 43
0.0
 10
134.2201312521
 20
107.104286981
 10
134.3673109525
 20
106.5509193215
 10
134.6061295346
 20
106.0642958257
 10
134.9077825883
 20
105.7031112361
 10
135.2358866
 20
105.5109281662
 10
135.550866414
 20
105.5109281662
 10
135.8147319854
 20
105.7031112361
 10
135.9956562967
 20
106.0642958257
 10
136.0718175286
 20
106.5509193215
 10
136.0340295808
 20
107.104286981
 10
135.886850346
 20
107.6576546404
 10
135.6480312982
 20
108.1442781362
 10
135.3463782446
 20
108.5054631915
 10
135.0182742328
 20
108.6976457957
 10
134.7032944189
 20
108.6976457957
 10
134.4394288474
 20
108.5054631915
 10
134.2585047689
 20
108.1442781362
 10
134.1823435371
 20
107.6576546404
 10
134.2201312521
 20
107.104286981
  0
ELLIPSE
  5
F8
330
1F
100
AcDbEntity
  8
0
  6
HIDDEN
 62
     7
370
     0
100
AcDbEllipse
 10
143.3884038218
 20
109.0827509263
 30
0.0
 11
1.383467579512114
 21
-1.091267719176599
 31
0.0
210
0.0
220
0.0
230
1.0
 40
0.8239737799
 41
2.147131942757438
 42
5.288724596347245
  0
ELLIPSE
  5
F9
330
1F
100
AcDbEntity
  8
0
  6
HIDDEN
 62
     7
370
     0
100
AcDbEllipse
 10
143.3884038218
 20
109.0827509263
 30
0.0
 11
1.383467579512114
 21
1.753907414218489
 31
0.0
210
0.0
220
0.0
230
1.0
 40
0.5126701559
 41
0.9944607108323609
 42
4.136053364422168
  0
SPLINE
  5
FA
330
1F
100
AcDbEntity
  8
0
  6
HIDDEN
 62
     7
370
     0
100
AcDbSpline
210
0.0
220
0.0
230
1.0
 70
     8
 71
     3
 72
    14
 73
    10
 74
     0
 42
0.000000001
 43
0.00000001
 40
0.0
 40
0.0
 40
0.0
 40
0.0
 40
0.25
 40
0.25
 40
0.5
 40
0.5
 40
0.75
 40
0.75
 40
1.0
 40
1.0
 40
1.0
 40
1.0
 10
141.4125130591985
 20
107.6419334200456
 30
0.0
 10
141.4488768872288
 20
107.6874280554474
 30
0.0
 10
141.4813546144389
 20
107.7358198616637
 30
0.0
 10
141.5301082438547
 20
107.8413050055932
 30
0.0
 10
141.5450120215292
 20
107.8978895138362
 30
0.0
 10
141.5450224551869
 20
108.0067771077866
 30
0.0
 10
141.5301321593787
 20
108.0589617735492
 30
0.0
 10
141.4812432285011
 20
108.1502391724928
 30
0.0
 10
141.4488710502307
 20
108.188905877867
 30
0.0
 10
141.4125130591985
 20
108.2238018174147
 30
0.0
  0
LWPOLYLINE
  5
FB
330
1F
100
AcDbEntity
  8
0
  6
HIDDEN
 62
     7
370
     0
100
AcDbPolyline
 90
       19
 70
   128
 43
0.0
 10
143.3884040901
 20
106.4259442139
 10
143.9527371415
 20
106.519450863
 10
144.4490035513
 20
106.7886906314
 10
144.8173453548
 20
107.2011910949
 10
145.0133366027
 20
107.7071972761
 10
145.0133366027
 20
108.2456777442
 10
144.8173453548
 20
108.7516839254
 10
144.4490035513
 20
109.1641839232
 10
143.9527371415
 20
109.4334241572
 10
143.3884040901
 20
109.5269303407
 10
142.8240710386
 20
109.4334241572
 10
142.3278046289
 20
109.1641839232
 10
141.959461894
 20
108.7516839254
 10
141.7634706461
 20
108.2456777442
 10
141.7634706461
 20
107.7071972761
 10
141.959461894
 20
107.2011910949
 10
142.3278046289
 20
106.7886906314
 10
142.8240710386
 20
106.519450863
 10
143.3884040901
 20
106.4259442139
  0
ELLIPSE
  5
FC
330
1F
100
AcDbEntity
  8
0
  6
HIDDEN
 62
     7
370
     0
100
AcDbEllipse
 10
143.3884038218
 20
109.0827509263
 30
0.0
 11
1.383467579512114
 21
1.753907414218489
 31
0.0
210
0.0
220
0.0
230
1.0
 40
0.5126701559
 41
0.9829735846098714
 42
0.9944607108323662
  0
SPLINE
  5
FD
330
1F
100
AcDbEntity
  8
0
  6
HIDDEN
 62
     7
370
     0
100
AcDbSpline
210
0.0
220
0.0
230
1.0
 70
     8
 71
     3
 72
     8
 73
     4
 74
     0
 42
0.000000001
 43
0.00000001
 40
0.0
 40
0.0
 40
0.0
 40
0.0
 40
1.0
 40
1.0
 40
1.0
 40
1.0
 10
143.4073571632712
 20
110.6455940765463
 30
0.0
 10
143.4243560473506
 20
110.6376108030329
 30
0.0
 10
143.4413601918917
 20
110.6288744005852
 30
0.0
 10
143.4583449179939
 20
110.6193975487477
 30
0.0
  0
ELLIPSE
  5
FE
330
1F
100
AcDbEntity
  8
0
  6
HIDDEN
 62
     7
370
     0
100
AcDbEllipse
 10
143.3884038218
 20
109.0827509263
 30
0.0
 11
1.383467579512114
 21
-1.091267719176599
 31
0.0
210
0.0
220
0.0
230
1.0
 40
0.8239737799
 41
2.104730695503052
 42
2.147131942757429
  0
ELLIPSE
  5
FF
330
1F
100
AcDbEntity
  8
0
  6
HIDDEN
 62
     7
370
     0
100
AcDbEllipse
 10
143.3884038218
 20
109.0827509263
 30
0.0
 11
1.383467579512114
 21
-1.091267719176599
 31
0.0
210
0.0
220
0.0
230
1.0
 40
0.8239737799
 41
5.288724596347236
 42
5.331125843601647
  0
SPLINE
  5
100
330
1F
100
AcDbEntity
  8
0
  6
HIDDEN
 62
     7
370
     0
100
AcDbSpline
210
0.0
220
0.0
230
1.0
 70
     8
 71
     3
 72
     8
 73
     4
 74
     0
 42
0.000000001
 43
0.00000001
 40
0.0
 40
0.0
 40
0.0
 40
0.0
 40
1.0
 40
1.0
 40
1.0
 40
1.0
 10
143.4583449179939
 20
107.5211990605143
 30
0.0
 10
143.4413601918917
 20
107.528314770564
 30
0.0
 10
143.4243560473506
 20
107.5361899000857
 30
0.0
 10
143.4073571632712
 20
107.5448130195399
 30
0.0
  0
ELLIPSE
  5
101
330
1F
100
AcDbEntity
  8
0
  6
HIDDEN
 62
     7
370
     0
100
AcDbEllipse
 10
143.3884038218
 20
109.0827509263
 30
0.0
 11
1.383467579512114
 21
1.753907414218489
 31
0.0
210
0.0
220
0.0
230
1.0
 40
0.5126701559
 41
4.136053364422173
 42
4.147540490644667
  0
SPLINE
  5
102
330
1F
100
AcDbEntity
  8
0
  6
HIDDEN
 62
     7
370
     0
100
AcDbSpline
210
0.0
220
0.0
230
1.0
 70
    11
 71
     3
 72
    56
 73
    52
 74
     0
 42
0.000000001
 43
0.00000001
 40
0.0
 40
0.0
 40
0.0
 40
0.0
 40
0.0312499999999998
 40
0.0312499999999998
 40
0.0624999999999997
 40
0.0624999999999997
 40
0.1249999999999993
 40
0.1249999999999993
 40
0.1874999999999989
 40
0.1874999999999989
 40
0.2187499999999988
 40
0.2187499999999988
 40
0.2499999999999986
 40
0.2499999999999986
 40
0.2812499999999984
 40
0.2812499999999984
 40
0.3124999999999983
 40
0.3124999999999983
 40
0.3437499999999981
 40
0.3437499999999981
 40
0.3749999999999979
 40
0.3749999999999979
 40
0.4374999999999979
 40
0.4374999999999979
 40
0.4999999999999979
 40
0.4999999999999979
 40
0.5312499999999981
 40
0.5312499999999981
 40
0.5624999999999984
 40
0.5624999999999984
 40
0.6249999999999986
 40
0.6249999999999986
 40
0.6562499999999986
 40
0.6562499999999986
 40
0.6874999999999987
 40
0.6874999999999987
 40
0.7499999999999988
 40
0.7499999999999988
 40
0.781249999999999
 40
0.781249999999999
 40
0.8124999999999991
 40
0.8124999999999991
 40
0.8749999999999993
 40
0.8749999999999993
 40
0.9062499999999996
 40
0.9062499999999996
 40
0.9374999999999997
 40
0.9374999999999997
 40
0.9687499999999999
 40
0.9687499999999999
 40
1.0
 40
1.0
 40
1.0
 40
1.0
 10
143.3884038218389
 20
113.4030929723034
 30
0.0
 10
143.4992713116403
 20
113.4030929723033
 30
0.0
 10
143.607865938485
 20
113.4113583457131
 30
0.0
 10
143.8208529541772
 20
113.4437513803975
 30
0.0
 10
143.9262893056756
 20
113.4683295610895
 30
0.0
 10
144.2242199550365
 20
113.5641820852887
 30
0.0
 10
144.4043030670313
 20
113.659075057421
 30
0.0
 10
144.7038453919683
 20
113.9026446380607
 30
0.0
 10
144.8261493688312
 20
114.0541373040765
 30
0.0
 10
144.9510474650619
 20
114.3138049245347
 30
0.0
 10
144.9837888479658
 20
114.4077570258577
 30
0.0
 10
145.0271613542033
 20
114.6016069684986
 30
0.0
 10
145.0381945397042
 20
114.7015171475415
 30
0.0
 10
145.0386072638273
 20
114.9075947802204
 30
0.0
 10
145.0276180069709
 20
115.0137027233994
 30
0.0
 10
144.9848306149006
 20
115.2212897615518
 30
0.0
 10
144.9527811683291
 20
115.324913517118
 30
0.0
 10
144.8690051809012
 20
115.5264204094217
 30
0.0
 10
144.8181224943072
 20
115.622729889449
 30
0.0
 10
144.6990421811242
 20
115.8065587689208
 30
0.0
 10
144.6303625516635
 20
115.8943099160945
 30
0.0
 10
144.4056321162199
 20
116.133691699545
 30
0.0
 10
144.2251154692062
 20
116.267526984256
 30
0.0
 10
143.8307193953881
 20
116.4517190277474
 30
0.0
 10
143.6108352203463
 20
116.5034582111486
 30
0.0
 10
143.2833568299771
 20
116.5043801425747
 30
0.0
 10
143.1721268417461
 20
116.4920798598462
 30
0.0
 10
142.9581164782201
 20
116.4439858963891
 30
0.0
 10
142.8545791185523
 20
116.4085172187108
 30
0.0
 10
142.553773234957
 20
116.2693920357414
 30
0.0
 10
142.3743351109387
 20
116.1364357051525
 30
0.0
 10
142.1484787617734
 20
115.8967795489536
 30
0.0
 10
142.0809589174204
 20
115.8108913379448
 30
0.0
 10
141.9612996971048
 20
115.6273349912228
 30
0.0
 10
141.9092632292652
 20
115.5292351873577
 30
0.0
 10
141.7841803876658
 20
115.2304281971279
 30
0.0
 10
141.7388364728802
 20
115.0158039792639
 30
0.0
 10
141.7381922822079
 20
114.7078812737891
 30
0.0
 10
141.7489857181218
 20
114.6058447529848
 30
0.0
 10
141.7920910679232
 20
114.4106642476315
 30
0.0
 10
141.8239060208748
 20
114.3183980160838
 30
0.0
 10
141.9490595575152
 20
114.0560304632574
 30
0.0
 10
142.0704404817896
 20
113.9049271416278
 30
0.0
 10
142.2973675902512
 20
113.7200570580063
 30
0.0
 10
142.3791953834005
 20
113.6662726109085
 30
0.0
 10
142.5555459730506
 20
113.5726339735866
 30
0.0
 10
142.6513145799297
 20
113.532454748604
 30
0.0
 10
142.8499378646614
 20
113.4684806918422
 30
0.0
 10
142.952796055595
 20
113.4443893297258
 30
0.0
 10
143.1661782752693
 20
113.4116253904145
 30
0.0
 10
143.2775363320375
 20
113.4030929723033
 30
0.0
 10
143.3884038218389
 20
113.4030929723033
 30
0.0
  0
CIRCLE
  5
103
330
1F
100
AcDbEntity
  8
0
  6
HIDDEN
 62
     7
370
     0
100
AcDbCircle
 10
218.3384038218
 20
115.9703409869
 30
0.0
 40
4.5
  0
LINE
  5
104
330
1F
100
AcDbEntity
  8
0
  6
HIDDEN
 62
     7
370
     0
100
AcDbLine
 10
201.8884071597
 20
115.9703409869
 30
0.0
 11
201.8884071597
 21
105.4703411284
 31
0.0
  0
LINE
  5
105
330
1F
100
AcDbEntity
  8
0
  6
HIDDEN
 62
     7
370
     0
100
AcDbLine
 10
201.8884071597
 20
126.4703408453
 30
0.0
 11
201.8884071597
 21
115.9703409869
 31
0.0
  0
LINE
  5
106
330
1F
100
AcDbEntity
  8
0
  6
HIDDEN
 62
     7
370
     0
100
AcDbLine
 10
205.7544314751
 20
115.9703409869
 30
0.0
 11
205.7544314751
 21
104.9703410465
 31
0.0
  0
LINE
  5
107
330
1F
100
AcDbEntity
  8
0
  6
HIDDEN
 62
     7
370
     0
100
AcDbLine
 10
205.7544314751
 20
126.9703409273
 30
0.0
 11
205.7544314751
 21
115.9703409869
 31
0.0
  0
SPLINE
  5
108
330
1F
100
AcDbEntity
  8
0
  6
HIDDEN
 62
     7
370
     0
100
AcDbSpline
210
0.0
220
0.0
230
1.0
 70
     8
 71
     3
 72
    12
 73
     8
 74
     0
 42
0.000000001
 43
0.00000001
 40
0.0
 40
0.0
 40
0.0
 40
0.0
 40
0.2023336715717936
 40
0.4042346304187273
 40
0.617097621049075
 40
0.8386455908548494
 40
1.0
 40
1.0
 40
1.0
 40
1.0
 10
218.3384024986158
 20
126.0077706176398
 30
0.0
 10
217.8567587449575
 20
126.0286909427488
 30
0.0
 10
216.8945012855782
 20
126.0704868525596
 30
0.0
 10
215.5949350564525
 20
126.3584291936053
 30
0.0
 10
214.5649515397322
 20
126.6821653777128
 30
0.0
 10
213.9210994583933
 20
126.9361180099111
 30
0.0
 10
213.8942533181748
 20
126.9475165219401
 30
0.0
 10
213.8829404004942
 20
126.95231983546
 30
0.0
  0
LINE
  5
109
330
1F
100
AcDbEntity
  8
0
  6
HIDDEN
 62
     7
370
     0
100
AcDbLine
 10
217.904562641
 20
126.0382453549
 30
0.0
 11
218.7662222871
 21
126.0305358667
 31
0.0
  0
SPLINE
  5
10A
330
1F
100
AcDbEntity
  8
0
  6
HIDDEN
 62
     7
370
     0
100
AcDbSpline
210
0.0
220
0.0
230
1.0
 70
     8
 71
     3
 72
    13
 73
     9
 74
     0
 42
0.000000001
 43
0.00000001
 40
0.0
 40
0.0
 40
0.0
 40
0.0
 40
0.1295022883308567
 40
0.3267592751708848
 40
0.5329364686426823
 40
0.7525330251932782
 40
0.9700618846152944
 40
0.9999999999999999
 40
0.9999999999999999
 40
0.9999999999999999
 40
0.9999999999999999
 10
222.7838957198988
 20
126.9481903511641
 30
0.0
 10
222.786872817212
 20
126.9493009151098
 30
0.0
 10
222.7943846084919
 20
126.9521030823503
 30
0.0
 10
222.2932693246184
 20
126.7520324052471
 30
0.0
 10
221.3880064266913
 20
126.4434507478141
 30
0.0
 10
220.0986653772893
 20
126.1276874470536
 30
0.0
 10
218.9961159661383
 20
126.0121559449797
 30
0.0
 10
218.4093842591421
 20
126.0082438909882
 30
0.0
 10
218.3384024986158
 20
126.0077706176398
 30
0.0
  0
LINE
  5
10B
330
1F
100
AcDbEntity
  8
0
  6
HIDDEN
 62
     7
370
     0
100
AcDbLine
 10
133.588403741
 20
140.7703416992
 30
0.0
 11
133.925662188
 21
140.7703416992
 31
0.0
  0
ELLIPSE
  5
10C
330
1F
100
AcDbEntity
  8
0
  6
HIDDEN
 62
     7
370
     0
100
AcDbEllipse
 10
133.925662122
 20
142.3703409869
 30
0.0
 11
0.0
 21
1.599999999999994
 31
0.0
210
0.0
220
0.0
230
1.0
 40
0.4142135624
 41
3.141592653589793
 42
4.712388980384695
  0
LINE
  5
10D
330
1F
100
AcDbEntity
  8
0
  6
HIDDEN
 62
     7
370
     0
100
AcDbLine
 10
133.925662188
 20
93.3703402627
 30
0.0
 11
133.588403741
 21
93.3703402627
 31
0.0
  0
ELLIPSE
  5
10E
330
1F
100
AcDbEntity
  8
0
  6
HIDDEN
 62
     7
370
     0
100
AcDbEllipse
 10
133.925662122
 20
91.7703409869
 30
0.0
 11
0.0
 21
1.600000000000009
 31
0.0
210
0.0
220
0.0
230
1.0
 40
0.4142135624
 41
4.712388980384695
 42
6.283185307179586
  0
LINE
  5
10F
330
1F
100
AcDbEntity
  8
0
  6
HIDDEN
 62
     7
370
     0
100
AcDbLine
 10
134.5884036721
 20
86.0768924106
 30
0.0
 11
133.8045483437
 21
85.6186109233
 31
0.0
  0
LINE
  5
110
330
1F
100
AcDbEntity
  8
0
  6
HIDDEN
 62
     7
370
     0
100
AcDbLine
 10
133.8756455091
 20
146.3956380833
 30
0.0
 11
134.5884036721
 21
145.6828782905
 31
0.0
  0
LINE
  5
111
330
1F
100
AcDbEntity
  8
0
  6
HIDDEN
 62
     7
370
     0
100
AcDbLine
 10
69.1384026297
 20
107.4703405249
 30
0.0
 11
69.1384026297
 21
124.4703414488
 31
0.0
  0
LINE
  5
112
330
1F
100
AcDbEntity
  8
0
  6
HIDDEN
 62
     7
370
     0
100
AcDbLine
 10
72.1343332418
 20
108.9703407708
 30
0.0
 11
72.1343332418
 21
122.970341203
 31
0.0
  0
LINE
  5
113
330
1F
100
AcDbEntity
  8
0
  6
HIDDEN
 62
     7
370
     0
100
AcDbLine
 10
138.4236137831
 20
86.0768924106
 30
0.0
 11
134.5884036721
 21
86.0768924106
 31
0.0
  0
LINE
  5
114
330
1F
100
AcDbEntity
  8
0
  6
HIDDEN
 62
     7
370
     0
100
AcDbLine
 10
149.4384040573
 20
86.0768924106
 30
0.0
 11
144.5531934016
 21
86.0768924106
 31
0.0
  0
LINE
  5
115
330
1F
100
AcDbEntity
  8
0
  6
HIDDEN
 62
     7
370
     0
100
AcDbLine
 10
134.5884036721
 20
86.0768924106
 30
0.0
 11
134.5884036721
 21
91.770341118
 31
0.0
  0
LINE
  5
116
330
1F
100
AcDbEntity
  8
0
  6
HIDDEN
 62
     7
370
     0
100
AcDbLine
 10
149.4384040573
 20
93.3703402627
 30
0.0
 11
133.925662188
 21
93.3703402627
 31
0.0
  0
LINE
  5
117
330
1F
100
AcDbEntity
  8
0
  6
HIDDEN
 62
     7
370
     0
100
AcDbLine
 10
134.5884036721
 20
145.6828782905
 30
0.0
 11
138.5244490096
 21
145.6828782905
 31
0.0
  0
LINE
  5
118
330
1F
100
AcDbEntity
  8
0
  6
HIDDEN
 62
     7
370
     0
100
AcDbLine
 10
144.4523581752
 20
145.6828782905
 30
0.0
 11
149.4384040573
 21
145.6828782905
 31
0.0
  0
LINE
  5
119
330
1F
100
AcDbEntity
  8
0
  6
HIDDEN
 62
     7
370
     0
100
AcDbLine
 10
134.5884036721
 20
145.6828782905
 30
0.0
 11
134.5884036721
 21
142.3703408438
 31
0.0
  0
LINE
  5
11A
330
1F
100
AcDbEntity
  8
0
  6
HIDDEN
 62
     7
370
     0
100
AcDbLine
 10
133.925662188
 20
140.7703416992
 30
0.0
 11
149.4384040573
 21
140.7703416992
 31
0.0
  0
LINE
  5
11B
330
1F
100
AcDbEntity
  8
0
  6
HIDDEN
 62
     7
370
     0
100
AcDbLine
 10
105.1384029427
 20
108.9703407708
 30
0.0
 11
105.1384029427
 21
122.970341203
 31
0.0
  0
LINE
  5
11C
330
1F
100
AcDbEntity
  8
0
  6
HIDDEN
 62
     7
370
     0
100
AcDbLine
 10
107.3015020677
 20
119.370341032
 30
0.0
 11
107.3015020677
 21
112.5703409418
 31
0.0
  0
LINE
  5
11D
330
1F
100
AcDbEntity
  8
0
  6
HIDDEN
 62
     7
370
     0
100
AcDbLine
 10
218.3384024986
 20
134.2203407187
 30
0.0
 11
222.8384041675
 21
134.2203407187
 31
0.0
  0
LINE
  5
11E
330
1F
100
AcDbEntity
  8
0
  6
HIDDEN
 62
     7
370
     0
100
AcDbLine
 10
213.8384008297
 20
134.2203407187
 30
0.0
 11
218.3384024986
 21
134.2203407187
 31
0.0
  0
LINE
  5
11F
330
1F
100
AcDbEntity
  8
0
  6
HIDDEN
 62
     7
370
     0
100
AcDbLine
 10
148.1973720231
 20
119.370341032
 30
0.0
 11
148.1973720231
 21
112.5703409418
 31
0.0
  0
SPLINE
  5
120
330
1F
100
AcDbEntity
  8
0
  6
HIDDEN
 62
     7
370
     0
100
AcDbSpline
210
0.0
220
0.0
230
1.0
 70
    11
 71
     3
 72
    56
 73
    52
 74
     0
 42
0.000000001
 43
0.00000001
 40
0.0
 40
0.0
 40
0.0
 40
0.0
 40
0.0312500000000001
 40
0.0312500000000001
 40
0.0625000000000003
 40
0.0625000000000003
 40
0.1250000000000006
 40
0.1250000000000006
 40
0.1875000000000008
 40
0.1875000000000008
 40
0.218750000000001
 40
0.218750000000001
 40
0.2500000000000011
 40
0.2500000000000011
 40
0.2812500000000012
 40
0.2812500000000012
 40
0.3125000000000014
 40
0.3125000000000014
 40
0.3437500000000016
 40
0.3437500000000016
 40
0.3750000000000017
 40
0.3750000000000017
 40
0.4375000000000023
 40
0.4375000000000023
 40
0.5000000000000029
 40
0.5000000000000029
 40
0.5312500000000029
 40
0.5312500000000029
 40
0.562500000000003
 40
0.562500000000003
 40
0.6250000000000027
 40
0.6250000000000027
 40
0.6562500000000024
 40
0.6562500000000024
 40
0.6875000000000023
 40
0.6875000000000023
 40
0.750000000000002
 40
0.750000000000002
 40
0.7812500000000018
 40
0.7812500000000018
 40
0.8125000000000016
 40
0.8125000000000016
 40
0.8750000000000013
 40
0.8750000000000013
 40
0.906250000000001
 40
0.906250000000001
 40
0.9375000000000007
 40
0.9375000000000007
 40
0.9687500000000004
 40
0.9687500000000004
 40
1.0
 40
1.0
 40
1.0
 40
1.0
 10
143.3884038218389
 20
115.4366033528699
 30
0.0
 10
143.2775363320375
 20
115.4366033528699
 30
0.0
 10
143.1689417051929
 20
115.449116251382
 30
0.0
 10
142.9559546895006
 20
115.4973886657736
 30
0.0
 10
142.8505183380022
 20
115.5337904789302
 30
0.0
 10
142.5525876886413
 20
115.6723551150619
 30
0.0
 10
142.3725045766465
 20
115.805927530971
 30
0.0
 10
142.0729622517096
 20
116.1242959083725
 30
0.0
 10
141.9506582748467
 20
116.3124150162289
 30
0.0
 10
141.825760178616
 20
116.610997313744
 30
0.0
 10
141.7930187957121
 20
116.7155583608824
 30
0.0
 10
141.7496462894745
 20
116.9235850553836
 30
0.0
 10
141.7386131039737
 20
117.0271846487997
 30
0.0
 10
141.7382003798505
 20
117.2333992894933
 30
0.0
 10
141.7491896367069
 20
117.3358326154193
 30
0.0
 10
141.7919770287772
 20
117.5294291529494
 30
0.0
 10
141.8240264753488
 20
117.6226563067545
 30
0.0
 10
141.9078024627767
 20
117.7980408944741
 30
0.0
 10
141.9586851493707
 20
117.8788884253188
 30
0.0
 10
142.0777654625537
 20
118.0286211848154
 30
0.0
 10
142.1464450920143
 20
118.0976311065564
 30
0.0
 10
142.371175527458
 20
118.2808378982135
 30
0.0
 10
142.5516921744716
 20
118.3759272742627
 30
0.0
 10
142.9460882482897
 20
118.5033810734816
 30
0.0
 10
143.1659724233315
 20
118.5371771282297
 30
0.0
 10
143.4934508137008
 20
118.5377891735463
 30
0.0
 10
143.6046808019317
 20
118.5296657691666
 30
0.0
 10
143.8186911654578
 20
118.4973981503243
 30
0.0
 10
143.9222285251255
 20
118.4734639428228
 30
0.0
 10
144.2230344087208
 20
118.3772622680491
 30
0.0
 10
144.4024725327391
 20
118.2828599971256
 30
0.0
 10
144.6283288819044
 20
118.0995592578203
 30
0.0
 10
144.6958487262575
 20
118.0320700657964
 30
0.0
 10
144.815507946573
 20
117.8827156709437
 30
0.0
 10
144.8675444144127
 20
117.8004116069659
 30
0.0
 10
144.9926272560121
 20
117.54057327961
 30
0.0
 10
145.0379711707976
 20
117.3413973309356
 30
0.0
 10
145.0386153614699
 20
117.0336884711489
 30
0.0
 10
145.0278219255561
 20
116.9280414729123
 30
0.0
 10
144.9847165757546
 20
116.7187661999617
 30
0.0
 10
144.952901622803
 20
116.6161803385098
 30
0.0
 10
144.8277480861627
 20
116.314782590605
 30
0.0
 10
144.7063671618883
 20
116.1272365328506
 30
0.0
 10
144.4794400534267
 20
115.8856579462048
 30
0.0
 10
144.3976122602773
 20
115.8129941543414
 30
0.0
 10
144.2212616706272
 20
115.6836556942122
 30
0.0
 10
144.1254930637482
 20
115.6264865013284
 30
0.0
 10
143.9268697790164
 20
115.5340124340988
 30
0.0
 10
143.8240115880828
 20
115.4983344889425
 30
0.0
 10
143.6106293684085
 20
115.4495189267976
 30
0.0
 10
143.4992713116403
 20
115.4366033528699
 30
0.0
 10
143.3884038218389
 20
115.4366033528699
 30
0.0
  0
LINE
  5
121
330
1F
100
AcDbEntity
  8
0
  6
HIDDEN
 62
     7
370
     0
100
AcDbLine
 10
148.138404403
 20
115.9703409869
 30
0.0
 11
148.138404403
 21
112.5703409418
 31
0.0
  0
LINE
  5
122
330
1F
100
AcDbEntity
  8
0
  6
HIDDEN
 62
     7
370
     0
100
AcDbLine
 10
148.138404403
 20
119.370341032
 30
0.0
 11
148.138404403
 21
115.9703409869
 31
0.0
  0
ELLIPSE
  5
123
330
1F
100
AcDbEntity
  8
0
  6
HIDDEN
 62
     7
370
     0
100
AcDbEllipse
 10
143.3884038218
 20
122.8579310474
 30
0.0
 11
-1.383467579512086
 21
1.753907414218503
 31
0.0
210
0.0
220
0.0
230
1.0
 40
0.5126701559
 41
5.288724596347239
 42
8.430317249937037
  0
ELLIPSE
  5
124
330
1F
100
AcDbEntity
  8
0
  6
HIDDEN
 62
     7
370
     0
100
AcDbEllipse
 10
143.3884038218
 20
122.8579310474
 30
0.0
 11
1.383467579512143
 21
1.091267719176599
 31
0.0
210
0.0
220
0.0
230
1.0
 40
0.8239737799
 41
0.9520594635583082
 42
0.9944607108323564
  0
SPLINE
  5
125
330
1F
100
AcDbEntity
  8
0
  6
HIDDEN
 62
     7
370
     0
100
AcDbSpline
210
0.0
220
0.0
230
1.0
 70
     8
 71
     3
 72
     8
 73
     4
 74
     0
 42
0.000000001
 43
0.00000001
 40
0.0
 40
0.0
 40
0.0
 40
0.0
 40
1.0
 40
1.0
 40
1.0
 40
1.0
 10
143.458344917994
 20
124.4194829132526
 30
0.0
 10
143.4413601918917
 20
124.4123672032029
 30
0.0
 10
143.4243560473506
 20
124.4044920736812
 30
0.0
 10
143.4073571632712
 20
124.395868954227
 30
0.0
  0
ELLIPSE
  5
126
330
1F
100
AcDbEntity
  8
0
  6
HIDDEN
 62
     7
370
     0
100
AcDbEllipse
 10
143.3884038218
 20
122.8579310474
 30
0.0
 11
-1.383467579512086
 21
1.753907414218503
 31
0.0
210
0.0
220
0.0
230
1.0
 40
0.5126701559
 41
5.277237470124732
 42
5.288724596347227
  0
ELLIPSE
  5
127
330
1F
100
AcDbEntity
  8
0
  6
HIDDEN
 62
     7
370
     0
100
AcDbEllipse
 10
143.3884038218
 20
122.8579310474
 30
0.0
 11
1.383467579512143
 21
1.091267719176599
 31
0.0
210
0.0
220
0.0
230
1.0
 40
0.8239737799
 41
0.9944607108323584
 42
4.136053364422182
  0
ELLIPSE
  5
128
330
1F
100
AcDbEntity
  8
0
  6
HIDDEN
 62
     7
370
     0
100
AcDbEllipse
 10
143.3884038218
 20
122.8579310474
 30
0.0
 11
-1.383467579512086
 21
1.753907414218503
 31
0.0
210
0.0
220
0.0
230
1.0
 40
0.5126701559
 41
2.147131942757438
 42
2.15861906897995
  0
SPLINE
  5
129
330
1F
100
AcDbEntity
  8
0
  6
HIDDEN
 62
     7
370
     0
100
AcDbSpline
210
0.0
220
0.0
230
1.0
 70
     8
 71
     3
 72
     8
 73
     4
 74
     0
 42
0.000000001
 43
0.00000001
 40
0.0
 40
0.0
 40
0.0
 40
0.0
 40
1.0
 40
1.0
 40
1.0
 40
1.0
 10
143.4073571632712
 20
121.2950878972206
 30
0.0
 10
143.4243560473506
 20
121.303071170734
 30
0.0
 10
143.4413601918917
 20
121.3118075731818
 30
0.0
 10
143.458344917994
 20
121.3212844250193
 30
0.0
  0
ELLIPSE
  5
12A
330
1F
100
AcDbEntity
  8
0
  6
HIDDEN
 62
     7
370
     0
100
AcDbEllipse
 10
143.3884038218
 20
122.8579310474
 30
0.0
 11
1.383467579512143
 21
1.091267719176599
 31
0.0
210
0.0
220
0.0
230
1.0
 40
0.8239737799
 41
4.13605336442218
 42
4.178454611696248
  0
LWPOLYLINE
  5
12B
330
1F
100
AcDbEntity
  8
0
  6
HIDDEN
 62
     7
370
     0
100
AcDbPolyline
 90
       19
 70
   128
 43
0.0
 10
143.3884040901
 20
122.4137516331
 10
143.9527371415
 20
122.5072578165
 10
144.4490035513
 20
122.7764980506
 10
144.8173453548
 20
123.1889980483
 10
145.0133366027
 20
123.6950042296
 10
145.0133366027
 20
124.2334846977
 10
144.8173453548
 20
124.7394908789
 10
144.4490035513
 20
125.1519913423
 10
143.9527371415
 20
125.4212311107
 10
143.3884040901
 20
125.5147377599
 10
142.8240710386
 20
125.4212311107
 10
142.3278046289
 20
125.1519913423
 10
141.959461894
 20
124.7394908789
 10
141.7634706461
 20
124.2334846977
 10
141.7634706461
 20
123.6950042296
 10
141.959461894
 20
123.1889980483
 10
142.3278046289
 20
122.7764980506
 10
142.8240710386
 20
122.5072578165
 10
143.3884040901
 20
122.4137516331
  0
LINE
  5
12C
330
1F
100
AcDbEntity
  8
0
  6
HIDDEN
 62
     7
370
     0
100
AcDbLine
 10
139.5784034842
 20
138.1675819505
 30
0.0
 11
139.5784034842
 21
134.3203405488
 31
0.0
  0
SPLINE
  5
12D
330
1F
100
AcDbEntity
  8
0
  6
HIDDEN
 62
     7
370
     0
100
AcDbSpline
210
0.0
220
0.0
230
1.0
 70
     8
 71
     3
 72
    14
 73
    10
 74
     0
 42
0.000000001
 43
0.00000001
 40
0.0
 40
0.0
 40
0.0
 40
0.0
 40
0.25
 40
0.25
 40
0.5
 40
0.5
 40
0.75
 40
0.75
 40
1.0
 40
1.0
 40
1.0
 40
1.0
 10
142.5984038218388
 20
127.2528201769915
 30
0.0
 10
142.6960860729529
 20
127.2913424910239
 30
0.0
 10
142.7981995819901
 20
127.3289578504827
 30
0.0
 10
142.990371753159
 20
127.4000665760696
 30
0.0
 10
143.0817904264858
 20
127.4342726265737
 30
0.0
 10
143.2333064155001
 20
127.5011621049306
 30
0.0
 10
143.294453618039
 20
127.5344325674915
 30
0.0
 10
143.3771603197274
 20
127.6038309175854
 30
0.0
 10
143.3984038218389
 20
127.6396080231813
 30
0.0
 10
143.3984038218389
 20
127.676103355432
 30
0.0
  0
LINE
  5
12E
330
1F
100
AcDbEntity
  8
0
  6
HIDDEN
 62
     7
370
     0
100
AcDbLine
 10
143.3984037005
 20
138.1675819505
 30
0.0
 11
143.3984037005
 21
134.3203405488
 31
0.0
  0
LINE
  5
12F
330
1F
100
AcDbEntity
  8
0
  6
HIDDEN
 62
     7
370
     0
100
AcDbLine
 10
143.3984037005
 20
107.9690581757
 30
0.0
 11
143.3984037005
 21
104.2103352595
 31
0.0
  0
SPLINE
  5
130
330
1F
100
AcDbEntity
  8
0
  6
HIDDEN
 62
     7
370
     0
100
AcDbSpline
210
0.0
220
0.0
230
1.0
 70
     8
 71
     3
 72
    14
 73
    10
 74
     0
 42
0.000000001
 43
0.00000001
 40
0.0
 40
0.0
 40
0.0
 40
0.0
 40
0.2500000000000005
 40
0.2500000000000005
 40
0.5000000000000003
 40
0.5000000000000003
 40
0.7500000000000001
 40
0.7500000000000001
 40
1.0
 40
1.0
 40
1.0
 40
1.0
 10
143.3984038218389
 20
123.917379857213
 30
0.0
 10
143.3984038218389
 20
123.8808909263058
 30
0.0
 10
143.3772344456666
 20
123.844392134572
 30
0.0
 10
143.2944888278143
 20
123.7790167868351
 30
0.0
 10
143.2336352029865
 20
123.7510799524887
 30
0.0
 10
143.0820303362954
 20
123.717188923242
 30
0.0
 10
142.9908080258282
 20
123.7117634706555
 30
0.0
 10
142.798477476125
 20
123.7326827944681
 30
0.0
 10
142.6962265916479
 20
123.7592389419086
 30
0.0
 10
142.5984038218388
 20
123.7997087002144
 30
0.0
  0
LINE
  5
131
330
1F
100
AcDbEntity
  8
0
  6
HIDDEN
 62
     7
370
     0
100
AcDbLine
 10
137.9665672296
 20
141.8805713404
 30
0.0
 11
137.9665672296
 21
134.3203405488
 31
0.0
  0
LINE
  5
132
330
1F
100
AcDbEntity
  8
0
  6
HIDDEN
 62
     7
370
     0
100
AcDbLine
 10
145.0102408865
 20
106.2183207471
 30
0.0
 11
145.0102408865
 21
104.0188413683
 31
0.0
  0
LINE
  5
133
330
1F
100
AcDbEntity
  8
0
  6
HIDDEN
 62
     7
370
     0
100
AcDbLine
 10
145.0102408865
 20
141.8805713404
 30
0.0
 11
145.0102408865
 21
134.3203405488
 31
0.0
  0
SPLINE
  5
134
330
1F
100
AcDbEntity
  8
0
  6
HIDDEN
 62
     7
370
     0
100
AcDbSpline
210
0.0
220
0.0
230
1.0
 70
     8
 71
     3
 72
    10
 73
     6
 74
     0
 42
0.000000001
 43
0.00000001
 40
0.0
 40
0.0
 40
0.0
 40
0.0
 40
0.5
 40
0.5
 40
1.0
 40
1.0
 40
1.0
 40
1.0
 10
141.4125130591985
 20
123.7168801563523
 30
0.0
 10
141.3969070082173
 20
123.8221523569608
 30
0.0
 10
141.3884025451887
 20
123.9260908547517
 30
0.0
 10
141.3884050987784
 20
124.1256041267077
 30
0.0
 10
141.3969026863789
 20
124.2168166213781
 30
0.0
 10
141.4125130591985
 20
124.2987485537212
 30
0.0
  0
SPLINE
  5
135
330
1F
100
AcDbEntity
  8
0
  6
HIDDEN
 62
     7
370
     0
100
AcDbSpline
210
0.0
220
0.0
230
1.0
 70
     8
 71
     3
 72
    14
 73
    10
 74
     0
 42
0.000000001
 43
0.00000001
 40
0.0
 40
0.0
 40
0.0
 40
0.0
 40
0.25
 40
0.25
 40
0.5
 40
0.5
 40
0.75
 40
0.75
 40
1.0
 40
1.0
 40
1.0
 40
1.0
 10
141.4125130591985
 20
124.2987485537212
 30
0.0
 10
141.4488768872287
 20
124.2532539183194
 30
0.0
 10
141.4813546144389
 20
124.2048621121031
 30
0.0
 10
141.5301082438546
 20
124.0993769681736
 30
0.0
 10
141.5450120215291
 20
124.0427924599307
 30
0.0
 10
141.5450224551867
 20
123.9339048659802
 30
0.0
 10
141.5301321593786
 20
123.8817202002176
 30
0.0
 10
141.481243228501
 20
123.7904428012741
 30
0.0
 10
141.4488710502306
 20
123.7517760959
 30
0.0
 10
141.4125130591985
 20
123.7168801563522
 30
0.0
  0
LWPOLYLINE
  5
136
330
1F
100
AcDbEntity
  8
0
  6
HIDDEN
 62
     7
370
     0
100
AcDbPolyline
 90
       19
 70
   128
 43
0.0
 10
134.2201312521
 20
123.9503868494
 10
134.3673109525
 20
123.5408000286
 10
134.6061295346
 20
123.2874812197
 10
134.9077825883
 20
123.2209843222
 10
135.2358866
 20
123.3493298862
 10
135.550866414
 20
123.6570374678
 10
135.8147319854
 20
124.1069924656
 10
135.9956562967
 20
124.6449243847
 10
136.0718175286
 20
125.205951241
 10
136.0340295808
 20
125.7224031362
 10
135.886850346
 20
126.1319894913
 10
135.6480312982
 20
126.3853083003
 10
135.3463782446
 20
126.4518047321
 10
135.0182742328
 20
126.3234600994
 10
134.7032944189
 20
126.0157520521
 10
134.4394288474
 20
125.5657965887
 10
134.2585047689
 20
125.0278646696
 10
134.1823435371
 20
124.4668387446
 10
134.2201312521
 20
123.9503868494
  0
LWPOLYLINE
  5
137
330
1F
100
AcDbEntity
  8
0
  6
HIDDEN
 62
     7
370
     0
100
AcDbPolyline
 90
       20
 70
   128
 43
0.0
 10
141.4125129097
 20
123.7168800655
 10
141.6050508135
 20
123.1570671882
 10
141.9723476731
 20
122.6806225825
 10
142.4784097337
 20
122.3342353116
 10
143.0736459308
 20
122.1518492896
 10
143.6997275316
 20
122.1513379935
 10
144.2952999362
 20
122.3327507834
 10
144.8020027467
 20
122.6783105742
 10
145.1701797062
 20
123.1541544769
 10
145.3637532407
 20
123.7136525672
 10
145.3637532407
 20
124.3019760225
 10
145.1701797062
 20
124.8614736471
 10
144.8020027467
 20
125.3373180154
 10
144.2952999362
 20
125.6828778062
 10
143.6997275316
 20
125.8642910618
 10
143.0736459308
 20
125.8637788344
 10
142.4784097337
 20
125.681393278
 10
141.9723476731
 20
125.3350064728
 10
141.6050508135
 20
124.8585614014
 10
141.4125129097
 20
124.2987489897
  0
SPLINE
  5
138
330
1F
100
AcDbEntity
  8
0
  6
HIDDEN
 62
     7
370
     0
100
AcDbSpline
210
0.0
220
0.0
230
1.0
 70
     8
 71
     3
 72
    12
 73
     8
 74
     0
 42
0.000000001
 43
0.00000001
 40
0.0
 40
0.0
 40
0.0
 40
0.0
 40
0.2499999999999997
 40
0.2499999999999997
 40
0.4999999999999993
 40
0.4999999999999993
 40
1.0
 40
1.0
 40
1.0
 40
1.0
 10
145.0102404638956
 20
127.9218407850904
 30
0.0
 10
145.1331879576912
 20
127.7638839363953
 30
0.0
 10
145.2267321608001
 20
127.5920505694178
 30
0.0
 10
145.3556715499623
 20
127.220377859772
 30
0.0
 10
145.3882243073474
 20
127.0271894135807
 30
0.0
 10
145.3887606490812
 20
126.4388928753045
 30
0.0
 10
145.2561369921132
 20
126.0468746374158
 30
0.0
 10
145.0102404638956
 20
125.7223610547071
 30
0.0
  0
SPLINE
  5
139
330
1F
100
AcDbEntity
  8
0
  6
HIDDEN
 62
     7
370
     0
100
AcDbSpline
210
0.0
220
0.0
230
1.0
 70
     8
 71
     3
 72
    12
 73
     8
 74
     0
 42
0.000000001
 43
0.00000001
 40
0.0
 40
0.0
 40
0.0
 40
0.0
 40
0.2500000000000003
 40
0.2500000000000003
 40
0.5000000000000007
 40
0.5000000000000007
 40
1.0
 40
1.0
 40
1.0
 40
1.0
 10
145.0102404638956
 20
125.7223610547071
 30
0.0
 10
144.895344412635
 20
125.5026206196505
 30
0.0
 10
144.7685783961623
 20
125.3056522680288
 30
0.0
 10
144.5083634625438
 20
124.9519346951899
 30
0.0
 10
144.3748560045816
 20
124.7951094013177
 30
0.0
 10
143.9664577359933
 20
124.36856683041
 30
0.0
 10
143.6828046010558
 20
124.1418746514547
 30
0.0
 10
143.3984038218391
 20
123.9716235070593
 30
0.0
  0
SPLINE
  5
13A
330
1F
100
AcDbEntity
  8
0
  6
HIDDEN
 62
     7
370
     0
100
AcDbSpline
210
0.0
220
0.0
230
1.0
 70
     8
 71
     3
 72
    12
 73
     8
 74
     0
 42
0.000000001
 43
0.00000001
 40
0.0
 40
0.0
 40
0.0
 40
0.0
 40
0.5000000000000013
 40
0.5000000000000013
 40
0.7500000000000007
 40
0.7500000000000007
 40
1.0
 40
1.0
 40
1.0
 40
1.0
 10
143.3984038218389
 20
127.7303470052803
 30
0.0
 10
143.6826103564042
 20
127.8978111675741
 30
0.0
 10
143.961306090508
 20
128.0094482670856
 30
0.0
 10
144.3706521336973
 20
128.076761532725
 30
0.0
 10
144.5067914710168
 20
128.081912572739
 30
0.0
 10
144.7681115200129
 20
128.0441466351196
 30
0.0
 10
144.8935327024446
 20
128.0025968767754
 30
0.0
 10
145.0102404638961
 20
127.9218407850926
 30
0.0
  0
SPLINE
  5
13B
330
1F
100
AcDbEntity
  8
0
  6
HIDDEN
 62
     7
370
     0
100
AcDbSpline
210
0.0
220
0.0
230
1.0
 70
     8
 71
     3
 72
    11
 73
     7
 74
     0
 42
0.000000001
 43
0.00000001
 40
0.0
 40
0.0
 40
0.0
 40
0.0
 40
0.1586629657729187
 40
0.4474174176205519
 40
0.7365954204410801
 40
1.0
 40
1.0
 40
1.0
 40
1.0
 10
141.416458923472
 20
125.5457936424372
 30
0.0
 10
141.412117911541
 20
125.6619388720704
 30
0.0
 10
141.3998765902058
 20
125.9894595285657
 30
0.0
 10
141.6289659948612
 20
126.4929543225369
 30
0.0
 10
142.0377208238726
 20
126.9754700683888
 30
0.0
 10
142.4174128615145
 20
127.1632903639986
 30
0.0
 10
142.5984041282068
 20
127.2528203773854
 30
0.0
  0
LWPOLYLINE
  5
13C
330
1F
100
AcDbEntity
  8
0
  6
HIDDEN
 62
     7
370
     0
100
AcDbPolyline
 90
       21
 70
   128
 43
0.0
 10
133.838615425
 20
123.7408783856
 10
134.0014592727
 20
123.2636361021
 10
134.2613536847
 20
122.9434916388
 10
134.592858188
 20
122.8117826033
 10
134.9635231757
 20
122.8814022254
 10
135.3370650188
 20
123.1455350864
 10
135.6769190618
 20
123.5783262748
 10
135.9498179966
 20
124.1374113235
 10
136.1290482321
 20
124.7680629242
 10
136.197066445
 20
125.4085483599
 10
136.1472132132
 20
125.9961728576
 10
135.9843695984
 20
126.4734151411
 10
135.7244751864
 20
126.7935591388
 10
135.3929704503
 20
126.92526864
 10
135.0223054626
 20
126.8556485522
 10
134.6487636195
 20
126.5915161568
 10
134.3089095765
 20
126.1587249685
 10
134.0360106417
 20
125.5996399197
 10
133.8567801734
 20
124.9689883191
 10
133.7887624261
 20
124.3285028834
 10
133.838615425
 20
123.7408783856
  0
LINE
  5
13D
330
1F
100
AcDbEntity
  8
0
  6
HIDDEN
 62
     7
370
     0
100
AcDbLine
 10
219.9277156481
 20
135.270341729
 30
0.0
 11
223.3384051808
 21
135.270341729
 31
0.0
  0
LINE
  5
13E
330
1F
100
AcDbEntity
  8
0
  6
HIDDEN
 62
     7
370
     0
100
AcDbLine
 10
213.338407267
 20
135.270341729
 30
0.0
 11
216.5685096272
 21
135.270341729
 31
0.0
  0
LINE
  5
13F
330
1F
100
AcDbEntity
  8
0
  6
HIDDEN
 62
     7
370
     0
100
AcDbLine
 10
217.5603756198
 20
128.7478399101
 30
0.0
 11
223.3384051808
 21
128.7478399101
 31
0.0
  0
LINE
  5
140
330
1F
100
AcDbEntity
  8
0
  6
HIDDEN
 62
     7
370
     0
100
AcDbLine
 10
213.338407267
 20
128.7478399101
 30
0.0
 11
217.5603756198
 21
128.7478399101
 31
0.0
  0
LINE
  5
141
330
1F
100
AcDbEntity
  8
0
  6
HIDDEN
 62
     7
370
     0
100
AcDbLine
 10
217.8996303567
 20
121.4703409571
 30
0.0
 11
221.158208836
 21
121.4703409571
 31
0.0
  0
LINE
  5
142
330
1F
100
AcDbEntity
  8
0
  6
HIDDEN
 62
     7
370
     0
100
AcDbLine
 10
215.5186036118
 20
121.4703409571
 30
0.0
 11
217.8996303567
 21
121.4703409571
 31
0.0
  0
SPLINE
  5
143
330
1F
100
AcDbEntity
  8
0
  6
HIDDEN
 62
     7
370
     0
100
AcDbSpline
210
0.0
220
0.0
230
1.0
 70
     8
 71
     3
 72
    10
 73
     6
 74
     0
 42
0.000000001
 43
0.00000001
 40
0.0
 40
0.0
 40
0.0
 40
0.0
 40
0.4391258813989651
 40
0.7513737753541946
 40
1.0
 40
1.0
 40
1.0
 40
1.0
 10
219.3751880415807
 20
135.8570917147753
 30
0.0
 10
219.6349981438588
 20
135.6858648971933
 30
0.0
 10
220.0795506188847
 20
135.3928843514813
 30
0.0
 10
220.7257719720476
 20
135.5231215017676
 30
0.0
 10
221.0474142903486
 20
135.7545176344837
 30
0.0
 10
221.1899930127989
 20
135.8570917147753
 30
0.0
  0
SPLINE
  5
144
330
1F
100
AcDbEntity
  8
0
  6
HIDDEN
 62
     7
370
     0
100
AcDbSpline
210
0.0
220
0.0
230
1.0
 70
     8
 71
     3
 72
    10
 73
     6
 74
     0
 42
0.000000001
 43
0.00000001
 40
0.0
 40
0.0
 40
0.0
 40
0.0
 40
0.4391254469889075
 40
0.7513743692729966
 40
1.0
 40
1.0
 40
1.0
 40
1.0
 10
221.1899930127989
 20
135.8570917147753
 30
0.0
 10
221.0415680856567
 20
135.6858650896465
 30
0.0
 10
220.7876026487171
 20
135.3928843518161
 30
0.0
 10
220.4184149417215
 20
135.5231207452401
 30
0.0
 10
220.2346670607486
 20
135.7545176269453
 30
0.0
 10
220.1532149204145
 20
135.8570917147753
 30
0.0
  0
SPLINE
  5
145
330
1F
100
AcDbEntity
  8
0
  6
HIDDEN
 62
     7
370
     0
100
AcDbSpline
210
0.0
220
0.0
230
1.0
 70
     8
 71
     3
 72
    11
 73
     7
 74
     0
 42
0.000000001
 43
0.00000001
 40
0.0
 40
0.0
 40
0.0
 40
0.0
 40
0.1849311452264442
 40
0.5198474294363762
 40
0.8714449275487244
 40
1.0
 40
1.0
 40
1.0
 40
1.0
 10
220.1532149204145
 20
135.8570917147753
 30
0.0
 10
219.9872378745434
 20
135.7790873710261
 30
0.0
 10
219.5206710313225
 20
135.5598146382842
 30
0.0
 10
218.6497376393166
 20
135.3978094322066
 30
0.0
 10
217.8453944178664
 20
135.5961908871906
 30
0.0
 10
217.4164650757133
 20
135.8019911666261
 30
0.0
 10
217.3016244062315
 20
135.8570917147753
 30
0.0
  0
SPLINE
  5
146
330
1F
100
AcDbEntity
  8
0
  6
HIDDEN
 62
     7
370
     0
100
AcDbSpline
210
0.0
220
0.0
230
1.0
 70
     8
 71
     3
 72
    10
 73
     6
 74
     0
 42
0.000000001
 43
0.00000001
 40
0.0
 40
0.0
 40
0.0
 40
0.0
 40
0.4391252003642758
 40
0.7513741609454131
 40
1.0
 40
1.0
 40
1.0
 40
1.0
 10
217.3016244062315
 20
135.8570917147753
 30
0.0
 10
217.0418151433778
 20
135.6858650924421
 30
0.0
 10
216.5972631870779
 20
135.3928842760816
 30
0.0
 10
215.9510328180858
 20
135.5231208642532
 30
0.0
 10
215.6293903701155
 20
135.7545176351981
 30
0.0
 10
215.4868119844328
 20
135.8570917147753
 30
0.0
  0
SPLINE
  5
147
330
1F
100
AcDbEntity
  8
0
  6
HIDDEN
 62
     7
370
     0
100
AcDbSpline
210
0.0
220
0.0
230
1.0
 70
     8
 71
     3
 72
    10
 73
     6
 74
     0
 42
0.000000001
 43
0.00000001
 40
0.0
 40
0.0
 40
0.0
 40
0.0
 40
0.4391259512221414
 40
0.7513737390920935
 40
1.0
 40
1.0
 40
1.0
 40
1.0
 10
215.4868119844328
 20
135.8570917147753
 30
0.0
 10
215.6352416120522
 20
135.6858648778137
 30
0.0
 10
215.8892145871999
 20
135.3928843596667
 30
0.0
 10
216.2583865972417
 20
135.5231215638401
 30
0.0
 10
216.4421418427888
 20
135.7545176343354
 30
0.0
 10
216.5235975273977
 20
135.8570917147753
 30
0.0
  0
SPLINE
  5
148
330
1F
100
AcDbEntity
  8
0
  6
HIDDEN
 62
     7
370
     0
100
AcDbSpline
210
0.0
220
0.0
230
1.0
 70
     8
 71
     3
 72
    11
 73
     7
 74
     0
 42
0.000000001
 43
0.00000001
 40
0.0
 40
0.0
 40
0.0
 40
0.0
 40
0.1285550834396424
 40
0.480152569769372
 40
0.8150688658637681
 40
1.0
 40
1.0
 40
1.0
 40
1.0
 10
216.5235975273977
 20
135.8570917147753
 30
0.0
 10
216.6384381940944
 20
135.8019911669841
 30
0.0
 10
217.0673674884721
 20
135.5961909068172
 30
0.0
 10
217.87171082568
 20
135.3978094297722
 30
0.0
 10
218.7426441066309
 20
135.5598146240572
 30
0.0
 10
219.2092109912055
 20
135.7790873708313
 30
0.0
 10
219.3751880415807
 20
135.8570917147753
 30
0.0
  0
LINE
  5
149
330
1F
100
AcDbEntity
  8
0
  6
HIDDEN
 62
     7
370
     0
100
AcDbLine
 10
217.9493927845
 20
127.9703410912
 30
0.0
 11
220.8384001144
 21
127.9703410912
 31
0.0
  0
LINE
  5
14A
330
1F
100
AcDbEntity
  8
0
  6
HIDDEN
 62
     7
370
     0
100
AcDbLine
 10
215.8384048828
 20
127.9703410912
 30
0.0
 11
217.9493927845
 21
127.9703410912
 31
0.0
  0
LINE
  5
14B
330
1F
100
AcDbEntity
  8
0
  6
HIDDEN
 62
     7
370
     0
100
AcDbLine
 10
220.2825868019
 20
128.9703412551
 30
0.0
 11
219.3751880416
 21
128.9703412551
 31
0.0
  0
LINE
  5
14C
330
1F
100
AcDbEntity
  8
0
  6
HIDDEN
 62
     7
370
     0
100
AcDbLine
 10
219.3751880416
 20
128.9703412551
 30
0.0
 11
217.9493927845
 21
128.9703412551
 31
0.0
  0
LINE
  5
14D
330
1F
100
AcDbEntity
  8
0
  6
HIDDEN
 62
     7
370
     0
100
AcDbLine
 10
219.3751880416
 20
128.9703412551
 30
0.0
 11
219.3751880416
 21
135.8570917148
 31
0.0
  0
LINE
  5
14E
330
1F
100
AcDbEntity
  8
0
  6
HIDDEN
 62
     7
370
     0
100
AcDbLine
 10
217.9493927845
 20
128.9703412551
 30
0.0
 11
216.5235975274
 21
128.9703412551
 31
0.0
  0
LINE
  5
14F
330
1F
100
AcDbEntity
  8
0
  6
HIDDEN
 62
     7
370
     0
100
AcDbLine
 10
216.5235975274
 20
128.9703412551
 30
0.0
 11
216.0052084812
 21
128.9703412551
 31
0.0
  0
LINE
  5
150
330
1F
100
AcDbEntity
  8
0
  6
HIDDEN
 62
     7
370
     0
100
AcDbLine
 10
216.5235975274
 20
128.9703412551
 30
0.0
 11
216.5235975274
 21
135.8570917148
 31
0.0
  0
LINE
  5
151
330
1F
100
AcDbEntity
  8
0
  6
HIDDEN
 62
     7
370
     0
100
AcDbLine
 10
221.1899930128
 20
128.9703412551
 30
0.0
 11
220.2825868019
 21
128.9703412551
 31
0.0
  0
LINE
  5
152
330
1F
100
AcDbEntity
  8
0
  6
HIDDEN
 62
     7
370
     0
100
AcDbLine
 10
216.0052084812
 20
128.9703412551
 30
0.0
 11
215.4868119844
 21
128.9703412551
 31
0.0
  0
LINE
  5
153
330
1F
100
AcDbEntity
  8
0
  6
HIDDEN
 62
     7
370
     0
100
AcDbLine
 10
220.1532149204
 20
128.9703412551
 30
0.0
 11
220.1532149204
 21
135.8570917148
 31
0.0
  0
LINE
  5
154
330
1F
100
AcDbEntity
  8
0
  6
HIDDEN
 62
     7
370
     0
100
AcDbLine
 10
221.1899930128
 20
128.9703412551
 30
0.0
 11
221.1899930128
 21
135.8570917148
 31
0.0
  0
LINE
  5
155
330
1F
100
AcDbEntity
  8
0
  6
HIDDEN
 62
     7
370
     0
100
AcDbLine
 10
217.3016244062
 20
128.9703412551
 30
0.0
 11
217.3016244062
 21
135.8570917148
 31
0.0
  0
LINE
  5
156
330
1F
100
AcDbEntity
  8
0
  6
HIDDEN
 62
     7
370
     0
100
AcDbLine
 10
215.4868119844
 20
128.9703412551
 30
0.0
 11
215.4868119844
 21
135.8570917148
 31
0.0
  0
LWPOLYLINE
  5
157
330
1F
100
AcDbEntity
  8
0
  6
HIDDEN
 62
     7
370
     0
100
AcDbPolyline
 90
       14
 70
   128
 43
0.0
 10
141.3943111413
 20
106.5572569716
 10
141.3896219322
 20
106.7671845305
 10
141.5090184176
 20
107.344382872
 10
141.8123827764
 20
107.858660129
 10
142.2700179258
 20
108.2596759881
 10
142.8371291124
 20
108.5081761341
 10
143.4582029917
 20
108.5798353526
 10
144.0724437573
 20
108.4676393877
 10
144.6197270864
 20
108.1825708609
 10
145.0464786478
 20
107.752534059
 10
145.3109267616
 20
107.2196238312
 10
145.3871853166
 20
106.6360058833
 10
145.2677888312
 20
106.0588075418
 10
145.1971284562
 20
105.899538343
  0
ARC
  5
158
330
1F
100
AcDbEntity
  8
0
  6
HIDDEN
 62
     7
370
     0
100
AcDbCircle
 10
143.3699659399
 20
106.6204621587
 30
0.0
 40
1.885927303716505
100
AcDbArc
 50
340.8867909806
 51
160.9916582474
  0
ARC
  5
159
330
1F
100
AcDbEntity
  8
0
  6
HIDDEN
 62
     7
370
     0
100
AcDbCircle
 10
143.4412302405
 20
106.6362241443
 30
0.0
 40
1.442221892588817
100
AcDbArc
 50
353.6366910507
 51
92.6836218313
  0
LWPOLYLINE
  5
15A
330
1F
100
AcDbEntity
  8
0
  6
HIDDEN
 62
     7
370
     0
100
AcDbPolyline
 90
       21
 70
   128
 43
0.0
 10
142.7043634915
 20
105.0723590526
 10
142.1570810937
 20
105.3574275795
 10
141.730328601
 20
105.7874639157
 10
141.4658804872
 20
106.3203741435
 10
141.3896219322
 20
106.9039930228
 10
141.5090184176
 20
107.4811904329
 10
141.8123827764
 20
107.9954686213
 10
142.2700179258
 20
108.3964840147
 10
142.8371291124
 20
108.6449841607
 10
143.4582029917
 20
108.7166433792
 10
144.0724437573
 20
108.6044474143
 10
144.6197270864
 20
108.3193788875
 10
145.0464786478
 20
107.8893416199
 10
145.3109267616
 20
107.3564323235
 10
145.3871853166
 20
106.7728134442
 10
145.2677888312
 20
106.1956151027
 10
144.9644254037
 20
105.6813378457
 10
144.506789323
 20
105.2803224522
 10
143.9396781364
 20
105.0318223063
 10
143.3186051884
 20
104.9601626221
 10
142.7043634915
 20
105.0723590526
  0
LWPOLYLINE
  5
15B
330
1F
100
AcDbEntity
  8
0
  6
HIDDEN
 62
     7
370
     0
100
AcDbPolyline
 90
       18
 70
   128
 43
0.0
 10
142.875373874
 20
106.3463384855
 10
142.4008333572
 20
106.6099325765
 10
142.059669409
 20
107.0168115768
 10
141.8979592138
 20
107.5120265234
 10
141.9375413545
 20
108.0286935541
 10
142.173070971
 20
108.4970342565
 10
142.5727368781
 20
108.8537978578
 10
143.0825642758
 20
109.050800522
 10
143.6336967611
 20
109.0614362258
 10
144.1517011711
 20
108.8842684041
 10
144.5666174852
 20
108.5432245966
 10
144.822409887
 20
108.0843642924
 10
144.8845318967
 20
107.5696604896
 10
144.7445932292
 20
107.0686247769
 10
144.421494145
 20
106.6489261213
 10
143.9588699007
 20
106.3672476086
 10
143.4192019963
 20
106.2616300407
 10
142.875373874
 20
106.3463384855
  0
LWPOLYLINE
  5
15C
330
1F
100
AcDbEntity
  8
0
  6
HIDDEN
 62
     7
370
     0
100
AcDbPolyline
 90
       21
 70
   128
 43
0.0
 10
142.7043634915
 20
105.2647451508
 10
142.1570810937
 20
105.5498136777
 10
141.730328601
 20
105.9798509452
 10
141.4658804872
 20
106.512761173
 10
141.3896219322
 20
107.096379121
 10
141.5090184176
 20
107.6735774625
 10
141.8123827764
 20
108.1878547195
 10
142.2700179258
 20
108.5888705786
 10
142.8371291124
 20
108.8373707246
 10
143.4582029917
 20
108.9090299431
 10
144.0724437573
 20
108.7968339782
 10
144.6197270864
 20
108.5117654513
 10
145.0464786478
 20
108.0817286495
 10
145.3109267616
 20
107.5488184217
 10
145.3871853166
 20
106.9651995424
 10
145.2677888312
 20
106.3880021322
 10
144.9644254037
 20
105.8737239439
 10
144.506789323
 20
105.4727085504
 10
143.9396781364
 20
105.2242084045
 10
143.3186051884
 20
105.1525487203
 10
142.7043634915
 20
105.2647451508
  0
LWPOLYLINE
  5
15D
330
1F
100
AcDbEntity
  8
0
  6
HIDDEN
 62
     7
370
     0
100
AcDbPolyline
 90
       20
 70
   128
 43
0.0
 10
142.7590870747
 20
105.3579323563
 10
142.2317685076
 20
105.6379819858
 10
141.8297891953
 20
106.0637519333
 10
141.5967108199
 20
106.5891035471
 10
141.5577889868
 20
107.1571069408
 10
141.7172435188
 20
107.7062091428
 10
142.0577937254
 20
108.176907954
 10
142.5425368809
 20
108.5181943711
 10
143.1189426669
 20
108.6930860404
 10
143.7245482096
 20
108.6826296161
 10
144.2937278637
 20
108.4879589837
 10
144.7648010665
 20
108.1301685992
 10
145.0867210963
 20
107.6480322156
 10
145.2246015408
 20
107.0937956322
 10
145.163501192
 20
106.5275198418
 10
144.9100417533
 20
106.0105687577
 10
144.4916897901
 20
105.5989623639
 10
143.9537792915
 20
105.3373044926
 10
143.3546017372
 20
105.2539501909
 10
142.7590870747
 20
105.3579323563
  0
LWPOLYLINE
  5
15E
330
1F
100
AcDbEntity
  8
0
  6
HIDDEN
 62
     7
370
     0
100
AcDbPolyline
 90
       21
 70
   128
 43
0.0
 10
142.7043634915
 20
105.457131249
 10
142.1570810937
 20
105.7421997759
 10
141.730328601
 20
106.1722370434
 10
141.4658804872
 20
106.7051472712
 10
141.3896219322
 20
107.2887652192
 10
141.5090184176
 20
107.8659635607
 10
141.8123827764
 20
108.3802408177
 10
142.2700179258
 20
108.7812566768
 10
142.8371291124
 20
109.0297568228
 10
143.4582029917
 20
109.1014160413
 10
144.0724437573
 20
108.9892200764
 10
144.6197270864
 20
108.7041515495
 10
145.0464786478
 20
108.2741147477
 10
145.3109267616
 20
107.7412045199
 10
145.3871853166
 20
107.1575865719
 10
145.2677888312
 20
106.5803882304
 10
144.9644254037
 20
106.0661109734
 10
144.506789323
 20
105.6650946486
 10
143.9396781364
 20
105.4165945027
 10
143.3186051884
 20
105.3449357498
 10
142.7043634915
 20
105.457131249
  0
LWPOLYLINE
  5
15F
330
1F
100
AcDbEntity
  8
0
  6
HIDDEN
 62
     7
370
     0
100
AcDbPolyline
 90
       20
 70
   128
 43
0.0
 10
142.7590870747
 20
105.5503184545
 10
142.2317685076
 20
105.830368084
 10
141.8297891953
 20
106.2561380315
 10
141.5967108199
 20
106.7814896453
 10
141.5577889868
 20
107.349493039
 10
141.7172435188
 20
107.8985961724
 10
142.0577937254
 20
108.3692940522
 10
142.5425368809
 20
108.7105809349
 10
143.1189426669
 20
108.8854721386
 10
143.7245482096
 20
108.8750157144
 10
144.2937278637
 20
108.6803450819
 10
144.7648010665
 20
108.3225551631
 10
145.0867210963
 20
107.8404183138
 10
145.2246015408
 20
107.2861826617
 10
145.163501192
 20
106.71990594
 10
144.9100417533
 20
106.2029548559
 10
144.4916897901
 20
105.7913484621
 10
143.9537792915
 20
105.5296905908
 10
143.3546017372
 20
105.4463362891
 10
142.7590870747
 20
105.5503184545
  0
LWPOLYLINE
  5
160
330
1F
100
AcDbEntity
  8
0
  6
HIDDEN
 62
     7
370
     0
100
AcDbPolyline
 90
       21
 70
   128
 43
0.0
 10
142.7043634915
 20
105.6495173473
 10
142.1570810937
 20
105.9345868054
 10
141.730328601
 20
106.3646231416
 10
141.4658804872
 20
106.8975333694
 10
141.3896219322
 20
107.4811513174
 10
141.5090184176
 20
108.0583496589
 10
141.8123827764
 20
108.5726273816
 10
142.2700179258
 20
108.9736432407
 10
142.8371291124
 20
109.2221433866
 10
143.4582029917
 20
109.2938026052
 10
144.0724437573
 20
109.1816066403
 10
144.6197270864
 20
108.8965381134
 10
145.0464786478
 20
108.4665008459
 10
145.3109267616
 20
107.9335906181
 10
145.3871853166
 20
107.3499726701
 10
145.2677888312
 20
106.7727743286
 10
144.9644254037
 20
106.2584970716
 10
144.506789323
 20
105.8574807468
 10
143.9396781364
 20
105.6089815322
 10
143.3186051884
 20
105.537321848
 10
142.7043634915
 20
105.6495173473
  0
LWPOLYLINE
  5
161
330
1F
100
AcDbEntity
  8
0
  6
HIDDEN
 62
     7
370
     0
100
AcDbPolyline
 90
       20
 70
   128
 43
0.0
 10
142.7590870747
 20
105.7427045527
 10
142.2317685076
 20
106.0227541823
 10
141.8297891953
 20
106.4485241297
 10
141.5967108199
 20
106.9738766748
 10
141.5577889868
 20
107.5418791372
 10
141.7172435188
 20
108.0909822706
 10
142.0577937254
 20
108.561680616
 10
142.5425368809
 20
108.9029670331
 10
143.1189426669
 20
109.0778587024
 10
143.7245482096
 20
109.0674022782
 10
144.2937278637
 20
108.8727316457
 10
144.7648010665
 20
108.514941727
 10
145.0867210963
 20
108.0328053433
 10
145.2246015408
 20
107.4785687599
 10
145.163501192
 20
106.9122920382
 10
144.9100417533
 20
106.3953409541
 10
144.4916897901
 20
105.9837345603
 10
143.9537792915
 20
105.7220776204
 10
143.3546017372
 20
105.6387233186
 10
142.7590870747
 20
105.7427045527
  0
LWPOLYLINE
  5
162
330
1F
100
AcDbEntity
  8
0
  6
HIDDEN
 62
     7
370
     0
100
AcDbPolyline
 90
       21
 70
   128
 43
0.0
 10
142.7043634915
 20
105.8419043768
 10
142.1570810937
 20
106.1269729036
 10
141.730328601
 20
106.5570092398
 10
141.4658804872
 20
107.0899194676
 10
141.3896219322
 20
107.6735383469
 10
141.5090184176
 20
108.2507362227
 10
141.8123827764
 20
108.7650134798
 10
142.2700179258
 20
109.1660293389
 10
142.8371291124
 20
109.4145294848
 10
143.4582029917
 20
109.4861887034
 10
144.0724437573
 20
109.3739927385
 10
144.6197270864
 20
109.0889242116
 10
145.0464786478
 20
108.6588874098
 10
145.3109267616
 20
108.1259776476
 10
145.3871853166
 20
107.5423587683
 10
145.2677888312
 20
106.9651604268
 10
144.9644254037
 20
106.4508831698
 10
144.506789323
 20
106.0498677764
 10
143.9396781364
 20
105.8013676304
 10
143.3186051884
 20
105.7297079462
 10
142.7043634915
 20
105.8419043768
  0
LWPOLYLINE
  5
163
330
1F
100
AcDbEntity
  8
0
  6
HIDDEN
 62
     7
370
     0
100
AcDbPolyline
 90
       20
 70
   128
 43
0.0
 10
142.7590870747
 20
105.935090651
 10
142.2317685076
 20
106.2151412118
 10
141.8297891953
 20
106.6409111593
 10
141.5967108199
 20
107.166262773
 10
141.5577889868
 20
107.7342652354
 10
141.7172435188
 20
108.2833683688
 10
142.0577937254
 20
108.7540667142
 10
142.5425368809
 20
109.095353597
 10
143.1189426669
 20
109.2702448006
 10
143.7245482096
 20
109.2597883764
 10
144.2937278637
 20
109.0651177439
 10
144.7648010665
 20
108.7073278252
 10
145.0867210963
 20
108.2251914415
 10
145.2246015408
 20
107.6709548581
 10
145.163501192
 20
107.1046790678
 10
144.9100417533
 20
106.5877279836
 10
144.4916897901
 20
106.1761215899
 10
143.9537792915
 20
105.9144637186
 10
143.3546017372
 20
105.8311094168
 10
142.7590870747
 20
105.935090651
  0
LWPOLYLINE
  5
164
330
1F
100
AcDbEntity
  8
0
  6
HIDDEN
 62
     7
370
     0
100
AcDbPolyline
 90
       21
 70
   128
 43
0.0
 10
142.7043634915
 20
106.1668232653
 10
142.1570810937
 20
106.4518917922
 10
141.730328601
 20
106.8819290597
 10
141.4658804872
 20
107.4148392874
 10
141.3896219322
 20
107.9984572354
 10
141.5090184176
 20
108.5756551113
 10
141.8123827764
 20
109.0899328339
 10
142.2700179258
 20
109.490948693
 10
142.8371291124
 20
109.739448839
 10
143.4582029917
 20
109.8111080575
 10
144.0724437573
 20
109.6989120926
 10
144.6197270864
 20
109.4138435658
 10
145.0464786478
 20
108.9838062983
 10
145.3109267616
 20
108.4508965361
 10
145.3871853166
 20
107.8672776568
 10
145.2677888312
 20
107.2900802467
 10
144.9644254037
 20
106.7758029896
 10
144.506789323
 20
106.3747866649
 10
143.9396781364
 20
106.1262865189
 10
143.3186051884
 20
106.0546268347
 10
142.7043634915
 20
106.1668232653
  0
LWPOLYLINE
  5
165
330
1F
100
AcDbEntity
  8
0
  6
HIDDEN
 62
     7
370
     0
100
AcDbPolyline
 90
       18
 70
   128
 43
0.0
 10
142.8820821905
 20
106.7282608348
 10
142.413747076
 20
106.9884081009
 10
142.0770450943
 20
107.3899673868
 10
141.9174490013
 20
107.8787049848
 10
141.956514258
 20
108.3886162016
 10
142.1889630594
 20
108.8508329924
 10
142.5834033155
 20
109.2029311332
 10
143.0865633749
 20
109.3973577592
 10
143.6304892861
 20
109.4078542303
 10
144.1417192557
 20
109.2330030735
 10
144.5512106159
 20
108.8964189041
 10
144.8036577069
 20
108.4435595769
 10
144.8649676033
 20
107.9355855111
 10
144.7268589848
 20
107.441102584
 10
144.4079843798
 20
107.0268922124
 10
143.9514100068
 20
106.7488961491
 10
143.4187987336
 20
106.6446606639
 10
142.8820821905
 20
106.7282608348
  0
LWPOLYLINE
  5
166
330
1F
100
AcDbEntity
  8
0
  6
HIDDEN
 62
     7
370
     0
100
AcDbPolyline
 90
       18
 70
   128
 43
0.0
 10
143.2876890042
 20
122.5173249479
 10
143.8280274608
 20
122.5768574152
 10
144.308993172
 20
122.8157910157
 10
144.6656273195
 20
123.2018563535
 10
144.849765625
 20
123.6829133343
 10
144.8365389817
 20
124.1939928952
 10
144.6277336666
 20
124.6660700637
 10
144.2515491956
 20
125.0353888247
 10
143.7587929406
 20
125.2520703349
 10
143.2160134875
 20
125.2868505764
 10
142.6965161675
 20
125.1350328896
 10
142.2704621666
 20
124.8171203408
 10
141.9953923189
 20
124.3760487634
 10
141.9084570819
 20
123.871387412
 10
142.0213957765
 20
123.3712941978
 10
142.3189570644
 20
122.9433090996
 10
142.7609525138
 20
122.6452337216
 10
143.2876890042
 20
122.5173249479
  0
LWPOLYLINE
  5
167
330
1F
100
AcDbEntity
  8
0
  6
HIDDEN
 62
     7
370
     0
100
AcDbPolyline
 90
       21
 70
   128
 43
0.0
 10
143.2523387932
 20
122.1327832538
 10
143.8756003493
 20
122.1850430231
 10
144.4511716702
 20
122.4157283652
 10
144.9227114656
 20
122.8022579673
 10
145.2440633887
 20
123.3067959185
 10
145.3837701568
 20
123.8799546484
 10
145.3281562292
 20
124.4656289566
 10
145.0826661178
 20
125.0064889539
 10
144.6713298076
 20
125.4495917458
 10
144.1344120988
 20
125.7515637774
 10
143.5244693869
 20
125.8828448701
 10
142.9012078309
 20
125.8305855665
 10
142.3256365099
 20
125.5999006901
 10
141.8540957832
 20
125.2133701566
 10
141.5327447915
 20
124.7088326711
 10
141.3930380234
 20
124.1356744069
 10
141.4486510196
 20
123.549999633
 10
141.694141131
 20
123.0091396357
 10
142.1054774412
 20
122.5660363782
 10
142.6423960813
 20
122.2640648122
 10
143.2523387932
 20
122.1327832538
  0
LWPOLYLINE
  5
168
330
1F
100
AcDbEntity
  8
0
  6
HIDDEN
 62
     7
370
     0
100
AcDbPolyline
 90
       21
 70
   128
 43
0.0
 10
143.2523387932
 20
122.457702608
 10
143.8756003493
 20
122.5099623773
 10
144.4511716702
 20
122.7406477194
 10
144.9227114656
 20
123.1271773215
 10
145.2440633887
 20
123.6317152727
 10
145.3837701568
 20
124.2048735369
 10
145.3281562292
 20
124.7905478451
 10
145.0826661178
 20
125.3314087737
 10
144.6713298076
 20
125.7745115656
 10
144.1344120988
 20
126.0764826659
 10
143.5244693869
 20
126.20776469
 10
142.9012078309
 20
126.155504455
 10
142.3256365099
 20
125.9248195786
 10
141.8540957832
 20
125.5382899765
 10
141.5327447915
 20
125.0337515596
 10
141.3930380234
 20
124.4605932954
 10
141.4486510196
 20
123.8749189872
 10
141.694141131
 20
123.3340585243
 10
142.1054774412
 20
122.8909557324
 10
142.6423960813
 20
122.5889841664
 10
143.2523387932
 20
122.457702608
  0
LWPOLYLINE
  5
169
330
1F
100
AcDbEntity
  8
0
  6
HIDDEN
 62
     7
370
     0
100
AcDbPolyline
 90
       18
 70
   128
 43
0.0
 10
143.2863544189
 20
123.8670157838
 10
143.8338528835
 20
123.9273366157
 10
144.3211907038
 20
124.1694367129
 10
144.682550382
 20
124.5606173399
 10
144.8691287526
 20
125.0480482924
 10
144.8557270208
 20
125.5658999655
 10
144.6441547462
 20
126.0442318964
 10
144.2629867681
 20
126.4184447575
 10
143.7637010106
 20
126.6379966039
 10
143.2137298846
 20
126.6732378501
 10
142.6873491594
 20
126.5194085065
 10
142.2556494811
 20
126.1972835857
 10
141.9769353681
 20
125.7503679592
 10
141.8888471537
 20
125.2390197116
 10
142.0032824838
 20
124.7323001373
 10
142.3047860601
 20
124.2986446816
 10
142.7526385971
 20
123.9966195646
 10
143.2863544189
 20
123.8670157838
  0
LWPOLYLINE
  5
16A
330
1F
100
AcDbEntity
  8
0
  6
HIDDEN
 62
     7
370
     0
100
AcDbPolyline
 90
       18
 70
   128
 43
0.0
 10
143.2863544189
 20
122.8635371301
 10
143.8338528835
 20
122.9238584276
 10
144.3211907038
 20
123.1659580592
 10
144.682550382
 20
123.5571391519
 10
144.8691287526
 20
124.04457057
 10
144.8557270208
 20
124.5624213118
 10
144.6441547462
 20
125.0407532427
 10
144.2629867681
 20
125.4149661038
 10
143.7637010106
 20
125.6345188815
 10
143.2137298846
 20
125.6697601277
 10
142.6873491594
 20
125.5159298528
 10
142.2556494811
 20
125.193804932
 10
141.9769353681
 20
124.7468893054
 10
141.8888471537
 20
124.2355419892
 10
142.0032824838
 20
123.7288219492
 10
142.3047860601
 20
123.2951660279
 10
142.7526385971
 20
122.9931409109
 10
143.2863544189
 20
122.8635371301
  0
LWPOLYLINE
  5
16B
330
1F
100
AcDbEntity
  8
0
  6
HIDDEN
 62
     7
370
     0
100
AcDbPolyline
 90
       21
 70
   128
 43
0.0
 10
143.2523387932
 20
122.6500891719
 10
143.8756003493
 20
122.7023484755
 10
144.4511716702
 20
122.9330338176
 10
144.9227114656
 20
123.3195638854
 10
145.2440633887
 20
123.8241013709
 10
145.3837701568
 20
124.3972605664
 10
145.3281562292
 20
124.9829348746
 10
145.0826661178
 20
125.5237948719
 10
144.6713298076
 20
125.9668976638
 10
144.1344120988
 20
126.2688696954
 10
143.5244693869
 20
126.4001507882
 10
142.9012078309
 20
126.3478905532
 10
142.3256365099
 20
126.1172056768
 10
141.8540957832
 20
125.7306760747
 10
141.5327447915
 20
125.2261376578
 10
141.3930380234
 20
124.6529793936
 10
141.4486510196
 20
124.0673050854
 10
141.694141131
 20
123.5264450881
 10
142.1054774412
 20
123.0833418306
 10
142.6423960813
 20
122.7813702646
 10
143.2523387932
 20
122.6500891719
  0
LWPOLYLINE
  5
16C
330
1F
100
AcDbEntity
  8
0
  6
HIDDEN
 62
     7
370
     0
100
AcDbPolyline
 90
       20
 70
   128
 43
0.0
 10
143.2632231602
 20
122.6558014389
 10
143.866069194
 20
122.711073571
 10
144.4171523192
 20
122.9472900379
 10
144.8567542696
 20
123.3388525072
 10
145.1372378954
 20
123.8433294568
 10
145.2282076218
 20
124.4060522515
 10
145.1198072621
 20
124.9660425458
 10
144.8237817251
 20
125.462616292
 10
144.372210417
 20
125.8419607404
 10
143.8140287512
 20
126.0629701066
 10
143.2097242662
 20
126.1016926366
 10
142.6247819775
 20
125.9539336536
 10
142.1225904935
 20
125.6357035238
 10
141.7575688549
 20
125.1814891222
 10
141.5692740568
 20
124.640510847
 10
141.5781104454
 20
124.0713917289
 10
141.7831196898
 20
123.5358058113
 10
142.1620860213
 20
123.091790789
 10
142.6739437022
 20
122.7874629769
 10
143.2632231602
 20
122.6558014389
  0
LWPOLYLINE
  5
16D
330
1F
100
AcDbEntity
  8
0
  6
HIDDEN
 62
     7
370
     0
100
AcDbPolyline
 90
       21
 70
   128
 43
0.0
 10
143.2523387932
 20
122.8424752701
 10
143.8756003493
 20
122.8947350394
 10
144.4511716702
 20
123.1254203815
 10
144.9227114656
 20
123.5119499836
 10
145.2440633887
 20
124.0164884004
 10
145.3837701568
 20
124.5896466646
 10
145.3281562292
 20
125.1753209728
 10
145.0826661178
 20
125.7161809701
 10
144.6713298076
 20
126.159283762
 10
144.1344120988
 20
126.4612557936
 10
143.5244693869
 20
126.5925368864
 10
142.9012078309
 20
126.5402775827
 10
142.3256365099
 20
126.309591775
 10
141.8540957832
 20
125.9230621729
 10
141.5327447915
 20
125.4185246873
 10
141.3930380234
 20
124.8453654918
 10
141.4486510196
 20
124.2596911836
 10
141.694141131
 20
123.7188311863
 10
142.1054774412
 20
123.2757283944
 10
142.6423960813
 20
122.9737568285
 10
143.2523387932
 20
122.8424752701
  0
LWPOLYLINE
  5
16E
330
1F
100
AcDbEntity
  8
0
  6
HIDDEN
 62
     7
370
     0
100
AcDbPolyline
 90
       20
 70
   128
 43
0.0
 10
143.2632231602
 20
122.8481880027
 10
143.866069194
 20
122.9034601349
 10
144.4171523192
 20
123.1396761361
 10
144.8567542696
 20
123.5312386054
 10
145.1372378954
 20
124.035715555
 10
145.2282076218
 20
124.598439281
 10
145.1198072621
 20
125.1584295753
 10
144.8237817251
 20
125.6550023902
 10
144.372210417
 20
126.03434777
 10
143.8140287512
 20
126.2553562048
 10
143.2097242662
 20
126.2940787349
 10
142.6247819775
 20
126.1463197518
 10
142.1225904935
 20
125.8280905533
 10
141.7575688549
 20
125.3738752205
 10
141.5692740568
 20
124.8328969452
 10
141.5781104454
 20
124.2637787584
 10
141.7831196898
 20
123.7281919095
 10
142.1620860213
 20
123.2841768872
 10
142.6739437022
 20
122.9798495408
 10
143.2632231602
 20
122.8481880027
  0
LWPOLYLINE
  5
16F
330
1F
100
AcDbEntity
  8
0
  6
HIDDEN
 62
     7
370
     0
100
AcDbPolyline
 90
       21
 70
   128
 43
0.0
 10
143.2523387932
 20
123.0348618339
 10
143.8756003493
 20
123.0871211376
 10
144.4511716702
 20
123.3178064797
 10
144.9227114656
 20
123.7043365474
 10
145.2440633887
 20
124.2088744986
 10
145.3837701568
 20
124.7820327628
 10
145.3281562292
 20
125.367707071
 10
145.0826661178
 20
125.9085670683
 10
144.6713298076
 20
126.3516698602
 10
144.1344120988
 20
126.6536418918
 10
143.5244693869
 20
126.7849229846
 10
142.9012078309
 20
126.7326636809
 10
142.3256365099
 20
126.5019788045
 10
141.8540957832
 20
126.1154482711
 10
141.5327447915
 20
125.6109107855
 10
141.3930380234
 20
125.0377525214
 10
141.4486510196
 20
124.4520782131
 10
141.694141131
 20
123.9112172845
 10
142.1054774412
 20
123.4681144926
 10
142.6423960813
 20
123.1661429267
 10
143.2523387932
 20
123.0348618339
  0
LWPOLYLINE
  5
170
330
1F
100
AcDbEntity
  8
0
  6
HIDDEN
 62
     7
370
     0
100
AcDbPolyline
 90
       20
 70
   128
 43
0.0
 10
143.2632231602
 20
123.0405741009
 10
143.866069194
 20
123.0958462331
 10
144.4171523192
 20
123.3320627
 10
144.8567542696
 20
123.7236251693
 10
145.1372378954
 20
124.2281016532
 10
145.2282076218
 20
124.7908253792
 10
145.1198072621
 20
125.3508156735
 10
144.8237817251
 20
125.8473884884
 10
144.372210417
 20
126.2267338682
 10
143.8140287512
 20
126.447742303
 10
143.2097242662
 20
126.4864657644
 10
142.6247819775
 20
126.33870585
 10
142.1225904935
 20
126.0204766515
 10
141.7575688549
 20
125.56626225
 10
141.5692740568
 20
125.0252839747
 10
141.5781104454
 20
124.4561648566
 10
141.7831196898
 20
123.9205780077
 10
142.1620860213
 20
123.476563451
 10
142.6739437022
 20
123.172235639
 10
143.2632231602
 20
123.0405741009
  0
LWPOLYLINE
  5
171
330
1F
100
AcDbEntity
  8
0
  6
HIDDEN
 62
     7
370
     0
100
AcDbPolyline
 90
       21
 70
   128
 43
0.0
 10
143.2523387932
 20
123.2272479321
 10
143.8756003493
 20
123.2795077014
 10
144.4511716702
 20
123.5101930435
 10
144.9227114656
 20
123.8967231113
 10
145.2440633887
 20
124.4012605968
 10
145.3837701568
 20
124.974418861
 10
145.3281562292
 20
125.5600931692
 10
145.0826661178
 20
126.1009540978
 10
144.6713298076
 20
126.5440568897
 10
144.1344120988
 20
126.84602799
 10
143.5244693869
 20
126.9773100141
 10
142.9012078309
 20
126.9250497792
 10
142.3256365099
 20
126.6943649027
 10
141.8540957832
 20
126.3078353006
 10
141.5327447915
 20
125.8032968837
 10
141.3930380234
 20
125.2301386196
 10
141.4486510196
 20
124.6444643113
 10
141.694141131
 20
124.1036043141
 10
142.1054774412
 20
123.6605010565
 10
142.6423960813
 20
123.3585294906
 10
143.2523387932
 20
123.2272479321
  0
LWPOLYLINE
  5
172
330
1F
100
AcDbEntity
  8
0
  6
HIDDEN
 62
     7
370
     0
100
AcDbPolyline
 90
       20
 70
   128
 43
0.0
 10
143.2632231602
 20
123.2329606648
 10
143.866069194
 20
123.288232797
 10
144.4171523192
 20
123.5244487982
 10
144.8567542696
 20
123.9160117332
 10
145.1372378954
 20
124.4204877514
 10
145.2282076218
 20
124.9832114774
 10
145.1198072621
 20
125.5432017717
 10
144.8237817251
 20
126.0397755179
 10
144.372210417
 20
126.4191199664
 10
143.8140287512
 20
126.6401293326
 10
143.2097242662
 20
126.6788518626
 10
142.6247819775
 20
126.5310919482
 10
142.1225904935
 20
126.2128627497
 10
141.7575688549
 20
125.7586483482
 10
141.5692740568
 20
125.2176700729
 10
141.5781104454
 20
124.6485509548
 10
141.7831196898
 20
124.1129650373
 10
142.1620860213
 20
123.6689495492
 10
142.6739437022
 20
123.3646222028
 10
143.2632231602
 20
123.2329606648
  0
LWPOLYLINE
  5
173
330
1F
100
AcDbEntity
  8
0
  6
HIDDEN
 62
     7
370
     0
100
AcDbPolyline
 90
       21
 70
   128
 43
0.0
 10
143.2523387932
 20
123.3640559587
 10
143.8756003493
 20
123.416315728
 10
144.4511716702
 20
123.6470010701
 10
144.9227114656
 20
124.0335306722
 10
145.2440633887
 20
124.5380690891
 10
145.3837701568
 20
125.1112273533
 10
145.3281562292
 20
125.6969016615
 10
145.0826661178
 20
126.2377616588
 10
144.6713298076
 20
126.6808644507
 10
144.1344120988
 20
126.9828364823
 10
143.5244693869
 20
127.114117575
 10
142.9012078309
 20
127.0618582714
 10
142.3256365099
 20
126.8311724636
 10
141.8540957832
 20
126.4446428615
 10
141.5327447915
 20
125.940105376
 10
141.3930380234
 20
125.3669461805
 10
141.4486510196
 20
124.7812718723
 10
141.694141131
 20
124.240411875
 10
142.1054774412
 20
123.7973090831
 10
142.6423960813
 20
123.4953375171
 10
143.2523387932
 20
123.3640559587
  0
LWPOLYLINE
  5
174
330
1F
100
AcDbEntity
  8
0
  6
HIDDEN
 62
     7
370
     0
100
AcDbPolyline
 90
       20
 70
   128
 43
0.0
 10
143.2591421046
 20
123.4920094359
 10
143.8816446328
 20
123.5490841429
 10
144.4506985583
 20
123.7930026475
 10
144.9046354258
 20
124.1973335493
 10
145.1942646393
 20
124.7182604495
 10
145.2882015594
 20
125.2993340242
 10
145.1762658992
 20
125.8775847602
 10
144.8705872038
 20
126.3903504807
 10
144.4042916858
 20
126.7820656869
 10
143.8279082515
 20
127.0102806959
 10
143.2038979122
 20
127.0502670306
 10
142.5998812058
 20
126.8976893846
 10
142.081314277
 20
126.5690824587
 10
141.7043903359
 20
126.1000563029
 10
141.5099543967
 20
125.5414378468
 10
141.519078564
 20
124.9537602637
 10
141.7307728418
 20
124.4007092539
 10
142.1220978239
 20
123.9422154251
 10
142.6506457367
 20
123.627964371
 10
143.2591421046
 20
123.4920094359
  0
LWPOLYLINE
  5
175
330
1F
100
AcDbEntity
  8
0
  6
HIDDEN
 62
     7
370
     0
100
AcDbPolyline
 90
       21
 70
   128
 43
0.0
 10
137.9285194428
 20
125.5338904086
 10
137.9831489624
 20
124.9794247198
 10
137.9254879878
 20
124.3708966869
 10
137.7611812652
 20
123.7678732361
 10
137.5063118042
 20
123.2293825235
 10
137.1858283394
 20
122.8081364754
 10
136.8311015406
 20
122.5453684676
 10
136.4768553042
 20
122.4668011639
 10
136.157765098
 20
122.5801244948
 10
135.9050656186
 20
122.8742454771
 10
135.7434937247
 20
123.3203746017
 10
135.6888642051
 20
123.8748407561
 10
135.746524714
 20
124.483368789
 10
135.9108319023
 20
125.0863917742
 10
136.1657013633
 20
125.6248824868
 10
136.4861848281
 20
126.0461290005
 10
136.8409111613
 20
126.308896077
 10
137.1951578633
 20
126.3874643121
 10
137.5142480695
 20
126.2741409812
 10
137.7669470833
 20
125.9800190676
 10
137.9285194428
 20
125.5338904086
  0
LWPOLYLINE
  5
176
330
1F
100
AcDbEntity
  8
0
  6
HIDDEN
 62
     7
370
     0
100
AcDbPolyline
 90
       17
 70
   128
 43
0.0
 10
138.1331910827
 20
124.9717254761
 10
138.1648839899
 20
124.531844129
 10
138.0877984204
 20
124.0536220941
 10
137.9136704357
 20
123.6098641168
 10
137.6690092013
 20
123.2681288022
 10
137.3910620325
 20
123.0804416921
 10
137.1221440361
 20
123.0753766942
 10
136.9031956867
 20
123.2537049438
 10
136.7675499507
 20
123.5882774565
 10
136.7358570435
 20
124.0281588036
 10
136.812942613
 20
124.5063808385
 10
136.9870705978
 20
124.9501383502
 10
137.2317318321
 20
125.2918741304
 10
137.5096790009
 20
125.4795607749
 10
137.7785965317
 20
125.4846262384
 10
137.9975448811
 20
125.3062975231
 10
138.1331910827
 20
124.9717254761
  0
LWPOLYLINE
  5
177
330
1F
100
AcDbEntity
  8
0
  6
HIDDEN
 62
     7
370
     0
100
AcDbPolyline
 90
       21
 70
   128
 43
0.0
 10
136.2698730529
 20
125.9311115939
 10
136.3245025725
 20
125.3766459051
 10
136.266841598
 20
124.7681178722
 10
136.1025348754
 20
124.1650939557
 10
135.8476654143
 20
123.6266037087
 10
135.5271814839
 20
123.205357195
 10
135.1724551507
 20
122.9425896529
 10
134.8182089144
 20
122.8640218835
 10
134.4991187082
 20
122.9773452144
 10
134.2464192287
 20
123.2714666623
 10
134.084847102
 20
123.7175953213
 10
134.0302175825
 20
124.27206101
 10
134.087878557
 20
124.8805890429
 10
134.2521852796
 20
125.4836129594
 10
134.5070549735
 20
126.0221036721
 10
134.8275384382
 20
126.4433492545
 10
135.1822647714
 20
126.7061172623
 10
135.5365114735
 20
126.784684566
 10
135.8556016796
 20
126.6713621664
 10
136.1083006934
 20
126.3772402528
 10
136.2698730529
 20
125.9311115939
  0
LINE
  5
178
330
1F
100
AcDbEntity
  8
0
  6
HIDDEN
 62
     7
370
     0
100
AcDbLine
 10
135.7313502097
 20
125.0642682064
 30
0.0
 11
135.5908797571
 21
123.9352761406
 31
0.0
  0
LINE
  5
179
330
1F
100
AcDbEntity
  8
0
  6
HIDDEN
 62
     7
370
     0
100
AcDbLine
 10
134.5026223437
 20
125.3585298184
 30
0.0
 11
134.3621518911
 21
124.2295386839
 31
0.0
  0
LWPOLYLINE
  5
17A
330
1F
100
AcDbEntity
  8
0
  6
HIDDEN
 62
     7
370
     0
100
AcDbPolyline
 90
       19
 70
   128
 43
0.0
 10
135.8723873721
 20
125.7594660494
 10
135.9156636038
 20
125.2599837828
 10
135.8476425969
 20
124.7132853243
 10
135.6765293033
 20
124.1853120375
 10
135.4229613655
 20
123.7397435691
 10
135.1175238826
 20
123.4303232852
 10
134.7970562504
 20
123.2943716097
 10
134.5002120809
 20
123.3482858736
 10
134.2627951392
 20
123.5855635825
 10
134.1134414991
 20
123.9775851938
 10
134.0701650345
 20
124.4770674605
 10
134.1381858085
 20
125.0237659189
 10
134.309299335
 20
125.5517392058
 10
134.5628672727
 20
125.9973072085
 10
134.8683052213
 20
126.3067279581
 10
135.1887723879
 20
126.4426796335
 10
135.4856165574
 20
126.3887653697
 10
135.7230334991
 20
126.1514876607
 10
135.8723873721
 20
125.7594660494
  0
LINE
  5
17B
330
1F
100
AcDbEntity
  8
0
  6
HIDDEN
 62
     7
370
     0
100
AcDbLine
 10
135.1333847717
 20
125.9975167561
 30
0.0
 11
134.5026223437
 21
125.3585298184
 31
0.0
  0
LINE
  5
17C
330
1F
100
AcDbEntity
  8
0
  6
HIDDEN
 62
     7
370
     0
100
AcDbLine
 10
136.3621131034
 20
125.7032551441
 30
0.0
 11
135.7313502097
 21
125.0642682064
 31
0.0
  0
LINE
  5
17D
330
1F
100
AcDbEntity
  8
0
  6
HIDDEN
 62
     7
370
     0
100
AcDbLine
 10
135.7313502097
 20
125.0642682064
 30
0.0
 11
134.5026223437
 21
125.3585298184
 31
0.0
  0
LINE
  5
17E
330
1F
100
AcDbEntity
  8
0
  6
HIDDEN
 62
     7
370
     0
100
AcDbLine
 10
134.8524438665
 20
123.7395340215
 30
0.0
 11
134.3621518911
 21
124.2295386839
 31
0.0
  0
LINE
  5
17F
330
1F
100
AcDbEntity
  8
0
  6
HIDDEN
 62
     7
370
     0
100
AcDbLine
 10
136.0811717325
 20
123.4452719438
 30
0.0
 11
135.5908797571
 21
123.9352761406
 31
0.0
  0
LINE
  5
180
330
1F
100
AcDbEntity
  8
0
  6
HIDDEN
 62
     7
370
     0
100
AcDbLine
 10
135.5908797571
 20
123.9352761406
 30
0.0
 11
134.3621518911
 21
124.2295386839
 31
0.0
  0
LINE
  5
181
330
1F
100
AcDbEntity
  8
0
  6
HIDDEN
 62
     7
370
     0
100
AcDbLine
 10
136.8524050788
 20
125.2132509473
 30
0.0
 11
135.6236767472
 21
125.5075125593
 31
0.0
  0
LINE
  5
182
330
1F
100
AcDbEntity
  8
0
  6
HIDDEN
 62
     7
370
     0
100
AcDbLine
 10
136.3621131034
 20
125.7032551441
 30
0.0
 11
135.1333847717
 21
125.9975167561
 31
0.0
  0
LINE
  5
183
330
1F
100
AcDbEntity
  8
0
  6
HIDDEN
 62
     7
370
     0
100
AcDbLine
 10
135.1333847717
 20
125.9975167561
 30
0.0
 11
135.6236767472
 21
125.5075125593
 31
0.0
  0
LINE
  5
184
330
1F
100
AcDbEntity
  8
0
  6
HIDDEN
 62
     7
370
     0
100
AcDbLine
 10
136.3621131034
 20
125.7032551441
 30
0.0
 11
136.8524050788
 21
125.2132509473
 31
0.0
  0
LINE
  5
185
330
1F
100
AcDbEntity
  8
0
  6
HIDDEN
 62
     7
370
     0
100
AcDbLine
 10
136.7119346262
 20
124.0842588815
 30
0.0
 11
135.4832062946
 21
124.3785214249
 31
0.0
  0
LINE
  5
186
330
1F
100
AcDbEntity
  8
0
  6
HIDDEN
 62
     7
370
     0
100
AcDbLine
 10
136.0811717325
 20
123.4452719438
 30
0.0
 11
134.8524438665
 21
123.7395340215
 31
0.0
  0
LINE
  5
187
330
1F
100
AcDbEntity
  8
0
  6
HIDDEN
 62
     7
370
     0
100
AcDbLine
 10
135.4832062946
 20
124.3785214249
 30
0.0
 11
134.8524438665
 21
123.7395340215
 31
0.0
  0
LINE
  5
188
330
1F
100
AcDbEntity
  8
0
  6
HIDDEN
 62
     7
370
     0
100
AcDbLine
 10
136.7119346262
 20
124.0842588815
 30
0.0
 11
136.0811717325
 21
123.4452719438
 31
0.0
  0
LINE
  5
189
330
1F
100
AcDbEntity
  8
0
  6
HIDDEN
 62
     7
370
     0
100
AcDbLine
 10
135.4832062946
 20
124.3785214249
 30
0.0
 11
135.6236767472
 21
125.5075125593
 31
0.0
  0
LINE
  5
18A
330
1F
100
AcDbEntity
  8
0
  6
HIDDEN
 62
     7
370
     0
100
AcDbLine
 10
136.7119346262
 20
124.0842588815
 30
0.0
 11
136.8524050788
 21
125.2132509473
 31
0.0
  0
LWPOLYLINE
  5
18B
330
1F
100
AcDbEntity
  8
0
  6
HIDDEN
 62
     7
370
     0
100
AcDbPolyline
 90
       19
 70
   128
 43
0.0
 10
135.8723873721
 20
106.1812159244
 10
135.9156636038
 20
106.680698191
 10
135.8476425969
 20
107.2273966495
 10
135.6765293033
 20
107.7553699363
 10
135.4229613655
 20
108.2009384047
 10
135.1175238826
 20
108.5103586886
 10
134.7970562504
 20
108.646310364
 10
134.5002120809
 20
108.5923961002
 10
134.2627951392
 20
108.3551183913
 10
134.1134414991
 20
107.9630967799
 10
134.0701650345
 20
107.4636145133
 10
134.1381858085
 20
106.9169160548
 10
134.309299335
 20
106.388942768
 10
134.5628672727
 20
105.9433747653
 10
134.8683052213
 20
105.6339540157
 10
135.1887723879
 20
105.4980023402
 10
135.4856165574
 20
105.5519166041
 10
135.7230334991
 20
105.789194313
 10
135.8723873721
 20
106.1812159244
  0
LWPOLYLINE
  5
18C
330
1F
100
AcDbEntity
  8
0
  6
HIDDEN
 62
     7
370
     0
100
AcDbPolyline
 90
       21
 70
   128
 43
0.0
 10
136.2698730529
 20
106.0095703799
 10
136.3245025725
 20
106.5640360687
 10
136.266841598
 20
107.1725641016
 10
136.1025348754
 20
107.775588018
 10
135.8476654143
 20
108.314078265
 10
135.5271814839
 20
108.7353247787
 10
135.1724551507
 20
108.9980923209
 10
134.8182089144
 20
109.0766600903
 10
134.4991187082
 20
108.9633367594
 10
134.2464192287
 20
108.6692153114
 10
134.084847102
 20
108.2230866525
 10
134.0302175825
 20
107.6686209637
 10
134.087878557
 20
107.0600929308
 10
134.2521852796
 20
106.4570690143
 10
134.5070549735
 20
105.9185783017
 10
134.8275384382
 20
105.4973327193
 10
135.1822647714
 20
105.2345647115
 10
135.5365114735
 20
105.1559974078
 10
135.8556016796
 20
105.2693198073
 10
136.1083006934
 20
105.5634417209
 10
136.2698730529
 20
106.0095703799
  0
LWPOLYLINE
  5
18D
330
1F
100
AcDbEntity
  8
0
  6
HIDDEN
 62
     7
370
     0
100
AcDbPolyline
 90
       21
 70
   128
 43
0.0
 10
137.9285194428
 20
106.4067915652
 10
137.9831489624
 20
106.9612572539
 10
137.9254879878
 20
107.5697852868
 10
137.7611812652
 20
108.1728087376
 10
137.5063118042
 20
108.7112994503
 10
137.1858283394
 20
109.1325454983
 10
136.8311015406
 20
109.3953135062
 10
136.4768553042
 20
109.4738808099
 10
136.157765098
 20
109.360557479
 10
135.9050656186
 20
109.0664364967
 10
135.7434937247
 20
108.6203073721
 10
135.6888642051
 20
108.0658412177
 10
135.746524714
 20
107.4573131848
 10
135.9108319023
 20
106.8542901996
 10
136.1657013633
 20
106.315799487
 10
136.4861848281
 20
105.8945529732
 10
136.8409111613
 20
105.6317858968
 10
137.1951578633
 20
105.5532176617
 10
137.5142480695
 20
105.6665409926
 10
137.7669470833
 20
105.9606629062
 10
137.9285194428
 20
106.4067915652
  0
LINE
  5
18E
330
1F
100
AcDbEntity
  8
0
  6
HIDDEN
 62
     7
370
     0
100
AcDbLine
 10
134.8524438665
 20
108.2011479523
 30
0.0
 11
134.3621518911
 21
107.7111432898
 31
0.0
  0
LINE
  5
18F
330
1F
100
AcDbEntity
  8
0
  6
HIDDEN
 62
     7
370
     0
100
AcDbLine
 10
134.5026223437
 20
106.5821521554
 30
0.0
 11
134.3621518911
 21
107.7111432898
 31
0.0
  0
LINE
  5
190
330
1F
100
AcDbEntity
  8
0
  6
HIDDEN
 62
     7
370
     0
100
AcDbLine
 10
135.1333847717
 20
105.9431652177
 30
0.0
 11
134.5026223437
 21
106.5821521554
 31
0.0
  0
LINE
  5
191
330
1F
100
AcDbEntity
  8
0
  6
HIDDEN
 62
     7
370
     0
100
AcDbLine
 10
135.1333847717
 20
105.9431652177
 30
0.0
 11
135.6236767472
 21
106.4331694144
 31
0.0
  0
LINE
  5
192
330
1F
100
AcDbEntity
  8
0
  6
HIDDEN
 62
     7
370
     0
100
AcDbLine
 10
135.4832062946
 20
107.5621605489
 30
0.0
 11
135.6236767472
 21
106.4331694144
 31
0.0
  0
LINE
  5
193
330
1F
100
AcDbEntity
  8
0
  6
HIDDEN
 62
     7
370
     0
100
AcDbLine
 10
135.4832062946
 20
107.5621605489
 30
0.0
 11
134.8524438665
 21
108.2011479523
 31
0.0
  0
LWPOLYLINE
  5
194
330
1F
100
AcDbEntity
  8
0
  6
HIDDEN
 62
     7
370
     0
100
AcDbPolyline
 90
       17
 70
   128
 43
0.0
 10
138.1331910827
 20
106.9689564976
 10
138.1648839899
 20
107.4088378448
 10
138.0877984204
 20
107.8870598796
 10
137.9136704357
 20
108.330817857
 10
137.6690092013
 20
108.6725531716
 10
137.3910620325
 20
108.8602402817
 10
137.1221440361
 20
108.8653052795
 10
136.9031956867
 20
108.6869770299
 10
136.7675499507
 20
108.3524045173
 10
136.7358570435
 20
107.9125231701
 10
136.812942613
 20
107.4343011353
 10
136.9870705978
 20
106.9905436236
 10
137.2317318321
 20
106.6488078434
 10
137.5096790009
 20
106.4611211989
 10
137.7785965317
 20
106.4560557354
 10
137.9975448811
 20
106.6343844506
 10
138.1331910827
 20
106.9689564976
  0
LINE
  5
195
330
1F
100
AcDbEntity
  8
0
  6
HIDDEN
 62
     7
370
     0
100
AcDbLine
 10
136.7119346262
 20
107.8564230922
 30
0.0
 11
135.4832062946
 21
107.5621605489
 31
0.0
  0
LINE
  5
196
330
1F
100
AcDbEntity
  8
0
  6
HIDDEN
 62
     7
370
     0
100
AcDbLine
 10
136.8524050788
 20
106.7274310264
 30
0.0
 11
135.6236767472
 21
106.4331694144
 31
0.0
  0
LINE
  5
197
330
1F
100
AcDbEntity
  8
0
  6
HIDDEN
 62
     7
370
     0
100
AcDbLine
 10
136.3621131034
 20
106.2374268297
 30
0.0
 11
135.7313502097
 21
106.8764137674
 31
0.0
  0
LINE
  5
198
330
1F
100
AcDbEntity
  8
0
  6
HIDDEN
 62
     7
370
     0
100
AcDbLine
 10
135.7313502097
 20
106.8764137674
 30
0.0
 11
135.5908797571
 21
108.0054058332
 31
0.0
  0
LINE
  5
199
330
1F
100
AcDbEntity
  8
0
  6
HIDDEN
 62
     7
370
     0
100
AcDbLine
 10
136.0811717325
 20
108.4954100299
 30
0.0
 11
135.5908797571
 21
108.0054058332
 31
0.0
  0
LINE
  5
19A
330
1F
100
AcDbEntity
  8
0
  6
HIDDEN
 62
     7
370
     0
100
AcDbLine
 10
136.3621131034
 20
106.2374268297
 30
0.0
 11
136.8524050788
 21
106.7274310264
 31
0.0
  0
LINE
  5
19B
330
1F
100
AcDbEntity
  8
0
  6
HIDDEN
 62
     7
370
     0
100
AcDbLine
 10
136.7119346262
 20
107.8564230922
 30
0.0
 11
136.0811717325
 21
108.4954100299
 31
0.0
  0
LINE
  5
19C
330
1F
100
AcDbEntity
  8
0
  6
HIDDEN
 62
     7
370
     0
100
AcDbLine
 10
136.7119346262
 20
107.8564230922
 30
0.0
 11
136.8524050788
 21
106.7274310264
 31
0.0
  0
LINE
  5
19D
330
1F
100
AcDbEntity
  8
0
  6
HIDDEN
 62
     7
370
     0
100
AcDbLine
 10
135.5908797571
 20
108.0054058332
 30
0.0
 11
134.3621518911
 21
107.7111432898
 31
0.0
  0
LINE
  5
19E
330
1F
100
AcDbEntity
  8
0
  6
HIDDEN
 62
     7
370
     0
100
AcDbLine
 10
136.0811717325
 20
108.4954100299
 30
0.0
 11
134.8524438665
 21
108.2011479523
 31
0.0
  0
LINE
  5
19F
330
1F
100
AcDbEntity
  8
0
  6
HIDDEN
 62
     7
370
     0
100
AcDbLine
 10
135.7313502097
 20
106.8764137674
 30
0.0
 11
134.5026223437
 21
106.5821521554
 31
0.0
  0
LINE
  5
1A0
330
1F
100
AcDbEntity
  8
0
  6
HIDDEN
 62
     7
370
     0
100
AcDbLine
 10
136.3621131034
 20
106.2374268297
 30
0.0
 11
135.1333847717
 21
105.9431652177
 31
0.0
  0
LINE
  5
1A1
330
1F
100
AcDbEntity
  8
0
  6
HIDDEN
 62
     7
370
     0
100
AcDbLine
 10
145.3884034866
 20
105.1114978838
 30
0.0
 11
145.3884034866
 21
107.9328679118
 31
0.0
  0
LINE
  5
1A2
330
1F
100
AcDbEntity
  8
0
  6
HIDDEN
 62
     7
370
     0
100
AcDbLine
 10
141.3884037622
 20
107.9159131843
 30
0.0
 11
141.3884037622
 21
106.394457129
 31
0.0
  0
LINE
  5
1A3
330
1F
100
AcDbEntity
  8
0
  6
HIDDEN
 62
     7
370
     0
100
AcDbLine
 10
133.588403741
 20
104.5764158118
 30
0.0
 11
135.4820030258
 21
105.0299047131
 31
0.0
  0
LINE
  5
1A4
330
1F
100
AcDbEntity
  8
0
  6
HIDDEN
 62
     7
370
     0
100
AcDbLine
 10
134.5038256125
 20
109.1144079912
 30
0.0
 11
133.588403741
 21
108.8951783824
 31
0.0
  0
LINE
  5
1A5
330
1F
100
AcDbEntity
  8
0
  6
HIDDEN
 62
     7
370
     0
100
AcDbLine
 10
135.511364367
 20
105.4996610257
 30
0.0
 11
142.7184245997
 21
107.2256439004
 31
0.0
  0
LINE
  5
1A6
330
1F
100
AcDbEntity
  8
0
  6
HIDDEN
 62
     7
370
     0
100
AcDbLine
 10
142.7184245997
 20
110.6189577479
 30
0.0
 11
134.7427964659
 21
108.7089134018
 31
0.0
  0
LINE
  5
1A7
330
1F
100
AcDbEntity
  8
0
  6
HIDDEN
 62
     7
370
     0
100
AcDbLine
 10
145.0384040811
 20
107.9764370445
 30
0.0
 11
145.0384040811
 21
114.8097384359
 31
0.0
  0
LINE
  5
1A8
330
1F
100
AcDbEntity
  8
0
  6
HIDDEN
 62
     7
370
     0
100
AcDbLine
 10
141.738404099
 20
107.9986770276
 30
0.0
 11
141.738404099
 21
107.9764370445
 31
0.0
  0
LINE
  5
1A9
330
1F
100
AcDbEntity
  8
0
  6
HIDDEN
 62
     7
370
     0
100
AcDbLine
 10
141.738404099
 20
114.8110257566
 30
0.0
 11
141.738404099
 21
109.3765240732
 31
0.0
  0
ARC
  5
1AA
330
1F
100
AcDbEntity
  8
0
  6
HIDDEN
 62
     7
370
     0
100
AcDbCircle
 10
229.3884038218
 20
127.9703409869
 30
0.0
 40
1.0
100
AcDbArc
 50
270.0
 51
0.0
  0
ARC
  5
1AB
330
1F
100
AcDbEntity
  8
0
  6
HIDDEN
 62
     7
370
     0
100
AcDbCircle
 10
229.3884038218
 20
103.9703409869
 30
0.0
 40
1.0
100
AcDbArc
 50
0.0
 51
90.0
  0
ARC
  5
1AC
330
1F
100
AcDbEntity
  8
0
  6
HIDDEN
 62
     7
370
     0
100
AcDbCircle
 10
203.7567513243
 20
126.4703409869
 30
0.0
 40
1.000000000000003
100
AcDbArc
 50
75.0
 51
90.0
  0
ARC
  5
1AD
330
1F
100
AcDbEntity
  8
0
  6
HIDDEN
 62
     7
370
     0
100
AcDbCircle
 10
203.7567513243
 20
105.4703409869
 30
0.0
 40
1.000000000000003
100
AcDbArc
 50
270.0
 51
285.0
  0
ARC
  5
1AE
330
1F
100
AcDbEntity
  8
0
  6
HIDDEN
 62
     7
370
     0
100
AcDbCircle
 10
202.8884038218
 20
126.4703409869
 30
0.0
 40
1.0
100
AcDbArc
 50
90.0
 51
180.0
  0
ARC
  5
1AF
330
1F
100
AcDbEntity
  8
0
  6
HIDDEN
 62
     7
370
     0
100
AcDbCircle
 10
202.8884038218
 20
105.4703409869
 30
0.0
 40
1.0
100
AcDbArc
 50
180.0
 51
270.0
  0
LINE
  5
1B0
330
1F
100
AcDbEntity
  8
0
  6
HIDDEN
 62
     7
370
     0
100
AcDbLine
 10
203.7567520031
 20
127.4703410092
 30
0.0
 11
202.8884017357
 21
127.4703410092
 31
0.0
  0
LINE
  5
1B1
330
1F
100
AcDbEntity
  8
0
  6
HIDDEN
 62
     7
370
     0
100
AcDbLine
 10
202.8884017357
 20
104.4703409645
 30
0.0
 11
203.7567520031
 21
104.4703409645
 31
0.0
  0
LINE
  5
1B2
330
1F
100
AcDbEntity
  8
0
  6
HIDDEN
 62
     7
370
     0
100
AcDbLine
 10
204.0155702719
 20
104.5044152636
 30
0.0
 11
205.7544314751
 21
104.9703410465
 31
0.0
  0
LINE
  5
1B3
330
1F
100
AcDbEntity
  8
0
  6
HIDDEN
 62
     7
370
     0
100
AcDbLine
 10
205.7544314751
 20
126.9703409273
 30
0.0
 11
204.0155702719
 21
127.4362667102
 31
0.0
  0
LINE
  5
1B4
330
1F
100
AcDbEntity
  8
0
  6
HIDDEN
 62
     7
370
     0
100
AcDbLine
 10
213.8829404005
 20
126.9703409273
 30
0.0
 11
205.7544314751
 21
126.9703409273
 31
0.0
  0
LINE
  5
1B5
330
1F
100
AcDbEntity
  8
0
  6
HIDDEN
 62
     7
370
     0
100
AcDbLine
 10
229.3884032854
 20
126.9703409273
 30
0.0
 11
222.7838957199
 21
126.9703409273
 31
0.0
  0
LINE
  5
1B6
330
1F
100
AcDbEntity
  8
0
  6
HIDDEN
 62
     7
370
     0
100
AcDbLine
 10
205.7544314751
 20
104.9703410465
 30
0.0
 11
229.3884032854
 21
104.9703410465
 31
0.0
  0
ARC
  5
1B7
330
1F
100
AcDbEntity
  8
0
  6
HIDDEN
 62
     7
370
     0
100
AcDbCircle
 10
62.9384038218
 20
106.6703409869
 30
0.0
 40
0.79999999999999
100
AcDbArc
 50
90.0
 51
180.0
  0
ARC
  5
1B8
330
1F
100
AcDbEntity
  8
0
  6
HIDDEN
 62
     7
370
     0
100
AcDbCircle
 10
62.9384038218
 20
125.2703409869
 30
0.0
 40
0.8000000000000114
100
AcDbArc
 50
180.0
 51
270.0
  0
ARC
  5
1B9
330
1F
100
AcDbEntity
  8
0
  6
HIDDEN
 62
     7
370
     0
100
AcDbCircle
 10
70.9074637142
 20
107.6453409869
 30
0.0
 40
0.4000000000000057
100
AcDbArc
 50
270.0
 51
330.0
  0
ARC
  5
1BA
330
1F
100
AcDbEntity
  8
0
  6
HIDDEN
 62
     7
370
     0
100
AcDbCircle
 10
70.9074637142
 20
124.2953409869
 30
0.0
 40
0.4000000000000057
100
AcDbArc
 50
30.0
 51
90.0
  0
LINE
  5
1BB
330
1F
100
AcDbEntity
  8
0
  6
HIDDEN
 62
     7
370
     0
100
AcDbLine
 10
70.0307772943
 20
107.2453413728
 30
0.0
 11
70.9074647614
 21
107.2453413728
 31
0.0
  0
LINE
  5
1BC
330
1F
100
AcDbEntity
  8
0
  6
HIDDEN
 62
     7
370
     0
100
AcDbLine
 10
70.9074647614
 20
124.6953406009
 30
0.0
 11
70.0307772943
 21
124.6953406009
 31
0.0
  0
ARC
  5
1BD
330
1F
100
AcDbEntity
  8
0
  6
HIDDEN
 62
     7
370
     0
100
AcDbCircle
 10
70.0307762526
 20
107.6453409869
 30
0.0
 40
0.3999999999999915
100
AcDbArc
 50
255.0
 51
270.0
  0
ARC
  5
1BE
330
1F
100
AcDbEntity
  8
0
  6
HIDDEN
 62
     7
370
     0
100
AcDbCircle
 10
70.0307762526
 20
124.2953409869
 30
0.0
 40
0.3999999999999915
100
AcDbArc
 50
90.0
 51
105.0
  0
LINE
  5
1BF
330
1F
100
AcDbEntity
  8
0
  6
HIDDEN
 62
     7
370
     0
100
AcDbLine
 10
69.9272477516
 20
124.6817116264
 30
0.0
 11
69.1384026297
 21
124.4703414488
 31
0.0
  0
LINE
  5
1C0
330
1F
100
AcDbEntity
  8
0
  6
HIDDEN
 62
     7
370
     0
100
AcDbLine
 10
69.1384026297
 20
107.4703405249
 30
0.0
 11
69.9272477516
 21
107.2589703474
 31
0.0
  0
LINE
  5
1C1
330
1F
100
AcDbEntity
  8
0
  6
HIDDEN
 62
     7
370
     0
100
AcDbLine
 10
71.2538720557
 20
107.4453410331
 30
0.0
 11
72.1343332418
 21
108.9703407708
 31
0.0
  0
LINE
  5
1C2
330
1F
100
AcDbEntity
  8
0
  6
HIDDEN
 62
     7
370
     0
100
AcDbLine
 10
72.1343332418
 20
122.970341203
 30
0.0
 11
71.2538720557
 21
124.4953409407
 31
0.0
  0
LINE
  5
1C3
330
1F
100
AcDbEntity
  8
0
  6
HIDDEN
 62
     7
370
     0
100
AcDbLine
 10
62.938401986
 20
107.4703405249
 30
0.0
 11
69.1384026297
 21
107.4703405249
 31
0.0
  0
LINE
  5
1C4
330
1F
100
AcDbEntity
  8
0
  6
HIDDEN
 62
     7
370
     0
100
AcDbLine
 10
69.1384026297
 20
124.4703414488
 30
0.0
 11
62.938401986
 21
124.4703414488
 31
0.0
  0
LINE
  5
1C5
330
1F
100
AcDbEntity
  8
0
  6
HIDDEN
 62
     7
370
     0
100
AcDbLine
 10
72.1343332418
 20
108.9703407708
 30
0.0
 11
105.1384029427
 21
108.9703407708
 31
0.0
  0
LINE
  5
1C6
330
1F
100
AcDbEntity
  8
0
  6
HIDDEN
 62
     7
370
     0
100
AcDbLine
 10
105.1384029427
 20
122.970341203
 30
0.0
 11
72.1343332418
 21
122.970341203
 31
0.0
  0
LINE
  5
1C7
330
1F
100
AcDbEntity
  8
0
  6
HIDDEN
 62
     7
370
     0
100
AcDbLine
 10
105.1384029427
 20
108.9703407708
 30
0.0
 11
107.3015020677
 21
112.5703409418
 31
0.0
  0
LINE
  5
1C8
330
1F
100
AcDbEntity
  8
0
  6
HIDDEN
 62
     7
370
     0
100
AcDbLine
 10
107.3015020677
 20
119.370341032
 30
0.0
 11
105.1384029427
 21
122.970341203
 31
0.0
  0
LINE
  5
1C9
330
1F
100
AcDbEntity
  8
0
  6
HIDDEN
 62
     7
370
     0
100
AcDbLine
 10
212.0884010085
 20
135.9703405398
 30
0.0
 11
213.8384008297
 21
134.2203407187
 31
0.0
  0
LINE
  5
1CA
330
1F
100
AcDbEntity
  8
0
  6
HIDDEN
 62
     7
370
     0
100
AcDbLine
 10
222.8384041675
 20
134.2203407187
 30
0.0
 11
224.5884039887
 21
135.9703405398
 31
0.0
  0
LINE
  5
1CB
330
1F
100
AcDbEntity
  8
0
  6
HIDDEN
 62
     7
370
     0
100
AcDbLine
 10
213.8384008297
 20
134.2203407187
 30
0.0
 11
213.8384008297
 21
126.9524399761
 31
0.0
  0
LINE
  5
1CC
330
1F
100
AcDbEntity
  8
0
  6
HIDDEN
 62
     7
370
     0
100
AcDbLine
 10
222.8384041675
 20
126.9482257414
 30
0.0
 11
222.8384041675
 21
134.2203407187
 31
0.0
  0
SPLINE
  5
1CD
330
1F
100
AcDbEntity
  8
0
  6
HIDDEN
 62
     7
370
     0
100
AcDbSpline
210
0.0
220
0.0
230
1.0
 70
     8
 71
     3
 72
    10
 73
     6
 74
     0
 42
0.000000001
 43
0.00000001
 40
0.0
 40
0.0
 40
0.0
 40
0.0
 40
0.2613060657666322
 40
0.7538668486594853
 40
1.0
 40
1.0
 40
1.0
 40
1.0
 10
149.4758786150346
 20
93.58815053585744
 30
0.0
 10
149.4738929172492
 20
93.5786072813678
 30
0.0
 10
149.4681641878852
 20
93.5510750342041
 30
0.0
 10
149.4513970436689
 20
93.47115126518834
 30
0.0
 10
149.4433544256558
 20
93.39533988002268
 30
0.0
 10
149.4406746217142
 20
93.37007949236607
 30
0.0
  0
LINE
  5
1CE
330
1F
100
AcDbEntity
  8
0
  6
HIDDEN
 62
     7
370
     0
100
AcDbLine
 10
201.8884071597
 20
119.370341032
 30
0.0
 11
148.1973720231
 21
119.370341032
 31
0.0
  0
LINE
  5
1CF
330
1F
100
AcDbEntity
  8
0
  6
HIDDEN
 62
     7
370
     0
100
AcDbLine
 10
148.1973720231
 20
112.5703409418
 30
0.0
 11
201.8884071597
 21
112.5703409418
 31
0.0
  0
LINE
  5
1D0
330
1F
100
AcDbEntity
  8
0
  6
HIDDEN
 62
     7
370
     0
100
AcDbLine
 10
148.138404403
 20
119.370341032
 30
0.0
 11
107.3015020677
 21
119.370341032
 31
0.0
  0
LINE
  5
1D1
330
1F
100
AcDbEntity
  8
0
  6
HIDDEN
 62
     7
370
     0
100
AcDbLine
 10
107.3015020677
 20
112.5703409418
 30
0.0
 11
148.138404403
 21
112.5703409418
 31
0.0
  0
LINE
  5
1D2
330
1F
100
AcDbEntity
  8
0
  6
HIDDEN
 62
     7
370
     0
100
AcDbLine
 10
145.0384040811
 20
117.1296562172
 30
0.0
 11
145.0384040811
 21
123.9642449293
 31
0.0
  0
LINE
  5
1D3
330
1F
100
AcDbEntity
  8
0
  6
HIDDEN
 62
     7
370
     0
100
AcDbLine
 10
141.738404099
 20
122.5641579005
 30
0.0
 11
141.738404099
 21
117.1309435378
 31
0.0
  0
LINE
  5
1D4
330
1F
100
AcDbEntity
  8
0
  6
HIDDEN
 62
     7
370
     0
100
AcDbLine
 10
141.738404099
 20
123.9642449293
 30
0.0
 11
141.738404099
 21
123.9420049462
 31
0.0
  0
LINE
  5
1D5
330
1F
100
AcDbEntity
  8
0
  6
HIDDEN
 62
     7
370
     0
100
AcDbLine
 10
134.7427964659
 20
123.2317685719
 30
0.0
 11
142.7184245997
 21
121.3217242259
 31
0.0
  0
LINE
  5
1D6
330
1F
100
AcDbEntity
  8
0
  6
HIDDEN
 62
     7
370
     0
100
AcDbLine
 10
142.7184245997
 20
124.7150380734
 30
0.0
 11
135.511364367
 21
126.441020948
 31
0.0
  0
LINE
  5
1D7
330
1F
100
AcDbEntity
  8
0
  6
HIDDEN
 62
     7
370
     0
100
AcDbLine
 10
145.3884034866
 20
124.007814062
 30
0.0
 11
145.3884034866
 21
126.8291840899
 31
0.0
  0
LINE
  5
1D8
330
1F
100
AcDbEntity
  8
0
  6
HIDDEN
 62
     7
370
     0
100
AcDbLine
 10
141.3884037622
 20
125.5462248448
 30
0.0
 11
141.3884037622
 21
124.0247687894
 31
0.0
  0
LINE
  5
1D9
330
1F
100
AcDbEntity
  8
0
  6
HIDDEN
 62
     7
370
     0
100
AcDbLine
 10
133.588403741
 20
123.0455035913
 30
0.0
 11
134.5038256125
 21
122.8262739826
 31
0.0
  0
LINE
  5
1DA
330
1F
100
AcDbEntity
  8
0
  6
HIDDEN
 62
     7
370
     0
100
AcDbLine
 10
135.4820030258
 20
126.9107772607
 30
0.0
 11
133.588403741
 21
127.364266162
 31
0.0
  0
LINE
  5
1DB
330
1F
100
AcDbEntity
  8
0
  6
HIDDEN
 62
     7
370
     0
100
AcDbLine
 10
223.3384051808
 20
135.270341729
 30
0.0
 11
222.9756140598
 21
135.6331347126
 31
0.0
  0
LINE
  5
1DC
330
1F
100
AcDbEntity
  8
0
  6
HIDDEN
 62
     7
370
     0
100
AcDbLine
 10
213.7021669635
 20
135.6341051507
 30
0.0
 11
213.338407267
 21
135.270341729
 31
0.0
  0
LINE
  5
1DD
330
1F
100
AcDbEntity
  8
0
  6
HIDDEN
 62
     7
370
     0
100
AcDbLine
 10
213.338407267
 20
135.270341729
 30
0.0
 11
213.338407267
 21
128.7478399101
 31
0.0
  0
LINE
  5
1DE
330
1F
100
AcDbEntity
  8
0
  6
HIDDEN
 62
     7
370
     0
100
AcDbLine
 10
223.3384051808
 20
128.7478399101
 30
0.0
 11
223.3384051808
 21
135.270341729
 31
0.0
  0
LINE
  5
1DF
330
1F
100
AcDbEntity
  8
0
  6
HIDDEN
 62
     7
370
     0
100
AcDbLine
 10
213.338407267
 20
128.7478399101
 30
0.0
 11
215.2288207301
 21
121.6926951531
 31
0.0
  0
LINE
  5
1E0
330
1F
100
AcDbEntity
  8
0
  6
HIDDEN
 62
     7
370
     0
100
AcDbLine
 10
221.4479842671
 20
121.6926951531
 30
0.0
 11
223.3384051808
 21
128.7478399101
 31
0.0
  0
ARC
  5
1E1
330
1F
100
AcDbEntity
  8
0
  6
HIDDEN
 62
     7
370
     0
100
AcDbCircle
 10
215.5186019182
 20
121.7703409869
 30
0.0
 40
0.2999999999999972
100
AcDbArc
 50
195.0
 51
270.0
  0
ARC
  5
1E2
330
1F
100
AcDbEntity
  8
0
  6
HIDDEN
 62
     7
370
     0
100
AcDbCircle
 10
221.1582057254
 20
121.7703409869
 30
0.0
 40
0.2999999999999972
100
AcDbArc
 50
270.0
 51
345.0
  0
LINE
  5
1E3
330
1F
100
AcDbEntity
  8
0
  6
HIDDEN
 62
     7
370
     0
100
AcDbLine
 10
215.3384038695
 20
135.9703405398
 30
0.0
 11
215.6274714955
 21
135.6812766391
 31
0.0
  0
LINE
  5
1E4
330
1F
100
AcDbEntity
  8
0
  6
HIDDEN
 62
     7
370
     0
100
AcDbLine
 10
221.0493409523
 20
135.6812766391
 30
0.0
 11
221.3384011277
 21
135.9703405398
 31
0.0
  0
LINE
  5
1E5
330
1F
100
AcDbEntity
  8
0
  6
HIDDEN
 62
     7
370
     0
100
AcDbLine
 10
215.8384048828
 20
128.9703412551
 30
0.0
 11
215.8384048828
 21
127.9703410912
 31
0.0
  0
LINE
  5
1E6
330
1F
100
AcDbEntity
  8
0
  6
HIDDEN
 62
     7
370
     0
100
AcDbLine
 10
220.8384001144
 20
127.9703410912
 30
0.0
 11
220.8384001144
 21
128.9703412551
 31
0.0
  0
LINE
  5
1E7
330
1F
100
AcDbEntity
  8
0
  6
HIDDEN
 62
     7
370
     0
100
AcDbLine
 10
215.8384048828
 20
127.9703410912
 30
0.0
 11
218.3384024986
 21
127.0604156527
 31
0.0
  0
LINE
  5
1E8
330
1F
100
AcDbEntity
  8
0
  6
HIDDEN
 62
     7
370
     0
100
AcDbLine
 10
218.3384024986
 20
127.0604156527
 30
0.0
 11
220.8384001144
 21
127.9703410912
 31
0.0
  0
LINE
  5
1E9
330
1F
100
AcDbEntity
  8
0
  6
HIDDEN
 62
     7
370
     0
100
AcDbLine
 10
141.3884037622
 20
106.8384027678
 30
0.0
 11
141.3884037622
 21
106.7015952069
 31
0.0
  0
LINE
  5
1EA
330
1F
100
AcDbEntity
  8
0
  6
HIDDEN
 62
     7
370
     0
100
AcDbLine
 10
145.3884034866
 20
106.7015952069
 30
0.0
 11
145.3884034866
 21
106.8384027678
 31
0.0
  0
LINE
  5
1EB
330
1F
100
AcDbEntity
  8
0
  6
HIDDEN
 62
     7
370
     0
100
AcDbLine
 10
141.8884038442
 20
107.6708710391
 30
0.0
 11
141.8884038442
 21
106.6673933167
 31
0.0
  0
LINE
  5
1EC
330
1F
100
AcDbEntity
  8
0
  6
HIDDEN
 62
     7
370
     0
100
AcDbLine
 10
144.8884034046
 20
106.6673933167
 30
0.0
 11
144.8884034046
 21
107.6708710391
 31
0.0
  0
LINE
  5
1ED
330
1F
100
AcDbEntity
  8
0
  6
HIDDEN
 62
     7
370
     0
100
AcDbLine
 10
141.3884037622
 20
107.9328679118
 30
0.0
 11
141.3884037622
 21
107.607948092
 31
0.0
  0
LINE
  5
1EE
330
1F
100
AcDbEntity
  8
0
  6
HIDDEN
 62
     7
370
     0
100
AcDbLine
 10
145.3884034866
 20
107.607948092
 30
0.0
 11
145.3884034866
 21
107.9328679118
 31
0.0
  0
LINE
  5
1EF
330
1F
100
AcDbEntity
  8
0
  6
HIDDEN
 62
     7
370
     0
100
AcDbLine
 10
145.3884034866
 20
124.007814062
 30
0.0
 11
145.3884034866
 21
124.3327338818
 31
0.0
  0
LINE
  5
1F0
330
1F
100
AcDbEntity
  8
0
  6
HIDDEN
 62
     7
370
     0
100
AcDbLine
 10
141.3884037622
 20
124.3327338818
 30
0.0
 11
141.3884037622
 21
124.007814062
 31
0.0
  0
LINE
  5
1F1
330
1F
100
AcDbEntity
  8
0
  6
HIDDEN
 62
     7
370
     0
100
AcDbLine
 10
144.8884034046
 20
124.2698109347
 30
0.0
 11
144.8884034046
 21
125.2732886571
 31
0.0
  0
LINE
  5
1F2
330
1F
100
AcDbEntity
  8
0
  6
HIDDEN
 62
     7
370
     0
100
AcDbLine
 10
141.8884038442
 20
125.2732886571
 30
0.0
 11
141.8884038442
 21
124.2698109347
 31
0.0
  0
LINE
  5
1F3
330
1F
100
AcDbEntity
  8
0
  6
HIDDEN
 62
     7
370
     0
100
AcDbLine
 10
145.3884034866
 20
125.102279206
 30
0.0
 11
145.3884034866
 21
125.2390867669
 31
0.0
  0
LINE
  5
1F4
330
1F
100
AcDbEntity
  8
0
  6
HIDDEN
 62
     7
370
     0
100
AcDbLine
 10
141.3884037622
 20
125.2390867669
 30
0.0
 11
141.3884037622
 21
125.102279206
 31
0.0
  0
CIRCLE
  5
1F5
330
1F
100
AcDbEntity
  8
0
  6
HIDDEN
 62
     7
370
     0
100
AcDbCircle
 10
143.3884038218
 20
124.6918546417
 30
0.0
 40
1.499999999999992
  0
ARC
  5
1F6
330
1F
100
AcDbEntity
  8
0
  6
HIDDEN
 62
     7
370
     0
100
AcDbCircle
 10
143.3884038218
 20
107.2488273321
 30
0.0
 40
1.500000000000014
100
AcDbArc
 50
71.1182787691
 51
191.527441716
  0
ARC
  5
1F7
330
1F
100
AcDbEntity
  8
0
  6
HIDDEN
 62
     7
370
     0
100
AcDbCircle
 10
143.3884038218
 20
107.2488273321
 30
0.0
 40
1.500000000000014
100
AcDbArc
 50
336.6037645748
 51
71.1182787691
  0
LINE
  5
1F8
330
1F
100
AcDbEntity
  8
0
  6
HIDDEN
 62
     7
370
     0
100
AcDbLine
 10
137.1488641464
 20
122.7718083758
 30
0.0
 11
137.6459068135
 21
123.2454236235
 31
0.0
  0
LINE
  5
1F9
330
1F
100
AcDbEntity
  8
0
  6
HIDDEN
 62
     7
370
     0
100
AcDbLine
 10
138.0933472403
 20
125.1137680012
 30
0.0
 11
137.8647690156
 21
125.7611582625
 31
0.0
  0
LINE
  5
1FA
330
1F
100
AcDbEntity
  8
0
  6
HIDDEN
 62
     7
370
     0
100
AcDbLine
 10
134.7115613037
 20
122.8793519187
 30
0.0
 11
136.3702076935
 21
122.4821307335
 31
0.0
  0
LINE
  5
1FB
330
1F
100
AcDbEntity
  8
0
  6
HIDDEN
 62
     7
370
     0
100
AcDbLine
 10
137.301805474
 20
126.3721338112
 30
0.0
 11
135.6431590841
 21
126.7693549964
 31
0.0
  0
LINE
  5
1FC
330
1F
100
AcDbEntity
  8
0
  6
HIDDEN
 62
     7
370
     0
100
AcDbLine
 10
135.6431590841
 20
105.1713269773
 30
0.0
 11
137.301805474
 21
105.5685481626
 31
0.0
  0
LINE
  5
1FD
330
1F
100
AcDbEntity
  8
0
  6
HIDDEN
 62
     7
370
     0
100
AcDbLine
 10
136.3702076935
 20
109.4585512403
 30
0.0
 11
134.7115613037
 21
109.061330055
 31
0.0
  0
LINE
  5
1FE
330
1F
100
AcDbEntity
  8
0
  6
HIDDEN
 62
     7
370
     0
100
AcDbLine
 10
137.8647690156
 20
106.1795237112
 30
0.0
 11
138.0933472403
 21
106.8269139725
 31
0.0
  0
LINE
  5
1FF
330
1F
100
AcDbEntity
  8
0
  6
HIDDEN
 62
     7
370
     0
100
AcDbLine
 10
137.6459068135
 20
108.6952583503
 30
0.0
 11
137.1488641464
 21
109.168873598
 31
0.0
  0
DIMENSION
  5
200
330
1F
100
AcDbEntity
  8
VERMASSUNG
100
AcDbDimension
  2
_D
 10
54.6074632705
 20
147.7203409869
 30
0.0
 11
54.6074632705
 21
115.9703409869
 31
0.0
 70
   160
  1
ISO 40 %%c<>
 71
     2
 42
-1.0
  3
SLDDIMSTYLE0
100
AcDbAlignedDimension
 13
148.8384038218
 23
84.2203409869
 33
0.0
 14
148.8384038218
 24
147.7203409869
 34
0.0
 50
90.0
100
AcDbRotatedDimension
  0
DIMENSION
  5
20D
330
1F
100
AcDbEntity
  8
VERMASSUNG
100
AcDbDimension
  2
_D_1
 10
238.8115257801
 20
126.9703409869
 30
0.0
 11
238.8115257801
 21
115.9703409869
 31
0.0
 70
   160
  1
%%c<>
 71
     2
 42
-1.0
  3
SLDDIMSTYLE0
100
AcDbAlignedDimension
 13
229.3884038218
 23
104.9703409869
 33
0.0
 14
229.3884038218
 24
126.9703409869
 34
0.0
 50
90.0
100
AcDbRotatedDimension
  0
DIMENSION
  5
218
330
1F
100
AcDbEntity
  8
VERMASSUNG
100
AcDbDimension
  2
_D_2
 10
244.8115257801
 20
135.9703409869
 30
0.0
 11
244.8115257801
 21
115.9703409869
 31
0.0
 70
   160
  1
WH %%c<>
 71
     2
 42
-1.0
  3
SLDDIMSTYLE0
100
AcDbAlignedDimension
 13
229.9884038218
 23
95.9703409869
 33
0.0
 14
229.9884038218
 24
135.9703409869
 34
0.0
 50
90.0
100
AcDbRotatedDimension
  0
DIMENSION
  5
224
330
1F
100
AcDbEntity
  8
VERMASSUNG
100
AcDbDimension
  2
_D_3
 10
149.4384038218
 20
152.8273783858
 30
0.0
 11
189.9134038218
 21
152.8273783858
 31
0.0
 70
   160
  1
<>
 71
     2
 42
-1.0
  3
SLDDIMSTYLE0
100
AcDbAlignedDimension
 13
230.3884038218
 23
135.5703409869
 33
0.0
 14
149.4384038218
 24
145.9808921203
 34
0.0
100
AcDbRotatedDimension
  0
DIMENSION
  5
22E
330
1F
100
AcDbEntity
  8
VERMASSUNG
100
AcDbDimension
  2
_D_4
 10
130.3884038218
 20
158.8273783858
 30
0.0
 11
180.3884038218
 21
158.8273783858
 31
0.0
 70
   160
  1
<>
 71
     2
 42
-1.0
  3
SLDDIMSTYLE0
100
AcDbAlignedDimension
 13
230.3884038218
 23
135.5703409869
 33
0.0
 14
130.3884038218
 24
138.1953409869
 34
0.0
100
AcDbRotatedDimension
  0
DIMENSION
  5
238
330
1F
100
AcDbEntity
  8
VERMASSUNG
100
AcDbDimension
  2
_D_5
 10
62.1384038218
 20
164.8273783858
 30
0.0
 11
146.2634038218
 21
164.8273783858
 31
0.0
 70
   160
  1
<>
 71
     2
 42
-1.0
  3
SLDDIMSTYLE0
100
AcDbAlignedDimension
 13
230.3884038218
 23
135.5703409869
 33
0.0
 14
62.1384038218
 24
127.3774715839
 34
0.0
100
AcDbRotatedDimension
  0
LINE
  5
242
330
1F
100
AcDbEntity
  8
VERMASSUNG
  6
CENTERX2
370
     0
100
AcDbLine
 10
231.7673798954
 20
115.9703409869
 30
0.0
 11
60.9705972833
 21
115.9703409869
 31
0.0
  0
LINE
  5
243
330
1F
100
AcDbEntity
  8
0
  6
Continuous
 62
     7
370
    15
100
AcDbLine
 10
273.1159221338
 20
22.9362290687
 30
0.0
 11
273.2573202649
 21
23.0178830122
 31
0.0
  0
LINE
  5
244
330
1F
100
AcDbEntity
  8
0
  6
Continuous
 62
     7
370
    15
100
AcDbLine
 10
280.1858405403
 20
35.0197326815
 30
0.0
 11
280.1858405403
 21
35.1830140265
 31
0.0
  0
LINE
  5
245
330
1F
100
AcDbEntity
  8
0
  6
Continuous
 62
     7
370
    15
100
AcDbLine
 10
278.1143663999
 20
39.7614619269
 30
0.0
 11
250.6963004494
 21
55.5895744893
 31
0.0
  0
LINE
  5
246
330
1F
100
AcDbEntity
  8
0
  6
Continuous
 62
     7
370
    15
100
AcDbLine
 10
240.6971134225
 20
38.2685977528
 30
0.0
 11
268.115179373
 21
22.4404851904
 31
0.0
  0
SPLINE
  5
247
330
1F
100
AcDbEntity
  8
0
  6
Continuous
 62
     7
370
    15
100
AcDbSpline
210
0.0
220
0.0
230
1.0
 70
     8
 71
     3
 72
    25
 73
    21
 74
     0
 42
0.000000001
 43
0.00000001
 40
0.0
 40
0.0
 40
0.0
 40
0.0
 40
0.0104920381573042
 40
0.0772830717431436
 40
0.137712849700971
 40
0.2019504788325786
 40
0.2638824054520462
 40
0.3248015216387505
 40
0.3854855980094699
 40
0.4461892363486784
 40
0.5070481046343064
 40
0.568078940341599
 40
0.6292444895749159
 40
0.6904873714794397
 40
0.7517434366545209
 40
0.8129277257161373
 40
0.8739695890718235
 40
0.9348051843508691
 40
0.9921917433571124
 40
0.9999999999999999
 40
0.9999999999999999
 40
0.9999999999999999
 40
0.9999999999999999
 10
270.2443795493282
 20
26.41985238862186
 30
0.0
 10
270.2231483039435
 20
26.42764552921287
 30
0.0
 10
270.0667615432726
 20
26.48504885108132
 30
0.0
 10
269.8435121064879
 20
26.67927064406096
 30
0.0
 10
269.5635347452038
 20
27.01814933064251
 30
0.0
 10
269.3523459487034
 20
27.45891144252034
 30
0.0
 10
269.2102716182765
 20
27.9963766965223
 30
0.0
 10
269.1489119594659
 20
28.60447840478489
 30
0.0
 10
269.1694999149353
 20
29.27116537793512
 30
0.0
 10
269.2731550894359
 20
29.98313128697991
 30
0.0
 10
269.4590434931179
 20
30.72445635048158
 30
0.0
 10
269.7241826321791
 20
31.47820342938314
 30
0.0
 10
270.063314343139
 20
32.22668196470543
 30
0.0
 10
270.4690225736056
 20
32.95218476109226
 30
0.0
 10
270.9318658967994
 20
33.63753469019534
 30
0.0
 10
271.440671324483
 20
34.26653564110813
 30
0.0
 10
271.9827877435202
 20
34.82478620693571
 30
0.0
 10
272.5343925801616
 20
35.29081025301204
 30
0.0
 10
272.9271742667981
 20
35.55795040873598
 30
0.0
 10
273.1285074692021
 20
35.6755682072476
 30
0.0
 10
273.1526207564236
 20
35.68965506288797
 30
0.0
  0
SPLINE
  5
248
330
1F
100
AcDbEntity
  8
0
  6
Continuous
 62
     7
370
    15
100
AcDbSpline
210
0.0
220
0.0
230
1.0
 70
     8
 71
     3
 72
    13
 73
     9
 74
     0
 42
0.000000001
 43
0.00000001
 40
0.0
 40
0.0
 40
0.0
 40
0.0
 40
0.0963546257439953
 40
0.2803133397636605
 40
0.4641608644228925
 40
0.6490743032543876
 40
0.8378690738287503
 40
1.0
 40
1.0
 40
1.0
 40
1.0
 10
273.1526207564236
 20
35.68965506288797
 30
0.0
 10
273.2496743632649
 20
35.74312673154304
 30
0.0
 10
273.5320211676838
 20
35.89868565679135
 30
0.0
 10
273.9875036869465
 20
36.07956472034176
 30
0.0
 10
274.4966935328924
 20
36.1967216422483
 30
0.0
 10
274.9598479753296
 20
36.20939568924388
 30
0.0
 10
275.3541109387833
 20
36.14048433508853
 30
0.0
 10
275.5669186105476
 20
36.02370784301083
 30
0.0
 10
275.6652377283538
 20
35.96975602075566
 30
0.0
  0
SPLINE
  5
249
330
1F
100
AcDbEntity
  8
0
  6
Continuous
 62
     7
370
    15
100
AcDbSpline
210
0.0
220
0.0
230
1.0
 70
     8
 71
     3
 72
    30
 73
    26
 74
     0
 42
0.000000001
 43
0.00000001
 40
0.0
 40
0.0
 40
0.0
 40
0.0
 40
0.0080785721507936
 40
0.0543345810317207
 40
0.1007267105368903
 40
0.1473211588524023
 40
0.1940920950737327
 40
0.2409911048753602
 40
0.2879681005236721
 40
0.3349828262983089
 40
0.3820057976411868
 40
0.4290192341551554
 40
0.4760169789844937
 40
0.5229973565148904
 40
0.5699613912159295
 40
0.6169116473352999
 40
0.6638514177887858
 40
0.7107845023262425
 40
0.7577147960127952
 40
0.8046463712348283
 40
0.8515820833474829
 40
0.8985259480993556
 40
0.9454821513464389
 40
0.9924547362511126
 40
1.0
 40
1.0
 40
1.0
 40
1.0
 10
245.616093761891
 20
65.00955726906894
 30
0.0
 10
245.5681998675082
 20
65.02156160145638
 30
0.0
 10
245.2460767699245
 20
65.1022999248461
 30
0.0
 10
244.6165788326729
 20
65.17412149541704
 30
0.0
 10
243.7155452174757
 20
65.17755889836147
 30
0.0
 10
242.7772474581727
 20
65.06183141086977
 30
0.0
 10
241.8112726676691
 20
64.83374687843805
 30
0.0
 10
240.8246589869696
 20
64.49319076041208
 30
0.0
 10
239.8256909804534
 20
64.04333681971272
 30
0.0
 10
238.8224725902819
 20
63.48783664958213
 30
0.0
 10
237.8230831998723
 20
62.8313968512287
 30
0.0
 10
236.8353979638752
 20
62.07947051589158
 30
0.0
 10
235.8670755295627
 20
61.23818303760967
 30
0.0
 10
234.9255479224367
 20
60.31426690749053
 30
0.0
 10
234.0180241393148
 20
59.31504107330068
 30
0.0
 10
233.151456880703
 20
58.24835988508104
 30
0.0
 10
232.3324961548681
 20
57.12256936951339
 30
0.0
 10
231.5674407998528
 20
55.94644619820851
 30
0.0
 10
230.8622087902673
 20
54.72913782950502
 30
0.0
 10
230.2222357135096
 20
53.48009028297074
 30
0.0
 10
229.6526574065462
 20
52.20903086930858
 30
0.0
 10
229.157399070326
 20
50.92564910536533
 30
0.0
 10
228.7424128172086
 20
49.64040713038686
 30
0.0
 10
228.4983351963247
 20
48.7192228141942
 30
0.0
 10
228.3912678522232
 20
48.22972004470498
 30
0.0
 10
228.3764497445742
 20
48.16197291981241
 30
0.0
  0
LINE
  5
24A
330
1F
100
AcDbEntity
  8
0
  6
Continuous
 62
     7
370
    15
100
AcDbLine
 10
238.1492343557
 20
63.0284092103
 30
0.0
 11
216.8361219605
 21
70.7088100588
 31
0.0
  0
LINE
  5
24B
330
1F
100
AcDbEntity
  8
0
  6
Continuous
 62
     7
370
    15
100
AcDbLine
 10
210.6713399659
 20
60.0299374136
 30
0.0
 11
230.9675780635
 21
42.891962326
 31
0.0
  0
SPLINE
  5
24C
330
1F
100
AcDbEntity
  8
0
  6
Continuous
 62
     7
370
    15
100
AcDbSpline
210
0.0
220
0.0
230
1.0
 70
     8
 71
     3
 72
    14
 73
    10
 74
     0
 42
0.000000001
 43
0.00000001
 40
0.0
 40
0.0
 40
0.0
 40
0.0
 40
0.0366300418305826
 40
0.2098536153468299
 40
0.383683622256335
 40
0.5579319094498024
 40
0.7324204878566676
 40
0.9070139487615583
 40
1.0
 40
1.0
 40
1.0
 40
1.0
 10
240.0385294018806
 20
33.1748234640664
 30
0.0
 10
240.1029484607603
 20
33.17662428418348
 30
0.0
 10
240.4720054349695
 20
33.18694118783065
 30
0.0
 10
241.1774500999829
 20
33.31791030625065
 30
0.0
 10
242.1482369415486
 20
33.57235156314682
 30
0.0
 10
243.1400573508814
 20
33.94678693736972
 30
0.0
 10
244.140588787728
 20
34.4317315385195
 30
0.0
 10
244.9885020783845
 20
34.91467811340205
 30
0.0
 10
245.4964773466402
 20
35.27192994523126
 30
0.0
 10
245.673002873365
 20
35.39607785503723
 30
0.0
  0
LINE
  5
24D
330
1F
100
AcDbEntity
  8
0
  6
Continuous
 62
     7
370
    15
100
AcDbLine
 10
235.1335996858
 20
34.6966639138
 30
0.0
 11
236.4870594564
 21
33.9153282195
 31
0.0
  0
LINE
  5
24E
330
1F
100
AcDbEntity
  8
0
  6
Continuous
 62
     7
370
    15
100
AcDbLine
 10
231.3075025218
 20
36.9054227918
 30
0.0
 11
232.6432849822
 21
36.1342919914
 31
0.0
  0
SPLINE
  5
24F
330
1F
100
AcDbEntity
  8
0
  6
Continuous
 62
     7
370
    15
100
AcDbSpline
210
0.0
220
0.0
230
1.0
 70
     8
 71
     3
 72
    10
 73
     6
 74
     0
 42
0.000000001
 43
0.00000001
 40
0.0
 40
0.0
 40
0.0
 40
0.0
 40
0.2351205434247125
 40
0.9176804306602123
 40
1.0
 40
1.0
 40
1.0
 40
1.0
 10
228.3879054555628
 20
40.90307490272352
 30
0.0
 10
228.4207305783842
 20
40.79355377064664
 30
0.0
 10
228.5488477237785
 20
40.36609048655085
 30
0.0
 10
228.7134068386124
 20
39.91971442300467
 30
0.0
 10
228.879655703645
 20
39.62025383080736
 30
0.0
 10
228.8975481112068
 20
39.58802461250113
 30
0.0
  0
SPLINE
  5
250
330
1F
100
AcDbEntity
  8
0
  6
Continuous
 62
     7
370
    15
100
AcDbSpline
210
0.0
220
0.0
230
1.0
 70
     8
 71
     3
 72
    10
 73
     6
 74
     0
 42
0.000000001
 43
0.00000001
 40
0.0
 40
0.0
 40
0.0
 40
0.0
 40
0.0768618679647697
 40
0.73800635395144
 40
1.0
 40
1.0
 40
1.0
 40
1.0
 10
254.427103259654
 20
59.3558360300464
 30
0.0
 10
254.410193114499
 20
59.38698633182551
 30
0.0
 10
254.2478265873626
 20
59.68608289621071
 30
0.0
 10
253.9743610904323
 20
60.03382900955327
 30
0.0
 10
253.7013191711603
 20
60.32543110304191
 30
0.0
 10
253.6238277909739
 20
60.40819000229792
 30
0.0
  0
SPLINE
  5
251
330
1F
100
AcDbEntity
  8
0
  6
Continuous
 62
     7
370
    15
100
AcDbSpline
210
0.0
220
0.0
230
1.0
 70
     8
 71
     3
 72
    10
 73
     6
 74
     0
 42
0.000000001
 43
0.00000001
 40
0.0
 40
0.0
 40
0.0
 40
0.0
 40
0.1779869166773369
 40
0.614625785617598
 40
1.0
 40
1.0
 40
1.0
 40
1.0
 10
255.294302326635
 20
57.36985927333536
 30
0.0
 10
255.2556294017418
 20
57.49964859664865
 30
0.0
 10
255.1220837609255
 20
57.94783808324345
 30
0.0
 10
254.8495516845764
 20
58.62963857791762
 30
0.0
 10
254.5619404657278
 20
59.12404812476317
 30
0.0
 10
254.427103259654
 20
59.3558360300464
 30
0.0
  0
SPLINE
  5
252
330
1F
100
AcDbEntity
  8
0
  6
Continuous
 62
     7
370
    15
100
AcDbSpline
210
0.0
220
0.0
230
1.0
 70
     8
 71
     3
 72
    23
 73
    19
 74
     0
 42
0.000000001
 43
0.00000001
 40
0.0
 40
0.0
 40
0.0
 40
0.0
 40
0.0438801495120947
 40
0.106584574625763
 40
0.1707120330251281
 40
0.2362358260259743
 40
0.3026532123274296
 40
0.3694221640147505
 40
0.4361526688678704
 40
0.5027541736997065
 40
0.5692340981825037
 40
0.635638755507077
 40
0.7020291402281618
 40
0.7684632175131456
 40
0.8349967466073597
 40
0.9016995851649363
 40
0.9686347749841525
 40
1.0
 40
1.0
 40
1.0
 40
1.0
 10
216.5668241780711
 20
70.77640147013648
 30
0.0
 10
216.439328746675
 20
70.80603785374065
 30
0.0
 10
216.1296432402859
 20
70.8780244211298
 30
0.0
 10
215.5963427630178
 20
70.8601128611555
 30
0.0
 10
214.9838394791894
 20
70.74290064777826
 30
0.0
 10
214.3503617679626
 20
70.50842569624209
 30
0.0
 10
213.7101840618621
 20
70.16521955186431
 30
0.0
 10
213.0773736891349
 20
69.71915517934853
 30
0.0
 10
212.4660429418047
 20
69.1812705600843
 30
0.0
 10
211.8885551151386
 20
68.56371277094092
 30
0.0
 10
211.355778226306
 20
67.87939784955365
 30
0.0
 10
210.8776008025366
 20
67.14198438523316
 30
0.0
 10
210.4630336874789
 20
66.36580042045837
 30
0.0
 10
210.1202405034761
 20
65.56579107418837
 30
0.0
 10
209.8558118490283
 20
64.7568385378548
 30
0.0
 10
209.6770713342374
 20
63.95473882683114
 30
0.0
 10
209.5999949926011
 20
63.31097450274745
 30
0.0
 10
209.5934491686771
 20
62.94420520950034
 30
0.0
 10
209.5913605585666
 20
62.82717822206695
 30
0.0
  0
SPLINE
  5
253
330
1F
100
AcDbEntity
  8
0
  6
Continuous
 62
     7
370
    15
100
AcDbSpline
210
0.0
220
0.0
230
1.0
 70
     8
 71
     3
 72
    13
 73
     9
 74
     0
 42
0.000000001
 43
0.00000001
 40
0.0
 40
0.0
 40
0.0
 40
0.0
 40
0.116070631226603
 40
0.3356818389814319
 40
0.5552483291246094
 40
0.7724142139617164
 40
0.9847996929778843
 40
1.0
 40
1.0
 40
1.0
 40
1.0
 10
209.5913605585666
 20
62.82717822206696
 30
0.0
 10
209.594016164405
 20
62.69675181421831
 30
0.0
 10
209.6016963040065
 20
62.31955237991096
 30
0.0
 10
209.6885196604004
 20
61.73426093530695
 30
0.0
 10
209.8816294115955
 20
61.10076937915095
 30
0.0
 10
210.1800486696683
 20
60.56251429549255
 30
0.0
 10
210.4273222492955
 20
60.22490452331005
 30
0.0
 10
210.592548606596
 20
60.10329910260017
 30
0.0
 10
210.6035839678233
 20
60.09517715543237
 30
0.0
  0
LINE
  5
254
330
1F
100
AcDbEntity
  8
0
  6
Continuous
 62
     7
370
    15
100
AcDbLine
 10
270.76392869
 20
42.3787263979
 30
0.0
 11
270.5164018951
 21
42.5216666398
 31
0.0
  0
LINE
  5
255
330
1F
100
AcDbEntity
  8
0
  6
Continuous
 62
     7
370
    15
100
AcDbLine
 10
267.4753486305
 20
42.5216665856
 30
0.0
 11
267.2278221189
 21
42.3787253668
 31
0.0
  0
LINE
  5
256
330
1F
100
AcDbEntity
  8
0
  6
Continuous
 62
     7
370
    15
100
AcDbLine
 10
266.4958755566
 20
41.3583815597
 30
0.0
 11
266.4958755566
 21
41.1338328376
 31
0.0
  0
LINE
  5
257
330
1F
100
AcDbEntity
  8
0
  6
Continuous
 62
     7
370
    15
100
AcDbLine
 10
271.4958763798
 20
41.1338322674
 30
0.0
 11
271.4958763798
 21
41.3583809894
 31
0.0
  0
LINE
  5
258
330
1F
100
AcDbEntity
  8
0
  6
Continuous
 62
     7
370
    15
100
AcDbLine
 10
271.6349664129
 20
33.239532955
 30
0.0
 11
273.5330194426
 21
33.6262476791
 31
0.0
  0
LWPOLYLINE
  5
259
330
1F
100
AcDbEntity
  8
0
  6
Continuous
 62
     7
370
    15
100
AcDbPolyline
 90
       53
 70
   128
 43
0.0
 10
273.2561940025
 20
39.0214329376
 10
272.4209173866
 20
38.4808937771
 10
271.5978210453
 20
37.8315478691
 10
270.7989074462
 20
37.0828647972
 10
270.0358267355
 20
36.245761719
 10
269.3197060104
 20
35.3324462519
 10
268.6609883052
 20
34.3562349272
 10
268.0692791501
 20
33.3313646102
 10
267.5532064659
 20
32.2727792981
 10
267.120297087
 20
31.1959162517
 10
266.7768621748
 20
30.1164780573
 10
266.5279106189
 20
29.0502054464
 10
266.3770723164
 20
28.0126470731
 10
266.3265474646
 20
27.0189330908
 10
266.3770723164
 20
26.0835538606
 10
266.5279106189
 20
25.2201496844
 10
266.7768621748
 20
24.4413104218
 10
267.120297087
 20
23.7583937368
 10
267.5532064659
 20
23.1813572201
 10
268.0692791501
 20
22.7186167463
 10
268.6609883052
 20
22.3769192781
 10
269.3197060104
 20
22.1612472273
 10
270.0358267355
 20
22.0747471501
 10
270.7989074462
 20
22.1186783072
 10
271.5978210453
 20
22.2924012428
 10
272.4209173866
 20
22.5933821422
 10
273.2561940025
 20
23.0172328348
 10
274.0914706183
 20
23.5577719953
 10
274.9145669596
 20
24.2071179032
 10
275.7134805587
 20
24.9558009752
 10
276.4765612695
 20
25.7929040534
 10
277.1926819945
 20
26.7062195205
 10
277.8513996997
 20
27.6824308451
 10
278.4431088548
 20
28.7073011621
 10
278.9591815391
 20
29.7658864742
 10
279.3920909179
 20
30.8427495206
 10
279.7355258301
 20
31.9221877151
 10
279.9844773861
 20
32.9884603259
 10
280.1353156885
 20
34.0260186992
 10
280.1858405403
 20
35.0197326815
 10
280.1353156885
 20
35.9551119118
 10
279.9844773861
 20
36.818516088
 10
279.7355258301
 20
37.5973553505
 10
279.3920909179
 20
38.2802720356
 10
278.9591815391
 20
38.8573085522
 10
278.4431088548
 20
39.320049026
 10
277.8513996997
 20
39.6617464943
 10
277.1926819945
 20
39.877418545
 10
276.4765612695
 20
39.9639186223
 10
275.7134805587
 20
39.9199874652
 10
274.9145669596
 20
39.7462645295
 10
274.0914706183
 20
39.4452836302
 10
273.2561940025
 20
39.0214329376
  0
LWPOLYLINE
  5
25A
330
1F
100
AcDbEntity
  8
0
  6
Continuous
 62
     7
370
    15
100
AcDbPolyline
 90
       28
 70
   128
 43
0.0
 10
273.1147728865
 20
39.266381495
 10
272.2784552764
 20
38.7262733295
 10
271.4538777038
 20
38.0791233021
 10
270.6526155704
 20
37.334014531
 10
269.8859166515
 20
36.5014075539
 10
269.1645437047
 20
35.5929909112
 10
268.4986234982
 20
34.6215156648
 10
267.8975037421
 20
33.6006200297
 10
267.3696233548
 20
32.5446347075
 10
266.92239195
 20
31.4683836567
 10
266.5620877617
 20
30.3869745945
 10
266.2937690703
 20
29.3155887374
 10
266.1212027503
 20
28.2692658818
 10
266.04681027
 20
27.2626938084
 10
266.0716367394
 20
26.3100028655
 10
266.1953337885
 20
25.4245669664
 10
266.4161641769
 20
24.6188150893
 10
266.7310281356
 20
23.9040582225
 10
267.1355061724
 20
23.2903305182
 10
267.6239199873
 20
22.786247413
 10
268.1894134734
 20
22.3988845168
 10
268.8240478767
 20
22.133679504
 10
269.5189147363
 20
21.9943566268
 10
270.2642596909
 20
21.9828700495
 10
271.0496196209
 20
22.0993818769
 10
271.8639697503
 20
22.3422561997
 10
272.6958784049
 20
22.7080837946
 10
273.1159221338
 20
22.9362290687
  0
LWPOLYLINE
  5
25B
330
1F
100
AcDbEntity
  8
0
  6
Continuous
 62
     7
370
    15
100
AcDbPolyline
 90
       15
 70
   128
 43
0.0
 10
280.1858405403
 20
35.1830140265
 10
280.1827355029
 20
35.4231897444
 10
280.1083430226
 20
36.3438700881
 10
279.9357767026
 20
37.1909521117
 10
279.6674580112
 20
37.9525438018
 10
279.3071538229
 20
38.617954503
 10
278.8599224181
 20
39.1778431649
 10
278.3320420308
 20
39.6243507651
 10
277.7309222747
 20
39.9512083028
 10
277.0650020682
 20
40.1538284443
 10
276.3436291214
 20
40.229365611
 10
275.5769302026
 20
40.1767608586
 10
274.7756680691
 20
39.996752062
 10
273.9510904966
 20
39.6918650889
 10
273.1147728865
 20
39.266381495
  0
SPLINE
  5
25C
330
1F
100
AcDbEntity
  8
0
  6
Continuous
 62
     7
370
    15
100
AcDbSpline
210
0.0
220
0.0
230
1.0
 70
    11
 71
     3
 72
    88
 73
    84
 74
     0
 42
0.000000001
 43
0.00000001
 40
0.0
 40
0.0
 40
0.0
 40
0.0
 40
0.0312499999999994
 40
0.0312499999999994
 40
0.0624999999999988
 40
0.0624999999999988
 40
0.0937499999999982
 40
0.0937499999999982
 40
0.1093749999999985
 40
0.1093749999999985
 40
0.1249999999999987
 40
0.1249999999999987
 40
0.1562499999999981
 40
0.1562499999999981
 40
0.1718749999999984
 40
0.1718749999999984
 40
0.1874999999999986
 40
0.1874999999999986
 40
0.2187499999999992
 40
0.2187499999999992
 40
0.234374999999999
 40
0.234374999999999
 40
0.2499999999999988
 40
0.2499999999999988
 40
0.2812499999999992
 40
0.2812499999999992
 40
0.2968749999999994
 40
0.2968749999999994
 40
0.3124999999999996
 40
0.3124999999999996
 40
0.3437499999999995
 40
0.3437499999999995
 40
0.3593749999999995
 40
0.3593749999999995
 40
0.3749999999999994
 40
0.3749999999999994
 40
0.3906249999999994
 40
0.3906249999999994
 40
0.4062499999999994
 40
0.4062499999999994
 40
0.4374999999999993
 40
0.4374999999999993
 40
0.4531249999999992
 40
0.4531249999999992
 40
0.4687499999999991
 40
0.4687499999999991
 40
0.499999999999999
 40
0.499999999999999
 40
0.5312499999999989
 40
0.5312499999999989
 40
0.5624999999999987
 40
0.5624999999999987
 40
0.5937499999999986
 40
0.5937499999999986
 40
0.6249999999999983
 40
0.6249999999999983
 40
0.6562499999999982
 40
0.6562499999999982
 40
0.687499999999998
 40
0.687499999999998
 40
0.7187499999999979
 40
0.7187499999999979
 40
0.7499999999999977
 40
0.7499999999999977
 40
0.7812499999999976
 40
0.7812499999999976
 40
0.8124999999999974
 40
0.8124999999999974
 40
0.8281249999999976
 40
0.8281249999999976
 40
0.8437499999999977
 40
0.8437499999999977
 40
0.874999999999998
 40
0.874999999999998
 40
0.8906249999999981
 40
0.8906249999999981
 40
0.9062499999999982
 40
0.9062499999999982
 40
0.9374999999999989
 40
0.9374999999999989
 40
0.9687499999999994
 40
0.9687499999999994
 40
1.0
 40
1.0
 40
1.0
 40
1.0
 10
268.9703334494629
 20
43.15429349031679
 30
0.0
 10
269.1617711596746
 20
43.12065500547433
 30
0.0
 10
269.348096601785
 20
43.07780806256785
 30
0.0
 10
269.7117788024539
 20
42.97745199439501
 30
0.0
 10
269.8900604461087
 20
42.9195613000157
 30
0.0
 10
270.2335821959514
 20
42.79206865252198
 30
0.0
 10
270.3960670209933
 20
42.72359280981394
 30
0.0
 10
270.6265647985172
 20
42.61489265094994
 30
0.0
 10
270.7011771613488
 20
42.57764816456226
 30
0.0
 10
270.8458998534026
 20
42.50117086087565
 30
0.0
 10
270.9162843061889
 20
42.46176256043904
 30
0.0
 10
271.1170909196738
 20
42.34250692735277
 30
0.0
 10
271.2380947527405
 20
42.26129330074626
 30
0.0
 10
271.40061372579
 20
42.13656818326476
 30
0.0
 10
271.4516030736526
 20
42.09450033022729
 30
0.0
 10
271.5470236262363
 20
42.00920968736508
 30
0.0
 10
271.5915862781397
 20
41.96581626238222
 30
0.0
 10
271.7127471718893
 20
41.83597611007154
 30
0.0
 10
271.7777421398034
 20
41.74927239254767
 30
0.0
 10
271.8511883369903
 20
41.61752987050267
 30
0.0
 10
271.8716361562219
 20
41.57333008053048
 30
0.0
 10
271.9040316819322
 20
41.48403758845917
 30
0.0
 10
271.9159633589117
 20
41.43877690588344
 30
0.0
 10
271.9376649402787
 20
41.30410807518798
 30
0.0
 10
271.9339406947253
 20
41.2149481940673
 30
0.0
 10
271.8994033178639
 20
41.08033326871816
 30
0.0
 10
271.8830301077849
 20
41.03531637909075
 30
0.0
 10
271.8397491344627
 20
40.94467302153332
 30
0.0
 10
271.8127797819088
 20
40.89912010754601
 30
0.0
 10
271.7176933387487
 20
40.76508344401726
 30
0.0
 10
271.6350200742883
 20
40.6778767205812
 30
0.0
 10
271.4800155159717
 20
40.54941682114585
 30
0.0
 10
271.4226181654942
 20
40.5066648946031
 30
0.0
 10
271.2994553161852
 20
40.42386357087546
 30
0.0
 10
271.2338527026351
 20
40.38384040438445
 30
0.0
 10
271.0948034425389
 20
40.30646112006714
 30
0.0
 10
271.0213564437287
 20
40.26910515503811
 30
0.0
 10
270.8665586558173
 20
40.19712737984788
 30
0.0
 10
270.7846448095137
 20
40.1623098804898
 30
0.0
 10
270.5329505714355
 20
40.06463785953729
 30
0.0
 10
270.3563126584297
 20
40.00784397393838
 30
0.0
 10
270.078859932919
 20
39.9354115763861
 30
0.0
 10
269.9844786770697
 20
39.91350633327393
 30
0.0
 10
269.7957490766476
 20
39.87500925916724
 30
0.0
 10
269.7008884823937
 20
39.85827833155169
 30
0.0
 10
269.4148331978632
 20
39.81565911668249
 30
0.0
 10
269.2204942155906
 20
39.79730560569875
 30
0.0
 10
268.8402646877805
 20
39.78290460134329
 30
0.0
 10
268.6534063653956
 20
39.7865327912775
 30
0.0
 10
268.2855902903398
 20
39.81654819943167
 30
0.0
 10
268.106157849095
 20
39.84303705820192
 30
0.0
 10
267.7649630060208
 20
39.917978099641
 30
0.0
 10
267.601722090851
 20
39.96653191995292
 30
0.0
 10
267.2900766483797
 20
40.08725836039125
 30
0.0
 10
267.1451863823566
 20
40.15816167072946
 30
0.0
 10
266.8788262023746
 20
40.31928928578358
 30
0.0
 10
266.75691216155
 20
40.40968365177042
 30
0.0
 10
266.5367355780449
 20
40.61060093530916
 30
0.0
 10
266.441573708378
 20
40.71830530510254
 30
0.0
 10
266.2807313891043
 20
40.94638184388559
 30
0.0
 10
266.2149254865457
 20
41.06691718908398
 30
0.0
 10
266.1154048386677
 20
41.31969467496979
 30
0.0
 10
266.0831644996714
 20
41.44810858422275
 30
0.0
 10
266.0542079496716
 20
41.70705534660962
 30
0.0
 10
266.0575435901804
 20
41.83819227783414
 30
0.0
 10
266.1046202502413
 20
42.09824409691015
 30
0.0
 10
266.1475061964645
 20
42.22320031020624
 30
0.0
 10
266.2420464435982
 20
42.40131412426796
 30
0.0
 10
266.2786330281089
 20
42.45912467727435
 30
0.0
 10
266.3626928098148
 20
42.57121108876209
 30
0.0
 10
266.4105091195438
 20
42.62572150029166
 30
0.0
 10
266.5667347896909
 20
42.77849547361221
 30
0.0
 10
266.6887104739899
 20
42.86769795138835
 30
0.0
 10
266.8990508479367
 20
42.98176399847173
 30
0.0
 10
266.9742639865471
 20
43.01661831555205
 30
0.0
 10
267.1298659205625
 20
43.07776636620397
 30
0.0
 10
267.2106035720316
 20
43.10431573228058
 30
0.0
 10
267.4612973158773
 20
43.17252427111522
 30
0.0
 10
267.6419380650095
 20
43.20285591408997
 30
0.0
 10
268.010857697277
 20
43.2336096149034
 30
0.0
 10
268.1996670689146
 20
43.23461410645552
 30
0.0
 10
268.5857381885401
 20
43.21168725523746
 30
0.0
 10
268.7788957392511
 20
43.18793197515924
 30
0.0
 10
268.9703334494629
 20
43.15429349031679
 30
0.0
  0
LINE
  5
25D
330
1F
100
AcDbEntity
  8
0
  6
Continuous
 62
     7
370
    15
100
AcDbLine
 10
240.6971134225
 20
38.2685977528
 30
0.0
 11
240.7387057766
 21
38.2449829982
 31
0.0
  0
LINE
  5
25E
330
1F
100
AcDbEntity
  8
0
  6
Continuous
 62
     7
370
    15
100
AcDbLine
 10
270.1528634301
 20
26.4601666302
 30
0.0
 11
270.2598680222
 21
26.4030243434
 31
0.0
  0
SPLINE
  5
25F
330
1F
100
AcDbEntity
  8
0
  6
Continuous
 62
     7
370
    15
100
AcDbSpline
210
0.0
220
0.0
230
1.0
 70
     8
 71
     3
 72
    14
 73
    10
 74
     0
 42
0.000000001
 43
0.00000001
 40
0.0
 40
0.0
 40
0.0
 40
0.0
 40
0.0614281399762484
 40
0.2284394111335989
 40
0.4084162151073401
 40
0.5884642541868345
 40
0.7562982604113619
 40
0.9186444074458114
 40
1.0
 40
1.0
 40
1.0
 40
1.0
 10
273.1040692333004
 20
33.538850864353
 30
0.0
 10
273.1713636184106
 20
33.52670611188636
 30
0.0
 10
273.4216184643674
 20
33.48154211859411
 30
0.0
 10
273.8481041845937
 20
33.64562450502451
 30
0.0
 10
274.2779086603404
 20
34.01138066193013
 30
0.0
 10
274.502054320828
 20
34.56551781360012
 30
0.0
 10
274.4622748042204
 20
35.1821136496916
 30
0.0
 10
274.2704742721409
 20
35.69756199387418
 30
0.0
 10
274.0574882053025
 20
35.97246862824199
 30
0.0
 10
273.9863865065511
 20
36.06424143287533
 30
0.0
  0
SPLINE
  5
260
330
1F
100
AcDbEntity
  8
0
  6
Continuous
 62
     7
370
    15
100
AcDbSpline
210
0.0
220
0.0
230
1.0
 70
     8
 71
     3
 72
    12
 73
     8
 74
     0
 42
0.000000001
 43
0.00000001
 40
0.0
 40
0.0
 40
0.0
 40
0.0
 40
0.2499999999999992
 40
0.2499999999999992
 40
0.4999999999999983
 40
0.4999999999999983
 40
1.0
 40
1.0
 40
1.0
 40
1.0
 10
233.6588881857865
 20
45.12322933625816
 30
0.0
 10
233.6926673520588
 20
45.10372903864464
 30
0.0
 10
233.7309920485343
 20
45.07688929006748
 30
0.0
 10
233.8052151726469
 20
45.01848878674483
 30
0.0
 10
233.8405985371416
 20
44.98749912826393
 30
0.0
 10
233.9364084955266
 20
44.89675977524318
 30
0.0
 10
233.9854122536809
 20
44.84086564652564
 30
0.0
 10
234.0192213112956
 20
44.79360578275898
 30
0.0
  0
SPLINE
  5
261
330
1F
100
AcDbEntity
  8
0
  6
Continuous
 62
     7
370
    15
100
AcDbSpline
210
0.0
220
0.0
230
1.0
 70
     8
 71
     3
 72
    12
 73
     8
 74
     0
 42
0.000000001
 43
0.00000001
 40
0.0
 40
0.0
 40
0.0
 40
0.0
 40
0.4999999999999971
 40
0.4999999999999971
 40
0.7499999999999986
 40
0.7499999999999986
 40
1.0
 40
1.0
 40
1.0
 40
1.0
 10
251.1237512244867
 20
61.56340730708052
 30
0.0
 10
251.1237512244867
 20
61.6348263388052
 30
0.0
 10
251.1061866938257
 20
61.7173560979984
 30
0.0
 10
251.0510611593357
 20
61.83630081403126
 30
0.0
 10
251.0277686855789
 20
61.87493370125586
 30
0.0
 10
250.9738002965215
 20
61.9414962125329
 30
0.0
 10
250.9429527957683
 20
61.96941725078556
 30
0.0
 10
250.9116191901307
 20
61.98750575629552
 30
0.0
  0
ARC
  5
262
330
1F
100
AcDbEntity
  8
0
  6
Continuous
 62
     7
370
    15
100
AcDbCircle
 10
259.5615163995
 20
38.9341147983
 30
0.0
 40
26.22511508665733
100
AcDbArc
 50
138.4154926491
 51
163.4133329913
  0
LWPOLYLINE
  5
263
330
1F
100
AcDbEntity
  8
0
  6
Continuous
 62
     7
370
    15
100
AcDbPolyline
 90
       10
 70
   128
 43
0.0
 10
239.6225946663
 20
58.7907694748
 10
240.7409675477
 20
59.7808029984
 10
241.8841074649
 20
60.6503163241
 10
243.0398605184
 20
61.3900649991
 10
244.1959389084
 20
61.9921843179
 10
245.3400510843
 20
62.4502720616
 10
246.4600331192
 20
62.7594582547
 10
247.5439769644
 20
62.9164548701
 10
248.5803587497
 20
62.9195941533
 10
249.5581590497
 20
62.7688417766
  0
LINE
  5
264
330
1F
100
AcDbEntity
  8
0
  6
Continuous
 62
     7
370
    15
100
AcDbLine
 10
250.9116188203
 20
61.9875060822
 30
0.0
 11
249.5581590497
 21
62.7688417766
 31
0.0
  0
LINE
  5
265
330
1F
100
AcDbEntity
  8
0
  6
Continuous
 62
     7
370
    15
100
AcDbLine
 10
232.3054282713
 20
45.9045652202
 30
0.0
 11
233.6588880419
 21
45.1232295259
 31
0.0
  0
ARC
  5
266
330
1F
100
AcDbEntity
  8
0
  6
Continuous
 62
     7
370
    15
100
AcDbCircle
 10
257.9585360166
 20
39.8729854583
 30
0.0
 40
26.35264486573442
100
AcDbArc
 50
136.493814506
 51
166.7688887241
  0
SPLINE
  5
267
330
1F
100
AcDbEntity
  8
0
  6
Continuous
 62
     7
370
    15
100
AcDbSpline
210
0.0
220
0.0
230
1.0
 70
     8
 71
     3
 72
    12
 73
     8
 74
     0
 42
0.000000001
 43
0.00000001
 40
0.0
 40
0.0
 40
0.0
 40
0.0
 40
0.2499999999999997
 40
0.2499999999999997
 40
0.4999999999999993
 40
0.4999999999999993
 40
1.0
 40
1.0
 40
1.0
 40
1.0
 10
238.8449610614674
 20
58.01501269939266
 30
0.0
 10
238.9442757441874
 20
58.04836078368847
 30
0.0
 10
239.0381008838788
 20
58.092242985193
 30
0.0
 10
239.2150939887844
 20
58.20037325398873
 30
0.0
 10
239.2949055567054
 20
58.26277874416991
 30
0.0
 10
239.5030894179258
 20
58.47017632195967
 30
0.0
 10
239.5947992515118
 20
58.63158685975345
 30
0.0
 10
239.6225945776856
 20
58.79076986729255
 30
0.0
  0
ARC
  5
268
330
1F
100
AcDbEntity
  8
0
  6
Continuous
 62
     7
370
    15
100
AcDbCircle
 10
236.3008802638
 20
45.617972345
 30
0.0
 40
0.3493673163990393
100
AcDbArc
 50
350.7859529282
 51
129.2032375553
  0
LINE
  5
269
330
1F
100
AcDbEntity
  8
0
  6
Continuous
 62
     7
370
    15
100
AcDbLine
 10
236.0800545843
 20
45.8887001438
 30
0.0
 11
234.0671164897
 21
44.7266557165
 31
0.0
  0
LINE
  5
26A
330
1F
100
AcDbEntity
  8
0
  6
Continuous
 62
     7
370
    15
100
AcDbLine
 10
234.0192212061
 20
44.7936056602
 30
0.0
 11
234.0671164897
 21
44.7266557165
 31
0.0
  0
LINE
  5
26B
330
1F
100
AcDbEntity
  8
0
  6
Continuous
 62
     7
370
    15
100
AcDbLine
 10
251.1237511528
 20
58.778426199
 30
0.0
 11
251.1237511528
 21
61.5634070875
 31
0.0
  0
LINE
  5
26C
330
1F
100
AcDbEntity
  8
0
  6
Continuous
 62
     7
370
    15
100
AcDbLine
 10
253.5354847038
 20
60.1706903428
 30
0.0
 11
251.1237511528
 21
58.778426199
 31
0.0
  0
LINE
  5
26D
330
1F
100
AcDbEntity
  8
0
  6
Continuous
 62
     7
370
    15
100
AcDbLine
 10
255.1410148971
 20
56.8923583129
 30
0.0
 11
255.2463787257
 21
57.0748534365
 31
0.0
  0
LINE
  5
26E
330
1F
100
AcDbEntity
  8
0
  6
Continuous
 62
     7
370
    15
100
AcDbLine
 10
253.9698560514
 20
56.2162627024
 30
0.0
 11
255.1410148971
 21
56.8923583129
 31
0.0
  0
ARC
  5
26F
330
1F
100
AcDbEntity
  8
0
  6
Continuous
 62
     7
370
    15
100
AcDbCircle
 10
254.6323438791
 20
55.1805782827
 30
0.0
 40
1.22944391455495
100
AcDbArc
 50
122.6054968531
 51
177.3945222572
  0
LINE
  5
270
330
1F
100
AcDbEntity
  8
0
  6
Continuous
 62
     7
370
    15
100
AcDbLine
 10
253.4041709289
 20
54.0263548055
 30
0.0
 11
253.4041709289
 21
55.2364669517
 31
0.0
  0
LINE
  5
271
330
1F
100
AcDbEntity
  8
0
  6
Continuous
 62
     7
370
    15
100
AcDbLine
 10
234.0671164897
 20
38.15350194
 30
0.0
 11
234.0192212061
 21
38.031253279
 31
0.0
  0
LINE
  5
272
330
1F
100
AcDbEntity
  8
0
  6
Continuous
 62
     7
370
    15
100
AcDbLine
 10
234.0671164897
 20
38.15350194
 30
0.0
 11
236.0800545843
 21
39.3155463672
 31
0.0
  0
ARC
  5
273
330
1F
100
AcDbEntity
  8
0
  6
Continuous
 62
     7
370
    15
100
AcDbCircle
 10
235.4175667566
 20
40.3512307869
 30
0.0
 40
1.229443914555067
100
AcDbArc
 50
302.6054968531
 51
357.3945222572
  0
LINE
  5
274
330
1F
100
AcDbEntity
  8
0
  6
Continuous
 62
     7
370
    15
100
AcDbLine
 10
236.6457397069
 20
41.1850323694
 30
0.0
 11
236.6457397069
 21
40.2953421179
 31
0.0
  0
LINE
  5
275
330
1F
100
AcDbEntity
  8
0
  6
Continuous
 62
     7
370
    15
100
AcDbLine
 10
236.6457397069
 20
45.5620305334
 30
0.0
 11
236.6457397069
 21
44.672340282
 31
0.0
  0
SPLINE
  5
276
330
1F
100
AcDbEntity
  8
0
  6
Continuous
 62
     7
370
    15
100
AcDbSpline
210
0.0
220
0.0
230
1.0
 70
     8
 71
     3
 72
     8
 73
     4
 74
     0
 42
0.000000001
 43
0.00000001
 40
0.0
 40
0.0
 40
0.0
 40
0.0
 40
1.0
 40
1.0
 40
1.0
 40
1.0
 10
231.315276765549
 20
47.16294442512783
 30
0.0
 10
230.9345788995485
 20
47.09997758745723
 30
0.0
 10
230.5537409273087
 20
47.03727746532219
 30
0.0
 10
230.172800276569
 20
46.97479658664916
 30
0.0
  0
SPLINE
  5
277
330
1F
100
AcDbEntity
  8
0
  6
Continuous
 62
     7
370
    15
100
AcDbSpline
210
0.0
220
0.0
230
1.0
 70
     8
 71
     3
 72
     8
 73
     4
 74
     0
 42
0.000000001
 43
0.00000001
 40
0.0
 40
0.0
 40
0.0
 40
0.0
 40
0.0011901715795577
 40
0.0011901715795577
 40
0.0011901715795577
 40
0.0011901715795577
 10
229.8151134790112
 20
47.34219324250478
 30
0.0
 10
229.934759986506
 20
47.21957833274929
 30
0.0
 10
230.054003160654
 20
47.09710629225359
 30
0.0
 10
230.172800276569
 20
46.97479658664916
 30
0.0
  0
LWPOLYLINE
  5
278
330
1F
100
AcDbEntity
  8
0
  6
Continuous
 62
     7
370
    15
100
AcDbPolyline
 90
       21
 70
   128
 43
0.0
 10
229.8151135677
 20
47.3421932979
 10
230.1653710009
 20
48.7067924591
 10
230.6095164662
 20
50.0819931689
 10
231.1435460128
 20
51.4553979766
 10
231.7626463389
 20
52.814626998
 10
232.4612349628
 20
54.1474251369
 10
233.2330155404
 20
55.4417788112
 10
234.0710292318
 20
56.6860182299
 10
234.9677225317
 20
57.8689280348
 10
235.9150111476
 20
58.9798434924
 10
236.9043554035
 20
60.0087495373
 10
237.926836796
 20
60.9463713554
 10
238.9732373481
 20
61.7842559356
 10
240.0341241096
 20
62.5148505091
 10
241.0999330796
 20
63.1315692477
 10
242.1610562174
 20
63.6288503381
 10
243.2079274642
 20
64.0022117256
 10
244.231109548
 20
64.2482882966
 10
245.2213780712
 20
64.3648606504
 10
246.1698062983
 20
64.3508797104
 10
247.0678443461
 20
64.2064698542
  0
LINE
  5
279
330
1F
100
AcDbEntity
  8
0
  6
Continuous
 62
     7
370
    15
100
AcDbLine
 10
247.4986187236
 20
62.8823333531
 30
0.0
 11
247.0678443461
 21
64.2064698542
 31
0.0
  0
LWPOLYLINE
  5
27A
330
1F
100
AcDbEntity
  8
0
  6
Continuous
 62
     7
370
    15
100
AcDbPolyline
 90
       20
 70
   128
 43
0.0
 10
231.3152766398
 20
47.1629446108
 10
231.6438600562
 20
48.4564942369
 10
232.0651039776
 20
49.7607405847
 10
232.5749030376
 20
51.0629694801
 10
233.1682878592
 20
52.3504888836
 10
233.8394744461
 20
53.610748278
 10
234.5819201586
 20
54.8314626192
 10
235.3883882511
 20
56.0007332429
 10
236.2510173484
 20
57.1071624988
 10
237.1613991544
 20
58.139966291
 10
238.1106601111
 20
59.0890774939
 10
239.0895471742
 20
59.9452441385
 10
240.088518363
 20
60.7001204697
 10
241.0978364025
 20
61.3463491413
 10
242.1076630751
 20
61.8776301336
 10
243.1081550078
 20
62.2887851751
 10
244.0895600158
 20
62.5758065168
 10
245.0423115877
 20
62.7358970281
 10
245.9571234226
 20
62.7674958749
 10
246.3640548669
 20
62.7386116227
  0
LINE
  5
27B
330
1F
100
AcDbEntity
  8
0
  6
Continuous
 62
     7
370
    15
100
AcDbLine
 10
228.4793311073
 20
48.1133240983
 30
0.0
 11
229.8151135677
 21
47.3421932979
 31
0.0
  0
LINE
  5
27C
330
1F
100
AcDbEntity
  8
0
  6
Continuous
 62
     7
370
    15
100
AcDbLine
 10
247.0678443461
 20
64.2064698542
 30
0.0
 11
245.7320618857
 21
64.9776006546
 31
0.0
  0
LINE
  5
27D
330
1F
100
AcDbEntity
  8
0
  6
Continuous
 62
     7
370
    15
100
AcDbLine
 10
232.5418187493
 20
46.8626598174
 30
0.0
 11
231.9513081452
 21
47.2035543331
 31
0.0
  0
SPLINE
  5
27E
330
1F
100
AcDbEntity
  8
0
  6
Continuous
 62
     7
370
    15
100
AcDbSpline
210
0.0
220
0.0
230
1.0
 70
     8
 71
     3
 72
    14
 73
    10
 74
     0
 42
0.000000001
 43
0.00000001
 40
0.0
 40
0.0
 40
0.0
 40
0.0
 40
0.1134875903227499
 40
0.2884507601050068
 40
0.4634438893900288
 40
0.6380744063983101
 40
0.8124676993590939
 40
0.9871167959912229
 40
0.9999999999999999
 40
0.9999999999999999
 40
0.9999999999999999
 40
0.9999999999999999
 10
239.3360435116027
 20
58.31532019726431
 30
0.0
 10
239.2664930491934
 20
58.31867022668698
 30
0.0
 10
239.0897170361459
 20
58.32718497733587
 30
0.0
 10
238.7948815137574
 20
58.24203893079481
 30
0.0
 10
238.5022354044542
 20
58.07860331852761
 30
0.0
 10
238.2766930446297
 20
57.84791562590279
 30
0.0
 10
238.1576015439309
 20
57.58518195761935
 30
0.0
 10
238.1235345655425
 20
57.39022418372776
 30
0.0
 10
238.1551968368473
 20
57.30444509551361
 30
0.0
 10
238.1573719901367
 20
57.29855219338755
 30
0.0
  0
SPLINE
  5
27F
330
1F
100
AcDbEntity
  8
0
  6
Continuous
 62
     7
370
    15
100
AcDbSpline
210
0.0
220
0.0
230
1.0
 70
     8
 71
     3
 72
    12
 73
     8
 74
     0
 42
0.000000001
 43
0.00000001
 40
0.0
 40
0.0
 40
0.0
 40
0.0
 40
0.2500000000000015
 40
0.2500000000000015
 40
0.500000000000003
 40
0.500000000000003
 40
1.0
 40
1.0
 40
1.0
 40
1.0
 10
231.9513082147864
 20
47.20355432054346
 30
0.0
 10
231.9136894798271
 20
47.22527115397966
 30
0.0
 10
231.8676970714398
 20
47.24252688796231
 30
0.0
 10
231.7680959414639
 20
47.26482067579013
 30
0.0
 10
231.7133452162098
 20
47.27002646036957
 30
0.0
 10
231.5538393173905
 20
47.26702456094245
 30
0.0
 10
231.4488365121729
 20
47.24004682568324
 30
0.0
 10
231.373523615981
 20
47.19656961614994
 30
0.0
  0
SPLINE
  5
280
330
1F
100
AcDbEntity
  8
0
  6
Continuous
 62
     7
370
    15
100
AcDbSpline
210
0.0
220
0.0
230
1.0
 70
     8
 71
     3
 72
    10
 73
     6
 74
     0
 42
0.000000001
 43
0.00000001
 40
0.0
 40
0.0
 40
0.0
 40
0.0
 40
0.5
 40
0.5
 40
1.0
 40
1.0
 40
1.0
 40
1.0
 10
228.3776869029977
 20
48.14404609710261
 30
0.0
 10
228.3849495846463
 20
48.14804270259043
 30
0.0
 10
228.396743248612
 20
48.1482244809756
 30
0.0
 10
228.4308022593792
 20
48.13850285146585
 30
0.0
 10
228.4529747469315
 20
48.12853919469015
 30
0.0
 10
228.479331013595
 20
48.11332404580885
 30
0.0
  0
LINE
  5
281
330
1F
100
AcDbEntity
  8
0
  6
Continuous
 62
     7
370
    15
100
AcDbLine
 10
231.3735235844
 20
47.1965698562
 30
0.0
 11
231.3152766398
 21
47.1629446108
 31
0.0
  0
LINE
  5
282
330
1F
100
AcDbEntity
  8
0
  6
Continuous
 62
     7
370
    15
100
AcDbLine
 10
234.0671164897
 20
44.7266557165
 30
0.0
 11
232.3399336986
 21
45.7237371184
 31
0.0
  0
SPLINE
  5
283
330
1F
100
AcDbEntity
  8
0
  6
Continuous
 62
     7
370
    15
100
AcDbSpline
210
0.0
220
0.0
230
1.0
 70
     8
 71
     3
 72
     8
 73
     4
 74
     0
 42
0.000000001
 43
0.00000001
 40
0.0
 40
0.0
 40
0.0
 40
0.0
 40
0.0011901715795577
 40
0.0011901715795577
 40
0.0011901715795577
 40
0.0011901715795577
 10
232.3399337882579
 20
45.72373703990237
 30
0.0
 10
232.3277723214393
 20
45.78448729561321
 30
0.0
 10
232.3162888744832
 20
45.84475096974326
 30
0.0
 10
232.3054280508407
 20
45.90456524096
 30
0.0
  0
LINE
  5
284
330
1F
100
AcDbEntity
  8
0
  6
Continuous
 62
     7
370
    15
100
AcDbLine
 10
236.6457397069
 20
44.672340282
 30
0.0
 11
236.6457397069
 21
41.1850323694
 31
0.0
  0
ARC
  5
285
330
1F
100
AcDbEntity
  8
0
  6
Continuous
 62
     7
370
    15
100
AcDbCircle
 10
241.3171042106
 20
46.1484529992
 30
0.0
 40
10.35584319074398
100
AcDbArc
 50
174.7158582241
 51
187.1556503482
  0
LINE
  5
286
330
1F
100
AcDbEntity
  8
0
  6
Continuous
 62
     7
370
    15
100
AcDbLine
 10
231.0419183542
 20
47.1178025202
 30
0.0
 11
231.0419183542
 21
44.85847478
 31
0.0
  0
LINE
  5
287
330
1F
100
AcDbEntity
  8
0
  6
Continuous
 62
     7
370
    15
100
AcDbLine
 10
231.0419183542
 20
44.85847478
 30
0.0
 11
231.0419183542
 21
43.3926668726
 31
0.0
  0
LINE
  5
288
330
1F
100
AcDbEntity
  8
0
  6
Continuous
 62
     7
370
    15
100
AcDbLine
 10
228.8168485032
 20
47.7575709103
 30
0.0
 11
228.3776868204
 21
48.1440460296
 31
0.0
  0
LINE
  5
289
330
1F
100
AcDbEntity
  8
0
  6
Continuous
 62
     7
370
    15
100
AcDbLine
 10
230.1728000415
 20
46.974796749
 30
0.0
 11
228.8168485032
 21
47.7575709103
 31
0.0
  0
LINE
  5
28A
330
1F
100
AcDbEntity
  8
0
  6
Continuous
 62
     7
370
    15
100
AcDbLine
 10
230.043130323
 20
46.8933684219
 30
0.0
 11
230.0438204777
 21
47.0140009064
 31
0.0
  0
ARC
  5
28B
330
1F
100
AcDbEntity
  8
0
  6
Continuous
 62
     7
370
    15
100
AcDbCircle
 10
236.9501045893
 20
46.6259091174
 30
0.0
 40
6.912150750291898
100
AcDbArc
 50
177.7824390018
 51
210.8069191332
  0
LWPOLYLINE
  5
28C
330
1F
100
AcDbEntity
  8
0
  6
Continuous
 62
     7
370
    15
100
AcDbPolyline
 90
        3
 70
   128
 43
0.0
 10
216.6053742211
 20
70.7777279375
 10
216.8060505134
 20
70.7193933908
 10
216.8361219605
 20
70.7088100588
  0
LINE
  5
28D
330
1F
100
AcDbEntity
  8
0
  6
Continuous
 62
     7
370
    15
100
AcDbLine
 10
210.6713399659
 20
60.0299374136
 30
0.0
 11
210.6100433016
 21
60.0837270933
 31
0.0
  0
LINE
  5
28E
330
1F
100
AcDbEntity
  8
0
  6
Continuous
 62
     7
370
    15
100
AcDbLine
 10
232.3399336986
 20
39.1505833418
 30
0.0
 11
234.0671164897
 21
38.15350194
 31
0.0
  0
SPLINE
  5
28F
330
1F
100
AcDbEntity
  8
0
  6
Continuous
 62
     7
370
    15
100
AcDbSpline
210
0.0
220
0.0
230
1.0
 70
     8
 71
     3
 72
    14
 73
    10
 74
     0
 42
0.000000001
 43
0.00000001
 40
0.0
 40
0.0
 40
0.0
 40
0.0
 40
0.25
 40
0.25
 40
0.5
 40
0.5
 40
0.75
 40
0.75
 40
1.0
 40
1.0
 40
1.0
 40
1.0
 10
234.0192213112956
 20
38.03125347008501
 30
0.0
 10
234.0023131137575
 20
37.98809662053587
 30
0.0
 10
233.9817899228765
 20
37.94808064804686
 30
0.0
 10
233.9330064873142
 20
37.87477102106195
 30
0.0
 10
233.9045495089384
 20
37.84148386245587
 30
0.0
 10
233.8411868864302
 20
37.78856101612554
 30
0.0
 10
233.8058678256893
 20
37.76849734970028
 30
0.0
 10
233.7310497486381
 20
37.75173835921824
 30
0.0
 10
233.6926802745735
 20
37.75593525482942
 30
0.0
 10
233.6588881857865
 20
37.77544301245187
 30
0.0
  0
LINE
  5
290
330
1F
100
AcDbEntity
  8
0
  6
Continuous
 62
     7
370
    15
100
AcDbLine
 10
233.6588880419
 20
37.775443153
 30
0.0
 11
232.3054282713
 21
38.5567788474
 31
0.0
  0
SPLINE
  5
291
330
1F
100
AcDbEntity
  8
0
  6
Continuous
 62
     7
370
    15
100
AcDbSpline
210
0.0
220
0.0
230
1.0
 70
     8
 71
     3
 72
     8
 73
     4
 74
     0
 42
0.000000001
 43
0.00000001
 40
0.0
 40
0.0
 40
0.0
 40
0.0
 40
0.0011901715795577
 40
0.0011901715795577
 40
0.0011901715795577
 40
0.0011901715795577
 10
232.3054280508407
 20
38.55677891715371
 30
0.0
 10
232.3162888744832
 20
38.75473410551188
 30
0.0
 10
232.3277723214393
 20
38.95267301801346
 30
0.0
 10
232.3399337882579
 20
39.15058350422208
 30
0.0
  0
ARC
  5
292
330
1F
100
AcDbEntity
  8
0
  6
Continuous
 62
     7
370
    15
100
AcDbCircle
 10
239.3626693138
 20
38.8917109296
 30
0.0
 40
5.728733802158398
100
AcDbArc
 50
205.4500895363
 51
275.6597364687
  0
SPLINE
  5
293
330
1F
100
AcDbEntity
  8
0
  6
Continuous
 62
     7
370
    15
100
AcDbSpline
210
0.0
220
0.0
230
1.0
 70
     8
 71
     3
 72
     8
 73
     4
 74
     0
 42
0.000000001
 43
0.00000001
 40
0.0
 40
0.0
 40
0.0
 40
0.0
 40
1.0
 40
1.0
 40
1.0
 40
1.0
 10
232.6658507176153
 20
39.81012114265685
 30
0.0
 10
232.5567771372282
 20
39.59034894259763
 30
0.0
 10
232.4481655717603
 20
39.37049586092797
 30
0.0
 10
232.3399337882579
 20
39.15058350422208
 30
0.0
  0
LINE
  5
294
330
1F
100
AcDbEntity
  8
0
  6
Continuous
 62
     7
370
    15
100
AcDbLine
 10
232.724097613
 20
39.8437462887
 30
0.0
 11
232.6658506683
 21
39.8101210433
 31
0.0
  0
SPLINE
  5
295
330
1F
100
AcDbEntity
  8
0
  6
Continuous
 62
     7
370
    15
100
AcDbSpline
210
0.0
220
0.0
230
1.0
 70
     8
 71
     3
 72
    12
 73
     8
 74
     0
 42
0.000000001
 43
0.00000001
 40
0.0
 40
0.0
 40
0.0
 40
0.0
 40
0.2499999999999986
 40
0.2499999999999986
 40
0.4999999999999971
 40
0.4999999999999971
 40
1.0
 40
1.0
 40
1.0
 40
1.0
 10
232.7361967419034
 20
40.17729428280158
 30
0.0
 10
232.774234349456
 20
40.15533563936432
 30
0.0
 10
232.8037077533677
 20
40.12907870275967
 30
0.0
 10
232.8425014634106
 20
40.07121069346035
 30
0.0
 10
232.8513236663572
 20
40.04042855865123
 30
0.0
 10
232.8462143936704
 20
39.94744857526447
 30
0.0
 10
232.7995906519011
 20
39.88732756333516
 30
0.0
 10
232.7240975680478
 20
39.84374633367923
 30
0.0
  0
LINE
  5
296
330
1F
100
AcDbEntity
  8
0
  6
Continuous
 62
     7
370
    15
100
AcDbLine
 10
231.9513081452
 20
40.6304005565
 30
0.0
 11
232.7361967219
 21
40.1772940258
 31
0.0
  0
SPLINE
  5
297
330
1F
100
AcDbEntity
  8
0
  6
Continuous
 62
     7
370
    15
100
AcDbSpline
210
0.0
220
0.0
230
1.0
 70
     8
 71
     3
 72
    12
 73
     8
 74
     0
 42
0.000000001
 43
0.00000001
 40
0.0
 40
0.0
 40
0.0
 40
0.0
 40
0.4999999999999984
 40
0.4999999999999984
 40
0.7499999999999992
 40
0.7499999999999992
 40
1.0
 40
1.0
 40
1.0
 40
1.0
 10
231.3735236159815
 20
40.62341608046992
 30
0.0
 10
231.4494544237328
 20
40.66725000275347
 30
0.0
 10
231.5533443831569
 20
40.69390734526267
 30
0.0
 10
231.7140464629893
 20
40.6968632080364
 30
0.0
 10
231.7678312634121
 20
40.69170993640045
 30
0.0
 10
231.8676001488547
 20
40.66941143379709
 30
0.0
 10
231.9131523746821
 20
40.65242768249967
 30
0.0
 10
231.9513082147864
 20
40.63040078486317
 30
0.0
  0
LINE
  5
298
330
1F
100
AcDbEntity
  8
0
  6
Continuous
 62
     7
370
    15
100
AcDbLine
 10
231.3152766398
 20
40.5897908342
 30
0.0
 11
231.3735235844
 21
40.6234160796
 31
0.0
  0
SPLINE
  5
299
330
1F
100
AcDbEntity
  8
0
  6
Continuous
 62
     7
370
    15
100
AcDbSpline
210
0.0
220
0.0
230
1.0
 70
     8
 71
     3
 72
     8
 73
     4
 74
     0
 42
0.000000001
 43
0.00000001
 40
0.0
 40
0.0
 40
0.0
 40
0.0
 40
1.0
 40
1.0
 40
1.0
 40
1.0
 10
230.172800276569
 20
40.40164305096887
 30
0.0
 10
230.5537409273087
 20
40.4641239296419
 30
0.0
 10
230.9345788995485
 20
40.52682405177694
 30
0.0
 10
231.315276765549
 20
40.58979088944754
 30
0.0
  0
LINE
  5
29A
330
1F
100
AcDbEntity
  8
0
  6
Continuous
 62
     7
370
    15
100
AcDbLine
 10
228.8168485032
 20
41.1844171337
 30
0.0
 11
230.1728000415
 21
40.4016429724
 31
0.0
  0
LINE
  5
29B
330
1F
100
AcDbEntity
  8
0
  6
Continuous
 62
     7
370
    15
100
AcDbLine
 10
228.8168485032
 20
41.1844171337
 30
0.0
 11
230.8297865978
 21
42.346461561
 31
0.0
  0
ARC
  5
29C
330
1F
100
AcDbEntity
  8
0
  6
Continuous
 62
     7
370
    15
100
AcDbCircle
 10
238.4899576151
 20
40.1218588466
 30
0.0
 40
6.379488898678336
100
AcDbArc
 50
194.2013364212
 51
238.2565264866
  0
ELLIPSE
  5
29D
330
1F
100
AcDbEntity
  8
0
  6
Continuous
 62
     7
370
    15
100
AcDbEllipse
 10
230.5954720294
 20
43.1349611985
 30
0.0
 11
-6.005970385558612E-5
 21
0.8534489614827194
 31
0.0
210
0.0
220
0.0
230
1.0
 40
0.7174342186
 41
3.534193645557487
 42
5.104989972352328
  0
ARC
  5
29E
330
1F
100
AcDbEntity
  8
0
  6
Continuous
 62
     7
370
    15
100
AcDbCircle
 10
237.9242679247
 20
42.4297291631
 30
0.0
 40
6.860330812609405
100
AcDbArc
 50
195.5571636347
 51
215.5080547584
  0
ARC
  5
29F
330
1F
100
AcDbEntity
  8
0
  6
Continuous
 62
     7
370
    15
100
AcDbCircle
 10
235.7629613533
 20
41.4443422659
 30
0.0
 40
6.122026280117588
100
AcDbArc
 50
193.7000576687
 51
253.1334089572
  0
SPLINE
  5
2A0
330
1F
100
AcDbEntity
  8
0
  6
Continuous
 62
     7
370
    15
100
AcDbSpline
210
0.0
220
0.0
230
1.0
 70
     8
 71
     3
 72
     8
 73
     4
 74
     0
 42
0.000000001
 43
0.00000001
 40
0.0
 40
0.0
 40
0.0
 40
0.0
 40
0.0011901715795577
 40
0.0011901715795577
 40
0.0011901715795577
 40
0.0011901715795577
 10
230.172800276569
 20
40.40164305096887
 30
0.0
 10
230.054003160654
 20
40.26529201465383
 30
0.0
 10
229.934759986506
 20
40.12956146851791
 30
0.0
 10
229.8151134790112
 20
39.99440691869849
 30
0.0
  0
LINE
  5
2A1
330
1F
100
AcDbEntity
  8
0
  6
Continuous
 62
     7
370
    15
100
AcDbLine
 10
228.3776868204
 20
40.9308425769
 30
0.0
 11
228.8168485032
 21
41.1844171337
 31
0.0
  0
LINE
  5
2A2
330
1F
100
AcDbEntity
  8
0
  6
Continuous
 62
     7
370
    15
100
AcDbLine
 10
229.8151135677
 20
39.994406925
 30
0.0
 11
228.4793311073
 21
40.7655377254
 31
0.0
  0
SPLINE
  5
2A3
330
1F
100
AcDbEntity
  8
0
  6
Continuous
 62
     7
370
    15
100
AcDbSpline
210
0.0
220
0.0
230
1.0
 70
     8
 71
     3
 72
    10
 73
     6
 74
     0
 42
0.000000001
 43
0.00000001
 40
0.0
 40
0.0
 40
0.0
 40
0.0
 40
0.5
 40
0.5
 40
1.0
 40
1.0
 40
1.0
 40
1.0
 10
228.479331013595
 20
40.76553772200255
 30
0.0
 10
228.4530267612182
 20
40.78072284367531
 30
0.0
 10
228.4308286470996
 20
40.8043524946092
 30
0.0
 10
228.3968167606678
 20
40.86179488741909
 30
0.0
 10
228.3849458802618
 20
40.89543316556971
 30
0.0
 10
228.3776869029977
 20
40.93084258881284
 30
0.0
  0
ARC
  5
2A4
330
1F
100
AcDbEntity
  8
0
  6
Continuous
 62
     7
370
    15
100
AcDbCircle
 10
234.3603120464
 20
42.0049979547
 30
0.0
 40
5.943510144290088
100
AcDbArc
 50
204.8706907779
 51
239.0935748744
  0
ELLIPSE
  5
2A5
330
1F
100
AcDbEntity
  8
0
  6
Continuous
 62
     7
370
    15
100
AcDbEllipse
 10
230.4762332138
 20
43.0661037184
 30
0.0
 11
0.2600075789209199
 21
0.9705436209909308
 31
0.0
210
0.0
220
0.0
230
1.0
 40
0.5176380889
 41
3.619174351347714
 42
5.189970678142611
  0
SPLINE
  5
2A6
330
1F
100
AcDbEntity
  8
0
  6
Continuous
 62
     7
370
    15
100
AcDbSpline
210
0.0
220
0.0
230
1.0
 70
     8
 71
     3
 72
    12
 73
     8
 74
     0
 42
0.000000001
 43
0.00000001
 40
0.0
 40
0.0
 40
0.0
 40
0.0
 40
0.5000000000000003
 40
0.5000000000000003
 40
0.7500000000000001
 40
0.7500000000000001
 40
1.0
 40
1.0
 40
1.0
 40
1.0
 10
247.9316634507115
 20
63.40570775385458
 30
0.0
 10
247.9941067765361
 20
63.4417555185549
 30
0.0
 10
248.0734433817583
 20
63.46741451861269
 30
0.0
 10
248.2043167450994
 20
63.47919827861916
 30
0.0
 10
248.2490890574703
 20
63.47838800641563
 30
0.0
 10
248.3343509734737
 20
63.46483952602829
 30
0.0
 10
248.373767180592
 20
63.45207491501888
 30
0.0
 10
248.4050068408418
 20
63.43404064302692
 30
0.0
  0
LINE
  5
2A7
330
1F
100
AcDbEntity
  8
0
  6
Continuous
 62
     7
370
    15
100
AcDbLine
 10
248.4050071157
 20
63.4340405967
 30
0.0
 11
249.5566704098
 21
62.7691995286
 31
0.0
  0
SPLINE
  5
2A8
330
1F
100
AcDbEntity
  8
0
  6
Continuous
 62
     7
370
    15
100
AcDbSpline
210
0.0
220
0.0
230
1.0
 70
     8
 71
     3
 72
     9
 73
     5
 74
     0
 42
0.000000001
 43
0.00000001
 40
0.0
 40
0.0
 40
0.0
 40
0.0
 40
0.8664443272572582
 40
1.0
 40
1.0
 40
1.0
 40
1.0
 10
251.123751152837
 20
60.9888853858161
 30
0.0
 10
251.4429278509629
 20
61.05817537705201
 30
0.0
 10
251.8113031615109
 20
61.13814588301082
 30
0.0
 10
252.1816432588751
 20
61.21501536350193
 30
0.0
 10
252.2311042797221
 20
61.22528171868232
 30
0.0
  0
LINE
  5
2A9
330
1F
100
AcDbEntity
  8
0
  6
Continuous
 62
     7
370
    15
100
AcDbLine
 10
252.2311042797
 20
61.2252817187
 30
0.0
 11
253.5845640503
 21
60.4439460243
 31
0.0
  0
SPLINE
  5
2AA
330
1F
100
AcDbEntity
  8
0
  6
Continuous
 62
     7
370
    15
100
AcDbSpline
210
0.0
220
0.0
230
1.0
 70
     8
 71
     3
 72
    14
 73
    10
 74
     0
 42
0.000000001
 43
0.00000001
 40
0.0
 40
0.0
 40
0.0
 40
0.0
 40
0.25
 40
0.25
 40
0.5
 40
0.5
 40
0.75
 40
0.75
 40
1.0
 40
1.0
 40
1.0
 40
1.0
 10
253.5845640130333
 20
60.44394593347624
 30
0.0
 10
253.6158261011914
 20
60.42589871412846
 30
0.0
 10
253.6380934732875
 20
60.40280939868814
 30
0.0
 10
253.6612468712758
 20
60.35419804541944
 30
0.0
 10
253.6627670412718
 20
60.32819826385433
 30
0.0
 10
253.6493218705009
 20
60.27806533446689
 30
0.0
 10
253.6346223648528
 20
60.2538750193555
 30
0.0
 10
253.5929773698771
 20
60.20892457658292
 30
0.0
 10
253.5666650863596
 20
60.18869066950115
 30
0.0
 10
253.5354846916149
 20
60.1706906107571
 30
0.0
  0
LINE
  5
2AB
330
1F
100
AcDbEntity
  8
0
  6
Continuous
 62
     7
370
    15
100
AcDbLine
 10
247.931663351
 20
63.4057075505
 30
0.0
 11
247.42374246
 21
63.1124910614
 31
0.0
  0
SPLINE
  5
2AC
330
1F
100
AcDbEntity
  8
0
  6
Continuous
 62
     7
370
    15
100
AcDbSpline
210
0.0
220
0.0
230
1.0
 70
     8
 71
     3
 72
    10
 73
     6
 74
     0
 42
0.000000001
 43
0.00000001
 40
0.0
 40
0.0
 40
0.0
 40
0.0
 40
0.4055225183414595
 40
0.8121633606039154
 40
1.0
 40
1.0
 40
1.0
 40
1.0
 10
255.2463787257001
 20
57.07485343650047
 30
0.0
 10
255.2646969138395
 20
57.11377927983828
 30
0.0
 10
255.3013838068395
 20
57.19173831370122
 30
0.0
 10
255.3154060820276
 20
57.29921883817713
 30
0.0
 10
255.297345198878
 20
57.35231114272658
 30
0.0
 10
255.2916385141002
 20
57.36908668153512
 30
0.0
  0
LWPOLYLINE
  5
2AD
330
1F
100
AcDbEntity
  8
0
  6
Continuous
 62
     7
370
    15
100
AcDbPolyline
 90
       15
 70
   128
 43
0.0
 10
266.9745662911
 20
40.5090992839
 10
267.3853731053
 20
40.2545263746
 10
267.8897773686
 20
40.0641047182
 10
268.4584624907
 20
39.9489028589
 10
269.0583826257
 20
39.9156132557
 10
269.6546672658
 20
39.966173681
 10
270.2126668035
 20
40.0976433562
 10
270.6999501495
 20
40.3023829175
 10
271.0881982695
 20
40.5684936401
 10
271.354849732
 20
40.880508877
 10
271.4844058516
 20
41.2202965287
 10
271.469338024
 20
41.5681089915
 10
271.3105206316
 20
41.9037333102
 10
271.0171830112
 20
42.2076647859
 10
270.76392869
 20
42.3787263979
  0
LWPOLYLINE
  5
2AE
330
1F
100
AcDbEntity
  8
0
  6
Continuous
 62
     7
370
    15
100
AcDbPolyline
 90
        7
 70
   128
 43
0.0
 10
267.2278221189
 20
42.3787253668
 10
266.9035510328
 20
42.1482704297
 10
266.6368995703
 20
41.8362551928
 10
266.5073434507
 20
41.4964675412
 10
266.5224139125
 20
41.1486535577
 10
266.6812313048
 20
40.8130292389
 10
266.9745662911
 20
40.5090992839
  0
LWPOLYLINE
  5
2AF
330
1F
100
AcDbEntity
  8
0
  6
Continuous
 62
     7
370
    15
100
AcDbPolyline
 90
       25
 70
   128
 43
0.0
 10
267.2575507687
 20
40.9137869017
 10
267.6442388842
 20
40.678946223
 10
268.1230389371
 20
40.5098840183
 10
268.6613230928
 20
40.4181204259
 10
269.2224058947
 20
40.4099104247
 10
269.7680499438
 20
40.4858138144
 10
270.2610714506
 20
40.6406574008
 10
270.6678739334
 20
40.8638875736
 10
270.9607323702
 20
41.1402928121
 10
271.1196856285
 20
41.4510383774
 10
271.1339072264
 20
41.7749442518
 10
271.0024255227
 20
42.0899379991
 10
270.7342011677
 20
42.3745532448
 10
270.3475104181
 20
42.6093954442
 10
269.8687103652
 20
42.7784576489
 10
269.3304262095
 20
42.8702212413
 10
268.7693434076
 20
42.8784312425
 10
268.2236993584
 20
42.8025278528
 10
267.7306778517
 20
42.6476842663
 10
267.3238753689
 20
42.4244540936
 10
267.0310195663
 20
42.1480473344
 10
266.8720636738
 20
41.8373032898
 10
266.8578420759
 20
41.5133974154
 10
266.9893237796
 20
41.1984036681
 10
267.2575507687
 20
40.9137869017
  0
LWPOLYLINE
  5
2B0
330
1F
100
AcDbEntity
  8
0
  6
Continuous
 62
     7
370
    15
100
AcDbPolyline
 90
       21
 70
   128
 43
0.0
 10
267.783089701
 20
41.134601221
 10
268.1152166631
 20
40.9431899354
 10
268.5335472659
 20
40.8203963257
 10
268.9971344468
 20
40.7782390279
 10
269.4605974508
 20
40.8208456625
 10
269.8785717502
 20
40.9440442301
 10
270.2101400197
 20
41.1357769016
 10
270.422847704
 20
41.3772746063
 10
270.4958747335
 20
41.6448971477
 10
270.4220710742
 20
41.9124488113
 10
270.2086596013
 20
42.1537404462
 10
269.8765352734
 20
42.3451502111
 10
269.4582020363
 20
42.4679453415
 10
268.9946174897
 20
42.5101011187
 10
268.5311518515
 20
42.4674960047
 10
268.1131801862
 20
42.3442959164
 10
267.7816092826
 20
42.1525647656
 10
267.5689015983
 20
41.9110670609
 10
267.4958745688
 20
41.6434445195
 10
267.5696808622
 20
41.3758913352
 10
267.783089701
 20
41.134601221
  0
SPLINE
  5
2B1
330
1F
100
AcDbEntity
  8
0
  6
Continuous
 62
     7
370
    15
100
AcDbSpline
210
0.0
220
0.0
230
1.0
 70
     8
 71
     3
 72
    10
 73
     6
 74
     0
 42
0.000000001
 43
0.00000001
 40
0.0
 40
0.0
 40
0.0
 40
0.0
 40
0.3267618945715702
 40
0.7015656215940221
 40
1.0
 40
1.0
 40
1.0
 40
1.0
 10
269.9426193404376
 20
40.99177882498351
 30
0.0
 10
269.9948003085315
 20
41.01837908328675
 30
0.0
 10
270.1068340980411
 20
41.07549047559135
 30
0.0
 10
270.2814634101642
 20
41.35639519971389
 30
0.0
 10
270.3852229987386
 20
41.58457765131502
 30
0.0
 10
270.4312177635479
 20
41.68572683992698
 30
0.0
  0
SPLINE
  5
2B2
330
1F
100
AcDbEntity
  8
0
  6
Continuous
 62
     7
370
    15
100
AcDbSpline
210
0.0
220
0.0
230
1.0
 70
     8
 71
     3
 72
    11
 73
     7
 74
     0
 42
0.000000001
 43
0.00000001
 40
0.0
 40
0.0
 40
0.0
 40
0.0
 40
0.1849311452264442
 40
0.5198474294363762
 40
0.8714449275487244
 40
1.0
 40
1.0
 40
1.0
 40
1.0
 10
270.4312177635479
 20
41.68572683992698
 30
0.0
 10
270.381779794096
 20
41.69309254587689
 30
0.0
 10
270.2428080632678
 20
41.71379778349034
 30
0.0
 10
269.9833915472309
 20
41.85341642826545
 30
0.0
 10
269.7438095953783
 20
42.12443815392206
 30
0.0
 10
269.6160488521211
 20
42.30979630754737
 30
0.0
 10
269.5818424506297
 20
42.35942372251833
 30
0.0
  0
SPLINE
  5
2B3
330
1F
100
AcDbEntity
  8
0
  6
Continuous
 62
     7
370
    15
100
AcDbSpline
210
0.0
220
0.0
230
1.0
 70
     8
 71
     3
 72
    10
 73
     6
 74
     0
 42
0.000000001
 43
0.00000001
 40
0.0
 40
0.0
 40
0.0
 40
0.0
 40
0.4391252003642758
 40
0.7513741609454131
 40
1.0
 40
1.0
 40
1.0
 40
1.0
 10
269.5818424506297
 20
42.35942372251833
 30
0.0
 10
269.3763576476866
 20
42.27694830301097
 30
0.0
 10
269.0247586702872
 20
42.13582704857244
 30
0.0
 10
268.5136538851967
 20
42.15773813894867
 30
0.0
 10
268.2592653152083
 20
42.23665094882161
 30
0.0
 10
268.1464993793874
 20
42.27163159615957
 30
0.0
  0
SPLINE
  5
2B4
330
1F
100
AcDbEntity
  8
0
  6
Continuous
 62
     7
370
    15
100
AcDbSpline
210
0.0
220
0.0
230
1.0
 70
     8
 71
     3
 72
    10
 73
     6
 74
     0
 42
0.000000001
 43
0.00000001
 40
0.0
 40
0.0
 40
0.0
 40
0.0
 40
0.4391259512221414
 40
0.7513737390920935
 40
1.0
 40
1.0
 40
1.0
 40
1.0
 10
268.1464993793874
 20
42.27163159615957
 30
0.0
 10
268.0626131110326
 20
42.09270865797933
 30
0.0
 10
267.9190781208167
 20
41.78655959824901
 30
0.0
 10
267.7104186913356
 20
41.56857755798754
 30
0.0
 10
267.6065690254551
 20
41.5280889530779
 30
0.0
 10
267.5605341729233
 20
41.51014101900964
 30
0.0
  0
SPLINE
  5
2B5
330
1F
100
AcDbEntity
  8
0
  6
Continuous
 62
     7
370
    15
100
AcDbSpline
210
0.0
220
0.0
230
1.0
 70
     8
 71
     3
 72
    10
 73
     6
 74
     0
 42
0.000000001
 43
0.00000001
 40
0.0
 40
0.0
 40
0.0
 40
0.0
 40
0.2030948977842558
 40
0.7585583896722616
 40
1.0
 40
1.0
 40
1.0
 40
1.0
 10
267.5605341729233
 20
41.51014101900964
 30
0.0
 10
267.5947002791821
 20
41.46090077655482
 30
0.0
 10
267.7223105088224
 20
41.2769887264191
 30
0.0
 10
267.910392432591
 20
41.0470586940979
 30
0.0
 10
268.0565845846187
 20
40.97653147281633
 30
0.0
 10
268.1008770210766
 20
40.95516355105147
 30
0.0
  0
LINE
  5
2B6
330
1F
100
AcDbEntity
  8
0
  6
Continuous
 62
     7
370
    15
100
AcDbLine
 10
268.1464993794
 20
40.9304412181
 30
0.0
 11
268.1464993794
 21
42.2716315962
 31
0.0
  0
LINE
  5
2B7
330
1F
100
AcDbEntity
  8
0
  6
Continuous
 62
     7
370
    15
100
AcDbLine
 10
269.5818424506
 20
40.8470447825
 30
0.0
 11
269.5818424506
 21
42.3594237225
 31
0.0
  0
LWPOLYLINE
  5
2B8
330
1F
100
AcDbEntity
  8
0
  6
Continuous
 62
     7
370
    15
100
AcDbPolyline
 90
        6
 70
   128
 43
0.0
 10
271.9952956259
 20
33.4993117067
 10
271.8831138861
 20
33.3629411059
 10
271.6443677943
 20
33.2415299572
 10
271.3500563512
 20
33.2449758503
 10
271.0263343103
 20
33.3729703528
 10
270.8559029916
 20
33.4853834759
  0
LWPOLYLINE
  5
2B9
330
1F
100
AcDbEntity
  8
0
  6
Continuous
 62
     7
370
    15
100
AcDbPolyline
 90
        3
 70
   128
 43
0.0
 10
238.3535866434
 20
57.4848643752
 10
238.4846346956
 20
57.6602214809
 10
238.6440617355
 20
57.8021436368
  0
LWPOLYLINE
  5
2BA
330
1F
100
AcDbEntity
  8
0
  6
Continuous
 62
     7
370
    15
100
AcDbPolyline
 90
        3
 70
   128
 43
0.0
 10
238.4115546944
 20
57.5490956582
 10
238.5093133217
 20
57.6726603128
 10
238.6183531457
 20
57.7745206132
  0
ARC
  5
2BB
330
1F
100
AcDbEntity
  8
0
  6
Continuous
 62
     7
370
     0
100
AcDbCircle
 10
243.0078074878
 20
41.8780620816
 30
0.0
 40
4.285736786642671
100
AcDbArc
 50
186.380077869
 51
237.3735853154
  0
LWPOLYLINE
  5
2BC
330
1F
100
AcDbEntity
  8
0
  6
Continuous
 62
     7
370
     0
100
AcDbPolyline
 90
       20
 70
   128
 43
0.0
 10
250.6963004494
 20
55.5895744893
 10
250.4826116469
 20
55.7028147271
 10
249.8354247268
 20
55.9389488018
 10
249.1304893802
 20
56.0493662885
 10
248.3776411341
 20
56.0325249013
 10
247.5873852549
 20
55.8886617744
 10
246.7707480828
 20
55.619781784
 10
245.939124578
 20
55.2296387415
 10
245.1041185416
 20
54.7236758547
 10
244.2773810254
 20
54.1089529755
 10
243.4704478359
 20
53.3940467105
 10
242.6945783555
 20
52.5889337989
 10
241.9605982326
 20
51.7048463075
 10
241.2787491516
 20
50.754122166
 10
240.6585451049
 20
49.7500259963
 10
240.1086400258
 20
48.7065681349
 10
239.6367066165
 20
47.6383088251
 10
239.2493303221
 20
46.5601536623
 10
238.9519164757
 20
45.4871461865
 10
238.7486139079
 20
44.4342582871
  0
SPLINE
  5
2BD
330
1F
100
AcDbEntity
  8
0
  6
Continuous
 62
     7
370
     0
100
AcDbSpline
210
0.0
220
0.0
230
1.0
 70
     8
 71
     3
 72
    14
 73
    10
 74
     0
 42
0.000000001
 43
0.00000001
 40
0.0
 40
0.0
 40
0.0
 40
0.0
 40
0.2500000000000001
 40
0.2500000000000001
 40
0.5000000000000001
 40
0.5000000000000001
 40
0.7500000000000001
 40
0.7500000000000001
 40
1.0
 40
1.0
 40
1.0
 40
1.0
 10
238.7486139593947
 20
44.43425861475565
 30
0.0
 10
238.7076125231267
 20
44.16004269353324
 30
0.0
 10
238.6739658800398
 20
43.89223531989304
 30
0.0
 10
238.6282115340296
 20
43.36521368839469
 30
0.0
 10
238.6161194778925
 20
43.10527916138981
 30
0.0
 10
238.6162178218908
 20
42.59658956385753
 30
0.0
 10
238.6283235203975
 20
42.3481159122191
 30
0.0
 10
238.6740204793772
 20
41.86416309072224
 30
0.0
 10
238.7076147313178
 20
41.62868127715436
 30
0.0
 10
238.7486139593947
 20
41.40181682537081
 30
0.0
  0
LWPOLYLINE
  5
2BE
330
1F
100
AcDbEntity
  8
0
  6
Continuous
 62
     7
370
     0
100
AcDbPolyline
 90
       42
 70
   128
 43
0.0
 10
273.2561940025
 20
35.9185778001
 10
272.608557955
 20
35.4872882383
 10
271.9761019346
 20
34.9512738598
 10
271.3736501899
 20
34.3230978792
 10
270.8153236437
 20
33.6174848126
 10
270.3142089748
 20
32.8509727868
 10
269.882051983
 20
32.041528917
 10
269.5289822354
 20
31.2081257067
 10
269.2632750023
 20
30.3702973404
 10
269.0911584682
 20
29.5476817124
 10
269.0166665476
 20
28.7595602542
 10
269.0415460299
 20
28.0244062397
 10
269.1652127859
 20
27.3594503989
 10
269.3847688907
 20
26.7802792252
 10
269.6950681482
 20
26.3004681772
 10
270.0888369342
 20
25.9312631873
 10
270.5568459121
 20
25.6813181436
 10
271.0881253768
 20
25.5564915408
 10
271.6702224163
 20
25.5597093828
 10
272.2894934701
 20
25.690896238
 10
272.9314230237
 20
25.9469770872
 10
273.5809649813
 20
26.3219496778
 10
274.2228945348
 20
26.8070249152
 10
274.8421655886
 20
27.3908331995
 10
275.4242626281
 20
28.0596902939
 10
275.9555420928
 20
28.79791911
 10
276.4235510708
 20
29.588215818
 10
276.8173198568
 20
30.412056571
 10
277.1276191142
 20
31.2501315158
 10
277.347175219
 20
32.0827967722
 10
277.4708419751
 20
32.8905352104
 10
277.4957214573
 20
33.6544144637
 10
277.4212295367
 20
34.3565293811
 10
277.2491130027
 20
34.9804234887
 10
276.9834057695
 20
35.5114728136
 10
276.6303360219
 20
35.9372303703
 10
276.1981790301
 20
36.247716398
 10
275.6970643612
 20
36.4356537424
 10
275.138737815
 20
36.4966367002
 10
274.5362860703
 20
36.429236702
 10
273.9038300499
 20
36.2350329025
 10
273.2561940025
 20
35.9185778001
  0
LWPOLYLINE
  5
2BF
330
1F
100
AcDbEntity
  8
0
  6
Continuous
 62
     7
370
     0
100
AcDbPolyline
 90
       22
 70
   128
 43
0.0
 10
270.2598680222
 20
26.4030243434
 10
270.3236979426
 20
26.3731012686
 10
270.8240556146
 20
26.2277672177
 10
271.3782474891
 20
26.2118183098
 10
271.971920424
 20
26.3256675872
 10
272.5896983927
 20
26.566366467
 10
273.215581398
 20
26.9276810352
 10
273.8333593668
 20
27.4002534156
 10
274.4270323016
 20
27.9718443188
 10
274.9812241762
 20
28.6276495454
 10
275.4815818482
 20
29.3506842676
 10
275.9151461495
 20
30.1222221622
 10
276.2706884025
 20
30.9222811241
 10
276.5389998499
 20
31.7301397838
 10
276.7131312009
 20
32.524874847
 10
276.7885730719
 20
33.2859034898
 10
276.7633712321
 20
33.9935152321
 10
276.6381786284
 20
34.6293834631
 10
276.4162376047
 20
35.1770394722
 10
276.1032959374
 20
35.6222989465
 10
275.7074593217
 20
35.9536304169
 10
275.6736117803
 20
35.9742780691
  0
LWPOLYLINE
  5
2C0
330
1F
100
AcDbEntity
  8
0
  6
Continuous
 62
     7
370
     0
100
AcDbPolyline
 90
       21
 70
   128
 43
0.0
 10
233.6588880419
 20
45.1232295259
 10
234.0091454752
 20
46.4878286871
 10
234.4532909404
 20
47.8630293969
 10
234.987320487
 20
49.2364342047
 10
235.6064208131
 20
50.595663226
 10
236.305009437
 20
51.9284613649
 10
237.0767900146
 20
53.2228150392
 10
237.9148037061
 20
54.4670544579
 10
238.8114970059
 20
55.6499642629
 10
239.7587856218
 20
56.7608797204
 10
240.7481298778
 20
57.7897857653
 10
241.7706112702
 20
58.7274075834
 10
242.8170118223
 20
59.5652921636
 10
243.8778985838
 20
60.2958867371
 10
244.9437075538
 20
60.9126054757
 10
246.0048306916
 20
61.4098865661
 10
247.0517019385
 20
61.7832479536
 10
248.0748840222
 20
62.0293245246
 10
249.0651525454
 20
62.1458968784
 10
250.0135807725
 20
62.1319159384
 10
250.9116188203
 20
61.9875060822
  0
LWPOLYLINE
  5
2C1
330
1F
100
AcDbEntity
  8
0
  6
Continuous
 62
     7
370
     0
100
AcDbPolyline
 90
        3
 70
   128
 43
0.0
 10
234.0192212061
 20
44.7936056602
 10
234.3510519055
 20
46.1516456568
 10
234.4276538027
 20
46.4204765498
  0
LWPOLYLINE
  5
2C2
330
1F
100
AcDbEntity
  8
0
  6
Continuous
 62
     7
370
     0
100
AcDbPolyline
 90
       13
 70
   128
 43
0.0
 10
239.9457180902
 20
56.3403527031
 10
240.0203041826
 20
56.4235589761
 10
241.0060534441
 20
57.4527942585
 10
242.0256365822
 20
58.3896479008
 10
243.0695506349
 20
59.225389825
 10
244.1280652779
 20
59.9522286711
 10
245.1913147324
 20
60.5633907098
 10
246.2493886033
 20
61.0531783662
 10
247.2924253101
 20
61.4170287189
 10
248.3107025544
 20
61.6515482352
 10
249.294729722
 20
61.7545524254
 10
250.2353350989
 20
61.7250804497
 10
251.1237511528
 20
61.5634070875
  0
ARC
  5
2C3
330
1F
100
AcDbEntity
  8
0
  6
Continuous
 62
     7
370
     0
100
AcDbCircle
 10
248.4476210025
 20
55.3382400891
 30
0.0
 40
7.017045852609964
100
AcDbArc
 50
14.3287351339
 51
43.52515955
  0
LWPOLYLINE
  5
2C4
330
1F
100
AcDbEntity
  8
0
  6
Continuous
 62
     7
370
     0
100
AcDbPolyline
 90
       16
 70
   128
 43
0.0
 10
245.6072945371
 20
35.4340103579
 10
245.1541981349
 20
35.1369746228
 10
244.0935981696
 20
34.5260561588
 10
243.0380289081
 20
34.0358444044
 10
241.9972801495
 20
33.6708866981
 10
240.9810037281
 20
33.434566313
 10
239.9986252267
 20
33.3290765853
 10
239.0592552793
 20
33.3553948055
 10
238.1716057711
 20
33.5132771882
 10
237.3439081794
 20
33.8012588798
 10
236.5838404744
 20
34.2166703155
 10
235.8984503996
 20
34.7556583288
 10
235.294094885
 20
35.413224181
 10
234.7763781444
 20
36.1832684337
 10
234.3501029429
 20
37.0586514108
 10
234.0192212061
 20
38.031253279
  0
LWPOLYLINE
  5
2C5
330
1F
100
AcDbEntity
  8
0
  6
Continuous
 62
     7
370
     0
100
AcDbPolyline
 90
       26
 70
   128
 43
0.0
 10
236.6457397069
 20
44.672340282
 10
236.8633761544
 20
45.8138457634
 10
237.1775486414
 20
46.9768070122
 10
237.5843559501
 20
48.1467805424
 10
238.0787444101
 20
49.3092351428
 10
238.6545744108
 20
50.4497328609
 10
239.3046944881
 20
51.5541094155
 10
240.0210295694
 20
52.608648715
 10
240.7946827183
 20
53.6002518604
 10
241.6160457704
 20
54.5166048173
 10
242.4749172128
 20
55.3463255539
 10
243.3606296123
 20
56.0791090883
 10
244.2621826825
 20
56.7058552563
 10
245.1683791501
 20
57.2187783251
 10
246.0679640365
 20
57.6115086918
 10
246.9497646816
 20
57.879169154
 10
247.8028287493
 20
58.0184340472
 10
248.6165619047
 20
58.0275745023
 10
249.3808568069
 20
57.9064773984
 10
250.0862215245
 20
57.6566464909
 10
250.7238954399
 20
57.2811837695
 10
251.2859579091
 20
56.784753326
 10
251.7654290189
 20
56.1735208879
 10
252.1563535512
 20
55.4550775746
 10
252.4538760573
 20
54.6383465427
 10
252.475324852
 20
54.5625655437
  0
LWPOLYLINE
  5
2C6
330
1F
100
AcDbEntity
  8
0
  6
Continuous
 62
     7
370
     0
100
AcDbPolyline
 90
       12
 70
   128
 43
0.0
 10
242.4761378251
 20
37.2415882368
 10
242.4749172128
 20
37.2412721889
 10
241.6160457704
 20
37.0793610656
 10
240.7946827183
 20
37.0473884281
 10
240.0210295694
 20
37.145750661
 10
239.3046944881
 20
37.3732270802
 10
238.6545744108
 20
37.7269909707
 10
238.0787444101
 20
38.2026495215
 10
237.5843559501
 20
38.7942953561
 10
237.1775486414
 20
39.4945791653
 10
236.8633761544
 20
40.2948045816
 10
236.6457397069
 20
41.1850323694
  0
LWPOLYLINE
  5
2C7
330
1F
100
AcDbEntity
  8
0
  6
Continuous
 62
     7
370
     0
100
AcDbPolyline
 90
       21
 70
   128
 43
0.0
 10
228.4793311073
 20
48.1133240983
 10
228.8295885406
 20
49.4779232594
 10
229.2737340058
 20
50.8531239693
 10
229.8077635524
 20
52.226528777
 10
230.4268638785
 20
53.5857577984
 10
231.1254525024
 20
54.9185559373
 10
231.89723308
 20
56.2129096116
 10
232.7352467715
 20
57.4571490303
 10
233.6319400713
 20
58.6400588352
 10
234.5792286872
 20
59.7509742928
 10
235.5685729432
 20
60.7798803377
 10
236.5910543356
 20
61.7175021557
 10
237.6374548877
 20
62.555386736
 10
238.6983416492
 20
63.2859813095
 10
239.7641506193
 20
63.9027000481
 10
240.825273757
 20
64.3999811385
 10
241.8721450039
 20
64.7733425259
 10
242.8953270876
 20
65.019419097
 10
243.8855956108
 20
65.1359914508
 10
244.834023838
 20
65.1220105108
 10
245.7320618857
 20
64.9776006546
  0
ARC
  5
2C8
330
1F
100
AcDbEntity
  8
0
  6
Continuous
 62
     7
370
     0
100
AcDbCircle
 10
237.8714027481
 20
39.6033780516
 30
0.0
 40
2.000969832693005
100
AcDbArc
 50
63.9986071621
 51
127.7729897639
  0
ARC
  5
2C9
330
1F
100
AcDbEntity
  8
0
  6
Continuous
 62
     7
370
     0
100
AcDbCircle
 10
237.405121927
 20
41.9737061756
 30
0.0
 40
2.803442062181742
100
AcDbArc
 50
61.3649121199
 51
105.7163379221
  0
LWPOLYLINE
  5
2CA
330
1F
100
AcDbEntity
  8
0
  6
Continuous
 62
     7
370
     0
100
AcDbPolyline
 90
       17
 70
   128
 43
0.0
 10
231.9513081452
 20
47.2035543331
 10
232.2816485584
 20
48.4676495456
 10
232.7028628453
 20
49.7409100752
 10
233.2107679313
 20
51.0106913374
 10
233.8003200239
 20
52.2643841902
 10
234.4656646624
 20
53.4895392647
 10
235.2001953285
 20
54.6739905348
 10
235.9966173245
 20
55.805975465
 10
236.8470228479
 20
56.8742551556
 10
237.7429663949
 20
57.8682187099
 10
238.6755515229
 20
58.7779979603
 10
239.6355172852
 20
59.5945576707
 10
240.6133308384
 20
60.3097893019
 10
241.5992825817
 20
60.9165902691
 10
242.5835815841
 20
61.4089350009
 10
243.556453584
 20
61.781934555
 10
244.0613298591
 20
61.9291952118
  0
LWPOLYLINE
  5
2CB
330
1F
100
AcDbEntity
  8
0
  6
Continuous
 62
     7
370
     0
100
AcDbPolyline
 90
       20
 70
   128
 43
0.0
 10
231.3735235844
 20
47.1965698562
 10
231.7023770041
 20
48.4852346236
 10
232.1235926081
 20
49.7843467088
 10
232.6330538347
 20
51.081205247
 10
233.2257781362
 20
52.3631318881
 10
233.8959722966
 20
53.6175939869
 10
234.6370844564
 20
54.8323277927
 10
235.441867992
 20
55.9954570762
 10
236.3024562599
 20
57.0956123245
 10
237.2104353663
 20
58.1220366289
 10
238.1569287897
 20
59.0646961342
 10
239.1326834858
 20
59.9143746132
 10
240.1281601082
 20
60.6627658546
 10
241.1336265717
 20
61.3025527711
 10
242.1392532082
 20
61.8274813433
 10
243.1352086748
 20
62.2324197887
 10
244.1117565877
 20
62.5134090242
 10
245.0593494512
 20
62.6677016801
 10
245.9687233548
 20
62.6937893922
 10
246.134442129
 20
62.684353228
  0
LINE
  5
2CC
330
1F
100
AcDbEntity
  8
0
  6
Continuous
 62
     7
370
     0
100
AcDbLine
 10
236.6457397069
 20
45.5620305334
 30
0.0
 11
236.0799623881
 21
45.8886468273
 31
0.0
  0
LWPOLYLINE
  5
2CD
330
1F
100
AcDbEntity
  8
0
  6
Continuous
 62
     7
370
     0
100
AcDbPolyline
 90
        3
 70
   128
 43
0.0
 10
230.9630751008
 20
46.2414650493
 10
230.9623691411
 20
46.3627031477
 10
230.9870527063
 20
47.0956074469
  0
LINE
  5
2CE
330
1F
100
AcDbEntity
  8
0
  6
Continuous
 62
     7
370
     0
100
AcDbLine
 10
231.1611572216
 20
43.4615241926
 30
0.0
 11
236.6457397069
 21
40.2953421179
 31
0.0
  0
LINE
  5
2CF
330
1F
100
AcDbEntity
  8
0
  6
Continuous
 62
     7
370
     0
100
AcDbLine
 10
231.0419183542
 20
43.3926668726
 30
0.0
 11
231.1611572216
 21
43.4615241926
 31
0.0
  0
LWPOLYLINE
  5
2D0
330
1F
100
AcDbEntity
  8
0
  6
Continuous
 62
     7
370
     0
100
AcDbPolyline
 90
       16
 70
   128
 43
0.0
 10
209.6904856657
 20
62.6546669282
 10
209.739438901
 20
63.4372584033
 10
209.8852047644
 20
64.2588880922
 10
210.1245274119
 20
65.1012022433
 10
210.4520607791
 20
65.9453851298
 10
210.860487778
 20
66.7725787191
 10
211.3406855916
 20
67.5643053794
 10
211.8819268591
 20
68.3028788912
 10
212.4721213619
 20
68.9718006255
 10
213.0980849566
 20
69.556128296
 10
213.7458348293
 20
70.042808764
 10
214.4009012757
 20
70.420970574
 10
215.0486511485
 20
70.6821661902
 10
215.6746147431
 20
70.8205607026
 10
216.2648092459
 20
70.8330630366
 10
216.6053742211
 20
70.7777279375
  0
ARC
  5
2D1
330
1F
100
AcDbEntity
  8
0
  6
Continuous
 62
     7
370
     0
100
AcDbCircle
 10
213.0732053229
 20
62.4146561582
 30
0.0
 40
3.391223591686129
100
AcDbArc
 50
175.9415503075
 51
223.4200404841
  0
LWPOLYLINE
  5
2D2
330
1F
100
AcDbEntity
  8
0
  6
Continuous
 62
     7
370
     0
100
AcDbPolyline
 90
        3
 70
   128
 43
0.0
 10
234.1898520638
 20
36.4299325736
 10
234.0103473189
 20
36.812484685
 10
233.6588880419
 20
37.775443153
  0
LINE
  5
2D3
330
1F
100
AcDbEntity
  8
0
  6
Continuous
 62
     7
370
     0
100
AcDbLine
 10
236.0800545843
 20
39.3155463672
 30
0.0
 11
230.8297865978
 21
42.346461561
 31
0.0
  0
LINE
  5
2D4
330
1F
100
AcDbEntity
  8
0
  6
Continuous
 62
     7
370
     0
100
AcDbLine
 10
232.8132391854
 20
39.9387771166
 30
0.0
 11
232.7361967219
 21
40.1772940258
 31
0.0
  0
LWPOLYLINE
  5
2D5
330
1F
100
AcDbEntity
  8
0
  6
Continuous
 62
     7
370
     0
100
AcDbPolyline
 90
        3
 70
   128
 43
0.0
 10
232.4515708221
 20
39.3976615197
 10
232.2916584349
 20
39.7255759561
 10
231.9513081452
 20
40.6304005565
  0
ARC
  5
2D6
330
1F
100
AcDbEntity
  8
0
  6
Continuous
 62
     7
370
     0
100
AcDbCircle
 10
237.9866717097
 20
42.4849376482
 30
0.0
 40
6.87015215825529
100
AcDbArc
 50
195.7212716744
 51
214.1765283786
  0
LWPOLYLINE
  5
2D7
330
1F
100
AcDbEntity
  8
0
  6
Continuous
 62
     7
370
     0
100
AcDbPolyline
 90
        3
 70
   128
 43
0.0
 10
228.9680073522
 20
39.5053253923
 10
228.8307903843
 20
39.8025792574
 10
228.4793311073
 20
40.7655377254
  0
ARC
  5
2D8
330
1F
100
AcDbEntity
  8
0
  6
Continuous
 62
     7
370
     0
100
AcDbCircle
 10
270.6301795688
 20
34.0935300583
 30
0.0
 40
1.488837566341188
100
AcDbArc
 50
336.4770957726
 51
27.2241443941
  0
LWPOLYLINE
  5
2D9
330
1F
100
AcDbEntity
  8
0
  6
Continuous
 62
     7
370
     0
100
AcDbPolyline
 90
        9
 70
   128
 43
0.0
 10
271.8207342454
 20
34.6334726587
 10
271.8290872239
 20
34.610098144
 10
271.9252268195
 20
34.2119457393
 10
271.9249634017
 20
33.8519101909
 10
271.8283285806
 20
33.5652309007
 10
271.6447764212
 20
33.3799730446
 10
271.3922799201
 20
33.3142677919
 10
271.0955503015
 20
33.374549504
 10
270.8639033196
 20
33.4976491815
  0
OLE2FRAME
  5
2DA
330
1F
100
AcDbEntity
  8
0
100
AcDbOle2Frame
 70
     2
  3
Paintbrush-Bild
 10
13.8511154363
 20
38.264191557
 30
0.0
 11
51.6290888628
 21
31.9806341108
 31
0.0
 71
     2
 72
     0
 73
     1
 90
    12928
310
80552BED0767C5B32B40DDAF6807D121434000000000000000006FFBDDFB85D0
310
4940DDAF6807D121434000000000000000006FFBDDFB85D04940416F4BD60AFB
310
3F4000000000000000002BED0767C5B32B40416F4BD60AFB3F40000000000000
310
0000000000000100000000010000010000000100000000000100000000320000
310
D0CF11E0A1B11AE1000000000000000000000000000000003E000300FEFF0900
310
0600000000000000000000000100000001000000000000000010000002000000
310
01000000FEFFFFFF0000000000000000FFFFFFFFFFFFFFFFFFFFFFFFFFFFFFFF
310
FFFFFFFFFFFFFFFFFFFFFFFFFFFFFFFFFFFFFFFFFFFFFFFFFFFFFFFFFFFFFFFF
310
FFFFFFFFFFFFFFFFFFFFFFFFFFFFFFFFFFFFFFFFFFFFFFFFFFFFFFFFFFFFFFFF
310
FFFFFFFFFFFFFFFFFFFFFFFFFFFFFFFFFFFFFFFFFFFFFFFFFFFFFFFFFFFFFFFF
310
FFFFFFFFFFFFFFFFFFFFFFFFFFFFFFFFFFFFFFFFFFFFFFFFFFFFFFFFFFFFFFFF
310
FFFFFFFFFFFFFFFFFFFFFFFFFFFFFFFFFFFFFFFFFFFFFFFFFFFFFFFFFFFFFFFF
310
FFFFFFFFFFFFFFFFFFFFFFFFFFFFFFFFFFFFFFFFFFFFFFFFFFFFFFFFFFFFFFFF
310
FFFFFFFFFFFFFFFFFFFFFFFFFFFFFFFFFFFFFFFFFFFFFFFFFFFFFFFFFFFFFFFF
310
FFFFFFFFFFFFFFFFFFFFFFFFFFFFFFFFFFFFFFFFFFFFFFFFFFFFFFFFFFFFFFFF
310
FFFFFFFFFFFFFFFFFFFFFFFFFFFFFFFFFFFFFFFFFFFFFFFFFFFFFFFFFFFFFFFF
310
FFFFFFFFFFFFFFFFFFFFFFFFFFFFFFFFFFFFFFFFFFFFFFFFFFFFFFFFFFFFFFFF
310
FFFFFFFFFFFFFFFFFFFFFFFFFFFFFFFFFFFFFFFFFFFFFFFFFFFFFFFFFFFFFFFF
310
FFFFFFFFFFFFFFFFFFFFFFFFFFFFFFFFFFFFFFFFFFFFFFFFFFFFFFFFFFFFFFFF
310
FFFFFFFFFFFFFFFFFFFFFFFFFFFFFFFFFFFFFFFFFFFFFFFFFFFFFFFFFFFFFFFF
310
FDFFFFFFFEFFFFFFFEFFFFFFFEFFFFFF05000000060000000700000008000000
310
090000000A0000000B0000000C0000000D0000000E0000000F00000010000000
310
11000000120000001300000014000000150000001600000017000000FEFFFFFF
310
FFFFFFFFFFFFFFFFFFFFFFFFFFFFFFFFFFFFFFFFFFFFFFFFFFFFFFFFFFFFFFFF
310
FFFFFFFFFFFFFFFFFFFFFFFFFFFFFFFFFFFFFFFFFFFFFFFFFFFFFFFFFFFFFFFF
310
FFFFFFFFFFFFFFFFFFFFFFFFFFFFFFFFFFFFFFFFFFFFFFFFFFFFFFFFFFFFFFFF
310
FFFFFFFFFFFFFFFFFFFFFFFFFFFFFFFFFFFFFFFFFFFFFFFFFFFFFFFFFFFFFFFF
310
FFFFFFFFFFFFFFFFFFFFFFFFFFFFFFFFFFFFFFFFFFFFFFFFFFFFFFFFFFFFFFFF
310
FFFFFFFFFFFFFFFFFFFFFFFFFFFFFFFFFFFFFFFFFFFFFFFFFFFFFFFFFFFFFFFF
310
FFFFFFFFFFFFFFFFFFFFFFFFFFFFFFFFFFFFFFFFFFFFFFFFFFFFFFFFFFFFFFFF
310
FFFFFFFFFFFFFFFFFFFFFFFFFFFFFFFFFFFFFFFFFFFFFFFFFFFFFFFFFFFFFFFF
310
FFFFFFFFFFFFFFFFFFFFFFFFFFFFFFFFFFFFFFFFFFFFFFFFFFFFFFFFFFFFFFFF
310
FFFFFFFFFFFFFFFFFFFFFFFFFFFFFFFFFFFFFFFFFFFFFFFFFFFFFFFFFFFFFFFF
310
FFFFFFFFFFFFFFFFFFFFFFFFFFFFFFFFFFFFFFFFFFFFFFFFFFFFFFFFFFFFFFFF
310
FFFFFFFFFFFFFFFFFFFFFFFFFFFFFFFFFFFFFFFFFFFFFFFFFFFFFFFFFFFFFFFF
310
FFFFFFFFFFFFFFFFFFFFFFFFFFFFFFFFFFFFFFFFFFFFFFFFFFFFFFFFFFFFFFFF
310
52006F006F007400200045006E00740072007900000000000000000000000000
310
0000000000000000000000000000000000000000000000000000000000000000
310
16000500FFFFFFFFFFFFFFFF020000000A00030000000000C000000000000046
310
000000000000000000000000A065F6056024D20103000000C000000000000000
310
01004F006C006500000000000000000000000000000000000000000000000000
310
0000000000000000000000000000000000000000000000000000000000000000
310
0A000200FFFFFFFFFFFFFFFFFFFFFFFF00000000000000000000000000000000
310
0000000000000000000000000000000000000000000000001400000000000000
310
010043006F006D0070004F0062006A0000000000000000000000000000000000
310
0000000000000000000000000000000000000000000000000000000000000000
310
120002010100000003000000FFFFFFFF00000000000000000000000000000000
310
0000000000000000000000000000000000000000010000004D00000000000000
310
01004F006C006500310030004E00610074006900760065000000000000000000
310
0000000000000000000000000000000000000000000000000000000000000000
310
1A000200FFFFFFFFFFFFFFFFFFFFFFFF00000000000000000000000000000000
310
0000000000000000000000000000000000000000040000002426000000000000
310
FEFFFFFF02000000FEFFFFFFFFFFFFFFFFFFFFFFFFFFFFFFFFFFFFFFFFFFFFFF
310
FFFFFFFFFFFFFFFFFFFFFFFFFFFFFFFFFFFFFFFFFFFFFFFFFFFFFFFFFFFFFFFF
310
FFFFFFFFFFFFFFFFFFFFFFFFFFFFFFFFFFFFFFFFFFFFFFFFFFFFFFFFFFFFFFFF
310
FFFFFFFFFFFFFFFFFFFFFFFFFFFFFFFFFFFFFFFFFFFFFFFFFFFFFFFFFFFFFFFF
310
FFFFFFFFFFFFFFFFFFFFFFFFFFFFFFFFFFFFFFFFFFFFFFFFFFFFFFFFFFFFFFFF
310
FFFFFFFFFFFFFFFFFFFFFFFFFFFFFFFFFFFFFFFFFFFFFFFFFFFFFFFFFFFFFFFF
310
FFFFFFFFFFFFFFFFFFFFFFFFFFFFFFFFFFFFFFFFFFFFFFFFFFFFFFFFFFFFFFFF
310
FFFFFFFFFFFFFFFFFFFFFFFFFFFFFFFFFFFFFFFFFFFFFFFFFFFFFFFFFFFFFFFF
310
FFFFFFFFFFFFFFFFFFFFFFFFFFFFFFFFFFFFFFFFFFFFFFFFFFFFFFFFFFFFFFFF
310
FFFFFFFFFFFFFFFFFFFFFFFFFFFFFFFFFFFFFFFFFFFFFFFFFFFFFFFFFFFFFFFF
310
FFFFFFFFFFFFFFFFFFFFFFFFFFFFFFFFFFFFFFFFFFFFFFFFFFFFFFFFFFFFFFFF
310
FFFFFFFFFFFFFFFFFFFFFFFFFFFFFFFFFFFFFFFFFFFFFFFFFFFFFFFFFFFFFFFF
310
FFFFFFFFFFFFFFFFFFFFFFFFFFFFFFFFFFFFFFFFFFFFFFFFFFFFFFFFFFFFFFFF
310
FFFFFFFFFFFFFFFFFFFFFFFFFFFFFFFFFFFFFFFFFFFFFFFFFFFFFFFFFFFFFFFF
310
FFFFFFFFFFFFFFFFFFFFFFFFFFFFFFFFFFFFFFFFFFFFFFFFFFFFFFFFFFFFFFFF
310
FFFFFFFFFFFFFFFFFFFFFFFFFFFFFFFFFFFFFFFFFFFFFFFFFFFFFFFFFFFFFFFF
310
0100000200000000000000000000000000000000000000000000000000000000
310
0000000000000000000000000000000000000000000000000000000000000000
310
0100FEFF030A0000FFFFFFFF0A00030000000000C00000000000004607000000
310
5042727573680007000000504272757368000700000050427275736800F439B2
310
7100000000000000000000000000000000000000000000000000000000000000
310
0000000000000000000000000000000000000000000000000000000000000000
310
0000000000000000000000000000000000000000000000000000000000000000
310
0000000000000000000000000000000000000000000000000000000000000000
310
0000000000000000000000000000000000000000000000000000000000000000
310
0000000000000000000000000000000000000000000000000000000000000000
310
0000000000000000000000000000000000000000000000000000000000000000
310
0000000000000000000000000000000000000000000000000000000000000000
310
0000000000000000000000000000000000000000000000000000000000000000
310
0000000000000000000000000000000000000000000000000000000000000000
310
0000000000000000000000000000000000000000000000000000000000000000
310
0000000000000000000000000000000000000000000000000000000000000000
310
20260000424D0E260000000000003E00000028000000B40200006E0000000100
310
01000000000000000000130B0000130B00000200000002000000000000FFFFFF
310
FFFFFFFFFFFFFFFFFFFFFFFFFFFFFFFFFFFFFFFFFFFFFFFFFFFFFFFFFFFFFFFF
310
FFFFFFFFFFFFFFFFFFFFFFFFFFFFFFFFFFFFFFFFFFFFFFFFFFFFFFFFFFFFFFFF
310
FFFFFFFFFFFFFFFFFFFFFFFFFFFFFFFFFFFFFFFFFFFFFFFFF000FFFFFFFFFFFF
310
FFFFFFFFFFFFFFFFFFFFFFFFFFFFFFFFFFFFFFFFFFFFFFFFFFFFFFFFFFFFFFFF
310
FFFFFFFFFFFFFFFFFFFFFFFFFFFFFFFFFFFFFFFFFFFFFFFFFFFFFFFFFFFFFFFF
310
FFFFFFFFFFFFFFFFFFFFFFFFFFFFFFFFF000FFFFFFFFFFFFFFFFFFFFFFFFFFFF
310
FFFFFFFFFFFFFFFFFFFFFFFFFFFFFFFFFFFFFFFFFFFFFFFFFFFFFFFFFFFFFFFF
310
FFFFFFFFFFFFFFFFFFFFFFFFFFFFFFFFFFFFFFFFFFFFFFFFFFFFFFFFFFFFFFFF
310
FFFFFFFFFFFFFFFFF000FFFFFFFFFFFFFFFFFFFFFFFFFFFFFFFFFFFFFFFFFFFF
310
FFFFFFFFFFFFFFFFFFFFFFFFFFFFFFFFFFFFFFFFFFFFFFFFFFFFFFFFFFFFFFFF
310
FFFFFFFFFFFFFFFFFFFFFFFFFFFFFFFFFFFFFFFFFFFFFFFFFFFFFFFFFFFFFFFF
310
F000FFFFFFFFFFFFFFFFFFFFFFFFFFFFFFFFFFFFFFFFFFFFFFFFFFFFFFFFFFFF
310
FFFFFFFFFFFFFFFFFFFFFFFFFFFFFFFFFFFFFFFFFFFFFFFFFFFFFFFFFFFFFFFF
310
FFFFFFFFFFFFFFFFFFFFFFFFFFFFFFFFFFFFFFFFFFFFFFFFF000FFFFFFFFFFFF
310
FFFFFFFFFFFFFFFFFFFFFFFFFFFFFFFFFFFFFFFFFFFFFFFFFFFFFFFFFFFFFFFF
310
FFFFFFFFFFFFFFFFFFFFFFFFFFFFFFFFFFFFFFFFFFFFFFFFFFFFFFFFFFFFFFFF
310
FFFFFFFFFFFFFFFFFFFFFFFFFFFFFFFFF000FFFFFFFFFFFFFFFFFFFFFFFFFFFF
310
FFFFFFFFFFFFFFFFFFFFFFFFFFFFFFFFFFFFFFFFFFFFFFFFFFFFFFFFFFFFFFFF
310
FFFFFFFFFFFFFFFFFFFFFFFFFFFFFFFFFFFFFFFFFFFFFFFFFFFFFFFFFFFFFFFF
310
FFFFFFFFFFFFFFFFF000FFFFFFFFFFFFFFFFFFFFFFFFFFFFFFFFFFFFFFFFFFFF
310
FFFFFFFFFFFFFFFFFFFFFFFFFFFFFFFFFFFFFFFFFFFFFFFFFFFFFFFFFFFFFFFF
310
FFFFFFFFFFFFFFFFFFFFFFFFFFFFFFFFFFFFFFFFFFFFFFFFFFFFFFFFFFFFFFFF
310
F000FFFFFFFFFFFFFFFFFFFFFFFFFFFFFFFFFFFFFFFFFFFFFFFFFFFFFFFFFFFF
310
FFFFFFFFFFFFFFFFFFFFFFFFFFFFFFFFFFFFFFFFFFFFFFFFFFFFFFFFFFFFFFFF
310
FFFFFFFFFFFFFFFFFFFFFFFFFFFFFFFFFFFFFFFFFFFFFFFFF000FFFFFFFFFFFF
310
FFFFFFFFFFFFFFFFFFFFFFFFFFFFFFFFFFFFFFFFFFFFFFFFFFFFFFFFFFFFFFFF
310
FFFFFFFFFFFFFFFFFFFFFFFFFFFFFFFFFFFFFFFFFFFFFFFFFFFFFFFFFFFFFFFF
310
FFFFFFFFFFFFFFFFFFFFFFFFFFFFFFFFF000FFFFFFFFFFFFFFFFFFFFFFFFFFFF
310
FFFFFFFFFFFFFFFFFFFFFFFFFFFFFFFFFFFFFFFFFFFFFFFFFFFFFFFFFFFFFFFF
310
FFFFFFFFFFFFFFFFFFFFFFFFFFFFFFFFFFFFFFFFFFFFFFFFFFFFFFFFFFFFFFFF
310
FFFFFFFFFFFFFFFFF000FFFFFFFFFFFFFFFFFFFFFFFFFFFFFFFFFFFFFFFFFFFF
310
FFFFFFFFFFFFFFFFFFFFFFFFFFFFFFFFFFFFFFFFFFFFFFFFFFFFFFFFFFFFFFFF
310
FFFFFFFFFFFFFFFFFFFFFFFFFFFFFFFFFFFFFFFFFFFFFFFFFFFFFFFFFFFFFFFF
310
F000FFFFFFFFFFFFFFFFFFFFFFFFFFFFFFFFFFFFFFFFFFFFFFFFFFFFFFFFFFFF
310
FFFFFFFFFFFFFFFFFFFFFFFFFFFFFFFFFFFFFFFFFFFFFFFFFFFFFFFFFFFFFFFF
310
FFFFFFFFFFFFFFFFFFFFFFFFFFFFFFFFFFFFFFFFFFFFFFFFF000FFFFFFFFFFFF
310
FFFFFFFFFFFFFFFFFFFFFFFFFFFFFFFFFFFFFFFFFFFFFFFFFFFFFFFFFFFFFFFF
310
FFFFFFFFFFFFFFFFFFFFFFFFFFFFFFFFFFFFFFFFFFFFFFFFFFFFFFFFFFFFFFFF
310
FFFFFFFFFFFFFFFFFFFFFFFFFFFFFFFFF000FFFFFFFFFFFFFFFFFFFFFFFFFFFF
310
FFFFFFFFFFFFFFFFFFFFFFFFFFFFFFFFFFFFFFFFFFFFFFFFFFFFFFFFFFFFFFFF
310
FFFFFFFFFFFFFFFFFFFFFFFFFFFFFFFFFFFFFFFFFFFFFFFFFFFFFFFFFFFFFFFF
310
FFFFFFFFFFFFFFFFF000FFFFFFFFFFFFFFFFFFFFFFFFFFFFFFFFFFFFFFFFFFFF
310
FFFFFFFFFFFFFFFFFFFFFFFFFFFFFFFFFFFFFFFFFFFFFFFFFFFFFFFFFFFFFFFF
310
FFFFFFFFFFFFFFFFFFFFFFFFFFFFFFFFFFFFFFFFFFFFFFFFFFFFFFFFFFFFFFFF
310
F000FFFFFFFFFFFFFFFFFFFFFFFFFFFFFFFFFFFFFFFFFFFFFFFFFFFFFFFFFFFF
310
FFFFFFFFFFFFFFFFFFFFFFFFFFFFFFFFFFFFFFFFFFFFFFFFFFFFFFFFFFFFFFFF
310
FFFFFFFFFFFFFFFFFFFFFFFFFFFFFFFFFFFFFFFFFFFFFFFFF000FFFFFFFFFFFF
310
FFFFFFFFFFFFFFFFFFFFFFFFFFFFFFFFFFFFFFFFFFFFFFFFFFFFFFFFFFFFFFFF
310
FFFFFFFFFFFFFFFFFFFFFFFFFFFFFFFFFFFFFFFFFFFFFFFFFFFFFFFFFFFFFFFF
310
FFFFFFFFFFFFFFFFFFFFFFFFFFFFFFFFF000FFFFFFFFFFFFFFFFFFFFFFFFFFFF
310
FFFFFFFFFFFFFFFFFFFFFFFFFFFFFFFFFFFFFFFFFFFFFFFFFFFFFFFFFFFFFFFF
310
FFFFFFFFFFFFFFFFFFFFFFFFFFFFFFFFFFFFFFFFFFFFFFFFFFFFFFFFFFFFFFFF
310
FFFFFFFFFFFFFFFFF000FFFFF80003FFFFFFFFFFFFFFFFFFFFFFFFFFFFFFFFFF
310
FFFFF00007FFFFFFFFFF00007FFFFFF800000000000000007FFFFFFFFFFFFFFF
310
FFFFFFFC001FFFFFFFFFFFFFFC001FFFFFFFFFFFFFFFFFFFFFFFFFFE0007FFFF
310
F000FFFF8000007FFFFFFFF8000FFFFFC0007FFFFF80007FFFFF0000007FFFFF
310
FFF8000007FFFFF800000000000000007FFFFFF0001FFFFFFFFFFFC00001FFFF
310
FFFFFFFFC00001FFFFFFFF000000000003FFFFE000007FFFF000FFFE0000000F
310
FFFFFFF0000FFFFF80007FFFFF80007FFFFC0000001FFFFFFFC0000001FFFFF8
310
00000000000000007FFFFFF0001FFFFFFFFFFE0000003FFFFFFFFFFE0000003F
310
FFFFFF000000000003FFFF0000000FFFF000FFF800000003FFFFFFF00007FFFF
310
80007FFFFF80007FFFF000000007FFFFFF000000003FFFF80000000000000000
310
7FFFFFF0001FFFFFFFFFF80000000FFFFFFFFFF80000000FFFFFFF0000000000
310
03FFFC00000003FFF000FFE000000000FFFFFFF00007FFFF80003FFFFF80007F
310
FFC000000001FFFFFC000000001FFFF800000000000000007FFFFFF0001FFFFF
310
FFFFE000000003FFFFFFFFE000000003FFFFFF000000000003FFF000000000FF
310
F000FF80000000007FFFFFF00007FFFF80003FFFFF80007FFF8000000000FFFF
310
F80000000007FFF800000000000000007FFFFFF0001FFFFFFFFFC000000001FF
310
FFFFFFC000000001FFFFFF000000000003FFC0000000007FF000FF0000000000
310
3FFFFFE00007FFFF00003FFFFF80007FFE00000000003FFFF00000000003FFF8
310
00000000000000007FFFFFF0001FFFFFFFFF8000000000FFFFFFFF8000000000
310
FFFFFF000000000003FF80000000003FF000FE00000000001FFFFFE00003FFFF
310
00003FFFFF80007FFC00000000001FFFE00000000001FFF8000001FFFE000000
310
7FFFFFF0001FFFFFFFFE00000000003FFFFFFE00000000003FFFFF0000000000
310
03FF00000000001FF000FC00000000000FFFFFE00003FFFF00001FFFFF80007F
310
F800000000001FFFC00000000000FFF8000001FFFE0000007FFFFFF0001FFFFF
310
FFFC00000000001FFFFFFC00000000001FFFFF000000000003FE00000000000F
310
F000F8000000000007FFFFE00003FFFF00001FFFFF80007FF800000000000FFF
310
800000000000FFF8000001FFFE0000007FFFFFF0001FFFFFFFF800000000000F
310
FFFFF800000000000FFFFF000000000003FC000000000007F000F80000000000
310
03FFFFC00003FFFE00001FFFFF80007FF0000000000007FF0000000000007FF8
310
000001FFFE0000007FFFFFF0001FFFFFFFF0000000000007FFFFF00000000000
310
07FFFF000000000003F8000000000003F000F0000000000003FFFFC00001FFFE
310
00001FFFFF80007FE0000000000007FE0000000000003FF8000001FFFE000000
310
7FFFFFF0001FFFFFFFF0000000000007FFFFF0000000000007FFFF0000000000
310
03F800001F800003F000E00001FFF00001FFFFC00001FFFE00000FFFFF80007F
310
E00001FFE00003FE00001FFF00003FF8000001FFFE0000007FFFFFF0001FFFFF
310
FFE000003E000003FFFFE000003E000003FFFF000000000003F00001FFF80001
310
F000E00007FFFC0001FFFFC00001FFFE00000FFFFF80007FC0000FFFFC0003FC
310
0000FFFFC0001FF8000001FFFE0000007FFFFFF0001FFFFFFFC00003FFE00001
310
FFFFC00003FFE00001FFFF0001FFFFFFFFF00007FFFE0001F000E0000FFFFF00
310
00FFFF800001FFFC00000FFFFF80007FC0001FFFFE0001FC0001FFFFE0001FF8
310
000001FFFE0000007FFFFFF0001FFFFFFF80000FFFF80000FFFF80000FFFF800
310
00FFFF0003FFFFFFFFE0000FFFFF8000F000C0003FFFFF8000FFFF800000FFFC
310
000007FFFF80007F80003FFFFF0001FC0003FFFFF0001FF8000001FFFE000000
310
7FFFFFF0001FFFFFFF80003FFFFE0000FFFF80003FFFFE0000FFFF0003FFFFFF
310
FFE0003FFFFF8000F000C0003FFFFF8000FFFF800000FFFC000007FFFF80007F
310
80007FFFFF8001F80007FFFFF8000FF8000001FFFE0000007FFFFFF0001FFFFF
310
FF00007FFFFF00007FFF00007FFFFF00007FFF0003FFFFFFFFE0003FFFFFC000
310
F000C0007FFFFFC000FFFF000000FFFC000007FFFF80007F8000FFFFFF8000F8
310
000FFFFFF8000FF8000001FFFE0000007FFFFFF0001FFFFFFF0000FFFFFF8000
310
7FFF0000FFFFFF80007FFF0003FFFFFFFFC0007FFFFFC00070008000FFFFFFC0
310
00FFFF000000FFF8000007FFFF80007F8000FFFFFF8000F8000FFFFFF8000FF8
310
000001FFFE0000007FFFFFF0001FFFFFFE0001FFFFFFC0003FFE0001FFFFFFC0
310
003FFF0003FFFFFFFFC0007FFFFFE00070008000FFFFFFC0007FFF0000007FF8
310
000003FFFF80007F0001FFFFFF8000F8000FFFFFF8000FF8000001FFFE000000
310
7FFFFFF0001FFFFFFE0001FFFFFFC0003FFE0001FFFFFFC0003FFF0003FFFFFF
310
FFC000FFFFFFE00070008000FFFFFFC0007FFF0000007FF8000003FFFF80007F
310
0001FFFFFF8000F8001FFFFFF8000FF8000001FFFE0000007FFFFFF0001FFFFF
310
FE0003FFFFFFE0003FFE0003FFFFFFE0003FFF0003FFFFFFFFC000FFFFFFE000
310
70008000FFFFFFC0007FFE0000007FF8000003FFFF80007F0001FFFFFF8000F0
310
001FFFFFF8000FF8000001FFFE0000007FFFFFF0001FFFFFFC0003FFFFFFE000
310
1FFC0003FFFFFFE0001FFF0003FFFFFFFFC000FFFFFFC00070008000FFFFFF80
310
007FFE0000007FF0000003FFFF80007F0001FFFFFF0000F0001FFFFFF8000FF8
310
000001FFFE0000007FFFFFF0001FFFFFFC0007FFFFFFF0001FFC0007FFFFFFF0
310
001FFF0003FFFFFFFFC000FFFFFFC00070008001FFFFFF0000FFFE0000003FF0
310
000001FFFF80007F0001FFFFFF0000F8001FFFFFF0000FF8000001FFFE000000
310
7FFFFFF0001FFFFFFC0007FFFFFFF0001FFC0007FFFFFFF0001FFF0003FFFFFF
310
FFC001FFFFFF80007000FFFFFFFFFE0000FFFE0008003FF0008001FFFF80007F
310
FFFFFFFFFC0000FFFFFFFFFFE0000FF8000001FFFE0000007FFFFFF0001FFFFF
310
F8000FFFFFFFF8000FF8000FFFFFFFF8000FFF0003FFFFFFFFFFFFFFFFFF0000
310
7000FFFFFFFFFC0000FFFC0008003FF0008001FFFF80007FFFFFFFFFF80001FF
310
FFFFFFFF80000FF8000001FFFE0000007FFFFFF0001FFFFFF8000FFFFFFFF800
310
0FF8000FFFFFFFF8000FFF0003FFFFFFFFFFFFFFFFFE0000F000FFFFFFFFE000
310
00FFFC000C003FE000C001FFFF80007FFFFFFFFFC00001FFFFFFFFFE00001FF8
310
000001FFFE0000007FFFFFF0001FFFFFF8000FFFFFFFF8000FF8000FFFFFFFF8
310
000FFF0003FFFFFFFFFFFFFFFFF00000F000FFFFFFFE000001FFFC000C001FE0
310
00C000FFFF80007FFFFFFFFE000001FFFFFFFFE000001FF80FFFFFFFFFFFFFC0
310
7FFFFFF0001FFFFFF8000FFFFFFFF8000FF8000FFFFFFFF8000FFF0003FFFFFF
310
FFFFFFFFFF800000F000FFFFFFC0000001FFFC001C001FE001C000FFFF80007F
310
FFFFFF80000003FFFFFFF80000001FF80FFFFFFFFFFFFFC07FFFFFF0001FFFFF
310
F8001FFFFFFFFC000FF8001FFFFFFFFC000FFF0003FFFFFFFFFFFFFFF0000001
310
F000FFFFF800000001FFF8001C001FE001C000FFFF80007FFFFFF800000003FF
310
FFFF800000003FF80FFFFFFFFFFFFFC07FFFFFF0001FFFFFF8001FFFFFFFFC00
310
0FF8001FFFFFFFFC000FFF0003FFFFFFFFFFFFFE00000001F000FFFFC0000000
310
03FFF8001E001FC001E000FFFF80007FFFFF8000000007FFFFFC000000003FF8
310
0FFFFFFFFFFFFFC07FFFFFF0001FFFFFF8001FFFFFFFFC000FF8001FFFFFFFFC
310
000FFF0003FFFFFFFFFFFFE000000003F000FFFE0000000007FFF8001E000FC0
310
01E0007FFF80007FFFFE0000000007FFFFE0000000007FF80FFFFFFFFFFFFFC0
310
7FFFFFF0001FFFFFF0001FFFFFFFFC0007F0001FFFFFFFFC0007FF0003FFFFFF
310
FFFFFF0000000003F000FFF80000000007FFF8001E000FC003E0007FFF80007F
310
FFF0000000000FFFFF8000000000FFF80FFFFFFFFFFFFFC07FFFFFF0001FFFFF
310
F0001FFFFFFFFC0007F0001FFFFFFFFC0007FF0003FFFFFFFFFFFC0000000007
310
F000FFE0000000000FFFF0003E000FC003E0007FFF80007FFFC0000000001FFF
310
FE0000000001FFF80FFFFFFFFFFFFFC07FFFFFF0001FFFFFF0001FFFFFFFFC00
310
07F0001FFFFFFFFC0007FF0003FFFFFFFFFFF0000000000FF000FFC000000000
310
1FFFF0003F000F8003F0003FFF80007FFF80000000003FFFF80000000003FFF8
310
0FFFFFFFFFFFFFC07FFFFFF0001FFFFFF0001FFFFFFFFC0007F0001FFFFFFFFC
310
0007FF0003FFFFFFFFFFE0000000001FF000FF00000000007FFFF0003F000780
310
03F0003FFF80007FFF00000000007FFFF00000000007FFF80FFFFFFFFFFFFFC0
310
7FFFFFF0001FFFFFF0001FFFFFFFFC0007F0001FFFFFFFFC0007FF0003FFFFFF
310
FFFF80000000007FF000FE0000000000FFFFE0003F00078007F0003FFF80007F
310
FE0000000001FFFFE0000000001FFFF80FFFFFFFFFFFFFC07FFFFFF0001FFFFF
310
F0001FFFFFFFFC0007F0001FFFFFFFFC0007FF0003FFFFFFFFFF0000000000FF
310
F000FC0000000003FFFFE0007F00078007F0003FFF80007FFC0000000007FFFF
310
C0000000007FFFF80FFFFFFFFFFFFFC07FFFFFF0001FFFFFF8001FFFFFFFFC00
310
0FF8001FFFFFFFFC000FFF0003FFFFFFFFFE0000000003FFF000FC000000000F
310
FFFFE0007F80070007F8001FFF80007FF8000000001FFFFF8000000001FFFFF8
310
0FFFFFFFFFFFFFC07FFFFFF0001FFFFFF8001FFFFFFFFC000FF8001FFFFFFFFC
310
000FFF0003FFFFFFFFFC000000000FFFF000F8000000007FFFFFE0007F800700
310
07F8001FFF80007FF000000000FFFFFF800000000FFFFFF80FFFFFFFFFFFFFC0
310
7FFFFFF0001FFFFFF8000FFFFFFFF8000FF8000FFFFFFFF8000FFF0003FFFFFF
310
FFFC000000007FFFF000F800000007FFFFFFC0007F8003000FF8001FFF80007F
310
F000000007FFFFFF000000007FFFFFF80FFFFFFFFFFFFFC07FFFFFF0001FFFFF
310
F8000FFFFFFFF8000FF8000FFFFFFFF8000FFF0003FFFFFFFFF80000000FFFFF
310
F000F0000000FFFFFFFFC000FF8003000FF8001FFF80007FE0000000FFFFFFFF
310
0000000FFFFFFFF8000001FFFE0000007FFFFFF0001FFFFFF8000FFFFFFFF800
310
0FF8000FFFFFFFF8000FFF0003FFFFFFFFF8000000FFFFFFF000F000000FFFFF
310
FFFFC000FFC002000FF8000FFF80007FE000001FFFFFFFFE000001FFFFFFFFF8
310
000001FFFE0000007FFFFFF0001FFFFFF8000FFFFFFFF8000FF8000FFFFFFFF8
310
000FFF0003FFFFFFFFF000001FFFFFFFF000E00000FFFFFFFFFFC000FFC00200
310
0FFC000FFF80007FE00001FFFFFFFFFE00001FFFFFFFFFF8000001FFFE000000
310
7FFFFFF0001FFFFFFC000FFFFFFFF8001FFC000FFFFFFFF8001FFF0003FFFFFF
310
FFF00001FFFFFFFFF000E00007FFFFFFFFFF8000FFC000001FFC000FFF80007F
310
C0000FFFFFFFFFFE0000FFFFFFFFFFF8000001FFFE0000007FFFFFF0001FFFFF
310
FC0007FFFFFFF0001FFC0007FFFFFFF0001FFF0003FFFFFFFFF00007FFFFFFFF
310
F000E0001FFFFFFFFFFF8000FFC000001FFC000FFF80007FC0003FFFFFFFFFFE
310
0001FFFFFFFFFFF8000001FFFE0000007FFFFFF0001FFFFFFC0007FFFFFFF000
310
1FFC0007FFFFFFF0001FFF0003FFFFFFFFF0001FFFFFFFFFF000E0003FFFFF00
310
03FF8001FFE000001FFC0007FF80007FC0007FFFFF0007FC0003FFFFF0003FF8
310
000001FFFE0000007FFFFFF0001FFFFFFC0003FFFFFFE0001FFC0003FFFFFFE0
310
001FFF0003FFFFFFFFF0003FFFFFFFFFF000E0003FFFFF0001FF8001FFE00000
310
1FFE0007FF80007FC0007FFFFE0003FC0007FFFFE0003FF8000001FFFE000000
310
7FFFFFF0001FFFFFFE0003FFFFFFE0003FFE0003FFFFFFE0003FFF0003FFFFFF
310
FFF0003FFFFF8001F000E0003FFFFF0001FF0001FFE000001FFE0007FF80007F
310
C0007FFFFE0003FC0007FFFFE0003FF8000001FFFE0000007FFFFFF0001FFFFF
310
FE0001FFFFFFC0003FFE0001FFFFFFC0003FFF0003FFFFFFFFF0003FFFFF0001
310
F000E0003FFFFF0003FF0001FFE000003FFE0007FF80007FC0007FFFFE0003FC
310
0007FFFFE0003FF8000001FFFE0000007FFFFFF0001FFFFFFF0001FFFFFFC000
310
7FFF0001FFFFFFC0007FFF0003FFFFFFFFF0003FFFFF0001F000E0003FFFFE00
310
03FF0003FFF000003FFE0003FF80007FC0007FFFFC0003FE0007FFFFE0003FF8
310
000001FFFE0000007FFFFFF0001FFFFFFF0000FFFFFF80007FFF0000FFFFFF80
310
007FFF0003FFFFFFFFF0003FFFFF0001F000E0003FFFFE0003FF0003FFF00000
310
3FFF0003FF80007FC0007FFFFC0007FE0007FFFFC0003FF8000001FFFE000000
310
7FFFFFF0001FFFFFFF80007FFFFF0000FFFF80007FFFFF0000FFFF0003FFFFFF
310
FFF0003FFFFF0003F000E0003FFFFC0003FE0003FFF000003FFF0003FF80007F
310
E0003FFFF80007FE0003FFFFC0007FF8000001FFFE0000007FFFFFF0001FFFFF
310
FF80003FFFFE0000FFFF80003FFFFE0000FFFF0003FFFFFFFFF0001FFFFE0003
310
F000F0001FFFF80003FE0003FFF000007FFF0001FF80007FE0003FFFF00007FE
310
0001FFFF80007FF8000001FFFE0000007FFFFFF0001FFFFFFFC0000FFFF80001
310
FFFFC0000FFFF80001FFFF0003FFFFFFFFF0001FFFFC0003F000F0000FFFF000
310
07FE0007FFF800007FFF0001FF80007FE0001FFFE00007FF0000FFFE00007FF8
310
000001FFFE0000007FFFFFF0001FFFFFFFC00003FFE00001FFFFC00003FFE000
310
01FFFF0003FFFFFFFFF8000FFFF80003F000F00003FFC00007FC0007FFF80000
310
7FFF8001FF80007FF00007FF80000FFF00007FF80000FFF8000001FFFE000000
310
7F80000000000001FFE000003E000003FFFFE000003E000003FFFF0003FFFFFF
310
FFF80003FFE00007F000F800000000000FFC0007FFF800007FFF8001FF80007F
310
F000000000000FFF000000000000FFF8000001FFFE0000007F80000000000001
310
FFF0000000000007FFFFF0000000000007FFFF0003FFFFFFFFFC00007E000007
310
F000F800000000000FFC0007FFF80000FFFF8000FF80007FF800000000001FFF
310
800000000001FFF8000001FFFE0000007F80000000000001FFF800000000000F
310
FFFFF800000000000FFFFF0003FFFFFFFFFC00000000000FF000FC0000000000
310
1FFC0007FFFC0000FFFF8000FF80007FF800000000003FFFC00000000001FFF8
310
000001FFFE0000007F80000000000001FFF800000000000FFFFFF80000000000
310
0FFFFF0003FFFFFFFFFE00000000001FF000FE00000000003FF8000FFFFC0000
310
FFFF8000FF80007FFC00000000003FFFC00000000003FFF8000001FFFE000000
310
7F80000000000001FFFC00000000001FFFFFFC00000000001FFFFF0003FFFFFF
310
FFFF00000000001FF000FF00000000003FF8000FFFFC0000FFFFC000FF80007F
310
FE00000000007FFFE00000000007FFF8000001FFFE0000007F80000000000001
310
FFFE00000000003FFFFFFE00000000003FFFFF0003FFFFFFFFFF80000000003F
310
F000FF80000000007FF8000FFFFC0001FFFFC0007F80007FFF0000000000FFFF
310
F0000000000FFFF800000000000000007F80000000000001FFFF8000000000FF
310
FFFFFF8000000000FFFFFF0003FFFFFFFFFFC0000000007FF000FFC000000000
310
FFF8000FFFFE0001FFFFC0007F80007FFF8000000001FFFFF8000000001FFFF8
310
00000000000000007F80000000000001FFFFC000000001FFFFFFFFC000000001
310
FFFFFF0003FFFFFFFFFFE000000000FFF000FFE000000003FFF0001FFFFE0001
310
FFFFC0007F80007FFFC000000007FFFFFE000000003FFFF80000000000000000
310
7F80000000000001FFFFE000000003FFFFFFFFE000000003FFFFFF0003FFFFFF
310
FFFFF000000003FFF000FFF80000000FFFF0001FFFFE0001FFFFE0007F80007F
310
FFF00000000FFFFFFF00000000FFFFF800000000000000007F80000000000001
310
FFFFF80000000FFFFFFFFFF80000000FFFFFFF0003FFFFFFFFFFFC0000000FFF
310
F000FFFE0000003FFFF0001FFFFE0003FFFFE0003F80007FFFFC0000003FFFFF
310
FFC0000003FFFFF800000000000000007F80000000000001FFFFFE0000003FFF
310
FFFFFFFE0000003FFFFFFF0003FFFFFFFFFFFF0000003FFFF000FFFF800000FF
310
FFF0001FFFFF0003FFFFE0003F80007FFFFF000001FFFFFFFFF800001FFFFFF8
310
00000000000000007F80000000000001FFFFFFC00001FFFFFFFFFFFFC00001FF
310
FFFFFF0003FFFFFFFFFFFFC00000FFFFF000FFFFF8000FFFFFFFFFFFFFFFFFFF
310
FFFFFFFFFFFFFFFFFFFFF0001FFFFFFFFFFF0000FFFFFFF80000000000000000
310
7FFFFFFFFFFFFFFFFFFFFFFC001FFFFFFFFFFFFFFC001FFFFFFFFFFFFFFFFFFF
310
FFFFFFFC001FFFFFF000FFFFFFFFFFFFFFFFFFFFFFFFFFFFFFFFFFFFFFFFFFFF
310
FFFFFFFFFFFFFFFFFFFFFFFFFFFFFFFFFFFFFFFFFFFFFFFFFFFFFFFFFFFFFFFF
310
FFFFFFFFFFFFFFFFFFFFFFFFFFFFFFFFFFFFFFFFFFFFFFFFFFFFFFFFFFFFFFFF
310
F000FFFFFFFFFFFFFFFFFFFFFFFFFFFFFFFFFFFFFFFFFFFFFFFFFFFFFFFFFFFF
310
FFFFFFFFFFFFFFFFFFFFFFFFFFFFFFFFFFFFFFFFFFFFFFFFFFFFFFFFFFFFFFFF
310
FFFFFFFFFFFFFFFFFFFFFFFFFFFFFFFFFFFFFFFFFFFFFFFFF000FFFFFFFFFFFF
310
FFFFFFFFFFFFFFFFFFFFFFFFFFFFFFFFFFFFFFFFFFFFFFFFFFFFFFFFFFFFFFFF
310
FFFFFFFFFFFFFFFFFFFFFFFFFFFFFFFFFFFFFFFFFFFFFFFFFFFFFFFFFFFFFFFF
310
FFFFFFFFFFFFFFFFFFFFFFFFFFFFFFFFF000FFFFFFFFFFFFFFFFFFFFFFFFFFFF
310
FFFFFFFFFFFFFFFFFFFFFFFFFFFFFFFFFFFFFFFFFFFFFFFFFFFFFFFFFFFFFFFF
310
FFFFFFFFFFFFFFFFFFFFFFFFFFFFFFFFFFFFFFFFFFFFFFFFFFFFFFFFFFFFFFFF
310
FFFFFFFFFFFFFFFFF000FFFFFFFFFFFFFFFFFFFFFFFFFFFFFFFFFFFFFFFFFFFF
310
FFFFFFFFFFFFFFFFFFFFFFFFFFFFFFFFFFFFFFFFFFFFFFFFFFFFFFFFFFFFFFFF
310
FFFFFFFFFFFFFFFFFFFFFFFFFFFFFFFFFFFFFFFFFFFFFFFFFFFFFFFFFFFFFFFF
310
F000FFFFFFFFFFFFFFFFFFFFFFFFFFFFFFFFFFFFFFFFFFFFFFFFFFFFFFFFFFFF
310
FFFFFFFFFFFFFFFFFFFFFFFFFFFFFFFFFFFFFFFFFFFFFFFFFFFFFFFFFFFFFFFF
310
FFFFFFFFFFFFFFFFFFFFFFFFFFFFFFFFFFFFFFFFFFFFFFFFF000FFFFFFFFFFFF
310
FFFFFFFFFFFFFFFFFFFFFFFFFFFFFFFFFFFFFFFFFFFFFFFFFFFFFFFFFFFFFFFF
310
FFFFFFFFFFFFFFFFFFFFFFFFFFFFFFFFFFFFFFFFFFFFFFFFFFFFFFFFFFFFFFFF
310
FFFFFFFFFFFFFFFFFFFFFFFFFFFFFFFFF000FFFFFFFFFFFFFFFFFFFFFFFFFFFF
310
FFFFFFFFFFFFFFFFFFFFFFFFFFFFFFFFFFFFFFFFFFFFFFFFFFFFFFFFFFFFFFFF
310
FFFFFFFFFFFFFFFFFFFFFFFFFFFFFFFFFFFFFFFFFFFFFFFFFFFFFFFFFFFFFFFF
310
FFFFFFFFFFFFFFFFF000FFFFFFFFFFFFFFFFFFFFFFFFFFFFFFFFFFFFFFFFFFFF
310
FFFFFFFFFFFFFFFFFFFFFFFFFFFFFFFFFFFFFFFFFFFFFFFFFFFFFFFFFFFFFFFF
310
FFFFFFFFFFFFFFFFFFFFFFFFFFFFFFFFFFFFFFFFFFFFFFFFFFFFFFFFFFFFFFFF
310
F000FFFFFFFFFFFFFFFFFFFFFFFFFFFFFFFFFFFFFFFFFFFFFFFFFFFFFFFFFFFF
310
FFFFFFFFFFFFFFFFFFFFFFFFFFFFFFFFFFFFFFFFFFFFFFFFFFFFFFFFFFFFFFFF
310
FFFFFFFFFFFFFFFFFFFFFFFFFFFFFFFFFFFFFFFFFFFFFFFFF000FFFFFFFFFFFF
310
FFFFFFFFFFFFFFFFFFFFFFFFFFFFFFFFFFFFFFFFFFFFFFFFFFFFFFFFFFFFFFFF
310
FFFFFFFFFFFFFFFFFFFFFFFFFFFFFFFFFFFFFFFFFFFFFFFFFFFFFFFFFFFFFFFF
310
FFFFFFFFFFFFFFFFFFFFFFFFFFFFFFFFF000FFFFFFFFFFFFFFFFFFFFFFFFFFFF
310
FFFFFFFFFFFFFFFFFFFFFFFFFFFFFFFFFFFFFFFFFFFFFFFFFFFFFFFFFFFFFFFF
310
FFFFFFFFFFFFFFFFFFFFFFFFFFFFFFFFFFFFFFFFFFFFFFFFFFFFFFFFFFFFFFFF
310
FFFFFFFFFFFFFFFFF000FFFFFFFFFFFFFFFFFFFFFFFFFFFFFFFFFFFFFFFFFFFF
310
FFFFFFFFFFFFFFFFFFFFFFFFFFFFFFFFFFFFFFFFFFFFFFFFFFFFFFFFFFFFFFFF
310
FFFFFFFFFFFFFFFFFFFFFFFFFFFFFFFFFFFFFFFFFFFFFFFFFFFFFFFFFFFFFFFF
310
F000FFFFFFFFFFFFFFFFFFFFFFFFFFFFFFFFFFFFFFFFFFFFFFFFFFFFFFFFFFFF
310
FFFFFFFFFFFFFFFFFFFFFFFFFFFFFFFFFFFFFFFFFFFFFFFFFFFFFFFFFFFFFFFF
310
FFFFFFFFFFFFFFFFFFFFFFFFFFFFFFFFFFFFFFFFFFFFFFFFF000FFFFFFFFFFFF
310
FFFFFFFFFFFFFFFFFFFFFFFFFFFFFFFFFFFFFFFFFFFFFFFFFFFFFFFFFFFFFFFF
310
FFFFFFFFFFFFFFFFFFFFFFFFFFFFFFFFFFFFFFFFFFFFFFFFFFFFFFFFFFFFFFFF
310
FFFFFFFFFFFFFFFFFFFFFFFFFFFFFFFFF000FFFFFFFFFFFFFFFFFFFFFFFFFFFF
310
FFFFFFFFFFFFFFFFFFFFFFFFFFFFFFFFFFFFFFFFFFFFFFFFFFFFFFFFFFFFFFFF
310
FFFFFFFFFFFFFFFFFFFFFFFFFFFFFFFFFFFFFFFFFFFFFFFFFFFFFFFFFFFFFFFF
310
FFFFFFFFFFFFFFFFF000FFFFFFFFFFFFFFFFFFFFFFFFFFFFFFFFFFFFFFFFFFFF
310
FFFFFFFFFFFFFFFFFFFFFFFFFFFFFFFFFFFFFFFFFFFFFFFFFFFFFFFFFFFFFFFF
310
FFFFFFFFFFFFFFFFFFFFFFFFFFFFFFFFFFFFFFFFFFFFFFFFFFFFFFFFFFFFFFFF
310
F000FFFFFFFFFFFFFFFFFFFFFFFFFFFFFFFFFFFFFFFFFFFFFFFFFFFFFFFFFFFF
310
FFFFFFFFFFFFFFFFFFFFFFFFFFFFFFFFFFFFFFFFFFFFFFFFFFFFFFFFFFFFFFFF
310
FFFFFFFFFFFFFFFFFFFFFFFFFFFFFFFFFFFFFFFFFFFFFFFFF000FFFFFFFFFFFF
310
FFFFFFFFFFFFFFFFFFFFFFFFFFFFFFFFFFFFFFFFFFFFFFFFFFFFFFFFFFFFFFFF
310
FFFFFFFFFFFFFFFFFFFFFFFFFFFFFFFFFFFFFFFFFFFFFFFFFFFFFFFFFFFFFFFF
310
FFFFFFFFFFFFFFFFFFFFFFFFFFFFFFFFF000FFFFFFFFFFFFFFFFFFFFFFFFFFFF
310
FFFFFFFFFFFFFFFFFFFFFFFFFFFFFFFFFFFFFFFFFFFFFFFFFFFFFFFFFFFFFFFF
310
FFFFFFFFFFFFFFFFFFFFFFFFFFFFFFFFFFFFFFFFFFFFFFFFFFFFFFFFFFFFFFFF
310
FFFFFFFFFFFFFFFFF000FFFFFFFFFFFFFFFFFFFFFFFFFFFFFFFFFFFFFFFFFFFF
310
FFFFFFFFFFFFFFFFFFFFFFFFFFFFFFFFFFFFFFFFFFFFFFFFFFFFFFFFFFFFFFFF
310
FFFFFFFFFFFFFFFFFFFFFFFFFFFFFFFFFFFFFFFFFFFFFFFFFFFFFFFFFFFFFFFF
310
F000FFFFFFFFFFFFFFFFFFFFFFFFFFFFFFFFFFFFFFFFFFFFFFFFFFFFFFFFFFFF
310
FFFFFFFFFFFFFFFFFFFFFFFFFFFFFFFFFFFFFFFFFFFFFFFFFFFFFFFFFFFFFFFF
310
FFFFFFFFFFFFFFFFFFFFFFFFFFFFFFFFFFFFFFFFFFFFFFFFF000FFFFFFFFFFFF
310
FFFFFFFFFFFFFFFFFFFFFFFFFFFFFFFFFFFFFFFFFFFFFFFFFFFFFFFFFFFFFFFF
310
FFFFFFFFFFFFFFFFFFFFFFFFFFFFFFFFFFFFFFFFFFFFFFFFFFFFFFFFFFFFFFFF
310
FFFFFFFFFFFFFFFFFFFFFFFFFFFFFFFFF0000000000000000000000000000000
310
0000000000000000000000000000000000000000000000000000000000000000
310
0000000000000000000000000000000000000000000000000000000000000000
310
0000000000000000000000000000000000000000000000000000000000000000
310
0000000000000000000000000000000000000000000000000000000000000000
310
0000000000000000000000000000000000000000000000000000000000000000
310
0000000000000000000000000000000000000000000000000000000000000000
310
0000000000000000000000000000000000000000000000000000000000000000
310
0000000000000000000000000000000000000000000000000000000000000000
310
0000000000000000000000000000000000000000000000000000000000000000
310
0000000000000000000000000000000000000000000000000000000000000000
310
0000000000000000000000000000000000000000000000000000000000000000
310
0000000000000000000000000000000000000000000000000000000000000000
310
0000000000000000000000000000000000000000000000000000000000000000
310
0000000000000000000000000000000000000000000000000000000000000000
310
0000000000000000000000000000000000000000000000000000000000000000
  1
OLE
  0
ENDSEC
  0
SECTION
  2
OBJECTS
  0
DICTIONARY
  5
C
330
0
100
AcDbDictionary
281
     1
  3
ACAD_GROUP
350
D
  3
ACAD_LAYOUT
350
1A
  3
ACAD_MLINESTYLE
350
17
  3
ACAD_PLOTSETTINGS
350
19
  3
ACAD_PLOTSTYLENAME
350
E
  3
ACAD_SCALELIST
350
47
  0
DICTIONARY
  5
D
102
{ACAD_REACTORS
330
C
102
}
330
C
100
AcDbDictionary
281
     1
  0
DICTIONARY
  5
1A
102
{ACAD_REACTORS
330
C
102
}
330
C
100
AcDbDictionary
281
     1
  3
Layout1
350
1E
  3
Layout2
350
26
  3
Model
350
22
  0
DICTIONARY
  5
17
102
{ACAD_REACTORS
330
C
102
}
330
C
100
AcDbDictionary
281
     1
  3
Standard
350
18
  0
DICTIONARY
  5
19
102
{ACAD_REACTORS
330
C
102
}
330
C
100
AcDbDictionary
281
     1
  0
ACDBDICTIONARYWDFLT
  5
E
102
{ACAD_REACTORS
330
C
102
}
330
C
100
AcDbDictionary
281
     1
  3
Normal
350
F
100
AcDbDictionaryWithDefault
340
F
  0
DICTIONARY
  5
47
102
{ACAD_REACTORS
330
C
102
}
330
C
100
AcDbDictionary
281
     1
  3
A0
350
48
  3
A1
350
49
  3
A2
350
4A
  3
A3
350
4B
  3
A4
350
4C
  3
A5
350
4D
  3
A6
350
4E
  3
A7
350
4F
  3
A8
350
50
  3
A9
350
51
  3
B0
350
52
  3
B1
350
53
  3
B2
350
54
  3
B3
350
55
  3
B4
350
56
  3
B5
350
57
  3
B6
350
58
  3
B7
350
59
  3
B8
350
5A
  3
B9
350
5B
  3
C0
350
5C
  3
C1
350
5D
  3
C2
350
5E
  3
C3
350
5F
  3
C4
350
60
  3
C5
350
61
  3
C6
350
62
  3
C7
350
63
  3
C8
350
64
  3
C9
350
65
  3
D0
350
66
  3
D1
350
67
  3
D2
350
68
  0
LAYOUT
  5
1E
102
{ACAD_REACTORS
330
1A
102
}
330
1A
100
AcDbPlotSettings
  1

  2
none_device
  4

  6

 40
0.0
 41
0.0
 42
0.0
 43
0.0
 44
0.0
 45
0.0
 46
0.0
 47
0.0
 48
0.0
 49
0.0
140
0.0
141
0.0
142
1.0
143
1.0
 70
   688
 72
     1
 73
     0
 74
     5
  7

 75
    16
147
1.0
148
0.0
149
0.0
100
AcDbLayout
  1
Layout1
 70
     1
 71
     1
 10
0.0
 20
0.0
 11
420.0
 21
297.0
 12
0.0
 22
0.0
 32
0.0
 14
1.0000000000E+20
 24
1.0000000000E+20
 34
1.0000000000E+20
 15
-1.0000000000E+20
 25
-1.0000000000E+20
 35
-1.0000000000E+20
146
0.0
 13
0.0
 23
0.0
 33
0.0
 16
1.0
 26
0.0
 36
0.0
 17
0.0
 27
1.0
 37
0.0
 76
     0
330
1B
  0
LAYOUT
  5
26
102
{ACAD_REACTORS
330
1A
102
}
330
1A
100
AcDbPlotSettings
  1

  2
none_device
  4

  6

 40
0.0
 41
0.0
 42
0.0
 43
0.0
 44
0.0
 45
0.0
 46
0.0
 47
0.0
 48
0.0
 49
0.0
140
0.0
141
0.0
142
1.0
143
1.0
 70
   688
 72
     1
 73
     0
 74
     5
  7

 75
    16
147
1.0
148
0.0
149
0.0
100
AcDbLayout
  1
Layout2
 70
     1
 71
     2
 10
0.0
 20
0.0
 11
0.0
 21
0.0
 12
0.0
 22
0.0
 32
0.0
 14
0.0
 24
0.0
 34
0.0
 15
0.0
 25
0.0
 35
0.0
146
0.0
 13
0.0
 23
0.0
 33
0.0
 16
1.0
 26
0.0
 36
0.0
 17
0.0
 27
1.0
 37
0.0
 76
     0
330
23
  0
LAYOUT
  5
22
102
{ACAD_REACTORS
330
1A
102
}
330
1A
100
AcDbPlotSettings
  1

  2
none_device
  4
Letter_(8.50_x_11.00_Inches)
  6

 40
6.35
 41
6.35
 42
6.35000508
 43
6.35000508
 44
215.9
 45
279.4
 46
0.0
 47
0.0
 48
0.0
 49
0.0
140
0.0
141
0.0
142
1.0
143
1.0
 70
  1712
 72
     1
 73
     0
 74
     0
  7

 75
     0
147
1.0
148
0.0
149
0.0
100
AcDbLayout
  1
Model
 70
     1
 71
     0
 10
0.0
 20
0.0
 11
297.0
 21
210.0
 12
0.0
 22
0.0
 32
0.0
 14
0.0
 24
0.0
 34
0.0
 15
297.0
 25
210.0
 35
0.0
146
0.0
 13
0.0
 23
0.0
 33
0.0
 16
1.0
 26
0.0
 36
0.0
 17
0.0
 27
1.0
 37
0.0
 76
     0
330
1F
331
29
  0
MLINESTYLE
  5
18
102
{ACAD_REACTORS
330
17
102
}
330
17
100
AcDbMlineStyle
  2
Standard
 70
     0
  3

 62
   256
 51
90.0
 52
90.0
 71
     2
 49
0.5
 62
   256
  6
BYLAYER
 49
-0.5
 62
   256
  6
BYLAYER
  0
ACDBPLACEHOLDER
  5
F
102
{ACAD_REACTORS
330
E
102
}
330
E
  0
SCALE
  5
48
102
{ACAD_REACTORS
330
47
102
}
330
47
100
AcDbScale
 70
     0
300
1:1
140
1.0
141
1.0
290
     1
  0
SCALE
  5
49
102
{ACAD_REACTORS
330
47
102
}
330
47
100
AcDbScale
 70
     0
300
1:2
140
1.0
141
2.0
290
     0
  0
SCALE
  5
4A
102
{ACAD_REACTORS
330
47
102
}
330
47
100
AcDbScale
 70
     0
300
1:4
140
1.0
141
4.0
290
     0
  0
SCALE
  5
4B
102
{ACAD_REACTORS
330
47
102
}
330
47
100
AcDbScale
 70
     0
300
1:5
140
1.0
141
5.0
290
     0
  0
SCALE
  5
4C
102
{ACAD_REACTORS
330
47
102
}
330
47
100
AcDbScale
 70
     0
300
1:8
140
1.0
141
8.0
290
     0
  0
SCALE
  5
4D
102
{ACAD_REACTORS
330
47
102
}
330
47
100
AcDbScale
 70
     0
300
1:10
140
1.0
141
10.0
290
     0
  0
SCALE
  5
4E
102
{ACAD_REACTORS
330
47
102
}
330
47
100
AcDbScale
 70
     0
300
1:16
140
1.0
141
16.0
290
     0
  0
SCALE
  5
4F
102
{ACAD_REACTORS
330
47
102
}
330
47
100
AcDbScale
 70
     0
300
1:20
140
1.0
141
20.0
290
     0
  0
SCALE
  5
50
102
{ACAD_REACTORS
330
47
102
}
330
47
100
AcDbScale
 70
     0
300
1:30
140
1.0
141
30.0
290
     0
  0
SCALE
  5
51
102
{ACAD_REACTORS
330
47
102
}
330
47
100
AcDbScale
 70
     0
300
1:40
140
1.0
141
40.0
290
     0
  0
SCALE
  5
52
102
{ACAD_REACTORS
330
47
102
}
330
47
100
AcDbScale
 70
     0
300
1:50
140
1.0
141
50.0
290
     0
  0
SCALE
  5
53
102
{ACAD_REACTORS
330
47
102
}
330
47
100
AcDbScale
 70
     0
300
1:100
140
1.0
141
100.0
290
     0
  0
SCALE
  5
54
102
{ACAD_REACTORS
330
47
102
}
330
47
100
AcDbScale
 70
     0
300
2:1
140
2.0
141
1.0
290
     0
  0
SCALE
  5
55
102
{ACAD_REACTORS
330
47
102
}
330
47
100
AcDbScale
 70
     0
300
4:1
140
4.0
141
1.0
290
     0
  0
SCALE
  5
56
102
{ACAD_REACTORS
330
47
102
}
330
47
100
AcDbScale
 70
     0
300
8:1
140
8.0
141
1.0
290
     0
  0
SCALE
  5
57
102
{ACAD_REACTORS
330
47
102
}
330
47
100
AcDbScale
 70
     0
300
10:1
140
10.0
141
1.0
290
     0
  0
SCALE
  5
58
102
{ACAD_REACTORS
330
47
102
}
330
47
100
AcDbScale
 70
     0
300
100:1
140
100.0
141
1.0
290
     0
  0
SCALE
  5
59
102
{ACAD_REACTORS
330
47
102
}
330
47
100
AcDbScale
 70
     0
300
1/128" = 1'-0"
140
0.0078125
141
12.0
290
     0
  0
SCALE
  5
5A
102
{ACAD_REACTORS
330
47
102
}
330
47
100
AcDbScale
 70
     0
300
1/64" = 1'-0"
140
0.015625
141
12.0
290
     0
  0
SCALE
  5
5B
102
{ACAD_REACTORS
330
47
102
}
330
47
100
AcDbScale
 70
     0
300
1/32" = 1'-0"
140
0.03125
141
12.0
290
     0
  0
SCALE
  5
5C
102
{ACAD_REACTORS
330
47
102
}
330
47
100
AcDbScale
 70
     0
300
1/16" = 1'-0"
140
0.0625
141
12.0
290
     0
  0
SCALE
  5
5D
102
{ACAD_REACTORS
330
47
102
}
330
47
100
AcDbScale
 70
     0
300
3/32" = 1'-0"
140
0.09375
141
12.0
290
     0
  0
SCALE
  5
5E
102
{ACAD_REACTORS
330
47
102
}
330
47
100
AcDbScale
 70
     0
300
1/8" = 1'-0"
140
0.125
141
12.0
290
     0
  0
SCALE
  5
5F
102
{ACAD_REACTORS
330
47
102
}
330
47
100
AcDbScale
 70
     0
300
3/16" = 1'-0"
140
0.1875
141
12.0
290
     0
  0
SCALE
  5
60
102
{ACAD_REACTORS
330
47
102
}
330
47
100
AcDbScale
 70
     0
300
1/4" = 1'-0"
140
0.25
141
12.0
290
     0
  0
SCALE
  5
61
102
{ACAD_REACTORS
330
47
102
}
330
47
100
AcDbScale
 70
     0
300
3/8" = 1'-0"
140
0.375
141
12.0
290
     0
  0
SCALE
  5
62
102
{ACAD_REACTORS
330
47
102
}
330
47
100
AcDbScale
 70
     0
300
1/2" = 1'-0"
140
0.5
141
12.0
290
     0
  0
SCALE
  5
63
102
{ACAD_REACTORS
330
47
102
}
330
47
100
AcDbScale
 70
     0
300
3/4" = 1'-0"
140
0.75
141
12.0
290
     0
  0
SCALE
  5
64
102
{ACAD_REACTORS
330
47
102
}
330
47
100
AcDbScale
 70
     0
300
1" = 1'-0"
140
1.0
141
12.0
290
     0
  0
SCALE
  5
65
102
{ACAD_REACTORS
330
47
102
}
330
47
100
AcDbScale
 70
     0
300
1-1/2" = 1'-0"
140
1.5
141
12.0
290
     0
  0
SCALE
  5
66
102
{ACAD_REACTORS
330
47
102
}
330
47
100
AcDbScale
 70
     0
300
3" = 1'-0"
140
3.0
141
12.0
290
     0
  0
SCALE
  5
67
102
{ACAD_REACTORS
330
47
102
}
330
47
100
AcDbScale
 70
     0
300
6" = 1'-0"
140
6.0
141
12.0
290
     0
  0
SCALE
  5
68
102
{ACAD_REACTORS
330
47
102
}
330
47
100
AcDbScale
 70
     0
300
1'-0" = 1'-0"
140
12.0
141
12.0
290
     0
  0
ENDSEC
  0
EOF
