  0
SECTION
  2
HEADER
  9
$ACADVER
  1
AC1015
  9
$ACADMAINTVER
 70
     6
  9
$DWGCODEPAGE
  3
ANSI_1252
  9
$INSBASE
 10
0.0
 20
0.0
 30
0.0
  9
$EXTMIN
 10
0.0
 20
0.0
 30
0.0
  9
$EXTMAX
 10
297.0
 20
210.0
 30
0.0
  9
$LIMMIN
 10
0.0
 20
0.0
  9
$LIMMAX
 10
297.0
 20
210.0
  9
$ORTHOMODE
 70
     0
  9
$REGENMODE
 70
     1
  9
$FILLMODE
 70
     1
  9
$QTEXTMODE
 70
     0
  9
$MIRRTEXT
 70
     1
  9
$LTSCALE
 40
1.0
  9
$ATTMODE
 70
     1
  9
$TEXTSIZE
 40
2.0
  9
$TRACEWID
 40
1.0
  9
$TEXTSTYLE
  7
Standard
  9
$CLAYER
  8
0
  9
$CELTYPE
  6
ByLayer
  9
$CECOLOR
 62
   256
  9
$CELTSCALE
 40
1.0
  9
$DISPSILH
 70
     0
  9
$DIMSCALE
 40
1.0
  9
$DIMASZ
 40
3.0
  9
$DIMEXO
 40
0.0
  9
$DIMDLI
 40
3.75
  9
$DIMRND
 40
0.0
  9
$DIMDLE
 40
0.0
  9
$DIMEXE
 40
1.0
  9
$DIMTP
 40
0.0
  9
$DIMTM
 40
0.0
  9
$DIMTXT
 40
2.0
  9
$DIMCEN
 40
2.5
  9
$DIMTSZ
 40
0.0
  9
$DIMTOL
 70
     0
  9
$DIMLIM
 70
     0
  9
$DIMTIH
 70
     1
  9
$DIMTOH
 70
     1
  9
$DIMSE1
 70
     0
  9
$DIMSE2
 70
     0
  9
$DIMTAD
 70
     1
  9
$DIMZIN
 70
     0
  9
$DIMBLK
  1

  9
$DIMASO
 70
     1
  9
$DIMSHO
 70
     1
  9
$DIMPOST
  1

  9
$DIMAPOST
  1

  9
$DIMALT
 70
     0
  9
$DIMALTD
 70
     3
  9
$DIMALTF
 40
0.0393700787
  9
$DIMLFAC
 40
1.0
  9
$DIMTOFL
 70
     1
  9
$DIMTVP
 40
0.0
  9
$DIMTIX
 70
     0
  9
$DIMSOXD
 70
     0
  9
$DIMSAH
 70
     0
  9
$DIMBLK1
  1

  9
$DIMBLK2
  1

  9
$DIMSTYLE
  2
ISO-25
  9
$DIMCLRD
 70
     0
  9
$DIMCLRE
 70
     0
  9
$DIMCLRT
 70
     0
  9
$DIMTFAC
 40
1.0
  9
$DIMGAP
 40
1.524
  9
$DIMJUST
 70
     0
  9
$DIMSD1
 70
     0
  9
$DIMSD2
 70
     0
  9
$DIMTOLJ
 70
     0
  9
$DIMTZIN
 70
     0
  9
$DIMALTZ
 70
     0
  9
$DIMALTTZ
 70
     0
  9
$DIMUPT
 70
     0
  9
$DIMDEC
 70
     2
  9
$DIMTDEC
 70
     3
  9
$DIMALTU
 70
     2
  9
$DIMALTTD
 70
     3
  9
$DIMTXSTY
  7
Standard
  9
$DIMAUNIT
 70
     0
  9
$DIMADEC
 70
     2
  9
$DIMALTRND
 40
0.0
  9
$DIMAZIN
 70
     0
  9
$DIMDSEP
 70
    44
  9
$DIMATFIT
 70
     3
  9
$DIMFRAC
 70
     0
  9
$DIMLDRBLK
  1

  9
$DIMLUNIT
 70
     2
  9
$DIMLWD
 70
    -2
  9
$DIMLWE
 70
    -2
  9
$DIMTMOVE
 70
     0
  9
$LUNITS
 70
     2
  9
$LUPREC
 70
     2
  9
$SKETCHINC
 40
1.0
  9
$FILLETRAD
 40
10.0
  9
$AUNITS
 70
     0
  9
$AUPREC
 70
     2
  9
$MENU
  1
.
  9
$ELEVATION
 40
0.0
  9
$PELEVATION
 40
0.0
  9
$THICKNESS
 40
0.0
  9
$LIMCHECK
 70
     0
  9
$CHAMFERA
 40
0.0
  9
$CHAMFERB
 40
0.0
  9
$CHAMFERC
 40
0.0
  9
$CHAMFERD
 40
0.0
  9
$SKPOLY
 70
     0
  9
$TDCREATE
 40
2457674.42481831
  9
$TDUCREATE
 40
2457674.341484977
  9
$TDUPDATE
 40
2457674.424819746
  9
$TDUUPDATE
 40
2457674.341486412
  9
$TDINDWG
 40
0.0000000116
  9
$TDUSRTIMER
 40
0.0000000116
  9
$USRTIMER
 70
     1
  9
$ANGBASE
 50
0.0
  9
$ANGDIR
 70
     0
  9
$PDMODE
 70
     0
  9
$PDSIZE
 40
-1.0
  9
$PLINEWID
 40
0.0
  9
$SPLFRAME
 70
     0
  9
$SPLINETYPE
 70
     6
  9
$SPLINESEGS
 70
     8
  9
$HANDSEED
  5
2D2
  9
$SURFTAB1
 70
     6
  9
$SURFTAB2
 70
     6
  9
$SURFTYPE
 70
     6
  9
$SURFU
 70
     6
  9
$SURFV
 70
     6
  9
$UCSBASE
  2

  9
$UCSNAME
  2

  9
$UCSORG
 10
0.0
 20
0.0
 30
0.0
  9
$UCSXDIR
 10
1.0
 20
0.0
 30
0.0
  9
$UCSYDIR
 10
0.0
 20
1.0
 30
0.0
  9
$UCSORTHOREF
  2

  9
$UCSORTHOVIEW
 70
     0
  9
$UCSORGTOP
 10
0.0
 20
0.0
 30
0.0
  9
$UCSORGBOTTOM
 10
0.0
 20
0.0
 30
0.0
  9
$UCSORGLEFT
 10
0.0
 20
0.0
 30
0.0
  9
$UCSORGRIGHT
 10
0.0
 20
0.0
 30
0.0
  9
$UCSORGFRONT
 10
0.0
 20
0.0
 30
0.0
  9
$UCSORGBACK
 10
0.0
 20
0.0
 30
0.0
  9
$PUCSBASE
  2

  9
$PUCSNAME
  2

  9
$PUCSORG
 10
0.0
 20
0.0
 30
0.0
  9
$PUCSXDIR
 10
1.0
 20
0.0
 30
0.0
  9
$PUCSYDIR
 10
0.0
 20
1.0
 30
0.0
  9
$PUCSORTHOREF
  2

  9
$PUCSORTHOVIEW
 70
     0
  9
$PUCSORGTOP
 10
0.0
 20
0.0
 30
0.0
  9
$PUCSORGBOTTOM
 10
0.0
 20
0.0
 30
0.0
  9
$PUCSORGLEFT
 10
0.0
 20
0.0
 30
0.0
  9
$PUCSORGRIGHT
 10
0.0
 20
0.0
 30
0.0
  9
$PUCSORGFRONT
 10
0.0
 20
0.0
 30
0.0
  9
$PUCSORGBACK
 10
0.0
 20
0.0
 30
0.0
  9
$USERI1
 70
     0
  9
$USERI2
 70
     0
  9
$USERI3
 70
     0
  9
$USERI4
 70
     0
  9
$USERI5
 70
     0
  9
$USERR1
 40
0.0
  9
$USERR2
 40
0.0
  9
$USERR3
 40
0.0
  9
$USERR4
 40
0.0
  9
$USERR5
 40
0.0
  9
$WORLDVIEW
 70
     1
  9
$SHADEDGE
 70
     3
  9
$SHADEDIF
 70
    70
  9
$TILEMODE
 70
     1
  9
$MAXACTVP
 70
    64
  9
$PINSBASE
 10
0.0
 20
0.0
 30
0.0
  9
$PLIMCHECK
 70
     0
  9
$PEXTMIN
 10
1.0000000000E+20
 20
1.0000000000E+20
 30
1.0000000000E+20
  9
$PEXTMAX
 10
-1.0000000000E+20
 20
-1.0000000000E+20
 30
-1.0000000000E+20
  9
$PLIMMIN
 10
0.0
 20
0.0
  9
$PLIMMAX
 10
420.0
 20
297.0
  9
$UNITMODE
 70
     0
  9
$VISRETAIN
 70
     1
  9
$PLINEGEN
 70
     0
  9
$PSLTSCALE
 70
     1
  9
$TREEDEPTH
 70
  3020
  9
$CMLSTYLE
  2
Standard
  9
$CMLJUST
 70
     0
  9
$CMLSCALE
 40
20.0
  9
$PROXYGRAPHICS
 70
     1
  9
$MEASUREMENT
 70
     1
  9
$CELWEIGHT
370
    -1
  9
$ENDCAPS
280
     0
  9
$JOINSTYLE
280
     0
  9
$LWDISPLAY
290
     1
  9
$INSUNITS
 70
     4
  9
$HYPERLINKBASE
  1

  9
$STYLESHEET
  1

  9
$XEDIT
290
     1
  9
$CEPSNTYPE
380
     0
  9
$PSTYLEMODE
290
     1
  9
$FINGERPRINTGUID
  2
{5F677A62-718D-4ACE-B679-A631F65E19C8}
  9
$VERSIONGUID
  2
{FAEB1C32-E019-11D5-929B-00C0DF256EC4}
  9
$EXTNAMES
290
     1
  9
$PSVPSCALE
 40
0.0
  9
$OLESTARTUP
290
     0
  0
ENDSEC
  0
SECTION
  2
CLASSES
  0
CLASS
  1
ACDBDICTIONARYWDFLT
  2
AcDbDictionaryWithDefault
  3
ObjectDBX Classes
 90
        0
280
     0
281
     0
  0
CLASS
  1
VISUALSTYLE
  2
AcDbVisualStyle
  3
ObjectDBX Classes
 90
     4095
280
     0
281
     0
  0
CLASS
  1
MATERIAL
  2
AcDbMaterial
  3
ObjectDBX Classes
 90
     1153
280
     0
281
     0
  0
CLASS
  1
SCALE
  2
AcDbScale
  3
ObjectDBX Classes
 90
     1153
280
     0
281
     0
  0
CLASS
  1
TABLESTYLE
  2
AcDbTableStyle
  3
ObjectDBX Classes
 90
     4095
280
     0
281
     0
  0
CLASS
  1
MLEADERSTYLE
  2
AcDbMLeaderStyle
  3
ACDB_MLEADERSTYLE_CLASS
 90
     4095
280
     0
281
     0
  0
CLASS
  1
SUN
  2
AcDbSun
  3
SCENEOE
 90
     1153
280
     0
281
     0
  0
CLASS
  1
ACDBPLACEHOLDER
  2
AcDbPlaceHolder
  3
ObjectDBX Classes
 90
        0
280
     0
281
     0
  0
CLASS
  1
LAYOUT
  2
AcDbLayout
  3
ObjectDBX Classes
 90
        0
280
     0
281
     0
  0
ENDSEC
  0
SECTION
  2
TABLES
  0
TABLE
  2
VPORT
  5
8
330
0
100
AcDbSymbolTable
 70
     1
  0
VPORT
  5
29
330
8
100
AcDbSymbolTableRecord
100
AcDbViewportTableRecord
  2
*Active
 70
     0
 10
0.0
 20
0.0
 11
1.0
 21
1.0
 12
148.5
 22
105.0
 13
0.0
 23
0.0
 14
10.0
 24
10.0
 15
10.0
 25
10.0
 16
0.0
 26
0.0
 36
1.0
 17
0.0
 27
0.0
 37
0.0
 40
210.0
 41
1.4142857143
 42
50.0
 43
0.0
 44
0.0
 50
0.0
 51
0.0
 71
     0
 72
  2000
 73
     1
 74
     3
 75
     0
 76
     0
 77
     0
 78
     0
281
     0
 65
     1
110
0.0
120
0.0
130
0.0
111
1.0
121
0.0
131
0.0
112
0.0
122
1.0
132
0.0
 79
     0
146
0.0
  0
ENDTAB
  0
TABLE
  2
LTYPE
  5
5
330
0
100
AcDbSymbolTable
 70
     6
  0
LTYPE
  5
14
330
5
100
AcDbSymbolTableRecord
100
AcDbLinetypeTableRecord
  2
ByBlock
 70
     0
  3

 72
    65
 73
     0
 40
0.0
  0
LTYPE
  5
15
330
5
100
AcDbSymbolTableRecord
100
AcDbLinetypeTableRecord
  2
ByLayer
 70
     0
  3

 72
    65
 73
     0
 40
0.0
  0
LTYPE
  5
16
330
5
100
AcDbSymbolTableRecord
100
AcDbLinetypeTableRecord
  2
Continuous
 70
     0
  3
Solid line
 72
    65
 73
     0
 40
0.0
  0
LTYPE
  5
6E
330
5
100
AcDbSymbolTableRecord
100
AcDbLinetypeTableRecord
  2
HIDDEN
 70
     0
  3
Hidden __ __ __ __ __ __ __ __ __ __ __ __ __ __
 72
    65
 73
     2
 40
1.905
 49
1.27
 74
     0
 49
-0.635
 74
     0
  0
LTYPE
  5
6F
330
5
100
AcDbSymbolTableRecord
100
AcDbLinetypeTableRecord
  2
PHANTOM
 70
     0
  3
Phantom ______  __  __  ______  __  __  ______
 72
    65
 73
     6
 40
12.7
 49
6.35
 74
     0
 49
-1.27
 74
     0
 49
1.27
 74
     0
 49
-1.27
 74
     0
 49
1.27
 74
     0
 49
-1.27
 74
     0
  0
LTYPE
  5
70
330
5
100
AcDbSymbolTableRecord
100
AcDbLinetypeTableRecord
  2
CENTER
 70
     0
  3
Center ____ _ ____ _ ____ _ ____ _ ____ _ ____
 72
    65
 73
     4
 40
10.16
 49
6.35
 74
     0
 49
-1.27
 74
     0
 49
1.27
 74
     0
 49
-1.27
 74
     0
  0
LTYPE
  5
71
330
5
100
AcDbSymbolTableRecord
100
AcDbLinetypeTableRecord
  2
CENTERX2
 70
     0
  3
Center (2x) ________  __  ________  __  _____
 72
    65
 73
     4
 40
20.32
 49
12.7
 74
     0
 49
-2.54
 74
     0
 49
2.54
 74
     0
 49
-2.54
 74
     0
  0
LTYPE
  5
72
330
5
100
AcDbSymbolTableRecord
100
AcDbLinetypeTableRecord
  2
DOT2
 70
     0
  3
Dot (.5x) ........................................
 72
    65
 73
     2
 40
0.635
 49
0.0
 74
     0
 49
-0.635
 74
     0
  0
ENDTAB
  0
TABLE
  2
LAYER
  5
2
330
0
100
AcDbSymbolTable
 70
     5
  0
LAYER
  5
10
330
2
100
AcDbSymbolTableRecord
100
AcDbLayerTableRecord
  2
0
 70
     0
 62
     7
  6
Continuous
370
    -3
390
F
  0
LAYER
  5
73
330
2
100
AcDbSymbolTableRecord
100
AcDbLayerTableRecord
  2
FORMAT
 70
     0
 62
     7
  6
Continuous
370
    -3
390
F
  0
LAYER
  5
74
330
2
100
AcDbSymbolTableRecord
100
AcDbLayerTableRecord
  2
VERMASSUNG
 70
     0
 62
     7
  6
Continuous
370
    -3
390
F
  0
LAYER
  5
75
330
2
100
AcDbSymbolTableRecord
100
AcDbLayerTableRecord
  2
KOPF_DÜNN
 70
     0
 62
     7
  6
Continuous
370
    -3
390
F
  0
LAYER
  5
76
330
2
100
AcDbSymbolTableRecord
100
AcDbLayerTableRecord
  2
KOPF_DICK
 70
     0
 62
     7
  6
Continuous
370
    15
390
F
  0
ENDTAB
  0
TABLE
  2
STYLE
  5
3
330
0
100
AcDbSymbolTable
 70
     2
  0
STYLE
  5
11
330
3
100
AcDbSymbolTableRecord
100
AcDbTextStyleTableRecord
  2
Standard
 70
     0
 40
0.0
 41
1.0
 50
0.0
 71
     0
 42
2.0
  3
txt
  4

  0
STYLE
  5
77
330
3
100
AcDbSymbolTableRecord
100
AcDbTextStyleTableRecord
  2
SLDTEXTSTYLE0
 70
     0
 40
0.0
 41
0.7
 50
0.0
 71
     0
 42
2.0
  3
TXT
  4

  0
ENDTAB
  0
TABLE
  2
VIEW
  5
6
330
0
100
AcDbSymbolTable
 70
     0
  0
ENDTAB
  0
TABLE
  2
UCS
  5
7
330
0
100
AcDbSymbolTable
 70
     0
  0
ENDTAB
  0
TABLE
  2
APPID
  5
9
330
0
100
AcDbSymbolTable
 70
     1
  0
APPID
  5
12
330
9
100
AcDbSymbolTableRecord
100
AcDbRegAppTableRecord
  2
ACAD
 70
     0
  0
ENDTAB
  0
TABLE
  2
DIMSTYLE
  5
A
330
0
100
AcDbSymbolTable
 70
     2
100
AcDbDimStyleTable
  0
DIMSTYLE
105
27
330
A
100
AcDbSymbolTableRecord
100
AcDbDimStyleTableRecord
  2
ISO-25
 70
     0
 41
2.5
 42
0.625
 43
3.75
 44
1.25
 73
     0
 74
     0
 77
     1
 78
     8
140
2.5
141
2.5
143
0.0393700787
147
0.625
171
     3
172
     1
178
     0
271
     2
272
     2
274
     3
278
    44
283
     0
284
     8
340
11
  0
DIMSTYLE
105
1FD
102
{ACAD_REACTORS
330
1FC
330
209
330
215
330
220
330
22A
330
234
102
}
330
A
100
AcDbSymbolTableRecord
100
AcDbDimStyleTableRecord
  2
SLDDIMSTYLE0
 70
     0
 41
3.0
 44
0.0
 45
0.000000001
 73
     0
 74
     0
 77
     1
 78
    12
 79
     3
140
2.0
147
0.5
173
     1
178
     0
271
     2
272
     3
276
     2
284
    12
340
77
  0
ENDTAB
  0
TABLE
  2
BLOCK_RECORD
  5
1
330
0
100
AcDbSymbolTable
 70
     7
  0
BLOCK_RECORD
  5
1F
330
1
100
AcDbSymbolTableRecord
100
AcDbBlockTableRecord
  2
*Model_Space
340
22
  0
BLOCK_RECORD
  5
1B
330
1
100
AcDbSymbolTableRecord
100
AcDbBlockTableRecord
  2
*Paper_Space
340
1E
  0
BLOCK_RECORD
  5
23
330
1
100
AcDbSymbolTableRecord
100
AcDbBlockTableRecord
  2
*Paper_Space0
340
26
  0
BLOCK_RECORD
  5
1FE
330
1
100
AcDbSymbolTableRecord
100
AcDbBlockTableRecord
  2
_D
340
0
  0
BLOCK_RECORD
  5
20A
330
1
100
AcDbSymbolTableRecord
100
AcDbBlockTableRecord
  2
_D_1
340
0
  0
BLOCK_RECORD
  5
216
330
1
100
AcDbSymbolTableRecord
100
AcDbBlockTableRecord
  2
_D_2
340
0
  0
BLOCK_RECORD
  5
221
330
1
100
AcDbSymbolTableRecord
100
AcDbBlockTableRecord
  2
_D_3
340
0
  0
BLOCK_RECORD
  5
22B
330
1
100
AcDbSymbolTableRecord
100
AcDbBlockTableRecord
  2
_D_4
340
0
  0
BLOCK_RECORD
  5
235
330
1
100
AcDbSymbolTableRecord
100
AcDbBlockTableRecord
  2
_D_5
340
0
  0
ENDTAB
  0
ENDSEC
  0
SECTION
  2
BLOCKS
  0
BLOCK
  5
20
330
1F
100
AcDbEntity
  8
0
100
AcDbBlockBegin
  2
*Model_Space
 70
     0
 10
0.0
 20
0.0
 30
0.0
  3
*Model_Space
  1

  0
ENDBLK
  5
21
330
1F
100
AcDbEntity
  8
0
100
AcDbBlockEnd
  0
BLOCK
  5
1C
330
1B
100
AcDbEntity
 67
     1
  8
0
100
AcDbBlockBegin
  2
*Paper_Space
 70
     0
 10
0.0
 20
0.0
 30
0.0
  3
*Paper_Space
  1

  0
ENDBLK
  5
1D
330
1B
100
AcDbEntity
 67
     1
  8
0
100
AcDbBlockEnd
  0
BLOCK
  5
24
330
23
100
AcDbEntity
  8
0
100
AcDbBlockBegin
  2
*Paper_Space0
 70
     0
 10
0.0
 20
0.0
 30
0.0
  3
*Paper_Space0
  1

  0
ENDBLK
  5
25
330
23
100
AcDbEntity
  8
0
100
AcDbBlockEnd
  0
BLOCK
  5
1FF
330
1FE
100
AcDbEntity
  8
0
100
AcDbBlockBegin
  2
_D
 70
     0
 10
0.0
 20
0.0
 30
0.0
  3
_D
  1

  0
SOLID
  5
201
330
1FE
100
AcDbEntity
  8
VERMASSUNG
100
AcDbTrace
 10
88.2000667687
 20
79.1392643851
 30
0.0
 11
88.6500667687
 21
82.1392643851
 31
0.0
 12
87.7500667687
 22
82.1392643851
 32
0.0
 13
87.7500667687
 23
82.1392643851
 33
0.0
  0
SOLID
  5
202
330
1FE
100
AcDbEntity
  8
VERMASSUNG
100
AcDbTrace
 10
88.2000667687
 20
142.6392643851
 30
0.0
 11
87.7500667687
 21
139.6392643851
 31
0.0
 12
88.6500667687
 22
139.6392643851
 32
0.0
 13
88.6500667687
 23
139.6392643851
 33
0.0
  0
LINE
  5
203
330
1FE
100
AcDbEntity
  8
VERMASSUNG
100
AcDbLine
 10
180.4737151634
 20
79.1392643851
 30
0.0
 11
87.2000667687
 21
79.1392643851
 31
0.0
  0
LINE
  5
204
330
1FE
100
AcDbEntity
  8
VERMASSUNG
100
AcDbLine
 10
180.4737151634
 20
142.6392643851
 30
0.0
 11
87.2000667687
 21
142.6392643851
 31
0.0
  0
LINE
  5
205
330
1FE
100
AcDbEntity
  8
VERMASSUNG
100
AcDbLine
 10
88.2000667687
 20
79.1392643851
 30
0.0
 11
88.2000667687
 21
142.6392643851
 31
0.0
  0
MTEXT
  5
206
330
1FE
100
AcDbEntity
  8
VERMASSUNG
100
AcDbMText
 10
85.4219315125
 20
102.0863282368
 30
0.0
 40
2.0
 41
0.0
 71
     1
 72
     1
  1
ISO 40
  7
SLDTEXTSTYLE0
 11
3.391901413832837E-15
 21
1.0
 31
0.0
 73
     1
 44
1.0
  0
MTEXT
  5
207
330
1FE
100
AcDbEntity
  8
VERMASSUNG
100
AcDbMText
 10
85.6219314638
 20
111.2863284409
 30
0.0
 40
2.0
 41
0.0
 71
     1
 72
     1
  1
%%c
  7
SLDTEXTSTYLE0
 11
3.391901413832837E-15
 21
1.0
 31
0.0
 73
     1
 44
1.0
  0
MTEXT
  5
208
330
1FE
100
AcDbEntity
  8
VERMASSUNG
100
AcDbMText
 10
85.6219311728
 20
114.8942087723
 30
0.0
 40
2.0
 41
0.0
 71
     1
 72
     1
  1
63.5
  7
SLDTEXTSTYLE0
 11
3.391901413832837E-15
 21
1.0
 31
0.0
 73
     1
 44
1.0
  0
ENDBLK
  5
200
330
1FE
100
AcDbEntity
  8
0
100
AcDbBlockEnd
  0
BLOCK
  5
20B
330
20A
100
AcDbEntity
  8
0
100
AcDbBlockBegin
  2
_D_1
 70
     0
 10
0.0
 20
0.0
 30
0.0
  3
_D_1
  1

  0
SOLID
  5
20D
330
20A
100
AcDbEntity
  8
VERMASSUNG
100
AcDbTrace
 10
220.3436032169
 20
130.8892643851
 30
0.0
 11
219.8936032169
 21
127.8892643851
 31
0.0
 12
220.7936032169
 22
127.8892643851
 32
0.0
 13
220.7936032169
 23
127.8892643851
 33
0.0
  0
SOLID
  5
20E
330
20A
100
AcDbEntity
  8
VERMASSUNG
100
AcDbTrace
 10
220.3436032169
 20
90.8892643851
 30
0.0
 11
220.7936032169
 21
93.8892643851
 31
0.0
 12
219.8936032169
 22
93.8892643851
 32
0.0
 13
219.8936032169
 23
93.8892643851
 33
0.0
  0
LINE
  5
20F
330
20A
100
AcDbEntity
  8
VERMASSUNG
100
AcDbLine
 10
207.6237151634
 20
130.8892643851
 30
0.0
 11
221.3436032169
 21
130.8892643851
 31
0.0
  0
LINE
  5
210
330
20A
100
AcDbEntity
  8
VERMASSUNG
100
AcDbLine
 10
207.6237151634
 20
90.8892643851
 30
0.0
 11
221.3436032169
 21
90.8892643851
 31
0.0
  0
LINE
  5
211
330
20A
100
AcDbEntity
  8
VERMASSUNG
100
AcDbLine
 10
220.3436032169
 20
130.8892643851
 30
0.0
 11
220.3436032169
 21
90.8892643851
 31
0.0
  0
MTEXT
  5
212
330
20A
100
AcDbEntity
  8
VERMASSUNG
100
AcDbMText
 10
217.5654679607
 20
105.0853488341
 30
0.0
 40
2.0
 41
0.0
 71
     1
 72
     1
  1
WH
  7
SLDTEXTSTYLE0
 11
-7.044195017643634E-15
 21
1.0
 31
0.0
 73
     1
 44
1.0
  0
MTEXT
  5
213
330
20A
100
AcDbEntity
  8
VERMASSUNG
100
AcDbMText
 10
217.765467912
 20
110.0853487223
 30
0.0
 40
2.0
 41
0.0
 71
     1
 72
     1
  1
%%c
  7
SLDTEXTSTYLE0
 11
-7.044195017643634E-15
 21
1.0
 31
0.0
 73
     1
 44
1.0
  0
MTEXT
  5
214
330
20A
100
AcDbEntity
  8
VERMASSUNG
100
AcDbMText
 10
217.765467621
 20
113.6952623253
 30
0.0
 40
2.0
 41
0.0
 71
     1
 72
     1
  1
40
  7
SLDTEXTSTYLE0
 11
-7.044195017643634E-15
 21
1.0
 31
0.0
 73
     1
 44
1.0
  0
ENDBLK
  5
20C
330
20A
100
AcDbEntity
  8
0
100
AcDbBlockEnd
  0
BLOCK
  5
217
330
216
100
AcDbEntity
  8
0
100
AcDbBlockBegin
  2
_D_2
 70
     0
 10
0.0
 20
0.0
 30
0.0
  3
_D_2
  1

  0
SOLID
  5
219
330
216
100
AcDbEntity
  8
VERMASSUNG
100
AcDbTrace
 10
214.2436032169
 20
121.8892643851
 30
0.0
 11
213.7936032169
 21
118.8892643851
 31
0.0
 12
214.6936032169
 22
118.8892643851
 32
0.0
 13
214.6936032169
 23
118.8892643851
 33
0.0
  0
SOLID
  5
21A
330
216
100
AcDbEntity
  8
VERMASSUNG
100
AcDbTrace
 10
214.2436032169
 20
99.8892643851
 30
0.0
 11
214.6936032169
 21
102.8892643851
 31
0.0
 12
213.7936032169
 22
102.8892643851
 32
0.0
 13
213.7936032169
 23
102.8892643851
 33
0.0
  0
LINE
  5
21B
330
216
100
AcDbEntity
  8
VERMASSUNG
100
AcDbLine
 10
207.0237151634
 20
121.8892643851
 30
0.0
 11
215.2436032169
 21
121.8892643851
 31
0.0
  0
LINE
  5
21C
330
216
100
AcDbEntity
  8
VERMASSUNG
100
AcDbLine
 10
207.0237151634
 20
99.8892643851
 30
0.0
 11
215.2436032169
 21
99.8892643851
 31
0.0
  0
LINE
  5
21D
330
216
100
AcDbEntity
  8
VERMASSUNG
100
AcDbLine
 10
214.2436032169
 20
121.8892643851
 30
0.0
 11
214.2436032169
 21
99.8892643851
 31
0.0
  0
MTEXT
  5
21E
330
216
100
AcDbEntity
  8
VERMASSUNG
100
AcDbMText
 10
211.6654676792
 20
107.685088278
 30
0.0
 40
2.0
 41
0.0
 71
     1
 72
     1
  1
%%c
  7
SLDTEXTSTYLE0
 11
-7.044195017643634E-15
 21
1.0
 31
0.0
 73
     1
 44
1.0
  0
MTEXT
  5
21F
330
216
100
AcDbEntity
  8
VERMASSUNG
100
AcDbMText
 10
211.665467621
 20
111.2940604716
 30
0.0
 40
2.0
 41
0.0
 71
     1
 72
     1
  1
22
  7
SLDTEXTSTYLE0
 11
-7.044195017643634E-15
 21
1.0
 31
0.0
 73
     1
 44
1.0
  0
ENDBLK
  5
218
330
216
100
AcDbEntity
  8
0
100
AcDbBlockEnd
  0
BLOCK
  5
222
330
221
100
AcDbEntity
  8
0
100
AcDbBlockBegin
  2
_D_3
 70
     0
 10
0.0
 20
0.0
 30
0.0
  3
_D_3
  1

  0
SOLID
  5
224
330
221
100
AcDbEntity
  8
VERMASSUNG
100
AcDbTrace
 10
181.0737151634
 20
147.6576008859
 30
0.0
 11
184.0737151634
 21
147.2076008859
 31
0.0
 12
184.0737151634
 22
148.1076008859
 32
0.0
 13
184.0737151634
 23
148.1076008859
 33
0.0
  0
SOLID
  5
225
330
221
100
AcDbEntity
  8
VERMASSUNG
100
AcDbTrace
 10
208.0237151634
 20
147.6576008859
 30
0.0
 11
205.0237151634
 21
148.1076008859
 31
0.0
 12
205.0237151634
 22
147.2076008859
 32
0.0
 13
205.0237151634
 23
147.2076008859
 33
0.0
  0
LINE
  5
226
330
221
100
AcDbEntity
  8
VERMASSUNG
100
AcDbLine
 10
181.0737151634
 20
140.8998155185
 30
0.0
 11
181.0737151634
 21
148.6576008859
 31
0.0
  0
LINE
  5
227
330
221
100
AcDbEntity
  8
VERMASSUNG
100
AcDbLine
 10
208.0237151634
 20
130.4892643851
 30
0.0
 11
208.0237151634
 21
148.6576008859
 31
0.0
  0
LINE
  5
228
330
221
100
AcDbEntity
  8
VERMASSUNG
100
AcDbLine
 10
181.0737151634
 20
147.6576008859
 30
0.0
 11
208.0237151634
 21
147.6576008859
 31
0.0
  0
MTEXT
  5
229
330
221
100
AcDbEntity
  8
VERMASSUNG
100
AcDbMText
 10
191.4493227844
 20
150.2357364818
 30
0.0
 40
2.0
 41
0.0
 71
     1
 72
     1
  1
26.95
  7
SLDTEXTSTYLE0
 73
     1
 44
1.0
  0
ENDBLK
  5
223
330
221
100
AcDbEntity
  8
0
100
AcDbBlockEnd
  0
BLOCK
  5
22C
330
22B
100
AcDbEntity
  8
0
100
AcDbBlockBegin
  2
_D_4
 70
     0
 10
0.0
 20
0.0
 30
0.0
  3
_D_4
  1

  0
SOLID
  5
22E
330
22B
100
AcDbEntity
  8
VERMASSUNG
100
AcDbTrace
 10
162.0237151634
 20
153.6576008859
 30
0.0
 11
165.0237151634
 21
153.2076008859
 31
0.0
 12
165.0237151634
 22
154.1076008859
 32
0.0
 13
165.0237151634
 23
154.1076008859
 33
0.0
  0
SOLID
  5
22F
330
22B
100
AcDbEntity
  8
VERMASSUNG
100
AcDbTrace
 10
208.0237151634
 20
153.6576008859
 30
0.0
 11
205.0237151634
 21
154.1076008859
 31
0.0
 12
205.0237151634
 22
153.2076008859
 32
0.0
 13
205.0237151634
 23
153.2076008859
 33
0.0
  0
LINE
  5
230
330
22B
100
AcDbEntity
  8
VERMASSUNG
100
AcDbLine
 10
162.0237151634
 20
133.1142643851
 30
0.0
 11
162.0237151634
 21
154.6576008859
 31
0.0
  0
LINE
  5
231
330
22B
100
AcDbEntity
  8
VERMASSUNG
100
AcDbLine
 10
208.0237151634
 20
130.4892643851
 30
0.0
 11
208.0237151634
 21
154.6576008859
 31
0.0
  0
LINE
  5
232
330
22B
100
AcDbEntity
  8
VERMASSUNG
100
AcDbLine
 10
162.0237151634
 20
153.6576008859
 30
0.0
 11
208.0237151634
 21
153.6576008859
 31
0.0
  0
MTEXT
  5
233
330
22B
100
AcDbEntity
  8
VERMASSUNG
100
AcDbMText
 10
183.524756358
 20
156.2357364818
 30
0.0
 40
2.0
 41
0.0
 71
     1
 72
     1
  1
46
  7
SLDTEXTSTYLE0
 73
     1
 44
1.0
  0
ENDBLK
  5
22D
330
22B
100
AcDbEntity
  8
0
100
AcDbBlockEnd
  0
BLOCK
  5
236
330
235
100
AcDbEntity
  8
0
100
AcDbBlockBegin
  2
_D_5
 70
     0
 10
0.0
 20
0.0
 30
0.0
  3
_D_5
  1

  0
SOLID
  5
238
330
235
100
AcDbEntity
  8
VERMASSUNG
100
AcDbTrace
 10
93.7737151634
 20
159.6576008859
 30
0.0
 11
96.7737151634
 21
159.2076008859
 31
0.0
 12
96.7737151634
 22
160.1076008859
 32
0.0
 13
96.7737151634
 23
160.1076008859
 33
0.0
  0
SOLID
  5
239
330
235
100
AcDbEntity
  8
VERMASSUNG
100
AcDbTrace
 10
208.0237151634
 20
159.6576008859
 30
0.0
 11
205.0237151634
 21
160.1076008859
 31
0.0
 12
205.0237151634
 22
159.2076008859
 32
0.0
 13
205.0237151634
 23
159.2076008859
 33
0.0
  0
LINE
  5
23A
330
235
100
AcDbEntity
  8
VERMASSUNG
100
AcDbLine
 10
93.7737151634
 20
122.2963949821
 30
0.0
 11
93.7737151634
 21
160.6576008859
 31
0.0
  0
LINE
  5
23B
330
235
100
AcDbEntity
  8
VERMASSUNG
100
AcDbLine
 10
208.0237151634
 20
130.4892643851
 30
0.0
 11
208.0237151634
 21
160.6576008859
 31
0.0
  0
LINE
  5
23C
330
235
100
AcDbEntity
  8
VERMASSUNG
100
AcDbLine
 10
93.7737151634
 20
159.6576008859
 30
0.0
 11
208.0237151634
 21
159.6576008859
 31
0.0
  0
MTEXT
  5
23D
330
235
100
AcDbEntity
  8
VERMASSUNG
100
AcDbMText
 10
147.3989386443
 20
162.2357364818
 30
0.0
 40
2.0
 41
0.0
 71
     1
 72
     1
  1
114.25
  7
SLDTEXTSTYLE0
 73
     1
 44
1.0
  0
ENDBLK
  5
237
330
235
100
AcDbEntity
  8
0
100
AcDbBlockEnd
  0
ENDSEC
  0
SECTION
  2
ENTITIES
  0
MTEXT
  5
78
330
1F
100
AcDbEntity
  8
KOPF_DÜNN
100
AcDbMText
 10
13.8892156294
 20
23.8442973028
 30
0.0
 40
3.0
 41
0.0
 71
     1
 72
     1
  1
A14.440.040.046
  7
SLDTEXTSTYLE0
 73
     1
 44
1.0
  0
MTEXT
  5
79
330
1F
100
AcDbEntity
  8
VERMASSUNG
100
AcDbMText
 10
13.9329988022
 20
28.8834360957
 30
0.0
 40
3.0
 41
0.0
 71
     1
 72
     1
  1
Aufnahme_Master shank WH40
  7
SLDTEXTSTYLE0
 73
     1
 44
1.0
  0
MTEXT
  5
7A
330
1F
100
AcDbEntity
  8
VERMASSUNG
100
AcDbMText
 10
98.8601118557
 20
13.8365368761
 30
0.0
 40
2.0
 41
0.0
 71
     1
 72
     1
  1
Datum: 01.09.2011
  7
SLDTEXTSTYLE0
 73
     1
 44
1.0
  0
MTEXT
  5
7B
330
1F
100
AcDbEntity
  8
VERMASSUNG
100
AcDbMText
 10
13.933048693
 20
18.0482802738
 30
0.0
 40
2.0
 41
0.0
 71
     1
 72
     1
  1
DIN69871 AD/B
  7
SLDTEXTSTYLE0
 73
     1
 44
1.0
  0
MTEXT
  5
7C
330
1F
100
AcDbEntity
  8
VERMASSUNG
100
AcDbMText
 10
13.9808475933
 20
13.9090974274
 30
0.0
 40
2.0
 41
0.0
 71
     1
 72
     1
  1
Gewicht: 1001g
  7
SLDTEXTSTYLE0
 73
     1
 44
1.0
  0
LINE
  5
7D
330
1F
100
AcDbEntity
  8
0
  6
Continuous
 62
     7
370
    15
100
AcDbLine
 10
200.6109202754
 20
130.5520581108
 30
0.0
 11
200.2737144481
 21
130.889263938
 31
0.0
  0
LINE
  5
7E
330
1F
100
AcDbEntity
  8
0
  6
Continuous
 62
     7
370
    15
100
AcDbLine
 10
191.6737160187
 20
130.889263938
 30
0.0
 11
191.337478767
 21
130.5530285489
 31
0.0
  0
ARC
  5
7F
330
1F
100
AcDbEntity
  8
0
  6
Continuous
 62
     7
370
    15
100
AcDbCircle
 10
184.0737151634
 20
133.8892643851
 30
0.0
 40
3.0
100
AcDbArc
 50
180.0
 51
270.0
  0
ARC
  5
80
330
1F
100
AcDbEntity
  8
0
  6
Continuous
 62
     7
370
    15
100
AcDbCircle
 10
164.6237151634
 20
88.0642643851
 30
0.0
 40
0.5999999999999801
100
AcDbArc
 50
0.0
 51
90.0
  0
ARC
  5
81
330
1F
100
AcDbEntity
  8
0
  6
Continuous
 62
     7
370
    15
100
AcDbCircle
 10
164.6237151634
 20
133.7142643851
 30
0.0
 40
0.5999999999999943
100
AcDbArc
 50
270.0
 51
0.0
  0
LINE
  5
82
330
1F
100
AcDbEntity
  8
0
  6
Continuous
 62
     7
370
    15
100
AcDbLine
 10
162.0237151634
 20
133.1142643493
 30
0.0
 11
94.6294064175
 21
123.2859278124
 31
0.0
  0
LINE
  5
83
330
1F
100
AcDbEntity
  8
0
  6
Continuous
 62
     7
370
    15
100
AcDbLine
 10
94.6294064175
 20
98.4926009577
 30
0.0
 11
162.0237151634
 21
88.6642644208
 31
0.0
  0
LINE
  5
84
330
1F
100
AcDbEntity
  8
0
  6
Continuous
 62
     7
370
    15
100
AcDbLine
 10
162.0237151634
 20
88.6642644208
 30
0.0
 11
164.6237151705
 21
88.6642644208
 31
0.0
  0
LINE
  5
85
330
1F
100
AcDbEntity
  8
0
  6
Continuous
 62
     7
370
    15
100
AcDbLine
 10
164.6237151705
 20
133.1142643493
 30
0.0
 11
162.0237151634
 21
133.1142643493
 31
0.0
  0
LINE
  5
86
330
1F
100
AcDbEntity
  8
0
  6
Continuous
 62
     7
370
    15
100
AcDbLine
 10
189.7447085481
 20
130.889263938
 30
0.0
 11
184.0737158906
 21
130.889263938
 31
0.0
  0
LINE
  5
87
330
1F
100
AcDbEntity
  8
0
  6
Continuous
 62
     7
370
    15
100
AcDbLine
 10
207.6237159323
 20
130.889263938
 30
0.0
 11
202.2118600558
 21
130.889263938
 31
0.0
  0
LINE
  5
88
330
1F
100
AcDbEntity
  8
0
  6
Continuous
 62
     7
370
    15
100
AcDbLine
 10
184.0498069774
 20
90.8892648321
 30
0.0
 11
207.6237159323
 21
90.8892648321
 31
0.0
  0
LINE
  5
89
330
1F
100
AcDbEntity
  8
0
  6
Continuous
 62
     7
370
    15
100
AcDbLine
 10
207.6237159323
 20
90.8892648321
 30
0.0
 11
208.0237152528
 21
91.2892641526
 31
0.0
  0
LINE
  5
8A
330
1F
100
AcDbEntity
  8
0
  6
Continuous
 62
     7
370
    15
100
AcDbLine
 10
208.0237152528
 20
130.4892646175
 30
0.0
 11
207.6237159323
 21
130.889263938
 31
0.0
  0
ARC
  5
8B
330
1F
100
AcDbEntity
  8
0
  6
Continuous
 62
     7
370
    15
100
AcDbCircle
 10
94.7737151634
 20
99.482133788
 30
0.0
 40
0.9999999999999938
100
AcDbArc
 50
180.0
 51
261.7028550302
  0
ARC
  5
8C
330
1F
100
AcDbEntity
  8
0
  6
Continuous
 62
     7
370
    15
100
AcDbCircle
 10
94.7737151634
 20
122.2963949821
 30
0.0
 40
0.9999999999999938
100
AcDbArc
 50
98.2971449698
 51
180.0
  0
SPLINE
  5
8D
330
1F
100
AcDbEntity
  8
0
  6
Continuous
 62
     7
370
    15
100
AcDbSpline
210
0.0
220
0.0
230
1.0
 70
     8
 71
     3
 72
    11
 73
     7
 74
     0
 42
0.000000001
 43
0.00000001
 40
0.0
 40
0.0
 40
0.0
 40
0.0
 40
0.1928659275198151
 40
0.7726697446757259
 40
0.9735979967911211
 40
1.0
 40
1.0
 40
1.0
 40
1.0
 10
181.0882552068572
 20
88.28915376481118
 30
0.0
 10
181.0881140839502
 20
88.30056482717873
 30
0.0
 10
181.0875487098487
 20
88.34628043262232
 30
0.0
 10
181.1011242351292
 20
88.46408781142453
 30
0.0
 10
181.1269304641642
 20
88.57960942702587
 30
0.0
 10
181.1238070504614
 20
88.56571944076899
 30
0.0
 10
181.1234442990164
 20
88.56410626586975
 30
0.0
  0
SPLINE
  5
8E
330
1F
100
AcDbEntity
  8
0
  6
Continuous
 62
     7
370
    15
100
AcDbSpline
210
0.0
220
0.0
230
1.0
 70
     8
 71
     3
 72
    10
 73
     6
 74
     0
 42
0.000000001
 43
0.00000001
 40
0.0
 40
0.0
 40
0.0
 40
0.0
 40
0.4771344903249935
 40
0.8331407496622515
 40
0.9999999999999999
 40
0.9999999999999999
 40
0.9999999999999999
 40
0.9999999999999999
 10
181.1204230885844
 20
88.55069335815014
 30
0.0
 10
181.1164852475202
 20
88.53196589323473
 30
0.0
 10
181.1096092494049
 20
88.49926523026596
 30
0.0
 10
181.0866482500676
 20
88.39032050568727
 30
0.0
 10
181.0785696357989
 20
88.31351521228041
 30
0.0
 10
181.0759915511946
 20
88.28900475319924
 30
0.0
  0
LINE
  5
8F
330
1F
100
AcDbEntity
  8
0
  6
Continuous
 62
     7
370
    15
100
AcDbLine
 10
181.0877467047
 20
88.2886229109
 30
0.0
 11
181.0883520644
 21
88.3018681806
 31
0.0
  0
SPLINE
  5
90
330
1F
100
AcDbEntity
  8
0
  6
Continuous
 62
     7
370
    15
100
AcDbSpline
210
0.0
220
0.0
230
1.0
 70
     8
 71
     3
 72
    20
 73
    16
 74
     0
 42
0.000000001
 43
0.00000001
 40
0.0
 40
0.0
 40
0.0
 40
0.0
 40
0.1483804930921473
 40
0.2650321569419799
 40
0.3428516479587689
 40
0.3897399498003517
 40
0.4275711969580518
 40
0.4741972990591853
 40
0.5381334100453623
 40
0.6283244552971647
 40
0.7201077524722606
 40
0.8067483277425819
 40
0.900052521720087
 40
0.9963944896846452
 40
1.0
 40
1.0
 40
1.0
 40
1.0
 10
181.0932042550187
 20
88.3615138035685
 30
0.0
 10
181.0974968012987
 20
88.39868634964876
 30
0.0
 10
181.1051640005086
 20
88.4650826788519
 30
0.0
 10
181.1341501437294
 20
88.60437465072188
 30
0.0
 10
181.1718244500205
 20
88.74829472530506
 30
0.0
 10
181.2315106238457
 20
88.92954694409873
 30
0.0
 10
181.3178558834611
 20
89.1416138916975
 30
0.0
 10
181.4485696782724
 20
89.40010172390687
 30
0.0
 10
181.6679399766663
 20
89.7361286183146
 30
0.0
 10
181.9997216201886
 20
90.10489024426764
 30
0.0
 10
182.4297249192989
 20
90.43441652398722
 30
0.0
 10
182.9173154953992
 20
90.68791765762246
 30
0.0
 10
183.4507518867669
 20
90.84004750217007
 30
0.0
 10
183.8407292421599
 20
90.90681289195778
 30
0.0
 10
184.0405820936435
 20
90.88785690096788
 30
0.0
 10
184.0477915953736
 20
90.88717308160366
 30
0.0
  0
ARC
  5
91
330
1F
100
AcDbEntity
  8
0
  6
Continuous
 62
     7
370
    15
100
AcDbCircle
 10
175.0237151634
 20
102.1677507303
 30
0.0
 40
1.500000000000009
100
AcDbArc
 50
191.5274417163
 51
336.6722113243
  0
SPLINE
  5
92
330
1F
100
AcDbEntity
  8
0
  6
Continuous
 62
     7
370
    15
100
AcDbSpline
210
0.0
220
0.0
230
1.0
 70
     8
 71
     3
 72
    11
 73
     7
 74
     0
 42
0.000000001
 43
0.00000001
 40
0.0
 40
0.0
 40
0.0
 40
0.0
 40
0.2164538273385247
 40
0.4403089262535011
 40
0.7518988724396228
 40
1.0
 40
1.0
 40
1.0
 40
1.0
 10
196.9263213228325
 20
108.1642187226981
 30
0.0
 10
197.0553522285364
 20
108.3140642513668
 30
0.0
 10
197.3178260329618
 20
108.6188790224579
 30
0.0
 10
197.8049118782152
 20
109.1845317051028
 30
0.0
 10
198.3273999255469
 20
109.7913009146402
 30
0.0
 10
198.6617608437751
 20
110.1795977594272
 30
0.0
 10
198.8099771093468
 20
110.3517228647553
 30
0.0
  0
SPLINE
  5
93
330
1F
100
AcDbEntity
  8
0
  6
Continuous
 62
     7
370
    15
100
AcDbSpline
210
0.0
220
0.0
230
1.0
 70
     8
 71
     3
 72
    11
 73
     7
 74
     0
 42
0.000000001
 43
0.00000001
 40
0.0
 40
0.0
 40
0.0
 40
0.0
 40
0.1849312052564768
 40
0.5198463653792135
 40
0.871443024352598
 40
1.0
 40
1.0
 40
1.0
 40
1.0
 10
197.8573719512563
 20
113.0767685853362
 30
0.0
 10
197.6922869040114
 20
113.1080561183775
 30
0.0
 10
197.2282285982774
 20
113.1960061769444
 30
0.0
 10
196.3619779972741
 20
113.3601823513328
 30
0.0
 10
195.5619595194773
 20
113.5118063594189
 30
0.0
 10
195.1353328703872
 20
113.5926617240822
 30
0.0
 10
195.0211072813611
 20
113.6143100474447
 30
0.0
  0
SPLINE
  5
94
330
1F
100
AcDbEntity
  8
0
  6
Continuous
 62
     7
370
    15
100
AcDbSpline
210
0.0
220
0.0
230
1.0
 70
     8
 71
     3
 72
    11
 73
     7
 74
     0
 42
0.000000001
 43
0.00000001
 40
0.0
 40
0.0
 40
0.0
 40
0.0
 40
0.1285559975261052
 40
0.480153032159253
 40
0.8150697379164611
 40
1.0
 40
1.0
 40
1.0
 40
1.0
 10
194.0900603782277
 20
108.7017601848066
 30
0.0
 10
194.2042847094345
 20
108.6801118412266
 30
0.0
 10
194.6309093712997
 20
108.5992558873142
 30
0.0
 10
195.4309285093368
 20
108.4476317669177
 30
0.0
 10
196.2971798704185
 20
108.2834567810995
 30
0.0
 10
196.7612375364352
 20
108.1955062337785
 30
0.0
 10
196.9263213228326
 20
108.1642187226981
 30
0.0
  0
CIRCLE
  5
95
330
1F
100
AcDbEntity
  8
0
  6
Continuous
 62
     7
370
    15
100
AcDbCircle
 10
195.9737151634
 20
110.8892643851
 30
0.0
 40
2.999999999999995
  0
SPLINE
  5
96
330
1F
100
AcDbEntity
  8
0
  6
Continuous
 62
     7
370
    15
100
AcDbSpline
210
0.0
220
0.0
230
1.0
 70
     8
 71
     3
 72
    11
 73
     7
 74
     0
 42
0.000000001
 43
0.00000001
 40
0.0
 40
0.0
 40
0.0
 40
0.0
 40
0.2164542691561298
 40
0.4403087287890945
 40
0.7518984768579118
 40
1.0
 40
1.0
 40
1.0
 40
1.0
 10
193.1374533574919
 20
111.4268059053876
 30
0.0
 10
193.2027081115613
 20
111.2401386397594
 30
0.0
 10
193.3354485648855
 20
110.8604222832481
 30
0.0
 10
193.5817730978066
 20
110.155767134512
 30
0.0
 10
193.8460070602019
 20
109.3998952598022
 30
0.0
 10
194.0151030372445
 20
108.9161819730129
 30
0.0
 10
194.0900603782277
 20
108.7017601848066
 30
0.0
  0
SPLINE
  5
97
330
1F
100
AcDbEntity
  8
0
  6
Continuous
 62
     7
370
    15
100
AcDbSpline
210
0.0
220
0.0
230
1.0
 70
     8
 71
     3
 72
    11
 73
     7
 74
     0
 42
0.000000001
 43
0.00000001
 40
0.0
 40
0.0
 40
0.0
 40
0.0
 40
0.2164539199558505
 40
0.4403091146550451
 40
0.7518983910021592
 40
1.0
 40
1.0
 40
1.0
 40
1.0
 10
195.0211072813611
 20
113.6143100474447
 30
0.0
 10
194.8920764193236
 20
113.4644644831032
 30
0.0
 10
194.6296027037239
 20
113.1596496394465
 30
0.0
 10
194.1425166047846
 20
112.5939981933187
 30
0.0
 10
193.6200326731987
 20
111.9872262301178
 30
0.0
 10
193.2856705116923
 20
111.5989307830689
 30
0.0
 10
193.1374533574919
 20
111.4268059053876
 30
0.0
  0
SPLINE
  5
98
330
1F
100
AcDbEntity
  8
0
  6
Continuous
 62
     7
370
    15
100
AcDbSpline
210
0.0
220
0.0
230
1.0
 70
     8
 71
     3
 72
    11
 73
     7
 74
     0
 42
0.000000001
 43
0.00000001
 40
0.0
 40
0.0
 40
0.0
 40
0.0
 40
0.2164541166010841
 40
0.4403090145766981
 40
0.7518988148582153
 40
1.0
 40
1.0
 40
1.0
 40
1.0
 10
198.8099771093468
 20
110.3517228647553
 30
0.0
 10
198.7447234489587
 20
110.5383902899428
 30
0.0
 10
198.6119850406798
 20
110.9181074851088
 30
0.0
 10
198.3656539732779
 20
111.6227606952006
 30
0.0
 10
198.1014209072094
 20
112.3786329426161
 30
0.0
 10
197.9323279082597
 20
112.8623467492996
 30
0.0
 10
197.8573719512563
 20
113.0767685853362
 30
0.0
  0
CIRCLE
  5
99
330
1F
100
AcDbEntity
  8
0
  6
Continuous
 62
     7
370
    15
100
AcDbCircle
 10
195.9737151634
 20
110.8892643851
 30
0.0
 40
4.299999999999989
  0
CIRCLE
  5
9A
330
1F
100
AcDbEntity
  8
0
  6
Continuous
 62
     7
370
    15
100
AcDbCircle
 10
195.9737151634
 20
110.8892643851
 30
0.0
 40
4.999999999999983
  0
ARC
  5
9B
330
1F
100
AcDbEntity
  8
0
  6
Continuous
 62
     7
370
    15
100
AcDbCircle
 10
195.9737151634
 20
110.8892643851
 30
0.0
 40
2.499999999999999
100
AcDbArc
 50
259.2683225672
 51
319.2683225672
  0
ARC
  5
9C
330
1F
100
AcDbEntity
  8
0
  6
Continuous
 62
     7
370
    15
100
AcDbCircle
 10
195.9737151634
 20
110.8892643851
 30
0.0
 40
2.500000000000006
100
AcDbArc
 50
319.2683225672
 51
19.2683225672
  0
ARC
  5
9D
330
1F
100
AcDbEntity
  8
0
  6
Continuous
 62
     7
370
    15
100
AcDbCircle
 10
195.9737151634
 20
110.8892643851
 30
0.0
 40
2.500000000000019
100
AcDbArc
 50
139.2683225672
 51
199.2683225672
  0
ARC
  5
9E
330
1F
100
AcDbEntity
  8
0
  6
Continuous
 62
     7
370
    15
100
AcDbCircle
 10
195.9737151634
 20
110.8892643851
 30
0.0
 40
2.499999999999999
100
AcDbArc
 50
199.2683225672
 51
259.2683225672
  0
ARC
  5
9F
330
1F
100
AcDbEntity
  8
0
  6
Continuous
 62
     7
370
    15
100
AcDbCircle
 10
195.9737151634
 20
110.8892643851
 30
0.0
 40
2.500000000000012
100
AcDbArc
 50
19.2683225672
 51
79.2683225672
  0
ARC
  5
A0
330
1F
100
AcDbEntity
  8
0
  6
Continuous
 62
     7
370
    15
100
AcDbCircle
 10
195.9737151634
 20
110.8892643851
 30
0.0
 40
2.500000000000019
100
AcDbArc
 50
79.2683225672
 51
139.2683225672
  0
LINE
  5
A1
330
1F
100
AcDbEntity
  8
0
  6
Continuous
 62
     7
370
    15
100
AcDbLine
 10
194.2357453059
 20
130.1892651271
 30
0.0
 11
197.7540808272
 21
130.1892651271
 31
0.0
  0
LINE
  5
A2
330
1F
100
AcDbEntity
  8
0
  6
Continuous
 62
     7
370
    15
100
AcDbLine
 10
195.1730134439
 20
130.889263938
 30
0.0
 11
200.2737144481
 21
130.889263938
 31
0.0
  0
LINE
  5
A3
330
1F
100
AcDbEntity
  8
0
  6
Continuous
 62
     7
370
    15
100
AcDbLine
 10
191.6737160187
 20
130.889263938
 30
0.0
 11
195.1730134439
 21
130.889263938
 31
0.0
  0
SPLINE
  5
A4
330
1F
100
AcDbEntity
  8
0
  6
Continuous
 62
     7
370
    15
100
AcDbSpline
210
0.0
220
0.0
230
1.0
 70
     8
 71
     3
 72
    12
 73
     8
 74
     0
 42
0.000000001
 43
0.00000001
 40
0.0
 40
0.0
 40
0.0
 40
0.0
 40
0.249999999999999
 40
0.249999999999999
 40
0.499999999999998
 40
0.499999999999998
 40
1.0
 40
1.0
 40
1.0
 40
1.0
 10
180.4737151633839
 20
80.44117203643475
 30
0.0
 10
180.5692570735199
 20
80.44117203643475
 30
0.0
 10
180.6614020153827
 20
80.45742570563094
 30
0.0
 10
180.8177282919926
 20
80.51103412654442
 30
0.0
 10
180.8813964346126
 20
80.5474452518261
 30
0.0
 10
181.0302642800429
 20
80.6695688915126
 30
0.0
 10
181.0737151633839
 20
80.76472156694963
 30
0.0
 10
181.0737151633839
 20
80.86034802256933
 30
0.0
  0
SPLINE
  5
A5
330
1F
100
AcDbEntity
  8
0
  6
Continuous
 62
     7
370
    15
100
AcDbSpline
210
0.0
220
0.0
230
1.0
 70
    24
 71
     3
 72
    12
 73
     8
 74
     0
 42
0.000000001
 43
0.00000001
 40
0.0
 40
0.0
 40
0.0
 40
0.0
 40
0.500000000000004
 40
0.500000000000004
 40
0.750000000000002
 40
0.750000000000002
 40
1.0
 40
1.0
 40
1.0
 40
1.0
 10
181.0737151633839
 20
129.2392643850714
 30
0.0
 10
181.0737151633839
 20
129.2392643850714
 30
0.0
 10
181.0234294962123
 20
129.2392643850714
 30
0.0
 10
180.868307361837
 20
129.2392643850714
 30
0.0
 10
180.8028500864949
 20
129.2392643850714
 30
0.0
 10
180.6488788628527
 20
129.2392643850714
 30
0.0
 10
180.5616565741368
 20
129.2392643850714
 30
0.0
 10
180.4737151633838
 20
129.2392643850714
 30
0.0
  0
LINE
  5
A6
330
1F
100
AcDbEntity
  8
0
  6
Continuous
 62
     7
370
    15
100
AcDbLine
 10
181.0737153988
 20
80.8603474897
 30
0.0
 11
181.0737153988
 21
129.239263947
 31
0.0
  0
LINE
  5
A7
330
1F
100
AcDbEntity
  8
0
  6
Continuous
 62
     7
370
    15
100
AcDbLine
 10
165.8237152275
 20
80.4411722374
 30
0.0
 11
169.6018785711
 21
80.4411722374
 31
0.0
  0
LINE
  5
A8
330
1F
100
AcDbEntity
  8
0
  6
Continuous
 62
     7
370
    15
100
AcDbLine
 10
169.6018785711
 20
129.239263947
 30
0.0
 11
165.8237152275
 21
129.239263947
 31
0.0
  0
LINE
  5
A9
330
1F
100
AcDbEntity
  8
0
  6
Continuous
 62
     7
370
    15
100
AcDbLine
 10
169.6018785711
 20
80.4411722374
 30
0.0
 11
169.6018785711
 21
129.239263947
 31
0.0
  0
SPLINE
  5
AA
330
1F
100
AcDbEntity
  8
0
  6
Continuous
 62
     7
370
    15
100
AcDbSpline
210
0.0
220
0.0
230
1.0
 70
     8
 71
     3
 72
     8
 73
     4
 74
     0
 42
0.000000001
 43
0.00000001
 40
0.0
 40
0.0
 40
0.0
 40
0.0
 40
1.0
 40
1.0
 40
1.0
 40
1.0
 10
171.2137151633839
 20
83.07243792556996
 30
0.0
 10
170.8295804147996
 20
82.37979650362578
 30
0.0
 10
170.4445941383066
 20
81.68761032930207
 30
0.0
 10
170.0589255596803
 20
80.9958160384579
 30
0.0
  0
SPLINE
  5
AB
330
1F
100
AcDbEntity
  8
0
  6
Continuous
 62
     7
370
    15
100
AcDbSpline
210
0.0
220
0.0
230
1.0
 70
     8
 71
     3
 72
     8
 73
     4
 74
     0
 42
0.000000001
 43
0.00000001
 40
0.0
 40
0.0
 40
0.0
 40
0.0
 40
0.0011901715795577
 40
0.0011901715795577
 40
0.0011901715795577
 40
0.0011901715795577
 10
169.6018785213272
 20
80.44117203643475
 30
0.0
 10
169.7557247108231
 20
80.62573727411834
 30
0.0
 10
169.9081199784958
 20
80.81061263464696
 30
0.0
 10
170.0589255596803
 20
80.9958160384579
 30
0.0
  0
SPLINE
  5
AC
330
1F
100
AcDbEntity
  8
0
  6
Continuous
 62
     7
370
    15
100
AcDbSpline
210
0.0
220
0.0
230
1.0
 70
    24
 71
     3
 72
     8
 73
     4
 74
     0
 42
0.000000001
 43
0.00000001
 40
0.0
 40
0.0
 40
0.0
 40
0.0
 40
1.0
 40
1.0
 40
1.0
 40
1.0
 10
171.2137151633839
 20
129.2392643850714
 30
0.0
 10
170.688982675022
 20
129.2392643850714
 30
0.0
 10
170.1503071908032
 20
129.2392643850714
 30
0.0
 10
169.6018785213272
 20
129.2392643850714
 30
0.0
  0
LINE
  5
AD
330
1F
100
AcDbEntity
  8
0
  6
Continuous
 62
     7
370
    15
100
AcDbLine
 10
171.2137148257
 20
83.0724379074
 30
0.0
 11
171.2137148257
 21
129.239263947
 31
0.0
  0
LINE
  5
AE
330
1F
100
AcDbEntity
  8
0
  6
Continuous
 62
     7
370
    15
100
AcDbLine
 10
176.645552228
 20
101.1372441452
 30
0.0
 11
176.645552228
 21
129.239263947
 31
0.0
  0
LINE
  5
AF
330
1F
100
AcDbEntity
  8
0
  6
Continuous
 62
     7
370
    15
100
AcDbLine
 10
180.4737145554
 20
129.239263947
 30
0.0
 11
176.645552228
 21
129.239263947
 31
0.0
  0
LINE
  5
B0
330
1F
100
AcDbEntity
  8
0
  6
Continuous
 62
     7
370
    15
100
AcDbLine
 10
176.645552228
 20
80.4411722374
 30
0.0
 11
180.4737145554
 21
80.4411722374
 31
0.0
  0
LINE
  5
B1
330
1F
100
AcDbEntity
  8
0
  6
Continuous
 62
     7
370
    15
100
AcDbLine
 10
176.645552228
 20
80.4411722374
 30
0.0
 11
176.645552228
 21
98.9377647665
 31
0.0
  0
SPLINE
  5
B2
330
1F
100
AcDbEntity
  8
0
  6
Continuous
 62
     7
370
    15
100
AcDbSpline
210
0.0
220
0.0
230
1.0
 70
     8
 71
     3
 72
    12
 73
     8
 74
     0
 42
0.000000001
 43
0.00000001
 40
0.0
 40
0.0
 40
0.0
 40
0.0
 40
0.2499999999999997
 40
0.2499999999999997
 40
0.4999999999999993
 40
0.4999999999999993
 40
1.0
 40
1.0
 40
1.0
 40
1.0
 10
176.6455518054406
 20
98.93776458686438
 30
0.0
 10
176.7684992992362
 20
99.09572143555945
 30
0.0
 10
176.862043502345
 20
99.26755480253699
 30
0.0
 10
176.9909828915073
 20
99.63922751218283
 30
0.0
 10
177.0235356488924
 20
99.83241595837409
 30
0.0
 10
177.0240719906262
 20
100.4207124966503
 30
0.0
 10
176.8914483336582
 20
100.812730734539
 30
0.0
 10
176.6455518054406
 20
101.1372443172477
 30
0.0
  0
LINE
  5
B3
330
1F
100
AcDbEntity
  8
0
  6
Continuous
 62
     7
370
    15
100
AcDbLine
 10
175.0337150421
 20
102.8879815739
 30
0.0
 11
175.0337150421
 21
129.239263947
 31
0.0
  0
SPLINE
  5
B4
330
1F
100
AcDbEntity
  8
0
  6
Continuous
 62
     7
370
    15
100
AcDbSpline
210
0.0
220
0.0
230
1.0
 70
    24
 71
     3
 72
     8
 73
     4
 74
     0
 42
0.000000001
 43
0.00000001
 40
0.0
 40
0.0
 40
0.0
 40
0.0
 40
1.0
 40
1.0
 40
1.0
 40
1.0
 10
176.6455518054406
 20
129.2392643850714
 30
0.0
 10
176.0971231359646
 20
129.2392643850714
 30
0.0
 10
175.5584476517458
 20
129.2392643850714
 30
0.0
 10
175.0337151633839
 20
129.2392643850714
 30
0.0
  0
SPLINE
  5
B5
330
1F
100
AcDbEntity
  8
0
  6
Continuous
 62
     7
370
    15
100
AcDbSpline
210
0.0
220
0.0
230
1.0
 70
     8
 71
     3
 72
    12
 73
     8
 74
     0
 42
0.000000001
 43
0.00000001
 40
0.0
 40
0.0
 40
0.0
 40
0.0
 40
0.2499999999999994
 40
0.2499999999999994
 40
0.4999999999999989
 40
0.4999999999999989
 40
1.0
 40
1.0
 40
1.0
 40
1.0
 10
176.6455518054406
 20
101.1372443172477
 30
0.0
 10
176.53065575418
 20
101.3569847523043
 30
0.0
 10
176.4038897377073
 20
101.553953103926
 30
0.0
 10
176.1436748040888
 20
101.9076706767649
 30
0.0
 10
176.0101673461266
 20
102.0644959706372
 30
0.0
 10
175.6017690775383
 20
102.4910385415449
 30
0.0
 10
175.3181159426008
 20
102.7177307205001
 30
0.0
 10
175.033715163384
 20
102.8879818648956
 30
0.0
  0
SPLINE
  5
B6
330
1F
100
AcDbEntity
  8
0
  6
Continuous
 62
     7
370
    15
100
AcDbSpline
210
0.0
220
0.0
230
1.0
 70
     8
 71
     3
 72
    10
 73
     6
 74
     0
 42
0.000000001
 43
0.00000001
 40
0.0
 40
0.0
 40
0.0
 40
0.0
 40
0.5
 40
0.5
 40
1.0
 40
1.0
 40
1.0
 40
1.0
 10
165.4398597047311
 20
80.53753453560321
 30
0.0
 10
165.4886296777125
 20
80.50930652839519
 30
0.0
 10
165.5460818010148
 20
80.4852119241536
 30
0.0
 10
165.6766787040035
 20
80.45094845106104
 30
0.0
 10
165.7491683838457
 20
80.44117203643474
 30
0.0
 10
165.8237151633839
 20
80.44117203643474
 30
0.0
  0
SPLINE
  5
B7
330
1F
100
AcDbEntity
  8
0
  6
Continuous
 62
     7
370
    15
100
AcDbSpline
210
0.0
220
0.0
230
1.0
 70
     8
 71
     3
 72
    10
 73
     6
 74
     0
 42
0.000000001
 43
0.00000001
 40
0.0
 40
0.0
 40
0.0
 40
0.0
 40
0.5
 40
0.5
 40
1.0
 40
1.0
 40
1.0
 40
1.0
 10
165.4398597047311
 20
80.53753453560323
 30
0.0
 10
165.381737044655
 20
80.60483969546502
 30
0.0
 10
165.3293338786515
 20
80.68492508249867
 30
0.0
 10
165.2504308571051
 20
80.86894452418743
 30
0.0
 10
165.2237151633839
 20
80.97415588160787
 30
0.0
 10
165.2237151633839
 20
81.08288922806851
 30
0.0
  0
LINE
  5
B8
330
1F
100
AcDbEntity
  8
0
  6
Continuous
 62
     7
370
    15
100
AcDbLine
 10
165.2237150825
 20
81.0828888815
 30
0.0
 11
165.2237150825
 21
129.239263947
 31
0.0
  0
SPLINE
  5
B9
330
1F
100
AcDbEntity
  8
0
  6
Continuous
 62
     7
370
    15
100
AcDbSpline
210
0.0
220
0.0
230
1.0
 70
    24
 71
     3
 72
    12
 73
     8
 74
     0
 42
0.000000001
 43
0.00000001
 40
0.0
 40
0.0
 40
0.0
 40
0.0
 40
0.2499999999999998
 40
0.2499999999999998
 40
0.4999999999999997
 40
0.4999999999999997
 40
1.0
 40
1.0
 40
1.0
 40
1.0
 10
165.8237151633839
 20
129.2392643850714
 30
0.0
 10
165.7362307937312
 20
129.2392643850714
 30
0.0
 10
165.6488979163105
 20
129.2392643850714
 30
0.0
 10
165.4950615028717
 20
129.2392643850714
 30
0.0
 10
165.4294393338981
 20
129.2392643850714
 30
0.0
 10
165.2740211285557
 20
129.2392643850714
 30
0.0
 10
165.2237151633839
 20
129.2392643850714
 30
0.0
 10
165.2237151633839
 20
129.2392643850714
 30
0.0
  0
SPLINE
  5
BA
330
1F
100
AcDbEntity
  8
0
  6
Continuous
 62
     7
370
    15
100
AcDbSpline
210
0.0
220
0.0
230
1.0
 70
     8
 71
     3
 72
    14
 73
    10
 74
     0
 42
0.000000001
 43
0.00000001
 40
0.0
 40
0.0
 40
0.0
 40
0.0
 40
0.2499999999999995
 40
0.2499999999999995
 40
0.4999999999999997
 40
0.4999999999999997
 40
0.7499999999999998
 40
0.7499999999999998
 40
1.0
 40
1.0
 40
1.0
 40
1.0
 10
175.0337151633839
 20
102.9422255147418
 30
0.0
 10
175.0337151633839
 20
102.9788763829056
 30
0.0
 10
175.0123873746721
 20
103.0153431801545
 30
0.0
 10
174.9299289720155
 20
103.0804820346954
 30
0.0
 10
174.8688127801603
 20
103.1085531652863
 30
0.0
 10
174.7175096870982
 20
103.1423810470131
 30
0.0
 10
174.6261316637076
 20
103.1478441884096
 30
0.0
 10
174.4337579506548
 20
103.1269182703971
 30
0.0
 10
174.3315776111757
 20
103.1003828450218
 30
0.0
 10
174.2337151633839
 20
103.0598966717405
 30
0.0
  0
SPLINE
  5
BB
330
1F
100
AcDbEntity
  8
0
  6
Continuous
 62
     7
370
    15
100
AcDbSpline
210
0.0
220
0.0
230
1.0
 70
     8
 71
     3
 72
    12
 73
     8
 74
     0
 42
0.000000001
 43
0.00000001
 40
0.0
 40
0.0
 40
0.0
 40
0.0
 40
0.499999999999999
 40
0.499999999999999
 40
0.7499999999999994
 40
0.7499999999999994
 40
1.0
 40
1.0
 40
1.0
 40
1.0
 10
175.0337151633839
 20
99.12925836667448
 30
0.0
 10
175.3179216979492
 20
98.96179420438074
 30
0.0
 10
175.596617432053
 20
98.85015710486914
 30
0.0
 10
176.0059634752423
 20
98.78284383922978
 30
0.0
 10
176.1421028125618
 20
98.7776927992158
 30
0.0
 10
176.4034228615579
 20
98.81545873683518
 30
0.0
 10
176.5288440439896
 20
98.85700849517944
 30
0.0
 10
176.645551805441
 20
98.93776458686226
 30
0.0
  0
LINE
  5
BC
330
1F
100
AcDbEntity
  8
0
  6
Continuous
 62
     7
370
    15
100
AcDbLine
 10
175.0337150421
 20
99.1835016784
 30
0.0
 11
175.0337150421
 21
99.1292586577
 31
0.0
  0
SPLINE
  5
BD
330
1F
100
AcDbEntity
  8
0
  6
Continuous
 62
     7
370
    15
100
AcDbSpline
210
0.0
220
0.0
230
1.0
 70
     8
 71
     3
 72
    14
 73
    10
 74
     0
 42
0.000000001
 43
0.00000001
 40
0.0
 40
0.0
 40
0.0
 40
0.0
 40
0.25
 40
0.25
 40
0.5
 40
0.5
 40
0.75
 40
0.75
 40
1.0
 40
1.0
 40
1.0
 40
1.0
 10
174.2337151633803
 20
99.60678519496464
 30
0.0
 10
174.3311245833642
 20
99.56837047557046
 30
0.0
 10
174.4334488263778
 20
99.5306700707877
 30
0.0
 10
174.6254505119153
 20
99.45962528519357
 30
0.0
 10
174.7168851415697
 20
99.42542382383553
 30
0.0
 10
174.8686640088647
 20
99.35842739843014
 30
0.0
 10
174.9296408987793
 20
99.32528593012064
 30
0.0
 10
175.0126588373436
 20
99.25560836247057
 30
0.0
 10
175.0337151633839
 20
99.21987465130336
 30
0.0
 10
175.0337151633839
 20
99.18350201652258
 30
0.0
  0
SPLINE
  5
BE
330
1F
100
AcDbEntity
  8
0
  6
Continuous
 62
     7
370
    15
100
AcDbSpline
210
0.0
220
0.0
230
1.0
 70
     8
 71
     3
 72
    22
 73
    18
 74
     0
 42
0.000000001
 43
0.00000001
 40
0.0
 40
0.0
 40
0.0
 40
0.0
 40
0.125
 40
0.125
 40
0.25
 40
0.25
 40
0.375
 40
0.375
 40
0.5
 40
0.5
 40
0.625
 40
0.625
 40
0.75
 40
0.75
 40
0.875
 40
0.875
 40
1.0
 40
1.0
 40
1.0
 40
1.0
 10
174.2337151633839
 20
103.0598966717405
 30
0.0
 10
174.0536984688146
 20
102.9854228847639
 30
0.0
 10
173.8892666469444
 20
102.88797362278
 30
0.0
 10
173.5908704131859
 20
102.6486041892158
 30
0.0
 10
173.4605666858211
 20
102.5087075771455
 30
0.0
 10
173.2473479022021
 20
102.2004559870855
 30
0.0
 10
173.1637200450906
 20
102.0302927689663
 30
0.0
 10
173.0525891681723
 20
101.6797980341761
 30
0.0
 10
173.0237531733185
 20
101.4946730730248
 30
0.0
 10
173.0236772306586
 20
101.1314661984078
 30
0.0
 10
173.0523358560857
 20
100.9480961847003
 30
0.0
 10
173.163486949198
 20
100.6022050722071
 30
0.0
 10
173.2465540698418
 20
100.4366855449396
 30
0.0
 10
173.4602400279601
 20
100.1361458075358
 30
0.0
 10
173.5892470178842
 20
100.0022738862518
 30
0.0
 10
173.8888562973733
 20
99.77102711684748
 30
0.0
 10
174.0536989956345
 20
99.67777700018752
 30
0.0
 10
174.2337151633839
 20
99.60678519496324
 30
0.0
  0
SPLINE
  5
BF
330
1F
100
AcDbEntity
  8
0
  6
Continuous
 62
     7
370
    15
100
AcDbSpline
210
0.0
220
0.0
230
1.0
 70
     8
 71
     3
 72
     8
 73
     4
 74
     0
 42
0.000000001
 43
0.00000001
 40
0.0
 40
0.0
 40
0.0
 40
0.0
 40
0.0011901715795577
 40
0.0011901715795577
 40
0.0011901715795577
 40
0.0011901715795577
 10
176.1885047670876
 20
80.9958160384579
 30
0.0
 10
176.3393103482721
 20
80.81061263464697
 30
0.0
 10
176.4917056159447
 20
80.62573727411834
 30
0.0
 10
176.6455518054406
 20
80.44117203643475
 30
0.0
  0
SPLINE
  5
C0
330
1F
100
AcDbEntity
  8
0
  6
Continuous
 62
     7
370
    15
100
AcDbSpline
210
0.0
220
0.0
230
1.0
 70
     8
 71
     3
 72
     8
 73
     4
 74
     0
 42
0.000000001
 43
0.00000001
 40
0.0
 40
0.0
 40
0.0
 40
0.0
 40
1.0
 40
1.0
 40
1.0
 40
1.0
 10
176.1885047670876
 20
80.9958160384579
 30
0.0
 10
175.8028361884612
 20
81.68761032930207
 30
0.0
 10
175.4178499119683
 20
82.37979650362578
 30
0.0
 10
175.0337151633839
 20
83.07243792556996
 30
0.0
  0
LINE
  5
C1
330
1F
100
AcDbEntity
  8
0
  6
Continuous
 62
     7
370
    15
100
AcDbLine
 10
175.0337150421
 20
83.0724379074
 30
0.0
 11
175.0337150421
 21
99.1292586577
 31
0.0
  0
SPLINE
  5
C2
330
1F
100
AcDbEntity
  8
0
  6
Continuous
 62
     7
370
    15
100
AcDbSpline
210
0.0
220
0.0
230
1.0
 70
    24
 71
     3
 72
    14
 73
    10
 74
     0
 42
0.000000001
 43
0.00000001
 40
0.0
 40
0.0
 40
0.0
 40
0.0
 40
0.25
 40
0.25
 40
0.5
 40
0.5
 40
0.75
 40
0.75
 40
1.0
 40
1.0
 40
1.0
 40
1.0
 10
175.0337151633839
 20
129.2392643850714
 30
0.0
 10
175.0337151633839
 20
129.2392643850714
 30
0.0
 10
175.0176335619241
 20
129.2392643850714
 30
0.0
 10
174.9521420486572
 20
129.2392643850714
 30
0.0
 10
174.9028340755299
 20
129.2392643850714
 30
0.0
 10
174.7682645538329
 20
129.2392643850714
 30
0.0
 10
174.6827414777476
 20
129.2392643850714
 30
0.0
 10
174.4757459821926
 20
129.2392643850714
 30
0.0
 10
174.355052348249
 20
129.2392643850714
 30
0.0
 10
174.2337151633839
 20
129.2392643850714
 30
0.0
  0
SPLINE
  5
C3
330
1F
100
AcDbEntity
  8
0
  6
Continuous
 62
     7
370
    15
100
AcDbSpline
210
0.0
220
0.0
230
1.0
 70
     8
 71
     3
 72
    12
 73
     8
 74
     0
 42
0.000000001
 43
0.00000001
 40
0.0
 40
0.0
 40
0.0
 40
0.0
 40
0.2499999999999978
 40
0.2499999999999978
 40
0.4999999999999957
 40
0.4999999999999957
 40
1.0
 40
1.0
 40
1.0
 40
1.0
 10
172.0137151633839
 20
84.07140652878469
 30
0.0
 10
171.9061285624217
 20
84.07140652878469
 30
0.0
 10
171.8001238084523
 20
84.04876514989759
 30
0.0
 10
171.6034987621036
 20
83.96186528530387
 30
0.0
 10
171.5156135888815
 20
83.89893307019591
 30
0.0
 10
171.2950609957772
 20
83.66392927163655
 30
0.0
 10
171.2137151633839
 20
83.45071158336569
 30
0.0
 10
171.2137151633839
 20
83.23718489726438
 30
0.0
  0
SPLINE
  5
C4
330
1F
100
AcDbEntity
  8
0
  6
Continuous
 62
     7
370
    15
100
AcDbSpline
210
0.0
220
0.0
230
1.0
 70
    24
 71
     3
 72
    12
 73
     8
 74
     0
 42
0.000000001
 43
0.00000001
 40
0.0
 40
0.0
 40
0.0
 40
0.0
 40
0.2500000000000005
 40
0.2500000000000005
 40
0.500000000000001
 40
0.500000000000001
 40
1.0
 40
1.0
 40
1.0
 40
1.0
 10
172.0137151633839
 20
129.2392643850714
 30
0.0
 10
171.8922373915794
 20
129.2392643850714
 30
0.0
 10
171.7696839199174
 20
129.2392643850714
 30
0.0
 10
171.5656307663791
 20
129.2392643850714
 30
0.0
 10
171.4794717031534
 20
129.2392643850714
 30
0.0
 10
171.2774311364576
 20
129.2392643850714
 30
0.0
 10
171.2137151633839
 20
129.2392643850714
 30
0.0
 10
171.2137151633839
 20
129.2392643850714
 30
0.0
  0
LINE
  5
C5
330
1F
100
AcDbEntity
  8
0
  6
Continuous
 62
     7
370
    15
100
AcDbLine
 10
174.2337154698
 20
84.0714061659
 30
0.0
 11
172.0137153294
 21
84.0714061659
 31
0.0
  0
LINE
  5
C6
330
1F
100
AcDbEntity
  8
0
  6
Continuous
 62
     7
370
    15
100
AcDbLine
 10
174.2337154698
 20
129.239263947
 30
0.0
 11
172.0137153294
 21
129.239263947
 31
0.0
  0
SPLINE
  5
C7
330
1F
100
AcDbEntity
  8
0
  6
Continuous
 62
     7
370
    15
100
AcDbSpline
210
0.0
220
0.0
230
1.0
 70
     8
 71
     3
 72
    12
 73
     8
 74
     0
 42
0.000000001
 43
0.00000001
 40
0.0
 40
0.0
 40
0.0
 40
0.0
 40
0.4999999999999987
 40
0.4999999999999987
 40
0.7499999999999993
 40
0.7499999999999993
 40
1.0
 40
1.0
 40
1.0
 40
1.0
 10
175.0337151633839
 20
83.23718489726437
 30
0.0
 10
175.0337151633839
 20
83.45000745619724
 30
0.0
 10
174.9517898055642
 20
83.66426396283522
 30
0.0
 10
174.7328680020958
 20
83.8979535912851
 30
0.0
 10
174.6428207106048
 20
83.96243841612907
 30
0.0
 10
174.4474072425849
 20
84.04863802728465
 30
0.0
 10
174.3401242756011
 20
84.07140652878469
 30
0.0
 10
174.2337151633839
 20
84.07140652878469
 30
0.0
  0
LINE
  5
C8
330
1F
100
AcDbEntity
  8
0
  6
Continuous
 62
     7
370
    15
100
AcDbLine
 10
162.0237151634
 20
88.6642644208
 30
0.0
 11
162.0237151634
 21
133.1142643493
 31
0.0
  0
SPLINE
  5
C9
330
1F
100
AcDbEntity
  8
0
  6
Continuous
 62
     7
370
    15
100
AcDbSpline
210
0.0
220
0.0
230
1.0
 70
     8
 71
     3
 72
    25
 73
    21
 74
     0
 42
0.000000001
 43
0.00000001
 40
0.0
 40
0.0
 40
0.0
 40
0.0
 40
0.0094803607395289
 40
0.0552617490723832
 40
0.1398094780461221
 40
0.2299767940897134
 40
0.2806438913002055
 40
0.3324792046638128
 40
0.3893606560225182
 40
0.4477092077892381
 40
0.5079486808675922
 40
0.5698980286403323
 40
0.6307475816869451
 40
0.6934079185901232
 40
0.7532926816233796
 40
0.8152128328162476
 40
0.870115656661882
 40
0.927198145190401
 40
0.9739784524302388
 40
1.0
 40
1.0
 40
1.0
 40
1.0
 10
202.2118600558381
 20
130.8864494812161
 30
0.0
 10
202.2154987856487
 20
130.8873133114942
 30
0.0
 10
202.2367092204905
 20
130.8923486443665
 30
0.0
 10
202.0942918632715
 20
130.8584458863144
 30
0.0
 10
201.6090418667657
 20
130.7457389305696
 30
0.0
 10
200.7203432338454
 20
130.5645919639539
 30
0.0
 10
199.7960713116729
 20
130.4111314696134
 30
0.0
 10
198.9467707648746
 20
130.295086902321
 30
0.0
 10
197.9871302657721
 20
130.1976735160939
 30
0.0
 10
196.9280017209865
 20
130.1332542604272
 30
0.0
 10
195.8125874485541
 20
130.1146580565976
 30
0.0
 10
194.6857593404518
 20
130.1479441548465
 30
0.0
 10
193.5807861335014
 20
130.2305452152517
 30
0.0
 10
192.5557116087371
 20
130.350830999369
 30
0.0
 10
191.6254281873366
 20
130.4950216805935
 30
0.0
 10
190.8634837672279
 20
130.6375684535452
 30
0.0
 10
190.2693650505078
 20
130.7630983252806
 30
0.0
 10
189.9057673018023
 20
130.8460843861207
 30
0.0
 10
189.7315884196401
 20
130.8873837703666
 30
0.0
 10
189.7412538396158
 20
130.8850927798219
 30
0.0
 10
189.7447085481028
 20
130.8842739116818
 30
0.0
  0
SPLINE
  5
CA
330
1F
100
AcDbEntity
  8
0
  6
Continuous
 62
     7
370
    15
100
AcDbSpline
210
0.0
220
0.0
230
1.0
 70
    11
 71
     3
 72
    88
 73
    84
 74
     0
 42
0.000000001
 43
0.00000001
 40
0.0
 40
0.0
 40
0.0
 40
0.0
 40
0.0312500000000005
 40
0.0312500000000005
 40
0.0625000000000009
 40
0.0625000000000009
 40
0.0937500000000014
 40
0.0937500000000014
 40
0.1093750000000017
 40
0.1093750000000017
 40
0.1250000000000019
 40
0.1250000000000019
 40
0.1562500000000018
 40
0.1562500000000018
 40
0.171875000000002
 40
0.171875000000002
 40
0.1875000000000023
 40
0.1875000000000023
 40
0.2187500000000028
 40
0.2187500000000028
 40
0.234375000000003
 40
0.234375000000003
 40
0.2500000000000033
 40
0.2500000000000033
 40
0.2812500000000033
 40
0.2812500000000033
 40
0.2968750000000031
 40
0.2968750000000031
 40
0.3125000000000029
 40
0.3125000000000029
 40
0.3437500000000025
 40
0.3437500000000025
 40
0.3593750000000023
 40
0.3593750000000023
 40
0.3750000000000021
 40
0.3750000000000021
 40
0.3906250000000019
 40
0.3906250000000019
 40
0.4062500000000017
 40
0.4062500000000017
 40
0.4375000000000013
 40
0.4375000000000013
 40
0.4531250000000011
 40
0.4531250000000011
 40
0.4687500000000008
 40
0.4687500000000008
 40
0.5000000000000008
 40
0.5000000000000008
 40
0.5312500000000007
 40
0.5312500000000007
 40
0.5625000000000006
 40
0.5625000000000006
 40
0.5937500000000006
 40
0.5937500000000006
 40
0.6250000000000004
 40
0.6250000000000004
 40
0.6562500000000003
 40
0.6562500000000003
 40
0.6875000000000002
 40
0.6875000000000002
 40
0.7187500000000002
 40
0.7187500000000002
 40
0.7500000000000001
 40
0.7500000000000001
 40
0.78125
 40
0.78125
 40
0.8124999999999999
 40
0.8124999999999999
 40
0.828125
 40
0.828125
 40
0.84375
 40
0.84375
 40
0.875
 40
0.875
 40
0.890625
 40
0.890625
 40
0.90625
 40
0.90625
 40
0.9375
 40
0.9375
 40
0.9687500000000001
 40
0.9687500000000001
 40
1.0
 40
1.0
 40
1.0
 40
1.0
 10
191.8164690501912
 20
114.9742677474002
 30
0.0
 10
192.1199439580189
 20
115.2122604518349
 30
0.0
 10
192.4410093713951
 20
115.4182029729538
 30
0.0
 10
193.1154017164439
 20
115.7724592290642
 30
0.0
 10
193.4707788335597
 20
115.9213387487062
 30
0.0
 10
194.2058694823345
 20
116.1578743351269
 30
0.0
 10
194.5793956595187
 20
116.2439246444505
 30
0.0
 10
195.1483292947044
 20
116.3269371754072
 30
0.0
 10
195.3394236070661
 20
116.3468784939199
 30
0.0
 10
195.7245613153085
 20
116.3710783734488
 30
0.0
 10
195.9194394790468
 20
116.3752775051314
 30
0.0
 10
196.4988252470305
 20
116.3638586095571
 30
0.0
 10
196.8801065728335
 20
116.3248278073979
 30
0.0
 10
197.444718110437
 20
116.2198893414536
 30
0.0
 10
197.6316966443653
 20
116.1771304620929
 30
0.0
 10
198.0031413037822
 20
116.0755758818623
 30
0.0
 10
198.1882914561825
 20
116.016467942856
 30
0.0
 10
198.7296995602731
 20
115.8177545971053
 30
0.0
 10
199.0748298219575
 20
115.6564578656414
 30
0.0
 10
199.5687054773287
 20
115.3703194266029
 30
0.0
 10
199.7293349323896
 20
115.2675251380985
 30
0.0
 10
200.0422286507593
 20
115.0462598033683
 30
0.0
 10
200.1949773286451
 20
114.927259004295
 30
0.0
 10
200.6301712645923
 20
114.5534464097362
 30
0.0
 10
200.8930006494394
 20
114.2800832677465
 30
0.0
 10
201.2441703216307
 20
113.8312271420227
 30
0.0
 10
201.3539945349721
 20
113.6750924971748
 30
0.0
 10
201.5580273268787
 20
113.3486426263383
 30
0.0
 10
201.6519037482245
 20
113.1784853566924
 30
0.0
 10
201.9009219236951
 20
112.660522106192
 30
0.0
 10
202.0268793868579
 20
112.3007293393378
 30
0.0
 10
202.1515801750492
 20
111.7376094539447
 30
0.0
 10
202.182456701844
 20
111.5443887041708
 30
0.0
 10
202.2200431740787
 20
111.1584450881896
 30
0.0
 10
202.22696881439
 20
110.9659672362589
 30
0.0
 10
202.2176697934399
 20
110.5819755582772
 30
0.0
 10
202.2014440933215
 20
110.3904617747296
 30
0.0
 10
202.145667146854
 20
110.0084044590177
 30
0.0
 10
202.1057032183333
 20
109.8166810427612
 30
0.0
 10
201.9536991433585
 20
109.2567863076133
 30
0.0
 10
201.810096025237
 20
108.9007819613305
 30
0.0
 10
201.535364550541
 20
108.3907586213572
 30
0.0
 10
201.4339129906408
 20
108.2252596771457
 30
0.0
 10
201.2162500066286
 20
107.9091147400815
 30
0.0
 10
201.0995458261193
 20
107.7575126427333
 30
0.0
 10
200.726901406014
 20
107.3210705368958
 30
0.0
 10
200.4457225182575
 20
107.0525757757967
 30
0.0
 10
199.8445781736011
 20
106.5782686103657
 30
0.0
 10
199.5237870384806
 20
106.3705445979682
 30
0.0
 10
198.8431373164477
 20
106.0108533563958
 30
0.0
 10
198.4856380958802
 20
105.8608409930867
 30
0.0
 10
197.756656940208
 20
105.6247773997844
 30
0.0
 10
197.3824607868395
 20
105.5372585208184
 30
0.0
 10
196.6141790400778
 20
105.4240738447908
 30
0.0
 10
196.2285904283289
 20
105.3998508980083
 30
0.0
 10
195.4611775055154
 20
105.4138834628082
 30
0.0
 10
195.0782626235811
 20
105.4519733647869
 30
0.0
 10
194.3140865750491
 20
105.593395992299
 30
0.0
 10
193.9435510809508
 20
105.6947730729899
 30
0.0
 10
193.2260706077106
 20
105.9573227675896
 30
0.0
 10
192.8786136488974
 20
106.1186525266374
 30
0.0
 10
192.2097160280782
 20
106.5060632475262
 30
0.0
 10
191.898319003141
 20
106.7262708231353
 30
0.0
 10
191.3217810777992
 20
107.2209072570185
 30
0.0
 10
191.0554912470553
 20
107.4966317038561
 30
0.0
 10
190.5801270528745
 20
108.1051488002956
 30
0.0
 10
190.3780546082376
 20
108.4285210185004
 30
0.0
 10
190.130275783488
 20
108.9437000426231
 30
0.0
 10
190.0569748423248
 20
109.1204834718183
 30
0.0
 10
189.9302765562627
 20
109.4849387245575
 30
0.0
 10
189.8768077396489
 20
109.6736524886141
 30
0.0
 10
189.7525946455576
 20
110.2397385057312
 30
0.0
 10
189.715504344827
 20
110.6218281404926
 30
0.0
 10
189.7300690514188
 20
111.2021958530013
 30
0.0
 10
189.7470123865747
 20
111.3979873992281
 30
0.0
 10
189.8038366208075
 20
111.7812718958273
 30
0.0
 10
189.8436105724764
 20
111.9698585075621
 30
0.0
 10
189.9957111416986
 20
112.5268269234375
 30
0.0
 10
190.1431010926945
 20
112.8903661671213
 30
0.0
 10
190.5097643759214
 20
113.5671651786512
 30
0.0
 10
190.728463203005
 20
113.8824998997137
 30
0.0
 10
191.2326634213796
 20
114.4702737081691
 30
0.0
 10
191.5129941423635
 20
114.7362750429656
 30
0.0
 10
191.8164690501912
 20
114.9742677474003
 30
0.0
  0
LINE
  5
CB
330
1F
100
AcDbEntity
  8
0
  6
Continuous
 62
     7
370
    15
100
AcDbLine
 10
207.6237159323
 20
110.8892643851
 30
0.0
 11
207.6237159323
 21
90.8892648321
 31
0.0
  0
LINE
  5
CC
330
1F
100
AcDbEntity
  8
0
  6
Continuous
 62
     7
370
    15
100
AcDbLine
 10
207.6237159323
 20
130.889263938
 30
0.0
 11
207.6237159323
 21
110.8892643851
 31
0.0
  0
LINE
  5
CD
330
1F
100
AcDbEntity
  8
0
  6
Continuous
 62
     7
370
    15
100
AcDbLine
 10
208.0237152528
 20
110.8892643851
 30
0.0
 11
208.0237152528
 21
91.2892641526
 31
0.0
  0
LINE
  5
CE
330
1F
100
AcDbEntity
  8
0
  6
Continuous
 62
     7
370
    15
100
AcDbLine
 10
208.0237152528
 20
130.4892646175
 30
0.0
 11
208.0237152528
 21
110.8892643851
 31
0.0
  0
LINE
  5
CF
330
1F
100
AcDbEntity
  8
0
  6
Continuous
 62
     7
370
    15
100
AcDbLine
 10
174.2337154698
 20
137.7071226042
 30
0.0
 11
172.0137153294
 21
137.7071226042
 31
0.0
  0
LINE
  5
D0
330
1F
100
AcDbEntity
  8
0
  6
Continuous
 62
     7
370
    15
100
AcDbLine
 10
172.0137153294
 20
132.0382012081
 30
0.0
 11
174.2337154698
 21
132.0382012081
 31
0.0
  0
SPLINE
  5
D1
330
1F
100
AcDbEntity
  8
0
  6
Continuous
 62
     7
370
    15
100
AcDbSpline
210
0.0
220
0.0
230
1.0
 70
     8
 71
     3
 72
     8
 73
     4
 74
     0
 42
0.000000001
 43
0.00000001
 40
0.0
 40
0.0
 40
0.0
 40
0.0
 40
1.0
 40
1.0
 40
1.0
 40
1.0
 10
176.0876698496799
 20
140.601802541336
 30
0.0
 10
175.7357258267717
 20
139.9702411533221
 30
0.0
 10
175.3843674037115
 20
139.3383592536233
 30
0.0
 10
175.0337151633839
 20
138.7060908445729
 30
0.0
  0
SPLINE
  5
D2
330
1F
100
AcDbEntity
  8
0
  6
Continuous
 62
     7
370
    15
100
AcDbSpline
210
0.0
220
0.0
230
1.0
 70
     8
 71
     3
 72
     8
 73
     4
 74
     0
 42
0.000000001
 43
0.00000001
 40
0.0
 40
0.0
 40
0.0
 40
0.0
 40
0.0012409313617635
 40
0.0012409313617635
 40
0.0012409313617635
 40
0.0012409313617635
 10
176.6455518054406
 20
141.385600464287
 30
0.0
 10
176.4588788772084
 20
141.1245885865884
 30
0.0
 10
176.2728936892359
 20
140.8633300848131
 30
0.0
 10
176.0876698496799
 20
140.601802541336
 30
0.0
  0
LINE
  5
D3
330
1F
100
AcDbEntity
  8
0
  6
Continuous
 62
     7
370
    15
100
AcDbLine
 10
176.645552228
 20
136.7994947385
 30
0.0
 11
176.645552228
 21
141.3856009048
 31
0.0
  0
SPLINE
  5
D4
330
1F
100
AcDbEntity
  8
0
  6
Continuous
 62
     7
370
    15
100
AcDbSpline
210
0.0
220
0.0
230
1.0
 70
     8
 71
     3
 72
     8
 73
     4
 74
     0
 42
0.000000001
 43
0.00000001
 40
0.0
 40
0.0
 40
0.0
 40
0.0
 40
1.0
 40
1.0
 40
1.0
 40
1.0
 10
175.0337151633839
 20
133.2914034409299
 30
0.0
 10
175.5585062828798
 20
134.4663806286347
 30
0.0
 10
176.0970225340627
 20
135.6352797963728
 30
0.0
 10
176.6455518054406
 20
136.799494025119
 30
0.0
  0
LINE
  5
D5
330
1F
100
AcDbEntity
  8
0
  6
Continuous
 62
     7
370
    15
100
AcDbLine
 10
175.0337150421
 20
133.2914037656
 30
0.0
 11
175.0337150421
 21
138.7060908627
 31
0.0
  0
LINE
  5
D6
330
1F
100
AcDbEntity
  8
0
  6
Continuous
 62
     7
370
    15
100
AcDbLine
 10
180.4737145554
 20
141.3856009048
 30
0.0
 11
176.645552228
 21
141.3856009048
 31
0.0
  0
LINE
  5
D7
330
1F
100
AcDbEntity
  8
0
  6
Continuous
 62
     7
370
    15
100
AcDbLine
 10
176.645552228
 20
136.7994947385
 30
0.0
 11
180.4737145554
 21
136.7994947385
 31
0.0
  0
SPLINE
  5
D8
330
1F
100
AcDbEntity
  8
0
  6
Continuous
 62
     7
370
    15
100
AcDbSpline
210
0.0
220
0.0
230
1.0
 70
     8
 71
     3
 72
    12
 73
     8
 74
     0
 42
0.000000001
 43
0.00000001
 40
0.0
 40
0.0
 40
0.0
 40
0.0
 40
0.5
 40
0.5
 40
0.75
 40
0.75
 40
1.0
 40
1.0
 40
1.0
 40
1.0
 10
165.2237151633839
 20
136.060676741155
 30
0.0
 10
165.2237151633839
 20
136.2354369164892
 30
0.0
 10
165.2736353647022
 20
136.4131420202745
 30
0.0
 10
165.428977262614
 20
136.6258987621198
 30
0.0
 10
165.4948279611382
 20
136.6876921348448
 30
0.0
 10
165.6472740289767
 20
136.7744987225258
 30
0.0
 10
165.7362841290963
 20
136.7994940251191
 30
0.0
 10
165.8237151633839
 20
136.7994940251191
 30
0.0
  0
LINE
  5
D9
330
1F
100
AcDbEntity
  8
0
  6
Continuous
 62
     7
370
    15
100
AcDbLine
 10
165.8237152275
 20
136.7994947385
 30
0.0
 11
169.6018785711
 21
136.7994947385
 31
0.0
  0
SPLINE
  5
DA
330
1F
100
AcDbEntity
  8
0
  6
Continuous
 62
     7
370
    15
100
AcDbSpline
210
0.0
220
0.0
230
1.0
 70
     8
 71
     3
 72
     8
 73
     4
 74
     0
 42
0.000000001
 43
0.00000001
 40
0.0
 40
0.0
 40
0.0
 40
0.0
 40
1.0
 40
1.0
 40
1.0
 40
1.0
 10
169.6018785213272
 20
136.799494025119
 30
0.0
 10
170.1508232995241
 20
135.6343979128053
 30
0.0
 10
170.6894336740408
 20
134.4652395959808
 30
0.0
 10
171.2137151633839
 20
133.2914034409299
 30
0.0
  0
LINE
  5
DB
330
1F
100
AcDbEntity
  8
0
  6
Continuous
 62
     7
370
    15
100
AcDbLine
 10
171.2137148257
 20
133.2914037656
 30
0.0
 11
171.2137148257
 21
133.0865053486
 31
0.0
  0
SPLINE
  5
DC
330
1F
100
AcDbEntity
  8
0
  6
Continuous
 62
     7
370
    15
100
AcDbSpline
210
0.0
220
0.0
230
1.0
 70
     8
 71
     3
 72
    14
 73
    10
 74
     0
 42
0.000000001
 43
0.00000001
 40
0.0
 40
0.0
 40
0.0
 40
0.0
 40
0.25
 40
0.25
 40
0.5
 40
0.5
 40
0.75
 40
0.75
 40
1.0
 40
1.0
 40
1.0
 40
1.0
 10
171.2137151633839
 20
133.0865052045967
 30
0.0
 10
171.2137151633839
 20
132.9656131465083
 30
0.0
 10
171.2302106357771
 20
132.8431478714203
 30
0.0
 10
171.295442702499
 20
132.6113267278686
 30
0.0
 10
171.3450605369177
 20
132.4983528525611
 30
0.0
 10
171.4797013729215
 20
132.2966473826856
 30
0.0
 10
171.5660232380691
 20
132.2065155356076
 30
0.0
 10
171.7712108911711
 20
132.0768946572269
 30
0.0
 10
171.8911789137861
 20
132.0382005285279
 30
0.0
 10
172.0137151633839
 20
132.0382005285279
 30
0.0
  0
SPLINE
  5
DD
330
1F
100
AcDbEntity
  8
0
  6
Continuous
 62
     7
370
    15
100
AcDbSpline
210
0.0
220
0.0
230
1.0
 70
     8
 71
     3
 72
    12
 73
     8
 74
     0
 42
0.000000001
 43
0.00000001
 40
0.0
 40
0.0
 40
0.0
 40
0.0
 40
0.2500000000000015
 40
0.2500000000000015
 40
0.500000000000003
 40
0.500000000000003
 40
1.0
 40
1.0
 40
1.0
 40
1.0
 10
174.2337151633839
 20
132.0382005285279
 30
0.0
 10
174.3557971608722
 20
132.0382005285279
 30
0.0
 10
174.4763877033579
 20
132.0769268847016
 30
0.0
 10
174.6818829870577
 20
132.2068904724479
 30
0.0
 10
174.7673994700102
 20
132.2960967089946
 30
0.0
 10
174.9707938215544
 20
132.6009732465403
 30
0.0
 10
175.0337151633839
 20
132.8437438606423
 30
0.0
 10
175.0337151633839
 20
133.0865052045967
 30
0.0
  0
LINE
  5
DE
330
1F
100
AcDbEntity
  8
0
  6
Continuous
 62
     7
370
    15
100
AcDbLine
 10
175.0337150421
 20
133.0865053486
 30
0.0
 11
175.0337150421
 21
133.2914037656
 31
0.0
  0
SPLINE
  5
DF
330
1F
100
AcDbEntity
  8
0
  6
Continuous
 62
     7
370
    15
100
AcDbSpline
210
0.0
220
0.0
230
1.0
 70
     8
 71
     3
 72
    14
 73
    10
 74
     0
 42
0.000000001
 43
0.00000001
 40
0.0
 40
0.0
 40
0.0
 40
0.0
 40
0.25
 40
0.25
 40
0.5
 40
0.5
 40
0.75
 40
0.75
 40
1.0
 40
1.0
 40
1.0
 40
1.0
 10
180.4737151633839
 20
136.799494025119
 30
0.0
 10
180.5621377015064
 20
136.799494025119
 30
0.0
 10
180.6501916911994
 20
136.7744216746596
 30
0.0
 10
180.8020214550708
 20
136.6880796096883
 30
0.0
 10
180.8678643996346
 20
136.6265363551754
 30
0.0
 10
180.9716634601801
 20
136.4847086089245
 30
0.0
 10
181.0101355696548
 20
136.4046600189544
 30
0.0
 10
181.0613582329293
 20
136.2356475222807
 30
0.0
 10
181.0737151633839
 20
136.1488682154111
 30
0.0
 10
181.0737151633839
 20
136.060676741155
 30
0.0
  0
LINE
  5
E0
330
1F
100
AcDbEntity
  8
0
  6
Continuous
 62
     7
370
    15
100
AcDbLine
 10
165.2237150825
 20
136.0606765401
 30
0.0
 11
165.2237150825
 21
129.239263947
 31
0.0
  0
LINE
  5
E1
330
1F
100
AcDbEntity
  8
0
  6
Continuous
 62
     7
370
    15
100
AcDbLine
 10
181.0737153988
 20
136.0606765401
 30
0.0
 11
181.0737153988
 21
129.239263947
 31
0.0
  0
SPLINE
  5
E2
330
1F
100
AcDbEntity
  8
0
  6
Continuous
 62
     7
370
    15
100
AcDbSpline
210
0.0
220
0.0
230
1.0
 70
     8
 71
     3
 72
    12
 73
     8
 74
     0
 42
0.000000001
 43
0.00000001
 40
0.0
 40
0.0
 40
0.0
 40
0.0
 40
0.5
 40
0.5
 40
0.75
 40
0.75
 40
1.0
 40
1.0
 40
1.0
 40
1.0
 10
175.0337151633839
 20
138.5413438728785
 30
0.0
 10
175.0337151633839
 20
138.328206471227
 30
0.0
 10
174.951072748236
 20
138.1132269464893
 30
0.0
 10
174.7324893374256
 20
137.8803078776035
 30
0.0
 10
174.6433993844449
 20
137.816440967783
 30
0.0
 10
174.4479940665474
 20
137.7300548134013
 30
0.0
 10
174.341470019604
 20
137.7071222413582
 30
0.0
 10
174.2337151633839
 20
137.7071222413582
 30
0.0
  0
SPLINE
  5
E3
330
1F
100
AcDbEntity
  8
0
  6
Continuous
 62
     7
370
    15
100
AcDbSpline
210
0.0
220
0.0
230
1.0
 70
     8
 71
     3
 72
    12
 73
     8
 74
     0
 42
0.000000001
 43
0.00000001
 40
0.0
 40
0.0
 40
0.0
 40
0.0
 40
0.4999999999999987
 40
0.4999999999999987
 40
0.7499999999999993
 40
0.7499999999999993
 40
1.0
 40
1.0
 40
1.0
 40
1.0
 10
181.0737151633839
 20
140.8998155185126
 30
0.0
 10
181.0737151633839
 20
141.0201425515657
 30
0.0
 10
181.0199203517909
 20
141.1382401250475
 30
0.0
 10
180.8589967818247
 20
141.2778828674865
 30
0.0
 10
180.7942453207221
 20
141.316158820881
 30
0.0
 10
180.6420251374044
 20
141.3709986505154
 30
0.0
 10
180.5592176218795
 20
141.385600464287
 30
0.0
 10
180.4737151633839
 20
141.385600464287
 30
0.0
  0
LINE
  5
E4
330
1F
100
AcDbEntity
  8
0
  6
Continuous
 62
     7
370
    15
100
AcDbLine
 10
181.0737153988
 20
136.0606765401
 30
0.0
 11
181.0737153988
 21
140.8998155993
 31
0.0
  0
SPLINE
  5
E5
330
1F
100
AcDbEntity
  8
0
  6
Continuous
 62
     7
370
    15
100
AcDbSpline
210
0.0
220
0.0
230
1.0
 70
     8
 71
     3
 72
     8
 73
     4
 74
     0
 42
0.000000001
 43
0.00000001
 40
0.0
 40
0.0
 40
0.0
 40
0.0
 40
0.0012409313617635
 40
0.0012409313617635
 40
0.0012409313617635
 40
0.0012409313617635
 10
170.1597604770879
 20
140.601802541336
 30
0.0
 10
169.9745366375319
 20
140.8633300848131
 30
0.0
 10
169.7885514495594
 20
141.1245885865884
 30
0.0
 10
169.6018785213272
 20
141.385600464287
 30
0.0
  0
SPLINE
  5
E6
330
1F
100
AcDbEntity
  8
0
  6
Continuous
 62
     7
370
    15
100
AcDbSpline
210
0.0
220
0.0
230
1.0
 70
     8
 71
     3
 72
     8
 73
     4
 74
     0
 42
0.000000001
 43
0.00000001
 40
0.0
 40
0.0
 40
0.0
 40
0.0
 40
1.0
 40
1.0
 40
1.0
 40
1.0
 10
171.2137151633839
 20
138.7060908445729
 30
0.0
 10
170.8630629230564
 20
139.3383592536233
 30
0.0
 10
170.5117044999961
 20
139.9702411533221
 30
0.0
 10
170.1597604770879
 20
140.601802541336
 30
0.0
  0
LINE
  5
E7
330
1F
100
AcDbEntity
  8
0
  6
Continuous
 62
     7
370
    15
100
AcDbLine
 10
171.2137148257
 20
133.2914037656
 30
0.0
 11
171.2137148257
 21
138.7060908627
 31
0.0
  0
LINE
  5
E8
330
1F
100
AcDbEntity
  8
0
  6
Continuous
 62
     7
370
    15
100
AcDbLine
 10
169.6018785711
 20
136.7994947385
 30
0.0
 11
169.6018785711
 21
141.3856009048
 31
0.0
  0
SPLINE
  5
E9
330
1F
100
AcDbEntity
  8
0
  6
Continuous
 62
     7
370
    15
100
AcDbSpline
210
0.0
220
0.0
230
1.0
 70
     8
 71
     3
 72
    10
 73
     6
 74
     0
 42
0.000000001
 43
0.00000001
 40
0.0
 40
0.0
 40
0.0
 40
0.0
 40
0.5
 40
0.5
 40
1.0
 40
1.0
 40
1.0
 40
1.0
 10
165.5109567646915
 20
141.3145609400284
 30
0.0
 10
165.435117170688
 20
141.2445117536998
 30
0.0
 10
165.367793652962
 20
141.1592929801261
 30
0.0
 10
165.2611500146569
 20
140.9490668534643
 30
0.0
 10
165.2237151633839
 20
140.825557662597
 30
0.0
 10
165.2237151633839
 20
140.6956395420743
 30
0.0
  0
SPLINE
  5
EA
330
1F
100
AcDbEntity
  8
0
  6
Continuous
 62
     7
370
    15
100
AcDbSpline
210
0.0
220
0.0
230
1.0
 70
     8
 71
     3
 72
     8
 73
     4
 74
     0
 42
0.000000001
 43
0.00000001
 40
0.0
 40
0.0
 40
0.0
 40
0.0
 40
1.0
 40
1.0
 40
1.0
 40
1.0
 10
165.8237151633839
 20
141.385600464287
 30
0.0
 10
165.7115369092043
 20
141.385600464287
 30
0.0
 10
165.6028673964758
 20
141.359919399026
 30
0.0
 10
165.5109567646915
 20
141.3145609400284
 30
0.0
  0
LINE
  5
EB
330
1F
100
AcDbEntity
  8
0
  6
Continuous
 62
     7
370
    15
100
AcDbLine
 10
165.2237150825
 20
136.0606765401
 30
0.0
 11
165.2237150825
 21
140.6956398886
 31
0.0
  0
LINE
  5
EC
330
1F
100
AcDbEntity
  8
0
  6
Continuous
 62
     7
370
    15
100
AcDbLine
 10
169.6018785711
 20
141.3856009048
 30
0.0
 11
165.8237152275
 21
141.3856009048
 31
0.0
  0
SPLINE
  5
ED
330
1F
100
AcDbEntity
  8
0
  6
Continuous
 62
     7
370
    15
100
AcDbSpline
210
0.0
220
0.0
230
1.0
 70
     8
 71
     3
 72
    12
 73
     8
 74
     0
 42
0.000000001
 43
0.00000001
 40
0.0
 40
0.0
 40
0.0
 40
0.0
 40
0.25
 40
0.25
 40
0.5
 40
0.5
 40
1.0
 40
1.0
 40
1.0
 40
1.0
 10
172.0137151633839
 20
137.7071222413582
 30
0.0
 10
171.9072369509059
 20
137.7071222413582
 30
0.0
 10
171.8002310024473
 20
137.7297714389677
 30
0.0
 10
171.6040643833551
 20
137.8163584995399
 30
0.0
 10
171.5155956978002
 20
137.8796029479267
 30
0.0
 10
171.2949700843173
 20
138.1147200076598
 30
0.0
 10
171.2137151633839
 20
138.328487839752
 30
0.0
 10
171.2137151633839
 20
138.5413438728785
 30
0.0
  0
LINE
  5
EE
330
1F
100
AcDbEntity
  8
0
  6
Continuous
 62
     7
370
    15
100
AcDbLine
 10
93.7737146865
 20
99.4821339872
 30
0.0
 11
93.7737146865
 21
122.2963947829
 31
0.0
  0
ARC
  5
EF
330
1F
100
AcDbEntity
  8
0
  6
Continuous
 62
     7
370
    15
100
AcDbCircle
 10
174.9087024108
 20
101.6541464009
 30
0.0
 40
1.887488618175406
100
AcDbArc
 50
185.4102956623
 51
252.4538806135
  0
ARC
  5
F0
330
1F
100
AcDbEntity
  8
0
  6
Continuous
 62
     7
370
    15
100
AcDbCircle
 10
175.0304071396
 20
101.7733172745
 30
0.0
 40
2.039380001474854
100
AcDbArc
 50
250.2024793675
 51
332.0819155772
  0
ARC
  5
F1
330
1F
100
AcDbEntity
  8
0
  6
Continuous
 62
     7
370
    15
100
AcDbCircle
 10
174.8905777553
 20
101.5915696971
 30
0.0
 40
1.760526294542619
100
AcDbArc
 50
161.381556313
 51
252.9328448109
  0
ARC
  5
F2
330
1F
100
AcDbEntity
  8
0
  6
Continuous
 62
     7
370
    15
100
AcDbCircle
 10
175.0319826915
 20
101.7217668529
 30
0.0
 40
1.928929760653026
100
AcDbArc
 50
250.051416328
 51
335.5004191181
  0
ARC
  5
F3
330
1F
100
AcDbEntity
  8
0
  6
Continuous
 62
     7
370
    15
100
AcDbCircle
 10
174.9451207356
 20
101.5950160343
 30
0.0
 40
1.402228202451716
100
AcDbArc
 50
87.388324733
 51
251.951738064
  0
ARC
  5
F4
330
1F
100
AcDbEntity
  8
0
  6
Continuous
 62
     7
370
    15
100
AcDbCircle
 10
175.0355243837
 20
101.6658743351
 30
0.0
 40
1.49897564484451
100
AcDbArc
 50
249.504617996
 51
349.6008519217
  0
LINE
  5
F5
330
1F
100
AcDbEntity
  8
0
  6
HIDDEN
 62
     7
370
     0
100
AcDbLine
 10
197.7540808272
 20
130.1892651271
 30
0.0
 11
200.9737151217
 21
130.1892651271
 31
0.0
  0
LINE
  5
F6
330
1F
100
AcDbEntity
  8
0
  6
HIDDEN
 62
     7
370
     0
100
AcDbLine
 10
190.9737153452
 20
130.1892651271
 30
0.0
 11
194.2357453059
 21
130.1892651271
 31
0.0
  0
LINE
  5
F7
330
1F
100
AcDbEntity
  8
0
  6
HIDDEN
 62
     7
370
     0
100
AcDbLine
 10
195.0426655363
 20
123.6667633083
 30
0.0
 11
200.9737151217
 21
123.6667633083
 31
0.0
  0
LINE
  5
F8
330
1F
100
AcDbEntity
  8
0
  6
HIDDEN
 62
     7
370
     0
100
AcDbLine
 10
190.9737153452
 20
123.6667633083
 30
0.0
 11
195.0426655363
 21
123.6667633083
 31
0.0
  0
LINE
  5
F9
330
1F
100
AcDbEntity
  8
0
  6
HIDDEN
 62
     7
370
     0
100
AcDbLine
 10
195.4486402225
 20
116.3892643553
 30
0.0
 11
198.7935187768
 21
116.3892643553
 31
0.0
  0
LINE
  5
FA
330
1F
100
AcDbEntity
  8
0
  6
HIDDEN
 62
     7
370
     0
100
AcDbLine
 10
193.1539135527
 20
116.3892643553
 30
0.0
 11
195.4486402225
 21
116.3892643553
 31
0.0
  0
SPLINE
  5
FB
330
1F
100
AcDbEntity
  8
0
  6
HIDDEN
 62
     7
370
     0
100
AcDbSpline
210
0.0
220
0.0
230
1.0
 70
     8
 71
     3
 72
    11
 73
     7
 74
     0
 42
0.000000001
 43
0.00000001
 40
0.0
 40
0.0
 40
0.0
 40
0.0
 40
0.2164538273385247
 40
0.4403089262535011
 40
0.7518988724396228
 40
1.0
 40
1.0
 40
1.0
 40
1.0
 10
196.9263213228325
 20
130.7760151129633
 30
0.0
 10
197.0553522285364
 20
130.6854675137223
 30
0.0
 10
197.3178260329618
 20
130.5012761936293
 30
0.0
 10
197.8049118782152
 20
130.3477499412177
 30
0.0
 10
198.3273999255469
 20
130.440310083543
 30
0.0
 10
198.6617608437751
 20
130.6729084028563
 30
0.0
 10
198.8099771093468
 20
130.7760151129633
 30
0.0
  0
SPLINE
  5
FC
330
1F
100
AcDbEntity
  8
0
  6
HIDDEN
 62
     7
370
     0
100
AcDbSpline
210
0.0
220
0.0
230
1.0
 70
     8
 71
     3
 72
    11
 73
     7
 74
     0
 42
0.000000001
 43
0.00000001
 40
0.0
 40
0.0
 40
0.0
 40
0.0
 40
0.2164541166010841
 40
0.4403090145766981
 40
0.7518988148582153
 40
1.0
 40
1.0
 40
1.0
 40
1.0
 10
198.8099771093468
 20
130.7760151129633
 30
0.0
 10
198.7447234489587
 20
130.6854675373315
 30
0.0
 10
198.6119850406798
 20
130.5012764744643
 30
0.0
 10
198.3656539732779
 20
130.3477498376357
 30
0.0
 10
198.1014209072094
 20
130.4403102088492
 30
0.0
 10
197.9323279082597
 20
130.6729084134884
 30
0.0
 10
197.8573719512563
 20
130.7760151129634
 30
0.0
  0
SPLINE
  5
FD
330
1F
100
AcDbEntity
  8
0
  6
HIDDEN
 62
     7
370
     0
100
AcDbSpline
210
0.0
220
0.0
230
1.0
 70
     8
 71
     3
 72
    11
 73
     7
 74
     0
 42
0.000000001
 43
0.00000001
 40
0.0
 40
0.0
 40
0.0
 40
0.0
 40
0.1849312052564768
 40
0.5198463653792135
 40
0.871443024352598
 40
1.0
 40
1.0
 40
1.0
 40
1.0
 10
197.8573719512563
 20
130.7760151129634
 30
0.0
 10
197.6922869040114
 20
130.6980108154488
 30
0.0
 10
197.2282285982774
 20
130.4787387326724
 30
0.0
 10
196.3619779972741
 20
130.3167318260496
 30
0.0
 10
195.5619595194773
 20
130.5151172429094
 30
0.0
 10
195.1353328703872
 20
130.7209146422944
 30
0.0
 10
195.0211072813611
 20
130.7760151129633
 30
0.0
  0
SPLINE
  5
FE
330
1F
100
AcDbEntity
  8
0
  6
HIDDEN
 62
     7
370
     0
100
AcDbSpline
210
0.0
220
0.0
230
1.0
 70
     8
 71
     3
 72
    11
 73
     7
 74
     0
 42
0.000000001
 43
0.00000001
 40
0.0
 40
0.0
 40
0.0
 40
0.0
 40
0.2164539199558505
 40
0.4403091146550451
 40
0.7518983910021592
 40
1.0
 40
1.0
 40
1.0
 40
1.0
 10
195.0211072813611
 20
130.7760151129633
 30
0.0
 10
194.8920764193236
 20
130.6854675252712
 30
0.0
 10
194.6296027037239
 20
130.5012762286708
 30
0.0
 10
194.1425166047846
 20
130.3477499355506
 30
0.0
 10
193.6200326731987
 20
130.440310655667
 30
0.0
 10
193.2856705116923
 20
130.6729084159016
 30
0.0
 10
193.1374533574919
 20
130.7760151129633
 30
0.0
  0
SPLINE
  5
FF
330
1F
100
AcDbEntity
  8
0
  6
HIDDEN
 62
     7
370
     0
100
AcDbSpline
210
0.0
220
0.0
230
1.0
 70
     8
 71
     3
 72
    11
 73
     7
 74
     0
 42
0.000000001
 43
0.00000001
 40
0.0
 40
0.0
 40
0.0
 40
0.0
 40
0.2164542691561298
 40
0.4403087287890945
 40
0.7518984768579118
 40
1.0
 40
1.0
 40
1.0
 40
1.0
 10
193.1374533574919
 20
130.7760151129633
 30
0.0
 10
193.2027081115613
 20
130.6854675642207
 30
0.0
 10
193.3354485648855
 20
130.5012768054184
 30
0.0
 10
193.5817730978066
 20
130.3477496512214
 30
0.0
 10
193.8460070602019
 20
130.4403104788136
 30
0.0
 10
194.0151030372445
 20
130.6729084355572
 30
0.0
 10
194.0900603782277
 20
130.7760151129633
 30
0.0
  0
SPLINE
  5
100
330
1F
100
AcDbEntity
  8
0
  6
HIDDEN
 62
     7
370
     0
100
AcDbSpline
210
0.0
220
0.0
230
1.0
 70
     8
 71
     3
 72
    11
 73
     7
 74
     0
 42
0.000000001
 43
0.00000001
 40
0.0
 40
0.0
 40
0.0
 40
0.0
 40
0.1285559975261052
 40
0.480153032159253
 40
0.8150697379164611
 40
1.0
 40
1.0
 40
1.0
 40
1.0
 10
194.0900603782277
 20
130.7760151129633
 30
0.0
 10
194.2042847094345
 20
130.7209145936949
 30
0.0
 10
194.6309093712997
 20
130.5151157051995
 30
0.0
 10
195.4309285093368
 20
130.3167326529616
 30
0.0
 10
196.2971798704185
 20
130.4787371257303
 30
0.0
 10
196.7612375364352
 20
130.698010753917
 30
0.0
 10
196.9263213228326
 20
130.7760151129634
 30
0.0
  0
LINE
  5
101
330
1F
100
AcDbEntity
  8
0
  6
HIDDEN
 62
     7
370
     0
100
AcDbLine
 10
195.5081889879
 20
122.8892644894
 30
0.0
 11
198.4737137806
 21
122.8892644894
 31
0.0
  0
LINE
  5
102
330
1F
100
AcDbEntity
  8
0
  6
HIDDEN
 62
     7
370
     0
100
AcDbLine
 10
193.4737148236
 20
122.8892644894
 30
0.0
 11
195.5081889879
 21
122.8892644894
 31
0.0
  0
LINE
  5
103
330
1F
100
AcDbEntity
  8
0
  6
HIDDEN
 62
     7
370
     0
100
AcDbLine
 10
197.8681492161
 20
123.8892646533
 30
0.0
 11
196.9263213228
 21
123.8892646533
 31
0.0
  0
LINE
  5
104
330
1F
100
AcDbEntity
  8
0
  6
HIDDEN
 62
     7
370
     0
100
AcDbLine
 10
196.9263213228
 20
123.8892646533
 30
0.0
 11
195.5081889879
 21
123.8892646533
 31
0.0
  0
LINE
  5
105
330
1F
100
AcDbEntity
  8
0
  6
HIDDEN
 62
     7
370
     0
100
AcDbLine
 10
196.9263213228
 20
123.8892646533
 30
0.0
 11
196.9263213228
 21
130.776015113
 31
0.0
  0
LINE
  5
106
330
1F
100
AcDbEntity
  8
0
  6
HIDDEN
 62
     7
370
     0
100
AcDbLine
 10
195.5081889879
 20
123.8892646533
 30
0.0
 11
194.0900603782
 21
123.8892646533
 31
0.0
  0
LINE
  5
107
330
1F
100
AcDbEntity
  8
0
  6
HIDDEN
 62
     7
370
     0
100
AcDbLine
 10
194.0900603782
 20
123.8892646533
 30
0.0
 11
193.6137559365
 21
123.8892646533
 31
0.0
  0
LINE
  5
108
330
1F
100
AcDbEntity
  8
0
  6
HIDDEN
 62
     7
370
     0
100
AcDbLine
 10
194.0900603782
 20
123.8892646533
 30
0.0
 11
194.0900603782
 21
130.776015113
 31
0.0
  0
LINE
  5
109
330
1F
100
AcDbEntity
  8
0
  6
HIDDEN
 62
     7
370
     0
100
AcDbLine
 10
198.8099771093
 20
123.8892646533
 30
0.0
 11
197.8681492161
 21
123.8892646533
 31
0.0
  0
LINE
  5
10A
330
1F
100
AcDbEntity
  8
0
  6
HIDDEN
 62
     7
370
     0
100
AcDbLine
 10
193.6137559365
 20
123.8892646533
 30
0.0
 11
193.1374533575
 21
123.8892646533
 31
0.0
  0
LINE
  5
10B
330
1F
100
AcDbEntity
  8
0
  6
HIDDEN
 62
     7
370
     0
100
AcDbLine
 10
197.8573719513
 20
123.8892646533
 30
0.0
 11
197.8573719513
 21
130.776015113
 31
0.0
  0
LINE
  5
10C
330
1F
100
AcDbEntity
  8
0
  6
HIDDEN
 62
     7
370
     0
100
AcDbLine
 10
198.8099771093
 20
123.8892646533
 30
0.0
 11
198.8099771093
 21
130.776015113
 31
0.0
  0
LINE
  5
10D
330
1F
100
AcDbEntity
  8
0
  6
HIDDEN
 62
     7
370
     0
100
AcDbLine
 10
195.0211072814
 20
123.8892646533
 30
0.0
 11
195.0211072814
 21
130.776015113
 31
0.0
  0
LINE
  5
10E
330
1F
100
AcDbEntity
  8
0
  6
HIDDEN
 62
     7
370
     0
100
AcDbLine
 10
193.1374533575
 20
123.8892646533
 30
0.0
 11
193.1374533575
 21
130.776015113
 31
0.0
  0
SPLINE
  5
10F
330
1F
100
AcDbEntity
  8
0
  6
HIDDEN
 62
     7
370
     0
100
AcDbSpline
210
0.0
220
0.0
230
1.0
 70
     8
 71
     3
 72
     9
 73
     5
 74
     0
 42
0.000000001
 43
0.00000001
 40
0.0
 40
0.0
 40
0.0
 40
0.0
 40
0.9333113421934416
 40
1.0
 40
1.0
 40
1.0
 40
1.0
 10
173.0478242512683
 20
103.1427253064186
 30
0.0
 10
173.0332484327195
 20
103.0417552183589
 30
0.0
 10
173.0176311163003
 20
102.9335704321091
 30
0.0
 10
173.0246609711834
 20
102.8410879351343
 30
0.0
 10
173.0251297827701
 20
102.8349204015404
 30
0.0
  0
LWPOLYLINE
  5
110
330
1F
100
AcDbEntity
  8
0
  6
HIDDEN
 62
     7
370
     0
100
AcDbPolyline
 90
       23
 70
   128
 43
0.0
 10
173.0478242513
 20
102.5608563822
 10
173.2032061096
 20
102.073634046
 10
173.4919291463
 20
101.6434067887
 10
173.8928467508
 20
101.3016868409
 10
174.3765933912
 20
101.0735025656
 10
174.9077387627
 20
100.9755684089
 10
175.4473787274
 20
101.0150564861
 10
175.9559870239
 20
101.1890741092
 10
176.3963126119
 20
101.48487706
 10
176.7361028593
 20
101.880798119
 10
176.9504709642
 20
102.347838695
 10
177.0237148281
 20
102.85179131
 10
176.9504709642
 20
103.3557434593
 10
176.7361028593
 20
103.8227840353
 10
176.3963126119
 20
104.2187050943
 10
175.9559870239
 20
104.5145075795
 10
175.4473787274
 20
104.6885256682
 10
174.9077387627
 20
104.7280137454
 10
174.3765933912
 20
104.630079123
 10
173.8928467508
 20
104.4018953134
 10
173.4919291463
 20
104.0601753656
 10
173.2032061096
 20
103.6299481083
 10
173.0478242513
 20
103.1427253064
  0
LWPOLYLINE
  5
111
330
1F
100
AcDbEntity
  8
0
  6
HIDDEN
 62
     7
370
     0
100
AcDbPolyline
 90
       24
 70
   128
 43
0.0
 10
165.4739267666
 20
101.9910797503
 10
165.6095820486
 20
101.4355160322
 10
165.8207855195
 20
100.9211549562
 10
166.0918732647
 20
100.4861462888
 10
166.4027394269
 20
100.162751044
 10
166.7303288828
 20
99.9749545034
 10
167.0503462206
 20
99.9366855275
 10
167.3390566844
 20
100.0507809248
 10
167.5750477712
 20
100.3087796297
 10
167.7408176016
 20
100.6915466886
 10
167.8240717862
 20
101.1706944582
 10
167.8186351906
 20
101.7106864628
 10
167.7249115433
 20
102.2714730379
 10
167.5498517703
 20
102.8114650425
 10
167.3064389739
 20
103.290612812
 10
167.0127263766
 20
103.6733798709
 10
166.6904971477
 20
103.9313785758
 10
166.3636494901
 20
104.0454739731
 10
166.0564243335
 20
104.0072045315
 10
165.7916067175
 20
103.8194084567
 10
165.5888375368
 20
103.4960136775
 10
165.4631550897
 20
103.0610045445
 10
165.4238805182
 20
102.5466443997
 10
165.4739267666
 20
101.9910797503
  0
LWPOLYLINE
  5
112
330
1F
100
AcDbEntity
  8
0
  6
HIDDEN
 62
     7
370
     0
100
AcDbPolyline
 90
       22
 70
   128
 43
0.0
 10
165.8554425936
 20
102.0232103792
 10
165.9754388507
 20
101.5463145476
 10
166.1653592724
 20
101.1117929619
 10
166.4083287593
 20
100.758255462
 10
166.6827583227
 20
100.5171136957
 10
166.9642636094
 20
100.4097955328
 10
167.2278316233
 20
100.4458367851
 10
167.450043327
 20
100.6220346343
 10
167.6111542161
 20
100.9227326166
 10
167.6968484659
 20
101.32121295
 10
167.6995125141
 20
101.7820695442
 10
167.6189093392
 20
102.2643521455
 10
167.4622008119
 20
102.7252078083
 10
167.2433111358
 20
103.1236886073
 10
166.9816895861
 20
103.4243865896
 10
166.7005824398
 20
103.6005844389
 10
166.4249673027
 20
103.6366252255
 10
166.1793337677
 20
103.5293075283
 10
165.9855078448
 20
103.2881662276
 10
165.8607113182
 20
102.9346277964
 10
165.8160329804
 20
102.5001062107
 10
165.8554425936
 20
102.0232103792
  0
ELLIPSE
  5
113
330
1F
100
AcDbEntity
  8
0
  6
HIDDEN
 62
     7
370
     0
100
AcDbEllipse
 10
175.0237151634
 20
104.0016743245
 30
0.0
 11
1.383467579512143
 21
-1.091267719176599
 31
0.0
210
0.0
220
0.0
230
1.0
 40
0.8239737799
 41
2.147131942757423
 42
5.288724596347229
  0
ELLIPSE
  5
114
330
1F
100
AcDbEntity
  8
0
  6
HIDDEN
 62
     7
370
     0
100
AcDbEllipse
 10
175.0237151634
 20
104.0016743245
 30
0.0
 11
1.383467579512143
 21
1.753907414218503
 31
0.0
210
0.0
220
0.0
230
1.0
 40
0.5126701559
 41
0.9944607108323779
 42
4.136053364422184
  0
SPLINE
  5
115
330
1F
100
AcDbEntity
  8
0
  6
HIDDEN
 62
     7
370
     0
100
AcDbSpline
210
0.0
220
0.0
230
1.0
 70
     8
 71
     3
 72
    14
 73
    10
 74
     0
 42
0.000000001
 43
0.00000001
 40
0.0
 40
0.0
 40
0.0
 40
0.0
 40
0.25
 40
0.25
 40
0.5
 40
0.5
 40
0.75
 40
0.75
 40
1.0
 40
1.0
 40
1.0
 40
1.0
 10
173.0478244007435
 20
102.5608568182336
 30
0.0
 10
173.0841882287738
 20
102.6063514536354
 30
0.0
 10
173.116665955984
 20
102.6547432598517
 30
0.0
 10
173.1654195853997
 20
102.7602284037813
 30
0.0
 10
173.1803233630742
 20
102.8168129120242
 30
0.0
 10
173.1803337967319
 20
102.9257005059747
 30
0.0
 10
173.1654435009237
 20
102.9778851717373
 30
0.0
 10
173.1165545700461
 20
103.0691625706809
 30
0.0
 10
173.0841823917757
 20
103.107829276055
 30
0.0
 10
173.0478244007435
 20
103.1427252156028
 30
0.0
  0
LWPOLYLINE
  5
116
330
1F
100
AcDbEntity
  8
0
  6
HIDDEN
 62
     7
370
     0
100
AcDbPolyline
 90
       22
 70
   128
 43
0.0
 10
175.0237154316
 20
101.3448676121
 10
175.5100613933
 20
101.413751955
 10
175.9531930562
 20
101.6142834004
 10
176.3137368958
 20
101.9286448162
 10
176.5596572783
 20
102.3289021131
 10
176.6691016506
 20
102.7794927385
 10
176.6323460739
 20
103.240377738
 10
176.4526566964
 20
103.6706073236
 10
176.1460001122
 20
104.0319525663
 10
175.7396230947
 20
104.292306586
 10
175.2696348827
 20
104.4285357956
 10
174.7777950492
 20
104.4285357956
 10
174.3078068372
 20
104.292306586
 10
173.9014298197
 20
104.0319525663
 10
173.5947732355
 20
103.6706073236
 10
173.415083858
 20
103.240377738
 10
173.3783292126
 20
102.7794927385
 10
173.4877735849
 20
102.3289021131
 10
173.7336930361
 20
101.9286448162
 10
174.0942368757
 20
101.6142834004
 10
174.5373694699
 20
101.413751955
 10
175.0237154316
 20
101.3448676121
  0
SPLINE
  5
117
330
1F
100
AcDbEntity
  8
0
  6
HIDDEN
 62
     7
370
     0
100
AcDbSpline
210
0.0
220
0.0
230
1.0
 70
    11
 71
     3
 72
    56
 73
    52
 74
     0
 42
0.000000001
 43
0.00000001
 40
0.0
 40
0.0
 40
0.0
 40
0.0
 40
0.0312500000000002
 40
0.0312500000000002
 40
0.0625000000000003
 40
0.0625000000000003
 40
0.1250000000000007
 40
0.1250000000000007
 40
0.187500000000001
 40
0.187500000000001
 40
0.2187500000000012
 40
0.2187500000000012
 40
0.2500000000000013
 40
0.2500000000000013
 40
0.2812500000000015
 40
0.2812500000000015
 40
0.3125000000000017
 40
0.3125000000000017
 40
0.3437500000000018
 40
0.3437500000000018
 40
0.375000000000002
 40
0.375000000000002
 40
0.4375000000000026
 40
0.4375000000000026
 40
0.5000000000000032
 40
0.5000000000000032
 40
0.5312500000000033
 40
0.5312500000000033
 40
0.5625000000000033
 40
0.5625000000000033
 40
0.625000000000003
 40
0.625000000000003
 40
0.6562500000000028
 40
0.6562500000000028
 40
0.6875000000000027
 40
0.6875000000000027
 40
0.7500000000000022
 40
0.7500000000000022
 40
0.7812500000000019
 40
0.7812500000000019
 40
0.8125000000000017
 40
0.8125000000000017
 40
0.8750000000000012
 40
0.8750000000000012
 40
0.9062500000000009
 40
0.9062500000000009
 40
0.9375000000000007
 40
0.9375000000000007
 40
0.9687500000000003
 40
0.9687500000000003
 40
1.0
 40
1.0
 40
1.0
 40
1.0
 10
175.0237151633839
 20
108.3220163704914
 30
0.0
 10
174.9128476735825
 20
108.3220163704914
 30
0.0
 10
174.8042530467378
 20
108.3302817439011
 30
0.0
 10
174.5912660310456
 20
108.3626747785856
 30
0.0
 10
174.4858296795472
 20
108.3872529592775
 30
0.0
 10
174.1878990301863
 20
108.4831054834767
 30
0.0
 10
174.0078159181915
 20
108.577998455609
 30
0.0
 10
173.7082735932545
 20
108.8215680362487
 30
0.0
 10
173.5859696163917
 20
108.9730607022645
 30
0.0
 10
173.461071520161
 20
109.2327283227227
 30
0.0
 10
173.4283301372571
 20
109.3266804240458
 30
0.0
 10
173.3849576310195
 20
109.5205303666866
 30
0.0
 10
173.3739244455187
 20
109.6204405457295
 30
0.0
 10
173.3735117213955
 20
109.8265181784084
 30
0.0
 10
173.3845009782519
 20
109.9326261215874
 30
0.0
 10
173.4272883703222
 20
110.1402131597398
 30
0.0
 10
173.4593378168938
 20
110.243836915306
 30
0.0
 10
173.5431138043217
 20
110.4453438076097
 30
0.0
 10
173.5939964909157
 20
110.541653287637
 30
0.0
 10
173.7130768040986
 20
110.7254821671089
 30
0.0
 10
173.7817564335593
 20
110.8132333142825
 30
0.0
 10
174.0064868690029
 20
111.052615097733
 30
0.0
 10
174.1870035160166
 20
111.186450382444
 30
0.0
 10
174.5813995898347
 20
111.3706424259354
 30
0.0
 10
174.8012837648765
 20
111.4223816093366
 30
0.0
 10
175.1287621552458
 20
111.4233035407627
 30
0.0
 10
175.2399921434767
 20
111.4110032580342
 30
0.0
 10
175.4540025070027
 20
111.3629092945771
 30
0.0
 10
175.5575398666705
 20
111.3274406168988
 30
0.0
 10
175.8583457502658
 20
111.1883154339294
 30
0.0
 10
176.0377838742841
 20
111.0553591033405
 30
0.0
 10
176.2636402234494
 20
110.8157029471417
 30
0.0
 10
176.3311600678025
 20
110.7298147361328
 30
0.0
 10
176.450819288118
 20
110.5462583894108
 30
0.0
 10
176.5028557559577
 20
110.4481585855457
 30
0.0
 10
176.6279385975571
 20
110.1493515953159
 30
0.0
 10
176.6732825123427
 20
109.9347273774519
 30
0.0
 10
176.6739267030149
 20
109.6268046719772
 30
0.0
 10
176.6631332671011
 20
109.5247681511728
 30
0.0
 10
176.6200279172996
 20
109.3295876458195
 30
0.0
 10
176.588212964348
 20
109.2373214142718
 30
0.0
 10
176.4630594277076
 20
108.9749538614454
 30
0.0
 10
176.3416785034332
 20
108.8238505398158
 30
0.0
 10
176.1147513949717
 20
108.6389804561943
 30
0.0
 10
176.0329236018223
 20
108.5851960090965
 30
0.0
 10
175.8565730121722
 20
108.4915573717746
 30
0.0
 10
175.7608044052932
 20
108.4513781467921
 30
0.0
 10
175.5621811205615
 20
108.3874040900302
 30
0.0
 10
175.4593229296279
 20
108.3633127279138
 30
0.0
 10
175.2459407099535
 20
108.3305487886025
 30
0.0
 10
175.1345826531853
 20
108.3220163704914
 30
0.0
 10
175.0237151633839
 20
108.3220163704914
 30
0.0
  0
ELLIPSE
  5
118
330
1F
100
AcDbEntity
  8
0
  6
HIDDEN
 62
     7
370
     0
100
AcDbEllipse
 10
175.0237151634
 20
104.0016743245
 30
0.0
 11
1.383467579512143
 21
1.753907414218503
 31
0.0
210
0.0
220
0.0
230
1.0
 40
0.5126701559
 41
0.9829735846099005
 42
0.9944607108323779
  0
SPLINE
  5
119
330
1F
100
AcDbEntity
  8
0
  6
HIDDEN
 62
     7
370
     0
100
AcDbSpline
210
0.0
220
0.0
230
1.0
 70
     8
 71
     3
 72
     8
 73
     4
 74
     0
 42
0.000000001
 43
0.00000001
 40
0.0
 40
0.0
 40
0.0
 40
0.0
 40
1.0
 40
1.0
 40
1.0
 40
1.0
 10
175.0426685048162
 20
105.5645174747343
 30
0.0
 10
175.0596673888955
 20
105.5565342012209
 30
0.0
 10
175.0766715334366
 20
105.5477977987732
 30
0.0
 10
175.0936562595389
 20
105.5383209469357
 30
0.0
  0
ELLIPSE
  5
11A
330
1F
100
AcDbEntity
  8
0
  6
HIDDEN
 62
     7
370
     0
100
AcDbEllipse
 10
175.0237151634
 20
104.0016743245
 30
0.0
 11
1.383467579512143
 21
-1.091267719176599
 31
0.0
210
0.0
220
0.0
230
1.0
 40
0.8239737799
 41
2.104730695474047
 42
2.147131942757417
  0
ELLIPSE
  5
11B
330
1F
100
AcDbEntity
  8
0
  6
HIDDEN
 62
     7
370
     0
100
AcDbEllipse
 10
175.0237151634
 20
104.0016743245
 30
0.0
 11
1.383467579512143
 21
-1.091267719176599
 31
0.0
210
0.0
220
0.0
230
1.0
 40
0.8239737799
 41
5.288724596347223
 42
5.33112584363047
  0
SPLINE
  5
11C
330
1F
100
AcDbEntity
  8
0
  6
HIDDEN
 62
     7
370
     0
100
AcDbSpline
210
0.0
220
0.0
230
1.0
 70
     8
 71
     3
 72
     8
 73
     4
 74
     0
 42
0.000000001
 43
0.00000001
 40
0.0
 40
0.0
 40
0.0
 40
0.0
 40
1.0
 40
1.0
 40
1.0
 40
1.0
 10
175.0936562595389
 20
102.4401224587023
 30
0.0
 10
175.0766715334366
 20
102.4472381687521
 30
0.0
 10
175.0596673888955
 20
102.4551132982737
 30
0.0
 10
175.0426685048162
 20
102.463736417728
 30
0.0
  0
ELLIPSE
  5
11D
330
1F
100
AcDbEntity
  8
0
  6
HIDDEN
 62
     7
370
     0
100
AcDbEllipse
 10
175.0237151634
 20
104.0016743245
 30
0.0
 11
1.383467579512143
 21
1.753907414218503
 31
0.0
210
0.0
220
0.0
230
1.0
 40
0.5126701559
 41
4.136053364422184
 42
4.147540490644662
  0
SPLINE
  5
11E
330
1F
100
AcDbEntity
  8
0
  6
HIDDEN
 62
     7
370
     0
100
AcDbSpline
210
0.0
220
0.0
230
1.0
 70
     8
 71
     3
 72
     9
 73
     5
 74
     0
 42
0.000000001
 43
0.00000001
 40
0.0
 40
0.0
 40
0.0
 40
0.0
 40
0.2037698345530223
 40
0.9999999999999999
 40
0.9999999999999999
 40
0.9999999999999999
 40
0.9999999999999999
 10
191.7323297362666
 20
130.4826987933785
 30
0.0
 10
191.7599267740205
 20
130.4776531898841
 30
0.0
 10
191.8953591740834
 20
130.4528919022017
 30
0.0
 10
192.0632632444773
 20
130.4299928605739
 30
0.0
 10
192.1969535302262
 20
130.41175995287
 30
0.0
  0
CIRCLE
  5
11F
330
1F
100
AcDbEntity
  8
0
  6
HIDDEN
 62
     7
370
     0
100
AcDbCircle
 10
195.9737151634
 20
110.8892643851
 30
0.0
 40
4.499999999999986
  0
LINE
  5
120
330
1F
100
AcDbEntity
  8
0
  6
HIDDEN
 62
     7
370
     0
100
AcDbLine
 10
179.5237152379
 20
110.8892643851
 30
0.0
 11
179.5237152379
 21
100.3892645266
 31
0.0
  0
LINE
  5
121
330
1F
100
AcDbEntity
  8
0
  6
HIDDEN
 62
     7
370
     0
100
AcDbLine
 10
179.5237152379
 20
121.3892642435
 30
0.0
 11
179.5237152379
 21
110.8892643851
 31
0.0
  0
LINE
  5
122
330
1F
100
AcDbEntity
  8
0
  6
HIDDEN
 62
     7
370
     0
100
AcDbLine
 10
183.3897414159
 20
110.8892643851
 30
0.0
 11
183.3897414159
 21
99.8892644447
 31
0.0
  0
LINE
  5
123
330
1F
100
AcDbEntity
  8
0
  6
HIDDEN
 62
     7
370
     0
100
AcDbLine
 10
183.3897414159
 20
121.8892643255
 30
0.0
 11
183.3897414159
 21
110.8892643851
 31
0.0
  0
SPLINE
  5
124
330
1F
100
AcDbEntity
  8
0
  6
HIDDEN
 62
     7
370
     0
100
AcDbSpline
210
0.0
220
0.0
230
1.0
 70
     8
 71
     3
 72
    13
 73
     9
 74
     0
 42
0.000000001
 43
0.00000001
 40
0.0
 40
0.0
 40
0.0
 40
0.0
 40
0.2021554432227464
 40
0.4038780973194148
 40
0.6165542974279854
 40
0.725922655401027
 40
0.8387876752477414
 40
0.9999999999999999
 40
0.9999999999999999
 40
0.9999999999999999
 40
0.9999999999999999
 10
195.9737161647419
 20
120.9266940158278
 30
0.0
 10
196.4556417557108
 20
120.9477195837412
 30
0.0
 10
197.4184611961725
 20
120.9897257064977
 30
0.0
 10
198.7137357948318
 20
121.2760650730963
 30
0.0
 10
199.5766226462116
 20
121.5481336804186
 30
0.0
 10
200.0769276758179
 20
121.7315234377811
 30
0.0
 10
200.4051138874699
 20
121.8606894093212
 30
0.0
 10
200.4202682124849
 20
121.8673345570252
 30
0.0
 10
200.4291819881539
 20
121.871243233648
 30
0.0
  0
LINE
  5
125
330
1F
100
AcDbEntity
  8
0
  6
HIDDEN
 62
     7
370
     0
100
AcDbLine
 10
196.4075560223
 20
120.9571687531
 30
0.0
 11
195.4354228925
 21
120.9484711316
 31
0.0
  0
SPLINE
  5
126
330
1F
100
AcDbEntity
  8
0
  6
HIDDEN
 62
     7
370
     0
100
AcDbSpline
210
0.0
220
0.0
230
1.0
 70
     8
 71
     3
 72
    17
 73
    13
 74
     0
 42
0.000000001
 43
0.00000001
 40
0.0
 40
0.0
 40
0.0
 40
0.0
 40
0.0065316004903207
 40
0.0894135695415765
 40
0.1750503627328202
 40
0.3314908991944978
 40
0.4828162537610822
 40
0.6409843359418242
 40
0.8094476296336519
 40
0.8918333351490556
 40
0.9770326465772085
 40
1.0
 40
1.0
 40
1.0
 40
1.0
 10
191.9832820545773
 20
121.6920726027757
 30
0.0
 10
191.971403718732
 20
121.696038655429
 30
0.0
 10
191.8087966502628
 20
121.7503314624139
 30
0.0
 10
191.6581498064766
 20
121.8171420057981
 30
0.0
 10
191.4284916850701
 20
121.9061595844611
 30
0.0
 10
191.4934805996211
 20
121.880973091159
 30
0.0
 10
192.00641988425
 20
121.6759014618441
 30
0.0
 10
192.9268223612181
 20
121.3610794045483
 30
0.0
 10
193.9956531070989
 20
121.1002305654375
 30
0.0
 10
194.9816981440602
 20
120.9664789355161
 30
0.0
 10
195.5683928349106
 20
120.9293747808218
 30
0.0
 10
195.9027261631445
 20
120.9271635360779
 30
0.0
 10
195.9737161647419
 20
120.9266940158278
 30
0.0
  0
LINE
  5
127
330
1F
100
AcDbEntity
  8
0
  6
HIDDEN
 62
     7
370
     0
100
AcDbLine
 10
165.2237150825
 20
135.6892650973
 30
0.0
 11
165.5609735295
 21
135.6892650973
 31
0.0
  0
ELLIPSE
  5
128
330
1F
100
AcDbEntity
  8
0
  6
HIDDEN
 62
     7
370
     0
100
AcDbEllipse
 10
165.5609734636
 20
137.2892643851
 30
0.0
 11
0.0
 21
1.600000000000023
 31
0.0
210
0.0
220
0.0
230
1.0
 40
0.4142135624
 41
3.141592653589793
 42
4.712388980384695
  0
LINE
  5
129
330
1F
100
AcDbEntity
  8
0
  6
HIDDEN
 62
     7
370
     0
100
AcDbLine
 10
165.5609735295
 20
88.2892636609
 30
0.0
 11
165.2237150825
 21
88.2892636609
 31
0.0
  0
ELLIPSE
  5
12A
330
1F
100
AcDbEntity
  8
0
  6
HIDDEN
 62
     7
370
     0
100
AcDbEllipse
 10
165.5609734636
 20
86.6892643851
 30
0.0
 11
0.0
 21
1.599999999999994
 31
0.0
210
0.0
220
0.0
230
1.0
 40
0.4142135624
 41
4.712388980384695
 42
6.283185307179586
  0
LINE
  5
12B
330
1F
100
AcDbEntity
  8
0
  6
HIDDEN
 62
     7
370
     0
100
AcDbLine
 10
166.2237150136
 20
80.9958158087
 30
0.0
 11
165.4398596853
 21
80.5375343215
 31
0.0
  0
LINE
  5
12C
330
1F
100
AcDbEntity
  8
0
  6
HIDDEN
 62
     7
370
     0
100
AcDbLine
 10
165.5109568506
 20
141.3145614814
 30
0.0
 11
166.2237150136
 21
140.6018016886
 31
0.0
  0
LINE
  5
12D
330
1F
100
AcDbEntity
  8
0
  6
HIDDEN
 62
     7
370
     0
100
AcDbLine
 10
100.7737139713
 20
102.3892639231
 30
0.0
 11
100.7737139713
 21
119.389264847
 31
0.0
  0
LINE
  5
12E
330
1F
100
AcDbEntity
  8
0
  6
HIDDEN
 62
     7
370
     0
100
AcDbLine
 10
103.7696445834
 20
103.889264169
 30
0.0
 11
103.7696445834
 21
117.8892646011
 31
0.0
  0
LINE
  5
12F
330
1F
100
AcDbEntity
  8
0
  6
HIDDEN
 62
     7
370
     0
100
AcDbLine
 10
170.0589251246
 20
80.9958158087
 30
0.0
 11
166.2237150136
 21
80.9958158087
 31
0.0
  0
LINE
  5
130
330
1F
100
AcDbEntity
  8
0
  6
HIDDEN
 62
     7
370
     0
100
AcDbLine
 10
181.0737153988
 20
80.9958158087
 30
0.0
 11
176.1885047432
 21
80.9958158087
 31
0.0
  0
LINE
  5
131
330
1F
100
AcDbEntity
  8
0
  6
HIDDEN
 62
     7
370
     0
100
AcDbLine
 10
166.2237150136
 20
80.9958158087
 30
0.0
 11
166.2237150136
 21
86.6892645162
 31
0.0
  0
LINE
  5
132
330
1F
100
AcDbEntity
  8
0
  6
HIDDEN
 62
     7
370
     0
100
AcDbLine
 10
181.0737153988
 20
88.2892636609
 30
0.0
 11
165.5609735295
 21
88.2892636609
 31
0.0
  0
LINE
  5
133
330
1F
100
AcDbEntity
  8
0
  6
HIDDEN
 62
     7
370
     0
100
AcDbLine
 10
165.5609735295
 20
135.6892650973
 30
0.0
 11
181.0737153988
 21
135.6892650973
 31
0.0
  0
LINE
  5
134
330
1F
100
AcDbEntity
  8
0
  6
HIDDEN
 62
     7
370
     0
100
AcDbLine
 10
166.2237150136
 20
140.6018016886
 30
0.0
 11
170.1597603511
 21
140.6018016886
 31
0.0
  0
LINE
  5
135
330
1F
100
AcDbEntity
  8
0
  6
HIDDEN
 62
     7
370
     0
100
AcDbLine
 10
176.0876695167
 20
140.6018016886
 30
0.0
 11
181.0737153988
 21
140.6018016886
 31
0.0
  0
LINE
  5
136
330
1F
100
AcDbEntity
  8
0
  6
HIDDEN
 62
     7
370
     0
100
AcDbLine
 10
166.2237150136
 20
140.6018016886
 30
0.0
 11
166.2237150136
 21
137.289264242
 31
0.0
  0
LINE
  5
137
330
1F
100
AcDbEntity
  8
0
  6
HIDDEN
 62
     7
370
     0
100
AcDbLine
 10
136.7737142842
 20
103.889264169
 30
0.0
 11
136.7737142842
 21
117.8892646011
 31
0.0
  0
LINE
  5
138
330
1F
100
AcDbEntity
  8
0
  6
HIDDEN
 62
     7
370
     0
100
AcDbLine
 10
138.0840087782
 20
107.48926434
 30
0.0
 11
138.0840087782
 21
114.2892644301
 31
0.0
  0
LINE
  5
139
330
1F
100
AcDbEntity
  8
0
  6
HIDDEN
 62
     7
370
     0
100
AcDbLine
 10
195.9737161647
 20
129.1392641169
 30
0.0
 11
200.4737141084
 21
129.1392641169
 31
0.0
  0
LINE
  5
13A
330
1F
100
AcDbEntity
  8
0
  6
HIDDEN
 62
     7
370
     0
100
AcDbLine
 10
191.4737144958
 20
129.1392641169
 30
0.0
 11
195.9737161647
 21
129.1392641169
 31
0.0
  0
SPLINE
  5
13B
330
1F
100
AcDbEntity
  8
0
  6
HIDDEN
 62
     7
370
     0
100
AcDbSpline
210
0.0
220
0.0
230
1.0
 70
    11
 71
     3
 72
    56
 73
    52
 74
     0
 42
0.000000001
 43
0.00000001
 40
0.0
 40
0.0
 40
0.0
 40
0.0
 40
0.0312500000000002
 40
0.0312500000000002
 40
0.0625000000000004
 40
0.0625000000000004
 40
0.1250000000000008
 40
0.1250000000000008
 40
0.1875000000000012
 40
0.1875000000000012
 40
0.2187500000000014
 40
0.2187500000000014
 40
0.2500000000000016
 40
0.2500000000000016
 40
0.2812500000000018
 40
0.2812500000000018
 40
0.3125000000000019
 40
0.3125000000000019
 40
0.3437500000000021
 40
0.3437500000000021
 40
0.3750000000000023
 40
0.3750000000000023
 40
0.4375000000000027
 40
0.4375000000000027
 40
0.5000000000000031
 40
0.5000000000000031
 40
0.5312500000000031
 40
0.5312500000000031
 40
0.562500000000003
 40
0.562500000000003
 40
0.6250000000000024
 40
0.6250000000000024
 40
0.6562500000000022
 40
0.6562500000000022
 40
0.6875000000000019
 40
0.6875000000000019
 40
0.7500000000000016
 40
0.7500000000000016
 40
0.7812500000000013
 40
0.7812500000000013
 40
0.812500000000001
 40
0.812500000000001
 40
0.8750000000000007
 40
0.8750000000000007
 40
0.9062500000000006
 40
0.9062500000000006
 40
0.9375000000000003
 40
0.9375000000000003
 40
0.9687500000000002
 40
0.9687500000000002
 40
1.0
 40
1.0
 40
1.0
 40
1.0
 10
175.0237151633839
 20
110.355526751058
 30
0.0
 10
175.1345826531853
 20
110.355526751058
 30
0.0
 10
175.24317728003
 20
110.36803964957
 30
0.0
 10
175.4561642957222
 20
110.4163120639616
 30
0.0
 10
175.5616006472206
 20
110.4527138771182
 30
0.0
 10
175.8595312965815
 20
110.5912785132499
 30
0.0
 10
176.0396144085763
 20
110.724850929159
 30
0.0
 10
176.3391567335133
 20
111.0432193065606
 30
0.0
 10
176.4614607103762
 20
111.2313384144169
 30
0.0
 10
176.5863588066068
 20
111.529920711932
 30
0.0
 10
176.6191001895107
 20
111.6344817590704
 30
0.0
 10
176.6624726957483
 20
111.8425084535717
 30
0.0
 10
176.6735058812491
 20
111.9461080469877
 30
0.0
 10
176.6739186053723
 20
112.1523226876814
 30
0.0
 10
176.6629293485159
 20
112.2547560136073
 30
0.0
 10
176.6201419564456
 20
112.4483525511374
 30
0.0
 10
176.5880925098741
 20
112.5415797049425
 30
0.0
 10
176.5043165224461
 20
112.7169642926621
 30
0.0
 10
176.4534338358522
 20
112.7978118235068
 30
0.0
 10
176.3343535226692
 20
112.9475445830034
 30
0.0
 10
176.2656738932085
 20
113.0165545047445
 30
0.0
 10
176.0409434577649
 20
113.1997612964015
 30
0.0
 10
175.8604268107512
 20
113.2948506724507
 30
0.0
 10
175.4660307369331
 20
113.4223044716696
 30
0.0
 10
175.2461465618913
 20
113.4561005264177
 30
0.0
 10
174.9186681715221
 20
113.4567125717343
 30
0.0
 10
174.8074381832911
 20
113.4485891673546
 30
0.0
 10
174.5934278197651
 20
113.4163215485124
 30
0.0
 10
174.4898904600973
 20
113.3923873410108
 30
0.0
 10
174.189084576502
 20
113.2961856662371
 30
0.0
 10
174.0096464524837
 20
113.2017833953136
 30
0.0
 10
173.7837901033184
 20
113.0184826560083
 30
0.0
 10
173.7162702589654
 20
112.9509934639844
 30
0.0
 10
173.5966110386498
 20
112.8016390691317
 30
0.0
 10
173.5445745708102
 20
112.7193350051539
 30
0.0
 10
173.4194917292108
 20
112.459496677798
 30
0.0
 10
173.3741478144252
 20
112.2603207291236
 30
0.0
 10
173.3735036237529
 20
111.9526118693369
 30
0.0
 10
173.3842970596668
 20
111.8469648711003
 30
0.0
 10
173.4274024094682
 20
111.6376895981497
 30
0.0
 10
173.4592173624198
 20
111.5351037366978
 30
0.0
 10
173.5843708990602
 20
111.233705988793
 30
0.0
 10
173.7057518233346
 20
111.0461599310386
 30
0.0
 10
173.9326789317961
 20
110.8045813443929
 30
0.0
 10
174.0145067249455
 20
110.7319175525294
 30
0.0
 10
174.1908573145956
 20
110.6025790924002
 30
0.0
 10
174.2866259214747
 20
110.5454098995164
 30
0.0
 10
174.4852492062064
 20
110.4529358322869
 30
0.0
 10
174.58810739714
 20
110.4172578871306
 30
0.0
 10
174.8014896168143
 20
110.3684423249856
 30
0.0
 10
174.9128476735825
 20
110.355526751058
 30
0.0
 10
175.0237151633839
 20
110.355526751058
 30
0.0
  0
ELLIPSE
  5
13C
330
1F
100
AcDbEntity
  8
0
  6
HIDDEN
 62
     7
370
     0
100
AcDbEllipse
 10
175.0237151634
 20
117.7768544456
 30
0.0
 11
-1.383467579512143
 21
1.753907414218517
 31
0.0
210
0.0
220
0.0
230
1.0
 40
0.5126701559
 41
5.288724596347226
 42
8.430317249936989
  0
ELLIPSE
  5
13D
330
1F
100
AcDbEntity
  8
0
  6
HIDDEN
 62
     7
370
     0
100
AcDbEllipse
 10
175.0237151634
 20
117.7768544456
 30
0.0
 11
1.383467579512114
 21
1.091267719176599
 31
0.0
210
0.0
220
0.0
230
1.0
 40
0.8239737799
 41
0.9520594635583329
 42
0.994460710832364
  0
SPLINE
  5
13E
330
1F
100
AcDbEntity
  8
0
  6
HIDDEN
 62
     7
370
     0
100
AcDbSpline
210
0.0
220
0.0
230
1.0
 70
     8
 71
     3
 72
     8
 73
     4
 74
     0
 42
0.000000001
 43
0.00000001
 40
0.0
 40
0.0
 40
0.0
 40
0.0
 40
1.0
 40
1.0
 40
1.0
 40
1.0
 10
175.0936562595389
 20
119.3384063114407
 30
0.0
 10
175.0766715334367
 20
119.3312906013909
 30
0.0
 10
175.0596673888955
 20
119.3234154718693
 30
0.0
 10
175.0426685048162
 20
119.314792352415
 30
0.0
  0
ELLIPSE
  5
13F
330
1F
100
AcDbEntity
  8
0
  6
HIDDEN
 62
     7
370
     0
100
AcDbEllipse
 10
175.0237151634
 20
117.7768544456
 30
0.0
 11
-1.383467579512143
 21
1.753907414218517
 31
0.0
210
0.0
220
0.0
230
1.0
 40
0.5126701559
 41
5.277237470124733
 42
5.288724596347228
  0
ELLIPSE
  5
140
330
1F
100
AcDbEntity
  8
0
  6
HIDDEN
 62
     7
370
     0
100
AcDbEllipse
 10
175.0237151634
 20
117.7768544456
 30
0.0
 11
1.383467579512114
 21
1.091267719176599
 31
0.0
210
0.0
220
0.0
230
1.0
 40
0.8239737799
 41
0.9944607108323605
 42
4.13605336442215
  0
ELLIPSE
  5
141
330
1F
100
AcDbEntity
  8
0
  6
HIDDEN
 62
     7
370
     0
100
AcDbEllipse
 10
175.0237151634
 20
117.7768544456
 30
0.0
 11
-1.383467579512143
 21
1.753907414218517
 31
0.0
210
0.0
220
0.0
230
1.0
 40
0.5126701559
 41
2.147131942757405
 42
2.1586190689799
  0
SPLINE
  5
142
330
1F
100
AcDbEntity
  8
0
  6
HIDDEN
 62
     7
370
     0
100
AcDbSpline
210
0.0
220
0.0
230
1.0
 70
     8
 71
     3
 72
     8
 73
     4
 74
     0
 42
0.000000001
 43
0.00000001
 40
0.0
 40
0.0
 40
0.0
 40
0.0
 40
1.0
 40
1.0
 40
1.0
 40
1.0
 10
175.0426685048162
 20
116.2140112954087
 30
0.0
 10
175.0596673888955
 20
116.221994568922
 30
0.0
 10
175.0766715334366
 20
116.2307309713698
 30
0.0
 10
175.0936562595389
 20
116.2402078232073
 30
0.0
  0
ELLIPSE
  5
143
330
1F
100
AcDbEntity
  8
0
  6
HIDDEN
 62
     7
370
     0
100
AcDbEllipse
 10
175.0237151634
 20
117.7768544456
 30
0.0
 11
1.383467579512114
 21
1.091267719176599
 31
0.0
210
0.0
220
0.0
230
1.0
 40
0.8239737799
 41
4.136053364422153
 42
4.178454611696203
  0
LWPOLYLINE
  5
144
330
1F
100
AcDbEntity
  8
0
  6
HIDDEN
 62
     7
370
     0
100
AcDbPolyline
 90
       22
 70
   128
 43
0.0
 10
175.0237154316
 20
117.3326750312
 10
175.5100613933
 20
117.4015593742
 10
175.9531930562
 20
117.6020908196
 10
176.3137368958
 20
117.9164513041
 10
176.5596572783
 20
118.3167095323
 10
176.6691016506
 20
118.767299692
 10
176.6323460739
 20
119.2281851571
 10
176.4526566964
 20
119.6584142771
 10
176.1460001122
 20
120.0197599855
 10
175.7396230947
 20
120.2801140052
 10
175.2696348827
 20
120.4163432148
 10
174.7777950492
 20
120.4163432148
 10
174.3078068372
 20
120.2801140052
 10
173.9014298197
 20
120.0197599855
 10
173.5947732355
 20
119.6584142771
 10
173.415083858
 20
119.2281851571
 10
173.3783292126
 20
118.767299692
 10
173.4877735849
 20
118.3167095323
 10
173.7336930361
 20
117.9164513041
 10
174.0942368757
 20
117.6020908196
 10
174.5373694699
 20
117.4015593742
 10
175.0237154316
 20
117.3326750312
  0
LINE
  5
145
330
1F
100
AcDbEntity
  8
0
  6
HIDDEN
 62
     7
370
     0
100
AcDbLine
 10
171.2137148257
 20
133.0865053486
 30
0.0
 11
171.2137148257
 21
129.239263947
 31
0.0
  0
SPLINE
  5
146
330
1F
100
AcDbEntity
  8
0
  6
HIDDEN
 62
     7
370
     0
100
AcDbSpline
210
0.0
220
0.0
230
1.0
 70
     8
 71
     3
 72
    14
 73
    10
 74
     0
 42
0.000000001
 43
0.00000001
 40
0.0
 40
0.0
 40
0.0
 40
0.0
 40
0.25
 40
0.25
 40
0.5
 40
0.5
 40
0.75
 40
0.75
 40
1.0
 40
1.0
 40
1.0
 40
1.0
 10
174.2337151633838
 20
122.1717435751796
 30
0.0
 10
174.3313974144978
 20
122.210265889212
 30
0.0
 10
174.4335109235351
 20
122.2478812486707
 30
0.0
 10
174.625683094704
 20
122.3189899742576
 30
0.0
 10
174.7171017680309
 20
122.3531960247617
 30
0.0
 10
174.8686177570451
 20
122.4200855031186
 30
0.0
 10
174.929764959584
 20
122.4533559656795
 30
0.0
 10
175.0124716612724
 20
122.5227543157734
 30
0.0
 10
175.0337151633839
 20
122.5585314213694
 30
0.0
 10
175.0337151633839
 20
122.59502675362
 30
0.0
  0
LINE
  5
147
330
1F
100
AcDbEntity
  8
0
  6
HIDDEN
 62
     7
370
     0
100
AcDbLine
 10
175.0337150421
 20
133.0865053486
 30
0.0
 11
175.0337150421
 21
129.239263947
 31
0.0
  0
SPLINE
  5
148
330
1F
100
AcDbEntity
  8
0
  6
HIDDEN
 62
     7
370
     0
100
AcDbSpline
210
0.0
220
0.0
230
1.0
 70
     8
 71
     3
 72
    14
 73
    10
 74
     0
 42
0.000000001
 43
0.00000001
 40
0.0
 40
0.0
 40
0.0
 40
0.0
 40
0.2500000000000005
 40
0.2500000000000005
 40
0.5000000000000003
 40
0.5000000000000003
 40
0.7500000000000001
 40
0.7500000000000001
 40
1.0
 40
1.0
 40
1.0
 40
1.0
 10
175.0337151633839
 20
118.836303255401
 30
0.0
 10
175.0337151633839
 20
118.7998143244938
 30
0.0
 10
175.0125457872116
 20
118.76331553276
 30
0.0
 10
174.9298001693593
 20
118.6979401850231
 30
0.0
 10
174.8689465445315
 20
118.6700033506768
 30
0.0
 10
174.7173416778404
 20
118.63611232143
 30
0.0
 10
174.6261193673732
 20
118.6306868688436
 30
0.0
 10
174.4337888176699
 20
118.6516061926562
 30
0.0
 10
174.3315379331929
 20
118.6781623400966
 30
0.0
 10
174.2337151633838
 20
118.7186320984024
 30
0.0
  0
LINE
  5
149
330
1F
100
AcDbEntity
  8
0
  6
HIDDEN
 62
     7
370
     0
100
AcDbLine
 10
175.0337150421
 20
102.8879815739
 30
0.0
 11
175.0337150421
 21
99.1292586577
 31
0.0
  0
LINE
  5
14A
330
1F
100
AcDbEntity
  8
0
  6
HIDDEN
 62
     7
370
     0
100
AcDbLine
 10
176.645552228
 20
101.1372441452
 30
0.0
 11
176.645552228
 21
98.9377647665
 31
0.0
  0
LINE
  5
14B
330
1F
100
AcDbEntity
  8
0
  6
HIDDEN
 62
     7
370
     0
100
AcDbLine
 10
176.645552228
 20
136.7994947385
 30
0.0
 11
176.645552228
 21
129.239263947
 31
0.0
  0
LINE
  5
14C
330
1F
100
AcDbEntity
  8
0
  6
HIDDEN
 62
     7
370
     0
100
AcDbLine
 10
169.6018785711
 20
136.7994947385
 30
0.0
 11
169.6018785711
 21
129.239263947
 31
0.0
  0
SPLINE
  5
14D
330
1F
100
AcDbEntity
  8
0
  6
HIDDEN
 62
     7
370
     0
100
AcDbSpline
210
0.0
220
0.0
230
1.0
 70
     8
 71
     3
 72
    10
 73
     6
 74
     0
 42
0.000000001
 43
0.00000001
 40
0.0
 40
0.0
 40
0.0
 40
0.0
 40
0.5
 40
0.5
 40
1.0
 40
1.0
 40
1.0
 40
1.0
 10
173.0478244007435
 20
118.6358035545403
 30
0.0
 10
173.0322183497623
 20
118.7410757551488
 30
0.0
 10
173.0237138867337
 20
118.8450142529397
 30
0.0
 10
173.0237164403234
 20
119.0445275248957
 30
0.0
 10
173.0322140279239
 20
119.1357400195661
 30
0.0
 10
173.0478244007435
 20
119.2176719519092
 30
0.0
  0
SPLINE
  5
14E
330
1F
100
AcDbEntity
  8
0
  6
HIDDEN
 62
     7
370
     0
100
AcDbSpline
210
0.0
220
0.0
230
1.0
 70
     8
 71
     3
 72
    14
 73
    10
 74
     0
 42
0.000000001
 43
0.00000001
 40
0.0
 40
0.0
 40
0.0
 40
0.0
 40
0.25
 40
0.25
 40
0.5
 40
0.5
 40
0.75
 40
0.75
 40
1.0
 40
1.0
 40
1.0
 40
1.0
 10
173.0478244007435
 20
119.2176719519092
 30
0.0
 10
173.0841882287737
 20
119.1721773165074
 30
0.0
 10
173.1166659559839
 20
119.1237855102911
 30
0.0
 10
173.1654195853996
 20
119.0183003663616
 30
0.0
 10
173.1803233630741
 20
118.9617158581187
 30
0.0
 10
173.1803337967317
 20
118.8528282641683
 30
0.0
 10
173.1654435009236
 20
118.8006435984056
 30
0.0
 10
173.116554570046
 20
118.7093661994621
 30
0.0
 10
173.0841823917756
 20
118.670699494088
 30
0.0
 10
173.0478244007435
 20
118.6358035545403
 30
0.0
  0
LWPOLYLINE
  5
14F
330
1F
100
AcDbEntity
  8
0
  6
HIDDEN
 62
     7
370
     0
100
AcDbPolyline
 90
       22
 70
   128
 43
0.0
 10
165.8554425936
 20
118.8693102476
 10
165.9754388507
 20
118.5096395228
 10
166.1653592724
 20
118.2606532265
 10
166.4083287593
 20
118.1444744606
 10
166.6827583227
 20
118.1714264702
 10
166.9642636094
 20
118.3391138938
 10
167.2278316233
 20
118.6326374326
 10
167.450043327
 20
119.0259158638
 10
167.6111542161
 20
119.4840054986
 10
167.6968484659
 20
119.9662014869
 10
167.6995125141
 20
120.4296601963
 10
167.6189093392
 20
120.8332004052
 10
167.4622008119
 20
121.1409661945
 10
167.2433111358
 20
121.3256111395
 10
166.9816895861
 20
121.3707281303
 10
166.7005824398
 20
121.2723096859
 10
166.4249673027
 20
121.0390990626
 10
166.1793337677
 20
120.6918191191
 10
165.9855078448
 20
120.2613273662
 10
165.8607113182
 20
119.7858741533
 10
165.8160329804
 20
119.3077061352
 10
165.8554425936
 20
118.8693102476
  0
LWPOLYLINE
  5
150
330
1F
100
AcDbEntity
  8
0
  6
HIDDEN
 62
     7
370
     0
100
AcDbPolyline
 90
       23
 70
   128
 43
0.0
 10
173.0478242513
 20
118.6358034637
 10
173.2032061096
 20
118.1485806618
 10
173.4919291463
 20
117.7183534045
 10
173.8928467508
 20
117.3766334568
 10
174.3765933912
 20
117.1484496471
 10
174.9077387627
 20
117.0505150248
 10
175.4473787274
 20
117.0900031019
 10
175.9559870239
 20
117.2640211907
 10
176.3963126119
 20
117.5598236759
 10
176.7361028593
 20
117.9557447348
 10
176.9504709642
 20
118.4227853109
 10
177.0237148281
 20
118.9267374602
 10
176.9504709642
 20
119.4306900751
 10
176.7361028593
 20
119.8977306512
 10
176.3963126119
 20
120.2936517101
 10
175.9559870239
 20
120.589454661
 10
175.4473787274
 20
120.763472284
 10
174.9077387627
 20
120.8029603612
 10
174.3765933912
 20
120.7050262046
 10
173.8928467508
 20
120.4768419292
 10
173.4919291463
 20
120.1351219815
 10
173.2032061096
 20
119.7048947242
 10
173.0478242513
 20
119.2176723879
  0
SPLINE
  5
151
330
1F
100
AcDbEntity
  8
0
  6
HIDDEN
 62
     7
370
     0
100
AcDbSpline
210
0.0
220
0.0
230
1.0
 70
     8
 71
     3
 72
    12
 73
     8
 74
     0
 42
0.000000001
 43
0.00000001
 40
0.0
 40
0.0
 40
0.0
 40
0.0
 40
0.2499999999999997
 40
0.2499999999999997
 40
0.4999999999999993
 40
0.4999999999999993
 40
1.0
 40
1.0
 40
1.0
 40
1.0
 10
176.6455518054406
 20
122.8407641832785
 30
0.0
 10
176.7684992992362
 20
122.6828073345834
 30
0.0
 10
176.862043502345
 20
122.5109739676058
 30
0.0
 10
176.9909828915073
 20
122.13930125796
 30
0.0
 10
177.0235356488924
 20
121.9461128117688
 30
0.0
 10
177.0240719906262
 20
121.3578162734925
 30
0.0
 10
176.8914483336582
 20
120.9657980356038
 30
0.0
 10
176.6455518054406
 20
120.6412844528951
 30
0.0
  0
SPLINE
  5
152
330
1F
100
AcDbEntity
  8
0
  6
HIDDEN
 62
     7
370
     0
100
AcDbSpline
210
0.0
220
0.0
230
1.0
 70
     8
 71
     3
 72
    12
 73
     8
 74
     0
 42
0.000000001
 43
0.00000001
 40
0.0
 40
0.0
 40
0.0
 40
0.0
 40
0.2500000000000003
 40
0.2500000000000003
 40
0.5000000000000007
 40
0.5000000000000007
 40
1.0
 40
1.0
 40
1.0
 40
1.0
 10
176.6455518054406
 20
120.6412844528951
 30
0.0
 10
176.53065575418
 20
120.4215440178386
 30
0.0
 10
176.4038897377073
 20
120.2245756662168
 30
0.0
 10
176.1436748040888
 20
119.8708580933779
 30
0.0
 10
176.0101673461266
 20
119.7140327995057
 30
0.0
 10
175.6017690775383
 20
119.287490228598
 30
0.0
 10
175.3181159426008
 20
119.0607980496428
 30
0.0
 10
175.033715163384
 20
118.8905469052473
 30
0.0
  0
SPLINE
  5
153
330
1F
100
AcDbEntity
  8
0
  6
HIDDEN
 62
     7
370
     0
100
AcDbSpline
210
0.0
220
0.0
230
1.0
 70
     8
 71
     3
 72
    12
 73
     8
 74
     0
 42
0.000000001
 43
0.00000001
 40
0.0
 40
0.0
 40
0.0
 40
0.0
 40
0.5000000000000013
 40
0.5000000000000013
 40
0.7500000000000007
 40
0.7500000000000007
 40
1.0
 40
1.0
 40
1.0
 40
1.0
 10
175.0337151633839
 20
122.6492704034683
 30
0.0
 10
175.3179216979492
 20
122.8167345657621
 30
0.0
 10
175.596617432053
 20
122.9283716652737
 30
0.0
 10
176.0059634752423
 20
122.9956849309131
 30
0.0
 10
176.1421028125618
 20
123.000835970927
 30
0.0
 10
176.4034228615579
 20
122.9630700333076
 30
0.0
 10
176.5288440439896
 20
122.9215202749634
 30
0.0
 10
176.645551805441
 20
122.8407641832806
 30
0.0
  0
SPLINE
  5
154
330
1F
100
AcDbEntity
  8
0
  6
HIDDEN
 62
     7
370
     0
100
AcDbSpline
210
0.0
220
0.0
230
1.0
 70
     8
 71
     3
 72
    22
 73
    18
 74
     0
 42
0.000000001
 43
0.00000001
 40
0.0
 40
0.0
 40
0.0
 40
0.0
 40
0.125
 40
0.125
 40
0.25
 40
0.25
 40
0.375
 40
0.375
 40
0.5
 40
0.5
 40
0.625
 40
0.625
 40
0.75
 40
0.75
 40
0.875
 40
0.875
 40
1.0
 40
1.0
 40
1.0
 40
1.0
 10
174.2337151633839
 20
118.7186320984024
 30
0.0
 10
174.0536984688145
 20
118.7931058853789
 30
0.0
 10
173.8892666469442
 20
118.890555147363
 30
0.0
 10
173.5908704131856
 20
119.1299245809273
 30
0.0
 10
173.4605666858208
 20
119.2698211929978
 30
0.0
 10
173.2473479022018
 20
119.578072783058
 30
0.0
 10
173.1637200450903
 20
119.7482360011772
 30
0.0
 10
173.0525891681721
 20
120.0987307359677
 30
0.0
 10
173.0237531733184
 20
120.2838556971191
 30
0.0
 10
173.0236772306588
 20
120.6470625717363
 30
0.0
 10
173.052335856086
 20
120.8304325854438
 30
0.0
 10
173.1634869491986
 20
121.1763236979371
 30
0.0
 10
173.2465540698426
 20
121.3418432252046
 30
0.0
 10
173.4602400279613
 20
121.6423829626084
 30
0.0
 10
173.5892470178856
 20
121.7762548838924
 30
0.0
 10
173.8888562973752
 20
122.0075016532965
 30
0.0
 10
174.0536989956344
 20
122.1007517699553
 30
0.0
 10
174.2337151633839
 20
122.1717435751796
 30
0.0
  0
LWPOLYLINE
  5
155
330
1F
100
AcDbEntity
  8
0
  6
HIDDEN
 62
     7
370
     0
100
AcDbPolyline
 90
       24
 70
   128
 43
0.0
 10
165.4739267666
 20
118.6598017838
 10
165.6095820486
 20
118.2367610772
 10
165.8207855195
 20
117.9287275326
 10
166.0918732647
 20
117.7585464929
 10
166.4027394269
 20
117.7388401729
 10
166.7303288828
 20
117.8710698177
 10
167.0503462206
 20
118.1454286006
 10
167.3390566844
 20
118.5415685203
 10
167.5750477712
 20
119.0301096093
 10
167.7408176016
 20
119.5748187628
 10
167.8240717862
 20
120.1352980014
 10
167.8186351906
 20
120.6699796047
 10
167.7249115433
 20
121.1392069262
 10
167.5498517703
 20
121.5081810978
 10
167.3064389739
 20
121.749536137
 10
167.0127263766
 20
121.8453720238
 10
166.6904971477
 20
121.7885809046
 10
166.3636494901
 20
121.5833760824
 10
166.0564243335
 20
121.244974437
 10
165.7916067175
 20
120.798476043
 10
165.5888375368
 20
120.2769931432
 10
165.4631550897
 20
119.7192035642
 10
165.4238805182
 20
119.1664757234
 10
165.4739267666
 20
118.6598017838
  0
LWPOLYLINE
  5
156
330
1F
100
AcDbEntity
  8
0
  6
HIDDEN
 62
     7
370
     0
100
AcDbPolyline
 90
       21
 70
   128
 43
0.0
 10
174.9230003457
 20
117.4362483461
 10
175.384333777
 20
117.4749303636
 10
175.8103672888
 20
117.6456818384
 10
176.1593981188
 20
117.9317883242
 10
176.397259767
 20
118.3052435544
 10
176.5006701004
 20
118.7294907894
 10
176.4595056426
 20
119.1630028215
 10
176.277795295
 20
119.563343006
 10
175.9733273189
 20
119.8913250145
 10
175.575904968
 20
120.1148415011
 10
175.1244295861
 20
120.2120156985
 10
174.6630961548
 20
120.1733332154
 10
174.2370626431
 20
120.0025817406
 10
173.8880318131
 20
119.7164747891
 10
173.6501701649
 20
119.3430200246
 10
173.5467607628
 20
118.9187727895
 10
173.5879252206
 20
118.4852607575
 10
173.7696346369
 20
118.0849201072
 10
174.0741026129
 20
117.7569385644
 10
174.4715258952
 20
117.5334216122
 10
174.9230003457
 20
117.4362483461
  0
LWPOLYLINE
  5
157
330
1F
100
AcDbEntity
  8
0
  6
HIDDEN
 62
     7
370
     0
100
AcDbPolyline
 90
       24
 70
   128
 43
0.0
 10
174.8876501348
 20
117.051706652
 10
175.4310386728
 20
117.0867420759
 10
175.9442188319
 20
117.2582409371
 10
176.3891283896
 20
117.5534850944
 10
176.7327724498
 20
117.9505768259
 10
176.9496635076
 20
118.4200658489
 10
177.0237148281
 20
118.9271323409
 10
176.9494362648
 20
119.4341704276
 10
176.7323356595
 20
119.903573769
 10
176.388514648
 20
120.3005295273
 10
175.9434719112
 20
120.5955976647
 10
175.4302153837
 20
120.7668939632
 10
174.8868110131
 20
120.8017142516
 10
174.3535599213
 20
120.6974769038
 10
173.8700107213
 20
120.4619109657
 10
173.4720277142
 20
120.1124889803
 10
173.1891254436
 20
119.6751249981
 10
173.0422856759
 20
119.1822560531
 10
173.0424002286
 20
118.670437022
 10
173.1894597884
 20
118.1776262846
 10
173.4725576367
 20
117.7403740611
 10
173.8706980374
 20
117.3911090035
 10
174.3543524768
 20
117.1557344523
 10
174.8876501348
 20
117.051706652
  0
LWPOLYLINE
  5
158
330
1F
100
AcDbEntity
  8
0
  6
HIDDEN
 62
     7
370
     0
100
AcDbPolyline
 90
       24
 70
   128
 43
0.0
 10
174.8876501348
 20
117.3766260062
 10
175.4310386728
 20
117.4116609645
 10
175.9442188319
 20
117.5831602913
 10
176.3891283896
 20
117.8784039829
 10
176.7327724498
 20
118.27549618
 10
176.9496635076
 20
118.7449852031
 10
177.0237148281
 20
119.2520521608
 10
176.9494362648
 20
119.7590893161
 10
176.7323356595
 20
120.2284926575
 10
176.388514648
 20
120.6254484158
 10
175.9434719112
 20
120.9205165532
 10
175.4302153837
 20
121.091813783
 10
174.8868110131
 20
121.1266340714
 10
174.3535599213
 20
121.0223957923
 10
173.8700107213
 20
120.7868298542
 10
173.4720277142
 20
120.4374078688
 10
173.1891254436
 20
120.0000438866
 10
173.0422856759
 20
119.5071749416
 10
173.0424002286
 20
118.9953563761
 10
173.1894597884
 20
118.5025456388
 10
173.4725576367
 20
118.0652929496
 10
173.8706980374
 20
117.7160278921
 10
174.3543524768
 20
117.4806533408
 10
174.8876501348
 20
117.3766260062
  0
LWPOLYLINE
  5
159
330
1F
100
AcDbEntity
  8
0
  6
HIDDEN
 62
     7
370
     0
100
AcDbPolyline
 90
       21
 70
   128
 43
0.0
 10
174.9216657605
 20
118.785939182
 10
175.3891123932
 20
118.8251338926
 10
175.8207906511
 20
118.9981475499
 10
176.1744464289
 20
119.2880449843
 10
176.4154596727
 20
119.666448797
 10
176.5202399816
 20
120.0963174951
 10
176.4785297688
 20
120.5355729934
 10
176.2944119524
 20
120.9412179914
 10
175.9859094869
 20
121.273545551
 10
175.5832214381
 20
121.5000245747
 10
175.1257641714
 20
121.5984858599
 10
174.65831847
 20
121.559290218
 10
174.2266392808
 20
121.3862765607
 10
173.8729844343
 20
121.0963791263
 10
173.6319702592
 20
120.717976245
 10
173.5271908816
 20
120.2881066155
 10
173.5689010944
 20
119.8488511172
 10
173.7530179795
 20
119.4432061192
 10
174.061520445
 20
119.1108785596
 10
174.4642094251
 20
118.8844004672
 10
174.9216657605
 20
118.785939182
  0
LWPOLYLINE
  5
15A
330
1F
100
AcDbEntity
  8
0
  6
HIDDEN
 62
     7
370
     0
100
AcDbPolyline
 90
       21
 70
   128
 43
0.0
 10
174.9216657605
 20
117.7824605283
 10
175.3891123932
 20
117.8216557045
 10
175.8207906511
 20
117.9946693618
 10
176.1744464289
 20
118.2845667962
 10
176.4154596727
 20
118.6629701432
 10
176.5202399816
 20
119.0928388413
 10
176.4785297688
 20
119.532095271
 10
176.2944119524
 20
119.937740269
 10
175.9859094869
 20
120.2700668972
 10
175.5832214381
 20
120.4965459209
 10
175.1257641714
 20
120.5950072062
 10
174.65831847
 20
120.5558124956
 10
174.2266392808
 20
120.382797907
 10
173.8729844343
 20
120.0929014039
 10
173.6319702592
 20
119.7144975912
 10
173.5271908816
 20
119.2846288931
 10
173.5689010944
 20
118.8453724634
 10
173.7530179795
 20
118.4397279311
 10
174.061520445
 20
118.1074003715
 10
174.4642094251
 20
117.8809218135
 10
174.9216657605
 20
117.7824605283
  0
LWPOLYLINE
  5
15B
330
1F
100
AcDbEntity
  8
0
  6
HIDDEN
 62
     7
370
     0
100
AcDbPolyline
 90
       24
 70
   128
 43
0.0
 10
174.8876501348
 20
117.5690125701
 10
175.4310386728
 20
117.6040475283
 10
175.9442188319
 20
117.7755463895
 10
176.3891283896
 20
118.0707905468
 10
176.7327724498
 20
118.4678822782
 10
176.9496635076
 20
118.9373713013
 10
177.0237148281
 20
119.444438259
 10
176.9494362648
 20
119.9514754143
 10
176.7323356595
 20
120.4208787557
 10
176.388514648
 20
120.8178354454
 10
175.9434719112
 20
121.1129035827
 10
175.4302153837
 20
121.2841998812
 10
174.8868110131
 20
121.3190201696
 10
174.3535599213
 20
121.2147818905
 10
173.8700107213
 20
120.9792168837
 10
173.4720277142
 20
120.629793967
 10
173.1891254436
 20
120.1924299848
 10
173.0422856759
 20
119.6995610398
 10
173.0424002286
 20
119.1877424743
 10
173.1894597884
 20
118.694931737
 10
173.4725576367
 20
118.2576795135
 10
173.8706980374
 20
117.9084144559
 10
174.3543524768
 20
117.6730399047
 10
174.8876501348
 20
117.5690125701
  0
LWPOLYLINE
  5
15C
330
1F
100
AcDbEntity
  8
0
  6
HIDDEN
 62
     7
370
     0
100
AcDbPolyline
 90
       23
 70
   128
 43
0.0
 10
174.8985345017
 20
117.5747248371
 10
175.4207922619
 20
117.6114603904
 10
175.910881209
 20
117.7849713739
 10
176.3290971991
 20
118.0812004049
 10
176.6415587168
 20
118.4761500944
 10
176.8229514833
 20
118.9378229928
 10
176.8585820224
 20
119.4288171854
 10
176.7455623027
 20
119.9093554195
 10
176.4930481564
 20
120.3405074802
 10
176.1214979466
 20
120.6873431828
 10
175.6610110875
 20
120.9217654568
 10
175.1488954302
 20
121.0247818407
 10
174.62663767
 20
120.9880467531
 10
174.1365487229
 20
120.8145357695
 10
173.7183336642
 20
120.5183062729
 10
173.4058721464
 20
120.1233565834
 10
173.2244784485
 20
119.6616841507
 10
173.1888488408
 20
119.170689958
 10
173.3018685605
 20
118.6901517239
 10
173.5543817755
 20
118.2589996633
 10
173.9259329166
 20
117.9121634949
 10
174.3864188444
 20
117.677741221
 10
174.8985345017
 20
117.5747248371
  0
LWPOLYLINE
  5
15D
330
1F
100
AcDbEntity
  8
0
  6
HIDDEN
 62
     7
370
     0
100
AcDbPolyline
 90
       24
 70
   128
 43
0.0
 10
174.8876501348
 20
117.7613986683
 10
175.4310386728
 20
117.7964336265
 10
175.9442188319
 20
117.9679329534
 10
176.3891283896
 20
118.263176645
 10
176.7327724498
 20
118.6602688421
 10
176.9496635076
 20
119.1297573995
 10
177.0237148281
 20
119.6368243572
 10
176.9494362648
 20
120.1438615125
 10
176.7323356595
 20
120.6132657852
 10
176.388514648
 20
121.0102215436
 10
175.9434719112
 20
121.3052896809
 10
175.4302153837
 20
121.4765859794
 10
174.8868110131
 20
121.5114062678
 10
174.3535599213
 20
121.40716892
 10
173.8700107213
 20
121.171602982
 10
173.4720277142
 20
120.8221800652
 10
173.1891254436
 20
120.384816083
 10
173.0422856759
 20
119.8919480693
 10
173.0424002286
 20
119.3801285726
 10
173.1894597884
 20
118.8873183009
 10
173.4725576367
 20
118.4500656117
 10
173.8706980374
 20
118.1008005541
 10
174.3543524768
 20
117.8654260029
 10
174.8876501348
 20
117.7613986683
  0
LWPOLYLINE
  5
15E
330
1F
100
AcDbEntity
  8
0
  6
HIDDEN
 62
     7
370
     0
100
AcDbPolyline
 90
       23
 70
   128
 43
0.0
 10
174.8985345017
 20
117.7671114009
 10
175.4207922619
 20
117.8038464886
 10
175.910881209
 20
117.9773574721
 10
176.3290971991
 20
118.2735869687
 10
176.6415587168
 20
118.6685361926
 10
176.8229514833
 20
119.130209091
 10
176.8585820224
 20
119.6212032836
 10
176.7455623027
 20
120.1017415177
 10
176.4930481564
 20
120.5328935784
 10
176.1214979466
 20
120.8797302124
 10
175.6610110875
 20
121.114151555
 10
175.1488954302
 20
121.2171679389
 10
174.62663767
 20
121.1804328513
 10
174.1365487229
 20
121.0069218677
 10
173.7183336642
 20
120.7106923711
 10
173.4058721464
 20
120.3157436129
 10
173.2244784485
 20
119.8540702489
 10
173.1888488408
 20
119.3630760562
 10
173.3018685605
 20
118.8825378221
 10
173.5543817755
 20
118.4513857615
 10
173.9259329166
 20
118.1045495931
 10
174.3864188444
 20
117.8701277849
 10
174.8985345017
 20
117.7671114009
  0
LWPOLYLINE
  5
15F
330
1F
100
AcDbEntity
  8
0
  6
HIDDEN
 62
     7
370
     0
100
AcDbPolyline
 90
       24
 70
   128
 43
0.0
 10
174.8876501348
 20
117.9537852321
 10
175.4310386728
 20
117.9888201904
 10
175.9442188319
 20
118.1603190516
 10
176.3891283896
 20
118.4555632089
 10
176.7327724498
 20
118.852655406
 10
176.9496635076
 20
119.3221444291
 10
177.0237148281
 20
119.8292104554
 10
176.9494362648
 20
120.336248542
 10
176.7323356595
 20
120.8056518835
 10
176.388514648
 20
121.2026076418
 10
175.9434719112
 20
121.4976757791
 10
175.4302153837
 20
121.6689720776
 10
174.8868110131
 20
121.7037932974
 10
174.3535599213
 20
121.5995550182
 10
173.8700107213
 20
121.3639890802
 10
173.4720277142
 20
121.0145670947
 10
173.1891254436
 20
120.5772031125
 10
173.0422856759
 20
120.0843341675
 10
173.0424002286
 20
119.5725146708
 10
173.1894597884
 20
119.0797043991
 10
173.4725576367
 20
118.6424521756
 10
173.8706980374
 20
118.293187118
 10
174.3543524768
 20
118.0578125667
 10
174.8876501348
 20
117.9537852321
  0
LWPOLYLINE
  5
160
330
1F
100
AcDbEntity
  8
0
  6
HIDDEN
 62
     7
370
     0
100
AcDbPolyline
 90
       23
 70
   128
 43
0.0
 10
174.8985345017
 20
117.9594974991
 10
175.4207922619
 20
117.9962330524
 10
175.910881209
 20
118.169744036
 10
176.3290971991
 20
118.465973067
 10
176.6415587168
 20
118.8609227565
 10
176.8229514833
 20
119.3225951892
 10
176.8585820224
 20
119.8135893818
 10
176.7455623027
 20
120.294127616
 10
176.4930481564
 20
120.7252796766
 10
176.1214979466
 20
121.0721163106
 10
175.6610110875
 20
121.3065385845
 10
175.1488954302
 20
121.4095549684
 10
174.62663767
 20
121.3728189495
 10
174.1365487229
 20
121.1993088972
 10
173.7183336642
 20
120.9030794006
 10
173.4058721464
 20
120.5081297111
 10
173.2244784485
 20
120.0464572784
 10
173.1888488408
 20
119.5554621544
 10
173.3018685605
 20
119.0749239203
 10
173.5543817755
 20
118.6437723253
 10
173.9259329166
 20
118.296936157
 10
174.3864188444
 20
118.0625138831
 10
174.8985345017
 20
117.9594974991
  0
LWPOLYLINE
  5
161
330
1F
100
AcDbEntity
  8
0
  6
HIDDEN
 62
     7
370
     0
100
AcDbPolyline
 90
       24
 70
   128
 43
0.0
 10
174.8876501348
 20
118.1461713303
 10
175.4310386728
 20
118.1812062886
 10
175.9442188319
 20
118.3527056154
 10
176.3891283896
 20
118.6479493071
 10
176.7327724498
 20
119.0450415042
 10
176.9496635076
 20
119.5145305273
 10
177.0237148281
 20
120.0215974849
 10
176.9494362648
 20
120.5286346402
 10
176.7323356595
 20
120.9980379817
 10
176.388514648
 20
121.39499374
 10
175.9434719112
 20
121.6900618773
 10
175.4302153837
 20
121.8613591072
 10
174.8868110131
 20
121.8961793956
 10
174.3535599213
 20
121.7919411164
 10
173.8700107213
 20
121.5563751784
 10
173.4720277142
 20
121.2069531929
 10
173.1891254436
 20
120.7695892107
 10
173.0422856759
 20
120.2767202657
 10
173.0424002286
 20
119.7649017003
 10
173.1894597884
 20
119.2720904973
 10
173.4725576367
 20
118.8348382738
 10
173.8706980374
 20
118.4855732162
 10
174.3543524768
 20
118.2501986649
 10
174.8876501348
 20
118.1461713303
  0
LWPOLYLINE
  5
162
330
1F
100
AcDbEntity
  8
0
  6
HIDDEN
 62
     7
370
     0
100
AcDbPolyline
 90
       23
 70
   128
 43
0.0
 10
174.8985345017
 20
118.151884063
 10
175.4207922619
 20
118.1886191506
 10
175.910881209
 20
118.3621301342
 10
176.3290971991
 20
118.6583596308
 10
176.6415587168
 20
119.0533088547
 10
176.8229514833
 20
119.5149812874
 10
176.8585820224
 20
120.0059764114
 10
176.7455623027
 20
120.4865146455
 10
176.4930481564
 20
120.9176667061
 10
176.1214979466
 20
121.2645024088
 10
175.6610110875
 20
121.4989246827
 10
175.1488954302
 20
121.6019410666
 10
174.62663767
 20
121.565205979
 10
174.1365487229
 20
121.3916949954
 10
173.7183336642
 20
121.0954654988
 10
173.4058721464
 20
120.7005158093
 10
173.2244784485
 20
120.2388433766
 10
173.1888488408
 20
119.7478491839
 10
173.3018685605
 20
119.2673109498
 10
173.5543817755
 20
118.8361588892
 10
173.9259329166
 20
118.4893222552
 10
174.3864188444
 20
118.2549004469
 10
174.8985345017
 20
118.151884063
  0
LWPOLYLINE
  5
163
330
1F
100
AcDbEntity
  8
0
  6
HIDDEN
 62
     7
370
     0
100
AcDbPolyline
 90
       24
 70
   128
 43
0.0
 10
174.8876501348
 20
118.2829793569
 10
175.4310386728
 20
118.3180143152
 10
175.9442188319
 20
118.489513642
 10
176.3891283896
 20
118.7847573337
 10
176.7327724498
 20
119.1818490651
 10
176.9496635076
 20
119.6513390195
 10
177.0237148281
 20
120.1584050458
 10
176.9494362648
 20
120.6654431325
 10
176.7323356595
 20
121.1348464739
 10
176.388514648
 20
121.5318022322
 10
175.9434719112
 20
121.8268703696
 10
175.4302153837
 20
121.9981666681
 10
174.8868110131
 20
122.0329869565
 10
174.3535599213
 20
121.9287496087
 10
173.8700107213
 20
121.6931836706
 10
173.4720277142
 20
121.3437607538
 10
173.1891254436
 20
120.9063967716
 10
173.0422856759
 20
120.413528758
 10
173.0424002286
 20
119.9017092612
 10
173.1894597884
 20
119.4088989895
 10
173.4725576367
 20
118.971646766
 10
173.8706980374
 20
118.6223812428
 10
174.3543524768
 20
118.3870066915
 10
174.8876501348
 20
118.2829793569
  0
LWPOLYLINE
  5
164
330
1F
100
AcDbEntity
  8
0
  6
HIDDEN
 62
     7
370
     0
100
AcDbPolyline
 90
       23
 70
   128
 43
0.0
 10
174.8944534462
 20
118.4109328341
 10
175.4337404396
 20
118.4488660682
 10
175.9398108821
 20
118.6280348365
 10
176.3716632973
 20
118.9339235451
 10
176.6943144154
 20
119.3417524945
 10
176.8816229429
 20
119.8184797567
 10
176.9184148412
 20
120.3254843157
 10
176.8017089467
 20
120.8216920522
 10
176.5409609776
 20
121.2669033584
 10
176.1572951924
 20
121.6250499737
 10
175.6817926194
 20
121.8671165433
 10
175.152977417
 20
121.9734912765
 10
174.6136894923
 20
121.935558508
 10
174.1076199811
 20
121.7563897398
 10
173.6757666346
 20
121.4505005654
 10
173.3531164478
 20
121.0426725474
 10
173.1658079203
 20
120.5659452852
 10
173.129016022
 20
120.0589397949
 10
173.2457209851
 20
119.5627320584
 10
173.5064689543
 20
119.1175207522
 10
173.8901356708
 20
118.7593750682
 10
174.3656373124
 20
118.5173084986
 10
174.8944534462
 20
118.4109328341
  0
ARC
  5
165
330
1F
100
AcDbEntity
  8
0
  6
HIDDEN
 62
     7
370
     0
100
AcDbCircle
 10
175.0057825592
 20
101.5795210539
 30
0.0
 40
1.978860264004145
100
AcDbArc
 50
337.3814144578
 51
182.993480502
  0
ARC
  5
166
330
1F
100
AcDbEntity
  8
0
  6
HIDDEN
 62
     7
370
     0
100
AcDbCircle
 10
175.0000478079
 20
101.5242502359
 30
0.0
 40
1.8859806324595
100
AcDbArc
 50
341.3732776071
 51
160.505171621
  0
ARC
  5
167
330
1F
100
AcDbEntity
  8
0
  6
HIDDEN
 62
     7
370
     0
100
AcDbCircle
 10
175.0812393788
 20
101.5595529236
 30
0.0
 40
1.438049642432204
100
AcDbArc
 50
353.4415049299
 51
92.878807952
  0
LWPOLYLINE
  5
168
330
1F
100
AcDbEntity
  8
0
  6
HIDDEN
 62
     7
370
     0
100
AcDbPolyline
 90
       24
 70
   128
 43
0.0
 10
174.339674833
 20
99.9912824508
 10
173.8579892095
 20
100.2301936996
 10
173.4627591919
 20
100.5823658806
 10
173.1832990896
 20
101.0216800522
 10
173.0403336238
 20
101.515552963
 10
173.0444668334
 20
102.0273575586
 10
173.1953913819
 20
102.5191349935
 10
173.4819146346
 20
102.9544128132
 10
173.8827866044
 20
103.3009076517
 10
174.3682757493
 20
103.5329224568
 10
174.902375276
 20
103.6332496468
 10
175.4454751041
 20
103.5944484201
 10
175.9572936695
 20
103.419395632
 10
176.3998739894
 20
103.1210753162
 10
176.7403906684
 20
102.7216119718
 10
176.9535890322
 20
102.2506319013
 10
177.0236580174
 20
101.7430648234
 10
176.9453999128
 20
101.2365566593
 10
176.7246196519
 20
100.7686713737
 10
176.377690817
 20
100.3741100457
 10
175.9303439882
 20
100.0821348306
 10
175.4157566007
 20
99.9144017723
 10
174.8720933225
 20
99.883349615
 10
174.339674833
 20
99.9912824508
  0
LWPOLYLINE
  5
169
330
1F
100
AcDbEntity
  8
0
  6
HIDDEN
 62
     7
370
     0
100
AcDbPolyline
 90
       21
 70
   128
 43
0.0
 10
174.5106852155
 20
101.2652618837
 10
174.1002224859
 20
101.4790628132
 10
173.7801585819
 20
101.8015909966
 10
173.5818222638
 20
102.2012736675
 10
173.5246288132
 20
102.6389868956
 10
173.6141764101
 20
103.0718851861
 10
173.8416994464
 20
103.4575938274
 10
174.1849253427
 20
103.7583556053
 10
174.6102594312
 20
103.9447304819
 10
175.0760641422
 20
103.9984752451
 10
175.5367456477
 20
103.9143283878
 10
175.947207446
 20
103.700526527
 10
176.2672713499
 20
103.3779992748
 10
176.4656076681
 20
102.9783161384
 10
176.5228011187
 20
102.5406029102
 10
176.4332544532
 20
102.1077046197
 10
176.2057314169
 20
101.7219964441
 10
175.8625045892
 20
101.4212342006
 10
175.437171432
 20
101.2348588583
 10
174.9713657897
 20
101.1811150264
 10
174.5106852155
 20
101.2652618837
  0
LWPOLYLINE
  5
16A
330
1F
100
AcDbEntity
  8
0
  6
HIDDEN
 62
     7
370
     0
100
AcDbPolyline
 90
       24
 70
   128
 43
0.0
 10
174.339674833
 20
100.183668549
 10
173.8579892095
 20
100.4225797978
 10
173.4627591919
 20
100.7747519788
 10
173.1832990896
 20
101.2140661505
 10
173.0403336238
 20
101.7079390612
 10
173.0444668334
 20
102.2197436568
 10
173.1953913819
 20
102.7115210917
 10
173.4819146346
 20
103.1467989114
 10
173.8827866044
 20
103.4932942156
 10
174.3682757493
 20
103.7253090207
 10
174.902375276
 20
103.8256362107
 10
175.4454751041
 20
103.7868345183
 10
175.9572936695
 20
103.6117821958
 10
176.3998739894
 20
103.3134614144
 10
176.7403906684
 20
102.91399807
 10
176.9535890322
 20
102.4430179995
 10
177.0236580174
 20
101.9354518529
 10
176.9453999128
 20
101.4289427575
 10
176.7246196519
 20
100.9610574719
 10
176.377690817
 20
100.5664961439
 10
175.9303439882
 20
100.2745218601
 10
175.4157566007
 20
100.1067878705
 10
174.8720933225
 20
100.0757357132
 10
174.339674833
 20
100.183668549
  0
LWPOLYLINE
  5
16B
330
1F
100
AcDbEntity
  8
0
  6
HIDDEN
 62
     7
370
     0
100
AcDbPolyline
 90
       23
 70
   128
 43
0.0
 10
174.3943984162
 20
100.2768557545
 10
173.9327641677
 20
100.5092766162
 10
173.5595133629
 20
100.8544964742
 10
173.3048832517
 20
101.2845477116
 10
173.1895026293
 20
101.7645904821
 10
173.2227182489
 20
102.2557336864
 10
173.4018413823
 20
102.7181893614
 10
173.7123582985
 20
103.1144903999
 10
174.1291130435
 20
103.4125317846
 10
174.6183442425
 20
103.5881680463
 10
175.1404148068
 20
103.6271695074
 10
175.653032447
 20
103.5263771218
 10
176.1146657642
 20
103.2939562601
 10
176.487916569
 20
102.9487364021
 10
176.7425476115
 20
102.5186851647
 10
176.857928234
 20
102.0386423942
 10
176.824711683
 20
101.5474982586
 10
176.6455894809
 20
101.0850435149
 10
176.3350725647
 20
100.6887424764
 10
175.9183168884
 20
100.390700626
 10
175.4290866207
 20
100.2150643643
 10
174.9070151251
 20
100.1760633689
 10
174.3943984162
 20
100.2768557545
  0
LWPOLYLINE
  5
16C
330
1F
100
AcDbEntity
  8
0
  6
HIDDEN
 62
     7
370
     0
100
AcDbPolyline
 90
       24
 70
   128
 43
0.0
 10
174.339674833
 20
100.3760546472
 10
173.8579892095
 20
100.6149668273
 10
173.4627591919
 20
100.9671390083
 10
173.1832990896
 20
101.4064522487
 10
173.0403336238
 20
101.9003251594
 10
173.0444668334
 20
102.412129755
 10
173.1953913819
 20
102.9039071899
 10
173.4819146346
 20
103.3391850096
 10
173.8827866044
 20
103.6856803138
 10
174.3682757493
 20
103.9176951189
 10
174.902375276
 20
104.0180223089
 10
175.4454751041
 20
103.9792210821
 10
175.9572936695
 20
103.804168294
 10
176.3998739894
 20
103.5058479783
 10
176.7403906684
 20
103.1063841682
 10
176.9535890322
 20
102.6354040977
 10
177.0236580174
 20
102.1278379512
 10
176.9453999128
 20
101.6213288557
 10
176.7246196519
 20
101.1534435701
 10
176.377690817
 20
100.7588822421
 10
175.9303439882
 20
100.4669079584
 10
175.4157566007
 20
100.2991749
 10
174.8720933225
 20
100.2681227427
 10
174.339674833
 20
100.3760546472
  0
LWPOLYLINE
  5
16D
330
1F
100
AcDbEntity
  8
0
  6
HIDDEN
 62
     7
370
     0
100
AcDbPolyline
 90
       23
 70
   128
 43
0.0
 10
174.3943984162
 20
100.4692418527
 10
173.9327641677
 20
100.7016627144
 10
173.5595133629
 20
101.0468825724
 10
173.3048832517
 20
101.4769338098
 10
173.1895026293
 20
101.9569765803
 10
173.2227182489
 20
102.4481207159
 10
173.4018413823
 20
102.9105754596
 10
173.7123582985
 20
103.3068769638
 10
174.1291130435
 20
103.6049183485
 10
174.6183442425
 20
103.7805541445
 10
175.1404148068
 20
103.8195560713
 10
175.653032447
 20
103.7187636856
 10
176.1146657642
 20
103.4863428239
 10
176.487916569
 20
103.1411225003
 10
176.7425476115
 20
102.7110712629
 10
176.857928234
 20
102.2310284924
 10
176.824711683
 20
101.7398852881
 10
176.6455894809
 20
101.2774296131
 10
176.3350725647
 20
100.8811285746
 10
175.9183168884
 20
100.5830867242
 10
175.4290866207
 20
100.4074513939
 10
174.9070151251
 20
100.3684494671
 10
174.3943984162
 20
100.4692418527
  0
LWPOLYLINE
  5
16E
330
1F
100
AcDbEntity
  8
0
  6
HIDDEN
 62
     7
370
     0
100
AcDbPolyline
 90
       24
 70
   128
 43
0.0
 10
174.339674833
 20
100.5684407454
 10
173.8579892095
 20
100.8073529255
 10
173.4627591919
 20
101.1595251065
 10
173.1832990896
 20
101.5988383469
 10
173.0403336238
 20
102.0927121889
 10
173.0444668334
 20
102.6045158532
 10
173.1953913819
 20
103.0962937538
 10
173.4819146346
 20
103.5315715734
 10
173.8827866044
 20
103.8780668777
 10
174.3682757493
 20
104.1100816828
 10
174.902375276
 20
104.2104088728
 10
175.4454751041
 20
104.1716071804
 10
175.9572936695
 20
103.9965548579
 10
176.3998739894
 20
103.6982340765
 10
176.7403906684
 20
103.2987707321
 10
176.9535890322
 20
102.8277901959
 10
177.0236580174
 20
102.3202240494
 10
176.9453999128
 20
101.8137158852
 10
176.7246196519
 20
101.3458296683
 10
176.377690817
 20
100.9512683403
 10
175.9303439882
 20
100.6592940566
 10
175.4157566007
 20
100.4915609982
 10
174.8720933225
 20
100.4605088409
 10
174.339674833
 20
100.5684407454
  0
LWPOLYLINE
  5
16F
330
1F
100
AcDbEntity
  8
0
  6
HIDDEN
 62
     7
370
     0
100
AcDbPolyline
 90
       23
 70
   128
 43
0.0
 10
174.3943984162
 20
100.6616279509
 10
173.9327641677
 20
100.8940488127
 10
173.5595133629
 20
101.2392686706
 10
173.3048832517
 20
101.6693208393
 10
173.1895026293
 20
102.1493626785
 10
173.2227182489
 20
102.6405068141
 10
173.4018413823
 20
103.1029620234
 10
173.7123582985
 20
103.499263062
 10
174.1291130435
 20
103.7973044467
 10
174.6183442425
 20
103.9729407084
 10
175.1404148068
 20
104.0119421695
 10
175.653032447
 20
103.9111497838
 10
176.1146657642
 20
103.6787289221
 10
176.487916569
 20
103.3335090641
 10
176.7425476115
 20
102.9034573611
 10
176.857928234
 20
102.4234145906
 10
176.824711683
 20
101.9322713864
 10
176.6455894809
 20
101.4698157113
 10
176.3350725647
 20
101.0735146728
 10
175.9183168884
 20
100.7754737538
 10
175.4290866207
 20
100.5998374921
 10
174.9070151251
 20
100.5608355653
 10
174.3943984162
 20
100.6616279509
  0
LWPOLYLINE
  5
170
330
1F
100
AcDbEntity
  8
0
  6
HIDDEN
 62
     7
370
     0
100
AcDbPolyline
 90
       24
 70
   128
 43
0.0
 10
174.339674833
 20
100.760827775
 10
173.8579892095
 20
100.9997390237
 10
173.4627591919
 20
101.3519112047
 10
173.1832990896
 20
101.7912253764
 10
173.0403336238
 20
102.2850982871
 10
173.0444668334
 20
102.7969028827
 10
173.1953913819
 20
103.2886803177
 10
173.4819146346
 20
103.7239576716
 10
173.8827866044
 20
104.0704529759
 10
174.3682757493
 20
104.302467781
 10
174.902375276
 20
104.402794971
 10
175.4454751041
 20
104.3639937442
 10
175.9572936695
 20
104.1889409561
 10
176.3998739894
 20
103.8906206403
 10
176.7403906684
 20
103.4911568303
 10
176.9535890322
 20
103.0201772254
 10
177.0236580174
 20
102.5126101476
 10
176.9453999128
 20
102.0061019835
 10
176.7246196519
 20
101.5382166978
 10
176.377690817
 20
101.1436553698
 10
175.9303439882
 20
100.8516801548
 10
175.4157566007
 20
100.6839470964
 10
174.8720933225
 20
100.6528949392
 10
174.339674833
 20
100.760827775
  0
LWPOLYLINE
  5
171
330
1F
100
AcDbEntity
  8
0
  6
HIDDEN
 62
     7
370
     0
100
AcDbPolyline
 90
       23
 70
   128
 43
0.0
 10
174.3943984162
 20
100.8540140491
 10
173.9327641677
 20
101.0864349109
 10
173.5595133629
 20
101.4316557002
 10
173.3048832517
 20
101.8617069375
 10
173.1895026293
 20
102.341749708
 10
173.2227182489
 20
102.8328929123
 10
173.4018413823
 20
103.2953481216
 10
173.7123582985
 20
103.6916496259
 10
174.1291130435
 20
103.9896910105
 10
174.6183442425
 20
104.1653268066
 10
175.1404148068
 20
104.2043287334
 10
175.653032447
 20
104.1035363477
 10
176.1146657642
 20
103.871115486
 10
176.487916569
 20
103.5258951623
 10
176.7425476115
 20
103.095843925
 10
176.857928234
 20
102.6158016202
 10
176.824711683
 20
102.1246574846
 10
176.6455894809
 20
101.6622027409
 10
176.3350725647
 20
101.265900771
 10
175.9183168884
 20
100.967859852
 10
175.4290866207
 20
100.7922235903
 10
174.9070151251
 20
100.7532216635
 10
174.3943984162
 20
100.8540140491
  0
LWPOLYLINE
  5
172
330
1F
100
AcDbEntity
  8
0
  6
HIDDEN
 62
     7
370
     0
100
AcDbPolyline
 90
       24
 70
   128
 43
0.0
 10
174.339674833
 20
101.0857466635
 10
173.8579892095
 20
101.3246579122
 10
173.4627591919
 20
101.6768300932
 10
173.1832990896
 20
102.1161442649
 10
173.0403336238
 20
102.6100171756
 10
173.0444668334
 20
103.1218217712
 10
173.1953913819
 20
103.6135992062
 10
173.4819146346
 20
104.0488770258
 10
173.8827866044
 20
104.3953723301
 10
174.3682757493
 20
104.6273871351
 10
174.902375276
 20
104.7277143252
 10
175.4454751041
 20
104.6889126327
 10
175.9572936695
 20
104.5138603103
 10
176.3998739894
 20
104.2155395288
 10
176.7403906684
 20
103.8160761845
 10
176.9535890322
 20
103.3450961139
 10
177.0236580174
 20
102.8375299674
 10
176.9453999128
 20
102.331020872
 10
176.7246196519
 20
101.8631355863
 10
176.377690817
 20
101.4685742584
 10
175.9303439882
 20
101.1765999746
 10
175.4157566007
 20
101.0088659849
 10
174.8720933225
 20
100.9778138277
 10
174.339674833
 20
101.0857466635
  0
LWPOLYLINE
  5
173
330
1F
100
AcDbEntity
  8
0
  6
HIDDEN
 62
     7
370
     0
100
AcDbPolyline
 90
       21
 70
   128
 43
0.0
 10
174.517393532
 20
101.647184233
 10
174.1122989457
 20
101.8581902635
 10
173.7964204054
 20
102.176500487
 10
173.6006778207
 20
102.5709556442
 10
173.5442322221
 20
103.0029458952
 10
173.6326082151
 20
103.430183607
 10
173.8571556758
 20
103.8108477395
 10
174.19589446
 20
104.1076765422
 10
174.6156657588
 20
104.2916146134
 10
175.0753796201
 20
104.3446562279
 10
175.5300363999
 20
104.2616097283
 10
175.9351309862
 20
104.0506041635
 10
176.2510095265
 20
103.73229394
 10
176.4467521112
 20
103.3378378515
 10
176.5031977098
 20
102.9058480662
 10
176.4148217168
 20
102.4786103543
 10
176.1902742561
 20
102.0979462218
 10
175.8515354719
 20
101.8011169535
 10
175.4317641731
 20
101.6171798137
 10
174.9720503118
 20
101.5641381991
 10
174.517393532
 20
101.647184233
  0
LWPOLYLINE
  5
174
330
1F
100
AcDbEntity
  8
0
  6
HIDDEN
 62
     7
370
     0
100
AcDbPolyline
 90
       24
 70
   128
 43
0.0
 10
169.5638307843
 20
120.4528138068
 10
169.6176980164
 20
119.9749726829
 10
169.5865438793
 20
119.4504871991
 10
169.472678053
 20
118.9182568368
 10
169.2845462363
 20
118.4177538407
 10
169.0361010384
 20
117.9860993315
 10
168.7457682107
 20
117.6553061258
 10
168.4350808624
 20
117.44990852
 10
168.1270808454
 20
117.3851392258
 10
167.8446111742
 20
117.4658020053
 10
167.6086219501
 20
117.6859149736
 10
167.4366145868
 20
118.0291529771
 10
167.341346341
 20
118.4700592447
 10
167.3298831571
 20
118.9759345752
 10
167.4030748669
 20
119.5092601728
 10
167.5554932568
 20
120.030481371
 10
167.7758343991
 20
120.5009417635
 10
168.0477559108
 20
120.8857502815
 10
168.3510913987
 20
121.1563656133
 10
168.6633433688
 20
121.2927196201
 10
168.9613535542
 20
121.2846981388
 10
169.2230202731
 20
121.1328962844
 10
169.4289366256
 20
120.8485718843
 10
169.5638307843
 20
120.4528138068
  0
LWPOLYLINE
  5
175
330
1F
100
AcDbEntity
  8
0
  6
HIDDEN
 62
     7
370
     0
100
AcDbPolyline
 90
       19
 70
   128
 43
0.0
 10
169.7685024243
 20
119.8906488743
 10
169.8021022145
 20
119.5028517422
 10
169.7492911022
 20
119.0783968222
 10
169.6164388683
 20
118.6684793819
 10
169.4195693832
 20
118.3225414742
 10
169.182428113
 20
118.0823082131
 10
168.9336178366
 20
117.9767553721
 10
168.703149027
 20
118.0186145965
 10
168.5188193347
 20
118.2028362554
 10
168.4028612923
 20
118.5072008547
 10
168.3692615021
 20
118.8949979868
 10
168.4220726143
 20
119.3194529068
 10
168.5549248483
 20
119.7293698814
 10
168.7517943334
 20
120.0753077891
 10
168.9889356036
 20
120.3155415159
 10
169.2377454143
 20
120.4210938912
 10
169.4682146896
 20
120.3792355981
 10
169.6525443818
 20
120.1950134736
 10
169.7685024243
 20
119.8906488743
  0
LWPOLYLINE
  5
176
330
1F
100
AcDbEntity
  8
0
  6
HIDDEN
 62
     7
370
     0
100
AcDbPolyline
 90
       24
 70
   128
 43
0.0
 10
167.9051843945
 20
120.8500349921
 10
167.9590516265
 20
120.3721938681
 10
167.9278974894
 20
119.8477083844
 10
167.8140316632
 20
119.3154780221
 10
167.6258998465
 20
118.8149750259
 10
167.3774546485
 20
118.3833200511
 10
167.0871218208
 20
118.0525273111
 10
166.7764344726
 20
117.8471292396
 10
166.4684344556
 20
117.7823604111
 10
166.1859647844
 20
117.8630231906
 10
165.9499755602
 20
118.0831361589
 10
165.7779681969
 20
118.4263741624
 10
165.682700184
 20
118.8672808957
 10
165.6712367672
 20
119.3731557604
 10
165.7444284771
 20
119.9064813581
 10
165.896846867
 20
120.4277025562
 10
166.1171875436
 20
120.8981629488
 10
166.389109521
 20
121.2829705354
 10
166.6924450088
 20
121.5535867986
 10
167.004696979
 20
121.6899408054
 10
167.3027071644
 20
121.6819183927
 10
167.5643738832
 20
121.5301165384
 10
167.7702902358
 20
121.2457930696
 10
167.9051843945
 20
120.8500349921
  0
LINE
  5
177
330
1F
100
AcDbEntity
  8
0
  6
HIDDEN
 62
     7
370
     0
100
AcDbLine
 10
167.3666615512
 20
119.9831916046
 30
0.0
 11
167.2261910986
 21
118.8541995388
 31
0.0
  0
LINE
  5
178
330
1F
100
AcDbEntity
  8
0
  6
HIDDEN
 62
     7
370
     0
100
AcDbLine
 10
166.1379336852
 20
120.2774532166
 30
0.0
 11
165.9974632326
 21
119.1484620821
 31
0.0
  0
LWPOLYLINE
  5
179
330
1F
100
AcDbEntity
  8
0
  6
HIDDEN
 62
     7
370
     0
100
AcDbPolyline
 90
       21
 70
   128
 43
0.0
 10
167.5076987136
 20
120.6783894476
 10
167.5516752999
 20
120.2320437905
 10
167.5052581828
 20
119.7421792921
 10
167.3729912851
 20
119.2567450952
 10
167.1678213876
 20
118.8232600715
 10
166.9098319959
 20
118.4841571402
 10
166.6242773186
 20
118.2726291035
 10
166.3391086746
 20
118.2093820561
 10
166.0822410609
 20
118.3006074306
 10
165.8788183246
 20
118.5373752404
 10
165.7487528406
 20
118.896508592
 10
165.7047760215
 20
119.3428533178
 10
165.7511931386
 20
119.8327187475
 10
165.8834600363
 20
120.3181529444
 10
166.0886299338
 20
120.7516370368
 10
166.3466193255
 20
121.0907408994
 10
166.6321740027
 20
121.3022684705
 10
166.9173426468
 20
121.3655155179
 10
167.1742102604
 20
121.274290609
 10
167.3776329968
 20
121.0375232649
 10
167.5076987136
 20
120.6783894476
  0
LINE
  5
17A
330
1F
100
AcDbEntity
  8
0
  6
HIDDEN
 62
     7
370
     0
100
AcDbLine
 10
166.7686961133
 20
120.9164401543
 30
0.0
 11
166.1379336852
 21
120.2774532166
 31
0.0
  0
LINE
  5
17B
330
1F
100
AcDbEntity
  8
0
  6
HIDDEN
 62
     7
370
     0
100
AcDbLine
 10
167.9974244449
 20
120.6221785423
 30
0.0
 11
167.3666615512
 21
119.9831916046
 31
0.0
  0
LINE
  5
17C
330
1F
100
AcDbEntity
  8
0
  6
HIDDEN
 62
     7
370
     0
100
AcDbLine
 10
167.3666615512
 20
119.9831916046
 30
0.0
 11
166.1379336852
 21
120.2774532166
 31
0.0
  0
LINE
  5
17D
330
1F
100
AcDbEntity
  8
0
  6
HIDDEN
 62
     7
370
     0
100
AcDbLine
 10
166.4877552081
 20
118.6584574197
 30
0.0
 11
165.9974632326
 21
119.1484620821
 31
0.0
  0
LINE
  5
17E
330
1F
100
AcDbEntity
  8
0
  6
HIDDEN
 62
     7
370
     0
100
AcDbLine
 10
167.716483074
 20
118.364195342
 30
0.0
 11
167.2261910986
 21
118.8541995388
 31
0.0
  0
LINE
  5
17F
330
1F
100
AcDbEntity
  8
0
  6
HIDDEN
 62
     7
370
     0
100
AcDbLine
 10
167.2261910986
 20
118.8541995388
 30
0.0
 11
165.9974632326
 21
119.1484620821
 31
0.0
  0
LINE
  5
180
330
1F
100
AcDbEntity
  8
0
  6
HIDDEN
 62
     7
370
     0
100
AcDbLine
 10
168.4877164204
 20
120.1321743455
 30
0.0
 11
167.2589880887
 21
120.4264359575
 31
0.0
  0
LINE
  5
181
330
1F
100
AcDbEntity
  8
0
  6
HIDDEN
 62
     7
370
     0
100
AcDbLine
 10
167.9974244449
 20
120.6221785423
 30
0.0
 11
166.7686961133
 21
120.9164401543
 31
0.0
  0
LINE
  5
182
330
1F
100
AcDbEntity
  8
0
  6
HIDDEN
 62
     7
370
     0
100
AcDbLine
 10
166.7686961133
 20
120.9164401543
 30
0.0
 11
167.2589880887
 21
120.4264359575
 31
0.0
  0
LINE
  5
183
330
1F
100
AcDbEntity
  8
0
  6
HIDDEN
 62
     7
370
     0
100
AcDbLine
 10
167.9974244449
 20
120.6221785423
 30
0.0
 11
168.4877164204
 21
120.1321743455
 31
0.0
  0
LINE
  5
184
330
1F
100
AcDbEntity
  8
0
  6
HIDDEN
 62
     7
370
     0
100
AcDbLine
 10
168.3472459677
 20
119.0031822797
 30
0.0
 11
167.1185176361
 21
119.2974448231
 31
0.0
  0
LINE
  5
185
330
1F
100
AcDbEntity
  8
0
  6
HIDDEN
 62
     7
370
     0
100
AcDbLine
 10
167.716483074
 20
118.364195342
 30
0.0
 11
166.4877552081
 21
118.6584574197
 31
0.0
  0
LINE
  5
186
330
1F
100
AcDbEntity
  8
0
  6
HIDDEN
 62
     7
370
     0
100
AcDbLine
 10
167.1185176361
 20
119.2974448231
 30
0.0
 11
166.4877552081
 21
118.6584574197
 31
0.0
  0
LINE
  5
187
330
1F
100
AcDbEntity
  8
0
  6
HIDDEN
 62
     7
370
     0
100
AcDbLine
 10
168.3472459677
 20
119.0031822797
 30
0.0
 11
167.716483074
 21
118.364195342
 31
0.0
  0
LINE
  5
188
330
1F
100
AcDbEntity
  8
0
  6
HIDDEN
 62
     7
370
     0
100
AcDbLine
 10
167.1185176361
 20
119.2974448231
 30
0.0
 11
167.2589880887
 21
120.4264359575
 31
0.0
  0
LINE
  5
189
330
1F
100
AcDbEntity
  8
0
  6
HIDDEN
 62
     7
370
     0
100
AcDbLine
 10
168.3472459677
 20
119.0031822797
 30
0.0
 11
168.4877164204
 21
120.1321743455
 31
0.0
  0
LWPOLYLINE
  5
18A
330
1F
100
AcDbEntity
  8
0
  6
HIDDEN
 62
     7
370
     0
100
AcDbPolyline
 90
       21
 70
   128
 43
0.0
 10
167.5076987136
 20
101.1001393225
 10
167.5516752999
 20
101.5464849797
 10
167.5052581828
 20
102.036349478
 10
167.3729912851
 20
102.5217836749
 10
167.1678213876
 20
102.9552686986
 10
166.9098319959
 20
103.2943716299
 10
166.6242773186
 20
103.5058996667
 10
166.3391086746
 20
103.569146714
 10
166.0822410609
 20
103.4779213395
 10
165.8788183246
 20
103.2411535297
 10
165.7487528406
 20
102.8820201781
 10
165.7047760215
 20
102.4356754523
 10
165.7511931386
 20
101.9458100226
 10
165.8834600363
 20
101.4603758257
 10
166.0886299338
 20
101.0268917334
 10
166.3466193255
 20
100.6877878707
 10
166.6321740027
 20
100.4762602996
 10
166.9173426468
 20
100.4130132523
 10
167.1742102604
 20
100.5042381611
 10
167.3776329968
 20
100.7410055053
 10
167.5076987136
 20
101.1001393225
  0
LWPOLYLINE
  5
18B
330
1F
100
AcDbEntity
  8
0
  6
HIDDEN
 62
     7
370
     0
100
AcDbPolyline
 90
       24
 70
   128
 43
0.0
 10
167.9051843945
 20
100.9284937781
 10
167.9590516265
 20
101.406334902
 10
167.9278974894
 20
101.9308203858
 10
167.8140316632
 20
102.4630507481
 10
167.6258998465
 20
102.9635537442
 10
167.3774546485
 20
103.395208719
 10
167.0871218208
 20
103.726001459
 10
166.7764344726
 20
103.9313995306
 10
166.4684344556
 20
103.996168359
 10
166.1859647844
 20
103.9155055795
 10
165.9499755602
 20
103.6953926113
 10
165.7779681969
 20
103.3521546077
 10
165.682700184
 20
102.9112478745
 10
165.6712367672
 20
102.4053730097
 10
165.7444284771
 20
101.8720474121
 10
165.896846867
 20
101.3508262139
 10
166.1171875436
 20
100.8803658214
 10
166.389109521
 20
100.4955582347
 10
166.6924450088
 20
100.2249419716
 10
167.004696979
 20
100.0885879647
 10
167.3027071644
 20
100.0966103774
 10
167.5643738832
 20
100.2484122318
 10
167.7702902358
 20
100.5327357006
 10
167.9051843945
 20
100.9284937781
  0
LWPOLYLINE
  5
18C
330
1F
100
AcDbEntity
  8
0
  6
HIDDEN
 62
     7
370
     0
100
AcDbPolyline
 90
       24
 70
   128
 43
0.0
 10
169.5638307843
 20
101.3257149633
 10
169.6176980164
 20
101.8035560873
 10
169.5865438793
 20
102.328041571
 10
169.472678053
 20
102.8602719333
 10
169.2845462363
 20
103.3607749295
 10
169.0361010384
 20
103.7924294386
 10
168.7457682107
 20
104.1232226443
 10
168.4350808624
 20
104.3286202502
 10
168.1270808454
 20
104.3933895443
 10
167.8446111742
 20
104.3127267648
 10
167.6086219501
 20
104.0926137966
 10
167.4366145868
 20
103.749375793
 10
167.341346341
 20
103.3084695254
 10
167.3298831571
 20
102.802594195
 10
167.4030748669
 20
102.2692685973
 10
167.5554932568
 20
101.7480473992
 10
167.7758343991
 20
101.2775870067
 10
168.0477559108
 20
100.8927784887
 10
168.3510913987
 20
100.6221631568
 10
168.6633433688
 20
100.48580915
 10
168.9613535542
 20
100.4938306313
 10
169.2230202731
 20
100.6456324857
 10
169.4289366256
 20
100.9299568858
 10
169.5638307843
 20
101.3257149633
  0
LINE
  5
18D
330
1F
100
AcDbEntity
  8
0
  6
HIDDEN
 62
     7
370
     0
100
AcDbLine
 10
166.4877552081
 20
103.1200713505
 30
0.0
 11
165.9974632326
 21
102.630066688
 31
0.0
  0
LINE
  5
18E
330
1F
100
AcDbEntity
  8
0
  6
HIDDEN
 62
     7
370
     0
100
AcDbLine
 10
166.1379336852
 20
101.5010755536
 30
0.0
 11
165.9974632326
 21
102.630066688
 31
0.0
  0
LINE
  5
18F
330
1F
100
AcDbEntity
  8
0
  6
HIDDEN
 62
     7
370
     0
100
AcDbLine
 10
166.7686961133
 20
100.8620886159
 30
0.0
 11
166.1379336852
 21
101.5010755536
 31
0.0
  0
LINE
  5
190
330
1F
100
AcDbEntity
  8
0
  6
HIDDEN
 62
     7
370
     0
100
AcDbLine
 10
166.7686961133
 20
100.8620886159
 30
0.0
 11
167.2589880887
 21
101.3520928126
 31
0.0
  0
LINE
  5
191
330
1F
100
AcDbEntity
  8
0
  6
HIDDEN
 62
     7
370
     0
100
AcDbLine
 10
167.1185176361
 20
102.4810839471
 30
0.0
 11
167.2589880887
 21
101.3520928126
 31
0.0
  0
LINE
  5
192
330
1F
100
AcDbEntity
  8
0
  6
HIDDEN
 62
     7
370
     0
100
AcDbLine
 10
167.1185176361
 20
102.4810839471
 30
0.0
 11
166.4877552081
 21
103.1200713505
 31
0.0
  0
LWPOLYLINE
  5
193
330
1F
100
AcDbEntity
  8
0
  6
HIDDEN
 62
     7
370
     0
100
AcDbPolyline
 90
       19
 70
   128
 43
0.0
 10
169.7685024243
 20
101.8878798958
 10
169.8021022145
 20
102.275677028
 10
169.7492911022
 20
102.700131948
 10
169.6164388683
 20
103.1100493882
 10
169.4195693832
 20
103.4559872959
 10
169.182428113
 20
103.6962205571
 10
168.9336178366
 20
103.801773398
 10
168.703149027
 20
103.7599141736
 10
168.5188193347
 20
103.5756925147
 10
168.4028612923
 20
103.2713279155
 10
168.3692615021
 20
102.8835307833
 10
168.4220726143
 20
102.4590758633
 10
168.5549248483
 20
102.0491588887
 10
168.7517943334
 20
101.703220981
 10
168.9889356036
 20
101.4629872542
 10
169.2377454143
 20
101.3574348789
 10
169.4682146896
 20
101.399293172
 10
169.6525443818
 20
101.5835152965
 10
169.7685024243
 20
101.8878798958
  0
LINE
  5
194
330
1F
100
AcDbEntity
  8
0
  6
HIDDEN
 62
     7
370
     0
100
AcDbLine
 10
168.3472459677
 20
102.7753464904
 30
0.0
 11
167.1185176361
 21
102.4810839471
 31
0.0
  0
LINE
  5
195
330
1F
100
AcDbEntity
  8
0
  6
HIDDEN
 62
     7
370
     0
100
AcDbLine
 10
168.4877164204
 20
101.6463544246
 30
0.0
 11
167.2589880887
 21
101.3520928126
 31
0.0
  0
LINE
  5
196
330
1F
100
AcDbEntity
  8
0
  6
HIDDEN
 62
     7
370
     0
100
AcDbLine
 10
167.9974244449
 20
101.1563502279
 30
0.0
 11
167.3666615512
 21
101.7953371656
 31
0.0
  0
LINE
  5
197
330
1F
100
AcDbEntity
  8
0
  6
HIDDEN
 62
     7
370
     0
100
AcDbLine
 10
167.3666615512
 20
101.7953371656
 30
0.0
 11
167.2261910986
 21
102.9243292313
 31
0.0
  0
LINE
  5
198
330
1F
100
AcDbEntity
  8
0
  6
HIDDEN
 62
     7
370
     0
100
AcDbLine
 10
167.716483074
 20
103.4143334281
 30
0.0
 11
167.2261910986
 21
102.9243292313
 31
0.0
  0
LINE
  5
199
330
1F
100
AcDbEntity
  8
0
  6
HIDDEN
 62
     7
370
     0
100
AcDbLine
 10
167.9974244449
 20
101.1563502279
 30
0.0
 11
168.4877164204
 21
101.6463544246
 31
0.0
  0
LINE
  5
19A
330
1F
100
AcDbEntity
  8
0
  6
HIDDEN
 62
     7
370
     0
100
AcDbLine
 10
168.3472459677
 20
102.7753464904
 30
0.0
 11
167.716483074
 21
103.4143334281
 31
0.0
  0
LINE
  5
19B
330
1F
100
AcDbEntity
  8
0
  6
HIDDEN
 62
     7
370
     0
100
AcDbLine
 10
168.3472459677
 20
102.7753464904
 30
0.0
 11
168.4877164204
 21
101.6463544246
 31
0.0
  0
LINE
  5
19C
330
1F
100
AcDbEntity
  8
0
  6
HIDDEN
 62
     7
370
     0
100
AcDbLine
 10
167.2261910986
 20
102.9243292313
 30
0.0
 11
165.9974632326
 21
102.630066688
 31
0.0
  0
LINE
  5
19D
330
1F
100
AcDbEntity
  8
0
  6
HIDDEN
 62
     7
370
     0
100
AcDbLine
 10
167.716483074
 20
103.4143334281
 30
0.0
 11
166.4877552081
 21
103.1200713505
 31
0.0
  0
LINE
  5
19E
330
1F
100
AcDbEntity
  8
0
  6
HIDDEN
 62
     7
370
     0
100
AcDbLine
 10
167.3666615512
 20
101.7953371656
 30
0.0
 11
166.1379336852
 21
101.5010755536
 31
0.0
  0
LINE
  5
19F
330
1F
100
AcDbEntity
  8
0
  6
HIDDEN
 62
     7
370
     0
100
AcDbLine
 10
167.9974244449
 20
101.1563502279
 30
0.0
 11
166.7686961133
 21
100.8620886159
 31
0.0
  0
LINE
  5
1A0
330
1F
100
AcDbEntity
  8
0
  6
HIDDEN
 62
     7
370
     0
100
AcDbLine
 10
200.9737151217
 20
130.1892651271
 30
0.0
 11
200.6109202754
 21
130.5520581108
 31
0.0
  0
LINE
  5
1A1
330
1F
100
AcDbEntity
  8
0
  6
HIDDEN
 62
     7
370
     0
100
AcDbLine
 10
191.337478767
 20
130.5530285489
 30
0.0
 11
190.9737153452
 21
130.1892651271
 31
0.0
  0
LINE
  5
1A2
330
1F
100
AcDbEntity
  8
0
  6
HIDDEN
 62
     7
370
     0
100
AcDbLine
 10
190.9737153452
 20
130.1892651271
 30
0.0
 11
190.9737153452
 21
123.6667633083
 31
0.0
  0
LINE
  5
1A3
330
1F
100
AcDbEntity
  8
0
  6
HIDDEN
 62
     7
370
     0
100
AcDbLine
 10
200.9737151217
 20
123.6667633083
 30
0.0
 11
200.9737151217
 21
130.1892651271
 31
0.0
  0
LINE
  5
1A4
330
1F
100
AcDbEntity
  8
0
  6
HIDDEN
 62
     7
370
     0
100
AcDbLine
 10
190.9737153452
 20
123.6667633083
 30
0.0
 11
192.8641362589
 21
116.6116185513
 31
0.0
  0
LINE
  5
1A5
330
1F
100
AcDbEntity
  8
0
  6
HIDDEN
 62
     7
370
     0
100
AcDbLine
 10
199.083294208
 20
116.6116185513
 30
0.0
 11
200.9737151217
 21
123.6667633083
 31
0.0
  0
ARC
  5
1A6
330
1F
100
AcDbEntity
  8
0
  6
HIDDEN
 62
     7
370
     0
100
AcDbCircle
 10
193.1539132598
 20
116.6892643851
 30
0.0
 40
0.2999999999999972
100
AcDbArc
 50
195.0
 51
270.0
  0
ARC
  5
1A7
330
1F
100
AcDbEntity
  8
0
  6
HIDDEN
 62
     7
370
     0
100
AcDbCircle
 10
198.793517067
 20
116.6892643851
 30
0.0
 40
0.2999999999999972
100
AcDbArc
 50
270.0
 51
345.0
  0
LINE
  5
1A8
330
1F
100
AcDbEntity
  8
0
  6
HIDDEN
 62
     7
370
     0
100
AcDbLine
 10
192.973715673
 20
130.889263938
 30
0.0
 11
193.3239805054
 21
130.5390009683
 31
0.0
  0
LINE
  5
1A9
330
1F
100
AcDbEntity
  8
0
  6
HIDDEN
 62
     7
370
     0
100
AcDbLine
 10
198.6234518241
 20
130.5390009683
 30
0.0
 11
198.9737147938
 21
130.889263938
 31
0.0
  0
LINE
  5
1AA
330
1F
100
AcDbEntity
  8
0
  6
HIDDEN
 62
     7
370
     0
100
AcDbLine
 10
193.4737148236
 20
123.8892646533
 30
0.0
 11
193.4737148236
 21
122.8892644894
 31
0.0
  0
LINE
  5
1AB
330
1F
100
AcDbEntity
  8
0
  6
HIDDEN
 62
     7
370
     0
100
AcDbLine
 10
198.4737137806
 20
122.8892644894
 30
0.0
 11
198.4737137806
 21
123.8892646533
 31
0.0
  0
LINE
  5
1AC
330
1F
100
AcDbEntity
  8
0
  6
HIDDEN
 62
     7
370
     0
100
AcDbLine
 10
193.4737148236
 20
122.8892644894
 30
0.0
 11
195.9737161647
 21
121.9793390509
 31
0.0
  0
LINE
  5
1AD
330
1F
100
AcDbEntity
  8
0
  6
HIDDEN
 62
     7
370
     0
100
AcDbLine
 10
195.9737161647
 20
121.9793390509
 30
0.0
 11
198.4737137806
 21
122.8892644894
 31
0.0
  0
LINE
  5
1AE
330
1F
100
AcDbEntity
  8
0
  6
HIDDEN
 62
     7
370
     0
100
AcDbLine
 10
177.0237148281
 20
100.030421282
 30
0.0
 11
177.0237148281
 21
102.85179131
 31
0.0
  0
LINE
  5
1AF
330
1F
100
AcDbEntity
  8
0
  6
HIDDEN
 62
     7
370
     0
100
AcDbLine
 10
173.0237151038
 20
102.8348365825
 30
0.0
 11
173.0237151038
 21
101.3133805272
 31
0.0
  0
LINE
  5
1B0
330
1F
100
AcDbEntity
  8
0
  6
HIDDEN
 62
     7
370
     0
100
AcDbLine
 10
165.2237150825
 20
99.49533921
 30
0.0
 11
167.1173143674
 21
99.9488281113
 31
0.0
  0
LINE
  5
1B1
330
1F
100
AcDbEntity
  8
0
  6
HIDDEN
 62
     7
370
     0
100
AcDbLine
 10
166.139136954
 20
104.0333313894
 30
0.0
 11
165.2237150825
 21
103.8141017806
 31
0.0
  0
LINE
  5
1B2
330
1F
100
AcDbEntity
  8
0
  6
HIDDEN
 62
     7
370
     0
100
AcDbLine
 10
167.1466757085
 20
100.4185844239
 30
0.0
 11
174.3537359413
 21
102.1445672986
 31
0.0
  0
LINE
  5
1B3
330
1F
100
AcDbEntity
  8
0
  6
HIDDEN
 62
     7
370
     0
100
AcDbLine
 10
174.3537359413
 20
105.537881146
 30
0.0
 11
166.3781078074
 21
103.6278368
 31
0.0
  0
LINE
  5
1B4
330
1F
100
AcDbEntity
  8
0
  6
HIDDEN
 62
     7
370
     0
100
AcDbLine
 10
176.6737154227
 20
102.8953604427
 30
0.0
 11
176.6737154227
 21
109.7299491547
 31
0.0
  0
LINE
  5
1B5
330
1F
100
AcDbEntity
  8
0
  6
HIDDEN
 62
     7
370
     0
100
AcDbLine
 10
173.3737154405
 20
102.9176004257
 30
0.0
 11
173.3737154405
 21
102.8953604427
 31
0.0
  0
LINE
  5
1B6
330
1F
100
AcDbEntity
  8
0
  6
HIDDEN
 62
     7
370
     0
100
AcDbLine
 10
173.3737154405
 20
109.7286618341
 30
0.0
 11
173.3737154405
 21
104.2954474714
 31
0.0
  0
ARC
  5
1B7
330
1F
100
AcDbEntity
  8
0
  6
HIDDEN
 62
     7
370
     0
100
AcDbCircle
 10
207.0237151634
 20
122.8892643851
 30
0.0
 40
1.0
100
AcDbArc
 50
270.0
 51
0.0
  0
ARC
  5
1B8
330
1F
100
AcDbEntity
  8
0
  6
HIDDEN
 62
     7
370
     0
100
AcDbCircle
 10
207.0237151634
 20
98.8892643851
 30
0.0
 40
1.0
100
AcDbArc
 50
0.0
 51
90.0
  0
ARC
  5
1B9
330
1F
100
AcDbEntity
  8
0
  6
HIDDEN
 62
     7
370
     0
100
AcDbCircle
 10
181.3920626658
 20
121.3892643851
 30
0.0
 40
1.000000000000024
100
AcDbArc
 50
75.0
 51
90.0
  0
ARC
  5
1BA
330
1F
100
AcDbEntity
  8
0
  6
HIDDEN
 62
     7
370
     0
100
AcDbCircle
 10
181.3920626658
 20
100.3892643851
 30
0.0
 40
1.000000000000024
100
AcDbArc
 50
270.0
 51
285.0
  0
ARC
  5
1BB
330
1F
100
AcDbEntity
  8
0
  6
HIDDEN
 62
     7
370
     0
100
AcDbCircle
 10
180.5237151634
 20
121.3892643851
 30
0.0
 40
1.0
100
AcDbArc
 50
90.0
 51
180.0
  0
ARC
  5
1BC
330
1F
100
AcDbEntity
  8
0
  6
HIDDEN
 62
     7
370
     0
100
AcDbCircle
 10
180.5237151634
 20
100.3892643851
 30
0.0
 40
1.0
100
AcDbArc
 50
180.0
 51
270.0
  0
LINE
  5
1BD
330
1F
100
AcDbEntity
  8
0
  6
HIDDEN
 62
     7
370
     0
100
AcDbLine
 10
181.3920619439
 20
122.3892644074
 30
0.0
 11
180.5237154018
 21
122.3892644074
 31
0.0
  0
LINE
  5
1BE
330
1F
100
AcDbEntity
  8
0
  6
HIDDEN
 62
     7
370
     0
100
AcDbLine
 10
180.5237154018
 20
99.3892643627
 30
0.0
 11
181.3920619439
 21
99.3892643627
 31
0.0
  0
LINE
  5
1BF
330
1F
100
AcDbEntity
  8
0
  6
HIDDEN
 62
     7
370
     0
100
AcDbLine
 10
181.6508820753
 20
99.4233386618
 30
0.0
 11
183.3897414159
 21
99.8892644447
 31
0.0
  0
LINE
  5
1C0
330
1F
100
AcDbEntity
  8
0
  6
HIDDEN
 62
     7
370
     0
100
AcDbLine
 10
183.3897414159
 20
121.8892643255
 30
0.0
 11
181.6508820753
 21
122.3551901084
 31
0.0
  0
LINE
  5
1C1
330
1F
100
AcDbEntity
  8
0
  6
HIDDEN
 62
     7
370
     0
100
AcDbLine
 10
191.5282248061
 20
121.8892643255
 30
0.0
 11
183.3897414159
 21
121.8892643255
 31
0.0
  0
LINE
  5
1C2
330
1F
100
AcDbEntity
  8
0
  6
HIDDEN
 62
     7
370
     0
100
AcDbLine
 10
207.0237169515
 20
121.8892643255
 30
0.0
 11
200.4291819882
 21
121.8892643255
 31
0.0
  0
LINE
  5
1C3
330
1F
100
AcDbEntity
  8
0
  6
HIDDEN
 62
     7
370
     0
100
AcDbLine
 10
183.3897414159
 20
99.8892644447
 30
0.0
 11
207.0237169515
 21
99.8892644447
 31
0.0
  0
ARC
  5
1C4
330
1F
100
AcDbEntity
  8
0
  6
HIDDEN
 62
     7
370
     0
100
AcDbCircle
 10
94.5737151634
 20
101.5892643851
 30
0.0
 40
0.7999999999999972
100
AcDbArc
 50
90.0
 51
180.0
  0
ARC
  5
1C5
330
1F
100
AcDbEntity
  8
0
  6
HIDDEN
 62
     7
370
     0
100
AcDbCircle
 10
94.5737151634
 20
120.1892643851
 30
0.0
 40
0.7999999999999972
100
AcDbArc
 50
180.0
 51
270.0
  0
LINE
  5
1C6
330
1F
100
AcDbEntity
  8
0
  6
HIDDEN
 62
     7
370
     0
100
AcDbLine
 10
101.6660886358
 20
102.164264771
 30
0.0
 11
102.5427761029
 21
102.164264771
 31
0.0
  0
LINE
  5
1C7
330
1F
100
AcDbEntity
  8
0
  6
HIDDEN
 62
     7
370
     0
100
AcDbLine
 10
102.5427761029
 20
119.6142639991
 30
0.0
 11
101.6660886358
 21
119.6142639991
 31
0.0
  0
ARC
  5
1C8
330
1F
100
AcDbEntity
  8
0
  6
HIDDEN
 62
     7
370
     0
100
AcDbCircle
 10
102.5427750557
 20
102.5642643851
 30
0.0
 40
0.4000000000000173
100
AcDbArc
 50
270.0
 51
330.0
  0
ARC
  5
1C9
330
1F
100
AcDbEntity
  8
0
  6
HIDDEN
 62
     7
370
     0
100
AcDbCircle
 10
102.5427750557
 20
119.2142643851
 30
0.0
 40
0.4000000000000173
100
AcDbArc
 50
30.0
 51
90.0
  0
ARC
  5
1CA
330
1F
100
AcDbEntity
  8
0
  6
HIDDEN
 62
     7
370
     0
100
AcDbCircle
 10
101.6660875941
 20
102.5642643851
 30
0.0
 40
0.4000000000000057
100
AcDbArc
 50
255.0
 51
270.0
  0
ARC
  5
1CB
330
1F
100
AcDbEntity
  8
0
  6
HIDDEN
 62
     7
370
     0
100
AcDbCircle
 10
101.6660875941
 20
119.2142643851
 30
0.0
 40
0.4000000000000057
100
AcDbArc
 50
90.0
 51
105.0
  0
LINE
  5
1CC
330
1F
100
AcDbEntity
  8
0
  6
HIDDEN
 62
     7
370
     0
100
AcDbLine
 10
101.5625590932
 20
119.6006350246
 30
0.0
 11
100.7737139713
 21
119.389264847
 31
0.0
  0
LINE
  5
1CD
330
1F
100
AcDbEntity
  8
0
  6
HIDDEN
 62
     7
370
     0
100
AcDbLine
 10
100.7737139713
 20
102.3892639231
 30
0.0
 11
101.5625590932
 21
102.1778937456
 31
0.0
  0
LINE
  5
1CE
330
1F
100
AcDbEntity
  8
0
  6
HIDDEN
 62
     7
370
     0
100
AcDbLine
 10
102.8891833972
 20
102.3642644313
 30
0.0
 11
103.7696445834
 21
103.889264169
 31
0.0
  0
LINE
  5
1CF
330
1F
100
AcDbEntity
  8
0
  6
HIDDEN
 62
     7
370
     0
100
AcDbLine
 10
103.7696445834
 20
117.8892646011
 30
0.0
 11
102.8891833972
 21
119.4142643389
 31
0.0
  0
LINE
  5
1D0
330
1F
100
AcDbEntity
  8
0
  6
HIDDEN
 62
     7
370
     0
100
AcDbLine
 10
94.5737133276
 20
102.3892639231
 30
0.0
 11
100.7737139713
 21
102.3892639231
 31
0.0
  0
LINE
  5
1D1
330
1F
100
AcDbEntity
  8
0
  6
HIDDEN
 62
     7
370
     0
100
AcDbLine
 10
100.7737139713
 20
119.389264847
 30
0.0
 11
94.5737133276
 21
119.389264847
 31
0.0
  0
LINE
  5
1D2
330
1F
100
AcDbEntity
  8
0
  6
HIDDEN
 62
     7
370
     0
100
AcDbLine
 10
103.7696445834
 20
103.889264169
 30
0.0
 11
136.7737142842
 21
103.889264169
 31
0.0
  0
LINE
  5
1D3
330
1F
100
AcDbEntity
  8
0
  6
HIDDEN
 62
     7
370
     0
100
AcDbLine
 10
136.7737142842
 20
117.8892646011
 30
0.0
 11
103.7696445834
 21
117.8892646011
 31
0.0
  0
LINE
  5
1D4
330
1F
100
AcDbEntity
  8
0
  6
HIDDEN
 62
     7
370
     0
100
AcDbLine
 10
136.7737142842
 20
103.889264169
 30
0.0
 11
138.0840087782
 21
107.48926434
 31
0.0
  0
LINE
  5
1D5
330
1F
100
AcDbEntity
  8
0
  6
HIDDEN
 62
     7
370
     0
100
AcDbLine
 10
138.0840087782
 20
114.2892644301
 30
0.0
 11
136.7737142842
 21
117.8892646011
 31
0.0
  0
LINE
  5
1D6
330
1F
100
AcDbEntity
  8
0
  6
HIDDEN
 62
     7
370
     0
100
AcDbLine
 10
189.7237146746
 20
130.889263938
 30
0.0
 11
191.4737144958
 21
129.1392641169
 31
0.0
  0
LINE
  5
1D7
330
1F
100
AcDbEntity
  8
0
  6
HIDDEN
 62
     7
370
     0
100
AcDbLine
 10
200.4737141084
 20
129.1392641169
 30
0.0
 11
202.2237139296
 21
130.889263938
 31
0.0
  0
LINE
  5
1D8
330
1F
100
AcDbEntity
  8
0
  6
HIDDEN
 62
     7
370
     0
100
AcDbLine
 10
191.4737144958
 20
129.1392641169
 30
0.0
 11
191.4737144958
 21
121.8671491396
 31
0.0
  0
LINE
  5
1D9
330
1F
100
AcDbEntity
  8
0
  6
HIDDEN
 62
     7
370
     0
100
AcDbLine
 10
200.4737141084
 20
121.8713633743
 30
0.0
 11
200.4737141084
 21
129.1392641169
 31
0.0
  0
LINE
  5
1DA
330
1F
100
AcDbEntity
  8
0
  6
HIDDEN
 62
     7
370
     0
100
AcDbLine
 10
138.0840087782
 20
107.48926434
 30
0.0
 11
179.5237152379
 21
107.48926434
 31
0.0
  0
LINE
  5
1DB
330
1F
100
AcDbEntity
  8
0
  6
HIDDEN
 62
     7
370
     0
100
AcDbLine
 10
179.5237152379
 20
114.2892644301
 30
0.0
 11
138.0840087782
 21
114.2892644301
 31
0.0
  0
LINE
  5
1DC
330
1F
100
AcDbEntity
  8
0
  6
HIDDEN
 62
     7
370
     0
100
AcDbLine
 10
176.6737154227
 20
112.049866936
 30
0.0
 11
176.6737154227
 21
118.8831683275
 31
0.0
  0
LINE
  5
1DD
330
1F
100
AcDbEntity
  8
0
  6
HIDDEN
 62
     7
370
     0
100
AcDbLine
 10
173.3737154405
 20
117.4830812987
 30
0.0
 11
173.3737154405
 21
112.0485796154
 31
0.0
  0
LINE
  5
1DE
330
1F
100
AcDbEntity
  8
0
  6
HIDDEN
 62
     7
370
     0
100
AcDbLine
 10
173.3737154405
 20
118.8831683275
 30
0.0
 11
173.3737154405
 21
118.8609283444
 31
0.0
  0
LINE
  5
1DF
330
1F
100
AcDbEntity
  8
0
  6
HIDDEN
 62
     7
370
     0
100
AcDbLine
 10
166.3781078074
 20
118.1506919701
 30
0.0
 11
174.3537359413
 21
116.2406476241
 31
0.0
  0
LINE
  5
1E0
330
1F
100
AcDbEntity
  8
0
  6
HIDDEN
 62
     7
370
     0
100
AcDbLine
 10
174.3537359413
 20
119.6339614716
 30
0.0
 11
167.1466757085
 21
121.3599443462
 31
0.0
  0
LINE
  5
1E1
330
1F
100
AcDbEntity
  8
0
  6
HIDDEN
 62
     7
370
     0
100
AcDbLine
 10
177.0237148281
 20
118.9267374602
 30
0.0
 11
177.0237148281
 21
121.7481074881
 31
0.0
  0
LINE
  5
1E2
330
1F
100
AcDbEntity
  8
0
  6
HIDDEN
 62
     7
370
     0
100
AcDbLine
 10
173.0237151038
 20
120.465148243
 30
0.0
 11
173.0237151038
 21
118.9436921876
 31
0.0
  0
LINE
  5
1E3
330
1F
100
AcDbEntity
  8
0
  6
HIDDEN
 62
     7
370
     0
100
AcDbLine
 10
165.2237150825
 20
117.9644269895
 30
0.0
 11
166.139136954
 21
117.7451973807
 31
0.0
  0
LINE
  5
1E4
330
1F
100
AcDbEntity
  8
0
  6
HIDDEN
 62
     7
370
     0
100
AcDbLine
 10
167.1173143674
 20
121.8297006589
 30
0.0
 11
165.2237150825
 21
122.2831895601
 31
0.0
  0
LINE
  5
1E5
330
1F
100
AcDbEntity
  8
0
  6
HIDDEN
 62
     7
370
     0
100
AcDbLine
 10
177.0237148281
 20
118.9267374602
 30
0.0
 11
177.0237148281
 21
119.25165728
 31
0.0
  0
LINE
  5
1E6
330
1F
100
AcDbEntity
  8
0
  6
HIDDEN
 62
     7
370
     0
100
AcDbLine
 10
173.0237151038
 20
119.25165728
 30
0.0
 11
173.0237151038
 21
118.9267374602
 31
0.0
  0
LINE
  5
1E7
330
1F
100
AcDbEntity
  8
0
  6
HIDDEN
 62
     7
370
     0
100
AcDbLine
 10
176.5237147462
 20
119.1887343329
 30
0.0
 11
176.5237147462
 21
120.1922120553
 31
0.0
  0
LINE
  5
1E8
330
1F
100
AcDbEntity
  8
0
  6
HIDDEN
 62
     7
370
     0
100
AcDbLine
 10
173.5237151857
 20
120.1922120553
 30
0.0
 11
173.5237151857
 21
119.1887343329
 31
0.0
  0
LINE
  5
1E9
330
1F
100
AcDbEntity
  8
0
  6
HIDDEN
 62
     7
370
     0
100
AcDbLine
 10
177.0237148281
 20
120.0212026041
 30
0.0
 11
177.0237148281
 21
120.1580101651
 31
0.0
  0
LINE
  5
1EA
330
1F
100
AcDbEntity
  8
0
  6
HIDDEN
 62
     7
370
     0
100
AcDbLine
 10
173.0237151038
 20
120.1580101651
 30
0.0
 11
173.0237151038
 21
120.0212026041
 31
0.0
  0
LINE
  5
1EB
330
1F
100
AcDbEntity
  8
0
  6
HIDDEN
 62
     7
370
     0
100
AcDbLine
 10
173.0237151038
 20
101.757326166
 30
0.0
 11
173.0237151038
 21
101.6205186051
 31
0.0
  0
LINE
  5
1EC
330
1F
100
AcDbEntity
  8
0
  6
HIDDEN
 62
     7
370
     0
100
AcDbLine
 10
177.0237148281
 20
101.6205186051
 30
0.0
 11
177.0237148281
 21
101.757326166
 31
0.0
  0
LINE
  5
1ED
330
1F
100
AcDbEntity
  8
0
  6
HIDDEN
 62
     7
370
     0
100
AcDbLine
 10
173.5237151857
 20
102.5897944373
 30
0.0
 11
173.5237151857
 21
101.5863167149
 31
0.0
  0
LINE
  5
1EE
330
1F
100
AcDbEntity
  8
0
  6
HIDDEN
 62
     7
370
     0
100
AcDbLine
 10
176.5237147462
 20
101.5863167149
 30
0.0
 11
176.5237147462
 21
102.5897944373
 31
0.0
  0
LINE
  5
1EF
330
1F
100
AcDbEntity
  8
0
  6
HIDDEN
 62
     7
370
     0
100
AcDbLine
 10
173.0237151038
 20
102.85179131
 30
0.0
 11
173.0237151038
 21
102.5268714901
 31
0.0
  0
LINE
  5
1F0
330
1F
100
AcDbEntity
  8
0
  6
HIDDEN
 62
     7
370
     0
100
AcDbLine
 10
177.0237148281
 20
102.5268714901
 30
0.0
 11
177.0237148281
 21
102.85179131
 31
0.0
  0
ARC
  5
1F1
330
1F
100
AcDbEntity
  8
0
  6
HIDDEN
 62
     7
370
     0
100
AcDbCircle
 10
175.0237151634
 20
102.1677507303
 30
0.0
 40
1.500000000000014
100
AcDbArc
 50
71.1182787691
 51
191.5274417163
  0
ARC
  5
1F2
330
1F
100
AcDbEntity
  8
0
  6
HIDDEN
 62
     7
370
     0
100
AcDbCircle
 10
175.0237151634
 20
102.1677507303
 30
0.0
 40
1.500000000000014
100
AcDbArc
 50
336.6722113243
 51
71.1182787691
  0
CIRCLE
  5
1F3
330
1F
100
AcDbEntity
  8
0
  6
HIDDEN
 62
     7
370
     0
100
AcDbCircle
 10
175.0237151634
 20
119.6107780399
 30
0.0
 40
1.499999999999992
  0
LINE
  5
1F4
330
1F
100
AcDbEntity
  8
0
  6
HIDDEN
 62
     7
370
     0
100
AcDbLine
 10
168.784175488
 20
117.6907317739
 30
0.0
 11
169.2812181551
 21
118.1643470217
 31
0.0
  0
LINE
  5
1F5
330
1F
100
AcDbEntity
  8
0
  6
HIDDEN
 62
     7
370
     0
100
AcDbLine
 10
169.7286585819
 20
120.0326913994
 30
0.0
 11
169.5000803571
 21
120.6800816607
 31
0.0
  0
LINE
  5
1F6
330
1F
100
AcDbEntity
  8
0
  6
HIDDEN
 62
     7
370
     0
100
AcDbLine
 10
166.3468726452
 20
117.7982753169
 30
0.0
 11
168.0055190351
 21
117.4010541317
 31
0.0
  0
LINE
  5
1F7
330
1F
100
AcDbEntity
  8
0
  6
HIDDEN
 62
     7
370
     0
100
AcDbLine
 10
168.9371168155
 20
121.2910572093
 30
0.0
 11
167.2784704257
 21
121.6882783946
 31
0.0
  0
LINE
  5
1F8
330
1F
100
AcDbEntity
  8
0
  6
HIDDEN
 62
     7
370
     0
100
AcDbLine
 10
167.2784704257
 20
100.0902503755
 30
0.0
 11
168.9371168155
 21
100.4874715608
 31
0.0
  0
LINE
  5
1F9
330
1F
100
AcDbEntity
  8
0
  6
HIDDEN
 62
     7
370
     0
100
AcDbLine
 10
168.0055190351
 20
104.3774746385
 30
0.0
 11
166.3468726452
 21
103.9802534532
 31
0.0
  0
LINE
  5
1FA
330
1F
100
AcDbEntity
  8
0
  6
HIDDEN
 62
     7
370
     0
100
AcDbLine
 10
169.5000803571
 20
101.0984471094
 30
0.0
 11
169.7286585819
 21
101.7458373707
 31
0.0
  0
LINE
  5
1FB
330
1F
100
AcDbEntity
  8
0
  6
HIDDEN
 62
     7
370
     0
100
AcDbLine
 10
169.2812181551
 20
103.6141817484
 30
0.0
 11
168.784175488
 21
104.0877969962
 31
0.0
  0
DIMENSION
  5
1FC
330
1F
100
AcDbEntity
  8
VERMASSUNG
100
AcDbDimension
  2
_D
 10
86.3007238233
 20
142.6392643851
 30
0.0
 11
86.3007238233
 21
110.8892643851
 31
0.0
 70
   160
  1
ISO 40 %%c<>
 71
     2
 42
-1.0
  3
SLDDIMSTYLE0
100
AcDbAlignedDimension
 13
180.4737151634
 23
79.1392643851
 33
0.0
 14
180.4737151634
 24
142.6392643851
 34
0.0
 50
90.0
100
AcDbRotatedDimension
  0
DIMENSION
  5
209
330
1F
100
AcDbEntity
  8
VERMASSUNG
100
AcDbDimension
  2
_D_1
 10
220.3436032169
 20
90.8892643851
 30
0.0
 11
220.3436032169
 21
110.8892643851
 31
0.0
 70
   160
  1
WH %%c<>
 71
     2
 42
-1.0
  3
SLDDIMSTYLE0
100
AcDbAlignedDimension
 13
207.6237151634
 23
130.8892643851
 33
0.0
 14
207.6237151634
 24
90.8892643851
 34
0.0
 50
90.0
100
AcDbRotatedDimension
  0
DIMENSION
  5
215
330
1F
100
AcDbEntity
  8
VERMASSUNG
100
AcDbDimension
  2
_D_2
 10
214.2436032169
 20
99.8892643851
 30
0.0
 11
214.2436032169
 21
110.8892643851
 31
0.0
 70
   160
  1
%%c<>
 71
     2
 42
-1.0
  3
SLDDIMSTYLE0
100
AcDbAlignedDimension
 13
207.0237151634
 23
121.8892643851
 33
0.0
 14
207.0237151634
 24
99.8892643851
 34
0.0
 50
90.0
100
AcDbRotatedDimension
  0
DIMENSION
  5
220
330
1F
100
AcDbEntity
  8
VERMASSUNG
100
AcDbDimension
  2
_D_3
 10
208.0237151634
 20
147.6576008859
 30
0.0
 11
194.5487151634
 21
147.6576008859
 31
0.0
 70
   160
  1
<>
 71
     2
 42
-1.0
  3
SLDDIMSTYLE0
100
AcDbAlignedDimension
 13
181.0737151634
 23
140.8998155185
 33
0.0
 14
208.0237151634
 24
130.4892643851
 34
0.0
100
AcDbRotatedDimension
  0
DIMENSION
  5
22A
330
1F
100
AcDbEntity
  8
VERMASSUNG
100
AcDbDimension
  2
_D_4
 10
208.0237151634
 20
153.6576008859
 30
0.0
 11
185.0237151634
 21
153.6576008859
 31
0.0
 70
   160
  1
<>
 71
     2
 42
-1.0
  3
SLDDIMSTYLE0
100
AcDbAlignedDimension
 13
162.0237151634
 23
133.1142643851
 33
0.0
 14
208.0237151634
 24
130.4892643851
 34
0.0
100
AcDbRotatedDimension
  0
DIMENSION
  5
234
330
1F
100
AcDbEntity
  8
VERMASSUNG
100
AcDbDimension
  2
_D_5
 10
208.0237151634
 20
159.6576008859
 30
0.0
 11
150.8987151634
 21
159.6576008859
 31
0.0
 70
   160
  1
<>
 71
     2
 42
-1.0
  3
SLDDIMSTYLE0
100
AcDbAlignedDimension
 13
93.7737151634
 23
122.2963949821
 33
0.0
 14
208.0237151634
 24
130.4892643851
 34
0.0
100
AcDbRotatedDimension
  0
LINE
  5
23E
330
1F
100
AcDbEntity
  8
VERMASSUNG
  6
CENTERX2
370
     0
100
AcDbLine
 10
92.7397996488
 20
110.8892643851
 30
0.0
 11
208.7530384559
 21
110.8892643851
 31
0.0
  0
LINE
  5
23F
330
1F
100
AcDbEntity
  8
0
  6
Continuous
 62
     7
370
    15
100
AcDbLine
 10
253.7761645205
 20
45.4665394698
 30
0.0
 11
253.5286364084
 21
45.609480472
 31
0.0
  0
LINE
  5
240
330
1F
100
AcDbEntity
  8
0
  6
Continuous
 62
     7
370
    15
100
AcDbLine
 10
250.4875838024
 20
45.6094800377
 30
0.0
 11
250.2400559737
 21
45.4665395792
 31
0.0
  0
LINE
  5
241
330
1F
100
AcDbEntity
  8
0
  6
Continuous
 62
     7
370
    15
100
AcDbLine
 10
249.50811007
 20
44.4461953919
 30
0.0
 11
249.50811007
 21
44.2216466699
 31
0.0
  0
LINE
  5
242
330
1F
100
AcDbEntity
  8
0
  6
Continuous
 62
     7
370
    15
100
AcDbLine
 10
254.5081095761
 20
44.22164686
 30
0.0
 11
254.5081095761
 21
44.446195582
 31
0.0
  0
LINE
  5
243
330
1F
100
AcDbEntity
  8
0
  6
Continuous
 62
     7
370
    15
100
AcDbLine
 10
254.6472009263
 20
36.3273467872
 30
0.0
 11
256.545255273
 21
36.714060751
 31
0.0
  0
LINE
  5
244
330
1F
100
AcDbEntity
  8
0
  6
Continuous
 62
     7
370
    15
100
AcDbLine
 10
256.1281566472
 20
26.0240429009
 30
0.0
 11
256.2695547782
 21
26.1056968444
 31
0.0
  0
LINE
  5
245
330
1F
100
AcDbEntity
  8
0
  6
Continuous
 62
     7
370
    15
100
AcDbLine
 10
263.1980750537
 20
38.1075465138
 30
0.0
 11
263.1980750537
 21
38.2708278588
 31
0.0
  0
LINE
  5
246
330
1F
100
AcDbEntity
  8
0
  6
Continuous
 62
     7
370
    15
100
AcDbLine
 10
261.1266009133
 20
42.8492757592
 30
0.0
 11
252.8004185501
 21
47.655878526
 31
0.0
  0
LINE
  5
247
330
1F
100
AcDbEntity
  8
0
  6
Continuous
 62
     7
370
    15
100
AcDbLine
 10
242.8012315232
 20
30.3349017895
 30
0.0
 11
251.1274138864
 21
25.5282990226
 31
0.0
  0
SPLINE
  5
248
330
1F
100
AcDbEntity
  8
0
  6
Continuous
 62
     7
370
    15
100
AcDbSpline
210
0.0
220
0.0
230
1.0
 70
     8
 71
     3
 72
    26
 73
    22
 74
     0
 42
0.000000001
 43
0.00000001
 40
0.0
 40
0.0
 40
0.0
 40
0.0
 40
0.0008780595790131
 40
0.0625097585484063
 40
0.1239352849732392
 40
0.1826282619423224
 40
0.2393270460253368
 40
0.2951222440407562
 40
0.3506486648356435
 40
0.406160026607999
 40
0.4617783715207905
 40
0.5175446983176301
 40
0.5734464926836765
 40
0.6294481492690902
 40
0.6855050155360586
 40
0.7415691975484057
 40
0.7975770633542367
 40
0.8534772808914165
 40
0.9092219253514117
 40
0.9647701902030517
 40
1.0
 40
1.0
 40
1.0
 40
1.0
 10
253.1517016664145
 20
29.55657714442206
 30
0.0
 10
253.150018494507
 20
29.55731631975183
 30
0.0
 10
253.0301921500824
 20
29.60993879833187
 30
0.0
 10
252.8368933704336
 20
29.78958491584069
 30
0.0
 10
252.5767854614099
 20
30.10740723134078
 30
0.0
 10
252.3796505084372
 20
30.51583593730521
 30
0.0
 10
252.2439315375067
 20
30.98827814543936
 30
0.0
 10
252.1726682536725
 20
31.51953045876475
 30
0.0
 10
252.1668254194776
 20
32.10132851333484
 30
0.0
 10
252.2277676890421
 20
32.72453202635938
 30
0.0
 10
252.3556029016479
 20
33.37802403295825
 30
0.0
 10
252.5490747287987
 20
34.04979575330592
 30
0.0
 10
252.8054144496927
 20
34.72717089694907
 30
0.0
 10
253.1203571182329
 20
35.39721205319702
 30
0.0
 10
253.4882521323106
 20
36.04708362068833
 30
0.0
 10
253.9021721143756
 20
36.66435862200977
 30
0.0
 10
254.3540211161927
 20
37.23718021353177
 30
0.0
 10
254.8347891063558
 20
37.75521854989389
 30
0.0
 10
255.3344249958199
 20
38.20743141432175
 30
0.0
 10
255.7817807055037
 20
38.54543080517112
 30
0.0
 10
256.0577536856636
 20
38.71259471830249
 30
0.0
 10
256.1648552698045
 20
38.77746889510487
 30
0.0
  0
SPLINE
  5
249
330
1F
100
AcDbEntity
  8
0
  6
Continuous
 62
     7
370
    15
100
AcDbSpline
210
0.0
220
0.0
230
1.0
 70
     8
 71
     3
 72
    14
 73
    10
 74
     0
 42
0.000000001
 43
0.00000001
 40
0.0
 40
0.0
 40
0.0
 40
0.0
 40
0.0850793824167452
 40
0.2474830510211067
 40
0.409759706240618
 40
0.5726536733514879
 40
0.7379303576753465
 40
0.9084604023543372
 40
1.0
 40
1.0
 40
1.0
 40
1.0
 10
256.1648552698045
 20
38.77746889510487
 30
0.0
 10
256.2521647994811
 20
38.82580015438751
 30
0.0
 10
256.506135011462
 20
38.96638847516739
 30
0.0
 10
256.9173816180052
 20
39.13745619403134
 30
0.0
 10
257.38145669443
 20
39.26093466640406
 30
0.0
 10
257.8121916422664
 20
39.30226742282077
 30
0.0
 10
258.2022186689301
 20
39.2610569393838
 30
0.0
 10
258.5016452300202
 20
39.17459599327687
 30
0.0
 10
258.654931453025
 20
39.07053956556815
 30
0.0
 10
258.7084735537202
 20
39.03419318282649
 30
0.0
  0
SPLINE
  5
24A
330
1F
100
AcDbEntity
  8
0
  6
Continuous
 62
     7
370
    15
100
AcDbSpline
210
0.0
220
0.0
230
1.0
 70
     8
 71
     3
 72
    32
 73
    28
 74
     0
 42
0.000000001
 43
0.00000001
 40
0.0
 40
0.0
 40
0.0
 40
0.0
 40
0.0092297823716175
 40
0.0506588333296415
 40
0.0921960096141025
 40
0.1338971762758435
 40
0.1757481665634254
 40
0.2177163242710987
 40
0.2597641551186084
 40
0.3018582563789259
 40
0.3439732264542291
 40
0.3860895816084016
 40
0.4281970256082266
 40
0.4702914163610306
 40
0.5123715458289411
 40
0.5544379736942963
 40
0.596492352971224
 40
0.6385369807464365
 40
0.6805744453748337
 40
0.7226075959294195
 40
0.764639281202708
 40
0.8066723463588131
 40
0.8487088477970264
 40
0.8907518837876827
 40
0.9328043794044042
 40
0.9748692733521407
 40
0.9999999999999999
 40
0.9999999999999999
 40
0.9999999999999999
 40
0.9999999999999999
 10
247.7865671364306
 20
57.06066727825733
 30
0.0
 10
247.731759539887
 20
57.07467016743994
 30
0.0
 10
247.4309410821259
 20
57.15152680399683
 30
0.0
 10
246.8567264918111
 20
57.22747043455644
 30
0.0
 10
246.0537383948243
 20
57.25099758945137
 30
0.0
 10
245.2193516464959
 20
57.1786655434891
 30
0.0
 10
244.3604101586932
 20
57.01512807257272
 30
0.0
 10
243.4819497841665
 20
56.76001547015588
 30
0.0
 10
242.5899350683513
 20
56.41525319120939
 30
0.0
 10
241.6902400390222
 20
55.98306906858704
 30
0.0
 10
240.7887753765816
 20
55.46644445597888
 30
0.0
 10
239.8913482551688
 20
54.86889297906652
 30
0.0
 10
239.0036456426416
 20
54.19442039349605
 30
0.0
 10
238.1312049166495
 20
53.44745902422563
 30
0.0
 10
237.2794290131903
 20
52.63284230123354
 30
0.0
 10
236.4535827461949
 20
51.75578771422949
 30
0.0
 10
235.658770001165
 20
50.82187718073916
 30
0.0
 10
234.8999117339089
 20
49.83701976645717
 30
0.0
 10
234.1817177211376
 20
48.80742663266793
 30
0.0
 10
233.5086524113123
 20
47.73957441168942
 30
0.0
 10
232.8849306319698
 20
46.64016814258617
 30
0.0
 10
232.3144248384609
 20
45.5160955298665
 30
0.0
 10
231.8008863090964
 20
44.37443391654057
 30
0.0
 10
231.3469828732987
 20
43.22218318105036
 30
0.0
 10
230.9578098075167
 20
42.0670403228354
 30
0.0
 10
230.6720107415032
 20
41.06910476792407
 30
0.0
 10
230.5353320547639
 20
40.46257514253793
 30
0.0
 10
230.4842151116567
 20
40.23573699320165
 30
0.0
  0
LINE
  5
24B
330
1F
100
AcDbEntity
  8
0
  6
Continuous
 62
     7
370
    15
100
AcDbLine
 10
240.252083441
 20
55.0951701862
 30
0.0
 11
218.9402400612
 21
62.7751140955
 31
0.0
  0
LINE
  5
24C
330
1F
100
AcDbEntity
  8
0
  6
Continuous
 62
     7
370
    15
100
AcDbLine
 10
212.7754580665
 20
52.0962414503
 30
0.0
 11
233.0716961641
 21
34.9582663627
 31
0.0
  0
SPLINE
  5
24D
330
1F
100
AcDbEntity
  8
0
  6
Continuous
 62
     7
370
    15
100
AcDbSpline
210
0.0
220
0.0
230
1.0
 70
     8
 71
     3
 72
    16
 73
    12
 74
     0
 42
0.000000001
 43
0.00000001
 40
0.0
 40
0.0
 40
0.0
 40
0.0
 40
0.026140653339176
 40
0.1576618594376287
 40
0.2896921811001054
 40
0.422156307651639
 40
0.5549398399986426
 40
0.6879272871892911
 40
0.8210232273167238
 40
0.9541581445575527
 40
1.0
 40
1.0
 40
1.0
 40
1.0
 10
241.2074306660357
 20
25.23059214008009
 30
0.0
 10
241.2593856707286
 20
25.22526487397817
 30
0.0
 10
241.5727413677224
 20
25.19313458754458
 30
0.0
 10
242.178988305011
 20
25.2244340093475
 30
0.0
 10
243.0221804109642
 20
25.32918978462415
 30
0.0
 10
243.8908404036249
 20
25.53387712481284
 30
0.0
 10
244.775627814614
 20
25.82747781611218
 30
0.0
 10
245.6718331432738
 20
26.20905227039331
 30
0.0
 10
246.5725194319988
 20
26.68199625659376
 30
0.0
 10
247.2775629617108
 20
27.10097071247785
 30
0.0
 10
247.6774243802768
 20
27.38743705134642
 30
0.0
 10
247.7798420799151
 20
27.46081053047816
 30
0.0
  0
LINE
  5
24E
330
1F
100
AcDbEntity
  8
0
  6
Continuous
 62
     7
370
    15
100
AcDbLine
 10
237.2377177865
 20
26.7629679505
 30
0.0
 11
238.5911775571
 21
25.9816322562
 31
0.0
  0
LINE
  5
24F
330
1F
100
AcDbEntity
  8
0
  6
Continuous
 62
     7
370
    15
100
AcDbLine
 10
233.4116206225
 20
28.9717268286
 30
0.0
 11
234.7474030828
 21
28.2005960282
 31
0.0
  0
SPLINE
  5
250
330
1F
100
AcDbEntity
  8
0
  6
Continuous
 62
     7
370
    15
100
AcDbSpline
210
0.0
220
0.0
230
1.0
 70
     8
 71
     3
 72
    11
 73
     7
 74
     0
 42
0.000000001
 43
0.00000001
 40
0.0
 40
0.0
 40
0.0
 40
0.0
 40
0.1180302128941085
 40
0.4827379409526625
 40
0.846884106566007
 40
1.0
 40
1.0
 40
1.0
 40
1.0
 10
230.4916332862669
 20
32.96887616533041
 30
0.0
 10
230.5189431836301
 20
32.8759882444981
 30
0.0
 10
230.6306393612231
 20
32.49608107884558
 30
0.0
 10
230.8798894654218
 20
31.87700193325972
 30
0.0
 10
231.1764746343306
 20
31.26755222061969
 30
0.0
 10
231.3923145580814
 20
30.9564084586812
 30
0.0
 10
231.456205814333
 20
30.86430610115788
 30
0.0
  0
SPLINE
  5
251
330
1F
100
AcDbEntity
  8
0
  6
Continuous
 62
     7
370
    15
100
AcDbSpline
210
0.0
220
0.0
230
1.0
 70
     8
 71
     3
 72
    12
 73
     8
 74
     0
 42
0.000000001
 43
0.00000001
 40
0.0
 40
0.0
 40
0.0
 40
0.0
 40
0.0933264521415071
 40
0.3301955902004695
 40
0.5666967032499655
 40
0.8024483910107686
 40
1.0
 40
1.0
 40
1.0
 40
1.0
 10
257.3986897719818
 20
49.43645340286066
 30
0.0
 10
257.3653364128364
 20
49.54943200505318
 30
0.0
 10
257.2473298685453
 20
49.94915829245577
 30
0.0
 10
256.9936599218696
 20
50.59053194747129
 30
0.0
 10
256.6116964012189
 20
51.32808357519144
 30
0.0
 10
256.1929747641404
 20
51.96354018087519
 30
0.0
 10
255.8718847904123
 20
52.31239495368352
 30
0.0
 10
255.7254934718692
 20
52.47144479749677
 30
0.0
  0
SPLINE
  5
252
330
1F
100
AcDbEntity
  8
0
  6
Continuous
 62
     7
370
    15
100
AcDbSpline
210
0.0
220
0.0
230
1.0
 70
     8
 71
     3
 72
    26
 73
    22
 74
     0
 42
0.000000001
 43
0.00000001
 40
0.0
 40
0.0
 40
0.0
 40
0.0
 40
0.0073241667259556
 40
0.0609613944674346
 40
0.1150337922428609
 40
0.1701275362067594
 40
0.2263845539547432
 40
0.2835519922205795
 40
0.3412214380077846
 40
0.3990421752259526
 40
0.456800975556303
 40
0.5144522763549512
 40
0.5720037689529229
 40
0.6294873250829268
 40
0.6869448094022034
 40
0.7444215668897094
 40
0.8019502894913987
 40
0.8595796749797635
 40
0.9173570505578378
 40
0.9753217851374012
 40
0.9999999999999999
 40
0.9999999999999999
 40
0.9999999999999999
 40
0.9999999999999999
 10
218.9967418628789
 20
62.74764608142394
 30
0.0
 10
218.9766892663499
 20
62.75749811499531
 30
0.0
 10
218.8097850582891
 20
62.83949975795657
 30
0.0
 10
218.4548595394864
 20
62.90735555806822
 30
0.0
 10
217.9418830095895
 20
62.94369845768779
 30
0.0
 10
217.398950775727
 20
62.87942771146133
 30
0.0
 10
216.8371443474205
 20
62.7256176823703
 30
0.0
 10
216.263096984379
 20
62.48004406518981
 30
0.0
 10
215.6873934811425
 20
62.14722471792694
 30
0.0
 10
215.1205876897611
 20
61.73326513175481
 30
0.0
 10
214.5725265172183
 20
61.24626514949899
 30
0.0
 10
214.0519344181852
 20
60.69504879547134
 30
0.0
 10
213.5666097999027
 20
60.08889914802945
 30
0.0
 10
213.1238034967285
 20
59.43759672484057
 30
0.0
 10
212.7301998917581
 20
58.75140617264796
 30
0.0
 10
212.3918917095154
 20
58.04099635446954
 30
0.0
 10
212.1144006587536
 20
57.31731140131543
 30
0.0
 10
211.9021151169598
 20
56.59115043466228
 30
0.0
 10
211.7601586032387
 20
55.87389543488326
 30
0.0
 10
211.7015732930139
 20
55.30867366176209
 30
0.0
 10
211.696880103962
 20
54.98895441209731
 30
0.0
 10
211.6954786592097
 20
54.89348225878967
 30
0.0
  0
SPLINE
  5
253
330
1F
100
AcDbEntity
  8
0
  6
Continuous
 62
     7
370
    15
100
AcDbSpline
210
0.0
220
0.0
230
1.0
 70
     8
 71
     3
 72
    13
 73
     9
 74
     0
 42
0.000000001
 43
0.00000001
 40
0.0
 40
0.0
 40
0.0
 40
0.0
 40
0.1025645524583161
 40
0.296461134912834
 40
0.4903842566651621
 40
0.6827275968552563
 40
0.8717653131650821
 40
1.0
 40
1.0
 40
1.0
 40
1.0
 10
211.6954786592097
 20
54.89348225878967
 30
0.0
 10
211.6976316452848
 20
54.77610350215522
 30
0.0
 10
211.7038548157662
 20
54.43682215618877
 30
0.0
 10
211.7736888946342
 20
53.9061126868597
 30
0.0
 10
211.9304373933506
 20
53.32562687705369
 30
0.0
 10
212.1682995640392
 20
52.81227574290588
 30
0.0
 10
212.4394616251761
 20
52.40745820307623
 30
0.0
 10
212.6588088806525
 20
52.21342676362178
 30
0.0
 10
212.7474643273139
 20
52.13500342573312
 30
0.0
  0
LWPOLYLINE
  5
254
330
1F
100
AcDbEntity
  8
0
  6
Continuous
 62
     7
370
    15
100
AcDbPolyline
 90
       17
 70
   128
 43
0.0
 10
249.9420856324
 20
43.6335629913
 10
250.2929960126
 20
43.3961689031
 10
250.724103449
 20
43.2078726802
 10
251.2152503882
 20
43.0774785762
 10
251.743469679
 20
43.0110846552
 10
252.2840635149
 20
43.0117947646
 10
252.8117532535
 20
43.0795763524
 10
253.3018669776
 20
43.2112586849
 10
253.7314847297
 20
43.40068607
 10
254.0805199198
 20
43.6389999875
 10
254.3326518342
 20
43.9150572818
 10
254.4760899897
 20
44.2159504892
 10
254.5041286746
 20
44.5276092932
 10
254.4154564798
 20
44.8354612685
 10
254.2142194368
 20
45.1251115761
 10
253.9098265004
 20
45.3830168625
 10
253.7761645205
 20
45.4665394698
  0
ARC
  5
255
330
1F
100
AcDbEntity
  8
0
  6
Continuous
 62
     7
370
    15
100
AcDbCircle
 10
250.5986009801
 20
44.467546718
 30
0.0
 40
1.061386479199596
100
AcDbArc
 50
109.7433910578
 51
231.7900363666
  0
LWPOLYLINE
  5
256
330
1F
100
AcDbEntity
  8
0
  6
Continuous
 62
     7
370
    15
100
AcDbPolyline
 90
       28
 70
   128
 43
0.0
 10
250.2313294109
 20
44.0331201245
 10
250.558405419
 20
43.8154125516
 10
250.9636361722
 20
43.6471171491
 10
251.4251751973
 20
43.5373070934
 10
251.9181401309
 20
43.4919024339
 10
252.4159545864
 20
43.513351368
 10
252.891782134
 20
43.6004969921
 10
253.3199718066
 20
43.7486407894
 10
253.6774374726
 20
43.9497975637
 10
253.9449100475
 20
44.1931217935
 10
254.1079683842
 20
44.4654966694
 10
254.1578234139
 20
44.7522376813
 10
254.0917872048
 20
45.0378865133
 10
253.9134183668
 20
45.3070446788
 10
253.6323349426
 20
45.5452007219
 10
253.2636893003
 20
45.7395158859
 10
252.8273533497
 20
45.8795155463
 10
252.3468529349
 20
45.9576510546
 10
251.8480913278
 20
45.9697101786
 10
251.3579555837
 20
45.9150435884
 10
250.902869842
 20
45.7965980028
 10
250.507368374
 20
45.620758484
 10
250.1927715683
 20
45.3970053285
 10
249.97604064
 20
45.1374004106
 10
249.8688587758
 20
44.8559396462
 10
249.8770048891
 20
44.5677960935
 10
250.0000396894
 20
44.2885038406
 10
250.2313294109
 20
44.0331201245
  0
LWPOLYLINE
  5
257
330
1F
100
AcDbEntity
  8
0
  6
Continuous
 62
     7
370
    15
100
AcDbPolyline
 90
       23
 70
   128
 43
0.0
 10
250.768495852
 20
44.2444044936
 10
251.0566611816
 20
44.0625431647
 10
251.4219067586
 20
43.9349162206
 10
251.8346444252
 20
43.8718621375
 10
252.2614340323
 20
43.8784908231
 10
252.6677018078
 20
43.9542638502
 10
253.0205330028
 20
44.0930433591
 10
253.2913431482
 20
44.2835863937
 10
253.4581935488
 20
44.5104558176
 10
253.5075671001
 20
44.7552720529
 10
253.4354636381
 20
44.9982015537
 10
253.2477251113
 20
45.2195633174
 10
252.9595597817
 20
45.4014246462
 10
252.5943128876
 20
45.5290523506
 10
252.181576538
 20
45.5921056735
 10
251.7547856139
 20
45.5854777482
 10
251.3485184969
 20
45.5097043409
 10
250.9956873019
 20
45.370924832
 10
250.7248771565
 20
45.1803817974
 10
250.5580260974
 20
44.9535127537
 10
250.5086525461
 20
44.7086965184
 10
250.580756008
 20
44.4657670176
 10
250.768495852
 20
44.2444044936
  0
SPLINE
  5
258
330
1F
100
AcDbEntity
  8
0
  6
Continuous
 62
     7
370
    15
100
AcDbSpline
210
0.0
220
0.0
230
1.0
 70
     8
 71
     3
 72
    10
 73
     6
 74
     0
 42
0.000000001
 43
0.00000001
 40
0.0
 40
0.0
 40
0.0
 40
0.0
 40
0.3007307712049749
 40
0.6900262306958276
 40
0.9999999999999999
 40
0.9999999999999999
 40
0.9999999999999999
 40
0.9999999999999999
 10
252.944310124719
 20
44.07509626083169
 30
0.0
 10
252.993799188014
 20
44.09834622425146
 30
0.0
 10
253.1073517575408
 20
44.1516932248197
 30
0.0
 10
253.2873693434709
 20
44.42167538542212
 30
0.0
 10
253.3983064343583
 20
44.64761068739369
 30
0.0
 10
253.4474828985899
 20
44.7477638391228
 30
0.0
  0
SPLINE
  5
259
330
1F
100
AcDbEntity
  8
0
  6
Continuous
 62
     7
370
    15
100
AcDbSpline
210
0.0
220
0.0
230
1.0
 70
     8
 71
     3
 72
    11
 73
     7
 74
     0
 42
0.000000001
 43
0.00000001
 40
0.0
 40
0.0
 40
0.0
 40
0.0
 40
0.1849312052564768
 40
0.5198463653792135
 40
0.871443024352598
 40
1.0
 40
1.0
 40
1.0
 40
1.0
 10
253.4474828985899
 20
44.7477638391228
 30
0.0
 10
253.4001783337903
 20
44.75599703478249
 30
0.0
 10
253.2672039877743
 20
44.77914075913777
 30
0.0
 10
253.0189831937957
 20
44.9233103281226
 30
0.0
 10
252.7897411305876
 20
45.19853738405462
 30
0.0
 10
252.6674925206086
 20
45.38613648000157
 30
0.0
 10
252.6347615144415
 20
45.43636451259405
 30
0.0
  0
SPLINE
  5
25A
330
1F
100
AcDbEntity
  8
0
  6
Continuous
 62
     7
370
    15
100
AcDbSpline
210
0.0
220
0.0
230
1.0
 70
     8
 71
     3
 72
    10
 73
     6
 74
     0
 42
0.000000001
 43
0.00000001
 40
0.0
 40
0.0
 40
0.0
 40
0.0
 40
0.4391257788634268
 40
0.7513738380362764
 40
1.0
 40
1.0
 40
1.0
 40
1.0
 10
252.6347615144415
 20
45.43636451259405
 30
0.0
 10
252.4286996031899
 20
45.35757955134103
 30
0.0
 10
252.0761137688286
 20
45.22277316655204
 30
0.0
 10
251.5635747917422
 20
45.25386084416413
 30
0.0
 10
251.3084724002948
 20
45.3373421847555
 30
0.0
 10
251.1953897765921
 20
45.37434806686711
 30
0.0
  0
SPLINE
  5
25B
330
1F
100
AcDbEntity
  8
0
  6
Continuous
 62
     7
370
    15
100
AcDbSpline
210
0.0
220
0.0
230
1.0
 70
     8
 71
     3
 72
    10
 73
     6
 74
     0
 42
0.000000001
 43
0.00000001
 40
0.0
 40
0.0
 40
0.0
 40
0.0
 40
0.4391254101917229
 40
0.7513739320571057
 40
1.0
 40
1.0
 40
1.0
 40
1.0
 10
251.1953897765921
 20
45.37434806686711
 30
0.0
 10
251.1056774885738
 20
45.19698246260914
 30
0.0
 10
250.9521735622747
 20
44.89349765305371
 30
0.0
 10
250.7290315008556
 20
44.67938620057306
 30
0.0
 10
250.6179698056935
 20
44.6408251398548
 30
0.0
 10
250.5687380646431
 20
44.62373168424761
 30
0.0
  0
SPLINE
  5
25C
330
1F
100
AcDbEntity
  8
0
  6
Continuous
 62
     7
370
    15
100
AcDbSpline
210
0.0
220
0.0
230
1.0
 70
     8
 71
     3
 72
    10
 73
     6
 74
     0
 42
0.000000001
 43
0.00000001
 40
0.0
 40
0.0
 40
0.0
 40
0.0
 40
0.1947141153864892
 40
0.7272517401457244
 40
1.0
 40
1.0
 40
1.0
 40
1.0
 10
250.5687380646431
 20
44.62373168424761
 30
0.0
 10
250.6014317241669
 20
44.57383967351246
 30
0.0
 10
250.7235416222257
 20
44.38749441777951
 30
0.0
 10
250.911167960876
 20
44.1469547772124
 30
0.0
 10
251.0585659669656
 20
44.07123049680156
 30
0.0
 10
251.108489292874
 20
44.04558287760768
 30
0.0
  0
LINE
  5
25D
330
1F
100
AcDbEntity
  8
0
  6
Continuous
 62
     7
370
    15
100
AcDbLine
 10
251.1953897766
 20
44.0041696038
 30
0.0
 11
251.1953897766
 21
45.3743480669
 31
0.0
  0
LINE
  5
25E
330
1F
100
AcDbEntity
  8
0
  6
Continuous
 62
     7
370
    15
100
AcDbLine
 10
252.6347615144
 20
43.9452389895
 30
0.0
 11
252.6347615144
 21
45.4363645126
 31
0.0
  0
LWPOLYLINE
  5
25F
330
1F
100
AcDbEntity
  8
0
  6
Continuous
 62
     7
370
    15
100
AcDbPolyline
 90
        6
 70
   128
 43
0.0
 10
254.9718159535
 20
36.5341951587
 10
254.8717553839
 20
36.4309284548
 10
254.6493820257
 20
36.3277947144
 10
254.3811647501
 20
36.3289921809
 10
254.0869968697
 20
36.4344313705
 10
253.8655744498
 20
36.5751249361
  0
LWPOLYLINE
  5
260
330
1F
100
AcDbEntity
  8
0
  6
Continuous
 62
     7
370
    15
100
AcDbPolyline
 90
       59
 70
   128
 43
0.0
 10
256.2684285158
 20
42.1092467698
 10
255.5192019352
 20
41.6298190782
 10
254.7787593505
 20
41.0621945478
 10
254.05578186
 20
40.4130280303
 10
253.3587454255
 20
39.6899320095
 10
252.6958225844
 20
38.9013818379
 10
252.0747851496
 20
38.0566242051
 10
251.5029143185
 20
37.1655625066
 10
250.986915062
 20
36.2386435425
 10
250.5328364407
 20
35.2867347105
 10
250.1460021283
 20
34.3209964446
 10
249.8309485088
 20
33.3527510414
 10
249.5913680412
 20
32.3933503443
 10
249.4300694177
 20
31.4540417163
 10
249.3489452954
 20
30.5458390488
 10
249.3489452954
 20
29.6793891137
 10
249.4300694177
 20
28.8648503642
 10
249.5913680412
 20
28.1117731627
 10
249.8309485088
 20
27.4289861857
 10
250.1460021283
 20
26.8244939488
 10
250.5328364407
 20
26.3053850732
 10
250.986915062
 20
25.877744258
 10
251.5029143185
 20
25.5465853543
 10
252.0747851496
 20
25.3157916632
 10
252.6958225844
 20
25.1880685902
 10
253.3587454255
 20
25.1649128391
 10
254.05578186
 20
25.2465979553
 10
254.7787593505
 20
25.4321634805
 10
255.5192019352
 20
25.7194357614
 10
256.2684285158
 20
26.105046667
 10
257.0176550965
 20
26.5844743586
 10
257.7580976812
 20
27.152098889
 10
258.4810751717
 20
27.8012654065
 10
259.1781116061
 20
28.5243614273
 10
259.8410344473
 20
29.3129115989
 10
260.4620718821
 20
30.1576692316
 10
261.0339427132
 20
31.0487309301
 10
261.5499419697
 20
31.9756498942
 10
262.004020591
 20
32.9275587263
 10
262.3908549034
 20
33.8932969921
 10
262.7059085229
 20
34.8615423954
 10
262.9454889905
 20
35.8209430925
 10
263.106787614
 20
36.7602517205
 10
263.1879117363
 20
37.6684543879
 10
263.1879117363
 20
38.5349043231
 10
263.106787614
 20
39.3494430726
 10
262.9454889905
 20
40.1025202741
 10
262.7059085229
 20
40.7853072511
 10
262.3908549034
 20
41.389799488
 10
262.004020591
 20
41.9089083636
 10
261.5499419697
 20
42.3365491788
 10
261.0339427132
 20
42.6677080824
 10
260.4620718821
 20
42.8985017735
 10
259.8410344473
 20
43.0262248466
 10
259.1781116061
 20
43.0493805976
 10
258.4810751717
 20
42.9676954815
 10
257.7580976812
 20
42.7821299563
 10
257.0176550965
 20
42.4948576754
 10
256.2684285158
 20
42.1092467698
  0
LWPOLYLINE
  5
261
330
1F
100
AcDbEntity
  8
0
  6
Continuous
 62
     7
370
    15
100
AcDbPolyline
 90
       31
 70
   128
 43
0.0
 10
256.1270073998
 20
42.3541953272
 10
255.375398946
 20
41.8740428053
 10
254.6323064605
 20
41.3068124909
 10
253.9061496818
 20
40.6589323095
 10
253.2051560534
 20
39.9377427602
 10
252.5372681159
 20
39.1514160777
 10
251.9100532044
 20
38.3088599943
 10
251.3306183311
 20
37.4196218351
 10
250.8055285262
 20
36.4937771174
 10
250.3407330808
 20
35.5418162487
 10
249.9414983753
 20
34.5745247602
 10
249.6123479521
 20
33.6028625891
 10
249.3570111486
 20
32.6378393672
 10
249.1783816093
 20
31.6903891386
 10
249.0784823831
 20
30.7712466453
 10
249.0584455079
 20
29.8908260352
 10
249.1184988401
 20
29.0591034194
 10
249.2579607862
 20
28.2855018525
 10
249.4752521564
 20
27.5787871009
 10
249.7679106529
 20
26.9469663094
 10
250.1326198454
 20
26.3971980263
 10
250.5652480257
 20
25.9357115909
 10
251.0608933178
 20
25.5677358357
 10
251.6139396542
 20
25.2974401452
 10
252.2181206545
 20
25.127886921
 10
252.8665910779
 20
25.0609975447
 10
253.5520032139
 20
25.0975291762
 10
254.2665913413
 20
25.2370687572
 10
255.0022586551
 20
25.4780349046
 10
255.750669793
 20
25.8176971028
 10
256.1281566472
 20
26.0240429009
  0
LWPOLYLINE
  5
262
330
1F
100
AcDbEntity
  8
0
  6
Continuous
 62
     7
370
    15
100
AcDbPolyline
 90
       16
 70
   128
 43
0.0
 10
263.1980750537
 20
38.2708278588
 10
263.1755324166
 20
38.9093004063
 10
263.0756331904
 20
39.7131017081
 10
262.8970036511
 20
40.4543106607
 10
262.6416668476
 20
41.1245282843
 10
262.3125164243
 20
41.7161614659
 10
261.9132817189
 20
42.222506375
 10
261.4484862735
 20
42.6378258452
 10
260.9233964686
 20
42.9574147787
 10
260.3439615953
 20
43.1776516732
 10
259.7167466837
 20
43.296040834
 10
259.0488587463
 20
43.3112405179
 10
258.3478651179
 20
43.2230800513
 10
257.6217083392
 20
43.0325574619
 10
256.8786158536
 20
42.7418314547
 10
256.1270073998
 20
42.3541953272
  0
SPLINE
  5
263
330
1F
100
AcDbEntity
  8
0
  6
Continuous
 62
     7
370
    15
100
AcDbSpline
210
0.0
220
0.0
230
1.0
 70
    11
 71
     3
 72
    88
 73
    84
 74
     0
 42
0.000000001
 43
0.00000001
 40
0.0
 40
0.0
 40
0.0
 40
0.0
 40
0.0312500000000005
 40
0.0312500000000005
 40
0.0625000000000009
 40
0.0625000000000009
 40
0.0937500000000014
 40
0.0937500000000014
 40
0.1093750000000017
 40
0.1093750000000017
 40
0.1250000000000019
 40
0.1250000000000019
 40
0.1562500000000018
 40
0.1562500000000018
 40
0.171875000000002
 40
0.171875000000002
 40
0.1875000000000023
 40
0.1875000000000023
 40
0.2187500000000028
 40
0.2187500000000028
 40
0.234375000000003
 40
0.234375000000003
 40
0.2500000000000033
 40
0.2500000000000033
 40
0.2812500000000033
 40
0.2812500000000033
 40
0.2968750000000031
 40
0.2968750000000031
 40
0.3125000000000029
 40
0.3125000000000029
 40
0.3437500000000025
 40
0.3437500000000025
 40
0.3593750000000023
 40
0.3593750000000023
 40
0.3750000000000021
 40
0.3750000000000021
 40
0.3906250000000019
 40
0.3906250000000019
 40
0.4062500000000017
 40
0.4062500000000017
 40
0.4375000000000013
 40
0.4375000000000013
 40
0.4531250000000011
 40
0.4531250000000011
 40
0.4687500000000008
 40
0.4687500000000008
 40
0.5000000000000008
 40
0.5000000000000008
 40
0.5312500000000007
 40
0.5312500000000007
 40
0.5625000000000006
 40
0.5625000000000006
 40
0.5937500000000006
 40
0.5937500000000006
 40
0.6250000000000004
 40
0.6250000000000004
 40
0.6562500000000003
 40
0.6562500000000003
 40
0.6875000000000002
 40
0.6875000000000002
 40
0.7187500000000002
 40
0.7187500000000002
 40
0.7500000000000001
 40
0.7500000000000001
 40
0.78125
 40
0.78125
 40
0.8124999999999999
 40
0.8124999999999999
 40
0.828125
 40
0.828125
 40
0.84375
 40
0.84375
 40
0.875
 40
0.875
 40
0.890625
 40
0.890625
 40
0.90625
 40
0.90625
 40
0.9375
 40
0.9375
 40
0.9687500000000001
 40
0.9687500000000001
 40
1.0
 40
1.0
 40
1.0
 40
1.0
 10
251.9825684580692
 20
46.24210703664609
 30
0.0
 10
252.174006168281
 20
46.20846855180363
 30
0.0
 10
252.3603316103913
 20
46.16562160889715
 30
0.0
 10
252.7240138110602
 20
46.06526554072431
 30
0.0
 10
252.9022954547151
 20
46.00737484634501
 30
0.0
 10
253.2458172045578
 20
45.87988219885129
 30
0.0
 10
253.4083020295996
 20
45.81140635614323
 30
0.0
 10
253.6387998071235
 20
45.70270619727924
 30
0.0
 10
253.7134121699551
 20
45.66546171089156
 30
0.0
 10
253.858134862009
 20
45.58898440720495
 30
0.0
 10
253.9285193147952
 20
45.54957610676836
 30
0.0
 10
254.1293259282802
 20
45.43032047368207
 30
0.0
 10
254.2503297613468
 20
45.34910684707555
 30
0.0
 10
254.4128487343963
 20
45.22438172959406
 30
0.0
 10
254.4638380822589
 20
45.1823138765566
 30
0.0
 10
254.5592586348426
 20
45.09702323369439
 30
0.0
 10
254.603821286746
 20
45.05362980871153
 30
0.0
 10
254.7249821804957
 20
44.92378965640084
 30
0.0
 10
254.7899771484098
 20
44.83708593887697
 30
0.0
 10
254.8634233455967
 20
44.70534341683198
 30
0.0
 10
254.8838711648282
 20
44.6611436268598
 30
0.0
 10
254.9162666905386
 20
44.57185113478847
 30
0.0
 10
254.928198367518
 20
44.52659045221274
 30
0.0
 10
254.949899948885
 20
44.39192162151728
 30
0.0
 10
254.9461757033316
 20
44.3027617403966
 30
0.0
 10
254.9116383264702
 20
44.16814681504746
 30
0.0
 10
254.8952651163912
 20
44.12312992542005
 30
0.0
 10
254.851984143069
 20
44.03248656786263
 30
0.0
 10
254.8250147905152
 20
43.98693365387532
 30
0.0
 10
254.729928347355
 20
43.85289699034659
 30
0.0
 10
254.6472550828945
 20
43.7656902669105
 30
0.0
 10
254.492250524578
 20
43.63723036747516
 30
0.0
 10
254.4348531741005
 20
43.59447844093241
 30
0.0
 10
254.3116903247915
 20
43.51167711720476
 30
0.0
 10
254.2460877112415
 20
43.47165395071377
 30
0.0
 10
254.1070384511453
 20
43.39427466639646
 30
0.0
 10
254.0335914523351
 20
43.35691870136743
 30
0.0
 10
253.8787936644236
 20
43.2849409261772
 30
0.0
 10
253.7968798181201
 20
43.2501234268191
 30
0.0
 10
253.5451855800419
 20
43.15245140586661
 30
0.0
 10
253.368547667036
 20
43.09565752026769
 30
0.0
 10
253.0910949415254
 20
43.02322512271541
 30
0.0
 10
252.996713685676
 20
43.00131987960324
 30
0.0
 10
252.807984085254
 20
42.96282280549656
 30
0.0
 10
252.713123491
 20
42.946091877881
 30
0.0
 10
252.4270682064695
 20
42.9034726630118
 30
0.0
 10
252.2327292241969
 20
42.88511915202805
 30
0.0
 10
251.8524996963868
 20
42.8707181476726
 30
0.0
 10
251.665641374002
 20
42.87434633760681
 30
0.0
 10
251.2978252989462
 20
42.90436174576098
 30
0.0
 10
251.1183928577013
 20
42.93085060453123
 30
0.0
 10
250.7771980146271
 20
43.00579164597031
 30
0.0
 10
250.6139570994574
 20
43.05434546628224
 30
0.0
 10
250.3023116569861
 20
43.17507190672055
 30
0.0
 10
250.157421390963
 20
43.24597521705876
 30
0.0
 10
249.8910612109809
 20
43.40710283211289
 30
0.0
 10
249.7691471701563
 20
43.49749719809973
 30
0.0
 10
249.5489705866512
 20
43.69841448163848
 30
0.0
 10
249.4538087169843
 20
43.80611885143184
 30
0.0
 10
249.2929663977107
 20
44.0341953902149
 30
0.0
 10
249.227160495152
 20
44.1547307354133
 30
0.0
 10
249.1276398472741
 20
44.4075082212991
 30
0.0
 10
249.0953995082778
 20
44.53592213055206
 30
0.0
 10
249.0664429582779
 20
44.79486889293894
 30
0.0
 10
249.0697785987868
 20
44.92600582416345
 30
0.0
 10
249.1168552588477
 20
45.18605764323947
 30
0.0
 10
249.1597412050708
 20
45.31101385653554
 30
0.0
 10
249.2542814522045
 20
45.48912767059726
 30
0.0
 10
249.2908680367153
 20
45.54693822360367
 30
0.0
 10
249.3749278184211
 20
45.65902463509141
 30
0.0
 10
249.4227441281501
 20
45.71353504662097
 30
0.0
 10
249.5789697982973
 20
45.86630901994153
 30
0.0
 10
249.7009454825963
 20
45.95551149771769
 30
0.0
 10
249.9112858565431
 20
46.06957754480104
 30
0.0
 10
249.9864989951535
 20
46.10443186188136
 30
0.0
 10
250.1421009291688
 20
46.16557991253327
 30
0.0
 10
250.222838580638
 20
46.19212927860988
 30
0.0
 10
250.4735323244837
 20
46.26033781744453
 30
0.0
 10
250.6541730736158
 20
46.29066946041928
 30
0.0
 10
251.0230927058834
 20
46.3214231612327
 30
0.0
 10
251.2119020775209
 20
46.32242765278481
 30
0.0
 10
251.5979731971465
 20
46.29950080156676
 30
0.0
 10
251.7911307478575
 20
46.27574552148855
 30
0.0
 10
251.9825684580692
 20
46.24210703664609
 30
0.0
  0
SPLINE
  5
264
330
1F
100
AcDbEntity
  8
0
  6
Continuous
 62
     7
370
    15
100
AcDbSpline
210
0.0
220
0.0
230
1.0
 70
     8
 71
     3
 72
    12
 73
     8
 74
     0
 42
0.000000001
 43
0.00000001
 40
0.0
 40
0.0
 40
0.0
 40
0.0
 40
0.249999999999999
 40
0.249999999999999
 40
0.499999999999998
 40
0.499999999999998
 40
1.0
 40
1.0
 40
1.0
 40
1.0
 10
235.7630062864296
 20
37.18953337298088
 30
0.0
 10
235.7967854527019
 20
37.17003307536737
 30
0.0
 10
235.8351101491774
 20
37.1431933267902
 30
0.0
 10
235.90933327329
 20
37.08479282346756
 30
0.0
 10
235.9447166377847
 20
37.05380316498666
 30
0.0
 10
236.0405265961697
 20
36.96306381196591
 30
0.0
 10
236.089530354324
 20
36.90716968324838
 30
0.0
 10
236.1233394119387
 20
36.85990981948171
 30
0.0
  0
SPLINE
  5
265
330
1F
100
AcDbEntity
  8
0
  6
Continuous
 62
     7
370
    15
100
AcDbSpline
210
0.0
220
0.0
230
1.0
 70
     8
 71
     3
 72
    12
 73
     8
 74
     0
 42
0.000000001
 43
0.00000001
 40
0.0
 40
0.0
 40
0.0
 40
0.0
 40
0.500000000000004
 40
0.500000000000004
 40
0.750000000000002
 40
0.750000000000002
 40
1.0
 40
1.0
 40
1.0
 40
1.0
 10
253.2278693251297
 20
53.62971134380324
 30
0.0
 10
253.2278693251297
 20
53.70139646997652
 30
0.0
 10
253.210090657003
 20
53.7841439068529
 30
0.0
 10
253.1552467004385
 20
53.90244845908538
 30
0.0
 10
253.1321040588024
 20
53.94097391630999
 30
0.0
 10
253.0776670106298
 20
54.00810614314435
 30
0.0
 10
253.046829274719
 20
54.0358607727423
 30
0.0
 10
253.0157372907738
 20
54.05380979301826
 30
0.0
  0
LWPOLYLINE
  5
266
330
1F
100
AcDbEntity
  8
0
  6
Continuous
 62
     7
370
    15
100
AcDbPolyline
 90
       12
 70
   128
 43
0.0
 10
241.7267127669
 20
50.8570735116
 10
242.6395502854
 20
51.6757736894
 10
243.5704355454
 20
52.4149906836
 10
244.5127411607
 20
53.0694628317
 10
245.4597586209
 20
53.6345295534
 10
246.4047457472
 20
54.1061693931
 10
247.3409747666
 20
54.4810224491
 10
248.261780509
 20
54.7564227598
 10
249.1606071638
 20
54.9304078056
 10
250.0310558186
 20
55.0017391075
 10
250.866929899
 20
54.9699102084
 10
251.6622771503
 20
54.8351458133
  0
LINE
  5
267
330
1F
100
AcDbEntity
  8
0
  6
Continuous
 62
     7
370
    15
100
AcDbLine
 10
253.0157369209
 20
54.053810119
 30
0.0
 11
251.6622771503
 21
54.8351458133
 31
0.0
  0
LINE
  5
268
330
1F
100
AcDbEntity
  8
0
  6
Continuous
 62
     7
370
    15
100
AcDbLine
 10
234.4095463719
 20
37.970869257
 30
0.0
 11
235.7630061425
 21
37.1895335626
 31
0.0
  0
ARC
  5
269
330
1F
100
AcDbEntity
  8
0
  6
Continuous
 62
     7
370
    15
100
AcDbCircle
 10
260.0254937777
 20
31.959355745
 30
0.0
 40
26.31188051429152
100
AcDbArc
 50
136.4697995832
 51
166.7929036469
  0
SPLINE
  5
26A
330
1F
100
AcDbEntity
  8
0
  6
Continuous
 62
     7
370
    15
100
AcDbSpline
210
0.0
220
0.0
230
1.0
 70
     8
 71
     3
 72
    12
 73
     8
 74
     0
 42
0.000000001
 43
0.00000001
 40
0.0
 40
0.0
 40
0.0
 40
0.0
 40
0.2499999999999997
 40
0.2499999999999997
 40
0.4999999999999993
 40
0.4999999999999993
 40
1.0
 40
1.0
 40
1.0
 40
1.0
 10
240.9490791621105
 20
50.08131673611538
 30
0.0
 10
241.0483938448305
 20
50.1146648204112
 30
0.0
 10
241.1422189845219
 20
50.15854702191572
 30
0.0
 10
241.3192120894275
 20
50.26667729071145
 30
0.0
 10
241.3990236573485
 20
50.32908278089263
 30
0.0
 10
241.6072075185689
 20
50.5364803586824
 30
0.0
 10
241.6989173521549
 20
50.69789089647618
 30
0.0
 10
241.7267126783287
 20
50.85707390401527
 30
0.0
  0
ARC
  5
26B
330
1F
100
AcDbEntity
  8
0
  6
Continuous
 62
     7
370
    15
100
AcDbCircle
 10
238.4049983644
 20
37.6842763817
 30
0.0
 40
0.3493673163990408
100
AcDbArc
 50
350.7859529282
 51
129.2032375553
  0
LINE
  5
26C
330
1F
100
AcDbEntity
  8
0
  6
Continuous
 62
     7
370
    15
100
AcDbLine
 10
238.184172685
 20
37.9550041805
 30
0.0
 11
236.1712345903
 21
36.7929597533
 31
0.0
  0
LINE
  5
26D
330
1F
100
AcDbEntity
  8
0
  6
Continuous
 62
     7
370
    15
100
AcDbLine
 10
236.1233393068
 20
36.8599096969
 30
0.0
 11
236.1712345903
 21
36.7929597533
 31
0.0
  0
LINE
  5
26E
330
1F
100
AcDbEntity
  8
0
  6
Continuous
 62
     7
370
    15
100
AcDbLine
 10
253.2278692535
 20
50.8447302358
 30
0.0
 11
253.2278692535
 21
53.6297111243
 31
0.0
  0
LINE
  5
26F
330
1F
100
AcDbEntity
  8
0
  6
Continuous
 62
     7
370
    15
100
AcDbLine
 10
255.6396028044
 20
52.2369943795
 30
0.0
 11
253.2278692535
 21
50.8447302358
 31
0.0
  0
LINE
  5
270
330
1F
100
AcDbEntity
  8
0
  6
Continuous
 62
     7
370
    15
100
AcDbLine
 10
257.2451329978
 20
48.9586623497
 30
0.0
 11
257.3504968263
 21
49.1411574732
 31
0.0
  0
LINE
  5
271
330
1F
100
AcDbEntity
  8
0
  6
Continuous
 62
     7
370
    15
100
AcDbLine
 10
256.0739741521
 20
48.2825667391
 30
0.0
 11
257.2451329978
 21
48.9586623497
 31
0.0
  0
ARC
  5
272
330
1F
100
AcDbEntity
  8
0
  6
Continuous
 62
     7
370
    15
100
AcDbCircle
 10
256.7364619798
 20
47.2468823194
 30
0.0
 40
1.229443914554865
100
AcDbArc
 50
122.6054968531
 51
177.3945222572
  0
LINE
  5
273
330
1F
100
AcDbEntity
  8
0
  6
Continuous
 62
     7
370
    15
100
AcDbLine
 10
255.5082890295
 20
46.0926588422
 30
0.0
 11
255.5082890295
 21
47.3027709884
 31
0.0
  0
LINE
  5
274
330
1F
100
AcDbEntity
  8
0
  6
Continuous
 62
     7
370
    15
100
AcDbLine
 10
236.1712345903
 20
30.2198059767
 30
0.0
 11
236.1233393068
 21
30.0975573158
 31
0.0
  0
LINE
  5
275
330
1F
100
AcDbEntity
  8
0
  6
Continuous
 62
     7
370
    15
100
AcDbLine
 10
236.1712345903
 20
30.2198059767
 30
0.0
 11
238.184172685
 21
31.3818504039
 31
0.0
  0
ARC
  5
276
330
1F
100
AcDbEntity
  8
0
  6
Continuous
 62
     7
370
    15
100
AcDbCircle
 10
237.5216848573
 20
32.4175348236
 30
0.0
 40
1.229443914555008
100
AcDbArc
 50
302.6054968531
 51
357.3945222572
  0
LINE
  5
277
330
1F
100
AcDbEntity
  8
0
  6
Continuous
 62
     7
370
    15
100
AcDbLine
 10
238.7498578075
 20
33.2513364061
 30
0.0
 11
238.7498578075
 21
32.3616461546
 31
0.0
  0
LINE
  5
278
330
1F
100
AcDbEntity
  8
0
  6
Continuous
 62
     7
370
    15
100
AcDbLine
 10
238.7498578075
 20
37.6283345701
 30
0.0
 11
238.7498578075
 21
36.7386443187
 31
0.0
  0
SPLINE
  5
279
330
1F
100
AcDbEntity
  8
0
  6
Continuous
 62
     7
370
    15
100
AcDbSpline
210
0.0
220
0.0
230
1.0
 70
     8
 71
     3
 72
     8
 73
     4
 74
     0
 42
0.000000001
 43
0.00000001
 40
0.0
 40
0.0
 40
0.0
 40
0.0
 40
1.0
 40
1.0
 40
1.0
 40
1.0
 10
233.4193948661921
 20
39.22924846185055
 30
0.0
 10
233.0386970001916
 20
39.16628162417995
 30
0.0
 10
232.6578590279518
 20
39.10358150204492
 30
0.0
 10
232.2769183772121
 20
39.04110062337188
 30
0.0
  0
SPLINE
  5
27A
330
1F
100
AcDbEntity
  8
0
  6
Continuous
 62
     7
370
    15
100
AcDbSpline
210
0.0
220
0.0
230
1.0
 70
     8
 71
     3
 72
     8
 73
     4
 74
     0
 42
0.000000001
 43
0.00000001
 40
0.0
 40
0.0
 40
0.0
 40
0.0
 40
0.0011901715795577
 40
0.0011901715795577
 40
0.0011901715795577
 40
0.0011901715795577
 10
231.9192315796543
 20
39.40849727922751
 30
0.0
 10
232.0388780871491
 20
39.28588236947202
 30
0.0
 10
232.1581212612971
 20
39.1634103289763
 30
0.0
 10
232.2769183772121
 20
39.04110062337188
 30
0.0
  0
LWPOLYLINE
  5
27B
330
1F
100
AcDbEntity
  8
0
  6
Continuous
 62
     7
370
    15
100
AcDbPolyline
 90
       23
 70
   128
 43
0.0
 10
231.9192316683
 20
39.4084973346
 10
232.2337136712
 20
40.6484177791
 10
232.6260665865
 20
41.8980302408
 10
233.0933658181
 20
43.148023506
 10
233.6321302997
 20
44.3890833718
 10
234.2383448855
 20
45.6119622257
 10
234.9074926186
 20
46.8075482448
 10
235.6345876586
 20
47.9669326942
 10
236.4142115012
 20
49.0814757028
 10
237.2405561133
 20
50.1428745114
 10
238.1074634451
 20
51.1432182221
 10
239.0084735042
 20
52.075053574
 10
239.9368734172
 20
52.931438361
 10
240.8857446801
 20
53.7059892411
 10
241.8480174061
 20
54.3929373886
 10
242.8165211671
 20
54.9871608852
 10
243.7840393956
 20
55.4842351379
 10
244.7433627477
 20
55.8804537984
 10
245.6873433299
 20
56.1728669116
 10
246.6089467343
 20
56.3592934645
 10
247.5013058235
 20
56.4383455914
 10
248.3577716028
 20
56.4094336068
 10
249.1719624467
 20
56.272773891
  0
SPLINE
  5
27C
330
1F
100
AcDbEntity
  8
0
  6
Continuous
 62
     7
370
    15
100
AcDbSpline
210
0.0
220
0.0
230
1.0
 70
     8
 71
     3
 72
     9
 73
     5
 74
     0
 42
0.000000001
 43
0.00000001
 40
0.0
 40
0.0
 40
0.0
 40
0.0
 40
0.0031051604420238
 40
1.0
 40
1.0
 40
1.0
 40
1.0
 10
249.6060173637334
 20
54.93846213381052
 30
0.0
 10
249.6055781301532
 20
54.9398427121871
 30
0.0
 10
249.4641253490923
 20
55.38445045544332
 30
0.0
 10
249.3178167420545
 20
55.82930284221656
 30
0.0
 10
249.1719624467156
 20
56.27277389095586
 30
0.0
  0
LWPOLYLINE
  5
27D
330
1F
100
AcDbEntity
  8
0
  6
Continuous
 62
     7
370
    15
100
AcDbPolyline
 90
       22
 70
   128
 43
0.0
 10
233.4193947404
 20
39.2292486475
 10
233.714223141
 20
40.4045703741
 10
234.0859135638
 20
41.5896857342
 10
234.531471607
 20
42.7750470169
 10
235.047306886
 20
43.9511031454
 10
235.6292639848
 20
45.1083787616
 10
236.272653408
 20
46.2375498897
 10
236.9722924103
 20
47.3295188382
 10
237.7225431923
 20
48.375488721
 10
238.5173619617
 20
49.3670305643
 10
239.3503437146
 20
50.2961570668
 10
240.2147782117
 20
51.1553815306
 10
241.1037005218
 20
51.9377820206
 10
242.0099484793
 20
52.6370535455
 10
242.9262206778
 20
53.2475635903
 10
243.8451347922
 20
53.7643918686
 10
244.7592871771
 20
54.1833753744
 10
245.6613127119
 20
54.5011383673
 10
246.5439437816
 20
54.7151203378
 10
247.4000690934
 20
54.8235977937
 10
248.2227910521
 20
54.8256960893
 10
248.4681729676
 20
54.8049156594
  0
LINE
  5
27E
330
1F
100
AcDbEntity
  8
0
  6
Continuous
 62
     7
370
    15
100
AcDbLine
 10
258.725430087
 20
39.0378448204
 30
0.0
 11
258.6646521912
 21
39.0745170972
 31
0.0
  0
LINE
  5
27F
330
1F
100
AcDbEntity
  8
0
  6
Continuous
 62
     7
370
    15
100
AcDbLine
 10
230.5834492079
 20
40.179628135
 30
0.0
 11
231.9192316683
 21
39.4084973346
 31
0.0
  0
LINE
  5
280
330
1F
100
AcDbEntity
  8
0
  6
Continuous
 62
     7
370
    15
100
AcDbLine
 10
249.1719624467
 20
56.272773891
 30
0.0
 11
247.8361799863
 21
57.0439046913
 31
0.0
  0
LINE
  5
281
330
1F
100
AcDbEntity
  8
0
  6
Continuous
 62
     7
370
    15
100
AcDbLine
 10
234.64593685
 20
38.9289638542
 30
0.0
 11
234.0554262458
 21
39.2698583698
 31
0.0
  0
SPLINE
  5
282
330
1F
100
AcDbEntity
  8
0
  6
Continuous
 62
     7
370
    15
100
AcDbSpline
210
0.0
220
0.0
230
1.0
 70
     8
 71
     3
 72
    14
 73
    10
 74
     0
 42
0.000000001
 43
0.00000001
 40
0.0
 40
0.0
 40
0.0
 40
0.0
 40
0.1133499026822865
 40
0.2881008002156852
 40
0.4628816209037933
 40
0.6373002692507401
 40
0.8114819813598014
 40
0.9859191867890602
 40
0.9999999999999999
 40
0.9999999999999999
 40
0.9999999999999999
 40
0.9999999999999999
 10
241.4401616122458
 20
50.38162423398704
 30
0.0
 10
241.3706110805661
 20
50.38497424222669
 30
0.0
 10
241.1938348914545
 20
50.39348893903485
 30
0.0
 10
240.8990012431441
 20
50.30834346559032
 30
0.0
 10
240.6063474882334
 20
50.1449055152824
 30
0.0
 10
240.3808335203894
 20
49.91422650497694
 30
0.0
 10
240.2616362124734
 20
49.65146048065375
 30
0.0
 10
240.2277290267121
 20
49.45593220886741
 30
0.0
 10
240.2596960811248
 20
49.36962901758272
 30
0.0
 10
240.2620837686537
 20
49.3631828480083
 30
0.0
  0
SPLINE
  5
283
330
1F
100
AcDbEntity
  8
0
  6
Continuous
 62
     7
370
    15
100
AcDbSpline
210
0.0
220
0.0
230
1.0
 70
     8
 71
     3
 72
    14
 73
    10
 74
     0
 42
0.000000001
 43
0.00000001
 40
0.0
 40
0.0
 40
0.0
 40
0.0
 40
0.0340192862484122
 40
0.2185359690703983
 40
0.3936740296046901
 40
0.5586016822181887
 40
0.726126999505346
 40
0.9051108048694345
 40
1.0
 40
1.0
 40
1.0
 40
1.0
 10
257.0089374489218
 20
39.14963641413568
 30
0.0
 10
257.0399833746763
 20
39.11275155683995
 30
0.0
 10
257.2394188190564
 20
38.87580749004536
 30
0.0
 10
257.4456408125337
 20
38.38466961205349
 30
0.0
 10
257.5242482507098
 20
37.7536988449565
 30
0.0
 10
257.3512119385903
 20
37.20933424077688
 30
0.0
 10
256.9842669753783
 20
36.81142810670789
 30
0.0
 10
256.5506865062514
 20
36.58720942586505
 30
0.0
 10
256.2528602007763
 20
36.62156178424009
 30
0.0
 10
256.1496718676285
 20
36.63346389810731
 30
0.0
  0
SPLINE
  5
284
330
1F
100
AcDbEntity
  8
0
  6
Continuous
 62
     7
370
    15
100
AcDbSpline
210
0.0
220
0.0
230
1.0
 70
     8
 71
     3
 72
    12
 73
     8
 74
     0
 42
0.000000001
 43
0.00000001
 40
0.0
 40
0.0
 40
0.0
 40
0.0
 40
0.2499999999999978
 40
0.2499999999999978
 40
0.4999999999999957
 40
0.4999999999999957
 40
1.0
 40
1.0
 40
1.0
 40
1.0
 10
234.0554263154295
 20
39.26985835726619
 30
0.0
 10
234.0173887078769
 20
39.29181700070343
 30
0.0
 10
233.9719054314188
 20
39.30883163461496
 30
0.0
 10
233.8716642378374
 20
39.33122676672897
 30
0.0
 10
233.8183422388329
 20
39.33631971608354
 30
0.0
 10
233.6572787319537
 20
39.33337019574378
 30
0.0
 10
233.5531348004778
 20
39.30645488252888
 30
0.0
 10
233.4776417166246
 20
39.26287365287294
 30
0.0
  0
SPLINE
  5
285
330
1F
100
AcDbEntity
  8
0
  6
Continuous
 62
     7
370
    15
100
AcDbSpline
210
0.0
220
0.0
230
1.0
 70
     8
 71
     3
 72
    10
 73
     6
 74
     0
 42
0.000000001
 43
0.00000001
 40
0.0
 40
0.0
 40
0.0
 40
0.0
 40
0.5
 40
0.5
 40
1.0
 40
1.0
 40
1.0
 40
1.0
 10
230.4818050036407
 20
40.21035013382533
 30
0.0
 10
230.4890676852894
 20
40.21434673931316
 30
0.0
 10
230.5008613492551
 20
40.21452851769833
 30
0.0
 10
230.5349203600223
 20
40.20480688818858
 30
0.0
 10
230.5570928475746
 20
40.19484323141288
 30
0.0
 10
230.5834491142381
 20
40.17962808253156
 30
0.0
  0
LINE
  5
286
330
1F
100
AcDbEntity
  8
0
  6
Continuous
 62
     7
370
    15
100
AcDbLine
 10
233.477641685
 20
39.2628738929
 30
0.0
 11
233.4193947404
 21
39.2292486475
 31
0.0
  0
LINE
  5
287
330
1F
100
AcDbEntity
  8
0
  6
Continuous
 62
     7
370
    15
100
AcDbLine
 10
236.1712345903
 20
36.7929597533
 30
0.0
 11
234.4440517992
 21
37.7900411551
 31
0.0
  0
SPLINE
  5
288
330
1F
100
AcDbEntity
  8
0
  6
Continuous
 62
     7
370
    15
100
AcDbSpline
210
0.0
220
0.0
230
1.0
 70
     8
 71
     3
 72
     8
 73
     4
 74
     0
 42
0.000000001
 43
0.00000001
 40
0.0
 40
0.0
 40
0.0
 40
0.0
 40
0.0011901715795577
 40
0.0011901715795577
 40
0.0011901715795577
 40
0.0011901715795577
 10
234.444051888901
 20
37.79004107662511
 30
0.0
 10
234.4318904220824
 20
37.85079133233594
 30
0.0
 10
234.4204069751263
 20
37.91105500646599
 30
0.0
 10
234.4095461514838
 20
37.97086927768273
 30
0.0
  0
LINE
  5
289
330
1F
100
AcDbEntity
  8
0
  6
Continuous
 62
     7
370
    15
100
AcDbLine
 10
238.7498578075
 20
36.7386443187
 30
0.0
 11
238.7498578075
 21
33.2513364061
 31
0.0
  0
ARC
  5
28A
330
1F
100
AcDbEntity
  8
0
  6
Continuous
 62
     7
370
    15
100
AcDbCircle
 10
243.4219386171
 20
38.2148145897
 30
0.0
 40
10.35656108681089
100
AcDbArc
 50
174.7086322964
 51
187.155472643
  0
LINE
  5
28B
330
1F
100
AcDbEntity
  8
0
  6
Continuous
 62
     7
370
    15
100
AcDbLine
 10
233.1460364548
 20
39.1841065569
 30
0.0
 11
233.1460364548
 21
36.9247788167
 31
0.0
  0
LINE
  5
28C
330
1F
100
AcDbEntity
  8
0
  6
Continuous
 62
     7
370
    15
100
AcDbLine
 10
233.1460364548
 20
36.9247788167
 30
0.0
 11
233.1460364548
 21
35.4589709093
 31
0.0
  0
LINE
  5
28D
330
1F
100
AcDbEntity
  8
0
  6
Continuous
 62
     7
370
    15
100
AcDbLine
 10
230.9209666038
 20
39.823874947
 30
0.0
 11
230.4818049211
 21
40.2103500663
 31
0.0
  0
LINE
  5
28E
330
1F
100
AcDbEntity
  8
0
  6
Continuous
 62
     7
370
    15
100
AcDbLine
 10
232.2769181422
 20
39.0411007857
 30
0.0
 11
230.9209666038
 21
39.823874947
 31
0.0
  0
LINE
  5
28F
330
1F
100
AcDbEntity
  8
0
  6
Continuous
 62
     7
370
    15
100
AcDbLine
 10
232.1472484236
 20
38.9596724586
 30
0.0
 11
232.1483942911
 21
39.115295913
 31
0.0
  0
ARC
  5
290
330
1F
100
AcDbEntity
  8
0
  6
Continuous
 62
     7
370
    15
100
AcDbCircle
 10
239.1477158882
 20
38.7160350251
 30
0.0
 40
7.004705841144521
100
AcDbArc
 50
178.006738161
 51
210.582619974
  0
LINE
  5
291
330
1F
100
AcDbEntity
  8
0
  6
Continuous
 62
     7
370
    15
100
AcDbLine
 10
212.7754580665
 20
52.0962414503
 30
0.0
 11
212.7456622203
 21
52.1218737467
 31
0.0
  0
LINE
  5
292
330
1F
100
AcDbEntity
  8
0
  6
Continuous
 62
     7
370
    15
100
AcDbLine
 10
234.4440517992
 20
31.2168873785
 30
0.0
 11
236.1712345903
 21
30.2198059767
 31
0.0
  0
SPLINE
  5
293
330
1F
100
AcDbEntity
  8
0
  6
Continuous
 62
     7
370
    15
100
AcDbSpline
210
0.0
220
0.0
230
1.0
 70
     8
 71
     3
 72
    14
 73
    10
 74
     0
 42
0.000000001
 43
0.00000001
 40
0.0
 40
0.0
 40
0.0
 40
0.0
 40
0.25
 40
0.25
 40
0.5
 40
0.5
 40
0.75
 40
0.75
 40
1.0
 40
1.0
 40
1.0
 40
1.0
 10
236.1233394119387
 20
30.09755750680773
 30
0.0
 10
236.1064312144006
 20
30.05440065725859
 30
0.0
 10
236.0859080235196
 20
30.01438468476958
 30
0.0
 10
236.0371245879573
 20
29.94107505778467
 30
0.0
 10
236.0086676095815
 20
29.90778789917859
 30
0.0
 10
235.9453049870733
 20
29.85486505284826
 30
0.0
 10
235.9099859263324
 20
29.83480138642301
 30
0.0
 10
235.8351678492812
 20
29.81804239594097
 30
0.0
 10
235.7967983752166
 20
29.82223929155215
 30
0.0
 10
235.7630062864296
 20
29.84174704917459
 30
0.0
  0
LINE
  5
294
330
1F
100
AcDbEntity
  8
0
  6
Continuous
 62
     7
370
    15
100
AcDbLine
 10
235.7630061425
 20
29.8417471897
 30
0.0
 11
234.4095463719
 21
30.6230828841
 31
0.0
  0
SPLINE
  5
295
330
1F
100
AcDbEntity
  8
0
  6
Continuous
 62
     7
370
    15
100
AcDbSpline
210
0.0
220
0.0
230
1.0
 70
     8
 71
     3
 72
     8
 73
     4
 74
     0
 42
0.000000001
 43
0.00000001
 40
0.0
 40
0.0
 40
0.0
 40
0.0
 40
0.0011901715795577
 40
0.0011901715795577
 40
0.0011901715795577
 40
0.0011901715795577
 10
234.4095461514838
 20
30.62308295387643
 30
0.0
 10
234.4204069751263
 20
30.82103814223461
 30
0.0
 10
234.4318904220824
 20
31.01897705473618
 30
0.0
 10
234.444051888901
 20
31.21688754094481
 30
0.0
  0
ARC
  5
296
330
1F
100
AcDbEntity
  8
0
  6
Continuous
 62
     7
370
    15
100
AcDbCircle
 10
241.3683301289
 20
30.7923769586
 30
0.0
 40
5.54884964215209
100
AcDbArc
 50
212.5485790507
 51
267.4372536367
  0
SPLINE
  5
297
330
1F
100
AcDbEntity
  8
0
  6
Continuous
 62
     7
370
    15
100
AcDbSpline
210
0.0
220
0.0
230
1.0
 70
     8
 71
     3
 72
     8
 73
     4
 74
     0
 42
0.000000001
 43
0.00000001
 40
0.0
 40
0.0
 40
0.0
 40
0.0
 40
1.0
 40
1.0
 40
1.0
 40
1.0
 10
234.7699688182584
 20
31.87642517937958
 30
0.0
 10
234.6608952378713
 20
31.65665297932036
 30
0.0
 10
234.5522836724033
 20
31.43679989765069
 30
0.0
 10
234.444051888901
 20
31.21688754094481
 30
0.0
  0
LINE
  5
298
330
1F
100
AcDbEntity
  8
0
  6
Continuous
 62
     7
370
    15
100
AcDbLine
 10
234.8282157136
 20
31.9100503254
 30
0.0
 11
234.769968769
 21
31.87642508
 31
0.0
  0
SPLINE
  5
299
330
1F
100
AcDbEntity
  8
0
  6
Continuous
 62
     7
370
    15
100
AcDbSpline
210
0.0
220
0.0
230
1.0
 70
     8
 71
     3
 72
    12
 73
     8
 74
     0
 42
0.000000001
 43
0.00000001
 40
0.0
 40
0.0
 40
0.0
 40
0.0
 40
0.2500000000000015
 40
0.2500000000000015
 40
0.500000000000003
 40
0.500000000000003
 40
1.0
 40
1.0
 40
1.0
 40
1.0
 10
234.8403148425465
 20
32.2435983195243
 30
0.0
 10
234.8783524500991
 20
32.22163967608706
 30
0.0
 10
234.9078258540108
 20
32.19538273948238
 30
0.0
 10
234.9466195640537
 20
32.13751473018307
 30
0.0
 10
234.9554417670003
 20
32.10673259537394
 30
0.0
 10
234.9503324943135
 20
32.01375261198719
 30
0.0
 10
234.9037087525442
 20
31.95363160005789
 30
0.0
 10
234.8282156686909
 20
31.91005037040196
 30
0.0
  0
LINE
  5
29A
330
1F
100
AcDbEntity
  8
0
  6
Continuous
 62
     7
370
    15
100
AcDbLine
 10
234.0554262458
 20
32.6967045932
 30
0.0
 11
234.8403148226
 21
32.2435980625
 31
0.0
  0
SPLINE
  5
29B
330
1F
100
AcDbEntity
  8
0
  6
Continuous
 62
     7
370
    15
100
AcDbSpline
210
0.0
220
0.0
230
1.0
 70
     8
 71
     3
 72
    12
 73
     8
 74
     0
 42
0.000000001
 43
0.00000001
 40
0.0
 40
0.0
 40
0.0
 40
0.0
 40
0.5
 40
0.5
 40
0.75
 40
0.75
 40
1.0
 40
1.0
 40
1.0
 40
1.0
 10
233.4776417166246
 20
32.68972011719265
 30
0.0
 10
233.5528858539301
 20
32.73315763306557
 30
0.0
 10
233.6576019563413
 20
32.76016668890107
 30
0.0
 10
233.8176242627173
 20
32.7631808319283
 30
0.0
 10
233.8722596164031
 20
32.75796348064608
 30
0.0
 10
233.9718248753809
 20
32.73567271097922
 30
0.0
 10
234.017805013015
 20
32.7184231371824
 30
0.0
 10
234.0554263154295
 20
32.6967048215859
 30
0.0
  0
LINE
  5
29C
330
1F
100
AcDbEntity
  8
0
  6
Continuous
 62
     7
370
    15
100
AcDbLine
 10
233.4193947404
 20
32.6560948709
 30
0.0
 11
233.477641685
 21
32.6897201163
 31
0.0
  0
SPLINE
  5
29D
330
1F
100
AcDbEntity
  8
0
  6
Continuous
 62
     7
370
    15
100
AcDbSpline
210
0.0
220
0.0
230
1.0
 70
     8
 71
     3
 72
     8
 73
     4
 74
     0
 42
0.000000001
 43
0.00000001
 40
0.0
 40
0.0
 40
0.0
 40
0.0
 40
1.0
 40
1.0
 40
1.0
 40
1.0
 10
232.2769183772121
 20
32.4679470876916
 30
0.0
 10
232.6578590279518
 20
32.53042796636463
 30
0.0
 10
233.0386970001916
 20
32.59312808849967
 30
0.0
 10
233.4193948661921
 20
32.65609492617026
 30
0.0
  0
LINE
  5
29E
330
1F
100
AcDbEntity
  8
0
  6
Continuous
 62
     7
370
    15
100
AcDbLine
 10
230.9209666038
 20
33.2507211704
 30
0.0
 11
232.2769181422
 21
32.4679470091
 31
0.0
  0
LINE
  5
29F
330
1F
100
AcDbEntity
  8
0
  6
Continuous
 62
     7
370
    15
100
AcDbLine
 10
230.9209666038
 20
33.2507211704
 30
0.0
 11
232.9339046985
 21
34.4127655977
 31
0.0
  0
ARC
  5
2A0
330
1F
100
AcDbEntity
  8
0
  6
Continuous
 62
     7
370
    15
100
AcDbCircle
 10
240.6459991585
 20
32.2262053767
 30
0.0
 40
6.439203761766489
100
AcDbArc
 50
194.4161472332
 51
238.0417156746
  0
ELLIPSE
  5
2A1
330
1F
100
AcDbEntity
  8
0
  6
Continuous
 62
     7
370
    15
100
AcDbEllipse
 10
232.69959013
 20
35.2012652353
 30
0.0
 11
-6.005970385558612E-5
 21
0.8534489614827264
 31
0.0
210
0.0
220
0.0
230
1.0
 40
0.7174342186
 41
3.534193645557487
 42
5.104989972352318
  0
ARC
  5
2A2
330
1F
100
AcDbEntity
  8
0
  6
Continuous
 62
     7
370
    15
100
AcDbCircle
 10
240.0784197369
 20
34.5199330201
 30
0.0
 40
6.914948051165718
100
AcDbArc
 50
195.6367501838
 51
215.4284682093
  0
ARC
  5
2A3
330
1F
100
AcDbEntity
  8
0
  6
Continuous
 62
     7
370
    15
100
AcDbCircle
 10
237.7811490264
 20
33.4293383851
 30
0.0
 40
6.01956943117314
100
AcDbArc
 50
193.1418706541
 51
253.6915959719
  0
SPLINE
  5
2A4
330
1F
100
AcDbEntity
  8
0
  6
Continuous
 62
     7
370
    15
100
AcDbSpline
210
0.0
220
0.0
230
1.0
 70
     8
 71
     3
 72
     8
 73
     4
 74
     0
 42
0.000000001
 43
0.00000001
 40
0.0
 40
0.0
 40
0.0
 40
0.0
 40
0.0011901715795577
 40
0.0011901715795577
 40
0.0011901715795577
 40
0.0011901715795577
 10
232.2769183772121
 20
32.4679470876916
 30
0.0
 10
232.1581212612971
 20
32.33159605137654
 30
0.0
 10
232.0388780871491
 20
32.19586550524063
 30
0.0
 10
231.9192315796543
 20
32.06071095542121
 30
0.0
  0
LINE
  5
2A5
330
1F
100
AcDbEntity
  8
0
  6
Continuous
 62
     7
370
    15
100
AcDbLine
 10
230.4818049211
 20
32.9971466136
 30
0.0
 11
230.9209666038
 21
33.2507211704
 31
0.0
  0
LINE
  5
2A6
330
1F
100
AcDbEntity
  8
0
  6
Continuous
 62
     7
370
    15
100
AcDbLine
 10
231.9192316683
 20
32.0607109617
 30
0.0
 11
230.5834492079
 21
32.8318417621
 31
0.0
  0
SPLINE
  5
2A7
330
1F
100
AcDbEntity
  8
0
  6
Continuous
 62
     7
370
    15
100
AcDbSpline
210
0.0
220
0.0
230
1.0
 70
     8
 71
     3
 72
    10
 73
     6
 74
     0
 42
0.000000001
 43
0.00000001
 40
0.0
 40
0.0
 40
0.0
 40
0.0
 40
0.5
 40
0.5
 40
1.0
 40
1.0
 40
1.0
 40
1.0
 10
230.5834491142381
 20
32.83184175872527
 30
0.0
 10
230.5571448618612
 20
32.84702688039804
 30
0.0
 10
230.5349467477427
 20
32.87065653133192
 30
0.0
 10
230.5009348613109
 20
32.92809892414181
 30
0.0
 10
230.4890639809049
 20
32.96173720229244
 30
0.0
 10
230.4818050036407
 20
32.99714662553556
 30
0.0
  0
ARC
  5
2A8
330
1F
100
AcDbEntity
  8
0
  6
Continuous
 62
     7
370
    15
100
AcDbCircle
 10
236.297072694
 20
33.8770522459
 30
0.0
 40
5.691050088252303
100
AcDbArc
 50
212.7820291147
 51
239.5347455062
  0
ELLIPSE
  5
2A9
330
1F
100
AcDbEntity
  8
0
  6
Continuous
 62
     7
370
    15
100
AcDbEllipse
 10
232.5803513145
 20
35.1324077551
 30
0.0
 11
0.2600075789209199
 21
0.9705436209909308
 31
0.0
210
0.0
220
0.0
230
1.0
 40
0.5176380889
 41
3.619174351347715
 42
5.189970678142601
  0
SPLINE
  5
2AA
330
1F
100
AcDbEntity
  8
0
  6
Continuous
 62
     7
370
    15
100
AcDbSpline
210
0.0
220
0.0
230
1.0
 70
     8
 71
     3
 72
    12
 73
     8
 74
     0
 42
0.000000001
 43
0.00000001
 40
0.0
 40
0.0
 40
0.0
 40
0.0
 40
0.5
 40
0.5
 40
0.75
 40
0.75
 40
1.0
 40
1.0
 40
1.0
 40
1.0
 10
250.0357815513546
 20
55.4720117905773
 30
0.0
 10
250.0975686038847
 20
55.5076806967689
 30
0.0
 10
250.1780463022888
 20
55.53376185450454
 30
0.0
 10
250.3081888244477
 20
55.54548034058611
 30
0.0
 10
250.3533178186271
 20
55.54465223216241
 30
0.0
 10
250.4379064061945
 20
55.53125508114832
 30
0.0
 10
250.4782134028695
 20
55.51818953115404
 30
0.0
 10
250.509124941485
 20
55.50034467974967
 30
0.0
  0
LINE
  5
2AB
330
1F
100
AcDbEntity
  8
0
  6
Continuous
 62
     7
370
    15
100
AcDbLine
 10
250.5091252164
 20
55.5003446334
 30
0.0
 11
251.6607885105
 21
54.8355035653
 31
0.0
  0
SPLINE
  5
2AC
330
1F
100
AcDbEntity
  8
0
  6
Continuous
 62
     7
370
    15
100
AcDbSpline
210
0.0
220
0.0
230
1.0
 70
     8
 71
     3
 72
     9
 73
     5
 74
     0
 42
0.000000001
 43
0.00000001
 40
0.0
 40
0.0
 40
0.0
 40
0.0
 40
0.8664443272572582
 40
1.0
 40
1.0
 40
1.0
 40
1.0
 10
253.2278692534801
 20
53.05518942253881
 30
0.0
 10
253.547045951606
 20
53.12447941377472
 30
0.0
 10
253.915421262154
 20
53.20444991973356
 30
0.0
 10
254.2857613595181
 20
53.28131940022466
 30
0.0
 10
254.3352223803652
 20
53.29158575540503
 30
0.0
  0
LINE
  5
2AD
330
1F
100
AcDbEntity
  8
0
  6
Continuous
 62
     7
370
    15
100
AcDbLine
 10
254.3352223804
 20
53.2915857554
 30
0.0
 11
255.688682151
 21
52.510250061
 31
0.0
  0
SPLINE
  5
2AE
330
1F
100
AcDbEntity
  8
0
  6
Continuous
 62
     7
370
    15
100
AcDbSpline
210
0.0
220
0.0
230
1.0
 70
     8
 71
     3
 72
    14
 73
    10
 74
     0
 42
0.000000001
 43
0.00000001
 40
0.0
 40
0.0
 40
0.0
 40
0.0
 40
0.25
 40
0.25
 40
0.5
 40
0.5
 40
0.75
 40
0.75
 40
1.0
 40
1.0
 40
1.0
 40
1.0
 10
255.6886821136764
 20
52.51024997019897
 30
0.0
 10
255.7199442018345
 20
52.49220275085118
 30
0.0
 10
255.7422115739306
 20
52.46911343541087
 30
0.0
 10
255.7653649719189
 20
52.42050208214216
 30
0.0
 10
255.7668851419149
 20
52.39450230057705
 30
0.0
 10
255.753439971144
 20
52.34436937118962
 30
0.0
 10
255.7387404654959
 20
52.32017905607822
 30
0.0
 10
255.6970954705202
 20
52.27522861330564
 30
0.0
 10
255.6707831870027
 20
52.25499470622387
 30
0.0
 10
255.639602792258
 20
52.23699464747981
 30
0.0
  0
LINE
  5
2AF
330
1F
100
AcDbEntity
  8
0
  6
Continuous
 62
     7
370
    15
100
AcDbLine
 10
250.0357814517
 20
55.4720115872
 30
0.0
 11
249.5278605607
 21
55.1787950981
 31
0.0
  0
SPLINE
  5
2B0
330
1F
100
AcDbEntity
  8
0
  6
Continuous
 62
     7
370
    15
100
AcDbSpline
210
0.0
220
0.0
230
1.0
 70
     8
 71
     3
 72
    10
 73
     6
 74
     0
 42
0.000000001
 43
0.00000001
 40
0.0
 40
0.0
 40
0.0
 40
0.0
 40
0.4052288462014568
 40
0.8115752064537689
 40
1.0
 40
1.0
 40
1.0
 40
1.0
 10
257.3504968263431
 20
49.1411574732232
 30
0.0
 10
257.3688163730831
 20
49.18008388389232
 30
0.0
 10
257.4055059870307
 20
49.25804405398247
 30
0.0
 10
257.4195216331474
 20
49.36559545861818
 30
0.0
 10
257.4014316001961
 20
49.41874977686214
 30
0.0
 10
257.3957006384601
 20
49.43558918034908
 30
0.0
  0
ARC
  5
2B1
330
1F
100
AcDbEntity
  8
0
  6
Continuous
 62
     7
370
    15
100
AcDbCircle
 10
241.3859688635
 20
48.9929325846
 30
0.0
 40
1.083190433083463
100
AcDbArc
 50
126.0723241232
 51
148.9783059006
  0
LWPOLYLINE
  5
2B2
330
1F
100
AcDbEntity
  8
0
  6
Continuous
 62
     7
370
    15
100
AcDbPolyline
 90
        3
 70
   128
 43
0.0
 10
240.5156727951
 20
49.6153996949
 10
240.5409180988
 20
49.6515609715
 10
240.7224712464
 20
49.8408246499
  0
ARC
  5
2B3
330
1F
100
AcDbEntity
  8
0
  6
Continuous
 62
     7
370
     0
100
AcDbCircle
 10
253.7583833658
 20
37.1930908391
 30
0.0
 40
1.380783170059188
100
AcDbArc
 50
331.4979746154
 51
28.915937543
  0
LWPOLYLINE
  5
2B4
330
1F
100
AcDbEntity
  8
0
  6
Continuous
 62
     7
370
     0
100
AcDbPolyline
 90
        9
 70
   128
 43
0.0
 10
254.8313829836
 20
37.7256337659
 10
254.8957780997
 20
37.5178470067
 10
254.9486170769
 20
37.1653972402
 10
254.9207698638
 20
36.8553773085
 10
254.8144899999
 20
36.6129046272
 10
254.6383912471
 20
36.4576207826
 10
254.4067363627
 20
36.4021080686
 10
254.138295182
 20
36.4508623918
 10
253.8745467894
 20
36.5865245657
  0
ARC
  5
2B5
330
1F
100
AcDbEntity
  8
0
  6
Continuous
 62
     7
370
     0
100
AcDbCircle
 10
245.155203092
 20
33.9712797179
 30
0.0
 40
4.331792537201338
100
AcDbArc
 50
186.6702457457
 51
237.0834174387
  0
LWPOLYLINE
  5
2B6
330
1F
100
AcDbEntity
  8
0
  6
Continuous
 62
     7
370
     0
100
AcDbPolyline
 90
       22
 70
   128
 43
0.0
 10
252.8004185501
 20
47.655878526
 10
252.6974758604
 20
47.7129082634
 10
252.1221710489
 20
47.9532135762
 10
251.4970242964
 20
48.0901998531
 10
250.8292453481
 20
48.1222861755
 10
250.1265370344
 20
48.0491032815
 10
249.3970037333
 20
47.871495475
 10
248.6490603267
 20
47.5915106533
 10
247.8913332844
 20
47.2123789465
 10
247.1325623462
 20
46.7384719288
 10
246.3814991261
 20
46.1752570123
 10
245.6468064581
 20
45.529229454
 10
244.9369582048
 20
44.8078408289
 10
244.2601413917
 20
44.0194113537
 10
243.6241628991
 20
43.1730349568
 10
243.0363582543
 20
42.2784741526
 10
242.5035065146
 20
41.3460458853
 10
242.0317538757
 20
40.3865055654
 10
241.6265415618
 20
39.4109198889
 10
241.2925435924
 20
38.4305419371
 10
241.0336111359
 20
37.4566782913
 10
240.8527320086
 20
36.5005623238
  0
SPLINE
  5
2B7
330
1F
100
AcDbEntity
  8
0
  6
Continuous
 62
     7
370
     0
100
AcDbSpline
210
0.0
220
0.0
230
1.0
 70
     8
 71
     3
 72
    14
 73
    10
 74
     0
 42
0.000000001
 43
0.00000001
 40
0.0
 40
0.0
 40
0.0
 40
0.0
 40
0.25
 40
0.25
 40
0.5
 40
0.5
 40
0.75
 40
0.75
 40
1.0
 40
1.0
 40
1.0
 40
1.0
 10
240.8527320600378
 20
36.50056265147835
 30
0.0
 10
240.8117306237698
 20
36.22634673025595
 30
0.0
 10
240.7780839806829
 20
35.95853935661574
 30
0.0
 10
240.7323296346727
 20
35.43151772511741
 30
0.0
 10
240.7202375785356
 20
35.17158319811253
 30
0.0
 10
240.7203359225339
 20
34.66289360058026
 30
0.0
 10
240.7324416210406
 20
34.41441994894183
 30
0.0
 10
240.7781385800203
 20
33.93046712744498
 30
0.0
 10
240.8117328319609
 20
33.69498531387711
 30
0.0
 10
240.8527320600378
 20
33.46812086209356
 30
0.0
  0
LWPOLYLINE
  5
2B8
330
1F
100
AcDbEntity
  8
0
  6
Continuous
 62
     7
370
     0
100
AcDbPolyline
 90
       47
 70
   128
 43
0.0
 10
256.2684285158
 20
39.0063916323
 10
255.690722363
 20
38.627257013
 10
255.1237777329
 20
38.1639215544
 10
254.5781558274
 20
37.6250159706
 10
254.0640205811
 20
37.0205789153
 10
253.5909492069
 20
36.3618704244
 10
253.1677540181
 20
35.6611603101
 10
252.8023187802
 20
34.9315023188
 10
252.5014505387
 20
34.1864879452
 10
252.2707538365
 20
33.4399954916
 10
252.1145266643
 20
32.7059310444
 10
252.0356784718
 20
31.9979684278
 10
252.0356784718
 20
31.3292958315
 10
252.1145266643
 20
30.7123694001
 10
252.2707538365
 20
30.1586810065
 10
252.5014505387
 20
29.6785452957
 10
252.8023187802
 20
29.2809059998
 10
253.1677540181
 20
28.9731705532
 10
253.5909492069
 20
28.7610712035
 10
254.0640205811
 20
28.6485592951
 10
254.5781558274
 20
28.6377301599
 10
255.1237777329
 20
28.7287862192
 10
255.690722363
 20
28.9200310973
 10
256.2684285158
 20
29.2079018045
 10
256.8461346687
 20
29.5870364237
 10
257.4130792988
 20
30.0503718824
 10
257.9587012043
 20
30.5892774662
 10
258.4728364506
 20
31.1937145215
 10
258.9459078248
 20
31.8524230124
 10
259.3691030136
 20
32.5531331267
 10
259.7345382514
 20
33.282791118
 10
260.035406493
 20
34.0278054915
 10
260.2661031952
 20
34.7742979452
 10
260.4223303674
 20
35.5083623924
 10
260.5011785599
 20
36.216325009
 10
260.5011785599
 20
36.8849976053
 10
260.4223303674
 20
37.5019240366
 10
260.2661031952
 20
38.0556124303
 10
260.035406493
 20
38.5357481411
 10
259.7345382514
 20
38.933387437
 10
259.3691030136
 20
39.2411228836
 10
258.9459078248
 20
39.4532222333
 10
258.4728364506
 20
39.5657341416
 10
257.9587012043
 20
39.5765632768
 10
257.4130792988
 20
39.4855072176
 10
256.8461346687
 20
39.2942623395
 10
256.2684285158
 20
39.0063916323
  0
LWPOLYLINE
  5
2B9
330
1F
100
AcDbEntity
  8
0
  6
Continuous
 62
     7
370
     0
100
AcDbPolyline
 90
       23
 70
   128
 43
0.0
 10
235.7630061425
 20
37.1895335626
 10
236.0774881454
 20
38.4294540071
 10
236.4698410607
 20
39.6790664688
 10
236.9371402923
 20
40.929059734
 10
237.4759047739
 20
42.1701195998
 10
238.0821193597
 20
43.3929984537
 10
238.7512670928
 20
44.5885844728
 10
239.4783621328
 20
45.7479689222
 10
240.2579859755
 20
46.8625119308
 10
241.0843305875
 20
47.9239107394
 10
241.9512379193
 20
48.9242544501
 10
242.8522479784
 20
49.856089802
 10
243.7806478914
 20
50.712474589
 10
244.7295191544
 20
51.4870254691
 10
245.6917918804
 20
52.1739736166
 10
246.6602956413
 20
52.7681971132
 10
247.6278138698
 20
53.2652713659
 10
248.587137222
 20
53.6614900264
 10
249.5311178041
 20
53.9539031396
 10
250.4527212085
 20
54.1403296925
 10
251.3450802977
 20
54.2193818194
 10
252.201546077
 20
54.1904698348
 10
253.0157369209
 20
54.053810119
  0
LWPOLYLINE
  5
2BA
330
1F
100
AcDbEntity
  8
0
  6
Continuous
 62
     7
370
     0
100
AcDbPolyline
 90
       23
 70
   128
 43
0.0
 10
236.1233393068
 20
36.8599096969
 10
236.420988912
 20
38.0937647479
 10
236.7981380103
 20
39.3392831633
 10
237.2518811032
 20
40.5868693146
 10
237.7787226365
 20
41.8269124195
 10
238.3746033418
 20
43.0498576429
 10
239.0349325054
 20
44.2462851813
 10
239.7546235295
 20
45.4069764204
 10
240.5281314693
 20
46.5229895974
 10
241.3494974849
 20
47.5857265273
 10
242.2123932928
 20
48.5870008507
 10
243.1101715448
 20
49.5190982953
 10
244.0359152185
 20
50.3748371281
 10
244.9824927709
 20
51.1476258507
 10
245.9426113155
 20
51.8315098675
 10
246.9088743788
 20
52.421221558
 10
247.8738377016
 20
52.9122162922
 10
248.830067047
 20
53.3007126473
 10
249.7701958023
 20
53.5837172947
 10
250.6869809658
 20
53.7590497166
 10
251.5733594831
 20
53.8253595181
 10
252.422502906
 20
53.7821359287
 10
253.2278692535
 20
53.6297111243
  0
ARC
  5
2BB
330
1F
100
AcDbEntity
  8
0
  6
Continuous
 62
     7
370
     0
100
AcDbCircle
 10
250.5517391031
 20
47.4045441258
 30
0.0
 40
7.017045852610421
100
AcDbArc
 50
14.3287351339
 51
43.52515955
  0
LWPOLYLINE
  5
2BC
330
1F
100
AcDbEntity
  8
0
  6
Continuous
 62
     7
370
     0
100
AcDbPolyline
 90
       18
 70
   128
 43
0.0
 10
247.7114126378
 20
27.5003143946
 10
247.6817610128
 20
27.480212059
 10
246.7280021534
 20
26.8830594486
 10
245.7743346722
 20
26.3815102312
 10
244.8279236492
 20
25.9793326552
 10
243.8958796801
 20
25.6795479206
 10
242.9852058096
 20
25.4844086693
 10
242.1027433273
 20
25.395380622
 10
241.2551231178
 20
25.4131327441
 10
240.4487129773
 20
25.5375319274
 10
239.689572503
 20
25.7676435647
 10
238.9834040318
 20
26.1017389691
 10
238.3355141155
 20
26.5373073547
 10
237.7507707148
 20
27.0710767532
 10
237.2335663219
 20
27.6990360713
 10
236.7877870077
 20
28.4164685534
 10
236.4167821297
 20
29.2179825837
 10
236.1233393068
 20
30.0975573158
  0
LWPOLYLINE
  5
2BD
330
1F
100
AcDbEntity
  8
0
  6
Continuous
 62
     7
370
     0
100
AcDbPolyline
 90
       29
 70
   128
 43
0.0
 10
238.7498578075
 20
36.7386443187
 10
238.9370662061
 20
37.7455934996
 10
239.1999117341
 20
38.7705923944
 10
239.5358464829
 20
39.8037052241
 10
239.9416146084
 20
40.8349183287
 10
240.4132826242
 20
41.8542357927
 10
240.9462789145
 20
42.8517773506
 10
241.5354358804
 20
43.8178723006
 10
242.175043941
 20
44.7431575987
 10
242.8589025706
 20
45.6186643572
 10
243.5803835187
 20
46.435904531
 10
244.3324925487
 20
47.1869575096
 10
245.1079399021
 20
47.8645427351
 10
245.8992087873
 20
48.4620926998
 10
246.6986291982
 20
48.9738153328
 10
247.4984522678
 20
49.3947498519
 10
248.2909250547
 20
49.7208160198
 10
249.068365987
 20
49.9488531349
 10
249.8232389282
 20
50.0766513813
 10
250.5482272844
 20
50.102971796
 10
251.2363029037
 20
50.0275586673
 10
251.8807967061
 20
49.8511438061
 10
252.4754610797
 20
49.5754361786
 10
253.0145317845
 20
49.2031097328
 10
253.4927832698
 20
48.7377718347
 10
253.9055806994
 20
48.1839347454
 10
254.2489220982
 20
47.5469661876
 10
254.5194791824
 20
46.8330404817
 10
254.5794429526
 20
46.6288695804
  0
LWPOLYLINE
  5
2BE
330
1F
100
AcDbEntity
  8
0
  6
Continuous
 62
     7
370
     0
100
AcDbPolyline
 90
       13
 70
   128
 43
0.0
 10
244.5802559257
 20
29.3078922735
 10
244.3324925487
 20
29.2485960894
 10
243.5803835187
 20
29.1312824657
 10
242.8589025706
 20
29.1155184678
 10
242.175043941
 20
29.201458859
 10
241.5354358804
 20
29.3882684092
 10
240.9462789145
 20
29.6741372054
 10
240.4132826242
 20
30.0562943454
 10
239.9416146084
 20
30.5310355099
 10
239.5358464829
 20
31.0937587089
 10
239.1999117341
 20
31.7390095335
 10
238.9370662061
 20
32.4605334413
 10
238.7498578075
 20
33.2513364061
  0
LWPOLYLINE
  5
2BF
330
1F
100
AcDbEntity
  8
0
  6
Continuous
 62
     7
370
     0
100
AcDbPolyline
 90
       24
 70
   128
 43
0.0
 10
253.1478258027
 20
29.5580773233
 10
253.3680651474
 20
29.4469539797
 10
253.8122764671
 20
29.319395599
 10
254.2992905456
 20
29.2934568999
 10
254.8191932424
 20
29.3696659562
 10
255.3614008828
 20
29.5464715374
 10
255.9148757258
 20
29.8202739586
 10
256.4683505689
 20
30.185499989
 10
257.0105582093
 20
30.6347140243
 10
257.530460906
 20
31.1587718446
 10
258.0174749846
 20
31.74700503
 10
258.4616863043
 20
32.3874388835
 10
258.8540517319
 20
33.0670357374
 10
259.1865841105
 20
33.7719614297
 10
259.4525139317
 20
34.4878653302
 10
259.6464276305
 20
35.2001737705
 10
259.7643775616
 20
35.8943861869
 10
259.8039630013
 20
36.556370695
 10
259.7643775616
 20
37.1726508273
 10
259.6464276305
 20
37.7306811518
 10
259.4525139317
 20
38.2191016012
 10
259.1865841105
 20
38.6279694655
 10
258.8540517319
 20
38.9489614458
 10
258.725430087
 20
39.0378448204
  0
LWPOLYLINE
  5
2C0
330
1F
100
AcDbEntity
  8
0
  6
Continuous
 62
     7
370
     0
100
AcDbPolyline
 90
       23
 70
   128
 43
0.0
 10
230.5834492079
 20
40.179628135
 10
230.8979312108
 20
41.4195485795
 10
231.2902841261
 20
42.6691610411
 10
231.7575833577
 20
43.9191543064
 10
232.2963478393
 20
45.1602141722
 10
232.9025624251
 20
46.383093026
 10
233.5717101582
 20
47.5786790452
 10
234.2988051982
 20
48.7380634946
 10
235.0784290409
 20
49.8526065032
 10
235.9047736529
 20
50.9140053118
 10
236.7716809847
 20
51.9143490225
 10
237.6726910438
 20
52.8461843744
 10
238.6010909568
 20
53.7025691613
 10
239.5499622198
 20
54.4771200415
 10
240.5122349458
 20
55.1640681889
 10
241.4807387067
 20
55.7582916856
 10
242.4482569353
 20
56.2553659383
 10
243.4075802874
 20
56.6515845988
 10
244.3515608695
 20
56.9439977119
 10
245.2731642739
 20
57.1304242649
 10
246.1655233631
 20
57.2094763918
 10
247.0219891424
 20
57.1805644072
 10
247.8361799863
 20
57.0439046913
  0
ARC
  5
2C1
330
1F
100
AcDbEntity
  8
0
  6
Continuous
 62
     7
370
     0
100
AcDbCircle
 10
239.9755208488
 20
31.6696820884
 30
0.0
 40
2.000969832692971
100
AcDbArc
 50
63.9986071621
 51
127.7729897639
  0
ARC
  5
2C2
330
1F
100
AcDbEntity
  8
0
  6
Continuous
 62
     7
370
     0
100
AcDbCircle
 10
239.5092400276
 20
34.0400102124
 30
0.0
 40
2.803442062181629
100
AcDbArc
 50
61.3649121199
 51
105.7163379221
  0
LWPOLYLINE
  5
2C3
330
1F
100
AcDbEntity
  8
0
  6
Continuous
 62
     7
370
     0
100
AcDbPolyline
 90
       19
 70
   128
 43
0.0
 10
234.0554262458
 20
39.2698583698
 10
234.3519247153
 20
40.4184675399
 10
234.7238140186
 20
41.5756001283
 10
235.1680418019
 20
42.73175824
 10
235.6809610457
 20
43.8774520204
 10
236.2583623336
 20
45.0032768398
 10
236.8955067793
 20
46.0999938989
 10
237.5871635636
 20
47.1585994277
 10
238.3276566917
 20
48.1704052901
 10
239.1109077975
 20
49.1271070411
 10
239.9304878404
 20
50.0208510331
 10
240.7796696235
 20
50.8443019971
 10
241.6514834411
 20
51.5907010224
 10
242.5387732193
 20
52.2539223015
 10
243.4342562276
 20
52.828520528
 10
244.330582358
 20
53.309781088
 10
245.220394444
 20
53.6937533601
 10
246.096389196
 20
53.9772851327
 10
246.1654479598
 20
53.9954992485
  0
LWPOLYLINE
  5
2C4
330
1F
100
AcDbEntity
  8
0
  6
Continuous
 62
     7
370
     0
100
AcDbPolyline
 90
       22
 70
   128
 43
0.0
 10
233.477641685
 20
39.2628738929
 10
233.7727275765
 20
40.4337651385
 10
234.1444305117
 20
41.6142439552
 10
234.589745552
 20
42.7947694772
 10
235.1050750687
 20
43.9658039364
 10
235.686255085
 20
45.1178833826
 10
236.3285882028
 20
46.2416986697
 10
237.0268850915
 20
47.328168837
 10
237.7755023538
 20
48.368513539
 10
238.5683909293
 20
49.3543273766
 10
239.399143509
 20
50.2776430111
 10
240.2610468903
 20
51.1310001709
 10
241.1471366358
 20
51.9075023012
 10
242.050252391
 20
52.6008758747
 10
242.9630962685
 20
53.2055170243
 10
243.8782918908
 20
53.7165408363
 10
244.7884437413
 20
54.1298163741
 10
245.6861974625
 20
54.4420052896
 10
246.5642980752
 20
54.6505847865
 10
247.4156502564
 20
54.7538687287
 10
248.2333745209
 20
54.7510225834
 10
248.2385602296
 20
54.7506572647
  0
LINE
  5
2C5
330
1F
100
AcDbEntity
  8
0
  6
Continuous
 62
     7
370
     0
100
AcDbLine
 10
238.7498578075
 20
37.6283345701
 30
0.0
 11
238.1840804888
 21
37.954950864
 31
0.0
  0
LWPOLYLINE
  5
2C6
330
1F
100
AcDbEntity
  8
0
  6
Continuous
 62
     7
370
     0
100
AcDbPolyline
 90
        3
 70
   128
 43
0.0
 10
233.0671932014
 20
38.307769086
 10
233.0664872417
 20
38.4290071845
 10
233.0912860522
 20
39.1636504613
  0
LINE
  5
2C7
330
1F
100
AcDbEntity
  8
0
  6
Continuous
 62
     7
370
     0
100
AcDbLine
 10
233.2652753222
 20
35.5278282293
 30
0.0
 11
238.7498578075
 21
32.3616461546
 31
0.0
  0
LINE
  5
2C8
330
1F
100
AcDbEntity
  8
0
  6
Continuous
 62
     7
370
     0
100
AcDbLine
 10
233.1460364548
 20
35.4589709093
 30
0.0
 11
233.2652753222
 21
35.5278282293
 31
0.0
  0
LWPOLYLINE
  5
2C9
330
1F
100
AcDbEntity
  8
0
  6
Continuous
 62
     7
370
     0
100
AcDbPolyline
 90
       18
 70
   128
 43
0.0
 10
211.7946037664
 20
54.7209709649
 10
211.8354259526
 20
55.4337025191
 10
211.9571328802
 20
56.1802899911
 10
212.1574568512
 20
56.9468254881
 10
212.4326662231
 20
57.7190301485
 10
212.7776348854
 20
58.4825194421
 10
213.1859361023
 20
59.223070274
 10
213.6499640141
 20
59.9268881809
 10
214.161075224
 20
60.5808624529
 10
214.7097481663
 20
61.1728104173
 10
215.2857623948
 20
61.6917052755
 10
215.8783876882
 20
62.1278814699
 10
216.4765846181
 20
62.4732132069
 10
217.0692099115
 20
62.7212676121
 10
217.64522414
 20
62.8674246261
 10
218.1938970823
 20
62.9089609567
 10
218.7050082922
 20
62.8451031267
 10
218.9402400612
 20
62.7751140955
  0
ARC
  5
2CA
330
1F
100
AcDbEntity
  8
0
  6
Continuous
 62
     7
370
     0
100
AcDbCircle
 10
215.2060862872
 20
54.4957427702
 30
0.0
 40
3.418909289487996
100
AcDbArc
 50
176.2227786418
 51
223.9742639153
  0
ARC
  5
2CB
330
1F
100
AcDbEntity
  8
0
  6
Continuous
 62
     7
370
     0
100
AcDbCircle
 10
243.1400682186
 20
31.9772927469
 30
0.0
 40
7.679947897002867
100
AcDbArc
 50
196.1449136506
 51
212.8886793686
  0
LINE
  5
2CC
330
1F
100
AcDbEntity
  8
0
  6
Continuous
 62
     7
370
     0
100
AcDbLine
 10
238.184172685
 20
31.3818504039
 30
0.0
 11
232.9339046985
 21
34.4127655977
 31
0.0
  0
LINE
  5
2CD
330
1F
100
AcDbEntity
  8
0
  6
Continuous
 62
     7
370
     0
100
AcDbLine
 10
234.9185380563
 20
32.0016159933
 30
0.0
 11
234.8403148226
 21
32.2435980625
 31
0.0
  0
LWPOLYLINE
  5
2CE
330
1F
100
AcDbEntity
  8
0
  6
Continuous
 62
     7
370
     0
100
AcDbPolyline
 90
        3
 70
   128
 43
0.0
 10
234.5528255713
 20
31.4694518044
 10
234.3546642604
 20
31.8841470108
 10
234.0554262458
 20
32.6967045932
  0
ARC
  5
2CF
330
1F
100
AcDbEntity
  8
0
  6
Continuous
 62
     7
370
     0
100
AcDbCircle
 10
240.1547814581
 20
34.5799358039
 30
0.0
 40
6.939532469492546
100
AcDbArc
 50
195.8061616042
 51
213.7821435981
  0
ARC
  5
2D0
330
1F
100
AcDbEntity
  8
0
  6
Continuous
 62
     7
370
     0
100
AcDbCircle
 10
237.9598695554
 20
34.9671384204
 30
0.0
 40
7.679262266743055
100
AcDbArc
 50
196.1444612194
 51
212.9026224552
  0
OLE2FRAME
  5
2D1
330
1F
100
AcDbEntity
  8
0
100
AcDbOle2Frame
 70
     2
  3
Paintbrush-Bild
 10
13.8511154363
 20
38.264191557
 30
0.0
 11
51.6290888628
 21
31.9806341108
 31
0.0
 71
     2
 72
     0
 73
     1
 90
    12928
310
80552BED0767C5B32B40DDAF6807D121434000000000000000006FFBDDFB85D0
310
4940DDAF6807D121434000000000000000006FFBDDFB85D04940416F4BD60AFB
310
3F4000000000000000002BED0767C5B32B40416F4BD60AFB3F40000000000000
310
0000000000000100000000010000010000000100000000000100000000320000
310
D0CF11E0A1B11AE1000000000000000000000000000000003E000300FEFF0900
310
0600000000000000000000000100000001000000000000000010000002000000
310
01000000FEFFFFFF0000000000000000FFFFFFFFFFFFFFFFFFFFFFFFFFFFFFFF
310
FFFFFFFFFFFFFFFFFFFFFFFFFFFFFFFFFFFFFFFFFFFFFFFFFFFFFFFFFFFFFFFF
310
FFFFFFFFFFFFFFFFFFFFFFFFFFFFFFFFFFFFFFFFFFFFFFFFFFFFFFFFFFFFFFFF
310
FFFFFFFFFFFFFFFFFFFFFFFFFFFFFFFFFFFFFFFFFFFFFFFFFFFFFFFFFFFFFFFF
310
FFFFFFFFFFFFFFFFFFFFFFFFFFFFFFFFFFFFFFFFFFFFFFFFFFFFFFFFFFFFFFFF
310
FFFFFFFFFFFFFFFFFFFFFFFFFFFFFFFFFFFFFFFFFFFFFFFFFFFFFFFFFFFFFFFF
310
FFFFFFFFFFFFFFFFFFFFFFFFFFFFFFFFFFFFFFFFFFFFFFFFFFFFFFFFFFFFFFFF
310
FFFFFFFFFFFFFFFFFFFFFFFFFFFFFFFFFFFFFFFFFFFFFFFFFFFFFFFFFFFFFFFF
310
FFFFFFFFFFFFFFFFFFFFFFFFFFFFFFFFFFFFFFFFFFFFFFFFFFFFFFFFFFFFFFFF
310
FFFFFFFFFFFFFFFFFFFFFFFFFFFFFFFFFFFFFFFFFFFFFFFFFFFFFFFFFFFFFFFF
310
FFFFFFFFFFFFFFFFFFFFFFFFFFFFFFFFFFFFFFFFFFFFFFFFFFFFFFFFFFFFFFFF
310
FFFFFFFFFFFFFFFFFFFFFFFFFFFFFFFFFFFFFFFFFFFFFFFFFFFFFFFFFFFFFFFF
310
FFFFFFFFFFFFFFFFFFFFFFFFFFFFFFFFFFFFFFFFFFFFFFFFFFFFFFFFFFFFFFFF
310
FFFFFFFFFFFFFFFFFFFFFFFFFFFFFFFFFFFFFFFFFFFFFFFFFFFFFFFFFFFFFFFF
310
FDFFFFFFFEFFFFFFFEFFFFFFFEFFFFFF05000000060000000700000008000000
310
090000000A0000000B0000000C0000000D0000000E0000000F00000010000000
310
11000000120000001300000014000000150000001600000017000000FEFFFFFF
310
FFFFFFFFFFFFFFFFFFFFFFFFFFFFFFFFFFFFFFFFFFFFFFFFFFFFFFFFFFFFFFFF
310
FFFFFFFFFFFFFFFFFFFFFFFFFFFFFFFFFFFFFFFFFFFFFFFFFFFFFFFFFFFFFFFF
310
FFFFFFFFFFFFFFFFFFFFFFFFFFFFFFFFFFFFFFFFFFFFFFFFFFFFFFFFFFFFFFFF
310
FFFFFFFFFFFFFFFFFFFFFFFFFFFFFFFFFFFFFFFFFFFFFFFFFFFFFFFFFFFFFFFF
310
FFFFFFFFFFFFFFFFFFFFFFFFFFFFFFFFFFFFFFFFFFFFFFFFFFFFFFFFFFFFFFFF
310
FFFFFFFFFFFFFFFFFFFFFFFFFFFFFFFFFFFFFFFFFFFFFFFFFFFFFFFFFFFFFFFF
310
FFFFFFFFFFFFFFFFFFFFFFFFFFFFFFFFFFFFFFFFFFFFFFFFFFFFFFFFFFFFFFFF
310
FFFFFFFFFFFFFFFFFFFFFFFFFFFFFFFFFFFFFFFFFFFFFFFFFFFFFFFFFFFFFFFF
310
FFFFFFFFFFFFFFFFFFFFFFFFFFFFFFFFFFFFFFFFFFFFFFFFFFFFFFFFFFFFFFFF
310
FFFFFFFFFFFFFFFFFFFFFFFFFFFFFFFFFFFFFFFFFFFFFFFFFFFFFFFFFFFFFFFF
310
FFFFFFFFFFFFFFFFFFFFFFFFFFFFFFFFFFFFFFFFFFFFFFFFFFFFFFFFFFFFFFFF
310
FFFFFFFFFFFFFFFFFFFFFFFFFFFFFFFFFFFFFFFFFFFFFFFFFFFFFFFFFFFFFFFF
310
FFFFFFFFFFFFFFFFFFFFFFFFFFFFFFFFFFFFFFFFFFFFFFFFFFFFFFFFFFFFFFFF
310
52006F006F007400200045006E00740072007900000000000000000000000000
310
0000000000000000000000000000000000000000000000000000000000000000
310
16000500FFFFFFFFFFFFFFFF020000000A00030000000000C000000000000046
310
00000000000000000000000080D23C456024D20103000000C000000000000000
310
01004F006C006500000000000000000000000000000000000000000000000000
310
0000000000000000000000000000000000000000000000000000000000000000
310
0A000200FFFFFFFFFFFFFFFFFFFFFFFF00000000000000000000000000000000
310
0000000000000000000000000000000000000000000000001400000000000000
310
010043006F006D0070004F0062006A0000000000000000000000000000000000
310
0000000000000000000000000000000000000000000000000000000000000000
310
120002010100000003000000FFFFFFFF00000000000000000000000000000000
310
0000000000000000000000000000000000000000010000004D00000000000000
310
01004F006C006500310030004E00610074006900760065000000000000000000
310
0000000000000000000000000000000000000000000000000000000000000000
310
1A000200FFFFFFFFFFFFFFFFFFFFFFFF00000000000000000000000000000000
310
0000000000000000000000000000000000000000040000002426000000000000
310
FEFFFFFF02000000FEFFFFFFFFFFFFFFFFFFFFFFFFFFFFFFFFFFFFFFFFFFFFFF
310
FFFFFFFFFFFFFFFFFFFFFFFFFFFFFFFFFFFFFFFFFFFFFFFFFFFFFFFFFFFFFFFF
310
FFFFFFFFFFFFFFFFFFFFFFFFFFFFFFFFFFFFFFFFFFFFFFFFFFFFFFFFFFFFFFFF
310
FFFFFFFFFFFFFFFFFFFFFFFFFFFFFFFFFFFFFFFFFFFFFFFFFFFFFFFFFFFFFFFF
310
FFFFFFFFFFFFFFFFFFFFFFFFFFFFFFFFFFFFFFFFFFFFFFFFFFFFFFFFFFFFFFFF
310
FFFFFFFFFFFFFFFFFFFFFFFFFFFFFFFFFFFFFFFFFFFFFFFFFFFFFFFFFFFFFFFF
310
FFFFFFFFFFFFFFFFFFFFFFFFFFFFFFFFFFFFFFFFFFFFFFFFFFFFFFFFFFFFFFFF
310
FFFFFFFFFFFFFFFFFFFFFFFFFFFFFFFFFFFFFFFFFFFFFFFFFFFFFFFFFFFFFFFF
310
FFFFFFFFFFFFFFFFFFFFFFFFFFFFFFFFFFFFFFFFFFFFFFFFFFFFFFFFFFFFFFFF
310
FFFFFFFFFFFFFFFFFFFFFFFFFFFFFFFFFFFFFFFFFFFFFFFFFFFFFFFFFFFFFFFF
310
FFFFFFFFFFFFFFFFFFFFFFFFFFFFFFFFFFFFFFFFFFFFFFFFFFFFFFFFFFFFFFFF
310
FFFFFFFFFFFFFFFFFFFFFFFFFFFFFFFFFFFFFFFFFFFFFFFFFFFFFFFFFFFFFFFF
310
FFFFFFFFFFFFFFFFFFFFFFFFFFFFFFFFFFFFFFFFFFFFFFFFFFFFFFFFFFFFFFFF
310
FFFFFFFFFFFFFFFFFFFFFFFFFFFFFFFFFFFFFFFFFFFFFFFFFFFFFFFFFFFFFFFF
310
FFFFFFFFFFFFFFFFFFFFFFFFFFFFFFFFFFFFFFFFFFFFFFFFFFFFFFFFFFFFFFFF
310
FFFFFFFFFFFFFFFFFFFFFFFFFFFFFFFFFFFFFFFFFFFFFFFFFFFFFFFFFFFFFFFF
310
0100000200000000000000000000000000000000000000000000000000000000
310
0000000000000000000000000000000000000000000000000000000000000000
310
0100FEFF030A0000FFFFFFFF0A00030000000000C00000000000004607000000
310
5042727573680007000000504272757368000700000050427275736800F439B2
310
7100000000000000000000000000000000000000000000000000000000000000
310
0000000000000000000000000000000000000000000000000000000000000000
310
0000000000000000000000000000000000000000000000000000000000000000
310
0000000000000000000000000000000000000000000000000000000000000000
310
0000000000000000000000000000000000000000000000000000000000000000
310
0000000000000000000000000000000000000000000000000000000000000000
310
0000000000000000000000000000000000000000000000000000000000000000
310
0000000000000000000000000000000000000000000000000000000000000000
310
0000000000000000000000000000000000000000000000000000000000000000
310
0000000000000000000000000000000000000000000000000000000000000000
310
0000000000000000000000000000000000000000000000000000000000000000
310
0000000000000000000000000000000000000000000000000000000000000000
310
20260000424D0E260000000000003E00000028000000B40200006E0000000100
310
01000000000000000000130B0000130B00000200000002000000000000FFFFFF
310
FFFFFFFFFFFFFFFFFFFFFFFFFFFFFFFFFFFFFFFFFFFFFFFFFFFFFFFFFFFFFFFF
310
FFFFFFFFFFFFFFFFFFFFFFFFFFFFFFFFFFFFFFFFFFFFFFFFFFFFFFFFFFFFFFFF
310
FFFFFFFFFFFFFFFFFFFFFFFFFFFFFFFFFFFFFFFFFFFFFFFFF000FFFFFFFFFFFF
310
FFFFFFFFFFFFFFFFFFFFFFFFFFFFFFFFFFFFFFFFFFFFFFFFFFFFFFFFFFFFFFFF
310
FFFFFFFFFFFFFFFFFFFFFFFFFFFFFFFFFFFFFFFFFFFFFFFFFFFFFFFFFFFFFFFF
310
FFFFFFFFFFFFFFFFFFFFFFFFFFFFFFFFF000FFFFFFFFFFFFFFFFFFFFFFFFFFFF
310
FFFFFFFFFFFFFFFFFFFFFFFFFFFFFFFFFFFFFFFFFFFFFFFFFFFFFFFFFFFFFFFF
310
FFFFFFFFFFFFFFFFFFFFFFFFFFFFFFFFFFFFFFFFFFFFFFFFFFFFFFFFFFFFFFFF
310
FFFFFFFFFFFFFFFFF000FFFFFFFFFFFFFFFFFFFFFFFFFFFFFFFFFFFFFFFFFFFF
310
FFFFFFFFFFFFFFFFFFFFFFFFFFFFFFFFFFFFFFFFFFFFFFFFFFFFFFFFFFFFFFFF
310
FFFFFFFFFFFFFFFFFFFFFFFFFFFFFFFFFFFFFFFFFFFFFFFFFFFFFFFFFFFFFFFF
310
F000FFFFFFFFFFFFFFFFFFFFFFFFFFFFFFFFFFFFFFFFFFFFFFFFFFFFFFFFFFFF
310
FFFFFFFFFFFFFFFFFFFFFFFFFFFFFFFFFFFFFFFFFFFFFFFFFFFFFFFFFFFFFFFF
310
FFFFFFFFFFFFFFFFFFFFFFFFFFFFFFFFFFFFFFFFFFFFFFFFF000FFFFFFFFFFFF
310
FFFFFFFFFFFFFFFFFFFFFFFFFFFFFFFFFFFFFFFFFFFFFFFFFFFFFFFFFFFFFFFF
310
FFFFFFFFFFFFFFFFFFFFFFFFFFFFFFFFFFFFFFFFFFFFFFFFFFFFFFFFFFFFFFFF
310
FFFFFFFFFFFFFFFFFFFFFFFFFFFFFFFFF000FFFFFFFFFFFFFFFFFFFFFFFFFFFF
310
FFFFFFFFFFFFFFFFFFFFFFFFFFFFFFFFFFFFFFFFFFFFFFFFFFFFFFFFFFFFFFFF
310
FFFFFFFFFFFFFFFFFFFFFFFFFFFFFFFFFFFFFFFFFFFFFFFFFFFFFFFFFFFFFFFF
310
FFFFFFFFFFFFFFFFF000FFFFFFFFFFFFFFFFFFFFFFFFFFFFFFFFFFFFFFFFFFFF
310
FFFFFFFFFFFFFFFFFFFFFFFFFFFFFFFFFFFFFFFFFFFFFFFFFFFFFFFFFFFFFFFF
310
FFFFFFFFFFFFFFFFFFFFFFFFFFFFFFFFFFFFFFFFFFFFFFFFFFFFFFFFFFFFFFFF
310
F000FFFFFFFFFFFFFFFFFFFFFFFFFFFFFFFFFFFFFFFFFFFFFFFFFFFFFFFFFFFF
310
FFFFFFFFFFFFFFFFFFFFFFFFFFFFFFFFFFFFFFFFFFFFFFFFFFFFFFFFFFFFFFFF
310
FFFFFFFFFFFFFFFFFFFFFFFFFFFFFFFFFFFFFFFFFFFFFFFFF000FFFFFFFFFFFF
310
FFFFFFFFFFFFFFFFFFFFFFFFFFFFFFFFFFFFFFFFFFFFFFFFFFFFFFFFFFFFFFFF
310
FFFFFFFFFFFFFFFFFFFFFFFFFFFFFFFFFFFFFFFFFFFFFFFFFFFFFFFFFFFFFFFF
310
FFFFFFFFFFFFFFFFFFFFFFFFFFFFFFFFF000FFFFFFFFFFFFFFFFFFFFFFFFFFFF
310
FFFFFFFFFFFFFFFFFFFFFFFFFFFFFFFFFFFFFFFFFFFFFFFFFFFFFFFFFFFFFFFF
310
FFFFFFFFFFFFFFFFFFFFFFFFFFFFFFFFFFFFFFFFFFFFFFFFFFFFFFFFFFFFFFFF
310
FFFFFFFFFFFFFFFFF000FFFFFFFFFFFFFFFFFFFFFFFFFFFFFFFFFFFFFFFFFFFF
310
FFFFFFFFFFFFFFFFFFFFFFFFFFFFFFFFFFFFFFFFFFFFFFFFFFFFFFFFFFFFFFFF
310
FFFFFFFFFFFFFFFFFFFFFFFFFFFFFFFFFFFFFFFFFFFFFFFFFFFFFFFFFFFFFFFF
310
F000FFFFFFFFFFFFFFFFFFFFFFFFFFFFFFFFFFFFFFFFFFFFFFFFFFFFFFFFFFFF
310
FFFFFFFFFFFFFFFFFFFFFFFFFFFFFFFFFFFFFFFFFFFFFFFFFFFFFFFFFFFFFFFF
310
FFFFFFFFFFFFFFFFFFFFFFFFFFFFFFFFFFFFFFFFFFFFFFFFF000FFFFFFFFFFFF
310
FFFFFFFFFFFFFFFFFFFFFFFFFFFFFFFFFFFFFFFFFFFFFFFFFFFFFFFFFFFFFFFF
310
FFFFFFFFFFFFFFFFFFFFFFFFFFFFFFFFFFFFFFFFFFFFFFFFFFFFFFFFFFFFFFFF
310
FFFFFFFFFFFFFFFFFFFFFFFFFFFFFFFFF000FFFFFFFFFFFFFFFFFFFFFFFFFFFF
310
FFFFFFFFFFFFFFFFFFFFFFFFFFFFFFFFFFFFFFFFFFFFFFFFFFFFFFFFFFFFFFFF
310
FFFFFFFFFFFFFFFFFFFFFFFFFFFFFFFFFFFFFFFFFFFFFFFFFFFFFFFFFFFFFFFF
310
FFFFFFFFFFFFFFFFF000FFFFFFFFFFFFFFFFFFFFFFFFFFFFFFFFFFFFFFFFFFFF
310
FFFFFFFFFFFFFFFFFFFFFFFFFFFFFFFFFFFFFFFFFFFFFFFFFFFFFFFFFFFFFFFF
310
FFFFFFFFFFFFFFFFFFFFFFFFFFFFFFFFFFFFFFFFFFFFFFFFFFFFFFFFFFFFFFFF
310
F000FFFFFFFFFFFFFFFFFFFFFFFFFFFFFFFFFFFFFFFFFFFFFFFFFFFFFFFFFFFF
310
FFFFFFFFFFFFFFFFFFFFFFFFFFFFFFFFFFFFFFFFFFFFFFFFFFFFFFFFFFFFFFFF
310
FFFFFFFFFFFFFFFFFFFFFFFFFFFFFFFFFFFFFFFFFFFFFFFFF000FFFFFFFFFFFF
310
FFFFFFFFFFFFFFFFFFFFFFFFFFFFFFFFFFFFFFFFFFFFFFFFFFFFFFFFFFFFFFFF
310
FFFFFFFFFFFFFFFFFFFFFFFFFFFFFFFFFFFFFFFFFFFFFFFFFFFFFFFFFFFFFFFF
310
FFFFFFFFFFFFFFFFFFFFFFFFFFFFFFFFF000FFFFFFFFFFFFFFFFFFFFFFFFFFFF
310
FFFFFFFFFFFFFFFFFFFFFFFFFFFFFFFFFFFFFFFFFFFFFFFFFFFFFFFFFFFFFFFF
310
FFFFFFFFFFFFFFFFFFFFFFFFFFFFFFFFFFFFFFFFFFFFFFFFFFFFFFFFFFFFFFFF
310
FFFFFFFFFFFFFFFFF000FFFFF80003FFFFFFFFFFFFFFFFFFFFFFFFFFFFFFFFFF
310
FFFFF00007FFFFFFFFFF00007FFFFFF800000000000000007FFFFFFFFFFFFFFF
310
FFFFFFFC001FFFFFFFFFFFFFFC001FFFFFFFFFFFFFFFFFFFFFFFFFFE0007FFFF
310
F000FFFF8000007FFFFFFFF8000FFFFFC0007FFFFF80007FFFFF0000007FFFFF
310
FFF8000007FFFFF800000000000000007FFFFFF0001FFFFFFFFFFFC00001FFFF
310
FFFFFFFFC00001FFFFFFFF000000000003FFFFE000007FFFF000FFFE0000000F
310
FFFFFFF0000FFFFF80007FFFFF80007FFFFC0000001FFFFFFFC0000001FFFFF8
310
00000000000000007FFFFFF0001FFFFFFFFFFE0000003FFFFFFFFFFE0000003F
310
FFFFFF000000000003FFFF0000000FFFF000FFF800000003FFFFFFF00007FFFF
310
80007FFFFF80007FFFF000000007FFFFFF000000003FFFF80000000000000000
310
7FFFFFF0001FFFFFFFFFF80000000FFFFFFFFFF80000000FFFFFFF0000000000
310
03FFFC00000003FFF000FFE000000000FFFFFFF00007FFFF80003FFFFF80007F
310
FFC000000001FFFFFC000000001FFFF800000000000000007FFFFFF0001FFFFF
310
FFFFE000000003FFFFFFFFE000000003FFFFFF000000000003FFF000000000FF
310
F000FF80000000007FFFFFF00007FFFF80003FFFFF80007FFF8000000000FFFF
310
F80000000007FFF800000000000000007FFFFFF0001FFFFFFFFFC000000001FF
310
FFFFFFC000000001FFFFFF000000000003FFC0000000007FF000FF0000000000
310
3FFFFFE00007FFFF00003FFFFF80007FFE00000000003FFFF00000000003FFF8
310
00000000000000007FFFFFF0001FFFFFFFFF8000000000FFFFFFFF8000000000
310
FFFFFF000000000003FF80000000003FF000FE00000000001FFFFFE00003FFFF
310
00003FFFFF80007FFC00000000001FFFE00000000001FFF8000001FFFE000000
310
7FFFFFF0001FFFFFFFFE00000000003FFFFFFE00000000003FFFFF0000000000
310
03FF00000000001FF000FC00000000000FFFFFE00003FFFF00001FFFFF80007F
310
F800000000001FFFC00000000000FFF8000001FFFE0000007FFFFFF0001FFFFF
310
FFFC00000000001FFFFFFC00000000001FFFFF000000000003FE00000000000F
310
F000F8000000000007FFFFE00003FFFF00001FFFFF80007FF800000000000FFF
310
800000000000FFF8000001FFFE0000007FFFFFF0001FFFFFFFF800000000000F
310
FFFFF800000000000FFFFF000000000003FC000000000007F000F80000000000
310
03FFFFC00003FFFE00001FFFFF80007FF0000000000007FF0000000000007FF8
310
000001FFFE0000007FFFFFF0001FFFFFFFF0000000000007FFFFF00000000000
310
07FFFF000000000003F8000000000003F000F0000000000003FFFFC00001FFFE
310
00001FFFFF80007FE0000000000007FE0000000000003FF8000001FFFE000000
310
7FFFFFF0001FFFFFFFF0000000000007FFFFF0000000000007FFFF0000000000
310
03F800001F800003F000E00001FFF00001FFFFC00001FFFE00000FFFFF80007F
310
E00001FFE00003FE00001FFF00003FF8000001FFFE0000007FFFFFF0001FFFFF
310
FFE000003E000003FFFFE000003E000003FFFF000000000003F00001FFF80001
310
F000E00007FFFC0001FFFFC00001FFFE00000FFFFF80007FC0000FFFFC0003FC
310
0000FFFFC0001FF8000001FFFE0000007FFFFFF0001FFFFFFFC00003FFE00001
310
FFFFC00003FFE00001FFFF0001FFFFFFFFF00007FFFE0001F000E0000FFFFF00
310
00FFFF800001FFFC00000FFFFF80007FC0001FFFFE0001FC0001FFFFE0001FF8
310
000001FFFE0000007FFFFFF0001FFFFFFF80000FFFF80000FFFF80000FFFF800
310
00FFFF0003FFFFFFFFE0000FFFFF8000F000C0003FFFFF8000FFFF800000FFFC
310
000007FFFF80007F80003FFFFF0001FC0003FFFFF0001FF8000001FFFE000000
310
7FFFFFF0001FFFFFFF80003FFFFE0000FFFF80003FFFFE0000FFFF0003FFFFFF
310
FFE0003FFFFF8000F000C0003FFFFF8000FFFF800000FFFC000007FFFF80007F
310
80007FFFFF8001F80007FFFFF8000FF8000001FFFE0000007FFFFFF0001FFFFF
310
FF00007FFFFF00007FFF00007FFFFF00007FFF0003FFFFFFFFE0003FFFFFC000
310
F000C0007FFFFFC000FFFF000000FFFC000007FFFF80007F8000FFFFFF8000F8
310
000FFFFFF8000FF8000001FFFE0000007FFFFFF0001FFFFFFF0000FFFFFF8000
310
7FFF0000FFFFFF80007FFF0003FFFFFFFFC0007FFFFFC00070008000FFFFFFC0
310
00FFFF000000FFF8000007FFFF80007F8000FFFFFF8000F8000FFFFFF8000FF8
310
000001FFFE0000007FFFFFF0001FFFFFFE0001FFFFFFC0003FFE0001FFFFFFC0
310
003FFF0003FFFFFFFFC0007FFFFFE00070008000FFFFFFC0007FFF0000007FF8
310
000003FFFF80007F0001FFFFFF8000F8000FFFFFF8000FF8000001FFFE000000
310
7FFFFFF0001FFFFFFE0001FFFFFFC0003FFE0001FFFFFFC0003FFF0003FFFFFF
310
FFC000FFFFFFE00070008000FFFFFFC0007FFF0000007FF8000003FFFF80007F
310
0001FFFFFF8000F8001FFFFFF8000FF8000001FFFE0000007FFFFFF0001FFFFF
310
FE0003FFFFFFE0003FFE0003FFFFFFE0003FFF0003FFFFFFFFC000FFFFFFE000
310
70008000FFFFFFC0007FFE0000007FF8000003FFFF80007F0001FFFFFF8000F0
310
001FFFFFF8000FF8000001FFFE0000007FFFFFF0001FFFFFFC0003FFFFFFE000
310
1FFC0003FFFFFFE0001FFF0003FFFFFFFFC000FFFFFFC00070008000FFFFFF80
310
007FFE0000007FF0000003FFFF80007F0001FFFFFF0000F0001FFFFFF8000FF8
310
000001FFFE0000007FFFFFF0001FFFFFFC0007FFFFFFF0001FFC0007FFFFFFF0
310
001FFF0003FFFFFFFFC000FFFFFFC00070008001FFFFFF0000FFFE0000003FF0
310
000001FFFF80007F0001FFFFFF0000F8001FFFFFF0000FF8000001FFFE000000
310
7FFFFFF0001FFFFFFC0007FFFFFFF0001FFC0007FFFFFFF0001FFF0003FFFFFF
310
FFC001FFFFFF80007000FFFFFFFFFE0000FFFE0008003FF0008001FFFF80007F
310
FFFFFFFFFC0000FFFFFFFFFFE0000FF8000001FFFE0000007FFFFFF0001FFFFF
310
F8000FFFFFFFF8000FF8000FFFFFFFF8000FFF0003FFFFFFFFFFFFFFFFFF0000
310
7000FFFFFFFFFC0000FFFC0008003FF0008001FFFF80007FFFFFFFFFF80001FF
310
FFFFFFFF80000FF8000001FFFE0000007FFFFFF0001FFFFFF8000FFFFFFFF800
310
0FF8000FFFFFFFF8000FFF0003FFFFFFFFFFFFFFFFFE0000F000FFFFFFFFE000
310
00FFFC000C003FE000C001FFFF80007FFFFFFFFFC00001FFFFFFFFFE00001FF8
310
000001FFFE0000007FFFFFF0001FFFFFF8000FFFFFFFF8000FF8000FFFFFFFF8
310
000FFF0003FFFFFFFFFFFFFFFFF00000F000FFFFFFFE000001FFFC000C001FE0
310
00C000FFFF80007FFFFFFFFE000001FFFFFFFFE000001FF80FFFFFFFFFFFFFC0
310
7FFFFFF0001FFFFFF8000FFFFFFFF8000FF8000FFFFFFFF8000FFF0003FFFFFF
310
FFFFFFFFFF800000F000FFFFFFC0000001FFFC001C001FE001C000FFFF80007F
310
FFFFFF80000003FFFFFFF80000001FF80FFFFFFFFFFFFFC07FFFFFF0001FFFFF
310
F8001FFFFFFFFC000FF8001FFFFFFFFC000FFF0003FFFFFFFFFFFFFFF0000001
310
F000FFFFF800000001FFF8001C001FE001C000FFFF80007FFFFFF800000003FF
310
FFFF800000003FF80FFFFFFFFFFFFFC07FFFFFF0001FFFFFF8001FFFFFFFFC00
310
0FF8001FFFFFFFFC000FFF0003FFFFFFFFFFFFFE00000001F000FFFFC0000000
310
03FFF8001E001FC001E000FFFF80007FFFFF8000000007FFFFFC000000003FF8
310
0FFFFFFFFFFFFFC07FFFFFF0001FFFFFF8001FFFFFFFFC000FF8001FFFFFFFFC
310
000FFF0003FFFFFFFFFFFFE000000003F000FFFE0000000007FFF8001E000FC0
310
01E0007FFF80007FFFFE0000000007FFFFE0000000007FF80FFFFFFFFFFFFFC0
310
7FFFFFF0001FFFFFF0001FFFFFFFFC0007F0001FFFFFFFFC0007FF0003FFFFFF
310
FFFFFF0000000003F000FFF80000000007FFF8001E000FC003E0007FFF80007F
310
FFF0000000000FFFFF8000000000FFF80FFFFFFFFFFFFFC07FFFFFF0001FFFFF
310
F0001FFFFFFFFC0007F0001FFFFFFFFC0007FF0003FFFFFFFFFFFC0000000007
310
F000FFE0000000000FFFF0003E000FC003E0007FFF80007FFFC0000000001FFF
310
FE0000000001FFF80FFFFFFFFFFFFFC07FFFFFF0001FFFFFF0001FFFFFFFFC00
310
07F0001FFFFFFFFC0007FF0003FFFFFFFFFFF0000000000FF000FFC000000000
310
1FFFF0003F000F8003F0003FFF80007FFF80000000003FFFF80000000003FFF8
310
0FFFFFFFFFFFFFC07FFFFFF0001FFFFFF0001FFFFFFFFC0007F0001FFFFFFFFC
310
0007FF0003FFFFFFFFFFE0000000001FF000FF00000000007FFFF0003F000780
310
03F0003FFF80007FFF00000000007FFFF00000000007FFF80FFFFFFFFFFFFFC0
310
7FFFFFF0001FFFFFF0001FFFFFFFFC0007F0001FFFFFFFFC0007FF0003FFFFFF
310
FFFF80000000007FF000FE0000000000FFFFE0003F00078007F0003FFF80007F
310
FE0000000001FFFFE0000000001FFFF80FFFFFFFFFFFFFC07FFFFFF0001FFFFF
310
F0001FFFFFFFFC0007F0001FFFFFFFFC0007FF0003FFFFFFFFFF0000000000FF
310
F000FC0000000003FFFFE0007F00078007F0003FFF80007FFC0000000007FFFF
310
C0000000007FFFF80FFFFFFFFFFFFFC07FFFFFF0001FFFFFF8001FFFFFFFFC00
310
0FF8001FFFFFFFFC000FFF0003FFFFFFFFFE0000000003FFF000FC000000000F
310
FFFFE0007F80070007F8001FFF80007FF8000000001FFFFF8000000001FFFFF8
310
0FFFFFFFFFFFFFC07FFFFFF0001FFFFFF8001FFFFFFFFC000FF8001FFFFFFFFC
310
000FFF0003FFFFFFFFFC000000000FFFF000F8000000007FFFFFE0007F800700
310
07F8001FFF80007FF000000000FFFFFF800000000FFFFFF80FFFFFFFFFFFFFC0
310
7FFFFFF0001FFFFFF8000FFFFFFFF8000FF8000FFFFFFFF8000FFF0003FFFFFF
310
FFFC000000007FFFF000F800000007FFFFFFC0007F8003000FF8001FFF80007F
310
F000000007FFFFFF000000007FFFFFF80FFFFFFFFFFFFFC07FFFFFF0001FFFFF
310
F8000FFFFFFFF8000FF8000FFFFFFFF8000FFF0003FFFFFFFFF80000000FFFFF
310
F000F0000000FFFFFFFFC000FF8003000FF8001FFF80007FE0000000FFFFFFFF
310
0000000FFFFFFFF8000001FFFE0000007FFFFFF0001FFFFFF8000FFFFFFFF800
310
0FF8000FFFFFFFF8000FFF0003FFFFFFFFF8000000FFFFFFF000F000000FFFFF
310
FFFFC000FFC002000FF8000FFF80007FE000001FFFFFFFFE000001FFFFFFFFF8
310
000001FFFE0000007FFFFFF0001FFFFFF8000FFFFFFFF8000FF8000FFFFFFFF8
310
000FFF0003FFFFFFFFF000001FFFFFFFF000E00000FFFFFFFFFFC000FFC00200
310
0FFC000FFF80007FE00001FFFFFFFFFE00001FFFFFFFFFF8000001FFFE000000
310
7FFFFFF0001FFFFFFC000FFFFFFFF8001FFC000FFFFFFFF8001FFF0003FFFFFF
310
FFF00001FFFFFFFFF000E00007FFFFFFFFFF8000FFC000001FFC000FFF80007F
310
C0000FFFFFFFFFFE0000FFFFFFFFFFF8000001FFFE0000007FFFFFF0001FFFFF
310
FC0007FFFFFFF0001FFC0007FFFFFFF0001FFF0003FFFFFFFFF00007FFFFFFFF
310
F000E0001FFFFFFFFFFF8000FFC000001FFC000FFF80007FC0003FFFFFFFFFFE
310
0001FFFFFFFFFFF8000001FFFE0000007FFFFFF0001FFFFFFC0007FFFFFFF000
310
1FFC0007FFFFFFF0001FFF0003FFFFFFFFF0001FFFFFFFFFF000E0003FFFFF00
310
03FF8001FFE000001FFC0007FF80007FC0007FFFFF0007FC0003FFFFF0003FF8
310
000001FFFE0000007FFFFFF0001FFFFFFC0003FFFFFFE0001FFC0003FFFFFFE0
310
001FFF0003FFFFFFFFF0003FFFFFFFFFF000E0003FFFFF0001FF8001FFE00000
310
1FFE0007FF80007FC0007FFFFE0003FC0007FFFFE0003FF8000001FFFE000000
310
7FFFFFF0001FFFFFFE0003FFFFFFE0003FFE0003FFFFFFE0003FFF0003FFFFFF
310
FFF0003FFFFF8001F000E0003FFFFF0001FF0001FFE000001FFE0007FF80007F
310
C0007FFFFE0003FC0007FFFFE0003FF8000001FFFE0000007FFFFFF0001FFFFF
310
FE0001FFFFFFC0003FFE0001FFFFFFC0003FFF0003FFFFFFFFF0003FFFFF0001
310
F000E0003FFFFF0003FF0001FFE000003FFE0007FF80007FC0007FFFFE0003FC
310
0007FFFFE0003FF8000001FFFE0000007FFFFFF0001FFFFFFF0001FFFFFFC000
310
7FFF0001FFFFFFC0007FFF0003FFFFFFFFF0003FFFFF0001F000E0003FFFFE00
310
03FF0003FFF000003FFE0003FF80007FC0007FFFFC0003FE0007FFFFE0003FF8
310
000001FFFE0000007FFFFFF0001FFFFFFF0000FFFFFF80007FFF0000FFFFFF80
310
007FFF0003FFFFFFFFF0003FFFFF0001F000E0003FFFFE0003FF0003FFF00000
310
3FFF0003FF80007FC0007FFFFC0007FE0007FFFFC0003FF8000001FFFE000000
310
7FFFFFF0001FFFFFFF80007FFFFF0000FFFF80007FFFFF0000FFFF0003FFFFFF
310
FFF0003FFFFF0003F000E0003FFFFC0003FE0003FFF000003FFF0003FF80007F
310
E0003FFFF80007FE0003FFFFC0007FF8000001FFFE0000007FFFFFF0001FFFFF
310
FF80003FFFFE0000FFFF80003FFFFE0000FFFF0003FFFFFFFFF0001FFFFE0003
310
F000F0001FFFF80003FE0003FFF000007FFF0001FF80007FE0003FFFF00007FE
310
0001FFFF80007FF8000001FFFE0000007FFFFFF0001FFFFFFFC0000FFFF80001
310
FFFFC0000FFFF80001FFFF0003FFFFFFFFF0001FFFFC0003F000F0000FFFF000
310
07FE0007FFF800007FFF0001FF80007FE0001FFFE00007FF0000FFFE00007FF8
310
000001FFFE0000007FFFFFF0001FFFFFFFC00003FFE00001FFFFC00003FFE000
310
01FFFF0003FFFFFFFFF8000FFFF80003F000F00003FFC00007FC0007FFF80000
310
7FFF8001FF80007FF00007FF80000FFF00007FF80000FFF8000001FFFE000000
310
7F80000000000001FFE000003E000003FFFFE000003E000003FFFF0003FFFFFF
310
FFF80003FFE00007F000F800000000000FFC0007FFF800007FFF8001FF80007F
310
F000000000000FFF000000000000FFF8000001FFFE0000007F80000000000001
310
FFF0000000000007FFFFF0000000000007FFFF0003FFFFFFFFFC00007E000007
310
F000F800000000000FFC0007FFF80000FFFF8000FF80007FF800000000001FFF
310
800000000001FFF8000001FFFE0000007F80000000000001FFF800000000000F
310
FFFFF800000000000FFFFF0003FFFFFFFFFC00000000000FF000FC0000000000
310
1FFC0007FFFC0000FFFF8000FF80007FF800000000003FFFC00000000001FFF8
310
000001FFFE0000007F80000000000001FFF800000000000FFFFFF80000000000
310
0FFFFF0003FFFFFFFFFE00000000001FF000FE00000000003FF8000FFFFC0000
310
FFFF8000FF80007FFC00000000003FFFC00000000003FFF8000001FFFE000000
310
7F80000000000001FFFC00000000001FFFFFFC00000000001FFFFF0003FFFFFF
310
FFFF00000000001FF000FF00000000003FF8000FFFFC0000FFFFC000FF80007F
310
FE00000000007FFFE00000000007FFF8000001FFFE0000007F80000000000001
310
FFFE00000000003FFFFFFE00000000003FFFFF0003FFFFFFFFFF80000000003F
310
F000FF80000000007FF8000FFFFC0001FFFFC0007F80007FFF0000000000FFFF
310
F0000000000FFFF800000000000000007F80000000000001FFFF8000000000FF
310
FFFFFF8000000000FFFFFF0003FFFFFFFFFFC0000000007FF000FFC000000000
310
FFF8000FFFFE0001FFFFC0007F80007FFF8000000001FFFFF8000000001FFFF8
310
00000000000000007F80000000000001FFFFC000000001FFFFFFFFC000000001
310
FFFFFF0003FFFFFFFFFFE000000000FFF000FFE000000003FFF0001FFFFE0001
310
FFFFC0007F80007FFFC000000007FFFFFE000000003FFFF80000000000000000
310
7F80000000000001FFFFE000000003FFFFFFFFE000000003FFFFFF0003FFFFFF
310
FFFFF000000003FFF000FFF80000000FFFF0001FFFFE0001FFFFE0007F80007F
310
FFF00000000FFFFFFF00000000FFFFF800000000000000007F80000000000001
310
FFFFF80000000FFFFFFFFFF80000000FFFFFFF0003FFFFFFFFFFFC0000000FFF
310
F000FFFE0000003FFFF0001FFFFE0003FFFFE0003F80007FFFFC0000003FFFFF
310
FFC0000003FFFFF800000000000000007F80000000000001FFFFFE0000003FFF
310
FFFFFFFE0000003FFFFFFF0003FFFFFFFFFFFF0000003FFFF000FFFF800000FF
310
FFF0001FFFFF0003FFFFE0003F80007FFFFF000001FFFFFFFFF800001FFFFFF8
310
00000000000000007F80000000000001FFFFFFC00001FFFFFFFFFFFFC00001FF
310
FFFFFF0003FFFFFFFFFFFFC00000FFFFF000FFFFF8000FFFFFFFFFFFFFFFFFFF
310
FFFFFFFFFFFFFFFFFFFFF0001FFFFFFFFFFF0000FFFFFFF80000000000000000
310
7FFFFFFFFFFFFFFFFFFFFFFC001FFFFFFFFFFFFFFC001FFFFFFFFFFFFFFFFFFF
310
FFFFFFFC001FFFFFF000FFFFFFFFFFFFFFFFFFFFFFFFFFFFFFFFFFFFFFFFFFFF
310
FFFFFFFFFFFFFFFFFFFFFFFFFFFFFFFFFFFFFFFFFFFFFFFFFFFFFFFFFFFFFFFF
310
FFFFFFFFFFFFFFFFFFFFFFFFFFFFFFFFFFFFFFFFFFFFFFFFFFFFFFFFFFFFFFFF
310
F000FFFFFFFFFFFFFFFFFFFFFFFFFFFFFFFFFFFFFFFFFFFFFFFFFFFFFFFFFFFF
310
FFFFFFFFFFFFFFFFFFFFFFFFFFFFFFFFFFFFFFFFFFFFFFFFFFFFFFFFFFFFFFFF
310
FFFFFFFFFFFFFFFFFFFFFFFFFFFFFFFFFFFFFFFFFFFFFFFFF000FFFFFFFFFFFF
310
FFFFFFFFFFFFFFFFFFFFFFFFFFFFFFFFFFFFFFFFFFFFFFFFFFFFFFFFFFFFFFFF
310
FFFFFFFFFFFFFFFFFFFFFFFFFFFFFFFFFFFFFFFFFFFFFFFFFFFFFFFFFFFFFFFF
310
FFFFFFFFFFFFFFFFFFFFFFFFFFFFFFFFF000FFFFFFFFFFFFFFFFFFFFFFFFFFFF
310
FFFFFFFFFFFFFFFFFFFFFFFFFFFFFFFFFFFFFFFFFFFFFFFFFFFFFFFFFFFFFFFF
310
FFFFFFFFFFFFFFFFFFFFFFFFFFFFFFFFFFFFFFFFFFFFFFFFFFFFFFFFFFFFFFFF
310
FFFFFFFFFFFFFFFFF000FFFFFFFFFFFFFFFFFFFFFFFFFFFFFFFFFFFFFFFFFFFF
310
FFFFFFFFFFFFFFFFFFFFFFFFFFFFFFFFFFFFFFFFFFFFFFFFFFFFFFFFFFFFFFFF
310
FFFFFFFFFFFFFFFFFFFFFFFFFFFFFFFFFFFFFFFFFFFFFFFFFFFFFFFFFFFFFFFF
310
F000FFFFFFFFFFFFFFFFFFFFFFFFFFFFFFFFFFFFFFFFFFFFFFFFFFFFFFFFFFFF
310
FFFFFFFFFFFFFFFFFFFFFFFFFFFFFFFFFFFFFFFFFFFFFFFFFFFFFFFFFFFFFFFF
310
FFFFFFFFFFFFFFFFFFFFFFFFFFFFFFFFFFFFFFFFFFFFFFFFF000FFFFFFFFFFFF
310
FFFFFFFFFFFFFFFFFFFFFFFFFFFFFFFFFFFFFFFFFFFFFFFFFFFFFFFFFFFFFFFF
310
FFFFFFFFFFFFFFFFFFFFFFFFFFFFFFFFFFFFFFFFFFFFFFFFFFFFFFFFFFFFFFFF
310
FFFFFFFFFFFFFFFFFFFFFFFFFFFFFFFFF000FFFFFFFFFFFFFFFFFFFFFFFFFFFF
310
FFFFFFFFFFFFFFFFFFFFFFFFFFFFFFFFFFFFFFFFFFFFFFFFFFFFFFFFFFFFFFFF
310
FFFFFFFFFFFFFFFFFFFFFFFFFFFFFFFFFFFFFFFFFFFFFFFFFFFFFFFFFFFFFFFF
310
FFFFFFFFFFFFFFFFF000FFFFFFFFFFFFFFFFFFFFFFFFFFFFFFFFFFFFFFFFFFFF
310
FFFFFFFFFFFFFFFFFFFFFFFFFFFFFFFFFFFFFFFFFFFFFFFFFFFFFFFFFFFFFFFF
310
FFFFFFFFFFFFFFFFFFFFFFFFFFFFFFFFFFFFFFFFFFFFFFFFFFFFFFFFFFFFFFFF
310
F000FFFFFFFFFFFFFFFFFFFFFFFFFFFFFFFFFFFFFFFFFFFFFFFFFFFFFFFFFFFF
310
FFFFFFFFFFFFFFFFFFFFFFFFFFFFFFFFFFFFFFFFFFFFFFFFFFFFFFFFFFFFFFFF
310
FFFFFFFFFFFFFFFFFFFFFFFFFFFFFFFFFFFFFFFFFFFFFFFFF000FFFFFFFFFFFF
310
FFFFFFFFFFFFFFFFFFFFFFFFFFFFFFFFFFFFFFFFFFFFFFFFFFFFFFFFFFFFFFFF
310
FFFFFFFFFFFFFFFFFFFFFFFFFFFFFFFFFFFFFFFFFFFFFFFFFFFFFFFFFFFFFFFF
310
FFFFFFFFFFFFFFFFFFFFFFFFFFFFFFFFF000FFFFFFFFFFFFFFFFFFFFFFFFFFFF
310
FFFFFFFFFFFFFFFFFFFFFFFFFFFFFFFFFFFFFFFFFFFFFFFFFFFFFFFFFFFFFFFF
310
FFFFFFFFFFFFFFFFFFFFFFFFFFFFFFFFFFFFFFFFFFFFFFFFFFFFFFFFFFFFFFFF
310
FFFFFFFFFFFFFFFFF000FFFFFFFFFFFFFFFFFFFFFFFFFFFFFFFFFFFFFFFFFFFF
310
FFFFFFFFFFFFFFFFFFFFFFFFFFFFFFFFFFFFFFFFFFFFFFFFFFFFFFFFFFFFFFFF
310
FFFFFFFFFFFFFFFFFFFFFFFFFFFFFFFFFFFFFFFFFFFFFFFFFFFFFFFFFFFFFFFF
310
F000FFFFFFFFFFFFFFFFFFFFFFFFFFFFFFFFFFFFFFFFFFFFFFFFFFFFFFFFFFFF
310
FFFFFFFFFFFFFFFFFFFFFFFFFFFFFFFFFFFFFFFFFFFFFFFFFFFFFFFFFFFFFFFF
310
FFFFFFFFFFFFFFFFFFFFFFFFFFFFFFFFFFFFFFFFFFFFFFFFF000FFFFFFFFFFFF
310
FFFFFFFFFFFFFFFFFFFFFFFFFFFFFFFFFFFFFFFFFFFFFFFFFFFFFFFFFFFFFFFF
310
FFFFFFFFFFFFFFFFFFFFFFFFFFFFFFFFFFFFFFFFFFFFFFFFFFFFFFFFFFFFFFFF
310
FFFFFFFFFFFFFFFFFFFFFFFFFFFFFFFFF000FFFFFFFFFFFFFFFFFFFFFFFFFFFF
310
FFFFFFFFFFFFFFFFFFFFFFFFFFFFFFFFFFFFFFFFFFFFFFFFFFFFFFFFFFFFFFFF
310
FFFFFFFFFFFFFFFFFFFFFFFFFFFFFFFFFFFFFFFFFFFFFFFFFFFFFFFFFFFFFFFF
310
FFFFFFFFFFFFFFFFF000FFFFFFFFFFFFFFFFFFFFFFFFFFFFFFFFFFFFFFFFFFFF
310
FFFFFFFFFFFFFFFFFFFFFFFFFFFFFFFFFFFFFFFFFFFFFFFFFFFFFFFFFFFFFFFF
310
FFFFFFFFFFFFFFFFFFFFFFFFFFFFFFFFFFFFFFFFFFFFFFFFFFFFFFFFFFFFFFFF
310
F000FFFFFFFFFFFFFFFFFFFFFFFFFFFFFFFFFFFFFFFFFFFFFFFFFFFFFFFFFFFF
310
FFFFFFFFFFFFFFFFFFFFFFFFFFFFFFFFFFFFFFFFFFFFFFFFFFFFFFFFFFFFFFFF
310
FFFFFFFFFFFFFFFFFFFFFFFFFFFFFFFFFFFFFFFFFFFFFFFFF000FFFFFFFFFFFF
310
FFFFFFFFFFFFFFFFFFFFFFFFFFFFFFFFFFFFFFFFFFFFFFFFFFFFFFFFFFFFFFFF
310
FFFFFFFFFFFFFFFFFFFFFFFFFFFFFFFFFFFFFFFFFFFFFFFFFFFFFFFFFFFFFFFF
310
FFFFFFFFFFFFFFFFFFFFFFFFFFFFFFFFF000FFFFFFFFFFFFFFFFFFFFFFFFFFFF
310
FFFFFFFFFFFFFFFFFFFFFFFFFFFFFFFFFFFFFFFFFFFFFFFFFFFFFFFFFFFFFFFF
310
FFFFFFFFFFFFFFFFFFFFFFFFFFFFFFFFFFFFFFFFFFFFFFFFFFFFFFFFFFFFFFFF
310
FFFFFFFFFFFFFFFFF000FFFFFFFFFFFFFFFFFFFFFFFFFFFFFFFFFFFFFFFFFFFF
310
FFFFFFFFFFFFFFFFFFFFFFFFFFFFFFFFFFFFFFFFFFFFFFFFFFFFFFFFFFFFFFFF
310
FFFFFFFFFFFFFFFFFFFFFFFFFFFFFFFFFFFFFFFFFFFFFFFFFFFFFFFFFFFFFFFF
310
F000FFFFFFFFFFFFFFFFFFFFFFFFFFFFFFFFFFFFFFFFFFFFFFFFFFFFFFFFFFFF
310
FFFFFFFFFFFFFFFFFFFFFFFFFFFFFFFFFFFFFFFFFFFFFFFFFFFFFFFFFFFFFFFF
310
FFFFFFFFFFFFFFFFFFFFFFFFFFFFFFFFFFFFFFFFFFFFFFFFF000FFFFFFFFFFFF
310
FFFFFFFFFFFFFFFFFFFFFFFFFFFFFFFFFFFFFFFFFFFFFFFFFFFFFFFFFFFFFFFF
310
FFFFFFFFFFFFFFFFFFFFFFFFFFFFFFFFFFFFFFFFFFFFFFFFFFFFFFFFFFFFFFFF
310
FFFFFFFFFFFFFFFFFFFFFFFFFFFFFFFFF0000000000000000000000000000000
310
0000000000000000000000000000000000000000000000000000000000000000
310
0000000000000000000000000000000000000000000000000000000000000000
310
0000000000000000000000000000000000000000000000000000000000000000
310
0000000000000000000000000000000000000000000000000000000000000000
310
0000000000000000000000000000000000000000000000000000000000000000
310
0000000000000000000000000000000000000000000000000000000000000000
310
0000000000000000000000000000000000000000000000000000000000000000
310
0000000000000000000000000000000000000000000000000000000000000000
310
0000000000000000000000000000000000000000000000000000000000000000
310
0000000000000000000000000000000000000000000000000000000000000000
310
0000000000000000000000000000000000000000000000000000000000000000
310
0000000000000000000000000000000000000000000000000000000000000000
310
0000000000000000000000000000000000000000000000000000000000000000
310
0000000000000000000000000000000000000000000000000000000000000000
310
0000000000000000000000000000000000000000000000000000000000000000
  1
OLE
  0
ENDSEC
  0
SECTION
  2
OBJECTS
  0
DICTIONARY
  5
C
330
0
100
AcDbDictionary
281
     1
  3
ACAD_GROUP
350
D
  3
ACAD_LAYOUT
350
1A
  3
ACAD_MLINESTYLE
350
17
  3
ACAD_PLOTSETTINGS
350
19
  3
ACAD_PLOTSTYLENAME
350
E
  3
ACAD_SCALELIST
350
47
  0
DICTIONARY
  5
D
102
{ACAD_REACTORS
330
C
102
}
330
C
100
AcDbDictionary
281
     1
  0
DICTIONARY
  5
1A
102
{ACAD_REACTORS
330
C
102
}
330
C
100
AcDbDictionary
281
     1
  3
Layout1
350
1E
  3
Layout2
350
26
  3
Model
350
22
  0
DICTIONARY
  5
17
102
{ACAD_REACTORS
330
C
102
}
330
C
100
AcDbDictionary
281
     1
  3
Standard
350
18
  0
DICTIONARY
  5
19
102
{ACAD_REACTORS
330
C
102
}
330
C
100
AcDbDictionary
281
     1
  0
ACDBDICTIONARYWDFLT
  5
E
102
{ACAD_REACTORS
330
C
102
}
330
C
100
AcDbDictionary
281
     1
  3
Normal
350
F
100
AcDbDictionaryWithDefault
340
F
  0
DICTIONARY
  5
47
102
{ACAD_REACTORS
330
C
102
}
330
C
100
AcDbDictionary
281
     1
  3
A0
350
48
  3
A1
350
49
  3
A2
350
4A
  3
A3
350
4B
  3
A4
350
4C
  3
A5
350
4D
  3
A6
350
4E
  3
A7
350
4F
  3
A8
350
50
  3
A9
350
51
  3
B0
350
52
  3
B1
350
53
  3
B2
350
54
  3
B3
350
55
  3
B4
350
56
  3
B5
350
57
  3
B6
350
58
  3
B7
350
59
  3
B8
350
5A
  3
B9
350
5B
  3
C0
350
5C
  3
C1
350
5D
  3
C2
350
5E
  3
C3
350
5F
  3
C4
350
60
  3
C5
350
61
  3
C6
350
62
  3
C7
350
63
  3
C8
350
64
  3
C9
350
65
  3
D0
350
66
  3
D1
350
67
  3
D2
350
68
  0
LAYOUT
  5
1E
102
{ACAD_REACTORS
330
1A
102
}
330
1A
100
AcDbPlotSettings
  1

  2
none_device
  4

  6

 40
0.0
 41
0.0
 42
0.0
 43
0.0
 44
0.0
 45
0.0
 46
0.0
 47
0.0
 48
0.0
 49
0.0
140
0.0
141
0.0
142
1.0
143
1.0
 70
   688
 72
     1
 73
     0
 74
     5
  7

 75
    16
147
1.0
148
0.0
149
0.0
100
AcDbLayout
  1
Layout1
 70
     1
 71
     1
 10
0.0
 20
0.0
 11
420.0
 21
297.0
 12
0.0
 22
0.0
 32
0.0
 14
1.0000000000E+20
 24
1.0000000000E+20
 34
1.0000000000E+20
 15
-1.0000000000E+20
 25
-1.0000000000E+20
 35
-1.0000000000E+20
146
0.0
 13
0.0
 23
0.0
 33
0.0
 16
1.0
 26
0.0
 36
0.0
 17
0.0
 27
1.0
 37
0.0
 76
     0
330
1B
  0
LAYOUT
  5
26
102
{ACAD_REACTORS
330
1A
102
}
330
1A
100
AcDbPlotSettings
  1

  2
none_device
  4

  6

 40
0.0
 41
0.0
 42
0.0
 43
0.0
 44
0.0
 45
0.0
 46
0.0
 47
0.0
 48
0.0
 49
0.0
140
0.0
141
0.0
142
1.0
143
1.0
 70
   688
 72
     1
 73
     0
 74
     5
  7

 75
    16
147
1.0
148
0.0
149
0.0
100
AcDbLayout
  1
Layout2
 70
     1
 71
     2
 10
0.0
 20
0.0
 11
0.0
 21
0.0
 12
0.0
 22
0.0
 32
0.0
 14
0.0
 24
0.0
 34
0.0
 15
0.0
 25
0.0
 35
0.0
146
0.0
 13
0.0
 23
0.0
 33
0.0
 16
1.0
 26
0.0
 36
0.0
 17
0.0
 27
1.0
 37
0.0
 76
     0
330
23
  0
LAYOUT
  5
22
102
{ACAD_REACTORS
330
1A
102
}
330
1A
100
AcDbPlotSettings
  1

  2
none_device
  4
Letter_(8.50_x_11.00_Inches)
  6

 40
6.35
 41
6.35
 42
6.35000508
 43
6.35000508
 44
215.9
 45
279.4
 46
0.0
 47
0.0
 48
0.0
 49
0.0
140
0.0
141
0.0
142
1.0
143
1.0
 70
  1712
 72
     1
 73
     0
 74
     0
  7

 75
     0
147
1.0
148
0.0
149
0.0
100
AcDbLayout
  1
Model
 70
     1
 71
     0
 10
0.0
 20
0.0
 11
297.0
 21
210.0
 12
0.0
 22
0.0
 32
0.0
 14
0.0
 24
0.0
 34
0.0
 15
297.0
 25
210.0
 35
0.0
146
0.0
 13
0.0
 23
0.0
 33
0.0
 16
1.0
 26
0.0
 36
0.0
 17
0.0
 27
1.0
 37
0.0
 76
     0
330
1F
331
29
  0
MLINESTYLE
  5
18
102
{ACAD_REACTORS
330
17
102
}
330
17
100
AcDbMlineStyle
  2
Standard
 70
     0
  3

 62
   256
 51
90.0
 52
90.0
 71
     2
 49
0.5
 62
   256
  6
BYLAYER
 49
-0.5
 62
   256
  6
BYLAYER
  0
ACDBPLACEHOLDER
  5
F
102
{ACAD_REACTORS
330
E
102
}
330
E
  0
SCALE
  5
48
102
{ACAD_REACTORS
330
47
102
}
330
47
100
AcDbScale
 70
     0
300
1:1
140
1.0
141
1.0
290
     1
  0
SCALE
  5
49
102
{ACAD_REACTORS
330
47
102
}
330
47
100
AcDbScale
 70
     0
300
1:2
140
1.0
141
2.0
290
     0
  0
SCALE
  5
4A
102
{ACAD_REACTORS
330
47
102
}
330
47
100
AcDbScale
 70
     0
300
1:4
140
1.0
141
4.0
290
     0
  0
SCALE
  5
4B
102
{ACAD_REACTORS
330
47
102
}
330
47
100
AcDbScale
 70
     0
300
1:5
140
1.0
141
5.0
290
     0
  0
SCALE
  5
4C
102
{ACAD_REACTORS
330
47
102
}
330
47
100
AcDbScale
 70
     0
300
1:8
140
1.0
141
8.0
290
     0
  0
SCALE
  5
4D
102
{ACAD_REACTORS
330
47
102
}
330
47
100
AcDbScale
 70
     0
300
1:10
140
1.0
141
10.0
290
     0
  0
SCALE
  5
4E
102
{ACAD_REACTORS
330
47
102
}
330
47
100
AcDbScale
 70
     0
300
1:16
140
1.0
141
16.0
290
     0
  0
SCALE
  5
4F
102
{ACAD_REACTORS
330
47
102
}
330
47
100
AcDbScale
 70
     0
300
1:20
140
1.0
141
20.0
290
     0
  0
SCALE
  5
50
102
{ACAD_REACTORS
330
47
102
}
330
47
100
AcDbScale
 70
     0
300
1:30
140
1.0
141
30.0
290
     0
  0
SCALE
  5
51
102
{ACAD_REACTORS
330
47
102
}
330
47
100
AcDbScale
 70
     0
300
1:40
140
1.0
141
40.0
290
     0
  0
SCALE
  5
52
102
{ACAD_REACTORS
330
47
102
}
330
47
100
AcDbScale
 70
     0
300
1:50
140
1.0
141
50.0
290
     0
  0
SCALE
  5
53
102
{ACAD_REACTORS
330
47
102
}
330
47
100
AcDbScale
 70
     0
300
1:100
140
1.0
141
100.0
290
     0
  0
SCALE
  5
54
102
{ACAD_REACTORS
330
47
102
}
330
47
100
AcDbScale
 70
     0
300
2:1
140
2.0
141
1.0
290
     0
  0
SCALE
  5
55
102
{ACAD_REACTORS
330
47
102
}
330
47
100
AcDbScale
 70
     0
300
4:1
140
4.0
141
1.0
290
     0
  0
SCALE
  5
56
102
{ACAD_REACTORS
330
47
102
}
330
47
100
AcDbScale
 70
     0
300
8:1
140
8.0
141
1.0
290
     0
  0
SCALE
  5
57
102
{ACAD_REACTORS
330
47
102
}
330
47
100
AcDbScale
 70
     0
300
10:1
140
10.0
141
1.0
290
     0
  0
SCALE
  5
58
102
{ACAD_REACTORS
330
47
102
}
330
47
100
AcDbScale
 70
     0
300
100:1
140
100.0
141
1.0
290
     0
  0
SCALE
  5
59
102
{ACAD_REACTORS
330
47
102
}
330
47
100
AcDbScale
 70
     0
300
1/128" = 1'-0"
140
0.0078125
141
12.0
290
     0
  0
SCALE
  5
5A
102
{ACAD_REACTORS
330
47
102
}
330
47
100
AcDbScale
 70
     0
300
1/64" = 1'-0"
140
0.015625
141
12.0
290
     0
  0
SCALE
  5
5B
102
{ACAD_REACTORS
330
47
102
}
330
47
100
AcDbScale
 70
     0
300
1/32" = 1'-0"
140
0.03125
141
12.0
290
     0
  0
SCALE
  5
5C
102
{ACAD_REACTORS
330
47
102
}
330
47
100
AcDbScale
 70
     0
300
1/16" = 1'-0"
140
0.0625
141
12.0
290
     0
  0
SCALE
  5
5D
102
{ACAD_REACTORS
330
47
102
}
330
47
100
AcDbScale
 70
     0
300
3/32" = 1'-0"
140
0.09375
141
12.0
290
     0
  0
SCALE
  5
5E
102
{ACAD_REACTORS
330
47
102
}
330
47
100
AcDbScale
 70
     0
300
1/8" = 1'-0"
140
0.125
141
12.0
290
     0
  0
SCALE
  5
5F
102
{ACAD_REACTORS
330
47
102
}
330
47
100
AcDbScale
 70
     0
300
3/16" = 1'-0"
140
0.1875
141
12.0
290
     0
  0
SCALE
  5
60
102
{ACAD_REACTORS
330
47
102
}
330
47
100
AcDbScale
 70
     0
300
1/4" = 1'-0"
140
0.25
141
12.0
290
     0
  0
SCALE
  5
61
102
{ACAD_REACTORS
330
47
102
}
330
47
100
AcDbScale
 70
     0
300
3/8" = 1'-0"
140
0.375
141
12.0
290
     0
  0
SCALE
  5
62
102
{ACAD_REACTORS
330
47
102
}
330
47
100
AcDbScale
 70
     0
300
1/2" = 1'-0"
140
0.5
141
12.0
290
     0
  0
SCALE
  5
63
102
{ACAD_REACTORS
330
47
102
}
330
47
100
AcDbScale
 70
     0
300
3/4" = 1'-0"
140
0.75
141
12.0
290
     0
  0
SCALE
  5
64
102
{ACAD_REACTORS
330
47
102
}
330
47
100
AcDbScale
 70
     0
300
1" = 1'-0"
140
1.0
141
12.0
290
     0
  0
SCALE
  5
65
102
{ACAD_REACTORS
330
47
102
}
330
47
100
AcDbScale
 70
     0
300
1-1/2" = 1'-0"
140
1.5
141
12.0
290
     0
  0
SCALE
  5
66
102
{ACAD_REACTORS
330
47
102
}
330
47
100
AcDbScale
 70
     0
300
3" = 1'-0"
140
3.0
141
12.0
290
     0
  0
SCALE
  5
67
102
{ACAD_REACTORS
330
47
102
}
330
47
100
AcDbScale
 70
     0
300
6" = 1'-0"
140
6.0
141
12.0
290
     0
  0
SCALE
  5
68
102
{ACAD_REACTORS
330
47
102
}
330
47
100
AcDbScale
 70
     0
300
1'-0" = 1'-0"
140
12.0
141
12.0
290
     0
  0
ENDSEC
  0
EOF
