  0
SECTION
  2
HEADER
  9
$ACADVER
  1
AC1015
  9
$ACADMAINTVER
 70
     6
  9
$DWGCODEPAGE
  3
ANSI_1252
  9
$INSBASE
 10
0.0
 20
0.0
 30
0.0
  9
$EXTMIN
 10
0.0
 20
0.0
 30
0.0
  9
$EXTMAX
 10
297.0
 20
210.0
 30
0.0
  9
$LIMMIN
 10
0.0
 20
0.0
  9
$LIMMAX
 10
297.0
 20
210.0
  9
$ORTHOMODE
 70
     0
  9
$REGENMODE
 70
     1
  9
$FILLMODE
 70
     1
  9
$QTEXTMODE
 70
     0
  9
$MIRRTEXT
 70
     1
  9
$LTSCALE
 40
1.0
  9
$ATTMODE
 70
     1
  9
$TEXTSIZE
 40
2.0
  9
$TRACEWID
 40
1.0
  9
$TEXTSTYLE
  7
Standard
  9
$CLAYER
  8
0
  9
$CELTYPE
  6
ByLayer
  9
$CECOLOR
 62
   256
  9
$CELTSCALE
 40
1.0
  9
$DISPSILH
 70
     0
  9
$DIMSCALE
 40
1.0
  9
$DIMASZ
 40
3.0
  9
$DIMEXO
 40
0.0
  9
$DIMDLI
 40
3.75
  9
$DIMRND
 40
0.0
  9
$DIMDLE
 40
0.0
  9
$DIMEXE
 40
1.0
  9
$DIMTP
 40
0.0
  9
$DIMTM
 40
0.0
  9
$DIMTXT
 40
2.0
  9
$DIMCEN
 40
2.5
  9
$DIMTSZ
 40
0.0
  9
$DIMTOL
 70
     0
  9
$DIMLIM
 70
     0
  9
$DIMTIH
 70
     1
  9
$DIMTOH
 70
     1
  9
$DIMSE1
 70
     0
  9
$DIMSE2
 70
     0
  9
$DIMTAD
 70
     1
  9
$DIMZIN
 70
     0
  9
$DIMBLK
  1

  9
$DIMASO
 70
     1
  9
$DIMSHO
 70
     1
  9
$DIMPOST
  1

  9
$DIMAPOST
  1

  9
$DIMALT
 70
     0
  9
$DIMALTD
 70
     3
  9
$DIMALTF
 40
0.0393700787
  9
$DIMLFAC
 40
2.0
  9
$DIMTOFL
 70
     1
  9
$DIMTVP
 40
0.0
  9
$DIMTIX
 70
     0
  9
$DIMSOXD
 70
     0
  9
$DIMSAH
 70
     0
  9
$DIMBLK1
  1

  9
$DIMBLK2
  1

  9
$DIMSTYLE
  2
ISO-25
  9
$DIMCLRD
 70
     0
  9
$DIMCLRE
 70
     0
  9
$DIMCLRT
 70
     0
  9
$DIMTFAC
 40
1.0
  9
$DIMGAP
 40
1.524
  9
$DIMJUST
 70
     0
  9
$DIMSD1
 70
     0
  9
$DIMSD2
 70
     0
  9
$DIMTOLJ
 70
     0
  9
$DIMTZIN
 70
     0
  9
$DIMALTZ
 70
     0
  9
$DIMALTTZ
 70
     0
  9
$DIMUPT
 70
     0
  9
$DIMDEC
 70
     2
  9
$DIMTDEC
 70
     3
  9
$DIMALTU
 70
     2
  9
$DIMALTTD
 70
     3
  9
$DIMTXSTY
  7
Standard
  9
$DIMAUNIT
 70
     0
  9
$DIMADEC
 70
     2
  9
$DIMALTRND
 40
0.0
  9
$DIMAZIN
 70
     0
  9
$DIMDSEP
 70
    44
  9
$DIMATFIT
 70
     3
  9
$DIMFRAC
 70
     0
  9
$DIMLDRBLK
  1

  9
$DIMLUNIT
 70
     2
  9
$DIMLWD
 70
    -2
  9
$DIMLWE
 70
    -2
  9
$DIMTMOVE
 70
     0
  9
$LUNITS
 70
     2
  9
$LUPREC
 70
     2
  9
$SKETCHINC
 40
1.0
  9
$FILLETRAD
 40
10.0
  9
$AUNITS
 70
     0
  9
$AUPREC
 70
     2
  9
$MENU
  1
.
  9
$ELEVATION
 40
0.0
  9
$PELEVATION
 40
0.0
  9
$THICKNESS
 40
0.0
  9
$LIMCHECK
 70
     0
  9
$CHAMFERA
 40
0.0
  9
$CHAMFERB
 40
0.0
  9
$CHAMFERC
 40
0.0
  9
$CHAMFERD
 40
0.0
  9
$SKPOLY
 70
     0
  9
$TDCREATE
 40
2457674.426032581
  9
$TDUCREATE
 40
2457674.342699248
  9
$TDUPDATE
 40
2457674.426034074
  9
$TDUUPDATE
 40
2457674.342700741
  9
$TDINDWG
 40
0.0000000116
  9
$TDUSRTIMER
 40
0.0000000116
  9
$USRTIMER
 70
     1
  9
$ANGBASE
 50
0.0
  9
$ANGDIR
 70
     0
  9
$PDMODE
 70
     0
  9
$PDSIZE
 40
-1.0
  9
$PLINEWID
 40
0.0
  9
$SPLFRAME
 70
     0
  9
$SPLINETYPE
 70
     6
  9
$SPLINESEGS
 70
     8
  9
$HANDSEED
  5
2C5
  9
$SURFTAB1
 70
     6
  9
$SURFTAB2
 70
     6
  9
$SURFTYPE
 70
     6
  9
$SURFU
 70
     6
  9
$SURFV
 70
     6
  9
$UCSBASE
  2

  9
$UCSNAME
  2

  9
$UCSORG
 10
0.0
 20
0.0
 30
0.0
  9
$UCSXDIR
 10
1.0
 20
0.0
 30
0.0
  9
$UCSYDIR
 10
0.0
 20
1.0
 30
0.0
  9
$UCSORTHOREF
  2

  9
$UCSORTHOVIEW
 70
     0
  9
$UCSORGTOP
 10
0.0
 20
0.0
 30
0.0
  9
$UCSORGBOTTOM
 10
0.0
 20
0.0
 30
0.0
  9
$UCSORGLEFT
 10
0.0
 20
0.0
 30
0.0
  9
$UCSORGRIGHT
 10
0.0
 20
0.0
 30
0.0
  9
$UCSORGFRONT
 10
0.0
 20
0.0
 30
0.0
  9
$UCSORGBACK
 10
0.0
 20
0.0
 30
0.0
  9
$PUCSBASE
  2

  9
$PUCSNAME
  2

  9
$PUCSORG
 10
0.0
 20
0.0
 30
0.0
  9
$PUCSXDIR
 10
1.0
 20
0.0
 30
0.0
  9
$PUCSYDIR
 10
0.0
 20
1.0
 30
0.0
  9
$PUCSORTHOREF
  2

  9
$PUCSORTHOVIEW
 70
     0
  9
$PUCSORGTOP
 10
0.0
 20
0.0
 30
0.0
  9
$PUCSORGBOTTOM
 10
0.0
 20
0.0
 30
0.0
  9
$PUCSORGLEFT
 10
0.0
 20
0.0
 30
0.0
  9
$PUCSORGRIGHT
 10
0.0
 20
0.0
 30
0.0
  9
$PUCSORGFRONT
 10
0.0
 20
0.0
 30
0.0
  9
$PUCSORGBACK
 10
0.0
 20
0.0
 30
0.0
  9
$USERI1
 70
     0
  9
$USERI2
 70
     0
  9
$USERI3
 70
     0
  9
$USERI4
 70
     0
  9
$USERI5
 70
     0
  9
$USERR1
 40
0.0
  9
$USERR2
 40
0.0
  9
$USERR3
 40
0.0
  9
$USERR4
 40
0.0
  9
$USERR5
 40
0.0
  9
$WORLDVIEW
 70
     1
  9
$SHADEDGE
 70
     3
  9
$SHADEDIF
 70
    70
  9
$TILEMODE
 70
     1
  9
$MAXACTVP
 70
    64
  9
$PINSBASE
 10
0.0
 20
0.0
 30
0.0
  9
$PLIMCHECK
 70
     0
  9
$PEXTMIN
 10
1.0000000000E+20
 20
1.0000000000E+20
 30
1.0000000000E+20
  9
$PEXTMAX
 10
-1.0000000000E+20
 20
-1.0000000000E+20
 30
-1.0000000000E+20
  9
$PLIMMIN
 10
0.0
 20
0.0
  9
$PLIMMAX
 10
420.0
 20
297.0
  9
$UNITMODE
 70
     0
  9
$VISRETAIN
 70
     1
  9
$PLINEGEN
 70
     0
  9
$PSLTSCALE
 70
     1
  9
$TREEDEPTH
 70
  3020
  9
$CMLSTYLE
  2
Standard
  9
$CMLJUST
 70
     0
  9
$CMLSCALE
 40
20.0
  9
$PROXYGRAPHICS
 70
     1
  9
$MEASUREMENT
 70
     1
  9
$CELWEIGHT
370
    -1
  9
$ENDCAPS
280
     0
  9
$JOINSTYLE
280
     0
  9
$LWDISPLAY
290
     1
  9
$INSUNITS
 70
     4
  9
$HYPERLINKBASE
  1

  9
$STYLESHEET
  1

  9
$XEDIT
290
     1
  9
$CEPSNTYPE
380
     0
  9
$PSTYLEMODE
290
     1
  9
$FINGERPRINTGUID
  2
{8B73B5A7-8A9D-4F6B-95E6-DF0AB6C7EE28}
  9
$VERSIONGUID
  2
{FAEB1C32-E019-11D5-929B-00C0DF256EC4}
  9
$EXTNAMES
290
     1
  9
$PSVPSCALE
 40
0.0
  9
$OLESTARTUP
290
     0
  0
ENDSEC
  0
SECTION
  2
CLASSES
  0
CLASS
  1
ACDBDICTIONARYWDFLT
  2
AcDbDictionaryWithDefault
  3
ObjectDBX Classes
 90
        0
280
     0
281
     0
  0
CLASS
  1
VISUALSTYLE
  2
AcDbVisualStyle
  3
ObjectDBX Classes
 90
     4095
280
     0
281
     0
  0
CLASS
  1
MATERIAL
  2
AcDbMaterial
  3
ObjectDBX Classes
 90
     1153
280
     0
281
     0
  0
CLASS
  1
SCALE
  2
AcDbScale
  3
ObjectDBX Classes
 90
     1153
280
     0
281
     0
  0
CLASS
  1
TABLESTYLE
  2
AcDbTableStyle
  3
ObjectDBX Classes
 90
     4095
280
     0
281
     0
  0
CLASS
  1
MLEADERSTYLE
  2
AcDbMLeaderStyle
  3
ACDB_MLEADERSTYLE_CLASS
 90
     4095
280
     0
281
     0
  0
CLASS
  1
SUN
  2
AcDbSun
  3
SCENEOE
 90
     1153
280
     0
281
     0
  0
CLASS
  1
ACDBPLACEHOLDER
  2
AcDbPlaceHolder
  3
ObjectDBX Classes
 90
        0
280
     0
281
     0
  0
CLASS
  1
LAYOUT
  2
AcDbLayout
  3
ObjectDBX Classes
 90
        0
280
     0
281
     0
  0
ENDSEC
  0
SECTION
  2
TABLES
  0
TABLE
  2
VPORT
  5
8
330
0
100
AcDbSymbolTable
 70
     1
  0
VPORT
  5
29
330
8
100
AcDbSymbolTableRecord
100
AcDbViewportTableRecord
  2
*Active
 70
     0
 10
0.0
 20
0.0
 11
1.0
 21
1.0
 12
148.5
 22
105.0
 13
0.0
 23
0.0
 14
10.0
 24
10.0
 15
10.0
 25
10.0
 16
0.0
 26
0.0
 36
1.0
 17
0.0
 27
0.0
 37
0.0
 40
210.0
 41
1.4142857143
 42
50.0
 43
0.0
 44
0.0
 50
0.0
 51
0.0
 71
     0
 72
  2000
 73
     1
 74
     3
 75
     0
 76
     0
 77
     0
 78
     0
281
     0
 65
     1
110
0.0
120
0.0
130
0.0
111
1.0
121
0.0
131
0.0
112
0.0
122
1.0
132
0.0
 79
     0
146
0.0
  0
ENDTAB
  0
TABLE
  2
LTYPE
  5
5
330
0
100
AcDbSymbolTable
 70
     6
  0
LTYPE
  5
14
330
5
100
AcDbSymbolTableRecord
100
AcDbLinetypeTableRecord
  2
ByBlock
 70
     0
  3

 72
    65
 73
     0
 40
0.0
  0
LTYPE
  5
15
330
5
100
AcDbSymbolTableRecord
100
AcDbLinetypeTableRecord
  2
ByLayer
 70
     0
  3

 72
    65
 73
     0
 40
0.0
  0
LTYPE
  5
16
330
5
100
AcDbSymbolTableRecord
100
AcDbLinetypeTableRecord
  2
Continuous
 70
     0
  3
Solid line
 72
    65
 73
     0
 40
0.0
  0
LTYPE
  5
6E
330
5
100
AcDbSymbolTableRecord
100
AcDbLinetypeTableRecord
  2
HIDDEN
 70
     0
  3
Hidden __ __ __ __ __ __ __ __ __ __ __ __ __ __
 72
    65
 73
     2
 40
1.905
 49
1.27
 74
     0
 49
-0.635
 74
     0
  0
LTYPE
  5
6F
330
5
100
AcDbSymbolTableRecord
100
AcDbLinetypeTableRecord
  2
PHANTOM
 70
     0
  3
Phantom ______  __  __  ______  __  __  ______
 72
    65
 73
     6
 40
12.7
 49
6.35
 74
     0
 49
-1.27
 74
     0
 49
1.27
 74
     0
 49
-1.27
 74
     0
 49
1.27
 74
     0
 49
-1.27
 74
     0
  0
LTYPE
  5
70
330
5
100
AcDbSymbolTableRecord
100
AcDbLinetypeTableRecord
  2
CENTER
 70
     0
  3
Center ____ _ ____ _ ____ _ ____ _ ____ _ ____
 72
    65
 73
     4
 40
10.16
 49
6.35
 74
     0
 49
-1.27
 74
     0
 49
1.27
 74
     0
 49
-1.27
 74
     0
  0
LTYPE
  5
71
330
5
100
AcDbSymbolTableRecord
100
AcDbLinetypeTableRecord
  2
CENTERX2
 70
     0
  3
Center (2x) ________  __  ________  __  _____
 72
    65
 73
     4
 40
20.32
 49
12.7
 74
     0
 49
-2.54
 74
     0
 49
2.54
 74
     0
 49
-2.54
 74
     0
  0
LTYPE
  5
72
330
5
100
AcDbSymbolTableRecord
100
AcDbLinetypeTableRecord
  2
DOT2
 70
     0
  3
Dot (.5x) ........................................
 72
    65
 73
     2
 40
0.635
 49
0.0
 74
     0
 49
-0.635
 74
     0
  0
ENDTAB
  0
TABLE
  2
LAYER
  5
2
330
0
100
AcDbSymbolTable
 70
     5
  0
LAYER
  5
10
330
2
100
AcDbSymbolTableRecord
100
AcDbLayerTableRecord
  2
0
 70
     0
 62
     7
  6
Continuous
370
    -3
390
F
  0
LAYER
  5
73
330
2
100
AcDbSymbolTableRecord
100
AcDbLayerTableRecord
  2
FORMAT
 70
     0
 62
     7
  6
Continuous
370
    -3
390
F
  0
LAYER
  5
74
330
2
100
AcDbSymbolTableRecord
100
AcDbLayerTableRecord
  2
VERMASSUNG
 70
     0
 62
     7
  6
Continuous
370
    -3
390
F
  0
LAYER
  5
75
330
2
100
AcDbSymbolTableRecord
100
AcDbLayerTableRecord
  2
KOPF_DÜNN
 70
     0
 62
     7
  6
Continuous
370
    -3
390
F
  0
LAYER
  5
76
330
2
100
AcDbSymbolTableRecord
100
AcDbLayerTableRecord
  2
KOPF_DICK
 70
     0
 62
     7
  6
Continuous
370
    15
390
F
  0
ENDTAB
  0
TABLE
  2
STYLE
  5
3
330
0
100
AcDbSymbolTable
 70
     2
  0
STYLE
  5
11
330
3
100
AcDbSymbolTableRecord
100
AcDbTextStyleTableRecord
  2
Standard
 70
     0
 40
0.0
 41
1.0
 50
0.0
 71
     0
 42
2.0
  3
txt
  4

  0
STYLE
  5
77
330
3
100
AcDbSymbolTableRecord
100
AcDbTextStyleTableRecord
  2
SLDTEXTSTYLE0
 70
     0
 40
0.0
 41
0.7
 50
0.0
 71
     0
 42
2.0
  3
TXT
  4

  0
ENDTAB
  0
TABLE
  2
VIEW
  5
6
330
0
100
AcDbSymbolTable
 70
     0
  0
ENDTAB
  0
TABLE
  2
UCS
  5
7
330
0
100
AcDbSymbolTable
 70
     0
  0
ENDTAB
  0
TABLE
  2
APPID
  5
9
330
0
100
AcDbSymbolTable
 70
     1
  0
APPID
  5
12
330
9
100
AcDbSymbolTableRecord
100
AcDbRegAppTableRecord
  2
ACAD
 70
     0
  0
ENDTAB
  0
TABLE
  2
DIMSTYLE
  5
A
330
0
100
AcDbSymbolTable
 70
     2
100
AcDbDimStyleTable
  0
DIMSTYLE
105
27
330
A
100
AcDbSymbolTableRecord
100
AcDbDimStyleTableRecord
  2
ISO-25
 70
     0
 41
2.5
 42
0.625
 43
3.75
 44
1.25
 73
     0
 74
     0
 77
     1
 78
     8
140
2.5
141
2.5
143
0.0393700787
147
0.625
171
     3
172
     1
178
     0
271
     2
272
     2
274
     3
278
    44
283
     0
284
     8
340
11
  0
DIMSTYLE
105
1F2
102
{ACAD_REACTORS
330
1F1
330
1FF
330
20A
330
216
330
220
330
22A
102
}
330
A
100
AcDbSymbolTableRecord
100
AcDbDimStyleTableRecord
  2
SLDDIMSTYLE0
 70
     0
 41
3.0
 44
0.0
 45
0.000000001
 73
     0
 74
     0
 77
     1
 78
    12
 79
     3
140
2.0
147
0.5
173
     1
178
     0
271
     2
272
     3
276
     2
284
    12
340
77
  0
ENDTAB
  0
TABLE
  2
BLOCK_RECORD
  5
1
330
0
100
AcDbSymbolTable
 70
     7
  0
BLOCK_RECORD
  5
1F
330
1
100
AcDbSymbolTableRecord
100
AcDbBlockTableRecord
  2
*Model_Space
340
22
  0
BLOCK_RECORD
  5
1B
330
1
100
AcDbSymbolTableRecord
100
AcDbBlockTableRecord
  2
*Paper_Space
340
1E
  0
BLOCK_RECORD
  5
23
330
1
100
AcDbSymbolTableRecord
100
AcDbBlockTableRecord
  2
*Paper_Space0
340
26
  0
BLOCK_RECORD
  5
1F3
330
1
100
AcDbSymbolTableRecord
100
AcDbBlockTableRecord
  2
_D
340
0
  0
BLOCK_RECORD
  5
200
330
1
100
AcDbSymbolTableRecord
100
AcDbBlockTableRecord
  2
_D_1
340
0
  0
BLOCK_RECORD
  5
20B
330
1
100
AcDbSymbolTableRecord
100
AcDbBlockTableRecord
  2
_D_2
340
0
  0
BLOCK_RECORD
  5
217
330
1
100
AcDbSymbolTableRecord
100
AcDbBlockTableRecord
  2
_D_3
340
0
  0
BLOCK_RECORD
  5
221
330
1
100
AcDbSymbolTableRecord
100
AcDbBlockTableRecord
  2
_D_4
340
0
  0
BLOCK_RECORD
  5
22B
330
1
100
AcDbSymbolTableRecord
100
AcDbBlockTableRecord
  2
_D_5
340
0
  0
ENDTAB
  0
ENDSEC
  0
SECTION
  2
BLOCKS
  0
BLOCK
  5
20
330
1F
100
AcDbEntity
  8
0
100
AcDbBlockBegin
  2
*Model_Space
 70
     0
 10
0.0
 20
0.0
 30
0.0
  3
*Model_Space
  1

  0
ENDBLK
  5
21
330
1F
100
AcDbEntity
  8
0
100
AcDbBlockEnd
  0
BLOCK
  5
1C
330
1B
100
AcDbEntity
 67
     1
  8
0
100
AcDbBlockBegin
  2
*Paper_Space
 70
     0
 10
0.0
 20
0.0
 30
0.0
  3
*Paper_Space
  1

  0
ENDBLK
  5
1D
330
1B
100
AcDbEntity
 67
     1
  8
0
100
AcDbBlockEnd
  0
BLOCK
  5
24
330
23
100
AcDbEntity
  8
0
100
AcDbBlockBegin
  2
*Paper_Space0
 70
     0
 10
0.0
 20
0.0
 30
0.0
  3
*Paper_Space0
  1

  0
ENDBLK
  5
25
330
23
100
AcDbEntity
  8
0
100
AcDbBlockEnd
  0
BLOCK
  5
1F4
330
1F3
100
AcDbEntity
  8
0
100
AcDbBlockBegin
  2
_D
 70
     0
 10
0.0
 20
0.0
 30
0.0
  3
_D
  1

  0
SOLID
  5
1F6
330
1F3
100
AcDbEntity
  8
VERMASSUNG
100
AcDbTrace
 10
46.0349749283
 20
82.4285481712
 30
0.0
 11
46.4849749283
 21
85.4285481712
 31
0.0
 12
45.5849749283
 22
85.4285481712
 32
0.0
 13
45.5849749283
 23
85.4285481712
 33
0.0
  0
SOLID
  5
1F7
330
1F3
100
AcDbEntity
  8
VERMASSUNG
100
AcDbTrace
 10
46.0349749283
 20
145.9285481712
 30
0.0
 11
45.5849749283
 21
142.9285481712
 31
0.0
 12
46.4849749283
 22
142.9285481712
 32
0.0
 13
46.4849749283
 23
142.9285481712
 33
0.0
  0
LINE
  5
1F8
330
1F3
100
AcDbEntity
  8
VERMASSUNG
100
AcDbLine
 10
137.3961256638
 20
82.4285481712
 30
0.0
 11
45.0349749283
 21
82.4285481712
 31
0.0
  0
LINE
  5
1F9
330
1F3
100
AcDbEntity
  8
VERMASSUNG
100
AcDbLine
 10
137.3961256638
 20
145.9285481712
 30
0.0
 11
45.0349749283
 21
145.9285481712
 31
0.0
  0
LINE
  5
1FA
330
1F3
100
AcDbEntity
  8
VERMASSUNG
100
AcDbLine
 10
46.0349749283
 20
82.4285481712
 30
0.0
 11
46.0349749283
 21
145.9285481712
 31
0.0
  0
MTEXT
  5
1FB
330
1F3
100
AcDbEntity
  8
VERMASSUNG
100
AcDbMText
 10
43.2568396721
 20
104.7766902928
 30
0.0
 40
2.0
 41
0.0
 71
     1
 72
     1
  1
ISO 40
  7
SLDTEXTSTYLE0
 11
3.391901413832837E-15
 21
1.0
 31
0.0
 73
     1
 44
1.0
  0
MTEXT
  5
1FC
330
1F3
100
AcDbEntity
  8
VERMASSUNG
100
AcDbMText
 10
43.4568396233
 20
113.9766904969
 30
0.0
 40
2.0
 41
0.0
 71
     1
 72
     1
  1
%%c
  7
SLDTEXTSTYLE0
 11
3.391901413832837E-15
 21
1.0
 31
0.0
 73
     1
 44
1.0
  0
MTEXT
  5
1FD
330
1F3
100
AcDbEntity
  8
VERMASSUNG
100
AcDbMText
 10
43.4568393323
 20
117.5845708283
 30
0.0
 40
2.0
 41
0.0
 71
     1
 72
     1
  1
63.5
  7
SLDTEXTSTYLE0
 11
3.391901413832837E-15
 21
1.0
 31
0.0
 73
     1
 44
1.0
  0
MTEXT
  5
1FE
330
1F3
100
AcDbEntity
  8
VERMASSUNG
100
AcDbMText
 10
43.4568393323
 20
123.5700625894
 30
0.0
 40
2.0
 41
0.0
 71
     1
 72
     1
  1

  7
SLDTEXTSTYLE0
 11
3.391901413832837E-15
 21
1.0
 31
0.0
 73
     1
 44
1.0
  0
ENDBLK
  5
1F5
330
1F3
100
AcDbEntity
  8
0
100
AcDbBlockEnd
  0
BLOCK
  5
201
330
200
100
AcDbEntity
  8
0
100
AcDbBlockBegin
  2
_D_1
 70
     0
 10
0.0
 20
0.0
 30
0.0
  3
_D_1
  1

  0
SOLID
  5
203
330
200
100
AcDbEntity
  8
VERMASSUNG
100
AcDbTrace
 10
246.8034222529
 20
123.1785481712
 30
0.0
 11
246.3534222529
 21
120.1785481712
 31
0.0
 12
247.2534222529
 22
120.1785481712
 32
0.0
 13
247.2534222529
 23
120.1785481712
 33
0.0
  0
SOLID
  5
204
330
200
100
AcDbEntity
  8
VERMASSUNG
100
AcDbTrace
 10
246.8034222529
 20
105.1785481712
 30
0.0
 11
247.2534222529
 21
108.1785481712
 31
0.0
 12
246.3534222529
 22
108.1785481712
 32
0.0
 13
246.3534222529
 23
108.1785481712
 33
0.0
  0
LINE
  5
205
330
200
100
AcDbEntity
  8
VERMASSUNG
100
AcDbLine
 10
237.9461256638
 20
123.1785481712
 30
0.0
 11
247.8034222529
 21
123.1785481712
 31
0.0
  0
LINE
  5
206
330
200
100
AcDbEntity
  8
VERMASSUNG
100
AcDbLine
 10
237.9461256638
 20
105.1785481712
 30
0.0
 11
247.8034222529
 21
105.1785481712
 31
0.0
  0
LINE
  5
207
330
200
100
AcDbEntity
  8
VERMASSUNG
100
AcDbLine
 10
246.8034222529
 20
123.1785481712
 30
0.0
 11
246.8034222529
 21
105.1785481712
 31
0.0
  0
MTEXT
  5
208
330
200
100
AcDbEntity
  8
VERMASSUNG
100
AcDbMText
 10
244.225286948
 20
111.1735481071
 30
0.0
 40
2.0
 41
0.0
 71
     1
 72
     1
  1
%%c
  7
SLDTEXTSTYLE0
 11
-7.044195017643634E-15
 21
1.0
 31
0.0
 73
     1
 44
1.0
  0
MTEXT
  5
209
330
200
100
AcDbEntity
  8
VERMASSUNG
100
AcDbMText
 10
244.0252869967
 20
114.7835481214
 30
0.0
 40
2.0
 41
0.0
 71
     1
 72
     1
  1
18
  7
SLDTEXTSTYLE0
 11
-7.044195017643634E-15
 21
1.0
 31
0.0
 73
     1
 44
1.0
  0
ENDBLK
  5
202
330
200
100
AcDbEntity
  8
0
100
AcDbBlockEnd
  0
BLOCK
  5
20C
330
20B
100
AcDbEntity
  8
0
100
AcDbBlockBegin
  2
_D_2
 70
     0
 10
0.0
 20
0.0
 30
0.0
  3
_D_2
  1

  0
SOLID
  5
20E
330
20B
100
AcDbEntity
  8
VERMASSUNG
100
AcDbTrace
 10
252.8034222529
 20
130.1785481712
 30
0.0
 11
252.3534222529
 21
127.1785481712
 31
0.0
 12
253.2534222529
 22
127.1785481712
 32
0.0
 13
253.2534222529
 23
127.1785481712
 33
0.0
  0
SOLID
  5
20F
330
20B
100
AcDbEntity
  8
VERMASSUNG
100
AcDbTrace
 10
252.8034222529
 20
98.1785481712
 30
0.0
 11
253.2534222529
 21
101.1785481712
 31
0.0
 12
252.3534222529
 22
101.1785481712
 32
0.0
 13
252.3534222529
 23
101.1785481712
 33
0.0
  0
LINE
  5
210
330
20B
100
AcDbEntity
  8
VERMASSUNG
100
AcDbLine
 10
238.6461256638
 20
130.1785481712
 30
0.0
 11
253.8034222529
 21
130.1785481712
 31
0.0
  0
LINE
  5
211
330
20B
100
AcDbEntity
  8
VERMASSUNG
100
AcDbLine
 10
238.6461256638
 20
98.1785481712
 30
0.0
 11
253.8034222529
 21
98.1785481712
 31
0.0
  0
LINE
  5
212
330
20B
100
AcDbEntity
  8
VERMASSUNG
100
AcDbLine
 10
252.8034222529
 20
130.1785481712
 30
0.0
 11
252.8034222529
 21
98.1785481712
 31
0.0
  0
MTEXT
  5
213
330
20B
100
AcDbEntity
  8
VERMASSUNG
100
AcDbMText
 10
250.0252869967
 20
108.4735482699
 30
0.0
 40
2.0
 41
0.0
 71
     1
 72
     1
  1
WH
  7
SLDTEXTSTYLE0
 11
-7.044195017643634E-15
 21
1.0
 31
0.0
 73
     1
 44
1.0
  0
MTEXT
  5
214
330
20B
100
AcDbEntity
  8
VERMASSUNG
100
AcDbMText
 10
250.225286948
 20
113.4735481581
 30
0.0
 40
2.0
 41
0.0
 71
     1
 72
     1
  1
%%c
  7
SLDTEXTSTYLE0
 11
-7.044195017643634E-15
 21
1.0
 31
0.0
 73
     1
 44
1.0
  0
MTEXT
  5
215
330
20B
100
AcDbEntity
  8
VERMASSUNG
100
AcDbMText
 10
250.0252869967
 20
117.0835481724
 30
0.0
 40
2.0
 41
0.0
 71
     1
 72
     1
  1
32
  7
SLDTEXTSTYLE0
 11
-7.044195017643634E-15
 21
1.0
 31
0.0
 73
     1
 44
1.0
  0
ENDBLK
  5
20D
330
20B
100
AcDbEntity
  8
0
100
AcDbBlockEnd
  0
BLOCK
  5
218
330
217
100
AcDbEntity
  8
0
100
AcDbBlockBegin
  2
_D_3
 70
     0
 10
0.0
 20
0.0
 30
0.0
  3
_D_3
  1

  0
SOLID
  5
21A
330
217
100
AcDbEntity
  8
VERMASSUNG
100
AcDbTrace
 10
137.9961256638
 20
151.3818506608
 30
0.0
 11
140.9961256638
 21
150.9318506608
 31
0.0
 12
140.9961256638
 22
151.8318506608
 32
0.0
 13
140.9961256638
 23
151.8318506608
 33
0.0
  0
SOLID
  5
21B
330
217
100
AcDbEntity
  8
VERMASSUNG
100
AcDbTrace
 10
238.9461256638
 20
151.3818506608
 30
0.0
 11
235.9461256638
 21
151.8318506608
 31
0.0
 12
235.9461256638
 22
150.9318506608
 32
0.0
 13
235.9461256638
 23
150.9318506608
 33
0.0
  0
LINE
  5
21C
330
217
100
AcDbEntity
  8
VERMASSUNG
100
AcDbLine
 10
137.9961256638
 20
144.1890993047
 30
0.0
 11
137.9961256638
 21
152.3818506608
 31
0.0
  0
LINE
  5
21D
330
217
100
AcDbEntity
  8
VERMASSUNG
100
AcDbLine
 10
238.9461256638
 20
129.8785481712
 30
0.0
 11
238.9461256638
 21
152.3818506608
 31
0.0
  0
LINE
  5
21E
330
217
100
AcDbEntity
  8
VERMASSUNG
100
AcDbLine
 10
137.9961256638
 20
151.3818506608
 30
0.0
 11
238.9461256638
 21
151.3818506608
 31
0.0
  0
MTEXT
  5
21F
330
217
100
AcDbEntity
  8
VERMASSUNG
100
AcDbMText
 10
184.8711257256
 20
153.9599862568
 30
0.0
 40
2.0
 41
0.0
 71
     1
 72
     1
  1
100.95
  7
SLDTEXTSTYLE0
 73
     1
 44
1.0
  0
ENDBLK
  5
219
330
217
100
AcDbEntity
  8
0
100
AcDbBlockEnd
  0
BLOCK
  5
222
330
221
100
AcDbEntity
  8
0
100
AcDbBlockBegin
  2
_D_4
 70
     0
 10
0.0
 20
0.0
 30
0.0
  3
_D_4
  1

  0
SOLID
  5
224
330
221
100
AcDbEntity
  8
VERMASSUNG
100
AcDbTrace
 10
238.9461256638
 20
157.3818506608
 30
0.0
 11
235.9461256638
 21
157.8318506608
 31
0.0
 12
235.9461256638
 22
156.9318506608
 32
0.0
 13
235.9461256638
 23
156.9318506608
 33
0.0
  0
SOLID
  5
225
330
221
100
AcDbEntity
  8
VERMASSUNG
100
AcDbTrace
 10
118.9461256638
 20
157.3818506608
 30
0.0
 11
121.9461256638
 21
156.9318506608
 31
0.0
 12
121.9461256638
 22
157.8318506608
 32
0.0
 13
121.9461256638
 23
157.8318506608
 33
0.0
  0
LINE
  5
226
330
221
100
AcDbEntity
  8
VERMASSUNG
100
AcDbLine
 10
238.9461256638
 20
129.8785481712
 30
0.0
 11
238.9461256638
 21
158.3818506608
 31
0.0
  0
LINE
  5
227
330
221
100
AcDbEntity
  8
VERMASSUNG
100
AcDbLine
 10
118.9461256638
 20
136.4035481712
 30
0.0
 11
118.9461256638
 21
158.3818506608
 31
0.0
  0
LINE
  5
228
330
221
100
AcDbEntity
  8
VERMASSUNG
100
AcDbLine
 10
238.9461256638
 20
157.3818506608
 30
0.0
 11
118.9461256638
 21
157.3818506608
 31
0.0
  0
MTEXT
  5
229
330
221
100
AcDbEntity
  8
VERMASSUNG
100
AcDbMText
 10
177.0461256317
 20
159.9599862568
 30
0.0
 40
2.0
 41
0.0
 71
     1
 72
     1
  1
120
  7
SLDTEXTSTYLE0
 73
     1
 44
1.0
  0
ENDBLK
  5
223
330
221
100
AcDbEntity
  8
0
100
AcDbBlockEnd
  0
BLOCK
  5
22C
330
22B
100
AcDbEntity
  8
0
100
AcDbBlockBegin
  2
_D_5
 70
     0
 10
0.0
 20
0.0
 30
0.0
  3
_D_5
  1

  0
SOLID
  5
22E
330
22B
100
AcDbEntity
  8
VERMASSUNG
100
AcDbTrace
 10
238.9461256638
 20
163.3818506608
 30
0.0
 11
235.9461256638
 21
163.8318506608
 31
0.0
 12
235.9461256638
 22
162.9318506608
 32
0.0
 13
235.9461256638
 23
162.9318506608
 33
0.0
  0
SOLID
  5
22F
330
22B
100
AcDbEntity
  8
VERMASSUNG
100
AcDbTrace
 10
50.6961256638
 20
163.3818506608
 30
0.0
 11
53.6961256638
 21
162.9318506608
 31
0.0
 12
53.6961256638
 22
163.8318506608
 32
0.0
 13
53.6961256638
 23
163.8318506608
 33
0.0
  0
LINE
  5
230
330
22B
100
AcDbEntity
  8
VERMASSUNG
100
AcDbLine
 10
238.9461256638
 20
129.8785481712
 30
0.0
 11
238.9461256638
 21
164.3818506608
 31
0.0
  0
LINE
  5
231
330
22B
100
AcDbEntity
  8
VERMASSUNG
100
AcDbLine
 10
50.6961256638
 20
125.5856787683
 30
0.0
 11
50.6961256638
 21
164.3818506608
 31
0.0
  0
LINE
  5
232
330
22B
100
AcDbEntity
  8
VERMASSUNG
100
AcDbLine
 10
238.9461256638
 20
163.3818506608
 30
0.0
 11
50.6961256638
 21
163.3818506608
 31
0.0
  0
MTEXT
  5
233
330
22B
100
AcDbEntity
  8
VERMASSUNG
100
AcDbMText
 10
141.2211257256
 20
165.9599862568
 30
0.0
 40
2.0
 41
0.0
 71
     1
 72
     1
  1
188.25
  7
SLDTEXTSTYLE0
 73
     1
 44
1.0
  0
ENDBLK
  5
22D
330
22B
100
AcDbEntity
  8
0
100
AcDbBlockEnd
  0
ENDSEC
  0
SECTION
  2
ENTITIES
  0
MTEXT
  5
78
330
1F
100
AcDbEntity
  8
KOPF_DÜNN
100
AcDbMText
 10
13.8892156294
 20
23.8442973028
 30
0.0
 40
3.0
 41
0.0
 71
     1
 72
     1
  1
A14.440.032.120
  7
SLDTEXTSTYLE0
 73
     1
 44
1.0
  0
MTEXT
  5
79
330
1F
100
AcDbEntity
  8
VERMASSUNG
100
AcDbMText
 10
13.9329988022
 20
28.8834360957
 30
0.0
 40
3.0
 41
0.0
 71
     1
 72
     1
  1
Aufnahme_Master shank WH40
  7
SLDTEXTSTYLE0
 73
     1
 44
1.0
  0
MTEXT
  5
7A
330
1F
100
AcDbEntity
  8
VERMASSUNG
100
AcDbMText
 10
98.8601118557
 20
13.8365368761
 30
0.0
 40
2.0
 41
0.0
 71
     1
 72
     1
  1
Datum: 19.10.2011
  7
SLDTEXTSTYLE0
 73
     1
 44
1.0
  0
MTEXT
  5
7B
330
1F
100
AcDbEntity
  8
VERMASSUNG
100
AcDbMText
 10
13.933048693
 20
18.0482802738
 30
0.0
 40
2.0
 41
0.0
 71
     1
 72
     1
  1
DIN 69871 AD/B
  7
SLDTEXTSTYLE0
 73
     1
 44
1.0
  0
MTEXT
  5
7C
330
1F
100
AcDbEntity
  8
VERMASSUNG
100
AcDbMText
 10
13.9808475933
 20
13.9090974274
 30
0.0
 40
2.0
 41
0.0
 71
     1
 72
     1
  1
Gewicht: 1387g
  7
SLDTEXTSTYLE0
 73
     1
 44
1.0
  0
ARC
  5
7D
330
1F
100
AcDbEntity
  8
0
  6
Continuous
 62
     7
370
    15
100
AcDbCircle
 10
121.5461256638
 20
91.3535481712
 30
0.0
 40
0.6000000000000085
100
AcDbArc
 50
0.0
 51
90.0
  0
ARC
  5
7E
330
1F
100
AcDbEntity
  8
0
  6
Continuous
 62
     7
370
    15
100
AcDbCircle
 10
121.5461256638
 20
137.0035481712
 30
0.0
 40
0.6000000000000227
100
AcDbArc
 50
270.0
 51
0.0
  0
LINE
  5
7F
330
1F
100
AcDbEntity
  8
0
  6
Continuous
 62
     7
370
    15
100
AcDbLine
 10
118.9461256638
 20
136.4035481355
 30
0.0
 11
51.5518169179
 21
126.5752115986
 31
0.0
  0
LINE
  5
80
330
1F
100
AcDbEntity
  8
0
  6
Continuous
 62
     7
370
    15
100
AcDbLine
 10
51.5518169179
 20
101.7818847439
 30
0.0
 11
118.9461256638
 21
91.953548207
 31
0.0
  0
LINE
  5
81
330
1F
100
AcDbEntity
  8
0
  6
Continuous
 62
     7
370
    15
100
AcDbLine
 10
118.9461256638
 20
91.953548207
 30
0.0
 11
121.5461256708
 21
91.953548207
 31
0.0
  0
LINE
  5
82
330
1F
100
AcDbEntity
  8
0
  6
Continuous
 62
     7
370
    15
100
AcDbLine
 10
121.5461256708
 20
136.4035481355
 30
0.0
 11
118.9461256638
 21
136.4035481355
 31
0.0
  0
ARC
  5
83
330
1F
100
AcDbEntity
  8
0
  6
Continuous
 62
     7
370
    15
100
AcDbCircle
 10
140.9961256638
 20
95.1785481712
 30
0.0
 40
3.0
100
AcDbArc
 50
90.0
 51
180.0
  0
ARC
  5
84
330
1F
100
AcDbEntity
  8
0
  6
Continuous
 62
     7
370
    15
100
AcDbCircle
 10
140.9961256638
 20
133.1785481712
 30
0.0
 40
3.0
100
AcDbArc
 50
180.0
 51
270.0
  0
LINE
  5
85
330
1F
100
AcDbEntity
  8
0
  6
Continuous
 62
     7
370
    15
100
AcDbLine
 10
238.6461253538
 20
98.1785474113
 30
0.0
 11
238.9461229816
 21
98.4785487643
 31
0.0
  0
LINE
  5
86
330
1F
100
AcDbEntity
  8
0
  6
Continuous
 62
     7
370
    15
100
AcDbLine
 10
238.9461229816
 20
129.8785475782
 30
0.0
 11
238.6461253538
 21
130.1785489312
 31
0.0
  0
LINE
  5
87
330
1F
100
AcDbEntity
  8
0
  6
Continuous
 62
     7
370
    15
100
AcDbLine
 10
221.6667588129
 20
130.1785489312
 30
0.0
 11
140.9961263909
 21
130.1785489312
 31
0.0
  0
LINE
  5
88
330
1F
100
AcDbEntity
  8
0
  6
Continuous
 62
     7
370
    15
100
AcDbLine
 10
238.6461253538
 20
130.1785489312
 30
0.0
 11
232.0865298882
 21
130.1785489312
 31
0.0
  0
LINE
  5
89
330
1F
100
AcDbEntity
  8
0
  6
Continuous
 62
     7
370
    15
100
AcDbLine
 10
140.9961263909
 20
98.1785474113
 30
0.0
 11
238.6461253538
 21
98.1785474113
 31
0.0
  0
ARC
  5
8A
330
1F
100
AcDbEntity
  8
0
  6
Continuous
 62
     7
370
    15
100
AcDbCircle
 10
51.6961256638
 20
102.7714175742
 30
0.0
 40
0.9999999999999949
100
AcDbArc
 50
180.0
 51
261.7028550302
  0
ARC
  5
8B
330
1F
100
AcDbEntity
  8
0
  6
Continuous
 62
     7
370
    15
100
AcDbCircle
 10
51.6961256638
 20
125.5856787683
 30
0.0
 40
1.000000000000009
100
AcDbArc
 50
98.2971449698
 51
180.0
  0
ARC
  5
8C
330
1F
100
AcDbEntity
  8
0
  6
Continuous
 62
     7
370
    15
100
AcDbCircle
 10
131.9461256638
 20
105.4570345164
 30
0.0
 40
1.500000000000034
100
AcDbArc
 50
191.5274417158
 51
336.6037645748
  0
LINE
  5
8D
330
1F
100
AcDbEntity
  8
0
  6
Continuous
 62
     7
370
    15
100
AcDbLine
 10
133.5679627284
 20
104.4265279314
 30
0.0
 11
133.5679627284
 21
132.5285477331
 31
0.0
  0
LINE
  5
8E
330
1F
100
AcDbEntity
  8
0
  6
Continuous
 62
     7
370
    15
100
AcDbLine
 10
137.3961250558
 20
132.5285477331
 30
0.0
 11
133.5679627284
 21
132.5285477331
 31
0.0
  0
LINE
  5
8F
330
1F
100
AcDbEntity
  8
0
  6
Continuous
 62
     7
370
    15
100
AcDbLine
 10
133.5679627284
 20
83.7304560235
 30
0.0
 11
137.3961250558
 21
83.7304560235
 31
0.0
  0
LINE
  5
90
330
1F
100
AcDbEntity
  8
0
  6
Continuous
 62
     7
370
    15
100
AcDbLine
 10
133.5679627284
 20
83.7304560235
 30
0.0
 11
133.5679627284
 21
102.2270485526
 31
0.0
  0
SPLINE
  5
91
330
1F
100
AcDbEntity
  8
0
  6
Continuous
 62
     7
370
    15
100
AcDbSpline
210
0.0
220
0.0
230
1.0
 70
     8
 71
     3
 72
    12
 73
     8
 74
     0
 42
0.000000001
 43
0.00000001
 40
0.0
 40
0.0
 40
0.0
 40
0.0
 40
0.2499999999999997
 40
0.2499999999999997
 40
0.4999999999999993
 40
0.4999999999999993
 40
1.0
 40
1.0
 40
1.0
 40
1.0
 10
133.5679623058191
 20
102.2270483730255
 30
0.0
 10
133.6909097996146
 20
102.3850052217206
 30
0.0
 10
133.7844540027235
 20
102.5568385886981
 30
0.0
 10
133.9133933918857
 20
102.928511298344
 30
0.0
 10
133.9459461492709
 20
103.1216997445352
 30
0.0
 10
133.9464824910047
 20
103.7099962828114
 30
0.0
 10
133.8138588340367
 20
104.1020145207002
 30
0.0
 10
133.5679623058191
 20
104.4265281034089
 30
0.0
  0
LINE
  5
92
330
1F
100
AcDbEntity
  8
0
  6
Continuous
 62
     7
370
    15
100
AcDbLine
 10
122.7461257278
 20
83.7304560235
 30
0.0
 11
126.5242890715
 21
83.7304560235
 31
0.0
  0
LINE
  5
93
330
1F
100
AcDbEntity
  8
0
  6
Continuous
 62
     7
370
    15
100
AcDbLine
 10
126.5242890715
 20
132.5285477331
 30
0.0
 11
122.7461257278
 21
132.5285477331
 31
0.0
  0
LINE
  5
94
330
1F
100
AcDbEntity
  8
0
  6
Continuous
 62
     7
370
    15
100
AcDbLine
 10
126.5242890715
 20
83.7304560235
 30
0.0
 11
126.5242890715
 21
132.5285477331
 31
0.0
  0
SPLINE
  5
95
330
1F
100
AcDbEntity
  8
0
  6
Continuous
 62
     7
370
    15
100
AcDbSpline
210
0.0
220
0.0
230
1.0
 70
     8
 71
     3
 72
     8
 73
     4
 74
     0
 42
0.000000001
 43
0.00000001
 40
0.0
 40
0.0
 40
0.0
 40
0.0
 40
1.0
 40
1.0
 40
1.0
 40
1.0
 10
128.1361256637624
 20
86.3617217117311
 30
0.0
 10
127.751990915178
 20
85.66908028978689
 30
0.0
 10
127.3670046386851
 20
84.9768941154632
 30
0.0
 10
126.9813360600587
 20
84.285099824619
 30
0.0
  0
SPLINE
  5
96
330
1F
100
AcDbEntity
  8
0
  6
Continuous
 62
     7
370
    15
100
AcDbSpline
210
0.0
220
0.0
230
1.0
 70
     8
 71
     3
 72
     8
 73
     4
 74
     0
 42
0.000000001
 43
0.00000001
 40
0.0
 40
0.0
 40
0.0
 40
0.0
 40
0.0011901715795577
 40
0.0011901715795577
 40
0.0011901715795577
 40
0.0011901715795577
 10
126.5242890217057
 20
83.73045582259586
 30
0.0
 10
126.6781352112016
 20
83.91502106027944
 30
0.0
 10
126.8305304788742
 20
84.09989642080807
 30
0.0
 10
126.9813360600587
 20
84.285099824619
 30
0.0
  0
SPLINE
  5
97
330
1F
100
AcDbEntity
  8
0
  6
Continuous
 62
     7
370
    15
100
AcDbSpline
210
0.0
220
0.0
230
1.0
 70
    24
 71
     3
 72
     8
 73
     4
 74
     0
 42
0.000000001
 43
0.00000001
 40
0.0
 40
0.0
 40
0.0
 40
0.0
 40
1.0
 40
1.0
 40
1.0
 40
1.0
 10
128.1361256637624
 20
132.5285481712326
 30
0.0
 10
127.6113931754005
 20
132.5285481712326
 30
0.0
 10
127.0727176911817
 20
132.5285481712326
 30
0.0
 10
126.5242890217057
 20
132.5285481712326
 30
0.0
  0
LINE
  5
98
330
1F
100
AcDbEntity
  8
0
  6
Continuous
 62
     7
370
    15
100
AcDbLine
 10
128.1361253261
 20
86.3617216936
 30
0.0
 11
128.1361253261
 21
132.5285477331
 31
0.0
  0
SPLINE
  5
99
330
1F
100
AcDbEntity
  8
0
  6
Continuous
 62
     7
370
    15
100
AcDbSpline
210
0.0
220
0.0
230
1.0
 70
     8
 71
     3
 72
    12
 73
     8
 74
     0
 42
0.000000001
 43
0.00000001
 40
0.0
 40
0.0
 40
0.0
 40
0.0
 40
0.250000000000001
 40
0.250000000000001
 40
0.500000000000002
 40
0.500000000000002
 40
1.0
 40
1.0
 40
1.0
 40
1.0
 10
137.3961256637624
 20
83.73045582259586
 30
0.0
 10
137.4916675738984
 20
83.73045582259586
 30
0.0
 10
137.5838125157611
 20
83.74670949179206
 30
0.0
 10
137.7401387923711
 20
83.80031791270554
 30
0.0
 10
137.803806934991
 20
83.83672903798723
 30
0.0
 10
137.9526747804214
 20
83.95885267767372
 30
0.0
 10
137.9961256637624
 20
84.05400535311075
 30
0.0
 10
137.9961256637624
 20
84.14963180873045
 30
0.0
  0
SPLINE
  5
9A
330
1F
100
AcDbEntity
  8
0
  6
Continuous
 62
     7
370
    15
100
AcDbSpline
210
0.0
220
0.0
230
1.0
 70
    24
 71
     3
 72
    12
 73
     8
 74
     0
 42
0.000000001
 43
0.00000001
 40
0.0
 40
0.0
 40
0.0
 40
0.0
 40
0.5000000000000011
 40
0.5000000000000011
 40
0.7500000000000006
 40
0.7500000000000006
 40
1.0
 40
1.0
 40
1.0
 40
1.0
 10
137.9961256637624
 20
132.5285481712326
 30
0.0
 10
137.9961256637624
 20
132.5285481712326
 30
0.0
 10
137.9464456688073
 20
132.5285481712326
 30
0.0
 10
137.7905271117898
 20
132.5285481712326
 30
0.0
 10
137.7246460472137
 20
132.5285481712326
 30
0.0
 10
137.5720003917249
 20
132.5285481712326
 30
0.0
 10
137.484750483864
 20
132.5285481712326
 30
0.0
 10
137.3961256637623
 20
132.5285481712326
 30
0.0
  0
LINE
  5
9B
330
1F
100
AcDbEntity
  8
0
  6
Continuous
 62
     7
370
    15
100
AcDbLine
 10
137.9961258992
 20
84.1496312758
 30
0.0
 11
137.9961258992
 21
132.5285477331
 31
0.0
  0
SPLINE
  5
9C
330
1F
100
AcDbEntity
  8
0
  6
Continuous
 62
     7
370
    15
100
AcDbSpline
210
0.0
220
0.0
230
1.0
 70
     8
 71
     3
 72
    10
 73
     6
 74
     0
 42
0.000000001
 43
0.00000001
 40
0.0
 40
0.0
 40
0.0
 40
0.0
 40
0.5
 40
0.5
 40
1.0
 40
1.0
 40
1.0
 40
1.0
 10
122.3622702051096
 20
83.8268183217643
 30
0.0
 10
122.4110401780909
 20
83.79859031455631
 30
0.0
 10
122.4684923013933
 20
83.77449571031471
 30
0.0
 10
122.599089204382
 20
83.74023223722217
 30
0.0
 10
122.6715788842242
 20
83.73045582259584
 30
0.0
 10
122.7461256637624
 20
83.73045582259584
 30
0.0
  0
SPLINE
  5
9D
330
1F
100
AcDbEntity
  8
0
  6
Continuous
 62
     7
370
    15
100
AcDbSpline
210
0.0
220
0.0
230
1.0
 70
     8
 71
     3
 72
    10
 73
     6
 74
     0
 42
0.000000001
 43
0.00000001
 40
0.0
 40
0.0
 40
0.0
 40
0.0
 40
0.5
 40
0.5
 40
1.0
 40
1.0
 40
1.0
 40
1.0
 10
122.3622702051096
 20
83.8268183217643
 30
0.0
 10
122.3041475450335
 20
83.89412348162611
 30
0.0
 10
122.25174437903
 20
83.97420886865976
 30
0.0
 10
122.1728413574836
 20
84.15822831034853
 30
0.0
 10
122.1461256637624
 20
84.26343966776899
 30
0.0
 10
122.1461256637624
 20
84.37217301422965
 30
0.0
  0
LINE
  5
9E
330
1F
100
AcDbEntity
  8
0
  6
Continuous
 62
     7
370
    15
100
AcDbLine
 10
122.1461255829
 20
84.3721726677
 30
0.0
 11
122.1461255829
 21
132.5285477331
 31
0.0
  0
SPLINE
  5
9F
330
1F
100
AcDbEntity
  8
0
  6
Continuous
 62
     7
370
    15
100
AcDbSpline
210
0.0
220
0.0
230
1.0
 70
    24
 71
     3
 72
    12
 73
     8
 74
     0
 42
0.000000001
 43
0.00000001
 40
0.0
 40
0.0
 40
0.0
 40
0.0
 40
0.25
 40
0.25
 40
0.5
 40
0.5
 40
1.0
 40
1.0
 40
1.0
 40
1.0
 10
122.7461256637624
 20
132.5285481712326
 30
0.0
 10
122.6577102864519
 20
132.5285481712326
 30
0.0
 10
122.5704398492813
 20
132.5285481712326
 30
0.0
 10
122.4179761245095
 20
132.5285481712326
 30
0.0
 10
122.3523375122871
 20
132.5285481712326
 30
0.0
 10
122.1956791110031
 20
132.5285481712326
 30
0.0
 10
122.1461256637624
 20
132.5285481712326
 30
0.0
 10
122.1461256637624
 20
132.5285481712326
 30
0.0
  0
LINE
  5
A0
330
1F
100
AcDbEntity
  8
0
  6
Continuous
 62
     7
370
    15
100
AcDbLine
 10
131.9561255425
 20
106.1772653601
 30
0.0
 11
131.9561255425
 21
132.5285477331
 31
0.0
  0
SPLINE
  5
A1
330
1F
100
AcDbEntity
  8
0
  6
Continuous
 62
     7
370
    15
100
AcDbSpline
210
0.0
220
0.0
230
1.0
 70
    24
 71
     3
 72
     8
 73
     4
 74
     0
 42
0.000000001
 43
0.00000001
 40
0.0
 40
0.0
 40
0.0
 40
0.0
 40
1.0
 40
1.0
 40
1.0
 40
1.0
 10
133.5679623058191
 20
132.5285481712326
 30
0.0
 10
133.0195336363431
 20
132.5285481712326
 30
0.0
 10
132.4808581521243
 20
132.5285481712326
 30
0.0
 10
131.9561256637624
 20
132.5285481712326
 30
0.0
  0
SPLINE
  5
A2
330
1F
100
AcDbEntity
  8
0
  6
Continuous
 62
     7
370
    15
100
AcDbSpline
210
0.0
220
0.0
230
1.0
 70
     8
 71
     3
 72
    12
 73
     8
 74
     0
 42
0.000000001
 43
0.00000001
 40
0.0
 40
0.0
 40
0.0
 40
0.0
 40
0.2499999999999992
 40
0.2499999999999992
 40
0.4999999999999984
 40
0.4999999999999984
 40
1.0
 40
1.0
 40
1.0
 40
1.0
 10
133.5679623058191
 20
104.4265281034088
 30
0.0
 10
133.4530662545585
 20
104.6462685384654
 30
0.0
 10
133.3263002380858
 20
104.8432368900872
 30
0.0
 10
133.0660853044672
 20
105.1969544629261
 30
0.0
 10
132.932577846505
 20
105.3537797567983
 30
0.0
 10
132.5241795779168
 20
105.780322327706
 30
0.0
 10
132.2405264429793
 20
106.0070145066612
 30
0.0
 10
131.9561256637625
 20
106.1772656510567
 30
0.0
  0
SPLINE
  5
A3
330
1F
100
AcDbEntity
  8
0
  6
Continuous
 62
     7
370
    15
100
AcDbSpline
210
0.0
220
0.0
230
1.0
 70
     8
 71
     3
 72
    14
 73
    10
 74
     0
 42
0.000000001
 43
0.00000001
 40
0.0
 40
0.0
 40
0.0
 40
0.0
 40
0.2499999999999995
 40
0.2499999999999995
 40
0.4999999999999997
 40
0.4999999999999997
 40
0.7499999999999998
 40
0.7499999999999998
 40
1.0
 40
1.0
 40
1.0
 40
1.0
 10
131.9561256637624
 20
106.2315093009029
 30
0.0
 10
131.9561256637624
 20
106.2681601690667
 30
0.0
 10
131.9347978750505
 20
106.3046269663156
 30
0.0
 10
131.8523394723939
 20
106.3697658208565
 30
0.0
 10
131.7912232805388
 20
106.3978369514474
 30
0.0
 10
131.6399201874766
 20
106.4316648331743
 30
0.0
 10
131.5485421640861
 20
106.4371279745708
 30
0.0
 10
131.3561684510332
 20
106.4162020565582
 30
0.0
 10
131.2539881115542
 20
106.3896666311829
 30
0.0
 10
131.1561256637623
 20
106.3491804579016
 30
0.0
  0
SPLINE
  5
A4
330
1F
100
AcDbEntity
  8
0
  6
Continuous
 62
     7
370
    15
100
AcDbSpline
210
0.0
220
0.0
230
1.0
 70
     8
 71
     3
 72
    12
 73
     8
 74
     0
 42
0.000000001
 43
0.00000001
 40
0.0
 40
0.0
 40
0.0
 40
0.0
 40
0.499999999999999
 40
0.499999999999999
 40
0.7499999999999994
 40
0.7499999999999994
 40
1.0
 40
1.0
 40
1.0
 40
1.0
 10
131.9561256637624
 20
102.4185421528356
 30
0.0
 10
132.2403321983277
 20
102.2510779905419
 30
0.0
 10
132.5190279324315
 20
102.1394408910303
 30
0.0
 10
132.9283739756207
 20
102.0721276253909
 30
0.0
 10
133.0645133129403
 20
102.0669765853769
 30
0.0
 10
133.3258333619363
 20
102.1047425229963
 30
0.0
 10
133.4512545443681
 20
102.1462922813406
 30
0.0
 10
133.5679623058195
 20
102.2270483730234
 30
0.0
  0
LINE
  5
A5
330
1F
100
AcDbEntity
  8
0
  6
Continuous
 62
     7
370
    15
100
AcDbLine
 10
131.9561255425
 20
102.4727854645
 30
0.0
 11
131.9561255425
 21
102.4185424438
 31
0.0
  0
SPLINE
  5
A6
330
1F
100
AcDbEntity
  8
0
  6
Continuous
 62
     7
370
    15
100
AcDbSpline
210
0.0
220
0.0
230
1.0
 70
     8
 71
     3
 72
    14
 73
    10
 74
     0
 42
0.000000001
 43
0.00000001
 40
0.0
 40
0.0
 40
0.0
 40
0.0
 40
0.25
 40
0.25
 40
0.5
 40
0.5
 40
0.75
 40
0.75
 40
1.0
 40
1.0
 40
1.0
 40
1.0
 10
131.1561256637588
 20
102.8960689811258
 30
0.0
 10
131.2535350837426
 20
102.8576542617316
 30
0.0
 10
131.3558593267562
 20
102.8199538569488
 30
0.0
 10
131.5478610122937
 20
102.7489090713547
 30
0.0
 10
131.6392956419482
 20
102.7147076099967
 30
0.0
 10
131.7910745092432
 20
102.6477111845913
 30
0.0
 10
131.8520513991577
 20
102.6145697162818
 30
0.0
 10
131.9350693377221
 20
102.5448921486317
 30
0.0
 10
131.9561256637624
 20
102.5091584374645
 30
0.0
 10
131.9561256637624
 20
102.4727858026837
 30
0.0
  0
SPLINE
  5
A7
330
1F
100
AcDbEntity
  8
0
  6
Continuous
 62
     7
370
    15
100
AcDbSpline
210
0.0
220
0.0
230
1.0
 70
     8
 71
     3
 72
    22
 73
    18
 74
     0
 42
0.000000001
 43
0.00000001
 40
0.0
 40
0.0
 40
0.0
 40
0.0
 40
0.125
 40
0.125
 40
0.25
 40
0.25
 40
0.375
 40
0.375
 40
0.5
 40
0.5
 40
0.625
 40
0.625
 40
0.75
 40
0.75
 40
0.875
 40
0.875
 40
1.0
 40
1.0
 40
1.0
 40
1.0
 10
131.1561256637624
 20
106.3491804579016
 30
0.0
 10
130.9761089691931
 20
106.2747066709251
 30
0.0
 10
130.8116771473228
 20
106.1772574089411
 30
0.0
 10
130.5132809135644
 20
105.937887975377
 30
0.0
 10
130.3829771861996
 20
105.7979913633066
 30
0.0
 10
130.1697584025806
 20
105.4897397732466
 30
0.0
 10
130.086130545469
 20
105.3195765551275
 30
0.0
 10
129.9749996685507
 20
104.9690818203372
 30
0.0
 10
129.9461636736969
 20
104.783956859186
 30
0.0
 10
129.9460877310371
 20
104.4207499845689
 30
0.0
 10
129.9747463564642
 20
104.2373799708614
 30
0.0
 10
130.0858974495765
 20
103.8914888583682
 30
0.0
 10
130.1689645702203
 20
103.7259693311008
 30
0.0
 10
130.3826505283386
 20
103.4254295936969
 30
0.0
 10
130.5116575182627
 20
103.2915576724129
 30
0.0
 10
130.8112667977518
 20
103.0603109030086
 30
0.0
 10
130.9761094960129
 20
102.9670607863486
 30
0.0
 10
131.1561256637624
 20
102.8960689811244
 30
0.0
  0
SPLINE
  5
A8
330
1F
100
AcDbEntity
  8
0
  6
Continuous
 62
     7
370
    15
100
AcDbSpline
210
0.0
220
0.0
230
1.0
 70
     8
 71
     3
 72
     8
 73
     4
 74
     0
 42
0.000000001
 43
0.00000001
 40
0.0
 40
0.0
 40
0.0
 40
0.0
 40
0.0011901715795577
 40
0.0011901715795577
 40
0.0011901715795577
 40
0.0011901715795577
 10
133.1109152674661
 20
84.285099824619
 30
0.0
 10
133.2617208486505
 20
84.09989642080807
 30
0.0
 10
133.4141161163232
 20
83.91502106027944
 30
0.0
 10
133.5679623058191
 20
83.73045582259586
 30
0.0
  0
SPLINE
  5
A9
330
1F
100
AcDbEntity
  8
0
  6
Continuous
 62
     7
370
    15
100
AcDbSpline
210
0.0
220
0.0
230
1.0
 70
     8
 71
     3
 72
     8
 73
     4
 74
     0
 42
0.000000001
 43
0.00000001
 40
0.0
 40
0.0
 40
0.0
 40
0.0
 40
1.0
 40
1.0
 40
1.0
 40
1.0
 10
133.1109152674661
 20
84.285099824619
 30
0.0
 10
132.7252466888397
 20
84.97689411546318
 30
0.0
 10
132.3402604123467
 20
85.66908028978689
 30
0.0
 10
131.9561256637624
 20
86.36172171173108
 30
0.0
  0
LINE
  5
AA
330
1F
100
AcDbEntity
  8
0
  6
Continuous
 62
     7
370
    15
100
AcDbLine
 10
131.9561255425
 20
86.3617216936
 30
0.0
 11
131.9561255425
 21
102.4185424438
 31
0.0
  0
SPLINE
  5
AB
330
1F
100
AcDbEntity
  8
0
  6
Continuous
 62
     7
370
    15
100
AcDbSpline
210
0.0
220
0.0
230
1.0
 70
    24
 71
     3
 72
    14
 73
    10
 74
     0
 42
0.000000001
 43
0.00000001
 40
0.0
 40
0.0
 40
0.0
 40
0.0
 40
0.25
 40
0.25
 40
0.5
 40
0.5
 40
0.75
 40
0.75
 40
1.0
 40
1.0
 40
1.0
 40
1.0
 10
131.9561256637624
 20
132.5285481712326
 30
0.0
 10
131.9561256637624
 20
132.5285481712326
 30
0.0
 10
131.9400440623026
 20
132.5285481712326
 30
0.0
 10
131.8745525490357
 20
132.5285481712326
 30
0.0
 10
131.8252445759084
 20
132.5285481712326
 30
0.0
 10
131.6906750542114
 20
132.5285481712326
 30
0.0
 10
131.6051519781261
 20
132.5285481712326
 30
0.0
 10
131.3981564825711
 20
132.5285481712326
 30
0.0
 10
131.2774628486275
 20
132.5285481712326
 30
0.0
 10
131.1561256637624
 20
132.5285481712326
 30
0.0
  0
SPLINE
  5
AC
330
1F
100
AcDbEntity
  8
0
  6
Continuous
 62
     7
370
    15
100
AcDbSpline
210
0.0
220
0.0
230
1.0
 70
     8
 71
     3
 72
    12
 73
     8
 74
     0
 42
0.000000001
 43
0.00000001
 40
0.0
 40
0.0
 40
0.0
 40
0.0
 40
0.2500000000000015
 40
0.2500000000000015
 40
0.500000000000003
 40
0.500000000000003
 40
1.0
 40
1.0
 40
1.0
 40
1.0
 10
128.9361256637624
 20
87.36069031494581
 30
0.0
 10
128.8297238134049
 20
87.36069031494583
 30
0.0
 10
128.7224084020084
 20
87.33791955092732
 30
0.0
 10
128.5269368109811
 20
87.25167660427522
 30
0.0
 10
128.4367546950436
 20
87.18700028380468
 30
0.0
 10
128.2185332083228
 20
86.95407095974787
 30
0.0
 10
128.136125663762
 20
86.73948572185685
 30
0.0
 10
128.1361256637624
 20
86.52646868342413
 30
0.0
  0
SPLINE
  5
AD
330
1F
100
AcDbEntity
  8
0
  6
Continuous
 62
     7
370
    15
100
AcDbSpline
210
0.0
220
0.0
230
1.0
 70
    24
 71
     3
 72
    14
 73
    10
 74
     0
 42
0.000000001
 43
0.00000001
 40
0.0
 40
0.0
 40
0.0
 40
0.0
 40
0.1250000000000007
 40
0.1250000000000007
 40
0.2500000000000014
 40
0.2500000000000014
 40
0.499999999999999
 40
0.499999999999999
 40
1.0
 40
1.0
 40
1.0
 40
1.0
 10
128.9361256637624
 20
132.5285481712326
 30
0.0
 10
128.8755083403448
 20
132.5285481712326
 30
0.0
 10
128.8133831922098
 20
132.5285481712326
 30
0.0
 10
128.6971655291883
 20
132.5285481712326
 30
0.0
 10
128.6425488894959
 20
132.5285481712326
 30
0.0
 10
128.4878725509878
 20
132.5285481712326
 30
0.0
 10
128.4017558022037
 20
132.5285481712326
 30
0.0
 10
128.2004482216631
 20
132.5285481712326
 30
0.0
 10
128.1361256637624
 20
132.5285481712326
 30
0.0
 10
128.1361256637624
 20
132.5285481712326
 30
0.0
  0
LINE
  5
AE
330
1F
100
AcDbEntity
  8
0
  6
Continuous
 62
     7
370
    15
100
AcDbLine
 10
131.1561259701
 20
87.3606899521
 30
0.0
 11
128.9361258298
 21
87.3606899521
 31
0.0
  0
LINE
  5
AF
330
1F
100
AcDbEntity
  8
0
  6
Continuous
 62
     7
370
    15
100
AcDbLine
 10
131.1561259701
 20
132.5285477331
 30
0.0
 11
128.9361258298
 21
132.5285477331
 31
0.0
  0
SPLINE
  5
B0
330
1F
100
AcDbEntity
  8
0
  6
Continuous
 62
     7
370
    15
100
AcDbSpline
210
0.0
220
0.0
230
1.0
 70
     8
 71
     3
 72
    12
 73
     8
 74
     0
 42
0.000000001
 43
0.00000001
 40
0.0
 40
0.0
 40
0.0
 40
0.0
 40
0.5000000000000013
 40
0.5000000000000013
 40
0.7500000000000007
 40
0.7500000000000007
 40
1.0
 40
1.0
 40
1.0
 40
1.0
 10
131.9561256637624
 20
86.52646868342549
 30
0.0
 10
131.9561256637624
 20
86.73929124235838
 30
0.0
 10
131.8742003059426
 20
86.95354774899634
 30
0.0
 10
131.6552785024743
 20
87.18723737744621
 30
0.0
 10
131.5652312109832
 20
87.2517222022902
 30
0.0
 10
131.3698177429634
 20
87.33792181344579
 30
0.0
 10
131.2625347759796
 20
87.36069031494581
 30
0.0
 10
131.1561256637624
 20
87.36069031494581
 30
0.0
  0
LINE
  5
B1
330
1F
100
AcDbEntity
  8
0
  6
Continuous
 62
     7
370
    15
100
AcDbLine
 10
118.9461256638
 20
91.953548207
 30
0.0
 11
118.9461256638
 21
136.4035481355
 31
0.0
  0
LINE
  5
B2
330
1F
100
AcDbEntity
  8
0
  6
Continuous
 62
     7
370
    15
100
AcDbLine
 10
137.3961250558
 20
144.674884691
 30
0.0
 11
133.5679627284
 21
144.674884691
 31
0.0
  0
LINE
  5
B3
330
1F
100
AcDbEntity
  8
0
  6
Continuous
 62
     7
370
    15
100
AcDbLine
 10
133.5679627284
 20
140.0887785247
 30
0.0
 11
137.3961250558
 21
140.0887785247
 31
0.0
  0
LINE
  5
B4
330
1F
100
AcDbEntity
  8
0
  6
Continuous
 62
     7
370
    15
100
AcDbLine
 10
133.5679627284
 20
140.0887785247
 30
0.0
 11
133.5679627284
 21
144.674884691
 31
0.0
  0
SPLINE
  5
B5
330
1F
100
AcDbEntity
  8
0
  6
Continuous
 62
     7
370
    15
100
AcDbSpline
210
0.0
220
0.0
230
1.0
 70
     8
 71
     3
 72
    12
 73
     8
 74
     0
 42
0.000000001
 43
0.00000001
 40
0.0
 40
0.0
 40
0.0
 40
0.0
 40
0.5
 40
0.5
 40
0.75
 40
0.75
 40
1.0
 40
1.0
 40
1.0
 40
1.0
 10
131.9561256637624
 20
141.8306276590396
 30
0.0
 10
131.9561256637624
 20
141.6174902573881
 30
0.0
 10
131.8734832486144
 20
141.4025107326504
 30
0.0
 10
131.6548998378041
 20
141.1695916637647
 30
0.0
 10
131.5658098848234
 20
141.1057247539442
 30
0.0
 10
131.3704045669258
 20
141.0193385995624
 30
0.0
 10
131.2638805199825
 20
140.9964060275193
 30
0.0
 10
131.1561256637624
 20
140.9964060275193
 30
0.0
  0
SPLINE
  5
B6
330
1F
100
AcDbEntity
  8
0
  6
Continuous
 62
     7
370
    15
100
AcDbSpline
210
0.0
220
0.0
230
1.0
 70
     8
 71
     3
 72
    12
 73
     8
 74
     0
 42
0.000000001
 43
0.00000001
 40
0.0
 40
0.0
 40
0.0
 40
0.0
 40
0.2500000000000015
 40
0.2500000000000015
 40
0.500000000000003
 40
0.500000000000003
 40
1.0
 40
1.0
 40
1.0
 40
1.0
 10
131.1561256637624
 20
135.327484314689
 30
0.0
 10
131.2782076612507
 20
135.327484314689
 30
0.0
 10
131.3987982037364
 20
135.3662106708627
 30
0.0
 10
131.6042934874362
 20
135.496174258609
 30
0.0
 10
131.6898099703887
 20
135.5853804951558
 30
0.0
 10
131.8932043219329
 20
135.8902570327014
 30
0.0
 10
131.9561256637624
 20
136.1330276468035
 30
0.0
 10
131.9561256637624
 20
136.3757889907578
 30
0.0
  0
SPLINE
  5
B7
330
1F
100
AcDbEntity
  8
0
  6
Continuous
 62
     7
370
    15
100
AcDbSpline
210
0.0
220
0.0
230
1.0
 70
     8
 71
     3
 72
     8
 73
     4
 74
     0
 42
0.000000001
 43
0.00000001
 40
0.0
 40
0.0
 40
0.0
 40
0.0
 40
1.0
 40
1.0
 40
1.0
 40
1.0
 10
133.0100803500584
 20
143.891086327497
 30
0.0
 10
132.6581363271501
 20
143.2595249394832
 30
0.0
 10
132.30677790409
 20
142.6276430397844
 30
0.0
 10
131.9561256637624
 20
141.995374630734
 30
0.0
  0
SPLINE
  5
B8
330
1F
100
AcDbEntity
  8
0
  6
Continuous
 62
     7
370
    15
100
AcDbSpline
210
0.0
220
0.0
230
1.0
 70
     8
 71
     3
 72
     8
 73
     4
 74
     0
 42
0.000000001
 43
0.00000001
 40
0.0
 40
0.0
 40
0.0
 40
0.0
 40
0.0012409313617635
 40
0.0012409313617635
 40
0.0012409313617635
 40
0.0012409313617635
 10
133.5679623058191
 20
144.6748842504481
 30
0.0
 10
133.3812893775869
 20
144.4138723727496
 30
0.0
 10
133.1953041896144
 20
144.1526138709742
 30
0.0
 10
133.0100803500584
 20
143.891086327497
 30
0.0
  0
SPLINE
  5
B9
330
1F
100
AcDbEntity
  8
0
  6
Continuous
 62
     7
370
    15
100
AcDbSpline
210
0.0
220
0.0
230
1.0
 70
     8
 71
     3
 72
     8
 73
     4
 74
     0
 42
0.000000001
 43
0.00000001
 40
0.0
 40
0.0
 40
0.0
 40
0.0
 40
1.0
 40
1.0
 40
1.0
 40
1.0
 10
131.9561256637624
 20
136.580687227091
 30
0.0
 10
132.4809167832583
 20
137.7556644147957
 30
0.0
 10
133.0194330344411
 20
138.9245635825339
 30
0.0
 10
133.5679623058191
 20
140.0887778112802
 30
0.0
  0
LINE
  5
BA
330
1F
100
AcDbEntity
  8
0
  6
Continuous
 62
     7
370
    15
100
AcDbLine
 10
131.9561255425
 20
136.5806875518
 30
0.0
 11
131.9561255425
 21
141.9953746489
 31
0.0
  0
LINE
  5
BB
330
1F
100
AcDbEntity
  8
0
  6
Continuous
 62
     7
370
    15
100
AcDbLine
 10
131.1561259701
 20
140.9964063904
 30
0.0
 11
128.9361258298
 21
140.9964063904
 31
0.0
  0
LINE
  5
BC
330
1F
100
AcDbEntity
  8
0
  6
Continuous
 62
     7
370
    15
100
AcDbLine
 10
128.9361258298
 20
135.3274849942
 30
0.0
 11
131.1561259701
 21
135.3274849942
 31
0.0
  0
SPLINE
  5
BD
330
1F
100
AcDbEntity
  8
0
  6
Continuous
 62
     7
370
    15
100
AcDbSpline
210
0.0
220
0.0
230
1.0
 70
     8
 71
     3
 72
     8
 73
     4
 74
     0
 42
0.000000001
 43
0.00000001
 40
0.0
 40
0.0
 40
0.0
 40
0.0
 40
0.0012409313617635
 40
0.0012409313617635
 40
0.0012409313617635
 40
0.0012409313617635
 10
127.0821709774663
 20
143.8910863274971
 30
0.0
 10
126.8969471379104
 20
144.1526138709742
 30
0.0
 10
126.7109619499378
 20
144.4138723727496
 30
0.0
 10
126.5242890217057
 20
144.6748842504481
 30
0.0
  0
SPLINE
  5
BE
330
1F
100
AcDbEntity
  8
0
  6
Continuous
 62
     7
370
    15
100
AcDbSpline
210
0.0
220
0.0
230
1.0
 70
     8
 71
     3
 72
     8
 73
     4
 74
     0
 42
0.000000001
 43
0.00000001
 40
0.0
 40
0.0
 40
0.0
 40
0.0
 40
1.0
 40
1.0
 40
1.0
 40
1.0
 10
128.1361256637624
 20
141.995374630734
 30
0.0
 10
127.7854734234348
 20
142.6276430397844
 30
0.0
 10
127.4341150003746
 20
143.2595249394832
 30
0.0
 10
127.0821709774663
 20
143.8910863274971
 30
0.0
  0
SPLINE
  5
BF
330
1F
100
AcDbEntity
  8
0
  6
Continuous
 62
     7
370
    15
100
AcDbSpline
210
0.0
220
0.0
230
1.0
 70
     8
 71
     3
 72
     8
 73
     4
 74
     0
 42
0.000000001
 43
0.00000001
 40
0.0
 40
0.0
 40
0.0
 40
0.0
 40
1.0
 40
1.0
 40
1.0
 40
1.0
 10
126.5242890217057
 20
140.0887778112801
 30
0.0
 10
127.0732337999025
 20
138.9236816989664
 30
0.0
 10
127.6118441744193
 20
137.7545233821419
 30
0.0
 10
128.1361256637624
 20
136.580687227091
 30
0.0
  0
LINE
  5
C0
330
1F
100
AcDbEntity
  8
0
  6
Continuous
 62
     7
370
    15
100
AcDbLine
 10
126.5242890715
 20
140.0887785247
 30
0.0
 11
126.5242890715
 21
144.674884691
 31
0.0
  0
LINE
  5
C1
330
1F
100
AcDbEntity
  8
0
  6
Continuous
 62
     7
370
    15
100
AcDbLine
 10
128.1361253261
 20
136.5806875518
 30
0.0
 11
128.1361253261
 21
141.9953746489
 31
0.0
  0
SPLINE
  5
C2
330
1F
100
AcDbEntity
  8
0
  6
Continuous
 62
     7
370
    15
100
AcDbSpline
210
0.0
220
0.0
230
1.0
 70
     8
 71
     3
 72
    12
 73
     8
 74
     0
 42
0.000000001
 43
0.00000001
 40
0.0
 40
0.0
 40
0.0
 40
0.0
 40
0.4999999999999986
 40
0.4999999999999986
 40
0.7499999999999992
 40
0.7499999999999992
 40
1.0
 40
1.0
 40
1.0
 40
1.0
 10
137.9961256637624
 20
144.1890993046738
 30
0.0
 10
137.9961256637624
 20
144.3094263377269
 30
0.0
 10
137.9423308521694
 20
144.4275239112087
 30
0.0
 10
137.7814072822031
 20
144.5671666536477
 30
0.0
 10
137.7166558211006
 20
144.6054426070421
 30
0.0
 10
137.5644356377829
 20
144.6602824366766
 30
0.0
 10
137.4816281222579
 20
144.6748842504481
 30
0.0
 10
137.3961256637624
 20
144.6748842504481
 30
0.0
  0
SPLINE
  5
C3
330
1F
100
AcDbEntity
  8
0
  6
Continuous
 62
     7
370
    15
100
AcDbSpline
210
0.0
220
0.0
230
1.0
 70
     8
 71
     3
 72
    14
 73
    10
 74
     0
 42
0.000000001
 43
0.00000001
 40
0.0
 40
0.0
 40
0.0
 40
0.0
 40
0.25
 40
0.25
 40
0.5
 40
0.5
 40
0.75
 40
0.75
 40
1.0
 40
1.0
 40
1.0
 40
1.0
 10
137.3961256637624
 20
140.0887778112801
 30
0.0
 10
137.4845482018849
 20
140.0887778112801
 30
0.0
 10
137.5726021915779
 20
140.0637054608207
 30
0.0
 10
137.7244319554493
 20
139.9773633958494
 30
0.0
 10
137.7902749000131
 20
139.9158201413365
 30
0.0
 10
137.8940739605586
 20
139.7739923950856
 30
0.0
 10
137.9325460700333
 20
139.6939438051156
 30
0.0
 10
137.9837687333078
 20
139.5249313084419
 30
0.0
 10
137.9961256637624
 20
139.4381520015722
 30
0.0
 10
137.9961256637624
 20
139.3499605273162
 30
0.0
  0
LINE
  5
C4
330
1F
100
AcDbEntity
  8
0
  6
Continuous
 62
     7
370
    15
100
AcDbLine
 10
137.9961258992
 20
139.3499603263
 30
0.0
 11
137.9961258992
 21
144.1890993855
 31
0.0
  0
SPLINE
  5
C5
330
1F
100
AcDbEntity
  8
0
  6
Continuous
 62
     7
370
    15
100
AcDbSpline
210
0.0
220
0.0
230
1.0
 70
     8
 71
     3
 72
    12
 73
     8
 74
     0
 42
0.000000001
 43
0.00000001
 40
0.0
 40
0.0
 40
0.0
 40
0.0
 40
0.4999999999999996
 40
0.4999999999999996
 40
0.7499999999999998
 40
0.7499999999999998
 40
1.0
 40
1.0
 40
1.0
 40
1.0
 10
122.1461256637624
 20
139.3499605273162
 30
0.0
 10
122.1461256637624
 20
139.5265769238379
 30
0.0
 10
122.1954662985842
 20
139.7016340952116
 30
0.0
 10
122.3516818568723
 20
139.9155843077043
 30
0.0
 10
122.416984436773
 20
139.9769169505512
 30
0.0
 10
122.5707534547334
 20
140.0643050485225
 30
0.0
 10
122.6577665613439
 20
140.0887778112801
 30
0.0
 10
122.7461256637624
 20
140.0887778112801
 30
0.0
  0
LINE
  5
C6
330
1F
100
AcDbEntity
  8
0
  6
Continuous
 62
     7
370
    15
100
AcDbLine
 10
122.7461257278
 20
140.0887785247
 30
0.0
 11
126.5242890715
 21
140.0887785247
 31
0.0
  0
SPLINE
  5
C7
330
1F
100
AcDbEntity
  8
0
  6
Continuous
 62
     7
370
    15
100
AcDbSpline
210
0.0
220
0.0
230
1.0
 70
     8
 71
     3
 72
    14
 73
    10
 74
     0
 42
0.000000001
 43
0.00000001
 40
0.0
 40
0.0
 40
0.0
 40
0.0
 40
0.25
 40
0.25
 40
0.5
 40
0.5
 40
0.75
 40
0.75
 40
1.0
 40
1.0
 40
1.0
 40
1.0
 10
128.1361256637624
 20
136.3757889907578
 30
0.0
 10
128.1361256637624
 20
136.2538536555763
 30
0.0
 10
128.1521700313023
 20
136.1342994150749
 30
0.0
 10
128.2178993734817
 20
135.9001834319316
 30
0.0
 10
128.26710674373
 20
135.7882508917969
 30
0.0
 10
128.4021197246288
 20
135.5858510825601
 30
0.0
 10
128.4880397932351
 20
135.4959858889971
 30
0.0
 10
128.6945545952406
 20
135.3656513793869
 30
0.0
 10
128.8146933076116
 20
135.3274843146891
 30
0.0
 10
128.9361256637624
 20
135.3274843146891
 30
0.0
  0
LINE
  5
C8
330
1F
100
AcDbEntity
  8
0
  6
Continuous
 62
     7
370
    15
100
AcDbLine
 10
128.1361253261
 20
136.5806875518
 30
0.0
 11
128.1361253261
 21
136.3757891348
 31
0.0
  0
LINE
  5
C9
330
1F
100
AcDbEntity
  8
0
  6
Continuous
 62
     7
370
    15
100
AcDbLine
 10
131.9561255425
 20
136.3757891348
 30
0.0
 11
131.9561255425
 21
136.5806875518
 31
0.0
  0
LINE
  5
CA
330
1F
100
AcDbEntity
  8
0
  6
Continuous
 62
     7
370
    15
100
AcDbLine
 10
122.1461255829
 20
139.3499603263
 30
0.0
 11
122.1461255829
 21
132.5285477331
 31
0.0
  0
LINE
  5
CB
330
1F
100
AcDbEntity
  8
0
  6
Continuous
 62
     7
370
    15
100
AcDbLine
 10
137.9961258992
 20
139.3499603263
 30
0.0
 11
137.9961258992
 21
132.5285477331
 31
0.0
  0
SPLINE
  5
CC
330
1F
100
AcDbEntity
  8
0
  6
Continuous
 62
     7
370
    15
100
AcDbSpline
210
0.0
220
0.0
230
1.0
 70
     8
 71
     3
 72
    10
 73
     6
 74
     0
 42
0.000000001
 43
0.00000001
 40
0.0
 40
0.0
 40
0.0
 40
0.0
 40
0.5
 40
0.5
 40
1.0
 40
1.0
 40
1.0
 40
1.0
 10
122.4333672650699
 20
144.6038447261895
 30
0.0
 10
122.3575276710664
 20
144.5337955398609
 30
0.0
 10
122.2902041533404
 20
144.4485767662872
 30
0.0
 10
122.1835605150354
 20
144.2383506396254
 30
0.0
 10
122.1461256637624
 20
144.1148414487581
 30
0.0
 10
122.1461256637624
 20
143.9849233282355
 30
0.0
  0
SPLINE
  5
CD
330
1F
100
AcDbEntity
  8
0
  6
Continuous
 62
     7
370
    15
100
AcDbSpline
210
0.0
220
0.0
230
1.0
 70
     8
 71
     3
 72
     8
 73
     4
 74
     0
 42
0.000000001
 43
0.00000001
 40
0.0
 40
0.0
 40
0.0
 40
0.0
 40
1.0
 40
1.0
 40
1.0
 40
1.0
 10
122.7461256637624
 20
144.6748842504481
 30
0.0
 10
122.6339474095827
 20
144.6748842504481
 30
0.0
 10
122.5252778968543
 20
144.6492031851872
 30
0.0
 10
122.4333672650699
 20
144.6038447261895
 30
0.0
  0
LINE
  5
CE
330
1F
100
AcDbEntity
  8
0
  6
Continuous
 62
     7
370
    15
100
AcDbLine
 10
122.1461255829
 20
139.3499603263
 30
0.0
 11
122.1461255829
 21
143.9849236748
 31
0.0
  0
LINE
  5
CF
330
1F
100
AcDbEntity
  8
0
  6
Continuous
 62
     7
370
    15
100
AcDbLine
 10
126.5242890715
 20
144.674884691
 30
0.0
 11
122.7461257278
 21
144.674884691
 31
0.0
  0
SPLINE
  5
D0
330
1F
100
AcDbEntity
  8
0
  6
Continuous
 62
     7
370
    15
100
AcDbSpline
210
0.0
220
0.0
230
1.0
 70
     8
 71
     3
 72
    14
 73
    10
 74
     0
 42
0.000000001
 43
0.00000001
 40
0.0
 40
0.0
 40
0.0
 40
0.0
 40
0.25
 40
0.25
 40
0.5
 40
0.5
 40
0.75
 40
0.75
 40
1.0
 40
1.0
 40
1.0
 40
1.0
 10
128.9361256637624
 20
140.9964060275193
 30
0.0
 10
128.828756619248
 20
140.9964060275193
 30
0.0
 10
128.7219511274852
 20
141.0193310229243
 30
0.0
 10
128.5268097589683
 20
141.1055234567984
 30
0.0
 10
128.4376000413784
 20
141.1693674534624
 30
0.0
 10
128.2916732485621
 20
141.3247835614038
 30
0.0
 10
128.233683504764
 20
141.4174381396116
 30
0.0
 10
128.1560896632414
 20
141.6166714796611
 30
0.0
 10
128.1361256637624
 20
141.7232765747163
 30
0.0
 10
128.1361256637624
 20
141.8306276590396
 30
0.0
  0
LINE
  5
D1
330
1F
100
AcDbEntity
  8
0
  6
Continuous
 62
     7
370
    15
100
AcDbLine
 10
238.9461229816
 20
114.1785481712
 30
0.0
 11
238.9461229816
 21
98.4785487643
 31
0.0
  0
LINE
  5
D2
330
1F
100
AcDbEntity
  8
0
  6
Continuous
 62
     7
370
    15
100
AcDbLine
 10
238.9461229816
 20
129.8785475782
 30
0.0
 11
238.9461229816
 21
114.1785481712
 31
0.0
  0
LINE
  5
D3
330
1F
100
AcDbEntity
  8
0
  6
Continuous
 62
     7
370
    15
100
AcDbLine
 10
238.6461253538
 20
114.1785481712
 30
0.0
 11
238.6461253538
 21
98.1785474113
 31
0.0
  0
LINE
  5
D4
330
1F
100
AcDbEntity
  8
0
  6
Continuous
 62
     7
370
    15
100
AcDbLine
 10
238.6461253538
 20
130.1785489312
 30
0.0
 11
238.6461253538
 21
114.1785481712
 31
0.0
  0
SPLINE
  5
D5
330
1F
100
AcDbEntity
  8
0
  6
Continuous
 62
     7
370
    15
100
AcDbSpline
210
0.0
220
0.0
230
1.0
 70
     8
 71
     3
 72
    17
 73
    13
 74
     0
 42
0.000000001
 43
0.00000001
 40
0.0
 40
0.0
 40
0.0
 40
0.0
 40
0.0410774470803727
 40
0.1249138230976087
 40
0.2130767612104482
 40
0.3130279035026283
 40
0.4266298169089769
 40
0.5486390117257826
 40
0.6725240565395627
 40
0.7954536942945958
 40
0.9101619834760869
 40
1.0
 40
1.0
 40
1.0
 40
1.0
 10
232.0865298881581
 20
130.1639010897382
 30
0.0
 10
232.0995759923141
 20
130.1670916101708
 30
0.0
 10
232.1392483396109
 20
130.176793773602
 30
0.0
 10
231.7230645990302
 20
130.0749757175124
 30
0.0
 10
230.9115031466376
 20
129.8985586450789
 30
0.0
 10
229.6551338762143
 20
129.6813440575065
 30
0.0
 10
228.0113521689346
 20
129.5127083369511
 30
0.0
 10
226.1280045550402
 20
129.4924445205498
 30
0.0
 10
224.2754399819544
 20
129.6562752409461
 30
0.0
 10
222.7675246439694
 20
129.915931367159
 30
0.0
 10
221.8012716946382
 20
130.1393991264966
 30
0.0
 10
221.707808453053
 20
130.163125218396
 30
0.0
 10
221.6667588129094
 20
130.1735458663209
 30
0.0
  0
SPLINE
  5
D6
330
1F
100
AcDbEntity
  8
0
  6
Continuous
 62
     7
370
    15
100
AcDbSpline
210
0.0
220
0.0
230
1.0
 70
    11
 71
     3
 72
    76
 73
    72
 74
     0
 42
0.000000001
 43
0.00000001
 40
0.0
 40
0.0
 40
0.0
 40
0.0
 40
0.0312500000000018
 40
0.0312500000000018
 40
0.0625000000000036
 40
0.0625000000000036
 40
0.0937500000000055
 40
0.0937500000000055
 40
0.1250000000000073
 40
0.1250000000000073
 40
0.1562500000000091
 40
0.1562500000000091
 40
0.1875000000000109
 40
0.1875000000000109
 40
0.2187500000000127
 40
0.2187500000000127
 40
0.234375000000013
 40
0.234375000000013
 40
0.2500000000000134
 40
0.2500000000000134
 40
0.2812500000000142
 40
0.2812500000000142
 40
0.2968750000000141
 40
0.2968750000000141
 40
0.312500000000014
 40
0.312500000000014
 40
0.3437500000000134
 40
0.3437500000000134
 40
0.3750000000000128
 40
0.3750000000000128
 40
0.4062500000000122
 40
0.4062500000000122
 40
0.4375000000000115
 40
0.4375000000000115
 40
0.4687500000000108
 40
0.4687500000000108
 40
0.5000000000000101
 40
0.5000000000000101
 40
0.5312500000000094
 40
0.5312500000000094
 40
0.5625000000000088
 40
0.5625000000000088
 40
0.5937500000000081
 40
0.5937500000000081
 40
0.6250000000000074
 40
0.6250000000000074
 40
0.6562500000000069
 40
0.6562500000000069
 40
0.6875000000000062
 40
0.6875000000000062
 40
0.7187500000000057
 40
0.7187500000000057
 40
0.750000000000005
 40
0.750000000000005
 40
0.7812500000000043
 40
0.7812500000000043
 40
0.8125000000000038
 40
0.8125000000000038
 40
0.8437500000000031
 40
0.8437500000000031
 40
0.8750000000000024
 40
0.8750000000000024
 40
0.9062500000000019
 40
0.9062500000000019
 40
0.9218750000000016
 40
0.9218750000000016
 40
0.9375000000000012
 40
0.9375000000000012
 40
0.9687500000000007
 40
0.9687500000000007
 40
1.0
 40
1.0
 40
1.0
 40
1.0
 10
223.4264679044684
 20
117.6076236845989
 30
0.0
 10
223.6822799431446
 20
117.8048885500434
 30
0.0
 10
223.9525600205306
 20
117.9753371237994
 30
0.0
 10
224.5196589164761
 20
118.2680945576374
 30
0.0
 10
224.8180637920012
 20
118.3908274060456
 30
0.0
 10
225.435409353375
 20
118.5854489470973
 30
0.0
 10
225.7488751790103
 20
118.6559025894665
 30
0.0
 10
226.3850428909278
 20
118.7456583546602
 30
0.0
 10
226.7103402874074
 20
118.7648359344582
 30
0.0
 10
227.3581296219772
 20
118.7497918352254
 30
0.0
 10
227.6776514262178
 20
118.7161114200123
 30
0.0
 10
228.3081499832953
 20
118.5973418108707
 30
0.0
 10
228.6217741897828
 20
118.5112323369982
 30
0.0
 10
229.2267154865835
 20
118.2882458947921
 30
0.0
 10
229.5157731284439
 20
118.1527894772802
 30
0.0
 10
229.9292053639159
 20
117.9129008987365
 30
0.0
 10
230.0636351394311
 20
117.8267795957108
 30
0.0
 10
230.32542567212
 20
117.6415215576429
 30
0.0
 10
230.4533621251352
 20
117.541821094452
 30
0.0
 10
230.8181638048891
 20
117.2283462603794
 30
0.0
 10
231.038281776643
 20
116.9992719099162
 30
0.0
 10
231.332090547097
 20
116.6233795217024
 30
0.0
 10
231.4239201122634
 20
116.4926623099968
 30
0.0
 10
231.5943995934286
 20
116.2194311765213
 30
0.0
 10
231.6730711187593
 20
116.0765523554787
 30
0.0
 10
231.8817669530382
 20
115.6407171703069
 30
0.0
 10
231.987239311625
 20
115.3371523941137
 30
0.0
 10
232.1247241119568
 20
114.70136747324
 30
0.0
 10
232.1542431228756
 20
114.3773945221547
 30
0.0
 10
232.1341700688049
 20
113.7333746723678
 30
0.0
 10
232.0833802829439
 20
113.4071495072198
 30
0.0
 10
231.9087211524494
 20
112.7864359795635
 30
0.0
 10
231.7843783674496
 20
112.4864397367739
 30
0.0
 10
231.4715875102159
 20
111.9200562113992
 30
0.0
 10
231.2864592704262
 20
111.6583819312971
 30
0.0
 10
230.864003683266
 20
111.1734657297096
 30
0.0
 10
230.6270269624107
 20
110.9517636443812
 30
0.0
 10
230.1211561536218
 20
110.5600214119263
 30
0.0
 10
229.8485515292757
 20
110.3867622752604
 30
0.0
 10
229.2751476945348
 20
110.0899002897566
 30
0.0
 10
228.9784420218411
 20
109.9680235237332
 30
0.0
 10
228.3659111613811
 20
109.774102060549
 30
0.0
 10
228.0470430371495
 20
109.701800656916
 30
0.0
 10
227.4067418732204
 20
109.6112830585112
 30
0.0
 10
227.0856287717134
 20
109.5924774569535
 30
0.0
 10
226.441505481757
 20
109.6068348239378
 30
0.0
 10
226.115434890361
 20
109.640764572075
 30
0.0
 10
225.4810452176142
 20
109.760393507969
 30
0.0
 10
225.1719930370956
 20
109.8455025006232
 30
0.0
 10
224.5701566154224
 20
110.0669519245239
 30
0.0
 10
224.2745845424031
 20
110.2051364676408
 30
0.0
 10
223.7202969609567
 20
110.5272961658474
 30
0.0
 10
223.4603859825887
 20
110.7109989540145
 30
0.0
 10
222.9764782819029
 20
111.1265701533202
 30
0.0
 10
222.7502051573482
 20
111.3618348568223
 30
0.0
 10
222.3570370805878
 20
111.866475173193
 30
0.0
 10
222.1882487341919
 20
112.1363440560748
 30
0.0
 10
221.9111852244123
 20
112.7148745066127
 30
0.0
 10
221.8032770661755
 20
113.0267417455871
 30
0.0
 10
221.6678864211935
 20
113.6553055555015
 30
0.0
 10
221.6377386473438
 20
113.97626887088
 30
0.0
 10
221.6584743763697
 20
114.6310874863827
 30
0.0
 10
221.7088291557162
 20
114.9501292259303
 30
0.0
 10
221.8403469018747
 20
115.417026695645
 30
0.0
 10
221.894026693051
 20
115.571641869792
 30
0.0
 10
222.0181532687938
 20
115.8715615871597
 30
0.0
 10
222.0883789959188
 20
116.0167436562813
 30
0.0
 10
222.3220504504151
 20
116.4389160090419
 30
0.0
 10
222.5104045157194
 20
116.7048772133316
 30
0.0
 10
222.9348211914546
 20
117.1902844620369
 30
0.0
 10
223.1706558657923
 20
117.4103588191545
 30
0.0
 10
223.4264679044684
 20
117.6076236845989
 30
0.0
  0
CIRCLE
  5
D7
330
1F
100
AcDbEntity
  8
0
  6
Continuous
 62
     7
370
    15
100
AcDbCircle
 10
226.8961256638
 20
114.1785481712
 30
0.0
 40
3.5
  0
LINE
  5
D8
330
1F
100
AcDbEntity
  8
0
  6
Continuous
 62
     7
370
    15
100
AcDbLine
 10
50.6961251869
 20
102.7714177734
 30
0.0
 11
50.6961251869
 21
125.5856785691
 31
0.0
  0
SPLINE
  5
D9
330
1F
100
AcDbEntity
  8
0
  6
Continuous
 62
     7
370
    15
100
AcDbSpline
210
0.0
220
0.0
230
1.0
 70
     8
 71
     3
 72
    10
 73
     6
 74
     0
 42
0.000000001
 43
0.00000001
 40
0.0
 40
0.0
 40
0.0
 40
0.0
 40
0.4391228924913741
 40
0.7513719823431357
 40
1.0
 40
1.0
 40
1.0
 40
1.0
 10
226.9455920233777
 20
116.4874195354535
 30
0.0
 10
226.6557962047039
 20
116.3282834410111
 30
0.0
 10
226.1599339700656
 20
116.0559897282756
 30
0.0
 10
225.4391180899746
 20
115.6601652120995
 30
0.0
 10
225.0803501672376
 20
115.4631531072364
 30
0.0
 10
224.9213139786771
 20
115.3758207336544
 30
0.0
  0
SPLINE
  5
DA
330
1F
100
AcDbEntity
  8
0
  6
Continuous
 62
     7
370
    15
100
AcDbSpline
210
0.0
220
0.0
230
1.0
 70
     8
 71
     3
 72
    11
 73
     7
 74
     0
 42
0.000000001
 43
0.00000001
 40
0.0
 40
0.0
 40
0.0
 40
0.0
 40
0.1849307603361127
 40
0.5198463678024366
 40
0.8714438577591622
 40
1.0
 40
1.0
 40
1.0
 40
1.0
 10
224.9213139786771
 20
115.3758207336544
 30
0.0
 10
224.9184342342251
 20
115.241433121263
 30
0.0
 10
224.9103391791308
 20
114.8636651823201
 30
0.0
 10
224.8952430790381
 20
114.1584894117757
 30
0.0
 10
224.8812867430477
 20
113.5072311696651
 30
0.0
 10
224.8738426520523
 20
113.1599344538094
 30
0.0
 10
224.8718495740941
 20
113.0669493694334
 30
0.0
  0
SPLINE
  5
DB
330
1F
100
AcDbEntity
  8
0
  6
Continuous
 62
     7
370
    15
100
AcDbSpline
210
0.0
220
0.0
230
1.0
 70
     8
 71
     3
 72
    10
 73
     6
 74
     0
 42
0.000000001
 43
0.00000001
 40
0.0
 40
0.0
 40
0.0
 40
0.0
 40
0.4391217192840478
 40
0.7513716968962888
 40
0.9999999999999999
 40
0.9999999999999999
 40
0.9999999999999999
 40
0.9999999999999999
 10
224.8718495740941
 20
113.0669493694334
 30
0.0
 10
225.1545627569091
 20
112.8955479003836
 30
0.0
 10
225.6383071826072
 20
112.6022665458188
 30
0.0
 10
226.3415109330566
 20
112.1759369282568
 30
0.0
 10
226.6915129572738
 20
111.9637401979407
 30
0.0
 10
226.8466632142118
 20
111.8696768070116
 30
0.0
  0
SPLINE
  5
DC
330
1F
100
AcDbEntity
  8
0
  6
Continuous
 62
     7
370
    15
100
AcDbSpline
210
0.0
220
0.0
230
1.0
 70
     8
 71
     3
 72
    11
 73
     7
 74
     0
 42
0.000000001
 43
0.00000001
 40
0.0
 40
0.0
 40
0.0
 40
0.0
 40
0.1285561198861378
 40
0.4801535636154793
 40
0.81506924007777
 40
1.0
 40
1.0
 40
1.0
 40
1.0
 10
228.8709338083318
 20
112.9812756088107
 30
0.0
 10
228.8729271114132
 20
113.0742606688021
 30
0.0
 10
228.8803720434689
 20
113.4215573043681
 30
0.0
 10
228.8943138162272
 20
114.0728158612993
 30
0.0
 10
228.909425059886
 20
114.777991335591
 30
0.0
 10
228.9175189007875
 20
115.1557593513454
 30
0.0
 10
228.9203982129148
 20
115.2901469730317
 30
0.0
  0
CIRCLE
  5
DD
330
1F
100
AcDbEntity
  8
0
  6
Continuous
 62
     7
370
    15
100
AcDbCircle
 10
226.8961256638
 20
114.1785481712
 30
0.0
 40
2.399999999999972
  0
SPLINE
  5
DE
330
1F
100
AcDbEntity
  8
0
  6
Continuous
 62
     7
370
    15
100
AcDbSpline
210
0.0
220
0.0
230
1.0
 70
     8
 71
     3
 72
    10
 73
     6
 74
     0
 42
0.000000001
 43
0.00000001
 40
0.0
 40
0.0
 40
0.0
 40
0.0
 40
0.439122877209805
 40
0.7513710412850917
 40
1.0
 40
1.0
 40
1.0
 40
1.0
 10
228.9203982129148
 20
115.2901469730317
 30
0.0
 10
228.6376846543386
 20
115.4615478303399
 30
0.0
 10
228.1539412833659
 20
115.7548271089125
 30
0.0
 10
227.4507431324487
 20
116.1811612339175
 30
0.0
 10
227.1007424257175
 20
116.3933563970184
 30
0.0
 10
226.9455920233777
 20
116.4874195354535
 30
0.0
  0
SPLINE
  5
DF
330
1F
100
AcDbEntity
  8
0
  6
Continuous
 62
     7
370
    15
100
AcDbSpline
210
0.0
220
0.0
230
1.0
 70
     8
 71
     3
 72
    10
 73
     6
 74
     0
 42
0.000000001
 43
0.00000001
 40
0.0
 40
0.0
 40
0.0
 40
0.0
 40
0.4391214319489045
 40
0.7513713349075851
 40
1.0
 40
1.0
 40
1.0
 40
1.0
 10
226.8466632142118
 20
111.8696768070116
 30
0.0
 10
227.1364563642693
 20
112.0288132227975
 30
0.0
 10
227.6323152546892
 20
112.3011081564125
 30
0.0
 10
228.3531297687541
 20
112.6969310468565
 30
0.0
 10
228.7118976417991
 20
112.8939432095801
 30
0.0
 10
228.8709338083318
 20
112.9812756088107
 30
0.0
  0
CIRCLE
  5
E0
330
1F
100
AcDbEntity
  8
0
  6
Continuous
 62
     7
370
    15
100
AcDbCircle
 10
226.8961256638
 20
114.1785481712
 30
0.0
 40
3.300000000000004
  0
ARC
  5
E1
330
1F
100
AcDbEntity
  8
0
  6
Continuous
 62
     7
370
    15
100
AcDbCircle
 10
226.8961256638
 20
114.1785481712
 30
0.0
 40
2.000000000000015
100
AcDbArc
 50
178.7727198293
 51
238.7727198293
  0
ARC
  5
E2
330
1F
100
AcDbEntity
  8
0
  6
Continuous
 62
     7
370
    15
100
AcDbCircle
 10
226.8961256638
 20
114.1785481712
 30
0.0
 40
1.999999999999992
100
AcDbArc
 50
358.7727198293
 51
58.7727198293
  0
ARC
  5
E3
330
1F
100
AcDbEntity
  8
0
  6
Continuous
 62
     7
370
    15
100
AcDbCircle
 10
226.8961256638
 20
114.1785481712
 30
0.0
 40
2.000000000000005
100
AcDbArc
 50
58.7727198293
 51
118.7727198293
  0
ARC
  5
E4
330
1F
100
AcDbEntity
  8
0
  6
Continuous
 62
     7
370
    15
100
AcDbCircle
 10
226.8961256638
 20
114.1785481712
 30
0.0
 40
2.000000000000004
100
AcDbArc
 50
298.7727198293
 51
358.7727198293
  0
ARC
  5
E5
330
1F
100
AcDbEntity
  8
0
  6
Continuous
 62
     7
370
    15
100
AcDbCircle
 10
226.8961256638
 20
114.1785481712
 30
0.0
 40
2.000000000000015
100
AcDbArc
 50
118.7727198293
 51
178.7727198293
  0
ARC
  5
E6
330
1F
100
AcDbEntity
  8
0
  6
Continuous
 62
     7
370
    15
100
AcDbCircle
 10
226.8961256638
 20
114.1785481712
 30
0.0
 40
2.000000000000004
100
AcDbArc
 50
238.7727198293
 51
298.7727198293
  0
ARC
  5
E7
330
1F
100
AcDbEntity
  8
0
  6
Continuous
 62
     7
370
    15
100
AcDbCircle
 10
131.8317001309
 20
104.9415163644
 30
0.0
 40
1.885841210753601
100
AcDbArc
 50
180.9635819082
 51
252.419340266
  0
ARC
  5
E8
330
1F
100
AcDbEntity
  8
0
  6
Continuous
 62
     7
370
    15
100
AcDbCircle
 10
131.9508234938
 20
105.0677577005
 30
0.0
 40
2.043559659855689
100
AcDbArc
 50
250.3040533785
 51
331.9803415661
  0
ARC
  5
E9
330
1F
100
AcDbEntity
  8
0
  6
Continuous
 62
     7
370
    15
100
AcDbCircle
 10
131.8070113783
 20
104.8777874272
 30
0.0
 40
1.755847694158525
100
AcDbArc
 50
161.2244750492
 51
253.0899260747
  0
ARC
  5
EA
330
1F
100
AcDbEntity
  8
0
  6
Continuous
 62
     7
370
    15
100
AcDbCircle
 10
131.9524810389
 20
105.0156048287
 30
0.0
 40
1.932561218569311
100
AcDbArc
 50
250.150771547
 51
335.4010638991
  0
ARC
  5
EB
330
1F
100
AcDbEntity
  8
0
  6
Continuous
 62
     7
370
    15
100
AcDbCircle
 10
131.8702570059
 20
104.8838029912
 30
0.0
 40
1.402602998975119
100
AcDbArc
 50
87.5004805611
 51
251.8395822358
  0
ARC
  5
EC
330
1F
100
AcDbEntity
  8
0
  6
Continuous
 62
     7
370
    15
100
AcDbCircle
 10
131.9564869573
 20
104.9577118362
 30
0.0
 40
1.500862432476717
100
AcDbArc
 50
249.5905279896
 51
349.5149419282
  0
SPLINE
  5
ED
330
1F
100
AcDbEntity
  8
0
  6
HIDDEN
 62
     7
370
     0
100
AcDbSpline
210
0.0
220
0.0
230
1.0
 70
     8
 71
     3
 72
     9
 73
     5
 74
     0
 42
0.000000001
 43
0.00000001
 40
0.0
 40
0.0
 40
0.0
 40
0.0
 40
0.9333113421934416
 40
1.0
 40
1.0
 40
1.0
 40
1.0
 10
129.9702347516468
 20
106.4320090925797
 30
0.0
 10
129.9556589330981
 20
106.33103900452
 30
0.0
 10
129.9400416166787
 20
106.2228542182703
 30
0.0
 10
129.9470714715619
 20
106.1303717212954
 30
0.0
 10
129.9475402831486
 20
106.1242041877016
 30
0.0
  0
LWPOLYLINE
  5
EE
330
1F
100
AcDbEntity
  8
0
  6
HIDDEN
 62
     7
370
     0
100
AcDbPolyline
 90
       19
 70
   128
 43
0.0
 10
129.9702347516
 20
105.8501401684
 10
130.1788538023
 20
105.2611941239
 10
130.580251038
 20
104.7682273901
 10
131.1306412592
 20
104.4250136009
 10
131.7699858248
 20
104.2689919239
 10
132.4285445064
 20
104.3171822792
 10
133.0344797372
 20
104.5643264195
 10
133.5216955542
 20
104.9834662816
 10
133.8370432406
 20
105.5288804463
 10
133.9461253285
 20
106.1410750961
 10
133.8370432406
 20
106.7532688147
 10
133.5216955542
 20
107.298683445
 10
133.0344797372
 20
107.7178233071
 10
132.4285445064
 20
107.9649674474
 10
131.7699858248
 20
108.013157337
 10
131.1306412592
 20
107.8571356601
 10
130.580251038
 20
107.5139223366
 10
130.1788538023
 20
107.0209556027
 10
129.9702347516
 20
106.4320090926
  0
LWPOLYLINE
  5
EF
330
1F
100
AcDbEntity
  8
0
  6
HIDDEN
 62
     7
370
     0
100
AcDbPolyline
 90
       20
 70
   128
 43
0.0
 10
122.396337267
 20
105.2803635365
 10
122.5706259049
 20
104.6117437771
 10
122.8511139545
 20
104.0155799827
 10
123.2074060738
 20
103.5564752063
 10
123.6008921898
 20
103.2841797686
 10
123.9889328628
 20
103.2282016939
 10
124.3294770158
 20
103.3946076176
 10
124.5856214575
 20
103.7653643406
 10
124.7296095155
 20
104.3002955383
 10
124.7458373457
 20
104.9414310372
 10
124.6325466111
 20
105.6192960358
 10
124.4020140059
 20
106.260432466
 10
124.0792217925
 20
106.7953622668
 10
123.6991485841
 20
107.1661194554
 10
123.3029821217
 20
107.3325253791
 10
122.9336526505
 20
107.2765477701
 10
122.6311830598
 20
107.0042523323
 10
122.4283505491
 20
106.5451470903
 10
122.3471347968
 20
105.9489832959
 10
122.396337267
 20
105.2803635365
  0
LWPOLYLINE
  5
F0
330
1F
100
AcDbEntity
  8
0
  6
HIDDEN
 62
     7
370
     0
100
AcDbPolyline
 90
       18
 70
   128
 43
0.0
 10
122.777853094
 20
105.3124941653
 10
122.9367786347
 20
104.7280277825
 10
123.1967289261
 20
104.2224956444
 10
123.5225963666
 20
103.8641748718
 10
123.8703703768
 20
103.7014579168
 10
124.1930824965
 20
103.7563193357
 10
124.4471482261
 20
104.0213513887
 10
124.5982553139
 20
104.460759624
 10
124.6259956881
 20
105.0151992357
 10
124.5266221724
 20
105.6097900263
 10
124.3135565221
 20
106.164229638
 10
124.0155742764
 20
106.6036374076
 10
123.6729192808
 20
106.8686694606
 10
123.3318689539
 20
106.9235313451
 10
123.0384846478
 20
106.7608139245
 10
122.8323887828
 20
106.4024926862
 10
122.7414162624
 20
105.8969614795
 10
122.777853094
 20
105.3124941653
  0
ELLIPSE
  5
F1
330
1F
100
AcDbEntity
  8
0
  6
HIDDEN
 62
     7
370
     0
100
AcDbEllipse
 10
131.9461256638
 20
107.2909581107
 30
0.0
 11
1.383467579512086
 21
-1.091267719176585
 31
0.0
210
0.0
220
0.0
230
1.0
 40
0.8239737799
 41
2.147131942757446
 42
5.288724596347253
  0
ELLIPSE
  5
F2
330
1F
100
AcDbEntity
  8
0
  6
HIDDEN
 62
     7
370
     0
100
AcDbEllipse
 10
131.9461256638
 20
107.2909581107
 30
0.0
 11
1.383467579512086
 21
1.753907414218489
 31
0.0
210
0.0
220
0.0
230
1.0
 40
0.5126701559
 41
0.9944607108323444
 42
4.13605336442215
  0
SPLINE
  5
F3
330
1F
100
AcDbEntity
  8
0
  6
HIDDEN
 62
     7
370
     0
100
AcDbSpline
210
0.0
220
0.0
230
1.0
 70
     8
 71
     3
 72
    14
 73
    10
 74
     0
 42
0.000000001
 43
0.00000001
 40
0.0
 40
0.0
 40
0.0
 40
0.0
 40
0.25
 40
0.25
 40
0.5
 40
0.5
 40
0.75
 40
0.75
 40
1.0
 40
1.0
 40
1.0
 40
1.0
 10
129.970234901122
 20
105.8501406043947
 30
0.0
 10
130.0065987291522
 20
105.8956352397965
 30
0.0
 10
130.0390764563624
 20
105.9440270460128
 30
0.0
 10
130.0878300857781
 20
106.0495121899424
 30
0.0
 10
130.1027338634527
 20
106.1060966981853
 30
0.0
 10
130.1027442971103
 20
106.2149842921358
 30
0.0
 10
130.0878540013022
 20
106.2671689578984
 30
0.0
 10
130.0389650704246
 20
106.358446356842
 30
0.0
 10
130.0065928921541
 20
106.3971130622161
 30
0.0
 10
129.970234901122
 20
106.4320090017639
 30
0.0
  0
LWPOLYLINE
  5
F4
330
1F
100
AcDbEntity
  8
0
  6
HIDDEN
 62
     7
370
     0
100
AcDbPolyline
 90
       18
 70
   128
 43
0.0
 10
131.946125932
 20
104.6341513983
 10
132.5421742424
 20
104.7388534761
 10
133.057723686
 20
105.0388166449
 10
133.423144862
 20
105.4935302353
 10
133.589086987
 20
106.0415828368
 10
133.5331377834
 20
106.6089571221
 10
133.2628540024
 20
107.1190252668
 10
132.8147388324
 20
107.5029001339
 10
132.2493124082
 20
107.708737324
 10
131.6429385244
 20
107.708737324
 10
131.0775130316
 20
107.5029001339
 10
130.6293969303
 20
107.1190252668
 10
130.3591131493
 20
106.6089571221
 10
130.3031639456
 20
106.0415828368
 10
130.4691060706
 20
105.4935302353
 10
130.8345281779
 20
105.0388166449
 10
131.3500766903
 20
104.7388534761
 10
131.946125932
 20
104.6341513983
  0
ELLIPSE
  5
F5
330
1F
100
AcDbEntity
  8
0
  6
HIDDEN
 62
     7
370
     0
100
AcDbEllipse
 10
131.9461256638
 20
107.2909581107
 30
0.0
 11
1.383467579512086
 21
-1.091267719176585
 31
0.0
210
0.0
220
0.0
230
1.0
 40
0.8239737799
 41
5.288724596347247
 42
5.331125843652124
  0
SPLINE
  5
F6
330
1F
100
AcDbEntity
  8
0
  6
HIDDEN
 62
     7
370
     0
100
AcDbSpline
210
0.0
220
0.0
230
1.0
 70
     8
 71
     3
 72
     8
 73
     4
 74
     0
 42
0.000000001
 43
0.00000001
 40
0.0
 40
0.0
 40
0.0
 40
0.0
 40
1.0
 40
1.0
 40
1.0
 40
1.0
 10
132.0160667599544
 20
105.729406244848
 30
0.0
 10
131.9990820338275
 20
105.7365219549069
 30
0.0
 10
131.9820778892617
 20
105.74439708444
 30
0.0
 10
131.9650790051576
 20
105.7530202039079
 30
0.0
  0
ELLIPSE
  5
F7
330
1F
100
AcDbEntity
  8
0
  6
HIDDEN
 62
     7
370
     0
100
AcDbEllipse
 10
131.9461256638
 20
107.2909581107
 30
0.0
 11
1.383467579512086
 21
1.753907414218489
 31
0.0
210
0.0
220
0.0
230
1.0
 40
0.5126701559
 41
4.136053364422162
 42
4.147540490652875
  0
ELLIPSE
  5
F8
330
1F
100
AcDbEntity
  8
0
  6
HIDDEN
 62
     7
370
     0
100
AcDbEllipse
 10
131.9461256638
 20
107.2909581107
 30
0.0
 11
1.383467579512086
 21
1.753907414218489
 31
0.0
210
0.0
220
0.0
230
1.0
 40
0.5126701559
 41
0.9829735846016276
 42
0.9944607108323569
  0
SPLINE
  5
F9
330
1F
100
AcDbEntity
  8
0
  6
HIDDEN
 62
     7
370
     0
100
AcDbSpline
210
0.0
220
0.0
230
1.0
 70
     8
 71
     3
 72
     8
 73
     4
 74
     0
 42
0.000000001
 43
0.00000001
 40
0.0
 40
0.0
 40
0.0
 40
0.0
 40
1.0
 40
1.0
 40
1.0
 40
1.0
 10
131.9650790051575
 20
108.8538012609129
 30
0.0
 10
131.9820778892616
 20
108.845817987389
 30
0.0
 10
131.9990820338275
 20
108.8370815849285
 30
0.0
 10
132.0160667599545
 20
108.8276047330761
 30
0.0
  0
ELLIPSE
  5
FA
330
1F
100
AcDbEntity
  8
0
  6
HIDDEN
 62
     7
370
     0
100
AcDbEllipse
 10
131.9461256638
 20
107.2909581107
 30
0.0
 11
1.383467579512086
 21
-1.091267719176585
 31
0.0
210
0.0
220
0.0
230
1.0
 40
0.8239737799
 41
2.104730695452667
 42
2.147131942757441
  0
SPLINE
  5
FB
330
1F
100
AcDbEntity
  8
0
  6
HIDDEN
 62
     7
370
     0
100
AcDbSpline
210
0.0
220
0.0
230
1.0
 70
    11
 71
     3
 72
    56
 73
    52
 74
     0
 42
0.000000001
 43
0.00000001
 40
0.0
 40
0.0
 40
0.0
 40
0.0
 40
0.0312500000000002
 40
0.0312500000000002
 40
0.0625000000000004
 40
0.0625000000000004
 40
0.1250000000000009
 40
0.1250000000000009
 40
0.1875000000000013
 40
0.1875000000000013
 40
0.2187500000000016
 40
0.2187500000000016
 40
0.2500000000000019
 40
0.2500000000000019
 40
0.2812500000000022
 40
0.2812500000000022
 40
0.3125000000000024
 40
0.3125000000000024
 40
0.3437500000000027
 40
0.3437500000000027
 40
0.375000000000003
 40
0.375000000000003
 40
0.4375000000000036
 40
0.4375000000000036
 40
0.5000000000000041
 40
0.5000000000000041
 40
0.5312500000000041
 40
0.5312500000000041
 40
0.5625000000000041
 40
0.5625000000000041
 40
0.6250000000000038
 40
0.6250000000000038
 40
0.6562500000000036
 40
0.6562500000000036
 40
0.6875000000000033
 40
0.6875000000000033
 40
0.7500000000000028
 40
0.7500000000000028
 40
0.7812500000000024
 40
0.7812500000000024
 40
0.8125000000000021
 40
0.8125000000000021
 40
0.8750000000000014
 40
0.8750000000000014
 40
0.9062500000000011
 40
0.9062500000000011
 40
0.9375000000000008
 40
0.9375000000000008
 40
0.9687500000000004
 40
0.9687500000000004
 40
1.0
 40
1.0
 40
1.0
 40
1.0
 10
131.9461256637624
 20
111.6113001566525
 30
0.0
 10
132.0569931535638
 20
111.6113001566525
 30
0.0
 10
132.1655877804085
 20
111.6195655300623
 30
0.0
 10
132.3785747961007
 20
111.6519585647467
 30
0.0
 10
132.4840111475991
 20
111.6765367454387
 30
0.0
 10
132.78194179696
 20
111.7723892696379
 30
0.0
 10
132.9620249089548
 20
111.8672822417702
 30
0.0
 10
133.2615672338917
 20
112.1108518224098
 30
0.0
 10
133.3838712107546
 20
112.2623444884256
 30
0.0
 10
133.5087693069853
 20
112.5220121088839
 30
0.0
 10
133.5415106898892
 20
112.6159642102069
 30
0.0
 10
133.5848831961268
 20
112.8098141528477
 30
0.0
 10
133.5959163816276
 20
112.9097243318907
 30
0.0
 10
133.5963291057508
 20
113.1158019645695
 30
0.0
 10
133.5853398488944
 20
113.2219099077485
 30
0.0
 10
133.542552456824
 20
113.429496945901
 30
0.0
 10
133.5105030102525
 20
113.5331207014671
 30
0.0
 10
133.4267270228246
 20
113.7346275937708
 30
0.0
 10
133.3758443362306
 20
113.8309370737982
 30
0.0
 10
133.2567640230477
 20
114.01476595327
 30
0.0
 10
133.188084393587
 20
114.1025171004436
 30
0.0
 10
132.9633539581434
 20
114.3418988838941
 30
0.0
 10
132.7828373111297
 20
114.4757341686051
 30
0.0
 10
132.3884412373116
 20
114.6599262120965
 30
0.0
 10
132.1685570622698
 20
114.7116653954977
 30
0.0
 10
131.8410786719005
 20
114.7125873269238
 30
0.0
 10
131.7298486836696
 20
114.7002870441953
 30
0.0
 10
131.5158383201436
 20
114.6521930807382
 30
0.0
 10
131.4123009604758
 20
114.61672440306
 30
0.0
 10
131.1114950768805
 20
114.4775992200906
 30
0.0
 10
130.9320569528622
 20
114.3446428895016
 30
0.0
 10
130.7062006036969
 20
114.1049867333028
 30
0.0
 10
130.6386807593439
 20
114.0190985222939
 30
0.0
 10
130.5190215390283
 20
113.8355421755719
 30
0.0
 10
130.4669850711886
 20
113.7374423717068
 30
0.0
 10
130.3419022295892
 20
113.4386353814771
 30
0.0
 10
130.2965583148037
 20
113.2240111636131
 30
0.0
 10
130.2959141241313
 20
112.9160884581383
 30
0.0
 10
130.3067075600452
 20
112.8140519373339
 30
0.0
 10
130.3498129098467
 20
112.6188714319807
 30
0.0
 10
130.3816278627983
 20
112.526605200433
 30
0.0
 10
130.5067813994386
 20
112.2642376476065
 30
0.0
 10
130.6281623237131
 20
112.1131343259769
 30
0.0
 10
130.8550894321746
 20
111.9282642423554
 30
0.0
 10
130.936917225324
 20
111.8744797952576
 30
0.0
 10
131.1132678149741
 20
111.7808411579357
 30
0.0
 10
131.2090364218531
 20
111.7406619329532
 30
0.0
 10
131.4076597065848
 20
111.6766878761914
 30
0.0
 10
131.5105178975185
 20
111.652596514075
 30
0.0
 10
131.7239001171928
 20
111.6198325747636
 30
0.0
 10
131.835258173961
 20
111.6113001566525
 30
0.0
 10
131.9461256637624
 20
111.6113001566525
 30
0.0
  0
SPLINE
  5
FC
330
1F
100
AcDbEntity
  8
0
  6
HIDDEN
 62
     7
370
     0
100
AcDbSpline
210
0.0
220
0.0
230
1.0
 70
     8
 71
     3
 72
     9
 73
     5
 74
     0
 42
0.000000001
 43
0.00000001
 40
0.0
 40
0.0
 40
0.0
 40
0.0
 40
0.5922224031095364
 40
0.9999999999999999
 40
0.9999999999999999
 40
0.9999999999999999
 40
0.9999999999999999
 10
222.9492496027997
 20
129.8970678588851
 30
0.0
 10
223.0965881581208
 20
129.8657910514944
 30
0.0
 10
223.3453773875513
 20
129.8129784472658
 30
0.0
 10
223.6945336666764
 20
129.770250131213
 30
0.0
 10
223.8369117751172
 20
129.7528264811738
 30
0.0
  0
LINE
  5
FD
330
1F
100
AcDbEntity
  8
0
  6
HIDDEN
 62
     7
370
     0
100
AcDbLine
 10
216.4461220875
 20
114.1785481712
 30
0.0
 11
216.4461220875
 21
105.478548049
 31
0.0
  0
LINE
  5
FE
330
1F
100
AcDbEntity
  8
0
  6
HIDDEN
 62
     7
370
     0
100
AcDbLine
 10
216.4461220875
 20
122.8785482934
 30
0.0
 11
216.4461220875
 21
114.1785481712
 31
0.0
  0
LINE
  5
FF
330
1F
100
AcDbEntity
  8
0
  6
HIDDEN
 62
     7
370
     0
100
AcDbLine
 10
219.8121528401
 20
114.1785481712
 30
0.0
 11
219.8121528401
 21
105.1785485587
 31
0.0
  0
LINE
  5
100
330
1F
100
AcDbEntity
  8
0
  6
HIDDEN
 62
     7
370
     0
100
AcDbLine
 10
219.8121528401
 20
123.1785477838
 30
0.0
 11
219.8121528401
 21
114.1785481712
 31
0.0
  0
LINE
  5
101
330
1F
100
AcDbEntity
  8
0
  6
HIDDEN
 62
     7
370
     0
100
AcDbLine
 10
122.1461255829
 20
138.9785488835
 30
0.0
 11
122.4833840299
 21
138.9785488835
 31
0.0
  0
ELLIPSE
  5
102
330
1F
100
AcDbEntity
  8
0
  6
HIDDEN
 62
     7
370
     0
100
AcDbEllipse
 10
122.483383964
 20
140.5785481712
 30
0.0
 11
0.0
 21
1.599999999999994
 31
0.0
210
0.0
220
0.0
230
1.0
 40
0.4142135624
 41
3.141592653589793
 42
4.712388980384695
  0
LINE
  5
103
330
1F
100
AcDbEntity
  8
0
  6
HIDDEN
 62
     7
370
     0
100
AcDbLine
 10
122.4833840299
 20
91.578547447
 30
0.0
 11
122.1461255829
 21
91.578547447
 31
0.0
  0
ELLIPSE
  5
104
330
1F
100
AcDbEntity
  8
0
  6
HIDDEN
 62
     7
370
     0
100
AcDbEllipse
 10
122.483383964
 20
89.9785481712
 30
0.0
 11
0.0
 21
1.599999999999994
 31
0.0
210
0.0
220
0.0
230
1.0
 40
0.4142135624
 41
4.712388980384695
 42
6.283185307179586
  0
LINE
  5
105
330
1F
100
AcDbEntity
  8
0
  6
HIDDEN
 62
     7
370
     0
100
AcDbLine
 10
123.146125514
 20
84.2850995949
 30
0.0
 11
122.3622701857
 21
83.8268181077
 31
0.0
  0
SPLINE
  5
106
330
1F
100
AcDbEntity
  8
0
  6
HIDDEN
 62
     7
370
     0
100
AcDbSpline
210
0.0
220
0.0
230
1.0
 70
     8
 71
     3
 72
    12
 73
     8
 74
     0
 42
0.000000001
 43
0.00000001
 40
0.0
 40
0.0
 40
0.0
 40
0.0
 40
0.2035637298937416
 40
0.4067377657834135
 40
0.6198465743267328
 40
0.8406845085254395
 40
0.9999999999999999
 40
0.9999999999999999
 40
0.9999999999999999
 40
0.9999999999999999
 10
226.8961276187947
 20
122.4701102590664
 30
0.0
 10
227.2725835490509
 20
122.4855656772804
 30
0.0
 10
228.0247747378657
 20
122.5164469264935
 30
0.0
 10
229.0396080210145
 20
122.7296414354736
 30
0.0
 10
229.8392107819911
 20
122.9684910720425
 30
0.0
 10
230.3342049357304
 20
123.1541908404785
 30
0.0
 10
230.3526390621198
 20
123.1616587549103
 30
0.0
 10
230.3603644743016
 20
123.164788424085
 30
0.0
  0
SPLINE
  5
107
330
1F
100
AcDbEntity
  8
0
  6
HIDDEN
 62
     7
370
     0
100
AcDbSpline
210
0.0
220
0.0
230
1.0
 70
     8
 71
     3
 72
    13
 73
     9
 74
     0
 42
0.000000001
 43
0.00000001
 40
0.0
 40
0.0
 40
0.0
 40
0.0
 40
0.0843154491604663
 40
0.2598838973222011
 40
0.4306655558600635
 40
0.6089127907323942
 40
0.7974149388193877
 40
1.0
 40
1.0
 40
1.0
 40
1.0
 10
223.5636542811444
 20
123.1160215801104
 30
0.0
 10
223.5058672081134
 20
123.1374835541365
 30
0.0
 10
223.3277512174654
 20
123.2036353864481
 30
0.0
 10
223.4315393100432
 20
123.1648184933832
 30
0.0
 10
223.8332109372083
 20
123.0120725388931
 30
0.0
 10
224.5720701988119
 20
122.7780725041248
 30
0.0
 10
225.6145782822656
 20
122.5321106903405
 30
0.0
 10
226.4588109987162
 20
122.4912673212843
 30
0.0
 10
226.8961276187947
 20
122.4701102590664
 30
0.0
  0
LINE
  5
108
330
1F
100
AcDbEntity
  8
0
  6
HIDDEN
 62
     7
370
     0
100
AcDbLine
 10
122.433367351
 20
144.6038452676
 30
0.0
 11
123.146125514
 21
143.8910854748
 31
0.0
  0
LINE
  5
109
330
1F
100
AcDbEntity
  8
0
  6
HIDDEN
 62
     7
370
     0
100
AcDbLine
 10
57.6961244717
 20
105.6785477093
 30
0.0
 11
57.6961244717
 21
122.6785486332
 31
0.0
  0
LINE
  5
10A
330
1F
100
AcDbEntity
  8
0
  6
HIDDEN
 62
     7
370
     0
100
AcDbLine
 10
60.6920550838
 20
107.1785479552
 30
0.0
 11
60.6920550838
 21
121.1785483873
 31
0.0
  0
LINE
  5
10B
330
1F
100
AcDbEntity
  8
0
  6
HIDDEN
 62
     7
370
     0
100
AcDbLine
 10
126.981335625
 20
84.2850995949
 30
0.0
 11
123.146125514
 21
84.2850995949
 31
0.0
  0
LINE
  5
10C
330
1F
100
AcDbEntity
  8
0
  6
HIDDEN
 62
     7
370
     0
100
AcDbLine
 10
137.9961258992
 20
84.2850995949
 30
0.0
 11
133.1109152436
 21
84.2850995949
 31
0.0
  0
LINE
  5
10D
330
1F
100
AcDbEntity
  8
0
  6
HIDDEN
 62
     7
370
     0
100
AcDbLine
 10
123.146125514
 20
84.2850995949
 30
0.0
 11
123.146125514
 21
89.9785483024
 31
0.0
  0
LINE
  5
10E
330
1F
100
AcDbEntity
  8
0
  6
HIDDEN
 62
     7
370
     0
100
AcDbLine
 10
137.9961258992
 20
91.578547447
 30
0.0
 11
122.4833840299
 21
91.578547447
 31
0.0
  0
LINE
  5
10F
330
1F
100
AcDbEntity
  8
0
  6
HIDDEN
 62
     7
370
     0
100
AcDbLine
 10
123.146125514
 20
143.8910854748
 30
0.0
 11
127.0821708515
 21
143.8910854748
 31
0.0
  0
LINE
  5
110
330
1F
100
AcDbEntity
  8
0
  6
HIDDEN
 62
     7
370
     0
100
AcDbLine
 10
133.0100800171
 20
143.8910854748
 30
0.0
 11
137.9961258992
 21
143.8910854748
 31
0.0
  0
LINE
  5
111
330
1F
100
AcDbEntity
  8
0
  6
HIDDEN
 62
     7
370
     0
100
AcDbLine
 10
123.146125514
 20
143.8910854748
 30
0.0
 11
123.146125514
 21
140.5785480282
 31
0.0
  0
LINE
  5
112
330
1F
100
AcDbEntity
  8
0
  6
HIDDEN
 62
     7
370
     0
100
AcDbLine
 10
122.4833840299
 20
138.9785488835
 30
0.0
 11
137.9961258992
 21
138.9785488835
 31
0.0
  0
LINE
  5
113
330
1F
100
AcDbEntity
  8
0
  6
HIDDEN
 62
     7
370
     0
100
AcDbLine
 10
93.6961247846
 20
107.1785479552
 30
0.0
 11
93.6961247846
 21
121.1785483873
 31
0.0
  0
LINE
  5
114
330
1F
100
AcDbEntity
  8
0
  6
HIDDEN
 62
     7
370
     0
100
AcDbLine
 10
95.8592239096
 20
117.5785482163
 30
0.0
 11
95.8592239096
 21
110.7785481262
 31
0.0
  0
LINE
  5
115
330
1F
100
AcDbEntity
  8
0
  6
HIDDEN
 62
     7
370
     0
100
AcDbLine
 10
226.8961276188
 20
128.4285481787
 30
0.0
 11
230.3961272612
 21
128.4285481787
 31
0.0
  0
LINE
  5
116
330
1F
100
AcDbEntity
  8
0
  6
HIDDEN
 62
     7
370
     0
100
AcDbLine
 10
223.3961279764
 20
128.4285481787
 30
0.0
 11
226.8961276188
 21
128.4285481787
 31
0.0
  0
SPLINE
  5
117
330
1F
100
AcDbEntity
  8
0
  6
HIDDEN
 62
     7
370
     0
100
AcDbSpline
210
0.0
220
0.0
230
1.0
 70
    11
 71
     3
 72
    56
 73
    52
 74
     0
 42
0.000000001
 43
0.00000001
 40
0.0
 40
0.0
 40
0.0
 40
0.0
 40
0.0312499999999998
 40
0.0312499999999998
 40
0.0624999999999997
 40
0.0624999999999997
 40
0.1249999999999994
 40
0.1249999999999994
 40
0.1874999999999991
 40
0.1874999999999991
 40
0.218749999999999
 40
0.218749999999999
 40
0.2499999999999989
 40
0.2499999999999989
 40
0.2812499999999989
 40
0.2812499999999989
 40
0.3124999999999988
 40
0.3124999999999988
 40
0.3437499999999988
 40
0.3437499999999988
 40
0.3749999999999988
 40
0.3749999999999988
 40
0.4374999999999989
 40
0.4374999999999989
 40
0.4999999999999991
 40
0.4999999999999991
 40
0.531249999999999
 40
0.531249999999999
 40
0.5624999999999988
 40
0.5624999999999988
 40
0.6249999999999989
 40
0.6249999999999989
 40
0.656249999999999
 40
0.656249999999999
 40
0.6874999999999991
 40
0.6874999999999991
 40
0.7499999999999993
 40
0.7499999999999993
 40
0.7812499999999994
 40
0.7812499999999994
 40
0.8124999999999994
 40
0.8124999999999994
 40
0.8749999999999997
 40
0.8749999999999997
 40
0.9062499999999998
 40
0.9062499999999998
 40
0.9374999999999999
 40
0.9374999999999999
 40
0.9687499999999999
 40
0.9687499999999999
 40
1.0
 40
1.0
 40
1.0
 40
1.0
 10
131.9461256637624
 20
113.6448105372191
 30
0.0
 10
131.835258173961
 20
113.6448105372191
 30
0.0
 10
131.7266635471163
 20
113.6573234357311
 30
0.0
 10
131.5136765314241
 20
113.7055958501228
 30
0.0
 10
131.4082401799257
 20
113.7419976632793
 30
0.0
 10
131.1103095305648
 20
113.880562299411
 30
0.0
 10
130.93022641857
 20
114.0141347153202
 30
0.0
 10
130.630684093633
 20
114.3325030927217
 30
0.0
 10
130.5083801167701
 20
114.5206222005781
 30
0.0
 10
130.3834820205394
 20
114.8192044980931
 30
0.0
 10
130.3507406376355
 20
114.9237655452315
 30
0.0
 10
130.307368131398
 20
115.1317922397328
 30
0.0
 10
130.2963349458971
 20
115.2353918331489
 30
0.0
 10
130.2959222217739
 20
115.4416064738425
 30
0.0
 10
130.3069114786304
 20
115.5440397997684
 30
0.0
 10
130.3496988707007
 20
115.7376363372986
 30
0.0
 10
130.3817483172722
 20
115.8308634911036
 30
0.0
 10
130.4655243047002
 20
116.0062480788232
 30
0.0
 10
130.5164069912941
 20
116.0870956096679
 30
0.0
 10
130.6354873044771
 20
116.2368283691645
 30
0.0
 10
130.7041669339378
 20
116.3058382909056
 30
0.0
 10
130.9288973693814
 20
116.4890450825626
 30
0.0
 10
131.109414016395
 20
116.5841344586118
 30
0.0
 10
131.5038100902132
 20
116.7115882578308
 30
0.0
 10
131.7236942652549
 20
116.7453843125788
 30
0.0
 10
132.0511726556242
 20
116.7459963578954
 30
0.0
 10
132.1624026438552
 20
116.7378729535157
 30
0.0
 10
132.3764130073812
 20
116.7056053346735
 30
0.0
 10
132.479950367049
 20
116.6816711271719
 30
0.0
 10
132.7807562506443
 20
116.5854694523982
 30
0.0
 10
132.9601943746626
 20
116.4910671814748
 30
0.0
 10
133.1860507238279
 20
116.3077664421695
 30
0.0
 10
133.2535705681809
 20
116.2402772501455
 30
0.0
 10
133.3732297884965
 20
116.0909228552928
 30
0.0
 10
133.4252662563361
 20
116.008618791315
 30
0.0
 10
133.5503490979355
 20
115.7487804639592
 30
0.0
 10
133.5956930127211
 20
115.5496045152848
 30
0.0
 10
133.5963372033934
 20
115.241895655498
 30
0.0
 10
133.5855437674795
 20
115.1362486572614
 30
0.0
 10
133.5424384176781
 20
114.9269733843108
 30
0.0
 10
133.5106234647265
 20
114.824387522859
 30
0.0
 10
133.3854699280861
 20
114.5229897749541
 30
0.0
 10
133.2640890038117
 20
114.3354437171998
 30
0.0
 10
133.0371618953502
 20
114.093865130554
 30
0.0
 10
132.9553341022008
 20
114.0212013386905
 30
0.0
 10
132.7789835125507
 20
113.8918628785613
 30
0.0
 10
132.6832149056716
 20
113.8346936856775
 30
0.0
 10
132.4845916209399
 20
113.742219618448
 30
0.0
 10
132.3817334300063
 20
113.7065416732917
 30
0.0
 10
132.168351210332
 20
113.6577261111467
 30
0.0
 10
132.0569931535638
 20
113.6448105372191
 30
0.0
 10
131.9461256637624
 20
113.6448105372191
 30
0.0
  0
ELLIPSE
  5
118
330
1F
100
AcDbEntity
  8
0
  6
HIDDEN
 62
     7
370
     0
100
AcDbEllipse
 10
131.9461256638
 20
121.0661382318
 30
0.0
 11
-1.383467579512114
 21
1.753907414218503
 31
0.0
210
0.0
220
0.0
230
1.0
 40
0.5126701559
 41
5.277237470113662
 42
5.288724596347235
  0
ELLIPSE
  5
119
330
1F
100
AcDbEntity
  8
0
  6
HIDDEN
 62
     7
370
     0
100
AcDbEllipse
 10
131.9461256638
 20
121.0661382318
 30
0.0
 11
1.383467579512114
 21
1.091267719176599
 31
0.0
210
0.0
220
0.0
230
1.0
 40
0.8239737799
 41
0.9944607108323605
 42
4.136053364422167
  0
ELLIPSE
  5
11A
330
1F
100
AcDbEntity
  8
0
  6
HIDDEN
 62
     7
370
     0
100
AcDbEllipse
 10
131.9461256638
 20
121.0661382318
 30
0.0
 11
-1.383467579512114
 21
1.753907414218503
 31
0.0
210
0.0
220
0.0
230
1.0
 40
0.5126701559
 41
2.147131942757428
 42
2.158619068988984
  0
SPLINE
  5
11B
330
1F
100
AcDbEntity
  8
0
  6
HIDDEN
 62
     7
370
     0
100
AcDbSpline
210
0.0
220
0.0
230
1.0
 70
     8
 71
     3
 72
     8
 73
     4
 74
     0
 42
0.000000001
 43
0.00000001
 40
0.0
 40
0.0
 40
0.0
 40
0.0
 40
1.0
 40
1.0
 40
1.0
 40
1.0
 10
131.9650790051538
 20
119.5032950815506
 30
0.0
 10
131.9820778892604
 20
119.5112783550756
 30
0.0
 10
131.9990820338288
 20
119.5200147575373
 30
0.0
 10
132.0160667599582
 20
119.5294916093912
 30
0.0
  0
ELLIPSE
  5
11C
330
1F
100
AcDbEntity
  8
0
  6
HIDDEN
 62
     7
370
     0
100
AcDbEllipse
 10
131.9461256638
 20
121.0661382318
 30
0.0
 11
1.383467579512114
 21
1.091267719176599
 31
0.0
210
0.0
220
0.0
230
1.0
 40
0.8239737799
 41
4.13605336442217
 42
4.178454611730029
  0
ELLIPSE
  5
11D
330
1F
100
AcDbEntity
  8
0
  6
HIDDEN
 62
     7
370
     0
100
AcDbEllipse
 10
131.9461256638
 20
121.0661382318
 30
0.0
 11
-1.383467579512114
 21
1.753907414218503
 31
0.0
210
0.0
220
0.0
230
1.0
 40
0.5126701559
 41
5.288724596347244
 42
8.430317249937023
  0
ELLIPSE
  5
11E
330
1F
100
AcDbEntity
  8
0
  6
HIDDEN
 62
     7
370
     0
100
AcDbEllipse
 10
131.9461256638
 20
121.0661382318
 30
0.0
 11
1.383467579512114
 21
1.091267719176599
 31
0.0
210
0.0
220
0.0
230
1.0
 40
0.8239737799
 41
0.952059463516885
 42
0.994460710832364
  0
SPLINE
  5
11F
330
1F
100
AcDbEntity
  8
0
  6
HIDDEN
 62
     7
370
     0
100
AcDbSpline
210
0.0
220
0.0
230
1.0
 70
     8
 71
     3
 72
     8
 73
     4
 74
     0
 42
0.000000001
 43
0.00000001
 40
0.0
 40
0.0
 40
0.0
 40
0.0
 40
1.0
 40
1.0
 40
1.0
 40
1.0
 10
132.0160667599672
 20
122.6276900976226
 30
0.0
 10
131.9990820338318
 20
122.6205743875605
 30
0.0
 10
131.9820778892574
 20
122.6126992580234
 30
0.0
 10
131.9650790051448
 20
122.6040761385509
 30
0.0
  0
LWPOLYLINE
  5
120
330
1F
100
AcDbEntity
  8
0
  6
HIDDEN
 62
     7
370
     0
100
AcDbPolyline
 90
       18
 70
   128
 43
0.0
 10
131.946125932
 20
120.6219588174
 10
132.5421742424
 20
120.7266604295
 10
133.057723686
 20
121.0266235983
 10
133.423144862
 20
121.4813376545
 10
133.589086987
 20
122.0293907216
 10
133.5331377834
 20
122.5967645413
 10
133.2628540024
 20
123.1068322203
 10
132.8147388324
 20
123.490707553
 10
132.2493124082
 20
123.6965447432
 10
131.6429385244
 20
123.6965447432
 10
131.0775130316
 20
123.490707553
 10
130.6293969303
 20
123.1068322203
 10
130.3591131493
 20
122.5967645413
 10
130.3031639456
 20
122.0293907216
 10
130.4691060706
 20
121.4813376545
 10
130.8345281779
 20
121.0266235983
 10
131.3500766903
 20
120.7266604295
 10
131.946125932
 20
120.6219588174
  0
LINE
  5
121
330
1F
100
AcDbEntity
  8
0
  6
HIDDEN
 62
     7
370
     0
100
AcDbLine
 10
128.1361253261
 20
136.3757891348
 30
0.0
 11
128.1361253261
 21
132.5285477331
 31
0.0
  0
LINE
  5
122
330
1F
100
AcDbEntity
  8
0
  6
HIDDEN
 62
     7
370
     0
100
AcDbLine
 10
131.9561255425
 20
136.3757891348
 30
0.0
 11
131.9561255425
 21
132.5285477331
 31
0.0
  0
SPLINE
  5
123
330
1F
100
AcDbEntity
  8
0
  6
HIDDEN
 62
     7
370
     0
100
AcDbSpline
210
0.0
220
0.0
230
1.0
 70
     8
 71
     3
 72
    14
 73
    10
 74
     0
 42
0.000000001
 43
0.00000001
 40
0.0
 40
0.0
 40
0.0
 40
0.0
 40
0.25
 40
0.25
 40
0.5
 40
0.5
 40
0.75
 40
0.75
 40
1.0
 40
1.0
 40
1.0
 40
1.0
 10
131.1561256637623
 20
125.4610273613407
 30
0.0
 10
131.2538079148763
 20
125.4995496753731
 30
0.0
 10
131.3559214239136
 20
125.5371650348318
 30
0.0
 10
131.5480935950825
 20
125.6082737604188
 30
0.0
 10
131.6395122684093
 20
125.6424798109228
 30
0.0
 10
131.7910282574235
 20
125.7093692892798
 30
0.0
 10
131.8521754599624
 20
125.7426397518407
 30
0.0
 10
131.9348821616509
 20
125.8120381019345
 30
0.0
 10
131.9561256637624
 20
125.8478152075305
 30
0.0
 10
131.9561256637624
 20
125.8843105397812
 30
0.0
  0
SPLINE
  5
124
330
1F
100
AcDbEntity
  8
0
  6
HIDDEN
 62
     7
370
     0
100
AcDbSpline
210
0.0
220
0.0
230
1.0
 70
     8
 71
     3
 72
    14
 73
    10
 74
     0
 42
0.000000001
 43
0.00000001
 40
0.0
 40
0.0
 40
0.0
 40
0.0
 40
0.2500000000000005
 40
0.2500000000000005
 40
0.5000000000000003
 40
0.5000000000000003
 40
0.7500000000000001
 40
0.7500000000000001
 40
1.0
 40
1.0
 40
1.0
 40
1.0
 10
131.9561256637624
 20
122.1255870415622
 30
0.0
 10
131.9561256637624
 20
122.0890981106549
 30
0.0
 10
131.9349562875901
 20
122.0525993189212
 30
0.0
 10
131.8522106697378
 20
121.9872239711842
 30
0.0
 10
131.79135704491
 20
121.9592871368379
 30
0.0
 10
131.6397521782189
 20
121.9253961075912
 30
0.0
 10
131.5485298677517
 20
121.9199706550047
 30
0.0
 10
131.3561993180484
 20
121.9408899788173
 30
0.0
 10
131.2539484335714
 20
121.9674461262577
 30
0.0
 10
131.1561256637623
 20
122.0079158845635
 30
0.0
  0
LINE
  5
125
330
1F
100
AcDbEntity
  8
0
  6
HIDDEN
 62
     7
370
     0
100
AcDbLine
 10
131.9561255425
 20
106.1772653601
 30
0.0
 11
131.9561255425
 21
102.4185424438
 31
0.0
  0
LINE
  5
126
330
1F
100
AcDbEntity
  8
0
  6
HIDDEN
 62
     7
370
     0
100
AcDbLine
 10
133.5679627284
 20
104.4265279314
 30
0.0
 11
133.5679627284
 21
102.2270485526
 31
0.0
  0
LINE
  5
127
330
1F
100
AcDbEntity
  8
0
  6
HIDDEN
 62
     7
370
     0
100
AcDbLine
 10
133.5679627284
 20
140.0887785247
 30
0.0
 11
133.5679627284
 21
132.5285477331
 31
0.0
  0
LINE
  5
128
330
1F
100
AcDbEntity
  8
0
  6
HIDDEN
 62
     7
370
     0
100
AcDbLine
 10
126.5242890715
 20
140.0887785247
 30
0.0
 11
126.5242890715
 21
132.5285477331
 31
0.0
  0
SPLINE
  5
129
330
1F
100
AcDbEntity
  8
0
  6
HIDDEN
 62
     7
370
     0
100
AcDbSpline
210
0.0
220
0.0
230
1.0
 70
     8
 71
     3
 72
    10
 73
     6
 74
     0
 42
0.000000001
 43
0.00000001
 40
0.0
 40
0.0
 40
0.0
 40
0.0
 40
0.5
 40
0.5
 40
1.0
 40
1.0
 40
1.0
 40
1.0
 10
129.970234901122
 20
121.9250873407014
 30
0.0
 10
129.9546288501408
 20
122.0303595413099
 30
0.0
 10
129.9461243871122
 20
122.1342980391008
 30
0.0
 10
129.9461269407019
 20
122.3338113110568
 30
0.0
 10
129.9546245283023
 20
122.4250238057272
 30
0.0
 10
129.970234901122
 20
122.5069557380704
 30
0.0
  0
SPLINE
  5
12A
330
1F
100
AcDbEntity
  8
0
  6
HIDDEN
 62
     7
370
     0
100
AcDbSpline
210
0.0
220
0.0
230
1.0
 70
     8
 71
     3
 72
    14
 73
    10
 74
     0
 42
0.000000001
 43
0.00000001
 40
0.0
 40
0.0
 40
0.0
 40
0.0
 40
0.25
 40
0.25
 40
0.5
 40
0.5
 40
0.75
 40
0.75
 40
1.0
 40
1.0
 40
1.0
 40
1.0
 10
129.970234901122
 20
122.5069557380704
 30
0.0
 10
130.0065987291522
 20
122.4614611026686
 30
0.0
 10
130.0390764563624
 20
122.4130692964523
 30
0.0
 10
130.0878300857781
 20
122.3075841525227
 30
0.0
 10
130.1027338634526
 20
122.2509996442798
 30
0.0
 10
130.1027442971102
 20
122.1421120503294
 30
0.0
 10
130.0878540013021
 20
122.0899273845667
 30
0.0
 10
130.0389650704244
 20
121.9986499856232
 30
0.0
 10
130.0065928921541
 20
121.9599832802491
 30
0.0
 10
129.970234901122
 20
121.9250873407014
 30
0.0
  0
LWPOLYLINE
  5
12B
330
1F
100
AcDbEntity
  8
0
  6
HIDDEN
 62
     7
370
     0
100
AcDbPolyline
 90
       18
 70
   128
 43
0.0
 10
122.777853094
 20
122.1585940337
 10
122.9367786347
 20
121.7293828493
 10
123.1967289261
 20
121.47779956
 10
123.5225963666
 20
121.4378216072
 10
123.8703703768
 20
121.6148483335
 10
124.1930824965
 20
121.9849712914
 10
124.4471482261
 20
122.4982026732
 10
124.5982553139
 20
123.0852292618
 10
124.6259956881
 20
123.6667684978
 10
124.5266221724
 20
124.1642800859
 10
124.3135565221
 20
124.5105737588
 10
124.0155742764
 20
124.6588794282
 10
123.6729192808
 20
124.5891680709
 10
123.3318689539
 20
124.3108544266
 10
123.0384846478
 20
123.8615266746
 10
122.8323887828
 20
123.3018679312
 10
122.7414162624
 20
122.7074643365
 10
122.777853094
 20
122.1585940337
  0
LWPOLYLINE
  5
12C
330
1F
100
AcDbEntity
  8
0
  6
HIDDEN
 62
     7
370
     0
100
AcDbPolyline
 90
       19
 70
   128
 43
0.0
 10
129.9702347516
 20
121.9250872499
 10
130.1788538023
 20
121.3361407398
 10
130.580251038
 20
120.8431740059
 10
131.1306412592
 20
120.4999606824
 10
131.7699858248
 20
120.3439390054
 10
132.4285445064
 20
120.3921288951
 10
133.0344797372
 20
120.6392730354
 10
133.5216955542
 20
121.0584128974
 10
133.8370432406
 20
121.6038275278
 10
133.9461253285
 20
122.2160212463
 10
133.8370432406
 20
122.8282158962
 10
133.5216955542
 20
123.3736300609
 10
133.0344797372
 20
123.7927699229
 10
132.4285445064
 20
124.0399140632
 10
131.7699858248
 20
124.0881044185
 10
131.1306412592
 20
123.9320827416
 10
130.580251038
 20
123.5888689524
 10
130.1788538023
 20
123.0959022185
 10
129.9702347516
 20
122.5069561741
  0
SPLINE
  5
12D
330
1F
100
AcDbEntity
  8
0
  6
HIDDEN
 62
     7
370
     0
100
AcDbSpline
210
0.0
220
0.0
230
1.0
 70
     8
 71
     3
 72
    12
 73
     8
 74
     0
 42
0.000000001
 43
0.00000001
 40
0.0
 40
0.0
 40
0.0
 40
0.0
 40
0.2499999999999997
 40
0.2499999999999997
 40
0.4999999999999993
 40
0.4999999999999993
 40
1.0
 40
1.0
 40
1.0
 40
1.0
 10
133.5679623058191
 20
126.1300479694396
 30
0.0
 10
133.6909097996147
 20
125.9720911207445
 30
0.0
 10
133.7844540027235
 20
125.800257753767
 30
0.0
 10
133.9133933918857
 20
125.4285850441211
 30
0.0
 10
133.9459461492709
 20
125.2353965979299
 30
0.0
 10
133.9464824910047
 20
124.6471000596537
 30
0.0
 10
133.8138588340367
 20
124.2550818217649
 30
0.0
 10
133.5679623058191
 20
123.9305682390563
 30
0.0
  0
SPLINE
  5
12E
330
1F
100
AcDbEntity
  8
0
  6
HIDDEN
 62
     7
370
     0
100
AcDbSpline
210
0.0
220
0.0
230
1.0
 70
     8
 71
     3
 72
    12
 73
     8
 74
     0
 42
0.000000001
 43
0.00000001
 40
0.0
 40
0.0
 40
0.0
 40
0.0
 40
0.2499999999999994
 40
0.2499999999999994
 40
0.4999999999999989
 40
0.4999999999999989
 40
1.0
 40
1.0
 40
1.0
 40
1.0
 10
133.5679623058191
 20
123.9305682390563
 30
0.0
 10
133.4530662545585
 20
123.7108278039997
 30
0.0
 10
133.3263002380858
 20
123.5138594523779
 30
0.0
 10
133.0660853044673
 20
123.1601418795391
 30
0.0
 10
132.932577846505
 20
123.0033165856668
 30
0.0
 10
132.5241795779168
 20
122.5767740147591
 30
0.0
 10
132.2405264429793
 20
122.3500818358039
 30
0.0
 10
131.9561256637625
 20
122.1798306914084
 30
0.0
  0
SPLINE
  5
12F
330
1F
100
AcDbEntity
  8
0
  6
HIDDEN
 62
     7
370
     0
100
AcDbSpline
210
0.0
220
0.0
230
1.0
 70
     8
 71
     3
 72
    12
 73
     8
 74
     0
 42
0.000000001
 43
0.00000001
 40
0.0
 40
0.0
 40
0.0
 40
0.0
 40
0.5000000000000013
 40
0.5000000000000013
 40
0.7500000000000007
 40
0.7500000000000007
 40
1.0
 40
1.0
 40
1.0
 40
1.0
 10
131.9561256637624
 20
125.9385541896295
 30
0.0
 10
132.2403321983277
 20
126.1060183519232
 30
0.0
 10
132.5190279324315
 20
126.2176554514348
 30
0.0
 10
132.9283739756207
 20
126.2849687170742
 30
0.0
 10
133.0645133129403
 20
126.2901197570881
 30
0.0
 10
133.3258333619363
 20
126.2523538194688
 30
0.0
 10
133.4512545443681
 20
126.2108040611245
 30
0.0
 10
133.5679623058195
 20
126.1300479694417
 30
0.0
  0
SPLINE
  5
130
330
1F
100
AcDbEntity
  8
0
  6
HIDDEN
 62
     7
370
     0
100
AcDbSpline
210
0.0
220
0.0
230
1.0
 70
     8
 71
     3
 72
    11
 73
     7
 74
     0
 42
0.000000001
 43
0.00000001
 40
0.0
 40
0.0
 40
0.0
 40
0.0
 40
0.1586629657729187
 40
0.4474174176205519
 40
0.7365954204410801
 40
1.0
 40
1.0
 40
1.0
 40
1.0
 10
129.9741807653955
 20
123.7540008267864
 30
0.0
 10
129.9698397534645
 20
123.8701460564196
 30
0.0
 10
129.9575984321292
 20
124.1976667129148
 30
0.0
 10
130.1866878367847
 20
124.701161506886
 30
0.0
 10
130.5954426657961
 20
125.183677252738
 30
0.0
 10
130.975134703438
 20
125.3714975483477
 30
0.0
 10
131.1561259701303
 20
125.4610275617345
 30
0.0
  0
LWPOLYLINE
  5
131
330
1F
100
AcDbEntity
  8
0
  6
HIDDEN
 62
     7
370
     0
100
AcDbPolyline
 90
       20
 70
   128
 43
0.0
 10
122.396337267
 20
121.94908557
 10
122.5706259049
 20
121.4507306694
 10
122.8511139545
 20
121.1285782746
 10
123.2074060738
 20
121.0175385466
 10
123.6008921898
 20
121.1296446389
 10
123.9889328628
 20
121.4527474484
 10
124.3294770158
 20
121.9518348342
 10
124.5856214575
 20
122.5728221005
 10
124.7296095155
 20
123.2484156034
 10
124.7458373457
 20
123.9054050064
 10
124.6325466111
 20
124.4725953555
 10
124.4020140059
 20
124.8885212234
 10
124.0792217925
 20
125.1081121853
 10
123.6991485841
 20
125.1075720182
 10
123.3029821217
 20
124.8869584641
 10
122.9336526505
 20
124.4701785734
 10
122.6311830598
 20
123.9023977658
 10
122.4283505491
 20
123.2451429358
 10
122.3471347968
 20
122.56963884
 10
122.396337267
 20
121.94908557
  0
CIRCLE
  5
132
330
1F
100
AcDbEntity
  8
0
  6
HIDDEN
 62
     7
370
     0
100
AcDbCircle
 10
226.8961256638
 20
114.1785481712
 30
0.0
 40
4.000000000000001
  0
LINE
  5
133
330
1F
100
AcDbEntity
  8
0
  6
HIDDEN
 62
     7
370
     0
100
AcDbLine
 10
230.8952044025
 20
127.7285484365
 30
0.0
 11
230.8961282744
 21
127.7285484365
 31
0.0
  0
LINE
  5
134
330
1F
100
AcDbEntity
  8
0
  6
HIDDEN
 62
     7
370
     0
100
AcDbLine
 10
222.8961269631
 20
127.7285484365
 30
0.0
 11
230.8952044025
 21
127.7285484365
 31
0.0
  0
LINE
  5
135
330
1F
100
AcDbEntity
  8
0
  6
HIDDEN
 62
     7
370
     0
100
AcDbLine
 10
230.8952044025
 20
122.5338043413
 30
0.0
 11
230.8961282744
 21
122.5338043413
 31
0.0
  0
LINE
  5
136
330
1F
100
AcDbEntity
  8
0
  6
HIDDEN
 62
     7
370
     0
100
AcDbLine
 10
222.8961269631
 20
122.5338043413
 30
0.0
 11
230.8952044025
 21
122.5338043413
 31
0.0
  0
LINE
  5
137
330
1F
100
AcDbEntity
  8
0
  6
HIDDEN
 62
     7
370
     0
100
AcDbLine
 10
229.5653130188
 20
118.4285484022
 30
0.0
 11
229.5659239664
 21
118.4285484022
 31
0.0
  0
LINE
  5
138
330
1F
100
AcDbEntity
  8
0
  6
HIDDEN
 62
     7
370
     0
100
AcDbLine
 10
224.2263238206
 20
118.4285484022
 30
0.0
 11
229.5653130188
 21
118.4285484022
 31
0.0
  0
SPLINE
  5
139
330
1F
100
AcDbEntity
  8
0
  6
HIDDEN
 62
     7
370
     0
100
AcDbSpline
210
0.0
220
0.0
230
1.0
 70
     8
 71
     3
 72
    11
 73
     7
 74
     0
 42
0.000000001
 43
0.00000001
 40
0.0
 40
0.0
 40
0.0
 40
0.0
 40
0.1849307603361127
 40
0.5198463678024366
 40
0.8714438577591622
 40
1.0
 40
1.0
 40
1.0
 40
1.0
 10
224.9213139786771
 20
128.3379491186245
 30
0.0
 10
224.9184342342251
 20
128.2755455941845
 30
0.0
 10
224.9103391791308
 20
128.1001272621598
 30
0.0
 10
224.8952430790381
 20
127.970522257506
 30
0.0
 10
224.8812867430477
 20
128.129231056988
 30
0.0
 10
224.8738426520523
 20
128.293869016831
 30
0.0
 10
224.8718495740941
 20
128.3379491186245
 30
0.0
  0
SPLINE
  5
13A
330
1F
100
AcDbEntity
  8
0
  6
HIDDEN
 62
     7
370
     0
100
AcDbSpline
210
0.0
220
0.0
230
1.0
 70
     8
 71
     3
 72
    10
 73
     6
 74
     0
 42
0.000000001
 43
0.00000001
 40
0.0
 40
0.0
 40
0.0
 40
0.0
 40
0.4391217192840478
 40
0.7513716968962888
 40
0.9999999999999999
 40
0.9999999999999999
 40
0.9999999999999999
 40
0.9999999999999999
 10
224.8718495740941
 20
128.3379491186245
 30
0.0
 10
225.1545627569091
 20
128.2009686713929
 30
0.0
 10
225.6383071826072
 20
127.9665843843988
 30
0.0
 10
226.3415109330566
 20
128.0707705858386
 30
0.0
 10
226.6915129572738
 20
128.2558890754327
 30
0.0
 10
226.8466632142118
 20
128.3379491186245
 30
0.0
  0
SPLINE
  5
13B
330
1F
100
AcDbEntity
  8
0
  6
HIDDEN
 62
     7
370
     0
100
AcDbSpline
210
0.0
220
0.0
230
1.0
 70
     8
 71
     3
 72
    10
 73
     6
 74
     0
 42
0.000000001
 43
0.00000001
 40
0.0
 40
0.0
 40
0.0
 40
0.0
 40
0.4391214319489045
 40
0.7513713349075851
 40
1.0
 40
1.0
 40
1.0
 40
1.0
 10
226.8466632142118
 20
128.3379491186245
 30
0.0
 10
227.1364563642693
 20
128.2009686553768
 30
0.0
 10
227.6323152546892
 20
127.9665843005302
 30
0.0
 10
228.3531297687541
 20
128.0707707927065
 30
0.0
 10
228.7118976417991
 20
128.2558890853168
 30
0.0
 10
228.8709338083318
 20
128.3379491186245
 30
0.0
  0
SPLINE
  5
13C
330
1F
100
AcDbEntity
  8
0
  6
HIDDEN
 62
     7
370
     0
100
AcDbSpline
210
0.0
220
0.0
230
1.0
 70
     8
 71
     3
 72
    11
 73
     7
 74
     0
 42
0.000000001
 43
0.00000001
 40
0.0
 40
0.0
 40
0.0
 40
0.0
 40
0.1285561198861378
 40
0.4801535636154793
 40
0.81506924007777
 40
1.0
 40
1.0
 40
1.0
 40
1.0
 10
228.8709338083318
 20
128.3379491186245
 30
0.0
 10
228.8729271114132
 20
128.2938690162543
 30
0.0
 10
228.8803720434689
 20
128.1292310491444
 30
0.0
 10
228.8943138162272
 20
127.9705222630446
 30
0.0
 10
228.909425059886
 20
128.1001272373277
 30
0.0
 10
228.9175189007875
 20
128.2755455938442
 30
0.0
 10
228.9203982129148
 20
128.3379491186245
 30
0.0
  0
LINE
  5
13D
330
1F
100
AcDbEntity
  8
0
  6
HIDDEN
 62
     7
370
     0
100
AcDbLine
 10
226.8466632142
 20
123.4285482904
 30
0.0
 11
226.8466632142
 21
128.3379491186
 31
0.0
  0
LINE
  5
13E
330
1F
100
AcDbEntity
  8
0
  6
HIDDEN
 62
     7
370
     0
100
AcDbLine
 10
226.8466632142
 20
123.4285482904
 30
0.0
 11
225.8592601194
 21
123.4285482904
 31
0.0
  0
LINE
  5
13F
330
1F
100
AcDbEntity
  8
0
  6
HIDDEN
 62
     7
370
     0
100
AcDbLine
 10
227.858794786
 20
123.4285482904
 30
0.0
 11
226.8466632142
 21
123.4285482904
 31
0.0
  0
LINE
  5
140
330
1F
100
AcDbEntity
  8
0
  6
HIDDEN
 62
     7
370
     0
100
AcDbLine
 10
228.8956697359
 20
122.4285481265
 30
0.0
 11
228.8961242213
 21
122.4285481265
 31
0.0
  0
LINE
  5
141
330
1F
100
AcDbEntity
  8
0
  6
HIDDEN
 62
     7
370
     0
100
AcDbLine
 10
224.8961235657
 20
122.4285481265
 30
0.0
 11
228.8956697359
 21
122.4285481265
 31
0.0
  0
LINE
  5
142
330
1F
100
AcDbEntity
  8
0
  6
HIDDEN
 62
     7
370
     0
100
AcDbLine
 10
228.8709338083
 20
123.4285482904
 30
0.0
 11
227.858794786
 21
123.4285482904
 31
0.0
  0
LINE
  5
143
330
1F
100
AcDbEntity
  8
0
  6
HIDDEN
 62
     7
370
     0
100
AcDbLine
 10
225.8592601194
 20
123.4285482904
 30
0.0
 11
224.8718495741
 21
123.4285482904
 31
0.0
  0
LINE
  5
144
330
1F
100
AcDbEntity
  8
0
  6
HIDDEN
 62
     7
370
     0
100
AcDbLine
 10
228.8956697359
 20
123.4285482904
 30
0.0
 11
228.8709338083
 21
123.4285482904
 31
0.0
  0
LINE
  5
145
330
1F
100
AcDbEntity
  8
0
  6
HIDDEN
 62
     7
370
     0
100
AcDbLine
 10
228.8709338083
 20
123.4285482904
 30
0.0
 11
228.8709338083
 21
128.3379491186
 31
0.0
  0
LINE
  5
146
330
1F
100
AcDbEntity
  8
0
  6
HIDDEN
 62
     7
370
     0
100
AcDbLine
 10
224.9213139787
 20
123.4285482904
 30
0.0
 11
224.9213139787
 21
128.3379491186
 31
0.0
  0
LINE
  5
147
330
1F
100
AcDbEntity
  8
0
  6
HIDDEN
 62
     7
370
     0
100
AcDbLine
 10
224.8718495741
 20
123.4285482904
 30
0.0
 11
224.8718495741
 21
128.3379491186
 31
0.0
  0
LINE
  5
148
330
1F
100
AcDbEntity
  8
0
  6
HIDDEN
 62
     7
370
     0
100
AcDbLine
 10
228.9203982129
 20
123.4285482904
 30
0.0
 11
228.8956697359
 21
123.4285482904
 31
0.0
  0
LINE
  5
149
330
1F
100
AcDbEntity
  8
0
  6
HIDDEN
 62
     7
370
     0
100
AcDbLine
 10
226.9455920234
 20
123.4285482904
 30
0.0
 11
226.9455920234
 21
128.3379491186
 31
0.0
  0
LINE
  5
14A
330
1F
100
AcDbEntity
  8
0
  6
HIDDEN
 62
     7
370
     0
100
AcDbLine
 10
228.9203982129
 20
123.4285482904
 30
0.0
 11
228.9203982129
 21
128.3379491186
 31
0.0
  0
LWPOLYLINE
  5
14B
330
1F
100
AcDbEntity
  8
0
  6
HIDDEN
 62
     7
370
     0
100
AcDbPolyline
 90
       17
 70
   128
 43
0.0
 10
131.8454108461
 20
120.7255321322
 10
132.4182831942
 20
120.7949608332
 10
132.9192742034
 20
121.0651123664
 10
133.2721122801
 20
121.4948585956
 10
133.4230806007
 20
122.0187745756
 10
133.3491959869
 20
122.5570985815
 10
133.0617060214
 20
123.027876555
 10
132.6043800711
 20
123.3594348422
 10
132.0468400865
 20
123.5012994847
 10
131.4739677384
 20
123.4318703181
 10
130.9729767292
 20
123.1617187849
 10
130.6201395839
 20
122.73197209
 10
130.4691712632
 20
122.2080565757
 10
130.543055877
 20
121.6697321041
 10
130.8305449113
 20
121.1989545962
 10
131.2878717929
 20
120.8673958434
 10
131.8454108461
 20
120.7255321322
  0
LWPOLYLINE
  5
14C
330
1F
100
AcDbEntity
  8
0
  6
HIDDEN
 62
     7
370
     0
100
AcDbPolyline
 90
       20
 70
   128
 43
0.0
 10
131.8100606352
 20
120.3409904382
 10
132.4653270915
 20
120.4010691261
 10
133.0643304884
 20
120.6578254467
 10
133.5421585738
 20
121.0834370694
 10
133.8470316752
 20
121.6317816405
 10
133.9459129869
 20
122.2434375203
 10
133.8280857801
 20
122.8521220154
 10
133.5063184872
 20
123.3918756014
 10
133.0154807567
 20
123.8042074955
 10
132.4087622836
 20
124.044434703
 10
131.7519088536
 20
124.0865248954
 10
131.1161023825
 20
123.9259164548
 10
130.5702421143
 20
123.5800148687
 10
130.1734791398
 20
123.0863030768
 10
129.9688107594
 20
122.4982836983
 10
129.9784154891
 20
121.8796759611
 10
130.2012511789
 20
121.29751693
 10
130.6131714284
 20
120.814891602
 10
131.1695379465
 20
120.4841011903
 10
131.8100606352
 20
120.3409904382
  0
LWPOLYLINE
  5
14D
330
1F
100
AcDbEntity
  8
0
  6
HIDDEN
 62
     7
370
     0
100
AcDbPolyline
 90
       20
 70
   128
 43
0.0
 10
131.8100606352
 20
120.6659097923
 10
132.4653270915
 20
120.7259880146
 10
133.0643304884
 20
120.9827448009
 10
133.5421585738
 20
121.4083559579
 10
133.8470316752
 20
121.956700529
 10
133.9459129869
 20
122.5683564088
 10
133.8280857801
 20
123.1770418352
 10
133.5063184872
 20
123.7167954213
 10
133.0154807567
 20
124.129126384
 10
132.4087622836
 20
124.3693535915
 10
131.7519088536
 20
124.4114437839
 10
131.1161023825
 20
124.2508353433
 10
130.5702421143
 20
123.9049337572
 10
130.1734791398
 20
123.4112228966
 10
129.9688107594
 20
122.8232025868
 10
129.9784154891
 20
122.2045948497
 10
130.2012511789
 20
121.6224358185
 10
130.6131714284
 20
121.1398109561
 10
131.1695379465
 20
120.8090200788
 10
131.8100606352
 20
120.6659097923
  0
LWPOLYLINE
  5
14E
330
1F
100
AcDbEntity
  8
0
  6
HIDDEN
 62
     7
370
     0
100
AcDbPolyline
 90
       17
 70
   128
 43
0.0
 10
131.8440762609
 20
122.0752229682
 10
132.4245398193
 20
122.1455713502
 10
132.9321683645
 20
122.4193028873
 10
133.2896816804
 20
122.8547436884
 10
133.442650482
 20
123.3856012812
 10
133.3677870482
 20
123.9310582867
 10
133.0764879733
 20
124.4080733276
 10
132.613101907
 20
124.7440255946
 10
132.0481746718
 20
124.8877696461
 10
131.4677111133
 20
124.8174203327
 10
130.9600825682
 20
124.5436887956
 10
130.6025692522
 20
124.1082489258
 10
130.449601382
 20
123.5773904017
 10
130.5244648158
 20
123.0319333962
 10
130.8157629594
 20
122.5549183554
 10
131.2791490256
 20
122.2189660883
 10
131.8440762609
 20
122.0752229682
  0
LWPOLYLINE
  5
14F
330
1F
100
AcDbEntity
  8
0
  6
HIDDEN
 62
     7
370
     0
100
AcDbPolyline
 90
       17
 70
   128
 43
0.0
 10
131.8440762609
 20
121.0717443144
 10
132.4245398193
 20
121.1420931621
 10
132.9321683645
 20
121.4158246993
 10
133.2896816804
 20
121.8512650347
 10
133.442650482
 20
122.3821226275
 10
133.3677870482
 20
122.927579633
 10
133.0764879733
 20
123.4045946738
 10
132.613101907
 20
123.7405469409
 10
132.0481746718
 20
123.8842909923
 10
131.4677111133
 20
123.813941679
 10
130.9600825682
 20
123.5402110732
 10
130.6025692522
 20
123.1047702721
 10
130.449601382
 20
122.5739126793
 10
130.5244648158
 20
122.0284556738
 10
130.8157629594
 20
121.5514401673
 10
131.2791490256
 20
121.2154879002
 10
131.8440762609
 20
121.0717443144
  0
LWPOLYLINE
  5
150
330
1F
100
AcDbEntity
  8
0
  6
HIDDEN
 62
     7
370
     0
100
AcDbPolyline
 90
       20
 70
   128
 43
0.0
 10
131.8100606352
 20
120.8582963562
 10
132.4653270915
 20
120.9183745785
 10
133.0643304884
 20
121.1751313648
 10
133.5421585738
 20
121.6007425217
 10
133.8470316752
 20
122.1490870929
 10
133.9459129869
 20
122.760742507
 10
133.8280857801
 20
123.3694279334
 10
133.5063184872
 20
123.9091815195
 10
133.0154807567
 20
124.3215134135
 10
132.4087622836
 20
124.5617396897
 10
131.7519088536
 20
124.6038298822
 10
131.1161023825
 20
124.4432223728
 10
130.5702421143
 20
124.0973198554
 10
130.1734791398
 20
123.6036089948
 10
129.9688107594
 20
123.015588685
 10
129.9784154891
 20
122.3969809479
 10
130.2012511789
 20
121.8148223823
 10
130.6131714284
 20
121.3321970543
 10
131.1695379465
 20
121.0014066427
 10
131.8100606352
 20
120.8582963562
  0
LWPOLYLINE
  5
151
330
1F
100
AcDbEntity
  8
0
  6
HIDDEN
 62
     7
370
     0
100
AcDbPolyline
 90
       19
 70
   128
 43
0.0
 10
131.8209450021
 20
120.8640086232
 10
132.4563537985
 20
120.9278088762
 10
133.0302207991
 20
121.1919771275
 10
133.4733301103
 20
121.6246519005
 10
133.7322359234
 20
122.1736451379
 10
133.7757109925
 20
122.772741667
 10
133.5985101088
 20
123.3496801695
 10
133.2220080569
 20
123.8348740852
 10
132.691615194
 20
124.1698018974
 10
132.0713059306
 20
124.3140656269
 10
131.4358971342
 20
124.2502663052
 10
130.8620301336
 20
123.9860975883
 10
130.4189208224
 20
123.5534228152
 10
130.1600150093
 20
123.0044295779
 10
130.1165408715
 20
122.4053330487
 10
130.2937408238
 20
121.8283945462
 10
130.6702428758
 20
121.3432006306
 10
131.2006357386
 20
121.0082728183
 10
131.8209450021
 20
120.8640086232
  0
LWPOLYLINE
  5
152
330
1F
100
AcDbEntity
  8
0
  6
HIDDEN
 62
     7
370
     0
100
AcDbPolyline
 90
       20
 70
   128
 43
0.0
 10
131.8100606352
 20
121.0506824544
 10
132.4653270915
 20
121.1107606767
 10
133.0643304884
 20
121.367517463
 10
133.5421585738
 20
121.7931286199
 10
133.8470316752
 20
122.3414731911
 10
133.9459129869
 20
122.9531295365
 10
133.8280857801
 20
123.5618140316
 10
133.5063184872
 20
124.1015676177
 10
133.0154807567
 20
124.5138995117
 10
132.4087622836
 20
124.7541257879
 10
131.7519088536
 20
124.7962159804
 10
131.1161023825
 20
124.635608471
 10
130.5702421143
 20
124.2897068849
 10
130.1734791398
 20
123.795995093
 10
129.9688107594
 20
123.2079747832
 10
129.9784154891
 20
122.5893679774
 10
130.2012511789
 20
122.0072084805
 10
130.6131714284
 20
121.5245836182
 10
131.1695379465
 20
121.1937927409
 10
131.8100606352
 20
121.0506824544
  0
LWPOLYLINE
  5
153
330
1F
100
AcDbEntity
  8
0
  6
HIDDEN
 62
     7
370
     0
100
AcDbPolyline
 90
       19
 70
   128
 43
0.0
 10
131.8209450021
 20
121.0563951871
 10
132.4563537985
 20
121.1201949744
 10
133.0302207991
 20
121.3843636914
 10
133.4733301103
 20
121.8170379987
 10
133.7322359234
 20
122.3660321674
 10
133.7757109925
 20
122.9651277652
 10
133.5985101088
 20
123.5420662677
 10
133.2220080569
 20
124.0272601834
 10
132.691615194
 20
124.3621879956
 10
132.0713059306
 20
124.5064517251
 10
131.4358971342
 20
124.4426524034
 10
130.8620301336
 20
124.1784836865
 10
130.4189208224
 20
123.7458089134
 10
130.1600150093
 20
123.1968156761
 10
130.1165408715
 20
122.5977191469
 10
130.2937408238
 20
122.0207806444
 10
130.6702428758
 20
121.5355867288
 10
131.2006357386
 20
121.2006593822
 10
131.8209450021
 20
121.0563951871
  0
LWPOLYLINE
  5
154
330
1F
100
AcDbEntity
  8
0
  6
HIDDEN
 62
     7
370
     0
100
AcDbPolyline
 90
       20
 70
   128
 43
0.0
 10
131.8100606352
 20
121.2430690183
 10
132.4653270915
 20
121.3031472406
 10
133.0643304884
 20
121.5599035612
 10
133.5421585738
 20
121.9855151838
 10
133.8470316752
 20
122.5338592893
 10
133.9459129869
 20
123.1455156347
 10
133.8280857801
 20
123.7542001298
 10
133.5063184872
 20
124.2939537159
 10
133.0154807567
 20
124.7062856099
 10
132.4087622836
 20
124.9465128175
 10
131.7519088536
 20
124.9886030099
 10
131.1161023825
 20
124.8279945693
 10
130.5702421143
 20
124.4820929831
 10
130.1734791398
 20
123.9883811912
 10
129.9688107594
 20
123.4003618127
 10
129.9784154891
 20
122.7817540756
 10
130.2012511789
 20
122.1995945788
 10
130.6131714284
 20
121.7169697164
 10
131.1695379465
 20
121.3861793047
 10
131.8100606352
 20
121.2430690183
  0
LWPOLYLINE
  5
155
330
1F
100
AcDbEntity
  8
0
  6
HIDDEN
 62
     7
370
     0
100
AcDbPolyline
 90
       19
 70
   128
 43
0.0
 10
131.8209450021
 20
121.2487812853
 10
132.4563537985
 20
121.3125815383
 10
133.0302207991
 20
121.5767497896
 10
133.4733301103
 20
122.009424097
 10
133.7322359234
 20
122.5584182656
 10
133.7757109925
 20
123.1575138635
 10
133.5985101088
 20
123.7344523659
 10
133.2220080569
 20
124.2196462816
 10
132.691615194
 20
124.5545740938
 10
132.0713059306
 20
124.6988387546
 10
131.4358971342
 20
124.6350385016
 10
130.8620301336
 20
124.3708697847
 10
130.4189208224
 20
123.9381959429
 10
130.1600150093
 20
123.3892017743
 10
130.1165408715
 20
122.7901061764
 10
130.2937408238
 20
122.2131667426
 10
130.6702428758
 20
121.7279732926
 10
131.2006357386
 20
121.3930454804
 10
131.8209450021
 20
121.2487812853
  0
LWPOLYLINE
  5
156
330
1F
100
AcDbEntity
  8
0
  6
HIDDEN
 62
     7
370
     0
100
AcDbPolyline
 90
       20
 70
   128
 43
0.0
 10
131.8100606352
 20
121.4354551165
 10
132.4653270915
 20
121.4955333388
 10
133.0643304884
 20
121.7522901251
 10
133.5421585738
 20
122.177901282
 10
133.8470316752
 20
122.7262463188
 10
133.9459129869
 20
123.3379017329
 10
133.8280857801
 20
123.9465871593
 10
133.5063184872
 20
124.4863407454
 10
133.0154807567
 20
124.8986717081
 10
132.4087622836
 20
125.1388989157
 10
131.7519088536
 20
125.1809891081
 10
131.1161023825
 20
125.0203806675
 10
130.5702421143
 20
124.6744790813
 10
130.1734791398
 20
124.1807682207
 10
129.9688107594
 20
123.5927479109
 10
129.9784154891
 20
122.9741401738
 10
130.2012511789
 20
122.3919816083
 10
130.6131714284
 20
121.9093562803
 10
131.1695379465
 20
121.5785654029
 10
131.8100606352
 20
121.4354551165
  0
LWPOLYLINE
  5
157
330
1F
100
AcDbEntity
  8
0
  6
HIDDEN
 62
     7
370
     0
100
AcDbPolyline
 90
       19
 70
   128
 43
0.0
 10
131.8209450021
 20
121.4411678492
 10
132.4563537985
 20
121.5049676365
 10
133.0302207991
 20
121.7691363534
 10
133.4733301103
 20
122.2018111265
 10
133.7322359234
 20
122.7508043638
 10
133.7757109925
 20
123.349900893
 10
133.5985101088
 20
123.9268393955
 10
133.2220080569
 20
124.4120333111
 10
132.691615194
 20
124.746960192
 10
132.0713059306
 20
124.8912248528
 10
131.4358971342
 20
124.8274245998
 10
130.8620301336
 20
124.5632568142
 10
130.4189208224
 20
124.1305820412
 10
130.1600150093
 20
123.5815878725
 10
130.1165408715
 20
122.9824922747
 10
130.2937408238
 20
122.4055537722
 10
130.6702428758
 20
121.9203593908
 10
131.2006357386
 20
121.5854320443
 10
131.8209450021
 20
121.4411678492
  0
LWPOLYLINE
  5
158
330
1F
100
AcDbEntity
  8
0
  6
HIDDEN
 62
     7
370
     0
100
AcDbPolyline
 90
       20
 70
   128
 43
0.0
 10
131.8100606352
 20
121.5722631431
 10
132.4653270915
 20
121.6323413654
 10
133.0643304884
 20
121.8890981516
 10
133.5421585738
 20
122.3147097743
 10
133.8470316752
 20
122.8630538797
 10
133.9459129869
 20
123.4747102252
 10
133.8280857801
 20
124.0833947203
 10
133.5063184872
 20
124.6231483063
 10
133.0154807567
 20
125.0354802004
 10
132.4087622836
 20
125.2757064766
 10
131.7519088536
 20
125.317796669
 10
131.1161023825
 20
125.1571891597
 10
130.5702421143
 20
124.8112875736
 10
130.1734791398
 20
124.3175757817
 10
129.9688107594
 20
123.7295554718
 10
129.9784154891
 20
123.110948666
 10
130.2012511789
 20
122.5287891692
 10
130.6131714284
 20
122.0461638412
 10
131.1695379465
 20
121.7153734295
 10
131.8100606352
 20
121.5722631431
  0
LWPOLYLINE
  5
159
330
1F
100
AcDbEntity
  8
0
  6
HIDDEN
 62
     7
370
     0
100
AcDbPolyline
 90
       19
 70
   128
 43
0.0
 10
131.8168639466
 20
121.7002166203
 10
132.4729918762
 20
121.7660969822
 10
133.0655719414
 20
122.0388799673
 10
133.5231307223
 20
122.4856633461
 10
133.7904789745
 20
123.0525584659
 10
133.8353715166
 20
123.6711904174
 10
133.6523927077
 20
124.2669425672
 10
133.2636130303
 20
124.7679577908
 10
132.7159245759
 20
125.1138072229
 10
132.0753879174
 20
125.2627750626
 10
131.4192599877
 20
125.1968951663
 10
130.8266789913
 20
124.9241126469
 10
130.3691211417
 20
124.4773292682
 10
130.1017719581
 20
123.910433217
 10
130.0568803474
 20
123.2918012655
 10
130.2398582249
 20
122.696050047
 10
130.6286379024
 20
122.1950338921
 10
131.1763263568
 20
121.8491849257
 10
131.8168639466
 20
121.7002166203
  0
ARC
  5
15A
330
1F
100
AcDbEntity
  8
0
  6
HIDDEN
 62
     7
370
     0
100
AcDbCircle
 10
131.9241163366
 20
104.8584128221
 30
0.0
 40
1.978658188106275
100
AcDbArc
 50
337.704592613
 51
178.511750761
  0
ARC
  5
15B
330
1F
100
AcDbEntity
  8
0
  6
HIDDEN
 62
     7
370
     0
100
AcDbCircle
 10
131.9254827073
 20
104.8222873412
 30
0.0
 40
1.885933211998745
100
AcDbArc
 50
341.0919274272
 51
160.7865218008
  0
ARC
  5
15C
330
1F
100
AcDbEntity
  8
0
  6
HIDDEN
 62
     7
370
     0
100
AcDbCircle
 10
132.0057603081
 20
104.8508157745
 30
0.0
 40
1.436180764510866
100
AcDbArc
 50
353.3534512003
 51
92.9668616817
  0
LWPOLYLINE
  5
15D
330
1F
100
AcDbEntity
  8
0
  6
HIDDEN
 62
     7
370
     0
100
AcDbPolyline
 90
       20
 70
   128
 43
0.0
 10
131.2620853334
 20
103.280566237
 10
130.6889130994
 20
103.5849680892
 10
130.2519793882
 20
104.0477618343
 10
129.9986326396
 20
104.6187957516
 10
129.9563273116
 20
105.2361909068
 10
130.1296473741
 20
105.8330410859
 10
130.4998108446
 20
106.3446696615
 10
131.0267047285
 20
106.7156340695
 10
131.6532324328
 20
106.9057333051
 10
132.3114996105
 20
106.8943674444
 10
132.9301734715
 20
106.6827690928
 10
133.4422099664
 20
106.2938669464
 10
133.7921218275
 20
105.7698052144
 10
133.9419921189
 20
105.1673745504
 10
133.8755795061
 20
104.5518569416
 10
133.6000803187
 20
103.9899537107
 10
133.1453490331
 20
103.5425556591
 10
132.5606637895
 20
103.258144646
 10
131.9093843251
 20
103.1675418607
 10
131.2620853334
 20
103.280566237
  0
LWPOLYLINE
  5
15E
330
1F
100
AcDbEntity
  8
0
  6
HIDDEN
 62
     7
370
     0
100
AcDbPolyline
 90
       17
 70
   128
 43
0.0
 10
131.4330957159
 20
104.5545456699
 10
130.9327408
 20
104.8398572719
 10
130.5866641253
 20
105.283381953
 10
130.4475534036
 20
105.817595101
 10
130.5365869104
 20
106.3611689723
 10
130.8402092456
 20
106.8313495024
 10
131.3121979385
 20
107.1565547726
 10
131.8806967958
 20
107.2872761405
 10
132.4591561481
 20
107.203612174
 10
132.9595110639
 20
106.9182996406
 10
133.3055877387
 20
106.4747754252
 10
133.4446984603
 20
105.9405622771
 10
133.3556649535
 20
105.3969884059
 10
133.052041687
 20
104.9268083415
 10
132.5800529941
 20
104.6016026056
 10
132.0115550681
 20
104.4708812377
 10
131.4330957159
 20
104.5545456699
  0
LWPOLYLINE
  5
15F
330
1F
100
AcDbEntity
  8
0
  6
HIDDEN
 62
     7
370
     0
100
AcDbPolyline
 90
       20
 70
   128
 43
0.0
 10
131.2620853334
 20
103.4729523352
 10
130.6889130994
 20
103.7773541874
 10
130.2519793882
 20
104.2401479325
 10
129.9986326396
 20
104.8111818498
 10
129.9563273116
 20
105.428577005
 10
130.1296473741
 20
106.0254271841
 10
130.4998108446
 20
106.5370562254
 10
131.0267047285
 20
106.9080201677
 10
131.6532324328
 20
107.0981194033
 10
132.3114996105
 20
107.0867540082
 10
132.9301734715
 20
106.875155191
 10
133.4422099664
 20
106.4862535103
 10
133.7921218275
 20
105.9621922439
 10
133.9419921189
 20
105.3597606486
 10
133.8755795061
 20
104.7442430398
 10
133.6000803187
 20
104.182339809
 10
133.1453490331
 20
103.7349417573
 10
132.5606637895
 20
103.4505307442
 10
131.9093843251
 20
103.3599288902
 10
131.2620853334
 20
103.4729523352
  0
LWPOLYLINE
  5
160
330
1F
100
AcDbEntity
  8
0
  6
HIDDEN
 62
     7
370
     0
100
AcDbPolyline
 90
       19
 70
   128
 43
0.0
 10
131.3168089166
 20
103.5661395407
 10
130.7633965536
 20
103.8663830376
 10
130.3526385948
 20
104.326382815
 10
130.1340795382
 20
104.8906562618
 10
130.1340795382
 20
105.4911441869
 10
130.3526385948
 20
106.0554176337
 10
130.7633965536
 20
106.515417411
 10
131.3168089166
 20
106.8156609079
 10
131.946125932
 20
106.9199345774
 10
132.5754429474
 20
106.8156609079
 10
133.1288553103
 20
106.515417411
 10
133.5396123379
 20
106.0554176337
 10
133.7581723257
 20
105.4911441869
 10
133.7581723257
 20
104.8906562618
 10
133.5396123379
 20
104.326382815
 10
133.1288553103
 20
103.8663830376
 10
132.5754429474
 20
103.5661395407
 10
131.946125932
 20
103.4618658713
 10
131.3168089166
 20
103.5661395407
  0
LWPOLYLINE
  5
161
330
1F
100
AcDbEntity
  8
0
  6
HIDDEN
 62
     7
370
     0
100
AcDbPolyline
 90
       20
 70
   128
 43
0.0
 10
131.2620853334
 20
103.6653384334
 10
130.6889130994
 20
103.9697402856
 10
130.2519793882
 20
104.4325340307
 10
129.9986326396
 20
105.0035688794
 10
129.9563273116
 20
105.6209631032
 10
130.1296473741
 20
106.2178142136
 10
130.4998108446
 20
106.7294427893
 10
131.0267047285
 20
107.1004067315
 10
131.6532324328
 20
107.2905059672
 10
132.3114996105
 20
107.2791401064
 10
132.9301734715
 20
107.0675417549
 10
133.4422099664
 20
106.6786396085
 10
133.7921218275
 20
106.1545783422
 10
133.9419921189
 20
105.5521476781
 10
133.8755795061
 20
104.9366300693
 10
133.6000803187
 20
104.3747259072
 10
133.1453490331
 20
103.9273278555
 10
132.5606637895
 20
103.6429177737
 10
131.9093843251
 20
103.5523149884
 10
131.2620853334
 20
103.6653384334
  0
LWPOLYLINE
  5
162
330
1F
100
AcDbEntity
  8
0
  6
HIDDEN
 62
     7
370
     0
100
AcDbPolyline
 90
       19
 70
   128
 43
0.0
 10
131.3168089166
 20
103.7585256389
 10
130.7633965536
 20
104.0587691358
 10
130.3526385948
 20
104.5187689132
 10
130.1340795382
 20
105.08304236
 10
130.1340795382
 20
105.6835302851
 10
130.3526385948
 20
106.2478037319
 10
130.7633965536
 20
106.7078035092
 10
131.3168089166
 20
107.0080474718
 10
131.946125932
 20
107.1123206756
 10
132.5754429474
 20
107.0080474718
 10
133.1288553103
 20
106.7078035092
 10
133.5396123379
 20
106.2478037319
 10
133.7581723257
 20
105.6835302851
 10
133.7581723257
 20
105.08304236
 10
133.5396123379
 20
104.5187689132
 10
133.1288553103
 20
104.0587691358
 10
132.5754429474
 20
103.7585256389
 10
131.946125932
 20
103.6542519695
 10
131.3168089166
 20
103.7585256389
  0
LWPOLYLINE
  5
163
330
1F
100
AcDbEntity
  8
0
  6
HIDDEN
 62
     7
370
     0
100
AcDbPolyline
 90
       20
 70
   128
 43
0.0
 10
131.2620853334
 20
103.8577245316
 10
130.6889130994
 20
104.1621263838
 10
130.2519793882
 20
104.6249201289
 10
129.9986326396
 20
105.1959549776
 10
129.9563273116
 20
105.8133492014
 10
130.1296473741
 20
106.4102003118
 10
130.4998108446
 20
106.9218288875
 10
131.0267047285
 20
107.2927928297
 10
131.6532324328
 20
107.4828920654
 10
132.3114996105
 20
107.4715266703
 10
132.9301734715
 20
107.2599278531
 10
133.4422099664
 20
106.8710261724
 10
133.7921218275
 20
106.3469644404
 10
133.9419921189
 20
105.7445337764
 10
133.8755795061
 20
105.1290161675
 10
133.6000803187
 20
104.5671129367
 10
133.1453490331
 20
104.1197139537
 10
132.5606637895
 20
103.8353038719
 10
131.9093843251
 20
103.7447010866
 10
131.2620853334
 20
103.8577245316
  0
LWPOLYLINE
  5
164
330
1F
100
AcDbEntity
  8
0
  6
HIDDEN
 62
     7
370
     0
100
AcDbPolyline
 90
       19
 70
   128
 43
0.0
 10
131.3168089166
 20
103.9509117371
 10
130.7633965536
 20
104.251155234
 10
130.3526385948
 20
104.7111559427
 10
130.1340795382
 20
105.2754293895
 10
130.1340795382
 20
105.8759163833
 10
130.3526385948
 20
106.4401898301
 10
130.7633965536
 20
106.9001900731
 10
131.3168089166
 20
107.20043357
 10
131.946125932
 20
107.3047072394
 10
132.5754429474
 20
107.20043357
 10
133.1288553103
 20
106.9001900731
 10
133.5396123379
 20
106.4401898301
 10
133.7581723257
 20
105.8759163833
 10
133.7581723257
 20
105.2754293895
 10
133.5396123379
 20
104.7111559427
 10
133.1288553103
 20
104.251155234
 10
132.5754429474
 20
103.9509117371
 10
131.946125932
 20
103.8466380677
 10
131.3168089166
 20
103.9509117371
  0
LWPOLYLINE
  5
165
330
1F
100
AcDbEntity
  8
0
  6
HIDDEN
 62
     7
370
     0
100
AcDbPolyline
 90
       20
 70
   128
 43
0.0
 10
131.2620853334
 20
104.0501115611
 10
130.6889130994
 20
104.3545134133
 10
130.2519793882
 20
104.8173071584
 10
129.9986326396
 20
105.3883410758
 10
129.9563273116
 20
106.0057362309
 10
130.1296473741
 20
106.6025864101
 10
130.4998108446
 20
107.1142154513
 10
131.0267047285
 20
107.4851793936
 10
131.6532324328
 20
107.6752786292
 10
132.3114996105
 20
107.6639127685
 10
132.9301734715
 20
107.4523144169
 10
133.4422099664
 20
107.0634122706
 10
133.7921218275
 20
106.5393510042
 10
133.9419921189
 20
105.9369198746
 10
133.8755795061
 20
105.3214022657
 10
133.6000803187
 20
104.7594990349
 10
133.1453490331
 20
104.3121009833
 10
132.5606637895
 20
104.0276899701
 10
131.9093843251
 20
103.9370871848
 10
131.2620853334
 20
104.0501115611
  0
LWPOLYLINE
  5
166
330
1F
100
AcDbEntity
  8
0
  6
HIDDEN
 62
     7
370
     0
100
AcDbPolyline
 90
       19
 70
   128
 43
0.0
 10
131.3168089166
 20
104.1432978353
 10
130.7633965536
 20
104.4435422635
 10
130.3526385948
 20
104.9035420409
 10
130.1340795382
 20
105.4678154877
 10
130.1340795382
 20
106.0683024815
 10
130.3526385948
 20
106.6325763939
 10
130.7633965536
 20
107.0925761713
 10
131.3168089166
 20
107.3928201339
 10
131.946125932
 20
107.4970933376
 10
132.5754429474
 20
107.3928201339
 10
133.1288553103
 20
107.0925761713
 10
133.5396123379
 20
106.6325763939
 10
133.7581723257
 20
106.0683024815
 10
133.7581723257
 20
105.4678154877
 10
133.5396123379
 20
104.9035420409
 10
133.1288553103
 20
104.4435422635
 10
132.5754429474
 20
104.1432978353
 10
131.946125932
 20
104.0390250972
 10
131.3168089166
 20
104.1432978353
  0
LWPOLYLINE
  5
167
330
1F
100
AcDbEntity
  8
0
  6
HIDDEN
 62
     7
370
     0
100
AcDbPolyline
 90
       20
 70
   128
 43
0.0
 10
131.2620853334
 20
104.3750304496
 10
130.6889130994
 20
104.6794323018
 10
130.2519793882
 20
105.1422260469
 10
129.9986326396
 20
105.7132599643
 10
129.9563273116
 20
106.3306551194
 10
130.1296473741
 20
106.9275057642
 10
130.4998108446
 20
107.4391343398
 10
131.0267047285
 20
107.8100982821
 10
131.6532324328
 20
108.0001975177
 10
132.3114996105
 20
107.9888321227
 10
132.9301734715
 20
107.7772333054
 10
133.4422099664
 20
107.3883316247
 10
133.7921218275
 20
106.8642698927
 10
133.9419921189
 20
106.2618387631
 10
133.8755795061
 20
105.6463211542
 10
133.6000803187
 20
105.0844179234
 10
133.1453490331
 20
104.6370198718
 10
132.5606637895
 20
104.3526088587
 10
131.9093843251
 20
104.2620070046
 10
131.2620853334
 20
104.3750304496
  0
LWPOLYLINE
  5
168
330
1F
100
AcDbEntity
  8
0
  6
HIDDEN
 62
     7
370
     0
100
AcDbPolyline
 90
       17
 70
   128
 43
0.0
 10
131.4398040324
 20
104.9364680192
 10
130.9459925889
 20
105.2180496743
 10
130.6044412106
 20
105.6557740784
 10
130.4671502932
 20
106.1830013758
 10
130.5550187155
 20
106.7194673932
 10
130.8546717539
 20
107.183498866
 10
131.3204876407
 20
107.5044517173
 10
131.8815517499
 20
107.6334636426
 10
132.4524469003
 20
107.5508935145
 10
132.946259275
 20
107.269312325
 10
133.2878097221
 20
106.8315879209
 10
133.4251015707
 20
106.3043601579
 10
133.3372322171
 20
105.7678941405
 10
133.0375801101
 20
105.3038626677
 10
132.5717632919
 20
104.982910282
 10
132.0106991827
 20
104.8538978911
 10
131.4398040324
 20
104.9364680192
  0
LWPOLYLINE
  5
169
330
1F
100
AcDbEntity
  8
0
  6
HIDDEN
 62
     7
370
     0
100
AcDbPolyline
 90
       20
 70
   128
 43
0.0
 10
125.0037238262
 20
120.6774018473
 10
124.6745622977
 20
120.8198513603
 10
124.4233338423
 20
121.1590371794
 10
124.2772628813
 20
121.6582037276
 10
124.2521777078
 20
122.2632579273
 10
124.3507977835
 20
122.9086328065
 10
124.5624352507
 20
123.5243916279
 10
124.8641562908
 20
124.0438088542
 10
125.2232649624
 20
124.4105962804
 10
125.6008454859
 20
124.5850069216
 10
125.9559820666
 20
124.5481405175
 10
126.2501896619
 20
124.3039933732
 10
126.451586306
 20
123.8790206379
 10
126.5383473858
 20
123.3192771441
 10
126.5010716654
 20
122.6854171372
 10
126.3437978252
 20
122.0461312449
 10
126.0835690684
 20
121.4706949657
 10
125.7485858425
 20
121.0214659339
 10
125.3751478418
 20
120.7471253118
 10
125.0037238262
 20
120.6774018473
  0
LWPOLYLINE
  5
16A
330
1F
100
AcDbEntity
  8
0
  6
HIDDEN
 62
     7
370
     0
100
AcDbPolyline
 90
       17
 70
   128
 43
0.0
 10
125.7643391638
 20
121.2644973537
 10
125.5248644649
 20
121.3844326092
 10
125.3589567989
 20
121.6724073282
 10
125.2918736338
 20
122.0845808974
 10
125.3338287845
 20
122.5582021988
 10
125.4784343093
 20
123.0211682385
 10
125.7036751396
 20
123.4029965243
 10
125.9752613753
 20
123.6455557636
 10
126.2518450878
 20
123.7119199476
 10
126.4913202524
 20
123.5919851577
 10
126.6572279185
 20
123.3040099731
 10
126.7243106178
 20
122.8918364039
 10
126.6823559328
 20
122.4182151026
 10
126.537750408
 20
121.9552490628
 10
126.312509112
 20
121.5734212427
 10
126.0409233421
 20
121.3308615378
 10
125.7643391638
 20
121.2644973537
  0
LWPOLYLINE
  5
16B
330
1F
100
AcDbEntity
  8
0
  6
HIDDEN
 62
     7
370
     0
100
AcDbPolyline
 90
       20
 70
   128
 43
0.0
 10
123.3450769707
 20
121.0746230325
 10
123.0159159079
 20
121.2170725456
 10
122.7646874524
 20
121.5562583646
 10
122.6186162587
 20
122.0554249129
 10
122.593531318
 20
122.6604781813
 10
122.6921513937
 20
123.3058530605
 10
122.9037888608
 20
123.9216128132
 10
123.205509901
 20
124.4410300395
 10
123.5646185725
 20
124.8078165344
 10
123.942199096
 20
124.9822281069
 10
124.2973356768
 20
124.9453617028
 10
124.5915432721
 20
124.7012145585
 10
124.7929399162
 20
124.2762418231
 10
124.8797009959
 20
123.7164983294
 10
124.8424252755
 20
123.0826383224
 10
124.6851514354
 20
122.4433524302
 10
124.4249226786
 20
121.867916151
 10
124.0899394527
 20
121.4186871192
 10
123.716501452
 20
121.1443464971
 10
123.3450769707
 20
121.0746230325
  0
LINE
  5
16C
330
1F
100
AcDbEntity
  8
0
  6
HIDDEN
 62
     7
370
     0
100
AcDbLine
 10
124.3525379598
 20
123.4036735958
 30
0.0
 11
125.0045336112
 21
123.9128863207
 31
0.0
  0
LINE
  5
16D
330
1F
100
AcDbEntity
  8
0
  6
HIDDEN
 62
     7
370
     0
100
AcDbLine
 10
124.1273688413
 20
122.2732575378
 30
0.0
 11
124.3525379598
 21
123.4036735958
 31
0.0
  0
LINE
  5
16E
330
1F
100
AcDbEntity
  8
0
  6
HIDDEN
 62
     7
370
     0
100
AcDbLine
 10
124.3525379598
 20
123.4036735958
 30
0.0
 11
123.1238100938
 21
123.6979361391
 31
0.0
  0
LINE
  5
16F
330
1F
100
AcDbEntity
  8
0
  6
HIDDEN
 62
     7
370
     0
100
AcDbLine
 10
124.1273688413
 20
122.2732575378
 30
0.0
 11
122.8986405096
 21
122.5675200811
 31
0.0
  0
LINE
  5
170
330
1F
100
AcDbEntity
  8
0
  6
HIDDEN
 62
     7
370
     0
100
AcDbLine
 10
124.1273688413
 20
122.2732575378
 30
0.0
 11
124.5541949085
 21
121.6520546703
 31
0.0
  0
LINE
  5
171
330
1F
100
AcDbEntity
  8
0
  6
HIDDEN
 62
     7
370
     0
100
AcDbLine
 10
122.8986405096
 20
122.5675200811
 30
0.0
 11
123.3254670426
 21
121.946316748
 31
0.0
  0
LINE
  5
172
330
1F
100
AcDbEntity
  8
0
  6
HIDDEN
 62
     7
370
     0
100
AcDbLine
 10
122.8986405096
 20
122.5675200811
 30
0.0
 11
123.1238100938
 21
123.6979361391
 31
0.0
  0
LINE
  5
173
330
1F
100
AcDbEntity
  8
0
  6
HIDDEN
 62
     7
370
     0
100
AcDbLine
 10
123.1238100938
 20
123.6979361391
 30
0.0
 11
123.7758052796
 21
124.207148864
 31
0.0
  0
LWPOLYLINE
  5
174
330
1F
100
AcDbEntity
  8
0
  6
HIDDEN
 62
     7
370
     0
100
AcDbPolyline
 90
       18
 70
   128
 43
0.0
 10
123.2366821989
 20
121.5005927487
 10
122.9441621601
 20
121.6395926429
 10
122.7335496135
 20
121.9726862154
 10
122.6332892458
 20
122.4548877916
 10
122.6569215562
 20
123.0210723123
 10
122.801254902
 20
123.5947744688
 10
123.0467962361
 20
124.0985119483
 10
123.3603841885
 20
124.4642525679
 10
123.6996668651
 20
124.6426008409
 10
124.0188217982
 20
124.609470903
 10
124.2747459821
 20
124.3693349651
 10
124.4328747764
 20
123.9546263358
 10
124.4718524888
 20
123.4213538236
 10
124.3864148184
 20
122.8415375343
 10
124.188100852
 20
122.2934858641
 10
123.9036935642
 20
121.8512161403
 10
123.5716039575
 20
121.5744592017
 10
123.2366821989
 20
121.5005927487
  0
LINE
  5
175
330
1F
100
AcDbEntity
  8
0
  6
HIDDEN
 62
     7
370
     0
100
AcDbLine
 10
125.4313596785
 20
123.2916839188
 30
0.0
 11
124.2026318125
 21
123.5859455308
 31
0.0
  0
LINE
  5
176
330
1F
100
AcDbEntity
  8
0
  6
HIDDEN
 62
     7
370
     0
100
AcDbLine
 10
124.2026318125
 20
123.5859455308
 30
0.0
 11
123.7758052796
 21
124.207148864
 31
0.0
  0
LINE
  5
177
330
1F
100
AcDbEntity
  8
0
  6
HIDDEN
 62
     7
370
     0
100
AcDbLine
 10
125.4313596785
 20
123.2916839188
 30
0.0
 11
125.0045336112
 21
123.9128863207
 31
0.0
  0
LINE
  5
178
330
1F
100
AcDbEntity
  8
0
  6
HIDDEN
 62
     7
370
     0
100
AcDbLine
 10
125.0045336112
 20
123.9128863207
 30
0.0
 11
123.7758052796
 21
124.207148864
 31
0.0
  0
LINE
  5
179
330
1F
100
AcDbEntity
  8
0
  6
HIDDEN
 62
     7
370
     0
100
AcDbLine
 10
125.20619056
 20
122.1612678608
 30
0.0
 11
123.9774622283
 21
122.4555294728
 31
0.0
  0
LINE
  5
17A
330
1F
100
AcDbEntity
  8
0
  6
HIDDEN
 62
     7
370
     0
100
AcDbLine
 10
123.9774622283
 20
122.4555294728
 30
0.0
 11
123.3254670426
 21
121.946316748
 31
0.0
  0
LINE
  5
17B
330
1F
100
AcDbEntity
  8
0
  6
HIDDEN
 62
     7
370
     0
100
AcDbLine
 10
124.5541949085
 20
121.6520546703
 30
0.0
 11
123.3254670426
 21
121.946316748
 31
0.0
  0
LINE
  5
17C
330
1F
100
AcDbEntity
  8
0
  6
HIDDEN
 62
     7
370
     0
100
AcDbLine
 10
125.20619056
 20
122.1612678608
 30
0.0
 11
124.5541949085
 21
121.6520546703
 31
0.0
  0
LINE
  5
17D
330
1F
100
AcDbEntity
  8
0
  6
HIDDEN
 62
     7
370
     0
100
AcDbLine
 10
123.9774622283
 20
122.4555294728
 30
0.0
 11
124.2026318125
 21
123.5859455308
 31
0.0
  0
LINE
  5
17E
330
1F
100
AcDbEntity
  8
0
  6
HIDDEN
 62
     7
370
     0
100
AcDbLine
 10
125.20619056
 20
122.1612678608
 30
0.0
 11
125.4313596785
 21
123.2916839188
 31
0.0
  0
LWPOLYLINE
  5
17F
330
1F
100
AcDbEntity
  8
0
  6
HIDDEN
 62
     7
370
     0
100
AcDbPolyline
 90
       18
 70
   128
 43
0.0
 10
123.2366821989
 20
106.8565035938
 10
122.9441621601
 20
106.7175036995
 10
122.7335496135
 20
106.3844101271
 10
122.6332892458
 20
105.9022085509
 10
122.6569215562
 20
105.3360240302
 10
122.801254902
 20
104.7623218736
 10
123.0467962361
 20
104.2585843942
 10
123.3603841885
 20
103.8928437746
 10
123.6996668651
 20
103.7144955015
 10
124.0188217982
 20
103.7476254395
 10
124.2747459821
 20
103.9877613774
 10
124.4328747764
 20
104.4024700067
 10
124.4718524888
 20
104.9357425189
 10
124.3864148184
 20
105.5155588082
 10
124.188100852
 20
106.0636104784
 10
123.9036935642
 20
106.5058802022
 10
123.5716039575
 20
106.7826371408
 10
123.2366821989
 20
106.8565035938
  0
LWPOLYLINE
  5
180
330
1F
100
AcDbEntity
  8
0
  6
HIDDEN
 62
     7
370
     0
100
AcDbPolyline
 90
       20
 70
   128
 43
0.0
 10
123.3450769707
 20
107.2824733099
 10
123.0159159079
 20
107.1400237969
 10
122.7646874524
 20
106.8008379778
 10
122.6186162587
 20
106.3016714296
 10
122.593531318
 20
105.6966181612
 10
122.6921513937
 20
105.051243282
 10
122.9037888608
 20
104.4354835293
 10
123.205509901
 20
103.916066303
 10
123.5646185725
 20
103.5492798081
 10
123.942199096
 20
103.3748682356
 10
124.2973356768
 20
103.4117346397
 10
124.5915432721
 20
103.655881784
 10
124.7929399162
 20
104.0808545193
 10
124.8797009959
 20
104.6405980131
 10
124.8424252755
 20
105.27445802
 10
124.6851514354
 20
105.9137439123
 10
124.4249226786
 20
106.4891801915
 10
124.0899394527
 20
106.9384092233
 10
123.716501452
 20
107.2127498454
 10
123.3450769707
 20
107.2824733099
  0
LWPOLYLINE
  5
181
330
1F
100
AcDbEntity
  8
0
  6
HIDDEN
 62
     7
370
     0
100
AcDbPolyline
 90
       20
 70
   128
 43
0.0
 10
125.0037238262
 20
107.6796944952
 10
124.6745622977
 20
107.5372449821
 10
124.4233338423
 20
107.1980591631
 10
124.2772628813
 20
106.6988926149
 10
124.2521777078
 20
106.0938384152
 10
124.3507977835
 20
105.4484635359
 10
124.5624352507
 20
104.8327047145
 10
124.8641562908
 20
104.3132874882
 10
125.2232649624
 20
103.9465000621
 10
125.6008454859
 20
103.7720894209
 10
125.9559820666
 20
103.808955825
 10
126.2501896619
 20
104.0531029692
 10
126.451586306
 20
104.4780757046
 10
126.5383473858
 20
105.0378191984
 10
126.5010716654
 20
105.6716792053
 10
126.3437978252
 20
106.3109650976
 10
126.0835690684
 20
106.8864013767
 10
125.7485858425
 20
107.3356304085
 10
125.3751478418
 20
107.6099710307
 10
125.0037238262
 20
107.6796944952
  0
LINE
  5
182
330
1F
100
AcDbEntity
  8
0
  6
HIDDEN
 62
     7
370
     0
100
AcDbLine
 10
123.1238100938
 20
104.6591602033
 30
0.0
 11
123.7758052796
 21
104.1499474785
 31
0.0
  0
LINE
  5
183
330
1F
100
AcDbEntity
  8
0
  6
HIDDEN
 62
     7
370
     0
100
AcDbLine
 10
124.2026318125
 20
104.7711508116
 30
0.0
 11
123.7758052796
 21
104.1499474785
 31
0.0
  0
LINE
  5
184
330
1F
100
AcDbEntity
  8
0
  6
HIDDEN
 62
     7
370
     0
100
AcDbLine
 10
123.9774622283
 20
105.9015668696
 30
0.0
 11
124.2026318125
 21
104.7711508116
 31
0.0
  0
LINE
  5
185
330
1F
100
AcDbEntity
  8
0
  6
HIDDEN
 62
     7
370
     0
100
AcDbLine
 10
123.9774622283
 20
105.9015668696
 30
0.0
 11
123.3254670426
 21
106.4107795945
 31
0.0
  0
LINE
  5
186
330
1F
100
AcDbEntity
  8
0
  6
HIDDEN
 62
     7
370
     0
100
AcDbLine
 10
122.8986405096
 20
105.7895762614
 30
0.0
 11
123.3254670426
 21
106.4107795945
 31
0.0
  0
LINE
  5
187
330
1F
100
AcDbEntity
  8
0
  6
HIDDEN
 62
     7
370
     0
100
AcDbLine
 10
122.8986405096
 20
105.7895762614
 30
0.0
 11
123.1238100938
 21
104.6591602033
 31
0.0
  0
LINE
  5
188
330
1F
100
AcDbEntity
  8
0
  6
HIDDEN
 62
     7
370
     0
100
AcDbLine
 10
125.20619056
 20
106.1958284816
 30
0.0
 11
123.9774622283
 21
105.9015668696
 31
0.0
  0
LINE
  5
189
330
1F
100
AcDbEntity
  8
0
  6
HIDDEN
 62
     7
370
     0
100
AcDbLine
 10
125.4313596785
 20
105.0654124236
 30
0.0
 11
124.2026318125
 21
104.7711508116
 31
0.0
  0
LWPOLYLINE
  5
18A
330
1F
100
AcDbEntity
  8
0
  6
HIDDEN
 62
     7
370
     0
100
AcDbPolyline
 90
       17
 70
   128
 43
0.0
 10
125.7643391638
 20
107.0925989887
 10
125.5248644649
 20
106.9726637332
 10
125.3589567989
 20
106.6846890143
 10
125.2918736338
 20
106.2725154451
 10
125.3338287845
 20
105.7988941437
 10
125.4784343093
 20
105.3359281039
 10
125.7036751396
 20
104.9540998182
 10
125.9752613753
 20
104.7115405789
 10
126.2518450878
 20
104.6451763949
 10
126.4913202524
 20
104.7651111847
 10
126.6572279185
 20
105.0530863693
 10
126.7243106178
 20
105.4652599385
 10
126.6823559328
 20
105.9388812399
 10
126.537750408
 20
106.4018472797
 10
126.312509112
 20
106.7836750998
 10
126.0409233421
 20
107.0262348047
 10
125.7643391638
 20
107.0925989887
  0
LINE
  5
18B
330
1F
100
AcDbEntity
  8
0
  6
HIDDEN
 62
     7
370
     0
100
AcDbLine
 10
124.3525379598
 20
104.9534227467
 30
0.0
 11
125.0045336112
 21
104.4442100218
 31
0.0
  0
LINE
  5
18C
330
1F
100
AcDbEntity
  8
0
  6
HIDDEN
 62
     7
370
     0
100
AcDbLine
 10
124.1273688413
 20
106.0838388047
 30
0.0
 11
124.3525379598
 21
104.9534227467
 31
0.0
  0
LINE
  5
18D
330
1F
100
AcDbEntity
  8
0
  6
HIDDEN
 62
     7
370
     0
100
AcDbLine
 10
124.1273688413
 20
106.0838388047
 30
0.0
 11
124.5541949085
 21
106.7050416722
 31
0.0
  0
LINE
  5
18E
330
1F
100
AcDbEntity
  8
0
  6
HIDDEN
 62
     7
370
     0
100
AcDbLine
 10
125.4313596785
 20
105.0654124236
 30
0.0
 11
125.0045336112
 21
104.4442100218
 31
0.0
  0
LINE
  5
18F
330
1F
100
AcDbEntity
  8
0
  6
HIDDEN
 62
     7
370
     0
100
AcDbLine
 10
125.20619056
 20
106.1958284816
 30
0.0
 11
125.4313596785
 21
105.0654124236
 31
0.0
  0
LINE
  5
190
330
1F
100
AcDbEntity
  8
0
  6
HIDDEN
 62
     7
370
     0
100
AcDbLine
 10
125.20619056
 20
106.1958284816
 30
0.0
 11
124.5541949085
 21
106.7050416722
 31
0.0
  0
LINE
  5
191
330
1F
100
AcDbEntity
  8
0
  6
HIDDEN
 62
     7
370
     0
100
AcDbLine
 10
124.1273688413
 20
106.0838388047
 30
0.0
 11
122.8986405096
 21
105.7895762614
 31
0.0
  0
LINE
  5
192
330
1F
100
AcDbEntity
  8
0
  6
HIDDEN
 62
     7
370
     0
100
AcDbLine
 10
124.5541949085
 20
106.7050416722
 30
0.0
 11
123.3254670426
 21
106.4107795945
 31
0.0
  0
LINE
  5
193
330
1F
100
AcDbEntity
  8
0
  6
HIDDEN
 62
     7
370
     0
100
AcDbLine
 10
124.3525379598
 20
104.9534227467
 30
0.0
 11
123.1238100938
 21
104.6591602033
 31
0.0
  0
LINE
  5
194
330
1F
100
AcDbEntity
  8
0
  6
HIDDEN
 62
     7
370
     0
100
AcDbLine
 10
125.0045336112
 20
104.4442100218
 30
0.0
 11
123.7758052796
 21
104.1499474785
 31
0.0
  0
LINE
  5
195
330
1F
100
AcDbEntity
  8
0
  6
HIDDEN
 62
     7
370
     0
100
AcDbLine
 10
133.9461253285
 20
103.3197050682
 30
0.0
 11
133.9461253285
 21
106.1410750961
 31
0.0
  0
LINE
  5
196
330
1F
100
AcDbEntity
  8
0
  6
HIDDEN
 62
     7
370
     0
100
AcDbLine
 10
129.9461256042
 20
106.1241203687
 30
0.0
 11
129.9461256042
 21
104.6026643133
 31
0.0
  0
LINE
  5
197
330
1F
100
AcDbEntity
  8
0
  6
HIDDEN
 62
     7
370
     0
100
AcDbLine
 10
122.1461255829
 20
102.7846229962
 30
0.0
 11
124.0397248677
 21
103.2381118974
 31
0.0
  0
LINE
  5
198
330
1F
100
AcDbEntity
  8
0
  6
HIDDEN
 62
     7
370
     0
100
AcDbLine
 10
123.0615474544
 20
107.3226151756
 30
0.0
 11
122.1461255829
 21
107.1033855668
 31
0.0
  0
LINE
  5
199
330
1F
100
AcDbEntity
  8
0
  6
HIDDEN
 62
     7
370
     0
100
AcDbLine
 10
124.0690862089
 20
103.7078682101
 30
0.0
 11
131.2761464416
 21
105.4338510847
 31
0.0
  0
LINE
  5
19A
330
1F
100
AcDbEntity
  8
0
  6
HIDDEN
 62
     7
370
     0
100
AcDbLine
 10
131.2761464416
 20
108.8271649322
 30
0.0
 11
123.3005183078
 21
106.9171205862
 31
0.0
  0
LINE
  5
19B
330
1F
100
AcDbEntity
  8
0
  6
HIDDEN
 62
     7
370
     0
100
AcDbLine
 10
133.596125923
 20
106.1846442288
 30
0.0
 11
133.596125923
 21
113.0179456203
 31
0.0
  0
LINE
  5
19C
330
1F
100
AcDbEntity
  8
0
  6
HIDDEN
 62
     7
370
     0
100
AcDbLine
 10
130.2961259409
 20
106.2068842119
 30
0.0
 11
130.2961259409
 21
106.1846442288
 31
0.0
  0
LINE
  5
19D
330
1F
100
AcDbEntity
  8
0
  6
HIDDEN
 62
     7
370
     0
100
AcDbLine
 10
130.2961259409
 20
113.0192329409
 30
0.0
 11
130.2961259409
 21
107.5847312576
 31
0.0
  0
ARC
  5
19E
330
1F
100
AcDbEntity
  8
0
  6
HIDDEN
 62
     7
370
     0
100
AcDbCircle
 10
237.9461256638
 20
124.1785481712
 30
0.0
 40
1.0
100
AcDbArc
 50
270.0
 51
0.0
  0
ARC
  5
19F
330
1F
100
AcDbEntity
  8
0
  6
HIDDEN
 62
     7
370
     0
100
AcDbCircle
 10
237.9461256638
 20
104.1785481712
 30
0.0
 40
1.0
100
AcDbArc
 50
0.0
 51
90.0
  0
ARC
  5
1A0
330
1F
100
AcDbEntity
  8
0
  6
HIDDEN
 62
     7
370
     0
100
AcDbCircle
 10
217.8408036657
 20
122.8785481712
 30
0.0
 40
0.7999999999999908
100
AcDbArc
 50
75.0
 51
90.0
  0
ARC
  5
1A1
330
1F
100
AcDbEntity
  8
0
  6
HIDDEN
 62
     7
370
     0
100
AcDbCircle
 10
217.8408036657
 20
105.4785481712
 30
0.0
 40
0.7999999999999972
100
AcDbArc
 50
270.0
 51
285.0
  0
LINE
  5
1A2
330
1F
100
AcDbEntity
  8
0
  6
HIDDEN
 62
     7
370
     0
100
AcDbLine
 10
217.84080372
 20
123.6785478658
 30
0.0
 11
217.2461281791
 21
123.6785478658
 31
0.0
  0
LINE
  5
1A3
330
1F
100
AcDbEntity
  8
0
  6
HIDDEN
 62
     7
370
     0
100
AcDbLine
 10
217.2461281791
 20
104.6785484767
 30
0.0
 11
217.84080372
 21
104.6785484767
 31
0.0
  0
ARC
  5
1A4
330
1F
100
AcDbEntity
  8
0
  6
HIDDEN
 62
     7
370
     0
100
AcDbCircle
 10
217.2461256638
 20
122.8785481712
 30
0.0
 40
0.8000000000000398
100
AcDbArc
 50
90.0
 51
180.0
  0
ARC
  5
1A5
330
1F
100
AcDbEntity
  8
0
  6
HIDDEN
 62
     7
370
     0
100
AcDbCircle
 10
217.2461256638
 20
105.4785481712
 30
0.0
 40
0.8000000000000398
100
AcDbArc
 50
180.0
 51
270.0
  0
LINE
  5
1A6
330
1F
100
AcDbEntity
  8
0
  6
HIDDEN
 62
     7
370
     0
100
AcDbLine
 10
218.0478553548
 20
104.7058073571
 30
0.0
 11
219.8121528401
 21
105.1785485587
 31
0.0
  0
LINE
  5
1A7
330
1F
100
AcDbEntity
  8
0
  6
HIDDEN
 62
     7
370
     0
100
AcDbLine
 10
219.8121528401
 20
123.1785477838
 30
0.0
 11
218.0478553548
 21
123.6512889853
 31
0.0
  0
ARC
  5
1A8
330
1F
100
AcDbEntity
  8
0
  6
HIDDEN
 62
     7
370
     0
100
AcDbCircle
 10
51.4961256638
 20
104.8785481712
 30
0.0
 40
0.7999999999999972
100
AcDbArc
 50
90.0
 51
180.0
  0
ARC
  5
1A9
330
1F
100
AcDbEntity
  8
0
  6
HIDDEN
 62
     7
370
     0
100
AcDbCircle
 10
51.4961256638
 20
123.4785481712
 30
0.0
 40
0.7999999999999972
100
AcDbArc
 50
180.0
 51
270.0
  0
LINE
  5
1AA
330
1F
100
AcDbEntity
  8
0
  6
HIDDEN
 62
     7
370
     0
100
AcDbLine
 10
223.4364728704
 20
123.1785477838
 30
0.0
 11
219.8121528401
 21
123.1785477838
 31
0.0
  0
LINE
  5
1AB
330
1F
100
AcDbEntity
  8
0
  6
HIDDEN
 62
     7
370
     0
100
AcDbLine
 10
237.9461284056
 20
123.1785477838
 30
0.0
 11
230.3603644743
 21
123.1785477838
 31
0.0
  0
LINE
  5
1AC
330
1F
100
AcDbEntity
  8
0
  6
HIDDEN
 62
     7
370
     0
100
AcDbLine
 10
219.8121528401
 20
105.1785485587
 30
0.0
 11
237.9461284056
 21
105.1785485587
 31
0.0
  0
LINE
  5
1AD
330
1F
100
AcDbEntity
  8
0
  6
HIDDEN
 62
     7
370
     0
100
AcDbLine
 10
58.5884991362
 20
105.4535485572
 30
0.0
 11
59.4651866033
 21
105.4535485572
 31
0.0
  0
LINE
  5
1AE
330
1F
100
AcDbEntity
  8
0
  6
HIDDEN
 62
     7
370
     0
100
AcDbLine
 10
59.4651866033
 20
122.9035477853
 30
0.0
 11
58.5884991362
 21
122.9035477853
 31
0.0
  0
ARC
  5
1AF
330
1F
100
AcDbEntity
  8
0
  6
HIDDEN
 62
     7
370
     0
100
AcDbCircle
 10
59.4651855561
 20
105.8535481712
 30
0.0
 40
0.4000000000000057
100
AcDbArc
 50
270.0
 51
330.0
  0
ARC
  5
1B0
330
1F
100
AcDbEntity
  8
0
  6
HIDDEN
 62
     7
370
     0
100
AcDbCircle
 10
59.4651855561
 20
122.5035481712
 30
0.0
 40
0.4000000000000057
100
AcDbArc
 50
30.0
 51
90.0
  0
ARC
  5
1B1
330
1F
100
AcDbEntity
  8
0
  6
HIDDEN
 62
     7
370
     0
100
AcDbCircle
 10
58.5884980945
 20
105.8535481712
 30
0.0
 40
0.3999999999999915
100
AcDbArc
 50
255.0
 51
270.0
  0
ARC
  5
1B2
330
1F
100
AcDbEntity
  8
0
  6
HIDDEN
 62
     7
370
     0
100
AcDbCircle
 10
58.5884980945
 20
122.5035481712
 30
0.0
 40
0.3999999999999915
100
AcDbArc
 50
90.0
 51
105.0
  0
LINE
  5
1B3
330
1F
100
AcDbEntity
  8
0
  6
HIDDEN
 62
     7
370
     0
100
AcDbLine
 10
58.4849695935
 20
122.8899188107
 30
0.0
 11
57.6961244717
 21
122.6785486332
 31
0.0
  0
LINE
  5
1B4
330
1F
100
AcDbEntity
  8
0
  6
HIDDEN
 62
     7
370
     0
100
AcDbLine
 10
57.6961244717
 20
105.6785477093
 30
0.0
 11
58.4849695935
 21
105.4671775317
 31
0.0
  0
LINE
  5
1B5
330
1F
100
AcDbEntity
  8
0
  6
HIDDEN
 62
     7
370
     0
100
AcDbLine
 10
59.8115938976
 20
105.6535482174
 30
0.0
 11
60.6920550838
 21
107.1785479552
 31
0.0
  0
LINE
  5
1B6
330
1F
100
AcDbEntity
  8
0
  6
HIDDEN
 62
     7
370
     0
100
AcDbLine
 10
60.6920550838
 20
121.1785483873
 30
0.0
 11
59.8115938976
 21
122.703548125
 31
0.0
  0
LINE
  5
1B7
330
1F
100
AcDbEntity
  8
0
  6
HIDDEN
 62
     7
370
     0
100
AcDbLine
 10
51.4961238279
 20
105.6785477093
 30
0.0
 11
57.6961244717
 21
105.6785477093
 31
0.0
  0
LINE
  5
1B8
330
1F
100
AcDbEntity
  8
0
  6
HIDDEN
 62
     7
370
     0
100
AcDbLine
 10
57.6961244717
 20
122.6785486332
 30
0.0
 11
51.4961238279
 21
122.6785486332
 31
0.0
  0
LINE
  5
1B9
330
1F
100
AcDbEntity
  8
0
  6
HIDDEN
 62
     7
370
     0
100
AcDbLine
 10
93.6961247846
 20
107.1785479552
 30
0.0
 11
95.8592239096
 21
110.7785481262
 31
0.0
  0
LINE
  5
1BA
330
1F
100
AcDbEntity
  8
0
  6
HIDDEN
 62
     7
370
     0
100
AcDbLine
 10
95.8592239096
 20
117.5785482163
 30
0.0
 11
93.6961247846
 21
121.1785483873
 31
0.0
  0
LINE
  5
1BB
330
1F
100
AcDbEntity
  8
0
  6
HIDDEN
 62
     7
370
     0
100
AcDbLine
 10
60.6920550838
 20
107.1785479552
 30
0.0
 11
93.6961247846
 21
107.1785479552
 31
0.0
  0
LINE
  5
1BC
330
1F
100
AcDbEntity
  8
0
  6
HIDDEN
 62
     7
370
     0
100
AcDbLine
 10
93.6961247846
 20
121.1785483873
 30
0.0
 11
60.6920550838
 21
121.1785483873
 31
0.0
  0
LINE
  5
1BD
330
1F
100
AcDbEntity
  8
0
  6
HIDDEN
 62
     7
370
     0
100
AcDbLine
 10
221.6461281552
 20
130.1785489312
 30
0.0
 11
223.3961279764
 21
128.4285481787
 31
0.0
  0
LINE
  5
1BE
330
1F
100
AcDbEntity
  8
0
  6
HIDDEN
 62
     7
370
     0
100
AcDbLine
 10
230.3961272612
 20
128.4285481787
 30
0.0
 11
232.1461270824
 21
130.1785489312
 31
0.0
  0
LINE
  5
1BF
330
1F
100
AcDbEntity
  8
0
  6
HIDDEN
 62
     7
370
     0
100
AcDbLine
 10
223.3961279764
 20
128.4285481787
 30
0.0
 11
223.3961279764
 21
123.1630179799
 31
0.0
  0
LINE
  5
1C0
330
1F
100
AcDbEntity
  8
0
  6
HIDDEN
 62
     7
370
     0
100
AcDbLine
 10
230.3961272612
 20
123.1648750371
 30
0.0
 11
230.3961272612
 21
128.4285481787
 31
0.0
  0
LINE
  5
1C1
330
1F
100
AcDbEntity
  8
0
  6
HIDDEN
 62
     7
370
     0
100
AcDbLine
 10
216.4461220875
 20
117.5785482163
 30
0.0
 11
95.8592239096
 21
117.5785482163
 31
0.0
  0
LINE
  5
1C2
330
1F
100
AcDbEntity
  8
0
  6
HIDDEN
 62
     7
370
     0
100
AcDbLine
 10
95.8592239096
 20
110.7785481262
 30
0.0
 11
216.4461220875
 21
110.7785481262
 31
0.0
  0
LINE
  5
1C3
330
1F
100
AcDbEntity
  8
0
  6
HIDDEN
 62
     7
370
     0
100
AcDbLine
 10
133.596125923
 20
115.3378634016
 30
0.0
 11
133.596125923
 21
122.1724521136
 31
0.0
  0
LINE
  5
1C4
330
1F
100
AcDbEntity
  8
0
  6
HIDDEN
 62
     7
370
     0
100
AcDbLine
 10
130.2961259409
 20
120.7723650849
 30
0.0
 11
130.2961259409
 21
115.3391507222
 31
0.0
  0
LINE
  5
1C5
330
1F
100
AcDbEntity
  8
0
  6
HIDDEN
 62
     7
370
     0
100
AcDbLine
 10
130.2961259409
 20
122.1724521136
 30
0.0
 11
130.2961259409
 21
122.1502121306
 31
0.0
  0
LINE
  5
1C6
330
1F
100
AcDbEntity
  8
0
  6
HIDDEN
 62
     7
370
     0
100
AcDbLine
 10
123.3005183078
 20
121.4399757563
 30
0.0
 11
131.2761464416
 21
119.5299314103
 31
0.0
  0
LINE
  5
1C7
330
1F
100
AcDbEntity
  8
0
  6
HIDDEN
 62
     7
370
     0
100
AcDbLine
 10
131.2761464416
 20
122.9232452577
 30
0.0
 11
124.0690862089
 21
124.6492281324
 31
0.0
  0
LINE
  5
1C8
330
1F
100
AcDbEntity
  8
0
  6
HIDDEN
 62
     7
370
     0
100
AcDbLine
 10
133.9461253285
 20
122.2160212463
 30
0.0
 11
133.9461253285
 21
125.0373912743
 31
0.0
  0
LINE
  5
1C9
330
1F
100
AcDbEntity
  8
0
  6
HIDDEN
 62
     7
370
     0
100
AcDbLine
 10
129.9461256042
 20
123.7544320291
 30
0.0
 11
129.9461256042
 21
122.2329759738
 31
0.0
  0
LINE
  5
1CA
330
1F
100
AcDbEntity
  8
0
  6
HIDDEN
 62
     7
370
     0
100
AcDbLine
 10
122.1461255829
 20
121.2537107757
 30
0.0
 11
123.0615474544
 21
121.0344811669
 31
0.0
  0
LINE
  5
1CB
330
1F
100
AcDbEntity
  8
0
  6
HIDDEN
 62
     7
370
     0
100
AcDbLine
 10
124.0397248677
 20
125.118984445
 30
0.0
 11
122.1461255829
 21
125.5724733463
 31
0.0
  0
LINE
  5
1CC
330
1F
100
AcDbEntity
  8
0
  6
HIDDEN
 62
     7
370
     0
100
AcDbLine
 10
230.8961282744
 20
127.7285484365
 30
0.0
 11
230.1961238756
 21
128.4285481787
 31
0.0
  0
LINE
  5
1CD
330
1F
100
AcDbEntity
  8
0
  6
HIDDEN
 62
     7
370
     0
100
AcDbLine
 10
223.5961239114
 20
128.4285481787
 30
0.0
 11
222.8961269631
 21
127.7285484365
 31
0.0
  0
LINE
  5
1CE
330
1F
100
AcDbEntity
  8
0
  6
HIDDEN
 62
     7
370
     0
100
AcDbLine
 10
222.8961269631
 20
127.7285484365
 30
0.0
 11
222.8961269631
 21
122.5338043413
 31
0.0
  0
LINE
  5
1CF
330
1F
100
AcDbEntity
  8
0
  6
HIDDEN
 62
     7
370
     0
100
AcDbLine
 10
230.8961282744
 20
122.5338043413
 30
0.0
 11
230.8961282744
 21
127.7285484365
 31
0.0
  0
LINE
  5
1D0
330
1F
100
AcDbEntity
  8
0
  6
HIDDEN
 62
     7
370
     0
100
AcDbLine
 10
222.8961269631
 20
122.5338043413
 30
0.0
 11
223.9365483894
 21
118.6509025982
 31
0.0
  0
LINE
  5
1D1
330
1F
100
AcDbEntity
  8
0
  6
HIDDEN
 62
     7
370
     0
100
AcDbLine
 10
229.8557068481
 20
118.6509025982
 30
0.0
 11
230.8961282744
 21
122.5338043413
 31
0.0
  0
ARC
  5
1D2
330
1F
100
AcDbEntity
  8
0
  6
HIDDEN
 62
     7
370
     0
100
AcDbCircle
 10
224.2263237602
 20
118.7285481712
 30
0.0
 40
0.2999999999999972
100
AcDbArc
 50
195.0
 51
270.0
  0
ARC
  5
1D3
330
1F
100
AcDbEntity
  8
0
  6
HIDDEN
 62
     7
370
     0
100
AcDbCircle
 10
229.5659275674
 20
118.7285481712
 30
0.0
 40
0.2999999999999972
100
AcDbArc
 50
270.0
 51
345.0
  0
LINE
  5
1D4
330
1F
100
AcDbEntity
  8
0
  6
HIDDEN
 62
     7
370
     0
100
AcDbLine
 10
224.4961242452
 20
128.4285481787
 30
0.0
 11
224.8961235657
 21
128.0285479269
 31
0.0
  0
LINE
  5
1D5
330
1F
100
AcDbEntity
  8
0
  6
HIDDEN
 62
     7
370
     0
100
AcDbLine
 10
228.8961242213
 20
128.0285479269
 30
0.0
 11
229.2961235418
 21
128.4285481787
 31
0.0
  0
LINE
  5
1D6
330
1F
100
AcDbEntity
  8
0
  6
HIDDEN
 62
     7
370
     0
100
AcDbLine
 10
224.8961235657
 20
123.4285482904
 30
0.0
 11
224.8961235657
 21
122.4285481265
 31
0.0
  0
LINE
  5
1D7
330
1F
100
AcDbEntity
  8
0
  6
HIDDEN
 62
     7
370
     0
100
AcDbLine
 10
228.8961242213
 20
122.4285481265
 30
0.0
 11
228.8961242213
 21
123.4285482904
 31
0.0
  0
LINE
  5
1D8
330
1F
100
AcDbEntity
  8
0
  6
HIDDEN
 62
     7
370
     0
100
AcDbLine
 10
224.8961235657
 20
122.4285481265
 30
0.0
 11
226.8961276188
 21
121.7006077758
 31
0.0
  0
LINE
  5
1D9
330
1F
100
AcDbEntity
  8
0
  6
HIDDEN
 62
     7
370
     0
100
AcDbLine
 10
226.8961276188
 20
121.7006077758
 30
0.0
 11
228.8961242213
 21
122.4285481265
 31
0.0
  0
LINE
  5
1DA
330
1F
100
AcDbEntity
  8
0
  6
HIDDEN
 62
     7
370
     0
100
AcDbLine
 10
133.9461253285
 20
122.2160212463
 30
0.0
 11
133.9461253285
 21
122.5409410662
 31
0.0
  0
LINE
  5
1DB
330
1F
100
AcDbEntity
  8
0
  6
HIDDEN
 62
     7
370
     0
100
AcDbLine
 10
129.9461256042
 20
122.5409410662
 30
0.0
 11
129.9461256042
 21
122.2160212463
 31
0.0
  0
LINE
  5
1DC
330
1F
100
AcDbEntity
  8
0
  6
HIDDEN
 62
     7
370
     0
100
AcDbLine
 10
133.4461252465
 20
122.478018119
 30
0.0
 11
133.4461252465
 21
123.4814958415
 31
0.0
  0
LINE
  5
1DD
330
1F
100
AcDbEntity
  8
0
  6
HIDDEN
 62
     7
370
     0
100
AcDbLine
 10
130.4461256861
 20
123.4814958415
 30
0.0
 11
130.4461256861
 21
122.478018119
 31
0.0
  0
LINE
  5
1DE
330
1F
100
AcDbEntity
  8
0
  6
HIDDEN
 62
     7
370
     0
100
AcDbLine
 10
133.9461253285
 20
123.3104863903
 30
0.0
 11
133.9461253285
 21
123.4472939512
 31
0.0
  0
LINE
  5
1DF
330
1F
100
AcDbEntity
  8
0
  6
HIDDEN
 62
     7
370
     0
100
AcDbLine
 10
129.9461256042
 20
123.4472939512
 30
0.0
 11
129.9461256042
 21
123.3104863903
 31
0.0
  0
LINE
  5
1E0
330
1F
100
AcDbEntity
  8
0
  6
HIDDEN
 62
     7
370
     0
100
AcDbLine
 10
129.9461256042
 20
105.0466099522
 30
0.0
 11
129.9461256042
 21
104.9098023912
 31
0.0
  0
LINE
  5
1E1
330
1F
100
AcDbEntity
  8
0
  6
HIDDEN
 62
     7
370
     0
100
AcDbLine
 10
133.9461253285
 20
104.9098023912
 30
0.0
 11
133.9461253285
 21
105.0466099522
 31
0.0
  0
LINE
  5
1E2
330
1F
100
AcDbEntity
  8
0
  6
HIDDEN
 62
     7
370
     0
100
AcDbLine
 10
130.4461256861
 20
105.8790782234
 30
0.0
 11
130.4461256861
 21
104.875600501
 31
0.0
  0
LINE
  5
1E3
330
1F
100
AcDbEntity
  8
0
  6
HIDDEN
 62
     7
370
     0
100
AcDbLine
 10
133.4461252465
 20
104.875600501
 30
0.0
 11
133.4461252465
 21
105.8790782234
 31
0.0
  0
LINE
  5
1E4
330
1F
100
AcDbEntity
  8
0
  6
HIDDEN
 62
     7
370
     0
100
AcDbLine
 10
129.9461256042
 20
106.1410750961
 30
0.0
 11
129.9461256042
 21
105.8161552763
 31
0.0
  0
LINE
  5
1E5
330
1F
100
AcDbEntity
  8
0
  6
HIDDEN
 62
     7
370
     0
100
AcDbLine
 10
133.9461253285
 20
105.8161552763
 30
0.0
 11
133.9461253285
 21
106.1410750961
 31
0.0
  0
ARC
  5
1E6
330
1F
100
AcDbEntity
  8
0
  6
HIDDEN
 62
     7
370
     0
100
AcDbCircle
 10
131.9461256638
 20
105.4570345164
 30
0.0
 40
1.500000000000034
100
AcDbArc
 50
71.1182787691
 51
191.5274417158
  0
ARC
  5
1E7
330
1F
100
AcDbEntity
  8
0
  6
HIDDEN
 62
     7
370
     0
100
AcDbCircle
 10
131.9461256638
 20
105.4570345164
 30
0.0
 40
1.499999999999978
100
AcDbArc
 50
336.6037645748
 51
71.1182787691
  0
CIRCLE
  5
1E8
330
1F
100
AcDbEntity
  8
0
  6
HIDDEN
 62
     7
370
     0
100
AcDbCircle
 10
131.9461256638
 20
122.900061826
 30
0.0
 40
1.499999999999994
  0
LINE
  5
1E9
330
1F
100
AcDbEntity
  8
0
  6
HIDDEN
 62
     7
370
     0
100
AcDbLine
 10
125.7065859883
 20
120.9800155601
 30
0.0
 11
126.2036286555
 21
121.4536308079
 31
0.0
  0
LINE
  5
1EA
330
1F
100
AcDbEntity
  8
0
  6
HIDDEN
 62
     7
370
     0
100
AcDbLine
 10
126.6510690823
 20
123.3219751856
 30
0.0
 11
126.4224908575
 21
123.9693654469
 31
0.0
  0
LINE
  5
1EB
330
1F
100
AcDbEntity
  8
0
  6
HIDDEN
 62
     7
370
     0
100
AcDbLine
 10
123.2692831456
 20
121.0875591031
 30
0.0
 11
124.9279295355
 21
120.6903379178
 31
0.0
  0
LINE
  5
1EC
330
1F
100
AcDbEntity
  8
0
  6
HIDDEN
 62
     7
370
     0
100
AcDbLine
 10
125.8595273159
 20
124.5803409955
 30
0.0
 11
124.200880926
 21
124.9775621808
 31
0.0
  0
LINE
  5
1ED
330
1F
100
AcDbEntity
  8
0
  6
HIDDEN
 62
     7
370
     0
100
AcDbLine
 10
124.200880926
 20
103.3795341617
 30
0.0
 11
125.8595273159
 21
103.776755347
 31
0.0
  0
LINE
  5
1EE
330
1F
100
AcDbEntity
  8
0
  6
HIDDEN
 62
     7
370
     0
100
AcDbLine
 10
124.9279295355
 20
107.6667584247
 30
0.0
 11
123.2692831456
 21
107.2695372394
 31
0.0
  0
LINE
  5
1EF
330
1F
100
AcDbEntity
  8
0
  6
HIDDEN
 62
     7
370
     0
100
AcDbLine
 10
126.4224908575
 20
104.3877308956
 30
0.0
 11
126.6510690823
 21
105.0351211569
 31
0.0
  0
LINE
  5
1F0
330
1F
100
AcDbEntity
  8
0
  6
HIDDEN
 62
     7
370
     0
100
AcDbLine
 10
126.2036286555
 20
106.9034655346
 30
0.0
 11
125.7065859883
 21
107.3770807824
 31
0.0
  0
DIMENSION
  5
1F1
330
1F
100
AcDbEntity
  8
VERMASSUNG
100
AcDbDimension
  2
_D
 10
44.1356319828
 20
145.9285481712
 30
0.0
 11
44.1356319828
 21
114.1785481712
 31
0.0
 70
   160
  1
ISO 40 %%c<> 
 71
     2
 42
-1.0
  3
SLDDIMSTYLE0
100
AcDbAlignedDimension
 13
137.3961256638
 23
82.4285481712
 33
0.0
 14
137.3961256638
 24
145.9285481712
 34
0.0
 50
90.0
100
AcDbRotatedDimension
  0
DIMENSION
  5
1FF
330
1F
100
AcDbEntity
  8
VERMASSUNG
100
AcDbDimension
  2
_D_1
 10
246.8034222529
 20
105.1785481712
 30
0.0
 11
246.8034222529
 21
114.1785481712
 31
0.0
 70
   160
  1
%%c<>
 71
     2
 42
-1.0
  3
SLDDIMSTYLE0
100
AcDbAlignedDimension
 13
237.9461256638
 23
123.1785481712
 33
0.0
 14
237.9461256638
 24
105.1785481712
 34
0.0
 50
90.0
100
AcDbRotatedDimension
  0
DIMENSION
  5
20A
330
1F
100
AcDbEntity
  8
VERMASSUNG
100
AcDbDimension
  2
_D_2
 10
252.8034222529
 20
98.1785481712
 30
0.0
 11
252.8034222529
 21
114.1785481712
 31
0.0
 70
   160
  1
WH %%c<>
 71
     2
 42
-1.0
  3
SLDDIMSTYLE0
100
AcDbAlignedDimension
 13
238.6461256638
 23
130.1785481712
 33
0.0
 14
238.6461256638
 24
98.1785481712
 34
0.0
 50
90.0
100
AcDbRotatedDimension
  0
DIMENSION
  5
216
330
1F
100
AcDbEntity
  8
VERMASSUNG
100
AcDbDimension
  2
_D_3
 10
238.9461256638
 20
151.3818506608
 30
0.0
 11
188.4711256638
 21
151.3818506608
 31
0.0
 70
   160
  1
<>
 71
     2
 42
-1.0
  3
SLDDIMSTYLE0
100
AcDbAlignedDimension
 13
137.9961256638
 23
144.1890993047
 33
0.0
 14
238.9461256638
 24
129.8785481712
 34
0.0
100
AcDbRotatedDimension
  0
DIMENSION
  5
220
330
1F
100
AcDbEntity
  8
VERMASSUNG
100
AcDbDimension
  2
_D_4
 10
118.9461256638
 20
157.3818506608
 30
0.0
 11
178.9461256638
 21
157.3818506608
 31
0.0
 70
   160
  1
<>
 71
     2
 42
-1.0
  3
SLDDIMSTYLE0
100
AcDbAlignedDimension
 13
238.9461256638
 23
129.8785481712
 33
0.0
 14
118.9461256638
 24
136.4035481712
 34
0.0
100
AcDbRotatedDimension
  0
DIMENSION
  5
22A
330
1F
100
AcDbEntity
  8
VERMASSUNG
100
AcDbDimension
  2
_D_5
 10
50.6961256638
 20
163.3818506608
 30
0.0
 11
144.8211256638
 21
163.3818506608
 31
0.0
 70
   160
  1
<>
 71
     2
 42
-1.0
  3
SLDDIMSTYLE0
100
AcDbAlignedDimension
 13
238.9461256638
 23
129.8785481712
 33
0.0
 14
50.6961256638
 24
125.5856787683
 34
0.0
100
AcDbRotatedDimension
  0
LINE
  5
234
330
1F
100
AcDbEntity
  8
VERMASSUNG
  6
CENTERX2
370
     0
100
AcDbLine
 10
49.5771889254
 20
114.1785481712
 30
0.0
 11
240.5209095643
 21
114.1785481712
 31
0.0
  0
LINE
  5
235
330
1F
100
AcDbEntity
  8
0
  6
Continuous
 62
     7
370
    15
100
AcDbLine
 10
273.8773009766
 20
23.8349615661
 30
0.0
 11
273.9833489164
 21
23.8962024039
 31
0.0
  0
LINE
  5
236
330
1F
100
AcDbEntity
  8
0
  6
Continuous
 62
     7
370
    15
100
AcDbLine
 10
279.5332347798
 20
33.5099284475
 30
0.0
 11
279.5332360969
 21
33.6323894562
 31
0.0
  0
LINE
  5
237
330
1F
100
AcDbEntity
  8
0
  6
Continuous
 62
     7
370
    15
100
AcDbLine
 10
277.8760565871
 20
37.2951477386
 30
0.0
 11
243.3515683623
 21
57.2257105567
 31
0.0
  0
LINE
  5
238
330
1F
100
AcDbEntity
  8
0
  6
Continuous
 62
     7
370
    15
100
AcDbLine
 10
235.3522183457
 20
43.3689287873
 30
0.0
 11
269.8767065704
 21
23.4383659691
 31
0.0
  0
SPLINE
  5
239
330
1F
100
AcDbEntity
  8
0
  6
Continuous
 62
     7
370
    15
100
AcDbSpline
210
0.0
220
0.0
230
1.0
 70
     8
 71
     3
 72
    22
 73
    18
 74
     0
 42
0.000000001
 43
0.00000001
 40
0.0
 40
0.0
 40
0.0
 40
0.0
 40
0.0214369313991354
 40
0.0999679492663155
 40
0.1677107771974008
 40
0.2398960023496172
 40
0.3097324223999085
 40
0.3789298401392417
 40
0.448115454873839
 40
0.5175354694614224
 40
0.587218853981707
 40
0.6570916275994261
 40
0.7270463913101511
 40
0.7969526115565863
 40
0.8666642565159519
 40
0.9360644848975502
 40
1.0
 40
1.0
 40
1.0
 40
1.0
 10
271.4369287370038
 20
26.59417829899436
 30
0.0
 10
271.4037255396072
 20
26.60743009053711
 30
0.0
 10
271.2488873544665
 20
26.66922785440397
 30
0.0
 10
271.0474034418573
 20
26.87315752439553
 30
0.0
 10
270.8181436001195
 20
27.2247417768579
 30
0.0
 10
270.6633303717002
 20
27.67598110694427
 30
0.0
 10
270.5856251688091
 20
28.22479602217675
 30
0.0
 10
270.5949091784379
 20
28.83952419818666
 30
0.0
 10
270.6921695523687
 20
29.50413999705921
 30
0.0
 10
270.8767511151121
 20
30.19991127777226
 30
0.0
 10
271.1448352259468
 20
30.90597879995035
 30
0.0
 10
271.4894368476186
 20
31.60062019447424
 30
0.0
 10
271.9004165792905
 20
32.26198106946141
 30
0.0
 10
272.3649903669389
 20
32.87010423438441
 30
0.0
 10
272.8675986595366
 20
33.40375992391713
 30
0.0
 10
273.379522508312
 20
33.84554591434505
 30
0.0
 10
273.7170341037677
 20
34.05761784016906
 30
0.0
 10
273.8788735111514
 20
34.15930796062764
 30
0.0
  0
SPLINE
  5
23A
330
1F
100
AcDbEntity
  8
0
  6
Continuous
 62
     7
370
    15
100
AcDbSpline
210
0.0
220
0.0
230
1.0
 70
     8
 71
     3
 72
    13
 73
     9
 74
     0
 42
0.000000001
 43
0.00000001
 40
0.0
 40
0.0
 40
0.0
 40
0.0
 40
0.1073815318139613
 40
0.312430711339218
 40
0.5173903194514152
 40
0.7245918499684771
 40
0.9397905122760885
 40
1.0
 40
1.0
 40
1.0
 40
1.0
 10
273.8788735111514
 20
34.15930796062764
 30
0.0
 10
273.9686043994092
 20
34.20843368357648
 30
0.0
 10
274.2296798820729
 20
34.35136687056576
 30
0.0
 10
274.6464108014546
 20
34.5061604139647
 30
0.0
 10
275.1016863823531
 20
34.5885637484187
 30
0.0
 10
275.4987416128228
 20
34.55940416446737
 30
0.0
 10
275.7645603625384
 20
34.48930608740699
 30
0.0
 10
275.8848254200864
 20
34.39405882910008
 30
0.0
 10
275.9111176612754
 20
34.37323595719482
 30
0.0
  0
SPLINE
  5
23B
330
1F
100
AcDbEntity
  8
0
  6
Continuous
 62
     7
370
    15
100
AcDbSpline
210
0.0
220
0.0
230
1.0
 70
     8
 71
     3
 72
    27
 73
    23
 74
     0
 42
0.000000001
 43
0.00000001
 40
0.0
 40
0.0
 40
0.0
 40
0.0
 40
0.0176239370487114
 40
0.0705649656928903
 40
0.1237092980954304
 40
0.1769970691937536
 40
0.2303685774349647
 40
0.2837774664669131
 40
0.3371896882497691
 40
0.3905882511411449
 40
0.4439674889886545
 40
0.4973266188506415
 40
0.5506676322849198
 40
0.6039940670968821
 40
0.6573102542262971
 40
0.7106209117409032
 40
0.7639308431846557
 40
0.8172442400478048
 40
0.8705652927714094
 40
0.9238991069678095
 40
0.9772506278182451
 40
0.9999999999999999
 40
0.9999999999999999
 40
0.9999999999999999
 40
0.9999999999999999
 10
237.5972486807081
 20
68.5234261653594
 30
0.0
 10
237.4934061855689
 20
68.523938363843
 30
0.0
 10
237.0776283666453
 20
68.52598916942205
 30
0.0
 10
236.3127866261245
 20
68.40412182495015
 30
0.0
 10
235.3113633857596
 20
68.15798198745449
 30
0.0
 10
234.2867321272579
 20
67.78350122091439
 30
0.0
 10
233.2511609554064
 20
67.29481671091783
 30
0.0
 10
232.212815033192
 20
66.69338147248602
 30
0.0
 10
231.1808417996937
 20
65.98540108006347
 30
0.0
 10
230.1638648491481
 20
65.17693534557647
 30
0.0
 10
229.170321801408
 20
64.27505559779439
 30
0.0
 10
228.2083736188571
 20
63.28745032469786
 30
0.0
 10
227.2859150430116
 20
62.22248200045453
 30
0.0
 10
226.4105256453044
 20
61.08909957380907
 30
0.0
 10
225.5894078500683
 20
59.89678906342487
 30
0.0
 10
224.8293570295557
 20
58.6555000745383
 30
0.0
 10
224.1366298049473
 20
57.37555817097996
 30
0.0
 10
223.5171837105046
 20
56.06765333085228
 30
0.0
 10
222.975538533852
 20
54.74247422902287
 30
0.0
 10
222.5187838281599
 20
53.41161988652149
 30
0.0
 10
222.2136465269926
 20
52.33780461599233
 30
0.0
 10
222.074197255637
 20
51.71432539850571
 30
0.0
 10
222.0325107096828
 20
51.52794439558905
 30
0.0
  0
SPLINE
  5
23C
330
1F
100
AcDbEntity
  8
0
  6
Continuous
 62
     7
370
    15
100
AcDbSpline
210
0.0
220
0.0
230
1.0
 70
     8
 71
     3
 72
    10
 73
     6
 74
     0
 42
0.000000001
 43
0.00000001
 40
0.0
 40
0.0
 40
0.0
 40
0.0
 40
0.1368332001252513
 40
0.6544308068005233
 40
1.0
 40
1.0
 40
1.0
 40
1.0
 10
239.337245924713
 20
68.36139131041631
 30
0.0
 10
239.2622197971873
 20
68.38021479250393
 30
0.0
 10
238.9033930714888
 20
68.47024167602432
 30
0.0
 10
238.3278611930873
 20
68.54522428673177
 30
0.0
 10
237.8061257042194
 20
68.5296580962848
 30
0.0
 10
237.5972486807081
 20
68.5234261653594
 30
0.0
  0
LINE
  5
23D
330
1F
100
AcDbEntity
  8
0
  6
Continuous
 62
     7
370
    15
100
AcDbLine
 10
231.8062564665
 20
66.3959811117
 30
0.0
 11
210.4913083785
 21
74.0770436098
 31
0.0
  0
LINE
  5
23E
330
1F
100
AcDbEntity
  8
0
  6
Continuous
 62
     7
370
    15
100
AcDbLine
 10
204.3265263839
 20
63.3981709646
 30
0.0
 11
224.6227644815
 21
46.260195877
 31
0.0
  0
SPLINE
  5
23F
330
1F
100
AcDbEntity
  8
0
  6
Continuous
 62
     7
370
    15
100
AcDbSpline
210
0.0
220
0.0
230
1.0
 70
     8
 71
     3
 72
    15
 73
    11
 74
     0
 42
0.000000001
 43
0.00000001
 40
0.0
 40
0.0
 40
0.0
 40
0.0
 40
0.0270649083530779
 40
0.1724649036843635
 40
0.3183337548636479
 40
0.4645009670731717
 40
0.6108211404505157
 40
0.757189091484227
 40
0.9035328404275674
 40
1.0
 40
1.0
 40
1.0
 40
1.0
 10
234.0552679500217
 20
36.57754285988837
 30
0.0
 10
234.1147919048464
 20
36.58181779551661
 30
0.0
 10
234.4940946167505
 20
36.60905883959344
 30
0.0
 10
235.2241466298937
 20
36.77819242137519
 30
0.0
 10
236.2379737760174
 20
37.08966458257243
 30
0.0
 10
237.2702373525586
 20
37.53049455459241
 30
0.0
 10
238.3085536328661
 20
38.08159064172778
 30
0.0
 10
239.3436955764642
 20
38.74635148523296
 30
0.0
 10
240.2545468374191
 20
39.41494030752368
 30
0.0
 10
240.8077485171301
 20
39.89994937270512
 30
0.0
 10
241.0275318663981
 20
40.09264024961395
 30
0.0
  0
LINE
  5
240
330
1F
100
AcDbEntity
  8
0
  6
Continuous
 62
     7
370
    15
100
AcDbLine
 10
228.7887861038
 20
38.0648974648
 30
0.0
 11
230.1422458744
 21
37.2835617705
 31
0.0
  0
LINE
  5
241
330
1F
100
AcDbEntity
  8
0
  6
Continuous
 62
     7
370
    15
100
AcDbLine
 10
224.9626889398
 20
40.2736563428
 30
0.0
 11
226.2984714002
 21
39.5025255424
 31
0.0
  0
SPLINE
  5
242
330
1F
100
AcDbEntity
  8
0
  6
Continuous
 62
     7
370
    15
100
AcDbSpline
210
0.0
220
0.0
230
1.0
 70
     8
 71
     3
 72
     9
 73
     5
 74
     0
 42
0.000000001
 43
0.00000001
 40
0.0
 40
0.0
 40
0.0
 40
0.0
 40
0.3487310790632799
 40
1.0
 40
1.0
 40
1.0
 40
1.0
 10
222.0432276160515
 20
44.27148330067981
 30
0.0
 10
222.0770049772919
 20
44.15523393770067
 30
0.0
 10
222.173862880898
 20
43.82188434554099
 30
0.0
 10
222.3063841742241
 20
43.52090427222763
 30
0.0
 10
222.3926911739298
 20
43.32488530465739
 30
0.0
  0
SPLINE
  5
243
330
1F
100
AcDbEntity
  8
0
  6
Continuous
 62
     7
370
    15
100
AcDbSpline
210
0.0
220
0.0
230
1.0
 70
     8
 71
     3
 72
    10
 73
     6
 74
     0
 42
0.000000001
 43
0.00000001
 40
0.0
 40
0.0
 40
0.0
 40
0.0
 40
0.1297351427101028
 40
0.818756449411774
 40
1.0
 40
1.0
 40
1.0
 40
1.0
 10
248.0747776604534
 20
62.72943719580405
 30
0.0
 10
248.0461900715039
 20
62.78138966189584
 30
0.0
 10
247.8657742463341
 20
63.10926085999168
 30
0.0
 10
247.5904097424041
 20
63.44991668120009
 30
0.0
 10
247.3333823637721
 20
63.72103436266435
 30
0.0
 10
247.279853194679
 20
63.77749801370601
 30
0.0
  0
SPLINE
  5
244
330
1F
100
AcDbEntity
  8
0
  6
Continuous
 62
     7
370
    15
100
AcDbSpline
210
0.0
220
0.0
230
1.0
 70
     8
 71
     3
 72
    10
 73
     6
 74
     0
 42
0.000000001
 43
0.00000001
 40
0.0
 40
0.0
 40
0.0
 40
0.0
 40
0.185243085715362
 40
0.6351550683015027
 40
1.0
 40
1.0
 40
1.0
 40
1.0
 10
248.9493952313168
 20
60.73799283162229
 30
0.0
 10
248.9088712370944
 20
60.87361197610297
 30
0.0
 10
248.7699239710261
 20
61.33861819559542
 30
0.0
 10
248.4946539791176
 20
62.02239752391664
 30
0.0
 10
248.204643298869
 20
62.51075337322755
 30
0.0
 10
248.0747776604534
 20
62.72943719580405
 30
0.0
  0
SPLINE
  5
245
330
1F
100
AcDbEntity
  8
0
  6
Continuous
 62
     7
370
    15
100
AcDbSpline
210
0.0
220
0.0
230
1.0
 70
     8
 71
     3
 72
    23
 73
    19
 74
     0
 42
0.000000001
 43
0.00000001
 40
0.0
 40
0.0
 40
0.0
 40
0.0
 40
0.0022887547623151
 40
0.0650290884269451
 40
0.1285002863200452
 40
0.1934584999291237
 40
0.2598655473793576
 40
0.3271681133062172
 40
0.3947897034193894
 40
0.4623449137377414
 40
0.5297638670094298
 40
0.5970659345689447
 40
0.6643064004439801
 40
0.7315535648838254
 40
0.7988639768249375
 40
0.8663063946599279
 40
0.9339555915981435
 40
1.0
 40
1.0
 40
1.0
 40
1.0
 10
210.415054851418
 20
74.10069528467163
 30
0.0
 10
210.4087933199226
 20
74.103532882105
 30
0.0
 10
210.2308879837965
 20
74.18415592545306
 30
0.0
 10
209.8306604240738
 20
74.23140673146429
 30
0.0
 10
209.2290237587123
 20
74.2319923609876
 30
0.0
 10
208.5914714059887
 20
74.09733969364994
 30
0.0
 10
207.9357393304329
 20
73.84597559346511
 30
0.0
 10
207.2733522791985
 20
73.47645221269488
 30
0.0
 10
206.6210807855419
 20
72.9987669830341
 30
0.0
 10
205.9940981796925
 20
72.42465099369718
 30
0.0
 10
205.4059368781537
 20
71.76803986690666
 30
0.0
 10
204.8684121246524
 20
71.04342005928396
 30
0.0
 10
204.3922104257731
 20
70.26615741426828
 30
0.0
 10
203.9872284325202
 20
69.45247150077554
 30
0.0
 10
203.6613662687488
 20
68.61869949138922
 30
0.0
 10
203.4243230463976
 20
67.7827264475789
 30
0.0
 10
203.2744485568847
 20
66.96441668996209
 30
0.0
 10
203.2557727785625
 20
66.44968723041747
 30
0.0
 10
203.2465469765685
 20
66.19541177306736
 30
0.0
  0
SPLINE
  5
246
330
1F
100
AcDbEntity
  8
0
  6
Continuous
 62
     7
370
    15
100
AcDbSpline
210
0.0
220
0.0
230
1.0
 70
     8
 71
     3
 72
    13
 73
     9
 74
     0
 42
0.000000001
 43
0.00000001
 40
0.0
 40
0.0
 40
0.0
 40
0.0
 40
0.1131449834303304
 40
0.3272851179237842
 40
0.541350397001466
 40
0.7528428646924947
 40
0.9593178453873737
 40
1.0
 40
1.0
 40
1.0
 40
1.0
 10
203.2465469765685
 20
66.19541177306736
 30
0.0
 10
203.2493943209616
 20
66.06047320666626
 30
0.0
 10
203.2576305981453
 20
65.67014759718623
 30
0.0
 10
203.3505878793529
 20
65.06592487689296
 30
0.0
 10
203.5580541910328
 20
64.41582536569038
 30
0.0
 10
203.875878764104
 20
63.86697478723066
 30
0.0
 10
204.1603451373274
 20
63.51173517483095
 30
0.0
 10
204.3577052915609
 20
63.38172254601731
 30
0.0
 10
204.3901908449273
 20
63.3603224198975
 30
0.0
  0
LINE
  5
247
330
1F
100
AcDbEntity
  8
0
  6
Continuous
 62
     7
370
    15
100
AcDbLine
 10
270.9597670605
 20
39.2153960661
 30
0.0
 11
270.8890458835
 21
39.2562357075
 31
0.0
  0
LINE
  5
248
330
1F
100
AcDbEntity
  8
0
  6
Continuous
 62
     7
370
    15
100
AcDbLine
 10
268.5552129453
 20
39.2562365058
 30
0.0
 11
268.4844922138
 21
39.2153955059
 31
0.0
  0
LINE
  5
249
330
1F
100
AcDbEntity
  8
0
  6
Continuous
 62
     7
370
    15
100
AcDbLine
 10
271.9902687842
 20
32.3589950686
 30
0.0
 11
273.4684619883
 21
32.6601664874
 31
0.0
  0
LINE
  5
24A
330
1F
100
AcDbEntity
  8
0
  6
Continuous
 62
     7
370
    15
100
AcDbLine
 10
273.6760773641
 20
32.7381825599
 30
0.0
 11
273.7427826544
 21
32.7766907043
 31
0.0
  0
LWPOLYLINE
  5
24B
330
1F
100
AcDbEntity
  8
0
  6
Continuous
 62
     7
370
    15
100
AcDbPolyline
 90
       46
 70
   128
 43
0.0
 10
273.9824467572
 20
36.7153718608
 10
273.2099263872
 20
36.2070253334
 10
272.4524422346
 20
35.5838127073
 10
271.7247377117
 20
34.8578642161
 10
271.0409770406
 20
34.0433095948
 10
270.4144687473
 20
33.1560032458
 10
269.8574072651
 20
32.2132157532
 10
269.3806348707
 20
31.2332972099
 10
268.9934314442
 20
30.2353206753
 10
268.7033333688
 20
29.2387105163
 10
268.5159873344
 20
28.2628648509
 10
268.4350397021
 20
27.3267771809
 10
268.4620663687
 20
26.4486676692
 10
268.5965404987
 20
25.6456272933
 10
268.8358453654
 20
24.9332866629
 10
269.1753230836
 20
24.3255107368
 10
269.6083658178
 20
23.8341287553
 10
270.1265451859
 20
23.4687052804
 10
270.7197752495
 20
23.2363525374
 10
271.3765095833
 20
23.141593607
 10
272.0839653443
 20
23.1862723855
 10
272.8283730255
 20
23.3695194347
 10
273.5952433306
 20
23.6877676423
 10
274.3696501837
 20
24.1348232028
 10
275.1365204888
 20
24.701984603
 10
275.88092817
 20
25.378212368
 10
276.5883839311
 20
26.1503446249
 10
277.2451182648
 20
27.0033528772
 10
277.8383483285
 20
27.9206344727
 10
278.3565276966
 20
28.8843351113
 10
278.7895704307
 20
29.8756975913
 10
279.129048149
 20
30.8754261478
 10
279.3683530157
 20
31.8640622963
 10
279.5028271457
 20
32.8223631978
 10
279.5298538123
 20
33.7316770347
 10
279.4489061799
 20
34.5743045577
 10
279.2615601456
 20
35.333845096
 10
278.9714620702
 20
35.9955151466
 10
278.5842586437
 20
36.5464361207
 10
278.1074862493
 20
36.9758849746
 10
277.5504247671
 20
37.27550297
 10
276.9239164738
 20
37.4394582405
 10
276.2401558027
 20
37.4645595949
 10
275.5124512798
 20
37.3503183279
 10
274.7549671272
 20
37.0989583673
 10
273.9824467572
 20
36.7153718608
  0
LWPOLYLINE
  5
24C
330
1F
100
AcDbEntity
  8
0
  6
Continuous
 62
     7
370
    15
100
AcDbPolyline
 90
       25
 70
   128
 43
0.0
 10
273.8763815787
 20
36.8990836592
 10
273.1061066808
 20
36.3935703107
 10
272.3501806446
 20
35.7757899051
 10
271.6226847156
 20
35.0572489683
 10
270.9371709991
 20
34.2513333699
 10
270.3064091668
 20
33.3730548751
 10
269.7421491346
 20
32.4387753563
 10
269.2549019313
 20
31.4658974009
 10
268.8537442759
 20
30.4725450296
 10
268.5461490022
 20
29.4772220749
 10
268.3378457767
 20
28.4984693202
 10
268.2327150729
 20
27.5545192597
 10
268.2327150729
 20
26.6629557981
 10
268.3378457767
 20
25.8403870645
 10
268.5461490022
 20
25.1021360948
 10
268.8537442759
 20
24.4619550837
 10
269.2549019313
 20
23.9317694825
 10
269.7421491346
 20
23.5214551735
 10
270.3064091668
 20
23.2386564208
 10
270.9371709991
 20
23.088640036
 10
271.6226847156
 20
23.0742017277
 10
272.3501806446
 20
23.1956097117
 10
273.1061066808
 20
23.45060293
 10
273.8763815787
 20
23.8344300485
 10
273.8773009766
 20
23.8349615661
  0
LWPOLYLINE
  5
24D
330
1F
100
AcDbEntity
  8
0
  6
Continuous
 62
     7
370
    15
100
AcDbPolyline
 90
       13
 70
   128
 43
0.0
 10
279.5332360969
 20
33.6323894562
 10
279.5200480846
 20
34.0705579096
 10
279.4149173808
 20
34.8931266432
 10
279.2066141553
 20
35.6313776129
 10
278.8990188816
 20
36.271558624
 10
278.4978612262
 20
36.8017442251
 10
278.0106140229
 20
37.2120585342
 10
277.4463539907
 20
37.4948572869
 10
276.8155921584
 20
37.6448736717
 10
276.1300784418
 20
37.6593119799
 10
275.4025825129
 20
37.537903996
 10
274.6466564766
 20
37.2829107777
 10
273.8763815787
 20
36.8990836592
  0
SPLINE
  5
24E
330
1F
100
AcDbEntity
  8
0
  6
Continuous
 62
     7
370
    15
100
AcDbSpline
210
0.0
220
0.0
230
1.0
 70
    11
 71
     3
 72
    76
 73
    72
 74
     0
 42
0.000000001
 43
0.00000001
 40
0.0
 40
0.0
 40
0.0
 40
0.0
 40
0.0312500000000018
 40
0.0312500000000018
 40
0.0625000000000036
 40
0.0625000000000036
 40
0.0937500000000055
 40
0.0937500000000055
 40
0.1250000000000073
 40
0.1250000000000073
 40
0.1562500000000091
 40
0.1562500000000091
 40
0.1875000000000109
 40
0.1875000000000109
 40
0.2187500000000127
 40
0.2187500000000127
 40
0.234375000000013
 40
0.234375000000013
 40
0.2500000000000134
 40
0.2500000000000134
 40
0.2812500000000142
 40
0.2812500000000142
 40
0.2968750000000141
 40
0.2968750000000141
 40
0.312500000000014
 40
0.312500000000014
 40
0.3437500000000134
 40
0.3437500000000134
 40
0.3750000000000128
 40
0.3750000000000128
 40
0.4062500000000122
 40
0.4062500000000122
 40
0.4375000000000115
 40
0.4375000000000115
 40
0.4687500000000108
 40
0.4687500000000108
 40
0.5000000000000101
 40
0.5000000000000101
 40
0.5312500000000094
 40
0.5312500000000094
 40
0.5625000000000088
 40
0.5625000000000088
 40
0.5937500000000081
 40
0.5937500000000081
 40
0.6250000000000074
 40
0.6250000000000074
 40
0.6562500000000069
 40
0.6562500000000069
 40
0.6875000000000062
 40
0.6875000000000062
 40
0.7187500000000057
 40
0.7187500000000057
 40
0.750000000000005
 40
0.750000000000005
 40
0.7812500000000043
 40
0.7812500000000043
 40
0.8125000000000038
 40
0.8125000000000038
 40
0.8437500000000031
 40
0.8437500000000031
 40
0.8750000000000024
 40
0.8750000000000024
 40
0.9062500000000019
 40
0.9062500000000019
 40
0.9218750000000016
 40
0.9218750000000016
 40
0.9375000000000012
 40
0.9375000000000012
 40
0.9687500000000007
 40
0.9687500000000007
 40
1.0
 40
1.0
 40
1.0
 40
1.0
 10
269.7077813581985
 20
40.55354347825982
 30
0.0
 10
269.8679682338499
 20
40.52392272423129
 30
0.0
 10
270.0237893427927
 20
40.48671620031015
 30
0.0
 10
270.3277944636107
 20
40.40032858397675
 30
0.0
 10
270.4766891338141
 20
40.35084689764956
 30
0.0
 10
270.7637628559268
 20
40.24234472871152
 30
0.0
 10
270.8994988855545
 20
40.18432634229689
 30
0.0
 10
271.1561515921985
 20
40.06200508336052
 30
0.0
 10
271.277941888036
 20
39.99715981111239
 30
0.0
 10
271.501651111371
 20
39.86370857274412
 30
0.0
 10
271.6027113036336
 20
39.79575242768264
 30
0.0
 10
271.7836348082411
 20
39.65696198677949
 30
0.0
 10
271.8640734133671
 20
39.58549750280483
 30
0.0
 10
271.9991148472626
 20
39.44141622830313
 30
0.0
 10
272.0534210809302
 20
39.36939209018308
 30
0.0
 10
272.1147780292532
 20
39.26008937821669
 30
0.0
 10
272.1318576534962
 20
39.22344049835595
 30
0.0
 10
272.15891597646
 20
39.14943611915504
 30
0.0
 10
272.1688989063992
 20
39.11189343039455
 30
0.0
 10
272.1870456867182
 20
39.00008059136911
 30
0.0
 10
272.1838791286581
 20
38.92609690605473
 30
0.0
 10
272.154858187287
 20
38.81438554461011
 30
0.0
 10
272.1411093280008
 20
38.77702648605075
 30
0.0
 10
272.1047811329375
 20
38.70178837110795
 30
0.0
 10
272.0820804258378
 20
38.66383470913144
 30
0.0
 10
272.0017745381924
 20
38.55189498934277
 30
0.0
 10
271.9317382922968
 20
38.47879613112188
 30
0.0
 10
271.7555625951462
 20
38.33462816609072
 30
0.0
 10
271.6514574062268
 20
38.26549310932418
 30
0.0
 10
271.4166651083991
 20
38.13612024792629
 30
0.0
 10
271.2833701941655
 20
38.0747483615006
 30
0.0
 10
271.002163494091
 20
37.96653487652946
 30
0.0
 10
270.852136992055
 20
37.91862876177233
 30
0.0
 10
270.5413019081611
 20
37.83810217689049
 30
0.0
 10
270.3833333623277
 20
37.80607699430885
 30
0.0
 10
270.0625289898873
 20
37.75862392458627
 30
0.0
 10
269.9003615427678
 20
37.74350632818683
 30
0.0
 10
269.5830074085953
 20
37.73177644594917
 30
0.0
 10
269.4253707641469
 20
37.73499587755956
 30
0.0
 10
269.1176853326819
 20
37.76064308234456
 30
0.0
 10
268.9696940922307
 20
37.78278836943685
 30
0.0
 10
268.6845701388544
 20
37.84609565649615
 30
0.0
 10
268.5462708259811
 20
37.88778797202976
 30
0.0
 10
268.2878873746487
 20
37.98911138428039
 30
0.0
 10
268.1677079646541
 20
38.04849214343847
 30
0.0
 10
267.9450520873073
 20
38.18464010612666
 30
0.0
 10
267.8417647016424
 20
38.26228142761349
 30
0.0
 10
267.6597692977838
 20
38.43041642646947
 30
0.0
 10
267.580593424414
 20
38.5208678543828
 30
0.0
 10
267.446106311614
 20
38.71363810064449
 30
0.0
 10
267.3904614167798
 20
38.81708920104042
 30
0.0
 10
267.3083918166093
 20
39.02824258543272
 30
0.0
 10
267.2814481525727
 20
39.13612719138646
 30
0.0
 10
267.2572875508085
 20
39.35502001779974
 30
0.0
 10
267.2604665540321
 20
39.46740225332161
 30
0.0
 10
267.2998779423033
 20
39.68410056518047
 30
0.0
 10
267.335615308701
 20
39.78901182183072
 30
0.0
 10
267.4421999677579
 20
39.98967441769737
 30
0.0
 10
267.5143103922949
 20
40.08597554553661
 30
0.0
 10
267.6886734369064
 20
40.25535169631489
 30
0.0
 10
267.7914922576511
 20
40.33008961078016
 30
0.0
 10
268.0303367866892
 20
40.45741635990284
 30
0.0
 10
268.1609381784176
 20
40.50714423597378
 30
0.0
 10
268.3725099069721
 20
40.56266548576954
 30
0.0
 10
268.4461532982057
 20
40.57803705183441
 30
0.0
 10
268.5960763029034
 20
40.60205246344977
 30
0.0
 10
268.6722344596266
 20
40.61073714730916
 30
0.0
 10
268.904110261382
 20
40.62772764322315
 30
0.0
 10
269.0647349653452
 20
40.62688741220148
 30
0.0
 10
269.386406298674
 20
40.60451276709853
 30
0.0
 10
269.5475944825471
 20
40.58316423228835
 30
0.0
 10
269.7077813581985
 20
40.55354347825982
 30
0.0
  0
LINE
  5
24F
330
1F
100
AcDbEntity
  8
0
  6
Continuous
 62
     7
370
    15
100
AcDbLine
 10
271.3790780715
 20
26.6124076947
 30
0.0
 11
271.4455655482
 21
26.5762295633
 31
0.0
  0
LINE
  5
250
330
1F
100
AcDbEntity
  8
0
  6
Continuous
 62
     7
370
    15
100
AcDbLine
 10
275.9272673129
 20
34.3775808185
 30
0.0
 11
275.878712497
 21
34.4068476064
 31
0.0
  0
LWPOLYLINE
  5
251
330
1F
100
AcDbEntity
  8
0
  6
Continuous
 62
     7
370
    15
100
AcDbPolyline
 90
       17
 70
   128
 43
0.0
 10
271.1817508691
 20
38.025492949
 10
271.2038970417
 20
38.0453214456
 10
271.4125006047
 20
38.3213354718
 10
271.4709053531
 20
38.6205835901
 10
271.373925537
 20
38.91647424
 10
271.1301750832
 20
39.1827180249
 10
270.7613137676
 20
39.3956571299
 10
270.3001186673
 20
39.536369751
 10
269.7875628577
 20
39.5923565278
 10
269.2691963807
 20
39.5586386636
 10
268.7910742582
 20
39.43821439
 10
268.3956781984
 20
39.2417849066
 10
268.1181465208
 20
38.9868005884
 10
267.9831330428
 20
38.6959213824
 10
268.0026370732
 20
38.3949915837
 10
268.1749275453
 20
38.1107490467
 10
268.2388207683
 20
38.0467398348
  0
SPLINE
  5
252
330
1F
100
AcDbEntity
  8
0
  6
Continuous
 62
     7
370
    15
100
AcDbSpline
210
0.0
220
0.0
230
1.0
 70
     8
 71
     3
 72
    12
 73
     8
 74
     0
 42
0.000000001
 43
0.00000001
 40
0.0
 40
0.0
 40
0.0
 40
0.0
 40
0.250000000000001
 40
0.250000000000001
 40
0.500000000000002
 40
0.500000000000002
 40
1.0
 40
1.0
 40
1.0
 40
1.0
 10
227.3140746037884
 20
48.49146288725856
 30
0.0
 10
227.3478537700608
 20
48.47196258964504
 30
0.0
 10
227.3861784665363
 20
48.44512284106788
 30
0.0
 10
227.4604015906488
 20
48.38672233774523
 30
0.0
 10
227.4957849551436
 20
48.35573267926433
 30
0.0
 10
227.5915949135285
 20
48.26499332624358
 30
0.0
 10
227.6405986716828
 20
48.20909919752604
 30
0.0
 10
227.6744077292976
 20
48.16183933375939
 30
0.0
  0
SPLINE
  5
253
330
1F
100
AcDbEntity
  8
0
  6
Continuous
 62
     7
370
    15
100
AcDbSpline
210
0.0
220
0.0
230
1.0
 70
     8
 71
     3
 72
    12
 73
     8
 74
     0
 42
0.000000001
 43
0.00000001
 40
0.0
 40
0.0
 40
0.0
 40
0.0
 40
0.5000000000000011
 40
0.5000000000000011
 40
0.7500000000000006
 40
0.7500000000000006
 40
1.0
 40
1.0
 40
1.0
 40
1.0
 10
244.7789376424886
 20
64.93164085808093
 30
0.0
 10
244.7789376424886
 20
65.00305988980561
 30
0.0
 10
244.7613731118276
 20
65.08558964899879
 30
0.0
 10
244.7062475773377
 20
65.20453436503168
 30
0.0
 10
244.6829551035809
 20
65.24316725225626
 30
0.0
 10
244.6289867145235
 20
65.30972976353331
 30
0.0
 10
244.5981392137703
 20
65.33765080178598
 30
0.0
 10
244.5668056081326
 20
65.35573930729593
 30
0.0
  0
ARC
  5
254
330
1F
100
AcDbEntity
  8
0
  6
Continuous
 62
     7
370
    15
100
AcDbCircle
 10
252.5345324827
 20
42.6592046017
 30
0.0
 40
25.46867226729849
100
AcDbArc
 50
130.9577008208
 51
165.3350562937
  0
LWPOLYLINE
  5
255
330
1F
100
AcDbEntity
  8
0
  6
Continuous
 62
     7
370
    15
100
AcDbPolyline
 90
       10
 70
   128
 43
0.0
 10
233.2777810843
 20
62.1590030258
 10
234.3961539657
 20
63.1490365494
 10
235.5392938829
 20
64.0185498751
 10
236.6950469364
 20
64.7582985501
 10
237.8511253264
 20
65.3604178689
 10
238.9952375023
 20
65.8185056126
 10
240.1152195372
 20
66.1276918057
 10
241.1991633824
 20
66.2846884211
 10
242.2355451677
 20
66.2878277043
 10
243.2133454677
 20
66.1370753276
  0
LINE
  5
256
330
1F
100
AcDbEntity
  8
0
  6
Continuous
 62
     7
370
    15
100
AcDbLine
 10
244.5668052383
 20
65.3557396332
 30
0.0
 11
243.2133454677
 21
66.1370753276
 31
0.0
  0
LINE
  5
257
330
1F
100
AcDbEntity
  8
0
  6
Continuous
 62
     7
370
    15
100
AcDbLine
 10
225.9606146893
 20
49.2727987712
 30
0.0
 11
227.3140744599
 21
48.4914630769
 31
0.0
  0
ARC
  5
258
330
1F
100
AcDbEntity
  8
0
  6
Continuous
 62
     7
370
    15
100
AcDbCircle
 10
251.6137224346
 20
43.2412190093
 30
0.0
 40
26.35264486573486
100
AcDbArc
 50
136.493814506
 51
166.7688887241
  0
SPLINE
  5
259
330
1F
100
AcDbEntity
  8
0
  6
Continuous
 62
     7
370
    15
100
AcDbSpline
210
0.0
220
0.0
230
1.0
 70
     8
 71
     3
 72
    12
 73
     8
 74
     0
 42
0.000000001
 43
0.00000001
 40
0.0
 40
0.0
 40
0.0
 40
0.0
 40
0.2499999999999997
 40
0.2499999999999997
 40
0.4999999999999993
 40
0.4999999999999993
 40
1.0
 40
1.0
 40
1.0
 40
1.0
 10
232.5001474794694
 20
61.38324625039308
 30
0.0
 10
232.5994621621893
 20
61.4165943346889
 30
0.0
 10
232.6932873018808
 20
61.46047653619341
 30
0.0
 10
232.8702804067864
 20
61.56860680498914
 30
0.0
 10
232.9500919747074
 20
61.63101229517031
 30
0.0
 10
233.1582758359278
 20
61.83840987296009
 30
0.0
 10
233.2499856695138
 20
61.99982041075386
 30
0.0
 10
233.2777809956876
 20
62.15900341829296
 30
0.0
  0
LINE
  5
25A
330
1F
100
AcDbEntity
  8
0
  6
Continuous
 62
     7
370
    15
100
AcDbLine
 10
248.7962013151
 20
60.2605918639
 30
0.0
 11
248.9015651437
 21
60.4430869875
 31
0.0
  0
LINE
  5
25B
330
1F
100
AcDbEntity
  8
0
  6
Continuous
 62
     7
370
    15
100
AcDbLine
 10
247.6250424694
 20
59.5844962534
 30
0.0
 11
248.7962013151
 21
60.2605918639
 31
0.0
  0
ARC
  5
25C
330
1F
100
AcDbEntity
  8
0
  6
Continuous
 62
     7
370
    15
100
AcDbCircle
 10
248.2875302971
 20
58.5488118337
 30
0.0
 40
1.229443914554903
100
AcDbArc
 50
122.6054968531
 51
177.3945222572
  0
LINE
  5
25D
330
1F
100
AcDbEntity
  8
0
  6
Continuous
 62
     7
370
    15
100
AcDbLine
 10
247.0593573469
 20
55.0852498199
 30
0.0
 11
247.0593573469
 21
58.6047005027
 31
0.0
  0
LINE
  5
25E
330
1F
100
AcDbEntity
  8
0
  6
Continuous
 62
     7
370
    15
100
AcDbLine
 10
227.7223029077
 20
41.521735491
 30
0.0
 11
227.6744076241
 21
41.39948683
 31
0.0
  0
LINE
  5
25F
330
1F
100
AcDbEntity
  8
0
  6
Continuous
 62
     7
370
    15
100
AcDbLine
 10
227.7223029077
 20
41.521735491
 30
0.0
 11
229.7352410023
 21
42.6837799182
 31
0.0
  0
ARC
  5
260
330
1F
100
AcDbEntity
  8
0
  6
Continuous
 62
     7
370
    15
100
AcDbCircle
 10
229.0727531746
 20
43.7194643379
 30
0.0
 40
1.229443914554919
100
AcDbArc
 50
302.6054968531
 51
357.3945222572
  0
LINE
  5
261
330
1F
100
AcDbEntity
  8
0
  6
Continuous
 62
     7
370
    15
100
AcDbLine
 10
230.3009261249
 20
48.9302640844
 30
0.0
 11
230.3009261249
 21
43.6635756689
 31
0.0
  0
ARC
  5
262
330
1F
100
AcDbEntity
  8
0
  6
Continuous
 62
     7
370
    15
100
AcDbCircle
 10
229.9560666818
 20
48.986205896
 30
0.0
 40
0.349367316399009
100
AcDbArc
 50
350.7859529282
 51
129.2032375553
  0
LINE
  5
263
330
1F
100
AcDbEntity
  8
0
  6
Continuous
 62
     7
370
    15
100
AcDbLine
 10
229.7352410023
 20
49.2569336948
 30
0.0
 11
227.7223029077
 21
48.0948892675
 31
0.0
  0
LINE
  5
264
330
1F
100
AcDbEntity
  8
0
  6
Continuous
 62
     7
370
    15
100
AcDbLine
 10
227.6744076241
 20
48.1618392112
 30
0.0
 11
227.7223029077
 21
48.0948892675
 31
0.0
  0
LINE
  5
265
330
1F
100
AcDbEntity
  8
0
  6
Continuous
 62
     7
370
    15
100
AcDbLine
 10
244.7789375708
 20
62.14665975
 30
0.0
 11
244.7789375708
 21
64.9316406385
 31
0.0
  0
LINE
  5
266
330
1F
100
AcDbEntity
  8
0
  6
Continuous
 62
     7
370
    15
100
AcDbLine
 10
247.1906711218
 20
63.5389238938
 30
0.0
 11
244.7789375708
 21
62.14665975
 31
0.0
  0
SPLINE
  5
267
330
1F
100
AcDbEntity
  8
0
  6
Continuous
 62
     7
370
    15
100
AcDbSpline
210
0.0
220
0.0
230
1.0
 70
     8
 71
     3
 72
     8
 73
     4
 74
     0
 42
0.000000001
 43
0.00000001
 40
0.0
 40
0.0
 40
0.0
 40
0.0
 40
1.0
 40
1.0
 40
1.0
 40
1.0
 10
224.9704631835509
 20
50.53117797612824
 30
0.0
 10
224.5897653175505
 20
50.46821113845764
 30
0.0
 10
224.2089273453106
 20
50.40551101632261
 30
0.0
 10
223.8279866945709
 20
50.34303013764957
 30
0.0
  0
SPLINE
  5
268
330
1F
100
AcDbEntity
  8
0
  6
Continuous
 62
     7
370
    15
100
AcDbSpline
210
0.0
220
0.0
230
1.0
 70
     8
 71
     3
 72
     8
 73
     4
 74
     0
 42
0.000000001
 43
0.00000001
 40
0.0
 40
0.0
 40
0.0
 40
0.0
 40
0.0011901715795577
 40
0.0011901715795577
 40
0.0011901715795577
 40
0.0011901715795577
 10
223.4702998970131
 20
50.71042679350518
 30
0.0
 10
223.5899464045079
 20
50.5878118837497
 30
0.0
 10
223.709189578656
 20
50.46533984325399
 30
0.0
 10
223.8279866945709
 20
50.34303013764957
 30
0.0
  0
LWPOLYLINE
  5
269
330
1F
100
AcDbEntity
  8
0
  6
Continuous
 62
     7
370
    15
100
AcDbPolyline
 90
       20
 70
   128
 43
0.0
 10
223.4702999857
 20
50.7104268489
 10
223.8416242578
 20
52.1472489964
 10
224.316760169
 20
53.5950953392
 10
224.8909635648
 20
55.0395057405
 10
225.5584991809
 20
56.4660536166
 10
226.3126979372
 20
57.8604888989
 10
227.1460287187
 20
59.2088851767
 10
228.0501675228
 20
60.4977746729
 10
229.0160840578
 20
61.7142841684
 10
230.0341299884
 20
62.8462627517
 10
231.0941380457
 20
63.8824036738
 10
232.1855199865
 20
64.8123586939
 10
233.2973754999
 20
65.6268397329
 10
234.4185992616
 20
66.3177103334
 10
235.5379925166
 20
66.8780706068
 10
236.6443747019
 20
67.3023247143
 10
237.7266953996
 20
67.5862340883
 10
238.7741440253
 20
67.7269632641
 10
239.7762591056
 20
67.7231072226
 10
240.7230307641
 20
67.5747034052
  0
SPLINE
  5
26A
330
1F
100
AcDbEntity
  8
0
  6
Continuous
 62
     7
370
    15
100
AcDbSpline
210
0.0
220
0.0
230
1.0
 70
     8
 71
     3
 72
     9
 73
     5
 74
     0
 42
0.000000001
 43
0.00000001
 40
0.0
 40
0.0
 40
0.0
 40
0.0
 40
0.0109232718797961
 40
1.0
 40
1.0
 40
1.0
 40
1.0
 10
241.1604396482714
 20
66.22984852504631
 30
0.0
 10
241.1588826055415
 20
66.23474346869985
 30
0.0
 10
241.016338984264
 20
66.68286411491371
 30
0.0
 10
240.8688795041731
 20
67.1312325854265
 30
0.0
 10
240.7230307640745
 20
67.57470340523355
 30
0.0
  0
LWPOLYLINE
  5
26B
330
1F
100
AcDbEntity
  8
0
  6
Continuous
 62
     7
370
    15
100
AcDbPolyline
 90
       19
 70
   128
 43
0.0
 10
224.9704630578
 20
50.5311781618
 10
225.3189391281
 20
51.8932166313
 10
225.769862992
 20
53.2663668774
 10
226.3183640542
 20
54.6357984296
 10
226.9585200238
 20
55.9867223612
 10
227.6834161837
 20
57.3045498405
 10
228.4852250738
 20
58.575048018
 10
229.3552865045
 20
59.7844964843
 10
230.284204692
 20
60.9198338401
 10
231.2619480279
 20
61.9687981823
 10
232.277956751
 20
62.9200622664
 10
233.3212586866
 20
63.7633520323
 10
234.3805864263
 20
64.4895606398
 10
235.4444998171
 20
65.0908457955
 10
236.5015090685
 20
65.5607129887
 10
237.540198723
 20
65.8940878187
 10
238.5493515039
 20
66.0873707601
 10
239.518069158
 20
66.1384734637
 10
240.0192412849
 20
66.1068451737
  0
LINE
  5
26C
330
1F
100
AcDbEntity
  8
0
  6
Continuous
 62
     7
370
    15
100
AcDbLine
 10
222.1345175253
 20
51.4815576493
 30
0.0
 11
223.4702999857
 21
50.7104268489
 31
0.0
  0
LINE
  5
26D
330
1F
100
AcDbEntity
  8
0
  6
Continuous
 62
     7
370
    15
100
AcDbLine
 10
240.7230307641
 20
67.5747034052
 30
0.0
 11
239.3872483037
 21
68.3458342056
 31
0.0
  0
LINE
  5
26E
330
1F
100
AcDbEntity
  8
0
  6
Continuous
 62
     7
370
    15
100
AcDbLine
 10
226.1970051673
 20
50.2308933684
 30
0.0
 11
225.6064945632
 21
50.5717878841
 31
0.0
  0
SPLINE
  5
26F
330
1F
100
AcDbEntity
  8
0
  6
Continuous
 62
     7
370
    15
100
AcDbSpline
210
0.0
220
0.0
230
1.0
 70
     8
 71
     3
 72
    14
 73
    10
 74
     0
 42
0.000000001
 43
0.00000001
 40
0.0
 40
0.0
 40
0.0
 40
0.0
 40
0.1134875903227499
 40
0.2884507601050068
 40
0.4634438893900288
 40
0.6380744063983101
 40
0.8124676993590939
 40
0.9871167959912229
 40
0.9999999999999999
 40
0.9999999999999999
 40
0.9999999999999999
 40
0.9999999999999999
 10
232.9912299296047
 20
61.68355374826473
 30
0.0
 10
232.9216794671954
 20
61.6869037776874
 30
0.0
 10
232.7449034541479
 20
61.69541852833628
 30
0.0
 10
232.4500679317593
 20
61.61027248179523
 30
0.0
 10
232.1574218224562
 20
61.44683686952803
 30
0.0
 10
231.9318794626316
 20
61.21614917690322
 30
0.0
 10
231.8127879619329
 20
60.95341550861977
 30
0.0
 10
231.7787209835445
 20
60.75845773472818
 30
0.0
 10
231.8103832548493
 20
60.67267864651402
 30
0.0
 10
231.8125584081386
 20
60.66678574438797
 30
0.0
  0
SPLINE
  5
270
330
1F
100
AcDbEntity
  8
0
  6
Continuous
 62
     7
370
    15
100
AcDbSpline
210
0.0
220
0.0
230
1.0
 70
     8
 71
     3
 72
    12
 73
     8
 74
     0
 42
0.000000001
 43
0.00000001
 40
0.0
 40
0.0
 40
0.0
 40
0.0
 40
0.2500000000000015
 40
0.2500000000000015
 40
0.500000000000003
 40
0.500000000000003
 40
1.0
 40
1.0
 40
1.0
 40
1.0
 10
225.6064946327883
 20
50.57178787154388
 30
0.0
 10
225.5688758978291
 20
50.59350470498007
 30
0.0
 10
225.5228834894418
 20
50.61076043896273
 30
0.0
 10
225.4232823594658
 20
50.63305422679054
 30
0.0
 10
225.3685316342118
 20
50.63826001136998
 30
0.0
 10
225.2090257353925
 20
50.63525811194285
 30
0.0
 10
225.1040229301749
 20
50.60828037668365
 30
0.0
 10
225.0287100339829
 20
50.56480316715035
 30
0.0
  0
SPLINE
  5
271
330
1F
100
AcDbEntity
  8
0
  6
Continuous
 62
     7
370
    15
100
AcDbSpline
210
0.0
220
0.0
230
1.0
 70
     8
 71
     3
 72
    10
 73
     6
 74
     0
 42
0.000000001
 43
0.00000001
 40
0.0
 40
0.0
 40
0.0
 40
0.0
 40
0.5
 40
0.5
 40
1.0
 40
1.0
 40
1.0
 40
1.0
 10
222.0328733209996
 20
51.51227964810301
 30
0.0
 10
222.0401360026482
 20
51.51627625359083
 30
0.0
 10
222.0519296666139
 20
51.516458031976
 30
0.0
 10
222.0859886773812
 20
51.50673640246625
 30
0.0
 10
222.1081611649334
 20
51.49677274569056
 30
0.0
 10
222.134517431597
 20
51.48155759680925
 30
0.0
  0
LINE
  5
272
330
1F
100
AcDbEntity
  8
0
  6
Continuous
 62
     7
370
    15
100
AcDbLine
 10
225.0287100024
 20
50.5648034072
 30
0.0
 11
224.9704630578
 21
50.5311781618
 31
0.0
  0
LINE
  5
273
330
1F
100
AcDbEntity
  8
0
  6
Continuous
 62
     7
370
    15
100
AcDbLine
 10
227.7223029077
 20
48.0948892675
 30
0.0
 11
225.9951201166
 21
49.0919706694
 31
0.0
  0
SPLINE
  5
274
330
1F
100
AcDbEntity
  8
0
  6
Continuous
 62
     7
370
    15
100
AcDbSpline
210
0.0
220
0.0
230
1.0
 70
     8
 71
     3
 72
     8
 73
     4
 74
     0
 42
0.000000001
 43
0.00000001
 40
0.0
 40
0.0
 40
0.0
 40
0.0
 40
0.0011901715795577
 40
0.0011901715795577
 40
0.0011901715795577
 40
0.0011901715795577
 10
225.9951202062598
 20
49.09197059090278
 30
0.0
 10
225.9829587394412
 20
49.15272084661362
 30
0.0
 10
225.9714752924852
 20
49.21298452074367
 30
0.0
 10
225.9606144688427
 20
49.2727987919604
 30
0.0
  0
ARC
  5
275
330
1F
100
AcDbEntity
  8
0
  6
Continuous
 62
     7
370
    15
100
AcDbCircle
 10
234.9720152999
 20
49.5166646776
 30
0.0
 40
10.3555672818313
100
AcDbArc
 50
174.7184344695
 51
187.1557200299
  0
LINE
  5
276
330
1F
100
AcDbEntity
  8
0
  6
Continuous
 62
     7
370
    15
100
AcDbLine
 10
224.6971047722
 20
50.4860360712
 30
0.0
 11
224.6971047722
 21
48.226708331
 31
0.0
  0
LINE
  5
277
330
1F
100
AcDbEntity
  8
0
  6
Continuous
 62
     7
370
    15
100
AcDbLine
 10
224.6971047722
 20
48.226708331
 30
0.0
 11
224.6971047722
 21
46.7609004236
 31
0.0
  0
LINE
  5
278
330
1F
100
AcDbEntity
  8
0
  6
Continuous
 62
     7
370
    15
100
AcDbLine
 10
222.4720349212
 20
51.1258044613
 30
0.0
 11
222.0328732384
 21
51.5122795806
 31
0.0
  0
LINE
  5
279
330
1F
100
AcDbEntity
  8
0
  6
Continuous
 62
     7
370
    15
100
AcDbLine
 10
223.8279864595
 20
50.3430303
 30
0.0
 11
222.4720349212
 21
51.1258044613
 31
0.0
  0
LINE
  5
27A
330
1F
100
AcDbEntity
  8
0
  6
Continuous
 62
     7
370
    15
100
AcDbLine
 10
223.698316741
 20
50.2616019729
 30
0.0
 11
223.6990062371
 21
50.3822140319
 31
0.0
  0
ARC
  5
27B
330
1F
100
AcDbEntity
  8
0
  6
Continuous
 62
     7
370
    15
100
AcDbCircle
 10
230.5700845202
 20
49.9851721293
 30
0.0
 40
6.877325488083833
100
AcDbArc
 50
177.6964110269
 51
210.8929471081
  0
LINE
  5
27C
330
1F
100
AcDbEntity
  8
0
  6
Continuous
 62
     7
370
    15
100
AcDbLine
 10
210.4253735853
 20
74.0995982819
 30
0.0
 11
210.4913083785
 21
74.0770436098
 31
0.0
  0
LINE
  5
27D
330
1F
100
AcDbEntity
  8
0
  6
Continuous
 62
     7
370
    15
100
AcDbLine
 10
225.9951201166
 20
42.5188168928
 30
0.0
 11
227.7223029077
 21
41.521735491
 31
0.0
  0
SPLINE
  5
27E
330
1F
100
AcDbEntity
  8
0
  6
Continuous
 62
     7
370
    15
100
AcDbSpline
210
0.0
220
0.0
230
1.0
 70
     8
 71
     3
 72
    14
 73
    10
 74
     0
 42
0.000000001
 43
0.00000001
 40
0.0
 40
0.0
 40
0.0
 40
0.0
 40
0.25
 40
0.25
 40
0.5
 40
0.5
 40
0.75
 40
0.75
 40
1.0
 40
1.0
 40
1.0
 40
1.0
 10
227.6744077292976
 20
41.39948702108543
 30
0.0
 10
227.6574995317595
 20
41.35633017153629
 30
0.0
 10
227.6369763408785
 20
41.31631419904728
 30
0.0
 10
227.5881929053162
 20
41.24300457206237
 30
0.0
 10
227.5597359269403
 20
41.2097174134563
 30
0.0
 10
227.4963733044322
 20
41.15679456712597
 30
0.0
 10
227.4610542436912
 20
41.13673090070071
 30
0.0
 10
227.3862361666401
 20
41.11997191021867
 30
0.0
 10
227.3478666925755
 20
41.12416880582985
 30
0.0
 10
227.3140746037884
 20
41.14367656345229
 30
0.0
  0
LINE
  5
27F
330
1F
100
AcDbEntity
  8
0
  6
Continuous
 62
     7
370
    15
100
AcDbLine
 10
227.3140744599
 20
41.143676704
 30
0.0
 11
225.9606146893
 21
41.9250123984
 31
0.0
  0
SPLINE
  5
280
330
1F
100
AcDbEntity
  8
0
  6
Continuous
 62
     7
370
    15
100
AcDbSpline
210
0.0
220
0.0
230
1.0
 70
     8
 71
     3
 72
     8
 73
     4
 74
     0
 42
0.000000001
 43
0.00000001
 40
0.0
 40
0.0
 40
0.0
 40
0.0
 40
0.0011901715795577
 40
0.0011901715795577
 40
0.0011901715795577
 40
0.0011901715795577
 10
225.9606144688427
 20
41.92501246815414
 30
0.0
 10
225.9714752924852
 20
42.1229676565123
 30
0.0
 10
225.9829587394412
 20
42.32090656901387
 30
0.0
 10
225.9951202062598
 20
42.51881705522249
 30
0.0
  0
ARC
  5
281
330
1F
100
AcDbEntity
  8
0
  6
Continuous
 62
     7
370
    15
100
AcDbCircle
 10
233.0826731479
 20
42.3780294444
 30
0.0
 40
5.847771953903838
100
AcDbArc
 50
201.3860978077
 51
278.4266254176
  0
SPLINE
  5
282
330
1F
100
AcDbEntity
  8
0
  6
Continuous
 62
     7
370
    15
100
AcDbSpline
210
0.0
220
0.0
230
1.0
 70
     8
 71
     3
 72
     8
 73
     4
 74
     0
 42
0.000000001
 43
0.00000001
 40
0.0
 40
0.0
 40
0.0
 40
0.0
 40
1.0
 40
1.0
 40
1.0
 40
1.0
 10
226.3210371356172
 20
43.17835469365727
 30
0.0
 10
226.2119635552302
 20
42.95858249359804
 30
0.0
 10
226.1033519897622
 20
42.73872941192838
 30
0.0
 10
225.9951202062598
 20
42.51881705522249
 30
0.0
  0
LINE
  5
283
330
1F
100
AcDbEntity
  8
0
  6
Continuous
 62
     7
370
    15
100
AcDbLine
 10
226.379284031
 20
43.2119798397
 30
0.0
 11
226.3210370863
 21
43.1783545943
 31
0.0
  0
SPLINE
  5
284
330
1F
100
AcDbEntity
  8
0
  6
Continuous
 62
     7
370
    15
100
AcDbSpline
210
0.0
220
0.0
230
1.0
 70
     8
 71
     3
 72
    12
 73
     8
 74
     0
 42
0.000000001
 43
0.00000001
 40
0.0
 40
0.0
 40
0.0
 40
0.0
 40
0.2500000000000015
 40
0.2500000000000015
 40
0.500000000000003
 40
0.500000000000003
 40
1.0
 40
1.0
 40
1.0
 40
1.0
 10
226.3913831599054
 20
43.54552783380198
 30
0.0
 10
226.429420767458
 20
43.52356919036475
 30
0.0
 10
226.4588941713696
 20
43.49731225376008
 30
0.0
 10
226.4976878814126
 20
43.43944424446077
 30
0.0
 10
226.5065100843591
 20
43.40866210965164
 30
0.0
 10
226.5014008116724
 20
43.31568212626489
 30
0.0
 10
226.454777069903
 20
43.25556111433558
 30
0.0
 10
226.3792839860498
 20
43.21197988467965
 30
0.0
  0
LINE
  5
285
330
1F
100
AcDbEntity
  8
0
  6
Continuous
 62
     7
370
    15
100
AcDbLine
 10
225.6064945632
 20
43.9986341075
 30
0.0
 11
226.3913831399
 21
43.5455275768
 31
0.0
  0
SPLINE
  5
286
330
1F
100
AcDbEntity
  8
0
  6
Continuous
 62
     7
370
    15
100
AcDbSpline
210
0.0
220
0.0
230
1.0
 70
     8
 71
     3
 72
    12
 73
     8
 74
     0
 42
0.000000001
 43
0.00000001
 40
0.0
 40
0.0
 40
0.0
 40
0.0
 40
0.4999999999999984
 40
0.4999999999999984
 40
0.7499999999999992
 40
0.7499999999999992
 40
1.0
 40
1.0
 40
1.0
 40
1.0
 10
225.0287100339835
 20
43.99164963147035
 30
0.0
 10
225.1046408417347
 20
44.03548355375388
 30
0.0
 10
225.2085308011589
 20
44.06214089626309
 30
0.0
 10
225.3692328809912
 20
44.06509675903682
 30
0.0
 10
225.4230176814141
 20
44.05994348740087
 30
0.0
 10
225.5227865668567
 20
44.03764498479751
 30
0.0
 10
225.5683387926841
 20
44.02066123350009
 30
0.0
 10
225.6064946327883
 20
43.99863433586359
 30
0.0
  0
LINE
  5
287
330
1F
100
AcDbEntity
  8
0
  6
Continuous
 62
     7
370
    15
100
AcDbLine
 10
224.9704630578
 20
43.9580243852
 30
0.0
 11
225.0287100024
 21
43.9916496306
 31
0.0
  0
SPLINE
  5
288
330
1F
100
AcDbEntity
  8
0
  6
Continuous
 62
     7
370
    15
100
AcDbSpline
210
0.0
220
0.0
230
1.0
 70
     8
 71
     3
 72
     8
 73
     4
 74
     0
 42
0.000000001
 43
0.00000001
 40
0.0
 40
0.0
 40
0.0
 40
0.0
 40
1.0
 40
1.0
 40
1.0
 40
1.0
 10
223.8279866945728
 20
43.76987660196959
 30
0.0
 10
224.2089273453118
 20
43.83235748064252
 30
0.0
 10
224.5897653175511
 20
43.89505760277746
 30
0.0
 10
224.9704631835509
 20
43.95802444044796
 30
0.0
  0
LINE
  5
289
330
1F
100
AcDbEntity
  8
0
  6
Continuous
 62
     7
370
    15
100
AcDbLine
 10
222.4720349212
 20
44.5526506847
 30
0.0
 11
223.8279864595
 21
43.7698765234
 31
0.0
  0
LINE
  5
28A
330
1F
100
AcDbEntity
  8
0
  6
Continuous
 62
     7
370
    15
100
AcDbLine
 10
222.4720349212
 20
44.5526506847
 30
0.0
 11
224.4849730158
 21
45.714695112
 31
0.0
  0
ARC
  5
28B
330
1F
100
AcDbEntity
  8
0
  6
Continuous
 62
     7
370
    15
100
AcDbCircle
 10
232.2324890669
 20
43.5540870538
 30
0.0
 40
6.479991700685509
100
AcDbArc
 50
194.5604157604
 51
237.8974471475
  0
ELLIPSE
  5
28C
330
1F
100
AcDbEntity
  8
0
  6
Continuous
 62
     7
370
    15
100
AcDbEllipse
 10
224.2506584474
 20
46.5031947495
 30
0.0
 11
-6.005970385558612E-5
 21
0.8534489614827194
 31
0.0
210
0.0
220
0.0
230
1.0
 40
0.7174342186
 41
3.534193645557468
 42
5.104989972352337
  0
ARC
  5
28D
330
1F
100
AcDbEntity
  8
0
  6
Continuous
 62
     7
370
    15
100
AcDbCircle
 10
231.5603621516
 20
45.7888428643
 30
0.0
 40
6.83949313699999
100
AcDbArc
 50
195.5264594472
 51
215.5387589459
  0
ARC
  5
28E
330
1F
100
AcDbEntity
  8
0
  6
Continuous
 62
     7
370
    15
100
AcDbCircle
 10
229.4058147999
 20
44.8009062809
 30
0.0
 40
6.107286192388081
100
AcDbArc
 50
193.6210969842
 51
253.2123696418
  0
SPLINE
  5
28F
330
1F
100
AcDbEntity
  8
0
  6
Continuous
 62
     7
370
    15
100
AcDbSpline
210
0.0
220
0.0
230
1.0
 70
     8
 71
     3
 72
     8
 73
     4
 74
     0
 42
0.000000001
 43
0.00000001
 40
0.0000000000000007
 40
0.0000000000000007
 40
0.0000000000000007
 40
0.0000000000000007
 40
0.0011901715795607
 40
0.0011901715795607
 40
0.0011901715795607
 40
0.0011901715795607
 10
223.8279866945738
 20
43.76987660196767
 30
0.0
 10
223.7091895786585
 20
43.63352556565229
 30
0.0
 10
223.5899464045083
 20
43.49779501951868
 30
0.0
 10
223.4702998970131
 20
43.36264046969892
 30
0.0
  0
LINE
  5
290
330
1F
100
AcDbEntity
  8
0
  6
Continuous
 62
     7
370
    15
100
AcDbLine
 10
222.0328732384
 20
44.2990761279
 30
0.0
 11
222.4720349212
 21
44.5526506847
 31
0.0
  0
LINE
  5
291
330
1F
100
AcDbEntity
  8
0
  6
Continuous
 62
     7
370
    15
100
AcDbLine
 10
223.4702999857
 20
43.362640476
 30
0.0
 11
222.1345175253
 21
44.1337712764
 31
0.0
  0
SPLINE
  5
292
330
1F
100
AcDbEntity
  8
0
  6
Continuous
 62
     7
370
    15
100
AcDbSpline
210
0.0
220
0.0
230
1.0
 70
     8
 71
     3
 72
    10
 73
     6
 74
     0
 42
0.000000001
 43
0.00000001
 40
0.0
 40
0.0
 40
0.0
 40
0.0
 40
0.5
 40
0.5
 40
1.0
 40
1.0
 40
1.0
 40
1.0
 10
222.134517431597
 20
44.13377127300298
 30
0.0
 10
222.1082131792201
 20
44.14895639467574
 30
0.0
 10
222.0860150651015
 20
44.17258604560961
 30
0.0
 10
222.0520031786698
 20
44.23002843841952
 30
0.0
 10
222.0401322982637
 20
44.26366671657013
 30
0.0
 10
222.0328733209996
 20
44.29907613981325
 30
0.0
  0
ARC
  5
293
330
1F
100
AcDbEntity
  8
0
  6
Continuous
 62
     7
370
    15
100
AcDbCircle
 10
228.1300861265
 20
45.4914968161
 30
0.0
 40
6.103954795249962
100
AcDbArc
 50
201.7784979243
 51
238.7409010256
  0
ELLIPSE
  5
294
330
1F
100
AcDbEntity
  8
0
  6
Continuous
 62
     7
370
    15
100
AcDbEllipse
 10
224.1314196318
 20
46.4343372694
 30
0.0
 11
0.26000757892092
 21
0.9705436209909237
 31
0.0
210
0.0
220
0.0
230
1.0
 40
0.5176380889
 41
3.619174351347717
 42
5.189970678142597
  0
SPLINE
  5
295
330
1F
100
AcDbEntity
  8
0
  6
Continuous
 62
     7
370
    15
100
AcDbSpline
210
0.0
220
0.0
230
1.0
 70
     8
 71
     3
 72
    12
 73
     8
 74
     0
 42
0.000000001
 43
0.00000001
 40
0.0
 40
0.0
 40
0.0
 40
0.0
 40
0.4999999999999996
 40
0.4999999999999996
 40
0.7499999999999998
 40
0.7499999999999998
 40
1.0
 40
1.0
 40
1.0
 40
1.0
 10
241.5868498687135
 20
66.77394130485499
 30
0.0
 10
241.6492931945381
 20
66.8099890695553
 30
0.0
 10
241.7286297997602
 20
66.8356480696131
 30
0.0
 10
241.8595031631014
 20
66.84743182961958
 30
0.0
 10
241.9042754754723
 20
66.84662155741604
 30
0.0
 10
241.9895373914756
 20
66.8330730770287
 30
0.0
 10
242.0289535985939
 20
66.8203084660193
 30
0.0
 10
242.0601932588438
 20
66.80227419402733
 30
0.0
  0
LINE
  5
296
330
1F
100
AcDbEntity
  8
0
  6
Continuous
 62
     7
370
    15
100
AcDbLine
 10
242.0601935337
 20
66.8022741477
 30
0.0
 11
243.2118568278
 21
66.1374330796
 31
0.0
  0
SPLINE
  5
297
330
1F
100
AcDbEntity
  8
0
  6
Continuous
 62
     7
370
    15
100
AcDbSpline
210
0.0
220
0.0
230
1.0
 70
     8
 71
     3
 72
     9
 73
     5
 74
     0
 42
0.000000001
 43
0.00000001
 40
0.0
 40
0.0
 40
0.0
 40
0.0
 40
0.8664443272572582
 40
1.0
 40
1.0
 40
1.0
 40
1.0
 10
244.778937570839
 20
64.3571189368165
 30
0.0
 10
245.0981142689649
 20
64.42640892805241
 30
0.0
 10
245.4664895795129
 20
64.50637943401125
 30
0.0
 10
245.836829676877
 20
64.58324891450235
 30
0.0
 10
245.8862906977241
 20
64.59351526968273
 30
0.0
  0
LINE
  5
298
330
1F
100
AcDbEntity
  8
0
  6
Continuous
 62
     7
370
    15
100
AcDbLine
 10
245.8862906977
 20
64.5935152697
 30
0.0
 11
247.2397504683
 21
63.8121795753
 31
0.0
  0
SPLINE
  5
299
330
1F
100
AcDbEntity
  8
0
  6
Continuous
 62
     7
370
    15
100
AcDbSpline
210
0.0
220
0.0
230
1.0
 70
     8
 71
     3
 72
    14
 73
    10
 74
     0
 42
0.000000001
 43
0.00000001
 40
0.0
 40
0.0
 40
0.0
 40
0.0
 40
0.25
 40
0.25
 40
0.5
 40
0.5
 40
0.75
 40
0.75
 40
1.0
 40
1.0
 40
1.0
 40
1.0
 10
247.2397504310352
 20
63.81217948447665
 30
0.0
 10
247.2710125191933
 20
63.79413226512887
 30
0.0
 10
247.2932798912895
 20
63.77104294968855
 30
0.0
 10
247.3164332892777
 20
63.72243159641985
 30
0.0
 10
247.3179534592738
 20
63.69643181485473
 30
0.0
 10
247.3045082885028
 20
63.64629888546732
 30
0.0
 10
247.2898087828547
 20
63.62210857035591
 30
0.0
 10
247.2481637878791
 20
63.57715812758332
 30
0.0
 10
247.2218515043615
 20
63.55692422050156
 30
0.0
 10
247.1906711096169
 20
63.53892416175751
 30
0.0
  0
LINE
  5
29A
330
1F
100
AcDbEntity
  8
0
  6
Continuous
 62
     7
370
    15
100
AcDbLine
 10
241.5868497691
 20
66.7739411015
 30
0.0
 11
241.078928878
 21
66.4807246124
 31
0.0
  0
SPLINE
  5
29B
330
1F
100
AcDbEntity
  8
0
  6
Continuous
 62
     7
370
    15
100
AcDbSpline
210
0.0
220
0.0
230
1.0
 70
     8
 71
     3
 72
    10
 73
     6
 74
     0
 42
0.000000001
 43
0.00000001
 40
0.0
 40
0.0
 40
0.0
 40
0.0
 40
0.4056252489853289
 40
0.8123691051956168
 40
0.9999999999999999
 40
0.9999999999999999
 40
0.9999999999999999
 40
0.9999999999999999
 10
248.901565143702
 20
60.44308698750088
 30
0.0
 10
248.9198828692777
 20
60.4820126430658
 30
0.0
 10
248.9565688358746
 20
60.55997130086516
 30
0.0
 10
248.9705932710076
 20
60.66742692273554
 30
0.0
 10
248.9525428158381
 20
60.72049775506311
 30
0.0
 10
248.9468446884374
 20
60.73725103696252
 30
0.0
  0
LWPOLYLINE
  5
29C
330
1F
100
AcDbEntity
  8
0
  6
Continuous
 62
     7
370
    15
100
AcDbPolyline
 90
       17
 70
   128
 43
0.0
 10
270.863599397
 20
37.8950000618
 10
271.175908221
 20
38.1322932253
 10
271.3459122061
 20
38.4136853333
 10
271.3569701562
 20
38.7116317032
 10
271.2079970987
 20
38.9969689386
 10
270.9135764195
 20
39.2417655476
 10
270.5025301421
 20
39.4220580114
 10
270.015091467
 20
39.5201996625
 10
269.498975895
 20
39.5265828536
 10
269.0047044502
 20
39.4405826569
 10
268.5806606831
 20
39.2706169537
 10
268.2683492249
 20
39.0333253109
 10
268.0983452399
 20
38.7519332029
 10
268.0872899239
 20
38.4539853124
 10
268.2362603472
 20
38.1686495976
 10
268.5306810265
 20
37.9238529886
 10
268.6180546538
 20
37.8749498178
  0
LWPOLYLINE
  5
29D
330
1F
100
AcDbEntity
  8
0
  6
Continuous
 62
     7
370
    15
100
AcDbPolyline
 90
       18
 70
   128
 43
0.0
 10
270.5522876557
 20
38.0825852888
 10
270.8092472261
 20
38.2894862246
 10
270.919387869
 20
38.5360006183
 10
270.8678284026
 20
38.7888388847
 10
270.6615391709
 20
39.0138498018
 10
270.3283749188
 20
39.180647716
 10
269.9133349394
 20
39.2667035601
 10
269.472472442
 20
39.2603950962
 10
269.0653245423
 20
39.162576613
 10
268.7468851706
 20
38.9864553172
 10
268.5601550914
 20
38.7558209603
 10
268.5303578869
 20
38.5018193272
 10
268.6615162864
 20
38.2587556028
 10
268.9359163071
 20
38.059457175
 10
269.3164970808
 20
37.9308412196
 10
269.7518607727
 20
37.8902770702
 10
270.1832116648
 20
37.9432417121
 10
270.5522876557
 20
38.0825852888
  0
SPLINE
  5
29E
330
1F
100
AcDbEntity
  8
0
  6
Continuous
 62
     7
370
    15
100
AcDbSpline
210
0.0
220
0.0
230
1.0
 70
     8
 71
     3
 72
    10
 73
     6
 74
     0
 42
0.000000001
 43
0.00000001
 40
0.0
 40
0.0
 40
0.0
 40
0.0
 40
0.439122877209805
 40
0.7513710412850917
 40
1.0
 40
1.0
 40
1.0
 40
1.0
 10
270.8308272974372
 20
38.3595414290637
 30
0.0
 10
270.7914723144879
 20
38.39630193104715
 30
0.0
 10
270.7241330888335
 20
38.45920181189364
 30
0.0
 10
270.626246873739
 20
38.73227809495618
 30
0.0
 10
270.5775252565459
 20
38.92260145856446
 30
0.0
 10
270.5559276472704
 20
39.00696913517364
 30
0.0
  0
SPLINE
  5
29F
330
1F
100
AcDbEntity
  8
0
  6
Continuous
 62
     7
370
    15
100
AcDbSpline
210
0.0
220
0.0
230
1.0
 70
     8
 71
     3
 72
    10
 73
     6
 74
     0
 42
0.000000001
 43
0.00000001
 40
0.0
 40
0.0
 40
0.0
 40
0.0
 40
0.4391228924913741
 40
0.7513719823431357
 40
1.0
 40
1.0
 40
1.0
 40
1.0
 10
270.5559276472704
 20
39.00696913517364
 30
0.0
 10
270.3972062472426
 20
38.97771193774511
 30
0.0
 10
270.1256221075442
 20
38.92765069337467
 30
0.0
 10
269.7308301093706
 20
39.03651819377947
 30
0.0
 10
269.5343321961885
 20
39.14511123079947
 30
0.0
 10
269.4472277557074
 20
39.19324881952288
 30
0.0
  0
SPLINE
  5
2A0
330
1F
100
AcDbEntity
  8
0
  6
Continuous
 62
     7
370
    15
100
AcDbSpline
210
0.0
220
0.0
230
1.0
 70
     8
 71
     3
 72
    11
 73
     7
 74
     0
 42
0.000000001
 43
0.00000001
 40
0.0
 40
0.0
 40
0.0
 40
0.0
 40
0.1849307603361127
 40
0.5198463678024366
 40
0.8714438577591622
 40
1.0
 40
1.0
 40
1.0
 40
1.0
 10
269.4472277557074
 20
39.19324881952288
 30
0.0
 10
269.3986964162777
 20
39.14093028472892
 30
0.0
 10
269.2622732464314
 20
38.99386118582967
 30
0.0
 10
269.0076186844186
 20
38.80010063777721
 30
0.0
 10
268.772429814859
 20
38.73482213230932
 30
0.0
 10
268.6470099998149
 20
38.73267432906798
 30
0.0
 10
268.6134301484894
 20
38.7320992770836
 30
0.0
  0
SPLINE
  5
2A1
330
1F
100
AcDbEntity
  8
0
  6
Continuous
 62
     7
370
    15
100
AcDbSpline
210
0.0
220
0.0
230
1.0
 70
     8
 71
     3
 72
    10
 73
     6
 74
     0
 42
0.000000001
 43
0.00000001
 40
0.0
 40
0.0
 40
0.0
 40
0.0
 40
0.4391217192840478
 40
0.7513716968962888
 40
0.9999999999999999
 40
0.9999999999999999
 40
0.9999999999999999
 40
0.9999999999999999
 10
268.6134301484894
 20
38.7320992770836
 30
0.0
 10
268.6527847823039
 20
38.58348849291614
 30
0.0
 10
268.7201236468858
 20
38.32920378739291
 30
0.0
 10
268.8180134353357
 20
38.14119987909365
 30
0.0
 10
268.8667349642362
 20
38.10203237407335
 30
0.0
 10
268.8883324328343
 20
38.08467005029506
 30
0.0
  0
SPLINE
  5
2A2
330
1F
100
AcDbEntity
  8
0
  6
Continuous
 62
     7
370
    15
100
AcDbSpline
210
0.0
220
0.0
230
1.0
 70
     8
 71
     3
 72
     9
 73
     5
 74
     0
 42
0.000000001
 43
0.00000001
 40
0.0
 40
0.0
 40
0.0
 40
0.0
 40
0.4459092492397885
 40
1.0
 40
1.0
 40
1.0
 40
1.0
 10
270.5559260832272
 20
38.11182118650586
 30
0.0
 10
270.5990144609614
 20
38.14129683766594
 30
0.0
 10
270.6956448354325
 20
38.20739919192374
 30
0.0
 10
270.7826297569621
 20
38.30529710236787
 30
0.0
 10
270.8308272974372
 20
38.3595414290637
 30
0.0
  0
LINE
  5
2A3
330
1F
100
AcDbEntity
  8
0
  6
Continuous
 62
     7
370
    15
100
AcDbLine
 10
270.5559276473
 20
38.1118202811
 30
0.0
 11
270.5559276473
 21
39.0069691352
 31
0.0
  0
LINE
  5
2A4
330
1F
100
AcDbEntity
  8
0
  6
Continuous
 62
     7
370
    15
100
AcDbLine
 10
269.4472277557
 20
37.9084866891
 30
0.0
 11
269.4472277557
 21
39.1932488195
 31
0.0
  0
ARC
  5
2A5
330
1F
100
AcDbEntity
  8
0
  6
Continuous
 62
     7
370
    15
100
AcDbCircle
 10
273.1989548194
 20
33.525185427
 30
0.0
 40
0.906030838263398
100
AcDbArc
 50
287.3050579076
 51
10.4190954961
  0
LWPOLYLINE
  5
2A6
330
1F
100
AcDbEntity
  8
0
  6
Continuous
 62
     7
370
    15
100
AcDbPolyline
 90
        3
 70
   128
 43
0.0
 10
274.0142900183
 20
34.2262235842
 10
274.0294444445
 20
34.1632250758
 10
274.0900463443
 20
33.6890383309
  0
LWPOLYLINE
  5
2A7
330
1F
100
AcDbEntity
  8
0
  6
Continuous
 62
     7
370
    15
100
AcDbPolyline
 90
        3
 70
   128
 43
0.0
 10
232.0087730614
 20
60.8530979262
 10
232.1398211136
 20
61.0284550319
 10
232.2992481535
 20
61.1703771878
  0
LWPOLYLINE
  5
2A8
330
1F
100
AcDbEntity
  8
0
  6
Continuous
 62
     7
370
    15
100
AcDbPolyline
 90
        3
 70
   128
 43
0.0
 10
232.0667411124
 20
60.9173292092
 10
232.1644997397
 20
61.0408938638
 10
232.2735395637
 20
61.1427541642
  0
ARC
  5
2A9
330
1F
100
AcDbEntity
  8
0
  6
Continuous
 62
     7
370
     0
100
AcDbCircle
 10
237.6911835705
 20
46.6334375003
 30
0.0
 40
4.015940171387729
100
AcDbArc
 50
174.3087834312
 51
234.3790431243
  0
LWPOLYLINE
  5
2AA
330
1F
100
AcDbEntity
  8
0
  6
Continuous
 62
     7
370
     0
100
AcDbPolyline
 90
       19
 70
   128
 43
0.0
 10
243.3515683623
 20
57.2257105567
 10
243.2129970977
 20
57.300346452
 10
242.6140897218
 20
57.5172596695
 10
241.9544141636
 20
57.5996791297
 10
241.2462585344
 20
57.5460692555
 10
240.5028143861
 20
57.3574289605
 10
239.7379307452
 20
57.0372720899
 10
238.9658559628
 20
56.5915628052
 10
238.2009723219
 20
56.0286038217
 10
237.4575281736
 20
55.3588817738
 10
236.7493725444
 20
54.594872562
 10
236.0896969862
 20
53.7508079144
 10
235.4907896103
 20
52.8424109594
 10
234.963807807
 20
51.8866041813
 10
234.5185671823
 20
50.9011917569
 10
234.1633627627
 20
49.9045306723
 10
233.9048106156
 20
48.9151862477
 10
233.7477276648
 20
47.9515887047
 10
233.6950388358
 20
47.0316870696
  0
LWPOLYLINE
  5
2AB
330
1F
100
AcDbEntity
  8
0
  6
Continuous
 62
     7
370
     0
100
AcDbPolyline
 90
       37
 70
   128
 43
0.0
 10
273.9824467572
 20
34.3882306978
 10
273.3685077325
 20
33.9717859883
 10
272.7732229688
 20
33.4439436922
 10
272.2146798437
 20
32.8207420569
 10
271.7098493374
 20
32.1211168934
 10
271.2740706802
 20
31.3663261203
 10
270.9205845678
 20
30.5793032957
 10
270.660131532
 20
29.7839619734
 10
270.5006254667
 20
29.0044682085
 10
270.4469129303
 20
28.2645064957
 10
270.5006254667
 20
27.5865599575
 10
270.660131532
 20
26.9912279756
 10
270.9205845678
 20
26.4965993275
 10
271.2740706802
 20
26.117702881
 10
271.7098493374
 20
25.8660514361
 10
272.2146798437
 20
25.7492911685
 10
272.7732229688
 20
25.7709696987
 10
273.3685077325
 20
25.9304285611
 10
273.9824467572
 20
26.2228227615
 10
274.5963857819
 20
26.639267471
 10
275.1916705456
 20
27.1671097671
 10
275.7502136706
 20
27.7903114024
 10
276.2550441769
 20
28.4899365659
 10
276.6908228342
 20
29.2447273389
 10
277.0443089466
 20
30.0317501636
 10
277.3047619824
 20
30.8270914859
 10
277.4642680477
 20
31.6065852508
 10
277.5179805841
 20
32.3465469636
 10
277.4642680477
 20
33.0244935018
 10
277.3047619824
 20
33.6198254837
 10
277.0443089466
 20
34.1144541318
 10
276.6908228342
 20
34.4933505783
 10
276.2550441769
 20
34.7450020232
 10
275.7502136706
 20
34.8617622908
 10
275.1916705456
 20
34.8400837606
 10
274.5963857819
 20
34.6806248982
 10
273.9824467572
 20
34.3882306978
  0
LWPOLYLINE
  5
2AC
330
1F
100
AcDbEntity
  8
0
  6
Continuous
 62
     7
370
     0
100
AcDbPolyline
 90
       19
 70
   128
 43
0.0
 10
271.4455655482
 20
26.5762295633
 10
271.4852089398
 20
26.5566646466
 10
271.9537984247
 20
26.4185482782
 10
272.4794313642
 20
26.4197488722
 10
273.0442079011
 20
26.560225356
 10
273.6288952843
 20
26.8351941552
 10
274.2135826674
 20
27.2352910395
 10
274.7783592044
 20
27.7468916653
 10
275.3039921438
 20
28.3525739453
 10
275.7725816288
 20
29.0317122171
 10
276.1681706318
 20
29.7611791644
 10
276.4772873079
 20
30.5161334398
 10
276.6894058111
 20
31.2708663015
 10
276.7973020725
 20
31.9996759937
 10
276.7973020725
 20
32.6777439189
 10
276.6894058111
 20
33.2819792392
 10
276.4772873079
 20
33.7918052902
 10
276.1681706318
 20
34.1898610482
 10
275.9272673129
 20
34.3775808185
  0
LWPOLYLINE
  5
2AD
330
1F
100
AcDbEntity
  8
0
  6
Continuous
 62
     7
370
     0
100
AcDbPolyline
 90
       20
 70
   128
 43
0.0
 10
227.3140744599
 20
48.4914630769
 10
227.685398732
 20
49.9282852244
 10
228.1605346432
 20
51.3761315672
 10
228.734738039
 20
52.8205419685
 10
229.4022736551
 20
54.2470898446
 10
230.1564724114
 20
55.6415251269
 10
230.9898031929
 20
56.9899214047
 10
231.893941997
 20
58.2788109009
 10
232.8598585321
 20
59.4953203964
 10
233.8779044626
 20
60.6272989797
 10
234.9379125199
 20
61.6634399018
 10
236.0292944607
 20
62.5933949219
 10
237.1411499741
 20
63.4078759609
 10
238.2623737358
 20
64.0987465614
 10
239.3817669908
 20
64.6591068348
 10
240.4881491761
 20
65.0833609423
 10
241.5704698738
 20
65.3672703163
 10
242.6179184995
 20
65.5079994921
 10
243.6200335799
 20
65.5041434506
 10
244.5668052383
 20
65.3557396332
  0
LINE
  5
2AE
330
1F
100
AcDbEntity
  8
0
  6
Continuous
 62
     7
370
     0
100
AcDbLine
 10
227.6744076241
 20
48.1618392112
 30
0.0
 11
227.8955574066
 21
49.107008434
 31
0.0
  0
LWPOLYLINE
  5
2AF
330
1F
100
AcDbEntity
  8
0
  6
Continuous
 62
     7
370
     0
100
AcDbPolyline
 90
       10
 70
   128
 43
0.0
 10
235.8397750649
 20
61.8929858685
 10
236.2828489136
 20
62.254578524
 10
237.3921962779
 20
63.0658009772
 10
238.5108278232
 20
63.7514899199
 10
239.6271916294
 20
64.3045651599
 10
240.7297594426
 20
64.7193137916
 10
241.8071451724
 20
64.9914540395
 10
242.8482230385
 20
65.1181753262
 10
243.8422423019
 20
65.0981687632
 10
244.7789375708
 20
64.9316406385
  0
LWPOLYLINE
  5
2B0
330
1F
100
AcDbEntity
  8
0
  6
Continuous
 62
     7
370
     0
100
AcDbPolyline
 90
       17
 70
   128
 43
0.0
 10
240.9738041834
 20
40.1236563321
 10
240.4682749614
 20
39.6997334432
 10
239.3791124802
 20
38.8822195925
 10
238.2790704707
 20
38.1849889629
 10
237.1791500502
 20
37.6150144227
 10
236.0903512502
 20
37.1779951988
 10
235.0235631479
 20
36.878302576
 10
233.9894536704
 20
36.7189337734
 10
232.9983655886
 20
36.701482321
 10
232.0602099973
 20
36.8261229558
 10
231.1843695093
 20
37.0916089691
 10
230.3796024373
 20
37.4952845729
 10
229.6539575123
 20
38.0331139959
 10
229.0146918948
 20
38.6997185637
 10
228.4681987348
 20
39.4884310783
 10
228.0199432933
 20
40.391363886
 10
227.6744076241
 20
41.39948683
  0
ARC
  5
2B1
330
1F
100
AcDbEntity
  8
0
  6
Continuous
 62
     7
370
     0
100
AcDbCircle
 10
242.1028074205
 20
58.7064736401
 30
0.0
 40
7.01704585261048
100
AcDbArc
 50
14.3287351339
 51
43.52515955
  0
LWPOLYLINE
  5
2B2
330
1F
100
AcDbEntity
  8
0
  6
Continuous
 62
     7
370
     0
100
AcDbPolyline
 90
       25
 70
   128
 43
0.0
 10
231.5737188031
 20
47.0316874498
 10
231.626688172
 20
48.034493202
 10
231.784761903
 20
49.082641768
 10
232.0454460879
 20
50.1596027246
 10
232.404630092
 20
51.248391804
 10
232.856649774
 20
52.3318390461
 10
233.3943757309
 20
53.392856378
 10
234.0093282144
 20
54.4147123205
 10
234.6918088396
 20
55.3812905331
 10
235.4310543551
 20
56.2773477867
 10
236.2154068766
 20
57.088753303
 10
237.0324963041
 20
57.8027104129
 10
237.8694367739
 20
58.4079589395
 10
238.7130292428
 20
58.8949545058
 10
239.5499697125
 20
59.2560168771
 10
240.3670591401
 20
59.4854511396
 10
241.1514116616
 20
59.5796397685
 10
241.8906571771
 20
59.5370972195
 10
242.5731378023
 20
59.3584943642
 10
243.1880902858
 20
59.0466474463
 10
243.7258162427
 20
58.6064752892
 10
244.1778359247
 20
58.0449188631
 10
244.5370199287
 20
57.3708348075
 10
244.7977041137
 20
56.5948534043
 10
244.8528539235
 20
56.359037052
  0
LWPOLYLINE
  5
2B3
330
1F
100
AcDbEntity
  8
0
  6
Continuous
 62
     7
370
     0
100
AcDbPolyline
 90
       12
 70
   128
 43
0.0
 10
236.8535039069
 20
42.5022549023
 10
236.2154068766
 20
42.3338005729
 10
235.4310543551
 20
42.2396119441
 10
234.6918088396
 20
42.2821544931
 10
234.0093282144
 20
42.4607573483
 10
233.3943757309
 20
42.7726042663
 10
232.856649774
 20
43.2127764234
 10
232.404630092
 20
43.7743328495
 10
232.0454460879
 20
44.448416905
 10
231.784761903
 20
45.2243983082
 10
231.626688172
 20
46.0900388292
 10
231.5737188031
 20
47.0316874498
  0
LWPOLYLINE
  5
2B4
330
1F
100
AcDbEntity
  8
0
  6
Continuous
 62
     7
370
     0
100
AcDbPolyline
 90
       20
 70
   128
 43
0.0
 10
222.1345175253
 20
51.4815576493
 10
222.5058417974
 20
52.9183797968
 10
222.9809777086
 20
54.3662261396
 10
223.5551811044
 20
55.8106365409
 10
224.2227167205
 20
57.237184417
 10
224.9769154768
 20
58.6316196993
 10
225.8102462583
 20
59.9800159771
 10
226.7143850624
 20
61.2689054733
 10
227.6803015975
 20
62.4854149688
 10
228.698347528
 20
63.617393552
 10
229.7583555853
 20
64.6535344742
 10
230.8497375261
 20
65.5834894943
 10
231.9615930395
 20
66.3979705333
 10
233.0828168013
 20
67.0888411338
 10
234.2022100562
 20
67.6492014072
 10
235.3085922415
 20
68.0734555147
 10
236.3909129392
 20
68.3573648887
 10
237.4383615649
 20
68.4980940645
 10
238.4404766453
 20
68.494238023
 10
239.3872483037
 20
68.3458342056
  0
LWPOLYLINE
  5
2B5
330
1F
100
AcDbEntity
  8
0
  6
Continuous
 62
     7
370
     0
100
AcDbPolyline
 90
       16
 70
   128
 43
0.0
 10
225.6064945632
 20
50.5717878841
 10
225.9567717528
 20
51.9027791464
 10
226.4075112242
 20
53.2431880602
 10
226.9537541372
 20
54.5782674341
 10
227.5894906147
 20
55.8933294911
 10
228.307726914
 20
57.1739051799
 10
229.1005598424
 20
58.4059050053
 10
229.9592679658
 20
59.5757754854
 10
230.8744024875
 20
60.6706451512
 10
231.8358959084
 20
61.678468645
 10
232.8331692049
 20
62.5881570339
 10
233.8552508608
 20
63.3897020399
 10
234.890895673
 20
64.0742856894
 10
235.9287094427
 20
64.6343758706
 10
236.9572742224
 20
65.063810804
 10
237.7165162771
 20
65.2974287628
  0
LWPOLYLINE
  5
2B6
330
1F
100
AcDbEntity
  8
0
  6
Continuous
 62
     7
370
     0
100
AcDbPolyline
 90
       19
 70
   128
 43
0.0
 10
225.0287100024
 20
50.5648034072
 10
225.3774620029
 20
51.9216927566
 10
225.8283305491
 20
53.2894182459
 10
226.3764318747
 20
54.6531649952
 10
227.0158292011
 20
55.9981611897
 10
227.7395966157
 20
57.3098381511
 10
228.5398954632
 20
58.5739900272
 10
229.4080563344
 20
59.7769230259
 10
230.3346762017
 20
60.9056080679
 10
231.3097185173
 20
61.9478191828
 10
232.322622203
 20
62.8922679095
 10
233.3624157427
 20
63.7287254357
 10
234.4178366671
 20
64.4481303581
 10
235.477453302
 20
65.042690906
 10
236.5297884514
 20
65.5059677486
 10
237.5634435332
 20
65.8329418546
 10
238.5672227555
 20
66.02007249
 10
239.5302538778
 20
66.06533195
 10
239.789628547
 20
66.052586779
  0
LINE
  5
2B7
330
1F
100
AcDbEntity
  8
0
  6
Continuous
 62
     7
370
     0
100
AcDbLine
 10
230.3009261249
 20
48.9302640844
 30
0.0
 11
229.7351488061
 21
49.2568803783
 31
0.0
  0
LWPOLYLINE
  5
2B8
330
1F
100
AcDbEntity
  8
0
  6
Continuous
 62
     7
370
     0
100
AcDbPolyline
 90
        3
 70
   128
 43
0.0
 10
224.6182615188
 20
49.6096986003
 10
224.6175555591
 20
49.7309366987
 10
224.6422015873
 20
50.4632692284
  0
LINE
  5
2B9
330
1F
100
AcDbEntity
  8
0
  6
Continuous
 62
     7
370
     0
100
AcDbLine
 10
224.8163436396
 20
46.8297577436
 30
0.0
 11
230.3009261249
 21
43.6635756689
 31
0.0
  0
LINE
  5
2BA
330
1F
100
AcDbEntity
  8
0
  6
Continuous
 62
     7
370
     0
100
AcDbLine
 10
224.6971047722
 20
46.7609004236
 30
0.0
 11
224.8163436396
 21
46.8297577436
 31
0.0
  0
LWPOLYLINE
  5
2BB
330
1F
100
AcDbEntity
  8
0
  6
Continuous
 62
     7
370
     0
100
AcDbPolyline
 90
       16
 70
   128
 43
0.0
 10
203.3456720837
 20
66.0229004792
 10
203.3996325622
 20
66.8457958751
 10
203.5601857132
 20
67.7107305895
 10
203.8233776356
 20
68.5964065664
 10
204.1827282515
 20
69.4810160967
 10
204.6293886982
 20
70.3427765514
 10
205.1523607886
 20
71.1604689108
 10
205.738767508
 20
71.9139591318
 10
206.3741692802
 20
72.5846930849
 10
207.0429206107
 20
73.1561558633
 10
207.7285544705
 20
73.6142754344
 10
208.4141883303
 20
73.9477718678
 10
209.0829396608
 20
74.1484329405
 10
209.718341433
 20
74.2113182581
 10
210.3047481524
 20
74.1348788238
 10
210.4253735853
 20
74.0995982819
  0
ARC
  5
2BC
330
1F
100
AcDbEntity
  8
0
  6
Continuous
 62
     7
370
     0
100
AcDbCircle
 10
206.6622330703
 20
65.7666542708
 30
0.0
 40
3.326445384595753
100
AcDbArc
 50
175.5819549054
 51
225.3992040287
  0
LINE
  5
2BD
330
1F
100
AcDbEntity
  8
0
  6
Continuous
 62
     7
370
     0
100
AcDbLine
 10
227.6375534978
 20
40.2456343541
 30
0.0
 11
227.3140744599
 21
41.143676704
 31
0.0
  0
LINE
  5
2BE
330
1F
100
AcDbEntity
  8
0
  6
Continuous
 62
     7
370
     0
100
AcDbLine
 10
229.7352410023
 20
42.6837799182
 30
0.0
 11
224.4849730158
 21
45.714695112
 31
0.0
  0
LINE
  5
2BF
330
1F
100
AcDbEntity
  8
0
  6
Continuous
 62
     7
370
     0
100
AcDbLine
 10
226.4699751586
 20
43.3024656157
 30
0.0
 11
226.3913831399
 21
43.5455275768
 31
0.0
  0
LWPOLYLINE
  5
2C0
330
1F
100
AcDbEntity
  8
0
  6
Continuous
 62
     7
370
     0
100
AcDbPolyline
 90
        3
 70
   128
 43
0.0
 10
226.1044226999
 20
42.7703664314
 10
225.96313
 20
43.0582407493
 10
225.6064945632
 20
43.9986341075
  0
ARC
  5
2C1
330
1F
100
AcDbEntity
  8
0
  6
Continuous
 62
     7
370
     0
100
AcDbCircle
 10
231.6435001735
 20
45.8525955514
 30
0.0
 40
6.871576873487539
100
AcDbArc
 50
195.7129416071
 51
213.6958475921
  0
LINE
  5
2C2
330
1F
100
AcDbEntity
  8
0
  6
Continuous
 62
     7
370
     0
100
AcDbLine
 10
222.4618003163
 20
43.2268113817
 30
0.0
 11
222.1345175253
 21
44.1337712764
 31
0.0
  0
LWPOLYLINE
  5
2C3
330
1F
100
AcDbEntity
  8
0
  6
Continuous
 62
     7
370
     0
100
AcDbPolyline
 90
        3
 70
   128
 43
0.0
 10
272.3017733427
 20
32.7398423085
 10
272.3000690295
 20
32.7346065517
 10
272.2526274832
 20
32.6214673466
  0
OLE2FRAME
  5
2C4
330
1F
100
AcDbEntity
  8
0
100
AcDbOle2Frame
 70
     2
  3
Paintbrush-Bild
 10
13.8511154363
 20
38.264191557
 30
0.0
 11
51.6290888628
 21
31.9806341108
 31
0.0
 71
     2
 72
     0
 73
     1
 90
    12928
310
80552BED0767C5B32B40DDAF6807D121434000000000000000006FFBDDFB85D0
310
4940DDAF6807D121434000000000000000006FFBDDFB85D04940416F4BD60AFB
310
3F4000000000000000002BED0767C5B32B40416F4BD60AFB3F40000000000000
310
0000000000000100000000010000010000000100000000000100000000320000
310
D0CF11E0A1B11AE1000000000000000000000000000000003E000300FEFF0900
310
0600000000000000000000000100000001000000000000000010000002000000
310
01000000FEFFFFFF0000000000000000FFFFFFFFFFFFFFFFFFFFFFFFFFFFFFFF
310
FFFFFFFFFFFFFFFFFFFFFFFFFFFFFFFFFFFFFFFFFFFFFFFFFFFFFFFFFFFFFFFF
310
FFFFFFFFFFFFFFFFFFFFFFFFFFFFFFFFFFFFFFFFFFFFFFFFFFFFFFFFFFFFFFFF
310
FFFFFFFFFFFFFFFFFFFFFFFFFFFFFFFFFFFFFFFFFFFFFFFFFFFFFFFFFFFFFFFF
310
FFFFFFFFFFFFFFFFFFFFFFFFFFFFFFFFFFFFFFFFFFFFFFFFFFFFFFFFFFFFFFFF
310
FFFFFFFFFFFFFFFFFFFFFFFFFFFFFFFFFFFFFFFFFFFFFFFFFFFFFFFFFFFFFFFF
310
FFFFFFFFFFFFFFFFFFFFFFFFFFFFFFFFFFFFFFFFFFFFFFFFFFFFFFFFFFFFFFFF
310
FFFFFFFFFFFFFFFFFFFFFFFFFFFFFFFFFFFFFFFFFFFFFFFFFFFFFFFFFFFFFFFF
310
FFFFFFFFFFFFFFFFFFFFFFFFFFFFFFFFFFFFFFFFFFFFFFFFFFFFFFFFFFFFFFFF
310
FFFFFFFFFFFFFFFFFFFFFFFFFFFFFFFFFFFFFFFFFFFFFFFFFFFFFFFFFFFFFFFF
310
FFFFFFFFFFFFFFFFFFFFFFFFFFFFFFFFFFFFFFFFFFFFFFFFFFFFFFFFFFFFFFFF
310
FFFFFFFFFFFFFFFFFFFFFFFFFFFFFFFFFFFFFFFFFFFFFFFFFFFFFFFFFFFFFFFF
310
FFFFFFFFFFFFFFFFFFFFFFFFFFFFFFFFFFFFFFFFFFFFFFFFFFFFFFFFFFFFFFFF
310
FFFFFFFFFFFFFFFFFFFFFFFFFFFFFFFFFFFFFFFFFFFFFFFFFFFFFFFFFFFFFFFF
310
FDFFFFFFFEFFFFFFFEFFFFFFFEFFFFFF05000000060000000700000008000000
310
090000000A0000000B0000000C0000000D0000000E0000000F00000010000000
310
11000000120000001300000014000000150000001600000017000000FEFFFFFF
310
FFFFFFFFFFFFFFFFFFFFFFFFFFFFFFFFFFFFFFFFFFFFFFFFFFFFFFFFFFFFFFFF
310
FFFFFFFFFFFFFFFFFFFFFFFFFFFFFFFFFFFFFFFFFFFFFFFFFFFFFFFFFFFFFFFF
310
FFFFFFFFFFFFFFFFFFFFFFFFFFFFFFFFFFFFFFFFFFFFFFFFFFFFFFFFFFFFFFFF
310
FFFFFFFFFFFFFFFFFFFFFFFFFFFFFFFFFFFFFFFFFFFFFFFFFFFFFFFFFFFFFFFF
310
FFFFFFFFFFFFFFFFFFFFFFFFFFFFFFFFFFFFFFFFFFFFFFFFFFFFFFFFFFFFFFFF
310
FFFFFFFFFFFFFFFFFFFFFFFFFFFFFFFFFFFFFFFFFFFFFFFFFFFFFFFFFFFFFFFF
310
FFFFFFFFFFFFFFFFFFFFFFFFFFFFFFFFFFFFFFFFFFFFFFFFFFFFFFFFFFFFFFFF
310
FFFFFFFFFFFFFFFFFFFFFFFFFFFFFFFFFFFFFFFFFFFFFFFFFFFFFFFFFFFFFFFF
310
FFFFFFFFFFFFFFFFFFFFFFFFFFFFFFFFFFFFFFFFFFFFFFFFFFFFFFFFFFFFFFFF
310
FFFFFFFFFFFFFFFFFFFFFFFFFFFFFFFFFFFFFFFFFFFFFFFFFFFFFFFFFFFFFFFF
310
FFFFFFFFFFFFFFFFFFFFFFFFFFFFFFFFFFFFFFFFFFFFFFFFFFFFFFFFFFFFFFFF
310
FFFFFFFFFFFFFFFFFFFFFFFFFFFFFFFFFFFFFFFFFFFFFFFFFFFFFFFFFFFFFFFF
310
FFFFFFFFFFFFFFFFFFFFFFFFFFFFFFFFFFFFFFFFFFFFFFFFFFFFFFFFFFFFFFFF
310
52006F006F007400200045006E00740072007900000000000000000000000000
310
0000000000000000000000000000000000000000000000000000000000000000
310
16000500FFFFFFFFFFFFFFFF020000000A00030000000000C000000000000046
310
000000000000000000000000E009C6836024D20103000000C000000000000000
310
01004F006C006500000000000000000000000000000000000000000000000000
310
0000000000000000000000000000000000000000000000000000000000000000
310
0A000200FFFFFFFFFFFFFFFFFFFFFFFF00000000000000000000000000000000
310
0000000000000000000000000000000000000000000000001400000000000000
310
010043006F006D0070004F0062006A0000000000000000000000000000000000
310
0000000000000000000000000000000000000000000000000000000000000000
310
120002010100000003000000FFFFFFFF00000000000000000000000000000000
310
0000000000000000000000000000000000000000010000004D00000000000000
310
01004F006C006500310030004E00610074006900760065000000000000000000
310
0000000000000000000000000000000000000000000000000000000000000000
310
1A000200FFFFFFFFFFFFFFFFFFFFFFFF00000000000000000000000000000000
310
0000000000000000000000000000000000000000040000002426000000000000
310
FEFFFFFF02000000FEFFFFFFFFFFFFFFFFFFFFFFFFFFFFFFFFFFFFFFFFFFFFFF
310
FFFFFFFFFFFFFFFFFFFFFFFFFFFFFFFFFFFFFFFFFFFFFFFFFFFFFFFFFFFFFFFF
310
FFFFFFFFFFFFFFFFFFFFFFFFFFFFFFFFFFFFFFFFFFFFFFFFFFFFFFFFFFFFFFFF
310
FFFFFFFFFFFFFFFFFFFFFFFFFFFFFFFFFFFFFFFFFFFFFFFFFFFFFFFFFFFFFFFF
310
FFFFFFFFFFFFFFFFFFFFFFFFFFFFFFFFFFFFFFFFFFFFFFFFFFFFFFFFFFFFFFFF
310
FFFFFFFFFFFFFFFFFFFFFFFFFFFFFFFFFFFFFFFFFFFFFFFFFFFFFFFFFFFFFFFF
310
FFFFFFFFFFFFFFFFFFFFFFFFFFFFFFFFFFFFFFFFFFFFFFFFFFFFFFFFFFFFFFFF
310
FFFFFFFFFFFFFFFFFFFFFFFFFFFFFFFFFFFFFFFFFFFFFFFFFFFFFFFFFFFFFFFF
310
FFFFFFFFFFFFFFFFFFFFFFFFFFFFFFFFFFFFFFFFFFFFFFFFFFFFFFFFFFFFFFFF
310
FFFFFFFFFFFFFFFFFFFFFFFFFFFFFFFFFFFFFFFFFFFFFFFFFFFFFFFFFFFFFFFF
310
FFFFFFFFFFFFFFFFFFFFFFFFFFFFFFFFFFFFFFFFFFFFFFFFFFFFFFFFFFFFFFFF
310
FFFFFFFFFFFFFFFFFFFFFFFFFFFFFFFFFFFFFFFFFFFFFFFFFFFFFFFFFFFFFFFF
310
FFFFFFFFFFFFFFFFFFFFFFFFFFFFFFFFFFFFFFFFFFFFFFFFFFFFFFFFFFFFFFFF
310
FFFFFFFFFFFFFFFFFFFFFFFFFFFFFFFFFFFFFFFFFFFFFFFFFFFFFFFFFFFFFFFF
310
FFFFFFFFFFFFFFFFFFFFFFFFFFFFFFFFFFFFFFFFFFFFFFFFFFFFFFFFFFFFFFFF
310
FFFFFFFFFFFFFFFFFFFFFFFFFFFFFFFFFFFFFFFFFFFFFFFFFFFFFFFFFFFFFFFF
310
0100000200000000000000000000000000000000000000000000000000000000
310
0000000000000000000000000000000000000000000000000000000000000000
310
0100FEFF030A0000FFFFFFFF0A00030000000000C00000000000004607000000
310
5042727573680007000000504272757368000700000050427275736800F439B2
310
7100000000000000000000000000000000000000000000000000000000000000
310
0000000000000000000000000000000000000000000000000000000000000000
310
0000000000000000000000000000000000000000000000000000000000000000
310
0000000000000000000000000000000000000000000000000000000000000000
310
0000000000000000000000000000000000000000000000000000000000000000
310
0000000000000000000000000000000000000000000000000000000000000000
310
0000000000000000000000000000000000000000000000000000000000000000
310
0000000000000000000000000000000000000000000000000000000000000000
310
0000000000000000000000000000000000000000000000000000000000000000
310
0000000000000000000000000000000000000000000000000000000000000000
310
0000000000000000000000000000000000000000000000000000000000000000
310
0000000000000000000000000000000000000000000000000000000000000000
310
20260000424D0E260000000000003E00000028000000B40200006E0000000100
310
01000000000000000000130B0000130B00000200000002000000000000FFFFFF
310
FFFFFFFFFFFFFFFFFFFFFFFFFFFFFFFFFFFFFFFFFFFFFFFFFFFFFFFFFFFFFFFF
310
FFFFFFFFFFFFFFFFFFFFFFFFFFFFFFFFFFFFFFFFFFFFFFFFFFFFFFFFFFFFFFFF
310
FFFFFFFFFFFFFFFFFFFFFFFFFFFFFFFFFFFFFFFFFFFFFFFFF000FFFFFFFFFFFF
310
FFFFFFFFFFFFFFFFFFFFFFFFFFFFFFFFFFFFFFFFFFFFFFFFFFFFFFFFFFFFFFFF
310
FFFFFFFFFFFFFFFFFFFFFFFFFFFFFFFFFFFFFFFFFFFFFFFFFFFFFFFFFFFFFFFF
310
FFFFFFFFFFFFFFFFFFFFFFFFFFFFFFFFF000FFFFFFFFFFFFFFFFFFFFFFFFFFFF
310
FFFFFFFFFFFFFFFFFFFFFFFFFFFFFFFFFFFFFFFFFFFFFFFFFFFFFFFFFFFFFFFF
310
FFFFFFFFFFFFFFFFFFFFFFFFFFFFFFFFFFFFFFFFFFFFFFFFFFFFFFFFFFFFFFFF
310
FFFFFFFFFFFFFFFFF000FFFFFFFFFFFFFFFFFFFFFFFFFFFFFFFFFFFFFFFFFFFF
310
FFFFFFFFFFFFFFFFFFFFFFFFFFFFFFFFFFFFFFFFFFFFFFFFFFFFFFFFFFFFFFFF
310
FFFFFFFFFFFFFFFFFFFFFFFFFFFFFFFFFFFFFFFFFFFFFFFFFFFFFFFFFFFFFFFF
310
F000FFFFFFFFFFFFFFFFFFFFFFFFFFFFFFFFFFFFFFFFFFFFFFFFFFFFFFFFFFFF
310
FFFFFFFFFFFFFFFFFFFFFFFFFFFFFFFFFFFFFFFFFFFFFFFFFFFFFFFFFFFFFFFF
310
FFFFFFFFFFFFFFFFFFFFFFFFFFFFFFFFFFFFFFFFFFFFFFFFF000FFFFFFFFFFFF
310
FFFFFFFFFFFFFFFFFFFFFFFFFFFFFFFFFFFFFFFFFFFFFFFFFFFFFFFFFFFFFFFF
310
FFFFFFFFFFFFFFFFFFFFFFFFFFFFFFFFFFFFFFFFFFFFFFFFFFFFFFFFFFFFFFFF
310
FFFFFFFFFFFFFFFFFFFFFFFFFFFFFFFFF000FFFFFFFFFFFFFFFFFFFFFFFFFFFF
310
FFFFFFFFFFFFFFFFFFFFFFFFFFFFFFFFFFFFFFFFFFFFFFFFFFFFFFFFFFFFFFFF
310
FFFFFFFFFFFFFFFFFFFFFFFFFFFFFFFFFFFFFFFFFFFFFFFFFFFFFFFFFFFFFFFF
310
FFFFFFFFFFFFFFFFF000FFFFFFFFFFFFFFFFFFFFFFFFFFFFFFFFFFFFFFFFFFFF
310
FFFFFFFFFFFFFFFFFFFFFFFFFFFFFFFFFFFFFFFFFFFFFFFFFFFFFFFFFFFFFFFF
310
FFFFFFFFFFFFFFFFFFFFFFFFFFFFFFFFFFFFFFFFFFFFFFFFFFFFFFFFFFFFFFFF
310
F000FFFFFFFFFFFFFFFFFFFFFFFFFFFFFFFFFFFFFFFFFFFFFFFFFFFFFFFFFFFF
310
FFFFFFFFFFFFFFFFFFFFFFFFFFFFFFFFFFFFFFFFFFFFFFFFFFFFFFFFFFFFFFFF
310
FFFFFFFFFFFFFFFFFFFFFFFFFFFFFFFFFFFFFFFFFFFFFFFFF000FFFFFFFFFFFF
310
FFFFFFFFFFFFFFFFFFFFFFFFFFFFFFFFFFFFFFFFFFFFFFFFFFFFFFFFFFFFFFFF
310
FFFFFFFFFFFFFFFFFFFFFFFFFFFFFFFFFFFFFFFFFFFFFFFFFFFFFFFFFFFFFFFF
310
FFFFFFFFFFFFFFFFFFFFFFFFFFFFFFFFF000FFFFFFFFFFFFFFFFFFFFFFFFFFFF
310
FFFFFFFFFFFFFFFFFFFFFFFFFFFFFFFFFFFFFFFFFFFFFFFFFFFFFFFFFFFFFFFF
310
FFFFFFFFFFFFFFFFFFFFFFFFFFFFFFFFFFFFFFFFFFFFFFFFFFFFFFFFFFFFFFFF
310
FFFFFFFFFFFFFFFFF000FFFFFFFFFFFFFFFFFFFFFFFFFFFFFFFFFFFFFFFFFFFF
310
FFFFFFFFFFFFFFFFFFFFFFFFFFFFFFFFFFFFFFFFFFFFFFFFFFFFFFFFFFFFFFFF
310
FFFFFFFFFFFFFFFFFFFFFFFFFFFFFFFFFFFFFFFFFFFFFFFFFFFFFFFFFFFFFFFF
310
F000FFFFFFFFFFFFFFFFFFFFFFFFFFFFFFFFFFFFFFFFFFFFFFFFFFFFFFFFFFFF
310
FFFFFFFFFFFFFFFFFFFFFFFFFFFFFFFFFFFFFFFFFFFFFFFFFFFFFFFFFFFFFFFF
310
FFFFFFFFFFFFFFFFFFFFFFFFFFFFFFFFFFFFFFFFFFFFFFFFF000FFFFFFFFFFFF
310
FFFFFFFFFFFFFFFFFFFFFFFFFFFFFFFFFFFFFFFFFFFFFFFFFFFFFFFFFFFFFFFF
310
FFFFFFFFFFFFFFFFFFFFFFFFFFFFFFFFFFFFFFFFFFFFFFFFFFFFFFFFFFFFFFFF
310
FFFFFFFFFFFFFFFFFFFFFFFFFFFFFFFFF000FFFFFFFFFFFFFFFFFFFFFFFFFFFF
310
FFFFFFFFFFFFFFFFFFFFFFFFFFFFFFFFFFFFFFFFFFFFFFFFFFFFFFFFFFFFFFFF
310
FFFFFFFFFFFFFFFFFFFFFFFFFFFFFFFFFFFFFFFFFFFFFFFFFFFFFFFFFFFFFFFF
310
FFFFFFFFFFFFFFFFF000FFFFFFFFFFFFFFFFFFFFFFFFFFFFFFFFFFFFFFFFFFFF
310
FFFFFFFFFFFFFFFFFFFFFFFFFFFFFFFFFFFFFFFFFFFFFFFFFFFFFFFFFFFFFFFF
310
FFFFFFFFFFFFFFFFFFFFFFFFFFFFFFFFFFFFFFFFFFFFFFFFFFFFFFFFFFFFFFFF
310
F000FFFFFFFFFFFFFFFFFFFFFFFFFFFFFFFFFFFFFFFFFFFFFFFFFFFFFFFFFFFF
310
FFFFFFFFFFFFFFFFFFFFFFFFFFFFFFFFFFFFFFFFFFFFFFFFFFFFFFFFFFFFFFFF
310
FFFFFFFFFFFFFFFFFFFFFFFFFFFFFFFFFFFFFFFFFFFFFFFFF000FFFFFFFFFFFF
310
FFFFFFFFFFFFFFFFFFFFFFFFFFFFFFFFFFFFFFFFFFFFFFFFFFFFFFFFFFFFFFFF
310
FFFFFFFFFFFFFFFFFFFFFFFFFFFFFFFFFFFFFFFFFFFFFFFFFFFFFFFFFFFFFFFF
310
FFFFFFFFFFFFFFFFFFFFFFFFFFFFFFFFF000FFFFFFFFFFFFFFFFFFFFFFFFFFFF
310
FFFFFFFFFFFFFFFFFFFFFFFFFFFFFFFFFFFFFFFFFFFFFFFFFFFFFFFFFFFFFFFF
310
FFFFFFFFFFFFFFFFFFFFFFFFFFFFFFFFFFFFFFFFFFFFFFFFFFFFFFFFFFFFFFFF
310
FFFFFFFFFFFFFFFFF000FFFFF80003FFFFFFFFFFFFFFFFFFFFFFFFFFFFFFFFFF
310
FFFFF00007FFFFFFFFFF00007FFFFFF800000000000000007FFFFFFFFFFFFFFF
310
FFFFFFFC001FFFFFFFFFFFFFFC001FFFFFFFFFFFFFFFFFFFFFFFFFFE0007FFFF
310
F000FFFF8000007FFFFFFFF8000FFFFFC0007FFFFF80007FFFFF0000007FFFFF
310
FFF8000007FFFFF800000000000000007FFFFFF0001FFFFFFFFFFFC00001FFFF
310
FFFFFFFFC00001FFFFFFFF000000000003FFFFE000007FFFF000FFFE0000000F
310
FFFFFFF0000FFFFF80007FFFFF80007FFFFC0000001FFFFFFFC0000001FFFFF8
310
00000000000000007FFFFFF0001FFFFFFFFFFE0000003FFFFFFFFFFE0000003F
310
FFFFFF000000000003FFFF0000000FFFF000FFF800000003FFFFFFF00007FFFF
310
80007FFFFF80007FFFF000000007FFFFFF000000003FFFF80000000000000000
310
7FFFFFF0001FFFFFFFFFF80000000FFFFFFFFFF80000000FFFFFFF0000000000
310
03FFFC00000003FFF000FFE000000000FFFFFFF00007FFFF80003FFFFF80007F
310
FFC000000001FFFFFC000000001FFFF800000000000000007FFFFFF0001FFFFF
310
FFFFE000000003FFFFFFFFE000000003FFFFFF000000000003FFF000000000FF
310
F000FF80000000007FFFFFF00007FFFF80003FFFFF80007FFF8000000000FFFF
310
F80000000007FFF800000000000000007FFFFFF0001FFFFFFFFFC000000001FF
310
FFFFFFC000000001FFFFFF000000000003FFC0000000007FF000FF0000000000
310
3FFFFFE00007FFFF00003FFFFF80007FFE00000000003FFFF00000000003FFF8
310
00000000000000007FFFFFF0001FFFFFFFFF8000000000FFFFFFFF8000000000
310
FFFFFF000000000003FF80000000003FF000FE00000000001FFFFFE00003FFFF
310
00003FFFFF80007FFC00000000001FFFE00000000001FFF8000001FFFE000000
310
7FFFFFF0001FFFFFFFFE00000000003FFFFFFE00000000003FFFFF0000000000
310
03FF00000000001FF000FC00000000000FFFFFE00003FFFF00001FFFFF80007F
310
F800000000001FFFC00000000000FFF8000001FFFE0000007FFFFFF0001FFFFF
310
FFFC00000000001FFFFFFC00000000001FFFFF000000000003FE00000000000F
310
F000F8000000000007FFFFE00003FFFF00001FFFFF80007FF800000000000FFF
310
800000000000FFF8000001FFFE0000007FFFFFF0001FFFFFFFF800000000000F
310
FFFFF800000000000FFFFF000000000003FC000000000007F000F80000000000
310
03FFFFC00003FFFE00001FFFFF80007FF0000000000007FF0000000000007FF8
310
000001FFFE0000007FFFFFF0001FFFFFFFF0000000000007FFFFF00000000000
310
07FFFF000000000003F8000000000003F000F0000000000003FFFFC00001FFFE
310
00001FFFFF80007FE0000000000007FE0000000000003FF8000001FFFE000000
310
7FFFFFF0001FFFFFFFF0000000000007FFFFF0000000000007FFFF0000000000
310
03F800001F800003F000E00001FFF00001FFFFC00001FFFE00000FFFFF80007F
310
E00001FFE00003FE00001FFF00003FF8000001FFFE0000007FFFFFF0001FFFFF
310
FFE000003E000003FFFFE000003E000003FFFF000000000003F00001FFF80001
310
F000E00007FFFC0001FFFFC00001FFFE00000FFFFF80007FC0000FFFFC0003FC
310
0000FFFFC0001FF8000001FFFE0000007FFFFFF0001FFFFFFFC00003FFE00001
310
FFFFC00003FFE00001FFFF0001FFFFFFFFF00007FFFE0001F000E0000FFFFF00
310
00FFFF800001FFFC00000FFFFF80007FC0001FFFFE0001FC0001FFFFE0001FF8
310
000001FFFE0000007FFFFFF0001FFFFFFF80000FFFF80000FFFF80000FFFF800
310
00FFFF0003FFFFFFFFE0000FFFFF8000F000C0003FFFFF8000FFFF800000FFFC
310
000007FFFF80007F80003FFFFF0001FC0003FFFFF0001FF8000001FFFE000000
310
7FFFFFF0001FFFFFFF80003FFFFE0000FFFF80003FFFFE0000FFFF0003FFFFFF
310
FFE0003FFFFF8000F000C0003FFFFF8000FFFF800000FFFC000007FFFF80007F
310
80007FFFFF8001F80007FFFFF8000FF8000001FFFE0000007FFFFFF0001FFFFF
310
FF00007FFFFF00007FFF00007FFFFF00007FFF0003FFFFFFFFE0003FFFFFC000
310
F000C0007FFFFFC000FFFF000000FFFC000007FFFF80007F8000FFFFFF8000F8
310
000FFFFFF8000FF8000001FFFE0000007FFFFFF0001FFFFFFF0000FFFFFF8000
310
7FFF0000FFFFFF80007FFF0003FFFFFFFFC0007FFFFFC00070008000FFFFFFC0
310
00FFFF000000FFF8000007FFFF80007F8000FFFFFF8000F8000FFFFFF8000FF8
310
000001FFFE0000007FFFFFF0001FFFFFFE0001FFFFFFC0003FFE0001FFFFFFC0
310
003FFF0003FFFFFFFFC0007FFFFFE00070008000FFFFFFC0007FFF0000007FF8
310
000003FFFF80007F0001FFFFFF8000F8000FFFFFF8000FF8000001FFFE000000
310
7FFFFFF0001FFFFFFE0001FFFFFFC0003FFE0001FFFFFFC0003FFF0003FFFFFF
310
FFC000FFFFFFE00070008000FFFFFFC0007FFF0000007FF8000003FFFF80007F
310
0001FFFFFF8000F8001FFFFFF8000FF8000001FFFE0000007FFFFFF0001FFFFF
310
FE0003FFFFFFE0003FFE0003FFFFFFE0003FFF0003FFFFFFFFC000FFFFFFE000
310
70008000FFFFFFC0007FFE0000007FF8000003FFFF80007F0001FFFFFF8000F0
310
001FFFFFF8000FF8000001FFFE0000007FFFFFF0001FFFFFFC0003FFFFFFE000
310
1FFC0003FFFFFFE0001FFF0003FFFFFFFFC000FFFFFFC00070008000FFFFFF80
310
007FFE0000007FF0000003FFFF80007F0001FFFFFF0000F0001FFFFFF8000FF8
310
000001FFFE0000007FFFFFF0001FFFFFFC0007FFFFFFF0001FFC0007FFFFFFF0
310
001FFF0003FFFFFFFFC000FFFFFFC00070008001FFFFFF0000FFFE0000003FF0
310
000001FFFF80007F0001FFFFFF0000F8001FFFFFF0000FF8000001FFFE000000
310
7FFFFFF0001FFFFFFC0007FFFFFFF0001FFC0007FFFFFFF0001FFF0003FFFFFF
310
FFC001FFFFFF80007000FFFFFFFFFE0000FFFE0008003FF0008001FFFF80007F
310
FFFFFFFFFC0000FFFFFFFFFFE0000FF8000001FFFE0000007FFFFFF0001FFFFF
310
F8000FFFFFFFF8000FF8000FFFFFFFF8000FFF0003FFFFFFFFFFFFFFFFFF0000
310
7000FFFFFFFFFC0000FFFC0008003FF0008001FFFF80007FFFFFFFFFF80001FF
310
FFFFFFFF80000FF8000001FFFE0000007FFFFFF0001FFFFFF8000FFFFFFFF800
310
0FF8000FFFFFFFF8000FFF0003FFFFFFFFFFFFFFFFFE0000F000FFFFFFFFE000
310
00FFFC000C003FE000C001FFFF80007FFFFFFFFFC00001FFFFFFFFFE00001FF8
310
000001FFFE0000007FFFFFF0001FFFFFF8000FFFFFFFF8000FF8000FFFFFFFF8
310
000FFF0003FFFFFFFFFFFFFFFFF00000F000FFFFFFFE000001FFFC000C001FE0
310
00C000FFFF80007FFFFFFFFE000001FFFFFFFFE000001FF80FFFFFFFFFFFFFC0
310
7FFFFFF0001FFFFFF8000FFFFFFFF8000FF8000FFFFFFFF8000FFF0003FFFFFF
310
FFFFFFFFFF800000F000FFFFFFC0000001FFFC001C001FE001C000FFFF80007F
310
FFFFFF80000003FFFFFFF80000001FF80FFFFFFFFFFFFFC07FFFFFF0001FFFFF
310
F8001FFFFFFFFC000FF8001FFFFFFFFC000FFF0003FFFFFFFFFFFFFFF0000001
310
F000FFFFF800000001FFF8001C001FE001C000FFFF80007FFFFFF800000003FF
310
FFFF800000003FF80FFFFFFFFFFFFFC07FFFFFF0001FFFFFF8001FFFFFFFFC00
310
0FF8001FFFFFFFFC000FFF0003FFFFFFFFFFFFFE00000001F000FFFFC0000000
310
03FFF8001E001FC001E000FFFF80007FFFFF8000000007FFFFFC000000003FF8
310
0FFFFFFFFFFFFFC07FFFFFF0001FFFFFF8001FFFFFFFFC000FF8001FFFFFFFFC
310
000FFF0003FFFFFFFFFFFFE000000003F000FFFE0000000007FFF8001E000FC0
310
01E0007FFF80007FFFFE0000000007FFFFE0000000007FF80FFFFFFFFFFFFFC0
310
7FFFFFF0001FFFFFF0001FFFFFFFFC0007F0001FFFFFFFFC0007FF0003FFFFFF
310
FFFFFF0000000003F000FFF80000000007FFF8001E000FC003E0007FFF80007F
310
FFF0000000000FFFFF8000000000FFF80FFFFFFFFFFFFFC07FFFFFF0001FFFFF
310
F0001FFFFFFFFC0007F0001FFFFFFFFC0007FF0003FFFFFFFFFFFC0000000007
310
F000FFE0000000000FFFF0003E000FC003E0007FFF80007FFFC0000000001FFF
310
FE0000000001FFF80FFFFFFFFFFFFFC07FFFFFF0001FFFFFF0001FFFFFFFFC00
310
07F0001FFFFFFFFC0007FF0003FFFFFFFFFFF0000000000FF000FFC000000000
310
1FFFF0003F000F8003F0003FFF80007FFF80000000003FFFF80000000003FFF8
310
0FFFFFFFFFFFFFC07FFFFFF0001FFFFFF0001FFFFFFFFC0007F0001FFFFFFFFC
310
0007FF0003FFFFFFFFFFE0000000001FF000FF00000000007FFFF0003F000780
310
03F0003FFF80007FFF00000000007FFFF00000000007FFF80FFFFFFFFFFFFFC0
310
7FFFFFF0001FFFFFF0001FFFFFFFFC0007F0001FFFFFFFFC0007FF0003FFFFFF
310
FFFF80000000007FF000FE0000000000FFFFE0003F00078007F0003FFF80007F
310
FE0000000001FFFFE0000000001FFFF80FFFFFFFFFFFFFC07FFFFFF0001FFFFF
310
F0001FFFFFFFFC0007F0001FFFFFFFFC0007FF0003FFFFFFFFFF0000000000FF
310
F000FC0000000003FFFFE0007F00078007F0003FFF80007FFC0000000007FFFF
310
C0000000007FFFF80FFFFFFFFFFFFFC07FFFFFF0001FFFFFF8001FFFFFFFFC00
310
0FF8001FFFFFFFFC000FFF0003FFFFFFFFFE0000000003FFF000FC000000000F
310
FFFFE0007F80070007F8001FFF80007FF8000000001FFFFF8000000001FFFFF8
310
0FFFFFFFFFFFFFC07FFFFFF0001FFFFFF8001FFFFFFFFC000FF8001FFFFFFFFC
310
000FFF0003FFFFFFFFFC000000000FFFF000F8000000007FFFFFE0007F800700
310
07F8001FFF80007FF000000000FFFFFF800000000FFFFFF80FFFFFFFFFFFFFC0
310
7FFFFFF0001FFFFFF8000FFFFFFFF8000FF8000FFFFFFFF8000FFF0003FFFFFF
310
FFFC000000007FFFF000F800000007FFFFFFC0007F8003000FF8001FFF80007F
310
F000000007FFFFFF000000007FFFFFF80FFFFFFFFFFFFFC07FFFFFF0001FFFFF
310
F8000FFFFFFFF8000FF8000FFFFFFFF8000FFF0003FFFFFFFFF80000000FFFFF
310
F000F0000000FFFFFFFFC000FF8003000FF8001FFF80007FE0000000FFFFFFFF
310
0000000FFFFFFFF8000001FFFE0000007FFFFFF0001FFFFFF8000FFFFFFFF800
310
0FF8000FFFFFFFF8000FFF0003FFFFFFFFF8000000FFFFFFF000F000000FFFFF
310
FFFFC000FFC002000FF8000FFF80007FE000001FFFFFFFFE000001FFFFFFFFF8
310
000001FFFE0000007FFFFFF0001FFFFFF8000FFFFFFFF8000FF8000FFFFFFFF8
310
000FFF0003FFFFFFFFF000001FFFFFFFF000E00000FFFFFFFFFFC000FFC00200
310
0FFC000FFF80007FE00001FFFFFFFFFE00001FFFFFFFFFF8000001FFFE000000
310
7FFFFFF0001FFFFFFC000FFFFFFFF8001FFC000FFFFFFFF8001FFF0003FFFFFF
310
FFF00001FFFFFFFFF000E00007FFFFFFFFFF8000FFC000001FFC000FFF80007F
310
C0000FFFFFFFFFFE0000FFFFFFFFFFF8000001FFFE0000007FFFFFF0001FFFFF
310
FC0007FFFFFFF0001FFC0007FFFFFFF0001FFF0003FFFFFFFFF00007FFFFFFFF
310
F000E0001FFFFFFFFFFF8000FFC000001FFC000FFF80007FC0003FFFFFFFFFFE
310
0001FFFFFFFFFFF8000001FFFE0000007FFFFFF0001FFFFFFC0007FFFFFFF000
310
1FFC0007FFFFFFF0001FFF0003FFFFFFFFF0001FFFFFFFFFF000E0003FFFFF00
310
03FF8001FFE000001FFC0007FF80007FC0007FFFFF0007FC0003FFFFF0003FF8
310
000001FFFE0000007FFFFFF0001FFFFFFC0003FFFFFFE0001FFC0003FFFFFFE0
310
001FFF0003FFFFFFFFF0003FFFFFFFFFF000E0003FFFFF0001FF8001FFE00000
310
1FFE0007FF80007FC0007FFFFE0003FC0007FFFFE0003FF8000001FFFE000000
310
7FFFFFF0001FFFFFFE0003FFFFFFE0003FFE0003FFFFFFE0003FFF0003FFFFFF
310
FFF0003FFFFF8001F000E0003FFFFF0001FF0001FFE000001FFE0007FF80007F
310
C0007FFFFE0003FC0007FFFFE0003FF8000001FFFE0000007FFFFFF0001FFFFF
310
FE0001FFFFFFC0003FFE0001FFFFFFC0003FFF0003FFFFFFFFF0003FFFFF0001
310
F000E0003FFFFF0003FF0001FFE000003FFE0007FF80007FC0007FFFFE0003FC
310
0007FFFFE0003FF8000001FFFE0000007FFFFFF0001FFFFFFF0001FFFFFFC000
310
7FFF0001FFFFFFC0007FFF0003FFFFFFFFF0003FFFFF0001F000E0003FFFFE00
310
03FF0003FFF000003FFE0003FF80007FC0007FFFFC0003FE0007FFFFE0003FF8
310
000001FFFE0000007FFFFFF0001FFFFFFF0000FFFFFF80007FFF0000FFFFFF80
310
007FFF0003FFFFFFFFF0003FFFFF0001F000E0003FFFFE0003FF0003FFF00000
310
3FFF0003FF80007FC0007FFFFC0007FE0007FFFFC0003FF8000001FFFE000000
310
7FFFFFF0001FFFFFFF80007FFFFF0000FFFF80007FFFFF0000FFFF0003FFFFFF
310
FFF0003FFFFF0003F000E0003FFFFC0003FE0003FFF000003FFF0003FF80007F
310
E0003FFFF80007FE0003FFFFC0007FF8000001FFFE0000007FFFFFF0001FFFFF
310
FF80003FFFFE0000FFFF80003FFFFE0000FFFF0003FFFFFFFFF0001FFFFE0003
310
F000F0001FFFF80003FE0003FFF000007FFF0001FF80007FE0003FFFF00007FE
310
0001FFFF80007FF8000001FFFE0000007FFFFFF0001FFFFFFFC0000FFFF80001
310
FFFFC0000FFFF80001FFFF0003FFFFFFFFF0001FFFFC0003F000F0000FFFF000
310
07FE0007FFF800007FFF0001FF80007FE0001FFFE00007FF0000FFFE00007FF8
310
000001FFFE0000007FFFFFF0001FFFFFFFC00003FFE00001FFFFC00003FFE000
310
01FFFF0003FFFFFFFFF8000FFFF80003F000F00003FFC00007FC0007FFF80000
310
7FFF8001FF80007FF00007FF80000FFF00007FF80000FFF8000001FFFE000000
310
7F80000000000001FFE000003E000003FFFFE000003E000003FFFF0003FFFFFF
310
FFF80003FFE00007F000F800000000000FFC0007FFF800007FFF8001FF80007F
310
F000000000000FFF000000000000FFF8000001FFFE0000007F80000000000001
310
FFF0000000000007FFFFF0000000000007FFFF0003FFFFFFFFFC00007E000007
310
F000F800000000000FFC0007FFF80000FFFF8000FF80007FF800000000001FFF
310
800000000001FFF8000001FFFE0000007F80000000000001FFF800000000000F
310
FFFFF800000000000FFFFF0003FFFFFFFFFC00000000000FF000FC0000000000
310
1FFC0007FFFC0000FFFF8000FF80007FF800000000003FFFC00000000001FFF8
310
000001FFFE0000007F80000000000001FFF800000000000FFFFFF80000000000
310
0FFFFF0003FFFFFFFFFE00000000001FF000FE00000000003FF8000FFFFC0000
310
FFFF8000FF80007FFC00000000003FFFC00000000003FFF8000001FFFE000000
310
7F80000000000001FFFC00000000001FFFFFFC00000000001FFFFF0003FFFFFF
310
FFFF00000000001FF000FF00000000003FF8000FFFFC0000FFFFC000FF80007F
310
FE00000000007FFFE00000000007FFF8000001FFFE0000007F80000000000001
310
FFFE00000000003FFFFFFE00000000003FFFFF0003FFFFFFFFFF80000000003F
310
F000FF80000000007FF8000FFFFC0001FFFFC0007F80007FFF0000000000FFFF
310
F0000000000FFFF800000000000000007F80000000000001FFFF8000000000FF
310
FFFFFF8000000000FFFFFF0003FFFFFFFFFFC0000000007FF000FFC000000000
310
FFF8000FFFFE0001FFFFC0007F80007FFF8000000001FFFFF8000000001FFFF8
310
00000000000000007F80000000000001FFFFC000000001FFFFFFFFC000000001
310
FFFFFF0003FFFFFFFFFFE000000000FFF000FFE000000003FFF0001FFFFE0001
310
FFFFC0007F80007FFFC000000007FFFFFE000000003FFFF80000000000000000
310
7F80000000000001FFFFE000000003FFFFFFFFE000000003FFFFFF0003FFFFFF
310
FFFFF000000003FFF000FFF80000000FFFF0001FFFFE0001FFFFE0007F80007F
310
FFF00000000FFFFFFF00000000FFFFF800000000000000007F80000000000001
310
FFFFF80000000FFFFFFFFFF80000000FFFFFFF0003FFFFFFFFFFFC0000000FFF
310
F000FFFE0000003FFFF0001FFFFE0003FFFFE0003F80007FFFFC0000003FFFFF
310
FFC0000003FFFFF800000000000000007F80000000000001FFFFFE0000003FFF
310
FFFFFFFE0000003FFFFFFF0003FFFFFFFFFFFF0000003FFFF000FFFF800000FF
310
FFF0001FFFFF0003FFFFE0003F80007FFFFF000001FFFFFFFFF800001FFFFFF8
310
00000000000000007F80000000000001FFFFFFC00001FFFFFFFFFFFFC00001FF
310
FFFFFF0003FFFFFFFFFFFFC00000FFFFF000FFFFF8000FFFFFFFFFFFFFFFFFFF
310
FFFFFFFFFFFFFFFFFFFFF0001FFFFFFFFFFF0000FFFFFFF80000000000000000
310
7FFFFFFFFFFFFFFFFFFFFFFC001FFFFFFFFFFFFFFC001FFFFFFFFFFFFFFFFFFF
310
FFFFFFFC001FFFFFF000FFFFFFFFFFFFFFFFFFFFFFFFFFFFFFFFFFFFFFFFFFFF
310
FFFFFFFFFFFFFFFFFFFFFFFFFFFFFFFFFFFFFFFFFFFFFFFFFFFFFFFFFFFFFFFF
310
FFFFFFFFFFFFFFFFFFFFFFFFFFFFFFFFFFFFFFFFFFFFFFFFFFFFFFFFFFFFFFFF
310
F000FFFFFFFFFFFFFFFFFFFFFFFFFFFFFFFFFFFFFFFFFFFFFFFFFFFFFFFFFFFF
310
FFFFFFFFFFFFFFFFFFFFFFFFFFFFFFFFFFFFFFFFFFFFFFFFFFFFFFFFFFFFFFFF
310
FFFFFFFFFFFFFFFFFFFFFFFFFFFFFFFFFFFFFFFFFFFFFFFFF000FFFFFFFFFFFF
310
FFFFFFFFFFFFFFFFFFFFFFFFFFFFFFFFFFFFFFFFFFFFFFFFFFFFFFFFFFFFFFFF
310
FFFFFFFFFFFFFFFFFFFFFFFFFFFFFFFFFFFFFFFFFFFFFFFFFFFFFFFFFFFFFFFF
310
FFFFFFFFFFFFFFFFFFFFFFFFFFFFFFFFF000FFFFFFFFFFFFFFFFFFFFFFFFFFFF
310
FFFFFFFFFFFFFFFFFFFFFFFFFFFFFFFFFFFFFFFFFFFFFFFFFFFFFFFFFFFFFFFF
310
FFFFFFFFFFFFFFFFFFFFFFFFFFFFFFFFFFFFFFFFFFFFFFFFFFFFFFFFFFFFFFFF
310
FFFFFFFFFFFFFFFFF000FFFFFFFFFFFFFFFFFFFFFFFFFFFFFFFFFFFFFFFFFFFF
310
FFFFFFFFFFFFFFFFFFFFFFFFFFFFFFFFFFFFFFFFFFFFFFFFFFFFFFFFFFFFFFFF
310
FFFFFFFFFFFFFFFFFFFFFFFFFFFFFFFFFFFFFFFFFFFFFFFFFFFFFFFFFFFFFFFF
310
F000FFFFFFFFFFFFFFFFFFFFFFFFFFFFFFFFFFFFFFFFFFFFFFFFFFFFFFFFFFFF
310
FFFFFFFFFFFFFFFFFFFFFFFFFFFFFFFFFFFFFFFFFFFFFFFFFFFFFFFFFFFFFFFF
310
FFFFFFFFFFFFFFFFFFFFFFFFFFFFFFFFFFFFFFFFFFFFFFFFF000FFFFFFFFFFFF
310
FFFFFFFFFFFFFFFFFFFFFFFFFFFFFFFFFFFFFFFFFFFFFFFFFFFFFFFFFFFFFFFF
310
FFFFFFFFFFFFFFFFFFFFFFFFFFFFFFFFFFFFFFFFFFFFFFFFFFFFFFFFFFFFFFFF
310
FFFFFFFFFFFFFFFFFFFFFFFFFFFFFFFFF000FFFFFFFFFFFFFFFFFFFFFFFFFFFF
310
FFFFFFFFFFFFFFFFFFFFFFFFFFFFFFFFFFFFFFFFFFFFFFFFFFFFFFFFFFFFFFFF
310
FFFFFFFFFFFFFFFFFFFFFFFFFFFFFFFFFFFFFFFFFFFFFFFFFFFFFFFFFFFFFFFF
310
FFFFFFFFFFFFFFFFF000FFFFFFFFFFFFFFFFFFFFFFFFFFFFFFFFFFFFFFFFFFFF
310
FFFFFFFFFFFFFFFFFFFFFFFFFFFFFFFFFFFFFFFFFFFFFFFFFFFFFFFFFFFFFFFF
310
FFFFFFFFFFFFFFFFFFFFFFFFFFFFFFFFFFFFFFFFFFFFFFFFFFFFFFFFFFFFFFFF
310
F000FFFFFFFFFFFFFFFFFFFFFFFFFFFFFFFFFFFFFFFFFFFFFFFFFFFFFFFFFFFF
310
FFFFFFFFFFFFFFFFFFFFFFFFFFFFFFFFFFFFFFFFFFFFFFFFFFFFFFFFFFFFFFFF
310
FFFFFFFFFFFFFFFFFFFFFFFFFFFFFFFFFFFFFFFFFFFFFFFFF000FFFFFFFFFFFF
310
FFFFFFFFFFFFFFFFFFFFFFFFFFFFFFFFFFFFFFFFFFFFFFFFFFFFFFFFFFFFFFFF
310
FFFFFFFFFFFFFFFFFFFFFFFFFFFFFFFFFFFFFFFFFFFFFFFFFFFFFFFFFFFFFFFF
310
FFFFFFFFFFFFFFFFFFFFFFFFFFFFFFFFF000FFFFFFFFFFFFFFFFFFFFFFFFFFFF
310
FFFFFFFFFFFFFFFFFFFFFFFFFFFFFFFFFFFFFFFFFFFFFFFFFFFFFFFFFFFFFFFF
310
FFFFFFFFFFFFFFFFFFFFFFFFFFFFFFFFFFFFFFFFFFFFFFFFFFFFFFFFFFFFFFFF
310
FFFFFFFFFFFFFFFFF000FFFFFFFFFFFFFFFFFFFFFFFFFFFFFFFFFFFFFFFFFFFF
310
FFFFFFFFFFFFFFFFFFFFFFFFFFFFFFFFFFFFFFFFFFFFFFFFFFFFFFFFFFFFFFFF
310
FFFFFFFFFFFFFFFFFFFFFFFFFFFFFFFFFFFFFFFFFFFFFFFFFFFFFFFFFFFFFFFF
310
F000FFFFFFFFFFFFFFFFFFFFFFFFFFFFFFFFFFFFFFFFFFFFFFFFFFFFFFFFFFFF
310
FFFFFFFFFFFFFFFFFFFFFFFFFFFFFFFFFFFFFFFFFFFFFFFFFFFFFFFFFFFFFFFF
310
FFFFFFFFFFFFFFFFFFFFFFFFFFFFFFFFFFFFFFFFFFFFFFFFF000FFFFFFFFFFFF
310
FFFFFFFFFFFFFFFFFFFFFFFFFFFFFFFFFFFFFFFFFFFFFFFFFFFFFFFFFFFFFFFF
310
FFFFFFFFFFFFFFFFFFFFFFFFFFFFFFFFFFFFFFFFFFFFFFFFFFFFFFFFFFFFFFFF
310
FFFFFFFFFFFFFFFFFFFFFFFFFFFFFFFFF000FFFFFFFFFFFFFFFFFFFFFFFFFFFF
310
FFFFFFFFFFFFFFFFFFFFFFFFFFFFFFFFFFFFFFFFFFFFFFFFFFFFFFFFFFFFFFFF
310
FFFFFFFFFFFFFFFFFFFFFFFFFFFFFFFFFFFFFFFFFFFFFFFFFFFFFFFFFFFFFFFF
310
FFFFFFFFFFFFFFFFF000FFFFFFFFFFFFFFFFFFFFFFFFFFFFFFFFFFFFFFFFFFFF
310
FFFFFFFFFFFFFFFFFFFFFFFFFFFFFFFFFFFFFFFFFFFFFFFFFFFFFFFFFFFFFFFF
310
FFFFFFFFFFFFFFFFFFFFFFFFFFFFFFFFFFFFFFFFFFFFFFFFFFFFFFFFFFFFFFFF
310
F000FFFFFFFFFFFFFFFFFFFFFFFFFFFFFFFFFFFFFFFFFFFFFFFFFFFFFFFFFFFF
310
FFFFFFFFFFFFFFFFFFFFFFFFFFFFFFFFFFFFFFFFFFFFFFFFFFFFFFFFFFFFFFFF
310
FFFFFFFFFFFFFFFFFFFFFFFFFFFFFFFFFFFFFFFFFFFFFFFFF000FFFFFFFFFFFF
310
FFFFFFFFFFFFFFFFFFFFFFFFFFFFFFFFFFFFFFFFFFFFFFFFFFFFFFFFFFFFFFFF
310
FFFFFFFFFFFFFFFFFFFFFFFFFFFFFFFFFFFFFFFFFFFFFFFFFFFFFFFFFFFFFFFF
310
FFFFFFFFFFFFFFFFFFFFFFFFFFFFFFFFF000FFFFFFFFFFFFFFFFFFFFFFFFFFFF
310
FFFFFFFFFFFFFFFFFFFFFFFFFFFFFFFFFFFFFFFFFFFFFFFFFFFFFFFFFFFFFFFF
310
FFFFFFFFFFFFFFFFFFFFFFFFFFFFFFFFFFFFFFFFFFFFFFFFFFFFFFFFFFFFFFFF
310
FFFFFFFFFFFFFFFFF000FFFFFFFFFFFFFFFFFFFFFFFFFFFFFFFFFFFFFFFFFFFF
310
FFFFFFFFFFFFFFFFFFFFFFFFFFFFFFFFFFFFFFFFFFFFFFFFFFFFFFFFFFFFFFFF
310
FFFFFFFFFFFFFFFFFFFFFFFFFFFFFFFFFFFFFFFFFFFFFFFFFFFFFFFFFFFFFFFF
310
F000FFFFFFFFFFFFFFFFFFFFFFFFFFFFFFFFFFFFFFFFFFFFFFFFFFFFFFFFFFFF
310
FFFFFFFFFFFFFFFFFFFFFFFFFFFFFFFFFFFFFFFFFFFFFFFFFFFFFFFFFFFFFFFF
310
FFFFFFFFFFFFFFFFFFFFFFFFFFFFFFFFFFFFFFFFFFFFFFFFF000FFFFFFFFFFFF
310
FFFFFFFFFFFFFFFFFFFFFFFFFFFFFFFFFFFFFFFFFFFFFFFFFFFFFFFFFFFFFFFF
310
FFFFFFFFFFFFFFFFFFFFFFFFFFFFFFFFFFFFFFFFFFFFFFFFFFFFFFFFFFFFFFFF
310
FFFFFFFFFFFFFFFFFFFFFFFFFFFFFFFFF0000000000000000000000000000000
310
0000000000000000000000000000000000000000000000000000000000000000
310
0000000000000000000000000000000000000000000000000000000000000000
310
0000000000000000000000000000000000000000000000000000000000000000
310
0000000000000000000000000000000000000000000000000000000000000000
310
0000000000000000000000000000000000000000000000000000000000000000
310
0000000000000000000000000000000000000000000000000000000000000000
310
0000000000000000000000000000000000000000000000000000000000000000
310
0000000000000000000000000000000000000000000000000000000000000000
310
0000000000000000000000000000000000000000000000000000000000000000
310
0000000000000000000000000000000000000000000000000000000000000000
310
0000000000000000000000000000000000000000000000000000000000000000
310
0000000000000000000000000000000000000000000000000000000000000000
310
0000000000000000000000000000000000000000000000000000000000000000
310
0000000000000000000000000000000000000000000000000000000000000000
310
0000000000000000000000000000000000000000000000000000000000000000
  1
OLE
  0
ENDSEC
  0
SECTION
  2
OBJECTS
  0
DICTIONARY
  5
C
330
0
100
AcDbDictionary
281
     1
  3
ACAD_GROUP
350
D
  3
ACAD_LAYOUT
350
1A
  3
ACAD_MLINESTYLE
350
17
  3
ACAD_PLOTSETTINGS
350
19
  3
ACAD_PLOTSTYLENAME
350
E
  3
ACAD_SCALELIST
350
47
  0
DICTIONARY
  5
D
102
{ACAD_REACTORS
330
C
102
}
330
C
100
AcDbDictionary
281
     1
  0
DICTIONARY
  5
1A
102
{ACAD_REACTORS
330
C
102
}
330
C
100
AcDbDictionary
281
     1
  3
Layout1
350
1E
  3
Layout2
350
26
  3
Model
350
22
  0
DICTIONARY
  5
17
102
{ACAD_REACTORS
330
C
102
}
330
C
100
AcDbDictionary
281
     1
  3
Standard
350
18
  0
DICTIONARY
  5
19
102
{ACAD_REACTORS
330
C
102
}
330
C
100
AcDbDictionary
281
     1
  0
ACDBDICTIONARYWDFLT
  5
E
102
{ACAD_REACTORS
330
C
102
}
330
C
100
AcDbDictionary
281
     1
  3
Normal
350
F
100
AcDbDictionaryWithDefault
340
F
  0
DICTIONARY
  5
47
102
{ACAD_REACTORS
330
C
102
}
330
C
100
AcDbDictionary
281
     1
  3
A0
350
48
  3
A1
350
49
  3
A2
350
4A
  3
A3
350
4B
  3
A4
350
4C
  3
A5
350
4D
  3
A6
350
4E
  3
A7
350
4F
  3
A8
350
50
  3
A9
350
51
  3
B0
350
52
  3
B1
350
53
  3
B2
350
54
  3
B3
350
55
  3
B4
350
56
  3
B5
350
57
  3
B6
350
58
  3
B7
350
59
  3
B8
350
5A
  3
B9
350
5B
  3
C0
350
5C
  3
C1
350
5D
  3
C2
350
5E
  3
C3
350
5F
  3
C4
350
60
  3
C5
350
61
  3
C6
350
62
  3
C7
350
63
  3
C8
350
64
  3
C9
350
65
  3
D0
350
66
  3
D1
350
67
  3
D2
350
68
  0
LAYOUT
  5
1E
102
{ACAD_REACTORS
330
1A
102
}
330
1A
100
AcDbPlotSettings
  1

  2
none_device
  4

  6

 40
0.0
 41
0.0
 42
0.0
 43
0.0
 44
0.0
 45
0.0
 46
0.0
 47
0.0
 48
0.0
 49
0.0
140
0.0
141
0.0
142
1.0
143
1.0
 70
   688
 72
     1
 73
     0
 74
     5
  7

 75
    16
147
1.0
148
0.0
149
0.0
100
AcDbLayout
  1
Layout1
 70
     1
 71
     1
 10
0.0
 20
0.0
 11
420.0
 21
297.0
 12
0.0
 22
0.0
 32
0.0
 14
1.0000000000E+20
 24
1.0000000000E+20
 34
1.0000000000E+20
 15
-1.0000000000E+20
 25
-1.0000000000E+20
 35
-1.0000000000E+20
146
0.0
 13
0.0
 23
0.0
 33
0.0
 16
1.0
 26
0.0
 36
0.0
 17
0.0
 27
1.0
 37
0.0
 76
     0
330
1B
  0
LAYOUT
  5
26
102
{ACAD_REACTORS
330
1A
102
}
330
1A
100
AcDbPlotSettings
  1

  2
none_device
  4

  6

 40
0.0
 41
0.0
 42
0.0
 43
0.0
 44
0.0
 45
0.0
 46
0.0
 47
0.0
 48
0.0
 49
0.0
140
0.0
141
0.0
142
1.0
143
1.0
 70
   688
 72
     1
 73
     0
 74
     5
  7

 75
    16
147
1.0
148
0.0
149
0.0
100
AcDbLayout
  1
Layout2
 70
     1
 71
     2
 10
0.0
 20
0.0
 11
0.0
 21
0.0
 12
0.0
 22
0.0
 32
0.0
 14
0.0
 24
0.0
 34
0.0
 15
0.0
 25
0.0
 35
0.0
146
0.0
 13
0.0
 23
0.0
 33
0.0
 16
1.0
 26
0.0
 36
0.0
 17
0.0
 27
1.0
 37
0.0
 76
     0
330
23
  0
LAYOUT
  5
22
102
{ACAD_REACTORS
330
1A
102
}
330
1A
100
AcDbPlotSettings
  1

  2
none_device
  4
Letter_(8.50_x_11.00_Inches)
  6

 40
6.35
 41
6.35
 42
6.35000508
 43
6.35000508
 44
215.9
 45
279.4
 46
0.0
 47
0.0
 48
0.0
 49
0.0
140
0.0
141
0.0
142
1.0
143
1.0
 70
  1712
 72
     1
 73
     0
 74
     0
  7

 75
     0
147
1.0
148
0.0
149
0.0
100
AcDbLayout
  1
Model
 70
     1
 71
     0
 10
0.0
 20
0.0
 11
297.0
 21
210.0
 12
0.0
 22
0.0
 32
0.0
 14
0.0
 24
0.0
 34
0.0
 15
297.0
 25
210.0
 35
0.0
146
0.0
 13
0.0
 23
0.0
 33
0.0
 16
1.0
 26
0.0
 36
0.0
 17
0.0
 27
1.0
 37
0.0
 76
     0
330
1F
331
29
  0
MLINESTYLE
  5
18
102
{ACAD_REACTORS
330
17
102
}
330
17
100
AcDbMlineStyle
  2
Standard
 70
     0
  3

 62
   256
 51
90.0
 52
90.0
 71
     2
 49
0.5
 62
   256
  6
BYLAYER
 49
-0.5
 62
   256
  6
BYLAYER
  0
ACDBPLACEHOLDER
  5
F
102
{ACAD_REACTORS
330
E
102
}
330
E
  0
SCALE
  5
48
102
{ACAD_REACTORS
330
47
102
}
330
47
100
AcDbScale
 70
     0
300
1:1
140
1.0
141
1.0
290
     1
  0
SCALE
  5
49
102
{ACAD_REACTORS
330
47
102
}
330
47
100
AcDbScale
 70
     0
300
1:2
140
1.0
141
2.0
290
     0
  0
SCALE
  5
4A
102
{ACAD_REACTORS
330
47
102
}
330
47
100
AcDbScale
 70
     0
300
1:4
140
1.0
141
4.0
290
     0
  0
SCALE
  5
4B
102
{ACAD_REACTORS
330
47
102
}
330
47
100
AcDbScale
 70
     0
300
1:5
140
1.0
141
5.0
290
     0
  0
SCALE
  5
4C
102
{ACAD_REACTORS
330
47
102
}
330
47
100
AcDbScale
 70
     0
300
1:8
140
1.0
141
8.0
290
     0
  0
SCALE
  5
4D
102
{ACAD_REACTORS
330
47
102
}
330
47
100
AcDbScale
 70
     0
300
1:10
140
1.0
141
10.0
290
     0
  0
SCALE
  5
4E
102
{ACAD_REACTORS
330
47
102
}
330
47
100
AcDbScale
 70
     0
300
1:16
140
1.0
141
16.0
290
     0
  0
SCALE
  5
4F
102
{ACAD_REACTORS
330
47
102
}
330
47
100
AcDbScale
 70
     0
300
1:20
140
1.0
141
20.0
290
     0
  0
SCALE
  5
50
102
{ACAD_REACTORS
330
47
102
}
330
47
100
AcDbScale
 70
     0
300
1:30
140
1.0
141
30.0
290
     0
  0
SCALE
  5
51
102
{ACAD_REACTORS
330
47
102
}
330
47
100
AcDbScale
 70
     0
300
1:40
140
1.0
141
40.0
290
     0
  0
SCALE
  5
52
102
{ACAD_REACTORS
330
47
102
}
330
47
100
AcDbScale
 70
     0
300
1:50
140
1.0
141
50.0
290
     0
  0
SCALE
  5
53
102
{ACAD_REACTORS
330
47
102
}
330
47
100
AcDbScale
 70
     0
300
1:100
140
1.0
141
100.0
290
     0
  0
SCALE
  5
54
102
{ACAD_REACTORS
330
47
102
}
330
47
100
AcDbScale
 70
     0
300
2:1
140
2.0
141
1.0
290
     0
  0
SCALE
  5
55
102
{ACAD_REACTORS
330
47
102
}
330
47
100
AcDbScale
 70
     0
300
4:1
140
4.0
141
1.0
290
     0
  0
SCALE
  5
56
102
{ACAD_REACTORS
330
47
102
}
330
47
100
AcDbScale
 70
     0
300
8:1
140
8.0
141
1.0
290
     0
  0
SCALE
  5
57
102
{ACAD_REACTORS
330
47
102
}
330
47
100
AcDbScale
 70
     0
300
10:1
140
10.0
141
1.0
290
     0
  0
SCALE
  5
58
102
{ACAD_REACTORS
330
47
102
}
330
47
100
AcDbScale
 70
     0
300
100:1
140
100.0
141
1.0
290
     0
  0
SCALE
  5
59
102
{ACAD_REACTORS
330
47
102
}
330
47
100
AcDbScale
 70
     0
300
1/128" = 1'-0"
140
0.0078125
141
12.0
290
     0
  0
SCALE
  5
5A
102
{ACAD_REACTORS
330
47
102
}
330
47
100
AcDbScale
 70
     0
300
1/64" = 1'-0"
140
0.015625
141
12.0
290
     0
  0
SCALE
  5
5B
102
{ACAD_REACTORS
330
47
102
}
330
47
100
AcDbScale
 70
     0
300
1/32" = 1'-0"
140
0.03125
141
12.0
290
     0
  0
SCALE
  5
5C
102
{ACAD_REACTORS
330
47
102
}
330
47
100
AcDbScale
 70
     0
300
1/16" = 1'-0"
140
0.0625
141
12.0
290
     0
  0
SCALE
  5
5D
102
{ACAD_REACTORS
330
47
102
}
330
47
100
AcDbScale
 70
     0
300
3/32" = 1'-0"
140
0.09375
141
12.0
290
     0
  0
SCALE
  5
5E
102
{ACAD_REACTORS
330
47
102
}
330
47
100
AcDbScale
 70
     0
300
1/8" = 1'-0"
140
0.125
141
12.0
290
     0
  0
SCALE
  5
5F
102
{ACAD_REACTORS
330
47
102
}
330
47
100
AcDbScale
 70
     0
300
3/16" = 1'-0"
140
0.1875
141
12.0
290
     0
  0
SCALE
  5
60
102
{ACAD_REACTORS
330
47
102
}
330
47
100
AcDbScale
 70
     0
300
1/4" = 1'-0"
140
0.25
141
12.0
290
     0
  0
SCALE
  5
61
102
{ACAD_REACTORS
330
47
102
}
330
47
100
AcDbScale
 70
     0
300
3/8" = 1'-0"
140
0.375
141
12.0
290
     0
  0
SCALE
  5
62
102
{ACAD_REACTORS
330
47
102
}
330
47
100
AcDbScale
 70
     0
300
1/2" = 1'-0"
140
0.5
141
12.0
290
     0
  0
SCALE
  5
63
102
{ACAD_REACTORS
330
47
102
}
330
47
100
AcDbScale
 70
     0
300
3/4" = 1'-0"
140
0.75
141
12.0
290
     0
  0
SCALE
  5
64
102
{ACAD_REACTORS
330
47
102
}
330
47
100
AcDbScale
 70
     0
300
1" = 1'-0"
140
1.0
141
12.0
290
     0
  0
SCALE
  5
65
102
{ACAD_REACTORS
330
47
102
}
330
47
100
AcDbScale
 70
     0
300
1-1/2" = 1'-0"
140
1.5
141
12.0
290
     0
  0
SCALE
  5
66
102
{ACAD_REACTORS
330
47
102
}
330
47
100
AcDbScale
 70
     0
300
3" = 1'-0"
140
3.0
141
12.0
290
     0
  0
SCALE
  5
67
102
{ACAD_REACTORS
330
47
102
}
330
47
100
AcDbScale
 70
     0
300
6" = 1'-0"
140
6.0
141
12.0
290
     0
  0
SCALE
  5
68
102
{ACAD_REACTORS
330
47
102
}
330
47
100
AcDbScale
 70
     0
300
1'-0" = 1'-0"
140
12.0
141
12.0
290
     0
  0
ENDSEC
  0
EOF
