  0
SECTION
  2
HEADER
  9
$ACADVER
  1
AC1015
  9
$ACADMAINTVER
 70
     6
  9
$DWGCODEPAGE
  3
ANSI_1252
  9
$INSBASE
 10
0.0
 20
0.0
 30
0.0
  9
$EXTMIN
 10
0.0
 20
0.0
 30
0.0
  9
$EXTMAX
 10
297.0
 20
210.0
 30
0.0
  9
$LIMMIN
 10
0.0
 20
0.0
  9
$LIMMAX
 10
297.0
 20
210.0
  9
$ORTHOMODE
 70
     0
  9
$REGENMODE
 70
     1
  9
$FILLMODE
 70
     1
  9
$QTEXTMODE
 70
     0
  9
$MIRRTEXT
 70
     1
  9
$LTSCALE
 40
1.0
  9
$ATTMODE
 70
     1
  9
$TEXTSIZE
 40
2.0
  9
$TRACEWID
 40
1.0
  9
$TEXTSTYLE
  7
Standard
  9
$CLAYER
  8
0
  9
$CELTYPE
  6
ByLayer
  9
$CECOLOR
 62
   256
  9
$CELTSCALE
 40
1.0
  9
$DISPSILH
 70
     0
  9
$DIMSCALE
 40
1.0
  9
$DIMASZ
 40
3.0
  9
$DIMEXO
 40
0.0
  9
$DIMDLI
 40
3.75
  9
$DIMRND
 40
0.0
  9
$DIMDLE
 40
0.0
  9
$DIMEXE
 40
1.0
  9
$DIMTP
 40
0.0
  9
$DIMTM
 40
0.0
  9
$DIMTXT
 40
2.0
  9
$DIMCEN
 40
2.5
  9
$DIMTSZ
 40
0.0
  9
$DIMTOL
 70
     0
  9
$DIMLIM
 70
     0
  9
$DIMTIH
 70
     1
  9
$DIMTOH
 70
     1
  9
$DIMSE1
 70
     0
  9
$DIMSE2
 70
     0
  9
$DIMTAD
 70
     1
  9
$DIMZIN
 70
     0
  9
$DIMBLK
  1

  9
$DIMASO
 70
     1
  9
$DIMSHO
 70
     1
  9
$DIMPOST
  1

  9
$DIMAPOST
  1

  9
$DIMALT
 70
     0
  9
$DIMALTD
 70
     3
  9
$DIMALTF
 40
0.0393700787
  9
$DIMLFAC
 40
2.0
  9
$DIMTOFL
 70
     1
  9
$DIMTVP
 40
0.0
  9
$DIMTIX
 70
     0
  9
$DIMSOXD
 70
     0
  9
$DIMSAH
 70
     0
  9
$DIMBLK1
  1

  9
$DIMBLK2
  1

  9
$DIMSTYLE
  2
ISO-25
  9
$DIMCLRD
 70
     0
  9
$DIMCLRE
 70
     0
  9
$DIMCLRT
 70
     0
  9
$DIMTFAC
 40
1.0
  9
$DIMGAP
 40
1.524
  9
$DIMJUST
 70
     0
  9
$DIMSD1
 70
     0
  9
$DIMSD2
 70
     0
  9
$DIMTOLJ
 70
     0
  9
$DIMTZIN
 70
     0
  9
$DIMALTZ
 70
     0
  9
$DIMALTTZ
 70
     0
  9
$DIMUPT
 70
     0
  9
$DIMDEC
 70
     2
  9
$DIMTDEC
 70
     3
  9
$DIMALTU
 70
     2
  9
$DIMALTTD
 70
     3
  9
$DIMTXSTY
  7
Standard
  9
$DIMAUNIT
 70
     0
  9
$DIMADEC
 70
     2
  9
$DIMALTRND
 40
0.0
  9
$DIMAZIN
 70
     0
  9
$DIMDSEP
 70
    44
  9
$DIMATFIT
 70
     3
  9
$DIMFRAC
 70
     0
  9
$DIMLDRBLK
  1

  9
$DIMLUNIT
 70
     2
  9
$DIMLWD
 70
    -2
  9
$DIMLWE
 70
    -2
  9
$DIMTMOVE
 70
     0
  9
$LUNITS
 70
     2
  9
$LUPREC
 70
     2
  9
$SKETCHINC
 40
1.0
  9
$FILLETRAD
 40
10.0
  9
$AUNITS
 70
     0
  9
$AUPREC
 70
     2
  9
$MENU
  1
.
  9
$ELEVATION
 40
0.0
  9
$PELEVATION
 40
0.0
  9
$THICKNESS
 40
0.0
  9
$LIMCHECK
 70
     0
  9
$CHAMFERA
 40
0.0
  9
$CHAMFERB
 40
0.0
  9
$CHAMFERC
 40
0.0
  9
$CHAMFERD
 40
0.0
  9
$SKPOLY
 70
     0
  9
$TDCREATE
 40
2457674.426825035
  9
$TDUCREATE
 40
2457674.343491701
  9
$TDUPDATE
 40
2457674.426826458
  9
$TDUUPDATE
 40
2457674.343493125
  9
$TDINDWG
 40
0.0000000116
  9
$TDUSRTIMER
 40
0.0000000116
  9
$USRTIMER
 70
     1
  9
$ANGBASE
 50
0.0
  9
$ANGDIR
 70
     0
  9
$PDMODE
 70
     0
  9
$PDSIZE
 40
-1.0
  9
$PLINEWID
 40
0.0
  9
$SPLFRAME
 70
     0
  9
$SPLINETYPE
 70
     6
  9
$SPLINESEGS
 70
     8
  9
$HANDSEED
  5
2C3
  9
$SURFTAB1
 70
     6
  9
$SURFTAB2
 70
     6
  9
$SURFTYPE
 70
     6
  9
$SURFU
 70
     6
  9
$SURFV
 70
     6
  9
$UCSBASE
  2

  9
$UCSNAME
  2

  9
$UCSORG
 10
0.0
 20
0.0
 30
0.0
  9
$UCSXDIR
 10
1.0
 20
0.0
 30
0.0
  9
$UCSYDIR
 10
0.0
 20
1.0
 30
0.0
  9
$UCSORTHOREF
  2

  9
$UCSORTHOVIEW
 70
     0
  9
$UCSORGTOP
 10
0.0
 20
0.0
 30
0.0
  9
$UCSORGBOTTOM
 10
0.0
 20
0.0
 30
0.0
  9
$UCSORGLEFT
 10
0.0
 20
0.0
 30
0.0
  9
$UCSORGRIGHT
 10
0.0
 20
0.0
 30
0.0
  9
$UCSORGFRONT
 10
0.0
 20
0.0
 30
0.0
  9
$UCSORGBACK
 10
0.0
 20
0.0
 30
0.0
  9
$PUCSBASE
  2

  9
$PUCSNAME
  2

  9
$PUCSORG
 10
0.0
 20
0.0
 30
0.0
  9
$PUCSXDIR
 10
1.0
 20
0.0
 30
0.0
  9
$PUCSYDIR
 10
0.0
 20
1.0
 30
0.0
  9
$PUCSORTHOREF
  2

  9
$PUCSORTHOVIEW
 70
     0
  9
$PUCSORGTOP
 10
0.0
 20
0.0
 30
0.0
  9
$PUCSORGBOTTOM
 10
0.0
 20
0.0
 30
0.0
  9
$PUCSORGLEFT
 10
0.0
 20
0.0
 30
0.0
  9
$PUCSORGRIGHT
 10
0.0
 20
0.0
 30
0.0
  9
$PUCSORGFRONT
 10
0.0
 20
0.0
 30
0.0
  9
$PUCSORGBACK
 10
0.0
 20
0.0
 30
0.0
  9
$USERI1
 70
     0
  9
$USERI2
 70
     0
  9
$USERI3
 70
     0
  9
$USERI4
 70
     0
  9
$USERI5
 70
     0
  9
$USERR1
 40
0.0
  9
$USERR2
 40
0.0
  9
$USERR3
 40
0.0
  9
$USERR4
 40
0.0
  9
$USERR5
 40
0.0
  9
$WORLDVIEW
 70
     1
  9
$SHADEDGE
 70
     3
  9
$SHADEDIF
 70
    70
  9
$TILEMODE
 70
     1
  9
$MAXACTVP
 70
    64
  9
$PINSBASE
 10
0.0
 20
0.0
 30
0.0
  9
$PLIMCHECK
 70
     0
  9
$PEXTMIN
 10
1.0000000000E+20
 20
1.0000000000E+20
 30
1.0000000000E+20
  9
$PEXTMAX
 10
-1.0000000000E+20
 20
-1.0000000000E+20
 30
-1.0000000000E+20
  9
$PLIMMIN
 10
0.0
 20
0.0
  9
$PLIMMAX
 10
420.0
 20
297.0
  9
$UNITMODE
 70
     0
  9
$VISRETAIN
 70
     1
  9
$PLINEGEN
 70
     0
  9
$PSLTSCALE
 70
     1
  9
$TREEDEPTH
 70
  3020
  9
$CMLSTYLE
  2
Standard
  9
$CMLJUST
 70
     0
  9
$CMLSCALE
 40
20.0
  9
$PROXYGRAPHICS
 70
     1
  9
$MEASUREMENT
 70
     1
  9
$CELWEIGHT
370
    -1
  9
$ENDCAPS
280
     0
  9
$JOINSTYLE
280
     0
  9
$LWDISPLAY
290
     1
  9
$INSUNITS
 70
     4
  9
$HYPERLINKBASE
  1

  9
$STYLESHEET
  1

  9
$XEDIT
290
     1
  9
$CEPSNTYPE
380
     0
  9
$PSTYLEMODE
290
     1
  9
$FINGERPRINTGUID
  2
{83D4A5DB-ADA8-43FB-9C08-81DB4F6D2671}
  9
$VERSIONGUID
  2
{FAEB1C32-E019-11D5-929B-00C0DF256EC4}
  9
$EXTNAMES
290
     1
  9
$PSVPSCALE
 40
0.0
  9
$OLESTARTUP
290
     0
  0
ENDSEC
  0
SECTION
  2
CLASSES
  0
CLASS
  1
ACDBDICTIONARYWDFLT
  2
AcDbDictionaryWithDefault
  3
ObjectDBX Classes
 90
        0
280
     0
281
     0
  0
CLASS
  1
VISUALSTYLE
  2
AcDbVisualStyle
  3
ObjectDBX Classes
 90
     4095
280
     0
281
     0
  0
CLASS
  1
MATERIAL
  2
AcDbMaterial
  3
ObjectDBX Classes
 90
     1153
280
     0
281
     0
  0
CLASS
  1
SCALE
  2
AcDbScale
  3
ObjectDBX Classes
 90
     1153
280
     0
281
     0
  0
CLASS
  1
TABLESTYLE
  2
AcDbTableStyle
  3
ObjectDBX Classes
 90
     4095
280
     0
281
     0
  0
CLASS
  1
MLEADERSTYLE
  2
AcDbMLeaderStyle
  3
ACDB_MLEADERSTYLE_CLASS
 90
     4095
280
     0
281
     0
  0
CLASS
  1
SUN
  2
AcDbSun
  3
SCENEOE
 90
     1153
280
     0
281
     0
  0
CLASS
  1
ACDBPLACEHOLDER
  2
AcDbPlaceHolder
  3
ObjectDBX Classes
 90
        0
280
     0
281
     0
  0
CLASS
  1
LAYOUT
  2
AcDbLayout
  3
ObjectDBX Classes
 90
        0
280
     0
281
     0
  0
ENDSEC
  0
SECTION
  2
TABLES
  0
TABLE
  2
VPORT
  5
8
330
0
100
AcDbSymbolTable
 70
     1
  0
VPORT
  5
29
330
8
100
AcDbSymbolTableRecord
100
AcDbViewportTableRecord
  2
*Active
 70
     0
 10
0.0
 20
0.0
 11
1.0
 21
1.0
 12
148.5
 22
105.0
 13
0.0
 23
0.0
 14
10.0
 24
10.0
 15
10.0
 25
10.0
 16
0.0
 26
0.0
 36
1.0
 17
0.0
 27
0.0
 37
0.0
 40
210.0
 41
1.4142857143
 42
50.0
 43
0.0
 44
0.0
 50
0.0
 51
0.0
 71
     0
 72
  2000
 73
     1
 74
     3
 75
     0
 76
     0
 77
     0
 78
     0
281
     0
 65
     1
110
0.0
120
0.0
130
0.0
111
1.0
121
0.0
131
0.0
112
0.0
122
1.0
132
0.0
 79
     0
146
0.0
  0
ENDTAB
  0
TABLE
  2
LTYPE
  5
5
330
0
100
AcDbSymbolTable
 70
     6
  0
LTYPE
  5
14
330
5
100
AcDbSymbolTableRecord
100
AcDbLinetypeTableRecord
  2
ByBlock
 70
     0
  3

 72
    65
 73
     0
 40
0.0
  0
LTYPE
  5
15
330
5
100
AcDbSymbolTableRecord
100
AcDbLinetypeTableRecord
  2
ByLayer
 70
     0
  3

 72
    65
 73
     0
 40
0.0
  0
LTYPE
  5
16
330
5
100
AcDbSymbolTableRecord
100
AcDbLinetypeTableRecord
  2
Continuous
 70
     0
  3
Solid line
 72
    65
 73
     0
 40
0.0
  0
LTYPE
  5
6E
330
5
100
AcDbSymbolTableRecord
100
AcDbLinetypeTableRecord
  2
HIDDEN
 70
     0
  3
Hidden __ __ __ __ __ __ __ __ __ __ __ __ __ __
 72
    65
 73
     2
 40
1.905
 49
1.27
 74
     0
 49
-0.635
 74
     0
  0
LTYPE
  5
6F
330
5
100
AcDbSymbolTableRecord
100
AcDbLinetypeTableRecord
  2
PHANTOM
 70
     0
  3
Phantom ______  __  __  ______  __  __  ______
 72
    65
 73
     6
 40
12.7
 49
6.35
 74
     0
 49
-1.27
 74
     0
 49
1.27
 74
     0
 49
-1.27
 74
     0
 49
1.27
 74
     0
 49
-1.27
 74
     0
  0
LTYPE
  5
70
330
5
100
AcDbSymbolTableRecord
100
AcDbLinetypeTableRecord
  2
CENTER
 70
     0
  3
Center ____ _ ____ _ ____ _ ____ _ ____ _ ____
 72
    65
 73
     4
 40
10.16
 49
6.35
 74
     0
 49
-1.27
 74
     0
 49
1.27
 74
     0
 49
-1.27
 74
     0
  0
LTYPE
  5
71
330
5
100
AcDbSymbolTableRecord
100
AcDbLinetypeTableRecord
  2
CENTERX2
 70
     0
  3
Center (2x) ________  __  ________  __  _____
 72
    65
 73
     4
 40
20.32
 49
12.7
 74
     0
 49
-2.54
 74
     0
 49
2.54
 74
     0
 49
-2.54
 74
     0
  0
LTYPE
  5
72
330
5
100
AcDbSymbolTableRecord
100
AcDbLinetypeTableRecord
  2
DOT2
 70
     0
  3
Dot (.5x) ........................................
 72
    65
 73
     2
 40
0.635
 49
0.0
 74
     0
 49
-0.635
 74
     0
  0
ENDTAB
  0
TABLE
  2
LAYER
  5
2
330
0
100
AcDbSymbolTable
 70
     5
  0
LAYER
  5
10
330
2
100
AcDbSymbolTableRecord
100
AcDbLayerTableRecord
  2
0
 70
     0
 62
     7
  6
Continuous
370
    -3
390
F
  0
LAYER
  5
73
330
2
100
AcDbSymbolTableRecord
100
AcDbLayerTableRecord
  2
FORMAT
 70
     0
 62
     7
  6
Continuous
370
    -3
390
F
  0
LAYER
  5
74
330
2
100
AcDbSymbolTableRecord
100
AcDbLayerTableRecord
  2
VERMASSUNG
 70
     0
 62
     7
  6
Continuous
370
    -3
390
F
  0
LAYER
  5
75
330
2
100
AcDbSymbolTableRecord
100
AcDbLayerTableRecord
  2
KOPF_DÜNN
 70
     0
 62
     7
  6
Continuous
370
    -3
390
F
  0
LAYER
  5
76
330
2
100
AcDbSymbolTableRecord
100
AcDbLayerTableRecord
  2
KOPF_DICK
 70
     0
 62
     7
  6
Continuous
370
    15
390
F
  0
ENDTAB
  0
TABLE
  2
STYLE
  5
3
330
0
100
AcDbSymbolTable
 70
     2
  0
STYLE
  5
11
330
3
100
AcDbSymbolTableRecord
100
AcDbTextStyleTableRecord
  2
Standard
 70
     0
 40
0.0
 41
1.0
 50
0.0
 71
     0
 42
2.0
  3
txt
  4

  0
STYLE
  5
77
330
3
100
AcDbSymbolTableRecord
100
AcDbTextStyleTableRecord
  2
SLDTEXTSTYLE0
 70
     0
 40
0.0
 41
0.7
 50
0.0
 71
     0
 42
2.0
  3
TXT
  4

  0
ENDTAB
  0
TABLE
  2
VIEW
  5
6
330
0
100
AcDbSymbolTable
 70
     0
  0
ENDTAB
  0
TABLE
  2
UCS
  5
7
330
0
100
AcDbSymbolTable
 70
     0
  0
ENDTAB
  0
TABLE
  2
APPID
  5
9
330
0
100
AcDbSymbolTable
 70
     1
  0
APPID
  5
12
330
9
100
AcDbSymbolTableRecord
100
AcDbRegAppTableRecord
  2
ACAD
 70
     0
  0
ENDTAB
  0
TABLE
  2
DIMSTYLE
  5
A
330
0
100
AcDbSymbolTable
 70
     2
100
AcDbDimStyleTable
  0
DIMSTYLE
105
27
330
A
100
AcDbSymbolTableRecord
100
AcDbDimStyleTableRecord
  2
ISO-25
 70
     0
 41
2.5
 42
0.625
 43
3.75
 44
1.25
 73
     0
 74
     0
 77
     1
 78
     8
140
2.5
141
2.5
143
0.0393700787
147
0.625
171
     3
172
     1
178
     0
271
     2
272
     2
274
     3
278
    44
283
     0
284
     8
340
11
  0
DIMSTYLE
105
1F4
102
{ACAD_REACTORS
330
1F3
330
201
330
20C
330
217
330
221
330
22B
102
}
330
A
100
AcDbSymbolTableRecord
100
AcDbDimStyleTableRecord
  2
SLDDIMSTYLE0
 70
     0
 41
3.0
 44
0.0
 45
0.000000001
 73
     0
 74
     0
 77
     1
 78
    12
 79
     3
140
2.0
147
0.5
173
     1
178
     0
271
     2
272
     3
276
     2
284
    12
340
77
  0
ENDTAB
  0
TABLE
  2
BLOCK_RECORD
  5
1
330
0
100
AcDbSymbolTable
 70
     7
  0
BLOCK_RECORD
  5
1F
330
1
100
AcDbSymbolTableRecord
100
AcDbBlockTableRecord
  2
*Model_Space
340
22
  0
BLOCK_RECORD
  5
1B
330
1
100
AcDbSymbolTableRecord
100
AcDbBlockTableRecord
  2
*Paper_Space
340
1E
  0
BLOCK_RECORD
  5
23
330
1
100
AcDbSymbolTableRecord
100
AcDbBlockTableRecord
  2
*Paper_Space0
340
26
  0
BLOCK_RECORD
  5
1F5
330
1
100
AcDbSymbolTableRecord
100
AcDbBlockTableRecord
  2
_D
340
0
  0
BLOCK_RECORD
  5
202
330
1
100
AcDbSymbolTableRecord
100
AcDbBlockTableRecord
  2
_D_1
340
0
  0
BLOCK_RECORD
  5
20D
330
1
100
AcDbSymbolTableRecord
100
AcDbBlockTableRecord
  2
_D_2
340
0
  0
BLOCK_RECORD
  5
218
330
1
100
AcDbSymbolTableRecord
100
AcDbBlockTableRecord
  2
_D_3
340
0
  0
BLOCK_RECORD
  5
222
330
1
100
AcDbSymbolTableRecord
100
AcDbBlockTableRecord
  2
_D_4
340
0
  0
BLOCK_RECORD
  5
22C
330
1
100
AcDbSymbolTableRecord
100
AcDbBlockTableRecord
  2
_D_5
340
0
  0
ENDTAB
  0
ENDSEC
  0
SECTION
  2
BLOCKS
  0
BLOCK
  5
20
330
1F
100
AcDbEntity
  8
0
100
AcDbBlockBegin
  2
*Model_Space
 70
     0
 10
0.0
 20
0.0
 30
0.0
  3
*Model_Space
  1

  0
ENDBLK
  5
21
330
1F
100
AcDbEntity
  8
0
100
AcDbBlockEnd
  0
BLOCK
  5
1C
330
1B
100
AcDbEntity
 67
     1
  8
0
100
AcDbBlockBegin
  2
*Paper_Space
 70
     0
 10
0.0
 20
0.0
 30
0.0
  3
*Paper_Space
  1

  0
ENDBLK
  5
1D
330
1B
100
AcDbEntity
 67
     1
  8
0
100
AcDbBlockEnd
  0
BLOCK
  5
24
330
23
100
AcDbEntity
  8
0
100
AcDbBlockBegin
  2
*Paper_Space0
 70
     0
 10
0.0
 20
0.0
 30
0.0
  3
*Paper_Space0
  1

  0
ENDBLK
  5
25
330
23
100
AcDbEntity
  8
0
100
AcDbBlockEnd
  0
BLOCK
  5
1F6
330
1F5
100
AcDbEntity
  8
0
100
AcDbBlockBegin
  2
_D
 70
     0
 10
0.0
 20
0.0
 30
0.0
  3
_D
  1

  0
SOLID
  5
1F8
330
1F5
100
AcDbEntity
  8
VERMASSUNG
100
AcDbTrace
 10
61.3589239948
 20
80.4118647563
 30
0.0
 11
61.8089239948
 21
83.4118647563
 31
0.0
 12
60.9089239948
 22
83.4118647563
 32
0.0
 13
60.9089239948
 23
83.4118647563
 33
0.0
  0
SOLID
  5
1F9
330
1F5
100
AcDbEntity
  8
VERMASSUNG
100
AcDbTrace
 10
61.3589239948
 20
143.9118647563
 30
0.0
 11
60.9089239948
 21
140.9118647563
 31
0.0
 12
61.8089239948
 22
140.9118647563
 32
0.0
 13
61.8089239948
 23
140.9118647563
 33
0.0
  0
LINE
  5
1FA
330
1F5
100
AcDbEntity
  8
VERMASSUNG
100
AcDbLine
 10
160.0159665773
 20
80.4118647563
 30
0.0
 11
60.3589239948
 21
80.4118647563
 31
0.0
  0
LINE
  5
1FB
330
1F5
100
AcDbEntity
  8
VERMASSUNG
100
AcDbLine
 10
160.0159665773
 20
143.9118647563
 30
0.0
 11
60.3589239948
 21
143.9118647563
 31
0.0
  0
LINE
  5
1FC
330
1F5
100
AcDbEntity
  8
VERMASSUNG
100
AcDbLine
 10
61.3589239948
 20
80.4118647563
 30
0.0
 11
61.3589239948
 21
143.9118647563
 31
0.0
  0
MTEXT
  5
1FD
330
1F5
100
AcDbEntity
  8
VERMASSUNG
100
AcDbMText
 10
58.5807887386
 20
102.7600068778
 30
0.0
 40
2.0
 41
0.0
 71
     1
 72
     1
  1
ISO 40
  7
SLDTEXTSTYLE0
 11
3.391901413832837E-15
 21
1.0
 31
0.0
 73
     1
 44
1.0
  0
MTEXT
  5
1FE
330
1F5
100
AcDbEntity
  8
VERMASSUNG
100
AcDbMText
 10
58.7807886899
 20
111.960007082
 30
0.0
 40
2.0
 41
0.0
 71
     1
 72
     1
  1
%%c
  7
SLDTEXTSTYLE0
 11
3.391901413832837E-15
 21
1.0
 31
0.0
 73
     1
 44
1.0
  0
MTEXT
  5
1FF
330
1F5
100
AcDbEntity
  8
VERMASSUNG
100
AcDbMText
 10
58.7807883988
 20
115.5678874134
 30
0.0
 40
2.0
 41
0.0
 71
     1
 72
     1
  1
63.5
  7
SLDTEXTSTYLE0
 11
3.391901413832837E-15
 21
1.0
 31
0.0
 73
     1
 44
1.0
  0
MTEXT
  5
200
330
1F5
100
AcDbEntity
  8
VERMASSUNG
100
AcDbMText
 10
58.7807883988
 20
121.5533791744
 30
0.0
 40
2.0
 41
0.0
 71
     1
 72
     1
  1

  7
SLDTEXTSTYLE0
 11
3.391901413832837E-15
 21
1.0
 31
0.0
 73
     1
 44
1.0
  0
ENDBLK
  5
1F7
330
1F5
100
AcDbEntity
  8
0
100
AcDbBlockEnd
  0
BLOCK
  5
203
330
202
100
AcDbEntity
  8
0
100
AcDbBlockBegin
  2
_D_1
 70
     0
 10
0.0
 20
0.0
 30
0.0
  3
_D_1
  1

  0
SOLID
  5
205
330
202
100
AcDbEntity
  8
VERMASSUNG
100
AcDbTrace
 10
236.5659665773
 20
121.1618647563
 30
0.0
 11
236.1159665773
 21
118.1618647563
 31
0.0
 12
237.0159665773
 22
118.1618647563
 32
0.0
 13
237.0159665773
 23
118.1618647563
 33
0.0
  0
SOLID
  5
206
330
202
100
AcDbEntity
  8
VERMASSUNG
100
AcDbTrace
 10
236.5659665773
 20
103.1618647563
 30
0.0
 11
237.0159665773
 21
106.1618647563
 31
0.0
 12
236.1159665773
 22
106.1618647563
 32
0.0
 13
236.1159665773
 23
106.1618647563
 33
0.0
  0
LINE
  5
207
330
202
100
AcDbEntity
  8
VERMASSUNG
100
AcDbLine
 10
225.5659665773
 20
121.1618647563
 30
0.0
 11
237.5659665773
 21
121.1618647563
 31
0.0
  0
LINE
  5
208
330
202
100
AcDbEntity
  8
VERMASSUNG
100
AcDbLine
 10
225.5659665773
 20
103.1618647563
 30
0.0
 11
237.5659665773
 21
103.1618647563
 31
0.0
  0
LINE
  5
209
330
202
100
AcDbEntity
  8
VERMASSUNG
100
AcDbLine
 10
236.5659665773
 20
121.1618647563
 30
0.0
 11
236.5659665773
 21
103.1618647563
 31
0.0
  0
MTEXT
  5
20A
330
202
100
AcDbEntity
  8
VERMASSUNG
100
AcDbMText
 10
233.9878312723
 20
109.1568646921
 30
0.0
 40
2.0
 41
0.0
 71
     1
 72
     1
  1
%%c
  7
SLDTEXTSTYLE0
 11
-7.044195017643634E-15
 21
1.0
 31
0.0
 73
     1
 44
1.0
  0
MTEXT
  5
20B
330
202
100
AcDbEntity
  8
VERMASSUNG
100
AcDbMText
 10
233.787831321
 20
112.7668647065
 30
0.0
 40
2.0
 41
0.0
 71
     1
 72
     1
  1
18
  7
SLDTEXTSTYLE0
 11
-7.044195017643634E-15
 21
1.0
 31
0.0
 73
     1
 44
1.0
  0
ENDBLK
  5
204
330
202
100
AcDbEntity
  8
0
100
AcDbBlockEnd
  0
BLOCK
  5
20E
330
20D
100
AcDbEntity
  8
0
100
AcDbBlockBegin
  2
_D_2
 70
     0
 10
0.0
 20
0.0
 30
0.0
  3
_D_2
  1

  0
SOLID
  5
210
330
20D
100
AcDbEntity
  8
VERMASSUNG
100
AcDbTrace
 10
242.7659665773
 20
128.1618647563
 30
0.0
 11
242.3159665773
 21
125.1618647563
 31
0.0
 12
243.2159665773
 22
125.1618647563
 32
0.0
 13
243.2159665773
 23
125.1618647563
 33
0.0
  0
SOLID
  5
211
330
20D
100
AcDbEntity
  8
VERMASSUNG
100
AcDbTrace
 10
242.7659665773
 20
96.1618647563
 30
0.0
 11
243.2159665773
 21
99.1618647563
 31
0.0
 12
242.3159665773
 22
99.1618647563
 32
0.0
 13
242.3159665773
 23
99.1618647563
 33
0.0
  0
LINE
  5
212
330
20D
100
AcDbEntity
  8
VERMASSUNG
100
AcDbLine
 10
226.2659665773
 20
128.1618647563
 30
0.0
 11
243.7659665773
 21
128.1618647563
 31
0.0
  0
LINE
  5
213
330
20D
100
AcDbEntity
  8
VERMASSUNG
100
AcDbLine
 10
226.2659665773
 20
96.1618647563
 30
0.0
 11
243.7659665773
 21
96.1618647563
 31
0.0
  0
LINE
  5
214
330
20D
100
AcDbEntity
  8
VERMASSUNG
100
AcDbLine
 10
242.7659665773
 20
128.1618647563
 30
0.0
 11
242.7659665773
 21
96.1618647563
 31
0.0
  0
MTEXT
  5
215
330
20D
100
AcDbEntity
  8
VERMASSUNG
100
AcDbMText
 10
240.1878312723
 20
108.9568647991
 30
0.0
 40
2.0
 41
0.0
 71
     1
 72
     1
  1
%%c
  7
SLDTEXTSTYLE0
 11
-7.044195017643634E-15
 21
1.0
 31
0.0
 73
     1
 44
1.0
  0
MTEXT
  5
216
330
20D
100
AcDbEntity
  8
VERMASSUNG
100
AcDbMText
 10
239.987831321
 20
112.5668648134
 30
0.0
 40
2.0
 41
0.0
 71
     1
 72
     1
  1
32
  7
SLDTEXTSTYLE0
 11
-7.044195017643634E-15
 21
1.0
 31
0.0
 73
     1
 44
1.0
  0
ENDBLK
  5
20F
330
20D
100
AcDbEntity
  8
0
100
AcDbBlockEnd
  0
BLOCK
  5
219
330
218
100
AcDbEntity
  8
0
100
AcDbBlockBegin
  2
_D_3
 70
     0
 10
0.0
 20
0.0
 30
0.0
  3
_D_3
  1

  0
SOLID
  5
21B
330
218
100
AcDbEntity
  8
VERMASSUNG
100
AcDbTrace
 10
226.5659665773
 20
148.8299282425
 30
0.0
 11
223.5659665773
 21
149.2799282425
 31
0.0
 12
223.5659665773
 22
148.3799282425
 32
0.0
 13
223.5659665773
 23
148.3799282425
 33
0.0
  0
SOLID
  5
21C
330
218
100
AcDbEntity
  8
VERMASSUNG
100
AcDbTrace
 10
160.6159665773
 20
148.8299282425
 30
0.0
 11
163.6159665773
 21
148.3799282425
 31
0.0
 12
163.6159665773
 22
149.2799282425
 32
0.0
 13
163.6159665773
 23
149.2799282425
 33
0.0
  0
LINE
  5
21D
330
218
100
AcDbEntity
  8
VERMASSUNG
100
AcDbLine
 10
226.5659665773
 20
127.8618647563
 30
0.0
 11
226.5659665773
 21
149.8299282425
 31
0.0
  0
LINE
  5
21E
330
218
100
AcDbEntity
  8
VERMASSUNG
100
AcDbLine
 10
160.6159665773
 20
142.1724158897
 30
0.0
 11
160.6159665773
 21
149.8299282425
 31
0.0
  0
LINE
  5
21F
330
218
100
AcDbEntity
  8
VERMASSUNG
100
AcDbLine
 10
226.5659665773
 20
148.8299282425
 30
0.0
 11
160.6159665773
 21
148.8299282425
 31
0.0
  0
MTEXT
  5
220
330
218
100
AcDbEntity
  8
VERMASSUNG
100
AcDbMText
 10
190.4909667211
 20
151.4080638385
 30
0.0
 40
2.0
 41
0.0
 71
     1
 72
     1
  1
65.95
  7
SLDTEXTSTYLE0
 73
     1
 44
1.0
  0
ENDBLK
  5
21A
330
218
100
AcDbEntity
  8
0
100
AcDbBlockEnd
  0
BLOCK
  5
223
330
222
100
AcDbEntity
  8
0
100
AcDbBlockBegin
  2
_D_4
 70
     0
 10
0.0
 20
0.0
 30
0.0
  3
_D_4
  1

  0
SOLID
  5
225
330
222
100
AcDbEntity
  8
VERMASSUNG
100
AcDbTrace
 10
226.5659665773
 20
154.36214456
 30
0.0
 11
223.5659665773
 21
154.81214456
 31
0.0
 12
223.5659665773
 22
153.91214456
 32
0.0
 13
223.5659665773
 23
153.91214456
 33
0.0
  0
SOLID
  5
226
330
222
100
AcDbEntity
  8
VERMASSUNG
100
AcDbTrace
 10
141.5659665773
 20
154.36214456
 30
0.0
 11
144.5659665773
 21
153.91214456
 31
0.0
 12
144.5659665773
 22
154.81214456
 32
0.0
 13
144.5659665773
 23
154.81214456
 33
0.0
  0
LINE
  5
227
330
222
100
AcDbEntity
  8
VERMASSUNG
100
AcDbLine
 10
226.5659665773
 20
127.8618647563
 30
0.0
 11
226.5659665773
 21
155.36214456
 31
0.0
  0
LINE
  5
228
330
222
100
AcDbEntity
  8
VERMASSUNG
100
AcDbLine
 10
141.5659665773
 20
134.3868647563
 30
0.0
 11
141.5659665773
 21
155.36214456
 31
0.0
  0
LINE
  5
229
330
222
100
AcDbEntity
  8
VERMASSUNG
100
AcDbLine
 10
226.5659665773
 20
154.36214456
 30
0.0
 11
141.5659665773
 21
154.36214456
 31
0.0
  0
MTEXT
  5
22A
330
222
100
AcDbEntity
  8
VERMASSUNG
100
AcDbMText
 10
182.6659666272
 20
156.940280156
 30
0.0
 40
2.0
 41
0.0
 71
     1
 72
     1
  1
85
  7
SLDTEXTSTYLE0
 73
     1
 44
1.0
  0
ENDBLK
  5
224
330
222
100
AcDbEntity
  8
0
100
AcDbBlockEnd
  0
BLOCK
  5
22D
330
22C
100
AcDbEntity
  8
0
100
AcDbBlockBegin
  2
_D_5
 70
     0
 10
0.0
 20
0.0
 30
0.0
  3
_D_5
  1

  0
SOLID
  5
22F
330
22C
100
AcDbEntity
  8
VERMASSUNG
100
AcDbTrace
 10
226.5659665773
 20
160.4776234364
 30
0.0
 11
223.5659665773
 21
160.9276234364
 31
0.0
 12
223.5659665773
 22
160.0276234364
 32
0.0
 13
223.5659665773
 23
160.0276234364
 33
0.0
  0
SOLID
  5
230
330
22C
100
AcDbEntity
  8
VERMASSUNG
100
AcDbTrace
 10
73.3159665773
 20
160.4776234364
 30
0.0
 11
76.3159665773
 21
160.0276234364
 31
0.0
 12
76.3159665773
 22
160.9276234364
 32
0.0
 13
76.3159665773
 23
160.9276234364
 33
0.0
  0
LINE
  5
231
330
22C
100
AcDbEntity
  8
VERMASSUNG
100
AcDbLine
 10
226.5659665773
 20
127.8618647563
 30
0.0
 11
226.5659665773
 21
161.4776234364
 31
0.0
  0
LINE
  5
232
330
22C
100
AcDbEntity
  8
VERMASSUNG
100
AcDbLine
 10
73.3159665773
 20
123.5689953533
 30
0.0
 11
73.3159665773
 21
161.4776234364
 31
0.0
  0
LINE
  5
233
330
22C
100
AcDbEntity
  8
VERMASSUNG
100
AcDbLine
 10
226.5659665773
 20
160.4776234364
 30
0.0
 11
73.3159665773
 21
160.4776234364
 31
0.0
  0
MTEXT
  5
234
330
22C
100
AcDbEntity
  8
VERMASSUNG
100
AcDbMText
 10
146.3409666391
 20
163.0557590323
 30
0.0
 40
2.0
 41
0.0
 71
     1
 72
     1
  1
153.25
  7
SLDTEXTSTYLE0
 73
     1
 44
1.0
  0
ENDBLK
  5
22E
330
22C
100
AcDbEntity
  8
0
100
AcDbBlockEnd
  0
ENDSEC
  0
SECTION
  2
ENTITIES
  0
MTEXT
  5
78
330
1F
100
AcDbEntity
  8
KOPF_DÜNN
100
AcDbMText
 10
13.8892156294
 20
23.8442973028
 30
0.0
 40
3.0
 41
0.0
 71
     1
 72
     1
  1
A14.440.032.085
  7
SLDTEXTSTYLE0
 73
     1
 44
1.0
  0
MTEXT
  5
79
330
1F
100
AcDbEntity
  8
VERMASSUNG
100
AcDbMText
 10
13.9329988022
 20
28.8834360957
 30
0.0
 40
3.0
 41
0.0
 71
     1
 72
     1
  1
Aufnahme_Master shank WH40
  7
SLDTEXTSTYLE0
 73
     1
 44
1.0
  0
MTEXT
  5
7A
330
1F
100
AcDbEntity
  8
VERMASSUNG
100
AcDbMText
 10
98.8601118557
 20
13.8365368761
 30
0.0
 40
2.0
 41
0.0
 71
     1
 72
     1
  1
Datum: 19.10.2011
  7
SLDTEXTSTYLE0
 73
     1
 44
1.0
  0
MTEXT
  5
7B
330
1F
100
AcDbEntity
  8
VERMASSUNG
100
AcDbMText
 10
13.933048693
 20
18.0482802738
 30
0.0
 40
2.0
 41
0.0
 71
     1
 72
     1
  1
DIN 69871 AD/B
  7
SLDTEXTSTYLE0
 73
     1
 44
1.0
  0
MTEXT
  5
7C
330
1F
100
AcDbEntity
  8
VERMASSUNG
100
AcDbMText
 10
13.9808475933
 20
13.9090974274
 30
0.0
 40
2.0
 41
0.0
 71
     1
 72
     1
  1
Gewicht: 1177g
  7
SLDTEXTSTYLE0
 73
     1
 44
1.0
  0
ARC
  5
7D
330
1F
100
AcDbEntity
  8
0
  6
Continuous
 62
     7
370
    15
100
AcDbCircle
 10
144.1659665773
 20
89.3368647563
 30
0.0
 40
0.6000000000000227
100
AcDbArc
 50
0.0
 51
90.0
  0
ARC
  5
7E
330
1F
100
AcDbEntity
  8
0
  6
Continuous
 62
     7
370
    15
100
AcDbCircle
 10
144.1659665773
 20
134.9868647563
 30
0.0
 40
0.6000000000000227
100
AcDbArc
 50
270.0
 51
0.0
  0
LINE
  5
7F
330
1F
100
AcDbEntity
  8
0
  6
Continuous
 62
     7
370
    15
100
AcDbLine
 10
141.5659665773
 20
89.9368647921
 30
0.0
 11
144.1659665843
 21
89.9368647921
 31
0.0
  0
LINE
  5
80
330
1F
100
AcDbEntity
  8
0
  6
Continuous
 62
     7
370
    15
100
AcDbLine
 10
144.1659665843
 20
134.3868647205
 30
0.0
 11
141.5659665773
 21
134.3868647205
 31
0.0
  0
LINE
  5
81
330
1F
100
AcDbEntity
  8
0
  6
Continuous
 62
     7
370
    15
100
AcDbLine
 10
141.5659665773
 20
134.3868647205
 30
0.0
 11
74.1716578314
 21
124.5585281836
 31
0.0
  0
LINE
  5
82
330
1F
100
AcDbEntity
  8
0
  6
Continuous
 62
     7
370
    15
100
AcDbLine
 10
74.1716578314
 20
99.7652013289
 30
0.0
 11
141.5659665773
 21
89.9368647921
 31
0.0
  0
ARC
  5
83
330
1F
100
AcDbEntity
  8
0
  6
Continuous
 62
     7
370
    15
100
AcDbCircle
 10
163.6159665773
 20
93.1618647563
 30
0.0
 40
3.0
100
AcDbArc
 50
90.0
 51
180.0
  0
ARC
  5
84
330
1F
100
AcDbEntity
  8
0
  6
Continuous
 62
     7
370
    15
100
AcDbCircle
 10
163.6159665773
 20
131.1618647563
 30
0.0
 40
3.0
100
AcDbArc
 50
180.0
 51
270.0
  0
LINE
  5
85
330
1F
100
AcDbEntity
  8
0
  6
Continuous
 62
     7
370
    15
100
AcDbLine
 10
209.5633476684
 20
128.1618655163
 30
0.0
 11
163.6159673044
 21
128.1618655163
 31
0.0
  0
LINE
  5
86
330
1F
100
AcDbEntity
  8
0
  6
Continuous
 62
     7
370
    15
100
AcDbLine
 10
226.2659698436
 20
128.1618655163
 30
0.0
 11
219.461131067
 21
128.1618655163
 31
0.0
  0
LINE
  5
87
330
1F
100
AcDbEntity
  8
0
  6
Continuous
 62
     7
370
    15
100
AcDbLine
 10
163.6159673044
 20
96.1618639963
 30
0.0
 11
226.2659698436
 21
96.1618639963
 31
0.0
  0
LINE
  5
88
330
1F
100
AcDbEntity
  8
0
  6
Continuous
 62
     7
370
    15
100
AcDbLine
 10
226.2659698436
 20
96.1618639963
 30
0.0
 11
226.5659674713
 21
96.4618653494
 31
0.0
  0
LINE
  5
89
330
1F
100
AcDbEntity
  8
0
  6
Continuous
 62
     7
370
    15
100
AcDbLine
 10
226.5659674713
 20
127.8618641632
 30
0.0
 11
226.2659698436
 21
128.1618655163
 31
0.0
  0
ARC
  5
8A
330
1F
100
AcDbEntity
  8
0
  6
Continuous
 62
     7
370
    15
100
AcDbCircle
 10
74.3159665773
 20
100.7547341593
 30
0.0
 40
0.9999999999999959
100
AcDbArc
 50
180.0
 51
261.7028550302
  0
ARC
  5
8B
330
1F
100
AcDbEntity
  8
0
  6
Continuous
 62
     7
370
    15
100
AcDbCircle
 10
74.3159665773
 20
123.5689953533
 30
0.0
 40
0.9999999999999959
100
AcDbArc
 50
98.2971449698
 51
180.0
  0
LINE
  5
8C
330
1F
100
AcDbEntity
  8
0
  6
Continuous
 62
     7
370
    15
100
AcDbLine
 10
218.1071519563
 20
127.8706763374
 30
0.0
 11
217.8159683654
 21
128.1618655163
 31
0.0
  0
LINE
  5
8D
330
1F
100
AcDbEntity
  8
0
  6
Continuous
 62
     7
370
    15
100
AcDbLine
 10
211.2159684012
 20
128.1618655163
 30
0.0
 11
210.9251647899
 21
127.871061905
 31
0.0
  0
ARC
  5
8E
330
1F
100
AcDbEntity
  8
0
  6
Continuous
 62
     7
370
    15
100
AcDbCircle
 10
154.5659665773
 20
103.4403511015
 30
0.0
 40
1.500000000000024
100
AcDbArc
 50
191.5274417158
 51
336.6037645748
  0
LINE
  5
8F
330
1F
100
AcDbEntity
  8
0
  6
Continuous
 62
     7
370
    15
100
AcDbLine
 10
156.1878036419
 20
102.4098445165
 30
0.0
 11
156.1878036419
 21
130.5118643182
 31
0.0
  0
LINE
  5
90
330
1F
100
AcDbEntity
  8
0
  6
Continuous
 62
     7
370
    15
100
AcDbLine
 10
160.0159659693
 20
130.5118643182
 30
0.0
 11
156.1878036419
 21
130.5118643182
 31
0.0
  0
LINE
  5
91
330
1F
100
AcDbEntity
  8
0
  6
Continuous
 62
     7
370
    15
100
AcDbLine
 10
156.1878036419
 20
81.7137726086
 30
0.0
 11
160.0159659693
 21
81.7137726086
 31
0.0
  0
LINE
  5
92
330
1F
100
AcDbEntity
  8
0
  6
Continuous
 62
     7
370
    15
100
AcDbLine
 10
156.1878036419
 20
81.7137726086
 30
0.0
 11
156.1878036419
 21
100.2103651377
 31
0.0
  0
SPLINE
  5
93
330
1F
100
AcDbEntity
  8
0
  6
Continuous
 62
     7
370
    15
100
AcDbSpline
210
0.0
220
0.0
230
1.0
 70
     8
 71
     3
 72
    12
 73
     8
 74
     0
 42
0.000000001
 43
0.00000001
 40
0.0
 40
0.0
 40
0.0
 40
0.0
 40
0.2499999999999997
 40
0.2499999999999997
 40
0.4999999999999993
 40
0.4999999999999993
 40
1.0
 40
1.0
 40
1.0
 40
1.0
 10
156.1878032193151
 20
100.2103649580885
 30
0.0
 10
156.3107507131107
 20
100.3683218067836
 30
0.0
 10
156.4042949162196
 20
100.5401551737611
 30
0.0
 10
156.5332343053818
 20
100.911827883407
 30
0.0
 10
156.5657870627669
 20
101.1050163295982
 30
0.0
 10
156.5663234045007
 20
101.6933128678745
 30
0.0
 10
156.4336997475327
 20
102.0853311057632
 30
0.0
 10
156.1878032193151
 20
102.4098446884718
 30
0.0
  0
LINE
  5
94
330
1F
100
AcDbEntity
  8
0
  6
Continuous
 62
     7
370
    15
100
AcDbLine
 10
145.3659666413
 20
81.7137726086
 30
0.0
 11
149.144129985
 21
81.7137726086
 31
0.0
  0
LINE
  5
95
330
1F
100
AcDbEntity
  8
0
  6
Continuous
 62
     7
370
    15
100
AcDbLine
 10
149.144129985
 20
130.5118643182
 30
0.0
 11
145.3659666413
 21
130.5118643182
 31
0.0
  0
LINE
  5
96
330
1F
100
AcDbEntity
  8
0
  6
Continuous
 62
     7
370
    15
100
AcDbLine
 10
149.144129985
 20
81.7137726086
 30
0.0
 11
149.144129985
 21
130.5118643182
 31
0.0
  0
SPLINE
  5
97
330
1F
100
AcDbEntity
  8
0
  6
Continuous
 62
     7
370
    15
100
AcDbSpline
210
0.0
220
0.0
230
1.0
 70
     8
 71
     3
 72
     8
 73
     4
 74
     0
 42
0.000000001
 43
0.00000001
 40
0.0
 40
0.0
 40
0.0
 40
0.0
 40
1.0
 40
1.0
 40
1.0
 40
1.0
 10
150.7559665772584
 20
84.3450382967941
 30
0.0
 10
150.3718318286741
 20
83.6523968748499
 30
0.0
 10
149.9868455521811
 20
82.9602107005262
 30
0.0
 10
149.6011769735548
 20
82.268416409682
 30
0.0
  0
SPLINE
  5
98
330
1F
100
AcDbEntity
  8
0
  6
Continuous
 62
     7
370
    15
100
AcDbSpline
210
0.0
220
0.0
230
1.0
 70
     8
 71
     3
 72
     8
 73
     4
 74
     0
 42
0.000000001
 43
0.00000001
 40
0.0
 40
0.0
 40
0.0
 40
0.0
 40
0.0011901715795577
 40
0.0011901715795577
 40
0.0011901715795577
 40
0.0011901715795577
 10
149.1441299352017
 20
81.71377240765887
 30
0.0
 10
149.2979761246976
 20
81.89833764534245
 30
0.0
 10
149.4503713923703
 20
82.08321300587107
 30
0.0
 10
149.6011769735548
 20
82.268416409682
 30
0.0
  0
SPLINE
  5
99
330
1F
100
AcDbEntity
  8
0
  6
Continuous
 62
     7
370
    15
100
AcDbSpline
210
0.0
220
0.0
230
1.0
 70
    24
 71
     3
 72
     8
 73
     4
 74
     0
 42
0.000000001
 43
0.00000001
 40
0.0
 40
0.0
 40
0.0
 40
0.0
 40
1.0
 40
1.0
 40
1.0
 40
1.0
 10
150.7559665772584
 20
130.5118647562956
 30
0.0
 10
150.2312340888965
 20
130.5118647562956
 30
0.0
 10
149.6925586046777
 20
130.5118647562956
 30
0.0
 10
149.1441299352017
 20
130.5118647562956
 30
0.0
  0
LINE
  5
9A
330
1F
100
AcDbEntity
  8
0
  6
Continuous
 62
     7
370
    15
100
AcDbLine
 10
150.7559662396
 20
84.3450382786
 30
0.0
 11
150.7559662396
 21
130.5118643182
 31
0.0
  0
SPLINE
  5
9B
330
1F
100
AcDbEntity
  8
0
  6
Continuous
 62
     7
370
    15
100
AcDbSpline
210
0.0
220
0.0
230
1.0
 70
     8
 71
     3
 72
    12
 73
     8
 74
     0
 42
0.000000001
 43
0.00000001
 40
0.0
 40
0.0
 40
0.0
 40
0.0
 40
0.250000000000001
 40
0.250000000000001
 40
0.500000000000002
 40
0.500000000000002
 40
1.0
 40
1.0
 40
1.0
 40
1.0
 10
160.0159665772584
 20
81.71377240765887
 30
0.0
 10
160.1115084873944
 20
81.71377240765887
 30
0.0
 10
160.2036534292572
 20
81.73002607685505
 30
0.0
 10
160.3599797058671
 20
81.78363449776855
 30
0.0
 10
160.4236478484871
 20
81.82004562305023
 30
0.0
 10
160.5725156939174
 20
81.94216926273673
 30
0.0
 10
160.6159665772584
 20
82.03732193817376
 30
0.0
 10
160.6159665772584
 20
82.13294839379346
 30
0.0
  0
SPLINE
  5
9C
330
1F
100
AcDbEntity
  8
0
  6
Continuous
 62
     7
370
    15
100
AcDbSpline
210
0.0
220
0.0
230
1.0
 70
    24
 71
     3
 72
    12
 73
     8
 74
     0
 42
0.000000001
 43
0.00000001
 40
0.0
 40
0.0
 40
0.0
 40
0.0
 40
0.5000000000000011
 40
0.5000000000000011
 40
0.7500000000000006
 40
0.7500000000000006
 40
1.0
 40
1.0
 40
1.0
 40
1.0
 10
160.6159665772584
 20
130.5118647562956
 30
0.0
 10
160.6159665772584
 20
130.5118647562956
 30
0.0
 10
160.5662865823034
 20
130.5118647562956
 30
0.0
 10
160.4103680252859
 20
130.5118647562956
 30
0.0
 10
160.3444869607097
 20
130.5118647562956
 30
0.0
 10
160.1918413052209
 20
130.5118647562956
 30
0.0
 10
160.10459139736
 20
130.5118647562956
 30
0.0
 10
160.0159665772583
 20
130.5118647562956
 30
0.0
  0
LINE
  5
9D
330
1F
100
AcDbEntity
  8
0
  6
Continuous
 62
     7
370
    15
100
AcDbLine
 10
160.6159668127
 20
82.1329478609
 30
0.0
 11
160.6159668127
 21
130.5118643182
 31
0.0
  0
SPLINE
  5
9E
330
1F
100
AcDbEntity
  8
0
  6
Continuous
 62
     7
370
    15
100
AcDbSpline
210
0.0
220
0.0
230
1.0
 70
     8
 71
     3
 72
    10
 73
     6
 74
     0
 42
0.000000001
 43
0.00000001
 40
0.0
 40
0.0
 40
0.0
 40
0.0
 40
0.5
 40
0.5
 40
1.0
 40
1.0
 40
1.0
 40
1.0
 10
144.9821111186056
 20
81.81013490682732
 30
0.0
 10
145.030881091587
 20
81.78190689961932
 30
0.0
 10
145.0883332148893
 20
81.75781229537772
 30
0.0
 10
145.218930117878
 20
81.72354882228518
 30
0.0
 10
145.2914197977202
 20
81.71377240765885
 30
0.0
 10
145.3659665772584
 20
81.71377240765885
 30
0.0
  0
SPLINE
  5
9F
330
1F
100
AcDbEntity
  8
0
  6
Continuous
 62
     7
370
    15
100
AcDbSpline
210
0.0
220
0.0
230
1.0
 70
     8
 71
     3
 72
    10
 73
     6
 74
     0
 42
0.000000001
 43
0.00000001
 40
0.0
 40
0.0
 40
0.0
 40
0.0
 40
0.5
 40
0.5
 40
1.0
 40
1.0
 40
1.0
 40
1.0
 10
144.9821111186056
 20
81.81013490682732
 30
0.0
 10
144.9239884585295
 20
81.87744006668912
 30
0.0
 10
144.871585292526
 20
81.95752545372277
 30
0.0
 10
144.7926822709797
 20
82.14154489541154
 30
0.0
 10
144.7659665772584
 20
82.246756252832
 30
0.0
 10
144.7659665772584
 20
82.35548959929265
 30
0.0
  0
LINE
  5
A0
330
1F
100
AcDbEntity
  8
0
  6
Continuous
 62
     7
370
    15
100
AcDbLine
 10
144.7659664964
 20
82.3554892528
 30
0.0
 11
144.7659664964
 21
130.5118643182
 31
0.0
  0
SPLINE
  5
A1
330
1F
100
AcDbEntity
  8
0
  6
Continuous
 62
     7
370
    15
100
AcDbSpline
210
0.0
220
0.0
230
1.0
 70
    24
 71
     3
 72
    12
 73
     8
 74
     0
 42
0.000000001
 43
0.00000001
 40
0.0
 40
0.0
 40
0.0
 40
0.0
 40
0.25
 40
0.25
 40
0.5
 40
0.5
 40
1.0
 40
1.0
 40
1.0
 40
1.0
 10
145.3659665772584
 20
130.5118647562956
 30
0.0
 10
145.2775511999479
 20
130.5118647562956
 30
0.0
 10
145.1902807627773
 20
130.5118647562956
 30
0.0
 10
145.0378170380055
 20
130.5118647562956
 30
0.0
 10
144.9721784257831
 20
130.5118647562956
 30
0.0
 10
144.8155200244992
 20
130.5118647562956
 30
0.0
 10
144.7659665772584
 20
130.5118647562956
 30
0.0
 10
144.7659665772584
 20
130.5118647562956
 30
0.0
  0
LINE
  5
A2
330
1F
100
AcDbEntity
  8
0
  6
Continuous
 62
     7
370
    15
100
AcDbLine
 10
154.575966456
 20
104.1605819451
 30
0.0
 11
154.575966456
 21
130.5118643182
 31
0.0
  0
SPLINE
  5
A3
330
1F
100
AcDbEntity
  8
0
  6
Continuous
 62
     7
370
    15
100
AcDbSpline
210
0.0
220
0.0
230
1.0
 70
    24
 71
     3
 72
     8
 73
     4
 74
     0
 42
0.000000001
 43
0.00000001
 40
0.0
 40
0.0
 40
0.0
 40
0.0
 40
1.0
 40
1.0
 40
1.0
 40
1.0
 10
156.1878032193151
 20
130.5118647562956
 30
0.0
 10
155.6393745498391
 20
130.5118647562956
 30
0.0
 10
155.1006990656203
 20
130.5118647562956
 30
0.0
 10
154.5759665772584
 20
130.5118647562956
 30
0.0
  0
SPLINE
  5
A4
330
1F
100
AcDbEntity
  8
0
  6
Continuous
 62
     7
370
    15
100
AcDbSpline
210
0.0
220
0.0
230
1.0
 70
     8
 71
     3
 72
    12
 73
     8
 74
     0
 42
0.000000001
 43
0.00000001
 40
0.0
 40
0.0
 40
0.0
 40
0.0
 40
0.2499999999999994
 40
0.2499999999999994
 40
0.4999999999999989
 40
0.4999999999999989
 40
1.0
 40
1.0
 40
1.0
 40
1.0
 10
156.1878032193151
 20
102.4098446884718
 30
0.0
 10
156.0729071680545
 20
102.6295851235284
 30
0.0
 10
155.9461411515818
 20
102.8265534751502
 30
0.0
 10
155.6859262179633
 20
103.1802710479891
 30
0.0
 10
155.5524187600011
 20
103.3370963418613
 30
0.0
 10
155.1440204914128
 20
103.763638912769
 30
0.0
 10
154.8603673564753
 20
103.9903310917242
 30
0.0
 10
154.5759665772586
 20
104.1605822361197
 30
0.0
  0
SPLINE
  5
A5
330
1F
100
AcDbEntity
  8
0
  6
Continuous
 62
     7
370
    15
100
AcDbSpline
210
0.0
220
0.0
230
1.0
 70
     8
 71
     3
 72
    14
 73
    10
 74
     0
 42
0.000000001
 43
0.00000001
 40
0.0
 40
0.0
 40
0.0
 40
0.0
 40
0.25
 40
0.25
 40
0.5
 40
0.5
 40
0.75
 40
0.75
 40
1.0
 40
1.0
 40
1.0
 40
1.0
 10
154.5759665772584
 20
104.2148258859659
 30
0.0
 10
154.5759665772584
 20
104.2514767541297
 30
0.0
 10
154.5546387885466
 20
104.2879435513786
 30
0.0
 10
154.47218038589
 20
104.3530824059195
 30
0.0
 10
154.4110641940348
 20
104.3811535365104
 30
0.0
 10
154.2597611009727
 20
104.4149814182373
 30
0.0
 10
154.1683830775821
 20
104.4204445596338
 30
0.0
 10
153.9760093645293
 20
104.3995186416212
 30
0.0
 10
153.8738290250503
 20
104.3729832162459
 30
0.0
 10
153.7759665772584
 20
104.3324970429646
 30
0.0
  0
SPLINE
  5
A6
330
1F
100
AcDbEntity
  8
0
  6
Continuous
 62
     7
370
    15
100
AcDbSpline
210
0.0
220
0.0
230
1.0
 70
     8
 71
     3
 72
    12
 73
     8
 74
     0
 42
0.000000001
 43
0.00000001
 40
0.0
 40
0.0
 40
0.0
 40
0.0
 40
0.500000000000001
 40
0.500000000000001
 40
0.7500000000000004
 40
0.7500000000000004
 40
1.0
 40
1.0
 40
1.0
 40
1.0
 10
154.5759665772584
 20
100.4018587378986
 30
0.0
 10
154.8601731118237
 20
100.2343945756049
 30
0.0
 10
155.1388688459275
 20
100.1227574760933
 30
0.0
 10
155.5482148891168
 20
100.0554442104539
 30
0.0
 10
155.6843542264363
 20
100.05029317044
 30
0.0
 10
155.9456742754323
 20
100.0880591080593
 30
0.0
 10
156.0710954578641
 20
100.1296088664036
 30
0.0
 10
156.1878032193156
 20
100.2103649580864
 30
0.0
  0
LINE
  5
A7
330
1F
100
AcDbEntity
  8
0
  6
Continuous
 62
     7
370
    15
100
AcDbLine
 10
154.575966456
 20
100.4561020496
 30
0.0
 11
154.575966456
 21
100.4018590289
 31
0.0
  0
SPLINE
  5
A8
330
1F
100
AcDbEntity
  8
0
  6
Continuous
 62
     7
370
    15
100
AcDbSpline
210
0.0
220
0.0
230
1.0
 70
     8
 71
     3
 72
    14
 73
    10
 74
     0
 42
0.000000001
 43
0.00000001
 40
0.0
 40
0.0
 40
0.0
 40
0.0
 40
0.25
 40
0.25
 40
0.5
 40
0.5
 40
0.75
 40
0.75
 40
1.0
 40
1.0
 40
1.0
 40
1.0
 10
153.7759665772549
 20
100.8793855661888
 30
0.0
 10
153.8733759972387
 20
100.8409708467946
 30
0.0
 10
153.9757002402523
 20
100.8032704420119
 30
0.0
 10
154.1677019257898
 20
100.7322256564177
 30
0.0
 10
154.2591365554442
 20
100.6980241950597
 30
0.0
 10
154.4109154227392
 20
100.6310277696543
 30
0.0
 10
154.4718923126538
 20
100.5978863013448
 30
0.0
 10
154.5549102512181
 20
100.5282087336947
 30
0.0
 10
154.5759665772584
 20
100.4924750225275
 30
0.0
 10
154.5759665772584
 20
100.4561023877467
 30
0.0
  0
SPLINE
  5
A9
330
1F
100
AcDbEntity
  8
0
  6
Continuous
 62
     7
370
    15
100
AcDbSpline
210
0.0
220
0.0
230
1.0
 70
     8
 71
     3
 72
    22
 73
    18
 74
     0
 42
0.000000001
 43
0.00000001
 40
0.0
 40
0.0
 40
0.0
 40
0.0
 40
0.125
 40
0.125
 40
0.25
 40
0.25
 40
0.375
 40
0.375
 40
0.5
 40
0.5
 40
0.625
 40
0.625
 40
0.75
 40
0.75
 40
0.875
 40
0.875
 40
1.0
 40
1.0
 40
1.0
 40
1.0
 10
153.7759665772584
 20
104.3324970429646
 30
0.0
 10
153.5959498826891
 20
104.2580232559881
 30
0.0
 10
153.4315180608189
 20
104.1605739940041
 30
0.0
 10
153.1331218270604
 20
103.92120456044
 30
0.0
 10
153.0028180996956
 20
103.7813079483696
 30
0.0
 10
152.7895993160766
 20
103.4730563583096
 30
0.0
 10
152.7059714589651
 20
103.3028931401905
 30
0.0
 10
152.5948405820468
 20
102.9523984054002
 30
0.0
 10
152.566004587193
 20
102.767273444249
 30
0.0
 10
152.5659286445331
 20
102.4040665696319
 30
0.0
 10
152.5945872699602
 20
102.2206965559244
 30
0.0
 10
152.7057383630726
 20
101.8748054434312
 30
0.0
 10
152.7888054837163
 20
101.7092859161638
 30
0.0
 10
153.0024914418346
 20
101.40874617876
 30
0.0
 10
153.1314984317587
 20
101.2748742574759
 30
0.0
 10
153.4311077112478
 20
101.0436274880716
 30
0.0
 10
153.595950409509
 20
100.9503773714117
 30
0.0
 10
153.7759665772584
 20
100.8793855661874
 30
0.0
  0
SPLINE
  5
AA
330
1F
100
AcDbEntity
  8
0
  6
Continuous
 62
     7
370
    15
100
AcDbSpline
210
0.0
220
0.0
230
1.0
 70
     8
 71
     3
 72
     8
 73
     4
 74
     0
 42
0.000000001
 43
0.00000001
 40
0.0
 40
0.0
 40
0.0
 40
0.0
 40
0.0011901715795577
 40
0.0011901715795577
 40
0.0011901715795577
 40
0.0011901715795577
 10
155.7307561809621
 20
82.268416409682
 30
0.0
 10
155.8815617621466
 20
82.08321300587107
 30
0.0
 10
156.0339570298192
 20
81.89833764534245
 30
0.0
 10
156.1878032193151
 20
81.71377240765887
 30
0.0
  0
SPLINE
  5
AB
330
1F
100
AcDbEntity
  8
0
  6
Continuous
 62
     7
370
    15
100
AcDbSpline
210
0.0
220
0.0
230
1.0
 70
     8
 71
     3
 72
     8
 73
     4
 74
     0
 42
0.000000001
 43
0.00000001
 40
0.0
 40
0.0
 40
0.0
 40
0.0
 40
1.0
 40
1.0
 40
1.0
 40
1.0
 10
155.7307561809621
 20
82.268416409682
 30
0.0
 10
155.3450876023357
 20
82.96021070052619
 30
0.0
 10
154.9601013258428
 20
83.6523968748499
 30
0.0
 10
154.5759665772584
 20
84.34503829679409
 30
0.0
  0
LINE
  5
AC
330
1F
100
AcDbEntity
  8
0
  6
Continuous
 62
     7
370
    15
100
AcDbLine
 10
154.575966456
 20
84.3450382786
 30
0.0
 11
154.575966456
 21
100.4018590289
 31
0.0
  0
SPLINE
  5
AD
330
1F
100
AcDbEntity
  8
0
  6
Continuous
 62
     7
370
    15
100
AcDbSpline
210
0.0
220
0.0
230
1.0
 70
    24
 71
     3
 72
    14
 73
    10
 74
     0
 42
0.000000001
 43
0.00000001
 40
0.0
 40
0.0
 40
0.0
 40
0.0
 40
0.25
 40
0.25
 40
0.5
 40
0.5
 40
0.75
 40
0.75
 40
1.0
 40
1.0
 40
1.0
 40
1.0
 10
154.5759665772584
 20
130.5118647562956
 30
0.0
 10
154.5759665772584
 20
130.5118647562956
 30
0.0
 10
154.5598849757986
 20
130.5118647562956
 30
0.0
 10
154.4943934625317
 20
130.5118647562956
 30
0.0
 10
154.4450854894044
 20
130.5118647562956
 30
0.0
 10
154.3105159677074
 20
130.5118647562956
 30
0.0
 10
154.2249928916222
 20
130.5118647562956
 30
0.0
 10
154.0179973960671
 20
130.5118647562956
 30
0.0
 10
153.8973037621236
 20
130.5118647562956
 30
0.0
 10
153.7759665772585
 20
130.5118647562956
 30
0.0
  0
SPLINE
  5
AE
330
1F
100
AcDbEntity
  8
0
  6
Continuous
 62
     7
370
    15
100
AcDbSpline
210
0.0
220
0.0
230
1.0
 70
     8
 71
     3
 72
    12
 73
     8
 74
     0
 42
0.000000001
 43
0.00000001
 40
0.0
 40
0.0
 40
0.0
 40
0.0
 40
0.2500000000000015
 40
0.2500000000000015
 40
0.500000000000003
 40
0.500000000000003
 40
1.0
 40
1.0
 40
1.0
 40
1.0
 10
151.5559665772584
 20
85.34400690000882
 30
0.0
 10
151.449564726901
 20
85.34400690000884
 30
0.0
 10
151.3422493155044
 20
85.32123613599032
 30
0.0
 10
151.1467777244772
 20
85.23499318933823
 30
0.0
 10
151.0565956085397
 20
85.17031686886769
 30
0.0
 10
150.8383741218189
 20
84.93738754481087
 30
0.0
 10
150.7559665772581
 20
84.72280230691986
 30
0.0
 10
150.7559665772584
 20
84.50978526848714
 30
0.0
  0
SPLINE
  5
AF
330
1F
100
AcDbEntity
  8
0
  6
Continuous
 62
     7
370
    15
100
AcDbSpline
210
0.0
220
0.0
230
1.0
 70
    24
 71
     3
 72
    14
 73
    10
 74
     0
 42
0.000000001
 43
0.00000001
 40
0.0
 40
0.0
 40
0.0
 40
0.0
 40
0.1250000000000007
 40
0.1250000000000007
 40
0.2500000000000014
 40
0.2500000000000014
 40
0.499999999999999
 40
0.499999999999999
 40
1.0
 40
1.0
 40
1.0
 40
1.0
 10
151.5559665772584
 20
130.5118647562956
 30
0.0
 10
151.4953492538408
 20
130.5118647562956
 30
0.0
 10
151.4332241057058
 20
130.5118647562956
 30
0.0
 10
151.3170064426844
 20
130.5118647562956
 30
0.0
 10
151.262389802992
 20
130.5118647562956
 30
0.0
 10
151.1077134644838
 20
130.5118647562956
 30
0.0
 10
151.0215967156998
 20
130.5118647562956
 30
0.0
 10
150.8202891351592
 20
130.5118647562956
 30
0.0
 10
150.7559665772584
 20
130.5118647562956
 30
0.0
 10
150.7559665772584
 20
130.5118647562956
 30
0.0
  0
LINE
  5
B0
330
1F
100
AcDbEntity
  8
0
  6
Continuous
 62
     7
370
    15
100
AcDbLine
 10
153.7759668836
 20
85.3440065371
 30
0.0
 11
151.5559667433
 21
85.3440065371
 31
0.0
  0
LINE
  5
B1
330
1F
100
AcDbEntity
  8
0
  6
Continuous
 62
     7
370
    15
100
AcDbLine
 10
153.7759668836
 20
130.5118643182
 30
0.0
 11
151.5559667433
 21
130.5118643182
 31
0.0
  0
SPLINE
  5
B2
330
1F
100
AcDbEntity
  8
0
  6
Continuous
 62
     7
370
    15
100
AcDbSpline
210
0.0
220
0.0
230
1.0
 70
     8
 71
     3
 72
    12
 73
     8
 74
     0
 42
0.000000001
 43
0.00000001
 40
0.0
 40
0.0
 40
0.0
 40
0.0
 40
0.5000000000000013
 40
0.5000000000000013
 40
0.7500000000000007
 40
0.7500000000000007
 40
1.0
 40
1.0
 40
1.0
 40
1.0
 10
154.5759665772584
 20
84.5097852684885
 30
0.0
 10
154.5759665772584
 20
84.72260782742138
 30
0.0
 10
154.4940412194387
 20
84.93686433405935
 30
0.0
 10
154.2751194159703
 20
85.17055396250922
 30
0.0
 10
154.1850721244793
 20
85.2350387873532
 30
0.0
 10
153.9896586564594
 20
85.32123839850878
 30
0.0
 10
153.8823756894756
 20
85.34400690000882
 30
0.0
 10
153.7759665772584
 20
85.34400690000882
 30
0.0
  0
LINE
  5
B3
330
1F
100
AcDbEntity
  8
0
  6
Continuous
 62
     7
370
    15
100
AcDbLine
 10
141.5659665773
 20
89.9368647921
 30
0.0
 11
141.5659665773
 21
134.3868647205
 31
0.0
  0
LINE
  5
B4
330
1F
100
AcDbEntity
  8
0
  6
Continuous
 62
     7
370
    15
100
AcDbLine
 10
153.7759668836
 20
138.9797229754
 30
0.0
 11
151.5559667433
 21
138.9797229754
 31
0.0
  0
LINE
  5
B5
330
1F
100
AcDbEntity
  8
0
  6
Continuous
 62
     7
370
    15
100
AcDbLine
 10
151.5559667433
 20
133.3108015793
 30
0.0
 11
153.7759668836
 21
133.3108015793
 31
0.0
  0
SPLINE
  5
B6
330
1F
100
AcDbEntity
  8
0
  6
Continuous
 62
     7
370
    15
100
AcDbSpline
210
0.0
220
0.0
230
1.0
 70
     8
 71
     3
 72
     8
 73
     4
 74
     0
 42
0.000000001
 43
0.00000001
 40
0.0
 40
0.0
 40
0.0
 40
0.0
 40
0.0012409313617635
 40
0.0012409313617635
 40
0.0012409313617635
 40
0.0012409313617635
 10
149.7020118909624
 20
141.8744029125601
 30
0.0
 10
149.5167880514064
 20
142.1359304560372
 30
0.0
 10
149.3308028634339
 20
142.3971889578125
 30
0.0
 10
149.1441299352017
 20
142.6582008355111
 30
0.0
  0
SPLINE
  5
B7
330
1F
100
AcDbEntity
  8
0
  6
Continuous
 62
     7
370
    15
100
AcDbSpline
210
0.0
220
0.0
230
1.0
 70
     8
 71
     3
 72
     8
 73
     4
 74
     0
 42
0.000000001
 43
0.00000001
 40
0.0
 40
0.0
 40
0.0
 40
0.0
 40
1.0
 40
1.0
 40
1.0
 40
1.0
 10
150.7559665772584
 20
139.978691215797
 30
0.0
 10
150.4053143369308
 20
140.6109596248474
 30
0.0
 10
150.0539559138707
 20
141.2428415245462
 30
0.0
 10
149.7020118909624
 20
141.8744029125601
 30
0.0
  0
LINE
  5
B8
330
1F
100
AcDbEntity
  8
0
  6
Continuous
 62
     7
370
    15
100
AcDbLine
 10
150.7559662396
 20
134.5640041369
 30
0.0
 11
150.7559662396
 21
139.9786912339
 31
0.0
  0
SPLINE
  5
B9
330
1F
100
AcDbEntity
  8
0
  6
Continuous
 62
     7
370
    15
100
AcDbSpline
210
0.0
220
0.0
230
1.0
 70
     8
 71
     3
 72
     8
 73
     4
 74
     0
 42
0.000000001
 43
0.00000001
 40
0.0
 40
0.0
 40
0.0
 40
0.0
 40
1.0
 40
1.0
 40
1.0
 40
1.0
 10
149.1441299352017
 20
138.0720943963431
 30
0.0
 10
149.6930747133986
 20
136.9069982840294
 30
0.0
 10
150.2316850879153
 20
135.737839967205
 30
0.0
 10
150.7559665772584
 20
134.5640038121541
 30
0.0
  0
LINE
  5
BA
330
1F
100
AcDbEntity
  8
0
  6
Continuous
 62
     7
370
    15
100
AcDbLine
 10
149.144129985
 20
138.0720951098
 30
0.0
 11
149.144129985
 21
142.658201276
 31
0.0
  0
SPLINE
  5
BB
330
1F
100
AcDbEntity
  8
0
  6
Continuous
 62
     7
370
    15
100
AcDbSpline
210
0.0
220
0.0
230
1.0
 70
     8
 71
     3
 72
    12
 73
     8
 74
     0
 42
0.000000001
 43
0.00000001
 40
0.0
 40
0.0
 40
0.0
 40
0.0
 40
0.4999999999999986
 40
0.4999999999999986
 40
0.7499999999999992
 40
0.7499999999999992
 40
1.0
 40
1.0
 40
1.0
 40
1.0
 10
160.6159665772584
 20
142.1724158897368
 30
0.0
 10
160.6159665772584
 20
142.2927429227899
 30
0.0
 10
160.5621717656654
 20
142.4108404962717
 30
0.0
 10
160.4012481956991
 20
142.5504832387107
 30
0.0
 10
160.3364967345966
 20
142.5887591921051
 30
0.0
 10
160.1842765512789
 20
142.6435990217396
 30
0.0
 10
160.101469035754
 20
142.6582008355111
 30
0.0
 10
160.0159665772584
 20
142.6582008355111
 30
0.0
  0
SPLINE
  5
BC
330
1F
100
AcDbEntity
  8
0
  6
Continuous
 62
     7
370
    15
100
AcDbSpline
210
0.0
220
0.0
230
1.0
 70
     8
 71
     3
 72
    14
 73
    10
 74
     0
 42
0.000000001
 43
0.00000001
 40
0.0
 40
0.0
 40
0.0
 40
0.0
 40
0.25
 40
0.25
 40
0.5
 40
0.5
 40
0.75
 40
0.75
 40
1.0
 40
1.0
 40
1.0
 40
1.0
 10
160.0159665772584
 20
138.0720943963431
 30
0.0
 10
160.1043891153809
 20
138.0720943963431
 30
0.0
 10
160.1924431050739
 20
138.0470220458837
 30
0.0
 10
160.3442728689453
 20
137.9606799809124
 30
0.0
 10
160.4101158135091
 20
137.8991367263995
 30
0.0
 10
160.5139148740546
 20
137.7573089801486
 30
0.0
 10
160.5523869835293
 20
137.6772603901786
 30
0.0
 10
160.6036096468039
 20
137.5082478935049
 30
0.0
 10
160.6159665772584
 20
137.4214685866352
 30
0.0
 10
160.6159665772584
 20
137.3332771123792
 30
0.0
  0
LINE
  5
BD
330
1F
100
AcDbEntity
  8
0
  6
Continuous
 62
     7
370
    15
100
AcDbLine
 10
160.6159668127
 20
137.3332769113
 30
0.0
 11
160.6159668127
 21
142.1724159705
 31
0.0
  0
SPLINE
  5
BE
330
1F
100
AcDbEntity
  8
0
  6
Continuous
 62
     7
370
    15
100
AcDbSpline
210
0.0
220
0.0
230
1.0
 70
     8
 71
     3
 72
    12
 73
     8
 74
     0
 42
0.000000001
 43
0.00000001
 40
0.0
 40
0.0
 40
0.0
 40
0.0
 40
0.5
 40
0.5
 40
0.75
 40
0.75
 40
1.0
 40
1.0
 40
1.0
 40
1.0
 10
154.5759665772584
 20
139.8139442441026
 30
0.0
 10
154.5759665772584
 20
139.6008068424511
 30
0.0
 10
154.4933241621105
 20
139.3858273177134
 30
0.0
 10
154.2747407513001
 20
139.1529082488277
 30
0.0
 10
154.1856507983194
 20
139.0890413390072
 30
0.0
 10
153.9902454804219
 20
139.0026551846254
 30
0.0
 10
153.8837214334785
 20
138.9797226125823
 30
0.0
 10
153.7759665772584
 20
138.9797226125823
 30
0.0
  0
SPLINE
  5
BF
330
1F
100
AcDbEntity
  8
0
  6
Continuous
 62
     7
370
    15
100
AcDbSpline
210
0.0
220
0.0
230
1.0
 70
     8
 71
     3
 72
    12
 73
     8
 74
     0
 42
0.000000001
 43
0.00000001
 40
0.0
 40
0.0
 40
0.0
 40
0.0
 40
0.2500000000000015
 40
0.2500000000000015
 40
0.500000000000003
 40
0.500000000000003
 40
1.0
 40
1.0
 40
1.0
 40
1.0
 10
153.7759665772584
 20
133.310800899752
 30
0.0
 10
153.8980485747467
 20
133.310800899752
 30
0.0
 10
154.0186391172324
 20
133.3495272559258
 30
0.0
 10
154.2241344009323
 20
133.479490843672
 30
0.0
 10
154.3096508838847
 20
133.5686970802188
 30
0.0
 10
154.5130452354289
 20
133.8735736177644
 30
0.0
 10
154.5759665772584
 20
134.1163442318665
 30
0.0
 10
154.5759665772584
 20
134.3591055758208
 30
0.0
  0
LINE
  5
C0
330
1F
100
AcDbEntity
  8
0
  6
Continuous
 62
     7
370
    15
100
AcDbLine
 10
160.0159659693
 20
142.658201276
 30
0.0
 11
156.1878036419
 21
142.658201276
 31
0.0
  0
LINE
  5
C1
330
1F
100
AcDbEntity
  8
0
  6
Continuous
 62
     7
370
    15
100
AcDbLine
 10
156.1878036419
 20
138.0720951098
 30
0.0
 11
160.0159659693
 21
138.0720951098
 31
0.0
  0
LINE
  5
C2
330
1F
100
AcDbEntity
  8
0
  6
Continuous
 62
     7
370
    15
100
AcDbLine
 10
156.1878036419
 20
138.0720951098
 30
0.0
 11
156.1878036419
 21
142.658201276
 31
0.0
  0
SPLINE
  5
C3
330
1F
100
AcDbEntity
  8
0
  6
Continuous
 62
     7
370
    15
100
AcDbSpline
210
0.0
220
0.0
230
1.0
 70
     8
 71
     3
 72
    12
 73
     8
 74
     0
 42
0.000000001
 43
0.00000001
 40
0.0
 40
0.0
 40
0.0
 40
0.0
 40
0.4999999999999996
 40
0.4999999999999996
 40
0.7499999999999998
 40
0.7499999999999998
 40
1.0
 40
1.0
 40
1.0
 40
1.0
 10
144.7659665772584
 20
137.3332771123792
 30
0.0
 10
144.7659665772584
 20
137.5098935089009
 30
0.0
 10
144.8153072120803
 20
137.6849506802747
 30
0.0
 10
144.9715227703684
 20
137.8989008927673
 30
0.0
 10
145.0368253502691
 20
137.9602335356142
 30
0.0
 10
145.1905943682295
 20
138.0476216335855
 30
0.0
 10
145.2776074748399
 20
138.0720943963431
 30
0.0
 10
145.3659665772584
 20
138.0720943963431
 30
0.0
  0
LINE
  5
C4
330
1F
100
AcDbEntity
  8
0
  6
Continuous
 62
     7
370
    15
100
AcDbLine
 10
145.3659666413
 20
138.0720951098
 30
0.0
 11
149.144129985
 21
138.0720951098
 31
0.0
  0
SPLINE
  5
C5
330
1F
100
AcDbEntity
  8
0
  6
Continuous
 62
     7
370
    15
100
AcDbSpline
210
0.0
220
0.0
230
1.0
 70
     8
 71
     3
 72
    14
 73
    10
 74
     0
 42
0.000000001
 43
0.00000001
 40
0.0
 40
0.0
 40
0.0
 40
0.0
 40
0.25
 40
0.25
 40
0.5
 40
0.5
 40
0.75
 40
0.75
 40
1.0
 40
1.0
 40
1.0
 40
1.0
 10
150.7559665772584
 20
134.3591055758208
 30
0.0
 10
150.7559665772584
 20
134.2371702406393
 30
0.0
 10
150.7720109447984
 20
134.1176160001379
 30
0.0
 10
150.8377402869777
 20
133.8835000169946
 30
0.0
 10
150.886947657226
 20
133.7715674768599
 30
0.0
 10
151.0219606381249
 20
133.569167667623
 30
0.0
 10
151.1078807067312
 20
133.4793024740601
 30
0.0
 10
151.3143955087366
 20
133.3489679644499
 30
0.0
 10
151.4345342211077
 20
133.3108008997521
 30
0.0
 10
151.5559665772584
 20
133.3108008997521
 30
0.0
  0
SPLINE
  5
C6
330
1F
100
AcDbEntity
  8
0
  6
Continuous
 62
     7
370
    15
100
AcDbSpline
210
0.0
220
0.0
230
1.0
 70
     8
 71
     3
 72
     8
 73
     4
 74
     0
 42
0.000000001
 43
0.00000001
 40
0.0
 40
0.0
 40
0.0
 40
0.0
 40
1.0
 40
1.0
 40
1.0
 40
1.0
 10
154.5759665772584
 20
134.5640038121541
 30
0.0
 10
155.1007576967544
 20
135.7389809998588
 30
0.0
 10
155.6392739479372
 20
136.9078801675969
 30
0.0
 10
156.1878032193151
 20
138.0720943963431
 30
0.0
  0
LINE
  5
C7
330
1F
100
AcDbEntity
  8
0
  6
Continuous
 62
     7
370
    15
100
AcDbLine
 10
154.575966456
 20
134.3591057199
 30
0.0
 11
154.575966456
 21
134.5640041369
 31
0.0
  0
LINE
  5
C8
330
1F
100
AcDbEntity
  8
0
  6
Continuous
 62
     7
370
    15
100
AcDbLine
 10
150.7559662396
 20
134.5640041369
 30
0.0
 11
150.7559662396
 21
134.3591057199
 31
0.0
  0
LINE
  5
C9
330
1F
100
AcDbEntity
  8
0
  6
Continuous
 62
     7
370
    15
100
AcDbLine
 10
144.7659664964
 20
137.3332769113
 30
0.0
 11
144.7659664964
 21
130.5118643182
 31
0.0
  0
LINE
  5
CA
330
1F
100
AcDbEntity
  8
0
  6
Continuous
 62
     7
370
    15
100
AcDbLine
 10
160.6159668127
 20
137.3332769113
 30
0.0
 11
160.6159668127
 21
130.5118643182
 31
0.0
  0
SPLINE
  5
CB
330
1F
100
AcDbEntity
  8
0
  6
Continuous
 62
     7
370
    15
100
AcDbSpline
210
0.0
220
0.0
230
1.0
 70
     8
 71
     3
 72
     8
 73
     4
 74
     0
 42
0.000000001
 43
0.00000001
 40
0.0
 40
0.0
 40
0.0
 40
0.0
 40
1.0
 40
1.0
 40
1.0
 40
1.0
 10
155.6299212635545
 20
141.8744029125601
 30
0.0
 10
155.2779772406462
 20
141.2428415245462
 30
0.0
 10
154.926618817586
 20
140.6109596248474
 30
0.0
 10
154.5759665772584
 20
139.978691215797
 30
0.0
  0
SPLINE
  5
CC
330
1F
100
AcDbEntity
  8
0
  6
Continuous
 62
     7
370
    15
100
AcDbSpline
210
0.0
220
0.0
230
1.0
 70
     8
 71
     3
 72
     8
 73
     4
 74
     0
 42
0.000000001
 43
0.00000001
 40
0.0
 40
0.0
 40
0.0
 40
0.0
 40
0.0012409313617635
 40
0.0012409313617635
 40
0.0012409313617635
 40
0.0012409313617635
 10
156.1878032193151
 20
142.6582008355111
 30
0.0
 10
156.0011302910829
 20
142.3971889578125
 30
0.0
 10
155.8151451031105
 20
142.1359304560372
 30
0.0
 10
155.6299212635545
 20
141.8744029125601
 30
0.0
  0
LINE
  5
CD
330
1F
100
AcDbEntity
  8
0
  6
Continuous
 62
     7
370
    15
100
AcDbLine
 10
154.575966456
 20
134.5640041369
 30
0.0
 11
154.575966456
 21
139.9786912339
 31
0.0
  0
SPLINE
  5
CE
330
1F
100
AcDbEntity
  8
0
  6
Continuous
 62
     7
370
    15
100
AcDbSpline
210
0.0
220
0.0
230
1.0
 70
     8
 71
     3
 72
    14
 73
    10
 74
     0
 42
0.000000001
 43
0.00000001
 40
0.0
 40
0.0
 40
0.0
 40
0.0
 40
0.25
 40
0.25
 40
0.5
 40
0.5
 40
0.75
 40
0.75
 40
1.0
 40
1.0
 40
1.0
 40
1.0
 10
151.5559665772584
 20
138.9797226125823
 30
0.0
 10
151.4485975327441
 20
138.9797226125823
 30
0.0
 10
151.3417920409812
 20
139.0026476079873
 30
0.0
 10
151.1466506724644
 20
139.0888400418615
 30
0.0
 10
151.0574409548745
 20
139.1526840385254
 30
0.0
 10
150.9115141620581
 20
139.3081001464668
 30
0.0
 10
150.85352441826
 20
139.4007547246746
 30
0.0
 10
150.7759305767375
 20
139.5999880647241
 30
0.0
 10
150.7559665772584
 20
139.7065931597793
 30
0.0
 10
150.7559665772584
 20
139.8139442441026
 30
0.0
  0
LINE
  5
CF
330
1F
100
AcDbEntity
  8
0
  6
Continuous
 62
     7
370
    15
100
AcDbLine
 10
149.144129985
 20
142.658201276
 30
0.0
 11
145.3659666413
 21
142.658201276
 31
0.0
  0
SPLINE
  5
D0
330
1F
100
AcDbEntity
  8
0
  6
Continuous
 62
     7
370
    15
100
AcDbSpline
210
0.0
220
0.0
230
1.0
 70
     8
 71
     3
 72
    10
 73
     6
 74
     0
 42
0.000000001
 43
0.00000001
 40
0.0
 40
0.0
 40
0.0
 40
0.0
 40
0.5
 40
0.5
 40
1.0
 40
1.0
 40
1.0
 40
1.0
 10
145.053208178566
 20
142.5871613112525
 30
0.0
 10
144.9773685845625
 20
142.5171121249239
 30
0.0
 10
144.9100450668365
 20
142.4318933513502
 30
0.0
 10
144.8034014285314
 20
142.2216672246884
 30
0.0
 10
144.7659665772584
 20
142.0981580338211
 30
0.0
 10
144.7659665772584
 20
141.9682399132984
 30
0.0
  0
SPLINE
  5
D1
330
1F
100
AcDbEntity
  8
0
  6
Continuous
 62
     7
370
    15
100
AcDbSpline
210
0.0
220
0.0
230
1.0
 70
     8
 71
     3
 72
     8
 73
     4
 74
     0
 42
0.000000001
 43
0.00000001
 40
0.0
 40
0.0
 40
0.0
 40
0.0
 40
1.0
 40
1.0
 40
1.0
 40
1.0
 10
145.3659665772584
 20
142.6582008355111
 30
0.0
 10
145.2537883230788
 20
142.6582008355111
 30
0.0
 10
145.1451188103503
 20
142.6325197702502
 30
0.0
 10
145.053208178566
 20
142.5871613112525
 30
0.0
  0
LINE
  5
D2
330
1F
100
AcDbEntity
  8
0
  6
Continuous
 62
     7
370
    15
100
AcDbLine
 10
144.7659664964
 20
137.3332769113
 30
0.0
 11
144.7659664964
 21
141.9682402598
 31
0.0
  0
SPLINE
  5
D3
330
1F
100
AcDbEntity
  8
0
  6
Continuous
 62
     7
370
    15
100
AcDbSpline
210
0.0
220
0.0
230
1.0
 70
     8
 71
     3
 72
    22
 73
    18
 74
     0
 42
0.000000001
 43
0.00000001
 40
0.0
 40
0.0
 40
0.0
 40
0.0
 40
0.0449633957525993
 40
0.1136906574520465
 40
0.1870189505597229
 40
0.2701557470043408
 40
0.3635638171199271
 40
0.4625511642825728
 40
0.5625772235273692
 40
0.6112449226873687
 40
0.6615681833401349
 40
0.706167337364758
 40
0.7525375556098871
 40
0.8295605244985124
 40
0.8986841927653333
 40
0.9694511800157565
 40
1.0
 40
1.0
 40
1.0
 40
1.0
 10
219.4611310670045
 20
128.1488866048549
 30
0.0
 10
219.4654794474161
 20
128.1498652845103
 30
0.0
 10
219.4764743960752
 20
128.1523398915009
 30
0.0
 10
219.0044414373505
 20
128.0424141784844
 30
0.0
 10
218.1522837907818
 20
127.8695198079417
 30
0.0
 10
216.8798928673514
 20
127.6716082657097
 30
0.0
 10
215.257184940438
 20
127.5363174419574
 30
0.0
 10
213.4516527182101
 20
127.5494638400062
 30
0.0
 10
212.0168071896063
 20
127.694279944066
 30
0.0
 10
211.0312772308866
 20
127.8475465797608
 30
0.0
 10
210.4222754734805
 20
127.9616288495049
 30
0.0
 10
209.9503156770668
 20
128.0613642054293
 30
0.0
 10
209.5651364202316
 20
128.1495847017281
 30
0.0
 10
209.446136958543
 20
128.1783780634958
 30
0.0
 10
209.7915298793639
 20
128.0971900169127
 30
0.0
 10
210.3341450341614
 20
127.9755573961467
 30
0.0
 10
210.7888740974572
 20
127.8958984367834
 30
0.0
 10
210.9259843537477
 20
127.8718796061968
 30
0.0
  0
SPLINE
  5
D4
330
1F
100
AcDbEntity
  8
0
  6
Continuous
 62
     7
370
    15
100
AcDbSpline
210
0.0
220
0.0
230
1.0
 70
    11
 71
     3
 72
    82
 73
    78
 74
     0
 42
0.000000001
 43
0.00000001
 40
0.0
 40
0.0
 40
0.0
 40
0.0
 40
0.0312499999999983
 40
0.0312499999999983
 40
0.0624999999999967
 40
0.0624999999999967
 40
0.093749999999995
 40
0.093749999999995
 40
0.1249999999999934
 40
0.1249999999999934
 40
0.1562499999999917
 40
0.1562499999999917
 40
0.1874999999999901
 40
0.1874999999999901
 40
0.2187499999999884
 40
0.2187499999999884
 40
0.2343749999999881
 40
0.2343749999999881
 40
0.2499999999999879
 40
0.2499999999999879
 40
0.2812499999999875
 40
0.2812499999999875
 40
0.2968749999999877
 40
0.2968749999999877
 40
0.3124999999999879
 40
0.3124999999999879
 40
0.3437499999999884
 40
0.3437499999999884
 40
0.3593749999999885
 40
0.3593749999999885
 40
0.3749999999999886
 40
0.3749999999999886
 40
0.3906249999999888
 40
0.3906249999999888
 40
0.4062499999999889
 40
0.4062499999999889
 40
0.4374999999999895
 40
0.4374999999999895
 40
0.46874999999999
 40
0.46874999999999
 40
0.4999999999999906
 40
0.4999999999999906
 40
0.5312499999999911
 40
0.5312499999999911
 40
0.5624999999999917
 40
0.5624999999999917
 40
0.5937499999999922
 40
0.5937499999999922
 40
0.6249999999999928
 40
0.6249999999999928
 40
0.6562499999999933
 40
0.6562499999999933
 40
0.6874999999999939
 40
0.6874999999999939
 40
0.7187499999999944
 40
0.7187499999999944
 40
0.749999999999995
 40
0.749999999999995
 40
0.7812499999999957
 40
0.7812499999999957
 40
0.8124999999999962
 40
0.8124999999999962
 40
0.8281249999999964
 40
0.8281249999999964
 40
0.8437499999999968
 40
0.8437499999999968
 40
0.8749999999999977
 40
0.8749999999999977
 40
0.890624999999998
 40
0.890624999999998
 40
0.9062499999999984
 40
0.9062499999999984
 40
0.937499999999999
 40
0.937499999999999
 40
0.9687499999999996
 40
0.9687499999999996
 40
1.0
 40
1.0
 40
1.0
 40
1.0
 10
211.1957835530766
 20
115.4342633230433
 30
0.0
 10
211.4388410779547
 20
115.6243038458982
 30
0.0
 10
211.6959281749244
 20
115.788699514929
 30
0.0
 10
212.2358380987478
 20
116.0713699208925
 30
0.0
 10
212.5202942873079
 20
116.190093225622
 30
0.0
 10
213.108636073527
 20
116.3785573983347
 30
0.0
 10
213.4075518923035
 20
116.4470126895712
 30
0.0
 10
214.0145275037721
 20
116.5347818154779
 30
0.0
 10
214.3252076877802
 20
116.5539675254839
 30
0.0
 10
214.9432189148732
 20
116.541001389112
 30
0.0
 10
215.2482028002852
 20
116.5093873604436
 30
0.0
 10
215.8502929840316
 20
116.3966822393711
 30
0.0
 10
216.1500853504288
 20
116.3145371855202
 30
0.0
 10
216.7273105517705
 20
116.1018131155288
 30
0.0
 10
217.0032353770694
 20
115.9724059623346
 30
0.0
 10
217.3980046334791
 20
115.7429569098921
 30
0.0
 10
217.5263873253464
 20
115.6605447661604
 30
0.0
 10
217.776438378346
 20
115.4831842035723
 30
0.0
 10
217.8985010459322
 20
115.3878058761352
 30
0.0
 10
218.2462244209707
 20
115.0882331546209
 30
0.0
 10
218.45615330715
 20
114.8692178665651
 30
0.0
 10
218.736513539623
 20
114.509684732081
 30
0.0
 10
218.824168709127
 20
114.384634135452
 30
0.0
 10
218.986959786395
 20
114.1232028511873
 30
0.0
 10
219.0618352913091
 20
113.9869394776279
 30
0.0
 10
219.2603410922967
 20
113.5722028917612
 30
0.0
 10
219.3605920956584
 20
113.2841755626391
 30
0.0
 10
219.4595251159339
 20
112.8334778480873
 30
0.0
 10
219.4839385399985
 20
112.6788482129889
 30
0.0
 10
219.513428031027
 20
112.3700391458843
 30
0.0
 10
219.5186783448978
 20
112.2160461679743
 30
0.0
 10
219.5106603686656
 20
111.9088633011247
 30
0.0
 10
219.4973912378302
 20
111.7556734480452
 30
0.0
 10
219.4521964582424
 20
111.4501018990213
 30
0.0
 10
219.4199398495552
 20
111.2967836614588
 30
0.0
 10
219.2975227061534
 20
110.8491185264726
 30
0.0
 10
219.1821363148281
 20
110.5645247059149
 30
0.0
 10
218.8881524518106
 20
110.020997425321
 30
0.0
 10
218.7117306415999
 20
109.767108879935
 30
0.0
 10
218.3135126011169
 20
109.302202834707
 30
0.0
 10
218.0882457911969
 20
109.0877484595167
 30
0.0
 10
217.6067799613887
 20
108.7090070070333
 30
0.0
 10
217.349911833932
 20
108.5431874285682
 30
0.0
 10
216.8049925409739
 20
108.2561772974702
 30
0.0
 10
216.5188238573614
 20
108.1365447432444
 30
0.0
 10
215.9353821716463
 20
107.9484561757518
 30
0.0
 10
215.6359344305181
 20
107.8788277413307
 30
0.0
 10
215.021204266402
 20
107.789067517514
 30
0.0
 10
214.7126857200329
 20
107.7700790804868
 30
0.0
 10
214.0987735047788
 20
107.7820863227716
 30
0.0
 10
213.7924904776947
 20
107.8129479619535
 30
0.0
 10
213.181330473772
 20
107.9268630030686
 30
0.0
 10
212.8849847867257
 20
108.0083538299241
 30
0.0
 10
212.3112944387269
 20
108.2191454476285
 30
0.0
 10
212.0335389681789
 20
108.3485635210617
 30
0.0
 10
211.4988332291576
 20
108.6592394722121
 30
0.0
 10
211.2499663319623
 20
108.8357612330981
 30
0.0
 10
210.7893275860764
 20
109.2321459199933
 30
0.0
 10
210.5766503599121
 20
109.453030616762
 30
0.0
 10
210.1971124502068
 20
109.9404821304123
 30
0.0
 10
210.0358808303868
 20
110.1994602191011
 30
0.0
 10
209.8383674880102
 20
110.6119584231634
 30
0.0
 10
209.7799751049465
 20
110.753492498862
 30
0.0
 10
209.6791371163521
 20
111.0452467424716
 30
0.0
 10
209.6366360930563
 20
111.1963002888205
 30
0.0
 10
209.5380982742092
 20
111.6493635382727
 30
0.0
 10
209.5090009661106
 20
111.9551005428258
 30
0.0
 10
209.5215287137619
 20
112.4193916528345
 30
0.0
 10
209.5353789316331
 20
112.5759973698081
 30
0.0
 10
209.5814094156037
 20
112.882526261072
 30
0.0
 10
209.6135071808515
 20
113.0333327808672
 30
0.0
 10
209.7360022486171
 20
113.4786810917699
 30
0.0
 10
209.8544320718043
 20
113.7692980151293
 30
0.0
 10
210.1486757295375
 20
114.3102084688134
 30
0.0
 10
210.3240463157545
 20
114.5621864479822
 30
0.0
 10
210.728153357411
 20
115.0317741878576
 30
0.0
 10
210.9527260281985
 20
115.2442228001883
 30
0.0
 10
211.1957835530766
 20
115.4342633230433
 30
0.0
  0
LINE
  5
D5
330
1F
100
AcDbEntity
  8
0
  6
Continuous
 62
     7
370
    15
100
AcDbLine
 10
226.2659698436
 20
112.1618647563
 30
0.0
 11
226.2659698436
 21
96.1618639963
 31
0.0
  0
LINE
  5
D6
330
1F
100
AcDbEntity
  8
0
  6
Continuous
 62
     7
370
    15
100
AcDbLine
 10
226.2659698436
 20
128.1618655163
 30
0.0
 11
226.2659698436
 21
112.1618647563
 31
0.0
  0
LINE
  5
D7
330
1F
100
AcDbEntity
  8
0
  6
Continuous
 62
     7
370
    15
100
AcDbLine
 10
226.5659674713
 20
112.1618647563
 30
0.0
 11
226.5659674713
 21
96.4618653494
 31
0.0
  0
LINE
  5
D8
330
1F
100
AcDbEntity
  8
0
  6
Continuous
 62
     7
370
    15
100
AcDbLine
 10
226.5659674713
 20
127.8618641632
 30
0.0
 11
226.5659674713
 21
112.1618647563
 31
0.0
  0
LINE
  5
D9
330
1F
100
AcDbEntity
  8
0
  6
Continuous
 62
     7
370
    15
100
AcDbLine
 10
73.3159661004
 20
100.7547343584
 30
0.0
 11
73.3159661004
 21
123.5689951542
 31
0.0
  0
SPLINE
  5
DA
330
1F
100
AcDbEntity
  8
0
  6
Continuous
 62
     7
370
    15
100
AcDbSpline
210
0.0
220
0.0
230
1.0
 70
     8
 71
     3
 72
    10
 73
     6
 74
     0
 42
0.000000001
 43
0.00000001
 40
0.0
 40
0.0
 40
0.0
 40
0.0
 40
0.4391228077696939
 40
0.751371544097748
 40
1.0
 40
1.0
 40
1.0
 40
1.0
 10
214.0639230320123
 20
109.8971369179581
 30
0.0
 10
214.3770617064541
 20
110.0032016781397
 30
0.0
 10
214.9128650971435
 20
110.1846863134671
 30
0.0
 10
215.6917431928124
 20
110.4485054916915
 30
0.0
 10
216.0794101009623
 20
110.5798145956117
 30
0.0
 10
216.2512570330766
 20
110.6380219540243
 30
0.0
  0
SPLINE
  5
DB
330
1F
100
AcDbEntity
  8
0
  6
Continuous
 62
     7
370
    15
100
AcDbSpline
210
0.0
220
0.0
230
1.0
 70
     8
 71
     3
 72
    11
 73
     7
 74
     0
 42
0.000000001
 43
0.00000001
 40
0.0
 40
0.0
 40
0.0
 40
0.0
 40
0.1849308944125237
 40
0.5198461819842768
 40
0.8714435232974705
 40
1.0
 40
1.0
 40
1.0
 40
1.0
 10
216.2512570330766
 20
110.6380219540243
 30
0.0
 10
216.2775686106295
 20
110.7698401341631
 30
0.0
 10
216.3515312288081
 20
111.1403849145739
 30
0.0
 10
216.4895879673412
 20
111.8320791691358
 30
0.0
 10
216.617096059526
 20
112.4708868227648
 30
0.0
 10
216.6850931143565
 20
112.8115425591813
 30
0.0
 10
216.7032986590532
 20
112.9027497923617
 30
0.0
  0
SPLINE
  5
DC
330
1F
100
AcDbEntity
  8
0
  6
Continuous
 62
     7
370
    15
100
AcDbSpline
210
0.0
220
0.0
230
1.0
 70
     8
 71
     3
 72
    11
 73
     7
 74
     0
 42
0.000000001
 43
0.00000001
 40
0.0
 40
0.0
 40
0.0
 40
0.0
 40
0.1285559288167053
 40
0.4801532428789739
 40
0.8150691138212278
 40
1.0
 40
1.0
 40
1.0
 40
1.0
 10
212.7806722829011
 20
113.6857075585668
 30
0.0
 10
212.7624695289547
 20
113.5945002599355
 30
0.0
 10
212.6944826891634
 20
113.2538432352835
 30
0.0
 10
212.5669698835679
 20
112.6150362127687
 30
0.0
 10
212.4289039491036
 20
111.9233433142765
 30
0.0
 10
212.3549419750531
 20
111.5527979546956
 30
0.0
 10
212.3286306569246
 20
111.4209797202294
 30
0.0
  0
CIRCLE
  5
DD
330
1F
100
AcDbEntity
  8
0
  6
Continuous
 62
     7
370
    15
100
AcDbCircle
 10
214.5159665773
 20
112.1618647563
 30
0.0
 40
2.399999999999995
  0
SPLINE
  5
DE
330
1F
100
AcDbEntity
  8
0
  6
Continuous
 62
     7
370
    15
100
AcDbSpline
210
0.0
220
0.0
230
1.0
 70
     8
 71
     3
 72
    10
 73
     6
 74
     0
 42
0.000000001
 43
0.00000001
 40
0.0
 40
0.0
 40
0.0
 40
0.0
 40
0.4391218025588137
 40
0.7513712614394542
 40
1.0
 40
1.0
 40
1.0
 40
1.0
 10
216.7032986590532
 20
112.9027497923617
 30
0.0
 10
216.4548752903826
 20
113.120902844082
 30
0.0
 10
216.0298037525965
 20
113.4941795356577
 30
0.0
 10
215.4118901507311
 20
114.0367973780727
 30
0.0
 10
215.1043390081869
 20
114.3068724431677
 30
0.0
 10
214.9680062839654
 20
114.426592594633
 30
0.0
  0
SPLINE
  5
DF
330
1F
100
AcDbEntity
  8
0
  6
Continuous
 62
     7
370
    15
100
AcDbSpline
210
0.0
220
0.0
230
1.0
 70
     8
 71
     3
 72
    10
 73
     6
 74
     0
 42
0.000000001
 43
0.00000001
 40
0.0
 40
0.0
 40
0.0
 40
0.0
 40
0.4391240720809658
 40
0.751371240356488
 40
1.0
 40
1.0
 40
1.0
 40
1.0
 10
212.3286306569246
 20
111.4209797202294
 30
0.0
 10
212.5770574550527
 20
111.2028277303135
 30
0.0
 10
213.0021326520528
 20
110.8295547952348
 30
0.0
 10
213.6200395413596
 20
110.2869300012334
 30
0.0
 10
213.9275900330774
 20
110.0168567568934
 30
0.0
 10
214.0639230320123
 20
109.8971369179581
 30
0.0
  0
SPLINE
  5
E0
330
1F
100
AcDbEntity
  8
0
  6
Continuous
 62
     7
370
    15
100
AcDbSpline
210
0.0
220
0.0
230
1.0
 70
     8
 71
     3
 72
    10
 73
     6
 74
     0
 42
0.000000001
 43
0.00000001
 40
0.0
 40
0.0
 40
0.0
 40
0.0
 40
0.4391228077696939
 40
0.751371544097748
 40
1.0
 40
1.0
 40
1.0
 40
1.0
 10
214.9680062839654
 20
114.426592594633
 30
0.0
 10
214.6548676095236
 20
114.3205278344514
 30
0.0
 10
214.1190642188342
 20
114.139043199124
 30
0.0
 10
213.3401861231653
 20
113.8752240208996
 30
0.0
 10
212.9525192150155
 20
113.7439149169794
 30
0.0
 10
212.7806722829011
 20
113.6857075585668
 30
0.0
  0
CIRCLE
  5
E1
330
1F
100
AcDbEntity
  8
0
  6
Continuous
 62
     7
370
    15
100
AcDbCircle
 10
214.5159665773
 20
112.1618647563
 30
0.0
 40
3.999999999999984
  0
CIRCLE
  5
E2
330
1F
100
AcDbEntity
  8
0
  6
Continuous
 62
     7
370
    15
100
AcDbCircle
 10
214.5159665773
 20
112.1618647563
 30
0.0
 40
3.29999999999999
  0
ARC
  5
E3
330
1F
100
AcDbEntity
  8
0
  6
Continuous
 62
     7
370
    15
100
AcDbCircle
 10
214.5159665773
 20
112.1618647563
 30
0.0
 40
1.999999999999997
100
AcDbArc
 50
348.7120768309
 51
48.7120768309
  0
ARC
  5
E4
330
1F
100
AcDbEntity
  8
0
  6
Continuous
 62
     7
370
    15
100
AcDbCircle
 10
214.5159665773
 20
112.1618647563
 30
0.0
 40
1.999999999999999
100
AcDbArc
 50
228.7120768309
 51
288.7120768309
  0
ARC
  5
E5
330
1F
100
AcDbEntity
  8
0
  6
Continuous
 62
     7
370
    15
100
AcDbCircle
 10
214.5159665773
 20
112.1618647563
 30
0.0
 40
2.000000000000012
100
AcDbArc
 50
48.7120768309
 51
108.7120768309
  0
ARC
  5
E6
330
1F
100
AcDbEntity
  8
0
  6
Continuous
 62
     7
370
    15
100
AcDbCircle
 10
214.5159665773
 20
112.1618647563
 30
0.0
 40
2.000000000000012
100
AcDbArc
 50
108.7120768309
 51
168.7120768309
  0
ARC
  5
E7
330
1F
100
AcDbEntity
  8
0
  6
Continuous
 62
     7
370
    15
100
AcDbCircle
 10
214.5159665773
 20
112.1618647563
 30
0.0
 40
1.999999999999997
100
AcDbArc
 50
168.7120768309
 51
228.7120768309
  0
ARC
  5
E8
330
1F
100
AcDbEntity
  8
0
  6
Continuous
 62
     7
370
    15
100
AcDbCircle
 10
214.5159665773
 20
112.1618647563
 30
0.0
 40
1.999999999999999
100
AcDbArc
 50
288.7120768309
 51
348.7120768309
  0
LINE
  5
E9
330
1F
100
AcDbEntity
  8
0
  6
Continuous
 62
     7
370
    15
100
AcDbLine
 10
211.2159684012
 20
128.1618655163
 30
0.0
 11
217.8159683654
 21
128.1618655163
 31
0.0
  0
ARC
  5
EA
330
1F
100
AcDbEntity
  8
0
  6
Continuous
 62
     7
370
    15
100
AcDbCircle
 10
154.4610857318
 20
102.9349315635
 30
0.0
 40
1.898360736635488
100
AcDbArc
 50
185.6273938271
 51
252.2367824487
  0
ARC
  5
EB
330
1F
100
AcDbEntity
  8
0
  6
Continuous
 62
     7
370
    15
100
AcDbCircle
 10
154.5681191926
 20
103.057655927
 30
0.0
 40
2.04890362440031
100
AcDbArc
 50
250.4330940998
 51
331.8513008449
  0
ARC
  5
EC
330
1F
100
AcDbEntity
  8
0
  6
Continuous
 62
     7
370
    15
100
AcDbCircle
 10
154.4317437556
 20
102.863613266
 30
0.0
 40
1.759675669613771
100
AcDbArc
 50
161.3530921132
 51
252.9613090107
  0
ARC
  5
ED
330
1F
100
AcDbEntity
  8
0
  6
Continuous
 62
     7
370
    15
100
AcDbCircle
 10
154.5693326517
 20
103.0060410543
 30
0.0
 40
1.938249924954385
100
AcDbArc
 50
250.3053484463
 51
335.2464869998
  0
ARC
  5
EE
330
1F
100
AcDbEntity
  8
0
  6
Continuous
 62
     7
370
    15
100
AcDbCircle
 10
154.4818269128
 20
102.8686271424
 30
0.0
 40
1.401482323252995
100
AcDbArc
 50
87.159974872
 51
252.1800879249
  0
ARC
  5
EF
330
1F
100
AcDbEntity
  8
0
  6
Continuous
 62
     7
370
    15
100
AcDbCircle
 10
154.5820389815
 20
102.93095571
 30
0.0
 40
1.493439973361717
100
AcDbArc
 50
249.2504121589
 51
349.8550577589
  0
SPLINE
  5
F0
330
1F
100
AcDbEntity
  8
0
  6
HIDDEN
 62
     7
370
     0
100
AcDbSpline
210
0.0
220
0.0
230
1.0
 70
     8
 71
     3
 72
     9
 73
     5
 74
     0
 42
0.000000001
 43
0.00000001
 40
0.0
 40
0.0
 40
0.0
 40
0.0
 40
0.9333113421934416
 40
1.0
 40
1.0
 40
1.0
 40
1.0
 10
152.5900756651428
 20
104.4153256776427
 30
0.0
 10
152.5754998465941
 20
104.314355589583
 30
0.0
 10
152.5598825301748
 20
104.2061708033333
 30
0.0
 10
152.5669123850579
 20
104.1136883063584
 30
0.0
 10
152.5673811966446
 20
104.1075207727646
 30
0.0
  0
LWPOLYLINE
  5
F1
330
1F
100
AcDbEntity
  8
0
  6
HIDDEN
 62
     7
370
     0
100
AcDbPolyline
 90
       21
 70
   128
 43
0.0
 10
152.5900756651
 20
103.8334567534
 10
152.7686055461
 20
103.3000864523
 10
153.1062211553
 20
102.8396750304
 10
153.5730410078
 20
102.4929762321
 10
154.1277460465
 20
102.2906752738
 10
154.7212378764
 20
102.2506786945
 10
155.3009871105
 20
102.3765264514
 10
155.8156778747
 20
102.6570799264
 10
156.2197563881
 20
103.0675063344
 10
156.4774552071
 20
103.5714794385
 10
156.565966242
 20
104.1243916812
 10
156.4774552071
 20
104.6773029926
 10
156.2197563881
 20
105.1812760967
 10
155.8156778747
 20
105.5917029704
 10
155.3009871105
 20
105.8722564454
 10
154.7212378764
 20
105.9981042023
 10
154.1277460465
 20
105.958107623
 10
153.5730410078
 20
105.7558071303
 10
153.1062211553
 20
105.4091078664
 10
152.7686055461
 20
104.9486969101
 10
152.5900756651
 20
104.4153256776
  0
LWPOLYLINE
  5
F2
330
1F
100
AcDbEntity
  8
0
  6
HIDDEN
 62
     7
370
     0
100
AcDbPolyline
 90
       22
 70
   128
 43
0.0
 10
145.0161781805
 20
103.2636801216
 10
145.1689006472
 20
102.6567222985
 10
145.4106175052
 20
102.1036945718
 10
145.7198515246
 20
101.6537372457
 10
146.0691254297
 20
101.3468301358
 10
146.4274047585
 20
101.2102432984
 10
146.7628550427
 20
101.2561137291
 10
147.0456697689
 20
101.4803650292
 10
147.2507199915
 20
101.8630724835
 10
147.3597857812
 20
102.3702288481
 10
147.3631762611
 20
102.9567730116
 10
147.2605906138
 20
103.5705872315
 10
147.0611432278
 20
104.157131395
 10
146.7825562404
 20
104.6642882253
 10
146.4495832743
 20
105.0469952139
 10
146.091810585
 20
105.271246514
 10
145.7410279373
 20
105.3171169447
 10
145.4284034381
 20
105.1805305729
 10
145.1817156458
 20
104.873623463
 10
145.022883703
 20
104.423666137
 10
144.9660201734
 20
103.8706388759
 10
145.0161781805
 20
103.2636801216
  0
LWPOLYLINE
  5
F3
330
1F
100
AcDbEntity
  8
0
  6
HIDDEN
 62
     7
370
     0
100
AcDbPolyline
 90
       20
 70
   128
 43
0.0
 10
145.3976940075
 20
103.2958107504
 10
145.5346352132
 20
102.7704675185
 10
145.7550187306
 20
102.3020523104
 10
146.0349621894
 20
101.9413268628
 10
146.3441300848
 20
101.727380647
 10
146.6490190187
 20
101.6833980071
 10
146.9165893914
 20
101.814145452
 10
147.1178458715
 20
102.1054547715
 10
147.2309792125
 20
102.5257569241
 10
147.2437299499
 20
103.0295074421
 10
147.1547155352
 20
103.56211499
 10
146.9735830733
 20
104.0658645766
 10
146.7199601876
 20
104.4861671949
 10
146.421331604
 20
104.7774760487
 10
146.1100579882
 20
104.9082234936
 10
145.8198704468
 20
104.8642413194
 10
145.5822160179
 20
104.6502951036
 10
145.4228474004
 20
104.2895691904
 10
145.3590350402
 20
103.8211549136
 10
145.3976940075
 20
103.2958107504
  0
ELLIPSE
  5
F4
330
1F
100
AcDbEntity
  8
0
  6
HIDDEN
 62
     7
370
     0
100
AcDbEllipse
 10
154.5659665773
 20
105.2742746957
 30
0.0
 11
1.383467579512114
 21
-1.091267719176599
 31
0.0
210
0.0
220
0.0
230
1.0
 40
0.8239737799
 41
2.147131942757435
 42
5.288724596347241
  0
ELLIPSE
  5
F5
330
1F
100
AcDbEntity
  8
0
  6
HIDDEN
 62
     7
370
     0
100
AcDbEllipse
 10
154.5659665773
 20
105.2742746957
 30
0.0
 11
1.383467579512114
 21
1.753907414218489
 31
0.0
210
0.0
220
0.0
230
1.0
 40
0.5126701559
 41
0.9944607108323609
 42
4.136053364422168
  0
SPLINE
  5
F6
330
1F
100
AcDbEntity
  8
0
  6
HIDDEN
 62
     7
370
     0
100
AcDbSpline
210
0.0
220
0.0
230
1.0
 70
     8
 71
     3
 72
    14
 73
    10
 74
     0
 42
0.000000001
 43
0.00000001
 40
0.0
 40
0.0
 40
0.0
 40
0.0
 40
0.25
 40
0.25
 40
0.5
 40
0.5
 40
0.75
 40
0.75
 40
1.0
 40
1.0
 40
1.0
 40
1.0
 10
152.590075814618
 20
103.8334571894578
 30
0.0
 10
152.6264396426483
 20
103.8789518248596
 30
0.0
 10
152.6589173698584
 20
103.9273436310758
 30
0.0
 10
152.7076709992742
 20
104.0328287750054
 30
0.0
 10
152.7225747769487
 20
104.0894132832483
 30
0.0
 10
152.7225852106063
 20
104.1983008771988
 30
0.0
 10
152.7076949147982
 20
104.2504855429614
 30
0.0
 10
152.6588059839206
 20
104.3417629419049
 30
0.0
 10
152.6264338056502
 20
104.3804296472791
 30
0.0
 10
152.590075814618
 20
104.4153255868269
 30
0.0
  0
LWPOLYLINE
  5
F7
330
1F
100
AcDbEntity
  8
0
  6
HIDDEN
 62
     7
370
     0
100
AcDbPolyline
 90
       20
 70
   128
 43
0.0
 10
154.5659668455
 20
102.6174679833
 10
155.1017204011
 20
102.7014779362
 10
155.57941717
 20
102.9444041165
 10
155.9472914496
 20
103.3199217605
 10
156.1654770458
 20
103.7873376595
 10
156.2103314036
 20
104.2959999728
 10
156.0769930193
 20
104.7907869766
 10
155.7799113626
 20
105.2180814991
 10
155.3512794608
 20
105.5315791133
 10
154.8375479588
 20
105.6973074997
 10
154.2943857321
 20
105.6973074997
 10
153.7806532988
 20
105.5315791133
 10
153.3520223284
 20
105.2180814991
 10
153.0549406716
 20
104.7907869766
 10
152.9216022873
 20
104.2959999728
 10
152.9664557138
 20
103.7873376595
 10
153.1846422413
 20
103.3199217605
 10
153.5525155896
 20
102.9444041165
 10
154.0302123586
 20
102.7014779362
 10
154.5659668455
 20
102.6174679833
  0
ELLIPSE
  5
F8
330
1F
100
AcDbEntity
  8
0
  6
HIDDEN
 62
     7
370
     0
100
AcDbEllipse
 10
154.5659665773
 20
105.2742746957
 30
0.0
 11
1.383467579512114
 21
-1.091267719176599
 31
0.0
210
0.0
220
0.0
230
1.0
 40
0.8239737799
 41
5.288724596347241
 42
5.331125843621361
  0
SPLINE
  5
F9
330
1F
100
AcDbEntity
  8
0
  6
HIDDEN
 62
     7
370
     0
100
AcDbSpline
210
0.0
220
0.0
230
1.0
 70
     8
 71
     3
 72
     8
 73
     4
 74
     0
 42
0.000000001
 43
0.00000001
 40
0.0
 40
0.0
 40
0.0
 40
0.0
 40
1.0
 40
1.0
 40
1.0
 40
1.0
 10
154.6359076734133
 20
103.7127228299265
 30
0.0
 10
154.6189229473111
 20
103.7198385399762
 30
0.0
 10
154.6019188027701
 20
103.7277136694978
 30
0.0
 10
154.5849199186908
 20
103.736336788952
 30
0.0
  0
ELLIPSE
  5
FA
330
1F
100
AcDbEntity
  8
0
  6
HIDDEN
 62
     7
370
     0
100
AcDbEllipse
 10
154.5659665773
 20
105.2742746957
 30
0.0
 11
1.383467579512114
 21
1.753907414218489
 31
0.0
210
0.0
220
0.0
230
1.0
 40
0.5126701559
 41
4.13605336442216
 42
4.14754049064474
  0
ELLIPSE
  5
FB
330
1F
100
AcDbEntity
  8
0
  6
HIDDEN
 62
     7
370
     0
100
AcDbEllipse
 10
154.5659665773
 20
105.2742746957
 30
0.0
 11
1.383467579512114
 21
1.753907414218489
 31
0.0
210
0.0
220
0.0
230
1.0
 40
0.5126701559
 41
0.9829735846098763
 42
0.9944607108323539
  0
SPLINE
  5
FC
330
1F
100
AcDbEntity
  8
0
  6
HIDDEN
 62
     7
370
     0
100
AcDbSpline
210
0.0
220
0.0
230
1.0
 70
     8
 71
     3
 72
     8
 73
     4
 74
     0
 42
0.000000001
 43
0.00000001
 40
0.0
 40
0.0
 40
0.0
 40
0.0
 40
1.0
 40
1.0
 40
1.0
 40
1.0
 10
154.5849199186907
 20
106.8371178459585
 30
0.0
 10
154.6019188027701
 20
106.8291345724451
 30
0.0
 10
154.6189229473112
 20
106.8203981699973
 30
0.0
 10
154.6359076734135
 20
106.8109213181598
 30
0.0
  0
ELLIPSE
  5
FD
330
1F
100
AcDbEntity
  8
0
  6
HIDDEN
 62
     7
370
     0
100
AcDbEllipse
 10
154.5659665773
 20
105.2742746957
 30
0.0
 11
1.383467579512114
 21
-1.091267719176599
 31
0.0
210
0.0
220
0.0
230
1.0
 40
0.8239737799
 41
2.104730695483385
 42
2.147131942757435
  0
SPLINE
  5
FE
330
1F
100
AcDbEntity
  8
0
  6
HIDDEN
 62
     7
370
     0
100
AcDbSpline
210
0.0
220
0.0
230
1.0
 70
    11
 71
     3
 72
    56
 73
    52
 74
     0
 42
0.000000001
 43
0.00000001
 40
0.0
 40
0.0
 40
0.0
 40
0.0
 40
0.0312500000000001
 40
0.0312500000000001
 40
0.0625000000000002
 40
0.0625000000000002
 40
0.1250000000000004
 40
0.1250000000000004
 40
0.1875000000000006
 40
0.1875000000000006
 40
0.2187500000000008
 40
0.2187500000000008
 40
0.250000000000001
 40
0.250000000000001
 40
0.2812500000000012
 40
0.2812500000000012
 40
0.3125000000000014
 40
0.3125000000000014
 40
0.3437500000000016
 40
0.3437500000000016
 40
0.3750000000000018
 40
0.3750000000000018
 40
0.4375000000000026
 40
0.4375000000000026
 40
0.5000000000000033
 40
0.5000000000000033
 40
0.5312500000000034
 40
0.5312500000000034
 40
0.5625000000000036
 40
0.5625000000000036
 40
0.6250000000000034
 40
0.6250000000000034
 40
0.6562500000000031
 40
0.6562500000000031
 40
0.6875000000000029
 40
0.6875000000000029
 40
0.7500000000000022
 40
0.7500000000000022
 40
0.7812500000000019
 40
0.7812500000000019
 40
0.8125000000000016
 40
0.8125000000000016
 40
0.875000000000001
 40
0.875000000000001
 40
0.9062500000000008
 40
0.9062500000000008
 40
0.9375000000000006
 40
0.9375000000000006
 40
0.9687500000000003
 40
0.9687500000000003
 40
1.0
 40
1.0
 40
1.0
 40
1.0
 10
154.5659665772585
 20
109.5946167417155
 30
0.0
 10
154.6768340670598
 20
109.5946167417155
 30
0.0
 10
154.7854286939045
 20
109.6028821151253
 30
0.0
 10
154.9984157095967
 20
109.6352751498097
 30
0.0
 10
155.1038520610951
 20
109.6598533305017
 30
0.0
 10
155.401782710456
 20
109.7557058547009
 30
0.0
 10
155.5818658224509
 20
109.8505988268332
 30
0.0
 10
155.8814081473878
 20
110.0941684074728
 30
0.0
 10
156.0037121242507
 20
110.2456610734886
 30
0.0
 10
156.1286102204814
 20
110.5053286939469
 30
0.0
 10
156.1613516033853
 20
110.5992807952699
 30
0.0
 10
156.2047241096228
 20
110.7931307379108
 30
0.0
 10
156.2157572951237
 20
110.8930409169537
 30
0.0
 10
156.2161700192468
 20
111.0991185496325
 30
0.0
 10
156.2051807623904
 20
111.2052264928115
 30
0.0
 10
156.1623933703201
 20
111.412813530964
 30
0.0
 10
156.1303439237486
 20
111.5164372865301
 30
0.0
 10
156.0465679363207
 20
111.7179441788338
 30
0.0
 10
155.9956852497267
 20
111.8142536588612
 30
0.0
 10
155.8766049365437
 20
111.998082538333
 30
0.0
 10
155.8079253070831
 20
112.0858336855066
 30
0.0
 10
155.5831948716394
 20
112.3252154689571
 30
0.0
 10
155.4026782246258
 20
112.4590507536681
 30
0.0
 10
155.0082821508076
 20
112.6432427971595
 30
0.0
 10
154.7883979757659
 20
112.6949819805607
 30
0.0
 10
154.4609195853966
 20
112.6959039119868
 30
0.0
 10
154.3496895971656
 20
112.6836036292583
 30
0.0
 10
154.1356792336396
 20
112.6355096658012
 30
0.0
 10
154.0321418739718
 20
112.600040988123
 30
0.0
 10
153.7313359903766
 20
112.4609158051536
 30
0.0
 10
153.5518978663582
 20
112.3279594745647
 30
0.0
 10
153.3260415171929
 20
112.0883033183658
 30
0.0
 10
153.2585216728399
 20
112.002415107357
 30
0.0
 10
153.1388624525243
 20
111.8188587606349
 30
0.0
 10
153.0868259846847
 20
111.7207589567699
 30
0.0
 10
152.9617431430853
 20
111.4219519665401
 30
0.0
 10
152.9163992282997
 20
111.2073277486761
 30
0.0
 10
152.9157550376274
 20
110.8994050432013
 30
0.0
 10
152.9265484735413
 20
110.7973685223969
 30
0.0
 10
152.9696538233427
 20
110.6021880170437
 30
0.0
 10
153.0014687762943
 20
110.509921785496
 30
0.0
 10
153.1266223129347
 20
110.2475542326695
 30
0.0
 10
153.2480032372091
 20
110.0964509110399
 30
0.0
 10
153.4749303456707
 20
109.9115808274184
 30
0.0
 10
153.55675813882
 20
109.8577963803206
 30
0.0
 10
153.7331087284701
 20
109.7641577429987
 30
0.0
 10
153.8288773353492
 20
109.7239785180162
 30
0.0
 10
154.0275006200809
 20
109.6600044612544
 30
0.0
 10
154.1303588110145
 20
109.635913099138
 30
0.0
 10
154.3437410306888
 20
109.6031491598266
 30
0.0
 10
154.455099087457
 20
109.5946167417155
 30
0.0
 10
154.5659665772585
 20
109.5946167417155
 30
0.0
  0
LINE
  5
FF
330
1F
100
AcDbEntity
  8
0
  6
HIDDEN
 62
     7
370
     0
100
AcDbLine
 10
210.9259843537
 20
127.8718796062
 30
0.0
 11
211.1957847783
 21
127.8236464101
 31
0.0
  0
CIRCLE
  5
100
330
1F
100
AcDbEntity
  8
0
  6
HIDDEN
 62
     7
370
     0
100
AcDbCircle
 10
214.5159665773
 20
112.1618647563
 30
0.0
 40
3.5
  0
LINE
  5
101
330
1F
100
AcDbEntity
  8
0
  6
HIDDEN
 62
     7
370
     0
100
AcDbLine
 10
204.0659665773
 20
112.1618647563
 30
0.0
 11
204.0659665773
 21
103.4618646341
 31
0.0
  0
LINE
  5
102
330
1F
100
AcDbEntity
  8
0
  6
HIDDEN
 62
     7
370
     0
100
AcDbLine
 10
204.0659665773
 20
120.8618648785
 30
0.0
 11
204.0659665773
 21
112.1618647563
 31
0.0
  0
LINE
  5
103
330
1F
100
AcDbEntity
  8
0
  6
HIDDEN
 62
     7
370
     0
100
AcDbLine
 10
207.4319898793
 20
112.1618647563
 30
0.0
 11
207.4319898793
 21
103.1618651437
 31
0.0
  0
LINE
  5
104
330
1F
100
AcDbEntity
  8
0
  6
HIDDEN
 62
     7
370
     0
100
AcDbLine
 10
207.4319898793
 20
121.1618643689
 30
0.0
 11
207.4319898793
 21
112.1618647563
 31
0.0
  0
LINE
  5
105
330
1F
100
AcDbEntity
  8
0
  6
HIDDEN
 62
     7
370
     0
100
AcDbLine
 10
144.7659664964
 20
136.9618654686
 30
0.0
 11
145.1032249434
 21
136.9618654686
 31
0.0
  0
ELLIPSE
  5
106
330
1F
100
AcDbEntity
  8
0
  6
HIDDEN
 62
     7
370
     0
100
AcDbEllipse
 10
145.1032248775
 20
138.5618647563
 30
0.0
 11
0.0
 21
1.599999999999994
 31
0.0
210
0.0
220
0.0
230
1.0
 40
0.4142135624
 41
3.141592653589793
 42
4.712388980384695
  0
LINE
  5
107
330
1F
100
AcDbEntity
  8
0
  6
HIDDEN
 62
     7
370
     0
100
AcDbLine
 10
145.1032249434
 20
89.5618640321
 30
0.0
 11
144.7659664964
 21
89.5618640321
 31
0.0
  0
ELLIPSE
  5
108
330
1F
100
AcDbEntity
  8
0
  6
HIDDEN
 62
     7
370
     0
100
AcDbEllipse
 10
145.1032248775
 20
87.9618647563
 30
0.0
 11
0.0
 21
1.599999999999994
 31
0.0
210
0.0
220
0.0
230
1.0
 40
0.4142135624
 41
4.712388980384695
 42
6.283185307179586
  0
LINE
  5
109
330
1F
100
AcDbEntity
  8
0
  6
HIDDEN
 62
     7
370
     0
100
AcDbLine
 10
145.7659664275
 20
82.26841618
 30
0.0
 11
144.9821110992
 21
81.8101346927
 31
0.0
  0
SPLINE
  5
10A
330
1F
100
AcDbEntity
  8
0
  6
HIDDEN
 62
     7
370
     0
100
AcDbSpline
210
0.0
220
0.0
230
1.0
 70
     8
 71
     3
 72
    12
 73
     8
 74
     0
 42
0.000000001
 43
0.00000001
 40
0.0
 40
0.0
 40
0.0
 40
0.0
 40
0.2035648648277592
 40
0.4067375286609206
 40
0.6198470511582922
 40
0.8406847756767514
 40
1.0
 40
1.0
 40
1.0
 40
1.0
 10
214.5159646579889
 20
120.4534268441294
 30
0.0
 10
214.8924234921604
 20
120.4688819575007
 30
0.0
 10
215.6446158510091
 20
120.4997624074403
 30
0.0
 10
216.6594462357515
 20
120.7129595045194
 30
0.0
 10
217.4590552336087
 20
120.9518068673334
 30
0.0
 10
217.9540519380709
 20
121.1375074791113
 30
0.0
 10
217.9724790459212
 20
121.1449753567254
 30
0.0
 10
217.9802015134958
 20
121.148105009148
 30
0.0
  0
LINE
  5
10B
330
1F
100
AcDbEntity
  8
0
  6
HIDDEN
 62
     7
370
     0
100
AcDbLine
 10
214.8371889898
 20
120.4747895213
 30
0.0
 11
214.2755418727
 21
120.4718409541
 31
0.0
  0
SPLINE
  5
10C
330
1F
100
AcDbEntity
  8
0
  6
HIDDEN
 62
     7
370
     0
100
AcDbSpline
210
0.0
220
0.0
230
1.0
 70
     8
 71
     3
 72
    12
 73
     8
 74
     0
 42
0.000000001
 43
0.00000001
 40
0.0
 40
0.0
 40
0.0
 40
0.0
 40
0.137691219822902
 40
0.3366685071010708
 40
0.5443452753006782
 40
0.7639680663594652
 40
1.0
 40
1.0
 40
1.0
 40
1.0
 10
211.0563173601297
 20
121.1462926554178
 30
0.0
 10
211.0565879144221
 20
121.1461162126415
 30
0.0
 10
211.0572494461436
 20
121.1456847927865
 30
0.0
 10
211.4653097876247
 20
120.990795169605
 30
0.0
 10
212.1883797215747
 20
120.7627145526546
 30
0.0
 10
213.2353992309156
 20
120.515058291539
 30
0.0
 10
214.0789830706458
 20
120.4744580285968
 30
0.0
 10
214.5159646579889
 20
120.4534268441294
 30
0.0
  0
LINE
  5
10D
330
1F
100
AcDbEntity
  8
0
  6
HIDDEN
 62
     7
370
     0
100
AcDbLine
 10
145.0532082645
 20
142.5871618527
 30
0.0
 11
145.7659664275
 21
141.8744020599
 31
0.0
  0
LINE
  5
10E
330
1F
100
AcDbEntity
  8
0
  6
HIDDEN
 62
     7
370
     0
100
AcDbLine
 10
80.3159653852
 20
103.6618642944
 30
0.0
 11
80.3159653852
 21
120.6618652182
 31
0.0
  0
LINE
  5
10F
330
1F
100
AcDbEntity
  8
0
  6
HIDDEN
 62
     7
370
     0
100
AcDbLine
 10
83.3118959973
 20
105.1618645402
 30
0.0
 11
83.3118959973
 21
119.1618649724
 31
0.0
  0
LINE
  5
110
330
1F
100
AcDbEntity
  8
0
  6
HIDDEN
 62
     7
370
     0
100
AcDbLine
 10
149.6011765385
 20
82.26841618
 30
0.0
 11
145.7659664275
 21
82.26841618
 31
0.0
  0
LINE
  5
111
330
1F
100
AcDbEntity
  8
0
  6
HIDDEN
 62
     7
370
     0
100
AcDbLine
 10
160.6159668127
 20
82.26841618
 30
0.0
 11
155.7307561571
 21
82.26841618
 31
0.0
  0
LINE
  5
112
330
1F
100
AcDbEntity
  8
0
  6
HIDDEN
 62
     7
370
     0
100
AcDbLine
 10
145.7659664275
 20
82.26841618
 30
0.0
 11
145.7659664275
 21
87.9618648874
 31
0.0
  0
LINE
  5
113
330
1F
100
AcDbEntity
  8
0
  6
HIDDEN
 62
     7
370
     0
100
AcDbLine
 10
160.6159668127
 20
89.5618640321
 30
0.0
 11
145.1032249434
 21
89.5618640321
 31
0.0
  0
LINE
  5
114
330
1F
100
AcDbEntity
  8
0
  6
HIDDEN
 62
     7
370
     0
100
AcDbLine
 10
145.7659664275
 20
141.8744020599
 30
0.0
 11
149.702011765
 21
141.8744020599
 31
0.0
  0
LINE
  5
115
330
1F
100
AcDbEntity
  8
0
  6
HIDDEN
 62
     7
370
     0
100
AcDbLine
 10
155.6299209306
 20
141.8744020599
 30
0.0
 11
160.6159668127
 21
141.8744020599
 31
0.0
  0
LINE
  5
116
330
1F
100
AcDbEntity
  8
0
  6
HIDDEN
 62
     7
370
     0
100
AcDbLine
 10
145.7659664275
 20
141.8744020599
 30
0.0
 11
145.7659664275
 21
138.5618646132
 31
0.0
  0
LINE
  5
117
330
1F
100
AcDbEntity
  8
0
  6
HIDDEN
 62
     7
370
     0
100
AcDbLine
 10
145.1032249434
 20
136.9618654686
 30
0.0
 11
160.6159668127
 21
136.9618654686
 31
0.0
  0
LINE
  5
118
330
1F
100
AcDbEntity
  8
0
  6
HIDDEN
 62
     7
370
     0
100
AcDbLine
 10
116.3159656981
 20
105.1618645402
 30
0.0
 11
116.3159656981
 21
119.1618649724
 31
0.0
  0
LINE
  5
119
330
1F
100
AcDbEntity
  8
0
  6
HIDDEN
 62
     7
370
     0
100
AcDbLine
 10
118.4790648231
 20
115.5618648014
 30
0.0
 11
118.4790648231
 21
108.7618647112
 31
0.0
  0
LINE
  5
11A
330
1F
100
AcDbEntity
  8
0
  6
HIDDEN
 62
     7
370
     0
100
AcDbLine
 10
214.515964658
 20
126.6618643391
 30
0.0
 11
218.0159643004
 21
126.6618643391
 31
0.0
  0
LINE
  5
11B
330
1F
100
AcDbEntity
  8
0
  6
HIDDEN
 62
     7
370
     0
100
AcDbLine
 10
211.0159650156
 20
126.6618643391
 30
0.0
 11
214.515964658
 21
126.6618643391
 31
0.0
  0
SPLINE
  5
11C
330
1F
100
AcDbEntity
  8
0
  6
HIDDEN
 62
     7
370
     0
100
AcDbSpline
210
0.0
220
0.0
230
1.0
 70
    11
 71
     3
 72
    56
 73
    52
 74
     0
 42
0.000000001
 43
0.00000001
 40
0.0
 40
0.0
 40
0.0
 40
0.0
 40
0.0312499999999998
 40
0.0312499999999998
 40
0.0624999999999997
 40
0.0624999999999997
 40
0.1249999999999994
 40
0.1249999999999994
 40
0.187499999999999
 40
0.187499999999999
 40
0.2187499999999989
 40
0.2187499999999989
 40
0.2499999999999988
 40
0.2499999999999988
 40
0.2812499999999987
 40
0.2812499999999987
 40
0.3124999999999986
 40
0.3124999999999986
 40
0.3437499999999985
 40
0.3437499999999985
 40
0.3749999999999984
 40
0.3749999999999984
 40
0.4374999999999986
 40
0.4374999999999986
 40
0.4999999999999986
 40
0.4999999999999986
 40
0.5312499999999989
 40
0.5312499999999989
 40
0.5624999999999991
 40
0.5624999999999991
 40
0.6249999999999993
 40
0.6249999999999993
 40
0.6562499999999994
 40
0.6562499999999994
 40
0.6874999999999994
 40
0.6874999999999994
 40
0.7499999999999996
 40
0.7499999999999996
 40
0.7812499999999997
 40
0.7812499999999997
 40
0.8124999999999998
 40
0.8124999999999998
 40
0.8749999999999999
 40
0.8749999999999999
 40
0.9062499999999999
 40
0.9062499999999999
 40
0.9375
 40
0.9375
 40
0.96875
 40
0.96875
 40
1.0
 40
1.0
 40
1.0
 40
1.0
 10
154.5659665772585
 20
111.6281271222821
 30
0.0
 10
154.455099087457
 20
111.6281271222821
 30
0.0
 10
154.3465044606124
 20
111.6406400207941
 30
0.0
 10
154.1335174449201
 20
111.6889124351858
 30
0.0
 10
154.0280810934217
 20
111.7253142483423
 30
0.0
 10
153.7301504440608
 20
111.863878884474
 30
0.0
 10
153.550067332066
 20
111.9974513003832
 30
0.0
 10
153.2505250071291
 20
112.3158196777847
 30
0.0
 10
153.1282210302662
 20
112.5039387856411
 30
0.0
 10
153.0033229340355
 20
112.8025210831561
 30
0.0
 10
152.9705815511316
 20
112.9070821302945
 30
0.0
 10
152.927209044894
 20
113.1151088247958
 30
0.0
 10
152.9161758593932
 20
113.2187084182119
 30
0.0
 10
152.91576313527
 20
113.4249230589055
 30
0.0
 10
152.9267523921264
 20
113.5273563848314
 30
0.0
 10
152.9695397841967
 20
113.7209529223616
 30
0.0
 10
153.0015892307683
 20
113.8141800761666
 30
0.0
 10
153.0853652181962
 20
113.9895646638863
 30
0.0
 10
153.1362479047902
 20
114.0704121947309
 30
0.0
 10
153.2553282179732
 20
114.2201449542275
 30
0.0
 10
153.3240078474338
 20
114.2891548759686
 30
0.0
 10
153.5487382828775
 20
114.4723616676256
 30
0.0
 10
153.7292549298911
 20
114.5674510436748
 30
0.0
 10
154.1236510037092
 20
114.6949048428937
 30
0.0
 10
154.343535178751
 20
114.7287008976418
 30
0.0
 10
154.6710135691203
 20
114.7293129429584
 30
0.0
 10
154.7822435573512
 20
114.7211895385787
 30
0.0
 10
154.9962539208773
 20
114.6889219197365
 30
0.0
 10
155.099791280545
 20
114.6649877122349
 30
0.0
 10
155.4005971641403
 20
114.5687860374612
 30
0.0
 10
155.5800352881586
 20
114.4743837665378
 30
0.0
 10
155.8058916373239
 20
114.2910830272325
 30
0.0
 10
155.873411481677
 20
114.2235938352085
 30
0.0
 10
155.9930707019925
 20
114.0742394403558
 30
0.0
 10
156.0451071698322
 20
113.991935376378
 30
0.0
 10
156.1701900114316
 20
113.7320970490222
 30
0.0
 10
156.2155339262171
 20
113.5329211003478
 30
0.0
 10
156.2161781168895
 20
113.225212240561
 30
0.0
 10
156.2053846809756
 20
113.1195652423244
 30
0.0
 10
156.1622793311741
 20
112.9102899693738
 30
0.0
 10
156.1304643782225
 20
112.807704107922
 30
0.0
 10
156.0053108415821
 20
112.5063063600171
 30
0.0
 10
155.8839299173078
 20
112.3187603022628
 30
0.0
 10
155.6570028088462
 20
112.077181715617
 30
0.0
 10
155.5751750156968
 20
112.0045179237535
 30
0.0
 10
155.3988244260467
 20
111.8751794636243
 30
0.0
 10
155.3030558191677
 20
111.8180102707405
 30
0.0
 10
155.1044325344359
 20
111.725536203511
 30
0.0
 10
155.0015743435023
 20
111.6898582583547
 30
0.0
 10
154.788192123828
 20
111.6410426962097
 30
0.0
 10
154.6768340670598
 20
111.6281271222821
 30
0.0
 10
154.5659665772584
 20
111.6281271222821
 30
0.0
  0
ELLIPSE
  5
11D
330
1F
100
AcDbEntity
  8
0
  6
HIDDEN
 62
     7
370
     0
100
AcDbEllipse
 10
154.5659665773
 20
119.0494548168
 30
0.0
 11
-1.383467579512114
 21
1.753907414218503
 31
0.0
210
0.0
220
0.0
230
1.0
 40
0.5126701559
 41
5.277237470121214
 42
5.288724596347244
  0
ELLIPSE
  5
11E
330
1F
100
AcDbEntity
  8
0
  6
HIDDEN
 62
     7
370
     0
100
AcDbEllipse
 10
154.5659665773
 20
119.0494548168
 30
0.0
 11
1.383467579512114
 21
1.091267719176599
 31
0.0
210
0.0
220
0.0
230
1.0
 40
0.8239737799
 41
0.9944607108323549
 42
4.136053364422144
  0
ELLIPSE
  5
11F
330
1F
100
AcDbEntity
  8
0
  6
HIDDEN
 62
     7
370
     0
100
AcDbEllipse
 10
154.5659665773
 20
119.0494548168
 30
0.0
 11
-1.383467579512114
 21
1.753907414218503
 31
0.0
210
0.0
220
0.0
230
1.0
 40
0.5126701559
 41
2.14713194275742
 42
2.158619068976625
  0
SPLINE
  5
120
330
1F
100
AcDbEntity
  8
0
  6
HIDDEN
 62
     7
370
     0
100
AcDbSpline
210
0.0
220
0.0
230
1.0
 70
     8
 71
     3
 72
     8
 73
     4
 74
     0
 42
0.000000001
 43
0.00000001
 40
0.0
 40
0.0
 40
0.0
 40
0.0
 40
1.0
 40
1.0
 40
1.0
 40
1.0
 10
154.5849199187054
 20
117.4866116666397
 30
0.0
 10
154.601918802775
 20
117.4945949401489
 30
0.0
 10
154.6189229473062
 20
117.5033313425916
 30
0.0
 10
154.6359076733987
 20
117.5128081944232
 30
0.0
  0
ELLIPSE
  5
121
330
1F
100
AcDbEntity
  8
0
  6
HIDDEN
 62
     7
370
     0
100
AcDbEllipse
 10
154.5659665773
 20
119.0494548168
 30
0.0
 11
1.383467579512114
 21
1.091267719176599
 31
0.0
210
0.0
220
0.0
230
1.0
 40
0.8239737799
 41
4.136053364422148
 42
4.178454611687172
  0
ELLIPSE
  5
122
330
1F
100
AcDbEntity
  8
0
  6
HIDDEN
 62
     7
370
     0
100
AcDbEllipse
 10
154.5659665773
 20
119.0494548168
 30
0.0
 11
-1.383467579512114
 21
1.753907414218503
 31
0.0
210
0.0
220
0.0
230
1.0
 40
0.5126701559
 41
5.288724596347244
 42
8.430317249937005
  0
ELLIPSE
  5
123
330
1F
100
AcDbEntity
  8
0
  6
HIDDEN
 62
     7
370
     0
100
AcDbEllipse
 10
154.5659665773
 20
119.0494548168
 30
0.0
 11
1.383467579512114
 21
1.091267719176599
 31
0.0
210
0.0
220
0.0
230
1.0
 40
0.8239737799
 41
0.9520594635615652
 42
0.9944607108323584
  0
SPLINE
  5
124
330
1F
100
AcDbEntity
  8
0
  6
HIDDEN
 62
     7
370
     0
100
AcDbSpline
210
0.0
220
0.0
230
1.0
 70
     8
 71
     3
 72
     8
 73
     4
 74
     0
 42
0.000000001
 43
0.00000001
 40
0.0
 40
0.0
 40
0.0
 40
0.0
 40
1.0
 40
1.0
 40
1.0
 40
1.0
 10
154.6359076734076
 20
120.6110066826623
 30
0.0
 10
154.6189229473092
 20
120.6038909726141
 30
0.0
 10
154.601918802772
 20
120.5960158430942
 30
0.0
 10
154.5849199186965
 20
120.5873927236421
 30
0.0
  0
LWPOLYLINE
  5
125
330
1F
100
AcDbEntity
  8
0
  6
HIDDEN
 62
     7
370
     0
100
AcDbPolyline
 90
       20
 70
   128
 43
0.0
 10
154.5659668455
 20
118.6052754025
 10
155.1017204011
 20
118.6892853553
 10
155.57941717
 20
118.9322115357
 10
155.9472914496
 20
119.3077291797
 10
156.1654770458
 20
119.775144613
 10
156.2103314036
 20
120.2838069263
 10
156.0769930193
 20
120.7785943958
 10
155.7799113626
 20
121.2058889183
 10
155.3512794608
 20
121.5193860667
 10
154.8375479588
 20
121.6851139876
 10
154.2943857321
 20
121.6851139876
 10
153.7806532988
 20
121.5193860667
 10
153.3520223284
 20
121.2058889183
 10
153.0549406716
 20
120.7785943958
 10
152.9216022873
 20
120.2838069263
 10
152.9664557138
 20
119.775144613
 10
153.1846422413
 20
119.3077291797
 10
153.5525155896
 20
118.9322115357
 10
154.0302123586
 20
118.6892853553
 10
154.5659668455
 20
118.6052754025
  0
LINE
  5
126
330
1F
100
AcDbEntity
  8
0
  6
HIDDEN
 62
     7
370
     0
100
AcDbLine
 10
150.7559662396
 20
134.3591057199
 30
0.0
 11
150.7559662396
 21
130.5118643182
 31
0.0
  0
SPLINE
  5
127
330
1F
100
AcDbEntity
  8
0
  6
HIDDEN
 62
     7
370
     0
100
AcDbSpline
210
0.0
220
0.0
230
1.0
 70
     8
 71
     3
 72
    14
 73
    10
 74
     0
 42
0.000000001
 43
0.00000001
 40
0.0
 40
0.0
 40
0.0
 40
0.0
 40
0.25
 40
0.25
 40
0.5
 40
0.5
 40
0.75
 40
0.75
 40
1.0
 40
1.0
 40
1.0
 40
1.0
 10
153.7759665772583
 20
123.4443439464037
 30
0.0
 10
153.8736488283724
 20
123.4828662604361
 30
0.0
 10
153.9757623374096
 20
123.5204816198948
 30
0.0
 10
154.1679345085785
 20
123.5915903454818
 30
0.0
 10
154.2593531819053
 20
123.6257963959858
 30
0.0
 10
154.4108691709196
 20
123.6926858743428
 30
0.0
 10
154.4720163734585
 20
123.7259563369037
 30
0.0
 10
154.5547230751469
 20
123.7953546869975
 30
0.0
 10
154.5759665772584
 20
123.8311317925935
 30
0.0
 10
154.5759665772584
 20
123.8676271248442
 30
0.0
  0
LINE
  5
128
330
1F
100
AcDbEntity
  8
0
  6
HIDDEN
 62
     7
370
     0
100
AcDbLine
 10
154.575966456
 20
134.3591057199
 30
0.0
 11
154.575966456
 21
130.5118643182
 31
0.0
  0
LINE
  5
129
330
1F
100
AcDbEntity
  8
0
  6
HIDDEN
 62
     7
370
     0
100
AcDbLine
 10
154.575966456
 20
104.1605819451
 30
0.0
 11
154.575966456
 21
100.4018590289
 31
0.0
  0
SPLINE
  5
12A
330
1F
100
AcDbEntity
  8
0
  6
HIDDEN
 62
     7
370
     0
100
AcDbSpline
210
0.0
220
0.0
230
1.0
 70
     8
 71
     3
 72
    14
 73
    10
 74
     0
 42
0.000000001
 43
0.00000001
 40
0.0
 40
0.0
 40
0.0
 40
0.0
 40
0.2500000000000005
 40
0.2500000000000005
 40
0.5000000000000003
 40
0.5000000000000003
 40
0.7500000000000001
 40
0.7500000000000001
 40
1.0
 40
1.0
 40
1.0
 40
1.0
 10
154.5759665772584
 20
120.1089036266252
 30
0.0
 10
154.5759665772584
 20
120.0724146957179
 30
0.0
 10
154.5547972010861
 20
120.0359159039842
 30
0.0
 10
154.4720515832338
 20
119.9705405562472
 30
0.0
 10
154.411197958406
 20
119.9426037219009
 30
0.0
 10
154.2595930917149
 20
119.9087126926542
 30
0.0
 10
154.1683707812477
 20
119.9032872400677
 30
0.0
 10
153.9760402315444
 20
119.9242065638803
 30
0.0
 10
153.8737893470674
 20
119.9507627113208
 30
0.0
 10
153.7759665772583
 20
119.9912324696265
 30
0.0
  0
LINE
  5
12B
330
1F
100
AcDbEntity
  8
0
  6
HIDDEN
 62
     7
370
     0
100
AcDbLine
 10
149.144129985
 20
138.0720951098
 30
0.0
 11
149.144129985
 21
130.5118643182
 31
0.0
  0
LINE
  5
12C
330
1F
100
AcDbEntity
  8
0
  6
HIDDEN
 62
     7
370
     0
100
AcDbLine
 10
156.1878036419
 20
102.4098445165
 30
0.0
 11
156.1878036419
 21
100.2103651377
 31
0.0
  0
LINE
  5
12D
330
1F
100
AcDbEntity
  8
0
  6
HIDDEN
 62
     7
370
     0
100
AcDbLine
 10
156.1878036419
 20
138.0720951098
 30
0.0
 11
156.1878036419
 21
130.5118643182
 31
0.0
  0
SPLINE
  5
12E
330
1F
100
AcDbEntity
  8
0
  6
HIDDEN
 62
     7
370
     0
100
AcDbSpline
210
0.0
220
0.0
230
1.0
 70
     8
 71
     3
 72
    10
 73
     6
 74
     0
 42
0.000000001
 43
0.00000001
 40
0.0
 40
0.0
 40
0.0
 40
0.0
 40
0.5
 40
0.5
 40
1.0
 40
1.0
 40
1.0
 40
1.0
 10
152.590075814618
 20
119.9084039257644
 30
0.0
 10
152.5744697636368
 20
120.013676126373
 30
0.0
 10
152.5659653006082
 20
120.1176146241638
 30
0.0
 10
152.5659678541979
 20
120.3171278961199
 30
0.0
 10
152.5744654417984
 20
120.4083403907902
 30
0.0
 10
152.590075814618
 20
120.4902723231334
 30
0.0
  0
SPLINE
  5
12F
330
1F
100
AcDbEntity
  8
0
  6
HIDDEN
 62
     7
370
     0
100
AcDbSpline
210
0.0
220
0.0
230
1.0
 70
     8
 71
     3
 72
    14
 73
    10
 74
     0
 42
0.000000001
 43
0.00000001
 40
0.0
 40
0.0
 40
0.0
 40
0.0
 40
0.25
 40
0.25
 40
0.5
 40
0.5
 40
0.75
 40
0.75
 40
1.0
 40
1.0
 40
1.0
 40
1.0
 10
152.590075814618
 20
120.4902723231334
 30
0.0
 10
152.6264396426483
 20
120.4447776877315
 30
0.0
 10
152.6589173698584
 20
120.3963858815153
 30
0.0
 10
152.7076709992741
 20
120.2909007375857
 30
0.0
 10
152.7225747769486
 20
120.2343162293428
 30
0.0
 10
152.7225852106062
 20
120.1254286353924
 30
0.0
 10
152.7076949147981
 20
120.0732439696298
 30
0.0
 10
152.6588059839205
 20
119.9819665706862
 30
0.0
 10
152.6264338056501
 20
119.9432998653121
 30
0.0
 10
152.590075814618
 20
119.9084039257644
 30
0.0
  0
LWPOLYLINE
  5
130
330
1F
100
AcDbEntity
  8
0
  6
HIDDEN
 62
     7
370
     0
100
AcDbPolyline
 90
       20
 70
   128
 43
0.0
 10
145.3976940075
 20
120.1419106188
 10
145.5346352132
 20
119.7503453555
 10
145.7550187306
 20
119.4972258496
 10
146.0349621894
 20
119.4099800164
 10
146.3441300848
 20
119.4980635742
 10
146.6490190187
 20
119.7519304665
 10
146.9165893914
 20
120.1440703558
 10
147.1178458715
 20
120.63198839
 10
147.2309792125
 20
121.1628124552
 10
147.2437299499
 20
121.6790184813
 10
147.1547155352
 20
122.1246675091
 10
146.9735830733
 20
122.4514667379
 10
146.7199601876
 20
122.6240026268
 10
146.421331604
 20
122.6235779437
 10
146.1100579882
 20
122.4502383235
 10
145.8198704468
 20
122.1227694737
 10
145.5822160179
 20
121.676655716
 10
145.4228474004
 20
121.1602410736
 10
145.3590350402
 20
120.6294877889
 10
145.3976940075
 20
120.1419106188
  0
LWPOLYLINE
  5
131
330
1F
100
AcDbEntity
  8
0
  6
HIDDEN
 62
     7
370
     0
100
AcDbPolyline
 90
       21
 70
   128
 43
0.0
 10
152.5900756651
 20
119.9084038349
 10
152.7686055461
 20
119.3750326025
 10
153.1062211553
 20
118.9146216462
 10
153.5730410078
 20
118.5679223823
 10
154.1277460465
 20
118.3656218896
 10
154.7212378764
 20
118.3256253103
 10
155.3009871105
 20
118.4514730672
 10
155.8156778747
 20
118.7320265422
 10
156.2197563881
 20
119.1424534159
 10
156.4774552071
 20
119.64642652
 10
156.565966242
 20
120.1993378314
 10
156.4774552071
 20
120.7522500741
 10
156.2197563881
 20
121.2562231782
 10
155.8156778747
 20
121.6666495862
 10
155.3009871105
 20
121.9472030612
 10
154.7212378764
 20
122.0730508181
 10
154.1277460465
 20
122.0330542388
 10
153.5730410078
 20
121.8307532805
 10
153.1062211553
 20
121.4840544822
 10
152.7686055461
 20
121.0236430603
 10
152.5900756651
 20
120.4902727591
  0
SPLINE
  5
132
330
1F
100
AcDbEntity
  8
0
  6
HIDDEN
 62
     7
370
     0
100
AcDbSpline
210
0.0
220
0.0
230
1.0
 70
     8
 71
     3
 72
    12
 73
     8
 74
     0
 42
0.000000001
 43
0.00000001
 40
0.0
 40
0.0
 40
0.0
 40
0.0
 40
0.2499999999999997
 40
0.2499999999999997
 40
0.4999999999999993
 40
0.4999999999999993
 40
1.0
 40
1.0
 40
1.0
 40
1.0
 10
156.1878032193151
 20
124.1133645545026
 30
0.0
 10
156.3107507131107
 20
123.9554077058075
 30
0.0
 10
156.4042949162196
 20
123.78357433883
 30
0.0
 10
156.5332343053818
 20
123.4119016291841
 30
0.0
 10
156.5657870627669
 20
123.2187131829929
 30
0.0
 10
156.5663234045007
 20
122.6304166447167
 30
0.0
 10
156.4336997475327
 20
122.2383984068279
 30
0.0
 10
156.1878032193151
 20
121.9138848241193
 30
0.0
  0
SPLINE
  5
133
330
1F
100
AcDbEntity
  8
0
  6
HIDDEN
 62
     7
370
     0
100
AcDbSpline
210
0.0
220
0.0
230
1.0
 70
     8
 71
     3
 72
    12
 73
     8
 74
     0
 42
0.000000001
 43
0.00000001
 40
0.0
 40
0.0
 40
0.0
 40
0.0
 40
0.2500000000000003
 40
0.2500000000000003
 40
0.5000000000000007
 40
0.5000000000000007
 40
1.0
 40
1.0
 40
1.0
 40
1.0
 10
156.1878032193151
 20
121.9138848241193
 30
0.0
 10
156.0729071680545
 20
121.6941443890627
 30
0.0
 10
155.9461411515818
 20
121.497176037441
 30
0.0
 10
155.6859262179633
 20
121.1434584646021
 30
0.0
 10
155.5524187600011
 20
120.9866331707298
 30
0.0
 10
155.1440204914128
 20
120.5600905998221
 30
0.0
 10
154.8603673564753
 20
120.3333984208669
 30
0.0
 10
154.5759665772586
 20
120.1631472764714
 30
0.0
  0
SPLINE
  5
134
330
1F
100
AcDbEntity
  8
0
  6
HIDDEN
 62
     7
370
     0
100
AcDbSpline
210
0.0
220
0.0
230
1.0
 70
     8
 71
     3
 72
    12
 73
     8
 74
     0
 42
0.000000001
 43
0.00000001
 40
0.0
 40
0.0
 40
0.0
 40
0.0
 40
0.5000000000000013
 40
0.5000000000000013
 40
0.7500000000000007
 40
0.7500000000000007
 40
1.0
 40
1.0
 40
1.0
 40
1.0
 10
154.5759665772584
 20
123.9218707746925
 30
0.0
 10
154.8601731118237
 20
124.0893349369862
 30
0.0
 10
155.1388688459275
 20
124.2009720364978
 30
0.0
 10
155.5482148891168
 20
124.2682853021372
 30
0.0
 10
155.6843542264363
 20
124.2734363421512
 30
0.0
 10
155.9456742754324
 20
124.2356704045318
 30
0.0
 10
156.0710954578641
 20
124.1941206461875
 30
0.0
 10
156.1878032193156
 20
124.1133645545047
 30
0.0
  0
SPLINE
  5
135
330
1F
100
AcDbEntity
  8
0
  6
HIDDEN
 62
     7
370
     0
100
AcDbSpline
210
0.0
220
0.0
230
1.0
 70
     8
 71
     3
 72
    22
 73
    18
 74
     0
 42
0.000000001
 43
0.00000001
 40
0.0
 40
0.0
 40
0.0
 40
0.0
 40
0.125
 40
0.125
 40
0.25
 40
0.25
 40
0.375
 40
0.375
 40
0.5
 40
0.5
 40
0.625
 40
0.625
 40
0.75
 40
0.75
 40
0.875
 40
0.875
 40
1.0
 40
1.0
 40
1.0
 40
1.0
 10
153.7759665772584
 20
119.9912324696265
 30
0.0
 10
153.595949882689
 20
120.0657062566031
 30
0.0
 10
153.4315180608187
 20
120.1631555185871
 30
0.0
 10
153.1331218270602
 20
120.4025249521514
 30
0.0
 10
153.0028180996953
 20
120.5424215642219
 30
0.0
 10
152.7895993160762
 20
120.8506731542821
 30
0.0
 10
152.7059714589648
 20
121.0208363724013
 30
0.0
 10
152.5948405820466
 20
121.3713311071919
 30
0.0
 10
152.5660045871929
 20
121.5564560683432
 30
0.0
 10
152.5659286445332
 20
121.9196629429604
 30
0.0
 10
152.5945872699605
 20
122.103032956668
 30
0.0
 10
152.7057383630732
 20
122.4489240691613
 30
0.0
 10
152.7888054837171
 20
122.6144435964288
 30
0.0
 10
153.0024914418358
 20
122.9149833338325
 30
0.0
 10
153.1314984317601
 20
123.0488552551165
 30
0.0
 10
153.4311077112497
 20
123.2801020245206
 30
0.0
 10
153.5959504095089
 20
123.3733521411794
 30
0.0
 10
153.7759665772584
 20
123.4443439464037
 30
0.0
  0
LWPOLYLINE
  5
136
330
1F
100
AcDbEntity
  8
0
  6
HIDDEN
 62
     7
370
     0
100
AcDbPolyline
 90
       22
 70
   128
 43
0.0
 10
145.0161781805
 20
119.9324021551
 10
145.1689006472
 20
119.4746403458
 10
145.4106175052
 20
119.1577485266
 10
145.7198515246
 20
119.0098847697
 10
146.0691254297
 20
119.0441872428
 10
146.4274047585
 20
119.257607727
 10
146.7628550427
 20
119.6311830978
 10
147.0456697689
 20
120.1317191559
 10
147.2507199915
 20
120.7147419887
 10
147.3597857812
 20
121.3284463125
 10
147.3631762611
 20
121.9183031904
 10
147.2605906138
 20
122.4318996506
 10
147.0611432278
 20
122.8236018183
 10
146.7825562404
 20
123.0586043062
 10
146.4495832743
 20
123.1160259309
 10
146.091810585
 20
122.9907658386
 10
145.7410279373
 20
122.6939524027
 10
145.4284034381
 20
122.2519597473
 10
145.1817156458
 20
121.704060814
 10
145.022883703
 20
121.0989386278
 10
144.9660201734
 20
120.4903612348
 10
145.0161781805
 20
119.9324021551
  0
LINE
  5
137
330
1F
100
AcDbEntity
  8
0
  6
HIDDEN
 62
     7
370
     0
100
AcDbLine
 10
210.5159640023
 20
127.4618648427
 30
0.0
 11
218.5159653136
 21
127.4618648427
 31
0.0
  0
LINE
  5
138
330
1F
100
AcDbEntity
  8
0
  6
HIDDEN
 62
     7
370
     0
100
AcDbLine
 10
210.5159640023
 20
122.2671207475
 30
0.0
 11
218.5159653136
 21
122.2671207475
 31
0.0
  0
LINE
  5
139
330
1F
100
AcDbEntity
  8
0
  6
HIDDEN
 62
     7
370
     0
100
AcDbLine
 10
211.8461683104
 20
118.1618648084
 30
0.0
 11
217.1857684562
 21
118.1618648084
 31
0.0
  0
SPLINE
  5
13A
330
1F
100
AcDbEntity
  8
0
  6
HIDDEN
 62
     7
370
     0
100
AcDbSpline
210
0.0
220
0.0
230
1.0
 70
     8
 71
     3
 72
    10
 73
     6
 74
     0
 42
0.000000001
 43
0.00000001
 40
0.0
 40
0.0
 40
0.0
 40
0.0
 40
0.4391240720809658
 40
0.751371240356488
 40
1.0
 40
1.0
 40
1.0
 40
1.0
 10
212.3286306569246
 20
128.0712664561962
 30
0.0
 10
212.5770574550527
 20
127.9342852466638
 30
0.0
 10
213.0021326520528
 20
127.6999010535493
 30
0.0
 10
213.6200395413596
 20
127.8040877604767
 30
0.0
 10
213.9275900330774
 20
127.9892060200548
 30
0.0
 10
214.0639230320123
 20
128.0712664561962
 30
0.0
  0
SPLINE
  5
13B
330
1F
100
AcDbEntity
  8
0
  6
HIDDEN
 62
     7
370
     0
100
AcDbSpline
210
0.0
220
0.0
230
1.0
 70
     8
 71
     3
 72
    10
 73
     6
 74
     0
 42
0.000000001
 43
0.00000001
 40
0.0
 40
0.0
 40
0.0
 40
0.0
 40
0.4391228077696939
 40
0.751371544097748
 40
1.0
 40
1.0
 40
1.0
 40
1.0
 10
214.0639230320123
 20
128.0712664561962
 30
0.0
 10
214.3770617064541
 20
127.9342854722955
 30
0.0
 10
214.9128650971435
 20
127.6999008956704
 30
0.0
 10
215.6917431928124
 20
127.8040871451542
 30
0.0
 10
216.0794101009623
 20
127.9892060286913
 30
0.0
 10
216.2512570330766
 20
128.0712664561962
 30
0.0
  0
SPLINE
  5
13C
330
1F
100
AcDbEntity
  8
0
  6
HIDDEN
 62
     7
370
     0
100
AcDbSpline
210
0.0
220
0.0
230
1.0
 70
     8
 71
     3
 72
    11
 73
     7
 74
     0
 42
0.000000001
 43
0.00000001
 40
0.0
 40
0.0
 40
0.0
 40
0.0
 40
0.1849308944125237
 40
0.5198461819842768
 40
0.8714435232974705
 40
1.0
 40
1.0
 40
1.0
 40
1.0
 10
216.2512570330766
 20
128.0712664561962
 30
0.0
 10
216.2775686106295
 20
128.0088625426236
 30
0.0
 10
216.3515312288081
 20
127.8334433066187
 30
0.0
 10
216.4895879673412
 20
127.7038395610826
 30
0.0
 10
216.617096059526
 20
127.8625453213837
 30
0.0
 10
216.6850931143565
 20
128.0271856283579
 30
0.0
 10
216.7032986590532
 20
128.0712664561962
 30
0.0
  0
SPLINE
  5
13D
330
1F
100
AcDbEntity
  8
0
  6
HIDDEN
 62
     7
370
     0
100
AcDbSpline
210
0.0
220
0.0
230
1.0
 70
     8
 71
     3
 72
    10
 73
     6
 74
     0
 42
0.000000001
 43
0.00000001
 40
0.0
 40
0.0
 40
0.0
 40
0.0
 40
0.4391218025588137
 40
0.7513712614394542
 40
1.0
 40
1.0
 40
1.0
 40
1.0
 10
216.7032986590532
 20
128.0712664561962
 30
0.0
 10
216.4548752903826
 20
127.9342855698511
 30
0.0
 10
216.0298037525965
 20
127.6999007117856
 30
0.0
 10
215.4118901507311
 20
127.8040870775588
 30
0.0
 10
215.1043390081869
 20
127.9892060451908
 30
0.0
 10
214.9680062839654
 20
128.0712664561962
 30
0.0
  0
SPLINE
  5
13E
330
1F
100
AcDbEntity
  8
0
  6
HIDDEN
 62
     7
370
     0
100
AcDbSpline
210
0.0
220
0.0
230
1.0
 70
     8
 71
     3
 72
    10
 73
     6
 74
     0
 42
0.000000001
 43
0.00000001
 40
0.0
 40
0.0
 40
0.0
 40
0.0
 40
0.4391228077696939
 40
0.751371544097748
 40
1.0
 40
1.0
 40
1.0
 40
1.0
 10
214.9680062839654
 20
128.0712664561962
 30
0.0
 10
214.6548676095236
 20
127.9342854722955
 30
0.0
 10
214.1190642188342
 20
127.6999008956704
 30
0.0
 10
213.3401861231653
 20
127.8040871451542
 30
0.0
 10
212.9525192150155
 20
127.9892060286913
 30
0.0
 10
212.7806722829011
 20
128.0712664561962
 30
0.0
  0
SPLINE
  5
13F
330
1F
100
AcDbEntity
  8
0
  6
HIDDEN
 62
     7
370
     0
100
AcDbSpline
210
0.0
220
0.0
230
1.0
 70
     8
 71
     3
 72
     9
 73
     5
 74
     0
 42
0.000000001
 43
0.00000001
 40
0.0
 40
0.0
 40
0.0
 40
0.0
 40
0.4413786443186855
 40
1.0
 40
1.0
 40
1.0
 40
1.0
 10
212.4764129230645
 20
127.8379925029968
 30
0.0
 10
212.4534810135399
 20
127.8516270727508
 30
0.0
 10
212.4015258276247
 20
127.8825179414629
 30
0.0
 10
212.3547568221608
 20
128.0036176004951
 30
0.0
 10
212.3286306569246
 20
128.0712664561962
 30
0.0
  0
LINE
  5
140
330
1F
100
AcDbEntity
  8
0
  6
HIDDEN
 62
     7
370
     0
100
AcDbLine
 10
214.063923032
 20
123.1618646967
 30
0.0
 11
214.063923032
 21
128.0712664562
 31
0.0
  0
LINE
  5
141
330
1F
100
AcDbEntity
  8
0
  6
HIDDEN
 62
     7
370
     0
100
AcDbLine
 10
214.063923032
 20
123.1618646967
 30
0.0
 11
213.1962805698
 21
123.1618646967
 31
0.0
  0
LINE
  5
142
330
1F
100
AcDbEntity
  8
0
  6
HIDDEN
 62
     7
370
     0
100
AcDbLine
 10
215.1575937578
 20
123.1618646967
 30
0.0
 11
214.063923032
 21
123.1618646967
 31
0.0
  0
LINE
  5
143
330
1F
100
AcDbEntity
  8
0
  6
HIDDEN
 62
     7
370
     0
100
AcDbLine
 10
212.5159680555
 20
122.1618645328
 30
0.0
 11
216.5159687111
 21
122.1618645328
 31
0.0
  0
LINE
  5
144
330
1F
100
AcDbEntity
  8
0
  6
HIDDEN
 62
     7
370
     0
100
AcDbLine
 10
216.2512570331
 20
123.1618646967
 30
0.0
 11
215.1575937578
 21
123.1618646967
 31
0.0
  0
LINE
  5
145
330
1F
100
AcDbEntity
  8
0
  6
HIDDEN
 62
     7
370
     0
100
AcDbLine
 10
216.4772778461
 20
123.1618646967
 30
0.0
 11
216.2512570331
 21
123.1618646967
 31
0.0
  0
LINE
  5
146
330
1F
100
AcDbEntity
  8
0
  6
HIDDEN
 62
     7
370
     0
100
AcDbLine
 10
216.2512570331
 20
123.1618646967
 30
0.0
 11
216.2512570331
 21
128.0712664562
 31
0.0
  0
LINE
  5
147
330
1F
100
AcDbEntity
  8
0
  6
HIDDEN
 62
     7
370
     0
100
AcDbLine
 10
213.1962805698
 20
123.1618646967
 30
0.0
 11
212.3286306569
 21
123.1618646967
 31
0.0
  0
LINE
  5
148
330
1F
100
AcDbEntity
  8
0
  6
HIDDEN
 62
     7
370
     0
100
AcDbLine
 10
212.7806722829
 20
123.1618646967
 30
0.0
 11
212.7806722829
 21
128.0712664562
 31
0.0
  0
LINE
  5
149
330
1F
100
AcDbEntity
  8
0
  6
HIDDEN
 62
     7
370
     0
100
AcDbLine
 10
212.3286306569
 20
123.1618646967
 30
0.0
 11
212.3286306569
 21
128.0712664562
 31
0.0
  0
LINE
  5
14A
330
1F
100
AcDbEntity
  8
0
  6
HIDDEN
 62
     7
370
     0
100
AcDbLine
 10
216.7032986591
 20
123.1618646967
 30
0.0
 11
216.4772778461
 21
123.1618646967
 31
0.0
  0
LINE
  5
14B
330
1F
100
AcDbEntity
  8
0
  6
HIDDEN
 62
     7
370
     0
100
AcDbLine
 10
214.968006284
 20
123.1618646967
 30
0.0
 11
214.968006284
 21
128.0712664562
 31
0.0
  0
LINE
  5
14C
330
1F
100
AcDbEntity
  8
0
  6
HIDDEN
 62
     7
370
     0
100
AcDbLine
 10
216.7032986591
 20
123.1618646967
 30
0.0
 11
216.7032986591
 21
128.0712664562
 31
0.0
  0
LWPOLYLINE
  5
14D
330
1F
100
AcDbEntity
  8
0
  6
HIDDEN
 62
     7
370
     0
100
AcDbPolyline
 90
       15
 70
   128
 43
0.0
 10
152.5718738967
 20
102.748780741
 10
152.5665886411
 20
102.8462641376
 10
152.6407181928
 20
103.4021323981
 10
152.8859149376
 20
103.9127719092
 10
153.2803915152
 20
104.3328114289
 10
153.7890966693
 20
104.6249277393
 10
154.3668305213
 20
104.7631648804
 10
154.9622585708
 20
104.73524057
 10
155.5224742452
 20
104.5436353857
 10
155.9977002153
 20
104.2053748357
 10
156.3457103157
 20
103.7505140963
 10
156.535581843
 20
103.2194702389
 10
156.55044482
 20
102.6594287219
 10
156.3889786312
 20
102.120151973
 10
156.3746912116
 20
102.0910621124
  0
ARC
  5
14E
330
1F
100
AcDbEntity
  8
0
  6
HIDDEN
 62
     7
370
     0
100
AcDbCircle
 10
154.5436092486
 20
102.8006421314
 30
0.0
 40
1.885954509292034
100
AcDbArc
 50
341.2514117754
 51
160.6270374527
  0
ARC
  5
14F
330
1F
100
AcDbEntity
  8
0
  6
HIDDEN
 62
     7
370
     0
100
AcDbCircle
 10
154.607664845
 20
102.8173124376
 30
0.0
 40
1.45217126164986
100
AcDbArc
 50
354.094556152
 51
92.2257567299
  0
LWPOLYLINE
  5
150
330
1F
100
AcDbEntity
  8
0
  6
HIDDEN
 62
     7
370
     0
100
AcDbPolyline
 90
       22
 70
   128
 43
0.0
 10
153.8819262469
 20
101.263882822
 10
153.3583581159
 20
101.531807563
 10
152.9420904526
 20
101.9328481021
 10
152.6701116646
 20
102.4313673812
 10
152.5665886411
 20
102.9830726298
 10
152.6407181928
 20
103.5389408904
 10
152.8859149376
 20
104.0495804014
 10
153.2803915152
 20
104.4696194554
 10
153.7890966693
 20
104.7617357659
 10
154.3668305213
 20
104.899972907
 10
154.9622585708
 20
104.8720485965
 10
155.5224742452
 20
104.6804434123
 10
155.9977002153
 20
104.3421833279
 10
156.3457103157
 20
103.8873225885
 10
156.535581843
 20
103.3562787312
 10
156.55044482
 20
102.7962372142
 10
156.3889786312
 20
102.2569604653
 10
156.0655293697
 20
101.7863640996
 10
155.6088367188
 20
101.4262645009
 10
155.059481197
 20
101.208657256
 10
154.4662743518
 20
101.1528775531
 10
153.8819262469
 20
101.263882822
  0
LWPOLYLINE
  5
151
330
1F
100
AcDbEntity
  8
0
  6
HIDDEN
 62
     7
370
     0
100
AcDbPolyline
 90
       19
 70
   128
 43
0.0
 10
154.0529366294
 20
102.5378622549
 10
153.6017853478
 20
102.7826259347
 10
153.2669283161
 20
103.1576257634
 10
153.0887551317
 20
103.6176311287
 10
153.0887551317
 20
104.1071594196
 10
153.2669283161
 20
104.5671647849
 10
153.6017853478
 20
104.9421646136
 10
154.0529366294
 20
105.186928759
 10
154.5659668455
 20
105.2719342957
 10
155.0789970616
 20
105.186928759
 10
155.5301483432
 20
104.9421646136
 10
155.8650044436
 20
104.5671647849
 10
156.0431785593
 20
104.1071594196
 10
156.0431785593
 20
103.6176311287
 10
155.8650044436
 20
103.1576257634
 10
155.5301483432
 20
102.7826259347
 10
155.0789970616
 20
102.5378622549
 10
154.5659668455
 20
102.4528567183
 10
154.0529366294
 20
102.5378622549
  0
LWPOLYLINE
  5
152
330
1F
100
AcDbEntity
  8
0
  6
HIDDEN
 62
     7
370
     0
100
AcDbPolyline
 90
       22
 70
   128
 43
0.0
 10
153.8819262469
 20
101.4562689203
 10
153.3583581159
 20
101.7241945925
 10
152.9420904526
 20
102.1252342003
 10
152.6701116646
 20
102.6237544107
 10
152.5665886411
 20
103.175458728
 10
152.6407181928
 20
103.7313269886
 10
152.8859149376
 20
104.2419664996
 10
153.2803915152
 20
104.6620060193
 10
153.7890966693
 20
104.9541218641
 10
154.3668305213
 20
105.0923594708
 10
154.9622585708
 20
105.0644351604
 10
155.5224742452
 20
104.8728299762
 10
155.9977002153
 20
104.5345694261
 10
156.3457103157
 20
104.0797086867
 10
156.535581843
 20
103.5486648294
 10
156.55044482
 20
102.9886233124
 10
156.3889786312
 20
102.4493465635
 10
156.0655293697
 20
101.9787501978
 10
155.6088367188
 20
101.6186505991
 10
155.059481197
 20
101.4010433542
 10
154.4662743518
 20
101.3452645826
 10
153.8819262469
 20
101.4562689203
  0
LWPOLYLINE
  5
153
330
1F
100
AcDbEntity
  8
0
  6
HIDDEN
 62
     7
370
     0
100
AcDbPolyline
 90
       21
 70
   128
 43
0.0
 10
153.9366498301
 20
101.5494561257
 10
153.4331498379
 20
101.8117193567
 10
153.040537768
 20
102.207352637
 10
152.7972446466
 20
102.6976306426
 10
152.7270871857
 20
103.2345595273
 10
152.8369320268
 20
103.7655810329
 10
153.1160270506
 20
104.2387161839
 10
153.5370519096
 20
104.6076512399
 10
154.0587937171
 20
104.8362713742
 10
154.630181537
 20
104.9021978366
 10
155.1952838609
 20
104.798977493
 10
155.6987838531
 20
104.536714262
 10
156.0913959229
 20
104.1410800504
 10
156.3346881131
 20
103.6508029761
 10
156.4048455739
 20
103.1138740915
 10
156.2950007329
 20
102.5828516545
 10
156.0159066403
 20
102.1097165036
 10
155.5948817814
 20
101.7407823789
 10
155.0731390426
 20
101.5121622446
 10
154.5017512226
 20
101.4462357822
 10
153.9366498301
 20
101.5494561257
  0
LWPOLYLINE
  5
154
330
1F
100
AcDbEntity
  8
0
  6
HIDDEN
 62
     7
370
     0
100
AcDbPolyline
 90
       22
 70
   128
 43
0.0
 10
153.8819262469
 20
101.6486550185
 10
153.3583581159
 20
101.9165806907
 10
152.9420904526
 20
102.3176202985
 10
152.6701116646
 20
102.8161405089
 10
152.5665886411
 20
103.3678448262
 10
152.6407181928
 20
103.9237130868
 10
152.8859149376
 20
104.4343530635
 10
153.2803915152
 20
104.8543921175
 10
153.7890966693
 20
105.146508428
 10
154.3668305213
 20
105.284745569
 10
154.9622585708
 20
105.2568212586
 10
155.5224742452
 20
105.0652160744
 10
155.9977002153
 20
104.7269555243
 10
156.3457103157
 20
104.2720947849
 10
156.535581843
 20
103.7410518589
 10
156.55044482
 20
103.1810094106
 10
156.3889786312
 20
102.6417326617
 10
156.0655293697
 20
102.1711372274
 10
155.6088367188
 20
101.8110376286
 10
155.059481197
 20
101.5934303838
 10
154.4662743518
 20
101.5376506808
 10
153.8819262469
 20
101.6486550185
  0
LWPOLYLINE
  5
155
330
1F
100
AcDbEntity
  8
0
  6
HIDDEN
 62
     7
370
     0
100
AcDbPolyline
 90
       21
 70
   128
 43
0.0
 10
153.9366498301
 20
101.741842224
 10
153.4331498379
 20
102.0041054549
 10
153.040537768
 20
102.3997396665
 10
152.7972446466
 20
102.8900167408
 10
152.7270871857
 20
103.4269456255
 10
152.8369320268
 20
103.9579680624
 10
153.1160270506
 20
104.4311027477
 10
153.5370519096
 20
104.8000373381
 10
154.0587937171
 20
105.0286574724
 10
154.630181537
 20
105.0945839348
 10
155.1952838609
 20
104.9913640569
 10
155.6987838531
 20
104.7291008259
 10
156.0913959229
 20
104.3334670799
 10
156.3346881131
 20
103.8431890743
 10
156.4048455739
 20
103.3062601897
 10
156.2950007329
 20
102.7752386841
 10
156.0159066403
 20
102.3021035331
 10
155.5948817814
 20
101.9331684771
 10
155.0731390426
 20
101.7045483428
 10
154.5017512226
 20
101.6386218804
 10
153.9366498301
 20
101.741842224
  0
LWPOLYLINE
  5
156
330
1F
100
AcDbEntity
  8
0
  6
HIDDEN
 62
     7
370
     0
100
AcDbPolyline
 90
       22
 70
   128
 43
0.0
 10
153.8819262469
 20
101.8410411167
 10
153.3583581159
 20
102.1089667889
 10
152.9420904526
 20
102.5100063967
 10
152.6701116646
 20
103.0085266071
 10
152.5665886411
 20
103.5602318558
 10
152.6407181928
 20
104.116099185
 10
152.8859149376
 20
104.6267391617
 10
153.2803915152
 20
105.0467786814
 10
153.7890966693
 20
105.3388945262
 10
154.3668305213
 20
105.4771321329
 10
154.9622585708
 20
105.4492078225
 10
155.5224742452
 20
105.2576026383
 10
155.9977002153
 20
104.9193420882
 10
156.3457103157
 20
104.4644813488
 10
156.535581843
 20
103.9334379571
 10
156.55044482
 20
103.3733964401
 10
156.3889786312
 20
102.8341187599
 10
156.0655293697
 20
102.3635233256
 10
155.6088367188
 20
102.0034237268
 10
155.059481197
 20
101.785816482
 10
154.4662743518
 20
101.730036779
 10
153.8819262469
 20
101.8410411167
  0
LWPOLYLINE
  5
157
330
1F
100
AcDbEntity
  8
0
  6
HIDDEN
 62
     7
370
     0
100
AcDbPolyline
 90
       21
 70
   128
 43
0.0
 10
153.9366498301
 20
101.9342283222
 10
153.4331498379
 20
102.1964915531
 10
153.040537768
 20
102.5921257647
 10
152.7972446466
 20
103.082402839
 10
152.7270871857
 20
103.6193317237
 10
152.8369320268
 20
104.1503541606
 10
153.1160270506
 20
104.6234893116
 10
153.5370519096
 20
104.992423902
 10
154.0587937171
 20
105.2210440362
 10
154.630181537
 20
105.2869704987
 10
155.1952838609
 20
105.1837501551
 10
155.6987838531
 20
104.9214869241
 10
156.0913959229
 20
104.5258531782
 10
156.3346881131
 20
104.0355761039
 10
156.4048455739
 20
103.4986472192
 10
156.2950007329
 20
102.9676247823
 10
156.0159066403
 20
102.4944896313
 10
155.5948817814
 20
102.1255545753
 10
155.0731390426
 20
101.896934441
 10
154.5017512226
 20
101.8310079786
 10
153.9366498301
 20
101.9342283222
  0
LWPOLYLINE
  5
158
330
1F
100
AcDbEntity
  8
0
  6
HIDDEN
 62
     7
370
     0
100
AcDbPolyline
 90
       22
 70
   128
 43
0.0
 10
153.8819262469
 20
102.0334281462
 10
153.3583581159
 20
102.3013528871
 10
152.9420904526
 20
102.7023934262
 10
152.6701116646
 20
103.2009127053
 10
152.5665886411
 20
103.752617954
 10
152.6407181928
 20
104.3084862145
 10
152.8859149376
 20
104.8191257256
 10
153.2803915152
 20
105.2391647796
 10
153.7890966693
 20
105.53128109
 10
154.3668305213
 20
105.6695182311
 10
154.9622585708
 20
105.6415939207
 10
155.5224742452
 20
105.4499887365
 10
155.9977002153
 20
105.1117281864
 10
156.3457103157
 20
104.6568679127
 10
156.535581843
 20
104.1258240553
 10
156.55044482
 20
103.5657825383
 10
156.3889786312
 20
103.0265057894
 10
156.0655293697
 20
102.5559094238
 10
155.6088367188
 20
102.195809825
 10
155.059481197
 20
101.9782025802
 10
154.4662743518
 20
101.9224228772
 10
153.8819262469
 20
102.0334281462
  0
LWPOLYLINE
  5
159
330
1F
100
AcDbEntity
  8
0
  6
HIDDEN
 62
     7
370
     0
100
AcDbPolyline
 90
       21
 70
   128
 43
0.0
 10
153.9366498301
 20
102.1266144204
 10
153.4331498379
 20
102.3888776513
 10
153.040537768
 20
102.7845118629
 10
152.7972446466
 20
103.2747889372
 10
152.7270871857
 20
103.8117178219
 10
152.8369320268
 20
104.3427402588
 10
153.1160270506
 20
104.8158754098
 10
153.5370519096
 20
105.1848100002
 10
154.0587937171
 20
105.4134301345
 10
154.630181537
 20
105.4793565969
 10
155.1952838609
 20
105.3761367189
 10
155.6987838531
 20
105.113873488
 10
156.0913959229
 20
104.7182392764
 10
156.3346881131
 20
104.2279622021
 10
156.4048455739
 20
103.6910333174
 10
156.2950007329
 20
103.1600108805
 10
156.0159066403
 20
102.6868757295
 10
155.5948817814
 20
102.3179416048
 10
155.0731390426
 20
102.0893214705
 10
154.5017512226
 20
102.0233940768
 10
153.9366498301
 20
102.1266144204
  0
LWPOLYLINE
  5
15A
330
1F
100
AcDbEntity
  8
0
  6
HIDDEN
 62
     7
370
     0
100
AcDbPolyline
 90
       22
 70
   128
 43
0.0
 10
153.8819262469
 20
102.3583470347
 10
153.3583581159
 20
102.6262727069
 10
152.9420904526
 20
103.0273123148
 10
152.6701116646
 20
103.5258325251
 10
152.5665886411
 20
104.0775368425
 10
152.6407181928
 20
104.633405103
 10
152.8859149376
 20
105.1440446141
 10
153.2803915152
 20
105.5640841338
 10
153.7890966693
 20
105.8561999785
 10
154.3668305213
 20
105.9944375853
 10
154.9622585708
 20
105.9665132749
 10
155.5224742452
 20
105.7749080906
 10
155.9977002153
 20
105.4366475406
 10
156.3457103157
 20
104.9817868012
 10
156.535581843
 20
104.4507434095
 10
156.55044482
 20
103.8907014268
 10
156.3889786312
 20
103.3514246779
 10
156.0655293697
 20
102.8808292436
 10
155.6088367188
 20
102.5207287135
 10
155.059481197
 20
102.3031214687
 10
154.4662743518
 20
102.247342697
 10
153.8819262469
 20
102.3583470347
  0
LWPOLYLINE
  5
15B
330
1F
100
AcDbEntity
  8
0
  6
HIDDEN
 62
     7
370
     0
100
AcDbPolyline
 90
       19
 70
   128
 43
0.0
 10
154.0596449459
 20
102.9197846043
 10
153.6143935928
 20
103.1613482597
 10
153.2839156398
 20
103.5314437437
 10
153.1080726245
 20
103.9854346278
 10
153.1080726245
 20
104.4685605417
 10
153.2839156398
 20
104.9225509601
 10
153.6143935928
 20
105.2926469098
 10
154.0596449459
 20
105.5342100995
 10
154.5659668455
 20
105.6181041027
 10
155.0722878137
 20
105.5342100995
 10
155.5175391668
 20
105.2926469098
 10
155.8480171198
 20
104.9225509601
 10
156.0238610664
 20
104.4685605417
 10
156.0238610664
 20
103.9854346278
 10
155.8480171198
 20
103.5314437437
 10
155.5175391668
 20
103.1613482597
 10
155.0722878137
 20
102.9197846043
 10
154.5659668455
 20
102.8358910667
 10
154.0596449459
 20
102.9197846043
  0
LWPOLYLINE
  5
15C
330
1F
100
AcDbEntity
  8
0
  6
HIDDEN
 62
     7
370
     0
100
AcDbPolyline
 90
       19
 70
   128
 43
0.0
 10
155.562391662
 20
119.0679182733
 10
155.8767577344
 20
119.4502084951
 10
156.0330224866
 20
119.910478356
 10
156.0123387435
 20
120.3932140457
 10
155.8172015184
 20
120.8401883456
 10
155.4711471954
 20
121.197492114
 10
155.015913927
 20
121.4220274674
 10
154.5064106295
 20
121.4867124769
 10
154.004090623
 20
121.383745453
 10
153.5695410976
 20
121.1255455824
 10
153.2551759565
 20
120.743256292
 10
153.098910273
 20
120.2829854997
 10
153.1195940161
 20
119.8002502757
 10
153.3147312412
 20
119.3532755102
 10
153.6607864955
 20
118.9959722074
 10
154.1160188327
 20
118.771436854
 10
154.6255221302
 20
118.7067518445
 10
155.1278421366
 20
118.8097184027
 10
155.562391662
 20
119.0679182733
  0
LWPOLYLINE
  5
15D
330
1F
100
AcDbEntity
  8
0
  6
HIDDEN
 62
     7
370
     0
100
AcDbPolyline
 90
       22
 70
   128
 43
0.0
 10
155.9121368164
 20
118.8094106006
 10
156.2883119741
 20
119.2440225246
 10
156.5114484811
 20
119.7635184477
 10
156.5617203424
 20
120.3217387634
 10
156.4346609348
 20
120.8690835598
 10
156.1415597508
 20
121.3569177749
 10
155.7084602946
 20
121.7418967249
 10
155.1738457465
 20
121.9898120003
 10
154.5852172831
 20
122.0786359596
 10
153.9948789114
 20
122.0004765751
 10
153.4552845815
 20
121.7622777882
 10
153.0143787796
 20
121.3852048355
 10
152.711338521
 20
120.9027620467
 10
152.573090204
 20
120.3578181999
 10
152.6119170422
 20
119.7987913589
 10
152.8243703479
 20
119.2753554756
 10
153.1915722126
 20
118.8340194027
 10
153.6808946812
 20
118.5139978739
 10
154.2488598907
 20
118.3437264959
 10
154.8450013334
 20
118.3383341382
 10
155.4163491065
 20
118.4982999663
 10
155.9121368164
 20
118.8094106006
  0
LWPOLYLINE
  5
15E
330
1F
100
AcDbEntity
  8
0
  6
HIDDEN
 62
     7
370
     0
100
AcDbPolyline
 90
       22
 70
   128
 43
0.0
 10
155.9121368164
 20
119.1343299548
 10
156.2883119741
 20
119.5689418788
 10
156.5114484811
 20
120.0884378018
 10
156.5617203424
 20
120.6466576519
 10
156.4346609348
 20
121.1940024483
 10
156.1415597508
 20
121.6818366634
 10
155.7084602946
 20
122.0668156135
 10
155.1738457465
 20
122.3147308889
 10
154.5852172831
 20
122.4035557794
 10
153.9948789114
 20
122.3253954637
 10
153.4552845815
 20
122.0871966767
 10
153.0143787796
 20
121.710123724
 10
152.711338521
 20
121.2276818665
 10
152.573090204
 20
120.6827370885
 10
152.6119170422
 20
120.123710713
 10
152.8243703479
 20
119.6002748298
 10
153.1915722126
 20
119.1589387568
 10
153.6808946812
 20
118.8389172281
 10
154.2488598907
 20
118.6686453844
 10
154.8450013334
 20
118.6632530267
 10
155.4163491065
 20
118.8232193204
 10
155.9121368164
 20
119.1343299548
  0
LWPOLYLINE
  5
15F
330
1F
100
AcDbEntity
  8
0
  6
HIDDEN
 62
     7
370
     0
100
AcDbPolyline
 90
       19
 70
   128
 43
0.0
 10
155.5755940908
 20
120.4223672363
 10
155.8941259691
 20
120.8097219902
 10
156.0524610514
 20
121.2760910826
 10
156.0315034995
 20
121.7652226302
 10
155.8337809229
 20
122.2181201416
 10
155.4831407675
 20
122.5801578226
 10
155.0218753228
 20
122.8076678204
 10
154.5056217993
 20
122.8732105779
 10
153.9966456303
 20
122.7688791665
 10
153.5563386688
 20
122.5072585481
 10
153.2378077218
 20
122.1199028629
 10
153.0794717083
 20
121.6535337704
 10
153.1004292602
 20
121.1644022229
 10
153.298152768
 20
120.7115047115
 10
153.6487929234
 20
120.3494679617
 10
154.1100574369
 20
120.1219570326
 10
154.6263118917
 20
120.0564152064
 10
155.1352871293
 20
120.1607456865
 10
155.5755940908
 20
120.4223672363
  0
LWPOLYLINE
  5
160
330
1F
100
AcDbEntity
  8
0
  6
HIDDEN
 62
     7
370
     0
100
AcDbPolyline
 90
       19
 70
   128
 43
0.0
 10
155.5755940908
 20
119.4188885825
 10
155.8941259691
 20
119.8062438021
 10
156.0524610514
 20
120.2726124289
 10
156.0315034995
 20
120.7617439764
 10
155.8337809229
 20
121.2146414878
 10
155.4831407675
 20
121.5766791689
 10
155.0218753228
 20
121.804190098
 10
154.5056217993
 20
121.8697319242
 10
153.9966456303
 20
121.7654005128
 10
153.5563386688
 20
121.5037798944
 10
153.2378077218
 20
121.1164242091
 10
153.0794717083
 20
120.650056048
 10
153.1004292602
 20
120.1609245005
 10
153.298152768
 20
119.7080265234
 10
153.6487929234
 20
119.345989308
 10
154.1100574369
 20
119.1184788446
 10
154.6263118917
 20
119.0529365527
 10
155.1352871293
 20
119.1572674985
 10
155.5755940908
 20
119.4188885825
  0
LWPOLYLINE
  5
161
330
1F
100
AcDbEntity
  8
0
  6
HIDDEN
 62
     7
370
     0
100
AcDbPolyline
 90
       22
 70
   128
 43
0.0
 10
155.9121368164
 20
119.326716053
 10
156.2883119741
 20
119.761327977
 10
156.5114484811
 20
120.2808239001
 10
156.5617203424
 20
120.8390446814
 10
156.4346609348
 20
121.3863885465
 10
156.1415597508
 20
121.874223693
 10
155.7084602946
 20
122.2592017117
 10
155.1738457465
 20
122.5071179184
 10
154.5852172831
 20
122.5959418776
 10
153.9948789114
 20
122.5177815619
 10
153.4552845815
 20
122.2795827749
 10
153.0143787796
 20
121.9025098222
 10
152.711338521
 20
121.4200679647
 10
152.573090204
 20
120.8751231867
 10
152.6119170422
 20
120.3160968112
 10
152.8243703479
 20
119.792660928
 10
153.1915722126
 20
119.351324855
 10
153.6808946812
 20
119.0313033263
 10
154.2488598907
 20
118.8610319483
 10
154.8450013334
 20
118.8556395906
 10
155.4163491065
 20
119.0156054186
 10
155.9121368164
 20
119.326716053
  0
LWPOLYLINE
  5
162
330
1F
100
AcDbEntity
  8
0
  6
HIDDEN
 62
     7
370
     0
100
AcDbPolyline
 90
       21
 70
   128
 43
0.0
 10
155.8044433305
 20
119.293620574
 10
156.1643380383
 20
119.7158365945
 10
156.3677733475
 20
120.2218944641
 10
156.3948347876
 20
120.7622571352
 10
156.2428746084
 20
121.2840315389
 10
155.9267660314
 20
121.7361411514
 10
155.4774531806
 20
122.0743313866
 10
154.9389177645
 20
122.2654983836
 10
154.3638754347
 20
122.2909281465
 10
153.8086153278
 20
122.1481312501
 10
153.3274894291
 20
121.8510868462
 10
152.9675947213
 20
121.428871757
 10
152.7641603434
 20
120.9228134217
 10
152.7370979721
 20
120.3824507507
 10
152.8890590826
 20
119.860676347
 10
153.2051667282
 20
119.4085662688
 10
153.6544795791
 20
119.0703760336
 10
154.1930149952
 20
118.8792095023
 10
154.7680573249
 20
118.8537797394
 10
155.3233174318
 20
118.9965761701
 10
155.8044433305
 20
119.293620574
  0
LWPOLYLINE
  5
163
330
1F
100
AcDbEntity
  8
0
  6
HIDDEN
 62
     7
370
     0
100
AcDbPolyline
 90
       22
 70
   128
 43
0.0
 10
155.9121368164
 20
119.5191026169
 10
156.2883119741
 20
119.9537145408
 10
156.5114484811
 20
120.4732099983
 10
156.5617203424
 20
121.0314307796
 10
156.4346609348
 20
121.5787746447
 10
156.1415597508
 20
122.0666097912
 10
155.7084602946
 20
122.4515887412
 10
155.1738457465
 20
122.6995040166
 10
154.5852172831
 20
122.7883279758
 10
153.9948789114
 20
122.7101685914
 10
153.4552845815
 20
122.4719698044
 10
153.0143787796
 20
122.0948968517
 10
152.711338521
 20
121.6124540629
 10
152.573090204
 20
121.0675092849
 10
152.6119170422
 20
120.5084829095
 10
152.8243703479
 20
119.9850470262
 10
153.1915722126
 20
119.5437114189
 10
153.6808946812
 20
119.2236898902
 10
154.2488598907
 20
119.0534180465
 10
154.8450013334
 20
119.0480256888
 10
155.4163491065
 20
119.2079919825
 10
155.9121368164
 20
119.5191026169
  0
LWPOLYLINE
  5
164
330
1F
100
AcDbEntity
  8
0
  6
HIDDEN
 62
     7
370
     0
100
AcDbPolyline
 90
       21
 70
   128
 43
0.0
 10
155.8044433305
 20
119.4860071378
 10
156.1643380383
 20
119.9082226927
 10
156.3677733475
 20
120.4142805624
 10
156.3948347876
 20
120.9546432334
 10
156.2428746084
 20
121.4764176371
 10
155.9267660314
 20
121.9285272496
 10
155.4774531806
 20
122.2667184162
 10
154.9389177645
 20
122.4578844818
 10
154.3638754347
 20
122.4833142447
 10
153.8086153278
 20
122.3405182796
 10
153.3274894291
 20
122.0434729444
 10
152.9675947213
 20
121.6212578552
 10
152.7641603434
 20
121.1151995199
 10
152.7370979721
 20
120.5748368489
 10
152.8890590826
 20
120.0530624452
 10
153.2051667282
 20
119.6009528326
 10
153.6544795791
 20
119.2627621318
 10
154.1930149952
 20
119.0715956005
 10
154.7680573249
 20
119.0461663033
 10
155.3233174318
 20
119.1889622683
 10
155.8044433305
 20
119.4860071378
  0
LWPOLYLINE
  5
165
330
1F
100
AcDbEntity
  8
0
  6
HIDDEN
 62
     7
370
     0
100
AcDbPolyline
 90
       22
 70
   128
 43
0.0
 10
155.9121368164
 20
119.7114887151
 10
156.2883119741
 20
120.1461006391
 10
156.5114484811
 20
120.6655960965
 10
156.5617203424
 20
121.2238168779
 10
156.4346609348
 20
121.7711616742
 10
156.1415597508
 20
122.2589958894
 10
155.7084602946
 20
122.6439748394
 10
155.1738457465
 20
122.8918901148
 10
154.5852172831
 20
122.980714074
 10
153.9948789114
 20
122.9025546896
 10
153.4552845815
 20
122.6643559026
 10
153.0143787796
 20
122.2872829499
 10
152.711338521
 20
121.8048401612
 10
152.573090204
 20
121.2598963144
 10
152.6119170422
 20
120.700869939
 10
152.8243703479
 20
120.1774340558
 10
153.1915722126
 20
119.7360975171
 10
153.6808946812
 20
119.4160759884
 10
154.2488598907
 20
119.2458046104
 10
154.8450013334
 20
119.2404122526
 10
155.4163491065
 20
119.4003780807
 10
155.9121368164
 20
119.7114887151
  0
LWPOLYLINE
  5
166
330
1F
100
AcDbEntity
  8
0
  6
HIDDEN
 62
     7
370
     0
100
AcDbPolyline
 90
       21
 70
   128
 43
0.0
 10
155.8044433305
 20
119.6783932361
 10
156.1643380383
 20
120.1006092566
 10
156.3677733475
 20
120.6066666606
 10
156.3948347876
 20
121.1470302629
 10
156.2428746084
 20
121.6688037353
 10
155.9267660314
 20
122.1209142792
 10
155.4774531806
 20
122.4591045144
 10
154.9389177645
 20
122.65027058
 10
154.3638754347
 20
122.6757003429
 10
153.8086153278
 20
122.5329043778
 10
153.3274894291
 20
122.235859974
 10
152.9675947213
 20
121.8136439535
 10
152.7641603434
 20
121.3075865495
 10
152.7370979721
 20
120.7672229471
 10
152.8890590826
 20
120.2454494747
 10
153.2051667282
 20
119.7933389309
 10
153.6544795791
 20
119.4551486957
 10
154.1930149952
 20
119.2639821644
 10
154.7680573249
 20
119.2385524015
 10
155.3233174318
 20
119.3813488322
 10
155.8044433305
 20
119.6783932361
  0
LWPOLYLINE
  5
167
330
1F
100
AcDbEntity
  8
0
  6
HIDDEN
 62
     7
370
     0
100
AcDbPolyline
 90
       22
 70
   128
 43
0.0
 10
155.9121368164
 20
119.9038752789
 10
156.2883119741
 20
120.3384867373
 10
156.5114484811
 20
120.857983126
 10
156.5617203424
 20
121.4162029761
 10
156.4346609348
 20
121.9635477724
 10
156.1415597508
 20
122.4513819876
 10
155.7084602946
 20
122.8363609376
 10
155.1738457465
 20
123.084276213
 10
154.5852172831
 20
123.1731011036
 10
153.9948789114
 20
123.0949407878
 10
153.4552845815
 20
122.8567420008
 10
153.0143787796
 20
122.4796690481
 10
152.711338521
 20
121.9972271907
 10
152.573090204
 20
121.4522824126
 10
152.6119170422
 20
120.8932560372
 10
152.8243703479
 20
120.369820154
 10
153.1915722126
 20
119.928484081
 10
153.6808946812
 20
119.6084625522
 10
154.2488598907
 20
119.4381907086
 10
154.8450013334
 20
119.4327983509
 10
155.4163491065
 20
119.5927646446
 10
155.9121368164
 20
119.9038752789
  0
LWPOLYLINE
  5
168
330
1F
100
AcDbEntity
  8
0
  6
HIDDEN
 62
     7
370
     0
100
AcDbPolyline
 90
       21
 70
   128
 43
0.0
 10
155.8044433305
 20
119.8707797999
 10
156.1643380383
 20
120.2929953548
 10
156.3677733475
 20
120.7990527588
 10
156.3948347876
 20
121.3394163611
 10
156.2428746084
 20
121.8611898335
 10
155.9267660314
 20
122.3133003774
 10
155.4774531806
 20
122.6514906126
 10
154.9389177645
 20
122.8426576095
 10
154.3638754347
 20
122.8680864411
 10
153.8086153278
 20
122.725290476
 10
153.3274894291
 20
122.4282460722
 10
152.9675947213
 20
122.0060300517
 10
152.7641603434
 20
121.4999726477
 10
152.7370979721
 20
120.9596090453
 10
152.8890590826
 20
120.4378355729
 10
153.2051667282
 20
119.9857250291
 10
153.6544795791
 20
119.6475347939
 10
154.1930149952
 20
119.4563682626
 10
154.7680573249
 20
119.4309389653
 10
155.3233174318
 20
119.5737349304
 10
155.8044433305
 20
119.8707797999
  0
LWPOLYLINE
  5
169
330
1F
100
AcDbEntity
  8
0
  6
HIDDEN
 62
     7
370
     0
100
AcDbPolyline
 90
       22
 70
   128
 43
0.0
 10
155.9121368164
 20
120.0406833055
 10
156.2883119741
 20
120.4752952295
 10
156.5114484811
 20
120.9947906869
 10
156.5617203424
 20
121.5530114683
 10
156.4346609348
 20
122.1003553333
 10
156.1415597508
 20
122.5881904798
 10
155.7084602946
 20
122.9731694298
 10
155.1738457465
 20
123.2210847052
 10
154.5852172831
 20
123.3099086645
 10
153.9948789114
 20
123.23174928
 10
153.4552845815
 20
122.9935504931
 10
153.0143787796
 20
122.6164775404
 10
152.711338521
 20
122.1340347516
 10
152.573090204
 20
121.5890899735
 10
152.6119170422
 20
121.0300635981
 10
152.8243703479
 20
120.5066277149
 10
153.1915722126
 20
120.0652916419
 10
153.6808946812
 20
119.7452705788
 10
154.2488598907
 20
119.5749987351
 10
154.8450013334
 20
119.5696063774
 10
155.4163491065
 20
119.7295726712
 10
155.9121368164
 20
120.0406833055
  0
LWPOLYLINE
  5
16A
330
1F
100
AcDbEntity
  8
0
  6
HIDDEN
 62
     7
370
     0
100
AcDbPolyline
 90
       21
 70
   128
 43
0.0
 10
155.8448282713
 20
120.1443814176
 10
156.2164585749
 20
120.5803651797
 10
156.4265276948
 20
121.1029246884
 10
156.4544720286
 20
121.6609089139
 10
156.297556282
 20
122.1996967184
 10
155.9711398268
 20
122.6665500986
 10
155.5071754092
 20
123.0157681244
 10
154.951079906
 20
123.2131684634
 10
154.3572853962
 20
123.2394271034
 10
153.7839194471
 20
123.0919745254
 10
153.2871044883
 20
122.7852434355
 10
152.9154741848
 20
122.3492596733
 10
152.7054050648
 20
121.8267001646
 10
152.6774616623
 20
121.2687168705
 10
152.8343774089
 20
120.7299281346
 10
153.1607929328
 20
120.2630756857
 10
153.6247573504
 20
119.9138571943
 10
154.180853785
 20
119.7164568553
 10
154.7746473635
 20
119.6901982153
 10
155.3480142439
 20
119.8376507933
 10
155.8448282713
 20
120.1443814176
  0
LWPOLYLINE
  5
16B
330
1F
100
AcDbEntity
  8
0
  6
HIDDEN
 62
     7
370
     0
100
AcDbPolyline
 90
       22
 70
   128
 43
0.0
 10
147.7735952185
 20
118.6636362659
 10
147.4536086144
 20
118.7048687103
 10
147.1833769875
 20
118.9161494809
 10
146.9869112307
 20
119.2787054429
 10
146.8816689858
 20
119.7603216829
 10
146.8770007314
 20
120.3182053256
 10
146.9733218374
 20
120.9027843984
 10
147.1620734492
 20
121.4621181103
 10
147.4264838444
 20
121.9465064319
 10
147.7430594796
 20
122.3129101532
 10
148.0836716192
 20
122.5287711682
 10
148.418054142
 20
122.5749098199
 10
148.7164969267
 20
122.4472273576
 10
148.9524810286
 20
122.1570682215
 10
149.1050391169
 20
121.7302142146
 10
149.1606153259
 20
121.2045934486
 10
149.1142713176
 20
120.626909888
 10
148.9701249348
 20
120.0484924453
 10
148.7409846568
 20
119.520737088
 10
148.4472101265
 20
119.0905363734
 10
148.114904453
 20
118.7961159709
 10
147.7735952185
 20
118.6636362659
  0
LWPOLYLINE
  5
16C
330
1F
100
AcDbEntity
  8
0
  6
HIDDEN
 62
     7
370
     0
100
AcDbPolyline
 90
       17
 70
   128
 43
0.0
 10
148.4779493594
 20
119.2496374684
 10
148.2210640507
 20
119.3056271846
 10
148.0261210063
 20
119.5391144107
 10
147.9227982173
 20
119.9145524266
 10
147.9268257217
 20
120.3747841033
 10
148.0375907095
 20
120.8497446465
 10
148.2382297227
 20
121.2671243089
 10
148.4981977092
 20
121.5633808138
 10
148.7779171849
 20
121.693413003
 10
149.0348024936
 20
121.6374228212
 10
149.229745538
 20
121.4039365264
 10
149.333068327
 20
121.0284980449
 10
149.3290408226
 20
120.5682663682
 10
149.2182758348
 20
120.0933058249
 10
149.0176363559
 20
119.6759261626
 10
148.7576683694
 20
119.3796691919
 10
148.4779493594
 20
119.2496374684
  0
LWPOLYLINE
  5
16D
330
1F
100
AcDbEntity
  8
0
  6
HIDDEN
 62
     7
370
     0
100
AcDbPolyline
 90
       22
 70
   128
 43
0.0
 10
146.1149488287
 20
119.0608574512
 10
145.7949622245
 20
119.1020894299
 10
145.524730132
 20
119.3133702005
 10
145.3282648409
 20
119.6759261626
 10
145.2230223631
 20
120.1575428682
 10
145.2183543416
 20
120.7154265108
 10
145.3146752147
 20
121.3000055837
 10
145.5034265937
 20
121.8593392956
 10
145.7678374546
 20
122.3437276172
 10
146.0844130898
 20
122.7101304072
 10
146.4250252293
 20
122.9259923535
 10
146.7594077522
 20
122.9721310052
 10
147.0578505369
 20
122.8444485428
 10
147.2938346388
 20
122.5542894068
 10
147.4463927271
 20
122.1274353998
 10
147.5019689361
 20
121.6018146339
 10
147.4556249278
 20
121.0241310733
 10
147.3114785449
 20
120.4457136306
 10
147.0823378013
 20
119.9179582732
 10
146.7885637367
 20
119.4877575586
 10
146.4562580632
 20
119.1933371561
 10
146.1149488287
 20
119.0608574512
  0
LINE
  5
16E
330
1F
100
AcDbEntity
  8
0
  6
HIDDEN
 62
     7
370
     0
100
AcDbLine
 10
146.9075937467
 20
121.2527605208
 30
0.0
 11
147.5377540747
 21
121.8945190745
 31
0.0
  0
LINE
  5
16F
330
1F
100
AcDbEntity
  8
0
  6
HIDDEN
 62
     7
370
     0
100
AcDbLine
 10
146.7690446125
 20
120.1240292254
 30
0.0
 11
146.9075937467
 21
121.2527605208
 31
0.0
  0
LINE
  5
170
330
1F
100
AcDbEntity
  8
0
  6
HIDDEN
 62
     7
370
     0
100
AcDbLine
 10
146.9075937467
 20
121.2527605208
 30
0.0
 11
145.6788658807
 21
121.5470221328
 31
0.0
  0
LINE
  5
171
330
1F
100
AcDbEntity
  8
0
  6
HIDDEN
 62
     7
370
     0
100
AcDbLine
 10
145.5403167466
 20
120.4182908374
 30
0.0
 11
145.6788658807
 21
121.5470221328
 31
0.0
  0
LINE
  5
172
330
1F
100
AcDbEntity
  8
0
  6
HIDDEN
 62
     7
370
     0
100
AcDbLine
 10
145.6788658807
 20
121.5470221328
 30
0.0
 11
146.3090262087
 21
122.1887806865
 31
0.0
  0
LWPOLYLINE
  5
173
330
1F
100
AcDbEntity
  8
0
  6
HIDDEN
 62
     7
370
     0
100
AcDbPolyline
 90
       19
 70
   128
 43
0.0
 10
145.9772979552
 20
119.4862581293
 10
145.6800947608
 20
119.5385528232
 10
145.4420391647
 20
119.7743627677
 10
145.2918438418
 20
120.1652449059
 10
145.2476244131
 20
120.6640538263
 10
145.3147147959
 20
121.2106265562
 10
145.4850227283
 20
121.7390366333
 10
145.7380067268
 20
122.1855508598
 10
146.0431527058
 20
122.4963127139
 10
146.3636561939
 20
122.6338401871
 10
146.6608593883
 20
122.5815454933
 10
146.8989152172
 20
122.3457355487
 10
147.0491105402
 20
121.9548538762
 10
147.093329736
 20
121.4560440245
 10
147.0262391204
 20
120.9094722259
 10
146.8559314208
 20
120.3810621488
 10
146.6029474223
 20
119.9345479223
 10
146.2978014434
 20
119.6237856025
 10
145.9772979552
 20
119.4862581293
  0
LINE
  5
174
330
1F
100
AcDbEntity
  8
0
  6
HIDDEN
 62
     7
370
     0
100
AcDbLine
 10
145.5403167466
 20
120.4182908374
 30
0.0
 11
146.0319279404
 21
119.9313180956
 31
0.0
  0
LINE
  5
175
330
1F
100
AcDbEntity
  8
0
  6
HIDDEN
 62
     7
370
     0
100
AcDbLine
 10
146.7690446125
 20
120.1240292254
 30
0.0
 11
145.5403167466
 21
120.4182908374
 31
0.0
  0
LINE
  5
176
330
1F
100
AcDbEntity
  8
0
  6
HIDDEN
 62
     7
370
     0
100
AcDbLine
 10
146.7690446125
 20
120.1240292254
 30
0.0
 11
147.2606562721
 21
119.6370560179
 31
0.0
  0
LINE
  5
177
330
1F
100
AcDbEntity
  8
0
  6
HIDDEN
 62
     7
370
     0
100
AcDbLine
 10
148.0293657342
 20
121.4075454014
 30
0.0
 11
146.8006374026
 21
121.7018079447
 31
0.0
  0
LINE
  5
178
330
1F
100
AcDbEntity
  8
0
  6
HIDDEN
 62
     7
370
     0
100
AcDbLine
 10
146.8006374026
 20
121.7018079447
 30
0.0
 11
146.3090262087
 21
122.1887806865
 31
0.0
  0
LINE
  5
179
330
1F
100
AcDbEntity
  8
0
  6
HIDDEN
 62
     7
370
     0
100
AcDbLine
 10
148.0293657342
 20
121.4075454014
 30
0.0
 11
147.5377540747
 21
121.8945190745
 31
0.0
  0
LINE
  5
17A
330
1F
100
AcDbEntity
  8
0
  6
HIDDEN
 62
     7
370
     0
100
AcDbLine
 10
147.5377540747
 20
121.8945190745
 30
0.0
 11
146.3090262087
 21
122.1887806865
 31
0.0
  0
LINE
  5
17B
330
1F
100
AcDbEntity
  8
0
  6
HIDDEN
 62
     7
370
     0
100
AcDbLine
 10
147.8908166001
 20
120.2788141059
 30
0.0
 11
146.6620887341
 21
120.5730766493
 31
0.0
  0
LINE
  5
17C
330
1F
100
AcDbEntity
  8
0
  6
HIDDEN
 62
     7
370
     0
100
AcDbLine
 10
147.2606562721
 20
119.6370560179
 30
0.0
 11
146.0319279404
 21
119.9313180956
 31
0.0
  0
LINE
  5
17D
330
1F
100
AcDbEntity
  8
0
  6
HIDDEN
 62
     7
370
     0
100
AcDbLine
 10
146.6620887341
 20
120.5730766493
 30
0.0
 11
146.0319279404
 21
119.9313180956
 31
0.0
  0
LINE
  5
17E
330
1F
100
AcDbEntity
  8
0
  6
HIDDEN
 62
     7
370
     0
100
AcDbLine
 10
147.8908166001
 20
120.2788141059
 30
0.0
 11
147.2606562721
 21
119.6370560179
 31
0.0
  0
LINE
  5
17F
330
1F
100
AcDbEntity
  8
0
  6
HIDDEN
 62
     7
370
     0
100
AcDbLine
 10
146.6620887341
 20
120.5730766493
 30
0.0
 11
146.8006374026
 21
121.7018079447
 31
0.0
  0
LINE
  5
180
330
1F
100
AcDbEntity
  8
0
  6
HIDDEN
 62
     7
370
     0
100
AcDbLine
 10
147.8908166001
 20
120.2788141059
 30
0.0
 11
148.0293657342
 21
121.4075454014
 31
0.0
  0
LWPOLYLINE
  5
181
330
1F
100
AcDbEntity
  8
0
  6
HIDDEN
 62
     7
370
     0
100
AcDbPolyline
 90
       19
 70
   128
 43
0.0
 10
145.9772979552
 20
104.8374713833
 10
145.6800947608
 20
104.7851766894
 10
145.4420391647
 20
104.5493667449
 10
145.2918438418
 20
104.1584846067
 10
145.2476244131
 20
103.6596756863
 10
145.3147147959
 20
103.1131029564
 10
145.4850227283
 20
102.5846928793
 10
145.7380067268
 20
102.1381786528
 10
146.0431527058
 20
101.8274167987
 10
146.3636561939
 20
101.6898893254
 10
146.6608593883
 20
101.7421840193
 10
146.8989152172
 20
101.9779939639
 10
147.0491105402
 20
102.3688756364
 10
147.093329736
 20
102.8676854881
 10
147.0262391204
 20
103.4142572867
 10
146.8559314208
 20
103.9426673638
 10
146.6029474223
 20
104.3891815903
 10
146.2978014434
 20
104.69994391
 10
145.9772979552
 20
104.8374713833
  0
LWPOLYLINE
  5
182
330
1F
100
AcDbEntity
  8
0
  6
HIDDEN
 62
     7
370
     0
100
AcDbPolyline
 90
       22
 70
   128
 43
0.0
 10
146.1149488287
 20
105.2628720614
 10
145.7949622245
 20
105.2216400827
 10
145.524730132
 20
105.0103593121
 10
145.3282648409
 20
104.64780335
 10
145.2230223631
 20
104.1661866444
 10
145.2183543416
 20
103.6083030018
 10
145.3146752147
 20
103.0237239289
 10
145.5034265937
 20
102.464390217
 10
145.7678374546
 20
101.9800018954
 10
146.0844130898
 20
101.6135991054
 10
146.4250252293
 20
101.3977371591
 10
146.7594077522
 20
101.3515985074
 10
147.0578505369
 20
101.4792809697
 10
147.2938346388
 20
101.7694401058
 10
147.4463927271
 20
102.1962941128
 10
147.5019689361
 20
102.7219148787
 10
147.4556249278
 20
103.2995984393
 10
147.3114785449
 20
103.878015882
 10
147.0823378013
 20
104.4057712393
 10
146.7885637367
 20
104.835971954
 10
146.4562580632
 20
105.1303923565
 10
146.1149488287
 20
105.2628720614
  0
LWPOLYLINE
  5
183
330
1F
100
AcDbEntity
  8
0
  6
HIDDEN
 62
     7
370
     0
100
AcDbPolyline
 90
       22
 70
   128
 43
0.0
 10
147.7735952185
 20
105.6600932466
 10
147.4536086144
 20
105.6188608023
 10
147.1833769875
 20
105.4075800317
 10
146.9869112307
 20
105.0450240696
 10
146.8816689858
 20
104.5634078297
 10
146.8770007314
 20
104.005524187
 10
146.9733218374
 20
103.4209451141
 10
147.1620734492
 20
102.8616114023
 10
147.4264838444
 20
102.3772230806
 10
147.7430594796
 20
102.0108193594
 10
148.0836716192
 20
101.7949583443
 10
148.418054142
 20
101.7488196927
 10
148.7164969267
 20
101.876502155
 10
148.9524810286
 20
102.1666612911
 10
149.1050391169
 20
102.593515298
 10
149.1606153259
 20
103.119136064
 10
149.1142713176
 20
103.6968196246
 10
148.9701249348
 20
104.2752370673
 10
148.7409846568
 20
104.8029924246
 10
148.4472101265
 20
105.2331931392
 10
148.114904453
 20
105.5276135417
 10
147.7735952185
 20
105.6600932466
  0
LINE
  5
184
330
1F
100
AcDbEntity
  8
0
  6
HIDDEN
 62
     7
370
     0
100
AcDbLine
 10
145.6788658807
 20
102.7767073798
 30
0.0
 11
146.3090262087
 21
102.1349488261
 31
0.0
  0
LINE
  5
185
330
1F
100
AcDbEntity
  8
0
  6
HIDDEN
 62
     7
370
     0
100
AcDbLine
 10
146.8006374026
 20
102.6219215679
 30
0.0
 11
146.3090262087
 21
102.1349488261
 31
0.0
  0
LINE
  5
186
330
1F
100
AcDbEntity
  8
0
  6
HIDDEN
 62
     7
370
     0
100
AcDbLine
 10
146.6620887341
 20
103.7506528633
 30
0.0
 11
146.8006374026
 21
102.6219215679
 31
0.0
  0
LINE
  5
187
330
1F
100
AcDbEntity
  8
0
  6
HIDDEN
 62
     7
370
     0
100
AcDbLine
 10
146.6620887341
 20
103.7506528633
 30
0.0
 11
146.0319279404
 21
104.392411417
 31
0.0
  0
LINE
  5
188
330
1F
100
AcDbEntity
  8
0
  6
HIDDEN
 62
     7
370
     0
100
AcDbLine
 10
145.5403167466
 20
103.9054386752
 30
0.0
 11
146.0319279404
 21
104.392411417
 31
0.0
  0
LINE
  5
189
330
1F
100
AcDbEntity
  8
0
  6
HIDDEN
 62
     7
370
     0
100
AcDbLine
 10
145.5403167466
 20
103.9054386752
 30
0.0
 11
145.6788658807
 21
102.7767073798
 31
0.0
  0
LINE
  5
18A
330
1F
100
AcDbEntity
  8
0
  6
HIDDEN
 62
     7
370
     0
100
AcDbLine
 10
147.8908166001
 20
104.0449154067
 30
0.0
 11
146.6620887341
 21
103.7506528633
 31
0.0
  0
LWPOLYLINE
  5
18B
330
1F
100
AcDbEntity
  8
0
  6
HIDDEN
 62
     7
370
     0
100
AcDbPolyline
 90
       17
 70
   128
 43
0.0
 10
148.4779493594
 20
105.0740920442
 10
148.2210640507
 20
105.018102328
 10
148.0261210063
 20
104.7846151019
 10
147.9227982173
 20
104.409177086
 10
147.9268257217
 20
103.9489454093
 10
148.0375907095
 20
103.4739848661
 10
148.2382297227
 20
103.0566052037
 10
148.4981977092
 20
102.7603486987
 10
148.7779171849
 20
102.6303165096
 10
149.0348024936
 20
102.6863066914
 10
149.229745538
 20
102.9197929862
 10
149.333068327
 20
103.2952314677
 10
149.3290408226
 20
103.7554631444
 10
149.2182758348
 20
104.2304236876
 10
149.0176363559
 20
104.64780335
 10
148.7576683694
 20
104.9440603207
 10
148.4779493594
 20
105.0740920442
  0
LINE
  5
18C
330
1F
100
AcDbEntity
  8
0
  6
HIDDEN
 62
     7
370
     0
100
AcDbLine
 10
148.0293657342
 20
102.9161841112
 30
0.0
 11
146.8006374026
 21
102.6219215679
 31
0.0
  0
LINE
  5
18D
330
1F
100
AcDbEntity
  8
0
  6
HIDDEN
 62
     7
370
     0
100
AcDbLine
 10
146.9075937467
 20
103.0709689918
 30
0.0
 11
147.5377540747
 21
102.4292104381
 31
0.0
  0
LINE
  5
18E
330
1F
100
AcDbEntity
  8
0
  6
HIDDEN
 62
     7
370
     0
100
AcDbLine
 10
146.7690446125
 20
104.1997002872
 30
0.0
 11
146.9075937467
 21
103.0709689918
 31
0.0
  0
LINE
  5
18F
330
1F
100
AcDbEntity
  8
0
  6
HIDDEN
 62
     7
370
     0
100
AcDbLine
 10
146.7690446125
 20
104.1997002872
 30
0.0
 11
147.2606562721
 21
104.6866734947
 31
0.0
  0
LINE
  5
190
330
1F
100
AcDbEntity
  8
0
  6
HIDDEN
 62
     7
370
     0
100
AcDbLine
 10
148.0293657342
 20
102.9161841112
 30
0.0
 11
147.5377540747
 21
102.4292104381
 31
0.0
  0
LINE
  5
191
330
1F
100
AcDbEntity
  8
0
  6
HIDDEN
 62
     7
370
     0
100
AcDbLine
 10
147.8908166001
 20
104.0449154067
 30
0.0
 11
148.0293657342
 21
102.9161841112
 31
0.0
  0
LINE
  5
192
330
1F
100
AcDbEntity
  8
0
  6
HIDDEN
 62
     7
370
     0
100
AcDbLine
 10
147.8908166001
 20
104.0449154067
 30
0.0
 11
147.2606562721
 21
104.6866734947
 31
0.0
  0
LINE
  5
193
330
1F
100
AcDbEntity
  8
0
  6
HIDDEN
 62
     7
370
     0
100
AcDbLine
 10
146.7690446125
 20
104.1997002872
 30
0.0
 11
145.5403167466
 21
103.9054386752
 31
0.0
  0
LINE
  5
194
330
1F
100
AcDbEntity
  8
0
  6
HIDDEN
 62
     7
370
     0
100
AcDbLine
 10
147.2606562721
 20
104.6866734947
 30
0.0
 11
146.0319279404
 21
104.392411417
 31
0.0
  0
LINE
  5
195
330
1F
100
AcDbEntity
  8
0
  6
HIDDEN
 62
     7
370
     0
100
AcDbLine
 10
146.9075937467
 20
103.0709689918
 30
0.0
 11
145.6788658807
 21
102.7767073798
 31
0.0
  0
LINE
  5
196
330
1F
100
AcDbEntity
  8
0
  6
HIDDEN
 62
     7
370
     0
100
AcDbLine
 10
147.5377540747
 20
102.4292104381
 30
0.0
 11
146.3090262087
 21
102.1349488261
 31
0.0
  0
LINE
  5
197
330
1F
100
AcDbEntity
  8
0
  6
HIDDEN
 62
     7
370
     0
100
AcDbLine
 10
156.565966242
 20
101.3030216532
 30
0.0
 11
156.565966242
 21
104.1243916812
 31
0.0
  0
LINE
  5
198
330
1F
100
AcDbEntity
  8
0
  6
HIDDEN
 62
     7
370
     0
100
AcDbLine
 10
152.5659665177
 20
104.1074369537
 30
0.0
 11
152.5659665177
 21
102.5859808984
 31
0.0
  0
LINE
  5
199
330
1F
100
AcDbEntity
  8
0
  6
HIDDEN
 62
     7
370
     0
100
AcDbLine
 10
144.7659664964
 20
100.7679395812
 30
0.0
 11
146.6595657812
 21
101.2214284825
 31
0.0
  0
LINE
  5
19A
330
1F
100
AcDbEntity
  8
0
  6
HIDDEN
 62
     7
370
     0
100
AcDbLine
 10
145.6813883679
 20
105.3059317606
 30
0.0
 11
144.7659664964
 21
105.0867021518
 31
0.0
  0
LINE
  5
19B
330
1F
100
AcDbEntity
  8
0
  6
HIDDEN
 62
     7
370
     0
100
AcDbLine
 10
146.6889271224
 20
101.6911847952
 30
0.0
 11
153.8959873551
 21
103.4171676698
 31
0.0
  0
LINE
  5
19C
330
1F
100
AcDbEntity
  8
0
  6
HIDDEN
 62
     7
370
     0
100
AcDbLine
 10
153.8959873551
 20
106.8104815173
 30
0.0
 11
145.9203592213
 21
104.9004371713
 31
0.0
  0
LINE
  5
19D
330
1F
100
AcDbEntity
  8
0
  6
HIDDEN
 62
     7
370
     0
100
AcDbLine
 10
156.2159668365
 20
104.1679608139
 30
0.0
 11
156.2159668365
 21
111.0012622053
 31
0.0
  0
LINE
  5
19E
330
1F
100
AcDbEntity
  8
0
  6
HIDDEN
 62
     7
370
     0
100
AcDbLine
 10
152.9159668544
 20
104.190200797
 30
0.0
 11
152.9159668544
 21
104.1679608139
 31
0.0
  0
LINE
  5
19F
330
1F
100
AcDbEntity
  8
0
  6
HIDDEN
 62
     7
370
     0
100
AcDbLine
 10
152.9159668544
 20
111.002549526
 30
0.0
 11
152.9159668544
 21
105.5680478426
 31
0.0
  0
ARC
  5
1A0
330
1F
100
AcDbEntity
  8
0
  6
HIDDEN
 62
     7
370
     0
100
AcDbCircle
 10
225.5659665773
 20
122.1618647563
 30
0.0
 40
1.0
100
AcDbArc
 50
270.0
 51
0.0
  0
ARC
  5
1A1
330
1F
100
AcDbEntity
  8
0
  6
HIDDEN
 62
     7
370
     0
100
AcDbCircle
 10
225.5659665773
 20
102.1618647563
 30
0.0
 40
1.0
100
AcDbArc
 50
0.0
 51
90.0
  0
LINE
  5
1A2
330
1F
100
AcDbEntity
  8
0
  6
HIDDEN
 62
     7
370
     0
100
AcDbLine
 10
205.4606482098
 20
121.6618644508
 30
0.0
 11
204.8659652183
 21
121.6618644508
 31
0.0
  0
LINE
  5
1A3
330
1F
100
AcDbEntity
  8
0
  6
HIDDEN
 62
     7
370
     0
100
AcDbLine
 10
204.8659652183
 20
102.6618650618
 30
0.0
 11
205.4606482098
 21
102.6618650618
 31
0.0
  0
ARC
  5
1A4
330
1F
100
AcDbEntity
  8
0
  6
HIDDEN
 62
     7
370
     0
100
AcDbCircle
 10
205.4606445792
 20
120.8618647563
 30
0.0
 40
0.7999999999999982
100
AcDbArc
 50
75.0
 51
90.0
  0
ARC
  5
1A5
330
1F
100
AcDbEntity
  8
0
  6
HIDDEN
 62
     7
370
     0
100
AcDbCircle
 10
205.4606445792
 20
103.4618647563
 30
0.0
 40
0.7999999999999982
100
AcDbArc
 50
270.0
 51
285.0
  0
ARC
  5
1A6
330
1F
100
AcDbEntity
  8
0
  6
HIDDEN
 62
     7
370
     0
100
AcDbCircle
 10
204.8659665773
 20
120.8618647563
 30
0.0
 40
0.799999999999983
100
AcDbArc
 50
90.0
 51
180.0
  0
ARC
  5
1A7
330
1F
100
AcDbEntity
  8
0
  6
HIDDEN
 62
     7
370
     0
100
AcDbCircle
 10
204.8659665773
 20
103.4618647563
 30
0.0
 40
0.7999999999999972
100
AcDbArc
 50
180.0
 51
270.0
  0
LINE
  5
1A8
330
1F
100
AcDbEntity
  8
0
  6
HIDDEN
 62
     7
370
     0
100
AcDbLine
 10
205.6676998446
 20
102.6891239422
 30
0.0
 11
207.4319898793
 21
103.1618651437
 31
0.0
  0
LINE
  5
1A9
330
1F
100
AcDbEntity
  8
0
  6
HIDDEN
 62
     7
370
     0
100
AcDbLine
 10
207.4319898793
 20
121.1618643689
 30
0.0
 11
205.6676998446
 21
121.6346055704
 31
0.0
  0
ARC
  5
1AA
330
1F
100
AcDbEntity
  8
0
  6
HIDDEN
 62
     7
370
     0
100
AcDbCircle
 10
74.1159665773
 20
102.8618647563
 30
0.0
 40
0.7999999999999972
100
AcDbArc
 50
90.0
 51
180.0
  0
ARC
  5
1AB
330
1F
100
AcDbEntity
  8
0
  6
HIDDEN
 62
     7
370
     0
100
AcDbCircle
 10
74.1159665773
 20
121.4618647563
 30
0.0
 40
0.7999999999999972
100
AcDbArc
 50
180.0
 51
270.0
  0
LINE
  5
1AC
330
1F
100
AcDbEntity
  8
0
  6
HIDDEN
 62
     7
370
     0
100
AcDbLine
 10
211.0563173601
 20
121.1618643689
 30
0.0
 11
207.4319898793
 21
121.1618643689
 31
0.0
  0
LINE
  5
1AD
330
1F
100
AcDbEntity
  8
0
  6
HIDDEN
 62
     7
370
     0
100
AcDbLine
 10
225.5659654448
 20
121.1618643689
 30
0.0
 11
217.9802015135
 21
121.1618643689
 31
0.0
  0
LINE
  5
1AE
330
1F
100
AcDbEntity
  8
0
  6
HIDDEN
 62
     7
370
     0
100
AcDbLine
 10
207.4319898793
 20
103.1618651437
 30
0.0
 11
225.5659654448
 21
103.1618651437
 31
0.0
  0
LINE
  5
1AF
330
1F
100
AcDbEntity
  8
0
  6
HIDDEN
 62
     7
370
     0
100
AcDbLine
 10
81.2083400497
 20
103.4368651422
 30
0.0
 11
82.0850275168
 21
103.4368651422
 31
0.0
  0
LINE
  5
1B0
330
1F
100
AcDbEntity
  8
0
  6
HIDDEN
 62
     7
370
     0
100
AcDbLine
 10
82.0850275168
 20
120.8868643704
 30
0.0
 11
81.2083400497
 21
120.8868643704
 31
0.0
  0
ARC
  5
1B1
330
1F
100
AcDbEntity
  8
0
  6
HIDDEN
 62
     7
370
     0
100
AcDbCircle
 10
82.0850264696
 20
103.8368647563
 30
0.0
 40
0.4000000000000057
100
AcDbArc
 50
270.0
 51
330.0
  0
ARC
  5
1B2
330
1F
100
AcDbEntity
  8
0
  6
HIDDEN
 62
     7
370
     0
100
AcDbCircle
 10
82.0850264696
 20
120.4868647563
 30
0.0
 40
0.4000000000000199
100
AcDbArc
 50
30.0
 51
90.0
  0
ARC
  5
1B3
330
1F
100
AcDbEntity
  8
0
  6
HIDDEN
 62
     7
370
     0
100
AcDbCircle
 10
81.208339008
 20
103.8368647563
 30
0.0
 40
0.4000000000000023
100
AcDbArc
 50
255.0
 51
270.0
  0
ARC
  5
1B4
330
1F
100
AcDbEntity
  8
0
  6
HIDDEN
 62
     7
370
     0
100
AcDbCircle
 10
81.208339008
 20
120.4868647563
 30
0.0
 40
0.4000000000000057
100
AcDbArc
 50
90.0
 51
105.0
  0
LINE
  5
1B5
330
1F
100
AcDbEntity
  8
0
  6
HIDDEN
 62
     7
370
     0
100
AcDbLine
 10
81.104810507
 20
120.8732353958
 30
0.0
 11
80.3159653852
 21
120.6618652182
 31
0.0
  0
LINE
  5
1B6
330
1F
100
AcDbEntity
  8
0
  6
HIDDEN
 62
     7
370
     0
100
AcDbLine
 10
80.3159653852
 20
103.6618642944
 30
0.0
 11
81.104810507
 21
103.4504941168
 31
0.0
  0
LINE
  5
1B7
330
1F
100
AcDbEntity
  8
0
  6
HIDDEN
 62
     7
370
     0
100
AcDbLine
 10
82.4314348111
 20
103.6368648025
 30
0.0
 11
83.3118959973
 21
105.1618645402
 31
0.0
  0
LINE
  5
1B8
330
1F
100
AcDbEntity
  8
0
  6
HIDDEN
 62
     7
370
     0
100
AcDbLine
 10
83.3118959973
 20
119.1618649724
 30
0.0
 11
82.4314348111
 21
120.6868647101
 31
0.0
  0
LINE
  5
1B9
330
1F
100
AcDbEntity
  8
0
  6
HIDDEN
 62
     7
370
     0
100
AcDbLine
 10
74.1159647414
 20
103.6618642944
 30
0.0
 11
80.3159653852
 21
103.6618642944
 31
0.0
  0
LINE
  5
1BA
330
1F
100
AcDbEntity
  8
0
  6
HIDDEN
 62
     7
370
     0
100
AcDbLine
 10
80.3159653852
 20
120.6618652182
 30
0.0
 11
74.1159647414
 21
120.6618652182
 31
0.0
  0
LINE
  5
1BB
330
1F
100
AcDbEntity
  8
0
  6
HIDDEN
 62
     7
370
     0
100
AcDbLine
 10
83.3118959973
 20
105.1618645402
 30
0.0
 11
116.3159656981
 21
105.1618645402
 31
0.0
  0
LINE
  5
1BC
330
1F
100
AcDbEntity
  8
0
  6
HIDDEN
 62
     7
370
     0
100
AcDbLine
 10
116.3159656981
 20
119.1618649724
 30
0.0
 11
83.3118959973
 21
119.1618649724
 31
0.0
  0
LINE
  5
1BD
330
1F
100
AcDbEntity
  8
0
  6
HIDDEN
 62
     7
370
     0
100
AcDbLine
 10
116.3159656981
 20
105.1618645402
 30
0.0
 11
118.4790648231
 21
108.7618647112
 31
0.0
  0
LINE
  5
1BE
330
1F
100
AcDbEntity
  8
0
  6
HIDDEN
 62
     7
370
     0
100
AcDbLine
 10
118.4790648231
 20
115.5618648014
 30
0.0
 11
116.3159656981
 21
119.1618649724
 31
0.0
  0
LINE
  5
1BF
330
1F
100
AcDbEntity
  8
0
  6
HIDDEN
 62
     7
370
     0
100
AcDbLine
 10
209.5159694264
 20
128.1618655163
 30
0.0
 11
211.0159650156
 21
126.6618643391
 31
0.0
  0
LINE
  5
1C0
330
1F
100
AcDbEntity
  8
0
  6
HIDDEN
 62
     7
370
     0
100
AcDbLine
 10
218.0159643004
 20
126.6618643391
 30
0.0
 11
219.5159673402
 21
128.1618655163
 31
0.0
  0
LINE
  5
1C1
330
1F
100
AcDbEntity
  8
0
  6
HIDDEN
 62
     7
370
     0
100
AcDbLine
 10
211.0159650156
 20
126.6618643391
 30
0.0
 11
211.0159650156
 21
121.1463345649
 31
0.0
  0
LINE
  5
1C2
330
1F
100
AcDbEntity
  8
0
  6
HIDDEN
 62
     7
370
     0
100
AcDbLine
 10
218.0159643004
 20
121.1481916221
 30
0.0
 11
218.0159643004
 21
126.6618643391
 31
0.0
  0
LINE
  5
1C3
330
1F
100
AcDbEntity
  8
0
  6
HIDDEN
 62
     7
370
     0
100
AcDbLine
 10
204.0659665773
 20
115.5618648014
 30
0.0
 11
118.4790648231
 21
115.5618648014
 31
0.0
  0
LINE
  5
1C4
330
1F
100
AcDbEntity
  8
0
  6
HIDDEN
 62
     7
370
     0
100
AcDbLine
 10
118.4790648231
 20
108.7618647112
 30
0.0
 11
204.0659665773
 21
108.7618647112
 31
0.0
  0
LINE
  5
1C5
330
1F
100
AcDbEntity
  8
0
  6
HIDDEN
 62
     7
370
     0
100
AcDbLine
 10
156.2159668365
 20
113.3211799866
 30
0.0
 11
156.2159668365
 21
120.1557686987
 31
0.0
  0
LINE
  5
1C6
330
1F
100
AcDbEntity
  8
0
  6
HIDDEN
 62
     7
370
     0
100
AcDbLine
 10
152.9159668544
 20
118.75568167
 30
0.0
 11
152.9159668544
 21
113.3224673072
 31
0.0
  0
LINE
  5
1C7
330
1F
100
AcDbEntity
  8
0
  6
HIDDEN
 62
     7
370
     0
100
AcDbLine
 10
152.9159668544
 20
120.1557686987
 30
0.0
 11
152.9159668544
 21
120.1335287156
 31
0.0
  0
LINE
  5
1C8
330
1F
100
AcDbEntity
  8
0
  6
HIDDEN
 62
     7
370
     0
100
AcDbLine
 10
145.9203592213
 20
119.4232923413
 30
0.0
 11
153.8959873551
 21
117.5132479953
 31
0.0
  0
LINE
  5
1C9
330
1F
100
AcDbEntity
  8
0
  6
HIDDEN
 62
     7
370
     0
100
AcDbLine
 10
153.8959873551
 20
120.9065618428
 30
0.0
 11
146.6889271224
 21
122.6325447174
 31
0.0
  0
LINE
  5
1CA
330
1F
100
AcDbEntity
  8
0
  6
HIDDEN
 62
     7
370
     0
100
AcDbLine
 10
156.565966242
 20
120.1993378314
 30
0.0
 11
156.565966242
 21
123.0207078593
 31
0.0
  0
LINE
  5
1CB
330
1F
100
AcDbEntity
  8
0
  6
HIDDEN
 62
     7
370
     0
100
AcDbLine
 10
152.5659665177
 20
121.7377486142
 30
0.0
 11
152.5659665177
 21
120.2162925589
 31
0.0
  0
LINE
  5
1CC
330
1F
100
AcDbEntity
  8
0
  6
HIDDEN
 62
     7
370
     0
100
AcDbLine
 10
144.7659664964
 20
119.2370273607
 30
0.0
 11
145.6813883679
 21
119.017797752
 31
0.0
  0
LINE
  5
1CD
330
1F
100
AcDbEntity
  8
0
  6
HIDDEN
 62
     7
370
     0
100
AcDbLine
 10
146.6595657812
 20
123.1023010301
 30
0.0
 11
144.7659664964
 21
123.5557899314
 31
0.0
  0
LINE
  5
1CE
330
1F
100
AcDbEntity
  8
0
  6
HIDDEN
 62
     7
370
     0
100
AcDbLine
 10
218.5159653136
 20
127.4618648427
 30
0.0
 11
218.1071519563
 21
127.8706763374
 31
0.0
  0
LINE
  5
1CF
330
1F
100
AcDbEntity
  8
0
  6
HIDDEN
 62
     7
370
     0
100
AcDbLine
 10
210.9251647899
 20
127.871061905
 30
0.0
 11
210.5159640023
 21
127.4618648427
 31
0.0
  0
LINE
  5
1D0
330
1F
100
AcDbEntity
  8
0
  6
HIDDEN
 62
     7
370
     0
100
AcDbLine
 10
210.5159640023
 20
127.4618648427
 30
0.0
 11
210.5159640023
 21
122.2671207475
 31
0.0
  0
LINE
  5
1D1
330
1F
100
AcDbEntity
  8
0
  6
HIDDEN
 62
     7
370
     0
100
AcDbLine
 10
218.5159653136
 20
122.2671207475
 30
0.0
 11
218.5159653136
 21
127.4618648427
 31
0.0
  0
LINE
  5
1D2
330
1F
100
AcDbEntity
  8
0
  6
HIDDEN
 62
     7
370
     0
100
AcDbLine
 10
210.5159640023
 20
122.2671207475
 30
0.0
 11
211.5563854286
 21
118.3842190045
 31
0.0
  0
LINE
  5
1D3
330
1F
100
AcDbEntity
  8
0
  6
HIDDEN
 62
     7
370
     0
100
AcDbLine
 10
217.4755438873
 20
118.3842190045
 30
0.0
 11
218.5159653136
 21
122.2671207475
 31
0.0
  0
ARC
  5
1D4
330
1F
100
AcDbEntity
  8
0
  6
HIDDEN
 62
     7
370
     0
100
AcDbCircle
 10
211.8461646737
 20
118.4618647563
 30
0.0
 40
0.3000000000000114
100
AcDbArc
 50
195.0
 51
270.0
  0
ARC
  5
1D5
330
1F
100
AcDbEntity
  8
0
  6
HIDDEN
 62
     7
370
     0
100
AcDbCircle
 10
217.1857684809
 20
118.4618647563
 30
0.0
 40
0.3000000000000114
100
AcDbArc
 50
270.0
 51
345.0
  0
LINE
  5
1D6
330
1F
100
AcDbEntity
  8
0
  6
HIDDEN
 62
     7
370
     0
100
AcDbLine
 10
212.1159687349
 20
128.1618655163
 30
0.0
 11
212.5159680555
 21
127.7618643331
 31
0.0
  0
LINE
  5
1D7
330
1F
100
AcDbEntity
  8
0
  6
HIDDEN
 62
     7
370
     0
100
AcDbLine
 10
216.5159687111
 20
127.7618643331
 30
0.0
 11
216.9159680316
 21
128.1618655163
 31
0.0
  0
LINE
  5
1D8
330
1F
100
AcDbEntity
  8
0
  6
HIDDEN
 62
     7
370
     0
100
AcDbLine
 10
212.5159680555
 20
123.1618646967
 30
0.0
 11
212.5159680555
 21
122.1618645328
 31
0.0
  0
LINE
  5
1D9
330
1F
100
AcDbEntity
  8
0
  6
HIDDEN
 62
     7
370
     0
100
AcDbLine
 10
216.5159687111
 20
122.1618645328
 30
0.0
 11
216.5159687111
 21
123.1618646967
 31
0.0
  0
LINE
  5
1DA
330
1F
100
AcDbEntity
  8
0
  6
HIDDEN
 62
     7
370
     0
100
AcDbLine
 10
212.5159680555
 20
122.1618645328
 30
0.0
 11
214.515964658
 21
121.433924182
 31
0.0
  0
LINE
  5
1DB
330
1F
100
AcDbEntity
  8
0
  6
HIDDEN
 62
     7
370
     0
100
AcDbLine
 10
214.515964658
 20
121.433924182
 30
0.0
 11
216.5159687111
 21
122.1618645328
 31
0.0
  0
LINE
  5
1DC
330
1F
100
AcDbEntity
  8
0
  6
HIDDEN
 62
     7
370
     0
100
AcDbLine
 10
152.5659665177
 20
103.0299265372
 30
0.0
 11
152.5659665177
 21
102.8931189763
 31
0.0
  0
LINE
  5
1DD
330
1F
100
AcDbEntity
  8
0
  6
HIDDEN
 62
     7
370
     0
100
AcDbLine
 10
156.565966242
 20
102.8931189763
 30
0.0
 11
156.565966242
 21
103.0299265372
 31
0.0
  0
LINE
  5
1DE
330
1F
100
AcDbEntity
  8
0
  6
HIDDEN
 62
     7
370
     0
100
AcDbLine
 10
153.0659665996
 20
103.8623948085
 30
0.0
 11
153.0659665996
 21
102.8589170861
 31
0.0
  0
LINE
  5
1DF
330
1F
100
AcDbEntity
  8
0
  6
HIDDEN
 62
     7
370
     0
100
AcDbLine
 10
156.06596616
 20
102.8589170861
 30
0.0
 11
156.06596616
 21
103.8623948085
 31
0.0
  0
LINE
  5
1E0
330
1F
100
AcDbEntity
  8
0
  6
HIDDEN
 62
     7
370
     0
100
AcDbLine
 10
152.5659665177
 20
104.1243916812
 30
0.0
 11
152.5659665177
 21
103.7994718614
 31
0.0
  0
LINE
  5
1E1
330
1F
100
AcDbEntity
  8
0
  6
HIDDEN
 62
     7
370
     0
100
AcDbLine
 10
156.565966242
 20
103.7994718614
 30
0.0
 11
156.565966242
 21
104.1243916812
 31
0.0
  0
LINE
  5
1E2
330
1F
100
AcDbEntity
  8
0
  6
HIDDEN
 62
     7
370
     0
100
AcDbLine
 10
156.565966242
 20
120.1993378314
 30
0.0
 11
156.565966242
 21
120.5242576512
 31
0.0
  0
LINE
  5
1E3
330
1F
100
AcDbEntity
  8
0
  6
HIDDEN
 62
     7
370
     0
100
AcDbLine
 10
152.5659665177
 20
120.5242576512
 30
0.0
 11
152.5659665177
 21
120.1993378314
 31
0.0
  0
LINE
  5
1E4
330
1F
100
AcDbEntity
  8
0
  6
HIDDEN
 62
     7
370
     0
100
AcDbLine
 10
156.06596616
 20
120.4613347041
 30
0.0
 11
156.06596616
 21
121.4648124265
 31
0.0
  0
LINE
  5
1E5
330
1F
100
AcDbEntity
  8
0
  6
HIDDEN
 62
     7
370
     0
100
AcDbLine
 10
153.0659665996
 20
121.4648124265
 30
0.0
 11
153.0659665996
 21
120.4613347041
 31
0.0
  0
LINE
  5
1E6
330
1F
100
AcDbEntity
  8
0
  6
HIDDEN
 62
     7
370
     0
100
AcDbLine
 10
156.565966242
 20
121.2938029754
 30
0.0
 11
156.565966242
 21
121.4306105363
 31
0.0
  0
LINE
  5
1E7
330
1F
100
AcDbEntity
  8
0
  6
HIDDEN
 62
     7
370
     0
100
AcDbLine
 10
152.5659665177
 20
121.4306105363
 30
0.0
 11
152.5659665177
 21
121.2938029754
 31
0.0
  0
CIRCLE
  5
1E8
330
1F
100
AcDbEntity
  8
0
  6
HIDDEN
 62
     7
370
     0
100
AcDbCircle
 10
154.5659665773
 20
120.8833784111
 30
0.0
 40
1.500000000000019
  0
ARC
  5
1E9
330
1F
100
AcDbEntity
  8
0
  6
HIDDEN
 62
     7
370
     0
100
AcDbCircle
 10
154.5659665773
 20
103.4403511015
 30
0.0
 40
1.499999999999988
100
AcDbArc
 50
71.1182787691
 51
191.5274417158
  0
ARC
  5
1EA
330
1F
100
AcDbEntity
  8
0
  6
HIDDEN
 62
     7
370
     0
100
AcDbCircle
 10
154.5659665773
 20
103.4403511015
 30
0.0
 40
1.500000000000024
100
AcDbArc
 50
336.6037645748
 51
71.1182787691
  0
LINE
  5
1EB
330
1F
100
AcDbEntity
  8
0
  6
HIDDEN
 62
     7
370
     0
100
AcDbLine
 10
148.3264269018
 20
118.9633321452
 30
0.0
 11
148.823469569
 21
119.4369473929
 31
0.0
  0
LINE
  5
1EC
330
1F
100
AcDbEntity
  8
0
  6
HIDDEN
 62
     7
370
     0
100
AcDbLine
 10
149.2709099958
 20
121.3052917706
 30
0.0
 11
149.042331771
 21
121.9526820319
 31
0.0
  0
LINE
  5
1ED
330
1F
100
AcDbEntity
  8
0
  6
HIDDEN
 62
     7
370
     0
100
AcDbLine
 10
145.8891240591
 20
119.0708756881
 30
0.0
 11
147.5477704489
 21
118.6736545029
 31
0.0
  0
LINE
  5
1EE
330
1F
100
AcDbEntity
  8
0
  6
HIDDEN
 62
     7
370
     0
100
AcDbLine
 10
148.4793682294
 20
122.5636575806
 30
0.0
 11
146.8207218395
 21
122.9608787658
 31
0.0
  0
LINE
  5
1EF
330
1F
100
AcDbEntity
  8
0
  6
HIDDEN
 62
     7
370
     0
100
AcDbLine
 10
146.8207218395
 20
101.3628507468
 30
0.0
 11
148.4793682294
 21
101.760071932
 31
0.0
  0
LINE
  5
1F0
330
1F
100
AcDbEntity
  8
0
  6
HIDDEN
 62
     7
370
     0
100
AcDbLine
 10
147.5477704489
 20
105.6500750097
 30
0.0
 11
145.8891240591
 21
105.2528538244
 31
0.0
  0
LINE
  5
1F1
330
1F
100
AcDbEntity
  8
0
  6
HIDDEN
 62
     7
370
     0
100
AcDbLine
 10
149.042331771
 20
102.3710474807
 30
0.0
 11
149.2709099958
 21
103.0184377419
 31
0.0
  0
LINE
  5
1F2
330
1F
100
AcDbEntity
  8
0
  6
HIDDEN
 62
     7
370
     0
100
AcDbLine
 10
148.823469569
 20
104.8867821197
 30
0.0
 11
148.3264269018
 21
105.3603973674
 31
0.0
  0
DIMENSION
  5
1F3
330
1F
100
AcDbEntity
  8
VERMASSUNG
100
AcDbDimension
  2
_D
 10
59.4595810494
 20
143.9118647563
 30
0.0
 11
59.4595810494
 21
112.1618647563
 31
0.0
 70
   160
  1
ISO 40 %%c<> 
 71
     2
 42
-1.0
  3
SLDDIMSTYLE0
100
AcDbAlignedDimension
 13
160.0159665773
 23
80.4118647563
 33
0.0
 14
160.0159665773
 24
143.9118647563
 34
0.0
 50
90.0
100
AcDbRotatedDimension
  0
DIMENSION
  5
201
330
1F
100
AcDbEntity
  8
VERMASSUNG
100
AcDbDimension
  2
_D_1
 10
236.5659665773
 20
103.1618647563
 30
0.0
 11
236.5659665773
 21
112.1618647563
 31
0.0
 70
   160
  1
%%c<>
 71
     2
 42
-1.0
  3
SLDDIMSTYLE0
100
AcDbAlignedDimension
 13
225.5659665773
 23
121.1618647563
 33
0.0
 14
225.5659665773
 24
103.1618647563
 34
0.0
 50
90.0
100
AcDbRotatedDimension
  0
DIMENSION
  5
20C
330
1F
100
AcDbEntity
  8
VERMASSUNG
100
AcDbDimension
  2
_D_2
 10
242.7659665773
 20
96.1618647563
 30
0.0
 11
242.7659665773
 21
112.1618647563
 31
0.0
 70
   160
  1
%%c<>
 71
     2
 42
-1.0
  3
SLDDIMSTYLE0
100
AcDbAlignedDimension
 13
226.2659665773
 23
128.1618647563
 33
0.0
 14
226.2659665773
 24
96.1618647563
 34
0.0
 50
90.0
100
AcDbRotatedDimension
  0
DIMENSION
  5
217
330
1F
100
AcDbEntity
  8
VERMASSUNG
100
AcDbDimension
  2
_D_3
 10
160.6159665773
 20
148.8299282425
 30
0.0
 11
193.5909665773
 21
148.8299282425
 31
0.0
 70
   160
  1
<>
 71
     2
 42
-1.0
  3
SLDDIMSTYLE0
100
AcDbAlignedDimension
 13
226.5659665773
 23
127.8618647563
 33
0.0
 14
160.6159665773
 24
142.1724158897
 34
0.0
100
AcDbRotatedDimension
  0
DIMENSION
  5
221
330
1F
100
AcDbEntity
  8
VERMASSUNG
100
AcDbDimension
  2
_D_4
 10
141.5659665773
 20
154.36214456
 30
0.0
 11
184.0659665773
 21
154.36214456
 31
0.0
 70
   160
  1
<>
 71
     2
 42
-1.0
  3
SLDDIMSTYLE0
100
AcDbAlignedDimension
 13
226.5659665773
 23
127.8618647563
 33
0.0
 14
141.5659665773
 24
134.3868647563
 34
0.0
100
AcDbRotatedDimension
  0
DIMENSION
  5
22B
330
1F
100
AcDbEntity
  8
VERMASSUNG
100
AcDbDimension
  2
_D_5
 10
73.3159665773
 20
160.4776234364
 30
0.0
 11
149.9409665773
 21
160.4776234364
 31
0.0
 70
   160
  1
<>
 71
     2
 42
-1.0
  3
SLDDIMSTYLE0
100
AcDbAlignedDimension
 13
226.5659665773
 23
127.8618647563
 33
0.0
 14
73.3159665773
 24
123.5689953533
 34
0.0
100
AcDbRotatedDimension
  0
LINE
  5
235
330
1F
100
AcDbEntity
  8
VERMASSUNG
  6
CENTERX2
370
     0
100
AcDbLine
 10
71.3159665773
 20
112.1618647563
 30
0.0
 11
228.6804929145
 21
112.1618647563
 31
0.0
  0
LINE
  5
236
330
1F
100
AcDbEntity
  8
0
  6
Continuous
 62
     7
370
    15
100
AcDbLine
 10
272.4747358759
 20
25.2634133516
 30
0.0
 11
272.5807838157
 21
25.3246541894
 31
0.0
  0
LINE
  5
237
330
1F
100
AcDbEntity
  8
0
  6
Continuous
 62
     7
370
    15
100
AcDbLine
 10
278.1306696791
 20
34.938380233
 30
0.0
 11
278.1306709962
 21
35.0608412417
 31
0.0
  0
LINE
  5
238
330
1F
100
AcDbEntity
  8
0
  6
Continuous
 62
     7
370
    15
100
AcDbLine
 10
276.4734914864
 20
38.723599524
 30
0.0
 11
254.323370668
 21
51.5105920937
 31
0.0
  0
LINE
  5
239
330
1F
100
AcDbEntity
  8
0
  6
Continuous
 62
     7
370
    15
100
AcDbLine
 10
246.3240206513
 20
37.6538103243
 30
0.0
 11
268.4741414697
 21
24.8668177546
 31
0.0
  0
SPLINE
  5
23A
330
1F
100
AcDbEntity
  8
0
  6
Continuous
 62
     7
370
    15
100
AcDbSpline
210
0.0
220
0.0
230
1.0
 70
     8
 71
     3
 72
    23
 73
    19
 74
     0
 42
0.000000001
 43
0.00000001
 40
0.0
 40
0.0
 40
0.0
 40
0.0
 40
0.0422714861899396
 40
0.1094104046974916
 40
0.1731015063338437
 40
0.2408788193957798
 40
0.3069438217050001
 40
0.3725598029399846
 40
0.4381860881638002
 40
0.5040282148672971
 40
0.5701119957135078
 40
0.6363787948664051
 40
0.7027405733032506
 40
0.7690978807188
 40
0.8353197762365441
 40
0.9013064364602311
 40
0.9669678868301513
 40
1.0
 40
1.0
 40
1.0
 40
1.0
 10
269.9930208706405
 20
28.04615656815784
 30
0.0
 10
269.9323745333368
 20
28.07857990318588
 30
0.0
 10
269.7754048853336
 20
28.16250054394877
 30
0.0
 10
269.5763448710407
 20
28.39154250726659
 30
0.0
 10
269.3829258135709
 20
28.73280309122168
 30
0.0
 10
269.2486831525054
 20
29.16744013960817
 30
0.0
 10
269.1830112815204
 20
29.68741713944882
 30
0.0
 10
269.1937800860322
 20
30.26549315197992
 30
0.0
 10
269.2821773470763
 20
30.88816860403378
 30
0.0
 10
269.4477892357135
 20
31.53970805441651
 30
0.0
 10
269.6877443769829
 20
32.20283592220319
 30
0.0
 10
269.9966267340025
 20
32.85945437433146
 30
0.0
 10
270.3665841352408
 20
33.49149448180066
 30
0.0
 10
270.7874922577732
 20
34.08137163393085
 30
0.0
 10
271.2473890126891
 20
34.61340375863868
 30
0.0
 10
271.7323516012619
 20
35.07177598528258
 30
0.0
 10
272.1472630812958
 20
35.38886855853853
 30
0.0
 10
272.3937955487083
 20
35.53788491244737
 30
0.0
 10
272.4763084104547
 20
35.58775974612375
 30
0.0
  0
SPLINE
  5
23B
330
1F
100
AcDbEntity
  8
0
  6
Continuous
 62
     7
370
    15
100
AcDbSpline
210
0.0
220
0.0
230
1.0
 70
     8
 71
     3
 72
    13
 73
     9
 74
     0
 42
0.000000001
 43
0.00000001
 40
0.0
 40
0.0
 40
0.0
 40
0.0
 40
0.1023426547677921
 40
0.2977432230455739
 40
0.4930105615619273
 40
0.6899648882786742
 40
0.8931030616301711
 40
0.9999999999999999
 40
0.9999999999999999
 40
0.9999999999999999
 40
0.9999999999999999
 10
272.4763084104547
 20
35.58775974612375
 30
0.0
 10
272.5607020034196
 20
35.634111911266
 30
0.0
 10
272.806226417759
 20
35.76896324061549
 30
0.0
 10
273.1993623225536
 20
35.92009028513531
 30
0.0
 10
273.6323341752692
 20
36.0091758197354
 30
0.0
 10
274.016302904784
 20
36.00106915030514
 30
0.0
 10
274.3007784107031
 20
35.9379507430277
 30
0.0
 10
274.4406001311705
 20
35.84464235348887
 30
0.0
 10
274.4888092315932
 20
35.81247057426508
 30
0.0
  0
SPLINE
  5
23C
330
1F
100
AcDbEntity
  8
0
  6
Continuous
 62
     7
370
    15
100
AcDbSpline
210
0.0
220
0.0
230
1.0
 70
     8
 71
     3
 72
    29
 73
    25
 74
     0
 42
0.000000001
 43
0.00000001
 40
0.0
 40
0.0
 40
0.0
 40
0.0
 40
0.0088377208023852
 40
0.0560448332832729
 40
0.1034527301250081
 40
0.1510380143428239
 40
0.198754728918431
 40
0.2465540294447638
 40
0.2943955485338824
 40
0.3422498654946748
 40
0.3900966769337262
 40
0.4379287744540151
 40
0.4857436965213461
 40
0.5335418677175692
 40
0.5813253730149512
 40
0.6290972312415763
 40
0.6768609655638255
 40
0.7246203068336162
 40
0.772379147764022
 40
0.8201407287963761
 40
0.8679083697075362
 40
0.9156861292265139
 40
0.963477942910676
 40
1.0
 40
1.0
 40
1.0
 40
1.0
 10
249.432815249834
 20
62.78746908201163
 30
0.0
 10
249.3807138313105
 20
62.79504649633439
 30
0.0
 10
249.0503101695221
 20
62.84309903521088
 30
0.0
 10
248.4029582699283
 20
62.82648357975012
 30
0.0
 10
247.4958801057606
 20
62.73171491078921
 30
0.0
 10
246.5578169823897
 20
62.5194986472513
 30
0.0
 10
245.6004268370295
 20
62.20353612206664
 30
0.0
 10
244.6299233546128
 20
61.78288425393031
 30
0.0
 10
243.6541411758744
 20
61.26176094108087
 30
0.0
 10
242.6804399026838
 20
60.64409604811639
 30
0.0
 10
241.7161301551005
 20
59.93482876360306
 30
0.0
 10
240.7683036063473
 20
59.13944012842564
 30
0.0
 10
239.843851492148
 20
58.2639806623158
 30
0.0
 10
238.949474725388
 20
57.31502647764587
 30
0.0
 10
238.0916528083661
 20
56.29965616348777
 30
0.0
 10
237.2766129869482
 20
55.22539663077438
 30
0.0
 10
236.5102786236431
 20
54.10018515818645
 30
0.0
 10
235.7982563827521
 20
52.93231124392394
 30
0.0
 10
235.1457145826679
 20
51.73035408611634
 30
0.0
 10
234.5576434404177
 20
50.50318574552423
 30
0.0
 10
234.0377043661048
 20
49.25964816917089
 30
0.0
 10
233.5923577772369
 20
48.00942220688144
 30
0.0
 10
233.2449931404245
 20
46.85785295399538
 30
0.0
 10
233.0789293979258
 20
46.13212313958351
 30
0.0
 10
233.0069959256707
 20
45.81776032513531
 30
0.0
  0
SPLINE
  5
23D
330
1F
100
AcDbEntity
  8
0
  6
Continuous
 62
     7
370
    15
100
AcDbSpline
210
0.0
220
0.0
230
1.0
 70
     8
 71
     3
 72
     9
 73
     5
 74
     0
 42
0.000000001
 43
0.00000001
 40
0.0
 40
0.0
 40
0.0
 40
0.0
 40
0.2330998299356318
 40
0.9999999999999999
 40
0.9999999999999999
 40
0.9999999999999999
 40
0.9999999999999999
 10
250.3092708184192
 20
62.64681199259221
 30
0.0
 10
250.2435731197635
 20
62.66375510687511
 30
0.0
 10
249.9617295050608
 20
62.73644119286484
 30
0.0
 10
249.6623836426358
 20
62.76532108659701
 30
0.0
 10
249.432815249834
 20
62.78746908201163
 30
0.0
  0
LINE
  5
23E
330
1F
100
AcDbEntity
  8
0
  6
Continuous
 62
     7
370
    15
100
AcDbLine
 10
242.7691229817
 20
60.6840825118
 30
0.0
 11
221.4631106842
 21
68.3619251468
 31
0.0
  0
LINE
  5
23F
330
1F
100
AcDbEntity
  8
0
  6
Continuous
 62
     7
370
    15
100
AcDbLine
 10
215.2983286896
 20
57.6830525015
 30
0.0
 11
235.5945667871
 21
40.545077414
 31
0.0
  0
SPLINE
  5
240
330
1F
100
AcDbEntity
  8
0
  6
Continuous
 62
     7
370
    15
100
AcDbSpline
210
0.0
220
0.0
230
1.0
 70
     8
 71
     3
 72
    16
 73
    12
 74
     0
 42
0.000000001
 43
0.00000001
 40
0.0
 40
0.0
 40
0.0
 40
0.0
 40
0.03501709674754
 40
0.1585270180086382
 40
0.2824904975508069
 40
0.4067855814947282
 40
0.5312859941416448
 40
0.6558890943800062
 40
0.7805197011771421
 40
0.905128602330344
 40
1.0
 40
1.0
 40
1.0
 40
1.0
 10
244.3445688863177
 20
30.81288770276364
 30
0.0
 10
244.427580184728
 20
30.81218316638006
 30
0.0
 10
244.8033832872206
 20
30.80899363719742
 30
0.0
 10
245.504691629634
 20
30.91230782841068
 30
0.0
 10
246.4419714025979
 20
31.12477574683077
 30
0.0
 10
247.4014454487071
 20
31.45166195549781
 30
0.0
 10
248.372435989152
 20
31.88026690420213
 30
0.0
 10
249.348524966193
 20
32.40909672117516
 30
0.0
 10
250.3211598088286
 20
33.03655066525786
 30
0.0
 10
251.2097473887915
 20
33.68897764084258
 30
0.0
 10
251.7627933903574
 20
34.16870488987738
 30
0.0
 10
252.0018501413532
 20
34.37606926317305
 30
0.0
  0
LINE
  5
241
330
1F
100
AcDbEntity
  8
0
  6
Continuous
 62
     7
370
    15
100
AcDbLine
 10
239.7605884095
 20
32.3497790018
 30
0.0
 11
241.1140481801
 21
31.5684433074
 31
0.0
  0
LINE
  5
242
330
1F
100
AcDbEntity
  8
0
  6
Continuous
 62
     7
370
    15
100
AcDbLine
 10
235.9344912455
 20
34.5585378798
 30
0.0
 11
237.2702737059
 21
33.7874070794
 31
0.0
  0
SPLINE
  5
243
330
1F
100
AcDbEntity
  8
0
  6
Continuous
 62
     7
370
    15
100
AcDbSpline
210
0.0
220
0.0
230
1.0
 70
     8
 71
     3
 72
    10
 73
     6
 74
     0
 42
0.000000001
 43
0.00000001
 40
0.0
 40
0.0
 40
0.0
 40
0.0
 40
0.1903929142368814
 40
0.7515106868166841
 40
1.0
 40
1.0
 40
1.0
 40
1.0
 10
233.0147896352865
 20
38.55605492269867
 30
0.0
 10
233.0460837544712
 20
38.45093866574416
 30
0.0
 10
233.1696065499285
 20
38.03602831692098
 30
0.0
 10
233.369658887855
 20
37.51354545261243
 30
0.0
 10
233.5787621405344
 20
37.13925838311047
 30
0.0
 10
233.6429413264091
 20
37.02438001992734
 30
0.0
  0
SPLINE
  5
244
330
1F
100
AcDbEntity
  8
0
  6
Continuous
 62
     7
370
    15
100
AcDbSpline
210
0.0
220
0.0
230
1.0
 70
     8
 71
     3
 72
    10
 73
     6
 74
     0
 42
0.000000001
 43
0.00000001
 40
0.0
 40
0.0
 40
0.0
 40
0.0
 40
0.0348703813889211
 40
0.6758503410989433
 40
1.0
 40
1.0
 40
1.0
 40
1.0
 10
259.0589447977977
 20
57.00709669034735
 30
0.0
 10
259.0512917975263
 20
57.02132979351298
 30
0.0
 10
258.9029629683645
 20
57.29719278227962
 30
0.0
 10
258.6312410219184
 20
57.64957046783915
 30
0.0
 10
258.3459740308023
 20
57.95717031180671
 30
0.0
 10
258.2501638970308
 20
58.06048118588763
 30
0.0
  0
SPLINE
  5
245
330
1F
100
AcDbEntity
  8
0
  6
Continuous
 62
     7
370
    15
100
AcDbSpline
210
0.0
220
0.0
230
1.0
 70
     8
 71
     3
 72
    10
 73
     6
 74
     0
 42
0.000000001
 43
0.00000001
 40
0.0
 40
0.0
 40
0.0
 40
0.0
 40
0.1721401354924876
 40
0.5979590048855362
 40
0.9999999999999999
 40
0.9999999999999999
 40
0.9999999999999999
 40
0.9999999999999999
 10
259.9213634901952
 20
55.0230526825602
 30
0.0
 10
259.8841142621615
 20
55.1483328988635
 30
0.0
 10
259.7547225240637
 20
55.58351574136704
 30
0.0
 10
259.4840066070624
 20
56.26458647022543
 30
0.0
 10
259.1978928044155
 20
56.76437830744271
 30
0.0
 10
259.0589447977977
 20
57.00709669034735
 30
0.0
  0
SPLINE
  5
246
330
1F
100
AcDbEntity
  8
0
  6
Continuous
 62
     7
370
    15
100
AcDbSpline
210
0.0
220
0.0
230
1.0
 70
     8
 71
     3
 72
    30
 73
    26
 74
     0
 42
0.000000001
 43
0.00000001
 40
0.0
 40
0.0
 40
0.0
 40
0.0
 40
0.025972767180837
 40
0.0702582150152399
 40
0.1151905686236003
 40
0.1611449666922338
 40
0.2080322864463316
 40
0.2554901335089418
 40
0.3031610342770694
 40
0.350792882931924
 40
0.3983332197261003
 40
0.4457880943607722
 40
0.4931887867461641
 40
0.5405763843341409
 40
0.5879910685433996
 40
0.6354691251563863
 40
0.6830577812740473
 40
0.7308007225255143
 40
0.76408762931419
 40
0.789488719803196
 40
0.8375378747546494
 40
0.8855821703965046
 40
0.9331394298014845
 40
0.979712472223164
 40
1.0
 40
1.0
 40
1.0
 40
1.0
 10
221.5417678987822
 20
68.31680994712416
 30
0.0
 10
221.4456299229884
 20
68.35729360971779
 30
0.0
 10
221.1855697404356
 20
68.46680484705736
 30
0.0
 10
220.7117326209582
 20
68.52605649343869
 30
0.0
 10
220.1388923355951
 20
68.50551714773268
 30
0.0
 10
219.5380040975056
 20
68.37285258833883
 30
0.0
 10
218.9204374889477
 20
68.13463098829514
 30
0.0
 10
218.2973066687748
 20
67.7923944149601
 30
0.0
 10
217.6823386602506
 20
67.35381820534238
 30
0.0
 10
217.088223783308
 20
66.82870022630493
 30
0.0
 10
216.5263094449039
 20
66.22836345620378
 30
0.0
 10
216.006525627828
 20
65.56463950154742
 30
0.0
 10
215.538013088793
 20
64.85006029494143
 30
0.0
 10
215.1291022216255
 20
64.09780022586814
 30
0.0
 10
214.7873226183018
 20
63.32151953079119
 30
0.0
 10
214.5191994465104
 20
62.53510537022516
 30
0.0
 10
214.3302680371264
 20
61.75243692632518
 30
0.0
 10
214.2358521704437
 20
61.06510404350423
 30
0.0
 10
214.2128702962245
 20
60.51748742323083
 30
0.0
 10
214.2304245987306
 20
59.98740745930246
 30
0.0
 10
214.30935108182
 20
59.41502766429547
 30
0.0
 10
214.4938482711445
 20
58.79663881637875
 30
0.0
 10
214.7731446335886
 20
58.26143704663048
 30
0.0
 10
215.0575233475967
 20
57.88020934641332
 30
0.0
 10
215.2722079327376
 20
57.71911953947678
 30
0.0
 10
215.3373497565565
 20
57.6702399992173
 30
0.0
  0
LINE
  5
247
330
1F
100
AcDbEntity
  8
0
  6
Continuous
 62
     7
370
    15
100
AcDbLine
 10
269.7340075778
 20
41.2562200083
 30
0.0
 11
269.4864781486
 21
41.3991625313
 31
0.0
  0
LINE
  5
248
330
1F
100
AcDbEntity
  8
0
  6
Continuous
 62
     7
370
    15
100
AcDbLine
 10
267.1526478446
 20
41.399161809
 30
0.0
 11
266.9051186989
 21
41.2562213503
 31
0.0
  0
LINE
  5
249
330
1F
100
AcDbEntity
  8
0
  6
Continuous
 62
     7
370
    15
100
AcDbLine
 10
266.3195624698
 20
40.4399456774
 30
0.0
 11
266.3195624698
 21
40.3174643834
 31
0.0
  0
LINE
  5
24A
330
1F
100
AcDbEntity
  8
0
  6
Continuous
 62
     7
370
    15
100
AcDbLine
 10
270.3195621406
 20
40.3174645735
 30
0.0
 11
270.3195621406
 21
40.4399458675
 31
0.0
  0
LINE
  5
24B
330
1F
100
AcDbEntity
  8
0
  6
Continuous
 62
     7
370
    15
100
AcDbLine
 10
271.1057198972
 20
34.1241085962
 30
0.0
 11
272.0320062116
 21
34.3128333691
 31
0.0
  0
LWPOLYLINE
  5
24C
330
1F
100
AcDbEntity
  8
0
  6
Continuous
 62
     7
370
    15
100
AcDbPolyline
 90
       49
 70
   128
 43
0.0
 10
272.5798816565
 20
38.1438236463
 10
271.8553583974
 20
37.6707282926
 10
271.1432319095
 20
37.0960535154
 10
270.4556869124
 20
36.429631907
 10
269.8044876452
 20
35.6828666454
 10
269.2007758578
 20
34.8685346479
 10
268.6548816441
 20
34.0005693822
 10
268.1761451408
 20
33.0938221922
 10
267.7727579829
 20
32.1638076535
 10
267.4516220464
 20
31.2264389452
 10
267.2182318971
 20
30.2977540942
 10
267.0765812783
 20
29.3936435486
 10
267.0290936339
 20
28.5295767973
 10
267.0765812783
 20
27.7203381132
 10
267.2182318971
 20
26.9797738908
 10
267.4516220464
 20
26.3205555705
 10
267.7727579829
 20
25.7539625223
 10
268.1761451408
 20
25.2896888825
 10
268.6548816441
 20
24.9356790939
 10
269.2007758578
 20
24.6979898715
 10
269.8044876452
 20
24.580688667
 10
270.4556869124
 20
24.5857820755
 10
271.1432319095
 20
24.7131830238
 10
271.8553583974
 20
24.9607119885
 10
272.5798816565
 20
25.324133384
 10
273.3044049155
 20
25.7972287376
 10
274.0165314035
 20
26.3719035149
 10
274.7040764006
 20
27.0383251232
 10
275.3552756678
 20
27.7850903849
 10
275.9589874552
 20
28.5994223823
 10
276.5048816689
 20
29.4673876481
 10
276.9836181722
 20
30.3741348381
 10
277.38700533
 20
31.3041493768
 10
277.7081412666
 20
32.2415180851
 10
277.9415314159
 20
33.170202936
 10
278.0831820347
 20
34.0743134817
 10
278.1306696791
 20
34.938380233
 10
278.0831820347
 20
35.7476189171
 10
277.9415314159
 20
36.4881831394
 10
277.7081412666
 20
37.1474014598
 10
277.38700533
 20
37.7139945079
 10
276.9836181722
 20
38.1782681478
 10
276.5048816689
 20
38.5322779363
 10
275.9589874552
 20
38.7699671587
 10
275.3552756678
 20
38.8872683633
 10
274.7040764006
 20
38.8821749548
 10
274.0165314035
 20
38.7547740065
 10
273.3044049155
 20
38.5072450418
 10
272.5798816565
 20
38.1438236463
  0
LWPOLYLINE
  5
24D
330
1F
100
AcDbEntity
  8
0
  6
Continuous
 62
     7
370
    15
100
AcDbPolyline
 90
       26
 70
   128
 43
0.0
 10
272.473816478
 20
38.3275354447
 10
271.7504339827
 20
37.8563047341
 10
271.03892949
 20
37.2855517957
 10
270.3509857442
 20
36.6246475731
 10
269.6978989238
 20
35.8844436674
 10
269.0903922738
 20
35.0770947864
 10
268.5384417555
 20
34.215857714
 10
268.0511095999
 20
33.3148731678
 10
267.63639844
 20
32.3889363431
 10
267.301117626
 20
31.4532501554
 10
267.0507722605
 20
30.5231788605
 10
266.8894729785
 20
29.6139943539
 10
266.8198687753
 20
28.7406254857
 10
266.8431022256
 20
27.9174127439
 10
266.9587913735
 20
27.1578730357
 10
267.1650373059
 20
26.4744783448
 10
267.4584534578
 20
25.8784499989
 10
267.8342215882
 20
25.3795748473
 10
268.2861717937
 20
24.9860440343
 10
268.8068829362
 20
24.7043193392
 10
269.3878051323
 20
24.5390270798
 10
270.0193993648
 20
24.4928811025
 10
270.6912952042
 20
24.5666388509
 10
271.3924599718
 20
24.7590898953
 10
272.1113805812
 20
25.0670734539
 10
272.4747358759
 20
25.2634133516
  0
LWPOLYLINE
  5
24E
330
1F
100
AcDbEntity
  8
0
  6
Continuous
 62
     7
370
    15
100
AcDbPolyline
 90
       14
 70
   128
 43
0.0
 10
278.1306709962
 20
35.0608412417
 10
278.1277641808
 20
35.2685345528
 10
278.0581599775
 20
36.0615401186
 10
277.8968606956
 20
36.7844924382
 10
277.6465153301
 20
37.4255211266
 10
277.311234516
 20
37.9741003262
 10
276.8965233561
 20
38.4212218375
 10
276.4091912006
 20
38.7595446536
 10
275.8572406823
 20
38.9835132222
 10
275.2497340322
 20
39.089449855
 10
274.5966472119
 20
39.0756157681
 10
273.908703466
 20
38.9422370485
 10
273.1971989734
 20
38.6915043854
 10
272.473816478
 20
38.3275354447
  0
SPLINE
  5
24F
330
1F
100
AcDbEntity
  8
0
  6
Continuous
 62
     7
370
    15
100
AcDbSpline
210
0.0
220
0.0
230
1.0
 70
    11
 71
     3
 72
    82
 73
    78
 74
     0
 42
0.000000001
 43
0.00000001
 40
0.0
 40
0.0
 40
0.0
 40
0.0
 40
0.0312499999999983
 40
0.0312499999999983
 40
0.0624999999999967
 40
0.0624999999999967
 40
0.093749999999995
 40
0.093749999999995
 40
0.1249999999999934
 40
0.1249999999999934
 40
0.1562499999999917
 40
0.1562499999999917
 40
0.1874999999999901
 40
0.1874999999999901
 40
0.2187499999999884
 40
0.2187499999999884
 40
0.2343749999999881
 40
0.2343749999999881
 40
0.2499999999999879
 40
0.2499999999999879
 40
0.2812499999999875
 40
0.2812499999999875
 40
0.2968749999999877
 40
0.2968749999999877
 40
0.3124999999999879
 40
0.3124999999999879
 40
0.3437499999999884
 40
0.3437499999999884
 40
0.3593749999999885
 40
0.3593749999999885
 40
0.3749999999999886
 40
0.3749999999999886
 40
0.3906249999999888
 40
0.3906249999999888
 40
0.4062499999999889
 40
0.4062499999999889
 40
0.4374999999999895
 40
0.4374999999999895
 40
0.46874999999999
 40
0.46874999999999
 40
0.4999999999999906
 40
0.4999999999999906
 40
0.5312499999999911
 40
0.5312499999999911
 40
0.5624999999999917
 40
0.5624999999999917
 40
0.5937499999999922
 40
0.5937499999999922
 40
0.6249999999999928
 40
0.6249999999999928
 40
0.6562499999999933
 40
0.6562499999999933
 40
0.6874999999999939
 40
0.6874999999999939
 40
0.7187499999999944
 40
0.7187499999999944
 40
0.749999999999995
 40
0.749999999999995
 40
0.7812499999999957
 40
0.7812499999999957
 40
0.8124999999999962
 40
0.8124999999999962
 40
0.8281249999999964
 40
0.8281249999999964
 40
0.8437499999999968
 40
0.8437499999999968
 40
0.8749999999999977
 40
0.8749999999999977
 40
0.890624999999998
 40
0.890624999999998
 40
0.9062499999999984
 40
0.9062499999999984
 40
0.937499999999999
 40
0.937499999999999
 40
0.9687499999999996
 40
0.9687499999999996
 40
1.0
 40
1.0
 40
1.0
 40
1.0
 10
268.3026686267984
 20
41.93320955967274
 30
0.0
 10
268.4557919100337
 20
41.90617733390221
 30
0.0
 10
268.6048085710299
 20
41.87179474628331
 30
0.0
 10
268.8956346356613
 20
41.79132567630139
 30
0.0
 10
269.0381801125315
 20
41.74493490346932
 30
0.0
 10
269.3128224931449
 20
41.64280133602228
 30
0.0
 10
269.442707794696
 20
41.58796340046715
 30
0.0
 10
269.6883371521919
 20
41.4719213933741
 30
0.0
 10
269.8049623574617
 20
41.41016900586618
 30
0.0
 10
270.0188781007479
 20
41.28289403874273
 30
0.0
 10
270.1155289404857
 20
41.21789701698252
 30
0.0
 10
270.2885526886997
 20
41.08481607725749
 30
0.0
 10
270.365502634004
 20
41.01608522415061
 30
0.0
 10
270.494373244868
 20
40.87755652618381
 30
0.0
 10
270.5461750646224
 20
40.8081818116656
 30
0.0
 10
270.6046245832686
 20
40.70277452598096
 30
0.0
 10
270.6208776264294
 20
40.66741101411171
 30
0.0
 10
270.6465775957782
 20
40.59597094716287
 30
0.0
 10
270.6560119347137
 20
40.55975784732792
 30
0.0
 10
270.6730357615265
 20
40.45200929690482
 30
0.0
 10
270.6698232333347
 20
40.38067703571483
 30
0.0
 10
270.6418313853856
 20
40.27298642730698
 30
0.0
 10
270.6286101053328
 20
40.23697469907572
 30
0.0
 10
270.5937355257004
 20
40.16446681964376
 30
0.0
 10
270.5720316365995
 20
40.12802701581148
 30
0.0
 10
270.4955825094548
 20
40.02081440578998
 30
0.0
 10
270.4291935528091
 20
39.95107014332628
 30
0.0
 10
270.3048259524567
 20
39.84835344994544
 30
0.0
 10
270.2587875695355
 20
39.81417246274837
 30
0.0
 10
270.1600331863547
 20
39.7479828424551
 30
0.0
 10
270.1074447131578
 20
39.71599307682015
 30
0.0
 10
269.9960043863683
 20
39.65415368990947
 30
0.0
 10
269.9371522482106
 20
39.62430419098263
 30
0.0
 10
269.8131376234239
 20
39.5667996242642
 30
0.0
 10
269.7475270073235
 20
39.53898961615036
 30
0.0
 10
269.5459724848823
 20
39.46099608141252
 30
0.0
 10
269.4045581248009
 20
39.41566497969595
 30
0.0
 10
269.1084532203174
 20
39.338631105775
 30
0.0
 10
268.9563155350888
 20
39.30773037539829
 30
0.0
 10
268.6511550880829
 20
39.26252389697445
 30
0.0
 10
268.4956901721715
 20
39.24797474933467
 30
0.0
 10
268.1915609709042
 20
39.23672438803953
 30
0.0
 10
268.0421182993135
 20
39.23976417996396
 30
0.0
 10
267.7479868307042
 20
39.26405641262713
 30
0.0
 10
267.6045144271595
 20
39.28538959849705
 30
0.0
 10
267.3317372901927
 20
39.34562159932656
 30
0.0
 10
267.2012491569399
 20
39.38460284568884
 30
0.0
 10
266.952174191646
 20
39.48145376284519
 30
0.0
 10
266.8363829872232
 20
39.53831137866868
 30
0.0
 10
266.623577443215
 20
39.6674600767541
 30
0.0
 10
266.5262012776803
 20
39.73989017931624
 30
0.0
 10
266.3503986351242
 20
39.90082978526715
 30
0.0
 10
266.2744359708183
 20
39.98709511470156
 30
0.0
 10
266.1461318942807
 20
40.16971551639045
 30
0.0
 10
266.093686704579
 20
40.26619895475299
 30
0.0
 10
266.0144802134834
 20
40.4685304448173
 30
0.0
 10
265.9889023452483
 20
40.57129506382994
 30
0.0
 10
265.9661851048327
 20
40.77847502680289
 30
0.0
 10
265.9690868838931
 20
40.88336677293884
 30
0.0
 10
266.007240104459
 20
41.09135323352528
 30
0.0
 10
266.0417986999461
 20
41.19126214362367
 30
0.0
 10
266.1178073267213
 20
41.33362742739008
 30
0.0
 10
266.147202354052
 20
41.3798269663835
 30
0.0
 10
266.214701443332
 20
41.46938408584669
 30
0.0
 10
266.2530805559149
 20
41.5129287386437
 30
0.0
 10
266.3784242239569
 20
41.63494061043293
 30
0.0
 10
266.476231126611
 20
41.70614239425088
 30
0.0
 10
266.6448120504356
 20
41.7971307242568
 30
0.0
 10
266.7050773241467
 20
41.8249196265276
 30
0.0
 10
266.8297258866463
 20
41.8736470955903
 30
0.0
 10
266.8943923167773
 20
41.89479096201393
 30
0.0
 10
267.0951552686313
 20
41.94907209503676
 30
0.0
 10
267.2397751327841
 20
41.97314525082158
 30
0.0
 10
267.5350467005436
 20
41.99739076641759
 30
0.0
 10
267.6861372348009
 20
41.99802908359536
 30
0.0
 10
267.9950349871552
 20
41.97938161617507
 30
0.0
 10
268.149545343563
 20
41.96024178544326
 30
0.0
 10
268.3026686267984
 20
41.93320955967273
 30
0.0
  0
SPLINE
  5
250
330
1F
100
AcDbEntity
  8
0
  6
Continuous
 62
     7
370
    15
100
AcDbSpline
210
0.0
220
0.0
230
1.0
 70
     8
 71
     3
 72
    12
 73
     8
 74
     0
 42
0.000000001
 43
0.00000001
 40
0.0
 40
0.0
 40
0.0
 40
0.0
 40
0.250000000000001
 40
0.250000000000001
 40
0.500000000000002
 40
0.500000000000002
 40
1.0
 40
1.0
 40
1.0
 40
1.0
 10
238.2858769094508
 20
42.7763444242317
 30
0.0
 10
238.3196560757232
 20
42.75684412661818
 30
0.0
 10
238.3579807721987
 20
42.73000437804101
 30
0.0
 10
238.4322038963113
 20
42.67160387471836
 30
0.0
 10
238.467587260806
 20
42.64061421623747
 30
0.0
 10
238.563397219191
 20
42.54987486321671
 30
0.0
 10
238.6124009773452
 20
42.49398073449917
 30
0.0
 10
238.64621003496
 20
42.44672087073252
 30
0.0
  0
SPLINE
  5
251
330
1F
100
AcDbEntity
  8
0
  6
Continuous
 62
     7
370
    15
100
AcDbSpline
210
0.0
220
0.0
230
1.0
 70
     8
 71
     3
 72
    12
 73
     8
 74
     0
 42
0.000000001
 43
0.00000001
 40
0.0
 40
0.0
 40
0.0
 40
0.0
 40
0.5000000000000011
 40
0.5000000000000011
 40
0.7500000000000006
 40
0.7500000000000006
 40
1.0
 40
1.0
 40
1.0
 40
1.0
 10
255.750739948151
 20
59.21652239505406
 30
0.0
 10
255.750739948151
 20
59.28794142677874
 30
0.0
 10
255.73317541749
 20
59.37047118597194
 30
0.0
 10
255.6780498830001
 20
59.48941590200481
 30
0.0
 10
255.6547574092433
 20
59.5280487892294
 30
0.0
 10
255.6007890201859
 20
59.59461130050645
 30
0.0
 10
255.5699415194327
 20
59.62253233875911
 30
0.0
 10
255.538607913795
 20
59.64062084426907
 30
0.0
  0
ARC
  5
252
330
1F
100
AcDbEntity
  8
0
  6
Continuous
 62
     7
370
    15
100
AcDbCircle
 10
264.4367600673
 20
36.4298752844
 30
0.0
 40
26.51727312579786
100
AcDbArc
 50
139.7848383236
 51
157.6575401431
  0
LWPOLYLINE
  5
253
330
1F
100
AcDbEntity
  8
0
  6
Continuous
 62
     7
370
    15
100
AcDbPolyline
 90
       11
 70
   128
 43
0.0
 10
244.2495833899
 20
56.4438845628
 10
245.2548058125
 20
57.3401738954
 10
246.2810674151
 20
58.1396330348
 10
247.3195288427
 20
58.8353758446
 10
248.3612453324
 20
59.4214104789
 10
249.3972442152
 20
59.8926879258
 10
250.4186021307
 20
60.2451496242
 10
251.4165219532
 20
60.4757597048
 10
252.382407866
 20
60.5825315996
 10
253.3079401469
 20
60.5645453587
 10
254.1851477734
 20
60.4219568646
  0
LINE
  5
254
330
1F
100
AcDbEntity
  8
0
  6
Continuous
 62
     7
370
    15
100
AcDbLine
 10
255.538607544
 20
59.6406211702
 30
0.0
 11
254.1851477734
 21
60.4219568646
 31
0.0
  0
LINE
  5
255
330
1F
100
AcDbEntity
  8
0
  6
Continuous
 62
     7
370
    15
100
AcDbLine
 10
236.9324169949
 20
43.5576803082
 30
0.0
 11
238.2858767655
 21
42.7763446139
 31
0.0
  0
ARC
  5
256
330
1F
100
AcDbEntity
  8
0
  6
Continuous
 62
     7
370
    15
100
AcDbCircle
 10
262.5855247403
 20
37.5261005462
 30
0.0
 40
26.35264486573498
100
AcDbArc
 50
136.493814506
 51
166.7688887241
  0
SPLINE
  5
257
330
1F
100
AcDbEntity
  8
0
  6
Continuous
 62
     7
370
    15
100
AcDbSpline
210
0.0
220
0.0
230
1.0
 70
     8
 71
     3
 72
    12
 73
     8
 74
     0
 42
0.000000001
 43
0.00000001
 40
0.0
 40
0.0
 40
0.0
 40
0.0
 40
0.2499999999999997
 40
0.2499999999999997
 40
0.4999999999999993
 40
0.4999999999999993
 40
1.0
 40
1.0
 40
1.0
 40
1.0
 10
243.4719497851318
 20
55.66812778736621
 30
0.0
 10
243.5712644678517
 20
55.70147587166202
 30
0.0
 10
243.6650896075432
 20
55.74535807316654
 30
0.0
 10
243.8420827124488
 20
55.85348834196228
 30
0.0
 10
243.9218942803698
 20
55.91589383214345
 30
0.0
 10
244.1300781415902
 20
56.12329140993322
 30
0.0
 10
244.2217879751762
 20
56.284701947727
 30
0.0
 10
244.24958330135
 20
56.44388495526609
 30
0.0
  0
LINE
  5
258
330
1F
100
AcDbEntity
  8
0
  6
Continuous
 62
     7
370
    15
100
AcDbLine
 10
259.7680036208
 20
54.5454734009
 30
0.0
 11
259.8733674494
 21
54.7279685245
 31
0.0
  0
LINE
  5
259
330
1F
100
AcDbEntity
  8
0
  6
Continuous
 62
     7
370
    15
100
AcDbLine
 10
258.5968447751
 20
53.8693777904
 30
0.0
 11
259.7680036208
 21
54.5454734009
 31
0.0
  0
ARC
  5
25A
330
1F
100
AcDbEntity
  8
0
  6
Continuous
 62
     7
370
    15
100
AcDbCircle
 10
259.2593326028
 20
52.8336933707
 30
0.0
 40
1.229443914555168
100
AcDbArc
 50
122.6054968531
 51
177.3945222572
  0
LINE
  5
25B
330
1F
100
AcDbEntity
  8
0
  6
Continuous
 62
     7
370
    15
100
AcDbLine
 10
258.0311596525
 20
49.3701313569
 30
0.0
 11
258.0311596525
 21
52.8895820397
 31
0.0
  0
LINE
  5
25C
330
1F
100
AcDbEntity
  8
0
  6
Continuous
 62
     7
370
    15
100
AcDbLine
 10
238.6941052133
 20
35.8066170279
 30
0.0
 11
238.6462099298
 21
35.684368367
 31
0.0
  0
LINE
  5
25D
330
1F
100
AcDbEntity
  8
0
  6
Continuous
 62
     7
370
    15
100
AcDbLine
 10
238.6941052133
 20
35.8066170279
 30
0.0
 11
240.707043308
 21
36.9686614552
 31
0.0
  0
ARC
  5
25E
330
1F
100
AcDbEntity
  8
0
  6
Continuous
 62
     7
370
    15
100
AcDbCircle
 10
240.0445554803
 20
38.0043458749
 30
0.0
 40
1.229443914554775
100
AcDbArc
 50
302.6054968531
 51
357.3945222572
  0
LINE
  5
25F
330
1F
100
AcDbEntity
  8
0
  6
Continuous
 62
     7
370
    15
100
AcDbLine
 10
241.2727284306
 20
43.2151456214
 30
0.0
 11
241.2727284306
 21
37.9484572059
 31
0.0
  0
ARC
  5
260
330
1F
100
AcDbEntity
  8
0
  6
Continuous
 62
     7
370
    15
100
AcDbCircle
 10
240.9278689875
 20
43.2710874329
 30
0.0
 40
0.3493673163990008
100
AcDbArc
 50
350.7859529282
 51
129.2032375553
  0
LINE
  5
261
330
1F
100
AcDbEntity
  8
0
  6
Continuous
 62
     7
370
    15
100
AcDbLine
 10
240.707043308
 20
43.5418152318
 30
0.0
 11
238.6941052133
 21
42.3797708045
 31
0.0
  0
LINE
  5
262
330
1F
100
AcDbEntity
  8
0
  6
Continuous
 62
     7
370
    15
100
AcDbLine
 10
238.6462099298
 20
42.4467207482
 30
0.0
 11
238.6941052133
 21
42.3797708045
 31
0.0
  0
LINE
  5
263
330
1F
100
AcDbEntity
  8
0
  6
Continuous
 62
     7
370
    15
100
AcDbLine
 10
255.7507398765
 20
56.431541287
 30
0.0
 11
255.7507398765
 21
59.2165221755
 31
0.0
  0
LINE
  5
264
330
1F
100
AcDbEntity
  8
0
  6
Continuous
 62
     7
370
    15
100
AcDbLine
 10
258.1624734274
 20
57.8238054308
 30
0.0
 11
255.7507398765
 21
56.431541287
 31
0.0
  0
SPLINE
  5
265
330
1F
100
AcDbEntity
  8
0
  6
Continuous
 62
     7
370
    15
100
AcDbSpline
210
0.0
220
0.0
230
1.0
 70
     8
 71
     3
 72
     8
 73
     4
 74
     0
 42
0.000000001
 43
0.00000001
 40
0.0
 40
0.0
 40
0.0
 40
0.0
 40
1.0
 40
1.0
 40
1.0
 40
1.0
 10
235.9422654892133
 20
44.81605951310137
 30
0.0
 10
235.5615676232129
 20
44.75309267543078
 30
0.0
 10
235.180729650973
 20
44.69039255329574
 30
0.0
 10
234.7997890002333
 20
44.6279116746227
 30
0.0
  0
SPLINE
  5
266
330
1F
100
AcDbEntity
  8
0
  6
Continuous
 62
     7
370
    15
100
AcDbSpline
210
0.0
220
0.0
230
1.0
 70
     8
 71
     3
 72
     8
 73
     4
 74
     0
 42
0.000000001
 43
0.00000001
 40
0.0
 40
0.0
 40
0.0
 40
0.0
 40
0.0011901715795577
 40
0.0011901715795577
 40
0.0011901715795577
 40
0.0011901715795577
 10
234.4421022026755
 20
44.99530833047832
 30
0.0
 10
234.5617487101703
 20
44.87269342072283
 30
0.0
 10
234.6809918843184
 20
44.75022138022712
 30
0.0
 10
234.7997890002333
 20
44.6279116746227
 30
0.0
  0
LWPOLYLINE
  5
267
330
1F
100
AcDbEntity
  8
0
  6
Continuous
 62
     7
370
    15
100
AcDbPolyline
 90
       21
 70
   128
 43
0.0
 10
234.4421022913
 20
44.9953083858
 10
234.7923597246
 20
46.359907547
 10
235.2365051898
 20
47.7351082569
 10
235.7705347364
 20
49.1085130646
 10
236.3896350626
 20
50.467742086
 10
237.0882236864
 20
51.8005402249
 10
237.860004264
 20
53.0948938991
 10
238.6980179555
 20
54.3391333179
 10
239.5947112554
 20
55.5220431228
 10
240.5419998712
 20
56.6329585804
 10
241.5313441272
 20
57.6618646253
 10
242.5538255196
 20
58.5994864433
 10
243.6002260717
 20
59.4373710236
 10
244.6611128332
 20
60.1679655971
 10
245.7269218033
 20
60.7846843357
 10
246.7880449411
 20
61.2819654261
 10
247.8349161879
 20
61.6553268135
 10
248.8580982717
 20
61.9014033846
 10
249.8483667949
 20
62.0179757384
 10
250.796795022
 20
62.0039947984
 10
251.6948330697
 20
61.8595849422
  0
LINE
  5
268
330
1F
100
AcDbEntity
  8
0
  6
Continuous
 62
     7
370
    15
100
AcDbLine
 10
252.1190924665
 20
60.5554742398
 30
0.0
 11
251.6948330697
 21
61.8595849422
 31
0.0
  0
LWPOLYLINE
  5
269
330
1F
100
AcDbEntity
  8
0
  6
Continuous
 62
     7
370
    15
100
AcDbPolyline
 90
       20
 70
   128
 43
0.0
 10
235.9422653634
 20
44.8160596988
 10
236.2708487799
 20
46.1096093248
 10
236.6920927013
 20
47.4138556726
 10
237.2018917612
 20
48.7160845681
 10
237.7952765829
 20
50.0036039715
 10
238.4664631698
 20
51.263863366
 10
239.2089088823
 20
52.4845777071
 10
240.0153769747
 20
53.6538483309
 10
240.8780060721
 20
54.7602775867
 10
241.7883878781
 20
55.793081379
 10
242.7376488348
 20
56.7421925819
 10
243.7165358978
 20
57.5983592265
 10
244.7155070867
 20
58.3532355577
 10
245.7248251262
 20
58.9994642293
 10
246.7346517987
 20
59.5307452215
 10
247.7351437315
 20
59.9419002631
 10
248.7165487395
 20
60.2289216048
 10
249.6693003113
 20
60.3890121161
 10
250.5841121462
 20
60.4206109628
 10
250.9910435906
 20
60.3917267107
  0
LINE
  5
26A
330
1F
100
AcDbEntity
  8
0
  6
Continuous
 62
     7
370
    15
100
AcDbLine
 10
233.106319831
 20
45.7664391862
 30
0.0
 11
234.4421022913
 21
44.9953083858
 31
0.0
  0
LINE
  5
26B
330
1F
100
AcDbEntity
  8
0
  6
Continuous
 62
     7
370
    15
100
AcDbLine
 10
251.6948330697
 20
61.8595849422
 30
0.0
 11
250.3590506094
 21
62.6307157426
 31
0.0
  0
LINE
  5
26C
330
1F
100
AcDbEntity
  8
0
  6
Continuous
 62
     7
370
    15
100
AcDbLine
 10
237.168807473
 20
44.5157749054
 30
0.0
 11
236.5782968688
 21
44.856669421
 31
0.0
  0
SPLINE
  5
26D
330
1F
100
AcDbEntity
  8
0
  6
Continuous
 62
     7
370
    15
100
AcDbSpline
210
0.0
220
0.0
230
1.0
 70
     8
 71
     3
 72
    14
 73
    10
 74
     0
 42
0.000000001
 43
0.00000001
 40
0.0
 40
0.0
 40
0.0
 40
0.0
 40
0.1134875903227499
 40
0.2884507601050068
 40
0.4634438893900288
 40
0.6380744063983101
 40
0.8124676993590939
 40
0.9871167959912229
 40
0.9999999999999999
 40
0.9999999999999999
 40
0.9999999999999999
 40
0.9999999999999999
 10
243.9630322352671
 20
55.96843528523786
 30
0.0
 10
243.8934817728578
 20
55.97178531466053
 30
0.0
 10
243.7167057598103
 20
55.98030006530942
 30
0.0
 10
243.4218702374218
 20
55.89515401876837
 30
0.0
 10
243.1292241281186
 20
55.73171840650117
 30
0.0
 10
242.903681768294
 20
55.50103071387634
 30
0.0
 10
242.7845902675953
 20
55.2382970455929
 30
0.0
 10
242.7505232892069
 20
55.04333927170131
 30
0.0
 10
242.7821855605116
 20
54.95756018348715
 30
0.0
 10
242.784360713801
 20
54.9516672813611
 30
0.0
  0
SPLINE
  5
26E
330
1F
100
AcDbEntity
  8
0
  6
Continuous
 62
     7
370
    15
100
AcDbSpline
210
0.0
220
0.0
230
1.0
 70
     8
 71
     3
 72
    12
 73
     8
 74
     0
 42
0.000000001
 43
0.00000001
 40
0.0
 40
0.0
 40
0.0
 40
0.0
 40
0.2500000000000015
 40
0.2500000000000015
 40
0.500000000000003
 40
0.500000000000003
 40
1.0
 40
1.0
 40
1.0
 40
1.0
 10
236.5782969384507
 20
44.85666940851701
 30
0.0
 10
236.5406782034914
 20
44.87838624195321
 30
0.0
 10
236.4946857951041
 20
44.89564197593585
 30
0.0
 10
236.3950846651282
 20
44.91793576376368
 30
0.0
 10
236.3403339398742
 20
44.92314154834311
 30
0.0
 10
236.1808280410548
 20
44.92013964891598
 30
0.0
 10
236.0758252358373
 20
44.89316191365678
 30
0.0
 10
236.0005123396454
 20
44.84968470412349
 30
0.0
  0
SPLINE
  5
26F
330
1F
100
AcDbEntity
  8
0
  6
Continuous
 62
     7
370
    15
100
AcDbSpline
210
0.0
220
0.0
230
1.0
 70
     8
 71
     3
 72
    10
 73
     6
 74
     0
 42
0.000000001
 43
0.00000001
 40
0.0
 40
0.0
 40
0.0
 40
0.0
 40
0.5
 40
0.5
 40
1.0
 40
1.0
 40
1.0
 40
1.0
 10
233.004675626662
 20
45.79716118507613
 30
0.0
 10
233.0119383083106
 20
45.80115779056396
 30
0.0
 10
233.0237319722763
 20
45.80133956894913
 30
0.0
 10
233.0577909830436
 20
45.79161793943938
 30
0.0
 10
233.0799634705958
 20
45.78165428266369
 30
0.0
 10
233.1063197372594
 20
45.76643913378238
 30
0.0
  0
LINE
  5
270
330
1F
100
AcDbEntity
  8
0
  6
Continuous
 62
     7
370
    15
100
AcDbLine
 10
236.0005123081
 20
44.8496849442
 30
0.0
 11
235.9422653634
 21
44.8160596988
 31
0.0
  0
LINE
  5
271
330
1F
100
AcDbEntity
  8
0
  6
Continuous
 62
     7
370
    15
100
AcDbLine
 10
238.6941052133
 20
42.3797708045
 30
0.0
 11
236.9669224223
 21
43.3768522063
 31
0.0
  0
SPLINE
  5
272
330
1F
100
AcDbEntity
  8
0
  6
Continuous
 62
     7
370
    15
100
AcDbSpline
210
0.0
220
0.0
230
1.0
 70
     8
 71
     3
 72
     8
 73
     4
 74
     0
 42
0.000000001
 43
0.00000001
 40
0.0
 40
0.0
 40
0.0
 40
0.0
 40
0.0011901715795577
 40
0.0011901715795577
 40
0.0011901715795577
 40
0.0011901715795577
 10
236.9669225119223
 20
43.37685212787591
 30
0.0
 10
236.9547610451036
 20
43.43760238358674
 30
0.0
 10
236.9432775981476
 20
43.4978660577168
 30
0.0
 10
236.9324167745051
 20
43.55768032893354
 30
0.0
  0
ARC
  5
273
330
1F
100
AcDbEntity
  8
0
  6
Continuous
 62
     7
370
    15
100
AcDbCircle
 10
245.9442585799
 20
43.8015818044
 30
0.0
 40
10.35600925491034
100
AcDbArc
 50
174.7138581873
 51
187.1556114911
  0
LINE
  5
274
330
1F
100
AcDbEntity
  8
0
  6
Continuous
 62
     7
370
    15
100
AcDbLine
 10
235.6689070778
 20
44.7709176081
 30
0.0
 11
235.6689070778
 21
42.5115898679
 31
0.0
  0
LINE
  5
275
330
1F
100
AcDbEntity
  8
0
  6
Continuous
 62
     7
370
    15
100
AcDbLine
 10
235.6689070778
 20
42.5115898679
 30
0.0
 11
235.6689070778
 21
41.0457819606
 31
0.0
  0
LINE
  5
276
330
1F
100
AcDbEntity
  8
0
  6
Continuous
 62
     7
370
    15
100
AcDbLine
 10
233.4438372268
 20
45.4106859983
 30
0.0
 11
233.0046755441
 21
45.7971611175
 31
0.0
  0
LINE
  5
277
330
1F
100
AcDbEntity
  8
0
  6
Continuous
 62
     7
370
    15
100
AcDbLine
 10
234.7997887652
 20
44.627911837
 30
0.0
 11
233.4438372268
 21
45.4106859983
 31
0.0
  0
LINE
  5
278
330
1F
100
AcDbEntity
  8
0
  6
Continuous
 62
     7
370
    15
100
AcDbLine
 10
234.6701190467
 20
44.5464835098
 30
0.0
 11
234.6708092013
 21
44.6671421709
 31
0.0
  0
ARC
  5
279
330
1F
100
AcDbEntity
  8
0
  6
Continuous
 62
     7
370
    15
100
AcDbCircle
 10
241.5938785829
 20
44.283301057
 30
0.0
 40
6.928759710002552
100
AcDbArc
 50
177.8231497691
 51
210.7662083659
  0
LINE
  5
27A
330
1F
100
AcDbEntity
  8
0
  6
Continuous
 62
     7
370
    15
100
AcDbLine
 10
236.9669224223
 20
36.8036984297
 30
0.0
 11
238.6941052133
 21
35.8066170279
 31
0.0
  0
SPLINE
  5
27B
330
1F
100
AcDbEntity
  8
0
  6
Continuous
 62
     7
370
    15
100
AcDbSpline
210
0.0
220
0.0
230
1.0
 70
     8
 71
     3
 72
    14
 73
    10
 74
     0
 42
0.000000001
 43
0.00000001
 40
0.0
 40
0.0
 40
0.0
 40
0.0
 40
0.25
 40
0.25
 40
0.5
 40
0.5
 40
0.75
 40
0.75
 40
1.0
 40
1.0
 40
1.0
 40
1.0
 10
238.64621003496
 20
35.68436855805857
 30
0.0
 10
238.6293018374219
 20
35.64121170850942
 30
0.0
 10
238.6087786465409
 20
35.60119573602042
 30
0.0
 10
238.5599952109786
 20
35.5278861090355
 30
0.0
 10
238.5315382326028
 20
35.49459895042943
 30
0.0
 10
238.4681756100946
 20
35.4416761040991
 30
0.0
 10
238.4328565493536
 20
35.42161243767384
 30
0.0
 10
238.3580384723025
 20
35.4048534471918
 30
0.0
 10
238.3196689982378
 20
35.40905034280299
 30
0.0
 10
238.2858769094508
 20
35.42855810042543
 30
0.0
  0
LINE
  5
27C
330
1F
100
AcDbEntity
  8
0
  6
Continuous
 62
     7
370
    15
100
AcDbLine
 10
238.2858767655
 20
35.428558241
 30
0.0
 11
236.9324169949
 21
36.2098939354
 31
0.0
  0
SPLINE
  5
27D
330
1F
100
AcDbEntity
  8
0
  6
Continuous
 62
     7
370
    15
100
AcDbSpline
210
0.0
220
0.0
230
1.0
 70
     8
 71
     3
 72
     8
 73
     4
 74
     0
 42
0.000000001
 43
0.00000001
 40
0.0
 40
0.0
 40
0.0
 40
0.0
 40
0.0011901715795577
 40
0.0011901715795577
 40
0.0011901715795577
 40
0.0011901715795577
 10
236.9324167745051
 20
36.20989400512727
 30
0.0
 10
236.9432775981476
 20
36.40784919348543
 30
0.0
 10
236.9547610451036
 20
36.605788105987
 30
0.0
 10
236.9669225119223
 20
36.80369859219563
 30
0.0
  0
ARC
  5
27E
330
1F
100
AcDbEntity
  8
0
  6
Continuous
 62
     7
370
    15
100
AcDbCircle
 10
243.962042266
 20
36.5035768382
 30
0.0
 40
5.682485948884898
100
AcDbArc
 50
206.7304063396
 51
272.8196224275
  0
SPLINE
  5
27F
330
1F
100
AcDbEntity
  8
0
  6
Continuous
 62
     7
370
    15
100
AcDbSpline
210
0.0
220
0.0
230
1.0
 70
     8
 71
     3
 72
     8
 73
     4
 74
     0
 42
0.000000001
 43
0.00000001
 40
0.0
 40
0.0
 40
0.0
 40
0.0
 40
1.0
 40
1.0
 40
1.0
 40
1.0
 10
237.2928394412796
 20
37.46323623063039
 30
0.0
 10
237.1837658608926
 20
37.24346403057118
 30
0.0
 10
237.0751542954247
 20
37.02361094890151
 30
0.0
 10
236.9669225119223
 20
36.80369859219563
 30
0.0
  0
LINE
  5
280
330
1F
100
AcDbEntity
  8
0
  6
Continuous
 62
     7
370
    15
100
AcDbLine
 10
237.3510863366
 20
37.4968613766
 30
0.0
 11
237.292839392
 21
37.4632361312
 31
0.0
  0
SPLINE
  5
281
330
1F
100
AcDbEntity
  8
0
  6
Continuous
 62
     7
370
    15
100
AcDbSpline
210
0.0
220
0.0
230
1.0
 70
     8
 71
     3
 72
    12
 73
     8
 74
     0
 42
0.000000001
 43
0.00000001
 40
0.0
 40
0.0
 40
0.0
 40
0.0
 40
0.2500000000000015
 40
0.2500000000000015
 40
0.500000000000003
 40
0.500000000000003
 40
1.0
 40
1.0
 40
1.0
 40
1.0
 10
237.3631854655678
 20
37.83040937077512
 30
0.0
 10
237.4012230731204
 20
37.80845072733788
 30
0.0
 10
237.4306964770321
 20
37.78219379073322
 30
0.0
 10
237.469490187075
 20
37.7243257814339
 30
0.0
 10
237.4783123900216
 20
37.69354364662477
 30
0.0
 10
237.4732031173348
 20
37.60056366323802
 30
0.0
 10
237.4265793755654
 20
37.54044265130871
 30
0.0
 10
237.3510862917121
 20
37.49686142165278
 30
0.0
  0
LINE
  5
282
330
1F
100
AcDbEntity
  8
0
  6
Continuous
 62
     7
370
    15
100
AcDbLine
 10
236.5782968688
 20
38.2835156444
 30
0.0
 11
237.3631854456
 21
37.8304091137
 31
0.0
  0
SPLINE
  5
283
330
1F
100
AcDbEntity
  8
0
  6
Continuous
 62
     7
370
    15
100
AcDbSpline
210
0.0
220
0.0
230
1.0
 70
     8
 71
     3
 72
    12
 73
     8
 74
     0
 42
0.000000001
 43
0.00000001
 40
0.0
 40
0.0
 40
0.0
 40
0.0
 40
0.4999999999999984
 40
0.4999999999999984
 40
0.7499999999999992
 40
0.7499999999999992
 40
1.0
 40
1.0
 40
1.0
 40
1.0
 10
236.0005123396459
 20
38.27653116844347
 30
0.0
 10
236.0764431473972
 20
38.32036509072702
 30
0.0
 10
236.1803331068213
 20
38.34702243323622
 30
0.0
 10
236.3410351866536
 20
38.34997829600994
 30
0.0
 10
236.3948199870765
 20
38.344825024374
 30
0.0
 10
236.4945888725191
 20
38.32252652177064
 30
0.0
 10
236.5401410983465
 20
38.30554277047322
 30
0.0
 10
236.5782969384507
 20
38.28351587283672
 30
0.0
  0
LINE
  5
284
330
1F
100
AcDbEntity
  8
0
  6
Continuous
 62
     7
370
    15
100
AcDbLine
 10
235.9422653634
 20
38.2429059222
 30
0.0
 11
236.0005123081
 21
38.2765311676
 31
0.0
  0
SPLINE
  5
285
330
1F
100
AcDbEntity
  8
0
  6
Continuous
 62
     7
370
    15
100
AcDbSpline
210
0.0
220
0.0
230
1.0
 70
     8
 71
     3
 72
     8
 73
     4
 74
     0
 42
0.000000001
 43
0.00000001
 40
0.0
 40
0.0
 40
0.0
 40
0.0
 40
1.0
 40
1.0
 40
1.0
 40
1.0
 10
234.7997890002352
 20
38.05475813894272
 30
0.0
 10
235.1807296509743
 20
38.11723901761565
 30
0.0
 10
235.5615676232135
 20
38.17993913975058
 30
0.0
 10
235.9422654892133
 20
38.24290597742108
 30
0.0
  0
LINE
  5
286
330
1F
100
AcDbEntity
  8
0
  6
Continuous
 62
     7
370
    15
100
AcDbLine
 10
233.4438372268
 20
38.8375322217
 30
0.0
 11
234.7997887652
 21
38.0547580604
 31
0.0
  0
LINE
  5
287
330
1F
100
AcDbEntity
  8
0
  6
Continuous
 62
     7
370
    15
100
AcDbLine
 10
233.4438372268
 20
38.8375322217
 30
0.0
 11
235.4567753215
 21
39.9995766489
 31
0.0
  0
ARC
  5
288
330
1F
100
AcDbEntity
  8
0
  6
Continuous
 62
     7
370
    15
100
AcDbCircle
 10
243.1169463387
 20
37.7749739346
 30
0.0
 40
6.379488898678574
100
AcDbArc
 50
194.2013364212
 51
238.2565264866
  0
ELLIPSE
  5
289
330
1F
100
AcDbEntity
  8
0
  6
Continuous
 62
     7
370
    15
100
AcDbEllipse
 10
235.222460753
 20
40.7880762865
 30
0.0
 11
-6.005970385558612E-5
 21
0.8534489614827194
 31
0.0
210
0.0
220
0.0
230
1.0
 40
0.7174342186
 41
3.534193645557468
 42
5.104989972352355
  0
ARC
  5
28A
330
1F
100
AcDbEntity
  8
0
  6
Continuous
 62
     7
370
    15
100
AcDbCircle
 10
242.5690488871
 20
40.091343147
 30
0.0
 40
6.87975145216985
100
AcDbArc
 50
195.5856097917
 51
215.4796086014
  0
ARC
  5
28B
330
1F
100
AcDbEntity
  8
0
  6
Continuous
 62
     7
370
    15
100
AcDbCircle
 10
240.2799251532
 20
38.9933510707
 30
0.0
 40
5.990945803431473
100
AcDbArc
 50
192.9819354392
 51
253.8515311867
  0
SPLINE
  5
28C
330
1F
100
AcDbEntity
  8
0
  6
Continuous
 62
     7
370
    15
100
AcDbSpline
210
0.0
220
0.0
230
1.0
 70
     8
 71
     3
 72
     8
 73
     4
 74
     0
 42
0.000000001
 43
0.00000001
 40
0.0000000000000007
 40
0.0000000000000007
 40
0.0000000000000007
 40
0.0000000000000007
 40
0.0011901715795607
 40
0.0011901715795607
 40
0.0011901715795607
 40
0.0011901715795607
 10
234.7997890002361
 20
38.05475813894081
 30
0.0
 10
234.6809918843209
 20
37.91840710262542
 30
0.0
 10
234.5617487101706
 20
37.78267655649181
 30
0.0
 10
234.4421022026755
 20
37.64752200667205
 30
0.0
  0
LINE
  5
28D
330
1F
100
AcDbEntity
  8
0
  6
Continuous
 62
     7
370
    15
100
AcDbLine
 10
233.0046755441
 20
38.5839576649
 30
0.0
 11
233.4438372268
 21
38.8375322217
 31
0.0
  0
LINE
  5
28E
330
1F
100
AcDbEntity
  8
0
  6
Continuous
 62
     7
370
    15
100
AcDbLine
 10
234.4421022913
 20
37.647522013
 30
0.0
 11
233.106319831
 21
38.4186528134
 31
0.0
  0
SPLINE
  5
28F
330
1F
100
AcDbEntity
  8
0
  6
Continuous
 62
     7
370
    15
100
AcDbSpline
210
0.0
220
0.0
230
1.0
 70
     8
 71
     3
 72
    10
 73
     6
 74
     0
 42
0.000000001
 43
0.00000001
 40
0.0
 40
0.0
 40
0.0
 40
0.0
 40
0.5
 40
0.5
 40
1.0
 40
1.0
 40
1.0
 40
1.0
 10
233.1063197372594
 20
38.4186528099761
 30
0.0
 10
233.0800154848825
 20
38.43383793164887
 30
0.0
 10
233.057817370764
 20
38.45746758258275
 30
0.0
 10
233.0238054843322
 20
38.51490997539264
 30
0.0
 10
233.0119346039261
 20
38.54854825354326
 30
0.0
 10
233.004675626662
 20
38.58395767678638
 30
0.0
  0
ARC
  5
290
330
1F
100
AcDbEntity
  8
0
  6
Continuous
 62
     7
370
    15
100
AcDbCircle
 10
238.9659322134
 20
39.6285173629
 30
0.0
 40
5.907141973987612
100
AcDbArc
 50
207.0721247622
 51
239.1239624201
  0
ELLIPSE
  5
291
330
1F
100
AcDbEntity
  8
0
  6
Continuous
 62
     7
370
    15
100
AcDbEllipse
 10
235.1032219375
 20
40.7192188064
 30
0.0
 11
0.2600075789209484
 21
0.9705436209909378
 31
0.0
210
0.0
220
0.0
230
1.0
 40
0.5176380889
 41
3.619174351347741
 42
5.189970678142664
  0
SPLINE
  5
292
330
1F
100
AcDbEntity
  8
0
  6
Continuous
 62
     7
370
    15
100
AcDbSpline
210
0.0
220
0.0
230
1.0
 70
     8
 71
     3
 72
    12
 73
     8
 74
     0
 42
0.000000001
 43
0.00000001
 40
0.0
 40
0.0
 40
0.0
 40
0.0
 40
0.4999999999999996
 40
0.4999999999999996
 40
0.7499999999999998
 40
0.7499999999999998
 40
1.0
 40
1.0
 40
1.0
 40
1.0
 10
252.5586521743759
 20
61.05882284182812
 30
0.0
 10
252.6210955002005
 20
61.09487060652844
 30
0.0
 10
252.7004321054226
 20
61.12052960658624
 30
0.0
 10
252.8313054687638
 20
61.13231336659271
 30
0.0
 10
252.8760777811347
 20
61.13150309438917
 30
0.0
 10
252.961339697138
 20
61.11795461400183
 30
0.0
 10
253.0007559042564
 20
61.10519000299243
 30
0.0
 10
253.0319955645062
 20
61.08715573100046
 30
0.0
  0
LINE
  5
293
330
1F
100
AcDbEntity
  8
0
  6
Continuous
 62
     7
370
    15
100
AcDbLine
 10
253.0319958394
 20
61.0871556847
 30
0.0
 11
254.1836591335
 21
60.4223146165
 31
0.0
  0
SPLINE
  5
294
330
1F
100
AcDbEntity
  8
0
  6
Continuous
 62
     7
370
    15
100
AcDbSpline
210
0.0
220
0.0
230
1.0
 70
     8
 71
     3
 72
     9
 73
     5
 74
     0
 42
0.000000001
 43
0.00000001
 40
0.0
 40
0.0
 40
0.0
 40
0.0
 40
0.8664443272572582
 40
1.0
 40
1.0
 40
1.0
 40
1.0
 10
255.7507398765014
 20
58.64200047378964
 30
0.0
 10
256.0699165746273
 20
58.71129046502555
 30
0.0
 10
256.4382918851753
 20
58.79126097098437
 30
0.0
 10
256.8086319825394
 20
58.86813045147548
 30
0.0
 10
256.8580930033864
 20
58.87839680665586
 30
0.0
  0
LINE
  5
295
330
1F
100
AcDbEntity
  8
0
  6
Continuous
 62
     7
370
    15
100
AcDbLine
 10
256.8580930034
 20
58.8783968067
 30
0.0
 11
258.211552774
 21
58.0970611123
 31
0.0
  0
SPLINE
  5
296
330
1F
100
AcDbEntity
  8
0
  6
Continuous
 62
     7
370
    15
100
AcDbSpline
210
0.0
220
0.0
230
1.0
 70
     8
 71
     3
 72
    14
 73
    10
 74
     0
 42
0.000000001
 43
0.00000001
 40
0.0
 40
0.0
 40
0.0
 40
0.0
 40
0.25
 40
0.25
 40
0.5
 40
0.5
 40
0.75
 40
0.75
 40
1.0
 40
1.0
 40
1.0
 40
1.0
 10
258.2115527366977
 20
58.09706102144979
 30
0.0
 10
258.2428148248557
 20
58.079013802102
 30
0.0
 10
258.2650821969519
 20
58.05592448666169
 30
0.0
 10
258.2882355949402
 20
58.00731313339298
 30
0.0
 10
258.2897557649362
 20
57.98131335182787
 30
0.0
 10
258.2763105941652
 20
57.93118042244044
 30
0.0
 10
258.2616110885172
 20
57.90699010732904
 30
0.0
 10
258.2199660935415
 20
57.86203966455646
 30
0.0
 10
258.1936538100239
 20
57.8418057574747
 30
0.0
 10
258.1624734152792
 20
57.82380569873065
 30
0.0
  0
LINE
  5
297
330
1F
100
AcDbEntity
  8
0
  6
Continuous
 62
     7
370
    15
100
AcDbLine
 10
252.5586520747
 20
61.0588226384
 30
0.0
 11
252.0507311837
 21
60.7656061493
 31
0.0
  0
SPLINE
  5
298
330
1F
100
AcDbEntity
  8
0
  6
Continuous
 62
     7
370
    15
100
AcDbSpline
210
0.0
220
0.0
230
1.0
 70
     8
 71
     3
 72
    10
 73
     6
 74
     0
 42
0.000000001
 43
0.00000001
 40
0.0
 40
0.0
 40
0.0
 40
0.0
 40
0.4054437952989477
 40
0.8120056974215478
 40
1.0
 40
1.0
 40
1.0
 40
1.0
 10
259.8733674493644
 20
54.72796852447402
 30
0.0
 10
259.8916859918392
 20
54.76689452365726
 30
0.0
 10
259.928373594487
 20
54.84485386964088
 30
0.0
 10
259.9423942153594
 20
54.9523533379937
 30
0.0
 10
259.9243253376012
 20
55.00546232538618
 30
0.0
 10
259.9186120912408
 20
55.02225499690579
 30
0.0
  0
LWPOLYLINE
  5
299
330
1F
100
AcDbEntity
  8
0
  6
Continuous
 62
     7
370
    15
100
AcDbPolyline
 90
       20
 70
   128
 43
0.0
 10
266.9051186989
 20
41.2562213503
 10
266.8167572966
 20
41.201783789
 10
266.5264036442
 20
40.9512861677
 10
266.3582508895
 20
40.6659414715
 10
266.3237601148
 20
40.3651944868
 10
266.425278455
 20
40.0695424884
 10
266.6558875708
 20
39.7991338974
 10
266.9998771421
 20
39.5723932084
 10
267.433797963
 20
39.4047767414
 10
267.9280835254
 20
39.3077045075
 10
268.4490487837
 20
39.2877919339
 10
268.961188599
 20
39.3463975331
 10
269.4296027876
 20
39.4795265062
 10
269.822369948
 20
39.6781062352
 10
270.1127236004
 20
39.9286038564
 10
270.2808737208
 20
40.2139500734
 10
270.3153671297
 20
40.5146955373
 10
270.2138487895
 20
40.8103475358
 10
269.9832370395
 20
41.0807576474
 10
269.7340075778
 20
41.2562200083
  0
LWPOLYLINE
  5
29A
330
1F
100
AcDbEntity
  8
0
  6
Continuous
 62
     7
370
    15
100
AcDbPolyline
 90
       23
 70
   128
 43
0.0
 10
267.403781422
 20
41.5180797886
 10
267.0541903123
 20
41.3370406479
 10
266.8071098459
 20
41.1064784936
 10
266.6825625747
 20
40.8450688747
 10
266.6906335315
 20
40.5739926107
 10
266.8306738443
 20
40.3152078019
 10
267.0913325107
 20
40.0896828955
 10
267.451494371
 20
39.9156875618
 10
267.881984422
 20
39.8073161156
 10
268.3479231006
 20
39.7733502382
 10
268.811562183
 20
39.8165420965
 10
269.2353458225
 20
39.9333893538
 10
269.5849369322
 20
40.1144284945
 10
269.8320147644
 20
40.3449921696
 10
269.9565620357
 20
40.6064017885
 10
269.9484910788
 20
40.8774780524
 10
269.8084534002
 20
41.1362613405
 10
269.5477947339
 20
41.361786247
 10
269.1876302393
 20
41.5357831013
 10
268.7571428225
 20
41.6441530269
 10
268.2912041439
 20
41.6781189043
 10
267.8275624273
 20
41.6349285667
 10
267.403781422
 20
41.5180797886
  0
LWPOLYLINE
  5
29B
330
1F
100
AcDbEntity
  8
0
  6
Continuous
 62
     7
370
    15
100
AcDbPolyline
 90
       19
 70
   128
 43
0.0
 10
267.6535396024
 20
41.3019859824
 10
267.3522983572
 20
41.1357321266
 10
267.1677248261
 20
40.9200257845
 10
267.1220809827
 20
40.6808845555
 10
267.2208692855
 20
40.447153996
 10
267.4521771171
 20
40.2470239471
 10
267.7881037163
 20
40.1046339224
 10
268.1881332438
 20
40.0371572069
 10
268.604014555
 20
40.0527334704
 10
268.9855876421
 20
40.14948316
 10
269.2868262532
 20
40.3157385366
 10
269.4713997843
 20
40.5314448786
 10
269.5170462618
 20
40.770584587
 10
269.4182553248
 20
41.0043166672
 10
269.1869474933
 20
41.2044467161
 10
268.851020894
 20
41.3468367407
 10
268.4509940007
 20
41.4143119355
 10
268.0351126895
 20
41.3987356721
 10
267.6535396024
 20
41.3019859824
  0
SPLINE
  5
29C
330
1F
100
AcDbEntity
  8
0
  6
Continuous
 62
     7
370
    15
100
AcDbSpline
210
0.0
220
0.0
230
1.0
 70
     8
 71
     3
 72
    10
 73
     6
 74
     0
 42
0.000000001
 43
0.00000001
 40
0.0
 40
0.0
 40
0.0
 40
0.0
 40
0.4391240720809658
 40
0.751371240356488
 40
1.0
 40
1.0
 40
1.0
 40
1.0
 10
267.2842805362004
 20
40.98396958362662
 30
0.0
 10
267.2949842972933
 20
40.83281453276342
 30
0.0
 10
267.3132991626361
 20
40.57417793032207
 30
0.0
 10
267.3399154026823
 20
40.37984740938313
 30
0.0
 10
267.3531656105628
 20
40.33753154044376
 30
0.0
 10
267.3590392496091
 20
40.31877348454597
 30
0.0
  0
LINE
  5
29D
330
1F
100
AcDbEntity
  8
0
  6
Continuous
 62
     7
370
    15
100
AcDbLine
 10
267.3590392496
 20
40.3187734845
 30
0.0
 11
267.5725667087
 21
40.1993030645
 31
0.0
  0
SPLINE
  5
29E
330
1F
100
AcDbEntity
  8
0
  6
Continuous
 62
     7
370
    15
100
AcDbSpline
210
0.0
220
0.0
230
1.0
 70
     8
 71
     3
 72
     9
 73
     5
 74
     0
 42
0.000000001
 43
0.00000001
 40
0.0
 40
0.0
 40
0.0
 40
0.0
 40
0.6110156664726234
 40
1.0
 40
1.0
 40
1.0
 40
1.0
 10
269.0405569289971
 20
40.17795431693783
 30
0.0
 10
269.1076147223735
 20
40.21402024186941
 30
0.0
 10
269.217362797678
 20
40.27304642877518
 30
0.0
 10
269.3163425148414
 20
40.35978377905506
 30
0.0
 10
269.3548440741549
 20
40.3935232494456
 30
0.0
  0
SPLINE
  5
29F
330
1F
100
AcDbEntity
  8
0
  6
Continuous
 62
     7
370
    15
100
AcDbSpline
210
0.0
220
0.0
230
1.0
 70
     8
 71
     3
 72
    10
 73
     6
 74
     0
 42
0.000000001
 43
0.00000001
 40
0.0
 40
0.0
 40
0.0
 40
0.0
 40
0.4391218025588137
 40
0.7513712614394542
 40
1.0
 40
1.0
 40
1.0
 40
1.0
 10
269.3548440741549
 20
40.3935232494456
 30
0.0
 10
269.3441419009627
 20
40.43282720096914
 30
0.0
 10
269.3258296574698
 20
40.50007929244745
 30
0.0
 10
269.2992085864188
 20
40.77948232357938
 30
0.0
 10
269.2859587921706
 20
40.97295560002171
 30
0.0
 10
269.2800853607461
 20
41.05871934852626
 30
0.0
  0
SPLINE
  5
2A0
330
1F
100
AcDbEntity
  8
0
  6
Continuous
 62
     7
370
    15
100
AcDbSpline
210
0.0
220
0.0
230
1.0
 70
     8
 71
     3
 72
    10
 73
     6
 74
     0
 42
0.000000001
 43
0.00000001
 40
0.0
 40
0.0
 40
0.0
 40
0.0
 40
0.4391228077696939
 40
0.751371544097748
 40
1.0
 40
1.0
 40
1.0
 40
1.0
 10
269.2800853607461
 20
41.05871934852626
 30
0.0
 10
269.1318745650867
 20
41.04505827245988
 30
0.0
 10
268.8782749514564
 20
41.02168316272655
 30
0.0
 10
268.5096257949091
 20
41.16934389466402
 30
0.0
 10
268.3261400662051
 20
41.29724560411894
 30
0.0
 10
268.2448035917689
 20
41.35394251561677
 30
0.0
  0
SPLINE
  5
2A1
330
1F
100
AcDbEntity
  8
0
  6
Continuous
 62
     7
370
    15
100
AcDbSpline
210
0.0
220
0.0
230
1.0
 70
     8
 71
     3
 72
    11
 73
     7
 74
     0
 42
0.000000001
 43
0.00000001
 40
0.0
 40
0.0
 40
0.0
 40
0.0
 40
0.1285559288167053
 40
0.4801532428789739
 40
0.8150691138212278
 40
1.0
 40
1.0
 40
1.0
 40
1.0
 10
268.2448035917689
 20
41.35394251561677
 30
0.0
 10
268.206121296715
 20
41.32104523555659
 30
0.0
 10
268.061643872896
 20
41.19817470093259
 30
0.0
 10
267.7907088993887
 20
41.029023974067
 30
0.0
 10
267.4973448506221
 20
40.96894077794401
 30
0.0
 10
267.3401877756733
 20
40.98002608402854
 30
0.0
 10
267.2842805362004
 20
40.98396958362662
 30
0.0
  0
LINE
  5
2A2
330
1F
100
AcDbEntity
  8
0
  6
Continuous
 62
     7
370
    15
100
AcDbLine
 10
269.2800853607
 20
40.3315985726
 30
0.0
 11
269.2800853607
 21
41.0587193485
 31
0.0
  0
LINE
  5
2A3
330
1F
100
AcDbEntity
  8
0
  6
Continuous
 62
     7
370
    15
100
AcDbLine
 10
268.2448035918
 20
40.0343355953
 30
0.0
 11
268.2448035918
 21
41.3539425156
 31
0.0
  0
LWPOLYLINE
  5
2A4
330
1F
100
AcDbEntity
  8
0
  6
Continuous
 62
     7
370
    15
100
AcDbPolyline
 90
        3
 70
   128
 43
0.0
 10
271.1057198972
 20
34.1241085962
 10
270.9475137988
 20
34.1137175202
 10
270.8669132194
 20
34.1230800958
  0
LWPOLYLINE
  5
2A5
330
1F
100
AcDbEntity
  8
0
  6
Continuous
 62
     7
370
    15
100
AcDbPolyline
 90
        3
 70
   128
 43
0.0
 10
242.980575367
 20
55.1379794632
 10
243.069557901
 20
55.2653383459
 10
243.2710504592
 20
55.4552587248
  0
LWPOLYLINE
  5
2A6
330
1F
100
AcDbEntity
  8
0
  6
Continuous
 62
     7
370
    15
100
AcDbPolyline
 90
        3
 70
   128
 43
0.0
 10
243.0385434181
 20
55.2022107461
 10
243.1363020454
 20
55.3257754008
 10
243.2453418694
 20
55.4276357012
  0
LWPOLYLINE
  5
2A7
330
1F
100
AcDbEntity
  8
0
  6
Continuous
 62
     7
370
     0
100
AcDbPolyline
 90
        8
 70
   128
 43
0.0
 10
244.6668411415
 20
41.3165686066
 10
244.7132843343
 20
40.5080442853
 10
244.8518496721
 20
39.7664172253
 10
245.080262542
 20
39.1038651224
 10
245.3947728623
 20
38.5312675107
 10
245.7902156684
 20
38.0580255268
 10
246.2600980408
 20
37.6919107603
 10
246.3240206513
 20
37.6538103243
  0
LWPOLYLINE
  5
2A8
330
1F
100
AcDbEntity
  8
0
  6
Continuous
 62
     7
370
     0
100
AcDbPolyline
 90
       20
 70
   128
 43
0.0
 10
254.323370668
 20
51.5105920937
 10
254.1268036934
 20
51.6134262618
 10
253.5600760949
 20
51.8081567991
 10
252.940207412
 20
51.8842373929
 10
252.27737545
 20
51.8404187884
 10
251.5824641386
 20
51.6774202177
 10
250.866883914
 20
51.3979181049
 10
250.1423845477
 20
51.0065026542
 10
249.4208623377
 20
50.5096003835
 10
248.7141646437
 20
49.9153700313
 10
248.0338952464
 20
49.2335692794
 10
247.3912242952
 20
48.4753933274
 10
246.7967048014
 20
47.6532913884
 10
246.2600980408
 20
46.7807617133
 10
245.7902156684
 20
45.8721323073
 10
245.3947728623
 20
44.9423217778
 10
245.080262542
 20
44.0065982796
 10
244.8518496721
 20
43.0803262906
 10
244.7132843343
 20
42.178715097
 10
244.6668411415
 20
41.3165686066
  0
LWPOLYLINE
  5
2A9
330
1F
100
AcDbEntity
  8
0
  6
Continuous
 62
     7
370
     0
100
AcDbPolyline
 90
       39
 70
   128
 43
0.0
 10
272.5798816565
 20
35.8166824833
 10
271.9979518873
 20
35.4250589644
 10
271.4318956749
 20
34.9327520914
 10
270.8971535832
 20
34.3531911406
 10
270.4083117144
 20
33.702185147
 10
269.9787047716
 20
32.9974912841
 10
269.6200510605
 20
32.2583320985
 10
269.3421340828
 20
31.5048702507
 10
269.1525341799
 20
30.7576574897
 10
269.056423231
 20
30.0370763023
 10
269.056423231
 20
29.3627822218
 10
269.1525341799
 20
28.753168374
 10
269.3421340828
 20
28.2248630013
 10
269.6200510605
 20
27.7922772659
 10
269.9787047716
 20
27.467210841
 10
270.4083117144
 20
27.2585305962
 10
270.8971535832
 20
27.1719294107
 10
271.4318956749
 20
27.2097685373
 10
271.9979518873
 20
27.3710162557
 10
272.5798816565
 20
27.651274547
 10
273.1618114257
 20
28.0428980658
 10
273.7278676381
 20
28.5352049389
 10
274.2626097298
 20
29.1147658897
 10
274.7514515986
 20
29.7657718832
 10
275.1810585414
 20
30.4704657462
 10
275.5397122525
 20
31.2096249318
 10
275.8176292302
 20
31.9630867796
 10
276.0072291331
 20
32.7102995405
 10
276.103340082
 20
33.430880728
 10
276.103340082
 20
34.1051748085
 10
276.0072291331
 20
34.7147886563
 10
275.8176292302
 20
35.2430940289
 10
275.5397122525
 20
35.6756797644
 10
275.1810585414
 20
36.0007461893
 10
274.7514515986
 20
36.2094264341
 10
274.2626097298
 20
36.2960276196
 10
273.7278676381
 20
36.258188493
 10
273.1618114257
 20
36.0969407745
 10
272.5798816565
 20
35.8166824833
  0
LWPOLYLINE
  5
2AA
330
1F
100
AcDbEntity
  8
0
  6
Continuous
 62
     7
370
     0
100
AcDbPolyline
 90
       20
 70
   128
 43
0.0
 10
269.9891188298
 20
28.0336635575
 10
270.1809898881
 20
27.942553221
 10
270.6353373602
 20
27.8374688946
 10
271.1380261151
 20
27.8569798808
 10
271.6737824477
 20
28.0004928831
 10
272.2263275494
 20
28.2636474614
 10
272.7788726511
 20
28.6384478782
 10
273.3146289837
 20
29.1135059709
 10
273.8173177386
 20
29.6743870672
 10
274.2716652107
 20
30.3040498189
 10
274.6638660022
 20
30.9833615146
 10
274.9820035857
 20
31.6916821233
 10
275.2164110216
 20
32.4074890758
 10
275.3599664803
 20
33.1090335165
 10
275.4083079278
 20
33.7749991292
 10
275.3599664803
 20
34.3851508948
 10
275.2164110216
 20
34.9209497308
 10
274.9820035857
 20
35.3661156186
 10
274.6638660022
 20
35.707122392
 10
274.5004086699
 20
35.82098815
  0
LWPOLYLINE
  5
2AB
330
1F
100
AcDbEntity
  8
0
  6
Continuous
 62
     7
370
     0
100
AcDbPolyline
 90
       21
 70
   128
 43
0.0
 10
238.2858767655
 20
42.7763446139
 10
238.6361341988
 20
44.140943775
 10
239.0802796641
 20
45.5161444849
 10
239.6143092107
 20
46.8895492926
 10
240.2334095368
 20
48.248778314
 10
240.9319981607
 20
49.5815764529
 10
241.7037787383
 20
50.8759301271
 10
242.5417924297
 20
52.1201695459
 10
243.4384857296
 20
53.3030793508
 10
244.3857743455
 20
54.4139948084
 10
245.3751186014
 20
55.4429008533
 10
246.3975999938
 20
56.3805226713
 10
247.444000546
 20
57.2184072516
 10
248.5048873074
 20
57.9490018251
 10
249.5706962775
 20
58.5657205637
 10
250.6318194153
 20
59.0630016541
 10
251.6786906621
 20
59.4363630415
 10
252.7018727459
 20
59.6824396126
 10
253.6921412691
 20
59.7990119664
 10
254.6405694962
 20
59.7850310264
 10
255.538607544
 20
59.6406211702
  0
ARC
  5
2AC
330
1F
100
AcDbEntity
  8
0
  6
Continuous
 62
     7
370
     0
100
AcDbCircle
 10
261.7319157988
 20
37.4940600808
 30
0.0
 40
23.61098606914642
100
AcDbArc
 50
157.5509382489
 51
167.8916617859
  0
LWPOLYLINE
  5
2AD
330
1F
100
AcDbEntity
  8
0
  6
Continuous
 62
     7
370
     0
100
AcDbPolyline
 90
       14
 70
   128
 43
0.0
 10
244.1875020699
 20
53.5510120627
 10
244.2374763784
 20
53.6096428647
 10
245.1588459995
 20
54.6267492916
 10
246.1149153186
 20
55.5641086127
 10
247.0976008664
 20
56.4137957571
 10
248.098594857
 20
57.168627649
 10
249.1094337794
 20
57.8222210561
 10
250.1215713926
 20
58.3690514588
 10
251.1264502196
 20
58.8044943229
 10
252.1155745217
 20
59.1248687476
 10
253.0805812776
 20
59.3274662736
 10
254.0133121085
 20
59.4105733928
 10
254.9058806149
 20
59.3734876074
 10
255.7507398765
 20
59.2165221755
  0
LWPOLYLINE
  5
2AE
330
1F
100
AcDbEntity
  8
0
  6
Continuous
 62
     7
370
     0
100
AcDbPolyline
 90
       18
 70
   128
 43
0.0
 10
251.9456064891
 20
34.4085378691
 10
251.2855634631
 20
33.8607602449
 10
250.2725712854
 20
33.1132203217
 10
249.2508727764
 20
32.4698704999
 10
248.229279228
 20
31.9362590311
 10
247.2166008468
 20
31.5169875243
 10
246.2215708822
 20
31.2156717093
 10
245.2527712393
 20
31.0349114213
 10
244.318556049
 20
30.9762639698
 10
243.4269822741
 20
31.0402352571
 10
242.5857397389
 20
31.2262751273
 10
241.8020823111
 20
31.5327771823
 10
241.082768633
 20
31.9570993201
 10
240.4340021939
 20
32.4955823717
 10
239.8613779879
 20
33.1435809046
 10
239.3698344402
 20
33.8955084754
 10
238.9636106019
 20
34.7448790785
 10
238.6462099298
 20
35.684368367
  0
ARC
  5
2AF
330
1F
100
AcDbEntity
  8
0
  6
Continuous
 62
     7
370
     0
100
AcDbCircle
 10
253.0746097261
 20
52.9913551771
 30
0.0
 40
7.017045852611237
100
AcDbArc
 50
14.3287351339
 51
43.52515955
  0
LWPOLYLINE
  5
2B0
330
1F
100
AcDbEntity
  8
0
  6
Continuous
 62
     7
370
     0
100
AcDbPolyline
 90
       26
 70
   128
 43
0.0
 10
242.5455211087
 20
41.3165689868
 10
242.5926702613
 20
42.2612489238
 10
242.733457199
 20
43.247105604
 10
242.965904971
 20
44.2602994537
 10
243.2867511481
 20
45.2866077464
 10
243.691490627
 20
46.311623175
 10
244.1744424738
 20
47.3209564135
 10
244.7288273018
 20
48.3004393435
 10
245.3468621029
 20
49.2363214349
 10
246.0198718703
 20
50.1154657449
 10
246.7384081366
 20
50.9255298968
 10
247.4923847988
 20
51.6551437304
 10
248.2712174002
 20
52.2940638531
 10
249.0639730114
 20
52.8333225222
 10
249.8595230327
 20
53.2653485559
 10
250.6466997224
 20
53.5840774668
 10
251.4144526417
 20
53.7850349322
 10
252.1520045453
 20
53.865400931
 10
252.8490014671
 20
53.8240461969
 10
253.495659576
 20
53.6615519762
 10
254.0829005067
 20
53.3801984182
 10
254.6024815868
 20
52.9839363305
 10
255.0471081188
 20
52.4783272827
 10
255.4105390764
 20
51.8704696407
 10
255.6876730446
 20
51.168896467
 10
255.8246562292
 20
50.643918589
  0
LWPOLYLINE
  5
2B1
330
1F
100
AcDbEntity
  8
0
  6
Continuous
 62
     7
370
     0
100
AcDbPolyline
 90
       13
 70
   128
 43
0.0
 10
247.8253062125
 20
36.7871364393
 10
247.4923847988
 20
36.6895214864
 10
246.7384081366
 20
36.5486123955
 10
246.0198718703
 20
36.5290722329
 10
245.3468621029
 20
36.6311760053
 10
244.7288273018
 20
36.8534903041
 10
244.1744424738
 20
37.192894136
 10
243.691490627
 20
37.6446230412
 10
243.2867511481
 20
38.2023362142
 10
242.965904971
 20
38.858203396
 10
242.733457199
 20
39.6030187606
 10
242.5926702613
 20
40.4263263026
 10
242.5455211087
 20
41.3165689868
  0
LWPOLYLINE
  5
2B2
330
1F
100
AcDbEntity
  8
0
  6
Continuous
 62
     7
370
     0
100
AcDbPolyline
 90
       21
 70
   128
 43
0.0
 10
233.106319831
 20
45.7664391862
 10
233.4565772642
 20
47.1310383474
 10
233.9007227295
 20
48.5062390573
 10
234.4347522761
 20
49.879643865
 10
235.0538526022
 20
51.2388728864
 10
235.7524412261
 20
52.5716710253
 10
236.5242218037
 20
53.8660246995
 10
237.3622354951
 20
55.1102641183
 10
238.258928795
 20
56.2931739232
 10
239.2062174109
 20
57.4040893808
 10
240.1955616668
 20
58.4329954257
 10
241.2180430592
 20
59.3706172437
 10
242.2644436114
 20
60.208501824
 10
243.3253303728
 20
60.9390963975
 10
244.3911393429
 20
61.5558151361
 10
245.4522624807
 20
62.0530962265
 10
246.4991337275
 20
62.4264576139
 10
247.5223158113
 20
62.672534185
 10
248.5125843345
 20
62.7891065388
 10
249.4610125616
 20
62.7751255988
 10
250.3590506094
 20
62.6307157426
  0
LWPOLYLINE
  5
2B3
330
1F
100
AcDbEntity
  8
0
  6
Continuous
 62
     7
370
     0
100
AcDbPolyline
 90
       17
 70
   128
 43
0.0
 10
236.5782968688
 20
44.856669421
 10
236.908637282
 20
46.1207646335
 10
237.329851569
 20
47.3940251631
 10
237.8377566549
 20
48.6638064254
 10
238.4273087475
 20
49.9174992782
 10
239.0926533861
 20
51.1426543526
 10
239.8271840521
 20
52.3271056228
 10
240.6236060481
 20
53.4590905529
 10
241.4740115716
 20
54.5273702436
 10
242.3699551185
 20
55.5213337978
 10
243.3025402465
 20
56.4311130483
 10
244.2625060088
 20
57.2476727587
 10
245.240319562
 20
57.9629043898
 10
246.2262713054
 20
58.5697053571
 10
247.2105703078
 20
59.0620500889
 10
248.1834423077
 20
59.4350496429
 10
248.6883185828
 20
59.5823102997
  0
LWPOLYLINE
  5
2B4
330
1F
100
AcDbEntity
  8
0
  6
Continuous
 62
     7
370
     0
100
AcDbPolyline
 90
       20
 70
   128
 43
0.0
 10
236.0005123081
 20
44.8496849442
 10
236.3293657277
 20
46.1383497115
 10
236.7505813318
 20
47.4374617968
 10
237.2600425584
 20
48.734320335
 10
237.8527668599
 20
50.0162469761
 10
238.5229610202
 20
51.2707090748
 10
239.2640731801
 20
52.4854428807
 10
240.0688567157
 20
53.6485721642
 10
240.9294449836
 20
54.7487274125
 10
241.83742409
 20
55.7751517168
 10
242.7839175133
 20
56.7178112221
 10
243.7596722095
 20
57.5674897012
 10
244.7551488319
 20
58.3158809426
 10
245.7606152954
 20
58.9556678591
 10
246.7662419318
 20
59.4805964312
 10
247.7621973984
 20
59.8855348767
 10
248.7387453114
 20
60.1665241121
 10
249.6863381748
 20
60.3208167681
 10
250.5957120785
 20
60.3469044802
 10
250.7614308526
 20
60.3374683159
  0
LINE
  5
2B5
330
1F
100
AcDbEntity
  8
0
  6
Continuous
 62
     7
370
     0
100
AcDbLine
 10
241.2727284306
 20
43.2151456214
 30
0.0
 11
240.7069511118
 21
43.5417619153
 31
0.0
  0
LWPOLYLINE
  5
2B6
330
1F
100
AcDbEntity
  8
0
  6
Continuous
 62
     7
370
     0
100
AcDbPolyline
 90
        3
 70
   128
 43
0.0
 10
235.5900638244
 20
43.8945801373
 10
235.5893578647
 20
44.0158182357
 10
235.614071723
 20
44.7491755778
  0
LINE
  5
2B7
330
1F
100
AcDbEntity
  8
0
  6
Continuous
 62
     7
370
     0
100
AcDbLine
 10
235.7881459453
 20
41.1146392806
 30
0.0
 11
241.2727284306
 21
37.9484572059
 31
0.0
  0
LINE
  5
2B8
330
1F
100
AcDbEntity
  8
0
  6
Continuous
 62
     7
370
     0
100
AcDbLine
 10
235.6689070778
 20
41.0457819606
 30
0.0
 11
235.7881459453
 21
41.1146392806
 31
0.0
  0
LWPOLYLINE
  5
2B9
330
1F
100
AcDbEntity
  8
0
  6
Continuous
 62
     7
370
     0
100
AcDbPolyline
 90
       17
 70
   128
 43
0.0
 10
214.3174743894
 20
60.3077820161
 10
214.3641810001
 20
61.0716604689
 10
214.5033057714
 20
61.87318476
 10
214.7318836066
 20
62.6952717014
 10
215.0450422643
 20
63.5203998774
 10
215.4361077252
 20
64.3309831642
 10
215.8967451205
 20
65.1097455775
 10
216.4171365396
 20
65.8400888448
 10
216.9861907759
 20
66.5064469511
 10
217.5917794974
 20
67.0946179166
 10
218.2209956434
 20
67.5920654384
 10
218.8604285106
 20
67.9881879615
 10
219.4964497469
 20
68.2745423353
 10
220.1155035633
 20
68.4450254179
 10
220.7043961236
 20
68.4960038743
 10
221.250575981
 20
68.4263908975
 10
221.4631106842
 20
68.3619251468
  0
ARC
  5
2BA
330
1F
100
AcDbEntity
  8
0
  6
Continuous
 62
     7
370
     0
100
AcDbCircle
 10
217.6738726381
 20
60.0664228846
 30
0.0
 40
3.365065145620343
100
AcDbArc
 50
175.8869312949
 51
225.0942276392
  0
LWPOLYLINE
  5
2BB
330
1F
100
AcDbEntity
  8
0
  6
Continuous
 62
     7
370
     0
100
AcDbPolyline
 90
        3
 70
   128
 43
0.0
 10
238.886827605
 20
33.9476342128
 10
238.6231365059
 20
34.4983462572
 10
238.2858767655
 20
35.428558241
  0
LINE
  5
2BC
330
1F
100
AcDbEntity
  8
0
  6
Continuous
 62
     7
370
     0
100
AcDbLine
 10
240.707043308
 20
36.9686614552
 30
0.0
 11
235.4567753215
 21
39.9995766489
 31
0.0
  0
LINE
  5
2BD
330
1F
100
AcDbEntity
  8
0
  6
Continuous
 62
     7
370
     0
100
AcDbLine
 10
237.4429812836
 20
37.583821914
 30
0.0
 11
237.3631854456
 21
37.8304091137
 31
0.0
  0
LWPOLYLINE
  5
2BE
330
1F
100
AcDbEntity
  8
0
  6
Continuous
 62
     7
370
     0
100
AcDbPolyline
 90
        3
 70
   128
 43
0.0
 10
237.0741584928
 20
37.0592132157
 10
236.903762077
 20
37.4116794198
 10
236.5782968688
 20
38.2835156444
  0
ARC
  5
2BF
330
1F
100
AcDbEntity
  8
0
  6
Continuous
 62
     7
370
     0
100
AcDbCircle
 10
242.6476827932
 20
40.1527166522
 30
0.0
 40
6.906876821775014
100
AcDbArc
 50
195.761892362
 51
213.7649782583
  0
LWPOLYLINE
  5
2C0
330
1F
100
AcDbEntity
  8
0
  6
Continuous
 62
     7
370
     0
100
AcDbPolyline
 90
        3
 70
   128
 43
0.0
 10
233.7060102163
 20
36.9401076313
 10
233.4435795713
 20
37.4884408296
 10
233.106319831
 20
38.4186528134
  0
ARC
  5
2C1
330
1F
100
AcDbEntity
  8
0
  6
Continuous
 62
     7
370
     0
100
AcDbCircle
 10
270.912891127
 20
34.7580323764
 30
0.0
 40
0.6626026665918506
100
AcDbArc
 50
286.9188638804
 51
9.8032635819
  0
OLE2FRAME
  5
2C2
330
1F
100
AcDbEntity
  8
0
100
AcDbOle2Frame
 70
     2
  3
Paintbrush-Bild
 10
13.8511154363
 20
38.264191557
 30
0.0
 11
51.6290888628
 21
31.9806341108
 31
0.0
 71
     2
 72
     0
 73
     1
 90
    12928
310
80552BED0767C5B32B40DDAF6807D121434000000000000000006FFBDDFB85D0
310
4940DDAF6807D121434000000000000000006FFBDDFB85D04940416F4BD60AFB
310
3F4000000000000000002BED0767C5B32B40416F4BD60AFB3F40000000000000
310
0000000000000100000000010000010000000100000000000100000000320000
310
D0CF11E0A1B11AE1000000000000000000000000000000003E000300FEFF0900
310
0600000000000000000000000100000001000000000000000010000002000000
310
01000000FEFFFFFF0000000000000000FFFFFFFFFFFFFFFFFFFFFFFFFFFFFFFF
310
FFFFFFFFFFFFFFFFFFFFFFFFFFFFFFFFFFFFFFFFFFFFFFFFFFFFFFFFFFFFFFFF
310
FFFFFFFFFFFFFFFFFFFFFFFFFFFFFFFFFFFFFFFFFFFFFFFFFFFFFFFFFFFFFFFF
310
FFFFFFFFFFFFFFFFFFFFFFFFFFFFFFFFFFFFFFFFFFFFFFFFFFFFFFFFFFFFFFFF
310
FFFFFFFFFFFFFFFFFFFFFFFFFFFFFFFFFFFFFFFFFFFFFFFFFFFFFFFFFFFFFFFF
310
FFFFFFFFFFFFFFFFFFFFFFFFFFFFFFFFFFFFFFFFFFFFFFFFFFFFFFFFFFFFFFFF
310
FFFFFFFFFFFFFFFFFFFFFFFFFFFFFFFFFFFFFFFFFFFFFFFFFFFFFFFFFFFFFFFF
310
FFFFFFFFFFFFFFFFFFFFFFFFFFFFFFFFFFFFFFFFFFFFFFFFFFFFFFFFFFFFFFFF
310
FFFFFFFFFFFFFFFFFFFFFFFFFFFFFFFFFFFFFFFFFFFFFFFFFFFFFFFFFFFFFFFF
310
FFFFFFFFFFFFFFFFFFFFFFFFFFFFFFFFFFFFFFFFFFFFFFFFFFFFFFFFFFFFFFFF
310
FFFFFFFFFFFFFFFFFFFFFFFFFFFFFFFFFFFFFFFFFFFFFFFFFFFFFFFFFFFFFFFF
310
FFFFFFFFFFFFFFFFFFFFFFFFFFFFFFFFFFFFFFFFFFFFFFFFFFFFFFFFFFFFFFFF
310
FFFFFFFFFFFFFFFFFFFFFFFFFFFFFFFFFFFFFFFFFFFFFFFFFFFFFFFFFFFFFFFF
310
FFFFFFFFFFFFFFFFFFFFFFFFFFFFFFFFFFFFFFFFFFFFFFFFFFFFFFFFFFFFFFFF
310
FDFFFFFFFEFFFFFFFEFFFFFFFEFFFFFF05000000060000000700000008000000
310
090000000A0000000B0000000C0000000D0000000E0000000F00000010000000
310
11000000120000001300000014000000150000001600000017000000FEFFFFFF
310
FFFFFFFFFFFFFFFFFFFFFFFFFFFFFFFFFFFFFFFFFFFFFFFFFFFFFFFFFFFFFFFF
310
FFFFFFFFFFFFFFFFFFFFFFFFFFFFFFFFFFFFFFFFFFFFFFFFFFFFFFFFFFFFFFFF
310
FFFFFFFFFFFFFFFFFFFFFFFFFFFFFFFFFFFFFFFFFFFFFFFFFFFFFFFFFFFFFFFF
310
FFFFFFFFFFFFFFFFFFFFFFFFFFFFFFFFFFFFFFFFFFFFFFFFFFFFFFFFFFFFFFFF
310
FFFFFFFFFFFFFFFFFFFFFFFFFFFFFFFFFFFFFFFFFFFFFFFFFFFFFFFFFFFFFFFF
310
FFFFFFFFFFFFFFFFFFFFFFFFFFFFFFFFFFFFFFFFFFFFFFFFFFFFFFFFFFFFFFFF
310
FFFFFFFFFFFFFFFFFFFFFFFFFFFFFFFFFFFFFFFFFFFFFFFFFFFFFFFFFFFFFFFF
310
FFFFFFFFFFFFFFFFFFFFFFFFFFFFFFFFFFFFFFFFFFFFFFFFFFFFFFFFFFFFFFFF
310
FFFFFFFFFFFFFFFFFFFFFFFFFFFFFFFFFFFFFFFFFFFFFFFFFFFFFFFFFFFFFFFF
310
FFFFFFFFFFFFFFFFFFFFFFFFFFFFFFFFFFFFFFFFFFFFFFFFFFFFFFFFFFFFFFFF
310
FFFFFFFFFFFFFFFFFFFFFFFFFFFFFFFFFFFFFFFFFFFFFFFFFFFFFFFFFFFFFFFF
310
FFFFFFFFFFFFFFFFFFFFFFFFFFFFFFFFFFFFFFFFFFFFFFFFFFFFFFFFFFFFFFFF
310
FFFFFFFFFFFFFFFFFFFFFFFFFFFFFFFFFFFFFFFFFFFFFFFFFFFFFFFFFFFFFFFF
310
52006F006F007400200045006E00740072007900000000000000000000000000
310
0000000000000000000000000000000000000000000000000000000000000000
310
16000500FFFFFFFFFFFFFFFF020000000A00030000000000C000000000000046
310
000000000000000000000000C08294AC6024D20103000000C000000000000000
310
01004F006C006500000000000000000000000000000000000000000000000000
310
0000000000000000000000000000000000000000000000000000000000000000
310
0A000200FFFFFFFFFFFFFFFFFFFFFFFF00000000000000000000000000000000
310
0000000000000000000000000000000000000000000000001400000000000000
310
010043006F006D0070004F0062006A0000000000000000000000000000000000
310
0000000000000000000000000000000000000000000000000000000000000000
310
120002010100000003000000FFFFFFFF00000000000000000000000000000000
310
0000000000000000000000000000000000000000010000004D00000000000000
310
01004F006C006500310030004E00610074006900760065000000000000000000
310
0000000000000000000000000000000000000000000000000000000000000000
310
1A000200FFFFFFFFFFFFFFFFFFFFFFFF00000000000000000000000000000000
310
0000000000000000000000000000000000000000040000002426000000000000
310
FEFFFFFF02000000FEFFFFFFFFFFFFFFFFFFFFFFFFFFFFFFFFFFFFFFFFFFFFFF
310
FFFFFFFFFFFFFFFFFFFFFFFFFFFFFFFFFFFFFFFFFFFFFFFFFFFFFFFFFFFFFFFF
310
FFFFFFFFFFFFFFFFFFFFFFFFFFFFFFFFFFFFFFFFFFFFFFFFFFFFFFFFFFFFFFFF
310
FFFFFFFFFFFFFFFFFFFFFFFFFFFFFFFFFFFFFFFFFFFFFFFFFFFFFFFFFFFFFFFF
310
FFFFFFFFFFFFFFFFFFFFFFFFFFFFFFFFFFFFFFFFFFFFFFFFFFFFFFFFFFFFFFFF
310
FFFFFFFFFFFFFFFFFFFFFFFFFFFFFFFFFFFFFFFFFFFFFFFFFFFFFFFFFFFFFFFF
310
FFFFFFFFFFFFFFFFFFFFFFFFFFFFFFFFFFFFFFFFFFFFFFFFFFFFFFFFFFFFFFFF
310
FFFFFFFFFFFFFFFFFFFFFFFFFFFFFFFFFFFFFFFFFFFFFFFFFFFFFFFFFFFFFFFF
310
FFFFFFFFFFFFFFFFFFFFFFFFFFFFFFFFFFFFFFFFFFFFFFFFFFFFFFFFFFFFFFFF
310
FFFFFFFFFFFFFFFFFFFFFFFFFFFFFFFFFFFFFFFFFFFFFFFFFFFFFFFFFFFFFFFF
310
FFFFFFFFFFFFFFFFFFFFFFFFFFFFFFFFFFFFFFFFFFFFFFFFFFFFFFFFFFFFFFFF
310
FFFFFFFFFFFFFFFFFFFFFFFFFFFFFFFFFFFFFFFFFFFFFFFFFFFFFFFFFFFFFFFF
310
FFFFFFFFFFFFFFFFFFFFFFFFFFFFFFFFFFFFFFFFFFFFFFFFFFFFFFFFFFFFFFFF
310
FFFFFFFFFFFFFFFFFFFFFFFFFFFFFFFFFFFFFFFFFFFFFFFFFFFFFFFFFFFFFFFF
310
FFFFFFFFFFFFFFFFFFFFFFFFFFFFFFFFFFFFFFFFFFFFFFFFFFFFFFFFFFFFFFFF
310
FFFFFFFFFFFFFFFFFFFFFFFFFFFFFFFFFFFFFFFFFFFFFFFFFFFFFFFFFFFFFFFF
310
0100000200000000000000000000000000000000000000000000000000000000
310
0000000000000000000000000000000000000000000000000000000000000000
310
0100FEFF030A0000FFFFFFFF0A00030000000000C00000000000004607000000
310
5042727573680007000000504272757368000700000050427275736800F439B2
310
7100000000000000000000000000000000000000000000000000000000000000
310
0000000000000000000000000000000000000000000000000000000000000000
310
0000000000000000000000000000000000000000000000000000000000000000
310
0000000000000000000000000000000000000000000000000000000000000000
310
0000000000000000000000000000000000000000000000000000000000000000
310
0000000000000000000000000000000000000000000000000000000000000000
310
0000000000000000000000000000000000000000000000000000000000000000
310
0000000000000000000000000000000000000000000000000000000000000000
310
0000000000000000000000000000000000000000000000000000000000000000
310
0000000000000000000000000000000000000000000000000000000000000000
310
0000000000000000000000000000000000000000000000000000000000000000
310
0000000000000000000000000000000000000000000000000000000000000000
310
20260000424D0E260000000000003E00000028000000B40200006E0000000100
310
01000000000000000000130B0000130B00000200000002000000000000FFFFFF
310
FFFFFFFFFFFFFFFFFFFFFFFFFFFFFFFFFFFFFFFFFFFFFFFFFFFFFFFFFFFFFFFF
310
FFFFFFFFFFFFFFFFFFFFFFFFFFFFFFFFFFFFFFFFFFFFFFFFFFFFFFFFFFFFFFFF
310
FFFFFFFFFFFFFFFFFFFFFFFFFFFFFFFFFFFFFFFFFFFFFFFFF000FFFFFFFFFFFF
310
FFFFFFFFFFFFFFFFFFFFFFFFFFFFFFFFFFFFFFFFFFFFFFFFFFFFFFFFFFFFFFFF
310
FFFFFFFFFFFFFFFFFFFFFFFFFFFFFFFFFFFFFFFFFFFFFFFFFFFFFFFFFFFFFFFF
310
FFFFFFFFFFFFFFFFFFFFFFFFFFFFFFFFF000FFFFFFFFFFFFFFFFFFFFFFFFFFFF
310
FFFFFFFFFFFFFFFFFFFFFFFFFFFFFFFFFFFFFFFFFFFFFFFFFFFFFFFFFFFFFFFF
310
FFFFFFFFFFFFFFFFFFFFFFFFFFFFFFFFFFFFFFFFFFFFFFFFFFFFFFFFFFFFFFFF
310
FFFFFFFFFFFFFFFFF000FFFFFFFFFFFFFFFFFFFFFFFFFFFFFFFFFFFFFFFFFFFF
310
FFFFFFFFFFFFFFFFFFFFFFFFFFFFFFFFFFFFFFFFFFFFFFFFFFFFFFFFFFFFFFFF
310
FFFFFFFFFFFFFFFFFFFFFFFFFFFFFFFFFFFFFFFFFFFFFFFFFFFFFFFFFFFFFFFF
310
F000FFFFFFFFFFFFFFFFFFFFFFFFFFFFFFFFFFFFFFFFFFFFFFFFFFFFFFFFFFFF
310
FFFFFFFFFFFFFFFFFFFFFFFFFFFFFFFFFFFFFFFFFFFFFFFFFFFFFFFFFFFFFFFF
310
FFFFFFFFFFFFFFFFFFFFFFFFFFFFFFFFFFFFFFFFFFFFFFFFF000FFFFFFFFFFFF
310
FFFFFFFFFFFFFFFFFFFFFFFFFFFFFFFFFFFFFFFFFFFFFFFFFFFFFFFFFFFFFFFF
310
FFFFFFFFFFFFFFFFFFFFFFFFFFFFFFFFFFFFFFFFFFFFFFFFFFFFFFFFFFFFFFFF
310
FFFFFFFFFFFFFFFFFFFFFFFFFFFFFFFFF000FFFFFFFFFFFFFFFFFFFFFFFFFFFF
310
FFFFFFFFFFFFFFFFFFFFFFFFFFFFFFFFFFFFFFFFFFFFFFFFFFFFFFFFFFFFFFFF
310
FFFFFFFFFFFFFFFFFFFFFFFFFFFFFFFFFFFFFFFFFFFFFFFFFFFFFFFFFFFFFFFF
310
FFFFFFFFFFFFFFFFF000FFFFFFFFFFFFFFFFFFFFFFFFFFFFFFFFFFFFFFFFFFFF
310
FFFFFFFFFFFFFFFFFFFFFFFFFFFFFFFFFFFFFFFFFFFFFFFFFFFFFFFFFFFFFFFF
310
FFFFFFFFFFFFFFFFFFFFFFFFFFFFFFFFFFFFFFFFFFFFFFFFFFFFFFFFFFFFFFFF
310
F000FFFFFFFFFFFFFFFFFFFFFFFFFFFFFFFFFFFFFFFFFFFFFFFFFFFFFFFFFFFF
310
FFFFFFFFFFFFFFFFFFFFFFFFFFFFFFFFFFFFFFFFFFFFFFFFFFFFFFFFFFFFFFFF
310
FFFFFFFFFFFFFFFFFFFFFFFFFFFFFFFFFFFFFFFFFFFFFFFFF000FFFFFFFFFFFF
310
FFFFFFFFFFFFFFFFFFFFFFFFFFFFFFFFFFFFFFFFFFFFFFFFFFFFFFFFFFFFFFFF
310
FFFFFFFFFFFFFFFFFFFFFFFFFFFFFFFFFFFFFFFFFFFFFFFFFFFFFFFFFFFFFFFF
310
FFFFFFFFFFFFFFFFFFFFFFFFFFFFFFFFF000FFFFFFFFFFFFFFFFFFFFFFFFFFFF
310
FFFFFFFFFFFFFFFFFFFFFFFFFFFFFFFFFFFFFFFFFFFFFFFFFFFFFFFFFFFFFFFF
310
FFFFFFFFFFFFFFFFFFFFFFFFFFFFFFFFFFFFFFFFFFFFFFFFFFFFFFFFFFFFFFFF
310
FFFFFFFFFFFFFFFFF000FFFFFFFFFFFFFFFFFFFFFFFFFFFFFFFFFFFFFFFFFFFF
310
FFFFFFFFFFFFFFFFFFFFFFFFFFFFFFFFFFFFFFFFFFFFFFFFFFFFFFFFFFFFFFFF
310
FFFFFFFFFFFFFFFFFFFFFFFFFFFFFFFFFFFFFFFFFFFFFFFFFFFFFFFFFFFFFFFF
310
F000FFFFFFFFFFFFFFFFFFFFFFFFFFFFFFFFFFFFFFFFFFFFFFFFFFFFFFFFFFFF
310
FFFFFFFFFFFFFFFFFFFFFFFFFFFFFFFFFFFFFFFFFFFFFFFFFFFFFFFFFFFFFFFF
310
FFFFFFFFFFFFFFFFFFFFFFFFFFFFFFFFFFFFFFFFFFFFFFFFF000FFFFFFFFFFFF
310
FFFFFFFFFFFFFFFFFFFFFFFFFFFFFFFFFFFFFFFFFFFFFFFFFFFFFFFFFFFFFFFF
310
FFFFFFFFFFFFFFFFFFFFFFFFFFFFFFFFFFFFFFFFFFFFFFFFFFFFFFFFFFFFFFFF
310
FFFFFFFFFFFFFFFFFFFFFFFFFFFFFFFFF000FFFFFFFFFFFFFFFFFFFFFFFFFFFF
310
FFFFFFFFFFFFFFFFFFFFFFFFFFFFFFFFFFFFFFFFFFFFFFFFFFFFFFFFFFFFFFFF
310
FFFFFFFFFFFFFFFFFFFFFFFFFFFFFFFFFFFFFFFFFFFFFFFFFFFFFFFFFFFFFFFF
310
FFFFFFFFFFFFFFFFF000FFFFFFFFFFFFFFFFFFFFFFFFFFFFFFFFFFFFFFFFFFFF
310
FFFFFFFFFFFFFFFFFFFFFFFFFFFFFFFFFFFFFFFFFFFFFFFFFFFFFFFFFFFFFFFF
310
FFFFFFFFFFFFFFFFFFFFFFFFFFFFFFFFFFFFFFFFFFFFFFFFFFFFFFFFFFFFFFFF
310
F000FFFFFFFFFFFFFFFFFFFFFFFFFFFFFFFFFFFFFFFFFFFFFFFFFFFFFFFFFFFF
310
FFFFFFFFFFFFFFFFFFFFFFFFFFFFFFFFFFFFFFFFFFFFFFFFFFFFFFFFFFFFFFFF
310
FFFFFFFFFFFFFFFFFFFFFFFFFFFFFFFFFFFFFFFFFFFFFFFFF000FFFFFFFFFFFF
310
FFFFFFFFFFFFFFFFFFFFFFFFFFFFFFFFFFFFFFFFFFFFFFFFFFFFFFFFFFFFFFFF
310
FFFFFFFFFFFFFFFFFFFFFFFFFFFFFFFFFFFFFFFFFFFFFFFFFFFFFFFFFFFFFFFF
310
FFFFFFFFFFFFFFFFFFFFFFFFFFFFFFFFF000FFFFFFFFFFFFFFFFFFFFFFFFFFFF
310
FFFFFFFFFFFFFFFFFFFFFFFFFFFFFFFFFFFFFFFFFFFFFFFFFFFFFFFFFFFFFFFF
310
FFFFFFFFFFFFFFFFFFFFFFFFFFFFFFFFFFFFFFFFFFFFFFFFFFFFFFFFFFFFFFFF
310
FFFFFFFFFFFFFFFFF000FFFFF80003FFFFFFFFFFFFFFFFFFFFFFFFFFFFFFFFFF
310
FFFFF00007FFFFFFFFFF00007FFFFFF800000000000000007FFFFFFFFFFFFFFF
310
FFFFFFFC001FFFFFFFFFFFFFFC001FFFFFFFFFFFFFFFFFFFFFFFFFFE0007FFFF
310
F000FFFF8000007FFFFFFFF8000FFFFFC0007FFFFF80007FFFFF0000007FFFFF
310
FFF8000007FFFFF800000000000000007FFFFFF0001FFFFFFFFFFFC00001FFFF
310
FFFFFFFFC00001FFFFFFFF000000000003FFFFE000007FFFF000FFFE0000000F
310
FFFFFFF0000FFFFF80007FFFFF80007FFFFC0000001FFFFFFFC0000001FFFFF8
310
00000000000000007FFFFFF0001FFFFFFFFFFE0000003FFFFFFFFFFE0000003F
310
FFFFFF000000000003FFFF0000000FFFF000FFF800000003FFFFFFF00007FFFF
310
80007FFFFF80007FFFF000000007FFFFFF000000003FFFF80000000000000000
310
7FFFFFF0001FFFFFFFFFF80000000FFFFFFFFFF80000000FFFFFFF0000000000
310
03FFFC00000003FFF000FFE000000000FFFFFFF00007FFFF80003FFFFF80007F
310
FFC000000001FFFFFC000000001FFFF800000000000000007FFFFFF0001FFFFF
310
FFFFE000000003FFFFFFFFE000000003FFFFFF000000000003FFF000000000FF
310
F000FF80000000007FFFFFF00007FFFF80003FFFFF80007FFF8000000000FFFF
310
F80000000007FFF800000000000000007FFFFFF0001FFFFFFFFFC000000001FF
310
FFFFFFC000000001FFFFFF000000000003FFC0000000007FF000FF0000000000
310
3FFFFFE00007FFFF00003FFFFF80007FFE00000000003FFFF00000000003FFF8
310
00000000000000007FFFFFF0001FFFFFFFFF8000000000FFFFFFFF8000000000
310
FFFFFF000000000003FF80000000003FF000FE00000000001FFFFFE00003FFFF
310
00003FFFFF80007FFC00000000001FFFE00000000001FFF8000001FFFE000000
310
7FFFFFF0001FFFFFFFFE00000000003FFFFFFE00000000003FFFFF0000000000
310
03FF00000000001FF000FC00000000000FFFFFE00003FFFF00001FFFFF80007F
310
F800000000001FFFC00000000000FFF8000001FFFE0000007FFFFFF0001FFFFF
310
FFFC00000000001FFFFFFC00000000001FFFFF000000000003FE00000000000F
310
F000F8000000000007FFFFE00003FFFF00001FFFFF80007FF800000000000FFF
310
800000000000FFF8000001FFFE0000007FFFFFF0001FFFFFFFF800000000000F
310
FFFFF800000000000FFFFF000000000003FC000000000007F000F80000000000
310
03FFFFC00003FFFE00001FFFFF80007FF0000000000007FF0000000000007FF8
310
000001FFFE0000007FFFFFF0001FFFFFFFF0000000000007FFFFF00000000000
310
07FFFF000000000003F8000000000003F000F0000000000003FFFFC00001FFFE
310
00001FFFFF80007FE0000000000007FE0000000000003FF8000001FFFE000000
310
7FFFFFF0001FFFFFFFF0000000000007FFFFF0000000000007FFFF0000000000
310
03F800001F800003F000E00001FFF00001FFFFC00001FFFE00000FFFFF80007F
310
E00001FFE00003FE00001FFF00003FF8000001FFFE0000007FFFFFF0001FFFFF
310
FFE000003E000003FFFFE000003E000003FFFF000000000003F00001FFF80001
310
F000E00007FFFC0001FFFFC00001FFFE00000FFFFF80007FC0000FFFFC0003FC
310
0000FFFFC0001FF8000001FFFE0000007FFFFFF0001FFFFFFFC00003FFE00001
310
FFFFC00003FFE00001FFFF0001FFFFFFFFF00007FFFE0001F000E0000FFFFF00
310
00FFFF800001FFFC00000FFFFF80007FC0001FFFFE0001FC0001FFFFE0001FF8
310
000001FFFE0000007FFFFFF0001FFFFFFF80000FFFF80000FFFF80000FFFF800
310
00FFFF0003FFFFFFFFE0000FFFFF8000F000C0003FFFFF8000FFFF800000FFFC
310
000007FFFF80007F80003FFFFF0001FC0003FFFFF0001FF8000001FFFE000000
310
7FFFFFF0001FFFFFFF80003FFFFE0000FFFF80003FFFFE0000FFFF0003FFFFFF
310
FFE0003FFFFF8000F000C0003FFFFF8000FFFF800000FFFC000007FFFF80007F
310
80007FFFFF8001F80007FFFFF8000FF8000001FFFE0000007FFFFFF0001FFFFF
310
FF00007FFFFF00007FFF00007FFFFF00007FFF0003FFFFFFFFE0003FFFFFC000
310
F000C0007FFFFFC000FFFF000000FFFC000007FFFF80007F8000FFFFFF8000F8
310
000FFFFFF8000FF8000001FFFE0000007FFFFFF0001FFFFFFF0000FFFFFF8000
310
7FFF0000FFFFFF80007FFF0003FFFFFFFFC0007FFFFFC00070008000FFFFFFC0
310
00FFFF000000FFF8000007FFFF80007F8000FFFFFF8000F8000FFFFFF8000FF8
310
000001FFFE0000007FFFFFF0001FFFFFFE0001FFFFFFC0003FFE0001FFFFFFC0
310
003FFF0003FFFFFFFFC0007FFFFFE00070008000FFFFFFC0007FFF0000007FF8
310
000003FFFF80007F0001FFFFFF8000F8000FFFFFF8000FF8000001FFFE000000
310
7FFFFFF0001FFFFFFE0001FFFFFFC0003FFE0001FFFFFFC0003FFF0003FFFFFF
310
FFC000FFFFFFE00070008000FFFFFFC0007FFF0000007FF8000003FFFF80007F
310
0001FFFFFF8000F8001FFFFFF8000FF8000001FFFE0000007FFFFFF0001FFFFF
310
FE0003FFFFFFE0003FFE0003FFFFFFE0003FFF0003FFFFFFFFC000FFFFFFE000
310
70008000FFFFFFC0007FFE0000007FF8000003FFFF80007F0001FFFFFF8000F0
310
001FFFFFF8000FF8000001FFFE0000007FFFFFF0001FFFFFFC0003FFFFFFE000
310
1FFC0003FFFFFFE0001FFF0003FFFFFFFFC000FFFFFFC00070008000FFFFFF80
310
007FFE0000007FF0000003FFFF80007F0001FFFFFF0000F0001FFFFFF8000FF8
310
000001FFFE0000007FFFFFF0001FFFFFFC0007FFFFFFF0001FFC0007FFFFFFF0
310
001FFF0003FFFFFFFFC000FFFFFFC00070008001FFFFFF0000FFFE0000003FF0
310
000001FFFF80007F0001FFFFFF0000F8001FFFFFF0000FF8000001FFFE000000
310
7FFFFFF0001FFFFFFC0007FFFFFFF0001FFC0007FFFFFFF0001FFF0003FFFFFF
310
FFC001FFFFFF80007000FFFFFFFFFE0000FFFE0008003FF0008001FFFF80007F
310
FFFFFFFFFC0000FFFFFFFFFFE0000FF8000001FFFE0000007FFFFFF0001FFFFF
310
F8000FFFFFFFF8000FF8000FFFFFFFF8000FFF0003FFFFFFFFFFFFFFFFFF0000
310
7000FFFFFFFFFC0000FFFC0008003FF0008001FFFF80007FFFFFFFFFF80001FF
310
FFFFFFFF80000FF8000001FFFE0000007FFFFFF0001FFFFFF8000FFFFFFFF800
310
0FF8000FFFFFFFF8000FFF0003FFFFFFFFFFFFFFFFFE0000F000FFFFFFFFE000
310
00FFFC000C003FE000C001FFFF80007FFFFFFFFFC00001FFFFFFFFFE00001FF8
310
000001FFFE0000007FFFFFF0001FFFFFF8000FFFFFFFF8000FF8000FFFFFFFF8
310
000FFF0003FFFFFFFFFFFFFFFFF00000F000FFFFFFFE000001FFFC000C001FE0
310
00C000FFFF80007FFFFFFFFE000001FFFFFFFFE000001FF80FFFFFFFFFFFFFC0
310
7FFFFFF0001FFFFFF8000FFFFFFFF8000FF8000FFFFFFFF8000FFF0003FFFFFF
310
FFFFFFFFFF800000F000FFFFFFC0000001FFFC001C001FE001C000FFFF80007F
310
FFFFFF80000003FFFFFFF80000001FF80FFFFFFFFFFFFFC07FFFFFF0001FFFFF
310
F8001FFFFFFFFC000FF8001FFFFFFFFC000FFF0003FFFFFFFFFFFFFFF0000001
310
F000FFFFF800000001FFF8001C001FE001C000FFFF80007FFFFFF800000003FF
310
FFFF800000003FF80FFFFFFFFFFFFFC07FFFFFF0001FFFFFF8001FFFFFFFFC00
310
0FF8001FFFFFFFFC000FFF0003FFFFFFFFFFFFFE00000001F000FFFFC0000000
310
03FFF8001E001FC001E000FFFF80007FFFFF8000000007FFFFFC000000003FF8
310
0FFFFFFFFFFFFFC07FFFFFF0001FFFFFF8001FFFFFFFFC000FF8001FFFFFFFFC
310
000FFF0003FFFFFFFFFFFFE000000003F000FFFE0000000007FFF8001E000FC0
310
01E0007FFF80007FFFFE0000000007FFFFE0000000007FF80FFFFFFFFFFFFFC0
310
7FFFFFF0001FFFFFF0001FFFFFFFFC0007F0001FFFFFFFFC0007FF0003FFFFFF
310
FFFFFF0000000003F000FFF80000000007FFF8001E000FC003E0007FFF80007F
310
FFF0000000000FFFFF8000000000FFF80FFFFFFFFFFFFFC07FFFFFF0001FFFFF
310
F0001FFFFFFFFC0007F0001FFFFFFFFC0007FF0003FFFFFFFFFFFC0000000007
310
F000FFE0000000000FFFF0003E000FC003E0007FFF80007FFFC0000000001FFF
310
FE0000000001FFF80FFFFFFFFFFFFFC07FFFFFF0001FFFFFF0001FFFFFFFFC00
310
07F0001FFFFFFFFC0007FF0003FFFFFFFFFFF0000000000FF000FFC000000000
310
1FFFF0003F000F8003F0003FFF80007FFF80000000003FFFF80000000003FFF8
310
0FFFFFFFFFFFFFC07FFFFFF0001FFFFFF0001FFFFFFFFC0007F0001FFFFFFFFC
310
0007FF0003FFFFFFFFFFE0000000001FF000FF00000000007FFFF0003F000780
310
03F0003FFF80007FFF00000000007FFFF00000000007FFF80FFFFFFFFFFFFFC0
310
7FFFFFF0001FFFFFF0001FFFFFFFFC0007F0001FFFFFFFFC0007FF0003FFFFFF
310
FFFF80000000007FF000FE0000000000FFFFE0003F00078007F0003FFF80007F
310
FE0000000001FFFFE0000000001FFFF80FFFFFFFFFFFFFC07FFFFFF0001FFFFF
310
F0001FFFFFFFFC0007F0001FFFFFFFFC0007FF0003FFFFFFFFFF0000000000FF
310
F000FC0000000003FFFFE0007F00078007F0003FFF80007FFC0000000007FFFF
310
C0000000007FFFF80FFFFFFFFFFFFFC07FFFFFF0001FFFFFF8001FFFFFFFFC00
310
0FF8001FFFFFFFFC000FFF0003FFFFFFFFFE0000000003FFF000FC000000000F
310
FFFFE0007F80070007F8001FFF80007FF8000000001FFFFF8000000001FFFFF8
310
0FFFFFFFFFFFFFC07FFFFFF0001FFFFFF8001FFFFFFFFC000FF8001FFFFFFFFC
310
000FFF0003FFFFFFFFFC000000000FFFF000F8000000007FFFFFE0007F800700
310
07F8001FFF80007FF000000000FFFFFF800000000FFFFFF80FFFFFFFFFFFFFC0
310
7FFFFFF0001FFFFFF8000FFFFFFFF8000FF8000FFFFFFFF8000FFF0003FFFFFF
310
FFFC000000007FFFF000F800000007FFFFFFC0007F8003000FF8001FFF80007F
310
F000000007FFFFFF000000007FFFFFF80FFFFFFFFFFFFFC07FFFFFF0001FFFFF
310
F8000FFFFFFFF8000FF8000FFFFFFFF8000FFF0003FFFFFFFFF80000000FFFFF
310
F000F0000000FFFFFFFFC000FF8003000FF8001FFF80007FE0000000FFFFFFFF
310
0000000FFFFFFFF8000001FFFE0000007FFFFFF0001FFFFFF8000FFFFFFFF800
310
0FF8000FFFFFFFF8000FFF0003FFFFFFFFF8000000FFFFFFF000F000000FFFFF
310
FFFFC000FFC002000FF8000FFF80007FE000001FFFFFFFFE000001FFFFFFFFF8
310
000001FFFE0000007FFFFFF0001FFFFFF8000FFFFFFFF8000FF8000FFFFFFFF8
310
000FFF0003FFFFFFFFF000001FFFFFFFF000E00000FFFFFFFFFFC000FFC00200
310
0FFC000FFF80007FE00001FFFFFFFFFE00001FFFFFFFFFF8000001FFFE000000
310
7FFFFFF0001FFFFFFC000FFFFFFFF8001FFC000FFFFFFFF8001FFF0003FFFFFF
310
FFF00001FFFFFFFFF000E00007FFFFFFFFFF8000FFC000001FFC000FFF80007F
310
C0000FFFFFFFFFFE0000FFFFFFFFFFF8000001FFFE0000007FFFFFF0001FFFFF
310
FC0007FFFFFFF0001FFC0007FFFFFFF0001FFF0003FFFFFFFFF00007FFFFFFFF
310
F000E0001FFFFFFFFFFF8000FFC000001FFC000FFF80007FC0003FFFFFFFFFFE
310
0001FFFFFFFFFFF8000001FFFE0000007FFFFFF0001FFFFFFC0007FFFFFFF000
310
1FFC0007FFFFFFF0001FFF0003FFFFFFFFF0001FFFFFFFFFF000E0003FFFFF00
310
03FF8001FFE000001FFC0007FF80007FC0007FFFFF0007FC0003FFFFF0003FF8
310
000001FFFE0000007FFFFFF0001FFFFFFC0003FFFFFFE0001FFC0003FFFFFFE0
310
001FFF0003FFFFFFFFF0003FFFFFFFFFF000E0003FFFFF0001FF8001FFE00000
310
1FFE0007FF80007FC0007FFFFE0003FC0007FFFFE0003FF8000001FFFE000000
310
7FFFFFF0001FFFFFFE0003FFFFFFE0003FFE0003FFFFFFE0003FFF0003FFFFFF
310
FFF0003FFFFF8001F000E0003FFFFF0001FF0001FFE000001FFE0007FF80007F
310
C0007FFFFE0003FC0007FFFFE0003FF8000001FFFE0000007FFFFFF0001FFFFF
310
FE0001FFFFFFC0003FFE0001FFFFFFC0003FFF0003FFFFFFFFF0003FFFFF0001
310
F000E0003FFFFF0003FF0001FFE000003FFE0007FF80007FC0007FFFFE0003FC
310
0007FFFFE0003FF8000001FFFE0000007FFFFFF0001FFFFFFF0001FFFFFFC000
310
7FFF0001FFFFFFC0007FFF0003FFFFFFFFF0003FFFFF0001F000E0003FFFFE00
310
03FF0003FFF000003FFE0003FF80007FC0007FFFFC0003FE0007FFFFE0003FF8
310
000001FFFE0000007FFFFFF0001FFFFFFF0000FFFFFF80007FFF0000FFFFFF80
310
007FFF0003FFFFFFFFF0003FFFFF0001F000E0003FFFFE0003FF0003FFF00000
310
3FFF0003FF80007FC0007FFFFC0007FE0007FFFFC0003FF8000001FFFE000000
310
7FFFFFF0001FFFFFFF80007FFFFF0000FFFF80007FFFFF0000FFFF0003FFFFFF
310
FFF0003FFFFF0003F000E0003FFFFC0003FE0003FFF000003FFF0003FF80007F
310
E0003FFFF80007FE0003FFFFC0007FF8000001FFFE0000007FFFFFF0001FFFFF
310
FF80003FFFFE0000FFFF80003FFFFE0000FFFF0003FFFFFFFFF0001FFFFE0003
310
F000F0001FFFF80003FE0003FFF000007FFF0001FF80007FE0003FFFF00007FE
310
0001FFFF80007FF8000001FFFE0000007FFFFFF0001FFFFFFFC0000FFFF80001
310
FFFFC0000FFFF80001FFFF0003FFFFFFFFF0001FFFFC0003F000F0000FFFF000
310
07FE0007FFF800007FFF0001FF80007FE0001FFFE00007FF0000FFFE00007FF8
310
000001FFFE0000007FFFFFF0001FFFFFFFC00003FFE00001FFFFC00003FFE000
310
01FFFF0003FFFFFFFFF8000FFFF80003F000F00003FFC00007FC0007FFF80000
310
7FFF8001FF80007FF00007FF80000FFF00007FF80000FFF8000001FFFE000000
310
7F80000000000001FFE000003E000003FFFFE000003E000003FFFF0003FFFFFF
310
FFF80003FFE00007F000F800000000000FFC0007FFF800007FFF8001FF80007F
310
F000000000000FFF000000000000FFF8000001FFFE0000007F80000000000001
310
FFF0000000000007FFFFF0000000000007FFFF0003FFFFFFFFFC00007E000007
310
F000F800000000000FFC0007FFF80000FFFF8000FF80007FF800000000001FFF
310
800000000001FFF8000001FFFE0000007F80000000000001FFF800000000000F
310
FFFFF800000000000FFFFF0003FFFFFFFFFC00000000000FF000FC0000000000
310
1FFC0007FFFC0000FFFF8000FF80007FF800000000003FFFC00000000001FFF8
310
000001FFFE0000007F80000000000001FFF800000000000FFFFFF80000000000
310
0FFFFF0003FFFFFFFFFE00000000001FF000FE00000000003FF8000FFFFC0000
310
FFFF8000FF80007FFC00000000003FFFC00000000003FFF8000001FFFE000000
310
7F80000000000001FFFC00000000001FFFFFFC00000000001FFFFF0003FFFFFF
310
FFFF00000000001FF000FF00000000003FF8000FFFFC0000FFFFC000FF80007F
310
FE00000000007FFFE00000000007FFF8000001FFFE0000007F80000000000001
310
FFFE00000000003FFFFFFE00000000003FFFFF0003FFFFFFFFFF80000000003F
310
F000FF80000000007FF8000FFFFC0001FFFFC0007F80007FFF0000000000FFFF
310
F0000000000FFFF800000000000000007F80000000000001FFFF8000000000FF
310
FFFFFF8000000000FFFFFF0003FFFFFFFFFFC0000000007FF000FFC000000000
310
FFF8000FFFFE0001FFFFC0007F80007FFF8000000001FFFFF8000000001FFFF8
310
00000000000000007F80000000000001FFFFC000000001FFFFFFFFC000000001
310
FFFFFF0003FFFFFFFFFFE000000000FFF000FFE000000003FFF0001FFFFE0001
310
FFFFC0007F80007FFFC000000007FFFFFE000000003FFFF80000000000000000
310
7F80000000000001FFFFE000000003FFFFFFFFE000000003FFFFFF0003FFFFFF
310
FFFFF000000003FFF000FFF80000000FFFF0001FFFFE0001FFFFE0007F80007F
310
FFF00000000FFFFFFF00000000FFFFF800000000000000007F80000000000001
310
FFFFF80000000FFFFFFFFFF80000000FFFFFFF0003FFFFFFFFFFFC0000000FFF
310
F000FFFE0000003FFFF0001FFFFE0003FFFFE0003F80007FFFFC0000003FFFFF
310
FFC0000003FFFFF800000000000000007F80000000000001FFFFFE0000003FFF
310
FFFFFFFE0000003FFFFFFF0003FFFFFFFFFFFF0000003FFFF000FFFF800000FF
310
FFF0001FFFFF0003FFFFE0003F80007FFFFF000001FFFFFFFFF800001FFFFFF8
310
00000000000000007F80000000000001FFFFFFC00001FFFFFFFFFFFFC00001FF
310
FFFFFF0003FFFFFFFFFFFFC00000FFFFF000FFFFF8000FFFFFFFFFFFFFFFFFFF
310
FFFFFFFFFFFFFFFFFFFFF0001FFFFFFFFFFF0000FFFFFFF80000000000000000
310
7FFFFFFFFFFFFFFFFFFFFFFC001FFFFFFFFFFFFFFC001FFFFFFFFFFFFFFFFFFF
310
FFFFFFFC001FFFFFF000FFFFFFFFFFFFFFFFFFFFFFFFFFFFFFFFFFFFFFFFFFFF
310
FFFFFFFFFFFFFFFFFFFFFFFFFFFFFFFFFFFFFFFFFFFFFFFFFFFFFFFFFFFFFFFF
310
FFFFFFFFFFFFFFFFFFFFFFFFFFFFFFFFFFFFFFFFFFFFFFFFFFFFFFFFFFFFFFFF
310
F000FFFFFFFFFFFFFFFFFFFFFFFFFFFFFFFFFFFFFFFFFFFFFFFFFFFFFFFFFFFF
310
FFFFFFFFFFFFFFFFFFFFFFFFFFFFFFFFFFFFFFFFFFFFFFFFFFFFFFFFFFFFFFFF
310
FFFFFFFFFFFFFFFFFFFFFFFFFFFFFFFFFFFFFFFFFFFFFFFFF000FFFFFFFFFFFF
310
FFFFFFFFFFFFFFFFFFFFFFFFFFFFFFFFFFFFFFFFFFFFFFFFFFFFFFFFFFFFFFFF
310
FFFFFFFFFFFFFFFFFFFFFFFFFFFFFFFFFFFFFFFFFFFFFFFFFFFFFFFFFFFFFFFF
310
FFFFFFFFFFFFFFFFFFFFFFFFFFFFFFFFF000FFFFFFFFFFFFFFFFFFFFFFFFFFFF
310
FFFFFFFFFFFFFFFFFFFFFFFFFFFFFFFFFFFFFFFFFFFFFFFFFFFFFFFFFFFFFFFF
310
FFFFFFFFFFFFFFFFFFFFFFFFFFFFFFFFFFFFFFFFFFFFFFFFFFFFFFFFFFFFFFFF
310
FFFFFFFFFFFFFFFFF000FFFFFFFFFFFFFFFFFFFFFFFFFFFFFFFFFFFFFFFFFFFF
310
FFFFFFFFFFFFFFFFFFFFFFFFFFFFFFFFFFFFFFFFFFFFFFFFFFFFFFFFFFFFFFFF
310
FFFFFFFFFFFFFFFFFFFFFFFFFFFFFFFFFFFFFFFFFFFFFFFFFFFFFFFFFFFFFFFF
310
F000FFFFFFFFFFFFFFFFFFFFFFFFFFFFFFFFFFFFFFFFFFFFFFFFFFFFFFFFFFFF
310
FFFFFFFFFFFFFFFFFFFFFFFFFFFFFFFFFFFFFFFFFFFFFFFFFFFFFFFFFFFFFFFF
310
FFFFFFFFFFFFFFFFFFFFFFFFFFFFFFFFFFFFFFFFFFFFFFFFF000FFFFFFFFFFFF
310
FFFFFFFFFFFFFFFFFFFFFFFFFFFFFFFFFFFFFFFFFFFFFFFFFFFFFFFFFFFFFFFF
310
FFFFFFFFFFFFFFFFFFFFFFFFFFFFFFFFFFFFFFFFFFFFFFFFFFFFFFFFFFFFFFFF
310
FFFFFFFFFFFFFFFFFFFFFFFFFFFFFFFFF000FFFFFFFFFFFFFFFFFFFFFFFFFFFF
310
FFFFFFFFFFFFFFFFFFFFFFFFFFFFFFFFFFFFFFFFFFFFFFFFFFFFFFFFFFFFFFFF
310
FFFFFFFFFFFFFFFFFFFFFFFFFFFFFFFFFFFFFFFFFFFFFFFFFFFFFFFFFFFFFFFF
310
FFFFFFFFFFFFFFFFF000FFFFFFFFFFFFFFFFFFFFFFFFFFFFFFFFFFFFFFFFFFFF
310
FFFFFFFFFFFFFFFFFFFFFFFFFFFFFFFFFFFFFFFFFFFFFFFFFFFFFFFFFFFFFFFF
310
FFFFFFFFFFFFFFFFFFFFFFFFFFFFFFFFFFFFFFFFFFFFFFFFFFFFFFFFFFFFFFFF
310
F000FFFFFFFFFFFFFFFFFFFFFFFFFFFFFFFFFFFFFFFFFFFFFFFFFFFFFFFFFFFF
310
FFFFFFFFFFFFFFFFFFFFFFFFFFFFFFFFFFFFFFFFFFFFFFFFFFFFFFFFFFFFFFFF
310
FFFFFFFFFFFFFFFFFFFFFFFFFFFFFFFFFFFFFFFFFFFFFFFFF000FFFFFFFFFFFF
310
FFFFFFFFFFFFFFFFFFFFFFFFFFFFFFFFFFFFFFFFFFFFFFFFFFFFFFFFFFFFFFFF
310
FFFFFFFFFFFFFFFFFFFFFFFFFFFFFFFFFFFFFFFFFFFFFFFFFFFFFFFFFFFFFFFF
310
FFFFFFFFFFFFFFFFFFFFFFFFFFFFFFFFF000FFFFFFFFFFFFFFFFFFFFFFFFFFFF
310
FFFFFFFFFFFFFFFFFFFFFFFFFFFFFFFFFFFFFFFFFFFFFFFFFFFFFFFFFFFFFFFF
310
FFFFFFFFFFFFFFFFFFFFFFFFFFFFFFFFFFFFFFFFFFFFFFFFFFFFFFFFFFFFFFFF
310
FFFFFFFFFFFFFFFFF000FFFFFFFFFFFFFFFFFFFFFFFFFFFFFFFFFFFFFFFFFFFF
310
FFFFFFFFFFFFFFFFFFFFFFFFFFFFFFFFFFFFFFFFFFFFFFFFFFFFFFFFFFFFFFFF
310
FFFFFFFFFFFFFFFFFFFFFFFFFFFFFFFFFFFFFFFFFFFFFFFFFFFFFFFFFFFFFFFF
310
F000FFFFFFFFFFFFFFFFFFFFFFFFFFFFFFFFFFFFFFFFFFFFFFFFFFFFFFFFFFFF
310
FFFFFFFFFFFFFFFFFFFFFFFFFFFFFFFFFFFFFFFFFFFFFFFFFFFFFFFFFFFFFFFF
310
FFFFFFFFFFFFFFFFFFFFFFFFFFFFFFFFFFFFFFFFFFFFFFFFF000FFFFFFFFFFFF
310
FFFFFFFFFFFFFFFFFFFFFFFFFFFFFFFFFFFFFFFFFFFFFFFFFFFFFFFFFFFFFFFF
310
FFFFFFFFFFFFFFFFFFFFFFFFFFFFFFFFFFFFFFFFFFFFFFFFFFFFFFFFFFFFFFFF
310
FFFFFFFFFFFFFFFFFFFFFFFFFFFFFFFFF000FFFFFFFFFFFFFFFFFFFFFFFFFFFF
310
FFFFFFFFFFFFFFFFFFFFFFFFFFFFFFFFFFFFFFFFFFFFFFFFFFFFFFFFFFFFFFFF
310
FFFFFFFFFFFFFFFFFFFFFFFFFFFFFFFFFFFFFFFFFFFFFFFFFFFFFFFFFFFFFFFF
310
FFFFFFFFFFFFFFFFF000FFFFFFFFFFFFFFFFFFFFFFFFFFFFFFFFFFFFFFFFFFFF
310
FFFFFFFFFFFFFFFFFFFFFFFFFFFFFFFFFFFFFFFFFFFFFFFFFFFFFFFFFFFFFFFF
310
FFFFFFFFFFFFFFFFFFFFFFFFFFFFFFFFFFFFFFFFFFFFFFFFFFFFFFFFFFFFFFFF
310
F000FFFFFFFFFFFFFFFFFFFFFFFFFFFFFFFFFFFFFFFFFFFFFFFFFFFFFFFFFFFF
310
FFFFFFFFFFFFFFFFFFFFFFFFFFFFFFFFFFFFFFFFFFFFFFFFFFFFFFFFFFFFFFFF
310
FFFFFFFFFFFFFFFFFFFFFFFFFFFFFFFFFFFFFFFFFFFFFFFFF000FFFFFFFFFFFF
310
FFFFFFFFFFFFFFFFFFFFFFFFFFFFFFFFFFFFFFFFFFFFFFFFFFFFFFFFFFFFFFFF
310
FFFFFFFFFFFFFFFFFFFFFFFFFFFFFFFFFFFFFFFFFFFFFFFFFFFFFFFFFFFFFFFF
310
FFFFFFFFFFFFFFFFFFFFFFFFFFFFFFFFF000FFFFFFFFFFFFFFFFFFFFFFFFFFFF
310
FFFFFFFFFFFFFFFFFFFFFFFFFFFFFFFFFFFFFFFFFFFFFFFFFFFFFFFFFFFFFFFF
310
FFFFFFFFFFFFFFFFFFFFFFFFFFFFFFFFFFFFFFFFFFFFFFFFFFFFFFFFFFFFFFFF
310
FFFFFFFFFFFFFFFFF000FFFFFFFFFFFFFFFFFFFFFFFFFFFFFFFFFFFFFFFFFFFF
310
FFFFFFFFFFFFFFFFFFFFFFFFFFFFFFFFFFFFFFFFFFFFFFFFFFFFFFFFFFFFFFFF
310
FFFFFFFFFFFFFFFFFFFFFFFFFFFFFFFFFFFFFFFFFFFFFFFFFFFFFFFFFFFFFFFF
310
F000FFFFFFFFFFFFFFFFFFFFFFFFFFFFFFFFFFFFFFFFFFFFFFFFFFFFFFFFFFFF
310
FFFFFFFFFFFFFFFFFFFFFFFFFFFFFFFFFFFFFFFFFFFFFFFFFFFFFFFFFFFFFFFF
310
FFFFFFFFFFFFFFFFFFFFFFFFFFFFFFFFFFFFFFFFFFFFFFFFF000FFFFFFFFFFFF
310
FFFFFFFFFFFFFFFFFFFFFFFFFFFFFFFFFFFFFFFFFFFFFFFFFFFFFFFFFFFFFFFF
310
FFFFFFFFFFFFFFFFFFFFFFFFFFFFFFFFFFFFFFFFFFFFFFFFFFFFFFFFFFFFFFFF
310
FFFFFFFFFFFFFFFFFFFFFFFFFFFFFFFFF0000000000000000000000000000000
310
0000000000000000000000000000000000000000000000000000000000000000
310
0000000000000000000000000000000000000000000000000000000000000000
310
0000000000000000000000000000000000000000000000000000000000000000
310
0000000000000000000000000000000000000000000000000000000000000000
310
0000000000000000000000000000000000000000000000000000000000000000
310
0000000000000000000000000000000000000000000000000000000000000000
310
0000000000000000000000000000000000000000000000000000000000000000
310
0000000000000000000000000000000000000000000000000000000000000000
310
0000000000000000000000000000000000000000000000000000000000000000
310
0000000000000000000000000000000000000000000000000000000000000000
310
0000000000000000000000000000000000000000000000000000000000000000
310
0000000000000000000000000000000000000000000000000000000000000000
310
0000000000000000000000000000000000000000000000000000000000000000
310
0000000000000000000000000000000000000000000000000000000000000000
310
0000000000000000000000000000000000000000000000000000000000000000
  1
OLE
  0
ENDSEC
  0
SECTION
  2
OBJECTS
  0
DICTIONARY
  5
C
330
0
100
AcDbDictionary
281
     1
  3
ACAD_GROUP
350
D
  3
ACAD_LAYOUT
350
1A
  3
ACAD_MLINESTYLE
350
17
  3
ACAD_PLOTSETTINGS
350
19
  3
ACAD_PLOTSTYLENAME
350
E
  3
ACAD_SCALELIST
350
47
  0
DICTIONARY
  5
D
102
{ACAD_REACTORS
330
C
102
}
330
C
100
AcDbDictionary
281
     1
  0
DICTIONARY
  5
1A
102
{ACAD_REACTORS
330
C
102
}
330
C
100
AcDbDictionary
281
     1
  3
Layout1
350
1E
  3
Layout2
350
26
  3
Model
350
22
  0
DICTIONARY
  5
17
102
{ACAD_REACTORS
330
C
102
}
330
C
100
AcDbDictionary
281
     1
  3
Standard
350
18
  0
DICTIONARY
  5
19
102
{ACAD_REACTORS
330
C
102
}
330
C
100
AcDbDictionary
281
     1
  0
ACDBDICTIONARYWDFLT
  5
E
102
{ACAD_REACTORS
330
C
102
}
330
C
100
AcDbDictionary
281
     1
  3
Normal
350
F
100
AcDbDictionaryWithDefault
340
F
  0
DICTIONARY
  5
47
102
{ACAD_REACTORS
330
C
102
}
330
C
100
AcDbDictionary
281
     1
  3
A0
350
48
  3
A1
350
49
  3
A2
350
4A
  3
A3
350
4B
  3
A4
350
4C
  3
A5
350
4D
  3
A6
350
4E
  3
A7
350
4F
  3
A8
350
50
  3
A9
350
51
  3
B0
350
52
  3
B1
350
53
  3
B2
350
54
  3
B3
350
55
  3
B4
350
56
  3
B5
350
57
  3
B6
350
58
  3
B7
350
59
  3
B8
350
5A
  3
B9
350
5B
  3
C0
350
5C
  3
C1
350
5D
  3
C2
350
5E
  3
C3
350
5F
  3
C4
350
60
  3
C5
350
61
  3
C6
350
62
  3
C7
350
63
  3
C8
350
64
  3
C9
350
65
  3
D0
350
66
  3
D1
350
67
  3
D2
350
68
  0
LAYOUT
  5
1E
102
{ACAD_REACTORS
330
1A
102
}
330
1A
100
AcDbPlotSettings
  1

  2
none_device
  4

  6

 40
0.0
 41
0.0
 42
0.0
 43
0.0
 44
0.0
 45
0.0
 46
0.0
 47
0.0
 48
0.0
 49
0.0
140
0.0
141
0.0
142
1.0
143
1.0
 70
   688
 72
     1
 73
     0
 74
     5
  7

 75
    16
147
1.0
148
0.0
149
0.0
100
AcDbLayout
  1
Layout1
 70
     1
 71
     1
 10
0.0
 20
0.0
 11
420.0
 21
297.0
 12
0.0
 22
0.0
 32
0.0
 14
1.0000000000E+20
 24
1.0000000000E+20
 34
1.0000000000E+20
 15
-1.0000000000E+20
 25
-1.0000000000E+20
 35
-1.0000000000E+20
146
0.0
 13
0.0
 23
0.0
 33
0.0
 16
1.0
 26
0.0
 36
0.0
 17
0.0
 27
1.0
 37
0.0
 76
     0
330
1B
  0
LAYOUT
  5
26
102
{ACAD_REACTORS
330
1A
102
}
330
1A
100
AcDbPlotSettings
  1

  2
none_device
  4

  6

 40
0.0
 41
0.0
 42
0.0
 43
0.0
 44
0.0
 45
0.0
 46
0.0
 47
0.0
 48
0.0
 49
0.0
140
0.0
141
0.0
142
1.0
143
1.0
 70
   688
 72
     1
 73
     0
 74
     5
  7

 75
    16
147
1.0
148
0.0
149
0.0
100
AcDbLayout
  1
Layout2
 70
     1
 71
     2
 10
0.0
 20
0.0
 11
0.0
 21
0.0
 12
0.0
 22
0.0
 32
0.0
 14
0.0
 24
0.0
 34
0.0
 15
0.0
 25
0.0
 35
0.0
146
0.0
 13
0.0
 23
0.0
 33
0.0
 16
1.0
 26
0.0
 36
0.0
 17
0.0
 27
1.0
 37
0.0
 76
     0
330
23
  0
LAYOUT
  5
22
102
{ACAD_REACTORS
330
1A
102
}
330
1A
100
AcDbPlotSettings
  1

  2
none_device
  4
Letter_(8.50_x_11.00_Inches)
  6

 40
6.35
 41
6.35
 42
6.35000508
 43
6.35000508
 44
215.9
 45
279.4
 46
0.0
 47
0.0
 48
0.0
 49
0.0
140
0.0
141
0.0
142
1.0
143
1.0
 70
  1712
 72
     1
 73
     0
 74
     0
  7

 75
     0
147
1.0
148
0.0
149
0.0
100
AcDbLayout
  1
Model
 70
     1
 71
     0
 10
0.0
 20
0.0
 11
297.0
 21
210.0
 12
0.0
 22
0.0
 32
0.0
 14
0.0
 24
0.0
 34
0.0
 15
297.0
 25
210.0
 35
0.0
146
0.0
 13
0.0
 23
0.0
 33
0.0
 16
1.0
 26
0.0
 36
0.0
 17
0.0
 27
1.0
 37
0.0
 76
     0
330
1F
331
29
  0
MLINESTYLE
  5
18
102
{ACAD_REACTORS
330
17
102
}
330
17
100
AcDbMlineStyle
  2
Standard
 70
     0
  3

 62
   256
 51
90.0
 52
90.0
 71
     2
 49
0.5
 62
   256
  6
BYLAYER
 49
-0.5
 62
   256
  6
BYLAYER
  0
ACDBPLACEHOLDER
  5
F
102
{ACAD_REACTORS
330
E
102
}
330
E
  0
SCALE
  5
48
102
{ACAD_REACTORS
330
47
102
}
330
47
100
AcDbScale
 70
     0
300
1:1
140
1.0
141
1.0
290
     1
  0
SCALE
  5
49
102
{ACAD_REACTORS
330
47
102
}
330
47
100
AcDbScale
 70
     0
300
1:2
140
1.0
141
2.0
290
     0
  0
SCALE
  5
4A
102
{ACAD_REACTORS
330
47
102
}
330
47
100
AcDbScale
 70
     0
300
1:4
140
1.0
141
4.0
290
     0
  0
SCALE
  5
4B
102
{ACAD_REACTORS
330
47
102
}
330
47
100
AcDbScale
 70
     0
300
1:5
140
1.0
141
5.0
290
     0
  0
SCALE
  5
4C
102
{ACAD_REACTORS
330
47
102
}
330
47
100
AcDbScale
 70
     0
300
1:8
140
1.0
141
8.0
290
     0
  0
SCALE
  5
4D
102
{ACAD_REACTORS
330
47
102
}
330
47
100
AcDbScale
 70
     0
300
1:10
140
1.0
141
10.0
290
     0
  0
SCALE
  5
4E
102
{ACAD_REACTORS
330
47
102
}
330
47
100
AcDbScale
 70
     0
300
1:16
140
1.0
141
16.0
290
     0
  0
SCALE
  5
4F
102
{ACAD_REACTORS
330
47
102
}
330
47
100
AcDbScale
 70
     0
300
1:20
140
1.0
141
20.0
290
     0
  0
SCALE
  5
50
102
{ACAD_REACTORS
330
47
102
}
330
47
100
AcDbScale
 70
     0
300
1:30
140
1.0
141
30.0
290
     0
  0
SCALE
  5
51
102
{ACAD_REACTORS
330
47
102
}
330
47
100
AcDbScale
 70
     0
300
1:40
140
1.0
141
40.0
290
     0
  0
SCALE
  5
52
102
{ACAD_REACTORS
330
47
102
}
330
47
100
AcDbScale
 70
     0
300
1:50
140
1.0
141
50.0
290
     0
  0
SCALE
  5
53
102
{ACAD_REACTORS
330
47
102
}
330
47
100
AcDbScale
 70
     0
300
1:100
140
1.0
141
100.0
290
     0
  0
SCALE
  5
54
102
{ACAD_REACTORS
330
47
102
}
330
47
100
AcDbScale
 70
     0
300
2:1
140
2.0
141
1.0
290
     0
  0
SCALE
  5
55
102
{ACAD_REACTORS
330
47
102
}
330
47
100
AcDbScale
 70
     0
300
4:1
140
4.0
141
1.0
290
     0
  0
SCALE
  5
56
102
{ACAD_REACTORS
330
47
102
}
330
47
100
AcDbScale
 70
     0
300
8:1
140
8.0
141
1.0
290
     0
  0
SCALE
  5
57
102
{ACAD_REACTORS
330
47
102
}
330
47
100
AcDbScale
 70
     0
300
10:1
140
10.0
141
1.0
290
     0
  0
SCALE
  5
58
102
{ACAD_REACTORS
330
47
102
}
330
47
100
AcDbScale
 70
     0
300
100:1
140
100.0
141
1.0
290
     0
  0
SCALE
  5
59
102
{ACAD_REACTORS
330
47
102
}
330
47
100
AcDbScale
 70
     0
300
1/128" = 1'-0"
140
0.0078125
141
12.0
290
     0
  0
SCALE
  5
5A
102
{ACAD_REACTORS
330
47
102
}
330
47
100
AcDbScale
 70
     0
300
1/64" = 1'-0"
140
0.015625
141
12.0
290
     0
  0
SCALE
  5
5B
102
{ACAD_REACTORS
330
47
102
}
330
47
100
AcDbScale
 70
     0
300
1/32" = 1'-0"
140
0.03125
141
12.0
290
     0
  0
SCALE
  5
5C
102
{ACAD_REACTORS
330
47
102
}
330
47
100
AcDbScale
 70
     0
300
1/16" = 1'-0"
140
0.0625
141
12.0
290
     0
  0
SCALE
  5
5D
102
{ACAD_REACTORS
330
47
102
}
330
47
100
AcDbScale
 70
     0
300
3/32" = 1'-0"
140
0.09375
141
12.0
290
     0
  0
SCALE
  5
5E
102
{ACAD_REACTORS
330
47
102
}
330
47
100
AcDbScale
 70
     0
300
1/8" = 1'-0"
140
0.125
141
12.0
290
     0
  0
SCALE
  5
5F
102
{ACAD_REACTORS
330
47
102
}
330
47
100
AcDbScale
 70
     0
300
3/16" = 1'-0"
140
0.1875
141
12.0
290
     0
  0
SCALE
  5
60
102
{ACAD_REACTORS
330
47
102
}
330
47
100
AcDbScale
 70
     0
300
1/4" = 1'-0"
140
0.25
141
12.0
290
     0
  0
SCALE
  5
61
102
{ACAD_REACTORS
330
47
102
}
330
47
100
AcDbScale
 70
     0
300
3/8" = 1'-0"
140
0.375
141
12.0
290
     0
  0
SCALE
  5
62
102
{ACAD_REACTORS
330
47
102
}
330
47
100
AcDbScale
 70
     0
300
1/2" = 1'-0"
140
0.5
141
12.0
290
     0
  0
SCALE
  5
63
102
{ACAD_REACTORS
330
47
102
}
330
47
100
AcDbScale
 70
     0
300
3/4" = 1'-0"
140
0.75
141
12.0
290
     0
  0
SCALE
  5
64
102
{ACAD_REACTORS
330
47
102
}
330
47
100
AcDbScale
 70
     0
300
1" = 1'-0"
140
1.0
141
12.0
290
     0
  0
SCALE
  5
65
102
{ACAD_REACTORS
330
47
102
}
330
47
100
AcDbScale
 70
     0
300
1-1/2" = 1'-0"
140
1.5
141
12.0
290
     0
  0
SCALE
  5
66
102
{ACAD_REACTORS
330
47
102
}
330
47
100
AcDbScale
 70
     0
300
3" = 1'-0"
140
3.0
141
12.0
290
     0
  0
SCALE
  5
67
102
{ACAD_REACTORS
330
47
102
}
330
47
100
AcDbScale
 70
     0
300
6" = 1'-0"
140
6.0
141
12.0
290
     0
  0
SCALE
  5
68
102
{ACAD_REACTORS
330
47
102
}
330
47
100
AcDbScale
 70
     0
300
1'-0" = 1'-0"
140
12.0
141
12.0
290
     0
  0
ENDSEC
  0
EOF
