  0
SECTION
  2
HEADER
  9
$ACADVER
  1
AC1015
  9
$ACADMAINTVER
 70
     6
  9
$DWGCODEPAGE
  3
ANSI_1252
  9
$INSBASE
 10
0.0
 20
0.0
 30
0.0
  9
$EXTMIN
 10
0.0
 20
0.0
 30
0.0
  9
$EXTMAX
 10
297.0
 20
210.0
 30
0.0
  9
$LIMMIN
 10
0.0
 20
0.0
  9
$LIMMAX
 10
297.0
 20
210.0
  9
$ORTHOMODE
 70
     0
  9
$REGENMODE
 70
     1
  9
$FILLMODE
 70
     1
  9
$QTEXTMODE
 70
     0
  9
$MIRRTEXT
 70
     1
  9
$LTSCALE
 40
1.0
  9
$ATTMODE
 70
     1
  9
$TEXTSIZE
 40
2.0
  9
$TRACEWID
 40
1.0
  9
$TEXTSTYLE
  7
Standard
  9
$CLAYER
  8
0
  9
$CELTYPE
  6
ByLayer
  9
$CECOLOR
 62
   256
  9
$CELTSCALE
 40
1.0
  9
$DISPSILH
 70
     0
  9
$DIMSCALE
 40
1.0
  9
$DIMASZ
 40
3.0
  9
$DIMEXO
 40
0.0
  9
$DIMDLI
 40
3.75
  9
$DIMRND
 40
0.0
  9
$DIMDLE
 40
0.0
  9
$DIMEXE
 40
1.0
  9
$DIMTP
 40
0.0
  9
$DIMTM
 40
0.0
  9
$DIMTXT
 40
2.0
  9
$DIMCEN
 40
2.5
  9
$DIMTSZ
 40
0.0
  9
$DIMTOL
 70
     0
  9
$DIMLIM
 70
     0
  9
$DIMTIH
 70
     1
  9
$DIMTOH
 70
     1
  9
$DIMSE1
 70
     0
  9
$DIMSE2
 70
     0
  9
$DIMTAD
 70
     1
  9
$DIMZIN
 70
     0
  9
$DIMBLK
  1

  9
$DIMASO
 70
     1
  9
$DIMSHO
 70
     1
  9
$DIMPOST
  1

  9
$DIMAPOST
  1

  9
$DIMALT
 70
     0
  9
$DIMALTD
 70
     3
  9
$DIMALTF
 40
0.0393700787
  9
$DIMLFAC
 40
1.0
  9
$DIMTOFL
 70
     1
  9
$DIMTVP
 40
0.0
  9
$DIMTIX
 70
     0
  9
$DIMSOXD
 70
     0
  9
$DIMSAH
 70
     0
  9
$DIMBLK1
  1

  9
$DIMBLK2
  1

  9
$DIMSTYLE
  2
ISO-25
  9
$DIMCLRD
 70
     0
  9
$DIMCLRE
 70
     0
  9
$DIMCLRT
 70
     0
  9
$DIMTFAC
 40
1.0
  9
$DIMGAP
 40
1.524
  9
$DIMJUST
 70
     0
  9
$DIMSD1
 70
     0
  9
$DIMSD2
 70
     0
  9
$DIMTOLJ
 70
     0
  9
$DIMTZIN
 70
     0
  9
$DIMALTZ
 70
     0
  9
$DIMALTTZ
 70
     0
  9
$DIMUPT
 70
     0
  9
$DIMDEC
 70
     2
  9
$DIMTDEC
 70
     3
  9
$DIMALTU
 70
     2
  9
$DIMALTTD
 70
     3
  9
$DIMTXSTY
  7
Standard
  9
$DIMAUNIT
 70
     0
  9
$DIMADEC
 70
     2
  9
$DIMALTRND
 40
0.0
  9
$DIMAZIN
 70
     0
  9
$DIMDSEP
 70
    44
  9
$DIMATFIT
 70
     3
  9
$DIMFRAC
 70
     0
  9
$DIMLDRBLK
  1

  9
$DIMLUNIT
 70
     2
  9
$DIMLWD
 70
    -2
  9
$DIMLWE
 70
    -2
  9
$DIMTMOVE
 70
     0
  9
$LUNITS
 70
     2
  9
$LUPREC
 70
     2
  9
$SKETCHINC
 40
1.0
  9
$FILLETRAD
 40
10.0
  9
$AUNITS
 70
     0
  9
$AUPREC
 70
     2
  9
$MENU
  1
.
  9
$ELEVATION
 40
0.0
  9
$PELEVATION
 40
0.0
  9
$THICKNESS
 40
0.0
  9
$LIMCHECK
 70
     0
  9
$CHAMFERA
 40
0.0
  9
$CHAMFERB
 40
0.0
  9
$CHAMFERC
 40
0.0
  9
$CHAMFERD
 40
0.0
  9
$SKPOLY
 70
     0
  9
$TDCREATE
 40
2457674.428337384
  9
$TDUCREATE
 40
2457674.345004051
  9
$TDUPDATE
 40
2457674.428338727
  9
$TDUUPDATE
 40
2457674.345005393
  9
$TDINDWG
 40
0.0000000116
  9
$TDUSRTIMER
 40
0.0000000116
  9
$USRTIMER
 70
     1
  9
$ANGBASE
 50
0.0
  9
$ANGDIR
 70
     0
  9
$PDMODE
 70
     0
  9
$PDSIZE
 40
-1.0
  9
$PLINEWID
 40
0.0
  9
$SPLFRAME
 70
     0
  9
$SPLINETYPE
 70
     6
  9
$SPLINESEGS
 70
     8
  9
$HANDSEED
  5
2C5
  9
$SURFTAB1
 70
     6
  9
$SURFTAB2
 70
     6
  9
$SURFTYPE
 70
     6
  9
$SURFU
 70
     6
  9
$SURFV
 70
     6
  9
$UCSBASE
  2

  9
$UCSNAME
  2

  9
$UCSORG
 10
0.0
 20
0.0
 30
0.0
  9
$UCSXDIR
 10
1.0
 20
0.0
 30
0.0
  9
$UCSYDIR
 10
0.0
 20
1.0
 30
0.0
  9
$UCSORTHOREF
  2

  9
$UCSORTHOVIEW
 70
     0
  9
$UCSORGTOP
 10
0.0
 20
0.0
 30
0.0
  9
$UCSORGBOTTOM
 10
0.0
 20
0.0
 30
0.0
  9
$UCSORGLEFT
 10
0.0
 20
0.0
 30
0.0
  9
$UCSORGRIGHT
 10
0.0
 20
0.0
 30
0.0
  9
$UCSORGFRONT
 10
0.0
 20
0.0
 30
0.0
  9
$UCSORGBACK
 10
0.0
 20
0.0
 30
0.0
  9
$PUCSBASE
  2

  9
$PUCSNAME
  2

  9
$PUCSORG
 10
0.0
 20
0.0
 30
0.0
  9
$PUCSXDIR
 10
1.0
 20
0.0
 30
0.0
  9
$PUCSYDIR
 10
0.0
 20
1.0
 30
0.0
  9
$PUCSORTHOREF
  2

  9
$PUCSORTHOVIEW
 70
     0
  9
$PUCSORGTOP
 10
0.0
 20
0.0
 30
0.0
  9
$PUCSORGBOTTOM
 10
0.0
 20
0.0
 30
0.0
  9
$PUCSORGLEFT
 10
0.0
 20
0.0
 30
0.0
  9
$PUCSORGRIGHT
 10
0.0
 20
0.0
 30
0.0
  9
$PUCSORGFRONT
 10
0.0
 20
0.0
 30
0.0
  9
$PUCSORGBACK
 10
0.0
 20
0.0
 30
0.0
  9
$USERI1
 70
     0
  9
$USERI2
 70
     0
  9
$USERI3
 70
     0
  9
$USERI4
 70
     0
  9
$USERI5
 70
     0
  9
$USERR1
 40
0.0
  9
$USERR2
 40
0.0
  9
$USERR3
 40
0.0
  9
$USERR4
 40
0.0
  9
$USERR5
 40
0.0
  9
$WORLDVIEW
 70
     1
  9
$SHADEDGE
 70
     3
  9
$SHADEDIF
 70
    70
  9
$TILEMODE
 70
     1
  9
$MAXACTVP
 70
    64
  9
$PINSBASE
 10
0.0
 20
0.0
 30
0.0
  9
$PLIMCHECK
 70
     0
  9
$PEXTMIN
 10
1.0000000000E+20
 20
1.0000000000E+20
 30
1.0000000000E+20
  9
$PEXTMAX
 10
-1.0000000000E+20
 20
-1.0000000000E+20
 30
-1.0000000000E+20
  9
$PLIMMIN
 10
0.0
 20
0.0
  9
$PLIMMAX
 10
420.0
 20
297.0
  9
$UNITMODE
 70
     0
  9
$VISRETAIN
 70
     1
  9
$PLINEGEN
 70
     0
  9
$PSLTSCALE
 70
     1
  9
$TREEDEPTH
 70
  3020
  9
$CMLSTYLE
  2
Standard
  9
$CMLJUST
 70
     0
  9
$CMLSCALE
 40
20.0
  9
$PROXYGRAPHICS
 70
     1
  9
$MEASUREMENT
 70
     1
  9
$CELWEIGHT
370
    -1
  9
$ENDCAPS
280
     0
  9
$JOINSTYLE
280
     0
  9
$LWDISPLAY
290
     1
  9
$INSUNITS
 70
     4
  9
$HYPERLINKBASE
  1

  9
$STYLESHEET
  1

  9
$XEDIT
290
     1
  9
$CEPSNTYPE
380
     0
  9
$PSTYLEMODE
290
     1
  9
$FINGERPRINTGUID
  2
{981CD06F-F865-4ABD-8D4B-D6BE7A81188D}
  9
$VERSIONGUID
  2
{FAEB1C32-E019-11D5-929B-00C0DF256EC4}
  9
$EXTNAMES
290
     1
  9
$PSVPSCALE
 40
0.0
  9
$OLESTARTUP
290
     0
  0
ENDSEC
  0
SECTION
  2
CLASSES
  0
CLASS
  1
ACDBDICTIONARYWDFLT
  2
AcDbDictionaryWithDefault
  3
ObjectDBX Classes
 90
        0
280
     0
281
     0
  0
CLASS
  1
VISUALSTYLE
  2
AcDbVisualStyle
  3
ObjectDBX Classes
 90
     4095
280
     0
281
     0
  0
CLASS
  1
MATERIAL
  2
AcDbMaterial
  3
ObjectDBX Classes
 90
     1153
280
     0
281
     0
  0
CLASS
  1
SCALE
  2
AcDbScale
  3
ObjectDBX Classes
 90
     1153
280
     0
281
     0
  0
CLASS
  1
TABLESTYLE
  2
AcDbTableStyle
  3
ObjectDBX Classes
 90
     4095
280
     0
281
     0
  0
CLASS
  1
MLEADERSTYLE
  2
AcDbMLeaderStyle
  3
ACDB_MLEADERSTYLE_CLASS
 90
     4095
280
     0
281
     0
  0
CLASS
  1
SUN
  2
AcDbSun
  3
SCENEOE
 90
     1153
280
     0
281
     0
  0
CLASS
  1
ACDBPLACEHOLDER
  2
AcDbPlaceHolder
  3
ObjectDBX Classes
 90
        0
280
     0
281
     0
  0
CLASS
  1
LAYOUT
  2
AcDbLayout
  3
ObjectDBX Classes
 90
        0
280
     0
281
     0
  0
ENDSEC
  0
SECTION
  2
TABLES
  0
TABLE
  2
VPORT
  5
8
330
0
100
AcDbSymbolTable
 70
     1
  0
VPORT
  5
29
330
8
100
AcDbSymbolTableRecord
100
AcDbViewportTableRecord
  2
*Active
 70
     0
 10
0.0
 20
0.0
 11
1.0
 21
1.0
 12
148.5
 22
105.0
 13
0.0
 23
0.0
 14
10.0
 24
10.0
 15
10.0
 25
10.0
 16
0.0
 26
0.0
 36
1.0
 17
0.0
 27
0.0
 37
0.0
 40
210.0
 41
1.4142857143
 42
50.0
 43
0.0
 44
0.0
 50
0.0
 51
0.0
 71
     0
 72
  2000
 73
     1
 74
     3
 75
     0
 76
     0
 77
     0
 78
     0
281
     0
 65
     1
110
0.0
120
0.0
130
0.0
111
1.0
121
0.0
131
0.0
112
0.0
122
1.0
132
0.0
 79
     0
146
0.0
  0
ENDTAB
  0
TABLE
  2
LTYPE
  5
5
330
0
100
AcDbSymbolTable
 70
     6
  0
LTYPE
  5
14
330
5
100
AcDbSymbolTableRecord
100
AcDbLinetypeTableRecord
  2
ByBlock
 70
     0
  3

 72
    65
 73
     0
 40
0.0
  0
LTYPE
  5
15
330
5
100
AcDbSymbolTableRecord
100
AcDbLinetypeTableRecord
  2
ByLayer
 70
     0
  3

 72
    65
 73
     0
 40
0.0
  0
LTYPE
  5
16
330
5
100
AcDbSymbolTableRecord
100
AcDbLinetypeTableRecord
  2
Continuous
 70
     0
  3
Solid line
 72
    65
 73
     0
 40
0.0
  0
LTYPE
  5
6E
330
5
100
AcDbSymbolTableRecord
100
AcDbLinetypeTableRecord
  2
HIDDEN
 70
     0
  3
Hidden __ __ __ __ __ __ __ __ __ __ __ __ __ __
 72
    65
 73
     2
 40
1.905
 49
1.27
 74
     0
 49
-0.635
 74
     0
  0
LTYPE
  5
6F
330
5
100
AcDbSymbolTableRecord
100
AcDbLinetypeTableRecord
  2
PHANTOM
 70
     0
  3
Phantom ______  __  __  ______  __  __  ______
 72
    65
 73
     6
 40
12.7
 49
6.35
 74
     0
 49
-1.27
 74
     0
 49
1.27
 74
     0
 49
-1.27
 74
     0
 49
1.27
 74
     0
 49
-1.27
 74
     0
  0
LTYPE
  5
70
330
5
100
AcDbSymbolTableRecord
100
AcDbLinetypeTableRecord
  2
CENTER
 70
     0
  3
Center ____ _ ____ _ ____ _ ____ _ ____ _ ____
 72
    65
 73
     4
 40
10.16
 49
6.35
 74
     0
 49
-1.27
 74
     0
 49
1.27
 74
     0
 49
-1.27
 74
     0
  0
LTYPE
  5
71
330
5
100
AcDbSymbolTableRecord
100
AcDbLinetypeTableRecord
  2
CENTERX2
 70
     0
  3
Center (2x) ________  __  ________  __  _____
 72
    65
 73
     4
 40
20.32
 49
12.7
 74
     0
 49
-2.54
 74
     0
 49
2.54
 74
     0
 49
-2.54
 74
     0
  0
LTYPE
  5
72
330
5
100
AcDbSymbolTableRecord
100
AcDbLinetypeTableRecord
  2
DOT2
 70
     0
  3
Dot (.5x) ........................................
 72
    65
 73
     2
 40
0.635
 49
0.0
 74
     0
 49
-0.635
 74
     0
  0
ENDTAB
  0
TABLE
  2
LAYER
  5
2
330
0
100
AcDbSymbolTable
 70
     5
  0
LAYER
  5
10
330
2
100
AcDbSymbolTableRecord
100
AcDbLayerTableRecord
  2
0
 70
     0
 62
     7
  6
Continuous
370
    -3
390
F
  0
LAYER
  5
73
330
2
100
AcDbSymbolTableRecord
100
AcDbLayerTableRecord
  2
FORMAT
 70
     0
 62
     7
  6
Continuous
370
    -3
390
F
  0
LAYER
  5
74
330
2
100
AcDbSymbolTableRecord
100
AcDbLayerTableRecord
  2
VERMASSUNG
 70
     0
 62
     7
  6
Continuous
370
    -3
390
F
  0
LAYER
  5
75
330
2
100
AcDbSymbolTableRecord
100
AcDbLayerTableRecord
  2
KOPF_DÜNN
 70
     0
 62
     7
  6
Continuous
370
    -3
390
F
  0
LAYER
  5
76
330
2
100
AcDbSymbolTableRecord
100
AcDbLayerTableRecord
  2
KOPF_DICK
 70
     0
 62
     7
  6
Continuous
370
    15
390
F
  0
ENDTAB
  0
TABLE
  2
STYLE
  5
3
330
0
100
AcDbSymbolTable
 70
     2
  0
STYLE
  5
11
330
3
100
AcDbSymbolTableRecord
100
AcDbTextStyleTableRecord
  2
Standard
 70
     0
 40
0.0
 41
1.0
 50
0.0
 71
     0
 42
2.0
  3
txt
  4

  0
STYLE
  5
77
330
3
100
AcDbSymbolTableRecord
100
AcDbTextStyleTableRecord
  2
SLDTEXTSTYLE0
 70
     0
 40
0.0
 41
0.7
 50
0.0
 71
     0
 42
2.0
  3
TXT
  4

  0
ENDTAB
  0
TABLE
  2
VIEW
  5
6
330
0
100
AcDbSymbolTable
 70
     0
  0
ENDTAB
  0
TABLE
  2
UCS
  5
7
330
0
100
AcDbSymbolTable
 70
     0
  0
ENDTAB
  0
TABLE
  2
APPID
  5
9
330
0
100
AcDbSymbolTable
 70
     1
  0
APPID
  5
12
330
9
100
AcDbSymbolTableRecord
100
AcDbRegAppTableRecord
  2
ACAD
 70
     0
  0
ENDTAB
  0
TABLE
  2
DIMSTYLE
  5
A
330
0
100
AcDbSymbolTable
 70
     2
100
AcDbDimStyleTable
  0
DIMSTYLE
105
27
330
A
100
AcDbSymbolTableRecord
100
AcDbDimStyleTableRecord
  2
ISO-25
 70
     0
 41
2.5
 42
0.625
 43
3.75
 44
1.25
 73
     0
 74
     0
 77
     1
 78
     8
140
2.5
141
2.5
143
0.0393700787
147
0.625
171
     3
172
     1
178
     0
271
     2
272
     2
274
     3
278
    44
283
     0
284
     8
340
11
  0
DIMSTYLE
105
1F7
102
{ACAD_REACTORS
330
1F6
330
204
330
210
330
21B
330
225
330
22F
102
}
330
A
100
AcDbSymbolTableRecord
100
AcDbDimStyleTableRecord
  2
SLDDIMSTYLE0
 70
     0
 41
3.0
 44
0.0
 45
0.000000001
 73
     0
 74
     0
 77
     1
 78
    12
 79
     3
140
2.0
147
0.5
173
     1
178
     0
271
     2
272
     3
276
     2
284
    12
340
77
  0
ENDTAB
  0
TABLE
  2
BLOCK_RECORD
  5
1
330
0
100
AcDbSymbolTable
 70
     7
  0
BLOCK_RECORD
  5
1F
330
1
100
AcDbSymbolTableRecord
100
AcDbBlockTableRecord
  2
*Model_Space
340
22
  0
BLOCK_RECORD
  5
1B
330
1
100
AcDbSymbolTableRecord
100
AcDbBlockTableRecord
  2
*Paper_Space
340
1E
  0
BLOCK_RECORD
  5
23
330
1
100
AcDbSymbolTableRecord
100
AcDbBlockTableRecord
  2
*Paper_Space0
340
26
  0
BLOCK_RECORD
  5
1F8
330
1
100
AcDbSymbolTableRecord
100
AcDbBlockTableRecord
  2
_D
340
0
  0
BLOCK_RECORD
  5
205
330
1
100
AcDbSymbolTableRecord
100
AcDbBlockTableRecord
  2
_D_1
340
0
  0
BLOCK_RECORD
  5
211
330
1
100
AcDbSymbolTableRecord
100
AcDbBlockTableRecord
  2
_D_2
340
0
  0
BLOCK_RECORD
  5
21C
330
1
100
AcDbSymbolTableRecord
100
AcDbBlockTableRecord
  2
_D_3
340
0
  0
BLOCK_RECORD
  5
226
330
1
100
AcDbSymbolTableRecord
100
AcDbBlockTableRecord
  2
_D_4
340
0
  0
BLOCK_RECORD
  5
230
330
1
100
AcDbSymbolTableRecord
100
AcDbBlockTableRecord
  2
_D_5
340
0
  0
ENDTAB
  0
ENDSEC
  0
SECTION
  2
BLOCKS
  0
BLOCK
  5
20
330
1F
100
AcDbEntity
  8
0
100
AcDbBlockBegin
  2
*Model_Space
 70
     0
 10
0.0
 20
0.0
 30
0.0
  3
*Model_Space
  1

  0
ENDBLK
  5
21
330
1F
100
AcDbEntity
  8
0
100
AcDbBlockEnd
  0
BLOCK
  5
1C
330
1B
100
AcDbEntity
 67
     1
  8
0
100
AcDbBlockBegin
  2
*Paper_Space
 70
     0
 10
0.0
 20
0.0
 30
0.0
  3
*Paper_Space
  1

  0
ENDBLK
  5
1D
330
1B
100
AcDbEntity
 67
     1
  8
0
100
AcDbBlockEnd
  0
BLOCK
  5
24
330
23
100
AcDbEntity
  8
0
100
AcDbBlockBegin
  2
*Paper_Space0
 70
     0
 10
0.0
 20
0.0
 30
0.0
  3
*Paper_Space0
  1

  0
ENDBLK
  5
25
330
23
100
AcDbEntity
  8
0
100
AcDbBlockEnd
  0
BLOCK
  5
1F9
330
1F8
100
AcDbEntity
  8
0
100
AcDbBlockBegin
  2
_D
 70
     0
 10
0.0
 20
0.0
 30
0.0
  3
_D
  1

  0
SOLID
  5
1FB
330
1F8
100
AcDbEntity
  8
VERMASSUNG
100
AcDbTrace
 10
88.512175518
 20
81.6301690548
 30
0.0
 11
88.962175518
 21
84.6301690548
 31
0.0
 12
88.062175518
 22
84.6301690548
 32
0.0
 13
88.062175518
 23
84.6301690548
 33
0.0
  0
SOLID
  5
1FC
330
1F8
100
AcDbEntity
  8
VERMASSUNG
100
AcDbTrace
 10
88.512175518
 20
145.1301690548
 30
0.0
 11
88.062175518
 21
142.1301690548
 31
0.0
 12
88.962175518
 22
142.1301690548
 32
0.0
 13
88.962175518
 23
142.1301690548
 33
0.0
  0
LINE
  5
1FD
330
1F8
100
AcDbEntity
  8
VERMASSUNG
100
AcDbLine
 10
178.6649216398
 20
81.6301690548
 30
0.0
 11
87.512175518
 21
81.6301690548
 31
0.0
  0
LINE
  5
1FE
330
1F8
100
AcDbEntity
  8
VERMASSUNG
100
AcDbLine
 10
178.6649216398
 20
145.1301690548
 30
0.0
 11
87.512175518
 21
145.1301690548
 31
0.0
  0
LINE
  5
1FF
330
1F8
100
AcDbEntity
  8
VERMASSUNG
100
AcDbLine
 10
88.512175518
 20
81.6301690548
 30
0.0
 11
88.512175518
 21
145.1301690548
 31
0.0
  0
MTEXT
  5
200
330
1F8
100
AcDbEntity
  8
VERMASSUNG
100
AcDbMText
 10
85.7340402617
 20
103.9783111763
 30
0.0
 40
2.0
 41
0.0
 71
     1
 72
     1
  1
ISO 40
  7
SLDTEXTSTYLE0
 11
3.391901413832837E-15
 21
1.0
 31
0.0
 73
     1
 44
1.0
  0
MTEXT
  5
201
330
1F8
100
AcDbEntity
  8
VERMASSUNG
100
AcDbMText
 10
85.934040213
 20
113.1783113805
 30
0.0
 40
2.0
 41
0.0
 71
     1
 72
     1
  1
%%c
  7
SLDTEXTSTYLE0
 11
3.391901413832837E-15
 21
1.0
 31
0.0
 73
     1
 44
1.0
  0
MTEXT
  5
202
330
1F8
100
AcDbEntity
  8
VERMASSUNG
100
AcDbMText
 10
85.934039922
 20
116.7861917118
 30
0.0
 40
2.0
 41
0.0
 71
     1
 72
     1
  1
63.5
  7
SLDTEXTSTYLE0
 11
3.391901413832837E-15
 21
1.0
 31
0.0
 73
     1
 44
1.0
  0
MTEXT
  5
203
330
1F8
100
AcDbEntity
  8
VERMASSUNG
100
AcDbMText
 10
85.934039922
 20
122.7716834729
 30
0.0
 40
2.0
 41
0.0
 71
     1
 72
     1
  1

  7
SLDTEXTSTYLE0
 11
3.391901413832837E-15
 21
1.0
 31
0.0
 73
     1
 44
1.0
  0
ENDBLK
  5
1FA
330
1F8
100
AcDbEntity
  8
0
100
AcDbBlockEnd
  0
BLOCK
  5
206
330
205
100
AcDbEntity
  8
0
100
AcDbBlockBegin
  2
_D_1
 70
     0
 10
0.0
 20
0.0
 30
0.0
  3
_D_1
  1

  0
SOLID
  5
208
330
205
100
AcDbEntity
  8
VERMASSUNG
100
AcDbTrace
 10
219.1034725885
 20
129.3801690548
 30
0.0
 11
218.6534725885
 21
126.3801690548
 31
0.0
 12
219.5534725885
 22
126.3801690548
 32
0.0
 13
219.5534725885
 23
126.3801690548
 33
0.0
  0
SOLID
  5
209
330
205
100
AcDbEntity
  8
VERMASSUNG
100
AcDbTrace
 10
219.1034725885
 20
97.3801690548
 30
0.0
 11
219.5534725885
 21
100.3801690548
 31
0.0
 12
218.6534725885
 22
100.3801690548
 32
0.0
 13
218.6534725885
 23
100.3801690548
 33
0.0
  0
LINE
  5
20A
330
205
100
AcDbEntity
  8
VERMASSUNG
100
AcDbLine
 10
205.9149216398
 20
129.3801690548
 30
0.0
 11
220.1034725885
 21
129.3801690548
 31
0.0
  0
LINE
  5
20B
330
205
100
AcDbEntity
  8
VERMASSUNG
100
AcDbLine
 10
205.9149216398
 20
97.3801690548
 30
0.0
 11
220.1034725885
 21
97.3801690548
 31
0.0
  0
LINE
  5
20C
330
205
100
AcDbEntity
  8
VERMASSUNG
100
AcDbLine
 10
219.1034725885
 20
129.3801690548
 30
0.0
 11
219.1034725885
 21
97.3801690548
 31
0.0
  0
MTEXT
  5
20D
330
205
100
AcDbEntity
  8
VERMASSUNG
100
AcDbMText
 10
216.3253373323
 20
107.6755222989
 30
0.0
 40
2.0
 41
0.0
 71
     1
 72
     1
  1
WH
  7
SLDTEXTSTYLE0
 11
-7.044195017643634E-15
 21
1.0
 31
0.0
 73
     1
 44
1.0
  0
MTEXT
  5
20E
330
205
100
AcDbEntity
  8
VERMASSUNG
100
AcDbMText
 10
216.5253372836
 20
112.6755221871
 30
0.0
 40
2.0
 41
0.0
 71
     1
 72
     1
  1
%%c
  7
SLDTEXTSTYLE0
 11
-7.044195017643634E-15
 21
1.0
 31
0.0
 73
     1
 44
1.0
  0
MTEXT
  5
20F
330
205
100
AcDbEntity
  8
VERMASSUNG
100
AcDbMText
 10
216.5253369926
 20
116.2854357901
 30
0.0
 40
2.0
 41
0.0
 71
     1
 72
     1
  1
32
  7
SLDTEXTSTYLE0
 11
-7.044195017643634E-15
 21
1.0
 31
0.0
 73
     1
 44
1.0
  0
ENDBLK
  5
207
330
205
100
AcDbEntity
  8
0
100
AcDbBlockEnd
  0
BLOCK
  5
212
330
211
100
AcDbEntity
  8
0
100
AcDbBlockBegin
  2
_D_2
 70
     0
 10
0.0
 20
0.0
 30
0.0
  3
_D_2
  1

  0
SOLID
  5
214
330
211
100
AcDbEntity
  8
VERMASSUNG
100
AcDbTrace
 10
213.1034725885
 20
122.3801690548
 30
0.0
 11
212.6534725885
 21
119.3801690548
 31
0.0
 12
213.5534725885
 22
119.3801690548
 32
0.0
 13
213.5534725885
 23
119.3801690548
 33
0.0
  0
SOLID
  5
215
330
211
100
AcDbEntity
  8
VERMASSUNG
100
AcDbTrace
 10
213.1034725885
 20
104.3801690548
 30
0.0
 11
213.5534725885
 21
107.3801690548
 31
0.0
 12
212.6534725885
 22
107.3801690548
 32
0.0
 13
212.6534725885
 23
107.3801690548
 33
0.0
  0
LINE
  5
216
330
211
100
AcDbEntity
  8
VERMASSUNG
100
AcDbLine
 10
205.2149216398
 20
122.3801690548
 30
0.0
 11
214.1034725885
 21
122.3801690548
 31
0.0
  0
LINE
  5
217
330
211
100
AcDbEntity
  8
VERMASSUNG
100
AcDbLine
 10
205.2149216398
 20
104.3801690548
 30
0.0
 11
214.1034725885
 21
104.3801690548
 31
0.0
  0
LINE
  5
218
330
211
100
AcDbEntity
  8
VERMASSUNG
100
AcDbLine
 10
213.1034725885
 20
122.3801690548
 30
0.0
 11
213.1034725885
 21
104.3801690548
 31
0.0
  0
MTEXT
  5
219
330
211
100
AcDbEntity
  8
VERMASSUNG
100
AcDbMText
 10
210.5253370508
 20
110.376736511
 30
0.0
 40
2.0
 41
0.0
 71
     1
 72
     1
  1
%%c
  7
SLDTEXTSTYLE0
 11
-7.044195017643634E-15
 21
1.0
 31
0.0
 73
     1
 44
1.0
  0
MTEXT
  5
21A
330
211
100
AcDbEntity
  8
VERMASSUNG
100
AcDbMText
 10
210.5253369926
 20
113.9857087046
 30
0.0
 40
2.0
 41
0.0
 71
     1
 72
     1
  1
18
  7
SLDTEXTSTYLE0
 11
-7.044195017643634E-15
 21
1.0
 31
0.0
 73
     1
 44
1.0
  0
ENDBLK
  5
213
330
211
100
AcDbEntity
  8
0
100
AcDbBlockEnd
  0
BLOCK
  5
21D
330
21C
100
AcDbEntity
  8
0
100
AcDbBlockBegin
  2
_D_3
 70
     0
 10
0.0
 20
0.0
 30
0.0
  3
_D_3
  1

  0
SOLID
  5
21F
330
21C
100
AcDbEntity
  8
VERMASSUNG
100
AcDbTrace
 10
160.2149216398
 20
156.9257845319
 30
0.0
 11
163.2149216398
 21
156.4757845319
 31
0.0
 12
163.2149216398
 22
157.3757845319
 32
0.0
 13
163.2149216398
 23
157.3757845319
 33
0.0
  0
SOLID
  5
220
330
21C
100
AcDbEntity
  8
VERMASSUNG
100
AcDbTrace
 10
206.2149216398
 20
156.9257845319
 30
0.0
 11
203.2149216398
 21
157.3757845319
 31
0.0
 12
203.2149216398
 22
156.4757845319
 32
0.0
 13
203.2149216398
 23
156.4757845319
 33
0.0
  0
LINE
  5
221
330
21C
100
AcDbEntity
  8
VERMASSUNG
100
AcDbLine
 10
160.2149216398
 20
135.6051690548
 30
0.0
 11
160.2149216398
 21
157.9257845319
 31
0.0
  0
LINE
  5
222
330
21C
100
AcDbEntity
  8
VERMASSUNG
100
AcDbLine
 10
206.2149216398
 20
129.0801690548
 30
0.0
 11
206.2149216398
 21
157.9257845319
 31
0.0
  0
LINE
  5
223
330
21C
100
AcDbEntity
  8
VERMASSUNG
100
AcDbLine
 10
160.2149216398
 20
156.9257845319
 30
0.0
 11
206.2149216398
 21
156.9257845319
 31
0.0
  0
MTEXT
  5
224
330
21C
100
AcDbEntity
  8
VERMASSUNG
100
AcDbMText
 10
181.7159628345
 20
159.5039201278
 30
0.0
 40
2.0
 41
0.0
 71
     1
 72
     1
  1
46
  7
SLDTEXTSTYLE0
 73
     1
 44
1.0
  0
ENDBLK
  5
21E
330
21C
100
AcDbEntity
  8
0
100
AcDbBlockEnd
  0
BLOCK
  5
227
330
226
100
AcDbEntity
  8
0
100
AcDbBlockBegin
  2
_D_4
 70
     0
 10
0.0
 20
0.0
 30
0.0
  3
_D_4
  1

  0
SOLID
  5
229
330
226
100
AcDbEntity
  8
VERMASSUNG
100
AcDbTrace
 10
179.2649216398
 20
150.9257845319
 30
0.0
 11
182.2649216398
 21
150.4757845319
 31
0.0
 12
182.2649216398
 22
151.3757845319
 32
0.0
 13
182.2649216398
 23
151.3757845319
 33
0.0
  0
SOLID
  5
22A
330
226
100
AcDbEntity
  8
VERMASSUNG
100
AcDbTrace
 10
206.2149216398
 20
150.9257845319
 30
0.0
 11
203.2149216398
 21
151.3757845319
 31
0.0
 12
203.2149216398
 22
150.4757845319
 32
0.0
 13
203.2149216398
 23
150.4757845319
 33
0.0
  0
LINE
  5
22B
330
226
100
AcDbEntity
  8
VERMASSUNG
100
AcDbLine
 10
179.2649216398
 20
138.5515814109
 30
0.0
 11
179.2649216398
 21
151.9257845319
 31
0.0
  0
LINE
  5
22C
330
226
100
AcDbEntity
  8
VERMASSUNG
100
AcDbLine
 10
206.2149216398
 20
129.0801690548
 30
0.0
 11
206.2149216398
 21
151.9257845319
 31
0.0
  0
LINE
  5
22D
330
226
100
AcDbEntity
  8
VERMASSUNG
100
AcDbLine
 10
179.2649216398
 20
150.9257845319
 30
0.0
 11
206.2149216398
 21
150.9257845319
 31
0.0
  0
MTEXT
  5
22E
330
226
100
AcDbEntity
  8
VERMASSUNG
100
AcDbMText
 10
189.6405292608
 20
153.5039201278
 30
0.0
 40
2.0
 41
0.0
 71
     1
 72
     1
  1
26.95
  7
SLDTEXTSTYLE0
 73
     1
 44
1.0
  0
ENDBLK
  5
228
330
226
100
AcDbEntity
  8
0
100
AcDbBlockEnd
  0
BLOCK
  5
231
330
230
100
AcDbEntity
  8
0
100
AcDbBlockBegin
  2
_D_5
 70
     0
 10
0.0
 20
0.0
 30
0.0
  3
_D_5
  1

  0
SOLID
  5
233
330
230
100
AcDbEntity
  8
VERMASSUNG
100
AcDbTrace
 10
91.9649216398
 20
162.9257845319
 30
0.0
 11
94.9649216398
 21
162.4757845319
 31
0.0
 12
94.9649216398
 22
163.3757845319
 32
0.0
 13
94.9649216398
 23
163.3757845319
 33
0.0
  0
SOLID
  5
234
330
230
100
AcDbEntity
  8
VERMASSUNG
100
AcDbTrace
 10
206.2149216398
 20
162.9257845319
 30
0.0
 11
203.2149216398
 21
163.3757845319
 31
0.0
 12
203.2149216398
 22
162.4757845319
 32
0.0
 13
203.2149216398
 23
162.4757845319
 33
0.0
  0
LINE
  5
235
330
230
100
AcDbEntity
  8
VERMASSUNG
100
AcDbLine
 10
91.9649216398
 20
124.7872996518
 30
0.0
 11
91.9649216398
 21
163.9257845319
 31
0.0
  0
LINE
  5
236
330
230
100
AcDbEntity
  8
VERMASSUNG
100
AcDbLine
 10
206.2149216398
 20
129.0801690548
 30
0.0
 11
206.2149216398
 21
163.9257845319
 31
0.0
  0
LINE
  5
237
330
230
100
AcDbEntity
  8
VERMASSUNG
100
AcDbLine
 10
91.9649216398
 20
162.9257845319
 30
0.0
 11
206.2149216398
 21
162.9257845319
 31
0.0
  0
MTEXT
  5
238
330
230
100
AcDbEntity
  8
VERMASSUNG
100
AcDbMText
 10
145.5901451208
 20
165.5039201278
 30
0.0
 40
2.0
 41
0.0
 71
     1
 72
     1
  1
114.25
  7
SLDTEXTSTYLE0
 73
     1
 44
1.0
  0
ENDBLK
  5
232
330
230
100
AcDbEntity
  8
0
100
AcDbBlockEnd
  0
ENDSEC
  0
SECTION
  2
ENTITIES
  0
MTEXT
  5
78
330
1F
100
AcDbEntity
  8
KOPF_DÜNN
100
AcDbMText
 10
13.8892156294
 20
23.8442973028
 30
0.0
 40
3.0
 41
0.0
 71
     1
 72
     1
  1
A14.440.032.046
  7
SLDTEXTSTYLE0
 73
     1
 44
1.0
  0
MTEXT
  5
79
330
1F
100
AcDbEntity
  8
VERMASSUNG
100
AcDbMText
 10
13.9329988022
 20
28.8834360957
 30
0.0
 40
3.0
 41
0.0
 71
     1
 72
     1
  1
Aufnahme_Master shank WH40
  7
SLDTEXTSTYLE0
 73
     1
 44
1.0
  0
MTEXT
  5
7A
330
1F
100
AcDbEntity
  8
VERMASSUNG
100
AcDbMText
 10
98.8601118557
 20
13.8365368761
 30
0.0
 40
2.0
 41
0.0
 71
     1
 72
     1
  1
Datum: 19.10.2011
  7
SLDTEXTSTYLE0
 73
     1
 44
1.0
  0
MTEXT
  5
7B
330
1F
100
AcDbEntity
  8
VERMASSUNG
100
AcDbMText
 10
13.933048693
 20
18.0482802738
 30
0.0
 40
2.0
 41
0.0
 71
     1
 72
     1
  1
DIN 69871 AD/B
  7
SLDTEXTSTYLE0
 73
     1
 44
1.0
  0
MTEXT
  5
7C
330
1F
100
AcDbEntity
  8
VERMASSUNG
100
AcDbMText
 10
13.9808475933
 20
13.9090974274
 30
0.0
 40
2.0
 41
0.0
 71
     1
 72
     1
  1
Gewicht: 942g
  7
SLDTEXTSTYLE0
 73
     1
 44
1.0
  0
LINE
  5
7D
330
1F
100
AcDbEntity
  8
0
  6
Continuous
 62
     7
370
    15
100
AcDbLine
 10
197.7561099395
 20
129.0889806359
 30
0.0
 11
197.4649226233
 21
129.3801698147
 31
0.0
  0
LINE
  5
7E
330
1F
100
AcDbEntity
  8
0
  6
Continuous
 62
     7
370
    15
100
AcDbLine
 10
190.8649207964
 20
129.3801698147
 30
0.0
 11
190.5741190478
 21
129.0893662035
 31
0.0
  0
ARC
  5
7F
330
1F
100
AcDbEntity
  8
0
  6
Continuous
 62
     7
370
    15
100
AcDbCircle
 10
162.8149216398
 20
90.5551690548
 30
0.0
 40
0.6000000000000085
100
AcDbArc
 50
0.0
 51
90.0
  0
ARC
  5
80
330
1F
100
AcDbEntity
  8
0
  6
Continuous
 62
     7
370
    15
100
AcDbCircle
 10
162.8149216398
 20
136.2051690548
 30
0.0
 40
0.6000000000000227
100
AcDbArc
 50
270.0
 51
0.0
  0
LINE
  5
81
330
1F
100
AcDbEntity
  8
0
  6
Continuous
 62
     7
370
    15
100
AcDbLine
 10
160.2149216398
 20
135.605169019
 30
0.0
 11
92.820612894
 21
125.7768324821
 31
0.0
  0
LINE
  5
82
330
1F
100
AcDbEntity
  8
0
  6
Continuous
 62
     7
370
    15
100
AcDbLine
 10
92.820612894
 20
100.9835056274
 30
0.0
 11
160.2149216398
 21
91.1551690905
 31
0.0
  0
LINE
  5
83
330
1F
100
AcDbEntity
  8
0
  6
Continuous
 62
     7
370
    15
100
AcDbLine
 10
160.2149216398
 20
91.1551690905
 30
0.0
 11
162.8149216469
 21
91.1551690905
 31
0.0
  0
LINE
  5
84
330
1F
100
AcDbEntity
  8
0
  6
Continuous
 62
     7
370
    15
100
AcDbLine
 10
162.8149216469
 20
135.605169019
 30
0.0
 11
160.2149216398
 21
135.605169019
 31
0.0
  0
ARC
  5
85
330
1F
100
AcDbEntity
  8
0
  6
Continuous
 62
     7
370
    15
100
AcDbCircle
 10
182.2649216398
 20
94.3801690548
 30
0.0
 40
3.000000000000028
100
AcDbArc
 50
90.0
 51
180.0
  0
ARC
  5
86
330
1F
100
AcDbEntity
  8
0
  6
Continuous
 62
     7
370
    15
100
AcDbCircle
 10
182.2649216398
 20
132.3801690548
 30
0.0
 40
3.000000000000028
100
AcDbArc
 50
180.0
 51
270.0
  0
LINE
  5
87
330
1F
100
AcDbEntity
  8
0
  6
Continuous
 62
     7
370
    15
100
AcDbLine
 10
205.9149203762
 20
97.3801682948
 30
0.0
 11
206.2149217292
 21
97.6801696478
 31
0.0
  0
LINE
  5
88
330
1F
100
AcDbEntity
  8
0
  6
Continuous
 62
     7
370
    15
100
AcDbLine
 10
206.2149217292
 20
129.0801684617
 30
0.0
 11
205.9149203762
 21
129.3801698147
 31
0.0
  0
LINE
  5
89
330
1F
100
AcDbEntity
  8
0
  6
Continuous
 62
     7
370
    15
100
AcDbLine
 10
189.2123019263
 20
129.3801698147
 30
0.0
 11
182.264922367
 21
129.3801698147
 31
0.0
  0
LINE
  5
8A
330
1F
100
AcDbEntity
  8
0
  6
Continuous
 62
     7
370
    15
100
AcDbLine
 10
205.9149203762
 20
129.3801698147
 30
0.0
 11
199.1100853249
 21
129.3801698147
 31
0.0
  0
LINE
  5
8B
330
1F
100
AcDbEntity
  8
0
  6
Continuous
 62
     7
370
    15
100
AcDbLine
 10
182.264922367
 20
97.3801682948
 30
0.0
 11
205.9149203762
 21
97.3801682948
 31
0.0
  0
ARC
  5
8C
330
1F
100
AcDbEntity
  8
0
  6
Continuous
 62
     7
370
    15
100
AcDbCircle
 10
92.9649216398
 20
101.9730384578
 30
0.0
 40
0.9999999999999938
100
AcDbArc
 50
180.0
 51
261.7028550302
  0
ARC
  5
8D
330
1F
100
AcDbEntity
  8
0
  6
Continuous
 62
     7
370
    15
100
AcDbCircle
 10
92.9649216398
 20
124.7872996518
 30
0.0
 40
0.9999999999999938
100
AcDbArc
 50
98.2971449698
 51
180.0
  0
ARC
  5
8E
330
1F
100
AcDbEntity
  8
0
  6
Continuous
 62
     7
370
    15
100
AcDbCircle
 10
173.2149216398
 20
104.6586554
 30
0.0
 40
1.500000000000019
100
AcDbArc
 50
191.5274417158
 51
336.6722113243
  0
SPLINE
  5
8F
330
1F
100
AcDbEntity
  8
0
  6
Continuous
 62
     7
370
    15
100
AcDbSpline
210
0.0
220
0.0
230
1.0
 70
     8
 71
     3
 72
    11
 73
     7
 74
     0
 42
0.000000001
 43
0.00000001
 40
0.0
 40
0.0
 40
0.0
 40
0.0
 40
0.2164518519737686
 40
0.4403052812493441
 40
0.7518957842869808
 40
1.0
 40
1.0
 40
1.0
 40
1.0
 10
192.5118697747319
 20
111.7674843653199
 30
0.0
 10
192.6641551939324
 20
111.7246550539928
 30
0.0
 10
192.9739334366215
 20
111.6375318818062
 30
0.0
 10
193.5488036465458
 20
111.4758556025639
 30
0.0
 10
194.1654627719782
 20
111.3024251047644
 30
0.0
 10
194.5600901052578
 20
111.1914397741748
 30
0.0
 10
194.7350224420159
 20
111.1422416533437
 30
0.0
  0
SPLINE
  5
90
330
1F
100
AcDbEntity
  8
0
  6
Continuous
 62
     7
370
    15
100
AcDbSpline
210
0.0
220
0.0
230
1.0
 70
     8
 71
     3
 72
    11
 73
     7
 74
     0
 42
0.000000001
 43
0.00000001
 40
0.0
 40
0.0
 40
0.0
 40
0.0
 40
0.2164526573824951
 40
0.4403046937125176
 40
0.7518951594793432
 40
1.0
 40
1.0
 40
1.0
 40
1.0
 10
194.7350224420159
 20
111.1422416533437
 30
0.0
 10
194.8482569017785
 20
111.2527105330655
 30
0.0
 10
195.0785967124622
 20
111.4774246430185
 30
0.0
 10
195.506045114375
 20
111.8944398534848
 30
0.0
 10
195.964569472419
 20
112.3417664702287
 30
0.0
 10
196.258001244575
 20
112.628029820371
 30
0.0
 10
196.3880753084748
 20
112.7549262263906
 30
0.0
  0
SPLINE
  5
91
330
1F
100
AcDbEntity
  8
0
  6
Continuous
 62
     7
370
    15
100
AcDbSpline
210
0.0
220
0.0
230
1.0
 70
     8
 71
     3
 72
    11
 73
     7
 74
     0
 42
0.000000001
 43
0.00000001
 40
0.0
 40
0.0
 40
0.0
 40
0.0
 40
0.1849308826563511
 40
0.5198466717397052
 40
0.8714438446201898
 40
1.0
 40
1.0
 40
1.0
 40
1.0
 10
196.3880753084748
 20
112.7549262263906
 30
0.0
 10
196.3548927566766
 20
112.8851845618243
 30
0.0
 10
196.2616155340495
 20
113.2513449411451
 30
0.0
 10
196.0874916765439
 20
113.9348522237939
 30
0.0
 10
195.9266870201629
 20
114.5661007208214
 30
0.0
 10
195.840934791955
 20
114.9027258105379
 30
0.0
 10
195.8179755076497
 20
114.9928537442443
 30
0.0
  0
SPLINE
  5
92
330
1F
100
AcDbEntity
  8
0
  6
Continuous
 62
     7
370
    15
100
AcDbSpline
210
0.0
220
0.0
230
1.0
 70
     8
 71
     3
 72
    11
 73
     7
 74
     0
 42
0.000000001
 43
0.00000001
 40
0.0
 40
0.0
 40
0.0
 40
0.0
 40
0.2164532305949671
 40
0.4403066614392467
 40
0.7518971666604252
 40
1.0
 40
1.0
 40
1.0
 40
1.0
 10
195.8179755076497
 20
114.9928537442443
 30
0.0
 10
195.6656887953615
 20
115.0356829738645
 30
0.0
 10
195.3559089242786
 20
115.1228056980403
 30
0.0
 10
194.7810380634374
 20
115.2844826513096
 30
0.0
 10
194.164379558823
 20
115.4579123975612
 30
0.0
 10
193.7697538941542
 20
115.5688982547537
 30
0.0
 10
193.5948228403657
 20
115.6180964562205
 30
0.0
  0
SPLINE
  5
93
330
1F
100
AcDbEntity
  8
0
  6
Continuous
 62
     7
370
    15
100
AcDbSpline
210
0.0
220
0.0
230
1.0
 70
     8
 71
     3
 72
    11
 73
     7
 74
     0
 42
0.000000001
 43
0.00000001
 40
0.0
 40
0.0
 40
0.0
 40
0.0
 40
0.2164526449065765
 40
0.4403057551485851
 40
0.7518962029559301
 40
1.0
 40
1.0
 40
1.0
 40
1.0
 10
193.5948228403657
 20
115.6180964562205
 30
0.0
 10
193.4815885612578
 20
115.5076273950921
 30
0.0
 10
193.2512485495066
 20
115.2829123614567
 30
0.0
 10
192.8237962434809
 20
114.8658996814966
 30
0.0
 10
192.3652721580079
 20
114.4185725684981
 30
0.0
 10
192.071842708034
 20
114.1323083715308
 30
0.0
 10
191.9417699739068
 20
114.0054118831736
 30
0.0
  0
SPLINE
  5
94
330
1F
100
AcDbEntity
  8
0
  6
Continuous
 62
     7
370
    15
100
AcDbSpline
210
0.0
220
0.0
230
1.0
 70
     8
 71
     3
 72
    11
 73
     7
 74
     0
 42
0.000000001
 43
0.00000001
 40
0.0
 40
0.0
 40
0.0
 40
0.0
 40
0.1285561556927784
 40
0.4801537030894348
 40
0.8150691330760832
 40
1.0
 40
1.0
 40
1.0
 40
1.0
 10
191.9417699739068
 20
114.0054118831736
 30
0.0
 10
191.9647291522729
 20
113.9152839229856
 30
0.0
 10
192.0504810515341
 20
113.5786584723957
 30
0.0
 10
192.2112925768602
 20
112.9474116315566
 30
0.0
 10
192.3854092809329
 20
112.2639025949283
 30
0.0
 10
192.4786870186071
 20
111.8977426345562
 30
0.0
 10
192.5118697747319
 20
111.7674843653199
 30
0.0
  0
CIRCLE
  5
95
330
1F
100
AcDbEntity
  8
0
  6
Continuous
 62
     7
370
    15
100
AcDbCircle
 10
194.1649216398
 20
113.3801690548
 30
0.0
 40
2.399999999999989
  0
CIRCLE
  5
96
330
1F
100
AcDbEntity
  8
0
  6
Continuous
 62
     7
370
    15
100
AcDbCircle
 10
194.1649216398
 20
113.3801690548
 30
0.0
 40
3.299999999999993
  0
ARC
  5
97
330
1F
100
AcDbEntity
  8
0
  6
Continuous
 62
     7
370
    15
100
AcDbCircle
 10
194.1649216398
 20
113.3801690548
 30
0.0
 40
2.000000000000005
100
AcDbArc
 50
14.2918083313
 51
74.2918083313
  0
ARC
  5
98
330
1F
100
AcDbEntity
  8
0
  6
Continuous
 62
     7
370
    15
100
AcDbCircle
 10
194.1649216398
 20
113.3801690548
 30
0.0
 40
2.000000000000015
100
AcDbArc
 50
314.2918083313
 51
14.2918083313
  0
ARC
  5
99
330
1F
100
AcDbEntity
  8
0
  6
Continuous
 62
     7
370
    15
100
AcDbCircle
 10
194.1649216398
 20
113.3801690548
 30
0.0
 40
2.000000000000015
100
AcDbArc
 50
254.2918083313
 51
314.2918083313
  0
ARC
  5
9A
330
1F
100
AcDbEntity
  8
0
  6
Continuous
 62
     7
370
    15
100
AcDbCircle
 10
194.1649216398
 20
113.3801690548
 30
0.0
 40
1.999999999999985
100
AcDbArc
 50
134.2918083313
 51
194.2918083313
  0
ARC
  5
9B
330
1F
100
AcDbEntity
  8
0
  6
Continuous
 62
     7
370
    15
100
AcDbCircle
 10
194.1649216398
 20
113.3801690548
 30
0.0
 40
2.000000000000005
100
AcDbArc
 50
194.2918083313
 51
254.2918083313
  0
ARC
  5
9C
330
1F
100
AcDbEntity
  8
0
  6
Continuous
 62
     7
370
    15
100
AcDbCircle
 10
194.1649216398
 20
113.3801690548
 30
0.0
 40
1.999999999999992
100
AcDbArc
 50
74.2918083313
 51
134.2918083313
  0
LINE
  5
9D
330
1F
100
AcDbEntity
  8
0
  6
Continuous
 62
     7
370
    15
100
AcDbLine
 10
190.9670533552
 20
129.3801698147
 30
0.0
 11
197.4649226233
 21
129.3801698147
 31
0.0
  0
LINE
  5
9E
330
1F
100
AcDbEntity
  8
0
  6
Continuous
 62
     7
370
    15
100
AcDbLine
 10
190.8649207964
 20
129.3801698147
 30
0.0
 11
190.9670533552
 21
129.3801698147
 31
0.0
  0
SPLINE
  5
9F
330
1F
100
AcDbEntity
  8
0
  6
Continuous
 62
     7
370
    15
100
AcDbSpline
210
0.0
220
0.0
230
1.0
 70
     8
 71
     3
 72
    12
 73
     8
 74
     0
 42
0.000000001
 43
0.00000001
 40
0.0
 40
0.0
 40
0.0
 40
0.0
 40
0.250000000000001
 40
0.250000000000001
 40
0.500000000000002
 40
0.500000000000002
 40
1.0
 40
1.0
 40
1.0
 40
1.0
 10
178.6649216398328
 20
82.93207670614541
 30
0.0
 10
178.7604635499688
 20
82.93207670614541
 30
0.0
 10
178.8526084918316
 20
82.94833037534161
 30
0.0
 10
179.0089347684415
 20
83.00193879625509
 30
0.0
 10
179.0726029110615
 20
83.03834992153678
 30
0.0
 10
179.2214707564918
 20
83.16047356122327
 30
0.0
 10
179.2649216398328
 20
83.2556262366603
 30
0.0
 10
179.2649216398328
 20
83.35125269228
 30
0.0
  0
SPLINE
  5
A0
330
1F
100
AcDbEntity
  8
0
  6
Continuous
 62
     7
370
    15
100
AcDbSpline
210
0.0
220
0.0
230
1.0
 70
    24
 71
     3
 72
    12
 73
     8
 74
     0
 42
0.000000001
 43
0.00000001
 40
0.0
 40
0.0
 40
0.0
 40
0.0
 40
0.5000000000000011
 40
0.5000000000000011
 40
0.7500000000000006
 40
0.7500000000000006
 40
1.0
 40
1.0
 40
1.0
 40
1.0
 10
179.2649216398328
 20
131.7301690547821
 30
0.0
 10
179.2649216398328
 20
131.7301690547821
 30
0.0
 10
179.2152416448778
 20
131.7301690547821
 30
0.0
 10
179.0593230878602
 20
131.7301690547821
 30
0.0
 10
178.9934420232841
 20
131.7301690547821
 30
0.0
 10
178.8407963677954
 20
131.7301690547821
 30
0.0
 10
178.7535464599344
 20
131.7301690547821
 30
0.0
 10
178.6649216398327
 20
131.7301690547821
 30
0.0
  0
LINE
  5
A1
330
1F
100
AcDbEntity
  8
0
  6
Continuous
 62
     7
370
    15
100
AcDbLine
 10
179.2649218753
 20
83.3512521594
 30
0.0
 11
179.2649218753
 21
131.7301686167
 31
0.0
  0
LINE
  5
A2
330
1F
100
AcDbEntity
  8
0
  6
Continuous
 62
     7
370
    15
100
AcDbLine
 10
174.8367587045
 20
103.628148815
 30
0.0
 11
174.8367587045
 21
131.7301686167
 31
0.0
  0
LINE
  5
A3
330
1F
100
AcDbEntity
  8
0
  6
Continuous
 62
     7
370
    15
100
AcDbLine
 10
178.6649210319
 20
131.7301686167
 30
0.0
 11
174.8367587045
 21
131.7301686167
 31
0.0
  0
LINE
  5
A4
330
1F
100
AcDbEntity
  8
0
  6
Continuous
 62
     7
370
    15
100
AcDbLine
 10
174.8367587045
 20
82.9320769071
 30
0.0
 11
178.6649210319
 21
82.9320769071
 31
0.0
  0
LINE
  5
A5
330
1F
100
AcDbEntity
  8
0
  6
Continuous
 62
     7
370
    15
100
AcDbLine
 10
174.8367587045
 20
82.9320769071
 30
0.0
 11
174.8367587045
 21
101.4286694362
 31
0.0
  0
SPLINE
  5
A6
330
1F
100
AcDbEntity
  8
0
  6
Continuous
 62
     7
370
    15
100
AcDbSpline
210
0.0
220
0.0
230
1.0
 70
     8
 71
     3
 72
    12
 73
     8
 74
     0
 42
0.000000001
 43
0.00000001
 40
0.0
 40
0.0
 40
0.0
 40
0.0
 40
0.2499999999999995
 40
0.2499999999999995
 40
0.499999999999999
 40
0.499999999999999
 40
1.0
 40
1.0
 40
1.0
 40
1.0
 10
174.8367582818895
 20
101.428669256575
 30
0.0
 10
174.9597057756851
 20
101.5866261052701
 30
0.0
 10
175.053249978794
 20
101.7584594722477
 30
0.0
 10
175.1821893679562
 20
102.1301321818935
 30
0.0
 10
175.2147421253413
 20
102.3233206280848
 30
0.0
 10
175.2152784670751
 20
102.911617166361
 30
0.0
 10
175.0826548101071
 20
103.3036354042497
 30
0.0
 10
174.8367582818895
 20
103.6281489869584
 30
0.0
  0
LINE
  5
A7
330
1F
100
AcDbEntity
  8
0
  6
Continuous
 62
     7
370
    15
100
AcDbLine
 10
164.0149217039
 20
82.9320769071
 30
0.0
 11
167.7930850476
 21
82.9320769071
 31
0.0
  0
LINE
  5
A8
330
1F
100
AcDbEntity
  8
0
  6
Continuous
 62
     7
370
    15
100
AcDbLine
 10
167.7930850476
 20
131.7301686167
 30
0.0
 11
164.0149217039
 21
131.7301686167
 31
0.0
  0
LINE
  5
A9
330
1F
100
AcDbEntity
  8
0
  6
Continuous
 62
     7
370
    15
100
AcDbLine
 10
167.7930850476
 20
82.9320769071
 30
0.0
 11
167.7930850476
 21
131.7301686167
 31
0.0
  0
SPLINE
  5
AA
330
1F
100
AcDbEntity
  8
0
  6
Continuous
 62
     7
370
    15
100
AcDbSpline
210
0.0
220
0.0
230
1.0
 70
     8
 71
     3
 72
     8
 73
     4
 74
     0
 42
0.000000001
 43
0.00000001
 40
0.0
 40
0.0
 40
0.0
 40
0.0
 40
1.0
 40
1.0
 40
1.0
 40
1.0
 10
169.4049216398328
 20
85.56334259528064
 30
0.0
 10
169.0207868912485
 20
84.87070117333644
 30
0.0
 10
168.6358006147555
 20
84.17851499901275
 30
0.0
 10
168.2501320361291
 20
83.48672070816855
 30
0.0
  0
SPLINE
  5
AB
330
1F
100
AcDbEntity
  8
0
  6
Continuous
 62
     7
370
    15
100
AcDbSpline
210
0.0
220
0.0
230
1.0
 70
     8
 71
     3
 72
     8
 73
     4
 74
     0
 42
0.000000001
 43
0.00000001
 40
0.0
 40
0.0
 40
0.0
 40
0.0
 40
0.0011901715795577
 40
0.0011901715795577
 40
0.0011901715795577
 40
0.0011901715795577
 10
167.7930849977761
 20
82.93207670614541
 30
0.0
 10
167.946931187272
 20
83.116641943829
 30
0.0
 10
168.0993264549446
 20
83.30151730435762
 30
0.0
 10
168.2501320361291
 20
83.48672070816855
 30
0.0
  0
SPLINE
  5
AC
330
1F
100
AcDbEntity
  8
0
  6
Continuous
 62
     7
370
    15
100
AcDbSpline
210
0.0
220
0.0
230
1.0
 70
    24
 71
     3
 72
     8
 73
     4
 74
     0
 42
0.000000001
 43
0.00000001
 40
0.0
 40
0.0
 40
0.0
 40
0.0
 40
1.0
 40
1.0
 40
1.0
 40
1.0
 10
169.4049216398328
 20
131.7301690547821
 30
0.0
 10
168.8801891514709
 20
131.7301690547821
 30
0.0
 10
168.3415136672521
 20
131.7301690547821
 30
0.0
 10
167.7930849977761
 20
131.7301690547821
 30
0.0
  0
LINE
  5
AD
330
1F
100
AcDbEntity
  8
0
  6
Continuous
 62
     7
370
    15
100
AcDbLine
 10
169.4049213022
 20
85.5633425771
 30
0.0
 11
169.4049213022
 21
131.7301686167
 31
0.0
  0
SPLINE
  5
AE
330
1F
100
AcDbEntity
  8
0
  6
Continuous
 62
     7
370
    15
100
AcDbSpline
210
0.0
220
0.0
230
1.0
 70
     8
 71
     3
 72
    10
 73
     6
 74
     0
 42
0.000000001
 43
0.00000001
 40
0.0
 40
0.0
 40
0.0
 40
0.0
 40
0.5
 40
0.5
 40
1.0
 40
1.0
 40
1.0
 40
1.0
 10
163.63106618118
 20
83.02843920531386
 30
0.0
 10
163.6798361541614
 20
83.00021119810586
 30
0.0
 10
163.7372882774637
 20
82.97611659386426
 30
0.0
 10
163.8678851804524
 20
82.94185312077173
 30
0.0
 10
163.9403748602946
 20
82.9320767061454
 30
0.0
 10
164.0149216398328
 20
82.9320767061454
 30
0.0
  0
SPLINE
  5
AF
330
1F
100
AcDbEntity
  8
0
  6
Continuous
 62
     7
370
    15
100
AcDbSpline
210
0.0
220
0.0
230
1.0
 70
     8
 71
     3
 72
    10
 73
     6
 74
     0
 42
0.000000001
 43
0.00000001
 40
0.0
 40
0.0
 40
0.0
 40
0.0
 40
0.5
 40
0.5
 40
1.0
 40
1.0
 40
1.0
 40
1.0
 10
163.63106618118
 20
83.02843920531386
 30
0.0
 10
163.5729435211039
 20
83.09574436517566
 30
0.0
 10
163.5205403551004
 20
83.17582975220931
 30
0.0
 10
163.441637333554
 20
83.35984919389809
 30
0.0
 10
163.4149216398328
 20
83.46506055131854
 30
0.0
 10
163.4149216398328
 20
83.5737938977792
 30
0.0
  0
LINE
  5
B0
330
1F
100
AcDbEntity
  8
0
  6
Continuous
 62
     7
370
    15
100
AcDbLine
 10
163.414921559
 20
83.5737935512
 30
0.0
 11
163.414921559
 21
131.7301686167
 31
0.0
  0
SPLINE
  5
B1
330
1F
100
AcDbEntity
  8
0
  6
Continuous
 62
     7
370
    15
100
AcDbSpline
210
0.0
220
0.0
230
1.0
 70
    24
 71
     3
 72
    12
 73
     8
 74
     0
 42
0.000000001
 43
0.00000001
 40
0.0
 40
0.0
 40
0.0
 40
0.0
 40
0.25
 40
0.25
 40
0.5
 40
0.5
 40
1.0
 40
1.0
 40
1.0
 40
1.0
 10
164.0149216398328
 20
131.7301690547821
 30
0.0
 10
163.9265062625223
 20
131.7301690547821
 30
0.0
 10
163.8392358253518
 20
131.7301690547821
 30
0.0
 10
163.6867721005799
 20
131.7301690547821
 30
0.0
 10
163.6211334883575
 20
131.7301690547821
 30
0.0
 10
163.4644750870736
 20
131.7301690547821
 30
0.0
 10
163.4149216398328
 20
131.7301690547821
 30
0.0
 10
163.4149216398328
 20
131.7301690547821
 30
0.0
  0
LINE
  5
B2
330
1F
100
AcDbEntity
  8
0
  6
Continuous
 62
     7
370
    15
100
AcDbLine
 10
173.2249215185
 20
105.3788862436
 30
0.0
 11
173.2249215185
 21
131.7301686167
 31
0.0
  0
SPLINE
  5
B3
330
1F
100
AcDbEntity
  8
0
  6
Continuous
 62
     7
370
    15
100
AcDbSpline
210
0.0
220
0.0
230
1.0
 70
    24
 71
     3
 72
     8
 73
     4
 74
     0
 42
0.000000001
 43
0.00000001
 40
0.0
 40
0.0
 40
0.0
 40
0.0
 40
1.0
 40
1.0
 40
1.0
 40
1.0
 10
174.8367582818895
 20
131.7301690547821
 30
0.0
 10
174.2883296124135
 20
131.7301690547821
 30
0.0
 10
173.7496541281947
 20
131.7301690547821
 30
0.0
 10
173.2249216398328
 20
131.7301690547821
 30
0.0
  0
SPLINE
  5
B4
330
1F
100
AcDbEntity
  8
0
  6
Continuous
 62
     7
370
    15
100
AcDbSpline
210
0.0
220
0.0
230
1.0
 70
     8
 71
     3
 72
    12
 73
     8
 74
     0
 42
0.000000001
 43
0.00000001
 40
0.0
 40
0.0
 40
0.0
 40
0.0
 40
0.2500000000000006
 40
0.2500000000000006
 40
0.5000000000000011
 40
0.5000000000000011
 40
1.0
 40
1.0
 40
1.0
 40
1.0
 10
174.8367582818896
 20
103.6281489869584
 30
0.0
 10
174.7218622306289
 20
103.847889422015
 30
0.0
 10
174.5950962141562
 20
104.0448577736367
 30
0.0
 10
174.3348812805377
 20
104.3985753464756
 30
0.0
 10
174.2013738225755
 20
104.5554006403479
 30
0.0
 10
173.7929755539872
 20
104.9819432112555
 30
0.0
 10
173.5093224190497
 20
105.2086353902107
 30
0.0
 10
173.2249216398329
 20
105.3788865346062
 30
0.0
  0
SPLINE
  5
B5
330
1F
100
AcDbEntity
  8
0
  6
Continuous
 62
     7
370
    15
100
AcDbSpline
210
0.0
220
0.0
230
1.0
 70
     8
 71
     3
 72
    14
 73
    10
 74
     0
 42
0.000000001
 43
0.00000001
 40
0.0
 40
0.0
 40
0.0
 40
0.0
 40
0.2499999999999995
 40
0.2499999999999995
 40
0.4999999999999997
 40
0.4999999999999997
 40
0.7499999999999998
 40
0.7499999999999998
 40
1.0
 40
1.0
 40
1.0
 40
1.0
 10
173.2249216398328
 20
105.4331301844524
 30
0.0
 10
173.2249216398328
 20
105.4697810526162
 30
0.0
 10
173.203593851121
 20
105.5062478498652
 30
0.0
 10
173.1211354484644
 20
105.5713867044061
 30
0.0
 10
173.0600192566092
 20
105.599457834997
 30
0.0
 10
172.908716163547
 20
105.6332857167238
 30
0.0
 10
172.8173381401566
 20
105.6387488581203
 30
0.0
 10
172.6249644271037
 20
105.6178229401077
 30
0.0
 10
172.5227840876246
 20
105.5912875147324
 30
0.0
 10
172.4249216398328
 20
105.5508013414512
 30
0.0
  0
SPLINE
  5
B6
330
1F
100
AcDbEntity
  8
0
  6
Continuous
 62
     7
370
    15
100
AcDbSpline
210
0.0
220
0.0
230
1.0
 70
     8
 71
     3
 72
    12
 73
     8
 74
     0
 42
0.000000001
 43
0.00000001
 40
0.0
 40
0.0
 40
0.0
 40
0.0
 40
0.5000000000000017
 40
0.5000000000000017
 40
0.7500000000000008
 40
0.7500000000000008
 40
1.0
 40
1.0
 40
1.0
 40
1.0
 10
173.2249216398328
 20
101.6201630363852
 30
0.0
 10
173.5091281743981
 20
101.4526988740914
 30
0.0
 10
173.7878239085019
 20
101.3410617745798
 30
0.0
 10
174.1971699516912
 20
101.2737485089405
 30
0.0
 10
174.3333092890107
 20
101.2685974689265
 30
0.0
 10
174.5946293380068
 20
101.3063634065459
 30
0.0
 10
174.7200505204385
 20
101.3479131648901
 30
0.0
 10
174.8367582818899
 20
101.4286692565729
 30
0.0
  0
LINE
  5
B7
330
1F
100
AcDbEntity
  8
0
  6
Continuous
 62
     7
370
    15
100
AcDbLine
 10
173.2249215185
 20
101.6744063481
 30
0.0
 11
173.2249215185
 21
101.6201633274
 31
0.0
  0
SPLINE
  5
B8
330
1F
100
AcDbEntity
  8
0
  6
Continuous
 62
     7
370
    15
100
AcDbSpline
210
0.0
220
0.0
230
1.0
 70
     8
 71
     3
 72
    14
 73
    10
 74
     0
 42
0.000000001
 43
0.00000001
 40
0.0
 40
0.0
 40
0.0
 40
0.0
 40
0.25
 40
0.25
 40
0.5
 40
0.5
 40
0.75
 40
0.75
 40
1.0
 40
1.0
 40
1.0
 40
1.0
 10
172.4249216398293
 20
102.0976898646753
 30
0.0
 10
172.5223310598131
 20
102.0592751452811
 30
0.0
 10
172.6246553028267
 20
102.0215747404984
 30
0.0
 10
172.8166569883641
 20
101.9505299549043
 30
0.0
 10
172.9080916180186
 20
101.9163284935462
 30
0.0
 10
173.0598704853136
 20
101.8493320681408
 30
0.0
 10
173.1208473752282
 20
101.8161905998313
 30
0.0
 10
173.2038653137925
 20
101.7465130321812
 30
0.0
 10
173.2249216398328
 20
101.710779321014
 30
0.0
 10
173.2249216398328
 20
101.6744066862333
 30
0.0
  0
SPLINE
  5
B9
330
1F
100
AcDbEntity
  8
0
  6
Continuous
 62
     7
370
    15
100
AcDbSpline
210
0.0
220
0.0
230
1.0
 70
     8
 71
     3
 72
    22
 73
    18
 74
     0
 42
0.000000001
 43
0.00000001
 40
0.0
 40
0.0
 40
0.0
 40
0.0
 40
0.125
 40
0.125
 40
0.25
 40
0.25
 40
0.375
 40
0.375
 40
0.5
 40
0.5
 40
0.625
 40
0.625
 40
0.75
 40
0.75
 40
0.875
 40
0.875
 40
1.0
 40
1.0
 40
1.0
 40
1.0
 10
172.4249216398328
 20
105.5508013414512
 30
0.0
 10
172.2449049452635
 20
105.4763275544746
 30
0.0
 10
172.0804731233933
 20
105.3788782924907
 30
0.0
 10
171.7820768896349
 20
105.1395088589265
 30
0.0
 10
171.65177316227
 20
104.9996122468561
 30
0.0
 10
171.438554378651
 20
104.6913606567961
 30
0.0
 10
171.3549265215395
 20
104.521197438677
 30
0.0
 10
171.2437956446212
 20
104.1707027038867
 30
0.0
 10
171.2149596497674
 20
103.9855777427355
 30
0.0
 10
171.2148837071075
 20
103.6223708681185
 30
0.0
 10
171.2435423325346
 20
103.439000854411
 30
0.0
 10
171.3546934256469
 20
103.0931097419178
 30
0.0
 10
171.4377605462907
 20
102.9275902146503
 30
0.0
 10
171.651446504409
 20
102.6270504772465
 30
0.0
 10
171.7804534943331
 20
102.4931785559625
 30
0.0
 10
172.0800627738222
 20
102.2619317865582
 30
0.0
 10
172.2449054720834
 20
102.1686816698982
 30
0.0
 10
172.4249216398328
 20
102.0976898646739
 30
0.0
  0
SPLINE
  5
BA
330
1F
100
AcDbEntity
  8
0
  6
Continuous
 62
     7
370
    15
100
AcDbSpline
210
0.0
220
0.0
230
1.0
 70
     8
 71
     3
 72
     8
 73
     4
 74
     0
 42
0.000000001
 43
0.00000001
 40
0.0
 40
0.0
 40
0.0
 40
0.0
 40
0.0011901715795577
 40
0.0011901715795577
 40
0.0011901715795577
 40
0.0011901715795577
 10
174.3797112435365
 20
83.48672070816855
 30
0.0
 10
174.530516824721
 20
83.30151730435762
 30
0.0
 10
174.6829120923936
 20
83.116641943829
 30
0.0
 10
174.8367582818895
 20
82.93207670614541
 30
0.0
  0
SPLINE
  5
BB
330
1F
100
AcDbEntity
  8
0
  6
Continuous
 62
     7
370
    15
100
AcDbSpline
210
0.0
220
0.0
230
1.0
 70
     8
 71
     3
 72
     8
 73
     4
 74
     0
 42
0.000000001
 43
0.00000001
 40
0.0
 40
0.0
 40
0.0
 40
0.0
 40
1.0
 40
1.0
 40
1.0
 40
1.0
 10
174.3797112435365
 20
83.48672070816855
 30
0.0
 10
173.9940426649101
 20
84.17851499901273
 30
0.0
 10
173.6090563884172
 20
84.87070117333644
 30
0.0
 10
173.2249216398328
 20
85.56334259528063
 30
0.0
  0
LINE
  5
BC
330
1F
100
AcDbEntity
  8
0
  6
Continuous
 62
     7
370
    15
100
AcDbLine
 10
173.2249215185
 20
85.5633425771
 30
0.0
 11
173.2249215185
 21
101.6201633274
 31
0.0
  0
SPLINE
  5
BD
330
1F
100
AcDbEntity
  8
0
  6
Continuous
 62
     7
370
    15
100
AcDbSpline
210
0.0
220
0.0
230
1.0
 70
    24
 71
     3
 72
    14
 73
    10
 74
     0
 42
0.000000001
 43
0.00000001
 40
0.0
 40
0.0
 40
0.0
 40
0.0
 40
0.25
 40
0.25
 40
0.5
 40
0.5
 40
0.75
 40
0.75
 40
1.0
 40
1.0
 40
1.0
 40
1.0
 10
173.2249216398328
 20
131.7301690547821
 30
0.0
 10
173.2249216398328
 20
131.7301690547821
 30
0.0
 10
173.208840038373
 20
131.7301690547821
 30
0.0
 10
173.1433485251061
 20
131.7301690547821
 30
0.0
 10
173.0940405519788
 20
131.7301690547821
 30
0.0
 10
172.9594710302818
 20
131.7301690547821
 30
0.0
 10
172.8739479541966
 20
131.7301690547821
 30
0.0
 10
172.6669524586415
 20
131.7301690547821
 30
0.0
 10
172.5462588246979
 20
131.7301690547821
 30
0.0
 10
172.4249216398329
 20
131.7301690547821
 30
0.0
  0
SPLINE
  5
BE
330
1F
100
AcDbEntity
  8
0
  6
Continuous
 62
     7
370
    15
100
AcDbSpline
210
0.0
220
0.0
230
1.0
 70
     8
 71
     3
 72
    12
 73
     8
 74
     0
 42
0.000000001
 43
0.00000001
 40
0.0
 40
0.0
 40
0.0
 40
0.0
 40
0.2500000000000015
 40
0.2500000000000015
 40
0.500000000000003
 40
0.500000000000003
 40
1.0
 40
1.0
 40
1.0
 40
1.0
 10
170.2049216398328
 20
86.56231119849537
 30
0.0
 10
170.0985197894753
 20
86.56231119849538
 30
0.0
 10
169.9912043780788
 20
86.53954043447686
 30
0.0
 10
169.7957327870516
 20
86.45329748782477
 30
0.0
 10
169.705550671114
 20
86.38862116735423
 30
0.0
 10
169.4873291843933
 20
86.15569184329742
 30
0.0
 10
169.4049216398325
 20
85.9411066054064
 30
0.0
 10
169.4049216398328
 20
85.72808956697368
 30
0.0
  0
SPLINE
  5
BF
330
1F
100
AcDbEntity
  8
0
  6
Continuous
 62
     7
370
    15
100
AcDbSpline
210
0.0
220
0.0
230
1.0
 70
    24
 71
     3
 72
    14
 73
    10
 74
     0
 42
0.000000001
 43
0.00000001
 40
0.0
 40
0.0
 40
0.0
 40
0.0
 40
0.1250000000000007
 40
0.1250000000000007
 40
0.2500000000000014
 40
0.2500000000000014
 40
0.499999999999999
 40
0.499999999999999
 40
1.0
 40
1.0
 40
1.0
 40
1.0
 10
170.2049216398328
 20
131.7301690547821
 30
0.0
 10
170.1443043164152
 20
131.7301690547821
 30
0.0
 10
170.0821791682802
 20
131.7301690547821
 30
0.0
 10
169.9659615052588
 20
131.7301690547821
 30
0.0
 10
169.9113448655664
 20
131.7301690547821
 30
0.0
 10
169.7566685270582
 20
131.7301690547821
 30
0.0
 10
169.6705517782742
 20
131.7301690547821
 30
0.0
 10
169.4692441977336
 20
131.7301690547821
 30
0.0
 10
169.4049216398328
 20
131.7301690547821
 30
0.0
 10
169.4049216398328
 20
131.7301690547821
 30
0.0
  0
LINE
  5
C0
330
1F
100
AcDbEntity
  8
0
  6
Continuous
 62
     7
370
    15
100
AcDbLine
 10
172.4249219462
 20
86.5623108356
 30
0.0
 11
170.2049218058
 21
86.5623108356
 31
0.0
  0
LINE
  5
C1
330
1F
100
AcDbEntity
  8
0
  6
Continuous
 62
     7
370
    15
100
AcDbLine
 10
172.4249219462
 20
131.7301686167
 30
0.0
 11
170.2049218058
 21
131.7301686167
 31
0.0
  0
SPLINE
  5
C2
330
1F
100
AcDbEntity
  8
0
  6
Continuous
 62
     7
370
    15
100
AcDbSpline
210
0.0
220
0.0
230
1.0
 70
     8
 71
     3
 72
    12
 73
     8
 74
     0
 42
0.000000001
 43
0.00000001
 40
0.0
 40
0.0
 40
0.0
 40
0.0
 40
0.5000000000000013
 40
0.5000000000000013
 40
0.7500000000000007
 40
0.7500000000000007
 40
1.0
 40
1.0
 40
1.0
 40
1.0
 10
173.2249216398328
 20
85.72808956697504
 30
0.0
 10
173.2249216398328
 20
85.94091212590793
 30
0.0
 10
173.1429962820131
 20
86.1551686325459
 30
0.0
 10
172.9240744785447
 20
86.38885826099576
 30
0.0
 10
172.8340271870537
 20
86.45334308583975
 30
0.0
 10
172.6386137190338
 20
86.53954269699534
 30
0.0
 10
172.53133075205
 20
86.56231119849537
 30
0.0
 10
172.4249216398328
 20
86.56231119849537
 30
0.0
  0
LINE
  5
C3
330
1F
100
AcDbEntity
  8
0
  6
Continuous
 62
     7
370
    15
100
AcDbLine
 10
160.2149216398
 20
91.1551690905
 30
0.0
 11
160.2149216398
 21
135.605169019
 31
0.0
  0
SPLINE
  5
C4
330
1F
100
AcDbEntity
  8
0
  6
Continuous
 62
     7
370
    15
100
AcDbSpline
210
0.0
220
0.0
230
1.0
 70
     8
 71
     3
 72
     8
 73
     4
 74
     0
 42
0.000000001
 43
0.00000001
 40
0.0
 40
0.0
 40
0.0
 40
0.0
 40
0.0012409313617635
 40
0.0012409313617635
 40
0.0012409313617635
 40
0.0012409313617635
 10
168.3509669535368
 20
143.0927072110466
 30
0.0
 10
168.1657431139808
 20
143.3542347545238
 30
0.0
 10
167.9797579260083
 20
143.6154932562991
 30
0.0
 10
167.7930849977761
 20
143.8765051339977
 30
0.0
  0
SPLINE
  5
C5
330
1F
100
AcDbEntity
  8
0
  6
Continuous
 62
     7
370
    15
100
AcDbSpline
210
0.0
220
0.0
230
1.0
 70
     8
 71
     3
 72
     8
 73
     4
 74
     0
 42
0.000000001
 43
0.00000001
 40
0.0
 40
0.0
 40
0.0
 40
0.0
 40
1.0
 40
1.0
 40
1.0
 40
1.0
 10
169.4049216398328
 20
141.1969955142835
 30
0.0
 10
169.0542693995052
 20
141.8292639233339
 30
0.0
 10
168.7029109764451
 20
142.4611458230328
 30
0.0
 10
168.3509669535368
 20
143.0927072110466
 30
0.0
  0
LINE
  5
C6
330
1F
100
AcDbEntity
  8
0
  6
Continuous
 62
     7
370
    15
100
AcDbLine
 10
169.4049213022
 20
135.7823084354
 30
0.0
 11
169.4049213022
 21
141.1969955324
 31
0.0
  0
SPLINE
  5
C7
330
1F
100
AcDbEntity
  8
0
  6
Continuous
 62
     7
370
    15
100
AcDbSpline
210
0.0
220
0.0
230
1.0
 70
     8
 71
     3
 72
     8
 73
     4
 74
     0
 42
0.000000001
 43
0.00000001
 40
0.0
 40
0.0
 40
0.0
 40
0.0
 40
1.0
 40
1.0
 40
1.0
 40
1.0
 10
167.7930849977761
 20
139.2903986948297
 30
0.0
 10
168.3420297759729
 20
138.125302582516
 30
0.0
 10
168.8806401504898
 20
136.9561442656915
 30
0.0
 10
169.4049216398328
 20
135.7823081106406
 30
0.0
  0
LINE
  5
C8
330
1F
100
AcDbEntity
  8
0
  6
Continuous
 62
     7
370
    15
100
AcDbLine
 10
167.7930850476
 20
139.2903994083
 30
0.0
 11
167.7930850476
 21
143.8765055745
 31
0.0
  0
SPLINE
  5
C9
330
1F
100
AcDbEntity
  8
0
  6
Continuous
 62
     7
370
    15
100
AcDbSpline
210
0.0
220
0.0
230
1.0
 70
     8
 71
     3
 72
    12
 73
     8
 74
     0
 42
0.000000001
 43
0.00000001
 40
0.0
 40
0.0
 40
0.0
 40
0.0
 40
0.4999999999999996
 40
0.4999999999999996
 40
0.7499999999999998
 40
0.7499999999999998
 40
1.0
 40
1.0
 40
1.0
 40
1.0
 10
163.4149216398328
 20
138.5515814108657
 30
0.0
 10
163.4149216398328
 20
138.7281978073875
 30
0.0
 10
163.4642622746547
 20
138.9032549787612
 30
0.0
 10
163.6204778329428
 20
139.1172051912538
 30
0.0
 10
163.6857804128435
 20
139.1785378341008
 30
0.0
 10
163.8395494308038
 20
139.265925932072
 30
0.0
 10
163.9265625374143
 20
139.2903986948297
 30
0.0
 10
164.0149216398328
 20
139.2903986948297
 30
0.0
  0
LINE
  5
CA
330
1F
100
AcDbEntity
  8
0
  6
Continuous
 62
     7
370
    15
100
AcDbLine
 10
164.0149217039
 20
139.2903994083
 30
0.0
 11
167.7930850476
 21
139.2903994083
 31
0.0
  0
LINE
  5
CB
330
1F
100
AcDbEntity
  8
0
  6
Continuous
 62
     7
370
    15
100
AcDbLine
 10
169.4049213022
 20
135.7823084354
 30
0.0
 11
169.4049213022
 21
135.5774100184
 31
0.0
  0
SPLINE
  5
CC
330
1F
100
AcDbEntity
  8
0
  6
Continuous
 62
     7
370
    15
100
AcDbSpline
210
0.0
220
0.0
230
1.0
 70
     8
 71
     3
 72
    14
 73
    10
 74
     0
 42
0.000000001
 43
0.00000001
 40
0.0
 40
0.0
 40
0.0
 40
0.0
 40
0.25
 40
0.25
 40
0.5
 40
0.5
 40
0.75
 40
0.75
 40
1.0
 40
1.0
 40
1.0
 40
1.0
 10
169.4049216398328
 20
135.5774098743074
 30
0.0
 10
169.4049216398328
 20
135.4554745391258
 30
0.0
 10
169.4209660073728
 20
135.3359202986244
 30
0.0
 10
169.4866953495521
 20
135.1018043154812
 30
0.0
 10
169.5359027198004
 20
134.9898717753465
 30
0.0
 10
169.6709157006993
 20
134.7874719661096
 30
0.0
 10
169.7568357693056
 20
134.6976067725466
 30
0.0
 10
169.963350571311
 20
134.5672722629364
 30
0.0
 10
170.083489283682
 20
134.5291051982386
 30
0.0
 10
170.2049216398328
 20
134.5291051982386
 30
0.0
  0
LINE
  5
CD
330
1F
100
AcDbEntity
  8
0
  6
Continuous
 62
     7
370
    15
100
AcDbLine
 10
170.2049218058
 20
134.5291058778
 30
0.0
 11
172.4249219462
 21
134.5291058778
 31
0.0
  0
SPLINE
  5
CE
330
1F
100
AcDbEntity
  8
0
  6
Continuous
 62
     7
370
    15
100
AcDbSpline
210
0.0
220
0.0
230
1.0
 70
     8
 71
     3
 72
    12
 73
     8
 74
     0
 42
0.000000001
 43
0.00000001
 40
0.0
 40
0.0
 40
0.0
 40
0.0
 40
0.2500000000000015
 40
0.2500000000000015
 40
0.500000000000003
 40
0.500000000000003
 40
1.0
 40
1.0
 40
1.0
 40
1.0
 10
172.4249216398328
 20
134.5291051982386
 30
0.0
 10
172.5470036373211
 20
134.5291051982386
 30
0.0
 10
172.6675941798068
 20
134.5678315544123
 30
0.0
 10
172.8730894635066
 20
134.6977951421586
 30
0.0
 10
172.9586059464591
 20
134.7870013787053
 30
0.0
 10
173.1620002980033
 20
135.0918779162509
 30
0.0
 10
173.2249216398328
 20
135.334648530353
 30
0.0
 10
173.2249216398328
 20
135.5774098743074
 30
0.0
  0
LINE
  5
CF
330
1F
100
AcDbEntity
  8
0
  6
Continuous
 62
     7
370
    15
100
AcDbLine
 10
173.2249215185
 20
135.5774100184
 30
0.0
 11
173.2249215185
 21
135.7823084354
 31
0.0
  0
SPLINE
  5
D0
330
1F
100
AcDbEntity
  8
0
  6
Continuous
 62
     7
370
    15
100
AcDbSpline
210
0.0
220
0.0
230
1.0
 70
     8
 71
     3
 72
     8
 73
     4
 74
     0
 42
0.000000001
 43
0.00000001
 40
0.0
 40
0.0
 40
0.0
 40
0.0
 40
1.0
 40
1.0
 40
1.0
 40
1.0
 10
173.2249216398328
 20
135.7823081106406
 30
0.0
 10
173.7497127593288
 20
136.9572852983453
 30
0.0
 10
174.2882290105116
 20
138.1261844660835
 30
0.0
 10
174.8367582818896
 20
139.2903986948297
 30
0.0
  0
LINE
  5
D1
330
1F
100
AcDbEntity
  8
0
  6
Continuous
 62
     7
370
    15
100
AcDbLine
 10
174.8367587045
 20
139.2903994083
 30
0.0
 11
178.6649210319
 21
139.2903994083
 31
0.0
  0
SPLINE
  5
D2
330
1F
100
AcDbEntity
  8
0
  6
Continuous
 62
     7
370
    15
100
AcDbSpline
210
0.0
220
0.0
230
1.0
 70
     8
 71
     3
 72
    14
 73
    10
 74
     0
 42
0.000000001
 43
0.00000001
 40
0.0
 40
0.0
 40
0.0
 40
0.0
 40
0.25
 40
0.25
 40
0.5
 40
0.5
 40
0.75
 40
0.75
 40
1.0
 40
1.0
 40
1.0
 40
1.0
 10
178.6649216398328
 20
139.2903986948297
 30
0.0
 10
178.7533441779553
 20
139.2903986948297
 30
0.0
 10
178.8413981676483
 20
139.2653263443703
 30
0.0
 10
178.9932279315197
 20
139.1789842793989
 30
0.0
 10
179.0590708760835
 20
139.1174410248861
 30
0.0
 10
179.162869936629
 20
138.9756132786352
 30
0.0
 10
179.2013420461037
 20
138.8955646886651
 30
0.0
 10
179.2525647093782
 20
138.7265521919914
 30
0.0
 10
179.2649216398328
 20
138.6397728851217
 30
0.0
 10
179.2649216398328
 20
138.5515814108657
 30
0.0
  0
LINE
  5
D3
330
1F
100
AcDbEntity
  8
0
  6
Continuous
 62
     7
370
    15
100
AcDbLine
 10
163.414921559
 20
138.5515812098
 30
0.0
 11
163.414921559
 21
131.7301686167
 31
0.0
  0
LINE
  5
D4
330
1F
100
AcDbEntity
  8
0
  6
Continuous
 62
     7
370
    15
100
AcDbLine
 10
179.2649218753
 20
138.5515812098
 30
0.0
 11
179.2649218753
 21
131.7301686167
 31
0.0
  0
LINE
  5
D5
330
1F
100
AcDbEntity
  8
0
  6
Continuous
 62
     7
370
    15
100
AcDbLine
 10
178.6649210319
 20
143.8765055745
 30
0.0
 11
174.8367587045
 21
143.8765055745
 31
0.0
  0
LINE
  5
D6
330
1F
100
AcDbEntity
  8
0
  6
Continuous
 62
     7
370
    15
100
AcDbLine
 10
174.8367587045
 20
139.2903994083
 30
0.0
 11
174.8367587045
 21
143.8765055745
 31
0.0
  0
LINE
  5
D7
330
1F
100
AcDbEntity
  8
0
  6
Continuous
 62
     7
370
    15
100
AcDbLine
 10
172.4249219462
 20
140.1980272739
 30
0.0
 11
170.2049218058
 21
140.1980272739
 31
0.0
  0
SPLINE
  5
D8
330
1F
100
AcDbEntity
  8
0
  6
Continuous
 62
     7
370
    15
100
AcDbSpline
210
0.0
220
0.0
230
1.0
 70
     8
 71
     3
 72
    12
 73
     8
 74
     0
 42
0.000000001
 43
0.00000001
 40
0.0
 40
0.0
 40
0.0
 40
0.0
 40
0.5
 40
0.5
 40
0.75
 40
0.75
 40
1.0
 40
1.0
 40
1.0
 40
1.0
 10
173.2249216398328
 20
141.0322485425892
 30
0.0
 10
173.2249216398328
 20
140.8191111409377
 30
0.0
 10
173.1422792246849
 20
140.6041316162
 30
0.0
 10
172.9236958138745
 20
140.3712125473142
 30
0.0
 10
172.8346058608938
 20
140.3073456374937
 30
0.0
 10
172.6392005429963
 20
140.220959483112
 30
0.0
 10
172.5326764960529
 20
140.1980269110688
 30
0.0
 10
172.4249216398328
 20
140.1980269110688
 30
0.0
  0
SPLINE
  5
D9
330
1F
100
AcDbEntity
  8
0
  6
Continuous
 62
     7
370
    15
100
AcDbSpline
210
0.0
220
0.0
230
1.0
 70
     8
 71
     3
 72
    12
 73
     8
 74
     0
 42
0.000000001
 43
0.00000001
 40
0.0
 40
0.0
 40
0.0
 40
0.0
 40
0.4999999999999986
 40
0.4999999999999986
 40
0.7499999999999992
 40
0.7499999999999992
 40
1.0
 40
1.0
 40
1.0
 40
1.0
 10
179.2649216398328
 20
143.3907201882233
 30
0.0
 10
179.2649216398328
 20
143.5110472212764
 30
0.0
 10
179.2111268282398
 20
143.6291447947582
 30
0.0
 10
179.0502032582735
 20
143.7687875371972
 30
0.0
 10
178.985451797171
 20
143.8070634905917
 30
0.0
 10
178.8332316138533
 20
143.8619033202261
 30
0.0
 10
178.7504240983284
 20
143.8765051339977
 30
0.0
 10
178.6649216398328
 20
143.8765051339977
 30
0.0
  0
LINE
  5
DA
330
1F
100
AcDbEntity
  8
0
  6
Continuous
 62
     7
370
    15
100
AcDbLine
 10
179.2649218753
 20
138.5515812098
 30
0.0
 11
179.2649218753
 21
143.390720269
 31
0.0
  0
SPLINE
  5
DB
330
1F
100
AcDbEntity
  8
0
  6
Continuous
 62
     7
370
    15
100
AcDbSpline
210
0.0
220
0.0
230
1.0
 70
     8
 71
     3
 72
     8
 73
     4
 74
     0
 42
0.000000001
 43
0.00000001
 40
0.0
 40
0.0
 40
0.0
 40
0.0
 40
1.0
 40
1.0
 40
1.0
 40
1.0
 10
174.2788763261289
 20
143.0927072110466
 30
0.0
 10
173.9269323032206
 20
142.4611458230328
 30
0.0
 10
173.5755738801604
 20
141.8292639233339
 30
0.0
 10
173.2249216398328
 20
141.1969955142835
 30
0.0
  0
SPLINE
  5
DC
330
1F
100
AcDbEntity
  8
0
  6
Continuous
 62
     7
370
    15
100
AcDbSpline
210
0.0
220
0.0
230
1.0
 70
     8
 71
     3
 72
     8
 73
     4
 74
     0
 42
0.000000001
 43
0.00000001
 40
0.0
 40
0.0
 40
0.0
 40
0.0
 40
0.0012409313617635
 40
0.0012409313617635
 40
0.0012409313617635
 40
0.0012409313617635
 10
174.8367582818895
 20
143.8765051339977
 30
0.0
 10
174.6500853536573
 20
143.6154932562991
 30
0.0
 10
174.4641001656848
 20
143.3542347545238
 30
0.0
 10
174.2788763261289
 20
143.0927072110466
 30
0.0
  0
LINE
  5
DD
330
1F
100
AcDbEntity
  8
0
  6
Continuous
 62
     7
370
    15
100
AcDbLine
 10
173.2249215185
 20
135.7823084354
 30
0.0
 11
173.2249215185
 21
141.1969955324
 31
0.0
  0
SPLINE
  5
DE
330
1F
100
AcDbEntity
  8
0
  6
Continuous
 62
     7
370
    15
100
AcDbSpline
210
0.0
220
0.0
230
1.0
 70
     8
 71
     3
 72
    14
 73
    10
 74
     0
 42
0.000000001
 43
0.00000001
 40
0.0
 40
0.0
 40
0.0
 40
0.0
 40
0.25
 40
0.25
 40
0.5
 40
0.5
 40
0.75
 40
0.75
 40
1.0
 40
1.0
 40
1.0
 40
1.0
 10
170.2049216398328
 20
140.1980269110688
 30
0.0
 10
170.0975525953184
 20
140.1980269110688
 30
0.0
 10
169.9907471035556
 20
140.2209519064738
 30
0.0
 10
169.7956057350388
 20
140.307144340348
 30
0.0
 10
169.7063960174489
 20
140.3709883370119
 30
0.0
 10
169.5604692246325
 20
140.5264044449534
 30
0.0
 10
169.5024794808344
 20
140.6190590231611
 30
0.0
 10
169.4248856393119
 20
140.8182923632106
 30
0.0
 10
169.4049216398328
 20
140.9248974582659
 30
0.0
 10
169.4049216398328
 20
141.0322485425892
 30
0.0
  0
SPLINE
  5
DF
330
1F
100
AcDbEntity
  8
0
  6
Continuous
 62
     7
370
    15
100
AcDbSpline
210
0.0
220
0.0
230
1.0
 70
     8
 71
     3
 72
    10
 73
     6
 74
     0
 42
0.000000001
 43
0.00000001
 40
0.0
 40
0.0
 40
0.0
 40
0.0
 40
0.5
 40
0.5
 40
1.0
 40
1.0
 40
1.0
 40
1.0
 10
163.7021632411404
 20
143.8054656097391
 30
0.0
 10
163.6263236471369
 20
143.7354164234104
 30
0.0
 10
163.5590001294109
 20
143.6501976498368
 30
0.0
 10
163.4523564911058
 20
143.439971523175
 30
0.0
 10
163.4149216398328
 20
143.3164623323077
 30
0.0
 10
163.4149216398328
 20
143.186544211785
 30
0.0
  0
SPLINE
  5
E0
330
1F
100
AcDbEntity
  8
0
  6
Continuous
 62
     7
370
    15
100
AcDbSpline
210
0.0
220
0.0
230
1.0
 70
     8
 71
     3
 72
     8
 73
     4
 74
     0
 42
0.000000001
 43
0.00000001
 40
0.0
 40
0.0
 40
0.0
 40
0.0
 40
1.0
 40
1.0
 40
1.0
 40
1.0
 10
164.0149216398328
 20
143.8765051339977
 30
0.0
 10
163.9027433856532
 20
143.8765051339977
 30
0.0
 10
163.7940738729247
 20
143.8508240687367
 30
0.0
 10
163.7021632411404
 20
143.8054656097391
 30
0.0
  0
LINE
  5
E1
330
1F
100
AcDbEntity
  8
0
  6
Continuous
 62
     7
370
    15
100
AcDbLine
 10
163.414921559
 20
138.5515812098
 30
0.0
 11
163.414921559
 21
143.1865445583
 31
0.0
  0
LINE
  5
E2
330
1F
100
AcDbEntity
  8
0
  6
Continuous
 62
     7
370
    15
100
AcDbLine
 10
167.7930850476
 20
143.8765055745
 30
0.0
 11
164.0149217039
 21
143.8765055745
 31
0.0
  0
CIRCLE
  5
E3
330
1F
100
AcDbEntity
  8
0
  6
Continuous
 62
     7
370
    15
100
AcDbCircle
 10
194.1649216398
 20
113.3801690548
 30
0.0
 40
3.5
  0
SPLINE
  5
E4
330
1F
100
AcDbEntity
  8
0
  6
Continuous
 62
     7
370
    15
100
AcDbSpline
210
0.0
220
0.0
230
1.0
 70
    11
 71
     3
 72
    82
 73
    78
 74
     0
 42
0.000000001
 43
0.00000001
 40
0.0
 40
0.0
 40
0.0
 40
0.0
 40
0.0312500000000003
 40
0.0312500000000003
 40
0.0625000000000009
 40
0.0625000000000009
 40
0.0937500000000014
 40
0.0937500000000014
 40
0.125000000000002
 40
0.125000000000002
 40
0.1562500000000026
 40
0.1562500000000026
 40
0.1875000000000032
 40
0.1875000000000032
 40
0.2187500000000038
 40
0.2187500000000038
 40
0.2343750000000038
 40
0.2343750000000038
 40
0.2500000000000038
 40
0.2500000000000038
 40
0.2812500000000043
 40
0.2812500000000043
 40
0.2968750000000044
 40
0.2968750000000044
 40
0.3125000000000044
 40
0.3125000000000044
 40
0.3437500000000044
 40
0.3437500000000044
 40
0.3593750000000045
 40
0.3593750000000045
 40
0.3750000000000045
 40
0.3750000000000045
 40
0.3906250000000046
 40
0.3906250000000046
 40
0.4062500000000046
 40
0.4062500000000046
 40
0.4375000000000044
 40
0.4375000000000044
 40
0.4687500000000042
 40
0.4687500000000042
 40
0.500000000000004
 40
0.500000000000004
 40
0.5312500000000039
 40
0.5312500000000039
 40
0.5625000000000038
 40
0.5625000000000038
 40
0.5937500000000036
 40
0.5937500000000036
 40
0.6250000000000034
 40
0.6250000000000034
 40
0.6562500000000032
 40
0.6562500000000032
 40
0.6875000000000031
 40
0.6875000000000031
 40
0.7187500000000029
 40
0.7187500000000029
 40
0.7500000000000028
 40
0.7500000000000028
 40
0.7812500000000026
 40
0.7812500000000026
 40
0.8125000000000024
 40
0.8125000000000024
 40
0.8281250000000022
 40
0.8281250000000022
 40
0.843750000000002
 40
0.843750000000002
 40
0.8750000000000017
 40
0.8750000000000017
 40
0.8906250000000014
 40
0.8906250000000014
 40
0.9062500000000012
 40
0.9062500000000012
 40
0.9375000000000009
 40
0.9375000000000009
 40
0.9687500000000004
 40
0.9687500000000004
 40
1.0
 40
1.0
 40
1.0
 40
1.0
 10
190.844738615651
 20
116.6525676215298
 30
0.0
 10
191.0877961405291
 20
116.8426081443847
 30
0.0
 10
191.3448832374988
 20
117.0070038134156
 30
0.0
 10
191.8847931613223
 20
117.289674219379
 30
0.0
 10
192.1692493498823
 20
117.4083975241085
 30
0.0
 10
192.7575911361014
 20
117.5968616968213
 30
0.0
 10
193.0565069548779
 20
117.6653169880577
 30
0.0
 10
193.6634825663466
 20
117.7530861139645
 30
0.0
 10
193.9741627503547
 20
117.7722718239704
 30
0.0
 10
194.5921739774476
 20
117.7593056875985
 30
0.0
 10
194.8971578628597
 20
117.7276916589302
 30
0.0
 10
195.499248046606
 20
117.6149865378577
 30
0.0
 10
195.7990404130033
 20
117.5328414840068
 30
0.0
 10
196.3762656143449
 20
117.3201174140154
 30
0.0
 10
196.6521904396438
 20
117.1907102608212
 30
0.0
 10
197.0469596960535
 20
116.9612612083786
 30
0.0
 10
197.1753423879208
 20
116.878849064647
 30
0.0
 10
197.4253934409204
 20
116.7014885020588
 30
0.0
 10
197.5474561085065
 20
116.6061101746217
 30
0.0
 10
197.8951794835451
 20
116.3065374531074
 30
0.0
 10
198.1051083697244
 20
116.0875221650517
 30
0.0
 10
198.3854686021974
 20
115.7279890305675
 30
0.0
 10
198.4731237717015
 20
115.6029384339386
 30
0.0
 10
198.6359148489695
 20
115.3415071496739
 30
0.0
 10
198.7107903538835
 20
115.2052437761144
 30
0.0
 10
198.909296154871
 20
114.7905071902477
 30
0.0
 10
199.0095471582329
 20
114.5024798611256
 30
0.0
 10
199.1084801785082
 20
114.0517821465738
 30
0.0
 10
199.1328936025729
 20
113.8971525114755
 30
0.0
 10
199.1623830936014
 20
113.5883434443708
 30
0.0
 10
199.1676334074722
 20
113.4343504664609
 30
0.0
 10
199.15961543124
 20
113.1271675996112
 30
0.0
 10
199.1463463004046
 20
112.9739777465318
 30
0.0
 10
199.1011515208168
 20
112.6684061975078
 30
0.0
 10
199.0688949121295
 20
112.5150879599454
 30
0.0
 10
198.9464777687277
 20
112.0674228249591
 30
0.0
 10
198.8310913774026
 20
111.7828290044015
 30
0.0
 10
198.537107514385
 20
111.2393017238076
 30
0.0
 10
198.3606857041743
 20
110.9854131784216
 30
0.0
 10
197.9624676636912
 20
110.5205071331935
 30
0.0
 10
197.7372008537713
 20
110.3060527580033
 30
0.0
 10
197.2557350239631
 20
109.9273113055199
 30
0.0
 10
196.9988668965064
 20
109.7614917270547
 30
0.0
 10
196.4539476035483
 20
109.4744815959567
 30
0.0
 10
196.1677789199358
 20
109.3548490417309
 30
0.0
 10
195.5843372342207
 20
109.1667604742384
 30
0.0
 10
195.2848894930925
 20
109.0971320398172
 30
0.0
 10
194.6701593289764
 20
109.0073718160005
 30
0.0
 10
194.3616407826073
 20
108.9883833789734
 30
0.0
 10
193.7477285673532
 20
109.0003906212581
 30
0.0
 10
193.4414455402691
 20
109.0312522604401
 30
0.0
 10
192.8302855363464
 20
109.1451673015551
 30
0.0
 10
192.5339398493
 20
109.2266581284106
 30
0.0
 10
191.9602495013013
 20
109.437449746115
 30
0.0
 10
191.6824940307533
 20
109.5668678195482
 30
0.0
 10
191.147788291732
 20
109.8775437706987
 30
0.0
 10
190.8989213945368
 20
110.0540655315846
 30
0.0
 10
190.4382826486508
 20
110.4504502184798
 30
0.0
 10
190.2256054224865
 20
110.6713349152486
 30
0.0
 10
189.8460675127812
 20
111.1587864288989
 30
0.0
 10
189.6848358929611
 20
111.4177645175877
 30
0.0
 10
189.4873225505845
 20
111.83026272165
 30
0.0
 10
189.4289301675209
 20
111.9717967973486
 30
0.0
 10
189.3280921789266
 20
112.2635510409581
 30
0.0
 10
189.2855911556308
 20
112.414604587307
 30
0.0
 10
189.1870533367836
 20
112.8676678367593
 30
0.0
 10
189.1579560286849
 20
113.1734048413124
 30
0.0
 10
189.1704837763363
 20
113.637695951321
 30
0.0
 10
189.1843339942075
 20
113.7943016682947
 30
0.0
 10
189.2303644781781
 20
114.1008305595586
 30
0.0
 10
189.2624622434259
 20
114.2516370793538
 30
0.0
 10
189.3849573111915
 20
114.6969853902564
 30
0.0
 10
189.5033871343787
 20
114.9876023136159
 30
0.0
 10
189.7976307921119
 20
115.5285127673
 30
0.0
 10
189.9730013783289
 20
115.7804907464688
 30
0.0
 10
190.3771084199854
 20
116.2500784863441
 30
0.0
 10
190.6016810907729
 20
116.4625270986749
 30
0.0
 10
190.844738615651
 20
116.6525676215298
 30
0.0
  0
LINE
  5
E5
330
1F
100
AcDbEntity
  8
0
  6
Continuous
 62
     7
370
    15
100
AcDbLine
 10
206.2149217292
 20
113.3801690548
 30
0.0
 11
206.2149217292
 21
97.6801696478
 31
0.0
  0
LINE
  5
E6
330
1F
100
AcDbEntity
  8
0
  6
Continuous
 62
     7
370
    15
100
AcDbLine
 10
206.2149217292
 20
129.0801684617
 30
0.0
 11
206.2149217292
 21
113.3801690548
 31
0.0
  0
LINE
  5
E7
330
1F
100
AcDbEntity
  8
0
  6
Continuous
 62
     7
370
    15
100
AcDbLine
 10
205.9149203762
 20
113.3801690548
 30
0.0
 11
205.9149203762
 21
97.3801682948
 31
0.0
  0
LINE
  5
E8
330
1F
100
AcDbEntity
  8
0
  6
Continuous
 62
     7
370
    15
100
AcDbLine
 10
205.9149203762
 20
129.3801698147
 30
0.0
 11
205.9149203762
 21
113.3801690548
 31
0.0
  0
SPLINE
  5
E9
330
1F
100
AcDbEntity
  8
0
  6
Continuous
 62
     7
370
    15
100
AcDbSpline
210
0.0
220
0.0
230
1.0
 70
     8
 71
     3
 72
    21
 73
    17
 74
     0
 42
0.000000001
 43
0.00000001
 40
0.0
 40
0.0
 40
0.0
 40
0.0
 40
0.0553996596388712
 40
0.1400788999629373
 40
0.2304267827876058
 40
0.3328600907912533
 40
0.4479489331330685
 40
0.5082867378488791
 40
0.5703374352209961
 40
0.6312786242368161
 40
0.6940336651114353
 40
0.7539973046808432
 40
0.8160008732406027
 40
0.8709517382760341
 40
0.9280847883925455
 40
1.0
 40
1.0
 40
1.0
 40
1.0
 10
199.1100853249162
 20
129.3671909033415
 30
0.0
 10
199.1144312467105
 20
129.3681697242593
 30
0.0
 10
199.125419977476
 20
129.3706446881548
 30
0.0
 10
198.6534159506099
 20
129.2607152839116
 30
0.0
 10
197.8011405257488
 20
129.0878385625599
 30
0.0
 10
196.529307973184
 20
128.8898453961974
 30
0.0
 10
195.1991580448928
 20
128.7794062193514
 30
0.0
 10
194.0277654823616
 20
128.7605746503913
 30
0.0
 10
193.1262149776655
 20
128.7875434577006
 30
0.0
 10
192.2426747002274
 20
128.8539607535665
 30
0.0
 10
191.423103101394
 20
128.9504532134951
 30
0.0
 10
190.6804649248011
 20
129.0657519951033
 30
0.0
 10
190.0698615303665
 20
129.1802636959009
 30
0.0
 10
189.6039292335901
 20
129.2785804343595
 30
0.0
 10
189.2366125783347
 20
129.3628148678922
 30
0.0
 10
189.2210015454639
 20
129.3667899247737
 30
0.0
 10
189.2123019262879
 20
129.3690051197168
 30
0.0
  0
LINE
  5
EA
330
1F
100
AcDbEntity
  8
0
  6
Continuous
 62
     7
370
    15
100
AcDbLine
 10
91.964921163
 20
101.9730386569
 30
0.0
 11
91.964921163
 21
124.7872994526
 31
0.0
  0
ARC
  5
EB
330
1F
100
AcDbEntity
  8
0
  6
Continuous
 62
     7
370
    15
100
AcDbCircle
 10
173.0999088872
 20
104.1450510706
 30
0.0
 40
1.887488618175406
100
AcDbArc
 50
185.4102956623
 51
252.4538806135
  0
ARC
  5
EC
330
1F
100
AcDbEntity
  8
0
  6
Continuous
 62
     7
370
    15
100
AcDbCircle
 10
173.2216136161
 20
104.2642219442
 30
0.0
 40
2.039380001474863
100
AcDbArc
 50
250.2024793675
 51
332.0819155772
  0
ARC
  5
ED
330
1F
100
AcDbEntity
  8
0
  6
Continuous
 62
     7
370
    15
100
AcDbCircle
 10
173.0817842317
 20
104.0824743668
 30
0.0
 40
1.760526294542598
100
AcDbArc
 50
161.381556313
 51
252.9328448109
  0
ARC
  5
EE
330
1F
100
AcDbEntity
  8
0
  6
Continuous
 62
     7
370
    15
100
AcDbCircle
 10
173.2231891679
 20
104.2126715227
 30
0.0
 40
1.92892976065302
100
AcDbArc
 50
250.051416328
 51
335.5004191181
  0
ARC
  5
EF
330
1F
100
AcDbEntity
  8
0
  6
Continuous
 62
     7
370
    15
100
AcDbCircle
 10
173.1363272121
 20
104.085920704
 30
0.0
 40
1.40222820245173
100
AcDbArc
 50
87.388324733
 51
251.951738064
  0
ARC
  5
F0
330
1F
100
AcDbEntity
  8
0
  6
Continuous
 62
     7
370
    15
100
AcDbCircle
 10
173.2267308601
 20
104.1567790048
 30
0.0
 40
1.498975644844515
100
AcDbArc
 50
249.504617996
 51
349.6008519217
  0
CIRCLE
  5
F1
330
1F
100
AcDbEntity
  8
0
  6
HIDDEN
 62
     7
370
     0
100
AcDbCircle
 10
194.1649216398
 20
113.3801690548
 30
0.0
 40
3.999999999999991
  0
LINE
  5
F2
330
1F
100
AcDbEntity
  8
0
  6
HIDDEN
 62
     7
370
     0
100
AcDbLine
 10
190.2887171074
 20
128.6801691412
 30
0.0
 11
198.1649232968
 21
128.6801691412
 31
0.0
  0
LINE
  5
F3
330
1F
100
AcDbEntity
  8
0
  6
HIDDEN
 62
     7
370
     0
100
AcDbLine
 10
190.1649219855
 20
128.6801691412
 30
0.0
 11
190.2887171074
 21
128.6801691412
 31
0.0
  0
LINE
  5
F4
330
1F
100
AcDbEntity
  8
0
  6
HIDDEN
 62
     7
370
     0
100
AcDbLine
 10
190.2887171074
 20
123.485425046
 30
0.0
 11
198.1649232968
 21
123.485425046
 31
0.0
  0
LINE
  5
F5
330
1F
100
AcDbEntity
  8
0
  6
HIDDEN
 62
     7
370
     0
100
AcDbLine
 10
190.1649219855
 20
123.485425046
 30
0.0
 11
190.2887171074
 21
123.485425046
 31
0.0
  0
LINE
  5
F6
330
1F
100
AcDbEntity
  8
0
  6
HIDDEN
 62
     7
370
     0
100
AcDbLine
 10
191.5777457818
 20
119.3801691069
 30
0.0
 11
196.8347227141
 21
119.3801691069
 31
0.0
  0
LINE
  5
F7
330
1F
100
AcDbEntity
  8
0
  6
HIDDEN
 62
     7
370
     0
100
AcDbLine
 10
191.495118843
 20
119.3801691069
 30
0.0
 11
191.5777457818
 21
119.3801691069
 31
0.0
  0
SPLINE
  5
F8
330
1F
100
AcDbEntity
  8
0
  6
HIDDEN
 62
     7
370
     0
100
AcDbSpline
210
0.0
220
0.0
230
1.0
 70
     8
 71
     3
 72
    11
 73
     7
 74
     0
 42
0.000000001
 43
0.00000001
 40
0.0
 40
0.0
 40
0.0
 40
0.0
 40
0.2164518301825085
 40
0.4403052369216713
 40
0.7518956658206604
 40
1.0
 40
1.0
 40
1.0
 40
1.0
 10
192.5118697747319
 20
129.2895707546827
 30
0.0
 10
192.6641551970958
 20
129.2171328443831
 30
0.0
 10
192.9739334462198
 20
129.0697800073585
 30
0.0
 10
193.5488035673731
 20
128.9469581403847
 30
0.0
 10
194.1654630465131
 20
129.0210041364581
 30
0.0
 10
194.5600901413034
 20
129.2070842277435
 30
0.0
 10
194.7350224420159
 20
129.2895707546827
 30
0.0
  0
SPLINE
  5
F9
330
1F
100
AcDbEntity
  8
0
  6
HIDDEN
 62
     7
370
     0
100
AcDbSpline
210
0.0
220
0.0
230
1.0
 70
     8
 71
     3
 72
    11
 73
     7
 74
     0
 42
0.000000001
 43
0.00000001
 40
0.0
 40
0.0
 40
0.0
 40
0.0
 40
0.2164526355912262
 40
0.4403046493850509
 40
0.7518950410133174
 40
1.0
 40
1.0
 40
1.0
 40
1.0
 10
194.7350224420159
 20
129.2895707546827
 30
0.0
 10
194.8482569041307
 20
129.2171329215402
 30
0.0
 10
195.0785967195991
 20
129.0697809863839
 30
0.0
 10
195.5060450555055
 20
128.9469576597267
 30
0.0
 10
195.964569676553
 20
129.0210045713787
 30
0.0
 10
196.2580012713773
 20
129.2070842773914
 30
0.0
 10
196.3880753084748
 20
129.2895707546827
 30
0.0
  0
SPLINE
  5
FA
330
1F
100
AcDbEntity
  8
0
  6
HIDDEN
 62
     7
370
     0
100
AcDbSpline
210
0.0
220
0.0
230
1.0
 70
     8
 71
     3
 72
    11
 73
     7
 74
     0
 42
0.000000001
 43
0.00000001
 40
0.0
 40
0.0
 40
0.0
 40
0.0
 40
0.1849308412413231
 40
0.5198466198365916
 40
0.8714437139773514
 40
1.0
 40
1.0
 40
1.0
 40
1.0
 10
196.3880753084748
 20
129.2895707546827
 30
0.0
 10
196.3548927541293
 20
129.227166836337
 30
0.0
 10
196.2616155127654
 20
129.0517473887271
 30
0.0
 10
196.0874917293888
 20
128.9221439305644
 30
0.0
 10
195.9266869186158
 20
129.0808494988152
 30
0.0
 10
195.8409347869555
 20
129.2454899211444
 30
0.0
 10
195.8179755076497
 20
129.2895707546827
 30
0.0
  0
SPLINE
  5
FB
330
1F
100
AcDbEntity
  8
0
  6
HIDDEN
 62
     7
370
     0
100
AcDbSpline
210
0.0
220
0.0
230
1.0
 70
     8
 71
     3
 72
    11
 73
     7
 74
     0
 42
0.000000001
 43
0.00000001
 40
0.0
 40
0.0
 40
0.0
 40
0.0
 40
0.2164532088033949
 40
0.4403066171110823
 40
0.7518970481933628
 40
1.0
 40
1.0
 40
1.0
 40
1.0
 10
195.8179755076497
 20
129.2895707546827
 30
0.0
 10
195.6656887921981
 20
129.2171328900507
 30
0.0
 10
195.3559089146801
 20
129.0697806225413
 30
0.0
 10
194.7810381426103
 20
128.9469580859442
 30
0.0
 10
194.1643792842865
 20
129.0210035091982
 30
0.0
 10
193.7697538581086
 20
129.2070842125911
 30
0.0
 10
193.5948228403657
 20
129.2895707546827
 30
0.0
  0
SPLINE
  5
FC
330
1F
100
AcDbEntity
  8
0
  6
HIDDEN
 62
     7
370
     0
100
AcDbSpline
210
0.0
220
0.0
230
1.0
 70
     8
 71
     3
 72
    11
 73
     7
 74
     0
 42
0.000000001
 43
0.00000001
 40
0.0
 40
0.0
 40
0.0
 40
0.0
 40
0.2164526231151813
 40
0.440305710820752
 40
0.7518960844893587
 40
1.0
 40
1.0
 40
1.0
 40
1.0
 10
193.5948228403657
 20
129.2895707546827
 30
0.0
 10
193.4815885589055
 20
129.217132882918
 30
0.0
 10
193.2512485423695
 20
129.0697805054846
 30
0.0
 10
192.8237963023507
 20
128.9469580038022
 30
0.0
 10
192.3652719538737
 20
129.0210039989192
 30
0.0
 10
192.0718426812318
 20
129.2070842335515
 30
0.0
 10
191.9417699739068
 20
129.2895707546827
 30
0.0
  0
SPLINE
  5
FD
330
1F
100
AcDbEntity
  8
0
  6
HIDDEN
 62
     7
370
     0
100
AcDbSpline
210
0.0
220
0.0
230
1.0
 70
     8
 71
     3
 72
    11
 73
     7
 74
     0
 42
0.000000001
 43
0.00000001
 40
0.0
 40
0.0
 40
0.0
 40
0.0
 40
0.1285562863356081
 40
0.4801537549924314
 40
0.8150691744911206
 40
1.0
 40
1.0
 40
1.0
 40
1.0
 10
191.9417699739068
 20
129.2895707546827
 30
0.0
 10
191.9647291472732
 20
129.2454899200347
 30
0.0
 10
192.0504809499861
 20
129.0808493654361
 30
0.0
 10
192.2112926297049
 20
128.9221439602928
 30
0.0
 10
192.385409259649
 20
129.0517474961689
 30
0.0
 10
192.4786870160599
 20
129.2271668352562
 30
0.0
 10
192.5118697747319
 20
129.2895707546827
 30
0.0
  0
LINE
  5
FE
330
1F
100
AcDbEntity
  8
0
  6
HIDDEN
 62
     7
370
     0
100
AcDbLine
 10
194.735022442
 20
124.3801689952
 30
0.0
 11
193.6234442457
 21
124.3801689952
 31
0.0
  0
LINE
  5
FF
330
1F
100
AcDbEntity
  8
0
  6
HIDDEN
 62
     7
370
     0
100
AcDbLine
 10
195.5615488752
 20
124.3801689952
 30
0.0
 11
194.735022442
 21
124.3801689952
 31
0.0
  0
LINE
  5
100
330
1F
100
AcDbEntity
  8
0
  6
HIDDEN
 62
     7
370
     0
100
AcDbLine
 10
194.735022442
 20
124.3801689952
 30
0.0
 11
194.735022442
 21
129.2895707547
 31
0.0
  0
LINE
  5
101
330
1F
100
AcDbEntity
  8
0
  6
HIDDEN
 62
     7
370
     0
100
AcDbLine
 10
192.1649223134
 20
123.3801688313
 30
0.0
 11
196.164922969
 21
123.3801688313
 31
0.0
  0
LINE
  5
102
330
1F
100
AcDbEntity
  8
0
  6
HIDDEN
 62
     7
370
     0
100
AcDbLine
 10
193.6234442457
 20
124.3801689952
 30
0.0
 11
192.5118697747
 21
124.3801689952
 31
0.0
  0
LINE
  5
103
330
1F
100
AcDbEntity
  8
0
  6
HIDDEN
 62
     7
370
     0
100
AcDbLine
 10
192.5118697747
 20
124.3801689952
 30
0.0
 11
192.2268180117
 21
124.3801689952
 31
0.0
  0
LINE
  5
104
330
1F
100
AcDbEntity
  8
0
  6
HIDDEN
 62
     7
370
     0
100
AcDbLine
 10
192.5118697747
 20
124.3801689952
 30
0.0
 11
192.5118697747
 21
129.2895707547
 31
0.0
  0
LINE
  5
105
330
1F
100
AcDbEntity
  8
0
  6
HIDDEN
 62
     7
370
     0
100
AcDbLine
 10
196.3880753085
 20
124.3801689952
 30
0.0
 11
195.5615488752
 21
124.3801689952
 31
0.0
  0
LINE
  5
106
330
1F
100
AcDbEntity
  8
0
  6
HIDDEN
 62
     7
370
     0
100
AcDbLine
 10
195.8179755076
 20
124.3801689952
 30
0.0
 11
195.8179755076
 21
129.2895707547
 31
0.0
  0
LINE
  5
107
330
1F
100
AcDbEntity
  8
0
  6
HIDDEN
 62
     7
370
     0
100
AcDbLine
 10
196.3880753085
 20
124.3801689952
 30
0.0
 11
196.3880753085
 21
129.2895707547
 31
0.0
  0
LINE
  5
108
330
1F
100
AcDbEntity
  8
0
  6
HIDDEN
 62
     7
370
     0
100
AcDbLine
 10
192.2268180117
 20
124.3801689952
 30
0.0
 11
191.9417699739
 21
124.3801689952
 31
0.0
  0
LINE
  5
109
330
1F
100
AcDbEntity
  8
0
  6
HIDDEN
 62
     7
370
     0
100
AcDbLine
 10
193.5948228404
 20
124.3801689952
 30
0.0
 11
193.5948228404
 21
129.2895707547
 31
0.0
  0
LINE
  5
10A
330
1F
100
AcDbEntity
  8
0
  6
HIDDEN
 62
     7
370
     0
100
AcDbLine
 10
191.9417699739
 20
124.3801689952
 30
0.0
 11
191.9417699739
 21
129.2895707547
 31
0.0
  0
SPLINE
  5
10B
330
1F
100
AcDbEntity
  8
0
  6
HIDDEN
 62
     7
370
     0
100
AcDbSpline
210
0.0
220
0.0
230
1.0
 70
     8
 71
     3
 72
     9
 73
     5
 74
     0
 42
0.000000001
 43
0.00000001
 40
0.0
 40
0.0
 40
0.0
 40
0.0
 40
0.9333113421934416
 40
1.0
 40
1.0
 40
1.0
 40
1.0
 10
171.2390307277172
 20
105.6336299761292
 30
0.0
 10
171.2244549091685
 20
105.5326598880696
 30
0.0
 10
171.2088375927491
 20
105.4244751018198
 30
0.0
 10
171.2158674476323
 20
105.331992604845
 30
0.0
 10
171.216336259219
 20
105.3258250712511
 30
0.0
  0
LWPOLYLINE
  5
10C
330
1F
100
AcDbEntity
  8
0
  6
HIDDEN
 62
     7
370
     0
100
AcDbPolyline
 90
       23
 70
   128
 43
0.0
 10
171.2390307277
 20
105.0517610519
 10
171.3944125861
 20
104.5645387157
 10
171.6831356227
 20
104.1343114584
 10
172.0840532273
 20
103.7925915106
 10
172.5677998677
 20
103.5644072353
 10
173.0989452392
 20
103.4664730786
 10
173.6385852039
 20
103.5059611558
 10
174.1471935004
 20
103.6799787789
 10
174.5875190884
 20
103.9757817297
 10
174.9273093357
 20
104.3717027887
 10
175.1416774407
 20
104.8387433647
 10
175.2149213046
 20
105.3426959797
 10
175.1416774407
 20
105.846648129
 10
174.9273093357
 20
106.313688705
 10
174.5875190884
 20
106.709609764
 10
174.1471935004
 20
107.0054122492
 10
173.6385852039
 20
107.1794303379
 10
173.0989452392
 20
107.2189184151
 10
172.5677998677
 20
107.1209837928
 10
172.0840532273
 20
106.8927999831
 10
171.6831356227
 20
106.5510800353
 10
171.3944125861
 20
106.120852778
 10
171.2390307277
 20
105.6336299761
  0
LWPOLYLINE
  5
10D
330
1F
100
AcDbEntity
  8
0
  6
HIDDEN
 62
     7
370
     0
100
AcDbPolyline
 90
       24
 70
   128
 43
0.0
 10
163.665133243
 20
104.48198442
 10
163.8007885251
 20
103.926420702
 10
164.0119919959
 20
103.4120596259
 10
164.2830797411
 20
102.9770509585
 10
164.5939459033
 20
102.6536557137
 10
164.9215353593
 20
102.4658591732
 10
165.2415526971
 20
102.4275901972
 10
165.5302631609
 20
102.5416855945
 10
165.7662542477
 20
102.7996842994
 10
165.932024078
 20
103.1824513584
 10
166.0152782626
 20
103.6615991279
 10
166.0098416671
 20
104.2015911325
 10
165.9161180198
 20
104.7623777076
 10
165.7410582468
 20
105.3023697122
 10
165.4976454504
 20
105.7815174817
 10
165.203932853
 20
106.1642845406
 10
164.8817036241
 20
106.4222832455
 10
164.5548559665
 20
106.5363786428
 10
164.24763081
 20
106.4981092013
 10
163.982813194
 20
106.3103131264
 10
163.7800440132
 20
105.9869183472
 10
163.6543615661
 20
105.5519092142
 10
163.6150869947
 20
105.0375490694
 10
163.665133243
 20
104.48198442
  0
LWPOLYLINE
  5
10E
330
1F
100
AcDbEntity
  8
0
  6
HIDDEN
 62
     7
370
     0
100
AcDbPolyline
 90
       22
 70
   128
 43
0.0
 10
164.0466490701
 20
104.5141150489
 10
164.1666453272
 20
104.0372192173
 10
164.3565657489
 20
103.6026976316
 10
164.5995352357
 20
103.2491601317
 10
164.8739647992
 20
103.0080183654
 10
165.1554700859
 20
102.9007002025
 10
165.4190380998
 20
102.9367414548
 10
165.6412498034
 20
103.112939304
 10
165.8023606926
 20
103.4136372863
 10
165.8880549423
 20
103.8121176197
 10
165.8907189905
 20
104.2729742139
 10
165.8101158157
 20
104.7552568152
 10
165.6534072883
 20
105.216112478
 10
165.4345176123
 20
105.614593277
 10
165.1728960626
 20
105.9152912594
 10
164.8917889163
 20
106.0914891086
 10
164.6161737792
 20
106.1275298952
 10
164.3705402441
 20
106.020212198
 10
164.1767143212
 20
105.7790708973
 10
164.0519177947
 20
105.4255324661
 10
164.0072394568
 20
104.9910108804
 10
164.0466490701
 20
104.5141150489
  0
ELLIPSE
  5
10F
330
1F
100
AcDbEntity
  8
0
  6
HIDDEN
 62
     7
370
     0
100
AcDbEllipse
 10
173.2149216398
 20
106.4925789942
 30
0.0
 11
1.383467579512114
 21
-1.091267719176599
 31
0.0
210
0.0
220
0.0
230
1.0
 40
0.8239737799
 41
2.147131942757438
 42
5.288724596347245
  0
ELLIPSE
  5
110
330
1F
100
AcDbEntity
  8
0
  6
HIDDEN
 62
     7
370
     0
100
AcDbEllipse
 10
173.2149216398
 20
106.4925789942
 30
0.0
 11
1.383467579512114
 21
1.753907414218489
 31
0.0
210
0.0
220
0.0
230
1.0
 40
0.5126701559
 41
0.9944607108323609
 42
4.136053364422168
  0
SPLINE
  5
111
330
1F
100
AcDbEntity
  8
0
  6
HIDDEN
 62
     7
370
     0
100
AcDbSpline
210
0.0
220
0.0
230
1.0
 70
     8
 71
     3
 72
    14
 73
    10
 74
     0
 42
0.000000001
 43
0.00000001
 40
0.0
 40
0.0
 40
0.0
 40
0.0
 40
0.25
 40
0.25
 40
0.5
 40
0.5
 40
0.75
 40
0.75
 40
1.0
 40
1.0
 40
1.0
 40
1.0
 10
171.2390308771924
 20
105.0517614879442
 30
0.0
 10
171.2753947052227
 20
105.0972561233461
 30
0.0
 10
171.3078724324329
 20
105.1456479295623
 30
0.0
 10
171.3566260618486
 20
105.2511330734919
 30
0.0
 10
171.3715298395231
 20
105.3077175817349
 30
0.0
 10
171.3715402731808
 20
105.4166051756854
 30
0.0
 10
171.3566499773726
 20
105.468789841448
 30
0.0
 10
171.307761046495
 20
105.5600672403916
 30
0.0
 10
171.2753888682246
 20
105.5987339457658
 30
0.0
 10
171.2390308771924
 20
105.6336298853135
 30
0.0
  0
LWPOLYLINE
  5
112
330
1F
100
AcDbEntity
  8
0
  6
HIDDEN
 62
     7
370
     0
100
AcDbPolyline
 90
       22
 70
   128
 43
0.0
 10
173.2149219081
 20
103.8357722818
 10
173.7012678697
 20
103.9046566247
 10
174.1443995326
 20
104.1051880702
 10
174.5049433723
 20
104.419549486
 10
174.7508637547
 20
104.8198067828
 10
174.8603081271
 20
105.2703974082
 10
174.8235525503
 20
105.7312824077
 10
174.6438631728
 20
106.1615119933
 10
174.3372065887
 20
106.522857236
 10
173.9308295712
 20
106.7832112557
 10
173.4608413592
 20
106.9194404653
 10
172.9690015256
 20
106.9194404653
 10
172.4990133136
 20
106.7832112557
 10
172.0926362961
 20
106.522857236
 10
171.785979712
 20
106.1615119933
 10
171.6062903344
 20
105.7312824077
 10
171.569535689
 20
105.2703974082
 10
171.6789800614
 20
104.8198067828
 10
171.9248995125
 20
104.419549486
 10
172.2854433521
 20
104.1051880702
 10
172.7285759464
 20
103.9046566247
 10
173.2149219081
 20
103.8357722818
  0
ELLIPSE
  5
113
330
1F
100
AcDbEntity
  8
0
  6
HIDDEN
 62
     7
370
     0
100
AcDbEllipse
 10
173.2149216398
 20
106.4925789942
 30
0.0
 11
1.383467579512114
 21
-1.091267719176599
 31
0.0
210
0.0
220
0.0
230
1.0
 40
0.8239737799
 41
5.288724596347236
 42
5.331125843611992
  0
SPLINE
  5
114
330
1F
100
AcDbEntity
  8
0
  6
HIDDEN
 62
     7
370
     0
100
AcDbSpline
210
0.0
220
0.0
230
1.0
 70
     8
 71
     3
 72
     8
 73
     4
 74
     0
 42
0.000000001
 43
0.00000001
 40
0.0
 40
0.0
 40
0.0
 40
0.0
 40
1.0
 40
1.0
 40
1.0
 40
1.0
 10
173.2848627359719
 20
104.9310271284197
 30
0.0
 10
173.2678780098803
 20
104.9381428384654
 30
0.0
 10
173.2508738653498
 20
104.9460179679822
 30
0.0
 10
173.233874981281
 20
104.9546410874305
 30
0.0
  0
ELLIPSE
  5
115
330
1F
100
AcDbEntity
  8
0
  6
HIDDEN
 62
     7
370
     0
100
AcDbEllipse
 10
173.2149216398
 20
106.4925789942
 30
0.0
 11
1.383467579512114
 21
1.753907414218489
 31
0.0
210
0.0
220
0.0
230
1.0
 40
0.5126701559
 41
4.136053364422173
 42
4.147540490641118
  0
ELLIPSE
  5
116
330
1F
100
AcDbEntity
  8
0
  6
HIDDEN
 62
     7
370
     0
100
AcDbEllipse
 10
173.2149216398
 20
106.4925789942
 30
0.0
 11
1.383467579512114
 21
1.753907414218489
 31
0.0
210
0.0
220
0.0
230
1.0
 40
0.5126701559
 41
0.9829735846134029
 42
0.9944607108323662
  0
SPLINE
  5
117
330
1F
100
AcDbEntity
  8
0
  6
HIDDEN
 62
     7
370
     0
100
AcDbSpline
210
0.0
220
0.0
230
1.0
 70
     8
 71
     3
 72
     8
 73
     4
 74
     0
 42
0.000000001
 43
0.00000001
 40
0.0
 40
0.0
 40
0.0
 40
0.0
 40
1.0
 40
1.0
 40
1.0
 40
1.0
 10
173.2338749812809
 20
108.0554221444376
 30
0.0
 10
173.2508738653497
 20
108.0474388709287
 30
0.0
 10
173.2678780098803
 20
108.0387024684864
 30
0.0
 10
173.284862735972
 20
108.0292256166552
 30
0.0
  0
ELLIPSE
  5
118
330
1F
100
AcDbEntity
  8
0
  6
HIDDEN
 62
     7
370
     0
100
AcDbEllipse
 10
173.2149216398
 20
106.4925789942
 30
0.0
 11
1.383467579512114
 21
-1.091267719176599
 31
0.0
210
0.0
220
0.0
230
1.0
 40
0.8239737799
 41
2.104730695493032
 42
2.147131942757429
  0
SPLINE
  5
119
330
1F
100
AcDbEntity
  8
0
  6
HIDDEN
 62
     7
370
     0
100
AcDbSpline
210
0.0
220
0.0
230
1.0
 70
    11
 71
     3
 72
    56
 73
    52
 74
     0
 42
0.000000001
 43
0.00000001
 40
0.0
 40
0.0
 40
0.0
 40
0.0
 40
0.0312500000000001
 40
0.0312500000000001
 40
0.0625000000000001
 40
0.0625000000000001
 40
0.1250000000000002
 40
0.1250000000000002
 40
0.1875000000000004
 40
0.1875000000000004
 40
0.2187500000000004
 40
0.2187500000000004
 40
0.2500000000000004
 40
0.2500000000000004
 40
0.2812500000000004
 40
0.2812500000000004
 40
0.3125000000000004
 40
0.3125000000000004
 40
0.3437500000000005
 40
0.3437500000000005
 40
0.3750000000000006
 40
0.3750000000000006
 40
0.4375000000000007
 40
0.4375000000000007
 40
0.5000000000000007
 40
0.5000000000000007
 40
0.5312500000000006
 40
0.5312500000000006
 40
0.5625000000000003
 40
0.5625000000000003
 40
0.6250000000000003
 40
0.6250000000000003
 40
0.6562500000000004
 40
0.6562500000000004
 40
0.6875000000000004
 40
0.6875000000000004
 40
0.7500000000000004
 40
0.7500000000000004
 40
0.7812500000000004
 40
0.7812500000000004
 40
0.8125000000000004
 40
0.8125000000000004
 40
0.8750000000000003
 40
0.8750000000000003
 40
0.9062500000000002
 40
0.9062500000000002
 40
0.9375000000000002
 40
0.9375000000000002
 40
0.9687500000000001
 40
0.9687500000000001
 40
1.0
 40
1.0
 40
1.0
 40
1.0
 10
173.2149216398328
 20
110.8129210402021
 30
0.0
 10
173.3257891296342
 20
110.812921040202
 30
0.0
 10
173.4343837564789
 20
110.8211864136118
 30
0.0
 10
173.6473707721711
 20
110.8535794482962
 30
0.0
 10
173.7528071236695
 20
110.8781576289882
 30
0.0
 10
174.0507377730304
 20
110.9740101531874
 30
0.0
 10
174.2308208850253
 20
111.0689031253197
 30
0.0
 10
174.5303632099622
 20
111.3124727059594
 30
0.0
 10
174.6526671868251
 20
111.4639653719752
 30
0.0
 10
174.7775652830557
 20
111.7236329924334
 30
0.0
 10
174.8103066659596
 20
111.8175850937564
 30
0.0
 10
174.8536791721972
 20
112.0114350363973
 30
0.0
 10
174.864712357698
 20
112.1113452154402
 30
0.0
 10
174.8651250818212
 20
112.3174228481191
 30
0.0
 10
174.8541358249648
 20
112.4235307912981
 30
0.0
 10
174.8113484328945
 20
112.6311178294505
 30
0.0
 10
174.779298986323
 20
112.7347415850167
 30
0.0
 10
174.695522998895
 20
112.9362484773204
 30
0.0
 10
174.644640312301
 20
113.0325579573477
 30
0.0
 10
174.5255599991181
 20
113.2163868368195
 30
0.0
 10
174.4568803696574
 20
113.3041379839932
 30
0.0
 10
174.2321499342138
 20
113.5435197674437
 30
0.0
 10
174.0516332872001
 20
113.6773550521547
 30
0.0
 10
173.657237213382
 20
113.8615470956461
 30
0.0
 10
173.4373530383402
 20
113.9132862790473
 30
0.0
 10
173.109874647971
 20
113.9142082104734
 30
0.0
 10
172.9986446597401
 20
113.9019079277449
 30
0.0
 10
172.784634296214
 20
113.8538139642878
 30
0.0
 10
172.6810969365462
 20
113.8183452866095
 30
0.0
 10
172.380291052951
 20
113.6792201036401
 30
0.0
 10
172.2008529289326
 20
113.5462637730512
 30
0.0
 10
171.9749965797673
 20
113.3066076168523
 30
0.0
 10
171.9074767354143
 20
113.2207194058435
 30
0.0
 10
171.7878175150987
 20
113.0371630591215
 30
0.0
 10
171.7357810472591
 20
112.9390632552564
 30
0.0
 10
171.6106982056597
 20
112.6402562650266
 30
0.0
 10
171.5653542908741
 20
112.4256320471626
 30
0.0
 10
171.5647101002018
 20
112.1177093416878
 30
0.0
 10
171.5755035361157
 20
112.0156728208835
 30
0.0
 10
171.6186088859171
 20
111.8204923155302
 30
0.0
 10
171.6504238388687
 20
111.7282260839825
 30
0.0
 10
171.7755773755091
 20
111.4658585311561
 30
0.0
 10
171.8969582997835
 20
111.3147552095265
 30
0.0
 10
172.1238854082451
 20
111.129885125905
 30
0.0
 10
172.2057132013944
 20
111.0761006788072
 30
0.0
 10
172.3820637910445
 20
110.9824620414853
 30
0.0
 10
172.4778323979236
 20
110.9422828165027
 30
0.0
 10
172.6764556826553
 20
110.8783087597409
 30
0.0
 10
172.7793138735889
 20
110.8542173976245
 30
0.0
 10
172.9926960932632
 20
110.8214534583132
 30
0.0
 10
173.1040541500314
 20
110.812921040202
 30
0.0
 10
173.2149216398328
 20
110.812921040202
 30
0.0
  0
LINE
  5
11A
330
1F
100
AcDbEntity
  8
0
  6
HIDDEN
 62
     7
370
     0
100
AcDbLine
 10
183.7149208352
 20
113.3801690548
 30
0.0
 11
183.7149208352
 21
104.6801689326
 31
0.0
  0
LINE
  5
11B
330
1F
100
AcDbEntity
  8
0
  6
HIDDEN
 62
     7
370
     0
100
AcDbLine
 10
183.7149208352
 20
122.080169177
 30
0.0
 11
183.7149208352
 21
113.3801690548
 31
0.0
  0
LINE
  5
11C
330
1F
100
AcDbEntity
  8
0
  6
HIDDEN
 62
     7
370
     0
100
AcDbLine
 10
187.0809478625
 20
113.3801690548
 30
0.0
 11
187.0809478625
 21
104.3801694422
 31
0.0
  0
LINE
  5
11D
330
1F
100
AcDbEntity
  8
0
  6
HIDDEN
 62
     7
370
     0
100
AcDbLine
 10
187.0809478625
 20
122.3801686674
 30
0.0
 11
187.0809478625
 21
113.3801690548
 31
0.0
  0
LINE
  5
11E
330
1F
100
AcDbEntity
  8
0
  6
HIDDEN
 62
     7
370
     0
100
AcDbLine
 10
163.414921559
 20
138.1801697671
 30
0.0
 11
163.752180006
 21
138.1801697671
 31
0.0
  0
ELLIPSE
  5
11F
330
1F
100
AcDbEntity
  8
0
  6
HIDDEN
 62
     7
370
     0
100
AcDbEllipse
 10
163.75217994
 20
139.7801690548
 30
0.0
 11
0.0
 21
1.599999999999994
 31
0.0
210
0.0
220
0.0
230
1.0
 40
0.4142135624
 41
3.141592653589793
 42
4.712388980384695
  0
LINE
  5
120
330
1F
100
AcDbEntity
  8
0
  6
HIDDEN
 62
     7
370
     0
100
AcDbLine
 10
163.752180006
 20
90.7801683306
 30
0.0
 11
163.414921559
 21
90.7801683306
 31
0.0
  0
ELLIPSE
  5
121
330
1F
100
AcDbEntity
  8
0
  6
HIDDEN
 62
     7
370
     0
100
AcDbEllipse
 10
163.75217994
 20
89.1801690548
 30
0.0
 11
0.0
 21
1.599999999999994
 31
0.0
210
0.0
220
0.0
230
1.0
 40
0.4142135624
 41
4.712388980384695
 42
6.283185307179586
  0
LINE
  5
122
330
1F
100
AcDbEntity
  8
0
  6
HIDDEN
 62
     7
370
     0
100
AcDbLine
 10
164.4149214901
 20
83.4867204785
 30
0.0
 11
163.6310661617
 21
83.0284389912
 31
0.0
  0
SPLINE
  5
123
330
1F
100
AcDbEntity
  8
0
  6
HIDDEN
 62
     7
370
     0
100
AcDbSpline
210
0.0
220
0.0
230
1.0
 70
     8
 71
     3
 72
    12
 73
     8
 74
     0
 42
0.000000001
 43
0.00000001
 40
0.0
 40
0.0
 40
0.0
 40
0.0
 40
0.203564297361452
 40
0.4067376472227444
 40
0.6198468127431725
 40
0.8406846421022108
 40
1.0
 40
1.0
 40
1.0
 40
1.0
 10
194.1649226411908
 20
121.671731142616
 30
0.0
 10
194.5413800234037
 20
121.6871864084092
 30
0.0
 10
195.2935717972341
 20
121.7180672579857
 30
0.0
 10
196.3084036311791
 20
121.9312630610145
 30
0.0
 10
197.1080095106023
 20
122.1701115607062
 30
0.0
 10
197.6030049396976
 20
122.3558117508126
 30
0.0
 10
197.6214355568192
 20
122.3632796468358
 30
0.0
 10
197.6291594966977
 20
122.3664093076345
 30
0.0
  0
LINE
  5
124
330
1F
100
AcDbEntity
  8
0
  6
HIDDEN
 62
     7
370
     0
100
AcDbLine
 10
194.4861432478
 20
121.6930938198
 30
0.0
 11
193.9244924053
 21
121.6901452526
 31
0.0
  0
SPLINE
  5
125
330
1F
100
AcDbEntity
  8
0
  6
HIDDEN
 62
     7
370
     0
100
AcDbSpline
210
0.0
220
0.0
230
1.0
 70
     8
 71
     3
 72
    12
 73
     8
 74
     0
 42
0.000000001
 43
0.00000001
 40
0.0
 40
0.0
 40
0.0
 40
0.0
 40
0.1376911539307542
 40
0.3366684683783656
 40
0.5443449258276655
 40
0.7639681793125721
 40
1.0
 40
1.0
 40
1.0
 40
1.0
 10
190.7052716180413
 20
122.3645969539043
 30
0.0
 10
190.7055420529248
 20
122.3644204976048
 30
0.0
 10
190.7062032929201
 20
122.3639890445274
 30
0.0
 10
191.1142667063502
 20
122.2090997293095
 30
0.0
 10
191.8373340153997
 20
121.9810182951823
 30
0.0
 10
192.8843568037489
 20
121.7333629116201
 30
0.0
 10
193.7279412723551
 20
121.6927624195685
 30
0.0
 10
194.1649226411908
 20
121.671731142616
 30
0.0
  0
LINE
  5
126
330
1F
100
AcDbEntity
  8
0
  6
HIDDEN
 62
     7
370
     0
100
AcDbLine
 10
163.7021633271
 20
143.8054661512
 30
0.0
 11
164.4149214901
 21
143.0927063583
 31
0.0
  0
LINE
  5
127
330
1F
100
AcDbEntity
  8
0
  6
HIDDEN
 62
     7
370
     0
100
AcDbLine
 10
98.9649204477
 20
104.8801685928
 30
0.0
 11
98.9649204477
 21
121.8801695167
 31
0.0
  0
LINE
  5
128
330
1F
100
AcDbEntity
  8
0
  6
HIDDEN
 62
     7
370
     0
100
AcDbLine
 10
101.9608510598
 20
106.3801688387
 30
0.0
 11
101.9608510598
 21
120.3801692708
 31
0.0
  0
LINE
  5
129
330
1F
100
AcDbEntity
  8
0
  6
HIDDEN
 62
     7
370
     0
100
AcDbLine
 10
168.2501316011
 20
83.4867204785
 30
0.0
 11
164.4149214901
 21
83.4867204785
 31
0.0
  0
LINE
  5
12A
330
1F
100
AcDbEntity
  8
0
  6
HIDDEN
 62
     7
370
     0
100
AcDbLine
 10
179.2649218753
 20
83.4867204785
 30
0.0
 11
174.3797112196
 21
83.4867204785
 31
0.0
  0
LINE
  5
12B
330
1F
100
AcDbEntity
  8
0
  6
HIDDEN
 62
     7
370
     0
100
AcDbLine
 10
164.4149214901
 20
83.4867204785
 30
0.0
 11
164.4149214901
 21
89.1801691859
 31
0.0
  0
LINE
  5
12C
330
1F
100
AcDbEntity
  8
0
  6
HIDDEN
 62
     7
370
     0
100
AcDbLine
 10
179.2649218753
 20
90.7801683306
 30
0.0
 11
163.752180006
 21
90.7801683306
 31
0.0
  0
LINE
  5
12D
330
1F
100
AcDbEntity
  8
0
  6
HIDDEN
 62
     7
370
     0
100
AcDbLine
 10
164.4149214901
 20
143.0927063583
 30
0.0
 11
168.3509668275
 21
143.0927063583
 31
0.0
  0
LINE
  5
12E
330
1F
100
AcDbEntity
  8
0
  6
HIDDEN
 62
     7
370
     0
100
AcDbLine
 10
174.2788759932
 20
143.0927063583
 30
0.0
 11
179.2649218753
 21
143.0927063583
 31
0.0
  0
LINE
  5
12F
330
1F
100
AcDbEntity
  8
0
  6
HIDDEN
 62
     7
370
     0
100
AcDbLine
 10
164.4149214901
 20
143.0927063583
 30
0.0
 11
164.4149214901
 21
139.7801689117
 31
0.0
  0
LINE
  5
130
330
1F
100
AcDbEntity
  8
0
  6
HIDDEN
 62
     7
370
     0
100
AcDbLine
 10
163.752180006
 20
138.1801697671
 30
0.0
 11
179.2649218753
 21
138.1801697671
 31
0.0
  0
LINE
  5
131
330
1F
100
AcDbEntity
  8
0
  6
HIDDEN
 62
     7
370
     0
100
AcDbLine
 10
134.9649207607
 20
106.3801688387
 30
0.0
 11
134.9649207607
 21
120.3801692708
 31
0.0
  0
LINE
  5
132
330
1F
100
AcDbEntity
  8
0
  6
HIDDEN
 62
     7
370
     0
100
AcDbLine
 10
137.1280198857
 20
116.7801690999
 30
0.0
 11
137.1280198857
 21
109.9801690097
 31
0.0
  0
LINE
  5
133
330
1F
100
AcDbEntity
  8
0
  6
HIDDEN
 62
     7
370
     0
100
AcDbLine
 10
194.1649226412
 20
127.8801686375
 30
0.0
 11
197.6649222836
 21
127.8801686375
 31
0.0
  0
LINE
  5
134
330
1F
100
AcDbEntity
  8
0
  6
HIDDEN
 62
     7
370
     0
100
AcDbLine
 10
190.6649211362
 20
127.8801686375
 30
0.0
 11
194.1649226412
 21
127.8801686375
 31
0.0
  0
SPLINE
  5
135
330
1F
100
AcDbEntity
  8
0
  6
HIDDEN
 62
     7
370
     0
100
AcDbSpline
210
0.0
220
0.0
230
1.0
 70
    11
 71
     3
 72
    56
 73
    52
 74
     0
 42
0.000000001
 43
0.00000001
 40
0.0
 40
0.0
 40
0.0
 40
0.0
 40
0.0312499999999999
 40
0.0312499999999999
 40
0.0624999999999999
 40
0.0624999999999999
 40
0.1249999999999997
 40
0.1249999999999997
 40
0.1874999999999996
 40
0.1874999999999996
 40
0.2187499999999994
 40
0.2187499999999994
 40
0.2499999999999993
 40
0.2499999999999993
 40
0.2812499999999991
 40
0.2812499999999991
 40
0.3124999999999989
 40
0.3124999999999989
 40
0.3437499999999987
 40
0.3437499999999987
 40
0.3749999999999986
 40
0.3749999999999986
 40
0.4374999999999987
 40
0.4374999999999987
 40
0.4999999999999987
 40
0.4999999999999987
 40
0.5312499999999984
 40
0.5312499999999984
 40
0.5624999999999983
 40
0.5624999999999983
 40
0.6249999999999984
 40
0.6249999999999984
 40
0.6562499999999984
 40
0.6562499999999984
 40
0.6874999999999984
 40
0.6874999999999984
 40
0.7499999999999988
 40
0.7499999999999988
 40
0.7812499999999989
 40
0.7812499999999989
 40
0.8124999999999991
 40
0.8124999999999991
 40
0.8749999999999993
 40
0.8749999999999993
 40
0.9062499999999996
 40
0.9062499999999996
 40
0.9374999999999997
 40
0.9374999999999997
 40
0.9687499999999999
 40
0.9687499999999999
 40
1.0
 40
1.0
 40
1.0
 40
1.0
 10
173.2149216398328
 20
112.8464314207686
 30
0.0
 10
173.1040541500314
 20
112.8464314207686
 30
0.0
 10
172.9954595231867
 20
112.8589443192807
 30
0.0
 10
172.7824725074945
 20
112.9072167336723
 30
0.0
 10
172.6770361559961
 20
112.9436185468289
 30
0.0
 10
172.3791055066352
 20
113.0821831829606
 30
0.0
 10
172.1990223946404
 20
113.2157555988697
 30
0.0
 10
171.8994800697035
 20
113.5341239762712
 30
0.0
 10
171.7771760928406
 20
113.7222430841276
 30
0.0
 10
171.6522779966099
 20
114.0208253816427
 30
0.0
 10
171.619536613706
 20
114.1253864287811
 30
0.0
 10
171.5761641074684
 20
114.3334131232824
 30
0.0
 10
171.5651309219676
 20
114.4370127166984
 30
0.0
 10
171.5647181978444
 20
114.643227357392
 30
0.0
 10
171.5757074547008
 20
114.745660683318
 30
0.0
 10
171.6184948467712
 20
114.9392572208481
 30
0.0
 10
171.6505442933427
 20
115.0324843746532
 30
0.0
 10
171.7343202807706
 20
115.2078689623728
 30
0.0
 10
171.7852029673646
 20
115.2887164932175
 30
0.0
 10
171.9042832805476
 20
115.4384492527141
 30
0.0
 10
171.9729629100082
 20
115.5074591744551
 30
0.0
 10
172.1976933454519
 20
115.6906659661122
 30
0.0
 10
172.3782099924655
 20
115.7857553421614
 30
0.0
 10
172.7726060662836
 20
115.9132091413803
 30
0.0
 10
172.9924902413254
 20
115.9470051961284
 30
0.0
 10
173.3199686316947
 20
115.947617241445
 30
0.0
 10
173.4311986199256
 20
115.9394938370653
 30
0.0
 10
173.6452089834517
 20
115.907226218223
 30
0.0
 10
173.7487463431194
 20
115.8832920107215
 30
0.0
 10
174.0495522267147
 20
115.7870903359478
 30
0.0
 10
174.228990350733
 20
115.6926880650243
 30
0.0
 10
174.4548466998983
 20
115.509387325719
 30
0.0
 10
174.5223665442514
 20
115.4418981336951
 30
0.0
 10
174.6420257645669
 20
115.2925437388423
 30
0.0
 10
174.6940622324066
 20
115.2102396748646
 30
0.0
 10
174.819145074006
 20
114.9504013475087
 30
0.0
 10
174.8644889887915
 20
114.7512253988343
 30
0.0
 10
174.8651331794638
 20
114.4435165390476
 30
0.0
 10
174.85433974355
 20
114.337869540811
 30
0.0
 10
174.8112343937486
 20
114.1285942678604
 30
0.0
 10
174.7794194407969
 20
114.0260084064085
 30
0.0
 10
174.6542659041565
 20
113.7246106585037
 30
0.0
 10
174.5328849798822
 20
113.5370646007493
 30
0.0
 10
174.3059578714206
 20
113.2954860141035
 30
0.0
 10
174.2241300782712
 20
113.2228222222401
 30
0.0
 10
174.0477794886211
 20
113.0934837621108
 30
0.0
 10
173.9520108817421
 20
113.0363145692271
 30
0.0
 10
173.7533875970104
 20
112.9438405019975
 30
0.0
 10
173.6505294060767
 20
112.9081625568412
 30
0.0
 10
173.4371471864024
 20
112.8593469946963
 30
0.0
 10
173.3257891296342
 20
112.8464314207686
 30
0.0
 10
173.2149216398328
 20
112.8464314207686
 30
0.0
  0
ELLIPSE
  5
136
330
1F
100
AcDbEntity
  8
0
  6
HIDDEN
 62
     7
370
     0
100
AcDbEllipse
 10
173.2149216398
 20
120.2677591153
 30
0.0
 11
-1.383467579512143
 21
1.753907414218503
 31
0.0
210
0.0
220
0.0
230
1.0
 40
0.5126701559
 41
5.277237470127027
 42
5.28872459634723
  0
ELLIPSE
  5
137
330
1F
100
AcDbEntity
  8
0
  6
HIDDEN
 62
     7
370
     0
100
AcDbEllipse
 10
173.2149216398
 20
120.2677591153
 30
0.0
 11
1.383467579512114
 21
1.091267719176599
 31
0.0
210
0.0
220
0.0
230
1.0
 40
0.8239737799
 41
0.9944607108323549
 42
4.136053364422144
  0
ELLIPSE
  5
138
330
1F
100
AcDbEntity
  8
0
  6
HIDDEN
 62
     7
370
     0
100
AcDbEllipse
 10
173.2149216398
 20
120.2677591153
 30
0.0
 11
-1.383467579512143
 21
1.753907414218503
 31
0.0
210
0.0
220
0.0
230
1.0
 40
0.5126701559
 41
2.147131942757407
 42
2.158619068975612
  0
SPLINE
  5
139
330
1F
100
AcDbEntity
  8
0
  6
HIDDEN
 62
     7
370
     0
100
AcDbSpline
210
0.0
220
0.0
230
1.0
 70
     8
 71
     3
 72
     8
 73
     4
 74
     0
 42
0.000000001
 43
0.00000001
 40
0.0
 40
0.0
 40
0.0
 40
0.0
 40
1.0
 40
1.0
 40
1.0
 40
1.0
 10
173.2338749812843
 20
118.7049159651284
 30
0.0
 10
173.2508738653509
 20
118.7128992386363
 30
0.0
 10
173.2678780098791
 20
118.7216356410774
 30
0.0
 10
173.2848627359686
 20
118.7311124929072
 30
0.0
  0
ELLIPSE
  5
13A
330
1F
100
AcDbEntity
  8
0
  6
HIDDEN
 62
     7
370
     0
100
AcDbEllipse
 10
173.2149216398
 20
120.2677591153
 30
0.0
 11
1.383467579512114
 21
1.091267719176599
 31
0.0
210
0.0
220
0.0
230
1.0
 40
0.8239737799
 41
4.13605336442215
 42
4.17845461168443
  0
ELLIPSE
  5
13B
330
1F
100
AcDbEntity
  8
0
  6
HIDDEN
 62
     7
370
     0
100
AcDbEllipse
 10
173.2149216398
 20
120.2677591153
 30
0.0
 11
-1.383467579512143
 21
1.753907414218503
 31
0.0
210
0.0
220
0.0
230
1.0
 40
0.5126701559
 41
5.288724596347222
 42
8.430317249936984
  0
ELLIPSE
  5
13C
330
1F
100
AcDbEntity
  8
0
  6
HIDDEN
 62
     7
370
     0
100
AcDbEllipse
 10
173.2149216398
 20
120.2677591153
 30
0.0
 11
1.383467579512114
 21
1.091267719176599
 31
0.0
210
0.0
220
0.0
230
1.0
 40
0.8239737799
 41
0.9520594635642533
 42
0.9944607108323605
  0
SPLINE
  5
13D
330
1F
100
AcDbEntity
  8
0
  6
HIDDEN
 62
     7
370
     0
100
AcDbSpline
210
0.0
220
0.0
230
1.0
 70
     8
 71
     3
 72
     8
 73
     4
 74
     0
 42
0.000000001
 43
0.00000001
 40
0.0
 40
0.0
 40
0.0
 40
0.0
 40
1.0
 40
1.0
 40
1.0
 40
1.0
 10
173.2848627359775
 20
121.829310981147
 30
0.0
 10
173.2678780098821
 20
121.8221952710998
 30
0.0
 10
173.2508738653479
 20
121.8143201415814
 30
0.0
 10
173.2338749812754
 20
121.8056970221309
 30
0.0
  0
LWPOLYLINE
  5
13E
330
1F
100
AcDbEntity
  8
0
  6
HIDDEN
 62
     7
370
     0
100
AcDbPolyline
 90
       22
 70
   128
 43
0.0
 10
173.2149219081
 20
119.823579701
 10
173.7012678697
 20
119.8924640439
 10
174.1443995326
 20
120.0929954893
 10
174.5049433723
 20
120.4073559738
 10
174.7508637547
 20
120.807614202
 10
174.8603081271
 20
121.2582043617
 10
174.8235525503
 20
121.7190898269
 10
174.6438631728
 20
122.1493189468
 10
174.3372065887
 20
122.5106646552
 10
173.9308295712
 20
122.7710186749
 10
173.4608413592
 20
122.9072478845
 10
172.9690015256
 20
122.9072478845
 10
172.4990133136
 20
122.7710186749
 10
172.0926362961
 20
122.5106646552
 10
171.785979712
 20
122.1493189468
 10
171.6062903344
 20
121.7190898269
 10
171.569535689
 20
121.2582043617
 10
171.6789800614
 20
120.807614202
 10
171.9248995125
 20
120.4073559738
 10
172.2854433521
 20
120.0929954893
 10
172.7285759464
 20
119.8924640439
 10
173.2149219081
 20
119.823579701
  0
LINE
  5
13F
330
1F
100
AcDbEntity
  8
0
  6
HIDDEN
 62
     7
370
     0
100
AcDbLine
 10
169.4049213022
 20
135.5774100184
 30
0.0
 11
169.4049213022
 21
131.7301686167
 31
0.0
  0
SPLINE
  5
140
330
1F
100
AcDbEntity
  8
0
  6
HIDDEN
 62
     7
370
     0
100
AcDbSpline
210
0.0
220
0.0
230
1.0
 70
     8
 71
     3
 72
    14
 73
    10
 74
     0
 42
0.000000001
 43
0.00000001
 40
0.0
 40
0.0
 40
0.0
 40
0.0
 40
0.25
 40
0.25
 40
0.5
 40
0.5
 40
0.75
 40
0.75
 40
1.0
 40
1.0
 40
1.0
 40
1.0
 10
172.4249216398327
 20
124.6626482448902
 30
0.0
 10
172.5226038909467
 20
124.7011705589226
 30
0.0
 10
172.624717399984
 20
124.7387859183814
 30
0.0
 10
172.8168895711529
 20
124.8098946439683
 30
0.0
 10
172.9083082444797
 20
124.8441006944724
 30
0.0
 10
173.059824233494
 20
124.9109901728293
 30
0.0
 10
173.1209714360329
 20
124.9442606353902
 30
0.0
 10
173.2036781377213
 20
125.0136589854841
 30
0.0
 10
173.2249216398328
 20
125.04943609108
 30
0.0
 10
173.2249216398328
 20
125.0859314233307
 30
0.0
  0
LINE
  5
141
330
1F
100
AcDbEntity
  8
0
  6
HIDDEN
 62
     7
370
     0
100
AcDbLine
 10
173.2249215185
 20
135.5774100184
 30
0.0
 11
173.2249215185
 21
131.7301686167
 31
0.0
  0
LINE
  5
142
330
1F
100
AcDbEntity
  8
0
  6
HIDDEN
 62
     7
370
     0
100
AcDbLine
 10
173.2249215185
 20
105.3788862436
 30
0.0
 11
173.2249215185
 21
101.6201633274
 31
0.0
  0
SPLINE
  5
143
330
1F
100
AcDbEntity
  8
0
  6
HIDDEN
 62
     7
370
     0
100
AcDbSpline
210
0.0
220
0.0
230
1.0
 70
     8
 71
     3
 72
    14
 73
    10
 74
     0
 42
0.000000001
 43
0.00000001
 40
0.0
 40
0.0
 40
0.0
 40
0.0
 40
0.2500000000000005
 40
0.2500000000000005
 40
0.5000000000000003
 40
0.5000000000000003
 40
0.7500000000000001
 40
0.7500000000000001
 40
1.0
 40
1.0
 40
1.0
 40
1.0
 10
173.2249216398328
 20
121.3272079251117
 30
0.0
 10
173.2249216398328
 20
121.2907189942045
 30
0.0
 10
173.2037522636605
 20
121.2542202024707
 30
0.0
 10
173.1210066458082
 20
121.1888448547338
 30
0.0
 10
173.0601530209804
 20
121.1609080203874
 30
0.0
 10
172.9085481542893
 20
121.1270169911407
 30
0.0
 10
172.8173258438221
 20
121.1215915385542
 30
0.0
 10
172.6249952941188
 20
121.1425108623668
 30
0.0
 10
172.5227444096418
 20
121.1690670098073
 30
0.0
 10
172.4249216398327
 20
121.2095367681131
 30
0.0
  0
LINE
  5
144
330
1F
100
AcDbEntity
  8
0
  6
HIDDEN
 62
     7
370
     0
100
AcDbLine
 10
167.7930850476
 20
139.2903994083
 30
0.0
 11
167.7930850476
 21
131.7301686167
 31
0.0
  0
LINE
  5
145
330
1F
100
AcDbEntity
  8
0
  6
HIDDEN
 62
     7
370
     0
100
AcDbLine
 10
174.8367587045
 20
103.628148815
 30
0.0
 11
174.8367587045
 21
101.4286694362
 31
0.0
  0
LINE
  5
146
330
1F
100
AcDbEntity
  8
0
  6
HIDDEN
 62
     7
370
     0
100
AcDbLine
 10
174.8367587045
 20
139.2903994083
 30
0.0
 11
174.8367587045
 21
131.7301686167
 31
0.0
  0
SPLINE
  5
147
330
1F
100
AcDbEntity
  8
0
  6
HIDDEN
 62
     7
370
     0
100
AcDbSpline
210
0.0
220
0.0
230
1.0
 70
     8
 71
     3
 72
    10
 73
     6
 74
     0
 42
0.000000001
 43
0.00000001
 40
0.0
 40
0.0
 40
0.0
 40
0.0
 40
0.5
 40
0.5
 40
1.0
 40
1.0
 40
1.0
 40
1.0
 10
171.2390308771924
 20
121.1267082242509
 30
0.0
 10
171.2234248262112
 20
121.2319804248595
 30
0.0
 10
171.2149203631826
 20
121.3359189226504
 30
0.0
 10
171.2149229167723
 20
121.5354321946064
 30
0.0
 10
171.2234205043728
 20
121.6266446892768
 30
0.0
 10
171.2390308771924
 20
121.7085766216199
 30
0.0
  0
SPLINE
  5
148
330
1F
100
AcDbEntity
  8
0
  6
HIDDEN
 62
     7
370
     0
100
AcDbSpline
210
0.0
220
0.0
230
1.0
 70
     8
 71
     3
 72
    14
 73
    10
 74
     0
 42
0.000000001
 43
0.00000001
 40
0.0
 40
0.0
 40
0.0
 40
0.0
 40
0.25
 40
0.25
 40
0.5
 40
0.5
 40
0.75
 40
0.75
 40
1.0
 40
1.0
 40
1.0
 40
1.0
 10
171.2390308771924
 20
121.7085766216199
 30
0.0
 10
171.2753947052227
 20
121.6630819862181
 30
0.0
 10
171.3078724324328
 20
121.6146901800018
 30
0.0
 10
171.3566260618485
 20
121.5092050360723
 30
0.0
 10
171.371529839523
 20
121.4526205278294
 30
0.0
 10
171.3715402731807
 20
121.3437329338789
 30
0.0
 10
171.3566499773725
 20
121.2915482681163
 30
0.0
 10
171.3077610464949
 20
121.2002708691727
 30
0.0
 10
171.2753888682245
 20
121.1616041637986
 30
0.0
 10
171.2390308771924
 20
121.1267082242509
 30
0.0
  0
LWPOLYLINE
  5
149
330
1F
100
AcDbEntity
  8
0
  6
HIDDEN
 62
     7
370
     0
100
AcDbPolyline
 90
       22
 70
   128
 43
0.0
 10
164.0466490701
 20
121.3602149173
 10
164.1666453272
 20
121.0005441926
 10
164.3565657489
 20
120.7515578962
 10
164.5995352357
 20
120.6353791303
 10
164.8739647992
 20
120.66233114
 10
165.1554700859
 20
120.8300185635
 10
165.4190380998
 20
121.1235421023
 10
165.6412498034
 20
121.5168205335
 10
165.8023606926
 20
121.9749101683
 10
165.8880549423
 20
122.4571061566
 10
165.8907189905
 20
122.920564866
 10
165.8101158157
 20
123.3241050749
 10
165.6534072883
 20
123.6318708642
 10
165.4345176123
 20
123.8165158092
 10
165.1728960626
 20
123.8616328
 10
164.8917889163
 20
123.7632143556
 10
164.6161737792
 20
123.5300037324
 10
164.3705402441
 20
123.1827237888
 10
164.1767143212
 20
122.7522320359
 10
164.0519177947
 20
122.2767788231
 10
164.0072394568
 20
121.7986108049
 10
164.0466490701
 20
121.3602149173
  0
LWPOLYLINE
  5
14A
330
1F
100
AcDbEntity
  8
0
  6
HIDDEN
 62
     7
370
     0
100
AcDbPolyline
 90
       23
 70
   128
 43
0.0
 10
171.2390307277
 20
121.1267081334
 10
171.3944125861
 20
120.6394853315
 10
171.6831356227
 20
120.2092580742
 10
172.0840532273
 20
119.8675381265
 10
172.5677998677
 20
119.6393543168
 10
173.0989452392
 20
119.5414196945
 10
173.6385852039
 20
119.5809077717
 10
174.1471935004
 20
119.7549258604
 10
174.5875190884
 20
120.0507283456
 10
174.9273093357
 20
120.4466494045
 10
175.1416774407
 20
120.9136899806
 10
175.2149213046
 20
121.4176421299
 10
175.1416774407
 20
121.9215947448
 10
174.9273093357
 20
122.3886353209
 10
174.5875190884
 20
122.7845563798
 10
174.1471935004
 20
123.0803593307
 10
173.6385852039
 20
123.2543769538
 10
173.0989452392
 20
123.2938650309
 10
172.5677998677
 20
123.1959308743
 10
172.0840532273
 20
122.9677465989
 10
171.6831356227
 20
122.6260266512
 10
171.3944125861
 20
122.1957993939
 10
171.2390307277
 20
121.7085770576
  0
SPLINE
  5
14B
330
1F
100
AcDbEntity
  8
0
  6
HIDDEN
 62
     7
370
     0
100
AcDbSpline
210
0.0
220
0.0
230
1.0
 70
     8
 71
     3
 72
    12
 73
     8
 74
     0
 42
0.000000001
 43
0.00000001
 40
0.0
 40
0.0
 40
0.0
 40
0.0
 40
0.2500000000000003
 40
0.2500000000000003
 40
0.5000000000000007
 40
0.5000000000000007
 40
1.0
 40
1.0
 40
1.0
 40
1.0
 10
174.8367582818895
 20
125.3316688529891
 30
0.0
 10
174.9597057756851
 20
125.1737120042941
 30
0.0
 10
175.053249978794
 20
125.0018786373165
 30
0.0
 10
175.1821893679562
 20
124.6302059276707
 30
0.0
 10
175.2147421253413
 20
124.4370174814794
 30
0.0
 10
175.2152784670751
 20
123.8487209432032
 30
0.0
 10
175.0826548101071
 20
123.4567027053145
 30
0.0
 10
174.8367582818896
 20
123.1321891226058
 30
0.0
  0
SPLINE
  5
14C
330
1F
100
AcDbEntity
  8
0
  6
HIDDEN
 62
     7
370
     0
100
AcDbSpline
210
0.0
220
0.0
230
1.0
 70
     8
 71
     3
 72
    12
 73
     8
 74
     0
 42
0.000000001
 43
0.00000001
 40
0.0
 40
0.0
 40
0.0
 40
0.0
 40
0.2499999999999998
 40
0.2499999999999998
 40
0.4999999999999996
 40
0.4999999999999996
 40
1.0
 40
1.0
 40
1.0
 40
1.0
 10
174.8367582818896
 20
123.1321891226058
 30
0.0
 10
174.7218622306289
 20
122.9124486875492
 30
0.0
 10
174.5950962141562
 20
122.7154803359275
 30
0.0
 10
174.3348812805377
 20
122.3617627630886
 30
0.0
 10
174.2013738225755
 20
122.2049374692164
 30
0.0
 10
173.7929755539872
 20
121.7783948983087
 30
0.0
 10
173.5093224190497
 20
121.5517027193534
 30
0.0
 10
173.2249216398329
 20
121.381451574958
 30
0.0
  0
SPLINE
  5
14D
330
1F
100
AcDbEntity
  8
0
  6
HIDDEN
 62
     7
370
     0
100
AcDbSpline
210
0.0
220
0.0
230
1.0
 70
     8
 71
     3
 72
    12
 73
     8
 74
     0
 42
0.000000001
 43
0.00000001
 40
0.0
 40
0.0
 40
0.0
 40
0.0
 40
0.5000000000000013
 40
0.5000000000000013
 40
0.7500000000000007
 40
0.7500000000000007
 40
1.0
 40
1.0
 40
1.0
 40
1.0
 10
173.2249216398328
 20
125.140175073179
 30
0.0
 10
173.5091281743981
 20
125.3076392354728
 30
0.0
 10
173.7878239085019
 20
125.4192763349844
 30
0.0
 10
174.1971699516912
 20
125.4865896006238
 30
0.0
 10
174.3333092890107
 20
125.4917406406377
 30
0.0
 10
174.5946293380068
 20
125.4539747030183
 30
0.0
 10
174.7200505204385
 20
125.4124249446741
 30
0.0
 10
174.8367582818899
 20
125.3316688529912
 30
0.0
  0
SPLINE
  5
14E
330
1F
100
AcDbEntity
  8
0
  6
HIDDEN
 62
     7
370
     0
100
AcDbSpline
210
0.0
220
0.0
230
1.0
 70
     8
 71
     3
 72
    22
 73
    18
 74
     0
 42
0.000000001
 43
0.00000001
 40
0.0
 40
0.0
 40
0.0
 40
0.0
 40
0.125
 40
0.125
 40
0.25
 40
0.25
 40
0.375
 40
0.375
 40
0.5
 40
0.5
 40
0.625
 40
0.625
 40
0.75
 40
0.75
 40
0.875
 40
0.875
 40
1.0
 40
1.0
 40
1.0
 40
1.0
 10
172.4249216398328
 20
121.209536768113
 30
0.0
 10
172.2449049452634
 20
121.2840105550896
 30
0.0
 10
172.0804731233931
 20
121.3814598170737
 30
0.0
 10
171.7820768896345
 20
121.620829250638
 30
0.0
 10
171.6517731622697
 20
121.7607258627084
 30
0.0
 10
171.4385543786506
 20
122.0689774527687
 30
0.0
 10
171.3549265215392
 20
122.2391406708879
 30
0.0
 10
171.243795644621
 20
122.5896354056784
 30
0.0
 10
171.2149596497673
 20
122.7747603668297
 30
0.0
 10
171.2148837071076
 20
123.137967241447
 30
0.0
 10
171.2435423325349
 20
123.3213372551545
 30
0.0
 10
171.3546934256476
 20
123.6672283676478
 30
0.0
 10
171.4377605462915
 20
123.8327478949153
 30
0.0
 10
171.6514465044102
 20
124.1332876323191
 30
0.0
 10
171.7804534943346
 20
124.2671595536031
 30
0.0
 10
172.0800627738241
 20
124.4984063230072
 30
0.0
 10
172.2449054720833
 20
124.591656439666
 30
0.0
 10
172.4249216398328
 20
124.6626482448903
 30
0.0
  0
LWPOLYLINE
  5
14F
330
1F
100
AcDbEntity
  8
0
  6
HIDDEN
 62
     7
370
     0
100
AcDbPolyline
 90
       24
 70
   128
 43
0.0
 10
163.665133243
 20
121.1507064535
 10
163.8007885251
 20
120.7276657469
 10
164.0119919959
 20
120.4196322023
 10
164.2830797411
 20
120.2494511626
 10
164.5939459033
 20
120.2297448426
 10
164.9215353593
 20
120.3619744874
 10
165.2415526971
 20
120.6363332703
 10
165.5302631609
 20
121.03247319
 10
165.7662542477
 20
121.521014279
 10
165.932024078
 20
122.0657234325
 10
166.0152782626
 20
122.6262026711
 10
166.0098416671
 20
123.1608842745
 10
165.9161180198
 20
123.6301115959
 10
165.7410582468
 20
123.9990857675
 10
165.4976454504
 20
124.2404408067
 10
165.203932853
 20
124.3362766936
 10
164.8817036241
 20
124.2794855743
 10
164.5548559665
 20
124.0742807522
 10
164.24763081
 20
123.7358791067
 10
163.982813194
 20
123.2893807127
 10
163.7800440132
 20
122.7678978129
 10
163.6543615661
 20
122.2101082339
 10
163.6150869947
 20
121.6573803931
 10
163.665133243
 20
121.1507064535
  0
LWPOLYLINE
  5
150
330
1F
100
AcDbEntity
  8
0
  6
HIDDEN
 62
     7
370
     0
100
AcDbPolyline
 90
       21
 70
   128
 43
0.0
 10
173.1142068222
 20
119.9271530158
 10
173.5755402535
 20
119.9658350333
 10
174.0015737653
 20
120.1365865081
 10
174.3506045952
 20
120.4226929939
 10
174.5884662434
 20
120.7961482241
 10
174.6918765768
 20
121.2203954592
 10
174.650712119
 20
121.6539074912
 10
174.4690017715
 20
122.0542476758
 10
174.1645337954
 20
122.3822296842
 10
173.7671114444
 20
122.6057461708
 10
173.3156360626
 20
122.7029203682
 10
172.8543026313
 20
122.6642378851
 10
172.4282691195
 20
122.4934864103
 10
172.0792382896
 20
122.2073794588
 10
171.8413766414
 20
121.8339246943
 10
171.7379672393
 20
121.4096774592
 10
171.7791316971
 20
120.9761654272
 10
171.9608411133
 20
120.575824777
 10
172.2653090894
 20
120.2478432342
 10
172.6627323717
 20
120.0243262819
 10
173.1142068222
 20
119.9271530158
  0
LWPOLYLINE
  5
151
330
1F
100
AcDbEntity
  8
0
  6
HIDDEN
 62
     7
370
     0
100
AcDbPolyline
 90
       24
 70
   128
 43
0.0
 10
173.0788566112
 20
119.5426113217
 10
173.6222451493
 20
119.5776467457
 10
174.1354253083
 20
119.7491456068
 10
174.580334866
 20
120.0443897641
 10
174.9239789262
 20
120.4414814956
 10
175.140869984
 20
120.9109705187
 10
175.2149213046
 20
121.4180370106
 10
175.1406427413
 20
121.9250750973
 10
174.9235421359
 20
122.3944784387
 10
174.5797211244
 20
122.791434197
 10
174.1346783876
 20
123.0865023344
 10
173.6214218601
 20
123.2577986329
 10
173.0780174896
 20
123.2926189213
 10
172.5447663977
 20
123.1883815735
 10
172.0612171977
 20
122.9528156354
 10
171.6632341906
 20
122.60339365
 10
171.3803319201
 20
122.1660296678
 10
171.2334921524
 20
121.6731607228
 10
171.233606705
 20
121.1613416917
 10
171.3806662649
 20
120.6685309543
 10
171.6637641132
 20
120.2312787308
 10
172.0619045138
 20
119.8820136733
 10
172.5455589533
 20
119.646639122
 10
173.0788566112
 20
119.5426113217
  0
LWPOLYLINE
  5
152
330
1F
100
AcDbEntity
  8
0
  6
HIDDEN
 62
     7
370
     0
100
AcDbPolyline
 90
       24
 70
   128
 43
0.0
 10
173.0788566112
 20
119.8675306759
 10
173.6222451493
 20
119.9025656342
 10
174.1354253083
 20
120.074064961
 10
174.580334866
 20
120.3693086526
 10
174.9239789262
 20
120.7664008497
 10
175.140869984
 20
121.2358898728
 10
175.2149213046
 20
121.7429568305
 10
175.1406427413
 20
122.2499939858
 10
174.9235421359
 20
122.7193973272
 10
174.5797211244
 20
123.1163530856
 10
174.1346783876
 20
123.4114212229
 10
173.6214218601
 20
123.5827184527
 10
173.0780174896
 20
123.6175387411
 10
172.5447663977
 20
123.513300462
 10
172.0612171977
 20
123.2777345239
 10
171.6632341906
 20
122.9283125385
 10
171.3803319201
 20
122.4909485563
 10
171.2334921524
 20
121.9980796113
 10
171.233606705
 20
121.4862610458
 10
171.3806662649
 20
120.9934503085
 10
171.6637641132
 20
120.5561976194
 10
172.0619045138
 20
120.2069325618
 10
172.5455589533
 20
119.9715580105
 10
173.0788566112
 20
119.8675306759
  0
LWPOLYLINE
  5
153
330
1F
100
AcDbEntity
  8
0
  6
HIDDEN
 62
     7
370
     0
100
AcDbPolyline
 90
       21
 70
   128
 43
0.0
 10
173.1128722369
 20
121.2768438517
 10
173.5803188696
 20
121.3160385623
 10
174.0119971275
 20
121.4890522196
 10
174.3656529054
 20
121.778949654
 10
174.6066661492
 20
122.1573534667
 10
174.7114464581
 20
122.5872221648
 10
174.6697362452
 20
123.0264776631
 10
174.4856184289
 20
123.4321226611
 10
174.1771159634
 20
123.7644502207
 10
173.7744279146
 20
123.9909292444
 10
173.3169706478
 20
124.0893905296
 10
172.8495249465
 20
124.0501948877
 10
172.4178457573
 20
123.8771812304
 10
172.0641909107
 20
123.587283796
 10
171.8231767356
 20
123.2088809147
 10
171.718397358
 20
122.7790112852
 10
171.7601075709
 20
122.3397557869
 10
171.9442244559
 20
121.9341107889
 10
172.2527269214
 20
121.6017832293
 10
172.6554159015
 20
121.375305137
 10
173.1128722369
 20
121.2768438517
  0
LWPOLYLINE
  5
154
330
1F
100
AcDbEntity
  8
0
  6
HIDDEN
 62
     7
370
     0
100
AcDbPolyline
 90
       21
 70
   128
 43
0.0
 10
173.1128722369
 20
120.273365198
 10
173.5803188696
 20
120.3125603742
 10
174.0119971275
 20
120.4855740315
 10
174.3656529054
 20
120.775471466
 10
174.6066661492
 20
121.1538748129
 10
174.7114464581
 20
121.5837435111
 10
174.6697362452
 20
122.0229999407
 10
174.4856184289
 20
122.4286449387
 10
174.1771159634
 20
122.760971567
 10
173.7744279146
 20
122.9874505906
 10
173.3169706478
 20
123.0859118759
 10
172.8495249465
 20
123.0467171653
 10
172.4178457573
 20
122.8737025767
 10
172.0641909107
 20
122.5838060736
 10
171.8231767356
 20
122.2054022609
 10
171.718397358
 20
121.7755335628
 10
171.7601075709
 20
121.3362771331
 10
171.9442244559
 20
120.9306326008
 10
172.2527269214
 20
120.5983050413
 10
172.6554159015
 20
120.3718264832
 10
173.1128722369
 20
120.273365198
  0
LWPOLYLINE
  5
155
330
1F
100
AcDbEntity
  8
0
  6
HIDDEN
 62
     7
370
     0
100
AcDbPolyline
 90
       24
 70
   128
 43
0.0
 10
173.0788566112
 20
120.0599172398
 10
173.6222451493
 20
120.094952198
 10
174.1354253083
 20
120.2664510592
 10
174.580334866
 20
120.5616952165
 10
174.9239789262
 20
120.9587869479
 10
175.140869984
 20
121.428275971
 10
175.2149213046
 20
121.9353429287
 10
175.1406427413
 20
122.442380084
 10
174.9235421359
 20
122.9117834254
 10
174.5797211244
 20
123.3087401151
 10
174.1346783876
 20
123.6038082524
 10
173.6214218601
 20
123.7751045509
 10
173.0780174896
 20
123.8099248394
 10
172.5447663977
 20
123.7056865602
 10
172.0612171977
 20
123.4701215535
 10
171.6632341906
 20
123.1206986367
 10
171.3803319201
 20
122.6833346545
 10
171.2334921524
 20
122.1904657095
 10
171.233606705
 20
121.6786471441
 10
171.3806662649
 20
121.1858364067
 10
171.6637641132
 20
120.7485841832
 10
172.0619045138
 20
120.3993191256
 10
172.5455589533
 20
120.1639445744
 10
173.0788566112
 20
120.0599172398
  0
LWPOLYLINE
  5
156
330
1F
100
AcDbEntity
  8
0
  6
HIDDEN
 62
     7
370
     0
100
AcDbPolyline
 90
       23
 70
   128
 43
0.0
 10
173.0897409782
 20
120.0656295068
 10
173.6119987383
 20
120.1023650601
 10
174.1020876854
 20
120.2758760437
 10
174.5203036755
 20
120.5721050746
 10
174.8327651933
 20
120.9670547641
 10
175.0141579598
 20
121.4287276625
 10
175.0497884989
 20
121.9197218551
 10
174.9367687791
 20
122.4002600893
 10
174.6842546329
 20
122.8314121499
 10
174.312704423
 20
123.1782478525
 10
173.852217564
 20
123.4126701265
 10
173.3401019066
 20
123.5156865104
 10
172.8178441465
 20
123.4789514228
 10
172.3277551993
 20
123.3054404392
 10
171.9095401406
 20
123.0092109426
 10
171.5970786229
 20
122.6142612531
 10
171.415684925
 20
122.1525888204
 10
171.3800553173
 20
121.6615946277
 10
171.493075037
 20
121.1810563936
 10
171.7455882519
 20
120.749904333
 10
172.1171393931
 20
120.4030681647
 10
172.5776253208
 20
120.1686458907
 10
173.0897409782
 20
120.0656295068
  0
LWPOLYLINE
  5
157
330
1F
100
AcDbEntity
  8
0
  6
HIDDEN
 62
     7
370
     0
100
AcDbPolyline
 90
       24
 70
   128
 43
0.0
 10
173.0788566112
 20
120.252303338
 10
173.6222451493
 20
120.2873382962
 10
174.1354253083
 20
120.4588376231
 10
174.580334866
 20
120.7540813147
 10
174.9239789262
 20
121.1511735118
 10
175.140869984
 20
121.6206620692
 10
175.2149213046
 20
122.1277290269
 10
175.1406427413
 20
122.6347661822
 10
174.9235421359
 20
123.104170455
 10
174.5797211244
 20
123.5011262133
 10
174.1346783876
 20
123.7961943506
 10
173.6214218601
 20
123.9674906491
 10
173.0780174896
 20
124.0023109376
 10
172.5447663977
 20
123.8980735897
 10
172.0612171977
 20
123.6625076517
 10
171.6632341906
 20
123.3130847349
 10
171.3803319201
 20
122.8757207527
 10
171.2334921524
 20
122.382852739
 10
171.233606705
 20
121.8710332423
 10
171.3806662649
 20
121.3782229706
 10
171.6637641132
 20
120.9409702814
 10
172.0619045138
 20
120.5917052238
 10
172.5455589533
 20
120.3563306726
 10
173.0788566112
 20
120.252303338
  0
LWPOLYLINE
  5
158
330
1F
100
AcDbEntity
  8
0
  6
HIDDEN
 62
     7
370
     0
100
AcDbPolyline
 90
       23
 70
   128
 43
0.0
 10
173.0897409782
 20
120.2580160706
 10
173.6119987383
 20
120.2947511583
 10
174.1020876854
 20
120.4682621419
 10
174.5203036755
 20
120.7644916385
 10
174.8327651933
 20
121.1594408623
 10
175.0141579598
 20
121.6211137607
 10
175.0497884989
 20
122.1121079533
 10
174.9367687791
 20
122.5926461875
 10
174.6842546329
 20
123.0237982481
 10
174.312704423
 20
123.3706348821
 10
173.852217564
 20
123.6050562247
 10
173.3401019066
 20
123.7080726086
 10
172.8178441465
 20
123.671337521
 10
172.3277551993
 20
123.4978265374
 10
171.9095401406
 20
123.2015970408
 10
171.5970786229
 20
122.8066482826
 10
171.415684925
 20
122.3449749186
 10
171.3800553173
 20
121.8539807259
 10
171.493075037
 20
121.3734424918
 10
171.7455882519
 20
120.9422904312
 10
172.1171393931
 20
120.5954542629
 10
172.5776253208
 20
120.3610324546
 10
173.0897409782
 20
120.2580160706
  0
LWPOLYLINE
  5
159
330
1F
100
AcDbEntity
  8
0
  6
HIDDEN
 62
     7
370
     0
100
AcDbPolyline
 90
       24
 70
   128
 43
0.0
 10
173.0788566112
 20
120.4446899018
 10
173.6222451493
 20
120.4797248601
 10
174.1354253083
 20
120.6512237213
 10
174.580334866
 20
120.9464678786
 10
174.9239789262
 20
121.3435600757
 10
175.140869984
 20
121.8130490988
 10
175.2149213046
 20
122.3201151251
 10
175.1406427413
 20
122.8271532117
 10
174.9235421359
 20
123.2965565532
 10
174.5797211244
 20
123.6935123115
 10
174.1346783876
 20
123.9885804488
 10
173.6214218601
 20
124.1598767473
 10
173.0780174896
 20
124.1946979671
 10
172.5447663977
 20
124.0904596879
 10
172.0612171977
 20
123.8548937499
 10
171.6632341906
 20
123.5054717644
 10
171.3803319201
 20
123.0681077822
 10
171.2334921524
 20
122.5752388372
 10
171.233606705
 20
122.0634193405
 10
171.3806662649
 20
121.5706090688
 10
171.6637641132
 20
121.1333568453
 10
172.0619045138
 20
120.7840917877
 10
172.5455589533
 20
120.5487172364
 10
173.0788566112
 20
120.4446899018
  0
LWPOLYLINE
  5
15A
330
1F
100
AcDbEntity
  8
0
  6
HIDDEN
 62
     7
370
     0
100
AcDbPolyline
 90
       23
 70
   128
 43
0.0
 10
173.0897409782
 20
120.4504021688
 10
173.6119987383
 20
120.4871377221
 10
174.1020876854
 20
120.6606487057
 10
174.5203036755
 20
120.9568777367
 10
174.8327651933
 20
121.3518274262
 10
175.0141579598
 20
121.8134998589
 10
175.0497884989
 20
122.3044940516
 10
174.9367687791
 20
122.7850322857
 10
174.6842546329
 20
123.2161843463
 10
174.312704423
 20
123.5630209803
 10
173.852217564
 20
123.7974432542
 10
173.3401019066
 20
123.9004596382
 10
172.8178441465
 20
123.8637236192
 10
172.3277551993
 20
123.6902135669
 10
171.9095401406
 20
123.3939840703
 10
171.5970786229
 20
122.9990343808
 10
171.415684925
 20
122.5373619481
 10
171.3800553173
 20
122.0463668241
 10
171.493075037
 20
121.56582859
 10
171.7455882519
 20
121.134676995
 10
172.1171393931
 20
120.7878408267
 10
172.5776253208
 20
120.5534185528
 10
173.0897409782
 20
120.4504021688
  0
LWPOLYLINE
  5
15B
330
1F
100
AcDbEntity
  8
0
  6
HIDDEN
 62
     7
370
     0
100
AcDbPolyline
 90
       24
 70
   128
 43
0.0
 10
173.0788566112
 20
120.637076
 10
173.6222451493
 20
120.6721109583
 10
174.1354253083
 20
120.8436102851
 10
174.580334866
 20
121.1388539768
 10
174.9239789262
 20
121.5359461739
 10
175.140869984
 20
122.005435197
 10
175.2149213046
 20
122.5125021546
 10
175.1406427413
 20
123.01953931
 10
174.9235421359
 20
123.4889426514
 10
174.5797211244
 20
123.8858984097
 10
174.1346783876
 20
124.180966547
 10
173.6214218601
 20
124.3522637769
 10
173.0780174896
 20
124.3870840653
 10
172.5447663977
 20
124.2828457861
 10
172.0612171977
 20
124.0472798481
 10
171.6632341906
 20
123.6978578626
 10
171.3803319201
 20
123.2604938804
 10
171.2334921524
 20
122.7676249354
 10
171.233606705
 20
122.25580637
 10
171.3806662649
 20
121.762995167
 10
171.6637641132
 20
121.3257429435
 10
172.0619045138
 20
120.9764778859
 10
172.5455589533
 20
120.7411033346
 10
173.0788566112
 20
120.637076
  0
LWPOLYLINE
  5
15C
330
1F
100
AcDbEntity
  8
0
  6
HIDDEN
 62
     7
370
     0
100
AcDbPolyline
 90
       23
 70
   128
 43
0.0
 10
173.0897409782
 20
120.6427887327
 10
173.6119987383
 20
120.6795238203
 10
174.1020876854
 20
120.8530348039
 10
174.5203036755
 20
121.1492643005
 10
174.8327651933
 20
121.5442135244
 10
175.0141579598
 20
122.0058859571
 10
175.0497884989
 20
122.4968810811
 10
174.9367687791
 20
122.9774193152
 10
174.6842546329
 20
123.4085713758
 10
174.312704423
 20
123.7554070785
 10
173.852217564
 20
123.9898293524
 10
173.3401019066
 20
124.0928457364
 10
172.8178441465
 20
124.0561106487
 10
172.3277551993
 20
123.8825996651
 10
171.9095401406
 20
123.5863701685
 10
171.5970786229
 20
123.191420479
 10
171.415684925
 20
122.7297480463
 10
171.3800553173
 20
122.2387538537
 10
171.493075037
 20
121.7582156195
 10
171.7455882519
 20
121.3270635589
 10
172.1171393931
 20
120.9802269249
 10
172.5776253208
 20
120.7458051167
 10
173.0897409782
 20
120.6427887327
  0
LWPOLYLINE
  5
15D
330
1F
100
AcDbEntity
  8
0
  6
HIDDEN
 62
     7
370
     0
100
AcDbPolyline
 90
       24
 70
   128
 43
0.0
 10
173.0788566112
 20
120.7738840266
 10
173.6222451493
 20
120.8089189849
 10
174.1354253083
 20
120.9804183117
 10
174.580334866
 20
121.2756620034
 10
174.9239789262
 20
121.6727537348
 10
175.140869984
 20
122.1422436892
 10
175.2149213046
 20
122.6493097155
 10
175.1406427413
 20
123.1563478022
 10
174.9235421359
 20
123.6257511436
 10
174.5797211244
 20
124.0227069019
 10
174.1346783876
 20
124.3177750393
 10
173.6214218601
 20
124.4890713378
 10
173.0780174896
 20
124.5238916262
 10
172.5447663977
 20
124.4196542784
 10
172.0612171977
 20
124.1840883403
 10
171.6632341906
 20
123.8346654235
 10
171.3803319201
 20
123.3973014413
 10
171.2334921524
 20
122.9044334277
 10
171.233606705
 20
122.3926139309
 10
171.3806662649
 20
121.8998036592
 10
171.6637641132
 20
121.4625514357
 10
172.0619045138
 20
121.1132859125
 10
172.5455589533
 20
120.8779113612
 10
173.0788566112
 20
120.7738840266
  0
LWPOLYLINE
  5
15E
330
1F
100
AcDbEntity
  8
0
  6
HIDDEN
 62
     7
370
     0
100
AcDbPolyline
 90
       23
 70
   128
 43
0.0
 10
173.0856599226
 20
120.9018375038
 10
173.6249469161
 20
120.939770738
 10
174.1310173586
 20
121.1189395062
 10
174.5628697738
 20
121.4248282149
 10
174.8855208918
 20
121.8326571643
 10
175.0728294193
 20
122.3093844264
 10
175.1096213177
 20
122.8163889854
 10
174.9929154232
 20
123.3125967219
 10
174.732167454
 20
123.7578080281
 10
174.3485016688
 20
124.1159546434
 10
173.8729990959
 20
124.358021213
 10
173.3441838935
 20
124.4643959462
 10
172.8048959687
 20
124.4264631777
 10
172.2988264575
 20
124.2472944095
 10
171.866973111
 20
123.9414052351
 10
171.5443229243
 20
123.5335772171
 10
171.3570143968
 20
123.0568499549
 10
171.3202224984
 20
122.5498444646
 10
171.4369274616
 20
122.0536367281
 10
171.6976754307
 20
121.6084254219
 10
172.0813421473
 20
121.2502797379
 10
172.5568437889
 20
121.0082131683
 10
173.0856599226
 20
120.9018375038
  0
ARC
  5
15F
330
1F
100
AcDbEntity
  8
0
  6
HIDDEN
 62
     7
370
     0
100
AcDbCircle
 10
173.1969890357
 20
104.0704257236
 30
0.0
 40
1.978860264004145
100
AcDbArc
 50
337.3814144578
 51
182.993480502
  0
ARC
  5
160
330
1F
100
AcDbEntity
  8
0
  6
HIDDEN
 62
     7
370
     0
100
AcDbCircle
 10
173.1912542844
 20
104.0151549056
 30
0.0
 40
1.885980632459488
100
AcDbArc
 50
341.3732776071
 51
160.505171621
  0
ARC
  5
161
330
1F
100
AcDbEntity
  8
0
  6
HIDDEN
 62
     7
370
     0
100
AcDbCircle
 10
173.2724458552
 20
104.0504575933
 30
0.0
 40
1.438049642432204
100
AcDbArc
 50
353.4415049299
 51
92.878807952
  0
LWPOLYLINE
  5
162
330
1F
100
AcDbEntity
  8
0
  6
HIDDEN
 62
     7
370
     0
100
AcDbPolyline
 90
       24
 70
   128
 43
0.0
 10
172.5308813095
 20
102.4821871205
 10
172.049195686
 20
102.7210983693
 10
171.6539656684
 20
103.0732705503
 10
171.374505566
 20
103.512584722
 10
171.2315401002
 20
104.0064576327
 10
171.2356733098
 20
104.5182622283
 10
171.3865978583
 20
105.0100396632
 10
171.6731211111
 20
105.4453174829
 10
172.0739930808
 20
105.7918123215
 10
172.5594822257
 20
106.0238271265
 10
173.0935817525
 20
106.1241543166
 10
173.6366815805
 20
106.0853530898
 10
174.1485001459
 20
105.9103003017
 10
174.5910804659
 20
105.6119799859
 10
174.9315971449
 20
105.2125166415
 10
175.1447955087
 20
104.741536571
 10
175.2148644939
 20
104.2339694931
 10
175.1366063893
 20
103.727461329
 10
174.9158261284
 20
103.2595760434
 10
174.5688972935
 20
102.8650147154
 10
174.1215504646
 20
102.5730395003
 10
173.6069630772
 20
102.405306442
 10
173.0632997989
 20
102.3742542847
 10
172.5308813095
 20
102.4821871205
  0
LWPOLYLINE
  5
163
330
1F
100
AcDbEntity
  8
0
  6
HIDDEN
 62
     7
370
     0
100
AcDbPolyline
 90
       21
 70
   128
 43
0.0
 10
172.701891692
 20
103.7561665534
 10
172.2914289623
 20
103.9699674829
 10
171.9713650584
 20
104.2924956664
 10
171.7730287403
 20
104.6921783372
 10
171.7158352896
 20
105.1298915654
 10
171.8053828865
 20
105.5627898558
 10
172.0329059228
 20
105.9484984971
 10
172.3761318192
 20
106.249260275
 10
172.8014659077
 20
106.4356351516
 10
173.2672706187
 20
106.4893799148
 10
173.7279521242
 20
106.4052330575
 10
174.1384139225
 20
106.1914311967
 10
174.4584778264
 20
105.8689039446
 10
174.6568141445
 20
105.4692208081
 10
174.7140075952
 20
105.0315075799
 10
174.6244609296
 20
104.5986092894
 10
174.3969378933
 20
104.2129011138
 10
174.0537110656
 20
103.9121388703
 10
173.6283779084
 20
103.725763528
 10
173.1625722661
 20
103.6720196962
 10
172.701891692
 20
103.7561665534
  0
LWPOLYLINE
  5
164
330
1F
100
AcDbEntity
  8
0
  6
HIDDEN
 62
     7
370
     0
100
AcDbPolyline
 90
       24
 70
   128
 43
0.0
 10
172.5308813095
 20
102.6745732187
 10
172.049195686
 20
102.9134844675
 10
171.6539656684
 20
103.2656566485
 10
171.374505566
 20
103.7049708202
 10
171.2315401002
 20
104.1988437309
 10
171.2356733098
 20
104.7106483265
 10
171.3865978583
 20
105.2024257614
 10
171.6731211111
 20
105.6377035811
 10
172.0739930808
 20
105.9841988853
 10
172.5594822257
 20
106.2162136904
 10
173.0935817525
 20
106.3165408804
 10
173.6366815805
 20
106.277739188
 10
174.1485001459
 20
106.1026868655
 10
174.5910804659
 20
105.8043660841
 10
174.9315971449
 20
105.4049027397
 10
175.1447955087
 20
104.9339226692
 10
175.2148644939
 20
104.4263565227
 10
175.1366063893
 20
103.9198474272
 10
174.9158261284
 20
103.4519621416
 10
174.5688972935
 20
103.0574008136
 10
174.1215504646
 20
102.7654265299
 10
173.6069630772
 20
102.5976925402
 10
173.0632997989
 20
102.5666403829
 10
172.5308813095
 20
102.6745732187
  0
LWPOLYLINE
  5
165
330
1F
100
AcDbEntity
  8
0
  6
HIDDEN
 62
     7
370
     0
100
AcDbPolyline
 90
       23
 70
   128
 43
0.0
 10
172.5856048926
 20
102.7677604242
 10
172.1239706441
 20
103.000181286
 10
171.7507198393
 20
103.3454011439
 10
171.4960897281
 20
103.7754523813
 10
171.3807091057
 20
104.2554951518
 10
171.4139247253
 20
104.7466383561
 10
171.5930478587
 20
105.2090940311
 10
171.903564775
 20
105.6053950696
 10
172.3203195199
 20
105.9034364543
 10
172.8095507189
 20
106.079072716
 10
173.3316212833
 20
106.1180741771
 10
173.8442389235
 20
106.0172817915
 10
174.3058722406
 20
105.7848609298
 10
174.6791230455
 20
105.4396410718
 10
174.933754088
 20
105.0095898344
 10
175.0491347104
 20
104.5295470639
 10
175.0159181595
 20
104.0384029283
 10
174.8367959574
 20
103.5759481846
 10
174.5262790411
 20
103.1796471461
 10
174.1095233649
 20
102.8816052958
 10
173.6202930972
 20
102.7059690341
 10
173.0982216015
 20
102.6669680386
 10
172.5856048926
 20
102.7677604242
  0
LWPOLYLINE
  5
166
330
1F
100
AcDbEntity
  8
0
  6
HIDDEN
 62
     7
370
     0
100
AcDbPolyline
 90
       24
 70
   128
 43
0.0
 10
172.5308813095
 20
102.8669593169
 10
172.049195686
 20
103.105871497
 10
171.6539656684
 20
103.458043678
 10
171.374505566
 20
103.8973569184
 10
171.2315401002
 20
104.3912298291
 10
171.2356733098
 20
104.9030344247
 10
171.3865978583
 20
105.3948118596
 10
171.6731211111
 20
105.8300896793
 10
172.0739930808
 20
106.1765849835
 10
172.5594822257
 20
106.4085997886
 10
173.0935817525
 20
106.5089269786
 10
173.6366815805
 20
106.4701257519
 10
174.1485001459
 20
106.2950729638
 10
174.5910804659
 20
105.996752648
 10
174.9315971449
 20
105.5972888379
 10
175.1447955087
 20
105.1263087674
 10
175.2148644939
 20
104.6187426209
 10
175.1366063893
 20
104.1122335254
 10
174.9158261284
 20
103.6443482398
 10
174.5688972935
 20
103.2497869118
 10
174.1215504646
 20
102.9578126281
 10
173.6069630772
 20
102.7900795697
 10
173.0632997989
 20
102.7590274125
 10
172.5308813095
 20
102.8669593169
  0
LWPOLYLINE
  5
167
330
1F
100
AcDbEntity
  8
0
  6
HIDDEN
 62
     7
370
     0
100
AcDbPolyline
 90
       23
 70
   128
 43
0.0
 10
172.5856048926
 20
102.9601465224
 10
172.1239706441
 20
103.1925673842
 10
171.7507198393
 20
103.5377872422
 10
171.4960897281
 20
103.9678384795
 10
171.3807091057
 20
104.44788125
 10
171.4139247253
 20
104.9390253856
 10
171.5930478587
 20
105.4014801293
 10
171.903564775
 20
105.7977816335
 10
172.3203195199
 20
106.0958230182
 10
172.8095507189
 20
106.2714588142
 10
173.3316212833
 20
106.310460741
 10
173.8442389235
 20
106.2096683554
 10
174.3058722406
 20
105.9772474936
 10
174.6791230455
 20
105.63202717
 10
174.933754088
 20
105.2019759326
 10
175.0491347104
 20
104.7219331621
 10
175.0159181595
 20
104.2307899579
 10
174.8367959574
 20
103.7683342829
 10
174.5262790411
 20
103.3720332443
 10
174.1095233649
 20
103.073991394
 10
173.6202930972
 20
102.8983560636
 10
173.0982216015
 20
102.8593541368
 10
172.5856048926
 20
102.9601465224
  0
LWPOLYLINE
  5
168
330
1F
100
AcDbEntity
  8
0
  6
HIDDEN
 62
     7
370
     0
100
AcDbPolyline
 90
       24
 70
   128
 43
0.0
 10
172.5308813095
 20
103.0593454152
 10
172.049195686
 20
103.2982575952
 10
171.6539656684
 20
103.6504297762
 10
171.374505566
 20
104.0897430166
 10
171.2315401002
 20
104.5836168586
 10
171.2356733098
 20
105.0954205229
 10
171.3865978583
 20
105.5871984235
 10
171.6731211111
 20
106.0224762431
 10
172.0739930808
 20
106.3689715474
 10
172.5594822257
 20
106.6009863525
 10
173.0935817525
 20
106.7013135425
 10
173.6366815805
 20
106.6625118501
 10
174.1485001459
 20
106.4874595276
 10
174.5910804659
 20
106.1891387462
 10
174.9315971449
 20
105.7896754018
 10
175.1447955087
 20
105.3186948656
 10
175.2148644939
 20
104.8111287191
 10
175.1366063893
 20
104.304620555
 10
174.9158261284
 20
103.836734338
 10
174.5688972935
 20
103.44217301
 10
174.1215504646
 20
103.1501987263
 10
173.6069630772
 20
102.9824656679
 10
173.0632997989
 20
102.9514135107
 10
172.5308813095
 20
103.0593454152
  0
LWPOLYLINE
  5
169
330
1F
100
AcDbEntity
  8
0
  6
HIDDEN
 62
     7
370
     0
100
AcDbPolyline
 90
       23
 70
   128
 43
0.0
 10
172.5856048926
 20
103.1525326206
 10
172.1239706441
 20
103.3849534824
 10
171.7507198393
 20
103.7301733404
 10
171.4960897281
 20
104.160225509
 10
171.3807091057
 20
104.6402673482
 10
171.4139247253
 20
105.1314114838
 10
171.5930478587
 20
105.5938666931
 10
171.903564775
 20
105.9901677317
 10
172.3203195199
 20
106.2882091164
 10
172.8095507189
 20
106.4638453781
 10
173.3316212833
 20
106.5028468392
 10
173.8442389235
 20
106.4020544536
 10
174.3058722406
 20
106.1696335918
 10
174.6791230455
 20
105.8244137338
 10
174.933754088
 20
105.3943620308
 10
175.0491347104
 20
104.9143192603
 10
175.0159181595
 20
104.4231760561
 10
174.8367959574
 20
103.9607203811
 10
174.5262790411
 20
103.5644193425
 10
174.1095233649
 20
103.2663784235
 10
173.6202930972
 20
103.0907421618
 10
173.0982216015
 20
103.051740235
 10
172.5856048926
 20
103.1525326206
  0
LWPOLYLINE
  5
16A
330
1F
100
AcDbEntity
  8
0
  6
HIDDEN
 62
     7
370
     0
100
AcDbPolyline
 90
       24
 70
   128
 43
0.0
 10
172.5308813095
 20
103.2517324447
 10
172.049195686
 20
103.4906436934
 10
171.6539656684
 20
103.8428158744
 10
171.374505566
 20
104.2821300461
 10
171.2315401002
 20
104.7760029568
 10
171.2356733098
 20
105.2878075524
 10
171.3865978583
 20
105.7795849874
 10
171.6731211111
 20
106.2148623414
 10
172.0739930808
 20
106.5613576456
 10
172.5594822257
 20
106.7933724507
 10
173.0935817525
 20
106.8936996407
 10
173.6366815805
 20
106.8548984139
 10
174.1485001459
 20
106.6798456258
 10
174.5910804659
 20
106.38152531
 10
174.9315971449
 20
105.9820615
 10
175.1447955087
 20
105.5110818951
 10
175.2148644939
 20
105.0035148173
 10
175.1366063893
 20
104.4970066532
 10
174.9158261284
 20
104.0291213675
 10
174.5688972935
 20
103.6345600396
 10
174.1215504646
 20
103.3425848245
 10
173.6069630772
 20
103.1748517661
 10
173.0632997989
 20
103.1437996089
 10
172.5308813095
 20
103.2517324447
  0
LWPOLYLINE
  5
16B
330
1F
100
AcDbEntity
  8
0
  6
HIDDEN
 62
     7
370
     0
100
AcDbPolyline
 90
       23
 70
   128
 43
0.0
 10
172.5856048926
 20
103.3449187189
 10
172.1239706441
 20
103.5773395806
 10
171.7507198393
 20
103.9225603699
 10
171.4960897281
 20
104.3526116072
 10
171.3807091057
 20
104.8326543777
 10
171.4139247253
 20
105.323797582
 10
171.5930478587
 20
105.7862527914
 10
171.903564775
 20
106.1825542956
 10
172.3203195199
 20
106.4805956802
 10
172.8095507189
 20
106.6562314763
 10
173.3316212833
 20
106.6952334031
 10
173.8442389235
 20
106.5944410174
 10
174.3058722406
 20
106.3620201557
 10
174.6791230455
 20
106.0167998321
 10
174.933754088
 20
105.5867485947
 10
175.0491347104
 20
105.1067062899
 10
175.0159181595
 20
104.6155621543
 10
174.8367959574
 20
104.1531074106
 10
174.5262790411
 20
103.7568054407
 10
174.1095233649
 20
103.4587645217
 10
173.6202930972
 20
103.28312826
 10
173.0982216015
 20
103.2441263332
 10
172.5856048926
 20
103.3449187189
  0
LWPOLYLINE
  5
16C
330
1F
100
AcDbEntity
  8
0
  6
HIDDEN
 62
     7
370
     0
100
AcDbPolyline
 90
       24
 70
   128
 43
0.0
 10
172.5308813095
 20
103.5766513332
 10
172.049195686
 20
103.8155625819
 10
171.6539656684
 20
104.1677347629
 10
171.374505566
 20
104.6070489346
 10
171.2315401002
 20
105.1009218454
 10
171.2356733098
 20
105.6127264409
 10
171.3865978583
 20
106.1045038759
 10
171.6731211111
 20
106.5397816955
 10
172.0739930808
 20
106.8862769998
 10
172.5594822257
 20
107.1182918049
 10
173.0935817525
 20
107.2186189949
 10
173.6366815805
 20
107.1798173024
 10
174.1485001459
 20
107.00476498
 10
174.5910804659
 20
106.7064441986
 10
174.9315971449
 20
106.3069808542
 10
175.1447955087
 20
105.8360007837
 10
175.2148644939
 20
105.3284346371
 10
175.1366063893
 20
104.8219255417
 10
174.9158261284
 20
104.3540402561
 10
174.5688972935
 20
103.9594789281
 10
174.1215504646
 20
103.6675046443
 10
173.6069630772
 20
103.4997706547
 10
173.0632997989
 20
103.4687184974
 10
172.5308813095
 20
103.5766513332
  0
LWPOLYLINE
  5
16D
330
1F
100
AcDbEntity
  8
0
  6
HIDDEN
 62
     7
370
     0
100
AcDbPolyline
 90
       21
 70
   128
 43
0.0
 10
172.7086000085
 20
104.1380889027
 10
172.3035054221
 20
104.3490949332
 10
171.9876268819
 20
104.6674051567
 10
171.7918842971
 20
105.0618603139
 10
171.7354386985
 20
105.4938505649
 10
171.8238146916
 20
105.9210882767
 10
172.0483621523
 20
106.3017524093
 10
172.3871009364
 20
106.5985812119
 10
172.8068722352
 20
106.7825192831
 10
173.2665860966
 20
106.8355608977
 10
173.7212428763
 20
106.752514398
 10
174.1263374626
 20
106.5415088332
 10
174.4422160029
 20
106.2231986097
 10
174.6379585877
 20
105.8287425212
 10
174.6944041863
 20
105.3967527359
 10
174.6060281932
 20
104.969515024
 10
174.3814807325
 20
104.5888508915
 10
174.0427419483
 20
104.2920216232
 10
173.6229706496
 20
104.1080844834
 10
173.1632567882
 20
104.0550428688
 10
172.7086000085
 20
104.1380889027
  0
LWPOLYLINE
  5
16E
330
1F
100
AcDbEntity
  8
0
  6
HIDDEN
 62
     7
370
     0
100
AcDbPolyline
 90
       24
 70
   128
 43
0.0
 10
165.5547969915
 20
121.7843643635
 10
165.676317358
 20
122.3152331322
 10
165.8709805399
 20
122.810630618
 10
166.124348709
 20
123.233815214
 10
166.4176305696
 20
123.5534013494
 10
166.7290755488
 20
123.7456877961
 10
167.0355845183
 20
123.7964122801
 10
167.3144252911
 20
123.7018131896
 10
167.5449173838
 20
123.4689061775
 10
167.7099668361
 20
123.1149654149
 10
167.7973318785
 20
122.66624116
 10
167.8005337655
 20
122.1560123622
 10
167.7193345442
 20
121.6221214517
 10
167.559756612
 20
121.1041640735
 10
167.3336347505
 20
120.6405549555
 10
167.057739751
 20
120.2656775958
 10
166.7525337018
 20
120.0073352329
 10
166.4406519323
 20
119.8846875004
 10
166.1452257015
 20
119.9068310916
 10
165.8881648384
 20
120.0721236191
 10
165.6885344475
 20
120.3683060839
 10
165.5611406952
 20
120.7734118461
 10
165.5154318489
 20
121.2573959737
 10
165.5547969915
 20
121.7843643635
  0
LWPOLYLINE
  5
16F
330
1F
100
AcDbEntity
  8
0
  6
HIDDEN
 62
     7
370
     0
100
AcDbPolyline
 90
       19
 70
   128
 43
0.0
 10
166.5845589652
 20
121.6569566413
 10
166.6900470793
 20
122.078006646
 10
166.866317106
 20
122.4522362708
 10
167.0921078823
 20
122.734508036
 10
167.3401861392
 20
122.8907765134
 10
167.5806298792
 20
122.9021935969
 10
167.7844377175
 20
122.7673809289
 10
167.9270273946
 20
122.502600333
 10
167.9912011079
 20
122.1397868603
 10
167.9692177042
 20
121.7227024271
 10
167.8637295902
 20
121.3016524225
 10
167.6874595634
 20
120.9274227976
 10
167.4616683215
 20
120.6451505668
 10
167.2135905303
 20
120.4888820893
 10
166.9731467902
 20
120.4774654715
 10
166.769338952
 20
120.6122781395
 10
166.6267492749
 20
120.8770587354
 10
166.5625755615
 20
121.2398722082
 10
166.5845589652
 20
121.6569566413
  0
LWPOLYLINE
  5
170
330
1F
100
AcDbEntity
  8
0
  6
HIDDEN
 62
     7
370
     0
100
AcDbPolyline
 90
       24
 70
   128
 43
0.0
 10
163.8961506016
 20
122.1815855487
 10
164.017671201
 20
122.7124543174
 10
164.21233415
 20
123.2078518032
 10
164.4657023191
 20
123.6310363992
 10
164.7589841798
 20
123.9506225347
 10
165.0704291589
 20
124.1429089814
 10
165.3769381284
 20
124.1936334654
 10
165.6557789013
 20
124.0990343749
 10
165.8862709939
 20
123.8661273628
 10
166.0513204463
 20
123.5121866002
 10
166.1386854887
 20
123.0634623452
 10
166.1418873757
 20
122.5532335474
 10
166.0606881544
 20
122.019342637
 10
165.9011097565
 20
121.5013847931
 10
165.6749883607
 20
121.0377761408
 10
165.3990933612
 20
120.6628987811
 10
165.0938873119
 20
120.4045559525
 10
164.7820055425
 20
120.2819086856
 10
164.4865793116
 20
120.3040522768
 10
164.2295184485
 20
120.4693448044
 10
164.0298880577
 20
120.7655272692
 10
163.9024943053
 20
121.1706330313
 10
163.8567852262
 20
121.654617159
 10
163.8961506016
 20
122.1815855487
  0
LINE
  5
171
330
1F
100
AcDbEntity
  8
0
  6
HIDDEN
 62
     7
370
     0
100
AcDbLine
 10
165.8774676673
 20
122.9491248041
 30
0.0
 11
165.4086138062
 21
121.9537253737
 31
0.0
  0
LINE
  5
172
330
1F
100
AcDbEntity
  8
0
  6
HIDDEN
 62
     7
370
     0
100
AcDbLine
 10
165.579306142
 20
120.9886921815
 30
0.0
 11
165.4086138062
 21
121.9537253737
 31
0.0
  0
LINE
  5
173
330
1F
100
AcDbEntity
  8
0
  6
HIDDEN
 62
     7
370
     0
100
AcDbLine
 10
165.4086138062
 20
121.9537253737
 30
0.0
 11
164.1798854746
 21
122.2479869857
 31
0.0
  0
LINE
  5
174
330
1F
100
AcDbEntity
  8
0
  6
HIDDEN
 62
     7
370
     0
100
AcDbLine
 10
164.350578276
 20
121.2829542591
 30
0.0
 11
164.1798854746
 21
122.2479869857
 31
0.0
  0
LINE
  5
175
330
1F
100
AcDbEntity
  8
0
  6
HIDDEN
 62
     7
370
     0
100
AcDbLine
 10
164.6487393357
 20
123.2433864161
 30
0.0
 11
164.1798854746
 21
122.2479869857
 31
0.0
  0
LWPOLYLINE
  5
176
330
1F
100
AcDbEntity
  8
0
  6
HIDDEN
 62
     7
370
     0
100
AcDbPolyline
 90
       21
 70
   128
 43
0.0
 10
163.9277117267
 20
122.2360139026
 10
164.045525895
 20
122.725760123
 10
164.2390952386
 20
123.1717118307
 10
164.4894719995
 20
123.5302151426
 10
164.7721479587
 20
123.7661778241
 10
165.0594521254
 20
123.856502144
 10
165.3232613519
 20
123.7923451944
 10
165.5377523914
 20
123.5799887463
 10
165.6819290422
 20
123.2402199193
 10
165.7416789733
 20
122.8062962427
 10
165.7111525476
 20
122.3206934764
 10
165.5933383792
 20
121.830947256
 10
165.3997690357
 20
121.3849955483
 10
165.1493922747
 20
121.0264917708
 10
164.8667163156
 20
120.790529555
 10
164.5794121489
 20
120.7002052351
 10
164.3156029224
 20
120.764361719
 10
164.1011118829
 20
120.9767181671
 10
163.9569349993
 20
121.3164874598
 10
163.8971855338
 20
121.7504111364
 10
163.9277117267
 20
122.2360139026
  0
LINE
  5
177
330
1F
100
AcDbEntity
  8
0
  6
HIDDEN
 62
     7
370
     0
100
AcDbLine
 10
164.6487393357
 20
123.2433864161
 30
0.0
 11
165.2882859982
 21
123.2737531199
 31
0.0
  0
LINE
  5
178
330
1F
100
AcDbEntity
  8
0
  6
HIDDEN
 62
     7
370
     0
100
AcDbLine
 10
165.8774676673
 20
122.9491248041
 30
0.0
 11
166.5170143299
 21
122.9794915079
 31
0.0
  0
LINE
  5
179
330
1F
100
AcDbEntity
  8
0
  6
HIDDEN
 62
     7
370
     0
100
AcDbLine
 10
165.8774676673
 20
122.9491248041
 30
0.0
 11
164.6487393357
 21
123.2433864161
 31
0.0
  0
LINE
  5
17A
330
1F
100
AcDbEntity
  8
0
  6
HIDDEN
 62
     7
370
     0
100
AcDbLine
 10
166.2188528046
 20
121.0190584197
 30
0.0
 11
164.9901249386
 21
121.313320963
 31
0.0
  0
LINE
  5
17B
330
1F
100
AcDbEntity
  8
0
  6
HIDDEN
 62
     7
370
     0
100
AcDbLine
 10
164.350578276
 20
121.2829542591
 30
0.0
 11
164.9901249386
 21
121.313320963
 31
0.0
  0
LINE
  5
17C
330
1F
100
AcDbEntity
  8
0
  6
HIDDEN
 62
     7
370
     0
100
AcDbLine
 10
165.579306142
 20
120.9886921815
 30
0.0
 11
164.350578276
 21
121.2829542591
 31
0.0
  0
LINE
  5
17D
330
1F
100
AcDbEntity
  8
0
  6
HIDDEN
 62
     7
370
     0
100
AcDbLine
 10
165.579306142
 20
120.9886921815
 30
0.0
 11
166.2188528046
 21
121.0190584197
 31
0.0
  0
LINE
  5
17E
330
1F
100
AcDbEntity
  8
0
  6
HIDDEN
 62
     7
370
     0
100
AcDbLine
 10
166.6877066657
 20
122.0144578501
 30
0.0
 11
165.4589787997
 21
122.3087203934
 31
0.0
  0
LINE
  5
17F
330
1F
100
AcDbEntity
  8
0
  6
HIDDEN
 62
     7
370
     0
100
AcDbLine
 10
166.5170143299
 20
122.9794915079
 30
0.0
 11
165.2882859982
 21
123.2737531199
 31
0.0
  0
LINE
  5
180
330
1F
100
AcDbEntity
  8
0
  6
HIDDEN
 62
     7
370
     0
100
AcDbLine
 10
165.2882859982
 20
123.2737531199
 30
0.0
 11
165.4589787997
 21
122.3087203934
 31
0.0
  0
LINE
  5
181
330
1F
100
AcDbEntity
  8
0
  6
HIDDEN
 62
     7
370
     0
100
AcDbLine
 10
166.5170143299
 20
122.9794915079
 30
0.0
 11
166.6877066657
 21
122.0144578501
 31
0.0
  0
LINE
  5
182
330
1F
100
AcDbEntity
  8
0
  6
HIDDEN
 62
     7
370
     0
100
AcDbLine
 10
164.9901249386
 20
121.313320963
 30
0.0
 11
165.4589787997
 21
122.3087203934
 31
0.0
  0
LINE
  5
183
330
1F
100
AcDbEntity
  8
0
  6
HIDDEN
 62
     7
370
     0
100
AcDbLine
 10
166.2188528046
 20
121.0190584197
 30
0.0
 11
166.6877066657
 21
122.0144578501
 31
0.0
  0
LWPOLYLINE
  5
184
330
1F
100
AcDbEntity
  8
0
  6
HIDDEN
 62
     7
370
     0
100
AcDbPolyline
 90
       21
 70
   128
 43
0.0
 10
163.9277117267
 20
104.5243242069
 10
164.045525895
 20
104.0345779865
 10
164.2390952386
 20
103.5886262789
 10
164.4894719995
 20
103.230122967
 10
164.7721479587
 20
102.9941602855
 10
165.0594521254
 20
102.9038359656
 10
165.3232613519
 20
102.9679929151
 10
165.5377523914
 20
103.1803493633
 10
165.6819290422
 20
103.5201181903
 10
165.7416789733
 20
103.9540418669
 10
165.7111525476
 20
104.4396446331
 10
165.5933383792
 20
104.9293908536
 10
165.3997690357
 20
105.3753425612
 10
165.1493922747
 20
105.7338463388
 10
164.8667163156
 20
105.9698085546
 10
164.5794121489
 20
106.0601328745
 10
164.3156029224
 20
105.9959763906
 10
164.1011118829
 20
105.7836199424
 10
163.9569349993
 20
105.4438506498
 10
163.8971855338
 20
105.0099269732
 10
163.9277117267
 20
104.5243242069
  0
LWPOLYLINE
  5
185
330
1F
100
AcDbEntity
  8
0
  6
HIDDEN
 62
     7
370
     0
100
AcDbPolyline
 90
       24
 70
   128
 43
0.0
 10
163.8961506016
 20
104.5787525608
 10
164.017671201
 20
104.0478837921
 10
164.21233415
 20
103.5524863063
 10
164.4657023191
 20
103.1293017103
 10
164.7589841798
 20
102.8097155749
 10
165.0704291589
 20
102.6174291282
 10
165.3769381284
 20
102.5667046442
 10
165.6557789013
 20
102.6613037347
 10
165.8862709939
 20
102.8942107468
 10
166.0513204463
 20
103.2481515094
 10
166.1386854887
 20
103.6968757643
 10
166.1418873757
 20
104.2071045621
 10
166.0606881544
 20
104.7409954726
 10
165.9011097565
 20
105.2589533164
 10
165.6749883607
 20
105.7225619688
 10
165.3990933612
 20
106.0974393285
 10
165.0938873119
 20
106.3557821571
 10
164.7820055425
 20
106.4784294239
 10
164.4865793116
 20
106.4562858327
 10
164.2295184485
 20
106.2909933052
 10
164.0298880577
 20
105.9948108404
 10
163.9024943053
 20
105.5897050782
 10
163.8567852262
 20
105.1057209506
 10
163.8961506016
 20
104.5787525608
  0
LWPOLYLINE
  5
186
330
1F
100
AcDbEntity
  8
0
  6
HIDDEN
 62
     7
370
     0
100
AcDbPolyline
 90
       24
 70
   128
 43
0.0
 10
165.5547969915
 20
104.9759737461
 10
165.676317358
 20
104.4451049774
 10
165.8709805399
 20
103.9497074916
 10
166.124348709
 20
103.5265228956
 10
166.4176305696
 20
103.2069367602
 10
166.7290755488
 20
103.0146503135
 10
167.0355845183
 20
102.9639258294
 10
167.3144252911
 20
103.05852492
 10
167.5449173838
 20
103.2914319321
 10
167.7099668361
 20
103.6453726946
 10
167.7973318785
 20
104.0940969496
 10
167.8005337655
 20
104.6043257474
 10
167.7193345442
 20
105.1382166579
 10
167.559756612
 20
105.656174036
 10
167.3336347505
 20
106.119783154
 10
167.057739751
 20
106.4946605138
 10
166.7525337018
 20
106.7530028767
 10
166.4406519323
 20
106.8756506092
 10
166.1452257015
 20
106.853507018
 10
165.8881648384
 20
106.6882144905
 10
165.6885344475
 20
106.3920320257
 10
165.5611406952
 20
105.9869262635
 10
165.5154318489
 20
105.5029421358
 10
165.5547969915
 20
104.9759737461
  0
LINE
  5
187
330
1F
100
AcDbEntity
  8
0
  6
HIDDEN
 62
     7
370
     0
100
AcDbLine
 10
165.2882859982
 20
103.4865849896
 30
0.0
 11
165.4589787997
 21
104.4516177162
 31
0.0
  0
LINE
  5
188
330
1F
100
AcDbEntity
  8
0
  6
HIDDEN
 62
     7
370
     0
100
AcDbLine
 10
164.9901249386
 20
105.4470171466
 30
0.0
 11
165.4589787997
 21
104.4516177162
 31
0.0
  0
LINE
  5
189
330
1F
100
AcDbEntity
  8
0
  6
HIDDEN
 62
     7
370
     0
100
AcDbLine
 10
164.350578276
 20
105.4773838504
 30
0.0
 11
164.9901249386
 21
105.4470171466
 31
0.0
  0
LINE
  5
18A
330
1F
100
AcDbEntity
  8
0
  6
HIDDEN
 62
     7
370
     0
100
AcDbLine
 10
164.350578276
 20
105.4773838504
 30
0.0
 11
164.1798854746
 21
104.5123511239
 31
0.0
  0
LINE
  5
18B
330
1F
100
AcDbEntity
  8
0
  6
HIDDEN
 62
     7
370
     0
100
AcDbLine
 10
164.6487393357
 20
103.5169516935
 30
0.0
 11
164.1798854746
 21
104.5123511239
 31
0.0
  0
LINE
  5
18C
330
1F
100
AcDbEntity
  8
0
  6
HIDDEN
 62
     7
370
     0
100
AcDbLine
 10
164.6487393357
 20
103.5169516935
 30
0.0
 11
165.2882859982
 21
103.4865849896
 31
0.0
  0
LINE
  5
18D
330
1F
100
AcDbEntity
  8
0
  6
HIDDEN
 62
     7
370
     0
100
AcDbLine
 10
166.6877066657
 20
104.7458802595
 30
0.0
 11
165.4589787997
 21
104.4516177162
 31
0.0
  0
LWPOLYLINE
  5
18E
330
1F
100
AcDbEntity
  8
0
  6
HIDDEN
 62
     7
370
     0
100
AcDbPolyline
 90
       19
 70
   128
 43
0.0
 10
166.5845589652
 20
105.1033814683
 10
166.6900470793
 20
104.6823314636
 10
166.866317106
 20
104.3081018387
 10
167.0921078823
 20
104.0258300736
 10
167.3401861392
 20
103.8695615961
 10
167.5806298792
 20
103.8581445127
 10
167.7844377175
 20
103.9929571807
 10
167.9270273946
 20
104.2577377766
 10
167.9912011079
 20
104.6205512493
 10
167.9692177042
 20
105.0376356824
 10
167.8637295902
 20
105.4586856871
 10
167.6874595634
 20
105.832915312
 10
167.4616683215
 20
106.1151875428
 10
167.2135905303
 20
106.2714560202
 10
166.9731467902
 20
106.282872638
 10
166.769338952
 20
106.1480599701
 10
166.6267492749
 20
105.8832793742
 10
166.5625755615
 20
105.5204659014
 10
166.5845589652
 20
105.1033814683
  0
LINE
  5
18F
330
1F
100
AcDbEntity
  8
0
  6
HIDDEN
 62
     7
370
     0
100
AcDbLine
 10
166.2188528046
 20
105.7412796899
 30
0.0
 11
164.9901249386
 21
105.4470171466
 31
0.0
  0
LINE
  5
190
330
1F
100
AcDbEntity
  8
0
  6
HIDDEN
 62
     7
370
     0
100
AcDbLine
 10
165.8774676673
 20
103.8112133055
 30
0.0
 11
164.6487393357
 21
103.5169516935
 31
0.0
  0
LINE
  5
191
330
1F
100
AcDbEntity
  8
0
  6
HIDDEN
 62
     7
370
     0
100
AcDbLine
 10
165.8774676673
 20
103.8112133055
 30
0.0
 11
166.5170143299
 21
103.7808466016
 31
0.0
  0
LINE
  5
192
330
1F
100
AcDbEntity
  8
0
  6
HIDDEN
 62
     7
370
     0
100
AcDbLine
 10
166.5170143299
 20
103.7808466016
 30
0.0
 11
165.2882859982
 21
103.4865849896
 31
0.0
  0
LINE
  5
193
330
1F
100
AcDbEntity
  8
0
  6
HIDDEN
 62
     7
370
     0
100
AcDbLine
 10
165.579306142
 20
105.7716459281
 30
0.0
 11
165.4086138062
 21
104.8066127359
 31
0.0
  0
LINE
  5
194
330
1F
100
AcDbEntity
  8
0
  6
HIDDEN
 62
     7
370
     0
100
AcDbLine
 10
165.8774676673
 20
103.8112133055
 30
0.0
 11
165.4086138062
 21
104.8066127359
 31
0.0
  0
LINE
  5
195
330
1F
100
AcDbEntity
  8
0
  6
HIDDEN
 62
     7
370
     0
100
AcDbLine
 10
165.579306142
 20
105.7716459281
 30
0.0
 11
166.2188528046
 21
105.7412796899
 31
0.0
  0
LINE
  5
196
330
1F
100
AcDbEntity
  8
0
  6
HIDDEN
 62
     7
370
     0
100
AcDbLine
 10
166.5170143299
 20
103.7808466016
 30
0.0
 11
166.6877066657
 21
104.7458802595
 31
0.0
  0
LINE
  5
197
330
1F
100
AcDbEntity
  8
0
  6
HIDDEN
 62
     7
370
     0
100
AcDbLine
 10
166.2188528046
 20
105.7412796899
 30
0.0
 11
166.6877066657
 21
104.7458802595
 31
0.0
  0
LINE
  5
198
330
1F
100
AcDbEntity
  8
0
  6
HIDDEN
 62
     7
370
     0
100
AcDbLine
 10
165.4086138062
 20
104.8066127359
 30
0.0
 11
164.1798854746
 21
104.5123511239
 31
0.0
  0
LINE
  5
199
330
1F
100
AcDbEntity
  8
0
  6
HIDDEN
 62
     7
370
     0
100
AcDbLine
 10
165.579306142
 20
105.7716459281
 30
0.0
 11
164.350578276
 21
105.4773838504
 31
0.0
  0
LINE
  5
19A
330
1F
100
AcDbEntity
  8
0
  6
HIDDEN
 62
     7
370
     0
100
AcDbLine
 10
198.1649232968
 20
128.6801691412
 30
0.0
 11
197.7561099395
 21
129.0889806359
 31
0.0
  0
LINE
  5
19B
330
1F
100
AcDbEntity
  8
0
  6
HIDDEN
 62
     7
370
     0
100
AcDbLine
 10
190.5741190478
 20
129.0893662035
 30
0.0
 11
190.1649219855
 21
128.6801691412
 31
0.0
  0
LINE
  5
19C
330
1F
100
AcDbEntity
  8
0
  6
HIDDEN
 62
     7
370
     0
100
AcDbLine
 10
190.1649219855
 20
128.6801691412
 30
0.0
 11
190.1649219855
 21
123.485425046
 31
0.0
  0
LINE
  5
19D
330
1F
100
AcDbEntity
  8
0
  6
HIDDEN
 62
     7
370
     0
100
AcDbLine
 10
198.1649232968
 20
123.485425046
 30
0.0
 11
198.1649232968
 21
128.6801691412
 31
0.0
  0
LINE
  5
19E
330
1F
100
AcDbEntity
  8
0
  6
HIDDEN
 62
     7
370
     0
100
AcDbLine
 10
190.1649219855
 20
123.485425046
 30
0.0
 11
191.2053415492
 21
119.6025233029
 31
0.0
  0
LINE
  5
19F
330
1F
100
AcDbEntity
  8
0
  6
HIDDEN
 62
     7
370
     0
100
AcDbLine
 10
197.1245018705
 20
119.6025233029
 30
0.0
 11
198.1649232968
 21
123.485425046
 31
0.0
  0
ARC
  5
1A0
330
1F
100
AcDbEntity
  8
0
  6
HIDDEN
 62
     7
370
     0
100
AcDbCircle
 10
191.4951197362
 20
119.6801690548
 30
0.0
 40
0.3000000000000205
100
AcDbArc
 50
195.0
 51
270.0
  0
ARC
  5
1A1
330
1F
100
AcDbEntity
  8
0
  6
HIDDEN
 62
     7
370
     0
100
AcDbCircle
 10
196.8347235434
 20
119.6801690548
 30
0.0
 40
0.3000000000000205
100
AcDbArc
 50
270.0
 51
345.0
  0
LINE
  5
1A2
330
1F
100
AcDbEntity
  8
0
  6
HIDDEN
 62
     7
370
     0
100
AcDbLine
 10
191.7649229929
 20
129.3801698147
 30
0.0
 11
192.0817477569
 21
129.0633431881
 31
0.0
  0
LINE
  5
1A3
330
1F
100
AcDbEntity
  8
0
  6
HIDDEN
 62
     7
370
     0
100
AcDbLine
 10
196.2444579169
 20
129.0597035795
 30
0.0
 11
196.5649222895
 21
129.3801698147
 31
0.0
  0
LINE
  5
1A4
330
1F
100
AcDbEntity
  8
0
  6
HIDDEN
 62
     7
370
     0
100
AcDbLine
 10
192.1649223134
 20
124.3801689952
 30
0.0
 11
192.1649223134
 21
123.3801688313
 31
0.0
  0
LINE
  5
1A5
330
1F
100
AcDbEntity
  8
0
  6
HIDDEN
 62
     7
370
     0
100
AcDbLine
 10
196.164922969
 20
123.3801688313
 30
0.0
 11
196.164922969
 21
124.3801689952
 31
0.0
  0
LINE
  5
1A6
330
1F
100
AcDbEntity
  8
0
  6
HIDDEN
 62
     7
370
     0
100
AcDbLine
 10
192.1649223134
 20
123.3801688313
 30
0.0
 11
194.1649226412
 21
122.6522284805
 31
0.0
  0
LINE
  5
1A7
330
1F
100
AcDbEntity
  8
0
  6
HIDDEN
 62
     7
370
     0
100
AcDbLine
 10
194.1649226412
 20
122.6522284805
 30
0.0
 11
196.164922969
 21
123.3801688313
 31
0.0
  0
LINE
  5
1A8
330
1F
100
AcDbEntity
  8
0
  6
HIDDEN
 62
     7
370
     0
100
AcDbLine
 10
175.2149213046
 20
102.5213259517
 30
0.0
 11
175.2149213046
 21
105.3426959797
 31
0.0
  0
LINE
  5
1A9
330
1F
100
AcDbEntity
  8
0
  6
HIDDEN
 62
     7
370
     0
100
AcDbLine
 10
171.2149215802
 20
105.3257412522
 30
0.0
 11
171.2149215802
 21
103.8042851969
 31
0.0
  0
LINE
  5
1AA
330
1F
100
AcDbEntity
  8
0
  6
HIDDEN
 62
     7
370
     0
100
AcDbLine
 10
163.414921559
 20
101.9862438797
 30
0.0
 11
165.3085208438
 21
102.439732781
 31
0.0
  0
LINE
  5
1AB
330
1F
100
AcDbEntity
  8
0
  6
HIDDEN
 62
     7
370
     0
100
AcDbLine
 10
164.3303434305
 20
106.5242360591
 30
0.0
 11
163.414921559
 21
106.3050064503
 31
0.0
  0
LINE
  5
1AC
330
1F
100
AcDbEntity
  8
0
  6
HIDDEN
 62
     7
370
     0
100
AcDbLine
 10
165.337882185
 20
102.9094890936
 30
0.0
 11
172.5449424177
 21
104.6354719683
 31
0.0
  0
LINE
  5
1AD
330
1F
100
AcDbEntity
  8
0
  6
HIDDEN
 62
     7
370
     0
100
AcDbLine
 10
172.5449424177
 20
108.0287858158
 30
0.0
 11
164.5693142839
 21
106.1187414697
 31
0.0
  0
LINE
  5
1AE
330
1F
100
AcDbEntity
  8
0
  6
HIDDEN
 62
     7
370
     0
100
AcDbLine
 10
174.8649218991
 20
105.3862651124
 30
0.0
 11
174.8649218991
 21
112.2195665038
 31
0.0
  0
LINE
  5
1AF
330
1F
100
AcDbEntity
  8
0
  6
HIDDEN
 62
     7
370
     0
100
AcDbLine
 10
171.564921917
 20
105.4085050955
 30
0.0
 11
171.564921917
 21
105.3862651124
 31
0.0
  0
LINE
  5
1B0
330
1F
100
AcDbEntity
  8
0
  6
HIDDEN
 62
     7
370
     0
100
AcDbLine
 10
171.564921917
 20
112.2208538245
 30
0.0
 11
171.564921917
 21
106.7863521411
 31
0.0
  0
ARC
  5
1B1
330
1F
100
AcDbEntity
  8
0
  6
HIDDEN
 62
     7
370
     0
100
AcDbCircle
 10
205.2149216398
 20
123.3801690548
 30
0.0
 40
1.0
100
AcDbArc
 50
270.0
 51
0.0
  0
ARC
  5
1B2
330
1F
100
AcDbEntity
  8
0
  6
HIDDEN
 62
     7
370
     0
100
AcDbCircle
 10
205.2149216398
 20
103.3801690548
 30
0.0
 40
1.0
100
AcDbArc
 50
0.0
 51
90.0
  0
LINE
  5
1B3
330
1F
100
AcDbEntity
  8
0
  6
HIDDEN
 62
     7
370
     0
100
AcDbLine
 10
185.1095987424
 20
122.8801687493
 30
0.0
 11
184.5149213388
 21
122.8801687493
 31
0.0
  0
LINE
  5
1B4
330
1F
100
AcDbEntity
  8
0
  6
HIDDEN
 62
     7
370
     0
100
AcDbLine
 10
184.5149213388
 20
103.8801693603
 30
0.0
 11
185.1095987424
 21
103.8801693603
 31
0.0
  0
ARC
  5
1B5
330
1F
100
AcDbEntity
  8
0
  6
HIDDEN
 62
     7
370
     0
100
AcDbCircle
 10
185.1095996418
 20
122.0801690548
 30
0.0
 40
0.7999999999999982
100
AcDbArc
 50
75.0
 51
90.0
  0
ARC
  5
1B6
330
1F
100
AcDbEntity
  8
0
  6
HIDDEN
 62
     7
370
     0
100
AcDbCircle
 10
185.1095996418
 20
104.6801690548
 30
0.0
 40
0.7999999999999982
100
AcDbArc
 50
270.0
 51
285.0
  0
ARC
  5
1B7
330
1F
100
AcDbEntity
  8
0
  6
HIDDEN
 62
     7
370
     0
100
AcDbCircle
 10
184.5149216398
 20
122.0801690548
 30
0.0
 40
0.799999999999983
100
AcDbArc
 50
90.0
 51
180.0
  0
ARC
  5
1B8
330
1F
100
AcDbEntity
  8
0
  6
HIDDEN
 62
     7
370
     0
100
AcDbCircle
 10
184.5149216398
 20
104.6801690548
 30
0.0
 40
0.7999999999999972
100
AcDbArc
 50
180.0
 51
270.0
  0
LINE
  5
1B9
330
1F
100
AcDbEntity
  8
0
  6
HIDDEN
 62
     7
370
     0
100
AcDbLine
 10
185.3166541025
 20
103.9074282407
 30
0.0
 11
187.0809478625
 21
104.3801694422
 31
0.0
  0
LINE
  5
1BA
330
1F
100
AcDbEntity
  8
0
  6
HIDDEN
 62
     7
370
     0
100
AcDbLine
 10
187.0809478625
 20
122.3801686674
 30
0.0
 11
185.3166541025
 21
122.8529098689
 31
0.0
  0
ARC
  5
1BB
330
1F
100
AcDbEntity
  8
0
  6
HIDDEN
 62
     7
370
     0
100
AcDbCircle
 10
92.7649216398
 20
104.0801690548
 30
0.0
 40
0.7999999999999972
100
AcDbArc
 50
90.0
 51
180.0
  0
ARC
  5
1BC
330
1F
100
AcDbEntity
  8
0
  6
HIDDEN
 62
     7
370
     0
100
AcDbCircle
 10
92.7649216398
 20
122.6801690548
 30
0.0
 40
0.7999999999999972
100
AcDbArc
 50
180.0
 51
270.0
  0
LINE
  5
1BD
330
1F
100
AcDbEntity
  8
0
  6
HIDDEN
 62
     7
370
     0
100
AcDbLine
 10
190.705271618
 20
122.3801686674
 30
0.0
 11
187.0809478625
 21
122.3801686674
 31
0.0
  0
LINE
  5
1BE
330
1F
100
AcDbEntity
  8
0
  6
HIDDEN
 62
     7
370
     0
100
AcDbLine
 10
205.214923428
 20
122.3801686674
 30
0.0
 11
197.6291594967
 21
122.3801686674
 31
0.0
  0
LINE
  5
1BF
330
1F
100
AcDbEntity
  8
0
  6
HIDDEN
 62
     7
370
     0
100
AcDbLine
 10
187.0809478625
 20
104.3801694422
 30
0.0
 11
205.214923428
 21
104.3801694422
 31
0.0
  0
LINE
  5
1C0
330
1F
100
AcDbEntity
  8
0
  6
HIDDEN
 62
     7
370
     0
100
AcDbLine
 10
99.8572951123
 20
104.6551694407
 30
0.0
 11
100.7339825794
 21
104.6551694407
 31
0.0
  0
LINE
  5
1C1
330
1F
100
AcDbEntity
  8
0
  6
HIDDEN
 62
     7
370
     0
100
AcDbLine
 10
100.7339825794
 20
122.1051686688
 30
0.0
 11
99.8572951123
 21
122.1051686688
 31
0.0
  0
ARC
  5
1C2
330
1F
100
AcDbEntity
  8
0
  6
HIDDEN
 62
     7
370
     0
100
AcDbCircle
 10
100.7339815322
 20
105.0551690548
 30
0.0
 40
0.4000000000000057
100
AcDbArc
 50
270.0
 51
330.0
  0
ARC
  5
1C3
330
1F
100
AcDbEntity
  8
0
  6
HIDDEN
 62
     7
370
     0
100
AcDbCircle
 10
100.7339815322
 20
121.7051690548
 30
0.0
 40
0.4000000000000057
100
AcDbArc
 50
30.0
 51
90.0
  0
ARC
  5
1C4
330
1F
100
AcDbEntity
  8
0
  6
HIDDEN
 62
     7
370
     0
100
AcDbCircle
 10
99.8572940706
 20
105.0551690548
 30
0.0
 40
0.3999999999999915
100
AcDbArc
 50
255.0
 51
270.0
  0
ARC
  5
1C5
330
1F
100
AcDbEntity
  8
0
  6
HIDDEN
 62
     7
370
     0
100
AcDbCircle
 10
99.8572940706
 20
121.7051690548
 30
0.0
 40
0.3999999999999915
100
AcDbArc
 50
90.0
 51
105.0
  0
LINE
  5
1C6
330
1F
100
AcDbEntity
  8
0
  6
HIDDEN
 62
     7
370
     0
100
AcDbLine
 10
99.7537655696
 20
122.0915396943
 30
0.0
 11
98.9649204477
 21
121.8801695167
 31
0.0
  0
LINE
  5
1C7
330
1F
100
AcDbEntity
  8
0
  6
HIDDEN
 62
     7
370
     0
100
AcDbLine
 10
98.9649204477
 20
104.8801685928
 30
0.0
 11
99.7537655696
 21
104.6687984153
 31
0.0
  0
LINE
  5
1C8
330
1F
100
AcDbEntity
  8
0
  6
HIDDEN
 62
     7
370
     0
100
AcDbLine
 10
101.0803898737
 20
104.855169101
 30
0.0
 11
101.9608510598
 21
106.3801688387
 31
0.0
  0
LINE
  5
1C9
330
1F
100
AcDbEntity
  8
0
  6
HIDDEN
 62
     7
370
     0
100
AcDbLine
 10
101.9608510598
 20
120.3801692708
 30
0.0
 11
101.0803898737
 21
121.9051690086
 31
0.0
  0
LINE
  5
1CA
330
1F
100
AcDbEntity
  8
0
  6
HIDDEN
 62
     7
370
     0
100
AcDbLine
 10
92.764919804
 20
104.8801685928
 30
0.0
 11
98.9649204477
 21
104.8801685928
 31
0.0
  0
LINE
  5
1CB
330
1F
100
AcDbEntity
  8
0
  6
HIDDEN
 62
     7
370
     0
100
AcDbLine
 10
98.9649204477
 20
121.8801695167
 30
0.0
 11
92.764919804
 21
121.8801695167
 31
0.0
  0
LINE
  5
1CC
330
1F
100
AcDbEntity
  8
0
  6
HIDDEN
 62
     7
370
     0
100
AcDbLine
 10
101.9608510598
 20
106.3801688387
 30
0.0
 11
134.9649207607
 21
106.3801688387
 31
0.0
  0
LINE
  5
1CD
330
1F
100
AcDbEntity
  8
0
  6
HIDDEN
 62
     7
370
     0
100
AcDbLine
 10
134.9649207607
 20
120.3801692708
 30
0.0
 11
101.9608510598
 21
120.3801692708
 31
0.0
  0
LINE
  5
1CE
330
1F
100
AcDbEntity
  8
0
  6
HIDDEN
 62
     7
370
     0
100
AcDbLine
 10
134.9649207607
 20
106.3801688387
 30
0.0
 11
137.1280198857
 21
109.9801690097
 31
0.0
  0
LINE
  5
1CF
330
1F
100
AcDbEntity
  8
0
  6
HIDDEN
 62
     7
370
     0
100
AcDbLine
 10
137.1280198857
 20
116.7801690999
 30
0.0
 11
134.9649207607
 21
120.3801692708
 31
0.0
  0
LINE
  5
1D0
330
1F
100
AcDbEntity
  8
0
  6
HIDDEN
 62
     7
370
     0
100
AcDbLine
 10
189.1649218216
 20
129.3801698147
 30
0.0
 11
190.6649211362
 21
127.8801686375
 31
0.0
  0
LINE
  5
1D1
330
1F
100
AcDbEntity
  8
0
  6
HIDDEN
 62
     7
370
     0
100
AcDbLine
 10
197.6649222836
 20
127.8801686375
 30
0.0
 11
199.1649215981
 21
129.3801698147
 31
0.0
  0
LINE
  5
1D2
330
1F
100
AcDbEntity
  8
0
  6
HIDDEN
 62
     7
370
     0
100
AcDbLine
 10
190.6649211362
 20
127.8801686375
 30
0.0
 11
190.6649211362
 21
122.3646388634
 31
0.0
  0
LINE
  5
1D3
330
1F
100
AcDbEntity
  8
0
  6
HIDDEN
 62
     7
370
     0
100
AcDbLine
 10
197.6649222836
 20
122.3664959206
 30
0.0
 11
197.6649222836
 21
127.8801686375
 31
0.0
  0
LINE
  5
1D4
330
1F
100
AcDbEntity
  8
0
  6
HIDDEN
 62
     7
370
     0
100
AcDbLine
 10
183.7149208352
 20
116.7801690999
 30
0.0
 11
137.1280198857
 21
116.7801690999
 31
0.0
  0
LINE
  5
1D5
330
1F
100
AcDbEntity
  8
0
  6
HIDDEN
 62
     7
370
     0
100
AcDbLine
 10
137.1280198857
 20
109.9801690097
 30
0.0
 11
183.7149208352
 21
109.9801690097
 31
0.0
  0
LINE
  5
1D6
330
1F
100
AcDbEntity
  8
0
  6
HIDDEN
 62
     7
370
     0
100
AcDbLine
 10
174.8649218991
 20
114.5394842851
 30
0.0
 11
174.8649218991
 21
121.3740729972
 31
0.0
  0
LINE
  5
1D7
330
1F
100
AcDbEntity
  8
0
  6
HIDDEN
 62
     7
370
     0
100
AcDbLine
 10
171.564921917
 20
119.9739859684
 30
0.0
 11
171.564921917
 21
114.5407716057
 31
0.0
  0
LINE
  5
1D8
330
1F
100
AcDbEntity
  8
0
  6
HIDDEN
 62
     7
370
     0
100
AcDbLine
 10
171.564921917
 20
121.3740729972
 30
0.0
 11
171.564921917
 21
121.3518330141
 31
0.0
  0
LINE
  5
1D9
330
1F
100
AcDbEntity
  8
0
  6
HIDDEN
 62
     7
370
     0
100
AcDbLine
 10
164.5693142839
 20
120.6415966398
 30
0.0
 11
172.5449424177
 21
118.7315522938
 31
0.0
  0
LINE
  5
1DA
330
1F
100
AcDbEntity
  8
0
  6
HIDDEN
 62
     7
370
     0
100
AcDbLine
 10
172.5449424177
 20
122.1248661413
 30
0.0
 11
165.337882185
 21
123.8508490159
 31
0.0
  0
LINE
  5
1DB
330
1F
100
AcDbEntity
  8
0
  6
HIDDEN
 62
     7
370
     0
100
AcDbLine
 10
175.2149213046
 20
121.4176421299
 30
0.0
 11
175.2149213046
 21
124.2390121578
 31
0.0
  0
LINE
  5
1DC
330
1F
100
AcDbEntity
  8
0
  6
HIDDEN
 62
     7
370
     0
100
AcDbLine
 10
171.2149215802
 20
122.9560529127
 30
0.0
 11
171.2149215802
 21
121.4345968573
 31
0.0
  0
LINE
  5
1DD
330
1F
100
AcDbEntity
  8
0
  6
HIDDEN
 62
     7
370
     0
100
AcDbLine
 10
163.414921559
 20
120.4553316592
 30
0.0
 11
164.3303434305
 21
120.2361020505
 31
0.0
  0
LINE
  5
1DE
330
1F
100
AcDbEntity
  8
0
  6
HIDDEN
 62
     7
370
     0
100
AcDbLine
 10
165.3085208438
 20
124.3206053286
 30
0.0
 11
163.414921559
 21
124.7740942299
 31
0.0
  0
LINE
  5
1DF
330
1F
100
AcDbEntity
  8
0
  6
HIDDEN
 62
     7
370
     0
100
AcDbLine
 10
175.2149213046
 20
121.4176421299
 30
0.0
 11
175.2149213046
 21
121.7425619497
 31
0.0
  0
LINE
  5
1E0
330
1F
100
AcDbEntity
  8
0
  6
HIDDEN
 62
     7
370
     0
100
AcDbLine
 10
171.2149215802
 20
121.7425619497
 30
0.0
 11
171.2149215802
 21
121.4176421299
 31
0.0
  0
LINE
  5
1E1
330
1F
100
AcDbEntity
  8
0
  6
HIDDEN
 62
     7
370
     0
100
AcDbLine
 10
174.7149212226
 20
121.6796390026
 30
0.0
 11
174.7149212226
 21
122.683116725
 31
0.0
  0
LINE
  5
1E2
330
1F
100
AcDbEntity
  8
0
  6
HIDDEN
 62
     7
370
     0
100
AcDbLine
 10
171.7149216622
 20
122.683116725
 30
0.0
 11
171.7149216622
 21
121.6796390026
 31
0.0
  0
LINE
  5
1E3
330
1F
100
AcDbEntity
  8
0
  6
HIDDEN
 62
     7
370
     0
100
AcDbLine
 10
175.2149213046
 20
122.5121072739
 30
0.0
 11
175.2149213046
 21
122.6489148348
 31
0.0
  0
LINE
  5
1E4
330
1F
100
AcDbEntity
  8
0
  6
HIDDEN
 62
     7
370
     0
100
AcDbLine
 10
171.2149215802
 20
122.6489148348
 30
0.0
 11
171.2149215802
 21
122.5121072739
 31
0.0
  0
LINE
  5
1E5
330
1F
100
AcDbEntity
  8
0
  6
HIDDEN
 62
     7
370
     0
100
AcDbLine
 10
171.2149215802
 20
104.2482308357
 30
0.0
 11
171.2149215802
 21
104.1114232748
 31
0.0
  0
LINE
  5
1E6
330
1F
100
AcDbEntity
  8
0
  6
HIDDEN
 62
     7
370
     0
100
AcDbLine
 10
175.2149213046
 20
104.1114232748
 30
0.0
 11
175.2149213046
 21
104.2482308357
 31
0.0
  0
LINE
  5
1E7
330
1F
100
AcDbEntity
  8
0
  6
HIDDEN
 62
     7
370
     0
100
AcDbLine
 10
171.7149216622
 20
105.080699107
 30
0.0
 11
171.7149216622
 21
104.0772213846
 31
0.0
  0
LINE
  5
1E8
330
1F
100
AcDbEntity
  8
0
  6
HIDDEN
 62
     7
370
     0
100
AcDbLine
 10
174.7149212226
 20
104.0772213846
 30
0.0
 11
174.7149212226
 21
105.080699107
 31
0.0
  0
LINE
  5
1E9
330
1F
100
AcDbEntity
  8
0
  6
HIDDEN
 62
     7
370
     0
100
AcDbLine
 10
171.2149215802
 20
105.3426959797
 30
0.0
 11
171.2149215802
 21
105.0177761599
 31
0.0
  0
LINE
  5
1EA
330
1F
100
AcDbEntity
  8
0
  6
HIDDEN
 62
     7
370
     0
100
AcDbLine
 10
175.2149213046
 20
105.0177761599
 30
0.0
 11
175.2149213046
 21
105.3426959797
 31
0.0
  0
ARC
  5
1EB
330
1F
100
AcDbEntity
  8
0
  6
HIDDEN
 62
     7
370
     0
100
AcDbCircle
 10
173.2149216398
 20
104.6586554
 30
0.0
 40
1.500000000000004
100
AcDbArc
 50
71.1182787691
 51
191.5274417158
  0
ARC
  5
1EC
330
1F
100
AcDbEntity
  8
0
  6
HIDDEN
 62
     7
370
     0
100
AcDbCircle
 10
173.2149216398
 20
104.6586554
 30
0.0
 40
1.500000000000019
100
AcDbArc
 50
336.6722113243
 51
71.1182787691
  0
CIRCLE
  5
1ED
330
1F
100
AcDbEntity
  8
0
  6
HIDDEN
 62
     7
370
     0
100
AcDbCircle
 10
173.2149216398
 20
122.1016827096
 30
0.0
 40
1.499999999999992
  0
LINE
  5
1EE
330
1F
100
AcDbEntity
  8
0
  6
HIDDEN
 62
     7
370
     0
100
AcDbLine
 10
166.9753819644
 20
120.1816364437
 30
0.0
 11
167.4724246315
 21
120.6552516914
 31
0.0
  0
LINE
  5
1EF
330
1F
100
AcDbEntity
  8
0
  6
HIDDEN
 62
     7
370
     0
100
AcDbLine
 10
167.9198650583
 20
122.5235960691
 30
0.0
 11
167.6912868336
 21
123.1709863304
 31
0.0
  0
LINE
  5
1F0
330
1F
100
AcDbEntity
  8
0
  6
HIDDEN
 62
     7
370
     0
100
AcDbLine
 10
164.5380791217
 20
120.2891799866
 30
0.0
 11
166.1967255115
 21
119.8919588014
 31
0.0
  0
LINE
  5
1F1
330
1F
100
AcDbEntity
  8
0
  6
HIDDEN
 62
     7
370
     0
100
AcDbLine
 10
167.128323292
 20
123.7819618791
 30
0.0
 11
165.4696769021
 21
124.1791830643
 31
0.0
  0
LINE
  5
1F2
330
1F
100
AcDbEntity
  8
0
  6
HIDDEN
 62
     7
370
     0
100
AcDbLine
 10
165.4696769021
 20
102.5811550452
 30
0.0
 11
167.128323292
 21
102.9783762305
 31
0.0
  0
LINE
  5
1F3
330
1F
100
AcDbEntity
  8
0
  6
HIDDEN
 62
     7
370
     0
100
AcDbLine
 10
166.1967255115
 20
106.8683793082
 30
0.0
 11
164.5380791217
 21
106.4711581229
 31
0.0
  0
LINE
  5
1F4
330
1F
100
AcDbEntity
  8
0
  6
HIDDEN
 62
     7
370
     0
100
AcDbLine
 10
167.6912868336
 20
103.5893517791
 30
0.0
 11
167.9198650583
 21
104.2367420404
 31
0.0
  0
LINE
  5
1F5
330
1F
100
AcDbEntity
  8
0
  6
HIDDEN
 62
     7
370
     0
100
AcDbLine
 10
167.4724246315
 20
106.1050864182
 30
0.0
 11
166.9753819644
 21
106.5787016659
 31
0.0
  0
DIMENSION
  5
1F6
330
1F
100
AcDbEntity
  8
VERMASSUNG
100
AcDbDimension
  2
_D
 10
88.512175518
 20
145.1301690548
 30
0.0
 11
88.512175518
 21
113.3801690548
 31
0.0
 70
   160
  1
ISO 40 %%c<> 
 71
     2
 42
-1.0
  3
SLDDIMSTYLE0
100
AcDbAlignedDimension
 13
178.6649216398
 23
81.6301690548
 33
0.0
 14
178.6649216398
 24
145.1301690548
 34
0.0
 50
90.0
100
AcDbRotatedDimension
  0
DIMENSION
  5
204
330
1F
100
AcDbEntity
  8
VERMASSUNG
100
AcDbDimension
  2
_D_1
 10
219.1034725885
 20
97.3801690548
 30
0.0
 11
219.1034725885
 21
113.3801690548
 31
0.0
 70
   160
  1
WH %%c<>
 71
     2
 42
-1.0
  3
SLDDIMSTYLE0
100
AcDbAlignedDimension
 13
205.9149216398
 23
129.3801690548
 33
0.0
 14
205.9149216398
 24
97.3801690548
 34
0.0
 50
90.0
100
AcDbRotatedDimension
  0
DIMENSION
  5
210
330
1F
100
AcDbEntity
  8
VERMASSUNG
100
AcDbDimension
  2
_D_2
 10
213.1034725885
 20
104.3801690548
 30
0.0
 11
213.1034725885
 21
113.3801690548
 31
0.0
 70
   160
  1
%%c<>
 71
     2
 42
-1.0
  3
SLDDIMSTYLE0
100
AcDbAlignedDimension
 13
205.2149216398
 23
122.3801690548
 33
0.0
 14
205.2149216398
 24
104.3801690548
 34
0.0
 50
90.0
100
AcDbRotatedDimension
  0
DIMENSION
  5
21B
330
1F
100
AcDbEntity
  8
VERMASSUNG
100
AcDbDimension
  2
_D_3
 10
206.2149216398
 20
156.9257845319
 30
0.0
 11
183.2149216398
 21
156.9257845319
 31
0.0
 70
   160
  1
<>
 71
     2
 42
-1.0
  3
SLDDIMSTYLE0
100
AcDbAlignedDimension
 13
160.2149216398
 23
135.6051690548
 33
0.0
 14
206.2149216398
 24
129.0801690548
 34
0.0
100
AcDbRotatedDimension
  0
DIMENSION
  5
225
330
1F
100
AcDbEntity
  8
VERMASSUNG
100
AcDbDimension
  2
_D_4
 10
206.2149216398
 20
150.9257845319
 30
0.0
 11
192.7399216398
 21
150.9257845319
 31
0.0
 70
   160
  1
<>
 71
     2
 42
-1.0
  3
SLDDIMSTYLE0
100
AcDbAlignedDimension
 13
179.2649216398
 23
138.5515814109
 33
0.0
 14
206.2149216398
 24
129.0801690548
 34
0.0
100
AcDbRotatedDimension
  0
DIMENSION
  5
22F
330
1F
100
AcDbEntity
  8
VERMASSUNG
100
AcDbDimension
  2
_D_5
 10
206.2149216398
 20
162.9257845319
 30
0.0
 11
149.0899216398
 21
162.9257845319
 31
0.0
 70
   160
  1
<>
 71
     2
 42
-1.0
  3
SLDDIMSTYLE0
100
AcDbAlignedDimension
 13
91.9649216398
 23
124.7872996518
 33
0.0
 14
206.2149216398
 24
129.0801690548
 34
0.0
100
AcDbRotatedDimension
  0
LINE
  5
239
330
1F
100
AcDbEntity
  8
VERMASSUNG
  6
CENTERX2
370
     0
100
AcDbLine
 10
89.9649216398
 20
113.3801690548
 30
0.0
 11
208.1091463027
 21
113.3801690548
 31
0.0
  0
LINE
  5
23A
330
1F
100
AcDbEntity
  8
0
  6
Continuous
 62
     7
370
    15
100
AcDbLine
 10
265.3786002312
 20
46.2074467561
 30
0.0
 11
265.3078790542
 21
46.2482863976
 31
0.0
  0
LINE
  5
23B
330
1F
100
AcDbEntity
  8
0
  6
Continuous
 62
     7
370
    15
100
AcDbLine
 10
262.9740467746
 20
46.2482868157
 30
0.0
 11
262.903324726
 21
46.2074465761
 31
0.0
  0
LINE
  5
23C
330
1F
100
AcDbEntity
  8
0
  6
Continuous
 62
     7
370
    15
100
AcDbLine
 10
266.9271194857
 20
39.5856393123
 30
0.0
 11
267.8534071172
 21
39.7743633249
 31
0.0
  0
LINE
  5
23D
330
1F
100
AcDbEntity
  8
0
  6
Continuous
 62
     7
370
    15
100
AcDbLine
 10
268.2961341474
 20
30.724944828
 30
0.0
 11
268.4021834042
 21
30.7861849055
 31
0.0
  0
LINE
  5
23E
330
1F
100
AcDbEntity
  8
0
  6
Continuous
 62
     7
370
    15
100
AcDbLine
 10
273.9520692676
 20
40.3999109491
 30
0.0
 11
273.9520692676
 21
40.5223727182
 31
0.0
  0
LINE
  5
23F
330
1F
100
AcDbEntity
  8
0
  6
Continuous
 62
     7
370
    15
100
AcDbLine
 10
272.2948897578
 20
44.1851310005
 30
0.0
 11
263.9333527741
 21
49.0121435553
 31
0.0
  0
LINE
  5
240
330
1F
100
AcDbEntity
  8
0
  6
Continuous
 62
     7
370
    15
100
AcDbLine
 10
255.9340027574
 20
35.1553617859
 30
0.0
 11
264.2955397411
 21
30.3283492311
 31
0.0
  0
SPLINE
  5
241
330
1F
100
AcDbEntity
  8
0
  6
Continuous
 62
     7
370
    15
100
AcDbSpline
210
0.0
220
0.0
230
1.0
 70
     8
 71
     3
 72
    32
 73
    28
 74
     0
 42
0.000000001
 43
0.00000001
 40
0.0
 40
0.0
 40
0.0
 40
0.0
 40
0.0092352719042493
 40
0.0506640933174979
 40
0.0922010394580964
 40
0.1339019750673582
 40
0.1757527334723372
 40
0.2177206586482215
 40
0.2597682565224995
 40
0.3018621245532161
 40
0.343976861283291
 40
0.3860929830845611
 40
0.4282001937808575
 40
0.4702943513024565
 40
0.5123742476181792
 40
0.5544404424072626
 40
0.596494588674676
 40
0.6385389834944039
 40
0.6805762152070052
 40
0.7226091328696979
 40
0.7646405852592119
 40
0.8066734175238972
 40
0.8487096860516512
 40
0.8907524890956424
 40
0.9328047517132863
 40
0.97486941259325
 40
1.0
 40
1.0
 40
1.0
 40
1.0
 10
259.9195188942062
 20
60.14900530497987
 30
0.0
 10
259.8646784623218
 20
60.16301677414417
 30
0.0
 10
259.5638274654726
 20
60.23988277101085
 30
0.0
 10
258.9895795627357
 20
60.31583374025654
 30
0.0
 10
258.1865910318976
 20
60.33935988874553
 30
0.0
 10
257.3522044004491
 20
60.26702811390973
 30
0.0
 10
256.4932628811607
 20
60.10349056995582
 30
0.0
 10
255.6148025151068
 20
59.84837798719331
 30
0.0
 10
254.7227877970145
 20
59.50361570296469
 30
0.0
 10
253.8230927682966
 20
59.07143158176024
 30
0.0
 10
252.9216281056921
 20
58.55480696877183
 30
0.0
 10
252.0242009843233
 20
57.95725549196138
 30
0.0
 10
251.1364983717843
 20
57.2827829063636
 30
0.0
 10
250.2640576457953
 20
56.5358215371005
 30
0.0
 10
249.4122817423353
 20
55.72120481410643
 30
0.0
 10
248.5864354753401
 20
54.84415022710292
 30
0.0
 10
247.7916227303102
 20
53.91023969361245
 30
0.0
 10
247.0327644630542
 20
52.92538227933049
 30
0.0
 10
246.3145704502828
 20
51.89578914554125
 30
0.0
 10
245.6415051404574
 20
50.82793692456274
 30
0.0
 10
245.017783361115
 20
49.72853065545948
 30
0.0
 10
244.4472775676061
 20
48.60445804273982
 30
0.0
 10
243.9337390382416
 20
47.46279642941388
 30
0.0
 10
243.4798356024438
 20
46.31054569392368
 30
0.0
 10
243.0906625366619
 20
45.15540283570872
 30
0.0
 10
242.8048634706484
 20
44.15746728079739
 30
0.0
 10
242.6681847839091
 20
43.55093765541125
 30
0.0
 10
242.6170678408019
 20
43.32409950607497
 30
0.0
  0
SPLINE
  5
242
330
1F
100
AcDbEntity
  8
0
  6
Continuous
 62
     7
370
    15
100
AcDbSpline
210
0.0
220
0.0
230
1.0
 70
     8
 71
     3
 72
    24
 73
    20
 74
     0
 42
0.000000001
 43
0.00000001
 40
0.0
 40
0.0
 40
0.0
 40
0.0
 40
0.0387240460769426
 40
0.1012199077329706
 40
0.1606352491525797
 40
0.2238305452355573
 40
0.2853603901884346
 40
0.3463572994386427
 40
0.4073101427228216
 40
0.4684165684203895
 40
0.5297400854042331
 40
0.591254456218143
 40
0.6528980435420257
 40
0.7145968261982139
 40
0.7762638188352058
 40
0.8378020316451273
 40
0.8991328030872262
 40
0.9601857207845446
 40
0.9999999999999999
 40
0.9999999999999999
 40
0.9999999999999999
 40
0.9999999999999999
 10
265.7869833546633
 20
33.52188748646079
 30
0.0
 10
265.732534220738
 20
33.55271960797487
 30
0.0
 10
265.5902108617299
 20
33.63331099268365
 30
0.0
 10
265.4063833274105
 20
33.84434335785076
 30
0.0
 10
265.2242256843443
 20
34.15406051815577
 30
0.0
 10
265.0916046343252
 20
34.5444819869191
 30
0.0
 10
265.0160140168026
 20
35.00996797903247
 30
0.0
 10
265.0048485097031
 20
35.52809450167325
 30
0.0
 10
265.0595051436496
 20
36.08875490428029
 30
0.0
 10
265.1804187326503
 20
36.68009963577578
 30
0.0
 10
265.3662435718567
 20
37.28880827089827
 30
0.0
 10
265.6137790458632
 20
37.90079256567542
 30
0.0
 10
265.9179439924533
 20
38.50165293273361
 30
0.0
 10
266.2719527876245
 20
39.07723704687056
 30
0.0
 10
266.6674210735484
 20
39.61387318691606
 30
0.0
 10
267.0946871381173
 20
40.09951823384854
 30
0.0
 10
267.5426646264434
 20
40.52156998770588
 30
0.0
 10
267.9481913487129
 20
40.83632829753971
 30
0.0
 10
268.198791255353
 20
40.98902001782932
 30
0.0
 10
268.2977079989497
 20
41.04929046225096
 30
0.0
  0
SPLINE
  5
243
330
1F
100
AcDbEntity
  8
0
  6
Continuous
 62
     7
370
    15
100
AcDbSpline
210
0.0
220
0.0
230
1.0
 70
     8
 71
     3
 72
    13
 73
     9
 74
     0
 42
0.000000001
 43
0.00000001
 40
0.0
 40
0.0
 40
0.0
 40
0.0
 40
0.0974611760546198
 40
0.2835177956564205
 40
0.4694061044271806
 40
0.6564718464298921
 40
0.8480227237832588
 40
1.0
 40
1.0
 40
1.0
 40
1.0
 10
268.2977079989497
 20
41.04929046225096
 30
0.0
 10
268.3757407014168
 20
41.09231291766562
 30
0.0
 10
268.6027404226204
 20
41.21746666828373
 30
0.0
 10
268.9674863780224
 20
41.36322443167898
 30
0.0
 10
269.3729630798146
 20
41.45866025509947
 30
0.0
 10
269.7388454129982
 20
41.47164871431661
 30
0.0
 10
270.0407671301303
 20
41.42347663440052
 30
0.0
 10
270.2004635918012
 20
41.3395808309079
 30
0.0
 10
270.2711135021912
 20
41.30246522460805
 30
0.0
  0
LINE
  5
244
330
1F
100
AcDbEntity
  8
0
  6
Continuous
 62
     7
370
    15
100
AcDbLine
 10
252.3849361702
 20
58.1835326991
 30
0.0
 11
231.0730927903
 21
65.8634766084
 31
0.0
  0
LINE
  5
245
330
1F
100
AcDbEntity
  8
0
  6
Continuous
 62
     7
370
    15
100
AcDbLine
 10
224.9083107957
 20
55.1846039631
 30
0.0
 11
245.2045488933
 21
38.0466288756
 31
0.0
  0
SPLINE
  5
246
330
1F
100
AcDbEntity
  8
0
  6
Continuous
 62
     7
370
    15
100
AcDbSpline
210
0.0
220
0.0
230
1.0
 70
     8
 71
     3
 72
    18
 73
    14
 74
     0
 42
0.000000001
 43
0.00000001
 40
0.0
 40
0.0
 40
0.0
 40
0.0
 40
0.0208078693697386
 40
0.12549829314525
 40
0.2305939711434795
 40
0.3360349563284242
 40
0.4417301874184673
 40
0.5475877340166216
 40
0.6535316406160682
 40
0.7595065728625569
 40
0.8654696504313704
 40
0.9714047526711589
 40
1.0
 40
1.0
 40
1.0
 40
1.0
 10
253.3402833951809
 20
28.31895465295342
 30
0.0
 10
253.3922384022757
 20
28.31362736297707
 30
0.0
 10
253.7055941137562
 20
28.28149693254996
 30
0.0
 10
254.3118405960368
 20
28.31280087700782
 30
0.0
 10
255.155034718656
 20
28.41753660717577
 30
0.0
 10
256.0236872324577
 20
28.62229828518057
 30
0.0
 10
256.9085026300935
 20
28.91562079685299
 30
0.0
 10
257.8046032843074
 20
29.29823568654512
 30
0.0
 10
258.7056806842087
 20
29.76729213444505
 30
0.0
 10
259.6064452985917
 20
30.31795654486952
 30
0.0
 10
260.4991970460071
 20
30.95321809376474
 30
0.0
 10
261.1698961488157
 20
31.47567837537131
 30
0.0
 10
261.5347474534472
 20
31.80693999023455
 30
0.0
 10
261.6122988262611
 20
31.87735166936821
 30
0.0
  0
LINE
  5
247
330
1F
100
AcDbEntity
  8
0
  6
Continuous
 62
     7
370
    15
100
AcDbLine
 10
249.3705705156
 20
29.8513304634
 30
0.0
 11
250.7240302862
 21
29.069994769
 31
0.0
  0
LINE
  5
248
330
1F
100
AcDbEntity
  8
0
  6
Continuous
 62
     7
370
    15
100
AcDbLine
 10
245.5444733516
 20
32.0600893414
 30
0.0
 11
246.880255812
 21
31.288958541
 31
0.0
  0
SPLINE
  5
249
330
1F
100
AcDbEntity
  8
0
  6
Continuous
 62
     7
370
    15
100
AcDbSpline
210
0.0
220
0.0
230
1.0
 70
     8
 71
     3
 72
    11
 73
     7
 74
     0
 42
0.000000001
 43
0.00000001
 40
0.0
 40
0.0
 40
0.0
 40
0.0
 40
0.1180302128941085
 40
0.4827379409526625
 40
0.846884106566007
 40
1.0
 40
1.0
 40
1.0
 40
1.0
 10
242.6244860154121
 20
36.05723867820372
 30
0.0
 10
242.6517959127753
 20
35.96435075737141
 30
0.0
 10
242.7634920903683
 20
35.58444359171889
 30
0.0
 10
243.012742194567
 20
34.96536444613303
 30
0.0
 10
243.3093273634758
 20
34.35591473349301
 30
0.0
 10
243.5251672872266
 20
34.04477097155451
 30
0.0
 10
243.5890585434782
 20
33.95266861403119
 30
0.0
  0
SPLINE
  5
24A
330
1F
100
AcDbEntity
  8
0
  6
Continuous
 62
     7
370
    15
100
AcDbSpline
210
0.0
220
0.0
230
1.0
 70
     8
 71
     3
 72
    12
 73
     8
 74
     0
 42
0.000000001
 43
0.00000001
 40
0.0
 40
0.0
 40
0.0
 40
0.0
 40
0.0933264521415071
 40
0.3301955902004695
 40
0.5666967032499655
 40
0.8024483910107686
 40
1.0
 40
1.0
 40
1.0
 40
1.0
 10
269.531542501127
 20
52.52481591573398
 30
0.0
 10
269.4981891419816
 20
52.63779451792649
 30
0.0
 10
269.3801825976905
 20
53.03752080532909
 30
0.0
 10
269.1265126510147
 20
53.67889446034462
 30
0.0
 10
268.7445491303641
 20
54.41644608806476
 30
0.0
 10
268.3258274932856
 20
55.05190269374852
 30
0.0
 10
268.0047375195575
 20
55.40075746655685
 30
0.0
 10
267.8583462010144
 20
55.5598073103701
 30
0.0
  0
SPLINE
  5
24B
330
1F
100
AcDbEntity
  8
0
  6
Continuous
 62
     7
370
    15
100
AcDbSpline
210
0.0
220
0.0
230
1.0
 70
     8
 71
     3
 72
    26
 73
    22
 74
     0
 42
0.000000001
 43
0.00000001
 40
0.0
 40
0.0
 40
0.0
 40
0.0
 40
0.0073241667259556
 40
0.0609613944674346
 40
0.1150337922428609
 40
0.1701275362067594
 40
0.2263845539547432
 40
0.2835519922205795
 40
0.3412214380077846
 40
0.3990421752259526
 40
0.456800975556303
 40
0.5144522763549512
 40
0.5720037689529229
 40
0.6294873250829268
 40
0.6869448094022034
 40
0.7444215668897094
 40
0.8019502894913987
 40
0.8595796749797635
 40
0.9173570505578378
 40
0.9753217851374012
 40
0.9999999999999999
 40
0.9999999999999999
 40
0.9999999999999999
 40
0.9999999999999999
 10
231.1295945920241
 20
65.83600859429725
 30
0.0
 10
231.1095419954951
 20
65.84586062786862
 30
0.0
 10
230.9426377874343
 20
65.92786227082988
 30
0.0
 10
230.5877122686316
 20
65.99571807094154
 30
0.0
 10
230.0747357387347
 20
66.03206097056112
 30
0.0
 10
229.5318035048722
 20
65.96779022433464
 30
0.0
 10
228.9699970765657
 20
65.8139801952436
 30
0.0
 10
228.3959497135242
 20
65.56840657806312
 30
0.0
 10
227.8202462102877
 20
65.23558723080025
 30
0.0
 10
227.2534404189063
 20
64.82162764462814
 30
0.0
 10
226.7053792463634
 20
64.3346276623723
 30
0.0
 10
226.1847871473304
 20
63.78341130834465
 30
0.0
 10
225.6994625290479
 20
63.17726166090276
 30
0.0
 10
225.2566562258737
 20
62.52595923771388
 30
0.0
 10
224.8630526209033
 20
61.83976868552129
 30
0.0
 10
224.5247444386606
 20
61.12935886734286
 30
0.0
 10
224.2472533878988
 20
60.40567391418875
 30
0.0
 10
224.034967846105
 20
59.6795129475356
 30
0.0
 10
223.8930113323838
 20
58.96225794775658
 30
0.0
 10
223.8344260221591
 20
58.39703617463541
 30
0.0
 10
223.8297328331072
 20
58.07731692497062
 30
0.0
 10
223.8283313883549
 20
57.98184477166299
 30
0.0
  0
SPLINE
  5
24C
330
1F
100
AcDbEntity
  8
0
  6
Continuous
 62
     7
370
    15
100
AcDbSpline
210
0.0
220
0.0
230
1.0
 70
     8
 71
     3
 72
    13
 73
     9
 74
     0
 42
0.000000001
 43
0.00000001
 40
0.0
 40
0.0
 40
0.0
 40
0.0
 40
0.1025645524583161
 40
0.296461134912834
 40
0.4903842566651621
 40
0.6827275968552563
 40
0.8717653131650821
 40
1.0
 40
1.0
 40
1.0
 40
1.0
 10
223.8283313883549
 20
57.98184477166299
 30
0.0
 10
223.83048437443
 20
57.86446601502855
 30
0.0
 10
223.8367075449114
 20
57.52518466906209
 30
0.0
 10
223.9065416237794
 20
56.99447519973302
 30
0.0
 10
224.0632901224958
 20
56.41398938992701
 30
0.0
 10
224.3011522931843
 20
55.9006382557792
 30
0.0
 10
224.5723143543213
 20
55.49582071594955
 30
0.0
 10
224.7916616097977
 20
55.3017892764951
 30
0.0
 10
224.8803170564591
 20
55.22336593860643
 30
0.0
  0
LWPOLYLINE
  5
24D
330
1F
100
AcDbEntity
  8
0
  6
Continuous
 62
     7
370
    15
100
AcDbPolyline
 90
        7
 70
   128
 43
0.0
 10
262.722327105
 20
46.0612812188
 10
262.552585303
 20
45.8327441451
 10
262.4910886882
 20
45.5866327193
 10
262.5420285876
 20
45.3397187079
 10
262.7019332369
 20
45.1088292275
 10
262.959905371
 20
44.9096989297
 10
263.1266969964
 20
44.8235498729
  0
LWPOLYLINE
  5
24E
330
1F
100
AcDbEntity
  8
0
  6
Continuous
 62
     7
370
    15
100
AcDbPolyline
 90
       15
 70
   128
 43
0.0
 10
265.3151249648
 20
44.9056423454
 10
265.559598658
 20
45.088437557
 10
265.72934046
 20
45.3169746307
 10
265.7908364163
 20
45.5630864367
 10
265.7398965168
 20
45.8100004481
 10
265.5799931846
 20
46.0408891682
 10
265.3220210506
 20
46.2400194659
 10
264.9835620184
 20
46.3938200926
 10
264.5876805393
 20
46.4918102936
 10
264.1613564409
 20
46.5273115812
 10
263.733643184
 20
46.4979044369
 10
263.3336874958
 20
46.4055936141
 10
262.9887466222
 20
46.256669451
 10
262.722327105
 20
46.0612812188
 10
262.722327105
 20
46.0612812188
  0
LWPOLYLINE
  5
24F
330
1F
100
AcDbEntity
  8
0
  6
Continuous
 62
     7
370
    15
100
AcDbPolyline
 90
       21
 70
   128
 43
0.0
 10
263.1092272718
 20
45.9286210187
 10
262.9703594769
 20
45.7272532206
 10
262.9460775826
 20
45.5109685989
 10
263.0387598196
 20
45.3009377917
 10
263.2393323911
 20
45.1177209204
 10
263.5281633446
 20
44.9792516804
 10
263.8769803764
 20
44.8990840703
 10
264.2516370072
 20
44.8850665262
 10
264.6154601898
 20
44.9385706883
 10
264.9328359298
 20
45.0543593929
 10
265.1726978326
 20
45.2210981373
 10
265.3115669446
 20
45.4224651751
 10
265.3358488389
 20
45.6387497968
 10
265.2431666019
 20
45.8487806039
 10
265.0425927133
 20
46.0319982356
 10
264.7537617599
 20
46.1704674755
 10
264.4049460451
 20
46.2506343253
 10
264.0302894144
 20
46.2646518695
 10
263.6664662317
 20
46.2111477074
 10
263.3490891746
 20
46.0953597631
 10
263.1092272718
 20
45.9286210187
  0
SPLINE
  5
250
330
1F
100
AcDbEntity
  8
0
  6
Continuous
 62
     7
370
    15
100
AcDbSpline
210
0.0
220
0.0
230
1.0
 70
     8
 71
     3
 72
     9
 73
     5
 74
     0
 42
0.000000001
 43
0.00000001
 40
0.0
 40
0.0
 40
0.0
 40
0.0
 40
0.7011730242798418
 40
1.0
 40
1.0
 40
1.0
 40
1.0
 10
262.986350625078
 20
45.5461098898185
 30
0.0
 10
263.0675849271002
 20
45.40105197474325
 30
0.0
 10
263.1834397863279
 20
45.19417305890897
 30
0.0
 10
263.3059855945676
 20
45.10288304141562
 30
0.0
 10
263.342605587831
 20
45.07560312157464
 30
0.0
  0
SPLINE
  5
251
330
1F
100
AcDbEntity
  8
0
  6
Continuous
 62
     7
370
    15
100
AcDbSpline
210
0.0
220
0.0
230
1.0
 70
     8
 71
     3
 72
    10
 73
     6
 74
     0
 42
0.000000001
 43
0.00000001
 40
0.0
 40
0.0
 40
0.0
 40
0.0
 40
0.3290770932447736
 40
0.8203672361051689
 40
1.0
 40
1.0
 40
1.0
 40
1.0
 10
264.8704156677636
 20
45.02879357477307
 30
0.0
 10
264.9177644846137
 20
45.05661541321317
 30
0.0
 10
265.0358019257167
 20
45.12597340005878
 30
0.0
 10
265.1832482475721
 20
45.33606620093899
 30
0.0
 10
265.2718528247906
 20
45.48875150396541
 30
0.0
 10
265.2955757964453
 20
45.5296314362387
 30
0.0
  0
SPLINE
  5
252
330
1F
100
AcDbEntity
  8
0
  6
Continuous
 62
     7
370
    15
100
AcDbSpline
210
0.0
220
0.0
230
1.0
 70
     8
 71
     3
 72
    10
 73
     6
 74
     0
 42
0.000000001
 43
0.00000001
 40
0.0
 40
0.0
 40
0.0
 40
0.0
 40
0.439123358559076
 40
0.7513726279942616
 40
1.0
 40
1.0
 40
1.0
 40
1.0
 10
265.2955757964453
 20
45.5296314362387
 30
0.0
 10
265.2146978667363
 20
45.55693409917128
 30
0.0
 10
265.0763097318132
 20
45.60365097997263
 30
0.0
 10
264.8751402766945
 20
45.85320268140304
 30
0.0
 10
264.775013752148
 20
46.0318176413589
 30
0.0
 10
264.7306293138835
 20
46.11099470956528
 30
0.0
  0
SPLINE
  5
253
330
1F
100
AcDbEntity
  8
0
  6
Continuous
 62
     7
370
    15
100
AcDbSpline
210
0.0
220
0.0
230
1.0
 70
     8
 71
     3
 72
    10
 73
     6
 74
     0
 42
0.000000001
 43
0.00000001
 40
0.0
 40
0.0
 40
0.0
 40
0.0
 40
0.4391224424712704
 40
0.7513716587587494
 40
1.0
 40
1.0
 40
1.0
 40
1.0
 10
264.7306293138835
 20
46.11099470956528
 30
0.0
 10
264.5653352226551
 20
46.05624895999885
 30
0.0
 10
264.2825045506211
 20
45.9625748484453
 30
0.0
 10
263.8713636977823
 20
46.00804563284595
 30
0.0
 10
263.6667284207701
 20
46.08508403061374
 30
0.0
 10
263.5760167693589
 20
46.11923396011579
 30
0.0
  0
SPLINE
  5
254
330
1F
100
AcDbEntity
  8
0
  6
Continuous
 62
     7
370
    15
100
AcDbSpline
210
0.0
220
0.0
230
1.0
 70
     8
 71
     3
 72
    11
 73
     7
 74
     0
 42
0.000000001
 43
0.00000001
 40
0.0
 40
0.0
 40
0.0
 40
0.0
 40
0.1285561556927784
 40
0.4801537030894348
 40
0.8150691330760832
 40
1.0
 40
1.0
 40
1.0
 40
1.0
 10
263.5760167693589
 20
46.11923396011579
 30
0.0
 10
263.5522690188037
 20
46.07815588690013
 30
0.0
 10
263.4635718241213
 20
45.9247304140864
 30
0.0
 10
263.2972478232668
 20
45.69827481555675
 30
0.0
 10
263.1171504369496
 20
45.5761444567922
 30
0.0
 10
263.0206720018821
 20
45.55399084679775
 30
0.0
 10
262.986350625078
 20
45.5461098898185
 30
0.0
  0
LINE
  5
255
330
1F
100
AcDbEntity
  8
0
  6
Continuous
 62
     7
370
    15
100
AcDbLine
 10
264.7306293139
 20
44.9715193948
 30
0.0
 11
264.7306293139
 21
46.1109947096
 31
0.0
  0
LINE
  5
256
330
1F
100
AcDbEntity
  8
0
  6
Continuous
 62
     7
370
    15
100
AcDbLine
 10
263.5760167694
 20
44.963687783
 30
0.0
 11
263.5760167694
 21
46.1192339601
 31
0.0
  0
ARC
  5
257
330
1F
100
AcDbEntity
  8
0
  6
Continuous
 62
     7
370
    15
100
AcDbCircle
 10
266.8036094784
 20
40.1223144974
 30
0.0
 40
0.5502675584746282
100
AcDbArc
 50
257.0933612073
 51
320.5497017699
  0
SPLINE
  5
258
330
1F
100
AcDbEntity
  8
0
  6
Continuous
 62
     7
370
    15
100
AcDbSpline
210
0.0
220
0.0
230
1.0
 70
     8
 71
     3
 72
    12
 73
     8
 74
     0
 42
0.000000001
 43
0.00000001
 40
0.0
 40
0.0
 40
0.0
 40
0.0
 40
0.250000000000001
 40
0.250000000000001
 40
0.500000000000002
 40
0.500000000000002
 40
1.0
 40
1.0
 40
1.0
 40
1.0
 10
247.8958590155748
 20
40.27789588585419
 30
0.0
 10
247.9296381818471
 20
40.25839558824067
 30
0.0
 10
247.9679628783226
 20
40.23155583966351
 30
0.0
 10
248.0421860024352
 20
40.17315533634086
 30
0.0
 10
248.0775693669299
 20
40.14216567785996
 30
0.0
 10
248.1733793253149
 20
40.05142632483921
 30
0.0
 10
248.2223830834691
 20
39.99553219612167
 30
0.0
 10
248.2561921410839
 20
39.94827233235501
 30
0.0
  0
SPLINE
  5
259
330
1F
100
AcDbEntity
  8
0
  6
Continuous
 62
     7
370
    15
100
AcDbSpline
210
0.0
220
0.0
230
1.0
 70
     8
 71
     3
 72
    12
 73
     8
 74
     0
 42
0.000000001
 43
0.00000001
 40
0.0
 40
0.0
 40
0.0
 40
0.0
 40
0.5000000000000011
 40
0.5000000000000011
 40
0.7500000000000006
 40
0.7500000000000006
 40
1.0
 40
1.0
 40
1.0
 40
1.0
 10
265.360722054275
 20
56.71807385667655
 30
0.0
 10
265.360722054275
 20
56.78949288840123
 30
0.0
 10
265.3431575236139
 20
56.87202264759443
 30
0.0
 10
265.288031989124
 20
56.99096736362731
 30
0.0
 10
265.2647395153672
 20
57.02960025085189
 30
0.0
 10
265.2107711263098
 20
57.09616276212895
 30
0.0
 10
265.1799236255566
 20
57.12408380038161
 30
0.0
 10
265.148590019919
 20
57.14217230589156
 30
0.0
  0
LWPOLYLINE
  5
25A
330
1F
100
AcDbEntity
  8
0
  6
Continuous
 62
     7
370
    15
100
AcDbPolyline
 90
       12
 70
   128
 43
0.0
 10
253.8595654961
 20
53.9454360244
 10
254.7724030145
 20
54.7641362022
 10
255.7032882745
 20
55.5033531964
 10
256.6455938899
 20
56.1578253445
 10
257.5926113501
 20
56.7228920662
 10
258.5375984763
 20
57.194531906
 10
259.4738274957
 20
57.5693849619
 10
260.3946332381
 20
57.8447852727
 10
261.2934598929
 20
58.0187703185
 10
262.1639085478
 20
58.0901016204
 10
262.9997826281
 20
58.0582727213
 10
263.7951298795
 20
57.9235083262
  0
LINE
  5
25B
330
1F
100
AcDbEntity
  8
0
  6
Continuous
 62
     7
370
    15
100
AcDbLine
 10
265.1485896501
 20
57.1421726318
 30
0.0
 11
263.7951298795
 21
57.9235083262
 31
0.0
  0
LINE
  5
25C
330
1F
100
AcDbEntity
  8
0
  6
Continuous
 62
     7
370
    15
100
AcDbLine
 10
246.5423991011
 20
41.0592317698
 30
0.0
 11
247.8958588717
 21
40.2778960755
 31
0.0
  0
ARC
  5
25D
330
1F
100
AcDbEntity
  8
0
  6
Continuous
 62
     7
370
    15
100
AcDbCircle
 10
272.1583465068
 20
35.0477182579
 30
0.0
 40
26.31188051429228
100
AcDbArc
 50
136.4697995832
 51
166.7929036469
  0
SPLINE
  5
25E
330
1F
100
AcDbEntity
  8
0
  6
Continuous
 62
     7
370
    15
100
AcDbSpline
210
0.0
220
0.0
230
1.0
 70
     8
 71
     3
 72
    12
 73
     8
 74
     0
 42
0.000000001
 43
0.00000001
 40
0.0
 40
0.0
 40
0.0
 40
0.0
 40
0.2499999999999995
 40
0.2499999999999995
 40
0.499999999999999
 40
0.499999999999999
 40
1.0
 40
1.0
 40
1.0
 40
1.0
 10
253.0819318912557
 20
53.1696792489887
 30
0.0
 10
253.1812465739756
 20
53.20302733328452
 30
0.0
 10
253.2750717136671
 20
53.24690953478903
 30
0.0
 10
253.4520648185727
 20
53.35503980358476
 30
0.0
 10
253.5318763864937
 20
53.41744529376594
 30
0.0
 10
253.7400602477141
 20
53.62484287155572
 30
0.0
 10
253.8317700813001
 20
53.7862534093495
 30
0.0
 10
253.8595654074739
 20
53.94543641688859
 30
0.0
  0
LINE
  5
25F
330
1F
100
AcDbEntity
  8
0
  6
Continuous
 62
     7
370
    15
100
AcDbLine
 10
269.3779857269
 20
52.0470248625
 30
0.0
 11
269.4833495555
 21
52.2295199861
 31
0.0
  0
LINE
  5
260
330
1F
100
AcDbEntity
  8
0
  6
Continuous
 62
     7
370
    15
100
AcDbLine
 10
268.2068268812
 20
51.370929252
 30
0.0
 11
269.3779857269
 21
52.0470248625
 31
0.0
  0
ARC
  5
261
330
1F
100
AcDbEntity
  8
0
  6
Continuous
 62
     7
370
    15
100
AcDbCircle
 10
268.8693147089
 20
50.3352448323
 30
0.0
 40
1.229443914554636
100
AcDbArc
 50
122.6054968531
 51
177.3945222572
  0
LINE
  5
262
330
1F
100
AcDbEntity
  8
0
  6
Continuous
 62
     7
370
    15
100
AcDbLine
 10
267.6411417587
 20
46.8716828185
 30
0.0
 11
267.6411417587
 21
50.3911335013
 31
0.0
  0
LINE
  5
263
330
1F
100
AcDbEntity
  8
0
  6
Continuous
 62
     7
370
    15
100
AcDbLine
 10
248.3040873194
 20
33.3081684895
 30
0.0
 11
248.2561920359
 21
33.1859198286
 31
0.0
  0
LINE
  5
264
330
1F
100
AcDbEntity
  8
0
  6
Continuous
 62
     7
370
    15
100
AcDbLine
 10
248.3040873194
 20
33.3081684895
 30
0.0
 11
250.3170254141
 21
34.4702129168
 31
0.0
  0
ARC
  5
265
330
1F
100
AcDbEntity
  8
0
  6
Continuous
 62
     7
370
    15
100
AcDbCircle
 10
249.6545375864
 20
35.5058973365
 30
0.0
 40
1.229443914554778
100
AcDbArc
 50
302.6054968531
 51
357.3945222572
  0
LINE
  5
266
330
1F
100
AcDbEntity
  8
0
  6
Continuous
 62
     7
370
    15
100
AcDbLine
 10
250.8827105367
 20
40.716697083
 30
0.0
 11
250.8827105367
 21
35.4500086675
 31
0.0
  0
ARC
  5
267
330
1F
100
AcDbEntity
  8
0
  6
Continuous
 62
     7
370
    15
100
AcDbCircle
 10
250.5378510936
 20
40.7726388946
 30
0.0
 40
0.3493673163989856
100
AcDbArc
 50
350.7859529282
 51
129.2032375553
  0
LINE
  5
268
330
1F
100
AcDbEntity
  8
0
  6
Continuous
 62
     7
370
    15
100
AcDbLine
 10
250.3170254141
 20
41.0433666934
 30
0.0
 11
248.3040873194
 21
39.8813222661
 31
0.0
  0
LINE
  5
269
330
1F
100
AcDbEntity
  8
0
  6
Continuous
 62
     7
370
    15
100
AcDbLine
 10
248.2561920359
 20
39.9482722098
 30
0.0
 11
248.3040873194
 21
39.8813222661
 31
0.0
  0
LINE
  5
26A
330
1F
100
AcDbEntity
  8
0
  6
Continuous
 62
     7
370
    15
100
AcDbLine
 10
265.3607219826
 20
53.9330927486
 30
0.0
 11
265.3607219826
 21
56.7180736371
 31
0.0
  0
LINE
  5
26B
330
1F
100
AcDbEntity
  8
0
  6
Continuous
 62
     7
370
    15
100
AcDbLine
 10
267.7724555336
 20
55.3253568924
 30
0.0
 11
265.3607219826
 21
53.9330927486
 31
0.0
  0
LWPOLYLINE
  5
26C
330
1F
100
AcDbEntity
  8
0
  6
Continuous
 62
     7
370
    15
100
AcDbPolyline
 90
       53
 70
   128
 43
0.0
 10
268.401281245
 20
43.6053543624
 10
267.7322076393
 20
43.1723717642
 10
267.0728906998
 20
42.652232549
 10
266.4329445588
 20
42.0525222165
 10
265.8217013272
 20
41.381985523
 10
265.2480739933
 20
40.6504005672
 10
264.7204277186
 20
39.8684360485
 10
264.2464564433
 20
39.0474937208
 10
263.8330722506
 20
38.1995456632
 10
263.486302469
 20
37.3369560565
 10
263.2112040619
 20
36.4723040033
 10
263.0117888823
 20
35.6181978872
 10
262.8909644044
 20
34.7870925341
 10
262.8504932224
 20
33.9911075134
 10
262.8909644044
 20
33.2418495249
 10
263.0117888823
 20
32.5502451447
 10
263.2112040619
 20
31.926378894
 10
263.486302469
 20
31.379348701
 10
263.8330722506
 20
30.9171309619
 10
264.2464564433
 20
30.5464661339
 10
264.7204277186
 20
30.2727593924
 10
265.2480739933
 20
30.1000022952
 10
265.8217013272
 20
30.0307133618
 10
266.4329445588
 20
30.0659030817
 10
267.0728906998
 20
30.2050588363
 10
267.7322076393
 20
30.4461507563
 10
268.401281245
 20
30.7856641001
 10
269.0703548507
 20
31.2186466983
 10
269.7296717902
 20
31.7387859135
 10
270.3696179312
 20
32.3384962461
 10
270.9808611628
 20
33.0090329395
 10
271.5544884967
 20
33.7406178954
 10
272.0821347714
 20
34.522582414
 10
272.5561060467
 20
35.3435247417
 10
272.9694902394
 20
36.1914727993
 10
273.316260021
 20
37.054062406
 10
273.5913584281
 20
37.9187144592
 10
273.7907736076
 20
38.7728205753
 10
273.9115980856
 20
39.6039259284
 10
273.9520692676
 20
40.3999109491
 10
273.9115980856
 20
41.1491689377
 10
273.7907736076
 20
41.8407733179
 10
273.5913584281
 20
42.4646395685
 10
273.316260021
 20
43.0116697616
 10
272.9694902394
 20
43.4738875006
 10
272.5561060467
 20
43.8445523286
 10
272.0821347714
 20
44.1182590701
 10
271.5544884967
 20
44.2910161673
 10
270.9808611628
 20
44.3603051007
 10
270.3696179312
 20
44.3251153808
 10
269.7296717902
 20
44.1859596263
 10
269.0703548507
 20
43.9448677063
 10
268.401281245
 20
43.6053543624
  0
LWPOLYLINE
  5
26D
330
1F
100
AcDbEntity
  8
0
  6
Continuous
 62
     7
370
    15
100
AcDbPolyline
 90
       28
 70
   128
 43
0.0
 10
268.2952147494
 20
43.7890669212
 10
267.6261606531
 20
43.356980384
 10
266.9664986363
 20
42.8392598535
 10
266.3254888636
 20
42.2431727986
 10
265.7121297285
 20
41.577087293
 10
265.1350315358
 20
40.8503538457
 10
264.6022950413
 20
40.0731736867
 10
264.1213994998
 20
39.2564573306
 10
263.6990949924
 20
38.4116688828
 10
263.3413097369
 20
37.5506679661
 10
263.0530667814
 20
36.6855409064
 10
262.8384118941
 20
35.8284322968
 10
262.7003582454
 20
34.9913738032
 10
262.6408449197
 20
34.1861164629
 10
262.6607059635
 20
33.4239636468
 10
262.7596634711
 20
32.7156147849
 10
262.9363275843
 20
32.0710132263
 10
263.1882188829
 20
31.4992078089
 10
263.5118013124
 20
31.0082256454
 10
263.9025325618
 20
30.6049590472
 10
264.3549269556
 20
30.2950686542
 10
264.8626348075
 20
30.0829052903
 10
265.418528361
 20
29.9714462661
 10
266.014804193
 20
29.9622571563
 10
266.6430922029
 20
30.0554665042
 10
267.2945722569
 20
30.2497662381
 10
267.9600991477
 20
30.5424282951
 10
268.2961341474
 20
30.724944828
  0
LWPOLYLINE
  5
26E
330
1F
100
AcDbEntity
  8
0
  6
Continuous
 62
     7
370
    15
100
AcDbPolyline
 90
       15
 70
   128
 43
0.0
 10
273.9520692676
 20
40.5223727182
 10
273.9495845792
 20
40.7145129075
 10
273.8900712535
 20
41.4510576245
 10
273.7520176048
 20
42.1287227681
 10
273.5373627175
 20
42.7379961202
 10
273.249119762
 20
43.2703249473
 10
272.8913345065
 20
43.7182358008
 10
272.4690299991
 20
44.0754418429
 10
271.9881344576
 20
44.3369280251
 10
271.4553979631
 20
44.4990237201
 10
270.8782997704
 20
44.5594537767
 10
270.2649406352
 20
44.5173698987
 10
269.6239308626
 20
44.3733628234
 10
268.9642688458
 20
44.129453801
 10
268.2952147494
 20
43.7890669212
  0
SPLINE
  5
26F
330
1F
100
AcDbEntity
  8
0
  6
Continuous
 62
     7
370
    15
100
AcDbSpline
210
0.0
220
0.0
230
1.0
 70
    11
 71
     3
 72
    82
 73
    78
 74
     0
 42
0.000000001
 43
0.00000001
 40
0.0
 40
0.0
 40
0.0
 40
0.0
 40
0.0312500000000003
 40
0.0312500000000003
 40
0.0625000000000009
 40
0.0625000000000009
 40
0.0937500000000014
 40
0.0937500000000014
 40
0.125000000000002
 40
0.125000000000002
 40
0.1562500000000026
 40
0.1562500000000026
 40
0.1875000000000032
 40
0.1875000000000032
 40
0.2187500000000038
 40
0.2187500000000038
 40
0.2343750000000038
 40
0.2343750000000038
 40
0.2500000000000038
 40
0.2500000000000038
 40
0.2812500000000043
 40
0.2812500000000043
 40
0.2968750000000044
 40
0.2968750000000044
 40
0.3125000000000044
 40
0.3125000000000044
 40
0.3437500000000044
 40
0.3437500000000044
 40
0.3593750000000045
 40
0.3593750000000045
 40
0.3750000000000045
 40
0.3750000000000045
 40
0.3906250000000046
 40
0.3906250000000046
 40
0.4062500000000046
 40
0.4062500000000046
 40
0.4375000000000044
 40
0.4375000000000044
 40
0.4687500000000042
 40
0.4687500000000042
 40
0.500000000000004
 40
0.500000000000004
 40
0.5312500000000039
 40
0.5312500000000039
 40
0.5625000000000038
 40
0.5625000000000038
 40
0.5937500000000036
 40
0.5937500000000036
 40
0.6250000000000034
 40
0.6250000000000034
 40
0.6562500000000032
 40
0.6562500000000032
 40
0.6875000000000031
 40
0.6875000000000031
 40
0.7187500000000029
 40
0.7187500000000029
 40
0.7500000000000028
 40
0.7500000000000028
 40
0.7812500000000026
 40
0.7812500000000026
 40
0.8125000000000024
 40
0.8125000000000024
 40
0.8281250000000022
 40
0.8281250000000022
 40
0.843750000000002
 40
0.843750000000002
 40
0.8750000000000017
 40
0.8750000000000017
 40
0.8906250000000014
 40
0.8906250000000014
 40
0.9062500000000012
 40
0.9062500000000012
 40
0.9375000000000009
 40
0.9375000000000009
 40
0.9687500000000004
 40
0.9687500000000004
 40
1.0
 40
1.0
 40
1.0
 40
1.0
 10
264.1240684997847
 20
47.39474011156665
 30
0.0
 10
264.27719178302
 20
47.36770788579613
 30
0.0
 10
264.4262084440161
 20
47.33332529817724
 30
0.0
 10
264.7170345086476
 20
47.2528562281953
 30
0.0
 10
264.8595799855178
 20
47.20646545536325
 30
0.0
 10
265.1342223661312
 20
47.1043318879162
 30
0.0
 10
265.2641076676823
 20
47.04949395236106
 30
0.0
 10
265.5097370251782
 20
46.93345194526802
 30
0.0
 10
265.626362230448
 20
46.87169955776009
 30
0.0
 10
265.8402779737342
 20
46.74442459063665
 30
0.0
 10
265.936928813472
 20
46.67942756887643
 30
0.0
 10
266.109952561686
 20
46.54634662915142
 30
0.0
 10
266.1869025069903
 20
46.47761577604453
 30
0.0
 10
266.3157731178542
 20
46.33908707807773
 30
0.0
 10
266.3675749376087
 20
46.26971236355951
 30
0.0
 10
266.4260244562548
 20
46.16430507787487
 30
0.0
 10
266.4422774994156
 20
46.12894156600563
 30
0.0
 10
266.4679774687644
 20
46.05750149905679
 30
0.0
 10
266.4774118076999
 20
46.02128839922185
 30
0.0
 10
266.4944356345127
 20
45.91353984879873
 30
0.0
 10
266.491223106321
 20
45.84220758760874
 30
0.0
 10
266.4632312583718
 20
45.7345169792009
 30
0.0
 10
266.4500099783191
 20
45.69850525096963
 30
0.0
 10
266.4151353986867
 20
45.62599737153768
 30
0.0
 10
266.3934315095858
 20
45.5895575677054
 30
0.0
 10
266.316982382441
 20
45.48234495768391
 30
0.0
 10
266.2505934257954
 20
45.41260069522019
 30
0.0
 10
266.1262258254429
 20
45.30988400183936
 30
0.0
 10
266.0801874425218
 20
45.27570301464229
 30
0.0
 10
265.981433059341
 20
45.20951339434902
 30
0.0
 10
265.9288445861441
 20
45.17752362871406
 30
0.0
 10
265.8174042593546
 20
45.11568424180339
 30
0.0
 10
265.7585521211968
 20
45.08583474287656
 30
0.0
 10
265.6345374964102
 20
45.02833017615812
 30
0.0
 10
265.5689268803097
 20
45.00052016804428
 30
0.0
 10
265.3673723578685
 20
44.92252663330645
 30
0.0
 10
265.2259579977871
 20
44.87719553158986
 30
0.0
 10
264.9298530933037
 20
44.80016165766892
 30
0.0
 10
264.777715408075
 20
44.76926092729221
 30
0.0
 10
264.4725549610691
 20
44.72405444886838
 30
0.0
 10
264.3170900451577
 20
44.7095053012286
 30
0.0
 10
264.0129608438905
 20
44.69825493993346
 30
0.0
 10
263.8635181722998
 20
44.70129473185789
 30
0.0
 10
263.5693867036904
 20
44.72558696452105
 30
0.0
 10
263.4259143001458
 20
44.74692015039097
 30
0.0
 10
263.1531371631789
 20
44.80715215122048
 30
0.0
 10
263.0226490299262
 20
44.84613339758275
 30
0.0
 10
262.7735740646323
 20
44.9429843147391
 30
0.0
 10
262.6577828602095
 20
44.9998419305626
 30
0.0
 10
262.4449773162012
 20
45.12899062864803
 30
0.0
 10
262.3476011506665
 20
45.20142073121017
 30
0.0
 10
262.1717985081104
 20
45.36236033716106
 30
0.0
 10
262.0958358438045
 20
45.4486256665955
 30
0.0
 10
261.967531767267
 20
45.63124606828436
 30
0.0
 10
261.9150865775653
 20
45.72772950664692
 30
0.0
 10
261.8358800864696
 20
45.93006099671121
 30
0.0
 10
261.8103022182345
 20
46.03282561572384
 30
0.0
 10
261.787584977819
 20
46.24000557869681
 30
0.0
 10
261.7904867568794
 20
46.34489732483275
 30
0.0
 10
261.8286399774453
 20
46.5528837854192
 30
0.0
 10
261.8631985729323
 20
46.65279269551759
 30
0.0
 10
261.9392071997075
 20
46.795157979284
 30
0.0
 10
261.9686022270383
 20
46.84135751827742
 30
0.0
 10
262.0361013163183
 20
46.9309146377406
 30
0.0
 10
262.0744804289012
 20
46.97445929053762
 30
0.0
 10
262.1998240969431
 20
47.09647116232686
 30
0.0
 10
262.2976309995973
 20
47.1676729461448
 30
0.0
 10
262.4662119234218
 20
47.25866127615071
 30
0.0
 10
262.526477197133
 20
47.28645017842152
 30
0.0
 10
262.6511257596326
 20
47.33517764748422
 30
0.0
 10
262.7157921897636
 20
47.35632151390784
 30
0.0
 10
262.9165551416177
 20
47.41060264693067
 30
0.0
 10
263.0611750057703
 20
47.4346758027155
 30
0.0
 10
263.3564465735299
 20
47.45892131831152
 30
0.0
 10
263.5075371077872
 20
47.45955963548928
 30
0.0
 10
263.8164348601414
 20
47.44091216806898
 30
0.0
 10
263.9709452165494
 20
47.42177233733717
 30
0.0
 10
264.1240684997846
 20
47.39474011156665
 30
0.0
  0
SPLINE
  5
270
330
1F
100
AcDbEntity
  8
0
  6
Continuous
 62
     7
370
    15
100
AcDbSpline
210
0.0
220
0.0
230
1.0
 70
     8
 71
     3
 72
     8
 73
     4
 74
     0
 42
0.000000001
 43
0.00000001
 40
0.0
 40
0.0
 40
0.0
 40
0.0
 40
1.0
 40
1.0
 40
1.0
 40
1.0
 10
245.5522475953373
 20
42.31761097472387
 30
0.0
 10
245.1715497293368
 20
42.25464413705326
 30
0.0
 10
244.7907117570969
 20
42.19194401491823
 30
0.0
 10
244.4097711063573
 20
42.1294631362452
 30
0.0
  0
SPLINE
  5
271
330
1F
100
AcDbEntity
  8
0
  6
Continuous
 62
     7
370
    15
100
AcDbSpline
210
0.0
220
0.0
230
1.0
 70
     8
 71
     3
 72
     8
 73
     4
 74
     0
 42
0.000000001
 43
0.00000001
 40
0.0
 40
0.0
 40
0.0
 40
0.0
 40
0.0011901715795577
 40
0.0011901715795577
 40
0.0011901715795577
 40
0.0011901715795577
 10
244.0520843087994
 20
42.49685979210081
 30
0.0
 10
244.1717308162943
 20
42.37424488234533
 30
0.0
 10
244.2909739904423
 20
42.25177284184961
 30
0.0
 10
244.4097711063573
 20
42.1294631362452
 30
0.0
  0
LWPOLYLINE
  5
272
330
1F
100
AcDbEntity
  8
0
  6
Continuous
 62
     7
370
    15
100
AcDbPolyline
 90
       23
 70
   128
 43
0.0
 10
244.0520843974
 20
42.4968598475
 10
244.3665664003
 20
43.736780292
 10
244.7589193157
 20
44.9863927536
 10
245.2262185473
 20
46.2363860189
 10
245.7649830289
 20
47.4774458847
 10
246.3711976146
 20
48.7003247385
 10
247.0403453477
 20
49.8959107577
 10
247.7674403877
 20
51.0552952071
 10
248.5470642304
 20
52.1698382156
 10
249.3734088424
 20
53.2312370242
 10
250.2403161742
 20
54.231580735
 10
251.1413262333
 20
55.1634160869
 10
252.0697261463
 20
56.0198008738
 10
253.0185974093
 20
56.794351754
 10
253.9808701353
 20
57.4812999014
 10
254.9493738962
 20
58.0755233981
 10
255.9168921248
 20
58.5725976508
 10
256.8762154769
 20
58.9688163113
 10
257.820196059
 20
59.2612294244
 10
258.7417994635
 20
59.4476559774
 10
259.6341585526
 20
59.5267081043
 10
260.490624332
 20
59.4977961197
 10
261.3048151759
 20
59.3611364038
  0
SPLINE
  5
273
330
1F
100
AcDbEntity
  8
0
  6
Continuous
 62
     7
370
    15
100
AcDbSpline
210
0.0
220
0.0
230
1.0
 70
     8
 71
     3
 72
     9
 73
     5
 74
     0
 42
0.000000001
 43
0.00000001
 40
0.0
 40
0.0
 40
0.0
 40
0.0
 40
0.0031051604420238
 40
1.0
 40
1.0
 40
1.0
 40
1.0
 10
261.7388700928786
 20
58.02682464668385
 30
0.0
 10
261.7384308592984
 20
58.02820522506043
 30
0.0
 10
261.5969780782374
 20
58.47281296831663
 30
0.0
 10
261.4506694711997
 20
58.91766535508988
 30
0.0
 10
261.3048151758608
 20
59.36113640382919
 30
0.0
  0
LWPOLYLINE
  5
274
330
1F
100
AcDbEntity
  8
0
  6
Continuous
 62
     7
370
    15
100
AcDbPolyline
 90
       22
 70
   128
 43
0.0
 10
245.5522474695
 20
42.3176111604
 10
245.8470758701
 20
43.4929328869
 10
246.218766293
 20
44.678048247
 10
246.6643243362
 20
45.8634095298
 10
247.1801596151
 20
47.0394656583
 10
247.7621167139
 20
48.1967412744
 10
248.4055061371
 20
49.3259124026
 10
249.1051451395
 20
50.4178813511
 10
249.8553959215
 20
51.4638512339
 10
250.6502146909
 20
52.4553930772
 10
251.4831964437
 20
53.3845195797
 10
252.3476309409
 20
54.2437440435
 10
253.2365532509
 20
55.0261445335
 10
254.1428012084
 20
55.7254160584
 10
255.0590734069
 20
56.3359261032
 10
255.9779875214
 20
56.8527543815
 10
256.8921399063
 20
57.2717378873
 10
257.794165441
 20
57.5895008802
 10
258.6767965107
 20
57.8034828507
 10
259.5329218225
 20
57.9119603066
 10
260.3556437812
 20
57.9140586022
 10
260.6010256967
 20
57.8932781723
  0
LINE
  5
275
330
1F
100
AcDbEntity
  8
0
  6
Continuous
 62
     7
370
    15
100
AcDbLine
 10
242.7163019371
 20
43.2679906479
 30
0.0
 11
244.0520843974
 21
42.4968598475
 31
0.0
  0
LINE
  5
276
330
1F
100
AcDbEntity
  8
0
  6
Continuous
 62
     7
370
    15
100
AcDbLine
 10
261.3048151759
 20
59.3611364038
 30
0.0
 11
259.9690327155
 21
60.1322672042
 31
0.0
  0
LINE
  5
277
330
1F
100
AcDbEntity
  8
0
  6
Continuous
 62
     7
370
    15
100
AcDbLine
 10
246.7787895791
 20
42.017326367
 30
0.0
 11
246.188278975
 21
42.3582208827
 31
0.0
  0
SPLINE
  5
278
330
1F
100
AcDbEntity
  8
0
  6
Continuous
 62
     7
370
    15
100
AcDbSpline
210
0.0
220
0.0
230
1.0
 70
     8
 71
     3
 72
    14
 73
    10
 74
     0
 42
0.000000001
 43
0.00000001
 40
0.0
 40
0.0
 40
0.0
 40
0.0
 40
0.1133499026822865
 40
0.2881008002156852
 40
0.4628816209037933
 40
0.6373002692507401
 40
0.8114819813598014
 40
0.9859191867890602
 40
0.9999999999999999
 40
0.9999999999999999
 40
0.9999999999999999
 40
0.9999999999999999
 10
253.573014341391
 20
53.46998674686036
 30
0.0
 10
253.5034638097113
 20
53.47333675510001
 30
0.0
 10
253.3266876205997
 20
53.48185145190817
 30
0.0
 10
253.0318539722893
 20
53.39670597846364
 30
0.0
 10
252.7392002173786
 20
53.23326802815571
 30
0.0
 10
252.5136862495346
 20
53.00258901785026
 30
0.0
 10
252.3944889416186
 20
52.73982299352706
 30
0.0
 10
252.3605817558573
 20
52.54429472174073
 30
0.0
 10
252.3925488102699
 20
52.45799153045603
 30
0.0
 10
252.3949364977989
 20
52.45154536088162
 30
0.0
  0
SPLINE
  5
279
330
1F
100
AcDbEntity
  8
0
  6
Continuous
 62
     7
370
    15
100
AcDbSpline
210
0.0
220
0.0
230
1.0
 70
     8
 71
     3
 72
    12
 73
     8
 74
     0
 42
0.000000001
 43
0.00000001
 40
0.0
 40
0.0
 40
0.0
 40
0.0
 40
0.2500000000000015
 40
0.2500000000000015
 40
0.500000000000003
 40
0.500000000000003
 40
1.0
 40
1.0
 40
1.0
 40
1.0
 10
246.1882790445747
 20
42.3582208701395
 30
0.0
 10
246.1506603096154
 20
42.37993770357571
 30
0.0
 10
246.1046679012281
 20
42.39719343755835
 30
0.0
 10
246.0050667712521
 20
42.41948722538617
 30
0.0
 10
245.9503160459981
 20
42.42469300996561
 30
0.0
 10
245.7908101471788
 20
42.42169111053848
 30
0.0
 10
245.6858073419612
 20
42.39471337527928
 30
0.0
 10
245.6104944457693
 20
42.35123616574599
 30
0.0
  0
SPLINE
  5
27A
330
1F
100
AcDbEntity
  8
0
  6
Continuous
 62
     7
370
    15
100
AcDbSpline
210
0.0
220
0.0
230
1.0
 70
     8
 71
     3
 72
    10
 73
     6
 74
     0
 42
0.000000001
 43
0.00000001
 40
0.0
 40
0.0
 40
0.0
 40
0.0
 40
0.5
 40
0.5
 40
1.0
 40
1.0
 40
1.0
 40
1.0
 10
242.6146577327859
 20
43.29871264669863
 30
0.0
 10
242.6219204144346
 20
43.30270925218646
 30
0.0
 10
242.6337140784003
 20
43.30289103057163
 30
0.0
 10
242.6677730891675
 20
43.29316940106187
 30
0.0
 10
242.6899455767198
 20
43.28320574428618
 30
0.0
 10
242.7163018433833
 20
43.26799059540487
 30
0.0
  0
LINE
  5
27B
330
1F
100
AcDbEntity
  8
0
  6
Continuous
 62
     7
370
    15
100
AcDbLine
 10
270.2975456677
 20
41.2968308683
 30
0.0
 11
270.2690718496
 21
41.3128576339
 31
0.0
  0
LINE
  5
27C
330
1F
100
AcDbEntity
  8
0
  6
Continuous
 62
     7
370
    15
100
AcDbLine
 10
245.6104944142
 20
42.3512364058
 30
0.0
 11
245.5522474695
 21
42.3176111604
 31
0.0
  0
LWPOLYLINE
  5
27D
330
1F
100
AcDbEntity
  8
0
  6
Continuous
 62
     7
370
    15
100
AcDbPolyline
 90
       19
 70
   128
 43
0.0
 10
265.5574363477
 20
44.9815994419
 10
265.6565068985
 20
45.0697329012
 10
265.8313324583
 20
45.3133869222
 10
265.8909634166
 20
45.5748591028
 10
265.8313333638
 20
45.8363320912
 10
265.6565066722
 20
46.0799864805
 10
265.378400116
 20
46.2892163177
 10
265.0159628198
 20
46.4497645756
 10
264.5938966232
 20
46.5506891161
 10
264.1409630461
 20
46.5851128128
 10
263.6880295514
 20
46.5506893537
 10
263.2659626757
 20
46.4497647062
 10
262.9035258116
 20
46.2892166028
 10
262.6254182059
 20
46.0799862548
 10
262.4505926461
 20
45.8363322338
 10
262.390963005
 20
45.5748592929
 10
262.4505930577
 20
45.3133863044
 10
262.6254184323
 20
45.0697326755
 10
262.7121633143
 20
44.9915325859
  0
LINE
  5
27E
330
1F
100
AcDbEntity
  8
0
  6
Continuous
 62
     7
370
    15
100
AcDbLine
 10
248.3040873194
 20
39.8813222661
 30
0.0
 11
246.5769045284
 21
40.8784036679
 31
0.0
  0
SPLINE
  5
27F
330
1F
100
AcDbEntity
  8
0
  6
Continuous
 62
     7
370
    15
100
AcDbSpline
210
0.0
220
0.0
230
1.0
 70
     8
 71
     3
 72
     8
 73
     4
 74
     0
 42
0.000000001
 43
0.00000001
 40
0.0
 40
0.0
 40
0.0
 40
0.0
 40
0.0011901715795577
 40
0.0011901715795577
 40
0.0011901715795577
 40
0.0011901715795577
 10
246.5769046180461
 20
40.87840358949841
 30
0.0
 10
246.5647431512276
 20
40.93915384520924
 30
0.0
 10
246.5532597042715
 20
40.99941751933929
 30
0.0
 10
246.542398880629
 20
41.05923179055603
 30
0.0
  0
ARC
  5
280
330
1F
100
AcDbEntity
  8
0
  6
Continuous
 62
     7
370
    15
100
AcDbCircle
 10
255.5547913463
 20
41.3031771026
 30
0.0
 40
10.35656108681476
100
AcDbArc
 50
174.7086322964
 51
187.155472643
  0
LINE
  5
281
330
1F
100
AcDbEntity
  8
0
  6
Continuous
 62
     7
370
    15
100
AcDbLine
 10
245.278889184
 20
42.2724690697
 30
0.0
 11
245.278889184
 21
40.0131413296
 31
0.0
  0
LINE
  5
282
330
1F
100
AcDbEntity
  8
0
  6
Continuous
 62
     7
370
    15
100
AcDbLine
 10
245.278889184
 20
40.0131413296
 30
0.0
 11
245.278889184
 21
38.5473334222
 31
0.0
  0
LINE
  5
283
330
1F
100
AcDbEntity
  8
0
  6
Continuous
 62
     7
370
    15
100
AcDbLine
 10
243.0538193329
 20
42.9122374599
 30
0.0
 11
242.6146576502
 21
43.2987125792
 31
0.0
  0
LINE
  5
284
330
1F
100
AcDbEntity
  8
0
  6
Continuous
 62
     7
370
    15
100
AcDbLine
 10
244.4097708713
 20
42.1294632986
 30
0.0
 11
243.0538193329
 21
42.9122374599
 31
0.0
  0
LINE
  5
285
330
1F
100
AcDbEntity
  8
0
  6
Continuous
 62
     7
370
    15
100
AcDbLine
 10
244.2801011528
 20
42.0480349715
 30
0.0
 11
244.2807926245
 21
42.1688115754
 31
0.0
  0
ARC
  5
286
330
1F
100
AcDbEntity
  8
0
  6
Continuous
 62
     7
370
    15
100
AcDbCircle
 10
251.2805686173
 20
41.804397538
 30
0.0
 40
7.00470584114483
100
AcDbArc
 50
178.006738161
 51
210.582619974
  0
LINE
  5
287
330
1F
100
AcDbEntity
  8
0
  6
Continuous
 62
     7
370
    15
100
AcDbLine
 10
224.9083107957
 20
55.1846039631
 30
0.0
 11
224.8785149494
 21
55.2102362596
 31
0.0
  0
LINE
  5
288
330
1F
100
AcDbEntity
  8
0
  6
Continuous
 62
     7
370
    15
100
AcDbLine
 10
246.5769045284
 20
34.3052498914
 30
0.0
 11
248.3040873194
 21
33.3081684895
 31
0.0
  0
SPLINE
  5
289
330
1F
100
AcDbEntity
  8
0
  6
Continuous
 62
     7
370
    15
100
AcDbSpline
210
0.0
220
0.0
230
1.0
 70
     8
 71
     3
 72
    14
 73
    10
 74
     0
 42
0.000000001
 43
0.00000001
 40
0.0
 40
0.0
 40
0.0
 40
0.0
 40
0.25
 40
0.25
 40
0.5
 40
0.5
 40
0.75
 40
0.75
 40
1.0
 40
1.0
 40
1.0
 40
1.0
 10
248.2561921410839
 20
33.18592001968106
 30
0.0
 10
248.2392839435458
 20
33.14276317013191
 30
0.0
 10
248.2187607526648
 20
33.10274719764292
 30
0.0
 10
248.1699773171025
 20
33.029437570658
 30
0.0
 10
248.1415203387267
 20
32.99615041205193
 30
0.0
 10
248.0781577162185
 20
32.9432275657216
 30
0.0
 10
248.0428386554775
 20
32.92316389929633
 30
0.0
 10
247.9680205784264
 20
32.9064049088143
 30
0.0
 10
247.9296511043618
 20
32.91060180442548
 30
0.0
 10
247.8958590155748
 20
32.93010956204792
 30
0.0
  0
LINE
  5
28A
330
1F
100
AcDbEntity
  8
0
  6
Continuous
 62
     7
370
    15
100
AcDbLine
 10
247.8958588717
 20
32.9301097026
 30
0.0
 11
246.5423991011
 21
33.711445397
 31
0.0
  0
SPLINE
  5
28B
330
1F
100
AcDbEntity
  8
0
  6
Continuous
 62
     7
370
    15
100
AcDbSpline
210
0.0
220
0.0
230
1.0
 70
     8
 71
     3
 72
     8
 73
     4
 74
     0
 42
0.000000001
 43
0.00000001
 40
0.0
 40
0.0
 40
0.0
 40
0.0
 40
0.0011901715795577
 40
0.0011901715795577
 40
0.0011901715795577
 40
0.0011901715795577
 10
246.542398880629
 20
33.71144546674977
 30
0.0
 10
246.5532597042715
 20
33.90940065510793
 30
0.0
 10
246.5647431512276
 20
34.1073395676095
 30
0.0
 10
246.5769046180461
 20
34.30525005381813
 30
0.0
  0
ARC
  5
28C
330
1F
100
AcDbEntity
  8
0
  6
Continuous
 62
     7
370
    15
100
AcDbCircle
 10
253.5011828581
 20
33.8807394715
 30
0.0
 40
5.548849642152079
100
AcDbArc
 50
212.5485790507
 51
267.4372536367
  0
SPLINE
  5
28D
330
1F
100
AcDbEntity
  8
0
  6
Continuous
 62
     7
370
    15
100
AcDbSpline
210
0.0
220
0.0
230
1.0
 70
     8
 71
     3
 72
     8
 73
     4
 74
     0
 42
0.000000001
 43
0.00000001
 40
0.0
 40
0.0
 40
0.0
 40
0.0
 40
1.0
 40
1.0
 40
1.0
 40
1.0
 10
246.9028215474036
 20
34.96478769225289
 30
0.0
 10
246.7937479670165
 20
34.74501549219367
 30
0.0
 10
246.6851364015485
 20
34.525162410524
 30
0.0
 10
246.5769046180461
 20
34.30525005381813
 30
0.0
  0
LINE
  5
28E
330
1F
100
AcDbEntity
  8
0
  6
Continuous
 62
     7
370
    15
100
AcDbLine
 10
246.9610684427
 20
34.9984128383
 30
0.0
 11
246.9028214981
 21
34.9647875928
 31
0.0
  0
SPLINE
  5
28F
330
1F
100
AcDbEntity
  8
0
  6
Continuous
 62
     7
370
    15
100
AcDbSpline
210
0.0
220
0.0
230
1.0
 70
     8
 71
     3
 72
    12
 73
     8
 74
     0
 42
0.000000001
 43
0.00000001
 40
0.0
 40
0.0
 40
0.0
 40
0.0
 40
0.2500000000000015
 40
0.2500000000000015
 40
0.500000000000003
 40
0.500000000000003
 40
1.0
 40
1.0
 40
1.0
 40
1.0
 10
246.9731675716917
 20
35.33196083239762
 30
0.0
 10
247.0112051792443
 20
35.31000218896038
 30
0.0
 10
247.040678583156
 20
35.28374525235571
 30
0.0
 10
247.0794722931989
 20
35.2258772430564
 30
0.0
 10
247.0882944961455
 20
35.19509510824727
 30
0.0
 10
247.0831852234587
 20
35.10211512486051
 30
0.0
 10
247.0365614816893
 20
35.04199411293121
 30
0.0
 10
246.9610683978361
 20
34.99841288327528
 30
0.0
  0
LINE
  5
290
330
1F
100
AcDbEntity
  8
0
  6
Continuous
 62
     7
370
    15
100
AcDbLine
 10
246.188278975
 20
35.7850671061
 30
0.0
 11
246.9731675517
 21
35.3319605753
 31
0.0
  0
SPLINE
  5
291
330
1F
100
AcDbEntity
  8
0
  6
Continuous
 62
     7
370
    15
100
AcDbSpline
210
0.0
220
0.0
230
1.0
 70
     8
 71
     3
 72
    12
 73
     8
 74
     0
 42
0.000000001
 43
0.00000001
 40
0.0
 40
0.0
 40
0.0
 40
0.0
 40
0.4999999999999984
 40
0.4999999999999984
 40
0.7499999999999992
 40
0.7499999999999992
 40
1.0
 40
1.0
 40
1.0
 40
1.0
 10
245.6104944457698
 20
35.77808263006597
 30
0.0
 10
245.6864252535211
 20
35.82191655234951
 30
0.0
 10
245.7903152129452
 20
35.84857389485872
 30
0.0
 10
245.9510172927775
 20
35.85152975763244
 30
0.0
 10
246.0048020932004
 20
35.8463764859965
 30
0.0
 10
246.104570978643
 20
35.82407798339314
 30
0.0
 10
246.1501232044704
 20
35.80709423209571
 30
0.0
 10
246.1882790445747
 20
35.78506733445921
 30
0.0
  0
LINE
  5
292
330
1F
100
AcDbEntity
  8
0
  6
Continuous
 62
     7
370
    15
100
AcDbLine
 10
245.5522474695
 20
35.7444573838
 30
0.0
 11
245.6104944142
 21
35.7780826292
 31
0.0
  0
SPLINE
  5
293
330
1F
100
AcDbEntity
  8
0
  6
Continuous
 62
     7
370
    15
100
AcDbSpline
210
0.0
220
0.0
230
1.0
 70
     8
 71
     3
 72
     8
 73
     4
 74
     0
 42
0.000000001
 43
0.00000001
 40
0.0
 40
0.0
 40
0.0
 40
0.0
 40
1.0
 40
1.0
 40
1.0
 40
1.0
 10
244.4097711063591
 20
35.55630960056521
 30
0.0
 10
244.7907117570982
 20
35.61879047923814
 30
0.0
 10
245.1715497293374
 20
35.68149060137308
 30
0.0
 10
245.5522475953373
 20
35.74445743904359
 30
0.0
  0
LINE
  5
294
330
1F
100
AcDbEntity
  8
0
  6
Continuous
 62
     7
370
    15
100
AcDbLine
 10
243.0538193329
 20
36.3390836833
 30
0.0
 11
244.4097708713
 21
35.556309522
 31
0.0
  0
LINE
  5
295
330
1F
100
AcDbEntity
  8
0
  6
Continuous
 62
     7
370
    15
100
AcDbLine
 10
243.0538193329
 20
36.3390836833
 30
0.0
 11
245.0667574276
 21
37.5011281106
 31
0.0
  0
ARC
  5
296
330
1F
100
AcDbEntity
  8
0
  6
Continuous
 62
     7
370
    15
100
AcDbCircle
 10
252.7788518877
 20
35.3145678896
 30
0.0
 40
6.439203761766471
100
AcDbArc
 50
194.4161472332
 51
238.0417156746
  0
ELLIPSE
  5
297
330
1F
100
AcDbEntity
  8
0
  6
Continuous
 62
     7
370
    15
100
AcDbEllipse
 10
244.8324428592
 20
38.2896277481
 30
0.0
 11
-6.005970382716441E-5
 21
0.8534489614827264
 31
0.0
210
0.0
220
0.0
230
1.0
 40
0.7174342186
 41
3.534193645557533
 42
5.104989972352352
  0
ARC
  5
298
330
1F
100
AcDbEntity
  8
0
  6
Continuous
 62
     7
370
    15
100
AcDbCircle
 10
252.211272466
 20
37.608295533
 30
0.0
 40
6.914948051165808
100
AcDbArc
 50
195.6367501838
 51
215.4284682093
  0
ARC
  5
299
330
1F
100
AcDbEntity
  8
0
  6
Continuous
 62
     7
370
    15
100
AcDbCircle
 10
249.9140017555
 20
36.517700898
 30
0.0
 40
6.019569431173144
100
AcDbArc
 50
193.1418706541
 51
253.6915959719
  0
SPLINE
  5
29A
330
1F
100
AcDbEntity
  8
0
  6
Continuous
 62
     7
370
    15
100
AcDbSpline
210
0.0
220
0.0
230
1.0
 70
     8
 71
     3
 72
     8
 73
     4
 74
     0
 42
0.000000001
 43
0.00000001
 40
0.0000000000000007
 40
0.0000000000000007
 40
0.0000000000000007
 40
0.0000000000000007
 40
0.0011901715795607
 40
0.0011901715795607
 40
0.0011901715795607
 40
0.0011901715795607
 10
244.4097711063601
 20
35.5563096005633
 30
0.0
 10
244.2909739904448
 20
35.41995856424791
 30
0.0
 10
244.1717308162946
 20
35.28422801811431
 30
0.0
 10
244.0520843087994
 20
35.14907346829455
 30
0.0
  0
LINE
  5
29B
330
1F
100
AcDbEntity
  8
0
  6
Continuous
 62
     7
370
    15
100
AcDbLine
 10
242.6146576502
 20
36.0855091265
 30
0.0
 11
243.0538193329
 21
36.3390836833
 31
0.0
  0
LINE
  5
29C
330
1F
100
AcDbEntity
  8
0
  6
Continuous
 62
     7
370
    15
100
AcDbLine
 10
244.0520843974
 20
35.1490734746
 30
0.0
 11
242.7163019371
 21
35.920204275
 31
0.0
  0
SPLINE
  5
29D
330
1F
100
AcDbEntity
  8
0
  6
Continuous
 62
     7
370
    15
100
AcDbSpline
210
0.0
220
0.0
230
1.0
 70
     8
 71
     3
 72
    10
 73
     6
 74
     0
 42
0.000000001
 43
0.00000001
 40
0.0
 40
0.0
 40
0.0
 40
0.0
 40
0.5
 40
0.5
 40
1.0
 40
1.0
 40
1.0
 40
1.0
 10
242.7163018433833
 20
35.9202042715986
 30
0.0
 10
242.6899975910064
 20
35.93538939327137
 30
0.0
 10
242.6677994768879
 20
35.95901904420525
 30
0.0
 10
242.6337875904561
 20
36.01646143701514
 30
0.0
 10
242.62191671005
 20
36.05009971516576
 30
0.0
 10
242.6146577327859
 20
36.08550913840888
 30
0.0
  0
ARC
  5
29E
330
1F
100
AcDbEntity
  8
0
  6
Continuous
 62
     7
370
    15
100
AcDbCircle
 10
248.4299254232
 20
36.9654147588
 30
0.0
 40
5.691050088252618
100
AcDbArc
 50
212.7820291147
 51
239.5347455062
  0
ELLIPSE
  5
29F
330
1F
100
AcDbEntity
  8
0
  6
Continuous
 62
     7
370
    15
100
AcDbEllipse
 10
244.7132040436
 20
38.220770268
 30
0.0
 11
0.2600075789209199
 21
0.9705436209909308
 31
0.0
210
0.0
220
0.0
230
1.0
 40
0.5176380889
 41
3.619174351347694
 42
5.189970678142648
  0
SPLINE
  5
2A0
330
1F
100
AcDbEntity
  8
0
  6
Continuous
 62
     7
370
    15
100
AcDbSpline
210
0.0
220
0.0
230
1.0
 70
     8
 71
     3
 72
    12
 73
     8
 74
     0
 42
0.000000001
 43
0.00000001
 40
0.0
 40
0.0
 40
0.0
 40
0.0
 40
0.4999999999999996
 40
0.4999999999999996
 40
0.7499999999999998
 40
0.7499999999999998
 40
1.0
 40
1.0
 40
1.0
 40
1.0
 10
262.1686342804998
 20
58.56037430345062
 30
0.0
 10
262.2310776063244
 20
58.59642206815094
 30
0.0
 10
262.3104142115466
 20
58.62208106820874
 30
0.0
 10
262.4412875748877
 20
58.6338648282152
 30
0.0
 10
262.4860598872586
 20
58.63305455601167
 30
0.0
 10
262.5713218032619
 20
58.61950607562433
 30
0.0
 10
262.6107380103803
 20
58.60674146461492
 30
0.0
 10
262.6419776706301
 20
58.58870719262296
 30
0.0
  0
LINE
  5
2A1
330
1F
100
AcDbEntity
  8
0
  6
Continuous
 62
     7
370
    15
100
AcDbLine
 10
262.6419779455
 20
58.5887071463
 30
0.0
 11
263.7936412396
 21
57.9238660781
 31
0.0
  0
SPLINE
  5
2A2
330
1F
100
AcDbEntity
  8
0
  6
Continuous
 62
     7
370
    15
100
AcDbSpline
210
0.0
220
0.0
230
1.0
 70
     8
 71
     3
 72
     9
 73
     5
 74
     0
 42
0.000000001
 43
0.00000001
 40
0.0
 40
0.0
 40
0.0
 40
0.0
 40
0.8664443272572582
 40
1.0
 40
1.0
 40
1.0
 40
1.0
 10
265.3607219826254
 20
56.14355193541213
 30
0.0
 10
265.6798986807513
 20
56.21284192664805
 30
0.0
 10
266.0482739912992
 20
56.29281243260687
 30
0.0
 10
266.4186140886633
 20
56.36968191309798
 30
0.0
 10
266.4680751095104
 20
56.37994826827835
 30
0.0
  0
LINE
  5
2A3
330
1F
100
AcDbEntity
  8
0
  6
Continuous
 62
     7
370
    15
100
AcDbLine
 10
266.4680751095
 20
56.3799482683
 30
0.0
 11
267.8215348801
 21
55.5986125739
 31
0.0
  0
SPLINE
  5
2A4
330
1F
100
AcDbEntity
  8
0
  6
Continuous
 62
     7
370
    15
100
AcDbSpline
210
0.0
220
0.0
230
1.0
 70
     8
 71
     3
 72
    14
 73
    10
 74
     0
 42
0.000000001
 43
0.00000001
 40
0.0
 40
0.0
 40
0.0
 40
0.0
 40
0.25
 40
0.25
 40
0.5
 40
0.5
 40
0.75
 40
0.75
 40
1.0
 40
1.0
 40
1.0
 40
1.0
 10
267.8215348428216
 20
55.59861248307229
 30
0.0
 10
267.8527969309797
 20
55.5805652637245
 30
0.0
 10
267.8750643030758
 20
55.55747594828419
 30
0.0
 10
267.8982177010641
 20
55.50886459501548
 30
0.0
 10
267.8997378710601
 20
55.48286481345037
 30
0.0
 10
267.8862927002891
 20
55.43273188406294
 30
0.0
 10
267.871593194641
 20
55.40854156895154
 30
0.0
 10
267.8299481996654
 20
55.36359112617896
 30
0.0
 10
267.8036359161478
 20
55.34335721909719
 30
0.0
 10
267.7724555214032
 20
55.32535716035314
 30
0.0
  0
LINE
  5
2A5
330
1F
100
AcDbEntity
  8
0
  6
Continuous
 62
     7
370
    15
100
AcDbLine
 10
262.1686341808
 20
58.5603741001
 30
0.0
 11
261.6607132898
 21
58.267157611
 31
0.0
  0
SPLINE
  5
2A6
330
1F
100
AcDbEntity
  8
0
  6
Continuous
 62
     7
370
    15
100
AcDbSpline
210
0.0
220
0.0
230
1.0
 70
     8
 71
     3
 72
    10
 73
     6
 74
     0
 42
0.000000001
 43
0.00000001
 40
0.0
 40
0.0
 40
0.0
 40
0.0
 40
0.4052288462014568
 40
0.8115752064537689
 40
1.0
 40
1.0
 40
1.0
 40
1.0
 10
269.4833495554883
 20
52.22951998609652
 30
0.0
 10
269.5016691022282
 20
52.26844639676564
 30
0.0
 10
269.5383587161759
 20
52.34640656685578
 30
0.0
 10
269.5523743622926
 20
52.4539579714915
 30
0.0
 10
269.5342843293413
 20
52.50711228973545
 30
0.0
 10
269.5285533676053
 20
52.52395169322239
 30
0.0
  0
ARC
  5
2A7
330
1F
100
AcDbEntity
  8
0
  6
Continuous
 62
     7
370
    15
100
AcDbCircle
 10
253.5188215926
 20
52.0812950975
 30
0.0
 40
1.083190433093108
100
AcDbArc
 50
126.0723241233
 51
148.9783059005
  0
LWPOLYLINE
  5
2A8
330
1F
100
AcDbEntity
  8
0
  6
Continuous
 62
     7
370
    15
100
AcDbPolyline
 90
        3
 70
   128
 43
0.0
 10
252.6485255242
 20
52.7037622078
 10
252.6737708279
 20
52.7399234844
 10
252.8553239755
 20
52.9291871628
  0
ARC
  5
2A9
330
1F
100
AcDbEntity
  8
0
  6
Continuous
 62
     7
370
     0
100
AcDbCircle
 10
266.5494626766
 20
40.2686614114
 30
0.0
 40
0.8409024695640386
100
AcDbArc
 50
323.8548719347
 51
5.0530665408
  0
ARC
  5
2AA
330
1F
100
AcDbEntity
  8
0
  6
Continuous
 62
     7
370
     0
100
AcDbCircle
 10
266.6695654536
 20
40.181195276
 30
0.0
 40
0.5224757889226962
100
AcDbArc
 50
278.314384595
 51
356.4443219448
  0
LWPOLYLINE
  5
2AB
330
1F
100
AcDbEntity
  8
0
  6
Continuous
 62
     7
370
     0
100
AcDbPolyline
 90
       23
 70
   128
 43
0.0
 10
247.8958588717
 20
40.2778960755
 10
248.2103408746
 20
41.51781652
 10
248.6026937899
 20
42.7674289816
 10
249.0699930215
 20
44.0174222469
 10
249.6087575031
 20
45.2584821127
 10
250.2149720888
 20
46.4813609665
 10
250.8841198219
 20
47.6769469857
 10
251.6112148619
 20
48.8363314351
 10
252.3908387046
 20
49.9508744436
 10
253.2171833167
 20
51.0122732522
 10
254.0840906484
 20
52.012616963
 10
254.9851007075
 20
52.9444523149
 10
255.9135006206
 20
53.8008371018
 10
256.8623718835
 20
54.575387982
 10
257.8246446095
 20
55.2623361294
 10
258.7931483705
 20
55.8565596261
 10
259.760666599
 20
56.3536338788
 10
260.7199899511
 20
56.7498525393
 10
261.6639705333
 20
57.0422656524
 10
262.5855739377
 20
57.2286922054
 10
263.4779330269
 20
57.3077443323
 10
264.3343988062
 20
57.2788323477
 10
265.1485896501
 20
57.1421726318
  0
LWPOLYLINE
  5
2AC
330
1F
100
AcDbEntity
  8
0
  6
Continuous
 62
     7
370
     0
100
AcDbPolyline
 90
       23
 70
   128
 43
0.0
 10
248.2561920359
 20
39.9482722098
 10
248.5538416412
 20
41.1821272608
 10
248.9309907394
 20
42.4276456761
 10
249.3847338323
 20
43.6752318274
 10
249.9115753656
 20
44.9152749324
 10
250.507456071
 20
46.1382201557
 10
251.1677852346
 20
47.3346476941
 10
251.8874762587
 20
48.4953389332
 10
252.6609841985
 20
49.6113521102
 10
253.4823502141
 20
50.6740890402
 10
254.345246022
 20
51.6753633636
 10
255.2430242739
 20
52.6074608081
 10
256.1687679476
 20
53.4631996409
 10
257.1153455001
 20
54.2359883636
 10
258.0754640447
 20
54.9198723804
 10
259.0417271079
 20
55.5095840708
 10
260.0066904307
 20
56.0005788051
 10
260.9629197761
 20
56.3890751602
 10
261.9030485314
 20
56.6720798076
 10
262.819833695
 20
56.8474122294
 10
263.7062122122
 20
56.9137220309
 10
264.5553556351
 20
56.8704984416
 10
265.3607219826
 20
56.7180736371
  0
LWPOLYLINE
  5
2AD
330
1F
100
AcDbEntity
  8
0
  6
Continuous
 62
     7
370
     0
100
AcDbPolyline
 90
       19
 70
   128
 43
0.0
 10
261.5555885952
 20
31.9100893307
 10
260.7612981432
 20
31.2568432524
 10
259.8146137419
 20
30.5685745718
 10
258.8608548825
 20
29.9714219615
 10
257.9071874013
 20
29.469872744
 10
256.9607763783
 20
29.067695168
 10
256.0287324093
 20
28.7679104334
 10
255.1180585388
 20
28.5727711822
 10
254.2355960565
 20
28.4837431349
 10
253.387975847
 20
28.501495257
 10
252.5815657065
 20
28.6258944403
 10
251.8224252322
 20
28.8560060776
 10
251.116256761
 20
29.190101482
 10
250.4683668446
 20
29.6256698675
 10
249.883623444
 20
30.1594392661
 10
249.366419051
 20
30.7873985842
 10
248.9206397369
 20
31.5048310663
 10
248.5496348589
 20
32.3063450966
 10
248.2561920359
 20
33.1859198286
  0
ARC
  5
2AE
330
1F
100
AcDbEntity
  8
0
  6
Continuous
 62
     7
370
     0
100
AcDbCircle
 10
262.6845918323
 20
50.4929066387
 30
0.0
 40
7.017045852610284
100
AcDbArc
 50
14.3287351339
 51
43.52515955
  0
LWPOLYLINE
  5
2AF
330
1F
100
AcDbEntity
  8
0
  6
Continuous
 62
     7
370
     0
100
AcDbPolyline
 90
       29
 70
   128
 43
0.0
 10
252.1555032149
 20
38.8181204484
 10
252.1948815423
 20
39.6795471582
 10
252.3125548848
 20
40.5763398329
 10
252.5071435916
 20
41.4979839669
 10
252.7763664646
 20
42.433674642
 10
253.1170671
 20
43.3724417168
 10
253.5252507668
 20
44.3032784362
 10
253.9961321512
 20
45.2152724165
 10
254.5241906748
 20
46.0977305466
 10
255.1032353605
 20
46.9403076899
 10
255.7264769437
 20
47.7331239794
 10
256.3866090379
 20
48.4668861985
 10
257.075891934
 20
49.1329901505
 10
257.78624455
 20
49.7236277331
 10
258.5093385205
 20
50.2318724336
 10
259.2366963198
 20
50.6517671534
 10
259.9597902903
 20
50.9783889806
 10
260.6701429063
 20
51.207907071
 10
261.3594258024
 20
51.3376322111
 10
262.0195578965
 20
51.3660422846
 10
262.6427994798
 20
51.2928054105
 10
263.2218441655
 20
51.1187790307
 10
263.749902689
 20
50.8460042945
 10
264.2207840735
 20
50.4776783883
 10
264.6289677402
 20
50.0181204992
 10
264.9696683756
 20
49.472718005
 10
265.2388912486
 20
48.8478654427
 10
265.4334799555
 20
48.1508886475
 10
265.4346383353
 20
48.1454700506
  0
LWPOLYLINE
  5
2B0
330
1F
100
AcDbEntity
  8
0
  6
Continuous
 62
     7
370
     0
100
AcDbPolyline
 90
       14
 70
   128
 43
0.0
 10
257.4352883187
 20
34.2886879009
 10
257.075891934
 20
34.1842106387
 10
256.3866090379
 20
34.0544854987
 10
255.7264769437
 20
34.0260754251
 10
255.1032353605
 20
34.0993122992
 10
254.5241906748
 20
34.273338679
 10
253.9961321512
 20
34.5461134153
 10
253.5252507668
 20
34.9144393214
 10
253.1170671
 20
35.3739972106
 10
252.7763664646
 20
35.9193997048
 10
252.5071435916
 20
36.5442522671
 10
252.3125548848
 20
37.2412290622
 10
252.1948815423
 20
38.0021589877
 10
252.1555032149
 20
38.8181204484
  0
LWPOLYLINE
  5
2B1
330
1F
100
AcDbEntity
  8
0
  6
Continuous
 62
     7
370
     0
100
AcDbPolyline
 90
        8
 70
   128
 43
0.0
 10
254.2768232476
 20
38.8181200682
 10
254.3165282131
 20
38.068442281
 10
254.4350856516
 20
37.3751306842
 10
254.6308314211
 20
36.7479178857
 10
254.9010174155
 20
36.1956084498
 10
255.2418507476
 20
35.7259556517
 10
255.6485470916
 20
35.345552013
 10
255.9340027574
 20
35.1553617859
  0
LWPOLYLINE
  5
2B2
330
1F
100
AcDbEntity
  8
0
  6
Continuous
 62
     7
370
     0
100
AcDbPolyline
 90
       21
 70
   128
 43
0.0
 10
263.9333527741
 20
49.0121435553
 10
263.4979929511
 20
49.2138952872
 10
262.9534388755
 20
49.350732936
 10
262.3664939606
 20
49.3855578951
 10
261.745397586
 20
49.3178813646
 10
261.0988687988
 20
49.1486534375
 10
260.4359832066
 20
48.8802502079
 10
259.766046352
 20
48.5164386942
 10
259.0984626415
 20
48.0623270294
 10
258.4426035957
 20
47.5242884034
 10
257.8076759755
 20
46.9098769492
 10
257.2025926046
 20
46.2277174283
 10
256.6358478839
 20
45.4873854578
 10
256.1153971958
 20
44.6992740127
 10
255.6485470916
 20
43.8744467625
 10
255.2418507476
 20
43.0244815199
 10
254.9010174155
 20
42.1613109328
 10
254.6308314211
 20
41.2970513879
 10
254.4350856516
 20
40.4438353344
 10
254.3165282131
 20
39.6136402328
 10
254.2768232476
 20
38.8181200682
  0
LWPOLYLINE
  5
2B3
330
1F
100
AcDbEntity
  8
0
  6
Continuous
 62
     7
370
     0
100
AcDbPolyline
 90
       43
 70
   128
 43
0.0
 10
268.401281245
 20
41.2782131994
 10
267.8743372669
 20
40.9284145191
 10
267.3591643602
 20
40.4952289801
 10
266.8672706315
 20
39.9883331772
 10
266.4096441017
 20
39.4190498707
 10
265.9965075217
 20
38.8000967483
 10
265.637089405
 20
38.1452996804
 10
265.3394190556
 20
37.4692857973
 10
265.1101454681
 20
36.7871563178
 10
264.9543904723
 20
36.1141486313
 10
264.8756334882
 20
35.465296953
 10
264.8756334882
 20
34.8550952553
 10
264.9543904723
 20
34.2971744553
 10
265.1101454681
 20
33.8039976591
 10
265.3394190556
 20
33.3865818291
 10
265.637089405
 20
33.054250816
 10
265.9965075217
 20
32.8144290726
 10
266.4096441017
 20
32.6724732923
 10
266.8672706315
 20
32.6315543306
 10
267.3591643602
 20
32.6925869382
 10
267.8743372669
 20
32.8542073764
 10
268.401281245
 20
33.1128052631
 10
268.9282252231
 20
33.4626039434
 10
269.4433981297
 20
33.8957894824
 10
269.9352918584
 20
34.4026852853
 10
270.3929183883
 20
34.9719685918
 10
270.8060549683
 20
35.5909217142
 10
271.165473085
 20
36.2457187822
 10
271.4631434344
 20
36.9217326652
 10
271.6924170219
 20
37.6038621448
 10
271.8481720177
 20
38.2768698312
 10
271.9269290017
 20
38.9257215095
 10
271.9269290017
 20
39.5359232072
 10
271.8481720177
 20
40.0938440073
 10
271.6924170219
 20
40.5870208034
 10
271.4631434344
 20
41.0044366334
 10
271.165473085
 20
41.3367676465
 10
270.8060549683
 20
41.57658939
 10
270.3929183883
 20
41.7185451703
 10
269.9352918584
 20
41.7594641319
 10
269.4433981297
 20
41.6984315244
 10
268.9282252231
 20
41.5368110862
 10
268.401281245
 20
41.2782131994
  0
LWPOLYLINE
  5
2B4
330
1F
100
AcDbEntity
  8
0
  6
Continuous
 62
     7
370
     0
100
AcDbPolyline
 90
       23
 70
   128
 43
0.0
 10
242.7163019371
 20
43.2679906479
 10
243.03078394
 20
44.5079110924
 10
243.4231368553
 20
45.757523554
 10
243.8904360869
 20
47.0075168193
 10
244.4292005685
 20
48.248576685
 10
245.0354151542
 20
49.4714555389
 10
245.7045628873
 20
50.6670415581
 10
246.4316579273
 20
51.8264260075
 10
247.21128177
 20
52.940969016
 10
248.0376263821
 20
54.0023678246
 10
248.9045337138
 20
55.0027115354
 10
249.805543773
 20
55.9345468873
 10
250.733943686
 20
56.7909316742
 10
251.6828149489
 20
57.5654825544
 10
252.6450876749
 20
58.2524307018
 10
253.6135914359
 20
58.8466541984
 10
254.5811096644
 20
59.3437284512
 10
255.5404330165
 20
59.7399471117
 10
256.4844135987
 20
60.0323602248
 10
257.4060170031
 20
60.2187867778
 10
258.2983760923
 20
60.2978389046
 10
259.1548418716
 20
60.2689269201
 10
259.9690327155
 20
60.1322672042
  0
LWPOLYLINE
  5
2B5
330
1F
100
AcDbEntity
  8
0
  6
Continuous
 62
     7
370
     0
100
AcDbPolyline
 90
       19
 70
   128
 43
0.0
 10
246.188278975
 20
42.3582208827
 10
246.4847774444
 20
43.5068300528
 10
246.8566667477
 20
44.6639626412
 10
247.300894531
 20
45.8201207528
 10
247.8138137749
 20
46.9658145333
 10
248.3912150628
 20
48.0916393527
 10
249.0283595084
 20
49.1883564118
 10
249.7200162928
 20
50.2469619406
 10
250.4605094208
 20
51.258767803
 10
251.2437605266
 20
52.2154695539
 10
252.0633405695
 20
53.109213546
 10
252.9125223527
 20
53.9326645099
 10
253.7843361703
 20
54.6790635353
 10
254.6716259485
 20
55.3422848144
 10
255.5671089567
 20
55.9168830409
 10
256.4634350871
 20
56.3981436009
 10
257.3532471731
 20
56.782115873
 10
258.2292419252
 20
57.0656476455
 10
258.2983006889
 20
57.0838617614
  0
LWPOLYLINE
  5
2B6
330
1F
100
AcDbEntity
  8
0
  6
Continuous
 62
     7
370
     0
100
AcDbPolyline
 90
       22
 70
   128
 43
0.0
 10
245.6104944142
 20
42.3512364058
 10
245.9055803057
 20
43.5221276514
 10
246.2772832409
 20
44.7026064681
 10
246.7225982811
 20
45.8831319901
 10
247.2379277979
 20
47.0541664493
 10
247.8191078142
 20
48.2062458955
 10
248.461440932
 20
49.3300611826
 10
249.1597378207
 20
50.4165313499
 10
249.908355083
 20
51.4568760519
 10
250.7012436584
 20
52.4426898895
 10
251.5319962382
 20
53.366005524
 10
252.3938996195
 20
54.2193626838
 10
253.2799893649
 20
54.995864814
 10
254.1831051201
 20
55.6892383876
 10
255.0959489977
 20
56.2938795372
 10
256.01114462
 20
56.8049033491
 10
256.9212964704
 20
57.2181788869
 10
257.8190501916
 20
57.5303678025
 10
258.6971508044
 20
57.7389472994
 10
259.5485029856
 20
57.8422312416
 10
260.36622725
 20
57.8393850962
 10
260.3714129588
 20
57.8390197776
  0
LWPOLYLINE
  5
2B7
330
1F
100
AcDbEntity
  8
0
  6
Continuous
 62
     7
370
     0
100
AcDbPolyline
 90
       22
 70
   128
 43
0.0
 10
265.7767467742
 20
33.5148412448
 10
265.9376850091
 20
33.4311557386
 10
266.347068544
 20
33.3122459483
 10
266.8004983343
 20
33.2991967294
 10
267.2862306383
 20
33.3923461166
 10
267.7916854036
 20
33.5892818425
 10
268.3037715063
 20
33.8849028571
 10
268.8092262717
 20
34.2715527813
 10
269.2949585756
 20
34.739217975
 10
269.748388366
 20
35.2757860864
 10
270.1577719008
 20
35.8673600451
 10
270.5125062843
 20
36.4986182793
 10
270.8034044913
 20
37.1532120791
 10
271.0229317847
 20
37.8141870609
 10
271.1654032792
 20
38.4644251208
 10
271.2271283267
 20
39.0870848589
 10
271.2065086396
 20
39.6660399425
 10
271.1040782976
 20
40.1862957159
 10
270.9224902471
 20
40.6343779657
 10
270.6664471546
 20
40.9986813016
 10
270.3425805632
 20
41.2697705136
 10
270.2975456677
 20
41.2968308683
  0
LINE
  5
2B8
330
1F
100
AcDbEntity
  8
0
  6
Continuous
 62
     7
370
     0
100
AcDbLine
 10
250.8827105367
 20
40.716697083
 30
0.0
 11
250.3169332179
 21
41.0433133769
 31
0.0
  0
LWPOLYLINE
  5
2B9
330
1F
100
AcDbEntity
  8
0
  6
Continuous
 62
     7
370
     0
100
AcDbPolyline
 90
        3
 70
   128
 43
0.0
 10
245.2000459306
 20
41.3961315989
 10
245.1993399708
 20
41.5173696973
 10
245.2241387814
 20
42.2520129742
  0
LINE
  5
2BA
330
1F
100
AcDbEntity
  8
0
  6
Continuous
 62
     7
370
     0
100
AcDbLine
 10
245.3981280514
 20
38.6161907422
 30
0.0
 11
250.8827105367
 21
35.4500086675
 31
0.0
  0
LINE
  5
2BB
330
1F
100
AcDbEntity
  8
0
  6
Continuous
 62
     7
370
     0
100
AcDbLine
 10
245.278889184
 20
38.5473334222
 30
0.0
 11
245.3981280514
 21
38.6161907422
 31
0.0
  0
LWPOLYLINE
  5
2BC
330
1F
100
AcDbEntity
  8
0
  6
Continuous
 62
     7
370
     0
100
AcDbPolyline
 90
       18
 70
   128
 43
0.0
 10
223.9274564955
 20
57.8093334778
 10
223.9682786817
 20
58.5220650319
 10
224.0899856094
 20
59.268652504
 10
224.2903095803
 20
60.035188001
 10
224.5655189522
 20
60.8073926614
 10
224.9104876145
 20
61.5708819549
 10
225.3187888315
 20
62.3114327869
 10
225.7828167432
 20
63.0152506938
 10
226.2939279531
 20
63.6692249658
 10
226.8426008954
 20
64.2611729302
 10
227.4186151239
 20
64.7800677884
 10
228.0112404174
 20
65.2162439827
 10
228.6094373472
 20
65.5615757197
 10
229.2020626407
 20
65.809630125
 10
229.7780768692
 20
65.9557871389
 10
230.3267498115
 20
65.9973234696
 10
230.8378610213
 20
65.9334656396
 10
231.0730927903
 20
65.8634766084
  0
ARC
  5
2BD
330
1F
100
AcDbEntity
  8
0
  6
Continuous
 62
     7
370
     0
100
AcDbCircle
 10
227.3389390164
 20
57.584105283
 30
0.0
 40
3.41890928948763
100
AcDbArc
 50
176.2227786418
 51
223.9742639153
  0
ARC
  5
2BE
330
1F
100
AcDbEntity
  8
0
  6
Continuous
 62
     7
370
     0
100
AcDbCircle
 10
255.2729209477
 20
35.0656552598
 30
0.0
 40
7.679947897003088
100
AcDbArc
 50
196.1449136506
 51
212.8886793686
  0
LINE
  5
2BF
330
1F
100
AcDbEntity
  8
0
  6
Continuous
 62
     7
370
     0
100
AcDbLine
 10
250.3170254141
 20
34.4702129168
 30
0.0
 11
245.0667574276
 21
37.5011281106
 31
0.0
  0
LINE
  5
2C0
330
1F
100
AcDbEntity
  8
0
  6
Continuous
 62
     7
370
     0
100
AcDbLine
 10
247.0513907855
 20
35.0899785062
 30
0.0
 11
246.9731675517
 21
35.3319605753
 31
0.0
  0
LWPOLYLINE
  5
2C1
330
1F
100
AcDbEntity
  8
0
  6
Continuous
 62
     7
370
     0
100
AcDbPolyline
 90
        3
 70
   128
 43
0.0
 10
246.6856783004
 20
34.5578143173
 10
246.4875169896
 20
34.9725095236
 10
246.188278975
 20
35.7850671061
  0
ARC
  5
2C2
330
1F
100
AcDbEntity
  8
0
  6
Continuous
 62
     7
370
     0
100
AcDbCircle
 10
252.2876341873
 20
37.6682983168
 30
0.0
 40
6.939532469492418
100
AcDbArc
 50
195.8061616042
 51
213.7821435981
  0
ARC
  5
2C3
330
1F
100
AcDbEntity
  8
0
  6
Continuous
 62
     7
370
     0
100
AcDbCircle
 10
250.0927222845
 20
38.0555009333
 30
0.0
 40
7.679262266741724
100
AcDbArc
 50
196.1444612194
 51
212.9026224552
  0
OLE2FRAME
  5
2C4
330
1F
100
AcDbEntity
  8
0
100
AcDbOle2Frame
 70
     2
  3
Paintbrush-Bild
 10
13.8511154363
 20
38.264191557
 30
0.0
 11
51.6290888628
 21
31.9806341108
 31
0.0
 71
     2
 72
     0
 73
     1
 90
    12928
310
80552BED0767C5B32B40DDAF6807D121434000000000000000006FFBDDFB85D0
310
4940DDAF6807D121434000000000000000006FFBDDFB85D04940416F4BD60AFB
310
3F4000000000000000002BED0767C5B32B40416F4BD60AFB3F40000000000000
310
0000000000000100000000010000010000000100000000000100000000320000
310
D0CF11E0A1B11AE1000000000000000000000000000000003E000300FEFF0900
310
0600000000000000000000000100000001000000000000000010000002000000
310
01000000FEFFFFFF0000000000000000FFFFFFFFFFFFFFFFFFFFFFFFFFFFFFFF
310
FFFFFFFFFFFFFFFFFFFFFFFFFFFFFFFFFFFFFFFFFFFFFFFFFFFFFFFFFFFFFFFF
310
FFFFFFFFFFFFFFFFFFFFFFFFFFFFFFFFFFFFFFFFFFFFFFFFFFFFFFFFFFFFFFFF
310
FFFFFFFFFFFFFFFFFFFFFFFFFFFFFFFFFFFFFFFFFFFFFFFFFFFFFFFFFFFFFFFF
310
FFFFFFFFFFFFFFFFFFFFFFFFFFFFFFFFFFFFFFFFFFFFFFFFFFFFFFFFFFFFFFFF
310
FFFFFFFFFFFFFFFFFFFFFFFFFFFFFFFFFFFFFFFFFFFFFFFFFFFFFFFFFFFFFFFF
310
FFFFFFFFFFFFFFFFFFFFFFFFFFFFFFFFFFFFFFFFFFFFFFFFFFFFFFFFFFFFFFFF
310
FFFFFFFFFFFFFFFFFFFFFFFFFFFFFFFFFFFFFFFFFFFFFFFFFFFFFFFFFFFFFFFF
310
FFFFFFFFFFFFFFFFFFFFFFFFFFFFFFFFFFFFFFFFFFFFFFFFFFFFFFFFFFFFFFFF
310
FFFFFFFFFFFFFFFFFFFFFFFFFFFFFFFFFFFFFFFFFFFFFFFFFFFFFFFFFFFFFFFF
310
FFFFFFFFFFFFFFFFFFFFFFFFFFFFFFFFFFFFFFFFFFFFFFFFFFFFFFFFFFFFFFFF
310
FFFFFFFFFFFFFFFFFFFFFFFFFFFFFFFFFFFFFFFFFFFFFFFFFFFFFFFFFFFFFFFF
310
FFFFFFFFFFFFFFFFFFFFFFFFFFFFFFFFFFFFFFFFFFFFFFFFFFFFFFFFFFFFFFFF
310
FFFFFFFFFFFFFFFFFFFFFFFFFFFFFFFFFFFFFFFFFFFFFFFFFFFFFFFFFFFFFFFF
310
FDFFFFFFFEFFFFFFFEFFFFFFFEFFFFFF05000000060000000700000008000000
310
090000000A0000000B0000000C0000000D0000000E0000000F00000010000000
310
11000000120000001300000014000000150000001600000017000000FEFFFFFF
310
FFFFFFFFFFFFFFFFFFFFFFFFFFFFFFFFFFFFFFFFFFFFFFFFFFFFFFFFFFFFFFFF
310
FFFFFFFFFFFFFFFFFFFFFFFFFFFFFFFFFFFFFFFFFFFFFFFFFFFFFFFFFFFFFFFF
310
FFFFFFFFFFFFFFFFFFFFFFFFFFFFFFFFFFFFFFFFFFFFFFFFFFFFFFFFFFFFFFFF
310
FFFFFFFFFFFFFFFFFFFFFFFFFFFFFFFFFFFFFFFFFFFFFFFFFFFFFFFFFFFFFFFF
310
FFFFFFFFFFFFFFFFFFFFFFFFFFFFFFFFFFFFFFFFFFFFFFFFFFFFFFFFFFFFFFFF
310
FFFFFFFFFFFFFFFFFFFFFFFFFFFFFFFFFFFFFFFFFFFFFFFFFFFFFFFFFFFFFFFF
310
FFFFFFFFFFFFFFFFFFFFFFFFFFFFFFFFFFFFFFFFFFFFFFFFFFFFFFFFFFFFFFFF
310
FFFFFFFFFFFFFFFFFFFFFFFFFFFFFFFFFFFFFFFFFFFFFFFFFFFFFFFFFFFFFFFF
310
FFFFFFFFFFFFFFFFFFFFFFFFFFFFFFFFFFFFFFFFFFFFFFFFFFFFFFFFFFFFFFFF
310
FFFFFFFFFFFFFFFFFFFFFFFFFFFFFFFFFFFFFFFFFFFFFFFFFFFFFFFFFFFFFFFF
310
FFFFFFFFFFFFFFFFFFFFFFFFFFFFFFFFFFFFFFFFFFFFFFFFFFFFFFFFFFFFFFFF
310
FFFFFFFFFFFFFFFFFFFFFFFFFFFFFFFFFFFFFFFFFFFFFFFFFFFFFFFFFFFFFFFF
310
FFFFFFFFFFFFFFFFFFFFFFFFFFFFFFFFFFFFFFFFFFFFFFFFFFFFFFFFFFFFFFFF
310
52006F006F007400200045006E00740072007900000000000000000000000000
310
0000000000000000000000000000000000000000000000000000000000000000
310
16000500FFFFFFFFFFFFFFFF020000000A00030000000000C000000000000046
310
00000000000000000000000010CC75FA6024D20103000000C000000000000000
310
01004F006C006500000000000000000000000000000000000000000000000000
310
0000000000000000000000000000000000000000000000000000000000000000
310
0A000200FFFFFFFFFFFFFFFFFFFFFFFF00000000000000000000000000000000
310
0000000000000000000000000000000000000000000000001400000000000000
310
010043006F006D0070004F0062006A0000000000000000000000000000000000
310
0000000000000000000000000000000000000000000000000000000000000000
310
120002010100000003000000FFFFFFFF00000000000000000000000000000000
310
0000000000000000000000000000000000000000010000004D00000000000000
310
01004F006C006500310030004E00610074006900760065000000000000000000
310
0000000000000000000000000000000000000000000000000000000000000000
310
1A000200FFFFFFFFFFFFFFFFFFFFFFFF00000000000000000000000000000000
310
0000000000000000000000000000000000000000040000002426000000000000
310
FEFFFFFF02000000FEFFFFFFFFFFFFFFFFFFFFFFFFFFFFFFFFFFFFFFFFFFFFFF
310
FFFFFFFFFFFFFFFFFFFFFFFFFFFFFFFFFFFFFFFFFFFFFFFFFFFFFFFFFFFFFFFF
310
FFFFFFFFFFFFFFFFFFFFFFFFFFFFFFFFFFFFFFFFFFFFFFFFFFFFFFFFFFFFFFFF
310
FFFFFFFFFFFFFFFFFFFFFFFFFFFFFFFFFFFFFFFFFFFFFFFFFFFFFFFFFFFFFFFF
310
FFFFFFFFFFFFFFFFFFFFFFFFFFFFFFFFFFFFFFFFFFFFFFFFFFFFFFFFFFFFFFFF
310
FFFFFFFFFFFFFFFFFFFFFFFFFFFFFFFFFFFFFFFFFFFFFFFFFFFFFFFFFFFFFFFF
310
FFFFFFFFFFFFFFFFFFFFFFFFFFFFFFFFFFFFFFFFFFFFFFFFFFFFFFFFFFFFFFFF
310
FFFFFFFFFFFFFFFFFFFFFFFFFFFFFFFFFFFFFFFFFFFFFFFFFFFFFFFFFFFFFFFF
310
FFFFFFFFFFFFFFFFFFFFFFFFFFFFFFFFFFFFFFFFFFFFFFFFFFFFFFFFFFFFFFFF
310
FFFFFFFFFFFFFFFFFFFFFFFFFFFFFFFFFFFFFFFFFFFFFFFFFFFFFFFFFFFFFFFF
310
FFFFFFFFFFFFFFFFFFFFFFFFFFFFFFFFFFFFFFFFFFFFFFFFFFFFFFFFFFFFFFFF
310
FFFFFFFFFFFFFFFFFFFFFFFFFFFFFFFFFFFFFFFFFFFFFFFFFFFFFFFFFFFFFFFF
310
FFFFFFFFFFFFFFFFFFFFFFFFFFFFFFFFFFFFFFFFFFFFFFFFFFFFFFFFFFFFFFFF
310
FFFFFFFFFFFFFFFFFFFFFFFFFFFFFFFFFFFFFFFFFFFFFFFFFFFFFFFFFFFFFFFF
310
FFFFFFFFFFFFFFFFFFFFFFFFFFFFFFFFFFFFFFFFFFFFFFFFFFFFFFFFFFFFFFFF
310
FFFFFFFFFFFFFFFFFFFFFFFFFFFFFFFFFFFFFFFFFFFFFFFFFFFFFFFFFFFFFFFF
310
0100000200000000000000000000000000000000000000000000000000000000
310
0000000000000000000000000000000000000000000000000000000000000000
310
0100FEFF030A0000FFFFFFFF0A00030000000000C00000000000004607000000
310
5042727573680007000000504272757368000700000050427275736800F439B2
310
7100000000000000000000000000000000000000000000000000000000000000
310
0000000000000000000000000000000000000000000000000000000000000000
310
0000000000000000000000000000000000000000000000000000000000000000
310
0000000000000000000000000000000000000000000000000000000000000000
310
0000000000000000000000000000000000000000000000000000000000000000
310
0000000000000000000000000000000000000000000000000000000000000000
310
0000000000000000000000000000000000000000000000000000000000000000
310
0000000000000000000000000000000000000000000000000000000000000000
310
0000000000000000000000000000000000000000000000000000000000000000
310
0000000000000000000000000000000000000000000000000000000000000000
310
0000000000000000000000000000000000000000000000000000000000000000
310
0000000000000000000000000000000000000000000000000000000000000000
310
20260000424D0E260000000000003E00000028000000B40200006E0000000100
310
01000000000000000000130B0000130B00000200000002000000000000FFFFFF
310
FFFFFFFFFFFFFFFFFFFFFFFFFFFFFFFFFFFFFFFFFFFFFFFFFFFFFFFFFFFFFFFF
310
FFFFFFFFFFFFFFFFFFFFFFFFFFFFFFFFFFFFFFFFFFFFFFFFFFFFFFFFFFFFFFFF
310
FFFFFFFFFFFFFFFFFFFFFFFFFFFFFFFFFFFFFFFFFFFFFFFFF000FFFFFFFFFFFF
310
FFFFFFFFFFFFFFFFFFFFFFFFFFFFFFFFFFFFFFFFFFFFFFFFFFFFFFFFFFFFFFFF
310
FFFFFFFFFFFFFFFFFFFFFFFFFFFFFFFFFFFFFFFFFFFFFFFFFFFFFFFFFFFFFFFF
310
FFFFFFFFFFFFFFFFFFFFFFFFFFFFFFFFF000FFFFFFFFFFFFFFFFFFFFFFFFFFFF
310
FFFFFFFFFFFFFFFFFFFFFFFFFFFFFFFFFFFFFFFFFFFFFFFFFFFFFFFFFFFFFFFF
310
FFFFFFFFFFFFFFFFFFFFFFFFFFFFFFFFFFFFFFFFFFFFFFFFFFFFFFFFFFFFFFFF
310
FFFFFFFFFFFFFFFFF000FFFFFFFFFFFFFFFFFFFFFFFFFFFFFFFFFFFFFFFFFFFF
310
FFFFFFFFFFFFFFFFFFFFFFFFFFFFFFFFFFFFFFFFFFFFFFFFFFFFFFFFFFFFFFFF
310
FFFFFFFFFFFFFFFFFFFFFFFFFFFFFFFFFFFFFFFFFFFFFFFFFFFFFFFFFFFFFFFF
310
F000FFFFFFFFFFFFFFFFFFFFFFFFFFFFFFFFFFFFFFFFFFFFFFFFFFFFFFFFFFFF
310
FFFFFFFFFFFFFFFFFFFFFFFFFFFFFFFFFFFFFFFFFFFFFFFFFFFFFFFFFFFFFFFF
310
FFFFFFFFFFFFFFFFFFFFFFFFFFFFFFFFFFFFFFFFFFFFFFFFF000FFFFFFFFFFFF
310
FFFFFFFFFFFFFFFFFFFFFFFFFFFFFFFFFFFFFFFFFFFFFFFFFFFFFFFFFFFFFFFF
310
FFFFFFFFFFFFFFFFFFFFFFFFFFFFFFFFFFFFFFFFFFFFFFFFFFFFFFFFFFFFFFFF
310
FFFFFFFFFFFFFFFFFFFFFFFFFFFFFFFFF000FFFFFFFFFFFFFFFFFFFFFFFFFFFF
310
FFFFFFFFFFFFFFFFFFFFFFFFFFFFFFFFFFFFFFFFFFFFFFFFFFFFFFFFFFFFFFFF
310
FFFFFFFFFFFFFFFFFFFFFFFFFFFFFFFFFFFFFFFFFFFFFFFFFFFFFFFFFFFFFFFF
310
FFFFFFFFFFFFFFFFF000FFFFFFFFFFFFFFFFFFFFFFFFFFFFFFFFFFFFFFFFFFFF
310
FFFFFFFFFFFFFFFFFFFFFFFFFFFFFFFFFFFFFFFFFFFFFFFFFFFFFFFFFFFFFFFF
310
FFFFFFFFFFFFFFFFFFFFFFFFFFFFFFFFFFFFFFFFFFFFFFFFFFFFFFFFFFFFFFFF
310
F000FFFFFFFFFFFFFFFFFFFFFFFFFFFFFFFFFFFFFFFFFFFFFFFFFFFFFFFFFFFF
310
FFFFFFFFFFFFFFFFFFFFFFFFFFFFFFFFFFFFFFFFFFFFFFFFFFFFFFFFFFFFFFFF
310
FFFFFFFFFFFFFFFFFFFFFFFFFFFFFFFFFFFFFFFFFFFFFFFFF000FFFFFFFFFFFF
310
FFFFFFFFFFFFFFFFFFFFFFFFFFFFFFFFFFFFFFFFFFFFFFFFFFFFFFFFFFFFFFFF
310
FFFFFFFFFFFFFFFFFFFFFFFFFFFFFFFFFFFFFFFFFFFFFFFFFFFFFFFFFFFFFFFF
310
FFFFFFFFFFFFFFFFFFFFFFFFFFFFFFFFF000FFFFFFFFFFFFFFFFFFFFFFFFFFFF
310
FFFFFFFFFFFFFFFFFFFFFFFFFFFFFFFFFFFFFFFFFFFFFFFFFFFFFFFFFFFFFFFF
310
FFFFFFFFFFFFFFFFFFFFFFFFFFFFFFFFFFFFFFFFFFFFFFFFFFFFFFFFFFFFFFFF
310
FFFFFFFFFFFFFFFFF000FFFFFFFFFFFFFFFFFFFFFFFFFFFFFFFFFFFFFFFFFFFF
310
FFFFFFFFFFFFFFFFFFFFFFFFFFFFFFFFFFFFFFFFFFFFFFFFFFFFFFFFFFFFFFFF
310
FFFFFFFFFFFFFFFFFFFFFFFFFFFFFFFFFFFFFFFFFFFFFFFFFFFFFFFFFFFFFFFF
310
F000FFFFFFFFFFFFFFFFFFFFFFFFFFFFFFFFFFFFFFFFFFFFFFFFFFFFFFFFFFFF
310
FFFFFFFFFFFFFFFFFFFFFFFFFFFFFFFFFFFFFFFFFFFFFFFFFFFFFFFFFFFFFFFF
310
FFFFFFFFFFFFFFFFFFFFFFFFFFFFFFFFFFFFFFFFFFFFFFFFF000FFFFFFFFFFFF
310
FFFFFFFFFFFFFFFFFFFFFFFFFFFFFFFFFFFFFFFFFFFFFFFFFFFFFFFFFFFFFFFF
310
FFFFFFFFFFFFFFFFFFFFFFFFFFFFFFFFFFFFFFFFFFFFFFFFFFFFFFFFFFFFFFFF
310
FFFFFFFFFFFFFFFFFFFFFFFFFFFFFFFFF000FFFFFFFFFFFFFFFFFFFFFFFFFFFF
310
FFFFFFFFFFFFFFFFFFFFFFFFFFFFFFFFFFFFFFFFFFFFFFFFFFFFFFFFFFFFFFFF
310
FFFFFFFFFFFFFFFFFFFFFFFFFFFFFFFFFFFFFFFFFFFFFFFFFFFFFFFFFFFFFFFF
310
FFFFFFFFFFFFFFFFF000FFFFFFFFFFFFFFFFFFFFFFFFFFFFFFFFFFFFFFFFFFFF
310
FFFFFFFFFFFFFFFFFFFFFFFFFFFFFFFFFFFFFFFFFFFFFFFFFFFFFFFFFFFFFFFF
310
FFFFFFFFFFFFFFFFFFFFFFFFFFFFFFFFFFFFFFFFFFFFFFFFFFFFFFFFFFFFFFFF
310
F000FFFFFFFFFFFFFFFFFFFFFFFFFFFFFFFFFFFFFFFFFFFFFFFFFFFFFFFFFFFF
310
FFFFFFFFFFFFFFFFFFFFFFFFFFFFFFFFFFFFFFFFFFFFFFFFFFFFFFFFFFFFFFFF
310
FFFFFFFFFFFFFFFFFFFFFFFFFFFFFFFFFFFFFFFFFFFFFFFFF000FFFFFFFFFFFF
310
FFFFFFFFFFFFFFFFFFFFFFFFFFFFFFFFFFFFFFFFFFFFFFFFFFFFFFFFFFFFFFFF
310
FFFFFFFFFFFFFFFFFFFFFFFFFFFFFFFFFFFFFFFFFFFFFFFFFFFFFFFFFFFFFFFF
310
FFFFFFFFFFFFFFFFFFFFFFFFFFFFFFFFF000FFFFFFFFFFFFFFFFFFFFFFFFFFFF
310
FFFFFFFFFFFFFFFFFFFFFFFFFFFFFFFFFFFFFFFFFFFFFFFFFFFFFFFFFFFFFFFF
310
FFFFFFFFFFFFFFFFFFFFFFFFFFFFFFFFFFFFFFFFFFFFFFFFFFFFFFFFFFFFFFFF
310
FFFFFFFFFFFFFFFFF000FFFFF80003FFFFFFFFFFFFFFFFFFFFFFFFFFFFFFFFFF
310
FFFFF00007FFFFFFFFFF00007FFFFFF800000000000000007FFFFFFFFFFFFFFF
310
FFFFFFFC001FFFFFFFFFFFFFFC001FFFFFFFFFFFFFFFFFFFFFFFFFFE0007FFFF
310
F000FFFF8000007FFFFFFFF8000FFFFFC0007FFFFF80007FFFFF0000007FFFFF
310
FFF8000007FFFFF800000000000000007FFFFFF0001FFFFFFFFFFFC00001FFFF
310
FFFFFFFFC00001FFFFFFFF000000000003FFFFE000007FFFF000FFFE0000000F
310
FFFFFFF0000FFFFF80007FFFFF80007FFFFC0000001FFFFFFFC0000001FFFFF8
310
00000000000000007FFFFFF0001FFFFFFFFFFE0000003FFFFFFFFFFE0000003F
310
FFFFFF000000000003FFFF0000000FFFF000FFF800000003FFFFFFF00007FFFF
310
80007FFFFF80007FFFF000000007FFFFFF000000003FFFF80000000000000000
310
7FFFFFF0001FFFFFFFFFF80000000FFFFFFFFFF80000000FFFFFFF0000000000
310
03FFFC00000003FFF000FFE000000000FFFFFFF00007FFFF80003FFFFF80007F
310
FFC000000001FFFFFC000000001FFFF800000000000000007FFFFFF0001FFFFF
310
FFFFE000000003FFFFFFFFE000000003FFFFFF000000000003FFF000000000FF
310
F000FF80000000007FFFFFF00007FFFF80003FFFFF80007FFF8000000000FFFF
310
F80000000007FFF800000000000000007FFFFFF0001FFFFFFFFFC000000001FF
310
FFFFFFC000000001FFFFFF000000000003FFC0000000007FF000FF0000000000
310
3FFFFFE00007FFFF00003FFFFF80007FFE00000000003FFFF00000000003FFF8
310
00000000000000007FFFFFF0001FFFFFFFFF8000000000FFFFFFFF8000000000
310
FFFFFF000000000003FF80000000003FF000FE00000000001FFFFFE00003FFFF
310
00003FFFFF80007FFC00000000001FFFE00000000001FFF8000001FFFE000000
310
7FFFFFF0001FFFFFFFFE00000000003FFFFFFE00000000003FFFFF0000000000
310
03FF00000000001FF000FC00000000000FFFFFE00003FFFF00001FFFFF80007F
310
F800000000001FFFC00000000000FFF8000001FFFE0000007FFFFFF0001FFFFF
310
FFFC00000000001FFFFFFC00000000001FFFFF000000000003FE00000000000F
310
F000F8000000000007FFFFE00003FFFF00001FFFFF80007FF800000000000FFF
310
800000000000FFF8000001FFFE0000007FFFFFF0001FFFFFFFF800000000000F
310
FFFFF800000000000FFFFF000000000003FC000000000007F000F80000000000
310
03FFFFC00003FFFE00001FFFFF80007FF0000000000007FF0000000000007FF8
310
000001FFFE0000007FFFFFF0001FFFFFFFF0000000000007FFFFF00000000000
310
07FFFF000000000003F8000000000003F000F0000000000003FFFFC00001FFFE
310
00001FFFFF80007FE0000000000007FE0000000000003FF8000001FFFE000000
310
7FFFFFF0001FFFFFFFF0000000000007FFFFF0000000000007FFFF0000000000
310
03F800001F800003F000E00001FFF00001FFFFC00001FFFE00000FFFFF80007F
310
E00001FFE00003FE00001FFF00003FF8000001FFFE0000007FFFFFF0001FFFFF
310
FFE000003E000003FFFFE000003E000003FFFF000000000003F00001FFF80001
310
F000E00007FFFC0001FFFFC00001FFFE00000FFFFF80007FC0000FFFFC0003FC
310
0000FFFFC0001FF8000001FFFE0000007FFFFFF0001FFFFFFFC00003FFE00001
310
FFFFC00003FFE00001FFFF0001FFFFFFFFF00007FFFE0001F000E0000FFFFF00
310
00FFFF800001FFFC00000FFFFF80007FC0001FFFFE0001FC0001FFFFE0001FF8
310
000001FFFE0000007FFFFFF0001FFFFFFF80000FFFF80000FFFF80000FFFF800
310
00FFFF0003FFFFFFFFE0000FFFFF8000F000C0003FFFFF8000FFFF800000FFFC
310
000007FFFF80007F80003FFFFF0001FC0003FFFFF0001FF8000001FFFE000000
310
7FFFFFF0001FFFFFFF80003FFFFE0000FFFF80003FFFFE0000FFFF0003FFFFFF
310
FFE0003FFFFF8000F000C0003FFFFF8000FFFF800000FFFC000007FFFF80007F
310
80007FFFFF8001F80007FFFFF8000FF8000001FFFE0000007FFFFFF0001FFFFF
310
FF00007FFFFF00007FFF00007FFFFF00007FFF0003FFFFFFFFE0003FFFFFC000
310
F000C0007FFFFFC000FFFF000000FFFC000007FFFF80007F8000FFFFFF8000F8
310
000FFFFFF8000FF8000001FFFE0000007FFFFFF0001FFFFFFF0000FFFFFF8000
310
7FFF0000FFFFFF80007FFF0003FFFFFFFFC0007FFFFFC00070008000FFFFFFC0
310
00FFFF000000FFF8000007FFFF80007F8000FFFFFF8000F8000FFFFFF8000FF8
310
000001FFFE0000007FFFFFF0001FFFFFFE0001FFFFFFC0003FFE0001FFFFFFC0
310
003FFF0003FFFFFFFFC0007FFFFFE00070008000FFFFFFC0007FFF0000007FF8
310
000003FFFF80007F0001FFFFFF8000F8000FFFFFF8000FF8000001FFFE000000
310
7FFFFFF0001FFFFFFE0001FFFFFFC0003FFE0001FFFFFFC0003FFF0003FFFFFF
310
FFC000FFFFFFE00070008000FFFFFFC0007FFF0000007FF8000003FFFF80007F
310
0001FFFFFF8000F8001FFFFFF8000FF8000001FFFE0000007FFFFFF0001FFFFF
310
FE0003FFFFFFE0003FFE0003FFFFFFE0003FFF0003FFFFFFFFC000FFFFFFE000
310
70008000FFFFFFC0007FFE0000007FF8000003FFFF80007F0001FFFFFF8000F0
310
001FFFFFF8000FF8000001FFFE0000007FFFFFF0001FFFFFFC0003FFFFFFE000
310
1FFC0003FFFFFFE0001FFF0003FFFFFFFFC000FFFFFFC00070008000FFFFFF80
310
007FFE0000007FF0000003FFFF80007F0001FFFFFF0000F0001FFFFFF8000FF8
310
000001FFFE0000007FFFFFF0001FFFFFFC0007FFFFFFF0001FFC0007FFFFFFF0
310
001FFF0003FFFFFFFFC000FFFFFFC00070008001FFFFFF0000FFFE0000003FF0
310
000001FFFF80007F0001FFFFFF0000F8001FFFFFF0000FF8000001FFFE000000
310
7FFFFFF0001FFFFFFC0007FFFFFFF0001FFC0007FFFFFFF0001FFF0003FFFFFF
310
FFC001FFFFFF80007000FFFFFFFFFE0000FFFE0008003FF0008001FFFF80007F
310
FFFFFFFFFC0000FFFFFFFFFFE0000FF8000001FFFE0000007FFFFFF0001FFFFF
310
F8000FFFFFFFF8000FF8000FFFFFFFF8000FFF0003FFFFFFFFFFFFFFFFFF0000
310
7000FFFFFFFFFC0000FFFC0008003FF0008001FFFF80007FFFFFFFFFF80001FF
310
FFFFFFFF80000FF8000001FFFE0000007FFFFFF0001FFFFFF8000FFFFFFFF800
310
0FF8000FFFFFFFF8000FFF0003FFFFFFFFFFFFFFFFFE0000F000FFFFFFFFE000
310
00FFFC000C003FE000C001FFFF80007FFFFFFFFFC00001FFFFFFFFFE00001FF8
310
000001FFFE0000007FFFFFF0001FFFFFF8000FFFFFFFF8000FF8000FFFFFFFF8
310
000FFF0003FFFFFFFFFFFFFFFFF00000F000FFFFFFFE000001FFFC000C001FE0
310
00C000FFFF80007FFFFFFFFE000001FFFFFFFFE000001FF80FFFFFFFFFFFFFC0
310
7FFFFFF0001FFFFFF8000FFFFFFFF8000FF8000FFFFFFFF8000FFF0003FFFFFF
310
FFFFFFFFFF800000F000FFFFFFC0000001FFFC001C001FE001C000FFFF80007F
310
FFFFFF80000003FFFFFFF80000001FF80FFFFFFFFFFFFFC07FFFFFF0001FFFFF
310
F8001FFFFFFFFC000FF8001FFFFFFFFC000FFF0003FFFFFFFFFFFFFFF0000001
310
F000FFFFF800000001FFF8001C001FE001C000FFFF80007FFFFFF800000003FF
310
FFFF800000003FF80FFFFFFFFFFFFFC07FFFFFF0001FFFFFF8001FFFFFFFFC00
310
0FF8001FFFFFFFFC000FFF0003FFFFFFFFFFFFFE00000001F000FFFFC0000000
310
03FFF8001E001FC001E000FFFF80007FFFFF8000000007FFFFFC000000003FF8
310
0FFFFFFFFFFFFFC07FFFFFF0001FFFFFF8001FFFFFFFFC000FF8001FFFFFFFFC
310
000FFF0003FFFFFFFFFFFFE000000003F000FFFE0000000007FFF8001E000FC0
310
01E0007FFF80007FFFFE0000000007FFFFE0000000007FF80FFFFFFFFFFFFFC0
310
7FFFFFF0001FFFFFF0001FFFFFFFFC0007F0001FFFFFFFFC0007FF0003FFFFFF
310
FFFFFF0000000003F000FFF80000000007FFF8001E000FC003E0007FFF80007F
310
FFF0000000000FFFFF8000000000FFF80FFFFFFFFFFFFFC07FFFFFF0001FFFFF
310
F0001FFFFFFFFC0007F0001FFFFFFFFC0007FF0003FFFFFFFFFFFC0000000007
310
F000FFE0000000000FFFF0003E000FC003E0007FFF80007FFFC0000000001FFF
310
FE0000000001FFF80FFFFFFFFFFFFFC07FFFFFF0001FFFFFF0001FFFFFFFFC00
310
07F0001FFFFFFFFC0007FF0003FFFFFFFFFFF0000000000FF000FFC000000000
310
1FFFF0003F000F8003F0003FFF80007FFF80000000003FFFF80000000003FFF8
310
0FFFFFFFFFFFFFC07FFFFFF0001FFFFFF0001FFFFFFFFC0007F0001FFFFFFFFC
310
0007FF0003FFFFFFFFFFE0000000001FF000FF00000000007FFFF0003F000780
310
03F0003FFF80007FFF00000000007FFFF00000000007FFF80FFFFFFFFFFFFFC0
310
7FFFFFF0001FFFFFF0001FFFFFFFFC0007F0001FFFFFFFFC0007FF0003FFFFFF
310
FFFF80000000007FF000FE0000000000FFFFE0003F00078007F0003FFF80007F
310
FE0000000001FFFFE0000000001FFFF80FFFFFFFFFFFFFC07FFFFFF0001FFFFF
310
F0001FFFFFFFFC0007F0001FFFFFFFFC0007FF0003FFFFFFFFFF0000000000FF
310
F000FC0000000003FFFFE0007F00078007F0003FFF80007FFC0000000007FFFF
310
C0000000007FFFF80FFFFFFFFFFFFFC07FFFFFF0001FFFFFF8001FFFFFFFFC00
310
0FF8001FFFFFFFFC000FFF0003FFFFFFFFFE0000000003FFF000FC000000000F
310
FFFFE0007F80070007F8001FFF80007FF8000000001FFFFF8000000001FFFFF8
310
0FFFFFFFFFFFFFC07FFFFFF0001FFFFFF8001FFFFFFFFC000FF8001FFFFFFFFC
310
000FFF0003FFFFFFFFFC000000000FFFF000F8000000007FFFFFE0007F800700
310
07F8001FFF80007FF000000000FFFFFF800000000FFFFFF80FFFFFFFFFFFFFC0
310
7FFFFFF0001FFFFFF8000FFFFFFFF8000FF8000FFFFFFFF8000FFF0003FFFFFF
310
FFFC000000007FFFF000F800000007FFFFFFC0007F8003000FF8001FFF80007F
310
F000000007FFFFFF000000007FFFFFF80FFFFFFFFFFFFFC07FFFFFF0001FFFFF
310
F8000FFFFFFFF8000FF8000FFFFFFFF8000FFF0003FFFFFFFFF80000000FFFFF
310
F000F0000000FFFFFFFFC000FF8003000FF8001FFF80007FE0000000FFFFFFFF
310
0000000FFFFFFFF8000001FFFE0000007FFFFFF0001FFFFFF8000FFFFFFFF800
310
0FF8000FFFFFFFF8000FFF0003FFFFFFFFF8000000FFFFFFF000F000000FFFFF
310
FFFFC000FFC002000FF8000FFF80007FE000001FFFFFFFFE000001FFFFFFFFF8
310
000001FFFE0000007FFFFFF0001FFFFFF8000FFFFFFFF8000FF8000FFFFFFFF8
310
000FFF0003FFFFFFFFF000001FFFFFFFF000E00000FFFFFFFFFFC000FFC00200
310
0FFC000FFF80007FE00001FFFFFFFFFE00001FFFFFFFFFF8000001FFFE000000
310
7FFFFFF0001FFFFFFC000FFFFFFFF8001FFC000FFFFFFFF8001FFF0003FFFFFF
310
FFF00001FFFFFFFFF000E00007FFFFFFFFFF8000FFC000001FFC000FFF80007F
310
C0000FFFFFFFFFFE0000FFFFFFFFFFF8000001FFFE0000007FFFFFF0001FFFFF
310
FC0007FFFFFFF0001FFC0007FFFFFFF0001FFF0003FFFFFFFFF00007FFFFFFFF
310
F000E0001FFFFFFFFFFF8000FFC000001FFC000FFF80007FC0003FFFFFFFFFFE
310
0001FFFFFFFFFFF8000001FFFE0000007FFFFFF0001FFFFFFC0007FFFFFFF000
310
1FFC0007FFFFFFF0001FFF0003FFFFFFFFF0001FFFFFFFFFF000E0003FFFFF00
310
03FF8001FFE000001FFC0007FF80007FC0007FFFFF0007FC0003FFFFF0003FF8
310
000001FFFE0000007FFFFFF0001FFFFFFC0003FFFFFFE0001FFC0003FFFFFFE0
310
001FFF0003FFFFFFFFF0003FFFFFFFFFF000E0003FFFFF0001FF8001FFE00000
310
1FFE0007FF80007FC0007FFFFE0003FC0007FFFFE0003FF8000001FFFE000000
310
7FFFFFF0001FFFFFFE0003FFFFFFE0003FFE0003FFFFFFE0003FFF0003FFFFFF
310
FFF0003FFFFF8001F000E0003FFFFF0001FF0001FFE000001FFE0007FF80007F
310
C0007FFFFE0003FC0007FFFFE0003FF8000001FFFE0000007FFFFFF0001FFFFF
310
FE0001FFFFFFC0003FFE0001FFFFFFC0003FFF0003FFFFFFFFF0003FFFFF0001
310
F000E0003FFFFF0003FF0001FFE000003FFE0007FF80007FC0007FFFFE0003FC
310
0007FFFFE0003FF8000001FFFE0000007FFFFFF0001FFFFFFF0001FFFFFFC000
310
7FFF0001FFFFFFC0007FFF0003FFFFFFFFF0003FFFFF0001F000E0003FFFFE00
310
03FF0003FFF000003FFE0003FF80007FC0007FFFFC0003FE0007FFFFE0003FF8
310
000001FFFE0000007FFFFFF0001FFFFFFF0000FFFFFF80007FFF0000FFFFFF80
310
007FFF0003FFFFFFFFF0003FFFFF0001F000E0003FFFFE0003FF0003FFF00000
310
3FFF0003FF80007FC0007FFFFC0007FE0007FFFFC0003FF8000001FFFE000000
310
7FFFFFF0001FFFFFFF80007FFFFF0000FFFF80007FFFFF0000FFFF0003FFFFFF
310
FFF0003FFFFF0003F000E0003FFFFC0003FE0003FFF000003FFF0003FF80007F
310
E0003FFFF80007FE0003FFFFC0007FF8000001FFFE0000007FFFFFF0001FFFFF
310
FF80003FFFFE0000FFFF80003FFFFE0000FFFF0003FFFFFFFFF0001FFFFE0003
310
F000F0001FFFF80003FE0003FFF000007FFF0001FF80007FE0003FFFF00007FE
310
0001FFFF80007FF8000001FFFE0000007FFFFFF0001FFFFFFFC0000FFFF80001
310
FFFFC0000FFFF80001FFFF0003FFFFFFFFF0001FFFFC0003F000F0000FFFF000
310
07FE0007FFF800007FFF0001FF80007FE0001FFFE00007FF0000FFFE00007FF8
310
000001FFFE0000007FFFFFF0001FFFFFFFC00003FFE00001FFFFC00003FFE000
310
01FFFF0003FFFFFFFFF8000FFFF80003F000F00003FFC00007FC0007FFF80000
310
7FFF8001FF80007FF00007FF80000FFF00007FF80000FFF8000001FFFE000000
310
7F80000000000001FFE000003E000003FFFFE000003E000003FFFF0003FFFFFF
310
FFF80003FFE00007F000F800000000000FFC0007FFF800007FFF8001FF80007F
310
F000000000000FFF000000000000FFF8000001FFFE0000007F80000000000001
310
FFF0000000000007FFFFF0000000000007FFFF0003FFFFFFFFFC00007E000007
310
F000F800000000000FFC0007FFF80000FFFF8000FF80007FF800000000001FFF
310
800000000001FFF8000001FFFE0000007F80000000000001FFF800000000000F
310
FFFFF800000000000FFFFF0003FFFFFFFFFC00000000000FF000FC0000000000
310
1FFC0007FFFC0000FFFF8000FF80007FF800000000003FFFC00000000001FFF8
310
000001FFFE0000007F80000000000001FFF800000000000FFFFFF80000000000
310
0FFFFF0003FFFFFFFFFE00000000001FF000FE00000000003FF8000FFFFC0000
310
FFFF8000FF80007FFC00000000003FFFC00000000003FFF8000001FFFE000000
310
7F80000000000001FFFC00000000001FFFFFFC00000000001FFFFF0003FFFFFF
310
FFFF00000000001FF000FF00000000003FF8000FFFFC0000FFFFC000FF80007F
310
FE00000000007FFFE00000000007FFF8000001FFFE0000007F80000000000001
310
FFFE00000000003FFFFFFE00000000003FFFFF0003FFFFFFFFFF80000000003F
310
F000FF80000000007FF8000FFFFC0001FFFFC0007F80007FFF0000000000FFFF
310
F0000000000FFFF800000000000000007F80000000000001FFFF8000000000FF
310
FFFFFF8000000000FFFFFF0003FFFFFFFFFFC0000000007FF000FFC000000000
310
FFF8000FFFFE0001FFFFC0007F80007FFF8000000001FFFFF8000000001FFFF8
310
00000000000000007F80000000000001FFFFC000000001FFFFFFFFC000000001
310
FFFFFF0003FFFFFFFFFFE000000000FFF000FFE000000003FFF0001FFFFE0001
310
FFFFC0007F80007FFFC000000007FFFFFE000000003FFFF80000000000000000
310
7F80000000000001FFFFE000000003FFFFFFFFE000000003FFFFFF0003FFFFFF
310
FFFFF000000003FFF000FFF80000000FFFF0001FFFFE0001FFFFE0007F80007F
310
FFF00000000FFFFFFF00000000FFFFF800000000000000007F80000000000001
310
FFFFF80000000FFFFFFFFFF80000000FFFFFFF0003FFFFFFFFFFFC0000000FFF
310
F000FFFE0000003FFFF0001FFFFE0003FFFFE0003F80007FFFFC0000003FFFFF
310
FFC0000003FFFFF800000000000000007F80000000000001FFFFFE0000003FFF
310
FFFFFFFE0000003FFFFFFF0003FFFFFFFFFFFF0000003FFFF000FFFF800000FF
310
FFF0001FFFFF0003FFFFE0003F80007FFFFF000001FFFFFFFFF800001FFFFFF8
310
00000000000000007F80000000000001FFFFFFC00001FFFFFFFFFFFFC00001FF
310
FFFFFF0003FFFFFFFFFFFFC00000FFFFF000FFFFF8000FFFFFFFFFFFFFFFFFFF
310
FFFFFFFFFFFFFFFFFFFFF0001FFFFFFFFFFF0000FFFFFFF80000000000000000
310
7FFFFFFFFFFFFFFFFFFFFFFC001FFFFFFFFFFFFFFC001FFFFFFFFFFFFFFFFFFF
310
FFFFFFFC001FFFFFF000FFFFFFFFFFFFFFFFFFFFFFFFFFFFFFFFFFFFFFFFFFFF
310
FFFFFFFFFFFFFFFFFFFFFFFFFFFFFFFFFFFFFFFFFFFFFFFFFFFFFFFFFFFFFFFF
310
FFFFFFFFFFFFFFFFFFFFFFFFFFFFFFFFFFFFFFFFFFFFFFFFFFFFFFFFFFFFFFFF
310
F000FFFFFFFFFFFFFFFFFFFFFFFFFFFFFFFFFFFFFFFFFFFFFFFFFFFFFFFFFFFF
310
FFFFFFFFFFFFFFFFFFFFFFFFFFFFFFFFFFFFFFFFFFFFFFFFFFFFFFFFFFFFFFFF
310
FFFFFFFFFFFFFFFFFFFFFFFFFFFFFFFFFFFFFFFFFFFFFFFFF000FFFFFFFFFFFF
310
FFFFFFFFFFFFFFFFFFFFFFFFFFFFFFFFFFFFFFFFFFFFFFFFFFFFFFFFFFFFFFFF
310
FFFFFFFFFFFFFFFFFFFFFFFFFFFFFFFFFFFFFFFFFFFFFFFFFFFFFFFFFFFFFFFF
310
FFFFFFFFFFFFFFFFFFFFFFFFFFFFFFFFF000FFFFFFFFFFFFFFFFFFFFFFFFFFFF
310
FFFFFFFFFFFFFFFFFFFFFFFFFFFFFFFFFFFFFFFFFFFFFFFFFFFFFFFFFFFFFFFF
310
FFFFFFFFFFFFFFFFFFFFFFFFFFFFFFFFFFFFFFFFFFFFFFFFFFFFFFFFFFFFFFFF
310
FFFFFFFFFFFFFFFFF000FFFFFFFFFFFFFFFFFFFFFFFFFFFFFFFFFFFFFFFFFFFF
310
FFFFFFFFFFFFFFFFFFFFFFFFFFFFFFFFFFFFFFFFFFFFFFFFFFFFFFFFFFFFFFFF
310
FFFFFFFFFFFFFFFFFFFFFFFFFFFFFFFFFFFFFFFFFFFFFFFFFFFFFFFFFFFFFFFF
310
F000FFFFFFFFFFFFFFFFFFFFFFFFFFFFFFFFFFFFFFFFFFFFFFFFFFFFFFFFFFFF
310
FFFFFFFFFFFFFFFFFFFFFFFFFFFFFFFFFFFFFFFFFFFFFFFFFFFFFFFFFFFFFFFF
310
FFFFFFFFFFFFFFFFFFFFFFFFFFFFFFFFFFFFFFFFFFFFFFFFF000FFFFFFFFFFFF
310
FFFFFFFFFFFFFFFFFFFFFFFFFFFFFFFFFFFFFFFFFFFFFFFFFFFFFFFFFFFFFFFF
310
FFFFFFFFFFFFFFFFFFFFFFFFFFFFFFFFFFFFFFFFFFFFFFFFFFFFFFFFFFFFFFFF
310
FFFFFFFFFFFFFFFFFFFFFFFFFFFFFFFFF000FFFFFFFFFFFFFFFFFFFFFFFFFFFF
310
FFFFFFFFFFFFFFFFFFFFFFFFFFFFFFFFFFFFFFFFFFFFFFFFFFFFFFFFFFFFFFFF
310
FFFFFFFFFFFFFFFFFFFFFFFFFFFFFFFFFFFFFFFFFFFFFFFFFFFFFFFFFFFFFFFF
310
FFFFFFFFFFFFFFFFF000FFFFFFFFFFFFFFFFFFFFFFFFFFFFFFFFFFFFFFFFFFFF
310
FFFFFFFFFFFFFFFFFFFFFFFFFFFFFFFFFFFFFFFFFFFFFFFFFFFFFFFFFFFFFFFF
310
FFFFFFFFFFFFFFFFFFFFFFFFFFFFFFFFFFFFFFFFFFFFFFFFFFFFFFFFFFFFFFFF
310
F000FFFFFFFFFFFFFFFFFFFFFFFFFFFFFFFFFFFFFFFFFFFFFFFFFFFFFFFFFFFF
310
FFFFFFFFFFFFFFFFFFFFFFFFFFFFFFFFFFFFFFFFFFFFFFFFFFFFFFFFFFFFFFFF
310
FFFFFFFFFFFFFFFFFFFFFFFFFFFFFFFFFFFFFFFFFFFFFFFFF000FFFFFFFFFFFF
310
FFFFFFFFFFFFFFFFFFFFFFFFFFFFFFFFFFFFFFFFFFFFFFFFFFFFFFFFFFFFFFFF
310
FFFFFFFFFFFFFFFFFFFFFFFFFFFFFFFFFFFFFFFFFFFFFFFFFFFFFFFFFFFFFFFF
310
FFFFFFFFFFFFFFFFFFFFFFFFFFFFFFFFF000FFFFFFFFFFFFFFFFFFFFFFFFFFFF
310
FFFFFFFFFFFFFFFFFFFFFFFFFFFFFFFFFFFFFFFFFFFFFFFFFFFFFFFFFFFFFFFF
310
FFFFFFFFFFFFFFFFFFFFFFFFFFFFFFFFFFFFFFFFFFFFFFFFFFFFFFFFFFFFFFFF
310
FFFFFFFFFFFFFFFFF000FFFFFFFFFFFFFFFFFFFFFFFFFFFFFFFFFFFFFFFFFFFF
310
FFFFFFFFFFFFFFFFFFFFFFFFFFFFFFFFFFFFFFFFFFFFFFFFFFFFFFFFFFFFFFFF
310
FFFFFFFFFFFFFFFFFFFFFFFFFFFFFFFFFFFFFFFFFFFFFFFFFFFFFFFFFFFFFFFF
310
F000FFFFFFFFFFFFFFFFFFFFFFFFFFFFFFFFFFFFFFFFFFFFFFFFFFFFFFFFFFFF
310
FFFFFFFFFFFFFFFFFFFFFFFFFFFFFFFFFFFFFFFFFFFFFFFFFFFFFFFFFFFFFFFF
310
FFFFFFFFFFFFFFFFFFFFFFFFFFFFFFFFFFFFFFFFFFFFFFFFF000FFFFFFFFFFFF
310
FFFFFFFFFFFFFFFFFFFFFFFFFFFFFFFFFFFFFFFFFFFFFFFFFFFFFFFFFFFFFFFF
310
FFFFFFFFFFFFFFFFFFFFFFFFFFFFFFFFFFFFFFFFFFFFFFFFFFFFFFFFFFFFFFFF
310
FFFFFFFFFFFFFFFFFFFFFFFFFFFFFFFFF000FFFFFFFFFFFFFFFFFFFFFFFFFFFF
310
FFFFFFFFFFFFFFFFFFFFFFFFFFFFFFFFFFFFFFFFFFFFFFFFFFFFFFFFFFFFFFFF
310
FFFFFFFFFFFFFFFFFFFFFFFFFFFFFFFFFFFFFFFFFFFFFFFFFFFFFFFFFFFFFFFF
310
FFFFFFFFFFFFFFFFF000FFFFFFFFFFFFFFFFFFFFFFFFFFFFFFFFFFFFFFFFFFFF
310
FFFFFFFFFFFFFFFFFFFFFFFFFFFFFFFFFFFFFFFFFFFFFFFFFFFFFFFFFFFFFFFF
310
FFFFFFFFFFFFFFFFFFFFFFFFFFFFFFFFFFFFFFFFFFFFFFFFFFFFFFFFFFFFFFFF
310
F000FFFFFFFFFFFFFFFFFFFFFFFFFFFFFFFFFFFFFFFFFFFFFFFFFFFFFFFFFFFF
310
FFFFFFFFFFFFFFFFFFFFFFFFFFFFFFFFFFFFFFFFFFFFFFFFFFFFFFFFFFFFFFFF
310
FFFFFFFFFFFFFFFFFFFFFFFFFFFFFFFFFFFFFFFFFFFFFFFFF000FFFFFFFFFFFF
310
FFFFFFFFFFFFFFFFFFFFFFFFFFFFFFFFFFFFFFFFFFFFFFFFFFFFFFFFFFFFFFFF
310
FFFFFFFFFFFFFFFFFFFFFFFFFFFFFFFFFFFFFFFFFFFFFFFFFFFFFFFFFFFFFFFF
310
FFFFFFFFFFFFFFFFFFFFFFFFFFFFFFFFF000FFFFFFFFFFFFFFFFFFFFFFFFFFFF
310
FFFFFFFFFFFFFFFFFFFFFFFFFFFFFFFFFFFFFFFFFFFFFFFFFFFFFFFFFFFFFFFF
310
FFFFFFFFFFFFFFFFFFFFFFFFFFFFFFFFFFFFFFFFFFFFFFFFFFFFFFFFFFFFFFFF
310
FFFFFFFFFFFFFFFFF000FFFFFFFFFFFFFFFFFFFFFFFFFFFFFFFFFFFFFFFFFFFF
310
FFFFFFFFFFFFFFFFFFFFFFFFFFFFFFFFFFFFFFFFFFFFFFFFFFFFFFFFFFFFFFFF
310
FFFFFFFFFFFFFFFFFFFFFFFFFFFFFFFFFFFFFFFFFFFFFFFFFFFFFFFFFFFFFFFF
310
F000FFFFFFFFFFFFFFFFFFFFFFFFFFFFFFFFFFFFFFFFFFFFFFFFFFFFFFFFFFFF
310
FFFFFFFFFFFFFFFFFFFFFFFFFFFFFFFFFFFFFFFFFFFFFFFFFFFFFFFFFFFFFFFF
310
FFFFFFFFFFFFFFFFFFFFFFFFFFFFFFFFFFFFFFFFFFFFFFFFF000FFFFFFFFFFFF
310
FFFFFFFFFFFFFFFFFFFFFFFFFFFFFFFFFFFFFFFFFFFFFFFFFFFFFFFFFFFFFFFF
310
FFFFFFFFFFFFFFFFFFFFFFFFFFFFFFFFFFFFFFFFFFFFFFFFFFFFFFFFFFFFFFFF
310
FFFFFFFFFFFFFFFFFFFFFFFFFFFFFFFFF0000000000000000000000000000000
310
0000000000000000000000000000000000000000000000000000000000000000
310
0000000000000000000000000000000000000000000000000000000000000000
310
0000000000000000000000000000000000000000000000000000000000000000
310
0000000000000000000000000000000000000000000000000000000000000000
310
0000000000000000000000000000000000000000000000000000000000000000
310
0000000000000000000000000000000000000000000000000000000000000000
310
0000000000000000000000000000000000000000000000000000000000000000
310
0000000000000000000000000000000000000000000000000000000000000000
310
0000000000000000000000000000000000000000000000000000000000000000
310
0000000000000000000000000000000000000000000000000000000000000000
310
0000000000000000000000000000000000000000000000000000000000000000
310
0000000000000000000000000000000000000000000000000000000000000000
310
0000000000000000000000000000000000000000000000000000000000000000
310
0000000000000000000000000000000000000000000000000000000000000000
310
0000000000000000000000000000000000000000000000000000000000000000
  1
OLE
  0
ENDSEC
  0
SECTION
  2
OBJECTS
  0
DICTIONARY
  5
C
330
0
100
AcDbDictionary
281
     1
  3
ACAD_GROUP
350
D
  3
ACAD_LAYOUT
350
1A
  3
ACAD_MLINESTYLE
350
17
  3
ACAD_PLOTSETTINGS
350
19
  3
ACAD_PLOTSTYLENAME
350
E
  3
ACAD_SCALELIST
350
47
  0
DICTIONARY
  5
D
102
{ACAD_REACTORS
330
C
102
}
330
C
100
AcDbDictionary
281
     1
  0
DICTIONARY
  5
1A
102
{ACAD_REACTORS
330
C
102
}
330
C
100
AcDbDictionary
281
     1
  3
Layout1
350
1E
  3
Layout2
350
26
  3
Model
350
22
  0
DICTIONARY
  5
17
102
{ACAD_REACTORS
330
C
102
}
330
C
100
AcDbDictionary
281
     1
  3
Standard
350
18
  0
DICTIONARY
  5
19
102
{ACAD_REACTORS
330
C
102
}
330
C
100
AcDbDictionary
281
     1
  0
ACDBDICTIONARYWDFLT
  5
E
102
{ACAD_REACTORS
330
C
102
}
330
C
100
AcDbDictionary
281
     1
  3
Normal
350
F
100
AcDbDictionaryWithDefault
340
F
  0
DICTIONARY
  5
47
102
{ACAD_REACTORS
330
C
102
}
330
C
100
AcDbDictionary
281
     1
  3
A0
350
48
  3
A1
350
49
  3
A2
350
4A
  3
A3
350
4B
  3
A4
350
4C
  3
A5
350
4D
  3
A6
350
4E
  3
A7
350
4F
  3
A8
350
50
  3
A9
350
51
  3
B0
350
52
  3
B1
350
53
  3
B2
350
54
  3
B3
350
55
  3
B4
350
56
  3
B5
350
57
  3
B6
350
58
  3
B7
350
59
  3
B8
350
5A
  3
B9
350
5B
  3
C0
350
5C
  3
C1
350
5D
  3
C2
350
5E
  3
C3
350
5F
  3
C4
350
60
  3
C5
350
61
  3
C6
350
62
  3
C7
350
63
  3
C8
350
64
  3
C9
350
65
  3
D0
350
66
  3
D1
350
67
  3
D2
350
68
  0
LAYOUT
  5
1E
102
{ACAD_REACTORS
330
1A
102
}
330
1A
100
AcDbPlotSettings
  1

  2
none_device
  4

  6

 40
0.0
 41
0.0
 42
0.0
 43
0.0
 44
0.0
 45
0.0
 46
0.0
 47
0.0
 48
0.0
 49
0.0
140
0.0
141
0.0
142
1.0
143
1.0
 70
   688
 72
     1
 73
     0
 74
     5
  7

 75
    16
147
1.0
148
0.0
149
0.0
100
AcDbLayout
  1
Layout1
 70
     1
 71
     1
 10
0.0
 20
0.0
 11
420.0
 21
297.0
 12
0.0
 22
0.0
 32
0.0
 14
1.0000000000E+20
 24
1.0000000000E+20
 34
1.0000000000E+20
 15
-1.0000000000E+20
 25
-1.0000000000E+20
 35
-1.0000000000E+20
146
0.0
 13
0.0
 23
0.0
 33
0.0
 16
1.0
 26
0.0
 36
0.0
 17
0.0
 27
1.0
 37
0.0
 76
     0
330
1B
  0
LAYOUT
  5
26
102
{ACAD_REACTORS
330
1A
102
}
330
1A
100
AcDbPlotSettings
  1

  2
none_device
  4

  6

 40
0.0
 41
0.0
 42
0.0
 43
0.0
 44
0.0
 45
0.0
 46
0.0
 47
0.0
 48
0.0
 49
0.0
140
0.0
141
0.0
142
1.0
143
1.0
 70
   688
 72
     1
 73
     0
 74
     5
  7

 75
    16
147
1.0
148
0.0
149
0.0
100
AcDbLayout
  1
Layout2
 70
     1
 71
     2
 10
0.0
 20
0.0
 11
0.0
 21
0.0
 12
0.0
 22
0.0
 32
0.0
 14
0.0
 24
0.0
 34
0.0
 15
0.0
 25
0.0
 35
0.0
146
0.0
 13
0.0
 23
0.0
 33
0.0
 16
1.0
 26
0.0
 36
0.0
 17
0.0
 27
1.0
 37
0.0
 76
     0
330
23
  0
LAYOUT
  5
22
102
{ACAD_REACTORS
330
1A
102
}
330
1A
100
AcDbPlotSettings
  1

  2
none_device
  4
Letter_(8.50_x_11.00_Inches)
  6

 40
6.35
 41
6.35
 42
6.35000508
 43
6.35000508
 44
215.9
 45
279.4
 46
0.0
 47
0.0
 48
0.0
 49
0.0
140
0.0
141
0.0
142
1.0
143
1.0
 70
  1712
 72
     1
 73
     0
 74
     0
  7

 75
     0
147
1.0
148
0.0
149
0.0
100
AcDbLayout
  1
Model
 70
     1
 71
     0
 10
0.0
 20
0.0
 11
297.0
 21
210.0
 12
0.0
 22
0.0
 32
0.0
 14
0.0
 24
0.0
 34
0.0
 15
297.0
 25
210.0
 35
0.0
146
0.0
 13
0.0
 23
0.0
 33
0.0
 16
1.0
 26
0.0
 36
0.0
 17
0.0
 27
1.0
 37
0.0
 76
     0
330
1F
331
29
  0
MLINESTYLE
  5
18
102
{ACAD_REACTORS
330
17
102
}
330
17
100
AcDbMlineStyle
  2
Standard
 70
     0
  3

 62
   256
 51
90.0
 52
90.0
 71
     2
 49
0.5
 62
   256
  6
BYLAYER
 49
-0.5
 62
   256
  6
BYLAYER
  0
ACDBPLACEHOLDER
  5
F
102
{ACAD_REACTORS
330
E
102
}
330
E
  0
SCALE
  5
48
102
{ACAD_REACTORS
330
47
102
}
330
47
100
AcDbScale
 70
     0
300
1:1
140
1.0
141
1.0
290
     1
  0
SCALE
  5
49
102
{ACAD_REACTORS
330
47
102
}
330
47
100
AcDbScale
 70
     0
300
1:2
140
1.0
141
2.0
290
     0
  0
SCALE
  5
4A
102
{ACAD_REACTORS
330
47
102
}
330
47
100
AcDbScale
 70
     0
300
1:4
140
1.0
141
4.0
290
     0
  0
SCALE
  5
4B
102
{ACAD_REACTORS
330
47
102
}
330
47
100
AcDbScale
 70
     0
300
1:5
140
1.0
141
5.0
290
     0
  0
SCALE
  5
4C
102
{ACAD_REACTORS
330
47
102
}
330
47
100
AcDbScale
 70
     0
300
1:8
140
1.0
141
8.0
290
     0
  0
SCALE
  5
4D
102
{ACAD_REACTORS
330
47
102
}
330
47
100
AcDbScale
 70
     0
300
1:10
140
1.0
141
10.0
290
     0
  0
SCALE
  5
4E
102
{ACAD_REACTORS
330
47
102
}
330
47
100
AcDbScale
 70
     0
300
1:16
140
1.0
141
16.0
290
     0
  0
SCALE
  5
4F
102
{ACAD_REACTORS
330
47
102
}
330
47
100
AcDbScale
 70
     0
300
1:20
140
1.0
141
20.0
290
     0
  0
SCALE
  5
50
102
{ACAD_REACTORS
330
47
102
}
330
47
100
AcDbScale
 70
     0
300
1:30
140
1.0
141
30.0
290
     0
  0
SCALE
  5
51
102
{ACAD_REACTORS
330
47
102
}
330
47
100
AcDbScale
 70
     0
300
1:40
140
1.0
141
40.0
290
     0
  0
SCALE
  5
52
102
{ACAD_REACTORS
330
47
102
}
330
47
100
AcDbScale
 70
     0
300
1:50
140
1.0
141
50.0
290
     0
  0
SCALE
  5
53
102
{ACAD_REACTORS
330
47
102
}
330
47
100
AcDbScale
 70
     0
300
1:100
140
1.0
141
100.0
290
     0
  0
SCALE
  5
54
102
{ACAD_REACTORS
330
47
102
}
330
47
100
AcDbScale
 70
     0
300
2:1
140
2.0
141
1.0
290
     0
  0
SCALE
  5
55
102
{ACAD_REACTORS
330
47
102
}
330
47
100
AcDbScale
 70
     0
300
4:1
140
4.0
141
1.0
290
     0
  0
SCALE
  5
56
102
{ACAD_REACTORS
330
47
102
}
330
47
100
AcDbScale
 70
     0
300
8:1
140
8.0
141
1.0
290
     0
  0
SCALE
  5
57
102
{ACAD_REACTORS
330
47
102
}
330
47
100
AcDbScale
 70
     0
300
10:1
140
10.0
141
1.0
290
     0
  0
SCALE
  5
58
102
{ACAD_REACTORS
330
47
102
}
330
47
100
AcDbScale
 70
     0
300
100:1
140
100.0
141
1.0
290
     0
  0
SCALE
  5
59
102
{ACAD_REACTORS
330
47
102
}
330
47
100
AcDbScale
 70
     0
300
1/128" = 1'-0"
140
0.0078125
141
12.0
290
     0
  0
SCALE
  5
5A
102
{ACAD_REACTORS
330
47
102
}
330
47
100
AcDbScale
 70
     0
300
1/64" = 1'-0"
140
0.015625
141
12.0
290
     0
  0
SCALE
  5
5B
102
{ACAD_REACTORS
330
47
102
}
330
47
100
AcDbScale
 70
     0
300
1/32" = 1'-0"
140
0.03125
141
12.0
290
     0
  0
SCALE
  5
5C
102
{ACAD_REACTORS
330
47
102
}
330
47
100
AcDbScale
 70
     0
300
1/16" = 1'-0"
140
0.0625
141
12.0
290
     0
  0
SCALE
  5
5D
102
{ACAD_REACTORS
330
47
102
}
330
47
100
AcDbScale
 70
     0
300
3/32" = 1'-0"
140
0.09375
141
12.0
290
     0
  0
SCALE
  5
5E
102
{ACAD_REACTORS
330
47
102
}
330
47
100
AcDbScale
 70
     0
300
1/8" = 1'-0"
140
0.125
141
12.0
290
     0
  0
SCALE
  5
5F
102
{ACAD_REACTORS
330
47
102
}
330
47
100
AcDbScale
 70
     0
300
3/16" = 1'-0"
140
0.1875
141
12.0
290
     0
  0
SCALE
  5
60
102
{ACAD_REACTORS
330
47
102
}
330
47
100
AcDbScale
 70
     0
300
1/4" = 1'-0"
140
0.25
141
12.0
290
     0
  0
SCALE
  5
61
102
{ACAD_REACTORS
330
47
102
}
330
47
100
AcDbScale
 70
     0
300
3/8" = 1'-0"
140
0.375
141
12.0
290
     0
  0
SCALE
  5
62
102
{ACAD_REACTORS
330
47
102
}
330
47
100
AcDbScale
 70
     0
300
1/2" = 1'-0"
140
0.5
141
12.0
290
     0
  0
SCALE
  5
63
102
{ACAD_REACTORS
330
47
102
}
330
47
100
AcDbScale
 70
     0
300
3/4" = 1'-0"
140
0.75
141
12.0
290
     0
  0
SCALE
  5
64
102
{ACAD_REACTORS
330
47
102
}
330
47
100
AcDbScale
 70
     0
300
1" = 1'-0"
140
1.0
141
12.0
290
     0
  0
SCALE
  5
65
102
{ACAD_REACTORS
330
47
102
}
330
47
100
AcDbScale
 70
     0
300
1-1/2" = 1'-0"
140
1.5
141
12.0
290
     0
  0
SCALE
  5
66
102
{ACAD_REACTORS
330
47
102
}
330
47
100
AcDbScale
 70
     0
300
3" = 1'-0"
140
3.0
141
12.0
290
     0
  0
SCALE
  5
67
102
{ACAD_REACTORS
330
47
102
}
330
47
100
AcDbScale
 70
     0
300
6" = 1'-0"
140
6.0
141
12.0
290
     0
  0
SCALE
  5
68
102
{ACAD_REACTORS
330
47
102
}
330
47
100
AcDbScale
 70
     0
300
1'-0" = 1'-0"
140
12.0
141
12.0
290
     0
  0
ENDSEC
  0
EOF
