  0
SECTION
  2
HEADER
  9
$ACADVER
  1
AC1015
  9
$ACADMAINTVER
 70
     6
  9
$DWGCODEPAGE
  3
ANSI_1252
  9
$INSBASE
 10
0.0
 20
0.0
 30
0.0
  9
$EXTMIN
 10
0.0
 20
0.0
 30
0.0
  9
$EXTMAX
 10
297.0
 20
210.0
 30
0.0
  9
$LIMMIN
 10
0.0
 20
0.0
  9
$LIMMAX
 10
297.0
 20
210.0
  9
$ORTHOMODE
 70
     0
  9
$REGENMODE
 70
     1
  9
$FILLMODE
 70
     1
  9
$QTEXTMODE
 70
     0
  9
$MIRRTEXT
 70
     1
  9
$LTSCALE
 40
1.0
  9
$ATTMODE
 70
     1
  9
$TEXTSIZE
 40
2.0
  9
$TRACEWID
 40
1.0
  9
$TEXTSTYLE
  7
Standard
  9
$CLAYER
  8
0
  9
$CELTYPE
  6
ByLayer
  9
$CECOLOR
 62
   256
  9
$CELTSCALE
 40
1.0
  9
$DISPSILH
 70
     0
  9
$DIMSCALE
 40
1.0
  9
$DIMASZ
 40
3.0
  9
$DIMEXO
 40
0.0
  9
$DIMDLI
 40
3.75
  9
$DIMRND
 40
0.0
  9
$DIMDLE
 40
0.0
  9
$DIMEXE
 40
1.0
  9
$DIMTP
 40
0.0
  9
$DIMTM
 40
0.0
  9
$DIMTXT
 40
2.0
  9
$DIMCEN
 40
2.5
  9
$DIMTSZ
 40
0.0
  9
$DIMTOL
 70
     0
  9
$DIMLIM
 70
     0
  9
$DIMTIH
 70
     1
  9
$DIMTOH
 70
     1
  9
$DIMSE1
 70
     0
  9
$DIMSE2
 70
     0
  9
$DIMTAD
 70
     1
  9
$DIMZIN
 70
     0
  9
$DIMBLK
  1

  9
$DIMASO
 70
     1
  9
$DIMSHO
 70
     1
  9
$DIMPOST
  1

  9
$DIMAPOST
  1

  9
$DIMALT
 70
     0
  9
$DIMALTD
 70
     3
  9
$DIMALTF
 40
0.0393700787
  9
$DIMLFAC
 40
2.0
  9
$DIMTOFL
 70
     1
  9
$DIMTVP
 40
0.0
  9
$DIMTIX
 70
     0
  9
$DIMSOXD
 70
     0
  9
$DIMSAH
 70
     0
  9
$DIMBLK1
  1

  9
$DIMBLK2
  1

  9
$DIMSTYLE
  2
ISO-25
  9
$DIMCLRD
 70
     0
  9
$DIMCLRE
 70
     0
  9
$DIMCLRT
 70
     0
  9
$DIMTFAC
 40
1.0
  9
$DIMGAP
 40
1.524
  9
$DIMJUST
 70
     0
  9
$DIMSD1
 70
     0
  9
$DIMSD2
 70
     0
  9
$DIMTOLJ
 70
     0
  9
$DIMTZIN
 70
     0
  9
$DIMALTZ
 70
     0
  9
$DIMALTTZ
 70
     0
  9
$DIMUPT
 70
     0
  9
$DIMDEC
 70
     2
  9
$DIMTDEC
 70
     3
  9
$DIMALTU
 70
     2
  9
$DIMALTTD
 70
     3
  9
$DIMTXSTY
  7
Standard
  9
$DIMAUNIT
 70
     0
  9
$DIMADEC
 70
     2
  9
$DIMALTRND
 40
0.0
  9
$DIMAZIN
 70
     0
  9
$DIMDSEP
 70
    44
  9
$DIMATFIT
 70
     3
  9
$DIMFRAC
 70
     0
  9
$DIMLDRBLK
  1

  9
$DIMLUNIT
 70
     2
  9
$DIMLWD
 70
    -2
  9
$DIMLWE
 70
    -2
  9
$DIMTMOVE
 70
     0
  9
$LUNITS
 70
     2
  9
$LUPREC
 70
     2
  9
$SKETCHINC
 40
1.0
  9
$FILLETRAD
 40
10.0
  9
$AUNITS
 70
     0
  9
$AUPREC
 70
     2
  9
$MENU
  1
.
  9
$ELEVATION
 40
0.0
  9
$PELEVATION
 40
0.0
  9
$THICKNESS
 40
0.0
  9
$LIMCHECK
 70
     0
  9
$CHAMFERA
 40
0.0
  9
$CHAMFERB
 40
0.0
  9
$CHAMFERC
 40
0.0
  9
$CHAMFERD
 40
0.0
  9
$SKPOLY
 70
     0
  9
$TDCREATE
 40
2457674.431943877
  9
$TDUCREATE
 40
2457674.348610544
  9
$TDUPDATE
 40
2457674.431945197
  9
$TDUUPDATE
 40
2457674.348611863
  9
$TDINDWG
 40
0.0000000116
  9
$TDUSRTIMER
 40
0.0000000116
  9
$USRTIMER
 70
     1
  9
$ANGBASE
 50
0.0
  9
$ANGDIR
 70
     0
  9
$PDMODE
 70
     0
  9
$PDSIZE
 40
-1.0
  9
$PLINEWID
 40
0.0
  9
$SPLFRAME
 70
     0
  9
$SPLINETYPE
 70
     6
  9
$SPLINESEGS
 70
     8
  9
$HANDSEED
  5
28B
  9
$SURFTAB1
 70
     6
  9
$SURFTAB2
 70
     6
  9
$SURFTYPE
 70
     6
  9
$SURFU
 70
     6
  9
$SURFV
 70
     6
  9
$UCSBASE
  2

  9
$UCSNAME
  2

  9
$UCSORG
 10
0.0
 20
0.0
 30
0.0
  9
$UCSXDIR
 10
1.0
 20
0.0
 30
0.0
  9
$UCSYDIR
 10
0.0
 20
1.0
 30
0.0
  9
$UCSORTHOREF
  2

  9
$UCSORTHOVIEW
 70
     0
  9
$UCSORGTOP
 10
0.0
 20
0.0
 30
0.0
  9
$UCSORGBOTTOM
 10
0.0
 20
0.0
 30
0.0
  9
$UCSORGLEFT
 10
0.0
 20
0.0
 30
0.0
  9
$UCSORGRIGHT
 10
0.0
 20
0.0
 30
0.0
  9
$UCSORGFRONT
 10
0.0
 20
0.0
 30
0.0
  9
$UCSORGBACK
 10
0.0
 20
0.0
 30
0.0
  9
$PUCSBASE
  2

  9
$PUCSNAME
  2

  9
$PUCSORG
 10
0.0
 20
0.0
 30
0.0
  9
$PUCSXDIR
 10
1.0
 20
0.0
 30
0.0
  9
$PUCSYDIR
 10
0.0
 20
1.0
 30
0.0
  9
$PUCSORTHOREF
  2

  9
$PUCSORTHOVIEW
 70
     0
  9
$PUCSORGTOP
 10
0.0
 20
0.0
 30
0.0
  9
$PUCSORGBOTTOM
 10
0.0
 20
0.0
 30
0.0
  9
$PUCSORGLEFT
 10
0.0
 20
0.0
 30
0.0
  9
$PUCSORGRIGHT
 10
0.0
 20
0.0
 30
0.0
  9
$PUCSORGFRONT
 10
0.0
 20
0.0
 30
0.0
  9
$PUCSORGBACK
 10
0.0
 20
0.0
 30
0.0
  9
$USERI1
 70
     0
  9
$USERI2
 70
     0
  9
$USERI3
 70
     0
  9
$USERI4
 70
     0
  9
$USERI5
 70
     0
  9
$USERR1
 40
0.0
  9
$USERR2
 40
0.0
  9
$USERR3
 40
0.0
  9
$USERR4
 40
0.0
  9
$USERR5
 40
0.0
  9
$WORLDVIEW
 70
     1
  9
$SHADEDGE
 70
     3
  9
$SHADEDIF
 70
    70
  9
$TILEMODE
 70
     1
  9
$MAXACTVP
 70
    64
  9
$PINSBASE
 10
0.0
 20
0.0
 30
0.0
  9
$PLIMCHECK
 70
     0
  9
$PEXTMIN
 10
1.0000000000E+20
 20
1.0000000000E+20
 30
1.0000000000E+20
  9
$PEXTMAX
 10
-1.0000000000E+20
 20
-1.0000000000E+20
 30
-1.0000000000E+20
  9
$PLIMMIN
 10
0.0
 20
0.0
  9
$PLIMMAX
 10
420.0
 20
297.0
  9
$UNITMODE
 70
     0
  9
$VISRETAIN
 70
     1
  9
$PLINEGEN
 70
     0
  9
$PSLTSCALE
 70
     1
  9
$TREEDEPTH
 70
  3020
  9
$CMLSTYLE
  2
Standard
  9
$CMLJUST
 70
     0
  9
$CMLSCALE
 40
20.0
  9
$PROXYGRAPHICS
 70
     1
  9
$MEASUREMENT
 70
     1
  9
$CELWEIGHT
370
    -1
  9
$ENDCAPS
280
     0
  9
$JOINSTYLE
280
     0
  9
$LWDISPLAY
290
     1
  9
$INSUNITS
 70
     4
  9
$HYPERLINKBASE
  1

  9
$STYLESHEET
  1

  9
$XEDIT
290
     1
  9
$CEPSNTYPE
380
     0
  9
$PSTYLEMODE
290
     1
  9
$FINGERPRINTGUID
  2
{6C451C05-E2FD-4844-8A78-FA59FEF0EB6A}
  9
$VERSIONGUID
  2
{FAEB1C32-E019-11D5-929B-00C0DF256EC4}
  9
$EXTNAMES
290
     1
  9
$PSVPSCALE
 40
0.0
  9
$OLESTARTUP
290
     0
  0
ENDSEC
  0
SECTION
  2
CLASSES
  0
CLASS
  1
ACDBDICTIONARYWDFLT
  2
AcDbDictionaryWithDefault
  3
ObjectDBX Classes
 90
        0
280
     0
281
     0
  0
CLASS
  1
VISUALSTYLE
  2
AcDbVisualStyle
  3
ObjectDBX Classes
 90
     4095
280
     0
281
     0
  0
CLASS
  1
MATERIAL
  2
AcDbMaterial
  3
ObjectDBX Classes
 90
     1153
280
     0
281
     0
  0
CLASS
  1
SCALE
  2
AcDbScale
  3
ObjectDBX Classes
 90
     1153
280
     0
281
     0
  0
CLASS
  1
TABLESTYLE
  2
AcDbTableStyle
  3
ObjectDBX Classes
 90
     4095
280
     0
281
     0
  0
CLASS
  1
MLEADERSTYLE
  2
AcDbMLeaderStyle
  3
ACDB_MLEADERSTYLE_CLASS
 90
     4095
280
     0
281
     0
  0
CLASS
  1
SUN
  2
AcDbSun
  3
SCENEOE
 90
     1153
280
     0
281
     0
  0
CLASS
  1
ACDBPLACEHOLDER
  2
AcDbPlaceHolder
  3
ObjectDBX Classes
 90
        0
280
     0
281
     0
  0
CLASS
  1
LAYOUT
  2
AcDbLayout
  3
ObjectDBX Classes
 90
        0
280
     0
281
     0
  0
ENDSEC
  0
SECTION
  2
TABLES
  0
TABLE
  2
VPORT
  5
8
330
0
100
AcDbSymbolTable
 70
     1
  0
VPORT
  5
29
330
8
100
AcDbSymbolTableRecord
100
AcDbViewportTableRecord
  2
*Active
 70
     0
 10
0.0
 20
0.0
 11
1.0
 21
1.0
 12
148.5
 22
105.0
 13
0.0
 23
0.0
 14
10.0
 24
10.0
 15
10.0
 25
10.0
 16
0.0
 26
0.0
 36
1.0
 17
0.0
 27
0.0
 37
0.0
 40
210.0
 41
1.4142857143
 42
50.0
 43
0.0
 44
0.0
 50
0.0
 51
0.0
 71
     0
 72
  2000
 73
     1
 74
     3
 75
     0
 76
     0
 77
     0
 78
     0
281
     0
 65
     1
110
0.0
120
0.0
130
0.0
111
1.0
121
0.0
131
0.0
112
0.0
122
1.0
132
0.0
 79
     0
146
0.0
  0
ENDTAB
  0
TABLE
  2
LTYPE
  5
5
330
0
100
AcDbSymbolTable
 70
     6
  0
LTYPE
  5
14
330
5
100
AcDbSymbolTableRecord
100
AcDbLinetypeTableRecord
  2
ByBlock
 70
     0
  3

 72
    65
 73
     0
 40
0.0
  0
LTYPE
  5
15
330
5
100
AcDbSymbolTableRecord
100
AcDbLinetypeTableRecord
  2
ByLayer
 70
     0
  3

 72
    65
 73
     0
 40
0.0
  0
LTYPE
  5
16
330
5
100
AcDbSymbolTableRecord
100
AcDbLinetypeTableRecord
  2
Continuous
 70
     0
  3
Solid line
 72
    65
 73
     0
 40
0.0
  0
LTYPE
  5
6E
330
5
100
AcDbSymbolTableRecord
100
AcDbLinetypeTableRecord
  2
HIDDEN
 70
     0
  3
Hidden __ __ __ __ __ __ __ __ __ __ __ __ __ __
 72
    65
 73
     2
 40
1.905
 49
1.27
 74
     0
 49
-0.635
 74
     0
  0
LTYPE
  5
6F
330
5
100
AcDbSymbolTableRecord
100
AcDbLinetypeTableRecord
  2
PHANTOM
 70
     0
  3
Phantom ______  __  __  ______  __  __  ______
 72
    65
 73
     6
 40
12.7
 49
6.35
 74
     0
 49
-1.27
 74
     0
 49
1.27
 74
     0
 49
-1.27
 74
     0
 49
1.27
 74
     0
 49
-1.27
 74
     0
  0
LTYPE
  5
70
330
5
100
AcDbSymbolTableRecord
100
AcDbLinetypeTableRecord
  2
CENTER
 70
     0
  3
Center ____ _ ____ _ ____ _ ____ _ ____ _ ____
 72
    65
 73
     4
 40
10.16
 49
6.35
 74
     0
 49
-1.27
 74
     0
 49
1.27
 74
     0
 49
-1.27
 74
     0
  0
LTYPE
  5
71
330
5
100
AcDbSymbolTableRecord
100
AcDbLinetypeTableRecord
  2
CENTERX2
 70
     0
  3
Center (2x) ________  __  ________  __  _____
 72
    65
 73
     4
 40
20.32
 49
12.7
 74
     0
 49
-2.54
 74
     0
 49
2.54
 74
     0
 49
-2.54
 74
     0
  0
LTYPE
  5
72
330
5
100
AcDbSymbolTableRecord
100
AcDbLinetypeTableRecord
  2
DOT2
 70
     0
  3
Dot (.5x) ........................................
 72
    65
 73
     2
 40
0.635
 49
0.0
 74
     0
 49
-0.635
 74
     0
  0
ENDTAB
  0
TABLE
  2
LAYER
  5
2
330
0
100
AcDbSymbolTable
 70
     5
  0
LAYER
  5
10
330
2
100
AcDbSymbolTableRecord
100
AcDbLayerTableRecord
  2
0
 70
     0
 62
     7
  6
Continuous
370
    -3
390
F
  0
LAYER
  5
73
330
2
100
AcDbSymbolTableRecord
100
AcDbLayerTableRecord
  2
FORMAT
 70
     0
 62
     7
  6
Continuous
370
    -3
390
F
  0
LAYER
  5
74
330
2
100
AcDbSymbolTableRecord
100
AcDbLayerTableRecord
  2
VERMASSUNG
 70
     0
 62
     7
  6
Continuous
370
    -3
390
F
  0
LAYER
  5
75
330
2
100
AcDbSymbolTableRecord
100
AcDbLayerTableRecord
  2
KOPF_DÜNN
 70
     0
 62
     7
  6
Continuous
370
    -3
390
F
  0
LAYER
  5
76
330
2
100
AcDbSymbolTableRecord
100
AcDbLayerTableRecord
  2
KOPF_DICK
 70
     0
 62
     7
  6
Continuous
370
    15
390
F
  0
ENDTAB
  0
TABLE
  2
STYLE
  5
3
330
0
100
AcDbSymbolTable
 70
     2
  0
STYLE
  5
11
330
3
100
AcDbSymbolTableRecord
100
AcDbTextStyleTableRecord
  2
Standard
 70
     0
 40
0.0
 41
1.0
 50
0.0
 71
     0
 42
2.0
  3
txt
  4

  0
STYLE
  5
77
330
3
100
AcDbSymbolTableRecord
100
AcDbTextStyleTableRecord
  2
SLDTEXTSTYLE0
 70
     0
 40
0.0
 41
0.7
 50
0.0
 71
     0
 42
2.0
  3
TXT
  4

  0
ENDTAB
  0
TABLE
  2
VIEW
  5
6
330
0
100
AcDbSymbolTable
 70
     0
  0
ENDTAB
  0
TABLE
  2
UCS
  5
7
330
0
100
AcDbSymbolTable
 70
     0
  0
ENDTAB
  0
TABLE
  2
APPID
  5
9
330
0
100
AcDbSymbolTable
 70
     1
  0
APPID
  5
12
330
9
100
AcDbSymbolTableRecord
100
AcDbRegAppTableRecord
  2
ACAD
 70
     0
  0
ENDTAB
  0
TABLE
  2
DIMSTYLE
  5
A
330
0
100
AcDbSymbolTable
 70
     2
100
AcDbDimStyleTable
  0
DIMSTYLE
105
27
330
A
100
AcDbSymbolTableRecord
100
AcDbDimStyleTableRecord
  2
ISO-25
 70
     0
 41
2.5
 42
0.625
 43
3.75
 44
1.25
 73
     0
 74
     0
 77
     1
 78
     8
140
2.5
141
2.5
143
0.0393700787
147
0.625
171
     3
172
     1
178
     0
271
     2
272
     2
274
     3
278
    44
283
     0
284
     8
340
11
  0
DIMSTYLE
105
1B8
102
{ACAD_REACTORS
330
1B7
330
1C4
330
1CF
330
1DB
330
1E5
330
1EF
102
}
330
A
100
AcDbSymbolTableRecord
100
AcDbDimStyleTableRecord
  2
SLDDIMSTYLE0
 70
     0
 41
3.0
 44
0.0
 45
0.000000001
 73
     0
 74
     0
 77
     1
 78
    12
 79
     3
140
2.0
147
0.5
173
     1
178
     0
271
     2
272
     3
276
     2
284
    12
340
77
  0
ENDTAB
  0
TABLE
  2
BLOCK_RECORD
  5
1
330
0
100
AcDbSymbolTable
 70
     7
  0
BLOCK_RECORD
  5
1F
330
1
100
AcDbSymbolTableRecord
100
AcDbBlockTableRecord
  2
*Model_Space
340
22
  0
BLOCK_RECORD
  5
1B
330
1
100
AcDbSymbolTableRecord
100
AcDbBlockTableRecord
  2
*Paper_Space
340
1E
  0
BLOCK_RECORD
  5
23
330
1
100
AcDbSymbolTableRecord
100
AcDbBlockTableRecord
  2
*Paper_Space0
340
26
  0
BLOCK_RECORD
  5
1B9
330
1
100
AcDbSymbolTableRecord
100
AcDbBlockTableRecord
  2
_D
340
0
  0
BLOCK_RECORD
  5
1C5
330
1
100
AcDbSymbolTableRecord
100
AcDbBlockTableRecord
  2
_D_1
340
0
  0
BLOCK_RECORD
  5
1D0
330
1
100
AcDbSymbolTableRecord
100
AcDbBlockTableRecord
  2
_D_2
340
0
  0
BLOCK_RECORD
  5
1DC
330
1
100
AcDbSymbolTableRecord
100
AcDbBlockTableRecord
  2
_D_3
340
0
  0
BLOCK_RECORD
  5
1E6
330
1
100
AcDbSymbolTableRecord
100
AcDbBlockTableRecord
  2
_D_4
340
0
  0
BLOCK_RECORD
  5
1F0
330
1
100
AcDbSymbolTableRecord
100
AcDbBlockTableRecord
  2
_D_5
340
0
  0
ENDTAB
  0
ENDSEC
  0
SECTION
  2
BLOCKS
  0
BLOCK
  5
20
330
1F
100
AcDbEntity
  8
0
100
AcDbBlockBegin
  2
*Model_Space
 70
     0
 10
0.0
 20
0.0
 30
0.0
  3
*Model_Space
  1

  0
ENDBLK
  5
21
330
1F
100
AcDbEntity
  8
0
100
AcDbBlockEnd
  0
BLOCK
  5
1C
330
1B
100
AcDbEntity
 67
     1
  8
0
100
AcDbBlockBegin
  2
*Paper_Space
 70
     0
 10
0.0
 20
0.0
 30
0.0
  3
*Paper_Space
  1

  0
ENDBLK
  5
1D
330
1B
100
AcDbEntity
 67
     1
  8
0
100
AcDbBlockEnd
  0
BLOCK
  5
24
330
23
100
AcDbEntity
  8
0
100
AcDbBlockBegin
  2
*Paper_Space0
 70
     0
 10
0.0
 20
0.0
 30
0.0
  3
*Paper_Space0
  1

  0
ENDBLK
  5
25
330
23
100
AcDbEntity
  8
0
100
AcDbBlockEnd
  0
BLOCK
  5
1BA
330
1B9
100
AcDbEntity
  8
0
100
AcDbBlockBegin
  2
_D
 70
     0
 10
0.0
 20
0.0
 30
0.0
  3
_D
  1

  0
SOLID
  5
1BC
330
1B9
100
AcDbEntity
  8
VERMASSUNG
100
AcDbTrace
 10
47.6466194141
 20
78.7924354994
 30
0.0
 11
48.0966194141
 21
81.7924354994
 31
0.0
 12
47.1966194141
 22
81.7924354994
 32
0.0
 13
47.1966194141
 23
81.7924354994
 33
0.0
  0
SOLID
  5
1BD
330
1B9
100
AcDbEntity
  8
VERMASSUNG
100
AcDbTrace
 10
47.6466194141
 20
142.2924354994
 30
0.0
 11
47.1966194141
 21
139.2924354994
 31
0.0
 12
48.0966194141
 22
139.2924354994
 32
0.0
 13
48.0966194141
 23
139.2924354994
 33
0.0
  0
LINE
  5
1BE
330
1B9
100
AcDbEntity
  8
VERMASSUNG
100
AcDbLine
 10
142.4472764687
 20
78.7924354994
 30
0.0
 11
46.6466194141
 21
78.7924354994
 31
0.0
  0
LINE
  5
1BF
330
1B9
100
AcDbEntity
  8
VERMASSUNG
100
AcDbLine
 10
142.4472764687
 20
142.2924354994
 30
0.0
 11
46.6466194141
 21
142.2924354994
 31
0.0
  0
LINE
  5
1C0
330
1B9
100
AcDbEntity
  8
VERMASSUNG
100
AcDbLine
 10
47.6466194141
 20
78.7924354994
 30
0.0
 11
47.6466194141
 21
142.2924354994
 31
0.0
  0
MTEXT
  5
1C1
330
1B9
100
AcDbEntity
  8
VERMASSUNG
100
AcDbMText
 10
44.8684841579
 20
101.7394993511
 30
0.0
 40
2.0
 41
0.0
 71
     1
 72
     1
  1
ISO 40
  7
SLDTEXTSTYLE0
 11
3.391901413832837E-15
 21
1.0
 31
0.0
 73
     1
 44
1.0
  0
MTEXT
  5
1C2
330
1B9
100
AcDbEntity
  8
VERMASSUNG
100
AcDbMText
 10
45.0684841092
 20
110.9394995552
 30
0.0
 40
2.0
 41
0.0
 71
     1
 72
     1
  1
%%c
  7
SLDTEXTSTYLE0
 11
3.391901413832837E-15
 21
1.0
 31
0.0
 73
     1
 44
1.0
  0
MTEXT
  5
1C3
330
1B9
100
AcDbEntity
  8
VERMASSUNG
100
AcDbMText
 10
45.0684838182
 20
114.5473798866
 30
0.0
 40
2.0
 41
0.0
 71
     1
 72
     1
  1
63.5
  7
SLDTEXTSTYLE0
 11
3.391901413832837E-15
 21
1.0
 31
0.0
 73
     1
 44
1.0
  0
ENDBLK
  5
1BB
330
1B9
100
AcDbEntity
  8
0
100
AcDbBlockEnd
  0
BLOCK
  5
1C6
330
1C5
100
AcDbEntity
  8
0
100
AcDbBlockBegin
  2
_D_1
 70
     0
 10
0.0
 20
0.0
 30
0.0
  3
_D_1
  1

  0
SOLID
  5
1C8
330
1C5
100
AcDbEntity
  8
VERMASSUNG
100
AcDbTrace
 10
250.4028582337
 20
117.5424354994
 30
0.0
 11
249.9528582337
 21
114.5424354994
 31
0.0
 12
250.8528582337
 22
114.5424354994
 32
0.0
 13
250.8528582337
 23
114.5424354994
 33
0.0
  0
SOLID
  5
1C9
330
1C5
100
AcDbEntity
  8
VERMASSUNG
100
AcDbTrace
 10
250.4028582337
 20
103.5424354994
 30
0.0
 11
250.8528582337
 21
106.5424354994
 31
0.0
 12
249.9528582337
 22
106.5424354994
 32
0.0
 13
249.9528582337
 23
106.5424354994
 33
0.0
  0
LINE
  5
1CA
330
1C5
100
AcDbEntity
  8
VERMASSUNG
100
AcDbLine
 10
242.9972764687
 20
117.5424354994
 30
0.0
 11
251.4028582337
 21
117.5424354994
 31
0.0
  0
LINE
  5
1CB
330
1C5
100
AcDbEntity
  8
VERMASSUNG
100
AcDbLine
 10
242.9972764687
 20
103.5424354994
 30
0.0
 11
251.4028582337
 21
103.5424354994
 31
0.0
  0
LINE
  5
1CC
330
1C5
100
AcDbEntity
  8
VERMASSUNG
100
AcDbLine
 10
250.4028582337
 20
117.5424354994
 30
0.0
 11
250.4028582337
 21
103.5424354994
 31
0.0
  0
MTEXT
  5
1CD
330
1C5
100
AcDbEntity
  8
VERMASSUNG
100
AcDbMText
 10
247.8247229288
 20
107.4374353723
 30
0.0
 40
2.0
 41
0.0
 71
     1
 72
     1
  1
%%c
  7
SLDTEXTSTYLE0
 11
-7.044195017643634E-15
 21
1.0
 31
0.0
 73
     1
 44
1.0
  0
MTEXT
  5
1CE
330
1C5
100
AcDbEntity
  8
VERMASSUNG
100
AcDbMText
 10
247.6247229775
 20
111.0474353866
 30
0.0
 40
2.0
 41
0.0
 71
     1
 72
     1
  1
14
  7
SLDTEXTSTYLE0
 11
-7.044195017643634E-15
 21
1.0
 31
0.0
 73
     1
 44
1.0
  0
ENDBLK
  5
1C7
330
1C5
100
AcDbEntity
  8
0
100
AcDbBlockEnd
  0
BLOCK
  5
1D1
330
1D0
100
AcDbEntity
  8
0
100
AcDbBlockBegin
  2
_D_2
 70
     0
 10
0.0
 20
0.0
 30
0.0
  3
_D_2
  1

  0
SOLID
  5
1D3
330
1D0
100
AcDbEntity
  8
VERMASSUNG
100
AcDbTrace
 10
256.7028582337
 20
98.0424354994
 30
0.0
 11
257.1528582337
 21
101.0424354994
 31
0.0
 12
256.2528582337
 22
101.0424354994
 32
0.0
 13
256.2528582337
 23
101.0424354994
 33
0.0
  0
SOLID
  5
1D4
330
1D0
100
AcDbEntity
  8
VERMASSUNG
100
AcDbTrace
 10
256.7028582337
 20
123.0424354994
 30
0.0
 11
256.2528582337
 21
120.0424354994
 31
0.0
 12
257.1528582337
 22
120.0424354994
 32
0.0
 13
257.1528582337
 23
120.0424354994
 33
0.0
  0
LINE
  5
1D5
330
1D0
100
AcDbEntity
  8
VERMASSUNG
100
AcDbLine
 10
243.7972764687
 20
98.0424354994
 30
0.0
 11
257.7028582337
 21
98.0424354994
 31
0.0
  0
LINE
  5
1D6
330
1D0
100
AcDbEntity
  8
VERMASSUNG
100
AcDbLine
 10
243.7972764687
 20
123.0424354994
 30
0.0
 11
257.7028582337
 21
123.0424354994
 31
0.0
  0
LINE
  5
1D7
330
1D0
100
AcDbEntity
  8
VERMASSUNG
100
AcDbLine
 10
256.7028582337
 20
98.0424354994
 30
0.0
 11
256.7028582337
 21
123.0424354994
 31
0.0
  0
MTEXT
  5
1D8
330
1D0
100
AcDbEntity
  8
VERMASSUNG
100
AcDbMText
 10
253.9247229775
 20
105.4374355101
 30
0.0
 40
2.0
 41
0.0
 71
     1
 72
     1
  1
WH
  7
SLDTEXTSTYLE0
 11
6.123233995736766E-17
 21
1.0
 31
0.0
 73
     1
 44
1.0
  0
MTEXT
  5
1D9
330
1D0
100
AcDbEntity
  8
VERMASSUNG
100
AcDbMText
 10
254.1247229288
 20
109.2374355742
 30
0.0
 40
2.0
 41
0.0
 71
     1
 72
     1
  1
%%c
  7
SLDTEXTSTYLE0
 11
6.123233995736766E-17
 21
1.0
 31
0.0
 73
     1
 44
1.0
  0
MTEXT
  5
1DA
330
1D0
100
AcDbEntity
  8
VERMASSUNG
100
AcDbMText
 10
253.9247229775
 20
112.8474355885
 30
0.0
 40
2.0
 41
0.0
 71
     1
 72
     1
  1
25
  7
SLDTEXTSTYLE0
 11
6.123233995736766E-17
 21
1.0
 31
0.0
 73
     1
 44
1.0
  0
ENDBLK
  5
1D2
330
1D0
100
AcDbEntity
  8
0
100
AcDbBlockEnd
  0
BLOCK
  5
1DD
330
1DC
100
AcDbEntity
  8
0
100
AcDbBlockBegin
  2
_D_3
 70
     0
 10
0.0
 20
0.0
 30
0.0
  3
_D_3
  1

  0
SOLID
  5
1DF
330
1DC
100
AcDbEntity
  8
VERMASSUNG
100
AcDbTrace
 10
243.9972764687
 20
146.2918783591
 30
0.0
 11
240.9972764687
 21
146.7418783591
 31
0.0
 12
240.9972764687
 22
145.8418783591
 32
0.0
 13
240.9972764687
 23
145.8418783591
 33
0.0
  0
SOLID
  5
1E0
330
1DC
100
AcDbEntity
  8
VERMASSUNG
100
AcDbTrace
 10
143.0472764687
 20
146.2918783591
 30
0.0
 11
146.0472764687
 21
145.8418783591
 31
0.0
 12
146.0472764687
 22
146.7418783591
 32
0.0
 13
146.0472764687
 23
146.7418783591
 33
0.0
  0
LINE
  5
1E1
330
1DC
100
AcDbEntity
  8
VERMASSUNG
100
AcDbLine
 10
243.9972764687
 20
122.8424354994
 30
0.0
 11
243.9972764687
 21
147.2918783591
 31
0.0
  0
LINE
  5
1E2
330
1DC
100
AcDbEntity
  8
VERMASSUNG
100
AcDbLine
 10
143.0472764687
 20
135.7138478555
 30
0.0
 11
143.0472764687
 21
147.2918783591
 31
0.0
  0
LINE
  5
1E3
330
1DC
100
AcDbEntity
  8
VERMASSUNG
100
AcDbLine
 10
243.9972764687
 20
146.2918783591
 30
0.0
 11
143.0472764687
 21
146.2918783591
 31
0.0
  0
MTEXT
  5
1E4
330
1DC
100
AcDbEntity
  8
VERMASSUNG
100
AcDbMText
 10
189.9222765306
 20
148.870013955
 30
0.0
 40
2.0
 41
0.0
 71
     1
 72
     1
  1
100.95
  7
SLDTEXTSTYLE0
 73
     1
 44
1.0
  0
ENDBLK
  5
1DE
330
1DC
100
AcDbEntity
  8
0
100
AcDbBlockEnd
  0
BLOCK
  5
1E7
330
1E6
100
AcDbEntity
  8
0
100
AcDbBlockBegin
  2
_D_4
 70
     0
 10
0.0
 20
0.0
 30
0.0
  3
_D_4
  1

  0
SOLID
  5
1E9
330
1E6
100
AcDbEntity
  8
VERMASSUNG
100
AcDbTrace
 10
243.9972764687
 20
152.2918783591
 30
0.0
 11
240.9972764687
 21
152.7418783591
 31
0.0
 12
240.9972764687
 22
151.8418783591
 32
0.0
 13
240.9972764687
 23
151.8418783591
 33
0.0
  0
SOLID
  5
1EA
330
1E6
100
AcDbEntity
  8
VERMASSUNG
100
AcDbTrace
 10
123.9972764687
 20
152.2918783591
 30
0.0
 11
126.9972764687
 21
151.8418783591
 31
0.0
 12
126.9972764687
 22
152.7418783591
 32
0.0
 13
126.9972764687
 23
152.7418783591
 33
0.0
  0
LINE
  5
1EB
330
1E6
100
AcDbEntity
  8
VERMASSUNG
100
AcDbLine
 10
243.9972764687
 20
122.8424354994
 30
0.0
 11
243.9972764687
 21
153.2918783591
 31
0.0
  0
LINE
  5
1EC
330
1E6
100
AcDbEntity
  8
VERMASSUNG
100
AcDbLine
 10
123.9972764687
 20
132.7674354994
 30
0.0
 11
123.9972764687
 21
153.2918783591
 31
0.0
  0
LINE
  5
1ED
330
1E6
100
AcDbEntity
  8
VERMASSUNG
100
AcDbLine
 10
243.9972764687
 20
152.2918783591
 30
0.0
 11
123.9972764687
 21
152.2918783591
 31
0.0
  0
MTEXT
  5
1EE
330
1E6
100
AcDbEntity
  8
VERMASSUNG
100
AcDbMText
 10
182.0972764367
 20
154.870013955
 30
0.0
 40
2.0
 41
0.0
 71
     1
 72
     1
  1
120
  7
SLDTEXTSTYLE0
 73
     1
 44
1.0
  0
ENDBLK
  5
1E8
330
1E6
100
AcDbEntity
  8
0
100
AcDbBlockEnd
  0
BLOCK
  5
1F1
330
1F0
100
AcDbEntity
  8
0
100
AcDbBlockBegin
  2
_D_5
 70
     0
 10
0.0
 20
0.0
 30
0.0
  3
_D_5
  1

  0
SOLID
  5
1F3
330
1F0
100
AcDbEntity
  8
VERMASSUNG
100
AcDbTrace
 10
243.9972764687
 20
158.2918783591
 30
0.0
 11
240.9972764687
 21
158.7418783591
 31
0.0
 12
240.9972764687
 22
157.8418783591
 32
0.0
 13
240.9972764687
 23
157.8418783591
 33
0.0
  0
SOLID
  5
1F4
330
1F0
100
AcDbEntity
  8
VERMASSUNG
100
AcDbTrace
 10
55.7472764687
 20
158.2918783591
 30
0.0
 11
58.7472764687
 21
157.8418783591
 31
0.0
 12
58.7472764687
 22
158.7418783591
 32
0.0
 13
58.7472764687
 23
158.7418783591
 33
0.0
  0
LINE
  5
1F5
330
1F0
100
AcDbEntity
  8
VERMASSUNG
100
AcDbLine
 10
243.9972764687
 20
122.8424354994
 30
0.0
 11
243.9972764687
 21
159.2918783591
 31
0.0
  0
LINE
  5
1F6
330
1F0
100
AcDbEntity
  8
VERMASSUNG
100
AcDbLine
 10
55.7472764687
 20
121.9495660964
 30
0.0
 11
55.7472764687
 21
159.2918783591
 31
0.0
  0
LINE
  5
1F7
330
1F0
100
AcDbEntity
  8
VERMASSUNG
100
AcDbLine
 10
243.9972764687
 20
158.2918783591
 30
0.0
 11
55.7472764687
 21
158.2918783591
 31
0.0
  0
MTEXT
  5
1F8
330
1F0
100
AcDbEntity
  8
VERMASSUNG
100
AcDbMText
 10
146.2722765306
 20
160.870013955
 30
0.0
 40
2.0
 41
0.0
 71
     1
 72
     1
  1
188.25
  7
SLDTEXTSTYLE0
 73
     1
 44
1.0
  0
ENDBLK
  5
1F2
330
1F0
100
AcDbEntity
  8
0
100
AcDbBlockEnd
  0
ENDSEC
  0
SECTION
  2
ENTITIES
  0
MTEXT
  5
78
330
1F
100
AcDbEntity
  8
KOPF_DÜNN
100
AcDbMText
 10
13.8892156294
 20
23.8442973028
 30
0.0
 40
3.0
 41
0.0
 71
     1
 72
     1
  1
A14.440.025.120
  7
SLDTEXTSTYLE0
 73
     1
 44
1.0
  0
MTEXT
  5
79
330
1F
100
AcDbEntity
  8
VERMASSUNG
100
AcDbMText
 10
13.9329988022
 20
28.8834360957
 30
0.0
 40
3.0
 41
0.0
 71
     1
 72
     1
  1
Aufnahme_Master shank WH25
  7
SLDTEXTSTYLE0
 73
     1
 44
1.0
  0
MTEXT
  5
7A
330
1F
100
AcDbEntity
  8
VERMASSUNG
100
AcDbMText
 10
98.8601118557
 20
13.8365368761
 30
0.0
 40
2.0
 41
0.0
 71
     1
 72
     1
  1
Datum: 19.10.2011
  7
SLDTEXTSTYLE0
 73
     1
 44
1.0
  0
MTEXT
  5
7B
330
1F
100
AcDbEntity
  8
VERMASSUNG
100
AcDbMText
 10
13.933048693
 20
18.0482802738
 30
0.0
 40
2.0
 41
0.0
 71
     1
 72
     1
  1
DIN 69871 AD/B
  7
SLDTEXTSTYLE0
 73
     1
 44
1.0
  0
MTEXT
  5
7C
330
1F
100
AcDbEntity
  8
VERMASSUNG
100
AcDbMText
 10
13.9808475933
 20
13.9090974274
 30
0.0
 40
2.0
 41
0.0
 71
     1
 72
     1
  1
Gewicht: 1174g
  7
SLDTEXTSTYLE0
 73
     1
 44
1.0
  0
ARC
  5
7D
330
1F
100
AcDbEntity
  8
0
  6
Continuous
 62
     7
370
    15
100
AcDbCircle
 10
126.5972764687
 20
87.7174354994
 30
0.0
 40
0.6000000000000085
100
AcDbArc
 50
0.0
 51
90.0
  0
ARC
  5
7E
330
1F
100
AcDbEntity
  8
0
  6
Continuous
 62
     7
370
    15
100
AcDbCircle
 10
126.5972764687
 20
133.3674354994
 30
0.0
 40
0.6000000000000227
100
AcDbArc
 50
270.0
 51
0.0
  0
LINE
  5
7F
330
1F
100
AcDbEntity
  8
0
  6
Continuous
 62
     7
370
    15
100
AcDbLine
 10
123.9972764687
 20
88.3174354994
 30
0.0
 11
126.5972764687
 21
88.3174354994
 31
0.0
  0
LINE
  5
80
330
1F
100
AcDbEntity
  8
0
  6
Continuous
 62
     7
370
    15
100
AcDbLine
 10
126.5972764687
 20
132.7674354994
 30
0.0
 11
123.9972764687
 21
132.7674354994
 31
0.0
  0
LINE
  5
81
330
1F
100
AcDbEntity
  8
0
  6
Continuous
 62
     7
370
    15
100
AcDbLine
 10
123.9972764687
 20
132.7674354994
 30
0.0
 11
56.6029695756
 21
122.9390990775
 31
0.0
  0
LINE
  5
82
330
1F
100
AcDbEntity
  8
0
  6
Continuous
 62
     7
370
    15
100
AcDbLine
 10
56.6029695756
 20
98.1457719213
 30
0.0
 11
123.9972764687
 21
88.3174354994
 31
0.0
  0
ARC
  5
83
330
1F
100
AcDbEntity
  8
0
  6
Continuous
 62
     7
370
    15
100
AcDbCircle
 10
146.0472764687
 20
95.0424354994
 30
0.0
 40
3.0
100
AcDbArc
 50
90.0
 51
180.0
  0
ARC
  5
84
330
1F
100
AcDbEntity
  8
0
  6
Continuous
 62
     7
370
    15
100
AcDbCircle
 10
146.0472764687
 20
126.0424354994
 30
0.0
 40
3.000000000000014
100
AcDbArc
 50
180.0
 51
270.0
  0
LINE
  5
85
330
1F
100
AcDbEntity
  8
0
  6
Continuous
 62
     7
370
    15
100
AcDbLine
 10
243.7972764687
 20
98.0424354994
 30
0.0
 11
243.9972764687
 21
98.2424354994
 31
0.0
  0
LINE
  5
86
330
1F
100
AcDbEntity
  8
0
  6
Continuous
 62
     7
370
    15
100
AcDbLine
 10
243.9972764687
 20
122.8424354994
 30
0.0
 11
243.7972764687
 21
123.0424354994
 31
0.0
  0
LINE
  5
87
330
1F
100
AcDbEntity
  8
0
  6
Continuous
 62
     7
370
    15
100
AcDbLine
 10
243.7972764687
 20
123.0424354994
 30
0.0
 11
146.0472764687
 21
123.0424354994
 31
0.0
  0
LINE
  5
88
330
1F
100
AcDbEntity
  8
0
  6
Continuous
 62
     7
370
    15
100
AcDbLine
 10
146.0472764687
 20
98.0424354994
 30
0.0
 11
243.7972764687
 21
98.0424354994
 31
0.0
  0
ARC
  5
89
330
1F
100
AcDbEntity
  8
0
  6
Continuous
 62
     7
370
    15
100
AcDbCircle
 10
56.7472764687
 20
99.1353049024
 30
0.0
 40
0.9999999999999949
100
AcDbArc
 50
180.0
 51
261.7028550302
  0
ARC
  5
8A
330
1F
100
AcDbEntity
  8
0
  6
Continuous
 62
     7
370
    15
100
AcDbCircle
 10
56.7472764687
 20
121.9495660964
 30
0.0
 40
0.9999999999999949
100
AcDbArc
 50
98.2971449698
 51
180.0
  0
ARC
  5
8B
330
1F
100
AcDbEntity
  8
0
  6
Continuous
 62
     7
370
    15
100
AcDbCircle
 10
136.9972764687
 20
101.8209218446
 30
0.0
 40
1.500000000000009
100
AcDbArc
 50
191.5274417158
 51
336.6037645748
  0
SPLINE
  5
8C
330
1F
100
AcDbEntity
  8
0
  6
Continuous
 62
     7
370
    15
100
AcDbSpline
210
0.0
220
0.0
230
1.0
 70
     8
 71
     3
 72
    12
 73
     8
 74
     0
 42
0.000000001
 43
0.00000001
 40
0.0
 40
0.0
 40
0.0
 40
0.0
 40
0.250000000000001
 40
0.250000000000001
 40
0.500000000000002
 40
0.500000000000002
 40
1.0
 40
1.0
 40
1.0
 40
1.0
 10
142.4472764687206
 20
80.09434315075953
 30
0.0
 10
142.5428183788566
 20
80.09434315075953
 30
0.0
 10
142.6349633207194
 20
80.11059681995572
 30
0.0
 10
142.7912895973293
 20
80.16420524086921
 30
0.0
 10
142.8549577399493
 20
80.2006163661509
 30
0.0
 10
143.0038255853796
 20
80.32274000583739
 30
0.0
 10
143.0472764687206
 20
80.41789268127442
 30
0.0
 10
143.0472764687206
 20
80.51351913689412
 30
0.0
  0
SPLINE
  5
8D
330
1F
100
AcDbEntity
  8
0
  6
Continuous
 62
     7
370
    15
100
AcDbSpline
210
0.0
220
0.0
230
1.0
 70
    24
 71
     3
 72
    12
 73
     8
 74
     0
 42
0.000000001
 43
0.00000001
 40
0.0
 40
0.0
 40
0.0
 40
0.0
 40
0.5000000000000011
 40
0.5000000000000011
 40
0.7500000000000006
 40
0.7500000000000006
 40
1.0
 40
1.0
 40
1.0
 40
1.0
 10
143.0472764687206
 20
128.8924354993962
 30
0.0
 10
143.0472764687206
 20
128.8924354993962
 30
0.0
 10
142.9975964737656
 20
128.8924354993962
 30
0.0
 10
142.841677916748
 20
128.8924354993962
 30
0.0
 10
142.7757968521719
 20
128.8924354993962
 30
0.0
 10
142.6231511966832
 20
128.8924354993962
 30
0.0
 10
142.5359012888222
 20
128.8924354993962
 30
0.0
 10
142.4472764687205
 20
128.8924354993962
 30
0.0
  0
LINE
  5
8E
330
1F
100
AcDbEntity
  8
0
  6
Continuous
 62
     7
370
    15
100
AcDbLine
 10
143.0472764687
 20
80.5135191369
 30
0.0
 11
143.0472764687
 21
128.8924354994
 31
0.0
  0
LINE
  5
8F
330
1F
100
AcDbEntity
  8
0
  6
Continuous
 62
     7
370
    15
100
AcDbLine
 10
138.6191131108
 20
100.7904154316
 30
0.0
 11
138.6191131108
 21
128.8924354994
 31
0.0
  0
LINE
  5
90
330
1F
100
AcDbEntity
  8
0
  6
Continuous
 62
     7
370
    15
100
AcDbLine
 10
142.4472764687
 20
128.8924354994
 30
0.0
 11
138.6191131108
 21
128.8924354994
 31
0.0
  0
LINE
  5
91
330
1F
100
AcDbEntity
  8
0
  6
Continuous
 62
     7
370
    15
100
AcDbLine
 10
138.6191131108
 20
80.0943431508
 30
0.0
 11
142.4472764687
 21
80.0943431508
 31
0.0
  0
LINE
  5
92
330
1F
100
AcDbEntity
  8
0
  6
Continuous
 62
     7
370
    15
100
AcDbLine
 10
138.6191131108
 20
80.0943431508
 30
0.0
 11
138.6191131108
 21
98.5909357012
 31
0.0
  0
SPLINE
  5
93
330
1F
100
AcDbEntity
  8
0
  6
Continuous
 62
     7
370
    15
100
AcDbSpline
210
0.0
220
0.0
230
1.0
 70
     8
 71
     3
 72
    12
 73
     8
 74
     0
 42
0.000000001
 43
0.00000001
 40
0.0
 40
0.0
 40
0.0
 40
0.0
 40
0.2500000000000005
 40
0.2500000000000005
 40
0.500000000000001
 40
0.500000000000001
 40
1.0
 40
1.0
 40
1.0
 40
1.0
 10
138.6191131107773
 20
98.59093570118927
 30
0.0
 10
138.7420606045729
 20
98.74889254988433
 30
0.0
 10
138.8356048076817
 20
98.92072591686185
 30
0.0
 10
138.9645441968439
 20
99.29239862650766
 30
0.0
 10
138.9970969542291
 20
99.48558707269889
 30
0.0
 10
138.9976332959629
 20
100.0738836109751
 30
0.0
 10
138.8650096389949
 20
100.4659018488638
 30
0.0
 10
138.6191131107773
 20
100.7904154315724
 30
0.0
  0
LINE
  5
94
330
1F
100
AcDbEntity
  8
0
  6
Continuous
 62
     7
370
    15
100
AcDbLine
 10
127.7972764687
 20
80.0943431508
 30
0.0
 11
131.5754398267
 21
80.0943431508
 31
0.0
  0
LINE
  5
95
330
1F
100
AcDbEntity
  8
0
  6
Continuous
 62
     7
370
    15
100
AcDbLine
 10
131.5754398267
 20
128.8924354994
 30
0.0
 11
127.7972764687
 21
128.8924354994
 31
0.0
  0
LINE
  5
96
330
1F
100
AcDbEntity
  8
0
  6
Continuous
 62
     7
370
    15
100
AcDbLine
 10
131.5754398267
 20
80.0943431508
 30
0.0
 11
131.5754398267
 21
128.8924354994
 31
0.0
  0
SPLINE
  5
97
330
1F
100
AcDbEntity
  8
0
  6
Continuous
 62
     7
370
    15
100
AcDbSpline
210
0.0
220
0.0
230
1.0
 70
     8
 71
     3
 72
     8
 73
     4
 74
     0
 42
0.000000001
 43
0.00000001
 40
0.0
 40
0.0
 40
0.0
 40
0.0
 40
1.0
 40
1.0
 40
1.0
 40
1.0
 10
133.1872764687206
 20
82.72560903989476
 30
0.0
 10
132.8031417201363
 20
82.03296761795056
 30
0.0
 10
132.4181554436433
 20
81.34078144362685
 30
0.0
 10
132.0324868650169
 20
80.64898715278267
 30
0.0
  0
SPLINE
  5
98
330
1F
100
AcDbEntity
  8
0
  6
Continuous
 62
     7
370
    15
100
AcDbSpline
210
0.0
220
0.0
230
1.0
 70
     8
 71
     3
 72
     8
 73
     4
 74
     0
 42
0.000000001
 43
0.00000001
 40
0.0
 40
0.0
 40
0.0
 40
0.0
 40
0.0011901715795577
 40
0.0011901715795577
 40
0.0011901715795577
 40
0.0011901715795577
 10
131.5754398266639
 20
80.09434315075953
 30
0.0
 10
131.7292860161598
 20
80.27890838844311
 30
0.0
 10
131.8816812838324
 20
80.46378374897174
 30
0.0
 10
132.0324868650169
 20
80.64898715278267
 30
0.0
  0
SPLINE
  5
99
330
1F
100
AcDbEntity
  8
0
  6
Continuous
 62
     7
370
    15
100
AcDbSpline
210
0.0
220
0.0
230
1.0
 70
    24
 71
     3
 72
     8
 73
     4
 74
     0
 42
0.000000001
 43
0.00000001
 40
0.0
 40
0.0
 40
0.0
 40
0.0
 40
1.0
 40
1.0
 40
1.0
 40
1.0
 10
133.1872764687206
 20
128.8924354993962
 30
0.0
 10
132.6625439803587
 20
128.8924354993962
 30
0.0
 10
132.1238684961399
 20
128.8924354993962
 30
0.0
 10
131.5754398266639
 20
128.8924354993962
 30
0.0
  0
LINE
  5
9A
330
1F
100
AcDbEntity
  8
0
  6
Continuous
 62
     7
370
    15
100
AcDbLine
 10
133.1872764687
 20
82.7256090399
 30
0.0
 11
133.1872764687
 21
128.8924354994
 31
0.0
  0
LINE
  5
9B
330
1F
100
AcDbEntity
  8
0
  6
Continuous
 62
     7
370
    15
100
AcDbLine
 10
137.0072764687
 20
102.5411529792
 30
0.0
 11
137.0072764687
 21
128.8924354994
 31
0.0
  0
SPLINE
  5
9C
330
1F
100
AcDbEntity
  8
0
  6
Continuous
 62
     7
370
    15
100
AcDbSpline
210
0.0
220
0.0
230
1.0
 70
    24
 71
     3
 72
     8
 73
     4
 74
     0
 42
0.000000001
 43
0.00000001
 40
0.0
 40
0.0
 40
0.0
 40
0.0
 40
1.0
 40
1.0
 40
1.0
 40
1.0
 10
138.6191131107773
 20
128.8924354993962
 30
0.0
 10
138.0706844413013
 20
128.8924354993962
 30
0.0
 10
137.5320089570825
 20
128.8924354993962
 30
0.0
 10
137.0072764687206
 20
128.8924354993962
 30
0.0
  0
SPLINE
  5
9D
330
1F
100
AcDbEntity
  8
0
  6
Continuous
 62
     7
370
    15
100
AcDbSpline
210
0.0
220
0.0
230
1.0
 70
     8
 71
     3
 72
    12
 73
     8
 74
     0
 42
0.000000001
 43
0.00000001
 40
0.0
 40
0.0
 40
0.0
 40
0.0
 40
0.2499999999999997
 40
0.2499999999999997
 40
0.4999999999999993
 40
0.4999999999999993
 40
1.0
 40
1.0
 40
1.0
 40
1.0
 10
138.6191131107773
 20
100.7904154315724
 30
0.0
 10
138.5042170595167
 20
101.010155866629
 30
0.0
 10
138.377451043044
 20
101.2071242182507
 30
0.0
 10
138.1172361094255
 20
101.5608417910897
 30
0.0
 10
137.9837286514633
 20
101.7176670849619
 30
0.0
 10
137.5753303828751
 20
102.1442096558696
 30
0.0
 10
137.2916772479375
 20
102.3709018348248
 30
0.0
 10
137.0072764687207
 20
102.5411529792203
 30
0.0
  0
SPLINE
  5
9E
330
1F
100
AcDbEntity
  8
0
  6
Continuous
 62
     7
370
    15
100
AcDbSpline
210
0.0
220
0.0
230
1.0
 70
     8
 71
     3
 72
    10
 73
     6
 74
     0
 42
0.000000001
 43
0.00000001
 40
0.0
 40
0.0
 40
0.0
 40
0.0
 40
0.5
 40
0.5
 40
1.0
 40
1.0
 40
1.0
 40
1.0
 10
127.4134210100678
 20
80.19070564992798
 30
0.0
 10
127.4621909830492
 20
80.16247764271996
 30
0.0
 10
127.5196431063515
 20
80.13838303847838
 30
0.0
 10
127.6502400093403
 20
80.10411956538584
 30
0.0
 10
127.7227296891824
 20
80.09434315075951
 30
0.0
 10
127.7972764687206
 20
80.09434315075951
 30
0.0
  0
SPLINE
  5
9F
330
1F
100
AcDbEntity
  8
0
  6
Continuous
 62
     7
370
    15
100
AcDbSpline
210
0.0
220
0.0
230
1.0
 70
     8
 71
     3
 72
    10
 73
     6
 74
     0
 42
0.000000001
 43
0.00000001
 40
0.0
 40
0.0
 40
0.0
 40
0.0
 40
0.5
 40
0.5
 40
1.0
 40
1.0
 40
1.0
 40
1.0
 10
127.4134210100678
 20
80.19070564992798
 30
0.0
 10
127.3552983499917
 20
80.25801080978978
 30
0.0
 10
127.3028951839882
 20
80.33809619682343
 30
0.0
 10
127.2239921624418
 20
80.5221156385122
 30
0.0
 10
127.1972764687206
 20
80.62732699593265
 30
0.0
 10
127.1972764687206
 20
80.7360603423933
 30
0.0
  0
LINE
  5
A0
330
1F
100
AcDbEntity
  8
0
  6
Continuous
 62
     7
370
    15
100
AcDbLine
 10
127.1972764687
 20
80.7360603424
 30
0.0
 11
127.1972764687
 21
128.8924354994
 31
0.0
  0
SPLINE
  5
A1
330
1F
100
AcDbEntity
  8
0
  6
Continuous
 62
     7
370
    15
100
AcDbSpline
210
0.0
220
0.0
230
1.0
 70
    24
 71
     3
 72
    12
 73
     8
 74
     0
 42
0.000000001
 43
0.00000001
 40
0.0
 40
0.0
 40
0.0
 40
0.0
 40
0.25
 40
0.25
 40
0.5
 40
0.5
 40
1.0
 40
1.0
 40
1.0
 40
1.0
 10
127.7972764687206
 20
128.8924354993962
 30
0.0
 10
127.7088610914101
 20
128.8924354993962
 30
0.0
 10
127.6215906542396
 20
128.8924354993962
 30
0.0
 10
127.4691269294677
 20
128.8924354993962
 30
0.0
 10
127.4034883172453
 20
128.8924354993962
 30
0.0
 10
127.2468299159614
 20
128.8924354993962
 30
0.0
 10
127.1972764687206
 20
128.8924354993962
 30
0.0
 10
127.1972764687206
 20
128.8924354993962
 30
0.0
  0
SPLINE
  5
A2
330
1F
100
AcDbEntity
  8
0
  6
Continuous
 62
     7
370
    15
100
AcDbSpline
210
0.0
220
0.0
230
1.0
 70
     8
 71
     3
 72
    14
 73
    10
 74
     0
 42
0.000000001
 43
0.00000001
 40
0.0
 40
0.0
 40
0.0
 40
0.0
 40
0.2499999999999995
 40
0.2499999999999995
 40
0.4999999999999997
 40
0.4999999999999997
 40
0.7499999999999998
 40
0.7499999999999998
 40
1.0
 40
1.0
 40
1.0
 40
1.0
 10
137.0072764687206
 20
102.5953966290665
 30
0.0
 10
137.0072764687206
 20
102.6320474972303
 30
0.0
 10
136.9859486800088
 20
102.6685142944793
 30
0.0
 10
136.9034902773522
 20
102.7336531490201
 30
0.0
 10
136.842374085497
 20
102.761724279611
 30
0.0
 10
136.6910709924349
 20
102.7955521613379
 30
0.0
 10
136.5996929690443
 20
102.8010153027344
 30
0.0
 10
136.4073192559914
 20
102.7800893847218
 30
0.0
 10
136.3051389165124
 20
102.7535539593465
 30
0.0
 10
136.2072764687206
 20
102.7130677860652
 30
0.0
  0
SPLINE
  5
A3
330
1F
100
AcDbEntity
  8
0
  6
Continuous
 62
     7
370
    15
100
AcDbSpline
210
0.0
220
0.0
230
1.0
 70
     8
 71
     3
 72
    12
 73
     8
 74
     0
 42
0.000000001
 43
0.00000001
 40
0.0
 40
0.0
 40
0.0
 40
0.0
 40
0.5
 40
0.5
 40
0.75
 40
0.75
 40
1.0
 40
1.0
 40
1.0
 40
1.0
 10
137.0072764687206
 20
98.78242948099933
 30
0.0
 10
137.2914830032859
 20
98.61496531870559
 30
0.0
 10
137.5701787373897
 20
98.50332821919399
 30
0.0
 10
137.979524780579
 20
98.43601495355463
 30
0.0
 10
138.1156641178985
 20
98.43086391354066
 30
0.0
 10
138.3769841668946
 20
98.46862985116005
 30
0.0
 10
138.5024053493264
 20
98.51017960950432
 30
0.0
 10
138.6191131107778
 20
98.59093570118715
 30
0.0
  0
LINE
  5
A4
330
1F
100
AcDbEntity
  8
0
  6
Continuous
 62
     7
370
    15
100
AcDbLine
 10
137.0072764687
 20
98.8366731308
 30
0.0
 11
137.0072764687
 21
98.782429481
 31
0.0
  0
SPLINE
  5
A5
330
1F
100
AcDbEntity
  8
0
  6
Continuous
 62
     7
370
    15
100
AcDbSpline
210
0.0
220
0.0
230
1.0
 70
     8
 71
     3
 72
    14
 73
    10
 74
     0
 42
0.000000001
 43
0.00000001
 40
0.0
 40
0.0
 40
0.0
 40
0.0
 40
0.25
 40
0.25
 40
0.5
 40
0.5
 40
0.75
 40
0.75
 40
1.0
 40
1.0
 40
1.0
 40
1.0
 10
136.2072764687171
 20
99.25995630928949
 30
0.0
 10
136.3046858887009
 20
99.22154158989531
 30
0.0
 10
136.4070101317145
 20
99.18384118511256
 30
0.0
 10
136.5990118172519
 20
99.11279639951842
 30
0.0
 10
136.6904464469064
 20
99.07859493816036
 30
0.0
 10
136.8422253142014
 20
99.01159851275497
 30
0.0
 10
136.903202204116
 20
98.97845704444549
 30
0.0
 10
136.9862201426803
 20
98.9087794767954
 30
0.0
 10
137.0072764687206
 20
98.8730457656282
 30
0.0
 10
137.0072764687206
 20
98.83667313084742
 30
0.0
  0
SPLINE
  5
A6
330
1F
100
AcDbEntity
  8
0
  6
Continuous
 62
     7
370
    15
100
AcDbSpline
210
0.0
220
0.0
230
1.0
 70
     8
 71
     3
 72
    22
 73
    18
 74
     0
 42
0.000000001
 43
0.00000001
 40
0.0
 40
0.0
 40
0.0
 40
0.0
 40
0.125
 40
0.125
 40
0.25
 40
0.25
 40
0.375
 40
0.375
 40
0.5
 40
0.5
 40
0.625
 40
0.625
 40
0.75
 40
0.75
 40
0.875
 40
0.875
 40
1.0
 40
1.0
 40
1.0
 40
1.0
 10
136.2072764687206
 20
102.7130677860652
 30
0.0
 10
136.0272597741513
 20
102.6385939990887
 30
0.0
 10
135.8628279522811
 20
102.5411447371047
 30
0.0
 10
135.5644317185227
 20
102.3017753035406
 30
0.0
 10
135.4341279911579
 20
102.1618786914702
 30
0.0
 10
135.2209092075389
 20
101.8536271014102
 30
0.0
 10
135.1372813504273
 20
101.6834638832911
 30
0.0
 10
135.0261504735091
 20
101.3329691485009
 30
0.0
 10
134.9973144786553
 20
101.1478441873496
 30
0.0
 10
134.9972385359954
 20
100.7846373127326
 30
0.0
 10
135.0258971614225
 20
100.6012672990251
 30
0.0
 10
135.1370482545348
 20
100.2553761865319
 30
0.0
 10
135.2201153751786
 20
100.0898566592645
 30
0.0
 10
135.4338013332969
 20
99.78931692186066
 30
0.0
 10
135.5628083232209
 20
99.65544500057665
 30
0.0
 10
135.8624176027101
 20
99.42419823117233
 30
0.0
 10
136.0272603009712
 20
99.33094811451237
 30
0.0
 10
136.2072764687206
 20
99.25995630928809
 30
0.0
  0
SPLINE
  5
A7
330
1F
100
AcDbEntity
  8
0
  6
Continuous
 62
     7
370
    15
100
AcDbSpline
210
0.0
220
0.0
230
1.0
 70
     8
 71
     3
 72
     8
 73
     4
 74
     0
 42
0.000000001
 43
0.00000001
 40
0.0
 40
0.0
 40
0.0
 40
0.0
 40
0.0011901715795577
 40
0.0011901715795577
 40
0.0011901715795577
 40
0.0011901715795577
 10
138.1620660724243
 20
80.64898715278267
 30
0.0
 10
138.3128716536088
 20
80.46378374897174
 30
0.0
 10
138.4652669212814
 20
80.27890838844311
 30
0.0
 10
138.6191131107773
 20
80.09434315075953
 30
0.0
  0
SPLINE
  5
A8
330
1F
100
AcDbEntity
  8
0
  6
Continuous
 62
     7
370
    15
100
AcDbSpline
210
0.0
220
0.0
230
1.0
 70
     8
 71
     3
 72
     8
 73
     4
 74
     0
 42
0.000000001
 43
0.00000001
 40
0.0
 40
0.0
 40
0.0
 40
0.0
 40
1.0
 40
1.0
 40
1.0
 40
1.0
 10
138.1620660724243
 20
80.64898715278267
 30
0.0
 10
137.7763974937979
 20
81.34078144362684
 30
0.0
 10
137.391411217305
 20
82.03296761795056
 30
0.0
 10
137.0072764687206
 20
82.72560903989475
 30
0.0
  0
LINE
  5
A9
330
1F
100
AcDbEntity
  8
0
  6
Continuous
 62
     7
370
    15
100
AcDbLine
 10
137.0072764687
 20
82.7256090399
 30
0.0
 11
137.0072764687
 21
98.782429481
 31
0.0
  0
SPLINE
  5
AA
330
1F
100
AcDbEntity
  8
0
  6
Continuous
 62
     7
370
    15
100
AcDbSpline
210
0.0
220
0.0
230
1.0
 70
     8
 71
     3
 72
    12
 73
     8
 74
     0
 42
0.000000001
 43
0.00000001
 40
0.0
 40
0.0
 40
0.0
 40
0.0
 40
0.2500000000000015
 40
0.2500000000000015
 40
0.500000000000003
 40
0.500000000000003
 40
1.0
 40
1.0
 40
1.0
 40
1.0
 10
133.9872764687206
 20
83.72457764310948
 30
0.0
 10
133.8808746183632
 20
83.72457764310948
 30
0.0
 10
133.7735592069666
 20
83.70180687909098
 30
0.0
 10
133.5780876159394
 20
83.61556393243887
 30
0.0
 10
133.4879055000018
 20
83.55088761196834
 30
0.0
 10
133.2696840132811
 20
83.31795828791154
 30
0.0
 10
133.1872764687203
 20
83.10337305002052
 30
0.0
 10
133.1872764687206
 20
82.8903560115878
 30
0.0
  0
SPLINE
  5
AB
330
1F
100
AcDbEntity
  8
0
  6
Continuous
 62
     7
370
    15
100
AcDbSpline
210
0.0
220
0.0
230
1.0
 70
    24
 71
     3
 72
    14
 73
    10
 74
     0
 42
0.000000001
 43
0.00000001
 40
0.0
 40
0.0
 40
0.0
 40
0.0
 40
0.1250000000000007
 40
0.1250000000000007
 40
0.2500000000000014
 40
0.2500000000000014
 40
0.499999999999999
 40
0.499999999999999
 40
1.0
 40
1.0
 40
1.0
 40
1.0
 10
133.9872764687206
 20
128.8924354993962
 30
0.0
 10
133.9266591453031
 20
128.8924354993962
 30
0.0
 10
133.864533997168
 20
128.8924354993962
 30
0.0
 10
133.7483163341466
 20
128.8924354993962
 30
0.0
 10
133.6936996944542
 20
128.8924354993962
 30
0.0
 10
133.539023355946
 20
128.8924354993962
 30
0.0
 10
133.452906607162
 20
128.8924354993962
 30
0.0
 10
133.2515990266214
 20
128.8924354993962
 30
0.0
 10
133.1872764687206
 20
128.8924354993962
 30
0.0
 10
133.1872764687206
 20
128.8924354993962
 30
0.0
  0
SPLINE
  5
AC
330
1F
100
AcDbEntity
  8
0
  6
Continuous
 62
     7
370
    15
100
AcDbSpline
210
0.0
220
0.0
230
1.0
 70
    24
 71
     3
 72
    14
 73
    10
 74
     0
 42
0.000000001
 43
0.00000001
 40
0.0
 40
0.0
 40
0.0
 40
0.0
 40
0.25
 40
0.25
 40
0.5
 40
0.5
 40
0.75
 40
0.75
 40
1.0
 40
1.0
 40
1.0
 40
1.0
 10
137.0072764687206
 20
128.8924354993962
 30
0.0
 10
137.0072764687206
 20
128.8924354993962
 30
0.0
 10
136.9911948672608
 20
128.8924354993962
 30
0.0
 10
136.9257033539939
 20
128.8924354993962
 30
0.0
 10
136.8763953808666
 20
128.8924354993962
 30
0.0
 10
136.7418258591696
 20
128.8924354993962
 30
0.0
 10
136.6563027830844
 20
128.8924354993962
 30
0.0
 10
136.4493072875293
 20
128.8924354993962
 30
0.0
 10
136.3286136535857
 20
128.8924354993962
 30
0.0
 10
136.2072764687207
 20
128.8924354993962
 30
0.0
  0
LINE
  5
AD
330
1F
100
AcDbEntity
  8
0
  6
Continuous
 62
     7
370
    15
100
AcDbLine
 10
136.2072764687
 20
83.7245776431
 30
0.0
 11
133.9872764687
 21
83.7245776431
 31
0.0
  0
LINE
  5
AE
330
1F
100
AcDbEntity
  8
0
  6
Continuous
 62
     7
370
    15
100
AcDbLine
 10
136.2072764687
 20
128.8924354994
 30
0.0
 11
133.9872764687
 21
128.8924354994
 31
0.0
  0
SPLINE
  5
AF
330
1F
100
AcDbEntity
  8
0
  6
Continuous
 62
     7
370
    15
100
AcDbSpline
210
0.0
220
0.0
230
1.0
 70
     8
 71
     3
 72
    12
 73
     8
 74
     0
 42
0.000000001
 43
0.00000001
 40
0.0
 40
0.0
 40
0.0
 40
0.0
 40
0.5000000000000013
 40
0.5000000000000013
 40
0.7500000000000007
 40
0.7500000000000007
 40
1.0
 40
1.0
 40
1.0
 40
1.0
 10
137.0072764687206
 20
82.89035601158916
 30
0.0
 10
137.0072764687206
 20
83.10317857052205
 30
0.0
 10
136.9253511109009
 20
83.31743507716001
 30
0.0
 10
136.7064293074325
 20
83.55112470560988
 30
0.0
 10
136.6163820159414
 20
83.61560953045387
 30
0.0
 10
136.4209685479216
 20
83.70180914160944
 30
0.0
 10
136.3136855809379
 20
83.72457764310948
 30
0.0
 10
136.2072764687206
 20
83.72457764310948
 30
0.0
  0
LINE
  5
B0
330
1F
100
AcDbEntity
  8
0
  6
Continuous
 62
     7
370
    15
100
AcDbLine
 10
123.9972764687
 20
88.3174354994
 30
0.0
 11
123.9972764687
 21
132.7674354994
 31
0.0
  0
SPLINE
  5
B1
330
1F
100
AcDbEntity
  8
0
  6
Continuous
 62
     7
370
    15
100
AcDbSpline
210
0.0
220
0.0
230
1.0
 70
     8
 71
     3
 72
    12
 73
     8
 74
     0
 42
0.000000001
 43
0.00000001
 40
0.0
 40
0.0
 40
0.0
 40
0.0
 40
0.4999999999999986
 40
0.4999999999999986
 40
0.7499999999999992
 40
0.7499999999999992
 40
1.0
 40
1.0
 40
1.0
 40
1.0
 10
143.0472764687206
 20
140.5529866328374
 30
0.0
 10
143.0472764687206
 20
140.6733136658905
 30
0.0
 10
142.9934816571276
 20
140.7914112393723
 30
0.0
 10
142.8325580871614
 20
140.9310539818113
 30
0.0
 10
142.7678066260588
 20
140.9693299352058
 30
0.0
 10
142.6155864427411
 20
141.0241697648402
 30
0.0
 10
142.5327789272162
 20
141.0387715786118
 30
0.0
 10
142.4472764687206
 20
141.0387715786118
 30
0.0
  0
SPLINE
  5
B2
330
1F
100
AcDbEntity
  8
0
  6
Continuous
 62
     7
370
    15
100
AcDbSpline
210
0.0
220
0.0
230
1.0
 70
     8
 71
     3
 72
    14
 73
    10
 74
     0
 42
0.000000001
 43
0.00000001
 40
0.0
 40
0.0
 40
0.0
 40
0.0
 40
0.25
 40
0.25
 40
0.5
 40
0.5
 40
0.75
 40
0.75
 40
1.0
 40
1.0
 40
1.0
 40
1.0
 10
142.4472764687206
 20
136.4526651394438
 30
0.0
 10
142.5356990068431
 20
136.4526651394438
 30
0.0
 10
142.6237529965362
 20
136.4275927889844
 30
0.0
 10
142.7755827604075
 20
136.3412507240131
 30
0.0
 10
142.8414257049713
 20
136.2797074695002
 30
0.0
 10
142.9452247655168
 20
136.1378797232493
 30
0.0
 10
142.9836968749915
 20
136.0578311332793
 30
0.0
 10
143.0349195382661
 20
135.8888186366055
 30
0.0
 10
143.0472764687206
 20
135.8020393297359
 30
0.0
 10
143.0472764687206
 20
135.7138478554799
 30
0.0
  0
LINE
  5
B3
330
1F
100
AcDbEntity
  8
0
  6
Continuous
 62
     7
370
    15
100
AcDbLine
 10
143.0472764687
 20
135.7138478555
 30
0.0
 11
143.0472764687
 21
140.5529866328
 31
0.0
  0
SPLINE
  5
B4
330
1F
100
AcDbEntity
  8
0
  6
Continuous
 62
     7
370
    15
100
AcDbSpline
210
0.0
220
0.0
230
1.0
 70
     8
 71
     3
 72
    12
 73
     8
 74
     0
 42
0.000000001
 43
0.00000001
 40
0.0
 40
0.0
 40
0.0
 40
0.0
 40
0.4999999999999996
 40
0.4999999999999996
 40
0.7499999999999998
 40
0.7499999999999998
 40
1.0
 40
1.0
 40
1.0
 40
1.0
 10
127.1972764687206
 20
135.7138478554799
 30
0.0
 10
127.1972764687206
 20
135.8904642520016
 30
0.0
 10
127.2466171035425
 20
136.0655214233753
 30
0.0
 10
127.4028326618306
 20
136.279471635868
 30
0.0
 10
127.4681352417313
 20
136.3408042787149
 30
0.0
 10
127.6219042596916
 20
136.4281923766861
 30
0.0
 10
127.7089173663021
 20
136.4526651394438
 30
0.0
 10
127.7972764687206
 20
136.4526651394438
 30
0.0
  0
LINE
  5
B5
330
1F
100
AcDbEntity
  8
0
  6
Continuous
 62
     7
370
    15
100
AcDbLine
 10
127.7972764687
 20
136.4526651394
 30
0.0
 11
131.5754398267
 21
136.4526651394
 31
0.0
  0
SPLINE
  5
B6
330
1F
100
AcDbEntity
  8
0
  6
Continuous
 62
     7
370
    15
100
AcDbSpline
210
0.0
220
0.0
230
1.0
 70
     8
 71
     3
 72
     8
 73
     4
 74
     0
 42
0.000000001
 43
0.00000001
 40
0.0
 40
0.0
 40
0.0
 40
0.0
 40
1.0
 40
1.0
 40
1.0
 40
1.0
 10
131.5754398266639
 20
136.4526651394438
 30
0.0
 10
132.1243846048608
 20
135.2875690271301
 30
0.0
 10
132.6629949793775
 20
134.1184107103056
 30
0.0
 10
133.1872764687206
 20
132.9445745552547
 30
0.0
  0
SPLINE
  5
B7
330
1F
100
AcDbEntity
  8
0
  6
Continuous
 62
     7
370
    15
100
AcDbSpline
210
0.0
220
0.0
230
1.0
 70
     8
 71
     3
 72
    14
 73
    10
 74
     0
 42
0.000000001
 43
0.00000001
 40
0.0
 40
0.0
 40
0.0
 40
0.0
 40
0.25
 40
0.25
 40
0.5
 40
0.5
 40
0.75
 40
0.75
 40
1.0
 40
1.0
 40
1.0
 40
1.0
 10
133.1872764687206
 20
132.7396763189215
 30
0.0
 10
133.1872764687206
 20
132.61774098374
 30
0.0
 10
133.2033208362606
 20
132.4981867432385
 30
0.0
 10
133.2690501784399
 20
132.2640707600953
 30
0.0
 10
133.3182575486882
 20
132.1521382199606
 30
0.0
 10
133.4532705295871
 20
131.9497384107237
 30
0.0
 10
133.5391905981934
 20
131.8598732171608
 30
0.0
 10
133.7457054001988
 20
131.7295387075505
 30
0.0
 10
133.8658441125698
 20
131.6913716428527
 30
0.0
 10
133.9872764687206
 20
131.6913716428527
 30
0.0
  0
LINE
  5
B8
330
1F
100
AcDbEntity
  8
0
  6
Continuous
 62
     7
370
    15
100
AcDbLine
 10
133.9872764687
 20
131.6913716429
 30
0.0
 11
136.2072764687
 21
131.6913716429
 31
0.0
  0
SPLINE
  5
B9
330
1F
100
AcDbEntity
  8
0
  6
Continuous
 62
     7
370
    15
100
AcDbSpline
210
0.0
220
0.0
230
1.0
 70
     8
 71
     3
 72
    12
 73
     8
 74
     0
 42
0.000000001
 43
0.00000001
 40
0.0
 40
0.0
 40
0.0
 40
0.0
 40
0.2500000000000015
 40
0.2500000000000015
 40
0.500000000000003
 40
0.500000000000003
 40
1.0
 40
1.0
 40
1.0
 40
1.0
 10
136.2072764687206
 20
131.6913716428527
 30
0.0
 10
136.3293584662089
 20
131.6913716428527
 30
0.0
 10
136.4499490086946
 20
131.7300979990264
 30
0.0
 10
136.6554442923945
 20
131.8600615867727
 30
0.0
 10
136.7409607753469
 20
131.9492678233194
 30
0.0
 10
136.9443551268911
 20
132.254144360865
 30
0.0
 10
137.0072764687206
 20
132.4969149749671
 30
0.0
 10
137.0072764687206
 20
132.7396763189215
 30
0.0
  0
LINE
  5
BA
330
1F
100
AcDbEntity
  8
0
  6
Continuous
 62
     7
370
    15
100
AcDbLine
 10
137.0072764687
 20
132.7396763189
 30
0.0
 11
137.0072764687
 21
132.9445745553
 31
0.0
  0
SPLINE
  5
BB
330
1F
100
AcDbEntity
  8
0
  6
Continuous
 62
     7
370
    15
100
AcDbSpline
210
0.0
220
0.0
230
1.0
 70
     8
 71
     3
 72
     8
 73
     4
 74
     0
 42
0.000000001
 43
0.00000001
 40
0.0
 40
0.0
 40
0.0
 40
0.0
 40
1.0
 40
1.0
 40
1.0
 40
1.0
 10
137.0072764687206
 20
132.9445745552547
 30
0.0
 10
137.5320675882166
 20
134.1195517429594
 30
0.0
 10
138.0705838393994
 20
135.2884509106976
 30
0.0
 10
138.6191131107773
 20
136.4526651394438
 30
0.0
  0
LINE
  5
BC
330
1F
100
AcDbEntity
  8
0
  6
Continuous
 62
     7
370
    15
100
AcDbLine
 10
138.6191131108
 20
136.4526651394
 30
0.0
 11
142.4472764687
 21
136.4526651394
 31
0.0
  0
LINE
  5
BD
330
1F
100
AcDbEntity
  8
0
  6
Continuous
 62
     7
370
    15
100
AcDbLine
 10
133.1872764687
 20
132.9445745553
 30
0.0
 11
133.1872764687
 21
132.7396763189
 31
0.0
  0
LINE
  5
BE
330
1F
100
AcDbEntity
  8
0
  6
Continuous
 62
     7
370
    15
100
AcDbLine
 10
127.1972764687
 20
135.7138478555
 30
0.0
 11
127.1972764687
 21
128.8924354994
 31
0.0
  0
LINE
  5
BF
330
1F
100
AcDbEntity
  8
0
  6
Continuous
 62
     7
370
    15
100
AcDbLine
 10
143.0472764687
 20
135.7138478555
 30
0.0
 11
143.0472764687
 21
128.8924354994
 31
0.0
  0
LINE
  5
C0
330
1F
100
AcDbEntity
  8
0
  6
Continuous
 62
     7
370
    15
100
AcDbLine
 10
142.4472764687
 20
141.0387715786
 30
0.0
 11
138.6191131108
 21
141.0387715786
 31
0.0
  0
LINE
  5
C1
330
1F
100
AcDbEntity
  8
0
  6
Continuous
 62
     7
370
    15
100
AcDbLine
 10
138.6191131108
 20
136.4526651394
 30
0.0
 11
138.6191131108
 21
141.0387715786
 31
0.0
  0
SPLINE
  5
C2
330
1F
100
AcDbEntity
  8
0
  6
Continuous
 62
     7
370
    15
100
AcDbSpline
210
0.0
220
0.0
230
1.0
 70
     8
 71
     3
 72
     8
 73
     4
 74
     0
 42
0.000000001
 43
0.00000001
 40
0.0
 40
0.0
 40
0.0
 40
0.0
 40
1.0
 40
1.0
 40
1.0
 40
1.0
 10
138.0612311550167
 20
140.2549736556607
 30
0.0
 10
137.7092871321084
 20
139.6234122676469
 30
0.0
 10
137.3579287090482
 20
138.9915303679481
 30
0.0
 10
137.0072764687206
 20
138.3592619588977
 30
0.0
  0
SPLINE
  5
C3
330
1F
100
AcDbEntity
  8
0
  6
Continuous
 62
     7
370
    15
100
AcDbSpline
210
0.0
220
0.0
230
1.0
 70
     8
 71
     3
 72
     8
 73
     4
 74
     0
 42
0.000000001
 43
0.00000001
 40
0.0
 40
0.0
 40
0.0
 40
0.0
 40
0.0012409313617635
 40
0.0012409313617635
 40
0.0012409313617635
 40
0.0012409313617635
 10
138.6191131107773
 20
141.0387715786118
 30
0.0
 10
138.4324401825452
 20
140.7777597009132
 30
0.0
 10
138.2464549945726
 20
140.5165011991379
 30
0.0
 10
138.0612311550167
 20
140.2549736556607
 30
0.0
  0
LINE
  5
C4
330
1F
100
AcDbEntity
  8
0
  6
Continuous
 62
     7
370
    15
100
AcDbLine
 10
137.0072764687
 20
132.9445745553
 30
0.0
 11
137.0072764687
 21
138.3592619589
 31
0.0
  0
SPLINE
  5
C5
330
1F
100
AcDbEntity
  8
0
  6
Continuous
 62
     7
370
    15
100
AcDbSpline
210
0.0
220
0.0
230
1.0
 70
     8
 71
     3
 72
     8
 73
     4
 74
     0
 42
0.000000001
 43
0.00000001
 40
0.0
 40
0.0
 40
0.0
 40
0.0
 40
0.0012409313617635
 40
0.0012409313617635
 40
0.0012409313617635
 40
0.0012409313617635
 10
132.1333217824246
 20
140.2549736556608
 30
0.0
 10
131.9480979428686
 20
140.5165011991379
 30
0.0
 10
131.7621127548961
 20
140.7777597009132
 30
0.0
 10
131.5754398266639
 20
141.0387715786118
 30
0.0
  0
SPLINE
  5
C6
330
1F
100
AcDbEntity
  8
0
  6
Continuous
 62
     7
370
    15
100
AcDbSpline
210
0.0
220
0.0
230
1.0
 70
     8
 71
     3
 72
     8
 73
     4
 74
     0
 42
0.000000001
 43
0.00000001
 40
0.0
 40
0.0
 40
0.0
 40
0.0
 40
1.0
 40
1.0
 40
1.0
 40
1.0
 10
133.1872764687206
 20
138.3592619588977
 30
0.0
 10
132.8366242283931
 20
138.9915303679481
 30
0.0
 10
132.4852658053329
 20
139.6234122676469
 30
0.0
 10
132.1333217824246
 20
140.2549736556608
 30
0.0
  0
LINE
  5
C7
330
1F
100
AcDbEntity
  8
0
  6
Continuous
 62
     7
370
    15
100
AcDbLine
 10
131.5754398267
 20
136.4526651394
 30
0.0
 11
131.5754398267
 21
141.0387715786
 31
0.0
  0
LINE
  5
C8
330
1F
100
AcDbEntity
  8
0
  6
Continuous
 62
     7
370
    15
100
AcDbLine
 10
133.1872764687
 20
132.9445745553
 30
0.0
 11
133.1872764687
 21
138.3592619589
 31
0.0
  0
LINE
  5
C9
330
1F
100
AcDbEntity
  8
0
  6
Continuous
 62
     7
370
    15
100
AcDbLine
 10
136.2072764687
 20
137.3602933557
 30
0.0
 11
133.9872764687
 21
137.3602933557
 31
0.0
  0
SPLINE
  5
CA
330
1F
100
AcDbEntity
  8
0
  6
Continuous
 62
     7
370
    15
100
AcDbSpline
210
0.0
220
0.0
230
1.0
 70
     8
 71
     3
 72
    12
 73
     8
 74
     0
 42
0.000000001
 43
0.00000001
 40
0.0
 40
0.0
 40
0.0
 40
0.0
 40
0.5
 40
0.5
 40
0.75
 40
0.75
 40
1.0
 40
1.0
 40
1.0
 40
1.0
 10
137.0072764687206
 20
138.1945149872033
 30
0.0
 10
137.0072764687206
 20
137.9813775855518
 30
0.0
 10
136.9246340535727
 20
137.7663980608141
 30
0.0
 10
136.7060506427623
 20
137.5334789919283
 30
0.0
 10
136.6169606897816
 20
137.4696120821078
 30
0.0
 10
136.421555371884
 20
137.3832259277261
 30
0.0
 10
136.3150313249407
 20
137.360293355683
 30
0.0
 10
136.2072764687206
 20
137.360293355683
 30
0.0
  0
SPLINE
  5
CB
330
1F
100
AcDbEntity
  8
0
  6
Continuous
 62
     7
370
    15
100
AcDbSpline
210
0.0
220
0.0
230
1.0
 70
     8
 71
     3
 72
    10
 73
     6
 74
     0
 42
0.000000001
 43
0.00000001
 40
0.0
 40
0.0
 40
0.0
 40
0.0
 40
0.5
 40
0.5
 40
1.0
 40
1.0
 40
1.0
 40
1.0
 10
127.4845180700282
 20
140.9677320543532
 30
0.0
 10
127.4086784760247
 20
140.8976828680246
 30
0.0
 10
127.3413549582987
 20
140.8124640944509
 30
0.0
 10
127.2347113199936
 20
140.6022379677891
 30
0.0
 10
127.1972764687206
 20
140.4787287769218
 30
0.0
 10
127.1972764687206
 20
140.3488106563991
 30
0.0
  0
SPLINE
  5
CC
330
1F
100
AcDbEntity
  8
0
  6
Continuous
 62
     7
370
    15
100
AcDbSpline
210
0.0
220
0.0
230
1.0
 70
     8
 71
     3
 72
     8
 73
     4
 74
     0
 42
0.000000001
 43
0.00000001
 40
0.0
 40
0.0
 40
0.0
 40
0.0
 40
1.0
 40
1.0
 40
1.0
 40
1.0
 10
127.7972764687206
 20
141.0387715786118
 30
0.0
 10
127.685098214541
 20
141.0387715786118
 30
0.0
 10
127.5764287018125
 20
141.0130905133508
 30
0.0
 10
127.4845180700282
 20
140.9677320543532
 30
0.0
  0
LINE
  5
CD
330
1F
100
AcDbEntity
  8
0
  6
Continuous
 62
     7
370
    15
100
AcDbLine
 10
127.1972764687
 20
135.7138478555
 30
0.0
 11
127.1972764687
 21
140.3488106564
 31
0.0
  0
SPLINE
  5
CE
330
1F
100
AcDbEntity
  8
0
  6
Continuous
 62
     7
370
    15
100
AcDbSpline
210
0.0
220
0.0
230
1.0
 70
     8
 71
     3
 72
    14
 73
    10
 74
     0
 42
0.000000001
 43
0.00000001
 40
0.0
 40
0.0
 40
0.0
 40
0.0
 40
0.25
 40
0.25
 40
0.5
 40
0.5
 40
0.75
 40
0.75
 40
1.0
 40
1.0
 40
1.0
 40
1.0
 10
133.9872764687206
 20
137.360293355683
 30
0.0
 10
133.8799074242063
 20
137.360293355683
 30
0.0
 10
133.7731019324434
 20
137.3832183510879
 30
0.0
 10
133.5779605639266
 20
137.4694107849621
 30
0.0
 10
133.4887508463367
 20
137.5332547816261
 30
0.0
 10
133.3428240535203
 20
137.6886708895674
 30
0.0
 10
133.2848343097222
 20
137.7813254677752
 30
0.0
 10
133.2072404681997
 20
137.9805588078248
 30
0.0
 10
133.1872764687206
 20
138.08716390288
 30
0.0
 10
133.1872764687206
 20
138.1945149872033
 30
0.0
  0
LINE
  5
CF
330
1F
100
AcDbEntity
  8
0
  6
Continuous
 62
     7
370
    15
100
AcDbLine
 10
131.5754398267
 20
141.0387715786
 30
0.0
 11
127.7972764687
 21
141.0387715786
 31
0.0
  0
LINE
  5
D0
330
1F
100
AcDbEntity
  8
0
  6
Continuous
 62
     7
370
    15
100
AcDbLine
 10
243.9972764687
 20
110.5424354994
 30
0.0
 11
243.9972764687
 21
98.2424354994
 31
0.0
  0
LINE
  5
D1
330
1F
100
AcDbEntity
  8
0
  6
Continuous
 62
     7
370
    15
100
AcDbLine
 10
243.9972764687
 20
122.8424354994
 30
0.0
 11
243.9972764687
 21
110.5424354994
 31
0.0
  0
LINE
  5
D2
330
1F
100
AcDbEntity
  8
0
  6
Continuous
 62
     7
370
    15
100
AcDbLine
 10
243.7972764687
 20
110.5424354994
 30
0.0
 11
243.7972764687
 21
98.0424354994
 31
0.0
  0
LINE
  5
D3
330
1F
100
AcDbEntity
  8
0
  6
Continuous
 62
     7
370
    15
100
AcDbLine
 10
243.7972764687
 20
123.0424354994
 30
0.0
 11
243.7972764687
 21
110.5424354994
 31
0.0
  0
SPLINE
  5
D4
330
1F
100
AcDbEntity
  8
0
  6
Continuous
 62
     7
370
    15
100
AcDbSpline
210
0.0
220
0.0
230
1.0
 70
    11
 71
     3
 72
    78
 73
    74
 74
     0
 42
0.000000001
 43
0.00000001
 40
0.0
 40
0.0
 40
0.0
 40
0.0
 40
0.031250000000001
 40
0.031250000000001
 40
0.0625000000000019
 40
0.0625000000000019
 40
0.0937500000000029
 40
0.0937500000000029
 40
0.1250000000000039
 40
0.1250000000000039
 40
0.1562500000000049
 40
0.1562500000000049
 40
0.1875000000000058
 40
0.1875000000000058
 40
0.2187500000000068
 40
0.2187500000000068
 40
0.2500000000000078
 40
0.2500000000000078
 40
0.2812500000000088
 40
0.2812500000000088
 40
0.2968750000000088
 40
0.2968750000000088
 40
0.3125000000000088
 40
0.3125000000000088
 40
0.3437500000000082
 40
0.3437500000000082
 40
0.3593750000000079
 40
0.3593750000000079
 40
0.3750000000000077
 40
0.3750000000000077
 40
0.406250000000007
 40
0.406250000000007
 40
0.4375000000000065
 40
0.4375000000000065
 40
0.4687500000000059
 40
0.4687500000000059
 40
0.5000000000000053
 40
0.5000000000000053
 40
0.5312500000000048
 40
0.5312500000000048
 40
0.5625000000000041
 40
0.5625000000000041
 40
0.5937500000000036
 40
0.5937500000000036
 40
0.625000000000003
 40
0.625000000000003
 40
0.6562500000000024
 40
0.6562500000000024
 40
0.6875000000000018
 40
0.6875000000000018
 40
0.7187500000000012
 40
0.7187500000000012
 40
0.7500000000000007
 40
0.7500000000000007
 40
0.7812500000000001
 40
0.7812500000000001
 40
0.8124999999999994
 40
0.8124999999999994
 40
0.8281249999999996
 40
0.8281249999999996
 40
0.8437499999999996
 40
0.8437499999999996
 40
0.8593749999999997
 40
0.8593749999999997
 40
0.8749999999999997
 40
0.8749999999999997
 40
0.9062499999999998
 40
0.9062499999999998
 40
0.9374999999999998
 40
0.9374999999999998
 40
0.9687499999999999
 40
0.9687499999999999
 40
1.0
 40
1.0
 40
1.0
 40
1.0
 10
231.6555962266791
 20
113.7348305164291
 30
0.0
 10
231.8986831474881
 20
113.916535171434
 30
0.0
 10
232.1548614213719
 20
114.0732826482514
 30
0.0
 10
232.6912099816402
 20
114.3424177404063
 30
0.0
 10
232.9723496026955
 20
114.4550342345068
 30
0.0
 10
233.5553892281391
 20
114.6344728424226
 30
0.0
 10
233.8510923039809
 20
114.6995468577496
 30
0.0
 10
234.4505647730067
 20
114.7829739787241
 30
0.0
 10
234.7559883225594
 20
114.8012663174193
 30
0.0
 10
235.3680234804395
 20
114.7891429702489
 30
0.0
 10
235.6696513801926
 20
114.759100366195
 30
0.0
 10
236.2644184180739
 20
114.6522680023854
 30
0.0
 10
236.5589941327533
 20
114.5749838524337
 30
0.0
 10
237.1329407682508
 20
114.3723394020215
 30
0.0
 10
237.4071806572102
 20
114.2490767684679
 30
0.0
 10
237.9305017009139
 20
113.9580079506137
 30
0.0
 10
238.1808060612726
 20
113.7892816092392
 30
0.0
 10
238.648362583212
 20
113.4050578350031
 30
0.0
 10
238.8602467885377
 20
113.1943181089939
 30
0.0
 10
239.1438269658161
 20
112.8482791182735
 30
0.0
 10
239.232602022324
 20
112.7279070983591
 30
0.0
 10
239.3977684327673
 20
112.4762172735347
 30
0.0
 10
239.4746217028389
 20
112.3439532114771
 30
0.0
 10
239.6807838487623
 20
111.9360191790114
 30
0.0
 10
239.7853272756091
 20
111.651827554062
 30
0.0
 10
239.8886312212369
 20
111.2053905755901
 30
0.0
 10
239.9139990977275
 20
111.0524973607691
 30
0.0
 10
239.9445657330816
 20
110.7487784684333
 30
0.0
 10
239.9500891933706
 20
110.5969305316913
 30
0.0
 10
239.9376708626416
 20
110.1414209281661
 30
0.0
 10
239.8892837812803
 20
109.8337841925286
 30
0.0
 10
239.7209142066646
 20
109.2492827036607
 30
0.0
 10
239.6005632584773
 20
108.9675909976855
 30
0.0
 10
239.2994975272445
 20
108.4386486107666
 30
0.0
 10
239.1216561433097
 20
108.1950492864297
 30
0.0
 10
238.7169283978803
 20
107.7444883871758
 30
0.0
 10
238.491651635871
 20
107.5401316275702
 30
0.0
 10
238.010798524082
 20
107.1783498241182
 30
0.0
 10
237.7513703790575
 20
107.0181207699436
 30
0.0
 10
237.2100910737045
 20
106.7451898223538
 30
0.0
 10
236.929963579351
 20
106.6328277663387
 30
0.0
 10
236.3513378838156
 20
106.4535626549977
 30
0.0
 10
236.0501187416848
 20
106.3865170420106
 30
0.0
 10
235.44711330875
 20
106.3020699160216
 30
0.0
 10
235.1443613009201
 20
106.2839058447877
 30
0.0
 10
234.536375997315
 20
106.2951275675223
 30
0.0
 10
234.228443196951
 20
106.325221056966
 30
0.0
 10
233.6297381191402
 20
106.4325880761318
 30
0.0
 10
233.337591542519
 20
106.5094200171666
 30
0.0
 10
232.7676659876607
 20
106.7101471207639
 30
0.0
 10
232.4873792509664
 20
106.8356602249397
 30
0.0
 10
231.9606003431756
 20
107.1289134012975
 30
0.0
 10
231.7127291181791
 20
107.2965419488489
 30
0.0
 10
231.2494243183473
 20
107.6770399480676
 30
0.0
 10
231.0318847514204
 20
107.8927836132316
 30
0.0
 10
230.6501422031292
 20
108.3600695550859
 30
0.0
 10
230.4845136166971
 20
108.6117330254356
 30
0.0
 10
230.2789914491494
 20
109.0205223392438
 30
0.0
 10
230.218088032175
 20
109.1616449935951
 30
0.0
 10
230.1149064489944
 20
109.446812899764
 30
0.0
 10
230.0721303792963
 20
109.5917897500561
 30
0.0
 10
230.0046413587046
 20
109.886671354308
 30
0.0
 10
229.9799244425753
 20
110.0365750175978
 30
0.0
 10
229.9496439363844
 20
110.3416223718186
 30
0.0
 10
229.9443028142786
 20
110.4968168799606
 30
0.0
 10
229.9580392089492
 20
110.9548768204934
 30
0.0
 10
230.0058643356667
 20
111.2556331456829
 30
0.0
 10
230.177699861546
 20
111.8471381114465
 30
0.0
 10
230.2980794415874
 20
112.1258234146043
 30
0.0
 10
230.5999248815077
 20
112.6533784464163
 30
0.0
 10
230.781342825853
 20
112.9004516848196
 30
0.0
 10
231.1857372420465
 20
113.3481351526764
 30
0.0
 10
231.41250930587
 20
113.5531258614241
 30
0.0
 10
231.6555962266791
 20
113.7348305164291
 30
0.0
  0
LINE
  5
D5
330
1F
100
AcDbEntity
  8
0
  6
Continuous
 62
     7
370
    15
100
AcDbLine
 10
55.7472764687
 20
99.1353049024
 30
0.0
 11
55.7472764687
 21
121.9495660964
 31
0.0
  0
ARC
  5
D6
330
1F
100
AcDbEntity
  8
0
  6
Continuous
 62
     7
370
    15
100
AcDbCircle
 10
136.8828510237
 20
101.3054038114
 30
0.0
 40
1.885841242694975
100
AcDbArc
 50
180.9635886654
 51
252.4193391679
  0
ARC
  5
D7
330
1F
100
AcDbEntity
  8
0
  6
Continuous
 62
     7
370
    15
100
AcDbCircle
 10
137.0019744304
 20
101.4316449764
 30
0.0
 40
2.043559546782917
100
AcDbArc
 50
250.3040496256
 51
331.9803288288
  0
ARC
  5
D8
330
1F
100
AcDbEntity
  8
0
  6
Continuous
 62
     7
370
    15
100
AcDbCircle
 10
136.8581629684
 20
101.2416750709
 30
0.0
 40
1.755848387338185
100
AcDbArc
 50
161.2245058917
 51
253.0899118968
  0
ARC
  5
D9
330
1F
100
AcDbEntity
  8
0
  6
Continuous
 62
     7
370
    15
100
AcDbCircle
 10
137.0036326601
 20
101.3794892326
 30
0.0
 40
1.932558896363512
100
AcDbArc
 50
250.1507262523
 51
335.4011402609
  0
ARC
  5
DA
330
1F
100
AcDbEntity
  8
0
  6
Continuous
 62
     7
370
    15
100
AcDbCircle
 10
136.9214077019
 20
101.2476902401
 30
0.0
 40
1.402603044857901
100
AcDbArc
 50
87.5004923506
 51
251.8395760499
  0
ARC
  5
DB
330
1F
100
AcDbEntity
  8
0
  6
Continuous
 62
     7
370
    15
100
AcDbCircle
 10
137.0076369261
 20
101.3216003777
 30
0.0
 40
1.500863442242245
100
AcDbArc
 50
249.5905655085
 51
349.5149016985
  0
LINE
  5
DC
330
1F
100
AcDbEntity
  8
0
  6
Continuous
 62
     7
370
    15
100
AcDbLine
 10
233.157826824
 20
112.0022996377
 30
0.0
 11
235.3168310762
 21
112.8220764197
 31
0.0
  0
LINE
  5
DD
330
1F
100
AcDbEntity
  8
0
  6
Continuous
 62
     7
370
    15
100
AcDbLine
 10
234.5777218612
 20
108.2627945791
 30
0.0
 11
232.7882722165
 21
109.7226587174
 31
0.0
  0
LINE
  5
DE
330
1F
100
AcDbEntity
  8
0
  6
Continuous
 62
     7
370
    15
100
AcDbLine
 10
236.7367261134
 20
109.0825713611
 30
0.0
 11
234.5777218612
 21
108.2627945791
 31
0.0
  0
LINE
  5
DF
330
1F
100
AcDbEntity
  8
0
  6
Continuous
 62
     7
370
    15
100
AcDbLine
 10
237.1062807209
 20
111.3622122814
 30
0.0
 11
236.7367261134
 21
109.0825713611
 31
0.0
  0
LINE
  5
E0
330
1F
100
AcDbEntity
  8
0
  6
Continuous
 62
     7
370
    15
100
AcDbLine
 10
235.3168310762
 20
112.8220764197
 30
0.0
 11
237.1062807209
 21
111.3622122814
 31
0.0
  0
CIRCLE
  5
E1
330
1F
100
AcDbEntity
  8
0
  6
Continuous
 62
     7
370
    15
100
AcDbCircle
 10
234.9472764687
 20
110.5424354994
 30
0.0
 40
4.000000000000026
  0
LINE
  5
E2
330
1F
100
AcDbEntity
  8
0
  6
Continuous
 62
     7
370
    15
100
AcDbLine
 10
232.7882722165
 20
109.7226587174
 30
0.0
 11
233.157826824
 21
112.0022996377
 31
0.0
  0
SPLINE
  5
E3
330
1F
100
AcDbEntity
  8
0
  6
HIDDEN
 62
     7
370
     0
100
AcDbSpline
210
0.0
220
0.0
230
1.0
 70
     8
 71
     3
 72
     9
 73
     5
 74
     0
 42
0.000000001
 43
0.00000001
 40
0.0
 40
0.0
 40
0.0
 40
0.0
 40
0.9333108121107007
 40
1.0
 40
1.0
 40
1.0
 40
1.0
 10
135.0213857060803
 20
102.7958963299275
 30
0.0
 10
135.0068100227599
 20
102.6949268761043
 30
0.0
 10
134.9911928423616
 20
102.5867427079656
 30
0.0
 10
134.9982224596295
 20
102.4942590054667
 30
0.0
 10
134.9986912590963
 20
102.488091342454
 30
0.0
  0
LWPOLYLINE
  5
E4
330
1F
100
AcDbEntity
  8
0
  6
HIDDEN
 62
     7
370
     0
100
AcDbPolyline
 90
       19
 70
   128
 43
0.0
 10
135.0213857061
 20
102.2140279326
 10
135.2300046228
 20
101.6250814977
 10
135.6314017606
 20
101.1321145374
 10
136.1817917638
 20
100.7889010615
 10
136.8211367803
 20
100.6328796132
 10
137.4796955335
 20
100.6810693837
 10
138.0856308664
 20
100.9282137179
 10
138.5728459102
 20
101.3473535235
 10
138.8881940876
 20
101.8927680324
 10
138.9972764687
 20
102.5049621312
 10
138.8881940876
 20
103.1171562301
 10
138.5728459102
 20
103.662570739
 10
138.0856308664
 20
104.0817105446
 10
137.4796955335
 20
104.3288548788
 10
136.8211367803
 20
104.3770446492
 10
136.1817917638
 20
104.221023201
 10
135.6314017606
 20
103.8778097251
 10
135.2300046228
 20
103.3848427648
 10
135.0213857061
 20
102.7958963299
  0
LWPOLYLINE
  5
E5
330
1F
100
AcDbEntity
  8
0
  6
HIDDEN
 62
     7
370
     0
100
AcDbPolyline
 90
       20
 70
   128
 43
0.0
 10
127.4474881159
 20
101.6442509466
 10
127.6217767623
 20
100.9756314815
 10
127.9022647228
 20
100.3794673102
 10
128.2585567745
 20
99.9203620711
 10
128.6520431454
 20
99.6480669405
 10
129.0400834815
 20
99.5920893209
 10
129.3806275913
 20
99.758495256
 10
129.6367722365
 20
100.1292520808
 10
129.7807601702
 20
100.6641825403
 10
129.7969880657
 20
101.3053186189
 10
129.6836973786
 20
101.9831832743
 10
129.4531649128
 20
102.6243193529
 10
129.1303724381
 20
103.1592498124
 10
128.7502995277
 20
103.5300066371
 10
128.3541329788
 20
103.6964125723
 10
127.9848035843
 20
103.6404349527
 10
127.6823339148
 20
103.3681398221
 10
127.4795012522
 20
102.9090345829
 10
127.3982856628
 20
102.3128704116
 10
127.4474881159
 20
101.6442509466
  0
LWPOLYLINE
  5
E6
330
1F
100
AcDbEntity
  8
0
  6
HIDDEN
 62
     7
370
     0
100
AcDbPolyline
 90
       18
 70
   128
 43
0.0
 10
127.8290040062
 20
101.6763817339
 10
127.9879294933
 20
101.0919148307
 10
128.2478797157
 20
100.5863834214
 10
128.5737469556
 20
100.228062324
 10
128.9215210366
 20
100.0653447884
 10
129.2442331418
 20
100.1202067194
 10
129.4982992132
 20
100.3852387091
 10
129.6494062202
 20
100.8246467188
 10
129.6771463241
 20
101.379086262
 10
129.5777730701
 20
101.9736772059
 10
129.3647073668
 20
102.5281167491
 10
129.0667249182
 20
102.9675247588
 10
128.7240699051
 20
103.2325567485
 10
128.3830197856
 20
103.2874186795
 10
128.0896352683
 20
103.1247011439
 10
127.883539558
 20
102.7663800465
 10
127.7925670223
 20
102.2608486372
 10
127.8290040062
 20
101.6763817339
  0
ELLIPSE
  5
E7
330
1F
100
AcDbEntity
  8
0
  6
HIDDEN
 62
     7
370
     0
100
AcDbEllipse
 10
136.9972764687
 20
103.6548454388
 30
0.0
 11
1.383467579512086
 21
-1.091267719176585
 31
0.0
210
0.0
220
0.0
230
1.0
 40
0.8239737799
 41
2.147131942757441
 42
5.288724596347247
  0
ELLIPSE
  5
E8
330
1F
100
AcDbEntity
  8
0
  6
HIDDEN
 62
     7
370
     0
100
AcDbEllipse
 10
136.9972764687
 20
103.6548454388
 30
0.0
 11
1.383467579512086
 21
1.753907414218475
 31
0.0
210
0.0
220
0.0
230
1.0
 40
0.5126701559
 41
0.9944607108323583
 42
4.136053364422164
  0
SPLINE
  5
E9
330
1F
100
AcDbEntity
  8
0
  6
HIDDEN
 62
     7
370
     0
100
AcDbSpline
210
0.0
220
0.0
230
1.0
 70
     8
 71
     3
 72
    14
 73
    10
 74
     0
 42
0.000000001
 43
0.00000001
 40
0.0
 40
0.0
 40
0.0
 40
0.0
 40
0.25
 40
0.25
 40
0.5
 40
0.5
 40
0.75
 40
0.75
 40
1.0
 40
1.0
 40
1.0
 40
1.0
 10
135.0213857060803
 20
102.2140279325585
 30
0.0
 10
135.0577495341105
 20
102.2595225679603
 30
0.0
 10
135.0902272613207
 20
102.3079143741766
 30
0.0
 10
135.1389808907364
 20
102.4133995181061
 30
0.0
 10
135.1538846684109
 20
102.469984026349
 30
0.0
 10
135.1538951020685
 20
102.5788716202994
 30
0.0
 10
135.1390048062604
 20
102.631056286062
 30
0.0
 10
135.0901158753828
 20
102.7223336850055
 30
0.0
 10
135.0577436971124
 20
102.7610003903797
 30
0.0
 10
135.0213857060803
 20
102.7958963299275
 30
0.0
  0
LWPOLYLINE
  5
EA
330
1F
100
AcDbEntity
  8
0
  6
HIDDEN
 62
     7
370
     0
100
AcDbPolyline
 90
       18
 70
   128
 43
0.0
 10
136.9972764687
 20
100.99803911
 10
137.5933252179
 20
101.1027404338
 10
138.1088742807
 20
101.4027039111
 10
138.4742958995
 20
101.8574178122
 10
138.6402378596
 20
102.4054705051
 10
138.58428878
 20
102.9728444367
 10
138.3140048937
 20
103.4829126137
 10
137.8658895375
 20
103.8667875024
 10
137.3004631731
 20
104.0726246719
 10
136.6940897643
 20
104.0726246719
 10
136.1286634
 20
103.8667875024
 10
135.6805480437
 20
103.4829126137
 10
135.4102641575
 20
102.9728444367
 10
135.3543150778
 20
102.4054705051
 10
135.520257038
 20
101.8574178122
 10
135.8856786567
 20
101.4027039111
 10
136.4012277195
 20
101.1027404338
 10
136.9972764687
 20
100.99803911
  0
ELLIPSE
  5
EB
330
1F
100
AcDbEntity
  8
0
  6
HIDDEN
 62
     7
370
     0
100
AcDbEllipse
 10
136.9972764687
 20
103.6548454388
 30
0.0
 11
1.383467579512086
 21
-1.091267719176585
 31
0.0
210
0.0
220
0.0
230
1.0
 40
0.8239737799
 41
5.288724596347247
 42
5.331125843629356
  0
SPLINE
  5
EC
330
1F
100
AcDbEntity
  8
0
  6
HIDDEN
 62
     7
370
     0
100
AcDbSpline
210
0.0
220
0.0
230
1.0
 70
     8
 71
     3
 72
     8
 73
     4
 74
     0
 42
0.000000001
 43
0.00000001
 40
0.0
 40
0.0
 40
0.0
 40
0.0
 40
1.0
 40
1.0
 40
1.0
 40
1.0
 10
137.0672175648889
 20
102.0932935730215
 30
0.0
 10
137.0502328387778
 20
102.1004092830746
 30
0.0
 10
137.0332286942278
 20
102.1082844126004
 30
0.0
 10
137.0162298101395
 20
102.1169075320595
 30
0.0
  0
ELLIPSE
  5
ED
330
1F
100
AcDbEntity
  8
0
  6
HIDDEN
 62
     7
370
     0
100
AcDbEllipse
 10
136.9972764687
 20
103.6548454388
 30
0.0
 11
1.383467579512086
 21
1.753907414218475
 31
0.0
210
0.0
220
0.0
230
1.0
 40
0.5126701559
 41
4.13605336442216
 42
4.147540490647619
  0
ELLIPSE
  5
EE
330
1F
100
AcDbEntity
  8
0
  6
HIDDEN
 62
     7
370
     0
100
AcDbEllipse
 10
136.9972764687
 20
103.6548454388
 30
0.0
 11
1.383467579512086
 21
1.753907414218475
 31
0.0
210
0.0
220
0.0
230
1.0
 40
0.5126701559
 41
0.9829735846068449
 42
0.9944607108323548
  0
SPLINE
  5
EF
330
1F
100
AcDbEntity
  8
0
  6
HIDDEN
 62
     7
370
     0
100
AcDbSpline
210
0.0
220
0.0
230
1.0
 70
     8
 71
     3
 72
     8
 73
     4
 74
     0
 42
0.000000001
 43
0.00000001
 40
0.0
 40
0.0
 40
0.0
 40
0.0
 40
1.0
 40
1.0
 40
1.0
 40
1.0
 10
137.0162298101393
 20
105.2176885890655
 30
0.0
 10
137.0332286942277
 20
105.2097053155482
 30
0.0
 10
137.0502328387779
 20
105.2009689130959
 30
0.0
 10
137.0672175648891
 20
105.1914920612529
 30
0.0
  0
ELLIPSE
  5
F0
330
1F
100
AcDbEntity
  8
0
  6
HIDDEN
 62
     7
370
     0
100
AcDbEllipse
 10
136.9972764687
 20
103.6548454388
 30
0.0
 11
1.383467579512086
 21
-1.091267719176585
 31
0.0
210
0.0
220
0.0
230
1.0
 40
0.8239737799
 41
2.10473069547517
 42
2.147131942757441
  0
SPLINE
  5
F1
330
1F
100
AcDbEntity
  8
0
  6
HIDDEN
 62
     7
370
     0
100
AcDbSpline
210
0.0
220
0.0
230
1.0
 70
    11
 71
     3
 72
    54
 73
    50
 74
     0
 42
0.000000001
 43
0.00000001
 40
0.0
 40
0.0
 40
0.0
 40
0.0
 40
0.0312500000000002
 40
0.0312500000000002
 40
0.0625000000000004
 40
0.0625000000000004
 40
0.1250000000000008
 40
0.1250000000000008
 40
0.1562500000000009
 40
0.1562500000000009
 40
0.1875000000000009
 40
0.1875000000000009
 40
0.2187500000000009
 40
0.2187500000000009
 40
0.2500000000000009
 40
0.2500000000000009
 40
0.312500000000001
 40
0.312500000000001
 40
0.375000000000001
 40
0.375000000000001
 40
0.406250000000001
 40
0.406250000000001
 40
0.437500000000001
 40
0.437500000000001
 40
0.500000000000001
 40
0.500000000000001
 40
0.5625000000000011
 40
0.5625000000000011
 40
0.6250000000000011
 40
0.6250000000000011
 40
0.6562500000000011
 40
0.6562500000000011
 40
0.6875000000000011
 40
0.6875000000000011
 40
0.7187500000000011
 40
0.7187500000000011
 40
0.7500000000000011
 40
0.7500000000000011
 40
0.7812500000000011
 40
0.7812500000000011
 40
0.8125000000000011
 40
0.8125000000000011
 40
0.8750000000000009
 40
0.8750000000000009
 40
0.9062500000000008
 40
0.9062500000000008
 40
0.9375000000000007
 40
0.9375000000000007
 40
1.0
 40
1.0
 40
1.0
 40
1.0
 10
136.9972764687206
 20
108.3495727556225
 30
0.0
 10
137.1100760746615
 20
108.3495727556225
 30
0.0
 10
137.2199325725825
 20
108.3568251036429
 30
0.0
 10
137.4344977413831
 20
108.3852764503829
 30
0.0
 10
137.5397965755388
 20
108.4068464170805
 30
0.0
 10
137.8348390348008
 20
108.4911182681254
 30
0.0
 10
138.0107856569273
 20
108.574670463985
 30
0.0
 10
138.2329329391985
 20
108.741635555734
 30
0.0
 10
138.3011390537752
 20
108.8052907385456
 30
0.0
 10
138.4199082726875
 20
108.9451082073638
 30
0.0
 10
138.4710590158752
 20
109.0214759369393
 30
0.0
 10
138.5560753180868
 20
109.1893825840481
 30
0.0
 10
138.589890968068
 20
109.281948460674
 30
0.0
 10
138.6348315969344
 20
109.4739334611299
 30
0.0
 10
138.6466939521786
 20
109.5743579317699
 30
0.0
 10
138.6483793990396
 20
109.8901534925302
 30
0.0
 10
138.6025650450764
 20
110.1100438860404
 30
0.0
 10
138.4347051113883
 20
110.5218894212584
 30
0.0
 10
138.3131707906828
 20
110.7150436032447
 30
0.0
 10
138.0919854620938
 20
110.9634619410487
 30
0.0
 10
138.0104724011656
 20
111.040722320632
 30
0.0
 10
137.8373904215133
 20
111.1773112558266
 30
0.0
 10
137.745618343426
 20
111.2371603290016
 30
0.0
 10
137.4516441650476
 20
111.3885330826177
 30
0.0
 10
137.2292206047048
 20
111.4491773983491
 30
0.0
 10
136.7814557849003
 20
111.4518905614413
 30
0.0
 10
136.5600776641282
 20
111.3946407522611
 30
0.0
 10
136.1638667711818
 20
111.1958899771574
 30
0.0
 10
135.9875035723636
 20
111.0564878933281
 30
0.0
 10
135.7629662373087
 20
110.807752741568
 30
0.0
 10
135.6958836702779
 20
110.719399813762
 30
0.0
 10
135.5766757274658
 20
110.5320423006062
 30
0.0
 10
135.5240731781635
 20
110.4318135134126
 30
0.0
 10
135.4382660727307
 20
110.2256223123563
 30
0.0
 10
135.4051158098829
 20
110.1204397097556
 30
0.0
 10
135.3595485887361
 20
109.905879863166
 30
0.0
 10
135.3476893656225
 20
109.7975451063705
 30
0.0
 10
135.3468851611258
 20
109.588447041605
 30
0.0
 10
135.3579643758855
 20
109.4850034844448
 30
0.0
 10
135.4019910153842
 20
109.2901304076327
 30
0.0
 10
135.4344645339395
 20
109.1990084646591
 30
0.0
 10
135.5618409935795
 20
108.9425717835092
 30
0.0
 10
135.6838998590736
 20
108.8008166050658
 30
0.0
 10
135.9063911094814
 20
108.6324558479671
 30
0.0
 10
135.9867367640462
 20
108.5838181284636
 30
0.0
 10
136.1610631181541
 20
108.4995070007579
 30
0.0
 10
136.2550805704255
 20
108.4640524219262
 30
0.0
 10
136.549995325503
 20
108.3793048059345
 30
0.0
 10
136.7716772568389
 20
108.3495727556225
 30
0.0
 10
136.9972764687206
 20
108.3495727556225
 30
0.0
  0
CIRCLE
  5
F2
330
1F
100
AcDbEntity
  8
0
  6
HIDDEN
 62
     7
370
     0
100
AcDbCircle
 10
234.9472764687
 20
110.5424354994
 30
0.0
 40
3.500000000000014
  0
LINE
  5
F3
330
1F
100
AcDbEntity
  8
0
  6
HIDDEN
 62
     7
370
     0
100
AcDbLine
 10
127.1972764687
 20
135.3424354994
 30
0.0
 11
127.5345347689
 21
135.3424354994
 31
0.0
  0
ELLIPSE
  5
F4
330
1F
100
AcDbEntity
  8
0
  6
HIDDEN
 62
     7
370
     0
100
AcDbEllipse
 10
127.5345347689
 20
136.9424354994
 30
0.0
 11
0.0
 21
1.599999999999994
 31
0.0
210
0.0
220
0.0
230
1.0
 40
0.4142135624
 41
3.141592653589793
 42
4.712388980384695
  0
LINE
  5
F5
330
1F
100
AcDbEntity
  8
0
  6
HIDDEN
 62
     7
370
     0
100
AcDbLine
 10
127.5345347689
 20
87.9424354994
 30
0.0
 11
127.1972764687
 21
87.9424354994
 31
0.0
  0
ELLIPSE
  5
F6
330
1F
100
AcDbEntity
  8
0
  6
HIDDEN
 62
     7
370
     0
100
AcDbEllipse
 10
127.5345347689
 20
86.3424354994
 30
0.0
 11
0.0
 21
1.599999999999994
 31
0.0
210
0.0
220
0.0
230
1.0
 40
0.4142135624
 41
4.712388980384695
 42
6.283185307179586
  0
LINE
  5
F7
330
1F
100
AcDbEntity
  8
0
  6
HIDDEN
 62
     7
370
     0
100
AcDbLine
 10
128.1972764687
 20
80.6489871528
 30
0.0
 11
127.4134210101
 21
80.1907056499
 31
0.0
  0
LINE
  5
F8
330
1F
100
AcDbEntity
  8
0
  6
HIDDEN
 62
     7
370
     0
100
AcDbLine
 10
127.48451807
 20
140.9677320544
 30
0.0
 11
128.1972764687
 21
140.2549736557
 31
0.0
  0
LINE
  5
F9
330
1F
100
AcDbEntity
  8
0
  6
HIDDEN
 62
     7
370
     0
100
AcDbLine
 10
62.7472764687
 20
102.0424354994
 30
0.0
 11
62.7472764687
 21
119.0424354994
 31
0.0
  0
LINE
  5
FA
330
1F
100
AcDbEntity
  8
0
  6
HIDDEN
 62
     7
370
     0
100
AcDbLine
 10
65.7432056831
 20
103.5424354994
 30
0.0
 11
65.7432056831
 21
117.5424354994
 31
0.0
  0
LINE
  5
FB
330
1F
100
AcDbEntity
  8
0
  6
HIDDEN
 62
     7
370
     0
100
AcDbLine
 10
132.032486865
 20
80.6489871528
 30
0.0
 11
128.1972764687
 21
80.6489871528
 31
0.0
  0
LINE
  5
FC
330
1F
100
AcDbEntity
  8
0
  6
HIDDEN
 62
     7
370
     0
100
AcDbLine
 10
143.0472764687
 20
80.6489871528
 30
0.0
 11
138.1620660724
 21
80.6489871528
 31
0.0
  0
LINE
  5
FD
330
1F
100
AcDbEntity
  8
0
  6
HIDDEN
 62
     7
370
     0
100
AcDbLine
 10
128.1972764687
 20
80.6489871528
 30
0.0
 11
128.1972764687
 21
86.3424354994
 31
0.0
  0
LINE
  5
FE
330
1F
100
AcDbEntity
  8
0
  6
HIDDEN
 62
     7
370
     0
100
AcDbLine
 10
143.0472764687
 20
87.9424354994
 30
0.0
 11
127.5345347689
 21
87.9424354994
 31
0.0
  0
LINE
  5
FF
330
1F
100
AcDbEntity
  8
0
  6
HIDDEN
 62
     7
370
     0
100
AcDbLine
 10
128.1972764687
 20
140.2549736557
 30
0.0
 11
132.1333217824
 21
140.2549736557
 31
0.0
  0
LINE
  5
100
330
1F
100
AcDbEntity
  8
0
  6
HIDDEN
 62
     7
370
     0
100
AcDbLine
 10
138.061231155
 20
140.2549736557
 30
0.0
 11
143.0472764687
 21
140.2549736557
 31
0.0
  0
LINE
  5
101
330
1F
100
AcDbEntity
  8
0
  6
HIDDEN
 62
     7
370
     0
100
AcDbLine
 10
128.1972764687
 20
140.2549736557
 30
0.0
 11
128.1972764687
 21
136.9424354994
 31
0.0
  0
LINE
  5
102
330
1F
100
AcDbEntity
  8
0
  6
HIDDEN
 62
     7
370
     0
100
AcDbLine
 10
127.5345347689
 20
135.3424354994
 30
0.0
 11
143.0472764687
 21
135.3424354994
 31
0.0
  0
LINE
  5
103
330
1F
100
AcDbEntity
  8
0
  6
HIDDEN
 62
     7
370
     0
100
AcDbLine
 10
225.4972764687
 20
110.5424354994
 30
0.0
 11
225.4972764687
 21
103.8424354994
 31
0.0
  0
LINE
  5
104
330
1F
100
AcDbEntity
  8
0
  6
HIDDEN
 62
     7
370
     0
100
AcDbLine
 10
225.4972764687
 20
117.2424354994
 30
0.0
 11
225.4972764687
 21
110.5424354994
 31
0.0
  0
LINE
  5
105
330
1F
100
AcDbEntity
  8
0
  6
HIDDEN
 62
     7
370
     0
100
AcDbLine
 10
228.8633018725
 20
110.5424354994
 30
0.0
 11
228.8633018725
 21
103.5424354994
 31
0.0
  0
LINE
  5
106
330
1F
100
AcDbEntity
  8
0
  6
HIDDEN
 62
     7
370
     0
100
AcDbLine
 10
228.8633018725
 20
117.5424354994
 30
0.0
 11
228.8633018725
 21
110.5424354994
 31
0.0
  0
LINE
  5
107
330
1F
100
AcDbEntity
  8
0
  6
HIDDEN
 62
     7
370
     0
100
AcDbLine
 10
98.7472764687
 20
103.5424354994
 30
0.0
 11
98.7472764687
 21
117.5424354994
 31
0.0
  0
LINE
  5
108
330
1F
100
AcDbEntity
  8
0
  6
HIDDEN
 62
     7
370
     0
100
AcDbLine
 10
101.4511492543
 20
113.0424354994
 30
0.0
 11
101.4511492543
 21
108.0424354994
 31
0.0
  0
SPLINE
  5
109
330
1F
100
AcDbEntity
  8
0
  6
HIDDEN
 62
     7
370
     0
100
AcDbSpline
210
0.0
220
0.0
230
1.0
 70
    11
 71
     3
 72
    54
 73
    50
 74
     0
 42
0.000000001
 43
0.00000001
 40
0.0
 40
0.0
 40
0.0
 40
0.0
 40
0.0312499999999999
 40
0.0312499999999999
 40
0.0624999999999997
 40
0.0624999999999997
 40
0.124999999999999
 40
0.124999999999999
 40
0.1562499999999988
 40
0.1562499999999988
 40
0.1874999999999986
 40
0.1874999999999986
 40
0.2187499999999984
 40
0.2187499999999984
 40
0.2499999999999982
 40
0.2499999999999982
 40
0.3124999999999977
 40
0.3124999999999977
 40
0.3749999999999973
 40
0.3749999999999973
 40
0.4062499999999972
 40
0.4062499999999972
 40
0.4374999999999972
 40
0.4374999999999972
 40
0.4999999999999975
 40
0.4999999999999975
 40
0.5624999999999978
 40
0.5624999999999978
 40
0.6249999999999981
 40
0.6249999999999981
 40
0.6562499999999982
 40
0.6562499999999982
 40
0.6874999999999984
 40
0.6874999999999984
 40
0.7187499999999987
 40
0.7187499999999987
 40
0.7499999999999988
 40
0.7499999999999988
 40
0.7812499999999989
 40
0.7812499999999989
 40
0.812499999999999
 40
0.812499999999999
 40
0.8749999999999992
 40
0.8749999999999992
 40
0.9062499999999993
 40
0.9062499999999993
 40
0.9374999999999994
 40
0.9374999999999994
 40
1.0
 40
1.0
 40
1.0
 40
1.0
 10
136.9972764687206
 20
109.6343125945765
 30
0.0
 10
136.8844768627798
 20
109.6343125945765
 30
0.0
 10
136.7746203648587
 20
109.6485407329588
 30
0.0
 10
136.5600551960582
 20
109.7023866423671
 30
0.0
 10
136.4547563619024
 20
109.742594173335
 30
0.0
 10
136.1597139026404
 20
109.8920416194951
 30
0.0
 10
135.9837672805139
 20
110.0319871567251
 30
0.0
 10
135.7616199982427
 20
110.2788828648495
 30
0.0
 10
135.693413883666
 20
110.3689248357086
 30
0.0
 10
135.5746446647537
 20
110.5564654785295
 30
0.0
 10
135.5234939215661
 20
110.6543763936159
 30
0.0
 10
135.4384776193545
 20
110.8588136876588
 30
0.0
 10
135.4046619693733
 20
110.9663593911043
 30
0.0
 10
135.3597213405069
 20
111.1783878897285
 30
0.0
 10
135.3478589852627
 20
111.284195663471
 30
0.0
 10
135.3461735384016
 20
111.6007521417888
 30
0.0
 10
135.3919878923649
 20
111.7995261860905
 30
0.0
 10
135.559847826053
 20
112.1390983426683
 30
0.0
 10
135.6813821467585
 20
112.2813915376988
 30
0.0
 10
135.9025674753475
 20
112.4498877320654
 30
0.0
 10
135.9840805362757
 20
112.4995162732843
 30
0.0
 10
136.157162515928
 20
112.5837200947555
 30
0.0
 10
136.2489345940153
 20
112.6186747068693
 30
0.0
 10
136.5429087723937
 20
112.7042491516789
 30
0.0
 10
136.7653323327364
 20
112.7345864156186
 30
0.0
 10
137.213097152541
 20
112.735984892297
 30
0.0
 10
137.434475273313
 20
112.7074682978601
 30
0.0
 10
137.8306861662595
 20
112.5955599937872
 30
0.0
 10
138.0070493650777
 20
112.5125326736713
 30
0.0
 10
138.2315867001325
 20
112.3444802139098
 30
0.0
 10
138.2986692671634
 20
112.2820679203113
 30
0.0
 10
138.4178772099755
 20
112.1425580348453
 30
0.0
 10
138.4704797592777
 20
112.0644664256615
 30
0.0
 10
138.5562868647106
 20
111.8951429649302
 30
0.0
 10
138.5894371275584
 20
111.804648737483
 30
0.0
 10
138.6350043487051
 20
111.6104108321654
 30
0.0
 10
138.6468635718187
 20
111.5074594145222
 30
0.0
 10
138.6476677763154
 20
111.2987244198771
 30
0.0
 10
138.6365885615558
 20
111.1902496375382
 30
0.0
 10
138.592561922057
 20
110.9757252407615
 30
0.0
 10
138.5600884035018
 20
110.8701949098347
 30
0.0
 10
138.4327119438618
 20
110.5589372143762
 30
0.0
 10
138.3106530783677
 20
110.3661438913279
 30
0.0
 10
138.0881618279599
 20
110.1175573995048
 30
0.0
 10
138.0078161733951
 20
110.0417344189131
 30
0.0
 10
137.8334898192872
 20
109.9048118322904
 30
0.0
 10
137.7394723670158
 20
109.8440021509488
 30
0.0
 10
137.4445576119382
 20
109.6938320633532
 30
0.0
 10
137.2228756806024
 20
109.6343125945765
 30
0.0
 10
136.9972764687206
 20
109.6343125945765
 30
0.0
  0
ELLIPSE
  5
10A
330
1F
100
AcDbEntity
  8
0
  6
HIDDEN
 62
     7
370
     0
100
AcDbEllipse
 10
136.9972764687
 20
117.4300255599
 30
0.0
 11
-1.383467579512114
 21
1.753907414218503
 31
0.0
210
0.0
220
0.0
230
1.0
 40
0.5126701559
 41
5.277237470130576
 42
5.288724596347231
  0
ELLIPSE
  5
10B
330
1F
100
AcDbEntity
  8
0
  6
HIDDEN
 62
     7
370
     0
100
AcDbEllipse
 10
136.9972764687
 20
117.4300255599
 30
0.0
 11
1.383467579512086
 21
1.091267719176599
 31
0.0
210
0.0
220
0.0
230
1.0
 40
0.8239737799
 41
0.9944607108323453
 42
4.136053364422152
  0
ELLIPSE
  5
10C
330
1F
100
AcDbEntity
  8
0
  6
HIDDEN
 62
     7
370
     0
100
AcDbEllipse
 10
136.9972764687
 20
117.4300255599
 30
0.0
 11
-1.383467579512114
 21
1.753907414218503
 31
0.0
210
0.0
220
0.0
230
1.0
 40
0.5126701559
 41
2.147131942757425
 42
2.158619068972047
  0
SPLINE
  5
10D
330
1F
100
AcDbEntity
  8
0
  6
HIDDEN
 62
     7
370
     0
100
AcDbSpline
210
0.0
220
0.0
230
1.0
 70
     8
 71
     3
 72
     8
 73
     4
 74
     0
 42
0.000000001
 43
0.00000001
 40
0.0
 40
0.0
 40
0.0
 40
0.0
 40
1.0
 40
1.0
 40
1.0
 40
1.0
 10
137.0162298101882
 20
115.86718240975
 30
0.0
 10
137.033228694244
 20
115.8751656832534
 30
0.0
 10
137.0502328387616
 20
115.883902085689
 30
0.0
 10
137.0672175648403
 20
115.8933789375124
 30
0.0
  0
ELLIPSE
  5
10E
330
1F
100
AcDbEntity
  8
0
  6
HIDDEN
 62
     7
370
     0
100
AcDbEllipse
 10
136.9972764687
 20
117.4300255599
 30
0.0
 11
1.383467579512086
 21
1.091267719176599
 31
0.0
210
0.0
220
0.0
230
1.0
 40
0.8239737799
 41
4.136053364422159
 42
4.178454611666883
  0
ELLIPSE
  5
10F
330
1F
100
AcDbEntity
  8
0
  6
HIDDEN
 62
     7
370
     0
100
AcDbEllipse
 10
136.9972764687
 20
117.4300255599
 30
0.0
 11
-1.383467579512114
 21
1.753907414218503
 31
0.0
210
0.0
220
0.0
230
1.0
 40
0.5126701559
 41
5.288724596347235
 42
8.430317249937014
  0
ELLIPSE
  5
110
330
1F
100
AcDbEntity
  8
0
  6
HIDDEN
 62
     7
370
     0
100
AcDbEllipse
 10
136.9972764687
 20
117.4300255599
 30
0.0
 11
1.383467579512086
 21
1.091267719176599
 31
0.0
210
0.0
220
0.0
230
1.0
 40
0.8239737799
 41
0.9520594635799224
 42
0.9944607108323523
  0
SPLINE
  5
111
330
1F
100
AcDbEntity
  8
0
  6
HIDDEN
 62
     7
370
     0
100
AcDbSpline
210
0.0
220
0.0
230
1.0
 70
     8
 71
     3
 72
     8
 73
     4
 74
     0
 42
0.000000001
 43
0.00000001
 40
0.0
 40
0.0
 40
0.0
 40
0.0
 40
1.0
 40
1.0
 40
1.0
 40
1.0
 10
137.0672175648494
 20
118.9915774257544
 30
0.0
 10
137.0502328387646
 20
118.9844617157112
 30
0.0
 10
137.033228694241
 20
118.9765865861977
 30
0.0
 10
137.0162298101791
 20
118.9679634667531
 30
0.0
  0
LWPOLYLINE
  5
112
330
1F
100
AcDbEntity
  8
0
  6
HIDDEN
 62
     7
370
     0
100
AcDbPolyline
 90
       18
 70
   128
 43
0.0
 10
136.9972764687
 20
116.9858462402
 10
137.5933252179
 20
117.0905475639
 10
138.1088742807
 20
117.3905110412
 10
138.4742958995
 20
117.8452249423
 10
138.6402378596
 20
118.3932776352
 10
138.58428878
 20
118.9606515668
 10
138.3140048937
 20
119.4707197438
 10
137.8658895375
 20
119.8545946325
 10
137.3004631731
 20
120.060431802
 10
136.6940897643
 20
120.060431802
 10
136.1286634
 20
119.8545946325
 10
135.6805480437
 20
119.4707197438
 10
135.4102641575
 20
118.9606515668
 10
135.3543150778
 20
118.3932776352
 10
135.520257038
 20
117.8452249423
 10
135.8856786567
 20
117.3905110412
 10
136.4012277195
 20
117.0905475639
 10
136.9972764687
 20
116.9858462402
  0
LINE
  5
113
330
1F
100
AcDbEntity
  8
0
  6
HIDDEN
 62
     7
370
     0
100
AcDbLine
 10
133.1872764687
 20
132.7396763189
 30
0.0
 11
133.1872764687
 21
128.8924354994
 31
0.0
  0
SPLINE
  5
114
330
1F
100
AcDbEntity
  8
0
  6
HIDDEN
 62
     7
370
     0
100
AcDbSpline
210
0.0
220
0.0
230
1.0
 70
     8
 71
     3
 72
    14
 73
    10
 74
     0
 42
0.000000001
 43
0.00000001
 40
0.0
 40
0.0
 40
0.0
 40
0.0
 40
0.25
 40
0.25
 40
0.5
 40
0.5
 40
0.75
 40
0.75
 40
1.0
 40
1.0
 40
1.0
 40
1.0
 10
136.2072764687205
 20
121.8249146895044
 30
0.0
 10
136.3049587198345
 20
121.8634370035367
 30
0.0
 10
136.4070722288719
 20
121.9010523629955
 30
0.0
 10
136.5992444000407
 20
121.9721610885824
 30
0.0
 10
136.6906630733675
 20
122.0063671390865
 30
0.0
 10
136.8421790623818
 20
122.0732566174434
 30
0.0
 10
136.9033262649207
 20
122.1065270800043
 30
0.0
 10
136.9860329666091
 20
122.1759254300982
 30
0.0
 10
137.0072764687206
 20
122.2117025356942
 30
0.0
 10
137.0072764687206
 20
122.2481978679448
 30
0.0
  0
LINE
  5
115
330
1F
100
AcDbEntity
  8
0
  6
HIDDEN
 62
     7
370
     0
100
AcDbLine
 10
137.0072764687
 20
132.7396763189
 30
0.0
 11
137.0072764687
 21
128.8924354994
 31
0.0
  0
LINE
  5
116
330
1F
100
AcDbEntity
  8
0
  6
HIDDEN
 62
     7
370
     0
100
AcDbLine
 10
137.0072764687
 20
102.5411529792
 30
0.0
 11
137.0072764687
 21
98.782429481
 31
0.0
  0
SPLINE
  5
117
330
1F
100
AcDbEntity
  8
0
  6
HIDDEN
 62
     7
370
     0
100
AcDbSpline
210
0.0
220
0.0
230
1.0
 70
     8
 71
     3
 72
    14
 73
    10
 74
     0
 42
0.000000001
 43
0.00000001
 40
0.0
 40
0.0
 40
0.0
 40
0.0
 40
0.2500000000000005
 40
0.2500000000000005
 40
0.5000000000000003
 40
0.5000000000000003
 40
0.7500000000000001
 40
0.7500000000000001
 40
1.0
 40
1.0
 40
1.0
 40
1.0
 10
137.0072764687206
 20
118.4894743697258
 30
0.0
 10
137.0072764687206
 20
118.4529854388186
 30
0.0
 10
136.9861070925484
 20
118.4164866470848
 30
0.0
 10
136.903361474696
 20
118.3511112993479
 30
0.0
 10
136.8425078498682
 20
118.3231744650015
 30
0.0
 10
136.6909029831771
 20
118.2892834357548
 30
0.0
 10
136.5996806727099
 20
118.2838579831684
 30
0.0
 10
136.4073501230066
 20
118.304777306981
 30
0.0
 10
136.3050992385297
 20
118.3313334544214
 30
0.0
 10
136.2072764687206
 20
118.3718032127272
 30
0.0
  0
LINE
  5
118
330
1F
100
AcDbEntity
  8
0
  6
HIDDEN
 62
     7
370
     0
100
AcDbLine
 10
138.6191131108
 20
100.7904154316
 30
0.0
 11
138.6191131108
 21
98.5909357012
 31
0.0
  0
LINE
  5
119
330
1F
100
AcDbEntity
  8
0
  6
HIDDEN
 62
     7
370
     0
100
AcDbLine
 10
138.6191131108
 20
136.4526651394
 30
0.0
 11
138.6191131108
 21
128.8924354994
 31
0.0
  0
LINE
  5
11A
330
1F
100
AcDbEntity
  8
0
  6
HIDDEN
 62
     7
370
     0
100
AcDbLine
 10
131.5754398267
 20
136.4526651394
 30
0.0
 11
131.5754398267
 21
128.8924354994
 31
0.0
  0
SPLINE
  5
11B
330
1F
100
AcDbEntity
  8
0
  6
HIDDEN
 62
     7
370
     0
100
AcDbSpline
210
0.0
220
0.0
230
1.0
 70
     8
 71
     3
 72
    10
 73
     6
 74
     0
 42
0.000000001
 43
0.00000001
 40
0.0
 40
0.0
 40
0.0
 40
0.0
 40
0.5
 40
0.5
 40
1.0
 40
1.0
 40
1.0
 40
1.0
 10
135.0213857060802
 20
118.2889746688651
 30
0.0
 10
135.005779655099
 20
118.3942468694736
 30
0.0
 10
134.9972751920704
 20
118.4981853672645
 30
0.0
 10
134.9972777456601
 20
118.6976986392205
 30
0.0
 10
135.0057753332606
 20
118.7889111338909
 30
0.0
 10
135.0213857060803
 20
118.870843066234
 30
0.0
  0
SPLINE
  5
11C
330
1F
100
AcDbEntity
  8
0
  6
HIDDEN
 62
     7
370
     0
100
AcDbSpline
210
0.0
220
0.0
230
1.0
 70
     8
 71
     3
 72
    14
 73
    10
 74
     0
 42
0.000000001
 43
0.00000001
 40
0.0
 40
0.0
 40
0.0
 40
0.0
 40
0.25
 40
0.25
 40
0.5
 40
0.5
 40
0.75
 40
0.75
 40
1.0
 40
1.0
 40
1.0
 40
1.0
 10
135.0213857060803
 20
118.870843066234
 30
0.0
 10
135.0577495341105
 20
118.8253484308322
 30
0.0
 10
135.0902272613206
 20
118.7769566246159
 30
0.0
 10
135.1389808907363
 20
118.6714714806864
 30
0.0
 10
135.1538846684108
 20
118.6148869724435
 30
0.0
 10
135.1538951020684
 20
118.505999378493
 30
0.0
 10
135.1390048062603
 20
118.4538147127304
 30
0.0
 10
135.0901158753827
 20
118.3625373137869
 30
0.0
 10
135.0577436971123
 20
118.3238706084128
 30
0.0
 10
135.0213857060802
 20
118.2889746688651
 30
0.0
  0
LWPOLYLINE
  5
11D
330
1F
100
AcDbEntity
  8
0
  6
HIDDEN
 62
     7
370
     0
100
AcDbPolyline
 90
       18
 70
   128
 43
0.0
 10
127.8290040062
 20
118.5224809083
 10
127.9879294933
 20
118.0932700252
 10
128.2478797157
 20
117.8416867884
 10
128.5737469556
 20
117.8017089079
 10
128.9215210366
 20
117.9787356182
 10
129.2442331418
 20
118.3488584809
 10
129.4982992132
 20
118.8620903527
 10
129.6494062202
 20
119.4491164252
 10
129.6771463241
 20
120.0306555746
 10
129.5777730701
 20
120.5281677163
 10
129.3647073668
 20
120.8744610788
 10
129.0667249182
 20
121.0227668246
 10
128.7240699051
 20
120.953055441
 10
128.3830197856
 20
120.6747418365
 10
128.0896352683
 20
120.2254138056
 10
127.883539558
 20
119.6657555888
 10
127.7925670223
 20
119.0713521294
 10
127.8290040062
 20
118.5224809083
  0
LWPOLYLINE
  5
11E
330
1F
100
AcDbEntity
  8
0
  6
HIDDEN
 62
     7
370
     0
100
AcDbPolyline
 90
       19
 70
   128
 43
0.0
 10
135.0213857061
 20
118.2889746689
 10
135.2300046228
 20
117.700028234
 10
135.6314017606
 20
117.2070612737
 10
136.1817917638
 20
116.8638477978
 10
136.8211367803
 20
116.7078263496
 10
137.4796955335
 20
116.75601612
 10
138.0856308664
 20
117.0031604542
 10
138.5728459102
 20
117.4223002598
 10
138.8881940876
 20
117.9677147687
 10
138.9972764687
 20
118.5799088675
 10
138.8881940876
 20
119.1921029664
 10
138.5728459102
 20
119.7375174753
 10
138.0856308664
 20
120.1566572809
 10
137.4796955335
 20
120.4038016151
 10
136.8211367803
 20
120.4519913855
 10
136.1817917638
 20
120.2959699373
 10
135.6314017606
 20
119.9527564614
 10
135.2300046228
 20
119.4597895011
 10
135.0213857061
 20
118.8708430662
  0
SPLINE
  5
11F
330
1F
100
AcDbEntity
  8
0
  6
HIDDEN
 62
     7
370
     0
100
AcDbSpline
210
0.0
220
0.0
230
1.0
 70
     8
 71
     3
 72
    12
 73
     8
 74
     0
 42
0.000000001
 43
0.00000001
 40
0.0
 40
0.0
 40
0.0
 40
0.0
 40
0.2500000000000003
 40
0.2500000000000003
 40
0.5000000000000007
 40
0.5000000000000007
 40
1.0
 40
1.0
 40
1.0
 40
1.0
 10
138.6191131107773
 20
122.4939352976032
 30
0.0
 10
138.7420606045729
 20
122.3359784489082
 30
0.0
 10
138.8356048076818
 20
122.1641450819306
 30
0.0
 10
138.964544196844
 20
121.7924723722848
 30
0.0
 10
138.9970969542291
 20
121.5992839260935
 30
0.0
 10
138.9976332959629
 20
121.0109873878173
 30
0.0
 10
138.8650096389949
 20
120.6189691499286
 30
0.0
 10
138.6191131107773
 20
120.2944555672199
 30
0.0
  0
SPLINE
  5
120
330
1F
100
AcDbEntity
  8
0
  6
HIDDEN
 62
     7
370
     0
100
AcDbSpline
210
0.0
220
0.0
230
1.0
 70
     8
 71
     3
 72
    12
 73
     8
 74
     0
 42
0.000000001
 43
0.00000001
 40
0.0
 40
0.0
 40
0.0
 40
0.0
 40
0.2499999999999998
 40
0.2499999999999998
 40
0.4999999999999996
 40
0.4999999999999996
 40
1.0
 40
1.0
 40
1.0
 40
1.0
 10
138.6191131107773
 20
120.2944555672199
 30
0.0
 10
138.5042170595167
 20
120.0747151321634
 30
0.0
 10
138.377451043044
 20
119.8777467805416
 30
0.0
 10
138.1172361094255
 20
119.5240292077027
 30
0.0
 10
137.9837286514633
 20
119.3672039138305
 30
0.0
 10
137.5753303828751
 20
118.9406613429228
 30
0.0
 10
137.2916772479375
 20
118.7139691639676
 30
0.0
 10
137.0072764687207
 20
118.5437180195721
 30
0.0
  0
SPLINE
  5
121
330
1F
100
AcDbEntity
  8
0
  6
HIDDEN
 62
     7
370
     0
100
AcDbSpline
210
0.0
220
0.0
230
1.0
 70
     8
 71
     3
 72
    12
 73
     8
 74
     0
 42
0.000000001
 43
0.00000001
 40
0.0
 40
0.0
 40
0.0
 40
0.0
 40
0.5000000000000013
 40
0.5000000000000013
 40
0.7500000000000007
 40
0.7500000000000007
 40
1.0
 40
1.0
 40
1.0
 40
1.0
 10
137.0072764687206
 20
122.3024415177932
 30
0.0
 10
137.2914830032859
 20
122.4699056800869
 30
0.0
 10
137.5701787373897
 20
122.5815427795985
 30
0.0
 10
137.979524780579
 20
122.6488560452378
 30
0.0
 10
138.1156641178985
 20
122.6540070852518
 30
0.0
 10
138.3769841668946
 20
122.6162411476325
 30
0.0
 10
138.5024053493264
 20
122.5746913892882
 30
0.0
 10
138.6191131107778
 20
122.4939352976054
 30
0.0
  0
SPLINE
  5
122
330
1F
100
AcDbEntity
  8
0
  6
HIDDEN
 62
     7
370
     0
100
AcDbSpline
210
0.0
220
0.0
230
1.0
 70
     8
 71
     3
 72
    11
 73
     7
 74
     0
 42
0.000000001
 43
0.00000001
 40
0.0
 40
0.0
 40
0.0
 40
0.0
 40
0.158662981146699
 40
0.4474175569066701
 40
0.7365957119237871
 40
1.0
 40
1.0
 40
1.0
 40
1.0
 10
135.0253312298459
 20
120.1178881750649
 30
0.0
 10
135.0209904858541
 20
120.2340333537053
 30
0.0
 10
135.0087499174624
 20
120.5615539366302
 30
0.0
 10
135.2378387317531
 20
121.0650491480648
 30
0.0
 10
135.6465936563817
 20
121.5475636272748
 30
0.0
 10
136.0262854655838
 20
121.7353844847803
 30
0.0
 10
136.2072764687206
 20
121.8249146895044
 30
0.0
  0
LWPOLYLINE
  5
123
330
1F
100
AcDbEntity
  8
0
  6
HIDDEN
 62
     7
370
     0
100
AcDbPolyline
 90
       20
 70
   128
 43
0.0
 10
127.4474881159
 20
118.3129730529
 10
127.6217767623
 20
117.814618044
 10
127.9022647228
 20
117.4924655826
 10
128.2585567745
 20
117.3814258868
 10
128.6520431454
 20
117.4935318305
 10
129.0400834815
 20
117.8166349952
 10
129.3806275913
 20
118.3157221395
 10
129.6367722365
 20
118.9367094273
 10
129.7807601702
 20
119.6123032503
 10
129.7969880657
 20
120.2692925348
 10
129.6836973786
 20
120.8364822976
 10
129.4531649128
 20
121.2524087272
 10
129.1303724381
 20
121.471999741
 10
128.7502995277
 20
121.4714592454
 10
128.3541329788
 20
121.2508458115
 10
127.9848035843
 20
120.8340663281
 10
127.6823339148
 20
120.2662853191
 10
127.4795012522
 20
119.6090306669
 10
127.3982856628
 20
118.9335261115
 10
127.4474881159
 20
118.3129730529
  0
LWPOLYLINE
  5
124
330
1F
100
AcDbEntity
  8
0
  6
HIDDEN
 62
     7
370
     0
100
AcDbPolyline
 90
       17
 70
   128
 43
0.0
 10
136.896561858
 20
117.0894192606
 10
137.4694344487
 20
117.1588481491
 10
137.9704252671
 20
117.4289998101
 10
138.3232630025
 20
117.8587461022
 10
138.4742313083
 20
118.3826620481
 10
138.4003466284
 20
118.9209861942
 10
138.1128572355
 20
119.3917635693
 10
137.6555307836
 20
119.7233225856
 10
137.0979910794
 20
119.8651863885
 10
136.5251184887
 20
119.7957575
 10
136.0241276704
 20
119.525605839
 10
135.6712899349
 20
119.0958595469
 10
135.5203216292
 20
118.571943601
 10
135.5942063091
 20
118.0336194549
 10
135.881695702
 20
117.5628420798
 10
136.3390221538
 20
117.2312830635
 10
136.896561858
 20
117.0894192606
  0
LWPOLYLINE
  5
125
330
1F
100
AcDbEntity
  8
0
  6
HIDDEN
 62
     7
370
     0
100
AcDbPolyline
 90
       20
 70
   128
 43
0.0
 10
136.8612110166
 20
116.7048779923
 10
137.5164777576
 20
116.7649563599
 10
138.1154809828
 20
117.0217129936
 10
138.5933093981
 20
117.4473243281
 10
138.8981828806
 20
117.9956687713
 10
138.9970636577
 20
118.6073246943
 10
138.879236463
 20
119.2160096872
 10
138.5574697013
 20
119.7557632861
 10
138.0666317939
 20
120.1680948135
 10
137.4599126443
 20
120.4083217504
 10
136.8030596866
 20
120.4504117807
 10
136.1672531308
 20
120.2898037965
 10
135.6213924827
 20
119.943902165
 10
135.2246302136
 20
119.4501906952
 10
135.0199616717
 20
118.8621706856
 10
135.0295658693
 20
118.2435632282
 10
135.2524020424
 20
117.6614040398
 10
135.6643224342
 20
117.1787791015
 10
136.2206890785
 20
116.8479883142
 10
136.8612110166
 20
116.7048779923
  0
LWPOLYLINE
  5
126
330
1F
100
AcDbEntity
  8
0
  6
HIDDEN
 62
     7
370
     0
100
AcDbPolyline
 90
       20
 70
   128
 43
0.0
 10
136.8612110166
 20
117.0297971285
 10
137.5164777576
 20
117.0898754961
 10
138.1154809828
 20
117.3466321297
 10
138.5933093981
 20
117.7722434642
 10
138.8981828806
 20
118.3205879074
 10
138.9970636577
 20
118.9322438305
 10
138.879236463
 20
119.5409288233
 10
138.5574697013
 20
120.0806824222
 10
138.0666317939
 20
120.4930139496
 10
137.4599126443
 20
120.7332408866
 10
136.8030596866
 20
120.7753309169
 10
136.1672531308
 20
120.6147229327
 10
135.6213924827
 20
120.2688213012
 10
135.2246302136
 20
119.7751098314
 10
135.0199616717
 20
119.1870898217
 10
135.0295658693
 20
118.5684823644
 10
135.2524020424
 20
117.986323176
 10
135.6643224342
 20
117.5036982377
 10
136.2206890785
 20
117.1729074504
 10
136.8612110166
 20
117.0297971285
  0
LWPOLYLINE
  5
127
330
1F
100
AcDbEntity
  8
0
  6
HIDDEN
 62
     7
370
     0
100
AcDbPolyline
 90
       17
 70
   128
 43
0.0
 10
136.8952273796
 20
118.4391102414
 10
137.475690588
 20
118.5094590695
 10
137.9833195835
 20
118.7831902664
 10
138.3408324533
 20
119.2186307387
 10
138.4938011038
 20
119.7494886219
 10
138.4189374447
 20
120.2949456154
 10
138.1276387893
 20
120.7719608366
 10
137.6642527174
 20
121.1079130422
 10
137.0993255578
 20
121.2516565543
 10
136.5188623495
 20
121.1813077262
 10
136.011233354
 20
120.9075765293
 10
135.6537204842
 20
120.472136057
 10
135.5007518336
 20
119.9412781739
 10
135.5756154928
 20
119.3958211803
 10
135.8669141481
 20
118.9188059591
 10
136.33030022
 20
118.5828537535
 10
136.8952273796
 20
118.4391102414
  0
LWPOLYLINE
  5
128
330
1F
100
AcDbEntity
  8
0
  6
HIDDEN
 62
     7
370
     0
100
AcDbPolyline
 90
       17
 70
   128
 43
0.0
 10
136.8952273796
 20
117.4356318295
 10
137.475690588
 20
117.5059806576
 10
137.9833195835
 20
117.7797118545
 10
138.3408324533
 20
118.2151523268
 10
138.4938011038
 20
118.7460102099
 10
138.4189374447
 20
119.2914672035
 10
138.1276387893
 20
119.7684824247
 10
137.6642527174
 20
120.1044346302
 10
137.0993255578
 20
120.2481781424
 10
136.5188623495
 20
120.1778293143
 10
136.011233354
 20
119.9040981174
 10
135.6537204842
 20
119.4686576451
 10
135.5007518336
 20
118.9377997619
 10
135.5756154928
 20
118.3923427684
 10
135.8669141481
 20
117.9153275472
 10
136.33030022
 20
117.5793753416
 10
136.8952273796
 20
117.4356318295
  0
LWPOLYLINE
  5
129
330
1F
100
AcDbEntity
  8
0
  6
HIDDEN
 62
     7
370
     0
100
AcDbPolyline
 90
       20
 70
   128
 43
0.0
 10
136.8612110166
 20
117.2221834591
 10
137.5164777576
 20
117.2822618267
 10
138.1154809828
 20
117.5390184603
 10
138.5933093981
 20
117.9646297948
 10
138.8981828806
 20
118.5129742381
 10
138.9970636577
 20
119.1246301611
 10
138.879236463
 20
119.733315154
 10
138.5574697013
 20
120.2730687529
 10
138.0666317939
 20
120.6854002803
 10
137.4599126443
 20
120.9256272172
 10
136.8030596866
 20
120.9677172475
 10
136.1672531308
 20
120.8071092633
 10
135.6213924827
 20
120.4612076318
 10
135.2246302136
 20
119.967496162
 10
135.0199616717
 20
119.3794761524
 10
135.0295658693
 20
118.760868695
 10
135.2524020424
 20
118.1787095066
 10
135.6643224342
 20
117.6960845683
 10
136.2206890785
 20
117.365293781
 10
136.8612110166
 20
117.2221834591
  0
LWPOLYLINE
  5
12A
330
1F
100
AcDbEntity
  8
0
  6
HIDDEN
 62
     7
370
     0
100
AcDbPolyline
 90
       19
 70
   128
 43
0.0
 10
136.8720962527
 20
117.2278961812
 10
137.5075045363
 20
117.2916959774
 10
138.0813717847
 20
117.5558644611
 10
138.5244811384
 20
117.9885390143
 10
138.7833870699
 20
118.5375327002
 10
138.8268617026
 20
119.1366287782
 10
138.6496613544
 20
119.7135674195
 10
138.2731590023
 20
120.1987613091
 10
137.7427663867
 20
120.5336889035
 10
137.1224566847
 20
120.6779529916
 10
136.4870484012
 20
120.6141531953
 10
135.9131811528
 20
120.3499847116
 10
135.470071799
 20
119.9173101585
 10
135.2111658676
 20
119.3683164725
 10
135.1676912348
 20
118.7692203945
 10
135.3448915831
 20
118.1922817533
 10
135.7213939351
 20
117.7070878636
 10
136.2517865507
 20
117.3721602693
 10
136.8720962527
 20
117.2278961812
  0
LWPOLYLINE
  5
12B
330
1F
100
AcDbEntity
  8
0
  6
HIDDEN
 62
     7
370
     0
100
AcDbPolyline
 90
       20
 70
   128
 43
0.0
 10
136.8612110166
 20
117.4145697897
 10
137.5164777576
 20
117.4746481573
 10
138.1154809828
 20
117.731404791
 10
138.5933093981
 20
118.1570161255
 10
138.8981828806
 20
118.7053605687
 10
138.9970636577
 20
119.3170164917
 10
138.879236463
 20
119.9257014846
 10
138.5574697013
 20
120.4654550835
 10
138.0666317939
 20
120.8777866109
 10
137.4599126443
 20
121.1180135478
 10
136.8030596866
 20
121.1601035781
 10
136.1672531308
 20
120.9994955939
 10
135.6213924827
 20
120.6535939624
 10
135.2246302136
 20
120.1598824926
 10
135.0199616717
 20
119.571862483
 10
135.0295658693
 20
118.9532550256
 10
135.2524020424
 20
118.3710958372
 10
135.6643224342
 20
117.8884708989
 10
136.2206890785
 20
117.5576801116
 10
136.8612110166
 20
117.4145697897
  0
LWPOLYLINE
  5
12C
330
1F
100
AcDbEntity
  8
0
  6
HIDDEN
 62
     7
370
     0
100
AcDbPolyline
 90
       19
 70
   128
 43
0.0
 10
136.8720962527
 20
117.4202825118
 10
137.5075045363
 20
117.4840823081
 10
138.0813717847
 20
117.7482507917
 10
138.5244811384
 20
118.1809253449
 10
138.7833870699
 20
118.7299190308
 10
138.8268617026
 20
119.3290151088
 10
138.6496613544
 20
119.9059537501
 10
138.2731590023
 20
120.3911476398
 10
137.7427663867
 20
120.7260752341
 10
137.1224566847
 20
120.8703393222
 10
136.4870484012
 20
120.8065395259
 10
135.9131811528
 20
120.5423710423
 10
135.470071799
 20
120.1096964891
 10
135.2111658676
 20
119.5607028031
 10
135.1676912348
 20
118.9616067252
 10
135.3448915831
 20
118.3846680839
 10
135.7213939351
 20
117.8994741942
 10
136.2517865507
 20
117.5645465999
 10
136.8720962527
 20
117.4202825118
  0
LWPOLYLINE
  5
12D
330
1F
100
AcDbEntity
  8
0
  6
HIDDEN
 62
     7
370
     0
100
AcDbPolyline
 90
       20
 70
   128
 43
0.0
 10
136.8612110166
 20
117.6069561204
 10
137.5164777576
 20
117.6670344879
 10
138.1154809828
 20
117.9237911216
 10
138.5933093981
 20
118.3494024561
 10
138.8981828806
 20
118.8977468993
 10
138.9970636577
 20
119.5094028224
 10
138.879236463
 20
120.1180878152
 10
138.5574697013
 20
120.6578414141
 10
138.0666317939
 20
121.0701729415
 10
137.4599126443
 20
121.3103998784
 10
136.8030596866
 20
121.3524899087
 10
136.1672531308
 20
121.1918819245
 10
135.6213924827
 20
120.8459802931
 10
135.2246302136
 20
120.3522688233
 10
135.0199616717
 20
119.7642488136
 10
135.0295658693
 20
119.1456413562
 10
135.2524020424
 20
118.5634821678
 10
135.6643224342
 20
118.0808572296
 10
136.2206890785
 20
117.7500664422
 10
136.8612110166
 20
117.6069561204
  0
LWPOLYLINE
  5
12E
330
1F
100
AcDbEntity
  8
0
  6
HIDDEN
 62
     7
370
     0
100
AcDbPolyline
 90
       19
 70
   128
 43
0.0
 10
136.8720962527
 20
117.6126688424
 10
137.5075045363
 20
117.6764686387
 10
138.0813717847
 20
117.9406371223
 10
138.5244811384
 20
118.3733116755
 10
138.7833870699
 20
118.9223053615
 10
138.8268617026
 20
119.5214014394
 10
138.6496613544
 20
120.0983400807
 10
138.2731590023
 20
120.5835339704
 10
137.7427663867
 20
120.9184615647
 10
137.1224566847
 20
121.0627256528
 10
136.4870484012
 20
120.9989258565
 10
135.9131811528
 20
120.7347573729
 10
135.470071799
 20
120.3020828197
 10
135.2111658676
 20
119.7530891337
 10
135.1676912348
 20
119.1539930558
 10
135.3448915831
 20
118.5770544145
 10
135.7213939351
 20
118.0918605248
 10
136.2517865507
 20
117.7569329305
 10
136.8720962527
 20
117.6126688424
  0
LWPOLYLINE
  5
12F
330
1F
100
AcDbEntity
  8
0
  6
HIDDEN
 62
     7
370
     0
100
AcDbPolyline
 90
       20
 70
   128
 43
0.0
 10
136.8612110166
 20
117.799342451
 10
137.5164777576
 20
117.8594208185
 10
138.1154809828
 20
118.1161774522
 10
138.5933093981
 20
118.5417887867
 10
138.8981828806
 20
119.0901332299
 10
138.9970636577
 20
119.701789153
 10
138.879236463
 20
120.3104741458
 10
138.5574697013
 20
120.8502277447
 10
138.0666317939
 20
121.2625592721
 10
137.4599126443
 20
121.502786209
 10
136.8030596866
 20
121.5448762393
 10
136.1672531308
 20
121.3842682552
 10
135.6213924827
 20
121.0383666237
 10
135.2246302136
 20
120.5446551539
 10
135.0199616717
 20
119.9566351442
 10
135.0295658693
 20
119.3380276869
 10
135.2524020424
 20
118.7558684984
 10
135.6643224342
 20
118.2732435602
 10
136.2206890785
 20
117.9424527728
 10
136.8612110166
 20
117.799342451
  0
LWPOLYLINE
  5
130
330
1F
100
AcDbEntity
  8
0
  6
HIDDEN
 62
     7
370
     0
100
AcDbPolyline
 90
       19
 70
   128
 43
0.0
 10
136.8720962527
 20
117.805055173
 10
137.5075045363
 20
117.8688549693
 10
138.0813717847
 20
118.133023453
 10
138.5244811384
 20
118.5656980061
 10
138.7833870699
 20
119.1146916921
 10
138.8268617026
 20
119.7137877701
 10
138.6496613544
 20
120.2907264113
 10
138.2731590023
 20
120.775920301
 10
137.7427663867
 20
121.1108478953
 10
137.1224566847
 20
121.2551119834
 10
136.4870484012
 20
121.1913121871
 10
135.9131811528
 20
120.9271437035
 10
135.470071799
 20
120.4944691503
 10
135.2111658676
 20
119.9454754644
 10
135.1676912348
 20
119.3463793864
 10
135.3448915831
 20
118.7694407451
 10
135.7213939351
 20
118.2842468554
 10
136.2517865507
 20
117.9493192611
 10
136.8720962527
 20
117.805055173
  0
LWPOLYLINE
  5
131
330
1F
100
AcDbEntity
  8
0
  6
HIDDEN
 62
     7
370
     0
100
AcDbPolyline
 90
       20
 70
   128
 43
0.0
 10
136.8612110166
 20
117.9361505083
 10
137.5164777576
 20
117.9962288759
 10
138.1154809828
 20
118.2529855095
 10
138.5933093981
 20
118.678596844
 10
138.8981828806
 20
119.2269412872
 10
138.9970636577
 20
119.8385972103
 10
138.879236463
 20
120.4472822031
 10
138.5574697013
 20
120.9870358021
 10
138.0666317939
 20
121.3993673295
 10
137.4599126443
 20
121.6395942664
 10
136.8030596866
 20
121.6816842967
 10
136.1672531308
 20
121.5210763125
 10
135.6213924827
 20
121.175174681
 10
135.2246302136
 20
120.6814632112
 10
135.0199616717
 20
120.0934432016
 10
135.0295658693
 20
119.4748357442
 10
135.2524020424
 20
118.8926765558
 10
135.6643224342
 20
118.4100516175
 10
136.2206890785
 20
118.0792608302
 10
136.8612110166
 20
117.9361505083
  0
LWPOLYLINE
  5
132
330
1F
100
AcDbEntity
  8
0
  6
HIDDEN
 62
     7
370
     0
100
AcDbPolyline
 90
       19
 70
   128
 43
0.0
 10
136.8680142892
 20
118.0641040664
 10
137.524142408
 20
118.1299842908
 10
138.1167227189
 20
118.4027669641
 10
138.5742812907
 20
118.8495504701
 10
138.8416298069
 20
119.4164461241
 10
138.8865220907
 20
120.0350779438
 10
138.7035434702
 20
120.6308298016
 10
138.3147638676
 20
121.1318452312
 10
137.7670758405
 20
121.4776943775
 10
137.1265386483
 20
121.6266627293
 10
136.4704105294
 20
121.5607825049
 10
135.8778302186
 20
121.2879998316
 10
135.4202716468
 20
120.8412163256
 10
135.1529231306
 20
120.2743206716
 10
135.1080308467
 20
119.6556888519
 10
135.2910094672
 20
119.0599369941
 10
135.6797890699
 20
118.5589215646
 10
136.2274770969
 20
118.2130724182
 10
136.8680142892
 20
118.0641040664
  0
ARC
  5
133
330
1F
100
AcDbEntity
  8
0
  6
HIDDEN
 62
     7
370
     0
100
AcDbCircle
 10
136.975267217
 20
101.2223003951
 30
0.0
 40
1.978658194938872
100
AcDbArc
 50
337.7045725045
 51
178.511760875
  0
ARC
  5
134
330
1F
100
AcDbEntity
  8
0
  6
HIDDEN
 62
     7
370
     0
100
AcDbCircle
 10
136.9766335797
 20
101.1861754521
 30
0.0
 40
1.885933066415249
100
AcDbArc
 50
341.0919131144
 51
160.7865569047
  0
ARC
  5
135
330
1F
100
AcDbEntity
  8
0
  6
HIDDEN
 62
     7
370
     0
100
AcDbCircle
 10
137.0569096687
 20
101.2147017783
 30
0.0
 40
1.436182011957694
100
AcDbArc
 50
353.3535099282
 51
92.9668171909
  0
LWPOLYLINE
  5
136
330
1F
100
AcDbEntity
  8
0
  6
HIDDEN
 62
     7
370
     0
100
AcDbPolyline
 90
       20
 70
   128
 43
0.0
 10
136.3132361821
 20
99.6444532295
 10
135.7400639812
 20
99.9488551844
 10
135.3031302611
 20
100.4116487826
 10
135.0497835699
 20
100.9826831567
 10
135.0074779527
 20
101.6000778719
 10
135.1807978797
 20
102.1969286309
 10
135.5509614474
 20
102.7085573928
 10
136.0778556895
 20
103.0795212425
 10
136.7043834394
 20
103.2696204909
 10
137.3626506936
 20
103.2582549346
 10
137.9813239813
 20
103.0466562081
 10
138.4933604518
 20
102.6577543167
 10
138.8432730087
 20
102.1336928147
 10
138.9931431969
 20
101.5312618975
 10
138.926730256
 20
100.9157443027
 10
138.6512310587
 20
100.3538409124
 10
138.1965002178
 20
99.9064426778
 10
137.6118148759
 20
99.6220321397
 10
136.960534762
 20
99.531429593
 10
136.3132361821
 20
99.6444532295
  0
LWPOLYLINE
  5
137
330
1F
100
AcDbEntity
  8
0
  6
HIDDEN
 62
     7
370
     0
100
AcDbPolyline
 90
       17
 70
   128
 43
0.0
 10
136.4842462537
 20
100.9184326805
 10
135.9838911573
 20
101.2037449035
 10
135.6378147882
 20
101.6472691199
 10
135.4987041363
 20
102.1814827882
 10
135.5877375375
 20
102.7250567201
 10
135.8913604635
 20
103.195236712
 10
136.3633490761
 20
103.5204421223
 10
136.9318473877
 20
103.6511633753
 10
137.5103066837
 20
103.5674993452
 10
138.0106617801
 20
103.2821871222
 10
138.3567381493
 20
102.8386629058
 10
138.4958488011
 20
102.3044492375
 10
138.4068153999
 20
101.7608753056
 10
138.1031924739
 20
101.2906953137
 10
137.6312038613
 20
100.9654899034
 10
137.0627055498
 20
100.8347686504
 10
136.4842462537
 20
100.9184326805
  0
LWPOLYLINE
  5
138
330
1F
100
AcDbEntity
  8
0
  6
HIDDEN
 62
     7
370
     0
100
AcDbPolyline
 90
       20
 70
   128
 43
0.0
 10
136.3132361821
 20
99.8368395601
 10
135.7400639812
 20
100.141241515
 10
135.3031302611
 20
100.6040351132
 10
135.0497835699
 20
101.1750694874
 10
135.0074779527
 20
101.7924642026
 10
135.1807978797
 20
102.3893149615
 10
135.5509614474
 20
102.9009437234
 10
136.0778556895
 20
103.2719075731
 10
136.7043834394
 20
103.4620068215
 10
137.3626506936
 20
103.4506412653
 10
137.9813239813
 20
103.2390425387
 10
138.4933604518
 20
102.8501406473
 10
138.8432730087
 20
102.3260791453
 10
138.9931431969
 20
101.7236482281
 10
138.926730256
 20
101.1081306333
 10
138.6512310587
 20
100.546227243
 10
138.1965002178
 20
100.0988290084
 10
137.6118148759
 20
99.8144184703
 10
136.960534762
 20
99.7238159236
 10
136.3132361821
 20
99.8368395601
  0
LWPOLYLINE
  5
139
330
1F
100
AcDbEntity
  8
0
  6
HIDDEN
 62
     7
370
     0
100
AcDbPolyline
 90
       19
 70
   128
 43
0.0
 10
136.367959405
 20
99.9300265329
 10
135.8145472669
 20
100.2302702094
 10
135.4037897258
 20
100.6902702094
 10
135.1852302032
 20
101.254543744
 10
135.1852302032
 20
101.8550310971
 10
135.4037897258
 20
102.4193046317
 10
135.8145472669
 20
102.8793046317
 10
136.367959405
 20
103.1795483082
 10
136.9972764687
 20
103.2838218428
 10
137.6265935324
 20
103.1795483082
 10
138.1800056705
 20
102.8793046317
 10
138.5907632117
 20
102.4193046317
 10
138.8093227343
 20
101.8550310971
 10
138.8093227343
 20
101.254543744
 10
138.5907632117
 20
100.6902702094
 10
138.1800056705
 20
100.2302702094
 10
137.6265935324
 20
99.9300265329
 10
136.9972764687
 20
99.8257529983
 10
136.367959405
 20
99.9300265329
  0
LWPOLYLINE
  5
13A
330
1F
100
AcDbEntity
  8
0
  6
HIDDEN
 62
     7
370
     0
100
AcDbPolyline
 90
       20
 70
   128
 43
0.0
 10
136.3132361821
 20
100.0292258907
 10
135.7400639812
 20
100.3336278456
 10
135.3031302611
 20
100.7964214438
 10
135.0497835699
 20
101.367455818
 10
135.0074779527
 20
101.9848505332
 10
135.1807978797
 20
102.5817012921
 10
135.5509614474
 20
103.093330054
 10
136.0778556895
 20
103.4642939038
 10
136.7043834394
 20
103.6543931521
 10
137.3626506936
 20
103.6430275959
 10
137.9813239813
 20
103.4314288694
 10
138.4933604518
 20
103.0425269779
 10
138.8432730087
 20
102.5184654759
 10
138.9931431969
 20
101.9160345587
 10
138.926730256
 20
101.3005169639
 10
138.6512310587
 20
100.7386135736
 10
138.1965002178
 20
100.291215339
 10
137.6118148759
 20
100.006804801
 10
136.960534762
 20
99.9162022543
 10
136.3132361821
 20
100.0292258907
  0
LWPOLYLINE
  5
13B
330
1F
100
AcDbEntity
  8
0
  6
HIDDEN
 62
     7
370
     0
100
AcDbPolyline
 90
       19
 70
   128
 43
0.0
 10
136.367959405
 20
100.1224128635
 10
135.8145472669
 20
100.4226565401
 10
135.4037897258
 20
100.8826565401
 10
135.1852302032
 20
101.4469300746
 10
135.1852302032
 20
102.0474174277
 10
135.4037897258
 20
102.6116909623
 10
135.8145472669
 20
103.0716909623
 10
136.367959405
 20
103.3719346389
 10
136.9972764687
 20
103.4762081734
 10
137.6265935324
 20
103.3719346389
 10
138.1800056705
 20
103.0716909623
 10
138.5907632117
 20
102.6116909623
 10
138.8093227343
 20
102.0474174277
 10
138.8093227343
 20
101.4469300746
 10
138.5907632117
 20
100.8826565401
 10
138.1800056705
 20
100.4226565401
 10
137.6265935324
 20
100.1224128635
 10
136.9972764687
 20
100.0181393289
 10
136.367959405
 20
100.1224128635
  0
LWPOLYLINE
  5
13C
330
1F
100
AcDbEntity
  8
0
  6
HIDDEN
 62
     7
370
     0
100
AcDbPolyline
 90
       20
 70
   128
 43
0.0
 10
136.3132361821
 20
100.2216122213
 10
135.7400639812
 20
100.5260141762
 10
135.3031302611
 20
100.9888077744
 10
135.0497835699
 20
101.5598421486
 10
135.0074779527
 20
102.1772368638
 10
135.1807978797
 20
102.7740876228
 10
135.5509614474
 20
103.2857163847
 10
136.0778556895
 20
103.6566802344
 10
136.7043834394
 20
103.8467794828
 10
137.3626506936
 20
103.8354139265
 10
137.9813239813
 20
103.6238152
 10
138.4933604518
 20
103.2349133085
 10
138.8432730087
 20
102.7108518065
 10
138.9931431969
 20
102.1084208893
 10
138.926730256
 20
101.4929032945
 10
138.6512310587
 20
100.9309999043
 10
138.1965002178
 20
100.4836016697
 10
137.6118148759
 20
100.1991911316
 10
136.960534762
 20
100.1085885849
 10
136.3132361821
 20
100.2216122213
  0
LWPOLYLINE
  5
13D
330
1F
100
AcDbEntity
  8
0
  6
HIDDEN
 62
     7
370
     0
100
AcDbPolyline
 90
       19
 70
   128
 43
0.0
 10
136.367959405
 20
100.3147991941
 10
135.8145472669
 20
100.6150428707
 10
135.4037897258
 20
101.0750428707
 10
135.1852302032
 20
101.6393164053
 10
135.1852302032
 20
102.2398037584
 10
135.4037897258
 20
102.8040772929
 10
135.8145472669
 20
103.2640772929
 10
136.367959405
 20
103.5643209695
 10
136.9972764687
 20
103.6685945041
 10
137.6265935324
 20
103.5643209695
 10
138.1800056705
 20
103.2640772929
 10
138.5907632117
 20
102.8040772929
 10
138.8093227343
 20
102.2398037584
 10
138.8093227343
 20
101.6393164053
 10
138.5907632117
 20
101.0750428707
 10
138.1800056705
 20
100.6150428707
 10
137.6265935324
 20
100.3147991941
 10
136.9972764687
 20
100.2105256596
 10
136.367959405
 20
100.3147991941
  0
LWPOLYLINE
  5
13E
330
1F
100
AcDbEntity
  8
0
  6
HIDDEN
 62
     7
370
     0
100
AcDbPolyline
 90
       20
 70
   128
 43
0.0
 10
136.3132361821
 20
100.413998552
 10
135.7400639812
 20
100.7184005068
 10
135.3031302611
 20
101.1811941051
 10
135.0497835699
 20
101.7522284792
 10
135.0074779527
 20
102.3696231944
 10
135.1807978797
 20
102.9664739534
 10
135.5509614474
 20
103.4781027153
 10
136.0778556895
 20
103.849066565
 10
136.7043834394
 20
104.0391658134
 10
137.3626506936
 20
104.0278002571
 10
137.9813239813
 20
103.8162015306
 10
138.4933604518
 20
103.4272996392
 10
138.8432730087
 20
102.9032381371
 10
138.9931431969
 20
102.30080722
 10
138.926730256
 20
101.6852896252
 10
138.6512310587
 20
101.1233862349
 10
138.1965002178
 20
100.6759880003
 10
137.6118148759
 20
100.3915774622
 10
136.960534762
 20
100.3009749155
 10
136.3132361821
 20
100.413998552
  0
LWPOLYLINE
  5
13F
330
1F
100
AcDbEntity
  8
0
  6
HIDDEN
 62
     7
370
     0
100
AcDbPolyline
 90
       19
 70
   128
 43
0.0
 10
136.367959405
 20
100.5071855248
 10
135.8145472669
 20
100.8074292013
 10
135.4037897258
 20
101.2674292013
 10
135.1852302032
 20
101.8317027359
 10
135.1852302032
 20
102.432190089
 10
135.4037897258
 20
102.9964636236
 10
135.8145472669
 20
103.4564636236
 10
136.367959405
 20
103.7567073001
 10
136.9972764687
 20
103.8609808347
 10
137.6265935324
 20
103.7567073001
 10
138.1800056705
 20
103.4564636236
 10
138.5907632117
 20
102.9964636236
 10
138.8093227343
 20
102.432190089
 10
138.8093227343
 20
101.8317027359
 10
138.5907632117
 20
101.2674292013
 10
138.1800056705
 20
100.8074292013
 10
137.6265935324
 20
100.5071855248
 10
136.9972764687
 20
100.4029119902
 10
136.367959405
 20
100.5071855248
  0
LWPOLYLINE
  5
140
330
1F
100
AcDbEntity
  8
0
  6
HIDDEN
 62
     7
370
     0
100
AcDbPolyline
 90
       20
 70
   128
 43
0.0
 10
136.3132361821
 20
100.7389176881
 10
135.7400639812
 20
101.043319643
 10
135.3031302611
 20
101.5061132412
 10
135.0497835699
 20
102.0771476154
 10
135.0074779527
 20
102.6945423306
 10
135.1807978797
 20
103.2913930895
 10
135.5509614474
 20
103.8030218514
 10
136.0778556895
 20
104.1739857012
 10
136.7043834394
 20
104.3640849495
 10
137.3626506936
 20
104.3527193933
 10
137.9813239813
 20
104.1411206668
 10
138.4933604518
 20
103.7522187753
 10
138.8432730087
 20
103.2281572733
 10
138.9931431969
 20
102.6257263561
 10
138.926730256
 20
102.0102087613
 10
138.6512310587
 20
101.448305371
 10
138.1965002178
 20
101.0009071364
 10
137.6118148759
 20
100.7164965984
 10
136.960534762
 20
100.6258940517
 10
136.3132361821
 20
100.7389176881
  0
LWPOLYLINE
  5
141
330
1F
100
AcDbEntity
  8
0
  6
HIDDEN
 62
     7
370
     0
100
AcDbPolyline
 90
       17
 70
   128
 43
0.0
 10
136.4909550617
 20
101.3003555367
 10
135.9971430229
 20
101.5819367808
 10
135.655592235
 20
102.0196611072
 10
135.5183007093
 20
102.5468889552
 10
135.606169836
 20
103.0833546642
 10
135.9058223371
 20
103.5473861931
 10
136.3716388357
 20
103.8683389481
 10
136.9327029925
 20
103.9973507817
 10
137.5035978757
 20
103.9147808118
 10
137.9974099145
 20
103.6331995677
 10
138.3389607025
 20
103.1954752413
 10
138.4762522282
 20
102.6682473933
 10
138.3883831015
 20
102.1317816843
 10
138.0887306004
 20
101.6677501554
 10
137.6229141017
 20
101.3467974004
 10
137.0618499449
 20
101.2177855667
 10
136.4909550617
 20
101.3003555367
  0
LWPOLYLINE
  5
142
330
1F
100
AcDbEntity
  8
0
  6
HIDDEN
 62
     7
370
     0
100
AcDbPolyline
 90
       18
 70
   128
 43
0.0
 10
129.5124805241
 20
101.4500947502
 10
129.3957098194
 20
102.0291743917
 10
129.1717154365
 20
102.5562679891
 10
128.8707490583
 20
102.9601886312
 10
128.5334578616
 20
103.1863845971
 10
128.2053948917
 20
103.2043068683
 10
127.9308668705
 20
103.0115349427
 10
127.7469503285
 20
102.634103737
 10
127.6784842137
 20
102.122987427
 10
127.7347152544
 20
101.5472151026
 10
127.908049137
 20
100.9845480066
 10
128.17507616
 20
100.5109774482
 10
128.4997328445
 20
100.1904617554
 10
128.8381725061
 20
100.0662883486
 10
129.1446869933
 20
100.1552275345
 10
129.377879826
 20
100.4452675831
 10
129.5062570201
 20
100.8972369788
 10
129.5124805241
 20
101.4500947502
  0
LWPOLYLINE
  5
143
330
1F
100
AcDbEntity
  8
0
  6
HIDDEN
 62
     7
370
     0
100
AcDbPolyline
 90
       20
 70
   128
 43
0.0
 10
129.9175289917
 20
101.447235115
 10
129.7945151216
 20
102.0922497892
 10
129.5622382027
 20
102.6935035579
 10
129.2458690435
 20
103.1858412459
 10
128.8796911511
 20
103.5159104252
 10
128.5033855821
 20
103.6479429787
 10
128.1577308839
 20
103.5676311306
 10
127.8801841064
 20
103.2836779158
 10
127.7008217496
 20
102.826854071
 10
127.6390805079
 20
102.2466635482
 10
127.7016510028
 20
101.6059789932
 10
127.8817527503
 20
100.9742285187
 10
128.1598689316
 20
100.4198720913
 10
128.5058613429
 20
100.0029828315
 10
128.882236338
 20
99.7687371595
 10
129.2482078459
 20
99.7425192283
 10
129.5641171752
 20
99.9271701578
 10
129.7957306483
 20
100.3026801545
 10
129.9179493514
 20
100.8283568837
 10
129.9175289917
 20
101.447235115
  0
LWPOLYLINE
  5
144
330
1F
100
AcDbEntity
  8
0
  6
HIDDEN
 62
     7
370
     0
100
AcDbPolyline
 90
       20
 70
   128
 43
0.0
 10
131.5761754065
 20
101.8444561886
 10
131.4531615365
 20
102.4894708628
 10
131.2208846176
 20
103.0907246315
 10
130.9045154583
 20
103.5830623195
 10
130.538337566
 20
103.9131314988
 10
130.162031997
 20
104.0451640523
 10
129.8163772988
 20
103.9648522042
 10
129.5388305213
 20
103.6808989894
 10
129.3594681645
 20
103.2240751446
 10
129.2977269227
 20
102.6438846219
 10
129.3602974176
 20
102.0032000669
 10
129.5403991652
 20
101.3714495924
 10
129.8185153465
 20
100.8170931649
 10
130.1645077578
 20
100.4002039052
 10
130.5408827528
 20
100.1659582331
 10
130.9068542608
 20
100.139740302
 10
131.2227635901
 20
100.3243912314
 10
131.4543770632
 20
100.6999012282
 10
131.5765957663
 20
101.2255779573
 10
131.5761754065
 20
101.8444561886
  0
LINE
  5
145
330
1F
100
AcDbEntity
  8
0
  6
HIDDEN
 62
     7
370
     0
100
AcDbLine
 10
128.1801725776
 20
102.6870010441
 30
0.0
 11
127.9486327491
 21
101.7835008003
 31
0.0
  0
LINE
  5
146
330
1F
100
AcDbEntity
  8
0
  6
HIDDEN
 62
     7
370
     0
100
AcDbLine
 10
128.3702471566
 20
100.7407507028
 30
0.0
 11
127.9486327491
 21
101.7835008003
 31
0.0
  0
LINE
  5
147
330
1F
100
AcDbEntity
  8
0
  6
HIDDEN
 62
     7
370
     0
100
AcDbLine
 10
129.0234013925
 20
100.6015008491
 30
0.0
 11
128.3702471566
 21
100.7407507028
 31
0.0
  0
LINE
  5
148
330
1F
100
AcDbEntity
  8
0
  6
HIDDEN
 62
     7
370
     0
100
AcDbLine
 10
129.0234013925
 20
100.6015008491
 30
0.0
 11
129.254941221
 21
101.5050010928
 31
0.0
  0
LINE
  5
149
330
1F
100
AcDbEntity
  8
0
  6
HIDDEN
 62
     7
370
     0
100
AcDbLine
 10
128.8333268135
 20
102.5477511904
 30
0.0
 11
129.254941221
 21
101.5050010928
 31
0.0
  0
LINE
  5
14A
330
1F
100
AcDbEntity
  8
0
  6
HIDDEN
 62
     7
370
     0
100
AcDbLine
 10
128.8333268135
 20
102.5477511904
 30
0.0
 11
128.1801725776
 21
102.6870010441
 31
0.0
  0
LINE
  5
14B
330
1F
100
AcDbEntity
  8
0
  6
HIDDEN
 62
     7
370
     0
100
AcDbLine
 10
130.4836692874
 20
101.7992631353
 30
0.0
 11
129.254941221
 21
101.5050010928
 31
0.0
  0
LWPOLYLINE
  5
14C
330
1F
100
AcDbEntity
  8
0
  6
HIDDEN
 62
     7
370
     0
100
AcDbPolyline
 90
       17
 70
   128
 43
0.0
 10
131.7663033191
 20
102.082032643
 10
131.6670200708
 20
102.5590058246
 10
131.475208291
 20
102.9863133252
 10
131.2200695844
 20
103.2989014515
 10
130.9404465061
 20
103.4491814948
 10
130.678909135
 20
103.4142746808
 10
130.4752741652
 20
103.1994952555
 10
130.3605431747
 20
102.8375414395
 10
130.3521829168
 20
102.38351742
 10
130.451466165
 20
101.9065442384
 10
130.6432779448
 20
101.4792367377
 10
130.8984166515
 20
101.1666486115
 10
131.1780397298
 20
101.0163685682
 10
131.4395771008
 20
101.0512753822
 10
131.6432120707
 20
101.2660548075
 10
131.7579430612
 20
101.6280086235
 10
131.7663033191
 20
102.082032643
  0
LINE
  5
14D
330
1F
100
AcDbEntity
  8
0
  6
HIDDEN
 62
     7
370
     0
100
AcDbLine
 10
130.06205488
 20
102.8420132328
 30
0.0
 11
128.8333268135
 21
102.5477511904
 31
0.0
  0
LINE
  5
14E
330
1F
100
AcDbEntity
  8
0
  6
HIDDEN
 62
     7
370
     0
100
AcDbLine
 10
130.252129459
 20
100.8957628915
 30
0.0
 11
129.598975223
 21
101.0350127453
 31
0.0
  0
LINE
  5
14F
330
1F
100
AcDbEntity
  8
0
  6
HIDDEN
 62
     7
370
     0
100
AcDbLine
 10
129.598975223
 20
101.0350127453
 30
0.0
 11
129.1773608156
 21
102.0777628428
 31
0.0
  0
LINE
  5
150
330
1F
100
AcDbEntity
  8
0
  6
HIDDEN
 62
     7
370
     0
100
AcDbLine
 10
129.408900644
 20
102.9812630865
 30
0.0
 11
129.1773608156
 21
102.0777628428
 31
0.0
  0
LINE
  5
151
330
1F
100
AcDbEntity
  8
0
  6
HIDDEN
 62
     7
370
     0
100
AcDbLine
 10
130.06205488
 20
102.8420132328
 30
0.0
 11
129.408900644
 21
102.9812630865
 31
0.0
  0
LINE
  5
152
330
1F
100
AcDbEntity
  8
0
  6
HIDDEN
 62
     7
370
     0
100
AcDbLine
 10
130.252129459
 20
100.8957628915
 30
0.0
 11
130.4836692874
 21
101.7992631353
 31
0.0
  0
LINE
  5
153
330
1F
100
AcDbEntity
  8
0
  6
HIDDEN
 62
     7
370
     0
100
AcDbLine
 10
130.06205488
 20
102.8420132328
 30
0.0
 11
130.4836692874
 21
101.7992631353
 31
0.0
  0
LINE
  5
154
330
1F
100
AcDbEntity
  8
0
  6
HIDDEN
 62
     7
370
     0
100
AcDbLine
 10
129.598975223
 20
101.0350127453
 30
0.0
 11
128.3702471566
 21
100.7407507028
 31
0.0
  0
LINE
  5
155
330
1F
100
AcDbEntity
  8
0
  6
HIDDEN
 62
     7
370
     0
100
AcDbLine
 10
130.252129459
 20
100.8957628915
 30
0.0
 11
129.0234013925
 21
100.6015008491
 31
0.0
  0
LINE
  5
156
330
1F
100
AcDbEntity
  8
0
  6
HIDDEN
 62
     7
370
     0
100
AcDbLine
 10
129.1773608156
 20
102.0777628428
 30
0.0
 11
127.9486327491
 21
101.7835008003
 31
0.0
  0
LINE
  5
157
330
1F
100
AcDbEntity
  8
0
  6
HIDDEN
 62
     7
370
     0
100
AcDbLine
 10
129.408900644
 20
102.9812630865
 30
0.0
 11
128.1801725776
 21
102.6870010441
 31
0.0
  0
LWPOLYLINE
  5
158
330
1F
100
AcDbEntity
  8
0
  6
HIDDEN
 62
     7
370
     0
100
AcDbPolyline
 90
       20
 70
   128
 43
0.0
 10
131.5761754065
 20
119.2404148101
 10
131.4531615365
 20
118.595400136
 10
131.2208846176
 20
117.9941463673
 10
130.9045154583
 20
117.5018086793
 10
130.538337566
 20
117.1717395
 10
130.162031997
 20
117.0397069465
 10
129.8163772988
 20
117.1200187946
 10
129.5388305213
 20
117.4039720094
 10
129.3594681645
 20
117.8607958542
 10
129.2977269227
 20
118.4409863769
 10
129.3602974176
 20
119.0816709319
 10
129.5403991652
 20
119.7134214064
 10
129.8185153465
 20
120.2677778339
 10
130.1645077578
 20
120.6846670936
 10
130.5408827528
 20
120.9189127657
 10
130.9068542608
 20
120.9451306968
 10
131.2227635901
 20
120.7604797673
 10
131.4543770632
 20
120.3849697706
 10
131.5765957663
 20
119.8592930415
 10
131.5761754065
 20
119.2404148101
  0
LWPOLYLINE
  5
159
330
1F
100
AcDbEntity
  8
0
  6
HIDDEN
 62
     7
370
     0
100
AcDbPolyline
 90
       17
 70
   128
 43
0.0
 10
131.7663033191
 20
119.0028383558
 10
131.6670200708
 20
118.5258651742
 10
131.475208291
 20
118.0985576736
 10
131.2200695844
 20
117.7859695473
 10
130.9404465061
 20
117.635689504
 10
130.678909135
 20
117.670596318
 10
130.4752741652
 20
117.8853757433
 10
130.3605431747
 20
118.2473295593
 10
130.3521829168
 20
118.7013535788
 10
130.451466165
 20
119.1783267604
 10
130.6432779448
 20
119.605634261
 10
130.8984166515
 20
119.9182223873
 10
131.1780397298
 20
120.0685024306
 10
131.4395771008
 20
120.0335956166
 10
131.6432120707
 20
119.8188161913
 10
131.7579430612
 20
119.4568623753
 10
131.7663033191
 20
119.0028383558
  0
LWPOLYLINE
  5
15A
330
1F
100
AcDbEntity
  8
0
  6
HIDDEN
 62
     7
370
     0
100
AcDbPolyline
 90
       20
 70
   128
 43
0.0
 10
129.9175289917
 20
119.6376358838
 10
129.7945151216
 20
118.9926212096
 10
129.5622382027
 20
118.3913674409
 10
129.2458690435
 20
117.8990297529
 10
128.8796911511
 20
117.5689605736
 10
128.5033855821
 20
117.4369280201
 10
128.1577308839
 20
117.5172398682
 10
127.8801841064
 20
117.801193083
 10
127.7008217496
 20
118.2580169278
 10
127.6390805079
 20
118.8382074505
 10
127.7016510028
 20
119.4788920056
 10
127.8817527503
 20
120.1106424801
 10
128.1598689316
 20
120.6649989075
 10
128.5058613429
 20
121.0818881673
 10
128.882236338
 20
121.3161338393
 10
129.2482078459
 20
121.3423517705
 10
129.5641171752
 20
121.157700841
 10
129.7957306483
 20
120.7821908443
 10
129.9179493514
 20
120.2565141151
 10
129.9175289917
 20
119.6376358838
  0
LINE
  5
15B
330
1F
100
AcDbEntity
  8
0
  6
HIDDEN
 62
     7
370
     0
100
AcDbLine
 10
129.598975223
 20
120.0498582535
 30
0.0
 11
129.1773608156
 21
119.007108156
 31
0.0
  0
LINE
  5
15C
330
1F
100
AcDbEntity
  8
0
  6
HIDDEN
 62
     7
370
     0
100
AcDbLine
 10
129.408900644
 20
118.1036079122
 30
0.0
 11
129.1773608156
 21
119.007108156
 31
0.0
  0
LINE
  5
15D
330
1F
100
AcDbEntity
  8
0
  6
HIDDEN
 62
     7
370
     0
100
AcDbLine
 10
129.1773608156
 20
119.007108156
 30
0.0
 11
127.9486327491
 21
119.3013701985
 31
0.0
  0
LINE
  5
15E
330
1F
100
AcDbEntity
  8
0
  6
HIDDEN
 62
     7
370
     0
100
AcDbLine
 10
128.1801725776
 20
118.3978699547
 30
0.0
 11
127.9486327491
 21
119.3013701985
 31
0.0
  0
LINE
  5
15F
330
1F
100
AcDbEntity
  8
0
  6
HIDDEN
 62
     7
370
     0
100
AcDbLine
 10
128.3702471566
 20
120.344120296
 30
0.0
 11
127.9486327491
 21
119.3013701985
 31
0.0
  0
LWPOLYLINE
  5
160
330
1F
100
AcDbEntity
  8
0
  6
HIDDEN
 62
     7
370
     0
100
AcDbPolyline
 90
       18
 70
   128
 43
0.0
 10
129.5124805241
 20
119.6347762486
 10
129.3957098194
 20
119.0556966071
 10
129.1717154365
 20
118.5286030097
 10
128.8707490583
 20
118.1246823676
 10
128.5334578616
 20
117.8984864017
 10
128.2053948917
 20
117.8805641305
 10
127.9308668705
 20
118.0733360561
 10
127.7469503285
 20
118.4507672618
 10
127.6784842137
 20
118.9618835718
 10
127.7347152544
 20
119.5376558962
 10
127.908049137
 20
120.1003229922
 10
128.17507616
 20
120.5738935506
 10
128.4997328445
 20
120.8944092434
 10
128.8381725061
 20
121.0185826502
 10
129.1446869933
 20
120.9296434643
 10
129.377879826
 20
120.6396034157
 10
129.5062570201
 20
120.18763402
 10
129.5124805241
 20
119.6347762486
  0
LINE
  5
161
330
1F
100
AcDbEntity
  8
0
  6
HIDDEN
 62
     7
370
     0
100
AcDbLine
 10
129.0234013925
 20
120.4833701497
 30
0.0
 11
128.3702471566
 21
120.344120296
 31
0.0
  0
LINE
  5
162
330
1F
100
AcDbEntity
  8
0
  6
HIDDEN
 62
     7
370
     0
100
AcDbLine
 10
130.252129459
 20
120.1891081073
 30
0.0
 11
129.598975223
 21
120.0498582535
 31
0.0
  0
LINE
  5
163
330
1F
100
AcDbEntity
  8
0
  6
HIDDEN
 62
     7
370
     0
100
AcDbLine
 10
129.598975223
 20
120.0498582535
 30
0.0
 11
128.3702471566
 21
120.344120296
 31
0.0
  0
LINE
  5
164
330
1F
100
AcDbEntity
  8
0
  6
HIDDEN
 62
     7
370
     0
100
AcDbLine
 10
130.06205488
 20
118.242857766
 30
0.0
 11
128.8333268135
 21
118.5371198084
 31
0.0
  0
LINE
  5
165
330
1F
100
AcDbEntity
  8
0
  6
HIDDEN
 62
     7
370
     0
100
AcDbLine
 10
128.8333268135
 20
118.5371198084
 30
0.0
 11
128.1801725776
 21
118.3978699547
 31
0.0
  0
LINE
  5
166
330
1F
100
AcDbEntity
  8
0
  6
HIDDEN
 62
     7
370
     0
100
AcDbLine
 10
129.408900644
 20
118.1036079122
 30
0.0
 11
128.1801725776
 21
118.3978699547
 31
0.0
  0
LINE
  5
167
330
1F
100
AcDbEntity
  8
0
  6
HIDDEN
 62
     7
370
     0
100
AcDbLine
 10
130.06205488
 20
118.242857766
 30
0.0
 11
129.408900644
 21
118.1036079122
 31
0.0
  0
LINE
  5
168
330
1F
100
AcDbEntity
  8
0
  6
HIDDEN
 62
     7
370
     0
100
AcDbLine
 10
130.4836692874
 20
119.2856078635
 30
0.0
 11
129.254941221
 21
119.5798699059
 31
0.0
  0
LINE
  5
169
330
1F
100
AcDbEntity
  8
0
  6
HIDDEN
 62
     7
370
     0
100
AcDbLine
 10
130.252129459
 20
120.1891081073
 30
0.0
 11
129.0234013925
 21
120.4833701497
 31
0.0
  0
LINE
  5
16A
330
1F
100
AcDbEntity
  8
0
  6
HIDDEN
 62
     7
370
     0
100
AcDbLine
 10
129.0234013925
 20
120.4833701497
 30
0.0
 11
129.254941221
 21
119.5798699059
 31
0.0
  0
LINE
  5
16B
330
1F
100
AcDbEntity
  8
0
  6
HIDDEN
 62
     7
370
     0
100
AcDbLine
 10
130.252129459
 20
120.1891081073
 30
0.0
 11
130.4836692874
 21
119.2856078635
 31
0.0
  0
LINE
  5
16C
330
1F
100
AcDbEntity
  8
0
  6
HIDDEN
 62
     7
370
     0
100
AcDbLine
 10
128.8333268135
 20
118.5371198084
 30
0.0
 11
129.254941221
 21
119.5798699059
 31
0.0
  0
LINE
  5
16D
330
1F
100
AcDbEntity
  8
0
  6
HIDDEN
 62
     7
370
     0
100
AcDbLine
 10
130.06205488
 20
118.242857766
 30
0.0
 11
130.4836692874
 21
119.2856078635
 31
0.0
  0
LINE
  5
16E
330
1F
100
AcDbEntity
  8
0
  6
HIDDEN
 62
     7
370
     0
100
AcDbLine
 10
138.9972764687
 20
99.6835924299
 30
0.0
 11
138.9972764687
 21
102.5049621312
 31
0.0
  0
LINE
  5
16F
330
1F
100
AcDbEntity
  8
0
  6
HIDDEN
 62
     7
370
     0
100
AcDbLine
 10
134.9972764687
 20
102.488007897
 30
0.0
 11
134.9972764687
 21
100.9665519006
 31
0.0
  0
LINE
  5
170
330
1F
100
AcDbEntity
  8
0
  6
HIDDEN
 62
     7
370
     0
100
AcDbLine
 10
127.1972764687
 20
99.1485104238
 30
0.0
 11
129.0908758089
 21
99.6019992181
 31
0.0
  0
LINE
  5
171
330
1F
100
AcDbEntity
  8
0
  6
HIDDEN
 62
     7
370
     0
100
AcDbLine
 10
128.1126981612
 20
103.686502675
 30
0.0
 11
127.1972764687
 21
103.4672728354
 31
0.0
  0
LINE
  5
172
330
1F
100
AcDbEntity
  8
0
  6
HIDDEN
 62
     7
370
     0
100
AcDbLine
 10
129.1202371936
 20
100.0717553759
 30
0.0
 11
136.327297628
 21
101.7977388391
 31
0.0
  0
LINE
  5
173
330
1F
100
AcDbEntity
  8
0
  6
HIDDEN
 62
     7
370
     0
100
AcDbLine
 10
136.327297628
 20
105.1910521626
 30
0.0
 11
128.3516690418
 21
103.281008092
 31
0.0
  0
LINE
  5
174
330
1F
100
AcDbEntity
  8
0
  6
HIDDEN
 62
     7
370
     0
100
AcDbLine
 10
138.6472764687
 20
102.5485319343
 30
0.0
 11
138.6472764687
 21
109.6885729884
 31
0.0
  0
LINE
  5
175
330
1F
100
AcDbEntity
  8
0
  6
HIDDEN
 62
     7
370
     0
100
AcDbLine
 10
135.3472764687
 20
102.5707713779
 30
0.0
 11
135.3472764687
 21
102.5485319343
 31
0.0
  0
LINE
  5
176
330
1F
100
AcDbEntity
  8
0
  6
HIDDEN
 62
     7
370
     0
100
AcDbLine
 10
135.3472764687
 20
109.6916247341
 30
0.0
 11
135.3472764687
 21
103.9486187273
 31
0.0
  0
ARC
  5
177
330
1F
100
AcDbEntity
  8
0
  6
HIDDEN
 62
     7
370
     0
100
AcDbCircle
 10
56.5472764687
 20
101.2424354994
 30
0.0
 40
0.7999999999999972
100
AcDbArc
 50
90.0
 51
180.0
  0
ARC
  5
178
330
1F
100
AcDbEntity
  8
0
  6
HIDDEN
 62
     7
370
     0
100
AcDbCircle
 10
56.5472764687
 20
119.8424354994
 30
0.0
 40
0.7999999999999972
100
AcDbArc
 50
180.0
 51
270.0
  0
LINE
  5
179
330
1F
100
AcDbEntity
  8
0
  6
HIDDEN
 62
     7
370
     0
100
AcDbLine
 10
63.6396488995
 20
101.8174354994
 30
0.0
 11
64.516336361
 21
101.8174354994
 31
0.0
  0
LINE
  5
17A
330
1F
100
AcDbEntity
  8
0
  6
HIDDEN
 62
     7
370
     0
100
AcDbLine
 10
64.516336361
 20
119.2674354994
 30
0.0
 11
63.6396488995
 21
119.2674354994
 31
0.0
  0
ARC
  5
17B
330
1F
100
AcDbEntity
  8
0
  6
HIDDEN
 62
     7
370
     0
100
AcDbCircle
 10
64.516336361
 20
102.2174354994
 30
0.0
 40
0.4000000000000199
100
AcDbArc
 50
270.0
 51
330.0
  0
ARC
  5
17C
330
1F
100
AcDbEntity
  8
0
  6
HIDDEN
 62
     7
370
     0
100
AcDbCircle
 10
64.516336361
 20
118.8674354994
 30
0.0
 40
0.4000000000000244
100
AcDbArc
 50
30.0
 51
90.0
  0
ARC
  5
17D
330
1F
100
AcDbEntity
  8
0
  6
HIDDEN
 62
     7
370
     0
100
AcDbCircle
 10
63.6396488995
 20
102.2174354994
 30
0.0
 40
0.4000000000000057
100
AcDbArc
 50
255.0
 51
270.0
  0
ARC
  5
17E
330
1F
100
AcDbEntity
  8
0
  6
HIDDEN
 62
     7
370
     0
100
AcDbCircle
 10
63.6396488995
 20
118.8674354994
 30
0.0
 40
0.4000000000000057
100
AcDbArc
 50
90.0
 51
105.0
  0
LINE
  5
17F
330
1F
100
AcDbEntity
  8
0
  6
HIDDEN
 62
     7
370
     0
100
AcDbLine
 10
63.5361212814
 20
119.2538058299
 30
0.0
 11
62.7472764687
 21
119.0424354994
 31
0.0
  0
LINE
  5
180
330
1F
100
AcDbEntity
  8
0
  6
HIDDEN
 62
     7
370
     0
100
AcDbLine
 10
62.7472764687
 20
102.0424354994
 30
0.0
 11
63.5361212814
 21
101.8310651689
 31
0.0
  0
LINE
  5
181
330
1F
100
AcDbEntity
  8
0
  6
HIDDEN
 62
     7
370
     0
100
AcDbLine
 10
64.8627465226
 20
102.0174354994
 30
0.0
 11
65.7432056831
 21
103.5424354994
 31
0.0
  0
LINE
  5
182
330
1F
100
AcDbEntity
  8
0
  6
HIDDEN
 62
     7
370
     0
100
AcDbLine
 10
65.7432056831
 20
117.5424354994
 30
0.0
 11
64.8627465226
 21
119.0674354994
 31
0.0
  0
LINE
  5
183
330
1F
100
AcDbEntity
  8
0
  6
HIDDEN
 62
     7
370
     0
100
AcDbLine
 10
56.5472764687
 20
102.0424354994
 30
0.0
 11
62.7472764687
 21
102.0424354994
 31
0.0
  0
LINE
  5
184
330
1F
100
AcDbEntity
  8
0
  6
HIDDEN
 62
     7
370
     0
100
AcDbLine
 10
62.7472764687
 20
119.0424354994
 30
0.0
 11
56.5472764687
 21
119.0424354994
 31
0.0
  0
ARC
  5
185
330
1F
100
AcDbEntity
  8
0
  6
HIDDEN
 62
     7
370
     0
100
AcDbCircle
 10
242.9972764687
 20
118.5424354994
 30
0.0
 40
1.0
100
AcDbArc
 50
270.0
 51
0.0
  0
ARC
  5
186
330
1F
100
AcDbEntity
  8
0
  6
HIDDEN
 62
     7
370
     0
100
AcDbCircle
 10
242.9972764687
 20
102.5424354994
 30
0.0
 40
1.0
100
AcDbArc
 50
0.0
 51
90.0
  0
ARC
  5
187
330
1F
100
AcDbEntity
  8
0
  6
HIDDEN
 62
     7
370
     0
100
AcDbCircle
 10
226.8919544707
 20
117.2424354994
 30
0.0
 40
0.8000000000000056
100
AcDbArc
 50
75.0
 51
90.0
  0
ARC
  5
188
330
1F
100
AcDbEntity
  8
0
  6
HIDDEN
 62
     7
370
     0
100
AcDbCircle
 10
226.8919544707
 20
103.8424354994
 30
0.0
 40
0.8000000000000056
100
AcDbArc
 50
270.0
 51
285.0
  0
LINE
  5
189
330
1F
100
AcDbEntity
  8
0
  6
HIDDEN
 62
     7
370
     0
100
AcDbLine
 10
226.8919544707
 20
118.0424354994
 30
0.0
 11
226.2972764687
 21
118.0424354994
 31
0.0
  0
LINE
  5
18A
330
1F
100
AcDbEntity
  8
0
  6
HIDDEN
 62
     7
370
     0
100
AcDbLine
 10
226.2972764687
 20
103.0424354994
 30
0.0
 11
226.8919544707
 21
103.0424354994
 31
0.0
  0
ARC
  5
18B
330
1F
100
AcDbEntity
  8
0
  6
HIDDEN
 62
     7
370
     0
100
AcDbCircle
 10
226.2972764687
 20
117.2424354994
 30
0.0
 40
0.7999999999999972
100
AcDbArc
 50
90.0
 51
180.0
  0
ARC
  5
18C
330
1F
100
AcDbEntity
  8
0
  6
HIDDEN
 62
     7
370
     0
100
AcDbCircle
 10
226.2972764687
 20
103.8424354994
 30
0.0
 40
0.7999999999999972
100
AcDbArc
 50
180.0
 51
270.0
  0
LINE
  5
18D
330
1F
100
AcDbEntity
  8
0
  6
HIDDEN
 62
     7
370
     0
100
AcDbLine
 10
227.0990097067
 20
103.0696948384
 30
0.0
 11
228.8633018725
 21
103.5424354994
 31
0.0
  0
LINE
  5
18E
330
1F
100
AcDbEntity
  8
0
  6
HIDDEN
 62
     7
370
     0
100
AcDbLine
 10
228.8633018725
 20
117.5424354994
 30
0.0
 11
227.0990097067
 21
118.0151761604
 31
0.0
  0
LINE
  5
18F
330
1F
100
AcDbEntity
  8
0
  6
HIDDEN
 62
     7
370
     0
100
AcDbLine
 10
242.9972764687
 20
117.5424354994
 30
0.0
 11
228.8633018725
 21
117.5424354994
 31
0.0
  0
LINE
  5
190
330
1F
100
AcDbEntity
  8
0
  6
HIDDEN
 62
     7
370
     0
100
AcDbLine
 10
228.8633018725
 20
103.5424354994
 30
0.0
 11
242.9972764687
 21
103.5424354994
 31
0.0
  0
LINE
  5
191
330
1F
100
AcDbEntity
  8
0
  6
HIDDEN
 62
     7
370
     0
100
AcDbLine
 10
65.7432056831
 20
103.5424354994
 30
0.0
 11
98.7472764687
 21
103.5424354994
 31
0.0
  0
LINE
  5
192
330
1F
100
AcDbEntity
  8
0
  6
HIDDEN
 62
     7
370
     0
100
AcDbLine
 10
98.7472764687
 20
117.5424354994
 30
0.0
 11
65.7432056831
 21
117.5424354994
 31
0.0
  0
LINE
  5
193
330
1F
100
AcDbEntity
  8
0
  6
HIDDEN
 62
     7
370
     0
100
AcDbLine
 10
98.7472764687
 20
103.5424354994
 30
0.0
 11
101.4511492543
 21
108.0424354994
 31
0.0
  0
LINE
  5
194
330
1F
100
AcDbEntity
  8
0
  6
HIDDEN
 62
     7
370
     0
100
AcDbLine
 10
101.4511492543
 20
113.0424354994
 30
0.0
 11
98.7472764687
 21
117.5424354994
 31
0.0
  0
LINE
  5
195
330
1F
100
AcDbEntity
  8
0
  6
HIDDEN
 62
     7
370
     0
100
AcDbLine
 10
225.4972764687
 20
113.0424354994
 30
0.0
 11
101.4511492543
 21
113.0424354994
 31
0.0
  0
LINE
  5
196
330
1F
100
AcDbEntity
  8
0
  6
HIDDEN
 62
     7
370
     0
100
AcDbLine
 10
101.4511492543
 20
108.0424354994
 30
0.0
 11
225.4972764687
 21
108.0424354994
 31
0.0
  0
LINE
  5
197
330
1F
100
AcDbEntity
  8
0
  6
HIDDEN
 62
     7
370
     0
100
AcDbLine
 10
138.6472764687
 20
111.3964346083
 30
0.0
 11
138.6472764687
 21
118.5363390645
 31
0.0
  0
LINE
  5
198
330
1F
100
AcDbEntity
  8
0
  6
HIDDEN
 62
     7
370
     0
100
AcDbLine
 10
135.3472764687
 20
117.1362522715
 30
0.0
 11
135.3472764687
 21
111.397229722
 31
0.0
  0
LINE
  5
199
330
1F
100
AcDbEntity
  8
0
  6
HIDDEN
 62
     7
370
     0
100
AcDbLine
 10
135.3472764687
 20
118.5363390645
 30
0.0
 11
135.3472764687
 21
118.5140996209
 31
0.0
  0
LINE
  5
19A
330
1F
100
AcDbEntity
  8
0
  6
HIDDEN
 62
     7
370
     0
100
AcDbLine
 10
128.3516690418
 20
117.8038629068
 30
0.0
 11
136.327297628
 21
115.8938188362
 31
0.0
  0
LINE
  5
19B
330
1F
100
AcDbEntity
  8
0
  6
HIDDEN
 62
     7
370
     0
100
AcDbLine
 10
136.327297628
 20
119.2871321596
 30
0.0
 11
129.1202371936
 21
121.0131156229
 31
0.0
  0
LINE
  5
19C
330
1F
100
AcDbEntity
  8
0
  6
HIDDEN
 62
     7
370
     0
100
AcDbLine
 10
138.9972764687
 20
118.5799088675
 30
0.0
 11
138.9972764687
 21
121.4012785689
 31
0.0
  0
LINE
  5
19D
330
1F
100
AcDbEntity
  8
0
  6
HIDDEN
 62
     7
370
     0
100
AcDbLine
 10
134.9972764687
 20
120.1183190982
 30
0.0
 11
134.9972764687
 21
118.5968631018
 31
0.0
  0
LINE
  5
19E
330
1F
100
AcDbEntity
  8
0
  6
HIDDEN
 62
     7
370
     0
100
AcDbLine
 10
127.1972764687
 20
117.6175981634
 30
0.0
 11
128.1126981612
 21
117.3983683237
 31
0.0
  0
LINE
  5
19F
330
1F
100
AcDbEntity
  8
0
  6
HIDDEN
 62
     7
370
     0
100
AcDbLine
 10
129.0908758089
 20
121.4828717807
 30
0.0
 11
127.1972764687
 21
121.936360575
 31
0.0
  0
LINE
  5
1A0
330
1F
100
AcDbEntity
  8
0
  6
HIDDEN
 62
     7
370
     0
100
AcDbLine
 10
138.9972764687
 20
118.5799088675
 30
0.0
 11
138.9972764687
 21
118.9048280037
 31
0.0
  0
LINE
  5
1A1
330
1F
100
AcDbEntity
  8
0
  6
HIDDEN
 62
     7
370
     0
100
AcDbLine
 10
134.9972764687
 20
118.9048280037
 30
0.0
 11
134.9972764687
 21
118.5799088675
 31
0.0
  0
LINE
  5
1A2
330
1F
100
AcDbEntity
  8
0
  6
HIDDEN
 62
     7
370
     0
100
AcDbLine
 10
138.4972764687
 20
118.8419049859
 30
0.0
 11
138.4972764687
 21
119.8453833979
 31
0.0
  0
LINE
  5
1A3
330
1F
100
AcDbEntity
  8
0
  6
HIDDEN
 62
     7
370
     0
100
AcDbLine
 10
135.4972764687
 20
119.8453833979
 30
0.0
 11
135.4972764687
 21
118.8419049859
 31
0.0
  0
LINE
  5
1A4
330
1F
100
AcDbEntity
  8
0
  6
HIDDEN
 62
     7
370
     0
100
AcDbLine
 10
138.9972764687
 20
119.6743733262
 30
0.0
 11
138.9972764687
 21
119.8111813835
 31
0.0
  0
LINE
  5
1A5
330
1F
100
AcDbEntity
  8
0
  6
HIDDEN
 62
     7
370
     0
100
AcDbLine
 10
134.9972764687
 20
119.8111813835
 30
0.0
 11
134.9972764687
 21
119.6743733262
 31
0.0
  0
LINE
  5
1A6
330
1F
100
AcDbEntity
  8
0
  6
HIDDEN
 62
     7
370
     0
100
AcDbLine
 10
134.9972764687
 20
101.4104976726
 30
0.0
 11
134.9972764687
 21
101.2736896153
 31
0.0
  0
LINE
  5
1A7
330
1F
100
AcDbEntity
  8
0
  6
HIDDEN
 62
     7
370
     0
100
AcDbLine
 10
138.9972764687
 20
101.2736896153
 30
0.0
 11
138.9972764687
 21
101.4104976726
 31
0.0
  0
LINE
  5
1A8
330
1F
100
AcDbEntity
  8
0
  6
HIDDEN
 62
     7
370
     0
100
AcDbLine
 10
135.4972764687
 20
102.2429660128
 30
0.0
 11
135.4972764687
 21
101.2394876009
 31
0.0
  0
LINE
  5
1A9
330
1F
100
AcDbEntity
  8
0
  6
HIDDEN
 62
     7
370
     0
100
AcDbLine
 10
138.4972764687
 20
101.2394876009
 30
0.0
 11
138.4972764687
 21
102.2429660128
 31
0.0
  0
LINE
  5
1AA
330
1F
100
AcDbEntity
  8
0
  6
HIDDEN
 62
     7
370
     0
100
AcDbLine
 10
134.9972764687
 20
102.5049621312
 30
0.0
 11
134.9972764687
 21
102.1800429951
 31
0.0
  0
LINE
  5
1AB
330
1F
100
AcDbEntity
  8
0
  6
HIDDEN
 62
     7
370
     0
100
AcDbLine
 10
138.9972764687
 20
102.1800429951
 30
0.0
 11
138.9972764687
 21
102.5049621312
 31
0.0
  0
CIRCLE
  5
1AC
330
1F
100
AcDbEntity
  8
0
  6
HIDDEN
 62
     7
370
     0
100
AcDbCircle
 10
136.9972764687
 20
119.2639491542
 30
0.0
 40
1.499999999999994
  0
ARC
  5
1AD
330
1F
100
AcDbEntity
  8
0
  6
HIDDEN
 62
     7
370
     0
100
AcDbCircle
 10
136.9972764687
 20
101.8209218446
 30
0.0
 40
1.500000000000009
100
AcDbArc
 50
71.1182787691
 51
191.5274417158
  0
ARC
  5
1AE
330
1F
100
AcDbEntity
  8
0
  6
HIDDEN
 62
     7
370
     0
100
AcDbCircle
 10
136.9972764687
 20
101.8209218446
 30
0.0
 40
1.500000000000005
100
AcDbArc
 50
336.6037645748
 51
71.1182787691
  0
LINE
  5
1AF
330
1F
100
AcDbEntity
  8
0
  6
HIDDEN
 62
     7
370
     0
100
AcDbLine
 10
129.2520315497
 20
99.7434212905
 30
0.0
 11
130.9106779645
 21
100.1406423641
 31
0.0
  0
LINE
  5
1B0
330
1F
100
AcDbEntity
  8
0
  6
HIDDEN
 62
     7
370
     0
100
AcDbLine
 10
129.9790802049
 20
104.0306456564
 30
0.0
 11
128.32043379
 21
103.6334245828
 31
0.0
  0
LINE
  5
1B1
330
1F
100
AcDbEntity
  8
0
  6
HIDDEN
 62
     7
370
     0
100
AcDbLine
 10
131.4736417119
 20
100.7516178534
 30
0.0
 11
131.7022197599
 21
101.3990086834
 31
0.0
  0
LINE
  5
1B2
330
1F
100
AcDbEntity
  8
0
  6
HIDDEN
 62
     7
370
     0
100
AcDbLine
 10
131.2547792439
 20
103.267352679
 30
0.0
 11
130.7577368862
 21
103.7409682463
 31
0.0
  0
LINE
  5
1B3
330
1F
100
AcDbEntity
  8
0
  6
HIDDEN
 62
     7
370
     0
100
AcDbLine
 10
130.7577368862
 20
117.3439027525
 30
0.0
 11
131.2547792439
 21
117.8175183198
 31
0.0
  0
LINE
  5
1B4
330
1F
100
AcDbEntity
  8
0
  6
HIDDEN
 62
     7
370
     0
100
AcDbLine
 10
131.7022197599
 20
119.6858623153
 30
0.0
 11
131.4736417119
 21
120.3332531454
 31
0.0
  0
LINE
  5
1B5
330
1F
100
AcDbEntity
  8
0
  6
HIDDEN
 62
     7
370
     0
100
AcDbLine
 10
128.32043379
 20
117.451446416
 30
0.0
 11
129.9790802049
 21
117.0542253424
 31
0.0
  0
LINE
  5
1B6
330
1F
100
AcDbEntity
  8
0
  6
HIDDEN
 62
     7
370
     0
100
AcDbLine
 10
130.9106779645
 20
120.9442286347
 30
0.0
 11
129.2520315497
 21
121.3414497083
 31
0.0
  0
DIMENSION
  5
1B7
330
1F
100
AcDbEntity
  8
VERMASSUNG
100
AcDbDimension
  2
_D
 10
45.7472764687
 20
142.2924354994
 30
0.0
 11
45.7472764687
 21
110.5424354994
 31
0.0
 70
   160
  1
ISO 40 %%c<>
 71
     2
 42
-1.0
  3
SLDDIMSTYLE0
100
AcDbAlignedDimension
 13
142.4472764687
 23
78.7924354994
 33
0.0
 14
142.4472764687
 24
142.2924354994
 34
0.0
 50
90.0
100
AcDbRotatedDimension
  0
DIMENSION
  5
1C4
330
1F
100
AcDbEntity
  8
VERMASSUNG
100
AcDbDimension
  2
_D_1
 10
250.4028582337
 20
103.5424354994
 30
0.0
 11
250.4028582337
 21
110.5424354994
 31
0.0
 70
   160
  1
%%c<>
 71
     2
 42
-1.0
  3
SLDDIMSTYLE0
100
AcDbAlignedDimension
 13
242.9972764687
 23
117.5424354994
 33
0.0
 14
242.9972764687
 24
103.5424354994
 34
0.0
 50
90.0
100
AcDbRotatedDimension
  0
DIMENSION
  5
1CF
330
1F
100
AcDbEntity
  8
VERMASSUNG
100
AcDbDimension
  2
_D_2
 10
256.7028582337
 20
123.0424354994
 30
0.0
 11
256.7028582337
 21
110.5424354994
 31
0.0
 70
   160
  1
WH%%c<>
 71
     2
 42
-1.0
  3
SLDDIMSTYLE0
100
AcDbAlignedDimension
 13
243.7972764687
 23
98.0424354994
 33
0.0
 14
243.7972764687
 24
123.0424354994
 34
0.0
 50
90.0
100
AcDbRotatedDimension
  0
DIMENSION
  5
1DB
330
1F
100
AcDbEntity
  8
VERMASSUNG
100
AcDbDimension
  2
_D_3
 10
143.0472764687
 20
146.2918783591
 30
0.0
 11
193.5222764687
 21
146.2918783591
 31
0.0
 70
   160
  1
<>
 71
     2
 42
-1.0
  3
SLDDIMSTYLE0
100
AcDbAlignedDimension
 13
243.9972764687
 23
122.8424354994
 33
0.0
 14
143.0472764687
 24
135.7138478555
 34
0.0
100
AcDbRotatedDimension
  0
DIMENSION
  5
1E5
330
1F
100
AcDbEntity
  8
VERMASSUNG
100
AcDbDimension
  2
_D_4
 10
123.9972764687
 20
152.2918783591
 30
0.0
 11
183.9972764687
 21
152.2918783591
 31
0.0
 70
   160
  1
<>
 71
     2
 42
-1.0
  3
SLDDIMSTYLE0
100
AcDbAlignedDimension
 13
243.9972764687
 23
122.8424354994
 33
0.0
 14
123.9972764687
 24
132.7674354994
 34
0.0
100
AcDbRotatedDimension
  0
DIMENSION
  5
1EF
330
1F
100
AcDbEntity
  8
VERMASSUNG
100
AcDbDimension
  2
_D_5
 10
55.7472764687
 20
158.2918783591
 30
0.0
 11
149.8722764687
 21
158.2918783591
 31
0.0
 70
   160
  1
<>
 71
     2
 42
-1.0
  3
SLDDIMSTYLE0
100
AcDbAlignedDimension
 13
243.9972764687
 23
122.8424354994
 33
0.0
 14
55.7472764687
 24
121.9495660964
 34
0.0
100
AcDbRotatedDimension
  0
LINE
  5
1F9
330
1F
100
AcDbEntity
  8
VERMASSUNG
  6
CENTERX2
370
     0
100
AcDbLine
 10
53.9491684046
 20
110.5424354994
 30
0.0
 11
245.4972764687
 21
110.5424354994
 31
0.0
  0
LINE
  5
1FA
330
1F
100
AcDbEntity
  8
0
  6
Continuous
 62
     7
370
    15
100
AcDbLine
 10
274.7948445964
 20
25.0227839126
 30
0.0
 11
274.865543782
 21
25.0636109526
 31
0.0
  0
LINE
  5
1FB
330
1F
100
AcDbEntity
  8
0
  6
Continuous
 62
     7
370
    15
100
AcDbLine
 10
279.2135436992
 20
32.5953838037
 30
0.0
 11
279.2135436992
 21
32.6770246149
 31
0.0
  0
LINE
  5
1FC
330
1F
100
AcDbEntity
  8
0
  6
Continuous
 62
     7
370
    15
100
AcDbLine
 10
277.9188723563
 20
35.5385546553
 30
0.0
 11
243.3590284258
 21
55.489527888
 31
0.0
  0
LINE
  5
1FD
330
1F
100
AcDbEntity
  8
0
  6
Continuous
 62
     7
370
    15
100
AcDbLine
 10
237.1095363468
 20
44.6639171082
 30
0.0
 11
271.6693802773
 21
24.7129438756
 31
0.0
  0
SPLINE
  5
1FE
330
1F
100
AcDbEntity
  8
0
  6
Continuous
 62
     7
370
    15
100
AcDbSpline
210
0.0
220
0.0
230
1.0
 70
     8
 71
     3
 72
    21
 73
    17
 74
     0
 42
0.000000001
 43
0.00000001
 40
0.0
 40
0.0
 40
0.0
 40
0.0
 40
0.0535146222401917
 40
0.1327970036486519
 40
0.2075064707532607
 40
0.2871771322559184
 40
0.365327448613884
 40
0.4433592834716151
 40
0.5217489746124259
 40
0.6005599404188673
 40
0.6796502311761969
 40
0.7588200050318222
 40
0.8378064375133492
 40
0.9163708711136619
 40
0.9901181266481154
 40
1.0
 40
1.0
 40
1.0
 40
1.0
 10
272.7811052392531
 20
27.26154689483476
 30
0.0
 10
272.7259648890542
 20
27.29074822945402
 30
0.0
 10
272.5891336272414
 20
27.36321159699076
 30
0.0
 10
272.4216989984832
 20
27.58036874839771
 30
0.0
 10
272.2685989251123
 20
27.9177303031393
 30
0.0
 10
272.1824766995122
 20
28.35726831941276
 30
0.0
 10
272.1766979605689
 20
28.88451719356666
 30
0.0
 10
272.2575425707897
 20
29.46518639806663
 30
0.0
 10
272.4245935509705
 20
30.07836435130473
 30
0.0
 10
272.6738401973865
 20
30.70066400822242
 30
0.0
 10
272.9969627929688
 20
31.30729493569296
 30
0.0
 10
273.3815089388942
 20
31.87360210183159
 30
0.0
 10
273.8114979635659
 20
32.37693119131529
 30
0.0
 10
274.2595445084125
 20
32.78938560271883
 30
0.0
 10
274.5799353969118
 20
33.01592086254514
 30
0.0
 10
274.7421012722167
 20
33.11094174625237
 30
0.0
 10
274.7612632874511
 20
33.12216970415511
 30
0.0
  0
SPLINE
  5
1FF
330
1F
100
AcDbEntity
  8
0
  6
Continuous
 62
     7
370
    15
100
AcDbSpline
210
0.0
220
0.0
230
1.0
 70
     8
 71
     3
 72
    12
 73
     8
 74
     0
 42
0.000000001
 43
0.00000001
 40
0.0
 40
0.0
 40
0.0
 40
0.0
 40
0.1278340551113863
 40
0.3718726138015915
 40
0.6159351132334265
 40
0.8649243138235081
 40
1.0
 40
1.0
 40
1.0
 40
1.0
 10
274.7612632874511
 20
33.12216970415511
 30
0.0
 10
274.8388736912016
 20
33.16436612473361
 30
0.0
 10
275.0646443880297
 20
33.28711661715857
 30
0.0
 10
275.4201022466635
 20
33.41079776790838
 30
0.0
 10
275.790663369791
 20
33.45357884095932
 30
0.0
 10
276.0547842355509
 20
33.42399968850831
 30
0.0
 10
276.1767253872169
 20
33.35292302077648
 30
0.0
 10
276.2196121110544
 20
33.32792534461336
 30
0.0
  0
SPLINE
  5
200
330
1F
100
AcDbEntity
  8
0
  6
Continuous
 62
     7
370
    15
100
AcDbSpline
210
0.0
220
0.0
230
1.0
 70
     8
 71
     3
 72
    27
 73
    23
 74
     0
 42
0.000000001
 43
0.00000001
 40
0.0
 40
0.0
 40
0.0
 40
0.0
 40
0.0176239480595929
 40
0.0705649813259566
 40
0.123709299590175
 40
0.1769970772183144
 40
0.2303685834134315
 40
0.2837774728282986
 40
0.337189691298024
 40
0.3905882589302587
 40
0.443967499437977
 40
0.4973266224727537
 40
0.5506676416903176
 40
0.603994090216512
 40
0.6573102807869701
 40
0.7106209082098985
 40
0.7639308534775721
 40
0.8172442414470493
 40
0.8705653068619091
 40
0.9238991091105146
 40
0.9772506349801521
 40
1.0
 40
1.0
 40
1.0
 40
1.0
 10
238.4796380090468
 20
68.30282865542888
 30
0.0
 10
238.3757954466013
 20
68.30334078648553
 30
0.0
 10
237.9600175258409
 20
68.30539132126506
 30
0.0
 10
237.1951759706461
 20
68.18352476942863
 30
0.0
 10
236.1937524994866
 20
67.93738402263112
 30
0.0
 10
235.1691216590244
 20
67.56290524746828
 30
0.0
 10
234.1335501695099
 20
67.07421815662062
 30
0.0
 10
233.0952043592729
 20
66.47278453943808
 30
0.0
 10
232.0632311453747
 20
65.76480359447662
 30
0.0
 10
231.046254119138
 20
64.95633776730266
 30
0.0
 10
230.0527110953079
 20
64.05445800364176
 30
0.0
 10
229.0907626487978
 20
63.06685338457657
 30
0.0
 10
228.1683044275205
 20
62.0018842365949
 30
0.0
 10
227.2929145936188
 20
60.86850205793667
 30
0.0
 10
226.47179704503
 20
59.67619144074695
 30
0.0
 10
225.7117463429835
 20
58.43490250828523
 30
0.0
 10
225.019019444281
 20
57.15496072459117
 30
0.0
 10
224.3995726938993
 20
55.84705592457542
 30
0.0
 10
223.8579275491813
 20
54.52187686175267
 30
0.0
 10
223.4011732979384
 20
53.19102243019566
 30
0.0
 10
223.0960356023601
 20
52.11720727138611
 30
0.0
 10
222.9565866798143
 20
51.49372814464225
 30
0.0
 10
222.9149002500821
 20
51.30734722228026
 30
0.0
  0
SPLINE
  5
201
330
1F
100
AcDbEntity
  8
0
  6
Continuous
 62
     7
370
    15
100
AcDbSpline
210
0.0
220
0.0
230
1.0
 70
     8
 71
     3
 72
    10
 73
     6
 74
     0
 42
0.000000001
 43
0.00000001
 40
0.0
 40
0.0
 40
0.0
 40
0.0
 40
0.1368331940810409
 40
0.6544309581876964
 40
1.0
 40
1.0
 40
1.0
 40
1.0
 10
240.2196353512502
 20
68.14079381201296
 30
0.0
 10
240.1446092532726
 20
68.15961736819116
 30
0.0
 10
239.7857825700375
 20
68.2496446308663
 30
0.0
 10
239.2102506360905
 20
68.32462706488347
 30
0.0
 10
238.6885149989511
 20
68.30906066673425
 30
0.0
 10
238.4796380090468
 20
68.30282865542888
 30
0.0
  0
LINE
  5
202
330
1F
100
AcDbEntity
  8
0
  6
Continuous
 62
     7
370
    15
100
AcDbLine
 10
232.6886458637
 20
66.1753833946
 30
0.0
 11
211.37369817
 21
73.8564456481
 31
0.0
  0
LINE
  5
203
330
1F
100
AcDbEntity
  8
0
  6
Continuous
 62
     7
370
    15
100
AcDbLine
 10
205.2089164209
 20
63.1775733629
 30
0.0
 11
225.505153586
 21
46.0395984872
 31
0.0
  0
SPLINE
  5
204
330
1F
100
AcDbEntity
  8
0
  6
Continuous
 62
     7
370
    15
100
AcDbSpline
210
0.0
220
0.0
230
1.0
 70
     8
 71
     3
 72
    17
 73
    13
 74
     0
 42
0.000000001
 43
0.00000001
 40
0.0
 40
0.0
 40
0.0
 40
0.0
 40
0.0225971749085236
 40
0.1439954870438186
 40
0.2657852555093532
 40
0.3878241453878265
 40
0.5099907350023807
 40
0.6321972196348639
 40
0.7543834808421205
 40
0.8765295074340667
 40
0.9986292807937531
 40
1.0
 40
1.0
 40
1.0
 40
1.0
 10
234.9376576291851
 20
36.35694502399423
 30
0.0
 10
234.9971813631267
 20
36.36122024875067
 30
0.0
 10
235.3764831605544
 20
36.38846317064324
 30
0.0
 10
236.1065375829625
 20
36.55758455591589
 30
0.0
 10
237.1203556438756
 20
36.86910306176608
 30
0.0
 10
238.1526541515355
 20
37.30976578936868
 30
0.0
 10
239.1908386994687
 20
37.86148804231007
 30
0.0
 10
240.2264753774936
 20
38.52390524577327
 30
0.0
 10
241.2520990016326
 20
39.2868473884794
 30
0.0
 10
242.2533082985714
 20
40.15602516508479
 30
0.0
 10
242.9175436294374
 20
40.77468282263948
 30
0.0
 10
243.2342761651796
 20
41.12229118490618
 30
0.0
 10
243.2377924010102
 20
41.12615019160899
 30
0.0
  0
SPLINE
  5
205
330
1F
100
AcDbEntity
  8
0
  6
Continuous
 62
     7
370
    15
100
AcDbSpline
210
0.0
220
0.0
230
1.0
 70
     8
 71
     3
 72
     9
 73
     5
 74
     0
 42
0.000000001
 43
0.00000001
 40
0.0
 40
0.0
 40
0.0
 40
0.0
 40
0.1465010638427284
 40
1.0
 40
1.0
 40
1.0
 40
1.0
 10
249.4828296950456
 20
51.95433266397336
 30
0.0
 10
249.5046533117276
 20
52.0240546588659
 30
0.0
 10
249.6536188967515
 20
52.49996925677888
 30
0.0
 10
249.7561876337182
 20
52.96998148851845
 30
0.0
 10
249.8437299416023
 20
53.37113642828908
 30
0.0
  0
LINE
  5
206
330
1F
100
AcDbEntity
  8
0
  6
Continuous
 62
     7
370
    15
100
AcDbLine
 10
229.6711751049
 20
37.8443000132
 30
0.0
 11
231.0246352398
 21
37.0629641085
 31
0.0
  0
LINE
  5
207
330
1F
100
AcDbEntity
  8
0
  6
Continuous
 62
     7
370
    15
100
AcDbLine
 10
225.8450780676
 20
40.053058818
 30
0.0
 11
227.1808605331
 21
39.2819280147
 31
0.0
  0
SPLINE
  5
208
330
1F
100
AcDbEntity
  8
0
  6
Continuous
 62
     7
370
    15
100
AcDbSpline
210
0.0
220
0.0
230
1.0
 70
     8
 71
     3
 72
     9
 73
     5
 74
     0
 42
0.000000001
 43
0.00000001
 40
0.0
 40
0.0
 40
0.0
 40
0.0
 40
0.3487309957008486
 40
1.0
 40
1.0
 40
1.0
 40
1.0
 10
222.925616791775
 20
44.05088589862493
 30
0.0
 10
222.9593941291292
 20
43.93463655689555
 30
0.0
 10
223.0562519873943
 20
43.60128694598487
 30
0.0
 10
223.1887731771849
 20
43.30030674233691
 30
0.0
 10
223.2750801205083
 20
43.10428766479336
 30
0.0
  0
SPLINE
  5
209
330
1F
100
AcDbEntity
  8
0
  6
Continuous
 62
     7
370
    15
100
AcDbSpline
210
0.0
220
0.0
230
1.0
 70
     8
 71
     3
 72
    10
 73
     6
 74
     0
 42
0.000000001
 43
0.00000001
 40
0.0
 40
0.0
 40
0.0
 40
0.0
 40
0.129735035668461
 40
0.8187566169618552
 40
1.0
 40
1.0
 40
1.0
 40
1.0
 10
248.9571668506272
 20
62.50884003773871
 30
0.0
 10
248.9285793401643
 20
62.56079249111815
 30
0.0
 10
248.7481638245452
 20
62.88866394660161
 30
0.0
 10
248.4727986981956
 20
63.22931910413543
 30
0.0
 10
248.2157719409022
 20
63.5004368900244
 30
0.0
 10
248.1622429572794
 20
63.55690050367114
 30
0.0
  0
SPLINE
  5
20A
330
1F
100
AcDbEntity
  8
0
  6
Continuous
 62
     7
370
    15
100
AcDbSpline
210
0.0
220
0.0
230
1.0
 70
     8
 71
     3
 72
    10
 73
     6
 74
     0
 42
0.000000001
 43
0.00000001
 40
0.0
 40
0.0
 40
0.0
 40
0.0
 40
0.1846532083042985
 40
0.6348909157628544
 40
0.9999999999999999
 40
0.9999999999999999
 40
0.9999999999999999
 40
0.9999999999999999
 10
249.8312978523638
 20
60.51897426841833
 30
0.0
 10
249.7909294382405
 20
60.65406145182692
 30
0.0
 10
249.6521312031816
 20
61.11853009750985
 30
0.0
 10
249.3770394750446
 20
61.80179632558696
 30
0.0
 10
249.0870313483376
 20
62.29015496231786
 30
0.0
 10
248.9571668506272
 20
62.50884003773871
 30
0.0
  0
SPLINE
  5
20B
330
1F
100
AcDbEntity
  8
0
  6
Continuous
 62
     7
370
    15
100
AcDbSpline
210
0.0
220
0.0
230
1.0
 70
     8
 71
     3
 72
    23
 73
    19
 74
     0
 42
0.000000001
 43
0.00000001
 40
0.0
 40
0.0
 40
0.0
 40
0.0
 40
0.0022887644917508
 40
0.0650291062847827
 40
0.1285002960913875
 40
0.1934585211923371
 40
0.2598655602311736
 40
0.3271681292421852
 40
0.3947897141024987
 40
0.4623449239336546
 40
0.5297638741690184
 40
0.597065936323009
 40
0.6643063845491493
 40
0.7315535738659139
 40
0.7988639713428682
 40
0.8663063997094458
 40
0.9339555949926147
 40
1.0
 40
1.0
 40
1.0
 40
1.0
 10
211.2974446786677
 20
73.88009753566313
 30
0.0
 10
211.2911828304539
 20
73.8829353122301
 30
0.0
 10
211.1132692030351
 20
73.96356312459383
 30
0.0
 10
210.7130518700522
 20
74.01080798129998
 30
0.0
 10
210.1114126458259
 20
74.01139559323502
 30
0.0
 10
209.4738592809398
 20
73.87674332640752
 30
0.0
 10
208.8181295541167
 20
73.62537779752238
 30
0.0
 10
208.1557391604499
 20
73.25585655039882
 30
0.0
 10
207.5034717394877
 20
72.77816856055293
 30
0.0
 10
206.876485951592
 20
72.20405456072741
 30
0.0
 10
206.2883285168941
 20
71.54744113013933
 30
0.0
 10
205.7508003003557
 20
70.8228235820567
 30
0.0
 10
205.2745991529531
 20
70.04556056144762
 30
0.0
 10
204.8696155167171
 20
69.23187549687968
 30
0.0
 10
204.5437581200389
 20
68.3981008810805
 30
0.0
 10
204.3067112138528
 20
67.5621298120198
 30
0.0
 10
204.1568379032106
 20
66.74381914435932
 30
0.0
 10
204.1381611769318
 20
66.22909027089874
 30
0.0
 10
204.1289349067746
 20
65.97481510653823
 30
0.0
  0
SPLINE
  5
20C
330
1F
100
AcDbEntity
  8
0
  6
Continuous
 62
     7
370
    15
100
AcDbSpline
210
0.0
220
0.0
230
1.0
 70
     8
 71
     3
 72
    13
 73
     9
 74
     0
 42
0.000000001
 43
0.00000001
 40
0.0
 40
0.0
 40
0.0
 40
0.0
 40
0.1131449836041551
 40
0.3272850906496773
 40
0.5413503739710223
 40
0.7528428211244159
 40
0.9593178067813883
 40
1.0
 40
1.0
 40
1.0
 40
1.0
 10
204.1289349067746
 20
65.97481510653823
 30
0.0
 10
204.1317828794243
 20
65.83987616323182
 30
0.0
 10
204.1400209732146
 20
65.44954949663634
 30
0.0
 10
204.2329742918028
 20
64.84532900274753
 30
0.0
 10
204.4404456878636
 20
64.19522698004549
 30
0.0
 10
204.7582670290839
 20
63.64637777800258
 30
0.0
 10
205.0427347177708
 20
63.29113811515885
 30
0.0
 10
205.2400956952079
 20
63.16112463289665
 30
0.0
 10
205.2725814091752
 20
63.13972434976314
 30
0.0
  0
LINE
  5
20D
330
1F
100
AcDbEntity
  8
0
  6
Continuous
 62
     7
370
    15
100
AcDbLine
 10
269.66517881
 20
37.0354322871
 30
0.0
 11
269.66517881
 21
36.6271618812
 31
0.0
  0
LINE
  5
20E
330
1F
100
AcDbEntity
  8
0
  6
Continuous
 62
     7
370
    15
100
AcDbLine
 10
273.66517881
 20
36.6271618812
 30
0.0
 11
273.66517881
 21
37.0354322871
 31
0.0
  0
LWPOLYLINE
  5
20F
330
1F
100
AcDbEntity
  8
0
  6
Continuous
 62
     7
370
    15
100
AcDbPolyline
 90
       41
 70
   128
 43
0.0
 10
274.8648369949
 20
35.1066548529
 10
274.184549388
 20
34.6521073967
 10
273.5210127197
 20
34.0851008474
 10
272.890565465
 20
33.4195967878
 10
272.3087313276
 20
32.6719821368
 10
271.7898369949
 20
31.8606656482
 10
271.3466593676
 20
31.0056246265
 10
270.9901109496
 20
30.1279130194
 10
270.7289711463
 20
29.2491429996
 10
270.5696700864
 20
28.3909528015
 10
270.5161302906
 20
27.574473916
 10
270.5696700864
 20
26.8198107629
 10
270.7289711463
 20
26.1455456537
 10
270.9901109496
 20
25.568281233
 10
271.3466593676
 20
25.1022316669
 10
271.7898369949
 20
24.7588726422
 10
272.3087313276
 20
24.5466587978
 10
272.890565465
 20
24.4708155428
 10
273.5210127197
 20
24.5332103898
 10
274.184549388
 20
24.7323069707
 10
274.8648369949
 20
25.0632028667
 10
275.5451246018
 20
25.517750323
 10
276.2086612701
 20
26.0847568723
 10
276.8391085248
 20
26.7502609318
 10
277.4209426622
 20
27.4978755829
 10
277.9398369949
 20
28.3091920715
 10
278.3830146222
 20
29.1642330932
 10
278.7395630402
 20
30.0419447003
 10
279.0007028435
 20
30.9207147201
 10
279.1600039034
 20
31.7789049182
 10
279.2135436992
 20
32.5953838037
 10
279.1600039034
 20
33.3500469568
 10
279.0007028435
 20
34.024312066
 10
278.7395630402
 20
34.6015764867
 10
278.3830146222
 20
35.0676260528
 10
277.9398369949
 20
35.4109850775
 10
277.4209426622
 20
35.6231989219
 10
276.8391085248
 20
35.6990421769
 10
276.2086612701
 20
35.6366473299
 10
275.5451246018
 20
35.437550749
 10
274.8648369949
 20
35.1066548529
  0
LWPOLYLINE
  5
210
330
1F
100
AcDbEntity
  8
0
  6
Continuous
 62
     7
370
    15
100
AcDbPolyline
 90
       22
 70
   128
 43
0.0
 10
274.7941263168
 20
35.2291293397
 10
274.1027771228
 20
34.767190868
 10
273.4284512404
 20
34.1909646999
 10
272.7877528108
 20
33.5146394362
 10
272.1964579557
 20
32.7548684493
 10
271.6691263168
 20
31.9303598227
 10
271.2187425492
 20
31.0614156949
 10
270.8563965959
 20
30.1694323544
 10
270.591010617
 20
29.2763733912
 10
270.4291192959
 20
28.404228881
 10
270.3747089344
 20
27.574473916
 10
270.4291192959
 20
26.8075398173
 10
270.591010617
 20
26.1223110478
 10
270.8563965959
 20
25.5356602138
 10
271.2187425492
 20
25.0620326059
 10
271.6691263168
 20
24.7130905077
 10
272.1964579557
 20
24.4974260316
 10
272.7877528108
 20
24.420349553
 10
273.4284512404
 20
24.4837589503
 10
274.1027771228
 20
24.686092874
 10
274.7941263168
 20
25.0223691912
 10
274.7948445964
 20
25.0227839126
  0
LWPOLYLINE
  5
211
330
1F
100
AcDbEntity
  8
0
  6
Continuous
 62
     7
370
    15
100
AcDbPolyline
 90
       11
 70
   128
 43
0.0
 10
279.2135436992
 20
32.6770246149
 10
279.1591333376
 20
33.4439587136
 10
278.9972420165
 20
34.1291874831
 10
278.7318560376
 20
34.7158383171
 10
278.3695100844
 20
35.189465925
 10
277.9191263168
 20
35.5384080232
 10
277.3917946779
 20
35.7540724992
 10
276.8004998228
 20
35.8311489779
 10
276.1598013932
 20
35.7677395805
 10
275.4854755108
 20
35.5654056569
 10
274.7941263168
 20
35.2291293397
  0
LWPOLYLINE
  5
212
330
1F
100
AcDbEntity
  8
0
  6
Continuous
 62
     7
370
    15
100
AcDbPolyline
 90
       56
 70
   128
 43
0.0
 10
273.5579608979
 20
37.3366139606
 10
273.6331185307
 20
37.2776512743
 10
273.7062054398
 20
37.2110954291
 10
273.8730824618
 20
37.0159260326
 10
273.9447770783
 20
36.8816229498
 10
273.9670666019
 20
36.8133619383
 10
273.9789809623
 20
36.7498506216
 10
273.9774498938
 20
36.6283435866
 10
273.9376301848
 20
36.4944974345
 10
273.8962197461
 20
36.4178374145
 10
273.8293688232
 20
36.3274506662
 10
273.7410330568
 20
36.2359582359
 10
273.6308317319
 20
36.1445764341
 10
273.5053682365
 20
36.0585508934
 10
273.3592773311
 20
35.9740711951
 10
273.1945305651
 20
35.8930988385
 10
273.0748185814
 20
35.8416325842
 10
272.8148491712
 20
35.7469457043
 10
272.6761029396
 20
35.704634844
 10
272.3812012598
 20
35.6313875044
 10
272.0719454532
 20
35.5773356716
 10
271.8385087717
 20
35.5516823056
 10
271.6033173948
 20
35.5394211599
 10
271.3695650387
 20
35.5415949688
 10
271.2397765081
 20
35.5494487877
 10
270.9842309165
 20
35.5801960961
 10
270.7359658434
 20
35.6320259
 10
270.6158826045
 20
35.6660432763
 10
270.2616966334
 20
35.8082750089
 10
270.0466522204
 20
35.9340615381
 10
269.9472312675
 20
36.0058653451
 10
269.6935011406
 20
36.2466228299
 10
269.556995333
 20
36.4322723672
 10
269.5001826345
 20
36.5313805449
 10
269.3879137975
 20
36.8209032613
 10
269.3516738098
 20
37.035149094
 10
269.3484980638
 20
37.1578811417
 10
269.3643907425
 20
37.3167625225
 10
269.4351094204
 20
37.5526648192
 10
269.4720851523
 20
37.6286021883
 10
269.514143229
 20
37.6994797333
 10
269.6187878545
 20
37.8345553946
 10
269.7520264227
 20
37.9578772393
 10
269.8290860001
 20
38.0135937979
 10
269.969552151
 20
38.0946909824
 10
270.1282769599
 20
38.1624843066
 10
270.3026983684
 20
38.2151062203
 10
270.4307077499
 20
38.2420906079
 10
270.703669217
 20
38.2732625437
 10
270.8470686199
 20
38.2775448479
 10
271.0031666062
 20
38.2740967201
 10
271.160590159
 20
38.2628995336
 10
271.3185386112
 20
38.2445669423
 10
271.4848012927
 20
38.2181945818
 10
271.6300761821
 20
38.1896055165
 10
271.6300761821
 20
38.1896055165
  0
LINE
  5
213
330
1F
100
AcDbEntity
  8
0
  6
Continuous
 62
     7
370
    15
100
AcDbLine
 10
276.2611413864
 20
33.3202019061
 30
0.0
 11
276.2125523888
 21
33.3467357613
 31
0.0
  0
SPLINE
  5
214
330
1F
100
AcDbEntity
  8
0
  6
Continuous
 62
     7
370
    15
100
AcDbSpline
210
0.0
220
0.0
230
1.0
 70
     8
 71
     3
 72
    12
 73
     8
 74
     0
 42
0.000000001
 43
0.00000001
 40
0.0
 40
0.0
 40
0.0
 40
0.0
 40
0.250000000000001
 40
0.250000000000001
 40
0.500000000000002
 40
0.500000000000002
 40
1.0
 40
1.0
 40
1.0
 40
1.0
 10
228.1964638931809
 20
48.27086556491047
 30
0.0
 10
228.2302430594532
 20
48.25136526729696
 30
0.0
 10
228.2685677559287
 20
48.22452551871979
 30
0.0
 10
228.3427908800413
 20
48.16612501539715
 30
0.0
 10
228.378174244536
 20
48.13513535691625
 30
0.0
 10
228.473984202921
 20
48.0443960038955
 30
0.0
 10
228.5229879610752
 20
47.98850187517796
 30
0.0
 10
228.55679701869
 20
47.9412420114113
 30
0.0
  0
SPLINE
  5
215
330
1F
100
AcDbEntity
  8
0
  6
Continuous
 62
     7
370
    15
100
AcDbSpline
210
0.0
220
0.0
230
1.0
 70
     8
 71
     3
 72
    12
 73
     8
 74
     0
 42
0.000000001
 43
0.00000001
 40
0.0
 40
0.0
 40
0.0
 40
0.0
 40
0.5000000000000011
 40
0.5000000000000011
 40
0.7500000000000006
 40
0.7500000000000006
 40
1.0
 40
1.0
 40
1.0
 40
1.0
 10
245.6613269318811
 20
64.71104353573284
 30
0.0
 10
245.6613269318811
 20
64.78246256745753
 30
0.0
 10
245.64376240122
 20
64.86499232665072
 30
0.0
 10
245.5886368667301
 20
64.98393704268359
 30
0.0
 10
245.5653443929733
 20
65.02256992990819
 30
0.0
 10
245.5113760039159
 20
65.08913244118523
 30
0.0
 10
245.4805285031627
 20
65.1170534794379
 30
0.0
 10
245.4491948975251
 20
65.13514198494785
 30
0.0
  0
ARC
  5
216
330
1F
100
AcDbEntity
  8
0
  6
Continuous
 62
     7
370
    15
100
AcDbCircle
 10
253.4169215615
 20
42.438607766
 30
0.0
 40
25.46867197954992
100
AcDbArc
 50
130.9577011466
 51
165.3350574408
  0
LWPOLYLINE
  5
217
330
1F
100
AcDbEntity
  8
0
  6
Continuous
 62
     7
370
    15
100
AcDbPolyline
 90
       10
 70
   128
 43
0.0
 10
234.1601702851
 20
61.9384060959
 10
235.2785431119
 20
62.928439394
 10
236.4216829879
 20
63.7979527193
 10
237.5774360773
 20
64.5377014271
 10
238.7335144411
 20
65.1398205268
 10
239.8776266818
 20
65.5979083027
 10
240.9976086255
 20
65.9070943764
 10
242.0815526511
 20
66.0640914892
 10
243.1179342917
 20
66.0672304514
 10
244.0957347626
 20
65.9164778896
  0
LINE
  5
218
330
1F
100
AcDbEntity
  8
0
  6
Continuous
 62
     7
370
    15
100
AcDbLine
 10
245.4491948975
 20
65.1351419849
 30
0.0
 11
244.0957347626
 21
65.9164778896
 31
0.0
  0
LINE
  5
219
330
1F
100
AcDbEntity
  8
0
  6
Continuous
 62
     7
370
    15
100
AcDbLine
 10
226.8430037582
 20
49.0522014696
 30
0.0
 11
228.1964638932
 21
48.2708655649
 31
0.0
  0
ARC
  5
21A
330
1F
100
AcDbEntity
  8
0
  6
Continuous
 62
     7
370
    15
100
AcDbCircle
 10
252.4961152675
 20
43.0206196498
 30
0.0
 40
26.3526490007228
100
AcDbArc
 50
136.4938168976
 51
166.7688862419
  0
SPLINE
  5
21B
330
1F
100
AcDbEntity
  8
0
  6
Continuous
 62
     7
370
    15
100
AcDbSpline
210
0.0
220
0.0
230
1.0
 70
     8
 71
     3
 72
    12
 73
     8
 74
     0
 42
0.000000001
 43
0.00000001
 40
0.0
 40
0.0
 40
0.0
 40
0.0
 40
0.2500000000000005
 40
0.2500000000000005
 40
0.500000000000001
 40
0.500000000000001
 40
1.0
 40
1.0
 40
1.0
 40
1.0
 10
233.3825367688618
 20
61.16264892804502
 30
0.0
 10
233.4818514515818
 20
61.19599701234084
 30
0.0
 10
233.5756765912732
 20
61.23987921384536
 30
0.0
 10
233.7526696961788
 20
61.34800948264107
 30
0.0
 10
233.8324812640998
 20
61.41041497282226
 30
0.0
 10
234.0406651253201
 20
61.61781255061201
 30
0.0
 10
234.1323749589062
 20
61.77922308840577
 30
0.0
 10
234.16017028508
 20
61.93840609594485
 30
0.0
  0
LINE
  5
21C
330
1F
100
AcDbEntity
  8
0
  6
Continuous
 62
     7
370
    15
100
AcDbLine
 10
249.6785908228
 20
60.0399946432
 30
0.0
 11
249.7839543213
 21
60.2224895754
 31
0.0
  0
LINE
  5
21D
330
1F
100
AcDbEntity
  8
0
  6
Continuous
 62
     7
370
    15
100
AcDbLine
 10
248.5074317262
 20
59.3638988878
 30
0.0
 11
249.6785908228
 21
60.0399946432
 31
0.0
  0
ARC
  5
21E
330
1F
100
AcDbEntity
  8
0
  6
Continuous
 62
     7
370
    15
100
AcDbCircle
 10
249.1699191823
 20
58.3282143118
 30
0.0
 40
1.229443846057721
100
AcDbArc
 50
122.60547834
 51
177.3945215143
  0
LINE
  5
21F
330
1F
100
AcDbEntity
  8
0
  6
Continuous
 62
     7
370
    15
100
AcDbLine
 10
247.9417463012
 20
53.1174147569
 30
0.0
 11
247.9417463012
 21
58.3841029936
 31
0.0
  0
ARC
  5
220
330
1F
100
AcDbEntity
  8
0
  6
Continuous
 62
     7
370
    15
100
AcDbCircle
 10
248.2866057951
 20
53.0614729994
 30
0.0
 40
0.3493673579427891
100
AcDbArc
 50
170.7859630095
 51
309.2032852357
  0
LINE
  5
221
330
1F
100
AcDbEntity
  8
0
  6
Continuous
 62
     7
370
    15
100
AcDbLine
 10
249.6785908228
 20
53.4668411075
 30
0.0
 11
248.5074317262
 21
52.7907453522
 31
0.0
  0
LINE
  5
222
330
1F
100
AcDbEntity
  8
0
  6
Continuous
 62
     7
370
    15
100
AcDbLine
 10
249.7839543213
 20
53.4059962814
 30
0.0
 11
249.6785908228
 21
53.4668411075
 31
0.0
  0
LINE
  5
223
330
1F
100
AcDbEntity
  8
0
  6
Continuous
 62
     7
370
    15
100
AcDbLine
 10
228.604692195
 20
41.301138384
 30
0.0
 11
228.5567970187
 21
41.1788896987
 31
0.0
  0
LINE
  5
224
330
1F
100
AcDbEntity
  8
0
  6
Continuous
 62
     7
370
    15
100
AcDbLine
 10
228.604692195
 20
41.301138384
 30
0.0
 11
230.6176301621
 21
42.4631827376
 31
0.0
  0
ARC
  5
225
330
1F
100
AcDbEntity
  8
0
  6
Continuous
 62
     7
370
    15
100
AcDbCircle
 10
229.955142706
 20
43.4988673137
 30
0.0
 40
1.229443846057684
100
AcDbArc
 50
302.60547834
 51
357.3945215143
  0
LINE
  5
226
330
1F
100
AcDbEntity
  8
0
  6
Continuous
 62
     7
370
    15
100
AcDbLine
 10
231.1833155871
 20
48.7096668685
 30
0.0
 11
231.1833155871
 21
43.4429786318
 31
0.0
  0
ARC
  5
227
330
1F
100
AcDbEntity
  8
0
  6
Continuous
 62
     7
370
    15
100
AcDbCircle
 10
230.8384560931
 20
48.765608626
 30
0.0
 40
0.3493673579428056
100
AcDbArc
 50
350.7859630095
 51
129.2032852357
  0
LINE
  5
228
330
1F
100
AcDbEntity
  8
0
  6
Continuous
 62
     7
370
    15
100
AcDbLine
 10
230.6176301621
 20
49.0363362733
 30
0.0
 11
228.604692195
 21
47.8742919197
 31
0.0
  0
LINE
  5
229
330
1F
100
AcDbEntity
  8
0
  6
Continuous
 62
     7
370
    15
100
AcDbLine
 10
228.5567970187
 20
47.9412420114
 30
0.0
 11
228.604692195
 21
47.8742919197
 31
0.0
  0
LINE
  5
22A
330
1F
100
AcDbEntity
  8
0
  6
Continuous
 62
     7
370
    15
100
AcDbLine
 10
245.6613269319
 20
61.926062744
 30
0.0
 11
245.6613269319
 21
64.7110435357
 31
0.0
  0
LINE
  5
22B
330
1F
100
AcDbEntity
  8
0
  6
Continuous
 62
     7
370
    15
100
AcDbLine
 10
248.073060399
 20
63.3183268394
 30
0.0
 11
245.6613269319
 21
61.926062744
 31
0.0
  0
SPLINE
  5
22C
330
1F
100
AcDbEntity
  8
0
  6
Continuous
 62
     7
370
    15
100
AcDbSpline
210
0.0
220
0.0
230
1.0
 70
     8
 71
     3
 72
     8
 73
     4
 74
     0
 42
0.000000001
 43
0.00000001
 40
0.0
 40
0.0
 40
0.0
 40
0.0
 40
1.0
 40
1.0
 40
1.0
 40
1.0
 10
225.8528524729433
 20
50.31058065378016
 30
0.0
 10
225.472154606943
 20
50.24761381610956
 30
0.0
 10
225.091316634703
 20
50.18491369397452
 30
0.0
 10
224.7103759839634
 20
50.12243281530149
 30
0.0
  0
SPLINE
  5
22D
330
1F
100
AcDbEntity
  8
0
  6
Continuous
 62
     7
370
    15
100
AcDbSpline
210
0.0
220
0.0
230
1.0
 70
     8
 71
     3
 72
     8
 73
     4
 74
     0
 42
0.000000001
 43
0.00000001
 40
0.0
 40
0.0
 40
0.0
 40
0.0
 40
0.0011901715795577
 40
0.0011901715795577
 40
0.0011901715795577
 40
0.0011901715795577
 10
224.3526891864055
 20
50.4898294711571
 30
0.0
 10
224.4723356939004
 20
50.36721456140162
 30
0.0
 10
224.5915788680485
 20
50.2447425209059
 30
0.0
 10
224.7103759839634
 20
50.12243281530149
 30
0.0
  0
LWPOLYLINE
  5
22E
330
1F
100
AcDbEntity
  8
0
  6
Continuous
 62
     7
370
    15
100
AcDbPolyline
 90
       20
 70
   128
 43
0.0
 10
224.3526891864
 20
50.4898294712
 10
224.7240132212
 20
51.9266513915
 10
225.1991497582
 20
53.374498111
 10
225.7733531242
 20
54.8189085083
 10
226.4408881649
 20
56.2454557839
 10
227.195087527
 20
57.6398915555
 10
228.0284182526
 20
58.9882881715
 10
228.9325570181
 20
60.2771778198
 10
229.8984732676
 20
61.4936870454
 10
230.9165194108
 20
62.6256653302
 10
231.9765271827
 20
63.6618064529
 10
233.0679092049
 20
64.5917614156
 10
234.1797647324
 20
65.40624181
 10
235.3009885303
 20
66.0971125898
 10
236.4203817933
 20
66.6574733241
 10
237.5267639995
 20
67.0817271189
 10
238.6090845818
 20
67.365636519
 10
239.6565333008
 20
67.5063658317
 10
240.6586482183
 20
67.5025094499
 10
241.6054201907
 20
67.3541058912
  0
SPLINE
  5
22F
330
1F
100
AcDbEntity
  8
0
  6
Continuous
 62
     7
370
    15
100
AcDbSpline
210
0.0
220
0.0
230
1.0
 70
     8
 71
     3
 72
     9
 73
     5
 74
     0
 42
0.000000001
 43
0.00000001
 40
0.0
 40
0.0
 40
0.0
 40
0.0
 40
0.010923346502832
 40
1.0
 40
1.0
 40
1.0
 40
1.0
 10
242.0428290181141
 20
66.00925158686687
 30
0.0
 10
242.0412719686865
 20
66.0141465616561
 30
0.0
 10
241.8987287080525
 20
66.46226699690558
 30
0.0
 10
241.751269073057
 20
66.91063528513662
 30
0.0
 10
241.6054201907498
 20
67.35410589119445
 30
0.0
  0
LWPOLYLINE
  5
230
330
1F
100
AcDbEntity
  8
0
  6
Continuous
 62
     7
370
    15
100
AcDbPolyline
 90
       19
 70
   128
 43
0.0
 10
225.8528524729
 20
50.3105806538
 10
226.201328518
 20
51.672619335
 10
226.6522521364
 20
53.0457692185
 10
227.2007535435
 20
54.4152008652
 10
227.8409091558
 20
55.7661249915
 10
228.5658055628
 20
57.0839521873
 10
229.3676141894
 20
58.3544504751
 10
230.2376758409
 20
59.5638990099
 10
231.1665942189
 20
60.6992362581
 10
232.144337397
 20
61.7482010567
 10
233.1603461618
 20
62.6994650289
 10
234.2036480475
 20
63.5427549253
 10
235.2629758342
 20
64.2689635711
 10
236.3268892292
 20
64.8702482195
 10
237.3838984168
 20
65.3401152501
 10
238.4225881441
 20
65.6734902975
 10
239.4317410007
 20
65.8667730518
 10
240.4004585616
 20
65.9178761409
 10
240.9016305754
 20
65.8862473769
  0
LINE
  5
231
330
1F
100
AcDbEntity
  8
0
  6
Continuous
 62
     7
370
    15
100
AcDbLine
 10
223.016906721
 20
51.2609602745
 30
0.0
 11
224.3526891864
 21
50.4898294712
 31
0.0
  0
LINE
  5
232
330
1F
100
AcDbEntity
  8
0
  6
Continuous
 62
     7
370
    15
100
AcDbLine
 10
241.6054201907
 20
67.3541058912
 30
0.0
 11
240.2696377253
 21
68.1252366945
 31
0.0
  0
LINE
  5
233
330
1F
100
AcDbEntity
  8
0
  6
Continuous
 62
     7
370
    15
100
AcDbLine
 10
227.079394578
 20
50.0102960037
 30
0.0
 11
226.4888839222
 21
50.3511905492
 31
0.0
  0
SPLINE
  5
234
330
1F
100
AcDbEntity
  8
0
  6
Continuous
 62
     7
370
    15
100
AcDbSpline
210
0.0
220
0.0
230
1.0
 70
     8
 71
     3
 72
    14
 73
    10
 74
     0
 42
0.000000001
 43
0.00000001
 40
0.0
 40
0.0
 40
0.0
 40
0.0
 40
0.1134875197912531
 40
0.2884507023113859
 40
0.4634439107903475
 40
0.6380743933922302
 40
0.8124677414442895
 40
0.9871169102210032
 40
1.0
 40
1.0
 40
1.0
 40
1.0
 10
233.8736191771486
 20
61.46295671556438
 30
0.0
 10
233.8040687420776
 20
61.46630677958416
 30
0.0
 10
233.6272927240697
 20
61.47482162175422
 30
0.0
 10
233.3324574426183
 20
61.38967494164572
 30
0.0
 10
233.0398112406967
 20
61.22623953187588
 30
0.0
 10
232.8142689079534
 20
60.99555179382072
 30
0.0
 10
232.6951772026317
 20
60.73281916882196
 30
0.0
 10
232.6611105821445
 20
60.53785853395697
 30
0.0
 10
232.6927727771925
 20
60.45208132248163
 30
0.0
 10
232.6949479064451
 20
60.44618860021113
 30
0.0
  0
SPLINE
  5
235
330
1F
100
AcDbEntity
  8
0
  6
Continuous
 62
     7
370
    15
100
AcDbSpline
210
0.0
220
0.0
230
1.0
 70
     8
 71
     3
 72
    12
 73
     8
 74
     0
 42
0.000000001
 43
0.00000001
 40
0.0
 40
0.0
 40
0.0
 40
0.0
 40
0.2500000000000015
 40
0.2500000000000015
 40
0.500000000000003
 40
0.500000000000003
 40
1.0
 40
1.0
 40
1.0
 40
1.0
 10
226.4888839221808
 20
50.3511905491958
 30
0.0
 10
226.4512651872215
 20
50.37290738263199
 30
0.0
 10
226.4052727788342
 20
50.39016311661464
 30
0.0
 10
226.3056716488582
 20
50.41245690444246
 30
0.0
 10
226.2509209236042
 20
50.4176626890219
 30
0.0
 10
226.0914150247849
 20
50.41466078959477
 30
0.0
 10
225.9864122195673
 20
50.38768305433558
 30
0.0
 10
225.9110993233754
 20
50.34420584480227
 30
0.0
  0
SPLINE
  5
236
330
1F
100
AcDbEntity
  8
0
  6
Continuous
 62
     7
370
    15
100
AcDbSpline
210
0.0
220
0.0
230
1.0
 70
     8
 71
     3
 72
    10
 73
     6
 74
     0
 42
0.000000001
 43
0.00000001
 40
0.0
 40
0.0
 40
0.0
 40
0.0
 40
0.5
 40
0.5
 40
1.0
 40
1.0
 40
1.0
 40
1.0
 10
222.915262610392
 20
51.29168232575493
 30
0.0
 10
222.9225252920407
 20
51.29567893124275
 30
0.0
 10
222.9343189560063
 20
51.29586070962792
 30
0.0
 10
222.9683779667736
 20
51.28613908011817
 30
0.0
 10
222.9905504543259
 20
51.27617542334247
 30
0.0
 10
223.0169067209894
 20
51.26096027446116
 30
0.0
  0
LINE
  5
237
330
1F
100
AcDbEntity
  8
0
  6
Continuous
 62
     7
370
    15
100
AcDbLine
 10
225.9110993234
 20
50.3442058448
 30
0.0
 11
225.8528524729
 21
50.3105806538
 31
0.0
  0
LINE
  5
238
330
1F
100
AcDbEntity
  8
0
  6
Continuous
 62
     7
370
    15
100
AcDbLine
 10
228.604692195
 20
47.8742919197
 30
0.0
 11
226.8775094957
 21
48.8713732686
 31
0.0
  0
SPLINE
  5
239
330
1F
100
AcDbEntity
  8
0
  6
Continuous
 62
     7
370
    15
100
AcDbSpline
210
0.0
220
0.0
230
1.0
 70
     8
 71
     3
 72
     8
 73
     4
 74
     0
 42
0.000000001
 43
0.00000001
 40
0.0
 40
0.0
 40
0.0
 40
0.0
 40
0.0011901715795577
 40
0.0011901715795577
 40
0.0011901715795577
 40
0.0011901715795577
 10
226.8775094956523
 20
48.8713732685547
 30
0.0
 10
226.8653480288337
 20
48.93212352426553
 30
0.0
 10
226.8538645818776
 20
48.99238719839558
 30
0.0
 10
226.8430037582351
 20
49.05220146961232
 30
0.0
  0
ARC
  5
23A
330
1F
100
AcDbEntity
  8
0
  6
Continuous
 62
     7
370
    15
100
AcDbCircle
 10
235.8543437197
 20
49.2960669098
 30
0.0
 40
10.35550653030192
100
AcDbArc
 50
174.7184005453
 51
187.1557589326
  0
LINE
  5
23B
330
1F
100
AcDbEntity
  8
0
  6
Continuous
 62
     7
370
    15
100
AcDbLine
 10
225.5794943462
 20
50.2654389119
 30
0.0
 11
225.5794943462
 21
48.0061111543
 31
0.0
  0
LINE
  5
23C
330
1F
100
AcDbEntity
  8
0
  6
Continuous
 62
     7
370
    15
100
AcDbLine
 10
225.5794943462
 20
48.0061111543
 30
0.0
 11
225.5794943462
 21
46.5403031918
 31
0.0
  0
LINE
  5
23D
330
1F
100
AcDbEntity
  8
0
  6
Continuous
 62
     7
370
    15
100
AcDbLine
 10
223.3544243447
 20
50.9052070348
 30
0.0
 11
222.9152626104
 21
51.2916823258
 31
0.0
  0
LINE
  5
23E
330
1F
100
AcDbEntity
  8
0
  6
Continuous
 62
     7
370
    15
100
AcDbLine
 10
224.710375984
 20
50.1224328153
 30
0.0
 11
223.3544243447
 21
50.9052070348
 31
0.0
  0
LINE
  5
23F
330
1F
100
AcDbEntity
  8
0
  6
Continuous
 62
     7
370
    15
100
AcDbLine
 10
224.5807060178
 20
50.0410046432
 30
0.0
 11
224.5818519773
 21
50.1966281451
 31
0.0
  0
ARC
  5
240
330
1F
100
AcDbEntity
  8
0
  6
Continuous
 62
     7
370
    15
100
AcDbCircle
 10
231.4524637429
 20
49.7645723416
 30
0.0
 40
6.877315541020494
100
AcDbArc
 50
177.6963871987
 51
210.8929730885
  0
LINE
  5
241
330
1F
100
AcDbEntity
  8
0
  6
Continuous
 62
     7
370
    15
100
AcDbLine
 10
211.3077635081
 20
73.8790005464
 30
0.0
 11
211.37369817
 21
73.8564456481
 31
0.0
  0
LINE
  5
242
330
1F
100
AcDbEntity
  8
0
  6
Continuous
 62
     7
370
    15
100
AcDbLine
 10
226.8775094957
 20
42.2982197329
 30
0.0
 11
228.604692195
 21
41.301138384
 31
0.0
  0
SPLINE
  5
243
330
1F
100
AcDbEntity
  8
0
  6
Continuous
 62
     7
370
    15
100
AcDbSpline
210
0.0
220
0.0
230
1.0
 70
     8
 71
     3
 72
    14
 73
    10
 74
     0
 42
0.000000001
 43
0.00000001
 40
0.0
 40
0.0
 40
0.0
 40
0.0
 40
0.25
 40
0.25
 40
0.5
 40
0.5
 40
0.75
 40
0.75
 40
1.0
 40
1.0
 40
1.0
 40
1.0
 10
228.55679701869
 20
41.17888969873736
 30
0.0
 10
228.5398888211519
 20
41.13573284918821
 30
0.0
 10
228.5193656302709
 20
41.09571687669921
 30
0.0
 10
228.4705821947086
 20
41.02240724971429
 30
0.0
 10
228.4421252163328
 20
40.98912009110821
 30
0.0
 10
228.3787625938246
 20
40.93619724477789
 30
0.0
 10
228.3434435330837
 20
40.91613357835262
 30
0.0
 10
228.2686254560325
 20
40.89937458787059
 30
0.0
 10
228.2302559819679
 20
40.90357148348178
 30
0.0
 10
228.1964638931809
 20
40.9230792411042
 30
0.0
  0
LINE
  5
244
330
1F
100
AcDbEntity
  8
0
  6
Continuous
 62
     7
370
    15
100
AcDbLine
 10
228.1964638932
 20
40.9230792411
 30
0.0
 11
226.8430037582
 21
41.7044151458
 31
0.0
  0
SPLINE
  5
245
330
1F
100
AcDbEntity
  8
0
  6
Continuous
 62
     7
370
    15
100
AcDbSpline
210
0.0
220
0.0
230
1.0
 70
     8
 71
     3
 72
     8
 73
     4
 74
     0
 42
0.000000001
 43
0.00000001
 40
0.0
 40
0.0
 40
0.0
 40
0.0
 40
0.0011901715795577
 40
0.0011901715795577
 40
0.0011901715795577
 40
0.0011901715795577
 10
226.8430037582351
 20
41.70441514580606
 30
0.0
 10
226.8538645818776
 20
41.90237033416422
 30
0.0
 10
226.8653480288337
 20
42.10030924666579
 30
0.0
 10
226.8775094956523
 20
42.29821973287441
 30
0.0
  0
SPLINE
  5
246
330
1F
100
AcDbEntity
  8
0
  6
Continuous
 62
     7
370
    15
100
AcDbSpline
210
0.0
220
0.0
230
1.0
 70
     8
 71
     3
 72
    10
 73
     6
 74
     0
 42
0.000000001
 43
0.00000001
 40
0.0
 40
0.0
 40
0.0
 40
0.0
 40
0.010223886440934
 40
0.4810354967857183
 40
0.9999999999999999
 40
0.9999999999999999
 40
0.9999999999999999
 40
0.9999999999999999
 10
249.8445929842956
 20
53.37097016476557
 30
0.0
 10
249.8446859219698
 20
53.37091656603883
 30
0.0
 10
249.8490586544484
 20
53.36839473734934
 30
0.0
 10
249.83242595545
 20
53.37800356463296
 30
0.0
 10
249.8006272054608
 20
53.39636757105589
 30
0.0
 10
249.7839543212955
 20
53.40599628136698
 30
0.0
  0
ARC
  5
247
330
1F
100
AcDbEntity
  8
0
  6
Continuous
 62
     7
370
    15
100
AcDbCircle
 10
233.9650618829
 20
42.1574303971
 30
0.0
 40
5.847770486846324
100
AcDbArc
 50
201.3860853872
 51
278.4266337925
  0
SPLINE
  5
248
330
1F
100
AcDbEntity
  8
0
  6
Continuous
 62
     7
370
    15
100
AcDbSpline
210
0.0
220
0.0
230
1.0
 70
     8
 71
     3
 72
     8
 73
     4
 74
     0
 42
0.000000001
 43
0.00000001
 40
0.0
 40
0.0
 40
0.0
 40
0.0
 40
1.0
 40
1.0
 40
1.0
 40
1.0
 10
227.2034264250096
 20
42.95775737130919
 30
0.0
 10
227.0943528446226
 20
42.73798517124996
 30
0.0
 10
226.9857412791547
 20
42.51813208958029
 30
0.0
 10
226.8775094956523
 20
42.29821973287441
 30
0.0
  0
LINE
  5
249
330
1F
100
AcDbEntity
  8
0
  6
Continuous
 62
     7
370
    15
100
AcDbLine
 10
227.2616732754
 20
42.9913825623
 30
0.0
 11
227.203426425
 21
42.9577573713
 31
0.0
  0
SPLINE
  5
24A
330
1F
100
AcDbEntity
  8
0
  6
Continuous
 62
     7
370
    15
100
AcDbSpline
210
0.0
220
0.0
230
1.0
 70
     8
 71
     3
 72
    12
 73
     8
 74
     0
 42
0.000000001
 43
0.00000001
 40
0.0
 40
0.0
 40
0.0
 40
0.0
 40
0.2500000000000015
 40
0.2500000000000015
 40
0.500000000000003
 40
0.500000000000003
 40
1.0
 40
1.0
 40
1.0
 40
1.0
 10
227.2737724492978
 20
43.32493051145391
 30
0.0
 10
227.3118100568504
 20
43.30297186801666
 30
0.0
 10
227.3412834607621
 20
43.27671493141199
 30
0.0
 10
227.380077170805
 20
43.21884692211268
 30
0.0
 10
227.3888993737516
 20
43.18806478730355
 30
0.0
 10
227.3837901010648
 20
43.09508480391681
 30
0.0
 10
227.3371663592955
 20
43.0349637919875
 30
0.0
 10
227.2616732754422
 20
42.99138256233157
 30
0.0
  0
LINE
  5
24B
330
1F
100
AcDbEntity
  8
0
  6
Continuous
 62
     7
370
    15
100
AcDbLine
 10
226.4888839222
 20
43.7780370135
 30
0.0
 11
227.2737724493
 21
43.3249305115
 31
0.0
  0
SPLINE
  5
24C
330
1F
100
AcDbEntity
  8
0
  6
Continuous
 62
     7
370
    15
100
AcDbSpline
210
0.0
220
0.0
230
1.0
 70
     8
 71
     3
 72
    12
 73
     8
 74
     0
 42
0.000000001
 43
0.00000001
 40
0.0
 40
0.0
 40
0.0
 40
0.0
 40
0.4999999999999984
 40
0.4999999999999984
 40
0.7499999999999992
 40
0.7499999999999992
 40
1.0
 40
1.0
 40
1.0
 40
1.0
 10
225.9110993233759
 20
43.77105230912226
 30
0.0
 10
225.9870301311272
 20
43.8148862314058
 30
0.0
 10
226.0909200905513
 20
43.84154357391501
 30
0.0
 10
226.2516221703837
 20
43.84449943668874
 30
0.0
 10
226.3054069708065
 20
43.83934616505279
 30
0.0
 10
226.4051758562491
 20
43.81704766244943
 30
0.0
 10
226.4507280820765
 20
43.80006391115201
 30
0.0
 10
226.4888839221808
 20
43.77803701351551
 30
0.0
  0
LINE
  5
24D
330
1F
100
AcDbEntity
  8
0
  6
Continuous
 62
     7
370
    15
100
AcDbLine
 10
225.8528524729
 20
43.7374271181
 30
0.0
 11
225.9110993234
 21
43.7710523091
 31
0.0
  0
SPLINE
  5
24E
330
1F
100
AcDbEntity
  8
0
  6
Continuous
 62
     7
370
    15
100
AcDbSpline
210
0.0
220
0.0
230
1.0
 70
     8
 71
     3
 72
     8
 73
     4
 74
     0
 42
0.000000001
 43
0.00000001
 40
0.0
 40
0.0
 40
0.0
 40
0.0
 40
1.0
 40
1.0
 40
1.0
 40
1.0
 10
224.7103759839652
 20
43.5492792796215
 30
0.0
 10
225.0913166347043
 20
43.61176015829444
 30
0.0
 10
225.4721546069435
 20
43.67446028042937
 30
0.0
 10
225.8528524729433
 20
43.73742711809987
 30
0.0
  0
LINE
  5
24F
330
1F
100
AcDbEntity
  8
0
  6
Continuous
 62
     7
370
    15
100
AcDbLine
 10
223.3544243447
 20
44.3320534991
 30
0.0
 11
224.710375984
 21
43.5492792796
 31
0.0
  0
LINE
  5
250
330
1F
100
AcDbEntity
  8
0
  6
Continuous
 62
     7
370
    15
100
AcDbLine
 10
223.3544243447
 20
44.3320534991
 30
0.0
 11
225.3673623118
 21
45.4940978527
 31
0.0
  0
ARC
  5
251
330
1F
100
AcDbEntity
  8
0
  6
Continuous
 62
     7
370
    15
100
AcDbCircle
 10
233.1148790835
 20
43.3334901519
 30
0.0
 40
6.479992706107249
100
AcDbArc
 50
194.5604166549
 51
237.897442124
  0
ELLIPSE
  5
252
330
1F
100
AcDbEntity
  8
0
  6
Continuous
 62
     7
370
    15
100
AcDbEllipse
 10
225.1330477368
 20
46.2825974272
 30
0.0
 11
-6.005970385558612E-5
 21
0.8534489614827194
 31
0.0
210
0.0
220
0.0
230
1.0
 40
0.7174342186
 41
3.534193645557408
 42
5.104989972352371
  0
ARC
  5
253
330
1F
100
AcDbEntity
  8
0
  6
Continuous
 62
     7
370
    15
100
AcDbCircle
 10
232.4427336786
 20
45.5682381611
 30
0.0
 40
6.839473911072618
100
AcDbArc
 50
195.5264395397
 51
215.5387953777
  0
ARC
  5
254
330
1F
100
AcDbEntity
  8
0
  6
Continuous
 62
     7
370
    15
100
AcDbCircle
 10
230.2882065447
 20
44.5803108826
 30
0.0
 40
6.107289119431878
100
AcDbArc
 50
193.621108964
 51
253.212350821
  0
SPLINE
  5
255
330
1F
100
AcDbEntity
  8
0
  6
Continuous
 62
     7
370
    15
100
AcDbSpline
210
0.0
220
0.0
230
1.0
 70
     8
 71
     3
 72
     8
 73
     4
 74
     0
 42
0.000000001
 43
0.00000001
 40
0.0000000000000007
 40
0.0000000000000007
 40
0.0000000000000007
 40
0.0000000000000007
 40
0.0011901715795607
 40
0.0011901715795607
 40
0.0011901715795607
 40
0.0011901715795607
 10
224.7103759839662
 20
43.5492792796196
 30
0.0
 10
224.5915788680509
 20
43.41292824330421
 30
0.0
 10
224.4723356939007
 20
43.27719769717059
 30
0.0
 10
224.3526891864055
 20
43.14204314735084
 30
0.0
  0
LINE
  5
256
330
1F
100
AcDbEntity
  8
0
  6
Continuous
 62
     7
370
    15
100
AcDbLine
 10
222.9152626104
 20
44.0784788175
 30
0.0
 11
223.3544243447
 21
44.3320534991
 31
0.0
  0
LINE
  5
257
330
1F
100
AcDbEntity
  8
0
  6
Continuous
 62
     7
370
    15
100
AcDbLine
 10
224.3526891864
 20
43.1420431474
 30
0.0
 11
223.016906721
 21
43.9131739507
 31
0.0
  0
SPLINE
  5
258
330
1F
100
AcDbEntity
  8
0
  6
Continuous
 62
     7
370
    15
100
AcDbSpline
210
0.0
220
0.0
230
1.0
 70
     8
 71
     3
 72
    10
 73
     6
 74
     0
 42
0.000000001
 43
0.00000001
 40
0.0
 40
0.0
 40
0.0
 40
0.0
 40
0.5
 40
0.5
 40
1.0
 40
1.0
 40
1.0
 40
1.0
 10
223.0169067209894
 20
43.91317395065489
 30
0.0
 10
222.9906024686125
 20
43.92835907232766
 30
0.0
 10
222.968404354494
 20
43.95198872326153
 30
0.0
 10
222.9343924680622
 20
44.00943111607143
 30
0.0
 10
222.9225215876561
 20
44.04306939422205
 30
0.0
 10
222.915262610392
 20
44.07847881746517
 30
0.0
  0
ARC
  5
259
330
1F
100
AcDbEntity
  8
0
  6
Continuous
 62
     7
370
    15
100
AcDbCircle
 10
229.0125600032
 20
45.2709711907
 30
0.0
 40
6.104060234070179
100
AcDbArc
 50
201.7788277508
 51
238.7405712158
  0
ELLIPSE
  5
25A
330
1F
100
AcDbEntity
  8
0
  6
Continuous
 62
     7
370
    15
100
AcDbEllipse
 10
225.0138089212
 20
46.2137399471
 30
0.0
 11
0.2600075789209484
 21
0.9705436209909308
 31
0.0
210
0.0
220
0.0
230
1.0
 40
0.5176380889
 41
3.619174351347765
 42
5.189970678142602
  0
SPLINE
  5
25B
330
1F
100
AcDbEntity
  8
0
  6
Continuous
 62
     7
370
    15
100
AcDbSpline
210
0.0
220
0.0
230
1.0
 70
     8
 71
     3
 72
    12
 73
     8
 74
     0
 42
0.000000001
 43
0.00000001
 40
0.0
 40
0.0
 40
0.0
 40
0.0
 40
0.4999999999999996
 40
0.4999999999999996
 40
0.7499999999999998
 40
0.7499999999999998
 40
1.0
 40
1.0
 40
1.0
 40
1.0
 10
242.4692391581059
 20
66.55334398250692
 30
0.0
 10
242.5316824839305
 20
66.58939174720723
 30
0.0
 10
242.6110190891527
 20
66.61505074726502
 30
0.0
 10
242.7418924524938
 20
66.6268345072715
 30
0.0
 10
242.7866647648648
 20
66.62602423506796
 30
0.0
 10
242.8719266808681
 20
66.61247575468062
 30
0.0
 10
242.9113428879864
 20
66.59971114367121
 30
0.0
 10
242.9425825482362
 20
66.58167687167925
 30
0.0
  0
LINE
  5
25C
330
1F
100
AcDbEntity
  8
0
  6
Continuous
 62
     7
370
    15
100
AcDbLine
 10
242.9425825482
 20
66.5816768717
 30
0.0
 11
244.0942458137
 21
65.9168358201
 31
0.0
  0
SPLINE
  5
25D
330
1F
100
AcDbEntity
  8
0
  6
Continuous
 62
     7
370
    15
100
AcDbSpline
210
0.0
220
0.0
230
1.0
 70
     8
 71
     3
 72
     9
 73
     5
 74
     0
 42
0.000000001
 43
0.00000001
 40
0.0
 40
0.0
 40
0.0
 40
0.0
 40
0.8664449205980815
 40
1.0
 40
1.0
 40
1.0
 40
1.0
 10
245.6613269318811
 20
64.13652196569416
 30
0.0
 10
245.9805035992307
 20
64.20581211783704
 30
0.0
 10
246.3488786219954
 20
64.28578275474152
 30
0.0
 10
246.7192187767129
 20
64.36265181357442
 30
0.0
 10
246.7686795854819
 20
64.37291806683041
 30
0.0
  0
LINE
  5
25E
330
1F
100
AcDbEntity
  8
0
  6
Continuous
 62
     7
370
    15
100
AcDbLine
 10
246.7686795855
 20
64.3729180668
 30
0.0
 11
248.1221397204
 21
63.5915821621
 31
0.0
  0
SPLINE
  5
25F
330
1F
100
AcDbEntity
  8
0
  6
Continuous
 62
     7
370
    15
100
AcDbSpline
210
0.0
220
0.0
230
1.0
 70
     8
 71
     3
 72
    14
 73
    10
 74
     0
 42
0.000000001
 43
0.00000001
 40
0.0
 40
0.0
 40
0.0
 40
0.0
 40
0.25
 40
0.25
 40
0.5
 40
0.5
 40
0.75
 40
0.75
 40
1.0
 40
1.0
 40
1.0
 40
1.0
 10
248.1221397204277
 20
63.59158216212857
 30
0.0
 10
248.1534018085858
 20
63.57353494278078
 30
0.0
 10
248.1756691806819
 20
63.55044562734047
 30
0.0
 10
248.1988225786702
 20
63.50183427407178
 30
0.0
 10
248.2003427486662
 20
63.47583449250666
 30
0.0
 10
248.1868975778953
 20
63.42570156311923
 30
0.0
 10
248.1721980722472
 20
63.40151124800783
 30
0.0
 10
248.1305530772715
 20
63.35656080523525
 30
0.0
 10
248.1042407937539
 20
63.33632689815348
 30
0.0
 10
248.0730603990093
 20
63.31832683940942
 30
0.0
  0
LINE
  5
260
330
1F
100
AcDbEntity
  8
0
  6
Continuous
 62
     7
370
    15
100
AcDbLine
 10
242.4692391581
 20
66.5533439825
 30
0.0
 11
241.9613184684
 21
66.2601276096
 31
0.0
  0
SPLINE
  5
261
330
1F
100
AcDbEntity
  8
0
  6
Continuous
 62
     7
370
    15
100
AcDbSpline
210
0.0
220
0.0
230
1.0
 70
     8
 71
     3
 72
    13
 73
     9
 74
     0
 42
0.000000001
 43
0.00000001
 40
0.0
 40
0.0
 40
0.0
 40
0.0
 40
0.1992761032674061
 40
0.4041769227904746
 40
0.6035554563920701
 40
0.8097979608304823
 40
0.9915733609524041
 40
1.0
 40
1.0
 40
1.0
 40
1.0
 10
249.7839543212955
 20
60.22248957538362
 30
0.0
 10
249.7939224118784
 20
60.24137960266852
 30
0.0
 10
249.8141399498161
 20
60.27969284231067
 30
0.0
 10
249.8338762066556
 20
60.34085552305866
 30
0.0
 10
249.845286140335
 20
60.40377522626888
 30
0.0
 10
249.8448153079725
 20
60.46293369309306
 30
0.0
 10
249.8405302854165
 20
60.50257205037607
 30
0.0
 10
249.8339341048423
 20
60.51909361618716
 30
0.0
 10
249.8336418701585
 20
60.51982558137639
 30
0.0
  0
LINE
  5
262
330
1F
100
AcDbEntity
  8
0
  6
Continuous
 62
     7
370
    15
100
AcDbLine
 10
249.6785908228
 20
53.4668411075
 30
0.0
 11
247.9417463012
 21
54.4695001076
 31
0.0
  0
LWPOLYLINE
  5
263
330
1F
100
AcDbEntity
  8
0
  6
Continuous
 62
     7
370
    15
100
AcDbPolyline
 90
        3
 70
   128
 43
0.0
 10
232.8911621673
 20
60.6325006049
 10
233.0222104253
 20
60.8078574577
 10
233.1816372774
 20
60.949779939
  0
LWPOLYLINE
  5
264
330
1F
100
AcDbEntity
  8
0
  6
Continuous
 62
     7
370
    15
100
AcDbPolyline
 90
        3
 70
   128
 43
0.0
 10
232.9491305042
 20
60.6967316581
 10
233.0468890492
 20
60.820296526
 10
233.1559288404
 20
60.9221564506
  0
LWPOLYLINE
  5
265
330
1F
100
AcDbEntity
  8
0
  6
Continuous
 62
     7
370
    15
100
AcDbPolyline
 90
       24
 70
   128
 43
0.0
 10
270.8450728221
 20
35.9823882645
 10
271.3676271796
 20
35.89370619
 10
271.9122495803
 20
35.889700717
 10
272.4385478722
 20
35.9706689132
 10
272.9074889188
 20
36.1306057378
 10
273.2842935077
 20
36.3576494084
 10
273.5410157665
 20
36.6349611344
 10
273.6586157796
 20
36.9419739737
 10
273.628371692
 20
37.2559181886
 10
273.4525265694
 20
37.5535099729
 10
273.1441220401
 20
37.8126783053
 10
272.726031057
 20
38.0142018561
 10
272.2292615159
 20
38.1431345456
 10
271.6906565411
 20
38.189914026
 10
271.1501619994
 20
38.1510708772
 10
270.6478638986
 20
38.0294859179
 10
270.2210153908
 20
37.8341765483
 10
269.9012738772
 20
37.5796279709
 10
269.7123531232
 20
37.2847188891
 10
269.6682645167
 20
36.9713213604
 10
269.7722779082
 20
36.662678646
 10
270.0166791
 20
36.3816813638
 10
270.383341974
 20
36.1491697969
 10
270.8450728221
 20
35.9823882645
  0
LINE
  5
266
330
1F
100
AcDbEntity
  8
0
  6
Continuous
 62
     7
370
    15
100
AcDbLine
 10
271.5486527367
 20
37.6986238197
 30
0.0
 11
272.6018108712
 21
37.4252847771
 31
0.0
  0
LINE
  5
267
330
1F
100
AcDbEntity
  8
0
  6
Continuous
 62
     7
370
    15
100
AcDbLine
 10
270.6120206755
 20
37.3087713297
 30
0.0
 11
271.5486527367
 21
37.6986238197
 31
0.0
  0
LINE
  5
268
330
1F
100
AcDbEntity
  8
0
  6
Continuous
 62
     7
370
    15
100
AcDbLine
 10
270.7285467488
 20
36.6455797971
 30
0.0
 11
270.6120206755
 21
37.3087713297
 31
0.0
  0
LINE
  5
269
330
1F
100
AcDbEntity
  8
0
  6
Continuous
 62
     7
370
    15
100
AcDbLine
 10
271.7817048833
 20
36.3722407545
 30
0.0
 11
270.7285467488
 21
36.6455797971
 31
0.0
  0
LINE
  5
26A
330
1F
100
AcDbEntity
  8
0
  6
Continuous
 62
     7
370
    15
100
AcDbLine
 10
272.7183369445
 20
36.7620932446
 30
0.0
 11
271.7817048833
 21
36.3722407545
 31
0.0
  0
LINE
  5
26B
330
1F
100
AcDbEntity
  8
0
  6
Continuous
 62
     7
370
    15
100
AcDbLine
 10
272.6018108712
 20
37.4252847771
 30
0.0
 11
272.7183369445
 21
36.7620932446
 31
0.0
  0
LINE
  5
26C
330
1F
100
AcDbEntity
  8
0
  6
Continuous
 62
     7
370
    15
100
AcDbLine
 10
272.6018108712
 20
36.7135918301
 30
0.0
 11
272.6018108712
 21
37.4252847771
 31
0.0
  0
LINE
  5
26D
330
1F
100
AcDbEntity
  8
0
  6
Continuous
 62
     7
370
    15
100
AcDbLine
 10
271.5486527367
 20
36.4327276354
 30
0.0
 11
271.5486527367
 21
37.6986238197
 31
0.0
  0
ARC
  5
26E
330
1F
100
AcDbEntity
  8
0
  6
Continuous
 62
     7
370
     0
100
AcDbCircle
 10
238.8628224652
 20
47.1808200311
 30
0.0
 40
3.067378772890698
100
AcDbArc
 50
173.5490657242
 51
235.1387538824
  0
LWPOLYLINE
  5
26F
330
1F
100
AcDbEntity
  8
0
  6
Continuous
 62
     7
370
     0
100
AcDbPolyline
 90
       16
 70
   128
 43
0.0
 10
243.3590284258
 20
55.489527888
 10
242.8319507474
 20
55.7050457319
 10
242.2406558923
 20
55.7821222106
 10
241.5999574627
 20
55.7187128132
 10
240.9256315803
 20
55.5163788896
 10
240.2342823863
 20
55.1801025724
 10
239.5429331923
 20
54.7181641006
 10
238.8686073099
 20
54.1419379326
 10
238.2279088803
 20
53.4656126688
 10
237.6366140252
 20
52.705841682
 10
237.1092823863
 20
51.8813330553
 10
236.6588986187
 20
51.0123889276
 10
236.2965526654
 20
50.120405587
 10
236.0311666865
 20
49.2273466239
 10
235.8692753654
 20
48.3552021136
 10
235.8148650039
 20
47.5254471487
  0
LWPOLYLINE
  5
270
330
1F
100
AcDbEntity
  8
0
  6
Continuous
 62
     7
370
     0
100
AcDbPolyline
 90
       33
 70
   128
 43
0.0
 10
274.8648369949
 20
33.3510921074
 10
274.3130382363
 20
32.9697870536
 10
273.7824447946
 20
32.4776185172
 10
273.2934470781
 20
31.8935002591
 10
272.8648369949
 20
31.2398796165
 10
272.51308579
 20
30.5418748639
 10
272.2517110651
 20
29.8263099327
 10
272.0907573042
 20
29.1206835818
 10
272.0364098701
 20
28.4521126362
 10
272.0907573042
 20
27.8462899024
 10
272.2517110651
 20
27.3264968082
 10
272.51308579
 20
26.9127087109
 10
272.8648369949
 20
26.6208272549
 10
273.2934470781
 20
26.4620692808
 10
273.7824447946
 20
26.4425357687
 10
274.3130382363
 20
26.5629773804
 10
274.8648369949
 20
26.8187656123
 10
275.4166357535
 20
27.2000706661
 10
275.9472291952
 20
27.6922392025
 10
276.4362269117
 20
28.2763574605
 10
276.8648369949
 20
28.9299781032
 10
277.2165881997
 20
29.6279828558
 10
277.4779629246
 20
30.343547787
 10
277.6389166855
 20
31.0491741379
 10
277.6932641196
 20
31.7177450835
 10
277.6389166855
 20
32.3235678173
 10
277.4779629246
 20
32.8433609115
 10
277.2165881997
 20
33.2571490088
 10
276.8648369949
 20
33.5490304648
 10
276.4362269117
 20
33.7077884388
 10
275.9472291952
 20
33.727321951
 10
275.4166357535
 20
33.6068803393
 10
274.8648369949
 20
33.3510921074
  0
LWPOLYLINE
  5
271
330
1F
100
AcDbEntity
  8
0
  6
Continuous
 62
     7
370
     0
100
AcDbPolyline
 90
       17
 70
   128
 43
0.0
 10
272.7797595932
 20
27.2474954664
 10
273.0565893221
 20
27.1371698769
 10
273.5046617696
 20
27.0971054481
 10
273.9967284217
 20
27.1965434775
 10
274.5112836043
 20
27.4311380462
 10
275.0258387869
 20
27.7906362458
 10
275.517905439
 20
28.2593262798
 10
275.9659778865
 20
28.8167241448
 10
276.3504732135
 20
29.4384688794
 10
276.6545871292
 20
30.0973872552
 10
276.8650283962
 20
30.7646813774
 10
276.9725997212
 20
31.4111872907
 10
276.9725997212
 20
32.0086495846
 10
276.8650283962
 20
32.5309562897
 10
276.6545871292
 20
32.9552800968
 10
276.3504732135
 20
33.2630760194
 10
276.2611413864
 20
33.3202019061
  0
LWPOLYLINE
  5
272
330
1F
100
AcDbEntity
  8
0
  6
Continuous
 62
     7
370
     0
100
AcDbPolyline
 90
       20
 70
   128
 43
0.0
 10
228.1964638932
 20
48.2708655649
 10
228.567787928
 20
49.7076874853
 10
229.0429244649
 20
51.1555342048
 10
229.617127831
 20
52.599944602
 10
230.2846628716
 20
54.0264918776
 10
231.0388622338
 20
55.4209276493
 10
231.8721929594
 20
56.7693242652
 10
232.7763317249
 20
58.0582139135
 10
233.7422479744
 20
59.2747231391
 10
234.7602941176
 20
60.4067014239
 10
235.8203018895
 20
61.4428425466
 10
236.9116839117
 20
62.3727975094
 10
238.0235394392
 20
63.1872779038
 10
239.1447632371
 20
63.8781486836
 10
240.2641565001
 20
64.4385094179
 10
241.3705387063
 20
64.8627632127
 10
242.4528592886
 20
65.1466726128
 10
243.5003080076
 20
65.2874019255
 10
244.5024229251
 20
65.2835455437
 10
245.4491948975
 20
65.1351419849
  0
LINE
  5
273
330
1F
100
AcDbEntity
  8
0
  6
Continuous
 62
     7
370
     0
100
AcDbLine
 10
228.5567970187
 20
47.9412420114
 30
0.0
 11
228.7779466347
 21
48.8864110321
 31
0.0
  0
LWPOLYLINE
  5
274
330
1F
100
AcDbEntity
  8
0
  6
Continuous
 62
     7
370
     0
100
AcDbPolyline
 90
       10
 70
   128
 43
0.0
 10
236.7221642229
 20
61.6723887206
 10
237.1652380479
 20
62.0339808442
 10
238.2745854824
 20
62.8452035255
 10
239.3932170198
 20
63.5308927601
 10
240.5095808625
 20
64.0839676257
 10
241.6121486309
 20
64.4987166715
 10
242.6895344134
 20
64.7708568991
 10
243.7306123459
 20
64.897577992
 10
244.7246315055
 20
64.8775713364
 10
245.6613269319
 20
64.7110435357
  0
LWPOLYLINE
  5
275
330
1F
100
AcDbEntity
  8
0
  6
Continuous
 62
     7
370
     0
100
AcDbPolyline
 90
        3
 70
   128
 43
0.0
 10
249.7839543213
 20
53.4059962814
 10
249.4361101928
 20
51.9984779988
 10
249.4319368283
 20
51.9837124906
  0
LWPOLYLINE
  5
276
330
1F
100
AcDbEntity
  8
0
  6
Continuous
 62
     7
370
     0
100
AcDbPolyline
 90
       18
 70
   128
 43
0.0
 10
243.1824447493
 20
41.1581017108
 10
242.4180545608
 20
40.4087573011
 10
241.350664153
 20
39.4791363733
 10
240.261501715
 20
38.6616226619
 10
239.1614596771
 20
37.9643919088
 10
238.0615392736
 20
37.3944169374
 10
236.9727405223
 20
36.9573979192
 10
235.9059522164
 20
36.6577053677
 10
234.8718430282
 20
36.4983364301
 10
233.8807548148
 20
36.4808849139
 10
232.9425991916
 20
36.6055253469
 10
232.066758409
 20
36.8710112328
 10
231.2619915228
 20
37.2746875162
 10
230.5363467974
 20
37.8125171355
 10
229.8970812169
 20
38.4791213967
 10
229.3505879102
 20
39.2678337638
 10
228.9023322145
 20
40.1707665298
 10
228.5567970187
 20
41.1788896987
  0
ARC
  5
277
330
1F
100
AcDbEntity
  8
0
  6
Continuous
 62
     7
370
     0
100
AcDbCircle
 10
242.9851963236
 20
58.4858767984
 30
0.0
 40
7.017045977378494
100
AcDbArc
 50
14.3287300663
 51
43.5251561868
  0
LWPOLYLINE
  5
278
330
1F
100
AcDbEntity
  8
0
  6
Continuous
 62
     7
370
     0
100
AcDbPolyline
 90
       23
 70
   128
 43
0.0
 10
233.6935446603
 20
47.5254471487
 10
233.7468763983
 20
48.4369489113
 10
233.9058335709
 20
49.392284843
 10
234.1673222573
 20
50.3728604166
 10
234.5262528779
 20
51.3595898439
 10
234.9756392562
 20
52.3332675589
 10
235.5067345978
 20
53.2749420326
 10
236.1092017357
 20
54.1662846424
 10
236.7713143326
 20
54.9899464183
 10
237.4801851198
 20
55.7298957207
 10
238.2220167337
 20
56.3717302782
 10
238.982370266
 20
56.9029575111
 10
239.7464462998
 20
57.3132376857
 10
240.4993729644
 20
57.594585165
 10
241.2264953987
 20
57.7415238404
 10
241.9136609916
 20
57.7511937176
 10
242.5474948464
 20
57.6234065836
 10
243.1156601082
 20
57.3606496695
 10
243.6070980863
 20
56.9680372398
 10
244.0122434997
 20
56.4532110488
 10
244.3232106535
 20
55.8261916028
 10
244.533946926
 20
55.0991831221
 10
244.5898422933
 20
54.7789941664
  0
LWPOLYLINE
  5
279
330
1F
100
AcDbEntity
  8
0
  6
Continuous
 62
     7
370
     0
100
AcDbPolyline
 90
       12
 70
   128
 43
0.0
 10
238.3403502143
 20
43.9533833867
 10
238.2220167337
 20
43.9076265842
 10
237.4801851198
 20
43.6929605913
 10
236.7713143326
 20
43.6144651039
 10
236.1092017357
 20
43.6736679474
 10
235.5067345978
 20
43.8694168059
 10
234.9756392562
 20
44.1979016503
 10
234.5262528779
 20
44.652728897
 10
234.1673222573
 20
45.2250458508
 10
233.9058335709
 20
45.9037130133
 10
233.7468763983
 20
46.6755209001
 10
233.6935446603
 20
47.5254471487
  0
LWPOLYLINE
  5
27A
330
1F
100
AcDbEntity
  8
0
  6
Continuous
 62
     7
370
     0
100
AcDbPolyline
 90
       20
 70
   128
 43
0.0
 10
223.016906721
 20
51.2609602745
 10
223.3882307558
 20
52.6977821948
 10
223.8633672927
 20
54.1456289143
 10
224.4375706588
 20
55.5900393116
 10
225.1051056994
 20
57.0165865872
 10
225.8593050616
 20
58.4110223588
 10
226.6926357872
 20
59.7594189748
 10
227.5967745527
 20
61.0483086231
 10
228.5626908022
 20
62.2648178487
 10
229.5807369454
 20
63.3967961335
 10
230.6407447173
 20
64.4329372562
 10
231.7321267395
 20
65.362892219
 10
232.843982267
 20
66.1773726133
 10
233.9652060649
 20
66.8682433931
 10
235.0845993279
 20
67.4286041274
 10
236.1909815341
 20
67.8528579222
 10
237.2733021164
 20
68.1367673223
 10
238.3207508354
 20
68.277496635
 10
239.3228657529
 20
68.2736402532
 10
240.2696377253
 20
68.1252366945
  0
LWPOLYLINE
  5
27B
330
1F
100
AcDbEntity
  8
0
  6
Continuous
 62
     7
370
     0
100
AcDbPolyline
 90
       16
 70
   128
 43
0.0
 10
226.4888839222
 20
50.3511905492
 10
226.8391608719
 20
51.6821817409
 10
227.28990037
 20
53.0225908
 10
227.8361433636
 20
54.3576704958
 10
228.4718800668
 20
55.6727322317
 10
229.1901160806
 20
56.953307649
 10
229.9829493456
 20
58.1853078092
 10
230.8416570803
 20
59.3551782002
 10
231.7567917503
 20
60.4500478643
 10
232.7182850095
 20
61.4578710044
 10
233.7155584731
 20
62.3675595126
 10
234.7376401011
 20
63.1691049618
 10
235.7732849133
 20
63.8536887191
 10
236.8110987065
 20
64.4137789682
 10
237.8396634146
 20
64.8432135752
 10
238.5989055586
 20
65.0768313141
  0
LWPOLYLINE
  5
27C
330
1F
100
AcDbEntity
  8
0
  6
Continuous
 62
     7
370
     0
100
AcDbPolyline
 90
       19
 70
   128
 43
0.0
 10
225.9110993234
 20
50.3442058448
 10
226.2598515424
 20
51.7010956264
 10
226.7107200702
 20
53.0688209919
 10
227.2588213336
 20
54.4325674523
 10
227.898218585
 20
55.777563616
 10
228.6219862063
 20
57.0892411848
 10
229.4222847236
 20
58.3533927502
 10
230.2904457199
 20
59.5563256806
 10
231.2170657273
 20
60.6850104329
 10
232.1921080804
 20
61.7272216815
 10
233.205011628
 20
62.6716707367
 10
234.2448051263
 20
63.5081278181
 10
235.3002260735
 20
64.2275328582
 10
236.3598426994
 20
64.822093636
 10
237.4121777884
 20
65.2853701788
 10
238.4458329947
 20
65.6123445162
 10
239.4496123033
 20
65.7994750326
 10
240.4126432994
 20
65.8447348276
 10
240.6720178157
 20
65.831989148
  0
LINE
  5
27D
330
1F
100
AcDbEntity
  8
0
  6
Continuous
 62
     7
370
     0
100
AcDbLine
 10
231.1833155871
 20
48.7096668685
 30
0.0
 11
230.6175382149
 21
49.0362831933
 31
0.0
  0
LWPOLYLINE
  5
27E
330
1F
100
AcDbEntity
  8
0
  6
Continuous
 62
     7
370
     0
100
AcDbPolyline
 90
        3
 70
   128
 43
0.0
 10
225.5006509883
 20
49.3891013827
 10
225.4999448333
 20
49.5103393705
 10
225.5245907278
 20
50.2426718304
  0
LINE
  5
27F
330
1F
100
AcDbEntity
  8
0
  6
Continuous
 62
     7
370
     0
100
AcDbLine
 10
225.6987331617
 20
46.6091606719
 30
0.0
 11
231.1833155871
 21
43.4429786318
 31
0.0
  0
LINE
  5
280
330
1F
100
AcDbEntity
  8
0
  6
Continuous
 62
     7
370
     0
100
AcDbLine
 10
225.5794943462
 20
46.5403031918
 30
0.0
 11
225.6987331617
 21
46.6091606719
 31
0.0
  0
LWPOLYLINE
  5
281
330
1F
100
AcDbEntity
  8
0
  6
Continuous
 62
     7
370
     0
100
AcDbPolyline
 90
       16
 70
   128
 43
0.0
 10
204.2280619749
 20
65.8023027479
 10
204.2820225307
 20
66.6251982001
 10
204.4425755102
 20
67.4901327669
 10
204.7057675661
 20
68.3758088887
 10
205.0651180366
 20
69.2604182799
 10
205.5117785204
 20
70.1221789215
 10
206.0347507542
 20
70.9398714064
 10
206.6211574257
 20
71.693361432
 10
207.2565592566
 20
72.3640955732
 10
207.9253105451
 20
72.9355581292
 10
208.610944415
 20
73.3936777954
 10
209.2965782848
 20
73.7271741453
 10
209.9653295733
 20
73.9278353918
 10
210.6007314042
 20
73.9907205892
 10
211.1871380758
 20
73.9142812951
 10
211.3077635081
 20
73.8790005464
  0
ARC
  5
282
330
1F
100
AcDbEntity
  8
0
  6
Continuous
 62
     7
370
     0
100
AcDbCircle
 10
207.5446194502
 20
65.5460554742
 30
0.0
 40
3.326441965900369
100
AcDbArc
 50
175.5819319508
 51
225.399234426
  0
LINE
  5
283
330
1F
100
AcDbEntity
  8
0
  6
Continuous
 62
     7
370
     0
100
AcDbLine
 10
228.5199431366
 20
40.0250370221
 30
0.0
 11
228.1964638932
 21
40.9230792411
 31
0.0
  0
LINE
  5
284
330
1F
100
AcDbEntity
  8
0
  6
Continuous
 62
     7
370
     0
100
AcDbLine
 10
230.6176301621
 20
42.4631827376
 30
0.0
 11
225.3673623118
 21
45.4940978527
 31
0.0
  0
LINE
  5
285
330
1F
100
AcDbEntity
  8
0
  6
Continuous
 62
     7
370
     0
100
AcDbLine
 10
227.3523641933
 20
43.0818684178
 30
0.0
 11
227.2737724493
 21
43.3249305115
 31
0.0
  0
LWPOLYLINE
  5
286
330
1F
100
AcDbEntity
  8
0
  6
Continuous
 62
     7
370
     0
100
AcDbPolyline
 90
        3
 70
   128
 43
0.0
 10
226.986811998
 20
42.5497692508
 10
226.8455192982
 20
42.8376435896
 10
226.4888839222
 20
43.7780370135
  0
ARC
  5
287
330
1F
100
AcDbEntity
  8
0
  6
Continuous
 62
     7
370
     0
100
AcDbCircle
 10
232.5259034
 20
45.6320039791
 30
0.0
 40
6.871591816338294
100
AcDbArc
 50
195.7129563526
 51
213.6958252633
  0
LINE
  5
288
330
1F
100
AcDbEntity
  8
0
  6
Continuous
 62
     7
370
     0
100
AcDbLine
 10
223.344189317
 20
43.0062140061
 30
0.0
 11
223.016906721
 21
43.9131739507
 31
0.0
  0
LINE
  5
289
330
1F
100
AcDbEntity
  8
0
  6
Continuous
 62
     7
370
     0
100
AcDbLine
 10
247.9417463087
 20
53.1173085926
 30
0.0
 11
248.5074317262
 21
52.7907453522
 31
0.0
  0
OLE2FRAME
  5
28A
330
1F
100
AcDbEntity
  8
0
100
AcDbOle2Frame
 70
     2
  3
Paintbrush-Bild
 10
13.8511154363
 20
38.264191557
 30
0.0
 11
51.6290888628
 21
31.9806341108
 31
0.0
 71
     2
 72
     0
 73
     1
 90
    12928
310
80552BED0767C5B32B40DDAF6807D121434000000000000000006FFBDDFB85D0
310
4940DDAF6807D121434000000000000000006FFBDDFB85D04940416F4BD60AFB
310
3F4000000000000000002BED0767C5B32B40416F4BD60AFB3F40000000000000
310
0000000000000100000000010000010000000100000000000100000000320000
310
D0CF11E0A1B11AE1000000000000000000000000000000003E000300FEFF0900
310
0600000000000000000000000100000001000000000000000010000002000000
310
01000000FEFFFFFF0000000000000000FFFFFFFFFFFFFFFFFFFFFFFFFFFFFFFF
310
FFFFFFFFFFFFFFFFFFFFFFFFFFFFFFFFFFFFFFFFFFFFFFFFFFFFFFFFFFFFFFFF
310
FFFFFFFFFFFFFFFFFFFFFFFFFFFFFFFFFFFFFFFFFFFFFFFFFFFFFFFFFFFFFFFF
310
FFFFFFFFFFFFFFFFFFFFFFFFFFFFFFFFFFFFFFFFFFFFFFFFFFFFFFFFFFFFFFFF
310
FFFFFFFFFFFFFFFFFFFFFFFFFFFFFFFFFFFFFFFFFFFFFFFFFFFFFFFFFFFFFFFF
310
FFFFFFFFFFFFFFFFFFFFFFFFFFFFFFFFFFFFFFFFFFFFFFFFFFFFFFFFFFFFFFFF
310
FFFFFFFFFFFFFFFFFFFFFFFFFFFFFFFFFFFFFFFFFFFFFFFFFFFFFFFFFFFFFFFF
310
FFFFFFFFFFFFFFFFFFFFFFFFFFFFFFFFFFFFFFFFFFFFFFFFFFFFFFFFFFFFFFFF
310
FFFFFFFFFFFFFFFFFFFFFFFFFFFFFFFFFFFFFFFFFFFFFFFFFFFFFFFFFFFFFFFF
310
FFFFFFFFFFFFFFFFFFFFFFFFFFFFFFFFFFFFFFFFFFFFFFFFFFFFFFFFFFFFFFFF
310
FFFFFFFFFFFFFFFFFFFFFFFFFFFFFFFFFFFFFFFFFFFFFFFFFFFFFFFFFFFFFFFF
310
FFFFFFFFFFFFFFFFFFFFFFFFFFFFFFFFFFFFFFFFFFFFFFFFFFFFFFFFFFFFFFFF
310
FFFFFFFFFFFFFFFFFFFFFFFFFFFFFFFFFFFFFFFFFFFFFFFFFFFFFFFFFFFFFFFF
310
FFFFFFFFFFFFFFFFFFFFFFFFFFFFFFFFFFFFFFFFFFFFFFFFFFFFFFFFFFFFFFFF
310
FDFFFFFFFEFFFFFFFEFFFFFFFEFFFFFF05000000060000000700000008000000
310
090000000A0000000B0000000C0000000D0000000E0000000F00000010000000
310
11000000120000001300000014000000150000001600000017000000FEFFFFFF
310
FFFFFFFFFFFFFFFFFFFFFFFFFFFFFFFFFFFFFFFFFFFFFFFFFFFFFFFFFFFFFFFF
310
FFFFFFFFFFFFFFFFFFFFFFFFFFFFFFFFFFFFFFFFFFFFFFFFFFFFFFFFFFFFFFFF
310
FFFFFFFFFFFFFFFFFFFFFFFFFFFFFFFFFFFFFFFFFFFFFFFFFFFFFFFFFFFFFFFF
310
FFFFFFFFFFFFFFFFFFFFFFFFFFFFFFFFFFFFFFFFFFFFFFFFFFFFFFFFFFFFFFFF
310
FFFFFFFFFFFFFFFFFFFFFFFFFFFFFFFFFFFFFFFFFFFFFFFFFFFFFFFFFFFFFFFF
310
FFFFFFFFFFFFFFFFFFFFFFFFFFFFFFFFFFFFFFFFFFFFFFFFFFFFFFFFFFFFFFFF
310
FFFFFFFFFFFFFFFFFFFFFFFFFFFFFFFFFFFFFFFFFFFFFFFFFFFFFFFFFFFFFFFF
310
FFFFFFFFFFFFFFFFFFFFFFFFFFFFFFFFFFFFFFFFFFFFFFFFFFFFFFFFFFFFFFFF
310
FFFFFFFFFFFFFFFFFFFFFFFFFFFFFFFFFFFFFFFFFFFFFFFFFFFFFFFFFFFFFFFF
310
FFFFFFFFFFFFFFFFFFFFFFFFFFFFFFFFFFFFFFFFFFFFFFFFFFFFFFFFFFFFFFFF
310
FFFFFFFFFFFFFFFFFFFFFFFFFFFFFFFFFFFFFFFFFFFFFFFFFFFFFFFFFFFFFFFF
310
FFFFFFFFFFFFFFFFFFFFFFFFFFFFFFFFFFFFFFFFFFFFFFFFFFFFFFFFFFFFFFFF
310
FFFFFFFFFFFFFFFFFFFFFFFFFFFFFFFFFFFFFFFFFFFFFFFFFFFFFFFFFFFFFFFF
310
52006F006F007400200045006E00740072007900000000000000000000000000
310
0000000000000000000000000000000000000000000000000000000000000000
310
16000500FFFFFFFFFFFFFFFF020000000A00030000000000C000000000000046
310
000000000000000000000000F0E02FB46124D20103000000C000000000000000
310
01004F006C006500000000000000000000000000000000000000000000000000
310
0000000000000000000000000000000000000000000000000000000000000000
310
0A000200FFFFFFFFFFFFFFFFFFFFFFFF00000000000000000000000000000000
310
0000000000000000000000000000000000000000000000001400000000000000
310
010043006F006D0070004F0062006A0000000000000000000000000000000000
310
0000000000000000000000000000000000000000000000000000000000000000
310
120002010100000003000000FFFFFFFF00000000000000000000000000000000
310
0000000000000000000000000000000000000000010000004D00000000000000
310
01004F006C006500310030004E00610074006900760065000000000000000000
310
0000000000000000000000000000000000000000000000000000000000000000
310
1A000200FFFFFFFFFFFFFFFFFFFFFFFF00000000000000000000000000000000
310
0000000000000000000000000000000000000000040000002426000000000000
310
FEFFFFFF02000000FEFFFFFFFFFFFFFFFFFFFFFFFFFFFFFFFFFFFFFFFFFFFFFF
310
FFFFFFFFFFFFFFFFFFFFFFFFFFFFFFFFFFFFFFFFFFFFFFFFFFFFFFFFFFFFFFFF
310
FFFFFFFFFFFFFFFFFFFFFFFFFFFFFFFFFFFFFFFFFFFFFFFFFFFFFFFFFFFFFFFF
310
FFFFFFFFFFFFFFFFFFFFFFFFFFFFFFFFFFFFFFFFFFFFFFFFFFFFFFFFFFFFFFFF
310
FFFFFFFFFFFFFFFFFFFFFFFFFFFFFFFFFFFFFFFFFFFFFFFFFFFFFFFFFFFFFFFF
310
FFFFFFFFFFFFFFFFFFFFFFFFFFFFFFFFFFFFFFFFFFFFFFFFFFFFFFFFFFFFFFFF
310
FFFFFFFFFFFFFFFFFFFFFFFFFFFFFFFFFFFFFFFFFFFFFFFFFFFFFFFFFFFFFFFF
310
FFFFFFFFFFFFFFFFFFFFFFFFFFFFFFFFFFFFFFFFFFFFFFFFFFFFFFFFFFFFFFFF
310
FFFFFFFFFFFFFFFFFFFFFFFFFFFFFFFFFFFFFFFFFFFFFFFFFFFFFFFFFFFFFFFF
310
FFFFFFFFFFFFFFFFFFFFFFFFFFFFFFFFFFFFFFFFFFFFFFFFFFFFFFFFFFFFFFFF
310
FFFFFFFFFFFFFFFFFFFFFFFFFFFFFFFFFFFFFFFFFFFFFFFFFFFFFFFFFFFFFFFF
310
FFFFFFFFFFFFFFFFFFFFFFFFFFFFFFFFFFFFFFFFFFFFFFFFFFFFFFFFFFFFFFFF
310
FFFFFFFFFFFFFFFFFFFFFFFFFFFFFFFFFFFFFFFFFFFFFFFFFFFFFFFFFFFFFFFF
310
FFFFFFFFFFFFFFFFFFFFFFFFFFFFFFFFFFFFFFFFFFFFFFFFFFFFFFFFFFFFFFFF
310
FFFFFFFFFFFFFFFFFFFFFFFFFFFFFFFFFFFFFFFFFFFFFFFFFFFFFFFFFFFFFFFF
310
FFFFFFFFFFFFFFFFFFFFFFFFFFFFFFFFFFFFFFFFFFFFFFFFFFFFFFFFFFFFFFFF
310
0100000200000000000000000000000000000000000000000000000000000000
310
0000000000000000000000000000000000000000000000000000000000000000
310
0100FEFF030A0000FFFFFFFF0A00030000000000C00000000000004607000000
310
5042727573680007000000504272757368000700000050427275736800F439B2
310
7100000000000000000000000000000000000000000000000000000000000000
310
0000000000000000000000000000000000000000000000000000000000000000
310
0000000000000000000000000000000000000000000000000000000000000000
310
0000000000000000000000000000000000000000000000000000000000000000
310
0000000000000000000000000000000000000000000000000000000000000000
310
0000000000000000000000000000000000000000000000000000000000000000
310
0000000000000000000000000000000000000000000000000000000000000000
310
0000000000000000000000000000000000000000000000000000000000000000
310
0000000000000000000000000000000000000000000000000000000000000000
310
0000000000000000000000000000000000000000000000000000000000000000
310
0000000000000000000000000000000000000000000000000000000000000000
310
0000000000000000000000000000000000000000000000000000000000000000
310
20260000424D0E260000000000003E00000028000000B40200006E0000000100
310
01000000000000000000130B0000130B00000200000002000000000000FFFFFF
310
FFFFFFFFFFFFFFFFFFFFFFFFFFFFFFFFFFFFFFFFFFFFFFFFFFFFFFFFFFFFFFFF
310
FFFFFFFFFFFFFFFFFFFFFFFFFFFFFFFFFFFFFFFFFFFFFFFFFFFFFFFFFFFFFFFF
310
FFFFFFFFFFFFFFFFFFFFFFFFFFFFFFFFFFFFFFFFFFFFFFFFF000FFFFFFFFFFFF
310
FFFFFFFFFFFFFFFFFFFFFFFFFFFFFFFFFFFFFFFFFFFFFFFFFFFFFFFFFFFFFFFF
310
FFFFFFFFFFFFFFFFFFFFFFFFFFFFFFFFFFFFFFFFFFFFFFFFFFFFFFFFFFFFFFFF
310
FFFFFFFFFFFFFFFFFFFFFFFFFFFFFFFFF000FFFFFFFFFFFFFFFFFFFFFFFFFFFF
310
FFFFFFFFFFFFFFFFFFFFFFFFFFFFFFFFFFFFFFFFFFFFFFFFFFFFFFFFFFFFFFFF
310
FFFFFFFFFFFFFFFFFFFFFFFFFFFFFFFFFFFFFFFFFFFFFFFFFFFFFFFFFFFFFFFF
310
FFFFFFFFFFFFFFFFF000FFFFFFFFFFFFFFFFFFFFFFFFFFFFFFFFFFFFFFFFFFFF
310
FFFFFFFFFFFFFFFFFFFFFFFFFFFFFFFFFFFFFFFFFFFFFFFFFFFFFFFFFFFFFFFF
310
FFFFFFFFFFFFFFFFFFFFFFFFFFFFFFFFFFFFFFFFFFFFFFFFFFFFFFFFFFFFFFFF
310
F000FFFFFFFFFFFFFFFFFFFFFFFFFFFFFFFFFFFFFFFFFFFFFFFFFFFFFFFFFFFF
310
FFFFFFFFFFFFFFFFFFFFFFFFFFFFFFFFFFFFFFFFFFFFFFFFFFFFFFFFFFFFFFFF
310
FFFFFFFFFFFFFFFFFFFFFFFFFFFFFFFFFFFFFFFFFFFFFFFFF000FFFFFFFFFFFF
310
FFFFFFFFFFFFFFFFFFFFFFFFFFFFFFFFFFFFFFFFFFFFFFFFFFFFFFFFFFFFFFFF
310
FFFFFFFFFFFFFFFFFFFFFFFFFFFFFFFFFFFFFFFFFFFFFFFFFFFFFFFFFFFFFFFF
310
FFFFFFFFFFFFFFFFFFFFFFFFFFFFFFFFF000FFFFFFFFFFFFFFFFFFFFFFFFFFFF
310
FFFFFFFFFFFFFFFFFFFFFFFFFFFFFFFFFFFFFFFFFFFFFFFFFFFFFFFFFFFFFFFF
310
FFFFFFFFFFFFFFFFFFFFFFFFFFFFFFFFFFFFFFFFFFFFFFFFFFFFFFFFFFFFFFFF
310
FFFFFFFFFFFFFFFFF000FFFFFFFFFFFFFFFFFFFFFFFFFFFFFFFFFFFFFFFFFFFF
310
FFFFFFFFFFFFFFFFFFFFFFFFFFFFFFFFFFFFFFFFFFFFFFFFFFFFFFFFFFFFFFFF
310
FFFFFFFFFFFFFFFFFFFFFFFFFFFFFFFFFFFFFFFFFFFFFFFFFFFFFFFFFFFFFFFF
310
F000FFFFFFFFFFFFFFFFFFFFFFFFFFFFFFFFFFFFFFFFFFFFFFFFFFFFFFFFFFFF
310
FFFFFFFFFFFFFFFFFFFFFFFFFFFFFFFFFFFFFFFFFFFFFFFFFFFFFFFFFFFFFFFF
310
FFFFFFFFFFFFFFFFFFFFFFFFFFFFFFFFFFFFFFFFFFFFFFFFF000FFFFFFFFFFFF
310
FFFFFFFFFFFFFFFFFFFFFFFFFFFFFFFFFFFFFFFFFFFFFFFFFFFFFFFFFFFFFFFF
310
FFFFFFFFFFFFFFFFFFFFFFFFFFFFFFFFFFFFFFFFFFFFFFFFFFFFFFFFFFFFFFFF
310
FFFFFFFFFFFFFFFFFFFFFFFFFFFFFFFFF000FFFFFFFFFFFFFFFFFFFFFFFFFFFF
310
FFFFFFFFFFFFFFFFFFFFFFFFFFFFFFFFFFFFFFFFFFFFFFFFFFFFFFFFFFFFFFFF
310
FFFFFFFFFFFFFFFFFFFFFFFFFFFFFFFFFFFFFFFFFFFFFFFFFFFFFFFFFFFFFFFF
310
FFFFFFFFFFFFFFFFF000FFFFFFFFFFFFFFFFFFFFFFFFFFFFFFFFFFFFFFFFFFFF
310
FFFFFFFFFFFFFFFFFFFFFFFFFFFFFFFFFFFFFFFFFFFFFFFFFFFFFFFFFFFFFFFF
310
FFFFFFFFFFFFFFFFFFFFFFFFFFFFFFFFFFFFFFFFFFFFFFFFFFFFFFFFFFFFFFFF
310
F000FFFFFFFFFFFFFFFFFFFFFFFFFFFFFFFFFFFFFFFFFFFFFFFFFFFFFFFFFFFF
310
FFFFFFFFFFFFFFFFFFFFFFFFFFFFFFFFFFFFFFFFFFFFFFFFFFFFFFFFFFFFFFFF
310
FFFFFFFFFFFFFFFFFFFFFFFFFFFFFFFFFFFFFFFFFFFFFFFFF000FFFFFFFFFFFF
310
FFFFFFFFFFFFFFFFFFFFFFFFFFFFFFFFFFFFFFFFFFFFFFFFFFFFFFFFFFFFFFFF
310
FFFFFFFFFFFFFFFFFFFFFFFFFFFFFFFFFFFFFFFFFFFFFFFFFFFFFFFFFFFFFFFF
310
FFFFFFFFFFFFFFFFFFFFFFFFFFFFFFFFF000FFFFFFFFFFFFFFFFFFFFFFFFFFFF
310
FFFFFFFFFFFFFFFFFFFFFFFFFFFFFFFFFFFFFFFFFFFFFFFFFFFFFFFFFFFFFFFF
310
FFFFFFFFFFFFFFFFFFFFFFFFFFFFFFFFFFFFFFFFFFFFFFFFFFFFFFFFFFFFFFFF
310
FFFFFFFFFFFFFFFFF000FFFFFFFFFFFFFFFFFFFFFFFFFFFFFFFFFFFFFFFFFFFF
310
FFFFFFFFFFFFFFFFFFFFFFFFFFFFFFFFFFFFFFFFFFFFFFFFFFFFFFFFFFFFFFFF
310
FFFFFFFFFFFFFFFFFFFFFFFFFFFFFFFFFFFFFFFFFFFFFFFFFFFFFFFFFFFFFFFF
310
F000FFFFFFFFFFFFFFFFFFFFFFFFFFFFFFFFFFFFFFFFFFFFFFFFFFFFFFFFFFFF
310
FFFFFFFFFFFFFFFFFFFFFFFFFFFFFFFFFFFFFFFFFFFFFFFFFFFFFFFFFFFFFFFF
310
FFFFFFFFFFFFFFFFFFFFFFFFFFFFFFFFFFFFFFFFFFFFFFFFF000FFFFFFFFFFFF
310
FFFFFFFFFFFFFFFFFFFFFFFFFFFFFFFFFFFFFFFFFFFFFFFFFFFFFFFFFFFFFFFF
310
FFFFFFFFFFFFFFFFFFFFFFFFFFFFFFFFFFFFFFFFFFFFFFFFFFFFFFFFFFFFFFFF
310
FFFFFFFFFFFFFFFFFFFFFFFFFFFFFFFFF000FFFFFFFFFFFFFFFFFFFFFFFFFFFF
310
FFFFFFFFFFFFFFFFFFFFFFFFFFFFFFFFFFFFFFFFFFFFFFFFFFFFFFFFFFFFFFFF
310
FFFFFFFFFFFFFFFFFFFFFFFFFFFFFFFFFFFFFFFFFFFFFFFFFFFFFFFFFFFFFFFF
310
FFFFFFFFFFFFFFFFF000FFFFF80003FFFFFFFFFFFFFFFFFFFFFFFFFFFFFFFFFF
310
FFFFF00007FFFFFFFFFF00007FFFFFF800000000000000007FFFFFFFFFFFFFFF
310
FFFFFFFC001FFFFFFFFFFFFFFC001FFFFFFFFFFFFFFFFFFFFFFFFFFE0007FFFF
310
F000FFFF8000007FFFFFFFF8000FFFFFC0007FFFFF80007FFFFF0000007FFFFF
310
FFF8000007FFFFF800000000000000007FFFFFF0001FFFFFFFFFFFC00001FFFF
310
FFFFFFFFC00001FFFFFFFF000000000003FFFFE000007FFFF000FFFE0000000F
310
FFFFFFF0000FFFFF80007FFFFF80007FFFFC0000001FFFFFFFC0000001FFFFF8
310
00000000000000007FFFFFF0001FFFFFFFFFFE0000003FFFFFFFFFFE0000003F
310
FFFFFF000000000003FFFF0000000FFFF000FFF800000003FFFFFFF00007FFFF
310
80007FFFFF80007FFFF000000007FFFFFF000000003FFFF80000000000000000
310
7FFFFFF0001FFFFFFFFFF80000000FFFFFFFFFF80000000FFFFFFF0000000000
310
03FFFC00000003FFF000FFE000000000FFFFFFF00007FFFF80003FFFFF80007F
310
FFC000000001FFFFFC000000001FFFF800000000000000007FFFFFF0001FFFFF
310
FFFFE000000003FFFFFFFFE000000003FFFFFF000000000003FFF000000000FF
310
F000FF80000000007FFFFFF00007FFFF80003FFFFF80007FFF8000000000FFFF
310
F80000000007FFF800000000000000007FFFFFF0001FFFFFFFFFC000000001FF
310
FFFFFFC000000001FFFFFF000000000003FFC0000000007FF000FF0000000000
310
3FFFFFE00007FFFF00003FFFFF80007FFE00000000003FFFF00000000003FFF8
310
00000000000000007FFFFFF0001FFFFFFFFF8000000000FFFFFFFF8000000000
310
FFFFFF000000000003FF80000000003FF000FE00000000001FFFFFE00003FFFF
310
00003FFFFF80007FFC00000000001FFFE00000000001FFF8000001FFFE000000
310
7FFFFFF0001FFFFFFFFE00000000003FFFFFFE00000000003FFFFF0000000000
310
03FF00000000001FF000FC00000000000FFFFFE00003FFFF00001FFFFF80007F
310
F800000000001FFFC00000000000FFF8000001FFFE0000007FFFFFF0001FFFFF
310
FFFC00000000001FFFFFFC00000000001FFFFF000000000003FE00000000000F
310
F000F8000000000007FFFFE00003FFFF00001FFFFF80007FF800000000000FFF
310
800000000000FFF8000001FFFE0000007FFFFFF0001FFFFFFFF800000000000F
310
FFFFF800000000000FFFFF000000000003FC000000000007F000F80000000000
310
03FFFFC00003FFFE00001FFFFF80007FF0000000000007FF0000000000007FF8
310
000001FFFE0000007FFFFFF0001FFFFFFFF0000000000007FFFFF00000000000
310
07FFFF000000000003F8000000000003F000F0000000000003FFFFC00001FFFE
310
00001FFFFF80007FE0000000000007FE0000000000003FF8000001FFFE000000
310
7FFFFFF0001FFFFFFFF0000000000007FFFFF0000000000007FFFF0000000000
310
03F800001F800003F000E00001FFF00001FFFFC00001FFFE00000FFFFF80007F
310
E00001FFE00003FE00001FFF00003FF8000001FFFE0000007FFFFFF0001FFFFF
310
FFE000003E000003FFFFE000003E000003FFFF000000000003F00001FFF80001
310
F000E00007FFFC0001FFFFC00001FFFE00000FFFFF80007FC0000FFFFC0003FC
310
0000FFFFC0001FF8000001FFFE0000007FFFFFF0001FFFFFFFC00003FFE00001
310
FFFFC00003FFE00001FFFF0001FFFFFFFFF00007FFFE0001F000E0000FFFFF00
310
00FFFF800001FFFC00000FFFFF80007FC0001FFFFE0001FC0001FFFFE0001FF8
310
000001FFFE0000007FFFFFF0001FFFFFFF80000FFFF80000FFFF80000FFFF800
310
00FFFF0003FFFFFFFFE0000FFFFF8000F000C0003FFFFF8000FFFF800000FFFC
310
000007FFFF80007F80003FFFFF0001FC0003FFFFF0001FF8000001FFFE000000
310
7FFFFFF0001FFFFFFF80003FFFFE0000FFFF80003FFFFE0000FFFF0003FFFFFF
310
FFE0003FFFFF8000F000C0003FFFFF8000FFFF800000FFFC000007FFFF80007F
310
80007FFFFF8001F80007FFFFF8000FF8000001FFFE0000007FFFFFF0001FFFFF
310
FF00007FFFFF00007FFF00007FFFFF00007FFF0003FFFFFFFFE0003FFFFFC000
310
F000C0007FFFFFC000FFFF000000FFFC000007FFFF80007F8000FFFFFF8000F8
310
000FFFFFF8000FF8000001FFFE0000007FFFFFF0001FFFFFFF0000FFFFFF8000
310
7FFF0000FFFFFF80007FFF0003FFFFFFFFC0007FFFFFC00070008000FFFFFFC0
310
00FFFF000000FFF8000007FFFF80007F8000FFFFFF8000F8000FFFFFF8000FF8
310
000001FFFE0000007FFFFFF0001FFFFFFE0001FFFFFFC0003FFE0001FFFFFFC0
310
003FFF0003FFFFFFFFC0007FFFFFE00070008000FFFFFFC0007FFF0000007FF8
310
000003FFFF80007F0001FFFFFF8000F8000FFFFFF8000FF8000001FFFE000000
310
7FFFFFF0001FFFFFFE0001FFFFFFC0003FFE0001FFFFFFC0003FFF0003FFFFFF
310
FFC000FFFFFFE00070008000FFFFFFC0007FFF0000007FF8000003FFFF80007F
310
0001FFFFFF8000F8001FFFFFF8000FF8000001FFFE0000007FFFFFF0001FFFFF
310
FE0003FFFFFFE0003FFE0003FFFFFFE0003FFF0003FFFFFFFFC000FFFFFFE000
310
70008000FFFFFFC0007FFE0000007FF8000003FFFF80007F0001FFFFFF8000F0
310
001FFFFFF8000FF8000001FFFE0000007FFFFFF0001FFFFFFC0003FFFFFFE000
310
1FFC0003FFFFFFE0001FFF0003FFFFFFFFC000FFFFFFC00070008000FFFFFF80
310
007FFE0000007FF0000003FFFF80007F0001FFFFFF0000F0001FFFFFF8000FF8
310
000001FFFE0000007FFFFFF0001FFFFFFC0007FFFFFFF0001FFC0007FFFFFFF0
310
001FFF0003FFFFFFFFC000FFFFFFC00070008001FFFFFF0000FFFE0000003FF0
310
000001FFFF80007F0001FFFFFF0000F8001FFFFFF0000FF8000001FFFE000000
310
7FFFFFF0001FFFFFFC0007FFFFFFF0001FFC0007FFFFFFF0001FFF0003FFFFFF
310
FFC001FFFFFF80007000FFFFFFFFFE0000FFFE0008003FF0008001FFFF80007F
310
FFFFFFFFFC0000FFFFFFFFFFE0000FF8000001FFFE0000007FFFFFF0001FFFFF
310
F8000FFFFFFFF8000FF8000FFFFFFFF8000FFF0003FFFFFFFFFFFFFFFFFF0000
310
7000FFFFFFFFFC0000FFFC0008003FF0008001FFFF80007FFFFFFFFFF80001FF
310
FFFFFFFF80000FF8000001FFFE0000007FFFFFF0001FFFFFF8000FFFFFFFF800
310
0FF8000FFFFFFFF8000FFF0003FFFFFFFFFFFFFFFFFE0000F000FFFFFFFFE000
310
00FFFC000C003FE000C001FFFF80007FFFFFFFFFC00001FFFFFFFFFE00001FF8
310
000001FFFE0000007FFFFFF0001FFFFFF8000FFFFFFFF8000FF8000FFFFFFFF8
310
000FFF0003FFFFFFFFFFFFFFFFF00000F000FFFFFFFE000001FFFC000C001FE0
310
00C000FFFF80007FFFFFFFFE000001FFFFFFFFE000001FF80FFFFFFFFFFFFFC0
310
7FFFFFF0001FFFFFF8000FFFFFFFF8000FF8000FFFFFFFF8000FFF0003FFFFFF
310
FFFFFFFFFF800000F000FFFFFFC0000001FFFC001C001FE001C000FFFF80007F
310
FFFFFF80000003FFFFFFF80000001FF80FFFFFFFFFFFFFC07FFFFFF0001FFFFF
310
F8001FFFFFFFFC000FF8001FFFFFFFFC000FFF0003FFFFFFFFFFFFFFF0000001
310
F000FFFFF800000001FFF8001C001FE001C000FFFF80007FFFFFF800000003FF
310
FFFF800000003FF80FFFFFFFFFFFFFC07FFFFFF0001FFFFFF8001FFFFFFFFC00
310
0FF8001FFFFFFFFC000FFF0003FFFFFFFFFFFFFE00000001F000FFFFC0000000
310
03FFF8001E001FC001E000FFFF80007FFFFF8000000007FFFFFC000000003FF8
310
0FFFFFFFFFFFFFC07FFFFFF0001FFFFFF8001FFFFFFFFC000FF8001FFFFFFFFC
310
000FFF0003FFFFFFFFFFFFE000000003F000FFFE0000000007FFF8001E000FC0
310
01E0007FFF80007FFFFE0000000007FFFFE0000000007FF80FFFFFFFFFFFFFC0
310
7FFFFFF0001FFFFFF0001FFFFFFFFC0007F0001FFFFFFFFC0007FF0003FFFFFF
310
FFFFFF0000000003F000FFF80000000007FFF8001E000FC003E0007FFF80007F
310
FFF0000000000FFFFF8000000000FFF80FFFFFFFFFFFFFC07FFFFFF0001FFFFF
310
F0001FFFFFFFFC0007F0001FFFFFFFFC0007FF0003FFFFFFFFFFFC0000000007
310
F000FFE0000000000FFFF0003E000FC003E0007FFF80007FFFC0000000001FFF
310
FE0000000001FFF80FFFFFFFFFFFFFC07FFFFFF0001FFFFFF0001FFFFFFFFC00
310
07F0001FFFFFFFFC0007FF0003FFFFFFFFFFF0000000000FF000FFC000000000
310
1FFFF0003F000F8003F0003FFF80007FFF80000000003FFFF80000000003FFF8
310
0FFFFFFFFFFFFFC07FFFFFF0001FFFFFF0001FFFFFFFFC0007F0001FFFFFFFFC
310
0007FF0003FFFFFFFFFFE0000000001FF000FF00000000007FFFF0003F000780
310
03F0003FFF80007FFF00000000007FFFF00000000007FFF80FFFFFFFFFFFFFC0
310
7FFFFFF0001FFFFFF0001FFFFFFFFC0007F0001FFFFFFFFC0007FF0003FFFFFF
310
FFFF80000000007FF000FE0000000000FFFFE0003F00078007F0003FFF80007F
310
FE0000000001FFFFE0000000001FFFF80FFFFFFFFFFFFFC07FFFFFF0001FFFFF
310
F0001FFFFFFFFC0007F0001FFFFFFFFC0007FF0003FFFFFFFFFF0000000000FF
310
F000FC0000000003FFFFE0007F00078007F0003FFF80007FFC0000000007FFFF
310
C0000000007FFFF80FFFFFFFFFFFFFC07FFFFFF0001FFFFFF8001FFFFFFFFC00
310
0FF8001FFFFFFFFC000FFF0003FFFFFFFFFE0000000003FFF000FC000000000F
310
FFFFE0007F80070007F8001FFF80007FF8000000001FFFFF8000000001FFFFF8
310
0FFFFFFFFFFFFFC07FFFFFF0001FFFFFF8001FFFFFFFFC000FF8001FFFFFFFFC
310
000FFF0003FFFFFFFFFC000000000FFFF000F8000000007FFFFFE0007F800700
310
07F8001FFF80007FF000000000FFFFFF800000000FFFFFF80FFFFFFFFFFFFFC0
310
7FFFFFF0001FFFFFF8000FFFFFFFF8000FF8000FFFFFFFF8000FFF0003FFFFFF
310
FFFC000000007FFFF000F800000007FFFFFFC0007F8003000FF8001FFF80007F
310
F000000007FFFFFF000000007FFFFFF80FFFFFFFFFFFFFC07FFFFFF0001FFFFF
310
F8000FFFFFFFF8000FF8000FFFFFFFF8000FFF0003FFFFFFFFF80000000FFFFF
310
F000F0000000FFFFFFFFC000FF8003000FF8001FFF80007FE0000000FFFFFFFF
310
0000000FFFFFFFF8000001FFFE0000007FFFFFF0001FFFFFF8000FFFFFFFF800
310
0FF8000FFFFFFFF8000FFF0003FFFFFFFFF8000000FFFFFFF000F000000FFFFF
310
FFFFC000FFC002000FF8000FFF80007FE000001FFFFFFFFE000001FFFFFFFFF8
310
000001FFFE0000007FFFFFF0001FFFFFF8000FFFFFFFF8000FF8000FFFFFFFF8
310
000FFF0003FFFFFFFFF000001FFFFFFFF000E00000FFFFFFFFFFC000FFC00200
310
0FFC000FFF80007FE00001FFFFFFFFFE00001FFFFFFFFFF8000001FFFE000000
310
7FFFFFF0001FFFFFFC000FFFFFFFF8001FFC000FFFFFFFF8001FFF0003FFFFFF
310
FFF00001FFFFFFFFF000E00007FFFFFFFFFF8000FFC000001FFC000FFF80007F
310
C0000FFFFFFFFFFE0000FFFFFFFFFFF8000001FFFE0000007FFFFFF0001FFFFF
310
FC0007FFFFFFF0001FFC0007FFFFFFF0001FFF0003FFFFFFFFF00007FFFFFFFF
310
F000E0001FFFFFFFFFFF8000FFC000001FFC000FFF80007FC0003FFFFFFFFFFE
310
0001FFFFFFFFFFF8000001FFFE0000007FFFFFF0001FFFFFFC0007FFFFFFF000
310
1FFC0007FFFFFFF0001FFF0003FFFFFFFFF0001FFFFFFFFFF000E0003FFFFF00
310
03FF8001FFE000001FFC0007FF80007FC0007FFFFF0007FC0003FFFFF0003FF8
310
000001FFFE0000007FFFFFF0001FFFFFFC0003FFFFFFE0001FFC0003FFFFFFE0
310
001FFF0003FFFFFFFFF0003FFFFFFFFFF000E0003FFFFF0001FF8001FFE00000
310
1FFE0007FF80007FC0007FFFFE0003FC0007FFFFE0003FF8000001FFFE000000
310
7FFFFFF0001FFFFFFE0003FFFFFFE0003FFE0003FFFFFFE0003FFF0003FFFFFF
310
FFF0003FFFFF8001F000E0003FFFFF0001FF0001FFE000001FFE0007FF80007F
310
C0007FFFFE0003FC0007FFFFE0003FF8000001FFFE0000007FFFFFF0001FFFFF
310
FE0001FFFFFFC0003FFE0001FFFFFFC0003FFF0003FFFFFFFFF0003FFFFF0001
310
F000E0003FFFFF0003FF0001FFE000003FFE0007FF80007FC0007FFFFE0003FC
310
0007FFFFE0003FF8000001FFFE0000007FFFFFF0001FFFFFFF0001FFFFFFC000
310
7FFF0001FFFFFFC0007FFF0003FFFFFFFFF0003FFFFF0001F000E0003FFFFE00
310
03FF0003FFF000003FFE0003FF80007FC0007FFFFC0003FE0007FFFFE0003FF8
310
000001FFFE0000007FFFFFF0001FFFFFFF0000FFFFFF80007FFF0000FFFFFF80
310
007FFF0003FFFFFFFFF0003FFFFF0001F000E0003FFFFE0003FF0003FFF00000
310
3FFF0003FF80007FC0007FFFFC0007FE0007FFFFC0003FF8000001FFFE000000
310
7FFFFFF0001FFFFFFF80007FFFFF0000FFFF80007FFFFF0000FFFF0003FFFFFF
310
FFF0003FFFFF0003F000E0003FFFFC0003FE0003FFF000003FFF0003FF80007F
310
E0003FFFF80007FE0003FFFFC0007FF8000001FFFE0000007FFFFFF0001FFFFF
310
FF80003FFFFE0000FFFF80003FFFFE0000FFFF0003FFFFFFFFF0001FFFFE0003
310
F000F0001FFFF80003FE0003FFF000007FFF0001FF80007FE0003FFFF00007FE
310
0001FFFF80007FF8000001FFFE0000007FFFFFF0001FFFFFFFC0000FFFF80001
310
FFFFC0000FFFF80001FFFF0003FFFFFFFFF0001FFFFC0003F000F0000FFFF000
310
07FE0007FFF800007FFF0001FF80007FE0001FFFE00007FF0000FFFE00007FF8
310
000001FFFE0000007FFFFFF0001FFFFFFFC00003FFE00001FFFFC00003FFE000
310
01FFFF0003FFFFFFFFF8000FFFF80003F000F00003FFC00007FC0007FFF80000
310
7FFF8001FF80007FF00007FF80000FFF00007FF80000FFF8000001FFFE000000
310
7F80000000000001FFE000003E000003FFFFE000003E000003FFFF0003FFFFFF
310
FFF80003FFE00007F000F800000000000FFC0007FFF800007FFF8001FF80007F
310
F000000000000FFF000000000000FFF8000001FFFE0000007F80000000000001
310
FFF0000000000007FFFFF0000000000007FFFF0003FFFFFFFFFC00007E000007
310
F000F800000000000FFC0007FFF80000FFFF8000FF80007FF800000000001FFF
310
800000000001FFF8000001FFFE0000007F80000000000001FFF800000000000F
310
FFFFF800000000000FFFFF0003FFFFFFFFFC00000000000FF000FC0000000000
310
1FFC0007FFFC0000FFFF8000FF80007FF800000000003FFFC00000000001FFF8
310
000001FFFE0000007F80000000000001FFF800000000000FFFFFF80000000000
310
0FFFFF0003FFFFFFFFFE00000000001FF000FE00000000003FF8000FFFFC0000
310
FFFF8000FF80007FFC00000000003FFFC00000000003FFF8000001FFFE000000
310
7F80000000000001FFFC00000000001FFFFFFC00000000001FFFFF0003FFFFFF
310
FFFF00000000001FF000FF00000000003FF8000FFFFC0000FFFFC000FF80007F
310
FE00000000007FFFE00000000007FFF8000001FFFE0000007F80000000000001
310
FFFE00000000003FFFFFFE00000000003FFFFF0003FFFFFFFFFF80000000003F
310
F000FF80000000007FF8000FFFFC0001FFFFC0007F80007FFF0000000000FFFF
310
F0000000000FFFF800000000000000007F80000000000001FFFF8000000000FF
310
FFFFFF8000000000FFFFFF0003FFFFFFFFFFC0000000007FF000FFC000000000
310
FFF8000FFFFE0001FFFFC0007F80007FFF8000000001FFFFF8000000001FFFF8
310
00000000000000007F80000000000001FFFFC000000001FFFFFFFFC000000001
310
FFFFFF0003FFFFFFFFFFE000000000FFF000FFE000000003FFF0001FFFFE0001
310
FFFFC0007F80007FFFC000000007FFFFFE000000003FFFF80000000000000000
310
7F80000000000001FFFFE000000003FFFFFFFFE000000003FFFFFF0003FFFFFF
310
FFFFF000000003FFF000FFF80000000FFFF0001FFFFE0001FFFFE0007F80007F
310
FFF00000000FFFFFFF00000000FFFFF800000000000000007F80000000000001
310
FFFFF80000000FFFFFFFFFF80000000FFFFFFF0003FFFFFFFFFFFC0000000FFF
310
F000FFFE0000003FFFF0001FFFFE0003FFFFE0003F80007FFFFC0000003FFFFF
310
FFC0000003FFFFF800000000000000007F80000000000001FFFFFE0000003FFF
310
FFFFFFFE0000003FFFFFFF0003FFFFFFFFFFFF0000003FFFF000FFFF800000FF
310
FFF0001FFFFF0003FFFFE0003F80007FFFFF000001FFFFFFFFF800001FFFFFF8
310
00000000000000007F80000000000001FFFFFFC00001FFFFFFFFFFFFC00001FF
310
FFFFFF0003FFFFFFFFFFFFC00000FFFFF000FFFFF8000FFFFFFFFFFFFFFFFFFF
310
FFFFFFFFFFFFFFFFFFFFF0001FFFFFFFFFFF0000FFFFFFF80000000000000000
310
7FFFFFFFFFFFFFFFFFFFFFFC001FFFFFFFFFFFFFFC001FFFFFFFFFFFFFFFFFFF
310
FFFFFFFC001FFFFFF000FFFFFFFFFFFFFFFFFFFFFFFFFFFFFFFFFFFFFFFFFFFF
310
FFFFFFFFFFFFFFFFFFFFFFFFFFFFFFFFFFFFFFFFFFFFFFFFFFFFFFFFFFFFFFFF
310
FFFFFFFFFFFFFFFFFFFFFFFFFFFFFFFFFFFFFFFFFFFFFFFFFFFFFFFFFFFFFFFF
310
F000FFFFFFFFFFFFFFFFFFFFFFFFFFFFFFFFFFFFFFFFFFFFFFFFFFFFFFFFFFFF
310
FFFFFFFFFFFFFFFFFFFFFFFFFFFFFFFFFFFFFFFFFFFFFFFFFFFFFFFFFFFFFFFF
310
FFFFFFFFFFFFFFFFFFFFFFFFFFFFFFFFFFFFFFFFFFFFFFFFF000FFFFFFFFFFFF
310
FFFFFFFFFFFFFFFFFFFFFFFFFFFFFFFFFFFFFFFFFFFFFFFFFFFFFFFFFFFFFFFF
310
FFFFFFFFFFFFFFFFFFFFFFFFFFFFFFFFFFFFFFFFFFFFFFFFFFFFFFFFFFFFFFFF
310
FFFFFFFFFFFFFFFFFFFFFFFFFFFFFFFFF000FFFFFFFFFFFFFFFFFFFFFFFFFFFF
310
FFFFFFFFFFFFFFFFFFFFFFFFFFFFFFFFFFFFFFFFFFFFFFFFFFFFFFFFFFFFFFFF
310
FFFFFFFFFFFFFFFFFFFFFFFFFFFFFFFFFFFFFFFFFFFFFFFFFFFFFFFFFFFFFFFF
310
FFFFFFFFFFFFFFFFF000FFFFFFFFFFFFFFFFFFFFFFFFFFFFFFFFFFFFFFFFFFFF
310
FFFFFFFFFFFFFFFFFFFFFFFFFFFFFFFFFFFFFFFFFFFFFFFFFFFFFFFFFFFFFFFF
310
FFFFFFFFFFFFFFFFFFFFFFFFFFFFFFFFFFFFFFFFFFFFFFFFFFFFFFFFFFFFFFFF
310
F000FFFFFFFFFFFFFFFFFFFFFFFFFFFFFFFFFFFFFFFFFFFFFFFFFFFFFFFFFFFF
310
FFFFFFFFFFFFFFFFFFFFFFFFFFFFFFFFFFFFFFFFFFFFFFFFFFFFFFFFFFFFFFFF
310
FFFFFFFFFFFFFFFFFFFFFFFFFFFFFFFFFFFFFFFFFFFFFFFFF000FFFFFFFFFFFF
310
FFFFFFFFFFFFFFFFFFFFFFFFFFFFFFFFFFFFFFFFFFFFFFFFFFFFFFFFFFFFFFFF
310
FFFFFFFFFFFFFFFFFFFFFFFFFFFFFFFFFFFFFFFFFFFFFFFFFFFFFFFFFFFFFFFF
310
FFFFFFFFFFFFFFFFFFFFFFFFFFFFFFFFF000FFFFFFFFFFFFFFFFFFFFFFFFFFFF
310
FFFFFFFFFFFFFFFFFFFFFFFFFFFFFFFFFFFFFFFFFFFFFFFFFFFFFFFFFFFFFFFF
310
FFFFFFFFFFFFFFFFFFFFFFFFFFFFFFFFFFFFFFFFFFFFFFFFFFFFFFFFFFFFFFFF
310
FFFFFFFFFFFFFFFFF000FFFFFFFFFFFFFFFFFFFFFFFFFFFFFFFFFFFFFFFFFFFF
310
FFFFFFFFFFFFFFFFFFFFFFFFFFFFFFFFFFFFFFFFFFFFFFFFFFFFFFFFFFFFFFFF
310
FFFFFFFFFFFFFFFFFFFFFFFFFFFFFFFFFFFFFFFFFFFFFFFFFFFFFFFFFFFFFFFF
310
F000FFFFFFFFFFFFFFFFFFFFFFFFFFFFFFFFFFFFFFFFFFFFFFFFFFFFFFFFFFFF
310
FFFFFFFFFFFFFFFFFFFFFFFFFFFFFFFFFFFFFFFFFFFFFFFFFFFFFFFFFFFFFFFF
310
FFFFFFFFFFFFFFFFFFFFFFFFFFFFFFFFFFFFFFFFFFFFFFFFF000FFFFFFFFFFFF
310
FFFFFFFFFFFFFFFFFFFFFFFFFFFFFFFFFFFFFFFFFFFFFFFFFFFFFFFFFFFFFFFF
310
FFFFFFFFFFFFFFFFFFFFFFFFFFFFFFFFFFFFFFFFFFFFFFFFFFFFFFFFFFFFFFFF
310
FFFFFFFFFFFFFFFFFFFFFFFFFFFFFFFFF000FFFFFFFFFFFFFFFFFFFFFFFFFFFF
310
FFFFFFFFFFFFFFFFFFFFFFFFFFFFFFFFFFFFFFFFFFFFFFFFFFFFFFFFFFFFFFFF
310
FFFFFFFFFFFFFFFFFFFFFFFFFFFFFFFFFFFFFFFFFFFFFFFFFFFFFFFFFFFFFFFF
310
FFFFFFFFFFFFFFFFF000FFFFFFFFFFFFFFFFFFFFFFFFFFFFFFFFFFFFFFFFFFFF
310
FFFFFFFFFFFFFFFFFFFFFFFFFFFFFFFFFFFFFFFFFFFFFFFFFFFFFFFFFFFFFFFF
310
FFFFFFFFFFFFFFFFFFFFFFFFFFFFFFFFFFFFFFFFFFFFFFFFFFFFFFFFFFFFFFFF
310
F000FFFFFFFFFFFFFFFFFFFFFFFFFFFFFFFFFFFFFFFFFFFFFFFFFFFFFFFFFFFF
310
FFFFFFFFFFFFFFFFFFFFFFFFFFFFFFFFFFFFFFFFFFFFFFFFFFFFFFFFFFFFFFFF
310
FFFFFFFFFFFFFFFFFFFFFFFFFFFFFFFFFFFFFFFFFFFFFFFFF000FFFFFFFFFFFF
310
FFFFFFFFFFFFFFFFFFFFFFFFFFFFFFFFFFFFFFFFFFFFFFFFFFFFFFFFFFFFFFFF
310
FFFFFFFFFFFFFFFFFFFFFFFFFFFFFFFFFFFFFFFFFFFFFFFFFFFFFFFFFFFFFFFF
310
FFFFFFFFFFFFFFFFFFFFFFFFFFFFFFFFF000FFFFFFFFFFFFFFFFFFFFFFFFFFFF
310
FFFFFFFFFFFFFFFFFFFFFFFFFFFFFFFFFFFFFFFFFFFFFFFFFFFFFFFFFFFFFFFF
310
FFFFFFFFFFFFFFFFFFFFFFFFFFFFFFFFFFFFFFFFFFFFFFFFFFFFFFFFFFFFFFFF
310
FFFFFFFFFFFFFFFFF000FFFFFFFFFFFFFFFFFFFFFFFFFFFFFFFFFFFFFFFFFFFF
310
FFFFFFFFFFFFFFFFFFFFFFFFFFFFFFFFFFFFFFFFFFFFFFFFFFFFFFFFFFFFFFFF
310
FFFFFFFFFFFFFFFFFFFFFFFFFFFFFFFFFFFFFFFFFFFFFFFFFFFFFFFFFFFFFFFF
310
F000FFFFFFFFFFFFFFFFFFFFFFFFFFFFFFFFFFFFFFFFFFFFFFFFFFFFFFFFFFFF
310
FFFFFFFFFFFFFFFFFFFFFFFFFFFFFFFFFFFFFFFFFFFFFFFFFFFFFFFFFFFFFFFF
310
FFFFFFFFFFFFFFFFFFFFFFFFFFFFFFFFFFFFFFFFFFFFFFFFF000FFFFFFFFFFFF
310
FFFFFFFFFFFFFFFFFFFFFFFFFFFFFFFFFFFFFFFFFFFFFFFFFFFFFFFFFFFFFFFF
310
FFFFFFFFFFFFFFFFFFFFFFFFFFFFFFFFFFFFFFFFFFFFFFFFFFFFFFFFFFFFFFFF
310
FFFFFFFFFFFFFFFFFFFFFFFFFFFFFFFFF000FFFFFFFFFFFFFFFFFFFFFFFFFFFF
310
FFFFFFFFFFFFFFFFFFFFFFFFFFFFFFFFFFFFFFFFFFFFFFFFFFFFFFFFFFFFFFFF
310
FFFFFFFFFFFFFFFFFFFFFFFFFFFFFFFFFFFFFFFFFFFFFFFFFFFFFFFFFFFFFFFF
310
FFFFFFFFFFFFFFFFF000FFFFFFFFFFFFFFFFFFFFFFFFFFFFFFFFFFFFFFFFFFFF
310
FFFFFFFFFFFFFFFFFFFFFFFFFFFFFFFFFFFFFFFFFFFFFFFFFFFFFFFFFFFFFFFF
310
FFFFFFFFFFFFFFFFFFFFFFFFFFFFFFFFFFFFFFFFFFFFFFFFFFFFFFFFFFFFFFFF
310
F000FFFFFFFFFFFFFFFFFFFFFFFFFFFFFFFFFFFFFFFFFFFFFFFFFFFFFFFFFFFF
310
FFFFFFFFFFFFFFFFFFFFFFFFFFFFFFFFFFFFFFFFFFFFFFFFFFFFFFFFFFFFFFFF
310
FFFFFFFFFFFFFFFFFFFFFFFFFFFFFFFFFFFFFFFFFFFFFFFFF000FFFFFFFFFFFF
310
FFFFFFFFFFFFFFFFFFFFFFFFFFFFFFFFFFFFFFFFFFFFFFFFFFFFFFFFFFFFFFFF
310
FFFFFFFFFFFFFFFFFFFFFFFFFFFFFFFFFFFFFFFFFFFFFFFFFFFFFFFFFFFFFFFF
310
FFFFFFFFFFFFFFFFFFFFFFFFFFFFFFFFF0000000000000000000000000000000
310
0000000000000000000000000000000000000000000000000000000000000000
310
0000000000000000000000000000000000000000000000000000000000000000
310
0000000000000000000000000000000000000000000000000000000000000000
310
0000000000000000000000000000000000000000000000000000000000000000
310
0000000000000000000000000000000000000000000000000000000000000000
310
0000000000000000000000000000000000000000000000000000000000000000
310
0000000000000000000000000000000000000000000000000000000000000000
310
0000000000000000000000000000000000000000000000000000000000000000
310
0000000000000000000000000000000000000000000000000000000000000000
310
0000000000000000000000000000000000000000000000000000000000000000
310
0000000000000000000000000000000000000000000000000000000000000000
310
0000000000000000000000000000000000000000000000000000000000000000
310
0000000000000000000000000000000000000000000000000000000000000000
310
0000000000000000000000000000000000000000000000000000000000000000
310
0000000000000000000000000000000000000000000000000000000000000000
  1
OLE
  0
ENDSEC
  0
SECTION
  2
OBJECTS
  0
DICTIONARY
  5
C
330
0
100
AcDbDictionary
281
     1
  3
ACAD_GROUP
350
D
  3
ACAD_LAYOUT
350
1A
  3
ACAD_MLINESTYLE
350
17
  3
ACAD_PLOTSETTINGS
350
19
  3
ACAD_PLOTSTYLENAME
350
E
  3
ACAD_SCALELIST
350
47
  0
DICTIONARY
  5
D
102
{ACAD_REACTORS
330
C
102
}
330
C
100
AcDbDictionary
281
     1
  0
DICTIONARY
  5
1A
102
{ACAD_REACTORS
330
C
102
}
330
C
100
AcDbDictionary
281
     1
  3
Layout1
350
1E
  3
Layout2
350
26
  3
Model
350
22
  0
DICTIONARY
  5
17
102
{ACAD_REACTORS
330
C
102
}
330
C
100
AcDbDictionary
281
     1
  3
Standard
350
18
  0
DICTIONARY
  5
19
102
{ACAD_REACTORS
330
C
102
}
330
C
100
AcDbDictionary
281
     1
  0
ACDBDICTIONARYWDFLT
  5
E
102
{ACAD_REACTORS
330
C
102
}
330
C
100
AcDbDictionary
281
     1
  3
Normal
350
F
100
AcDbDictionaryWithDefault
340
F
  0
DICTIONARY
  5
47
102
{ACAD_REACTORS
330
C
102
}
330
C
100
AcDbDictionary
281
     1
  3
A0
350
48
  3
A1
350
49
  3
A2
350
4A
  3
A3
350
4B
  3
A4
350
4C
  3
A5
350
4D
  3
A6
350
4E
  3
A7
350
4F
  3
A8
350
50
  3
A9
350
51
  3
B0
350
52
  3
B1
350
53
  3
B2
350
54
  3
B3
350
55
  3
B4
350
56
  3
B5
350
57
  3
B6
350
58
  3
B7
350
59
  3
B8
350
5A
  3
B9
350
5B
  3
C0
350
5C
  3
C1
350
5D
  3
C2
350
5E
  3
C3
350
5F
  3
C4
350
60
  3
C5
350
61
  3
C6
350
62
  3
C7
350
63
  3
C8
350
64
  3
C9
350
65
  3
D0
350
66
  3
D1
350
67
  3
D2
350
68
  0
LAYOUT
  5
1E
102
{ACAD_REACTORS
330
1A
102
}
330
1A
100
AcDbPlotSettings
  1

  2
none_device
  4

  6

 40
0.0
 41
0.0
 42
0.0
 43
0.0
 44
0.0
 45
0.0
 46
0.0
 47
0.0
 48
0.0
 49
0.0
140
0.0
141
0.0
142
1.0
143
1.0
 70
   688
 72
     1
 73
     0
 74
     5
  7

 75
    16
147
1.0
148
0.0
149
0.0
100
AcDbLayout
  1
Layout1
 70
     1
 71
     1
 10
0.0
 20
0.0
 11
420.0
 21
297.0
 12
0.0
 22
0.0
 32
0.0
 14
1.0000000000E+20
 24
1.0000000000E+20
 34
1.0000000000E+20
 15
-1.0000000000E+20
 25
-1.0000000000E+20
 35
-1.0000000000E+20
146
0.0
 13
0.0
 23
0.0
 33
0.0
 16
1.0
 26
0.0
 36
0.0
 17
0.0
 27
1.0
 37
0.0
 76
     0
330
1B
  0
LAYOUT
  5
26
102
{ACAD_REACTORS
330
1A
102
}
330
1A
100
AcDbPlotSettings
  1

  2
none_device
  4

  6

 40
0.0
 41
0.0
 42
0.0
 43
0.0
 44
0.0
 45
0.0
 46
0.0
 47
0.0
 48
0.0
 49
0.0
140
0.0
141
0.0
142
1.0
143
1.0
 70
   688
 72
     1
 73
     0
 74
     5
  7

 75
    16
147
1.0
148
0.0
149
0.0
100
AcDbLayout
  1
Layout2
 70
     1
 71
     2
 10
0.0
 20
0.0
 11
0.0
 21
0.0
 12
0.0
 22
0.0
 32
0.0
 14
0.0
 24
0.0
 34
0.0
 15
0.0
 25
0.0
 35
0.0
146
0.0
 13
0.0
 23
0.0
 33
0.0
 16
1.0
 26
0.0
 36
0.0
 17
0.0
 27
1.0
 37
0.0
 76
     0
330
23
  0
LAYOUT
  5
22
102
{ACAD_REACTORS
330
1A
102
}
330
1A
100
AcDbPlotSettings
  1

  2
none_device
  4
Letter_(8.50_x_11.00_Inches)
  6

 40
6.35
 41
6.35
 42
6.35000508
 43
6.35000508
 44
215.9
 45
279.4
 46
0.0
 47
0.0
 48
0.0
 49
0.0
140
0.0
141
0.0
142
1.0
143
1.0
 70
  1712
 72
     1
 73
     0
 74
     0
  7

 75
     0
147
1.0
148
0.0
149
0.0
100
AcDbLayout
  1
Model
 70
     1
 71
     0
 10
0.0
 20
0.0
 11
297.0
 21
210.0
 12
0.0
 22
0.0
 32
0.0
 14
0.0
 24
0.0
 34
0.0
 15
297.0
 25
210.0
 35
0.0
146
0.0
 13
0.0
 23
0.0
 33
0.0
 16
1.0
 26
0.0
 36
0.0
 17
0.0
 27
1.0
 37
0.0
 76
     0
330
1F
331
29
  0
MLINESTYLE
  5
18
102
{ACAD_REACTORS
330
17
102
}
330
17
100
AcDbMlineStyle
  2
Standard
 70
     0
  3

 62
   256
 51
90.0
 52
90.0
 71
     2
 49
0.5
 62
   256
  6
BYLAYER
 49
-0.5
 62
   256
  6
BYLAYER
  0
ACDBPLACEHOLDER
  5
F
102
{ACAD_REACTORS
330
E
102
}
330
E
  0
SCALE
  5
48
102
{ACAD_REACTORS
330
47
102
}
330
47
100
AcDbScale
 70
     0
300
1:1
140
1.0
141
1.0
290
     1
  0
SCALE
  5
49
102
{ACAD_REACTORS
330
47
102
}
330
47
100
AcDbScale
 70
     0
300
1:2
140
1.0
141
2.0
290
     0
  0
SCALE
  5
4A
102
{ACAD_REACTORS
330
47
102
}
330
47
100
AcDbScale
 70
     0
300
1:4
140
1.0
141
4.0
290
     0
  0
SCALE
  5
4B
102
{ACAD_REACTORS
330
47
102
}
330
47
100
AcDbScale
 70
     0
300
1:5
140
1.0
141
5.0
290
     0
  0
SCALE
  5
4C
102
{ACAD_REACTORS
330
47
102
}
330
47
100
AcDbScale
 70
     0
300
1:8
140
1.0
141
8.0
290
     0
  0
SCALE
  5
4D
102
{ACAD_REACTORS
330
47
102
}
330
47
100
AcDbScale
 70
     0
300
1:10
140
1.0
141
10.0
290
     0
  0
SCALE
  5
4E
102
{ACAD_REACTORS
330
47
102
}
330
47
100
AcDbScale
 70
     0
300
1:16
140
1.0
141
16.0
290
     0
  0
SCALE
  5
4F
102
{ACAD_REACTORS
330
47
102
}
330
47
100
AcDbScale
 70
     0
300
1:20
140
1.0
141
20.0
290
     0
  0
SCALE
  5
50
102
{ACAD_REACTORS
330
47
102
}
330
47
100
AcDbScale
 70
     0
300
1:30
140
1.0
141
30.0
290
     0
  0
SCALE
  5
51
102
{ACAD_REACTORS
330
47
102
}
330
47
100
AcDbScale
 70
     0
300
1:40
140
1.0
141
40.0
290
     0
  0
SCALE
  5
52
102
{ACAD_REACTORS
330
47
102
}
330
47
100
AcDbScale
 70
     0
300
1:50
140
1.0
141
50.0
290
     0
  0
SCALE
  5
53
102
{ACAD_REACTORS
330
47
102
}
330
47
100
AcDbScale
 70
     0
300
1:100
140
1.0
141
100.0
290
     0
  0
SCALE
  5
54
102
{ACAD_REACTORS
330
47
102
}
330
47
100
AcDbScale
 70
     0
300
2:1
140
2.0
141
1.0
290
     0
  0
SCALE
  5
55
102
{ACAD_REACTORS
330
47
102
}
330
47
100
AcDbScale
 70
     0
300
4:1
140
4.0
141
1.0
290
     0
  0
SCALE
  5
56
102
{ACAD_REACTORS
330
47
102
}
330
47
100
AcDbScale
 70
     0
300
8:1
140
8.0
141
1.0
290
     0
  0
SCALE
  5
57
102
{ACAD_REACTORS
330
47
102
}
330
47
100
AcDbScale
 70
     0
300
10:1
140
10.0
141
1.0
290
     0
  0
SCALE
  5
58
102
{ACAD_REACTORS
330
47
102
}
330
47
100
AcDbScale
 70
     0
300
100:1
140
100.0
141
1.0
290
     0
  0
SCALE
  5
59
102
{ACAD_REACTORS
330
47
102
}
330
47
100
AcDbScale
 70
     0
300
1/128" = 1'-0"
140
0.0078125
141
12.0
290
     0
  0
SCALE
  5
5A
102
{ACAD_REACTORS
330
47
102
}
330
47
100
AcDbScale
 70
     0
300
1/64" = 1'-0"
140
0.015625
141
12.0
290
     0
  0
SCALE
  5
5B
102
{ACAD_REACTORS
330
47
102
}
330
47
100
AcDbScale
 70
     0
300
1/32" = 1'-0"
140
0.03125
141
12.0
290
     0
  0
SCALE
  5
5C
102
{ACAD_REACTORS
330
47
102
}
330
47
100
AcDbScale
 70
     0
300
1/16" = 1'-0"
140
0.0625
141
12.0
290
     0
  0
SCALE
  5
5D
102
{ACAD_REACTORS
330
47
102
}
330
47
100
AcDbScale
 70
     0
300
3/32" = 1'-0"
140
0.09375
141
12.0
290
     0
  0
SCALE
  5
5E
102
{ACAD_REACTORS
330
47
102
}
330
47
100
AcDbScale
 70
     0
300
1/8" = 1'-0"
140
0.125
141
12.0
290
     0
  0
SCALE
  5
5F
102
{ACAD_REACTORS
330
47
102
}
330
47
100
AcDbScale
 70
     0
300
3/16" = 1'-0"
140
0.1875
141
12.0
290
     0
  0
SCALE
  5
60
102
{ACAD_REACTORS
330
47
102
}
330
47
100
AcDbScale
 70
     0
300
1/4" = 1'-0"
140
0.25
141
12.0
290
     0
  0
SCALE
  5
61
102
{ACAD_REACTORS
330
47
102
}
330
47
100
AcDbScale
 70
     0
300
3/8" = 1'-0"
140
0.375
141
12.0
290
     0
  0
SCALE
  5
62
102
{ACAD_REACTORS
330
47
102
}
330
47
100
AcDbScale
 70
     0
300
1/2" = 1'-0"
140
0.5
141
12.0
290
     0
  0
SCALE
  5
63
102
{ACAD_REACTORS
330
47
102
}
330
47
100
AcDbScale
 70
     0
300
3/4" = 1'-0"
140
0.75
141
12.0
290
     0
  0
SCALE
  5
64
102
{ACAD_REACTORS
330
47
102
}
330
47
100
AcDbScale
 70
     0
300
1" = 1'-0"
140
1.0
141
12.0
290
     0
  0
SCALE
  5
65
102
{ACAD_REACTORS
330
47
102
}
330
47
100
AcDbScale
 70
     0
300
1-1/2" = 1'-0"
140
1.5
141
12.0
290
     0
  0
SCALE
  5
66
102
{ACAD_REACTORS
330
47
102
}
330
47
100
AcDbScale
 70
     0
300
3" = 1'-0"
140
3.0
141
12.0
290
     0
  0
SCALE
  5
67
102
{ACAD_REACTORS
330
47
102
}
330
47
100
AcDbScale
 70
     0
300
6" = 1'-0"
140
6.0
141
12.0
290
     0
  0
SCALE
  5
68
102
{ACAD_REACTORS
330
47
102
}
330
47
100
AcDbScale
 70
     0
300
1'-0" = 1'-0"
140
12.0
141
12.0
290
     0
  0
ENDSEC
  0
EOF
