  0
SECTION
  2
HEADER
  9
$ACADVER
  1
AC1015
  9
$ACADMAINTVER
 70
     6
  9
$DWGCODEPAGE
  3
ANSI_1252
  9
$INSBASE
 10
0.0
 20
0.0
 30
0.0
  9
$EXTMIN
 10
0.0
 20
0.0
 30
0.0
  9
$EXTMAX
 10
297.0
 20
210.0
 30
0.0
  9
$LIMMIN
 10
0.0
 20
0.0
  9
$LIMMAX
 10
297.0
 20
210.0
  9
$ORTHOMODE
 70
     0
  9
$REGENMODE
 70
     1
  9
$FILLMODE
 70
     1
  9
$QTEXTMODE
 70
     0
  9
$MIRRTEXT
 70
     1
  9
$LTSCALE
 40
1.0
  9
$ATTMODE
 70
     1
  9
$TEXTSIZE
 40
2.0
  9
$TRACEWID
 40
1.0
  9
$TEXTSTYLE
  7
Standard
  9
$CLAYER
  8
0
  9
$CELTYPE
  6
ByLayer
  9
$CECOLOR
 62
   256
  9
$CELTSCALE
 40
1.0
  9
$DISPSILH
 70
     0
  9
$DIMSCALE
 40
1.0
  9
$DIMASZ
 40
3.0
  9
$DIMEXO
 40
0.0
  9
$DIMDLI
 40
3.75
  9
$DIMRND
 40
0.0
  9
$DIMDLE
 40
0.0
  9
$DIMEXE
 40
1.0
  9
$DIMTP
 40
0.0
  9
$DIMTM
 40
0.0
  9
$DIMTXT
 40
2.0
  9
$DIMCEN
 40
2.5
  9
$DIMTSZ
 40
0.0
  9
$DIMTOL
 70
     0
  9
$DIMLIM
 70
     0
  9
$DIMTIH
 70
     1
  9
$DIMTOH
 70
     1
  9
$DIMSE1
 70
     0
  9
$DIMSE2
 70
     0
  9
$DIMTAD
 70
     1
  9
$DIMZIN
 70
     0
  9
$DIMBLK
  1

  9
$DIMASO
 70
     1
  9
$DIMSHO
 70
     1
  9
$DIMPOST
  1

  9
$DIMAPOST
  1

  9
$DIMALT
 70
     0
  9
$DIMALTD
 70
     3
  9
$DIMALTF
 40
0.0393700787
  9
$DIMLFAC
 40
2.0
  9
$DIMTOFL
 70
     1
  9
$DIMTVP
 40
0.0
  9
$DIMTIX
 70
     0
  9
$DIMSOXD
 70
     0
  9
$DIMSAH
 70
     0
  9
$DIMBLK1
  1

  9
$DIMBLK2
  1

  9
$DIMSTYLE
  2
ISO-25
  9
$DIMCLRD
 70
     0
  9
$DIMCLRE
 70
     0
  9
$DIMCLRT
 70
     0
  9
$DIMTFAC
 40
1.0
  9
$DIMGAP
 40
1.524
  9
$DIMJUST
 70
     0
  9
$DIMSD1
 70
     0
  9
$DIMSD2
 70
     0
  9
$DIMTOLJ
 70
     0
  9
$DIMTZIN
 70
     0
  9
$DIMALTZ
 70
     0
  9
$DIMALTTZ
 70
     0
  9
$DIMUPT
 70
     0
  9
$DIMDEC
 70
     2
  9
$DIMTDEC
 70
     3
  9
$DIMALTU
 70
     2
  9
$DIMALTTD
 70
     3
  9
$DIMTXSTY
  7
Standard
  9
$DIMAUNIT
 70
     0
  9
$DIMADEC
 70
     2
  9
$DIMALTRND
 40
0.0
  9
$DIMAZIN
 70
     0
  9
$DIMDSEP
 70
    44
  9
$DIMATFIT
 70
     3
  9
$DIMFRAC
 70
     0
  9
$DIMLDRBLK
  1

  9
$DIMLUNIT
 70
     2
  9
$DIMLWD
 70
    -2
  9
$DIMLWE
 70
    -2
  9
$DIMTMOVE
 70
     0
  9
$LUNITS
 70
     2
  9
$LUPREC
 70
     2
  9
$SKETCHINC
 40
1.0
  9
$FILLETRAD
 40
10.0
  9
$AUNITS
 70
     0
  9
$AUPREC
 70
     2
  9
$MENU
  1
.
  9
$ELEVATION
 40
0.0
  9
$PELEVATION
 40
0.0
  9
$THICKNESS
 40
0.0
  9
$LIMCHECK
 70
     0
  9
$CHAMFERA
 40
0.0
  9
$CHAMFERB
 40
0.0
  9
$CHAMFERC
 40
0.0
  9
$CHAMFERD
 40
0.0
  9
$SKPOLY
 70
     0
  9
$TDCREATE
 40
2457674.432724433
  9
$TDUCREATE
 40
2457674.3493911
  9
$TDUPDATE
 40
2457674.432725741
  9
$TDUUPDATE
 40
2457674.349392408
  9
$TDINDWG
 40
0.0000000116
  9
$TDUSRTIMER
 40
0.0000000116
  9
$USRTIMER
 70
     1
  9
$ANGBASE
 50
0.0
  9
$ANGDIR
 70
     0
  9
$PDMODE
 70
     0
  9
$PDSIZE
 40
-1.0
  9
$PLINEWID
 40
0.0
  9
$SPLFRAME
 70
     0
  9
$SPLINETYPE
 70
     6
  9
$SPLINESEGS
 70
     8
  9
$HANDSEED
  5
28B
  9
$SURFTAB1
 70
     6
  9
$SURFTAB2
 70
     6
  9
$SURFTYPE
 70
     6
  9
$SURFU
 70
     6
  9
$SURFV
 70
     6
  9
$UCSBASE
  2

  9
$UCSNAME
  2

  9
$UCSORG
 10
0.0
 20
0.0
 30
0.0
  9
$UCSXDIR
 10
1.0
 20
0.0
 30
0.0
  9
$UCSYDIR
 10
0.0
 20
1.0
 30
0.0
  9
$UCSORTHOREF
  2

  9
$UCSORTHOVIEW
 70
     0
  9
$UCSORGTOP
 10
0.0
 20
0.0
 30
0.0
  9
$UCSORGBOTTOM
 10
0.0
 20
0.0
 30
0.0
  9
$UCSORGLEFT
 10
0.0
 20
0.0
 30
0.0
  9
$UCSORGRIGHT
 10
0.0
 20
0.0
 30
0.0
  9
$UCSORGFRONT
 10
0.0
 20
0.0
 30
0.0
  9
$UCSORGBACK
 10
0.0
 20
0.0
 30
0.0
  9
$PUCSBASE
  2

  9
$PUCSNAME
  2

  9
$PUCSORG
 10
0.0
 20
0.0
 30
0.0
  9
$PUCSXDIR
 10
1.0
 20
0.0
 30
0.0
  9
$PUCSYDIR
 10
0.0
 20
1.0
 30
0.0
  9
$PUCSORTHOREF
  2

  9
$PUCSORTHOVIEW
 70
     0
  9
$PUCSORGTOP
 10
0.0
 20
0.0
 30
0.0
  9
$PUCSORGBOTTOM
 10
0.0
 20
0.0
 30
0.0
  9
$PUCSORGLEFT
 10
0.0
 20
0.0
 30
0.0
  9
$PUCSORGRIGHT
 10
0.0
 20
0.0
 30
0.0
  9
$PUCSORGFRONT
 10
0.0
 20
0.0
 30
0.0
  9
$PUCSORGBACK
 10
0.0
 20
0.0
 30
0.0
  9
$USERI1
 70
     0
  9
$USERI2
 70
     0
  9
$USERI3
 70
     0
  9
$USERI4
 70
     0
  9
$USERI5
 70
     0
  9
$USERR1
 40
0.0
  9
$USERR2
 40
0.0
  9
$USERR3
 40
0.0
  9
$USERR4
 40
0.0
  9
$USERR5
 40
0.0
  9
$WORLDVIEW
 70
     1
  9
$SHADEDGE
 70
     3
  9
$SHADEDIF
 70
    70
  9
$TILEMODE
 70
     1
  9
$MAXACTVP
 70
    64
  9
$PINSBASE
 10
0.0
 20
0.0
 30
0.0
  9
$PLIMCHECK
 70
     0
  9
$PEXTMIN
 10
1.0000000000E+20
 20
1.0000000000E+20
 30
1.0000000000E+20
  9
$PEXTMAX
 10
-1.0000000000E+20
 20
-1.0000000000E+20
 30
-1.0000000000E+20
  9
$PLIMMIN
 10
0.0
 20
0.0
  9
$PLIMMAX
 10
420.0
 20
297.0
  9
$UNITMODE
 70
     0
  9
$VISRETAIN
 70
     1
  9
$PLINEGEN
 70
     0
  9
$PSLTSCALE
 70
     1
  9
$TREEDEPTH
 70
  3020
  9
$CMLSTYLE
  2
Standard
  9
$CMLJUST
 70
     0
  9
$CMLSCALE
 40
20.0
  9
$PROXYGRAPHICS
 70
     1
  9
$MEASUREMENT
 70
     1
  9
$CELWEIGHT
370
    -1
  9
$ENDCAPS
280
     0
  9
$JOINSTYLE
280
     0
  9
$LWDISPLAY
290
     1
  9
$INSUNITS
 70
     4
  9
$HYPERLINKBASE
  1

  9
$STYLESHEET
  1

  9
$XEDIT
290
     1
  9
$CEPSNTYPE
380
     0
  9
$PSTYLEMODE
290
     1
  9
$FINGERPRINTGUID
  2
{1346FFBC-0CE2-4843-A1BB-96A6BC00AFC2}
  9
$VERSIONGUID
  2
{FAEB1C32-E019-11D5-929B-00C0DF256EC4}
  9
$EXTNAMES
290
     1
  9
$PSVPSCALE
 40
0.0
  9
$OLESTARTUP
290
     0
  0
ENDSEC
  0
SECTION
  2
CLASSES
  0
CLASS
  1
ACDBDICTIONARYWDFLT
  2
AcDbDictionaryWithDefault
  3
ObjectDBX Classes
 90
        0
280
     0
281
     0
  0
CLASS
  1
VISUALSTYLE
  2
AcDbVisualStyle
  3
ObjectDBX Classes
 90
     4095
280
     0
281
     0
  0
CLASS
  1
MATERIAL
  2
AcDbMaterial
  3
ObjectDBX Classes
 90
     1153
280
     0
281
     0
  0
CLASS
  1
SCALE
  2
AcDbScale
  3
ObjectDBX Classes
 90
     1153
280
     0
281
     0
  0
CLASS
  1
TABLESTYLE
  2
AcDbTableStyle
  3
ObjectDBX Classes
 90
     4095
280
     0
281
     0
  0
CLASS
  1
MLEADERSTYLE
  2
AcDbMLeaderStyle
  3
ACDB_MLEADERSTYLE_CLASS
 90
     4095
280
     0
281
     0
  0
CLASS
  1
SUN
  2
AcDbSun
  3
SCENEOE
 90
     1153
280
     0
281
     0
  0
CLASS
  1
ACDBPLACEHOLDER
  2
AcDbPlaceHolder
  3
ObjectDBX Classes
 90
        0
280
     0
281
     0
  0
CLASS
  1
LAYOUT
  2
AcDbLayout
  3
ObjectDBX Classes
 90
        0
280
     0
281
     0
  0
ENDSEC
  0
SECTION
  2
TABLES
  0
TABLE
  2
VPORT
  5
8
330
0
100
AcDbSymbolTable
 70
     1
  0
VPORT
  5
29
330
8
100
AcDbSymbolTableRecord
100
AcDbViewportTableRecord
  2
*Active
 70
     0
 10
0.0
 20
0.0
 11
1.0
 21
1.0
 12
148.5
 22
105.0
 13
0.0
 23
0.0
 14
10.0
 24
10.0
 15
10.0
 25
10.0
 16
0.0
 26
0.0
 36
1.0
 17
0.0
 27
0.0
 37
0.0
 40
210.0
 41
1.4142857143
 42
50.0
 43
0.0
 44
0.0
 50
0.0
 51
0.0
 71
     0
 72
  2000
 73
     1
 74
     3
 75
     0
 76
     0
 77
     0
 78
     0
281
     0
 65
     1
110
0.0
120
0.0
130
0.0
111
1.0
121
0.0
131
0.0
112
0.0
122
1.0
132
0.0
 79
     0
146
0.0
  0
ENDTAB
  0
TABLE
  2
LTYPE
  5
5
330
0
100
AcDbSymbolTable
 70
     6
  0
LTYPE
  5
14
330
5
100
AcDbSymbolTableRecord
100
AcDbLinetypeTableRecord
  2
ByBlock
 70
     0
  3

 72
    65
 73
     0
 40
0.0
  0
LTYPE
  5
15
330
5
100
AcDbSymbolTableRecord
100
AcDbLinetypeTableRecord
  2
ByLayer
 70
     0
  3

 72
    65
 73
     0
 40
0.0
  0
LTYPE
  5
16
330
5
100
AcDbSymbolTableRecord
100
AcDbLinetypeTableRecord
  2
Continuous
 70
     0
  3
Solid line
 72
    65
 73
     0
 40
0.0
  0
LTYPE
  5
6E
330
5
100
AcDbSymbolTableRecord
100
AcDbLinetypeTableRecord
  2
HIDDEN
 70
     0
  3
Hidden __ __ __ __ __ __ __ __ __ __ __ __ __ __
 72
    65
 73
     2
 40
1.905
 49
1.27
 74
     0
 49
-0.635
 74
     0
  0
LTYPE
  5
6F
330
5
100
AcDbSymbolTableRecord
100
AcDbLinetypeTableRecord
  2
PHANTOM
 70
     0
  3
Phantom ______  __  __  ______  __  __  ______
 72
    65
 73
     6
 40
12.7
 49
6.35
 74
     0
 49
-1.27
 74
     0
 49
1.27
 74
     0
 49
-1.27
 74
     0
 49
1.27
 74
     0
 49
-1.27
 74
     0
  0
LTYPE
  5
70
330
5
100
AcDbSymbolTableRecord
100
AcDbLinetypeTableRecord
  2
CENTER
 70
     0
  3
Center ____ _ ____ _ ____ _ ____ _ ____ _ ____
 72
    65
 73
     4
 40
10.16
 49
6.35
 74
     0
 49
-1.27
 74
     0
 49
1.27
 74
     0
 49
-1.27
 74
     0
  0
LTYPE
  5
71
330
5
100
AcDbSymbolTableRecord
100
AcDbLinetypeTableRecord
  2
CENTERX2
 70
     0
  3
Center (2x) ________  __  ________  __  _____
 72
    65
 73
     4
 40
20.32
 49
12.7
 74
     0
 49
-2.54
 74
     0
 49
2.54
 74
     0
 49
-2.54
 74
     0
  0
LTYPE
  5
72
330
5
100
AcDbSymbolTableRecord
100
AcDbLinetypeTableRecord
  2
DOT2
 70
     0
  3
Dot (.5x) ........................................
 72
    65
 73
     2
 40
0.635
 49
0.0
 74
     0
 49
-0.635
 74
     0
  0
ENDTAB
  0
TABLE
  2
LAYER
  5
2
330
0
100
AcDbSymbolTable
 70
     5
  0
LAYER
  5
10
330
2
100
AcDbSymbolTableRecord
100
AcDbLayerTableRecord
  2
0
 70
     0
 62
     7
  6
Continuous
370
    -3
390
F
  0
LAYER
  5
73
330
2
100
AcDbSymbolTableRecord
100
AcDbLayerTableRecord
  2
FORMAT
 70
     0
 62
     7
  6
Continuous
370
    -3
390
F
  0
LAYER
  5
74
330
2
100
AcDbSymbolTableRecord
100
AcDbLayerTableRecord
  2
VERMASSUNG
 70
     0
 62
     7
  6
Continuous
370
    -3
390
F
  0
LAYER
  5
75
330
2
100
AcDbSymbolTableRecord
100
AcDbLayerTableRecord
  2
KOPF_DÜNN
 70
     0
 62
     7
  6
Continuous
370
    -3
390
F
  0
LAYER
  5
76
330
2
100
AcDbSymbolTableRecord
100
AcDbLayerTableRecord
  2
KOPF_DICK
 70
     0
 62
     7
  6
Continuous
370
    15
390
F
  0
ENDTAB
  0
TABLE
  2
STYLE
  5
3
330
0
100
AcDbSymbolTable
 70
     2
  0
STYLE
  5
11
330
3
100
AcDbSymbolTableRecord
100
AcDbTextStyleTableRecord
  2
Standard
 70
     0
 40
0.0
 41
1.0
 50
0.0
 71
     0
 42
2.0
  3
txt
  4

  0
STYLE
  5
77
330
3
100
AcDbSymbolTableRecord
100
AcDbTextStyleTableRecord
  2
SLDTEXTSTYLE0
 70
     0
 40
0.0
 41
0.7
 50
0.0
 71
     0
 42
2.0
  3
TXT
  4

  0
ENDTAB
  0
TABLE
  2
VIEW
  5
6
330
0
100
AcDbSymbolTable
 70
     0
  0
ENDTAB
  0
TABLE
  2
UCS
  5
7
330
0
100
AcDbSymbolTable
 70
     0
  0
ENDTAB
  0
TABLE
  2
APPID
  5
9
330
0
100
AcDbSymbolTable
 70
     1
  0
APPID
  5
12
330
9
100
AcDbSymbolTableRecord
100
AcDbRegAppTableRecord
  2
ACAD
 70
     0
  0
ENDTAB
  0
TABLE
  2
DIMSTYLE
  5
A
330
0
100
AcDbSymbolTable
 70
     3
100
AcDbDimStyleTable
  0
DIMSTYLE
105
27
330
A
100
AcDbSymbolTableRecord
100
AcDbDimStyleTableRecord
  2
ISO-25
 70
     0
 41
2.5
 42
0.625
 43
3.75
 44
1.25
 73
     0
 74
     0
 77
     1
 78
     8
140
2.5
141
2.5
143
0.0393700787
147
0.625
171
     3
172
     1
178
     0
271
     2
272
     2
274
     3
278
    44
283
     0
284
     8
340
11
  0
DIMSTYLE
105
1B8
102
{ACAD_REACTORS
330
1B7
330
1C4
330
1CE
330
1D8
102
}
330
A
100
AcDbSymbolTableRecord
100
AcDbDimStyleTableRecord
  2
SLDDIMSTYLE0
 70
     0
 41
3.0
 44
0.0
 45
0.000000001
 73
     0
 74
     0
 77
     1
 78
    12
 79
     3
140
2.0
147
0.5
173
     1
178
     0
271
     2
272
     3
276
     2
284
    12
340
77
  0
DIMSTYLE
105
1E3
102
{ACAD_REACTORS
330
1E2
330
1F0
102
}
330
A
100
AcDbSymbolTableRecord
100
AcDbDimStyleTableRecord
  2
SLDDIMSTYLE1
 70
     0
 41
3.0
 44
0.0
 45
0.000000001
 73
     0
 74
     0
 77
     1
 78
    12
 79
     3
140
2.0
147
0.5
172
     1
173
     1
178
     0
271
     2
272
     3
276
     2
284
    12
289
     0
340
77
  0
ENDTAB
  0
TABLE
  2
BLOCK_RECORD
  5
1
330
0
100
AcDbSymbolTable
 70
     7
  0
BLOCK_RECORD
  5
1F
330
1
100
AcDbSymbolTableRecord
100
AcDbBlockTableRecord
  2
*Model_Space
340
22
  0
BLOCK_RECORD
  5
1B
330
1
100
AcDbSymbolTableRecord
100
AcDbBlockTableRecord
  2
*Paper_Space
340
1E
  0
BLOCK_RECORD
  5
23
330
1
100
AcDbSymbolTableRecord
100
AcDbBlockTableRecord
  2
*Paper_Space0
340
26
  0
BLOCK_RECORD
  5
1B9
330
1
100
AcDbSymbolTableRecord
100
AcDbBlockTableRecord
  2
_D
340
0
  0
BLOCK_RECORD
  5
1C5
330
1
100
AcDbSymbolTableRecord
100
AcDbBlockTableRecord
  2
_D_1
340
0
  0
BLOCK_RECORD
  5
1CF
330
1
100
AcDbSymbolTableRecord
100
AcDbBlockTableRecord
  2
_D_2
340
0
  0
BLOCK_RECORD
  5
1D9
330
1
100
AcDbSymbolTableRecord
100
AcDbBlockTableRecord
  2
_D_3
340
0
  0
BLOCK_RECORD
  5
1E4
330
1
100
AcDbSymbolTableRecord
100
AcDbBlockTableRecord
  2
_D_4
340
0
  0
BLOCK_RECORD
  5
1F1
330
1
100
AcDbSymbolTableRecord
100
AcDbBlockTableRecord
  2
_D_5
340
0
  0
ENDTAB
  0
ENDSEC
  0
SECTION
  2
BLOCKS
  0
BLOCK
  5
20
330
1F
100
AcDbEntity
  8
0
100
AcDbBlockBegin
  2
*Model_Space
 70
     0
 10
0.0
 20
0.0
 30
0.0
  3
*Model_Space
  1

  0
ENDBLK
  5
21
330
1F
100
AcDbEntity
  8
0
100
AcDbBlockEnd
  0
BLOCK
  5
1C
330
1B
100
AcDbEntity
 67
     1
  8
0
100
AcDbBlockBegin
  2
*Paper_Space
 70
     0
 10
0.0
 20
0.0
 30
0.0
  3
*Paper_Space
  1

  0
ENDBLK
  5
1D
330
1B
100
AcDbEntity
 67
     1
  8
0
100
AcDbBlockEnd
  0
BLOCK
  5
24
330
23
100
AcDbEntity
  8
0
100
AcDbBlockBegin
  2
*Paper_Space0
 70
     0
 10
0.0
 20
0.0
 30
0.0
  3
*Paper_Space0
  1

  0
ENDBLK
  5
25
330
23
100
AcDbEntity
  8
0
100
AcDbBlockEnd
  0
BLOCK
  5
1BA
330
1B9
100
AcDbEntity
  8
0
100
AcDbBlockBegin
  2
_D
 70
     0
 10
0.0
 20
0.0
 30
0.0
  3
_D
  1

  0
SOLID
  5
1BC
330
1B9
100
AcDbEntity
  8
VERMASSUNG
100
AcDbTrace
 10
66.0699551229
 20
80.7839554959
 30
0.0
 11
66.5199551229
 21
83.7839554959
 31
0.0
 12
65.6199551229
 22
83.7839554959
 32
0.0
 13
65.6199551229
 23
83.7839554959
 33
0.0
  0
SOLID
  5
1BD
330
1B9
100
AcDbEntity
  8
VERMASSUNG
100
AcDbTrace
 10
66.0699551229
 20
144.2839554959
 30
0.0
 11
65.6199551229
 21
141.2839554959
 31
0.0
 12
66.5199551229
 22
141.2839554959
 32
0.0
 13
66.5199551229
 23
141.2839554959
 33
0.0
  0
LINE
  5
1BE
330
1B9
100
AcDbEntity
  8
VERMASSUNG
100
AcDbLine
 10
160.8706121774
 20
80.7839554959
 30
0.0
 11
65.0699551229
 21
80.7839554959
 31
0.0
  0
LINE
  5
1BF
330
1B9
100
AcDbEntity
  8
VERMASSUNG
100
AcDbLine
 10
160.8706121774
 20
144.2839554959
 30
0.0
 11
65.0699551229
 21
144.2839554959
 31
0.0
  0
LINE
  5
1C0
330
1B9
100
AcDbEntity
  8
VERMASSUNG
100
AcDbLine
 10
66.0699551229
 20
80.7839554959
 30
0.0
 11
66.0699551229
 21
144.2839554959
 31
0.0
  0
MTEXT
  5
1C1
330
1B9
100
AcDbEntity
  8
VERMASSUNG
100
AcDbMText
 10
63.2918198667
 20
103.7310193476
 30
0.0
 40
2.0
 41
0.0
 71
     1
 72
     1
  1
ISO 40
  7
SLDTEXTSTYLE0
 11
3.391901413832837E-15
 21
1.0
 31
0.0
 73
     1
 44
1.0
  0
MTEXT
  5
1C2
330
1B9
100
AcDbEntity
  8
VERMASSUNG
100
AcDbMText
 10
63.4918198179
 20
112.9310195517
 30
0.0
 40
2.0
 41
0.0
 71
     1
 72
     1
  1
%%c
  7
SLDTEXTSTYLE0
 11
3.391901413832837E-15
 21
1.0
 31
0.0
 73
     1
 44
1.0
  0
MTEXT
  5
1C3
330
1B9
100
AcDbEntity
  8
VERMASSUNG
100
AcDbMText
 10
63.4918195269
 20
116.5388998831
 30
0.0
 40
2.0
 41
0.0
 71
     1
 72
     1
  1
63.5
  7
SLDTEXTSTYLE0
 11
3.391901413832837E-15
 21
1.0
 31
0.0
 73
     1
 44
1.0
  0
ENDBLK
  5
1BB
330
1B9
100
AcDbEntity
  8
0
100
AcDbBlockEnd
  0
BLOCK
  5
1C6
330
1C5
100
AcDbEntity
  8
0
100
AcDbBlockBegin
  2
_D_1
 70
     0
 10
0.0
 20
0.0
 30
0.0
  3
_D_1
  1

  0
SOLID
  5
1C8
330
1C5
100
AcDbEntity
  8
VERMASSUNG
100
AcDbTrace
 10
227.4206121774
 20
150.5378511705
 30
0.0
 11
224.4206121774
 21
150.9878511705
 31
0.0
 12
224.4206121774
 22
150.0878511705
 32
0.0
 13
224.4206121774
 23
150.0878511705
 33
0.0
  0
SOLID
  5
1C9
330
1C5
100
AcDbEntity
  8
VERMASSUNG
100
AcDbTrace
 10
161.4706121774
 20
150.5378511705
 30
0.0
 11
164.4706121774
 21
150.0878511705
 31
0.0
 12
164.4706121774
 22
150.9878511705
 32
0.0
 13
164.4706121774
 23
150.9878511705
 33
0.0
  0
LINE
  5
1CA
330
1C5
100
AcDbEntity
  8
VERMASSUNG
100
AcDbLine
 10
227.4206121774
 20
124.8339554959
 30
0.0
 11
227.4206121774
 21
151.5378511705
 31
0.0
  0
LINE
  5
1CB
330
1C5
100
AcDbEntity
  8
VERMASSUNG
100
AcDbLine
 10
161.4706121774
 20
137.705367852
 30
0.0
 11
161.4706121774
 21
151.5378511705
 31
0.0
  0
LINE
  5
1CC
330
1C5
100
AcDbEntity
  8
VERMASSUNG
100
AcDbLine
 10
227.4206121774
 20
150.5378511705
 30
0.0
 11
161.4706121774
 21
150.5378511705
 31
0.0
  0
MTEXT
  5
1CD
330
1C5
100
AcDbEntity
  8
VERMASSUNG
100
AcDbMText
 10
191.3456123212
 20
153.1159867664
 30
0.0
 40
2.0
 41
0.0
 71
     1
 72
     1
  1
65.95
  7
SLDTEXTSTYLE0
 73
     1
 44
1.0
  0
ENDBLK
  5
1C7
330
1C5
100
AcDbEntity
  8
0
100
AcDbBlockEnd
  0
BLOCK
  5
1D0
330
1CF
100
AcDbEntity
  8
0
100
AcDbBlockBegin
  2
_D_2
 70
     0
 10
0.0
 20
0.0
 30
0.0
  3
_D_2
  1

  0
SOLID
  5
1D2
330
1CF
100
AcDbEntity
  8
VERMASSUNG
100
AcDbTrace
 10
227.4206121774
 20
156.5378511705
 30
0.0
 11
224.4206121774
 21
156.9878511705
 31
0.0
 12
224.4206121774
 22
156.0878511705
 32
0.0
 13
224.4206121774
 23
156.0878511705
 33
0.0
  0
SOLID
  5
1D3
330
1CF
100
AcDbEntity
  8
VERMASSUNG
100
AcDbTrace
 10
142.4206121774
 20
156.5378511705
 30
0.0
 11
145.4206121774
 21
156.0878511705
 31
0.0
 12
145.4206121774
 22
156.9878511705
 32
0.0
 13
145.4206121774
 23
156.9878511705
 33
0.0
  0
LINE
  5
1D4
330
1CF
100
AcDbEntity
  8
VERMASSUNG
100
AcDbLine
 10
227.4206121774
 20
124.8339554959
 30
0.0
 11
227.4206121774
 21
157.5378511705
 31
0.0
  0
LINE
  5
1D5
330
1CF
100
AcDbEntity
  8
VERMASSUNG
100
AcDbLine
 10
142.4206121774
 20
134.7589554959
 30
0.0
 11
142.4206121774
 21
157.5378511705
 31
0.0
  0
LINE
  5
1D6
330
1CF
100
AcDbEntity
  8
VERMASSUNG
100
AcDbLine
 10
227.4206121774
 20
156.5378511705
 30
0.0
 11
142.4206121774
 21
156.5378511705
 31
0.0
  0
MTEXT
  5
1D7
330
1CF
100
AcDbEntity
  8
VERMASSUNG
100
AcDbMText
 10
183.5206122274
 20
159.1159867664
 30
0.0
 40
2.0
 41
0.0
 71
     1
 72
     1
  1
85
  7
SLDTEXTSTYLE0
 73
     1
 44
1.0
  0
ENDBLK
  5
1D1
330
1CF
100
AcDbEntity
  8
0
100
AcDbBlockEnd
  0
BLOCK
  5
1DA
330
1D9
100
AcDbEntity
  8
0
100
AcDbBlockBegin
  2
_D_3
 70
     0
 10
0.0
 20
0.0
 30
0.0
  3
_D_3
  1

  0
SOLID
  5
1DC
330
1D9
100
AcDbEntity
  8
VERMASSUNG
100
AcDbTrace
 10
227.4206121774
 20
162.1856166053
 30
0.0
 11
224.4206121774
 21
162.6356166053
 31
0.0
 12
224.4206121774
 22
161.7356166053
 32
0.0
 13
224.4206121774
 23
161.7356166053
 33
0.0
  0
SOLID
  5
1DD
330
1D9
100
AcDbEntity
  8
VERMASSUNG
100
AcDbTrace
 10
74.1706121774
 20
162.1856166053
 30
0.0
 11
77.1706121774
 21
161.7356166053
 31
0.0
 12
77.1706121774
 22
162.6356166053
 32
0.0
 13
77.1706121774
 23
162.6356166053
 33
0.0
  0
LINE
  5
1DE
330
1D9
100
AcDbEntity
  8
VERMASSUNG
100
AcDbLine
 10
227.4206121774
 20
124.8339554959
 30
0.0
 11
227.4206121774
 21
163.1856166053
 31
0.0
  0
LINE
  5
1DF
330
1D9
100
AcDbEntity
  8
VERMASSUNG
100
AcDbLine
 10
74.1706121774
 20
123.9410860929
 30
0.0
 11
74.1706121774
 21
163.1856166053
 31
0.0
  0
LINE
  5
1E0
330
1D9
100
AcDbEntity
  8
VERMASSUNG
100
AcDbLine
 10
227.4206121774
 20
162.1856166053
 30
0.0
 11
74.1706121774
 21
162.1856166053
 31
0.0
  0
MTEXT
  5
1E1
330
1D9
100
AcDbEntity
  8
VERMASSUNG
100
AcDbMText
 10
147.1956122393
 20
164.7637522013
 30
0.0
 40
2.0
 41
0.0
 71
     1
 72
     1
  1
153.25
  7
SLDTEXTSTYLE0
 73
     1
 44
1.0
  0
ENDBLK
  5
1DB
330
1D9
100
AcDbEntity
  8
0
100
AcDbBlockEnd
  0
BLOCK
  5
1E5
330
1E4
100
AcDbEntity
  8
0
100
AcDbBlockBegin
  2
_D_4
 70
     0
 10
0.0
 20
0.0
 30
0.0
  3
_D_4
  1

  0
SOLID
  5
1E7
330
1E4
100
AcDbEntity
  8
VERMASSUNG
100
AcDbTrace
 10
237.0738076662
 20
119.5339554959
 30
0.0
 11
237.5238076662
 21
122.5339554959
 31
0.0
 12
236.6238076662
 22
122.5339554959
 32
0.0
 13
236.6238076662
 23
122.5339554959
 33
0.0
  0
SOLID
  5
1E8
330
1E4
100
AcDbEntity
  8
VERMASSUNG
100
AcDbTrace
 10
237.0738076662
 20
105.5339554959
 30
0.0
 11
236.6238076662
 21
102.5339554959
 31
0.0
 12
237.5238076662
 22
102.5339554959
 32
0.0
 13
237.5238076662
 23
102.5339554959
 33
0.0
  0
LINE
  5
1E9
330
1E4
100
AcDbEntity
  8
VERMASSUNG
100
AcDbLine
 10
226.4206121774
 20
119.5339554959
 30
0.0
 11
238.0738076662
 21
119.5339554959
 31
0.0
  0
LINE
  5
1EA
330
1E4
100
AcDbEntity
  8
VERMASSUNG
100
AcDbLine
 10
226.4206121774
 20
105.5339554959
 30
0.0
 11
238.0738076662
 21
105.5339554959
 31
0.0
  0
LINE
  5
1EB
330
1E4
100
AcDbEntity
  8
VERMASSUNG
100
AcDbLine
 10
237.0738076662
 20
119.5339554959
 30
0.0
 11
237.0738076662
 21
125.5339554959
 31
0.0
  0
LINE
  5
1EC
330
1E4
100
AcDbEntity
  8
VERMASSUNG
100
AcDbLine
 10
237.0738076662
 20
119.5339554959
 30
0.0
 11
237.0738076662
 21
105.5339554959
 31
0.0
  0
LINE
  5
1ED
330
1E4
100
AcDbEntity
  8
VERMASSUNG
100
AcDbLine
 10
237.0738076662
 20
105.5339554959
 30
0.0
 11
237.0738076662
 21
99.5339554959
 31
0.0
  0
MTEXT
  5
1EE
330
1E4
100
AcDbEntity
  8
VERMASSUNG
100
AcDbMText
 10
234.4956723612
 20
109.4289553688
 30
0.0
 40
2.0
 41
0.0
 71
     1
 72
     1
  1
%%c
  7
SLDTEXTSTYLE0
 11
-7.044195017643634E-15
 21
1.0
 31
0.0
 73
     1
 44
1.0
  0
MTEXT
  5
1EF
330
1E4
100
AcDbEntity
  8
VERMASSUNG
100
AcDbMText
 10
234.29567241
 20
113.0389553831
 30
0.0
 40
2.0
 41
0.0
 71
     1
 72
     1
  1
14
  7
SLDTEXTSTYLE0
 11
-7.044195017643634E-15
 21
1.0
 31
0.0
 73
     1
 44
1.0
  0
ENDBLK
  5
1E6
330
1E4
100
AcDbEntity
  8
0
100
AcDbBlockEnd
  0
BLOCK
  5
1F2
330
1F1
100
AcDbEntity
  8
0
100
AcDbBlockBegin
  2
_D_5
 70
     0
 10
0.0
 20
0.0
 30
0.0
  3
_D_5
  1

  0
SOLID
  5
1F4
330
1F1
100
AcDbEntity
  8
VERMASSUNG
100
AcDbTrace
 10
243.3738076662
 20
125.0339554959
 30
0.0
 11
242.9238076662
 21
122.0339554959
 31
0.0
 12
243.8238076662
 22
122.0339554959
 32
0.0
 13
243.8238076662
 23
122.0339554959
 33
0.0
  0
SOLID
  5
1F5
330
1F1
100
AcDbEntity
  8
VERMASSUNG
100
AcDbTrace
 10
243.3738076662
 20
100.0339554959
 30
0.0
 11
243.8238076662
 21
103.0339554959
 31
0.0
 12
242.9238076662
 22
103.0339554959
 32
0.0
 13
242.9238076662
 23
103.0339554959
 33
0.0
  0
LINE
  5
1F6
330
1F1
100
AcDbEntity
  8
VERMASSUNG
100
AcDbLine
 10
227.2206121774
 20
125.0339554959
 30
0.0
 11
244.3738076662
 21
125.0339554959
 31
0.0
  0
LINE
  5
1F7
330
1F1
100
AcDbEntity
  8
VERMASSUNG
100
AcDbLine
 10
227.2206121774
 20
100.0339554959
 30
0.0
 11
244.3738076662
 21
100.0339554959
 31
0.0
  0
LINE
  5
1F8
330
1F1
100
AcDbEntity
  8
VERMASSUNG
100
AcDbLine
 10
243.3738076662
 20
125.0339554959
 30
0.0
 11
243.3738076662
 21
100.0339554959
 31
0.0
  0
MTEXT
  5
1F9
330
1F1
100
AcDbEntity
  8
VERMASSUNG
100
AcDbMText
 10
240.59567241
 20
106.8289555945
 30
0.0
 40
2.0
 41
0.0
 71
     1
 72
     1
  1
WH
  7
SLDTEXTSTYLE0
 11
-7.044195017643634E-15
 21
1.0
 31
0.0
 73
     1
 44
1.0
  0
MTEXT
  5
1FA
330
1F1
100
AcDbEntity
  8
VERMASSUNG
100
AcDbMText
 10
240.7956723612
 20
111.8289554828
 30
0.0
 40
2.0
 41
0.0
 71
     1
 72
     1
  1
%%c
  7
SLDTEXTSTYLE0
 11
-7.044195017643634E-15
 21
1.0
 31
0.0
 73
     1
 44
1.0
  0
MTEXT
  5
1FB
330
1F1
100
AcDbEntity
  8
VERMASSUNG
100
AcDbMText
 10
240.59567241
 20
115.4389554971
 30
0.0
 40
2.0
 41
0.0
 71
     1
 72
     1
  1
25
  7
SLDTEXTSTYLE0
 11
-7.044195017643634E-15
 21
1.0
 31
0.0
 73
     1
 44
1.0
  0
ENDBLK
  5
1F3
330
1F1
100
AcDbEntity
  8
0
100
AcDbBlockEnd
  0
ENDSEC
  0
SECTION
  2
ENTITIES
  0
MTEXT
  5
78
330
1F
100
AcDbEntity
  8
KOPF_DÜNN
100
AcDbMText
 10
13.8892156294
 20
23.8442973028
 30
0.0
 40
3.0
 41
0.0
 71
     1
 72
     1
  1
A14.440.025.085
  7
SLDTEXTSTYLE0
 73
     1
 44
1.0
  0
MTEXT
  5
79
330
1F
100
AcDbEntity
  8
VERMASSUNG
100
AcDbMText
 10
13.9329988022
 20
28.8834360957
 30
0.0
 40
3.0
 41
0.0
 71
     1
 72
     1
  1
Aufnahme_Master shank WH25
  7
SLDTEXTSTYLE0
 73
     1
 44
1.0
  0
MTEXT
  5
7A
330
1F
100
AcDbEntity
  8
VERMASSUNG
100
AcDbMText
 10
98.8601118557
 20
13.8365368761
 30
0.0
 40
2.0
 41
0.0
 71
     1
 72
     1
  1
Datum: 19.10.2011
  7
SLDTEXTSTYLE0
 73
     1
 44
1.0
  0
MTEXT
  5
7B
330
1F
100
AcDbEntity
  8
VERMASSUNG
100
AcDbMText
 10
13.933048693
 20
18.0482802738
 30
0.0
 40
2.0
 41
0.0
 71
     1
 72
     1
  1
DIN 69871 AD/B
  7
SLDTEXTSTYLE0
 73
     1
 44
1.0
  0
MTEXT
  5
7C
330
1F
100
AcDbEntity
  8
VERMASSUNG
100
AcDbMText
 10
13.9808475933
 20
13.9090974274
 30
0.0
 40
2.0
 41
0.0
 71
     1
 72
     1
  1
Gewicht: 1045g
  7
SLDTEXTSTYLE0
 73
     1
 44
1.0
  0
ARC
  5
7D
330
1F
100
AcDbEntity
  8
0
  6
Continuous
 62
     7
370
    15
100
AcDbCircle
 10
145.0206121774
 20
89.7089554959
 30
0.0
 40
0.6000000000000227
100
AcDbArc
 50
0.0
 51
90.0
  0
ARC
  5
7E
330
1F
100
AcDbEntity
  8
0
  6
Continuous
 62
     7
370
    15
100
AcDbCircle
 10
145.0206121774
 20
135.3589554959
 30
0.0
 40
0.6000000000000227
100
AcDbArc
 50
270.0
 51
0.0
  0
LINE
  5
7F
330
1F
100
AcDbEntity
  8
0
  6
Continuous
 62
     7
370
    15
100
AcDbLine
 10
142.4206121774
 20
90.3089554959
 30
0.0
 11
145.0206121774
 21
90.3089554959
 31
0.0
  0
LINE
  5
80
330
1F
100
AcDbEntity
  8
0
  6
Continuous
 62
     7
370
    15
100
AcDbLine
 10
145.0206121774
 20
134.7589554959
 30
0.0
 11
142.4206121774
 21
134.7589554959
 31
0.0
  0
LINE
  5
81
330
1F
100
AcDbEntity
  8
0
  6
Continuous
 62
     7
370
    15
100
AcDbLine
 10
142.4206121774
 20
134.7589554959
 30
0.0
 11
75.0263052844
 21
124.930619074
 31
0.0
  0
LINE
  5
82
330
1F
100
AcDbEntity
  8
0
  6
Continuous
 62
     7
370
    15
100
AcDbLine
 10
75.0263052844
 20
100.1372919178
 30
0.0
 11
142.4206121774
 21
90.3089554959
 31
0.0
  0
ARC
  5
83
330
1F
100
AcDbEntity
  8
0
  6
Continuous
 62
     7
370
    15
100
AcDbCircle
 10
164.4706121774
 20
97.0339554959
 30
0.0
 40
3.000000000000028
100
AcDbArc
 50
90.0
 51
180.0
  0
ARC
  5
84
330
1F
100
AcDbEntity
  8
0
  6
Continuous
 62
     7
370
    15
100
AcDbCircle
 10
164.4706121774
 20
128.0339554959
 30
0.0
 40
3.000000000000028
100
AcDbArc
 50
180.0
 51
270.0
  0
LINE
  5
85
330
1F
100
AcDbEntity
  8
0
  6
Continuous
 62
     7
370
    15
100
AcDbLine
 10
227.2206121774
 20
100.0339554959
 30
0.0
 11
227.4206121774
 21
100.2339554959
 31
0.0
  0
LINE
  5
86
330
1F
100
AcDbEntity
  8
0
  6
Continuous
 62
     7
370
    15
100
AcDbLine
 10
227.4206121774
 20
124.8339554959
 30
0.0
 11
227.2206121774
 21
125.0339554959
 31
0.0
  0
LINE
  5
87
330
1F
100
AcDbEntity
  8
0
  6
Continuous
 62
     7
370
    15
100
AcDbLine
 10
227.2206121774
 20
125.0339554959
 30
0.0
 11
164.4706121774
 21
125.0339554959
 31
0.0
  0
LINE
  5
88
330
1F
100
AcDbEntity
  8
0
  6
Continuous
 62
     7
370
    15
100
AcDbLine
 10
164.4706121774
 20
100.0339554959
 30
0.0
 11
227.2206121774
 21
100.0339554959
 31
0.0
  0
ARC
  5
89
330
1F
100
AcDbEntity
  8
0
  6
Continuous
 62
     7
370
    15
100
AcDbCircle
 10
75.1706121774
 20
101.1268248988
 30
0.0
 40
0.9999999999999858
100
AcDbArc
 50
180.0
 51
261.7028550302
  0
ARC
  5
8A
330
1F
100
AcDbEntity
  8
0
  6
Continuous
 62
     7
370
    15
100
AcDbCircle
 10
75.1706121774
 20
123.9410860929
 30
0.0
 40
0.9999999999999959
100
AcDbArc
 50
98.2971449698
 51
180.0
  0
ARC
  5
8B
330
1F
100
AcDbEntity
  8
0
  6
Continuous
 62
     7
370
    15
100
AcDbCircle
 10
155.4206121774
 20
103.8124418411
 30
0.0
 40
1.500000000000018
100
AcDbArc
 50
191.5274417164
 51
336.6722113243
  0
SPLINE
  5
8C
330
1F
100
AcDbEntity
  8
0
  6
Continuous
 62
     7
370
    15
100
AcDbSpline
210
0.0
220
0.0
230
1.0
 70
     8
 71
     3
 72
    12
 73
     8
 74
     0
 42
0.000000001
 43
0.00000001
 40
0.0
 40
0.0
 40
0.0
 40
0.0
 40
0.250000000000001
 40
0.250000000000001
 40
0.500000000000002
 40
0.500000000000002
 40
1.0
 40
1.0
 40
1.0
 40
1.0
 10
160.8706121774491
 20
82.08586314723382
 30
0.0
 10
160.966154087585
 20
82.08586314723382
 30
0.0
 10
161.0582990294478
 20
82.10211681643001
 30
0.0
 10
161.2146253060577
 20
82.15572523734349
 30
0.0
 10
161.2782934486777
 20
82.19213636262518
 30
0.0
 10
161.4271612941081
 20
82.31426000231168
 30
0.0
 10
161.4706121774491
 20
82.4094126777487
 30
0.0
 10
161.4706121774491
 20
82.5050391333684
 30
0.0
  0
SPLINE
  5
8D
330
1F
100
AcDbEntity
  8
0
  6
Continuous
 62
     7
370
    15
100
AcDbSpline
210
0.0
220
0.0
230
1.0
 70
    24
 71
     3
 72
    12
 73
     8
 74
     0
 42
0.000000001
 43
0.00000001
 40
0.0
 40
0.0
 40
0.0
 40
0.0
 40
0.5000000000000011
 40
0.5000000000000011
 40
0.7500000000000006
 40
0.7500000000000006
 40
1.0
 40
1.0
 40
1.0
 40
1.0
 10
161.4706121774491
 20
130.8839554958705
 30
0.0
 10
161.4706121774491
 20
130.8839554958705
 30
0.0
 10
161.420932182494
 20
130.8839554958705
 30
0.0
 10
161.2650136254765
 20
130.8839554958705
 30
0.0
 10
161.1991325609003
 20
130.8839554958705
 30
0.0
 10
161.0464869054116
 20
130.8839554958705
 30
0.0
 10
160.9592369975506
 20
130.8839554958705
 30
0.0
 10
160.8706121774489
 20
130.8839554958705
 30
0.0
  0
LINE
  5
8E
330
1F
100
AcDbEntity
  8
0
  6
Continuous
 62
     7
370
    15
100
AcDbLine
 10
161.4706121774
 20
82.5050391334
 30
0.0
 11
161.4706121774
 21
130.8839554959
 31
0.0
  0
LINE
  5
8F
330
1F
100
AcDbEntity
  8
0
  6
Continuous
 62
     7
370
    15
100
AcDbLine
 10
157.0424488195
 20
102.781935428
 30
0.0
 11
157.0424488195
 21
130.8839554959
 31
0.0
  0
LINE
  5
90
330
1F
100
AcDbEntity
  8
0
  6
Continuous
 62
     7
370
    15
100
AcDbLine
 10
160.8706121774
 20
130.8839554959
 30
0.0
 11
157.0424488195
 21
130.8839554959
 31
0.0
  0
LINE
  5
91
330
1F
100
AcDbEntity
  8
0
  6
Continuous
 62
     7
370
    15
100
AcDbLine
 10
157.0424488195
 20
82.0858631472
 30
0.0
 11
160.8706121774
 21
82.0858631472
 31
0.0
  0
LINE
  5
92
330
1F
100
AcDbEntity
  8
0
  6
Continuous
 62
     7
370
    15
100
AcDbLine
 10
157.0424488195
 20
82.0858631472
 30
0.0
 11
157.0424488195
 21
100.5824556977
 31
0.0
  0
SPLINE
  5
93
330
1F
100
AcDbEntity
  8
0
  6
Continuous
 62
     7
370
    15
100
AcDbSpline
210
0.0
220
0.0
230
1.0
 70
     8
 71
     3
 72
    12
 73
     8
 74
     0
 42
0.000000001
 43
0.00000001
 40
0.0
 40
0.0
 40
0.0
 40
0.0
 40
0.2499999999999995
 40
0.2499999999999995
 40
0.499999999999999
 40
0.499999999999999
 40
1.0
 40
1.0
 40
1.0
 40
1.0
 10
157.0424488195058
 20
100.5824556976635
 30
0.0
 10
157.1653963133013
 20
100.7404125463585
 30
0.0
 10
157.2589405164102
 20
100.9122459133361
 30
0.0
 10
157.3878799055724
 20
101.2839186229819
 30
0.0
 10
157.4204326629576
 20
101.4771070691732
 30
0.0
 10
157.4209690046914
 20
102.0654036074494
 30
0.0
 10
157.2883453477234
 20
102.4574218453381
 30
0.0
 10
157.0424488195058
 20
102.7819354280468
 30
0.0
  0
LINE
  5
94
330
1F
100
AcDbEntity
  8
0
  6
Continuous
 62
     7
370
    15
100
AcDbLine
 10
146.2206121774
 20
82.0858631472
 30
0.0
 11
149.9987755354
 21
82.0858631472
 31
0.0
  0
LINE
  5
95
330
1F
100
AcDbEntity
  8
0
  6
Continuous
 62
     7
370
    15
100
AcDbLine
 10
149.9987755354
 20
130.8839554959
 30
0.0
 11
146.2206121774
 21
130.8839554959
 31
0.0
  0
LINE
  5
96
330
1F
100
AcDbEntity
  8
0
  6
Continuous
 62
     7
370
    15
100
AcDbLine
 10
149.9987755354
 20
82.0858631472
 30
0.0
 11
149.9987755354
 21
130.8839554959
 31
0.0
  0
SPLINE
  5
97
330
1F
100
AcDbEntity
  8
0
  6
Continuous
 62
     7
370
    15
100
AcDbSpline
210
0.0
220
0.0
230
1.0
 70
     8
 71
     3
 72
     8
 73
     4
 74
     0
 42
0.000000001
 43
0.00000001
 40
0.0
 40
0.0
 40
0.0
 40
0.0
 40
1.0
 40
1.0
 40
1.0
 40
1.0
 10
151.6106121774491
 20
84.71712903636904
 30
0.0
 10
151.2264774288647
 20
84.02448761442486
 30
0.0
 10
150.8414911523718
 20
83.33230144010115
 30
0.0
 10
150.4558225737454
 20
82.64050714925696
 30
0.0
  0
SPLINE
  5
98
330
1F
100
AcDbEntity
  8
0
  6
Continuous
 62
     7
370
    15
100
AcDbSpline
210
0.0
220
0.0
230
1.0
 70
     8
 71
     3
 72
     8
 73
     4
 74
     0
 42
0.000000001
 43
0.00000001
 40
0.0
 40
0.0
 40
0.0
 40
0.0
 40
0.0011901715795577
 40
0.0011901715795577
 40
0.0011901715795577
 40
0.0011901715795577
 10
149.9987755353924
 20
82.08586314723382
 30
0.0
 10
150.1526217248883
 20
82.2704283849174
 30
0.0
 10
150.3050169925609
 20
82.45530374544602
 30
0.0
 10
150.4558225737454
 20
82.64050714925696
 30
0.0
  0
SPLINE
  5
99
330
1F
100
AcDbEntity
  8
0
  6
Continuous
 62
     7
370
    15
100
AcDbSpline
210
0.0
220
0.0
230
1.0
 70
    24
 71
     3
 72
     8
 73
     4
 74
     0
 42
0.000000001
 43
0.00000001
 40
0.0
 40
0.0
 40
0.0
 40
0.0
 40
1.0
 40
1.0
 40
1.0
 40
1.0
 10
151.6106121774491
 20
130.8839554958705
 30
0.0
 10
151.0858796890872
 20
130.8839554958705
 30
0.0
 10
150.5472042048684
 20
130.8839554958705
 30
0.0
 10
149.9987755353924
 20
130.8839554958705
 30
0.0
  0
LINE
  5
9A
330
1F
100
AcDbEntity
  8
0
  6
Continuous
 62
     7
370
    15
100
AcDbLine
 10
151.6106121774
 20
84.7171290364
 30
0.0
 11
151.6106121774
 21
130.8839554959
 31
0.0
  0
LINE
  5
9B
330
1F
100
AcDbEntity
  8
0
  6
Continuous
 62
     7
370
    15
100
AcDbLine
 10
155.4306121774
 20
104.5326729757
 30
0.0
 11
155.4306121774
 21
130.8839554959
 31
0.0
  0
SPLINE
  5
9C
330
1F
100
AcDbEntity
  8
0
  6
Continuous
 62
     7
370
    15
100
AcDbSpline
210
0.0
220
0.0
230
1.0
 70
    24
 71
     3
 72
     8
 73
     4
 74
     0
 42
0.000000001
 43
0.00000001
 40
0.0
 40
0.0
 40
0.0
 40
0.0
 40
1.0
 40
1.0
 40
1.0
 40
1.0
 10
157.0424488195058
 20
130.8839554958705
 30
0.0
 10
156.4940201500298
 20
130.8839554958705
 30
0.0
 10
155.955344665811
 20
130.8839554958705
 30
0.0
 10
155.4306121774491
 20
130.8839554958705
 30
0.0
  0
SPLINE
  5
9D
330
1F
100
AcDbEntity
  8
0
  6
Continuous
 62
     7
370
    15
100
AcDbSpline
210
0.0
220
0.0
230
1.0
 70
     8
 71
     3
 72
    12
 73
     8
 74
     0
 42
0.000000001
 43
0.00000001
 40
0.0
 40
0.0
 40
0.0
 40
0.0
 40
0.2500000000000006
 40
0.2500000000000006
 40
0.5000000000000011
 40
0.5000000000000011
 40
1.0
 40
1.0
 40
1.0
 40
1.0
 10
157.0424488195058
 20
102.7819354280468
 30
0.0
 10
156.9275527682451
 20
103.0016758631034
 30
0.0
 10
156.8007867517725
 20
103.1986442147251
 30
0.0
 10
156.5405718181539
 20
103.552361787564
 30
0.0
 10
156.4070643601917
 20
103.7091870814363
 30
0.0
 10
155.9986660916035
 20
104.1357296523439
 30
0.0
 10
155.7150129566659
 20
104.3624218312991
 30
0.0
 10
155.4306121774492
 20
104.5326729756946
 30
0.0
  0
SPLINE
  5
9E
330
1F
100
AcDbEntity
  8
0
  6
Continuous
 62
     7
370
    15
100
AcDbSpline
210
0.0
220
0.0
230
1.0
 70
     8
 71
     3
 72
    10
 73
     6
 74
     0
 42
0.000000001
 43
0.00000001
 40
0.0
 40
0.0
 40
0.0
 40
0.0
 40
0.5
 40
0.5
 40
1.0
 40
1.0
 40
1.0
 40
1.0
 10
145.8367567187963
 20
82.18222564640226
 30
0.0
 10
145.8855266917776
 20
82.15399763919426
 30
0.0
 10
145.94297881508
 20
82.12990303495268
 30
0.0
 10
146.0735757180687
 20
82.09563956186012
 30
0.0
 10
146.1460653979109
 20
82.08586314723381
 30
0.0
 10
146.2206121774491
 20
82.08586314723381
 30
0.0
  0
SPLINE
  5
9F
330
1F
100
AcDbEntity
  8
0
  6
Continuous
 62
     7
370
    15
100
AcDbSpline
210
0.0
220
0.0
230
1.0
 70
     8
 71
     3
 72
    10
 73
     6
 74
     0
 42
0.000000001
 43
0.00000001
 40
0.0
 40
0.0
 40
0.0
 40
0.0
 40
0.5
 40
0.5
 40
1.0
 40
1.0
 40
1.0
 40
1.0
 10
145.8367567187963
 20
82.18222564640226
 30
0.0
 10
145.7786340587202
 20
82.24953080626408
 30
0.0
 10
145.7262308927167
 20
82.32961619329772
 30
0.0
 10
145.6473278711703
 20
82.5136356349865
 30
0.0
 10
145.6206121774491
 20
82.61884699240694
 30
0.0
 10
145.6206121774491
 20
82.7275803388676
 30
0.0
  0
LINE
  5
A0
330
1F
100
AcDbEntity
  8
0
  6
Continuous
 62
     7
370
    15
100
AcDbLine
 10
145.6206121774
 20
82.7275803389
 30
0.0
 11
145.6206121774
 21
130.8839554959
 31
0.0
  0
SPLINE
  5
A1
330
1F
100
AcDbEntity
  8
0
  6
Continuous
 62
     7
370
    15
100
AcDbSpline
210
0.0
220
0.0
230
1.0
 70
    24
 71
     3
 72
    12
 73
     8
 74
     0
 42
0.000000001
 43
0.00000001
 40
0.0
 40
0.0
 40
0.0
 40
0.0
 40
0.25
 40
0.25
 40
0.5
 40
0.5
 40
1.0
 40
1.0
 40
1.0
 40
1.0
 10
146.2206121774491
 20
130.8839554958705
 30
0.0
 10
146.1321968001386
 20
130.8839554958705
 30
0.0
 10
146.044926362968
 20
130.8839554958705
 30
0.0
 10
145.8924626381961
 20
130.8839554958705
 30
0.0
 10
145.8268240259737
 20
130.8839554958705
 30
0.0
 10
145.6701656246898
 20
130.8839554958705
 30
0.0
 10
145.620612177449
 20
130.8839554958705
 30
0.0
 10
145.6206121774491
 20
130.8839554958705
 30
0.0
  0
SPLINE
  5
A2
330
1F
100
AcDbEntity
  8
0
  6
Continuous
 62
     7
370
    15
100
AcDbSpline
210
0.0
220
0.0
230
1.0
 70
     8
 71
     3
 72
    14
 73
    10
 74
     0
 42
0.000000001
 43
0.00000001
 40
0.0
 40
0.0
 40
0.0
 40
0.0
 40
0.2499999999999995
 40
0.2499999999999995
 40
0.4999999999999997
 40
0.4999999999999997
 40
0.7499999999999998
 40
0.7499999999999998
 40
1.0
 40
1.0
 40
1.0
 40
1.0
 10
155.4306121774491
 20
104.5869166255408
 30
0.0
 10
155.4306121774491
 20
104.6235674937046
 30
0.0
 10
155.4092843887372
 20
104.6600342909536
 30
0.0
 10
155.3268259860806
 20
104.7251731454945
 30
0.0
 10
155.2657097942255
 20
104.7532442760854
 30
0.0
 10
155.1144067011633
 20
104.7870721578122
 30
0.0
 10
155.0230286777728
 20
104.7925352992087
 30
0.0
 10
154.8306549647199
 20
104.7716093811961
 30
0.0
 10
154.7284746252409
 20
104.7450739558208
 30
0.0
 10
154.630612177449
 20
104.7045877825396
 30
0.0
  0
SPLINE
  5
A3
330
1F
100
AcDbEntity
  8
0
  6
Continuous
 62
     7
370
    15
100
AcDbSpline
210
0.0
220
0.0
230
1.0
 70
     8
 71
     3
 72
    12
 73
     8
 74
     0
 42
0.000000001
 43
0.00000001
 40
0.0
 40
0.0
 40
0.0
 40
0.0
 40
0.5000000000000017
 40
0.5000000000000017
 40
0.7500000000000008
 40
0.7500000000000008
 40
1.0
 40
1.0
 40
1.0
 40
1.0
 10
155.4306121774491
 20
100.7739494774736
 30
0.0
 10
155.7148187120144
 20
100.6064853151798
 30
0.0
 10
155.9935144461182
 20
100.4948482156682
 30
0.0
 10
156.4028604893074
 20
100.4275349500289
 30
0.0
 10
156.5389998266269
 20
100.4223839100149
 30
0.0
 10
156.800319875623
 20
100.4601498476343
 30
0.0
 10
156.9257410580548
 20
100.5016996059785
 30
0.0
 10
157.0424488195062
 20
100.5824556976613
 30
0.0
  0
LINE
  5
A4
330
1F
100
AcDbEntity
  8
0
  6
Continuous
 62
     7
370
    15
100
AcDbLine
 10
155.4306121774
 20
100.8281931273
 30
0.0
 11
155.4306121774
 21
100.7739494775
 31
0.0
  0
SPLINE
  5
A5
330
1F
100
AcDbEntity
  8
0
  6
Continuous
 62
     7
370
    15
100
AcDbSpline
210
0.0
220
0.0
230
1.0
 70
     8
 71
     3
 72
    14
 73
    10
 74
     0
 42
0.000000001
 43
0.00000001
 40
0.0
 40
0.0
 40
0.0
 40
0.0
 40
0.25
 40
0.25
 40
0.5
 40
0.5
 40
0.75
 40
0.75
 40
1.0
 40
1.0
 40
1.0
 40
1.0
 10
154.6306121774455
 20
101.2514763057637
 30
0.0
 10
154.7280215974293
 20
101.2130615863695
 30
0.0
 10
154.8303458404429
 20
101.1753611815868
 30
0.0
 10
155.0223475259804
 20
101.1043163959927
 30
0.0
 10
155.1137821556349
 20
101.0701149346346
 30
0.0
 10
155.2655610229299
 20
101.0031185092292
 30
0.0
 10
155.3265379128444
 20
100.9699770409197
 30
0.0
 10
155.4095558514088
 20
100.9002994732696
 30
0.0
 10
155.4306121774491
 20
100.8645657621024
 30
0.0
 10
155.4306121774491
 20
100.8281931273217
 30
0.0
  0
SPLINE
  5
A6
330
1F
100
AcDbEntity
  8
0
  6
Continuous
 62
     7
370
    15
100
AcDbSpline
210
0.0
220
0.0
230
1.0
 70
     8
 71
     3
 72
    22
 73
    18
 74
     0
 42
0.000000001
 43
0.00000001
 40
0.0
 40
0.0
 40
0.0
 40
0.0
 40
0.125
 40
0.125
 40
0.25
 40
0.25
 40
0.375
 40
0.375
 40
0.5
 40
0.5
 40
0.625
 40
0.625
 40
0.75
 40
0.75
 40
0.875
 40
0.875
 40
1.0
 40
1.0
 40
1.0
 40
1.0
 10
154.6306121774491
 20
104.7045877825396
 30
0.0
 10
154.4505954828797
 20
104.6301139955631
 30
0.0
 10
154.2861636610095
 20
104.5326647335791
 30
0.0
 10
153.9877674272511
 20
104.2932953000149
 30
0.0
 10
153.8574636998863
 20
104.1533986879445
 30
0.0
 10
153.6442449162672
 20
103.8451470978845
 30
0.0
 10
153.5606170591558
 20
103.6749838797654
 30
0.0
 10
153.4494861822374
 20
103.3244891449751
 30
0.0
 10
153.4206501873836
 20
103.1393641838239
 30
0.0
 10
153.4205742447238
 20
102.7761573092069
 30
0.0
 10
153.4492328701509
 20
102.5927872954994
 30
0.0
 10
153.5603839632632
 20
102.2468961830062
 30
0.0
 10
153.6434510839069
 20
102.0813766557387
 30
0.0
 10
153.8571370420252
 20
101.7808369183349
 30
0.0
 10
153.9861440319494
 20
101.6469649970509
 30
0.0
 10
154.2857533114385
 20
101.4157182276466
 30
0.0
 10
154.4505960096996
 20
101.3224681109866
 30
0.0
 10
154.6306121774491
 20
101.2514763057623
 30
0.0
  0
SPLINE
  5
A7
330
1F
100
AcDbEntity
  8
0
  6
Continuous
 62
     7
370
    15
100
AcDbSpline
210
0.0
220
0.0
230
1.0
 70
     8
 71
     3
 72
     8
 73
     4
 74
     0
 42
0.000000001
 43
0.00000001
 40
0.0
 40
0.0
 40
0.0
 40
0.0
 40
0.0011901715795577
 40
0.0011901715795577
 40
0.0011901715795577
 40
0.0011901715795577
 10
156.5854017811527
 20
82.64050714925696
 30
0.0
 10
156.7362073623372
 20
82.45530374544602
 30
0.0
 10
156.8886026300098
 20
82.2704283849174
 30
0.0
 10
157.0424488195058
 20
82.08586314723382
 30
0.0
  0
SPLINE
  5
A8
330
1F
100
AcDbEntity
  8
0
  6
Continuous
 62
     7
370
    15
100
AcDbSpline
210
0.0
220
0.0
230
1.0
 70
     8
 71
     3
 72
     8
 73
     4
 74
     0
 42
0.000000001
 43
0.00000001
 40
0.0
 40
0.0
 40
0.0
 40
0.0
 40
1.0
 40
1.0
 40
1.0
 40
1.0
 10
156.5854017811527
 20
82.64050714925696
 30
0.0
 10
156.1997332025264
 20
83.33230144010113
 30
0.0
 10
155.8147469260334
 20
84.02448761442486
 30
0.0
 10
155.4306121774491
 20
84.71712903636903
 30
0.0
  0
LINE
  5
A9
330
1F
100
AcDbEntity
  8
0
  6
Continuous
 62
     7
370
    15
100
AcDbLine
 10
155.4306121774
 20
84.7171290364
 30
0.0
 11
155.4306121774
 21
100.7739494775
 31
0.0
  0
SPLINE
  5
AA
330
1F
100
AcDbEntity
  8
0
  6
Continuous
 62
     7
370
    15
100
AcDbSpline
210
0.0
220
0.0
230
1.0
 70
     8
 71
     3
 72
    12
 73
     8
 74
     0
 42
0.000000001
 43
0.00000001
 40
0.0
 40
0.0
 40
0.0
 40
0.0
 40
0.2500000000000015
 40
0.2500000000000015
 40
0.500000000000003
 40
0.500000000000003
 40
1.0
 40
1.0
 40
1.0
 40
1.0
 10
152.4106121774491
 20
85.71609763958377
 30
0.0
 10
152.3042103270916
 20
85.71609763958378
 30
0.0
 10
152.1968949156951
 20
85.69332687556528
 30
0.0
 10
152.0014233246678
 20
85.60708392891317
 30
0.0
 10
151.9112412087303
 20
85.54240760844263
 30
0.0
 10
151.6930197220095
 20
85.30947828438583
 30
0.0
 10
151.6106121774487
 20
85.09489304649482
 30
0.0
 10
151.610612177449
 20
84.8818760080621
 30
0.0
  0
SPLINE
  5
AB
330
1F
100
AcDbEntity
  8
0
  6
Continuous
 62
     7
370
    15
100
AcDbSpline
210
0.0
220
0.0
230
1.0
 70
    24
 71
     3
 72
    14
 73
    10
 74
     0
 42
0.000000001
 43
0.00000001
 40
0.0
 40
0.0
 40
0.0
 40
0.0
 40
0.1250000000000007
 40
0.1250000000000007
 40
0.2500000000000014
 40
0.2500000000000014
 40
0.499999999999999
 40
0.499999999999999
 40
1.0
 40
1.0
 40
1.0
 40
1.0
 10
152.4106121774491
 20
130.8839554958705
 30
0.0
 10
152.3499948540315
 20
130.8839554958705
 30
0.0
 10
152.2878697058964
 20
130.8839554958705
 30
0.0
 10
152.171652042875
 20
130.8839554958705
 30
0.0
 10
152.1170354031826
 20
130.8839554958705
 30
0.0
 10
151.9623590646744
 20
130.8839554958705
 30
0.0
 10
151.8762423158904
 20
130.8839554958705
 30
0.0
 10
151.6749347353498
 20
130.8839554958705
 30
0.0
 10
151.6106121774491
 20
130.8839554958705
 30
0.0
 10
151.610612177449
 20
130.8839554958705
 30
0.0
  0
SPLINE
  5
AC
330
1F
100
AcDbEntity
  8
0
  6
Continuous
 62
     7
370
    15
100
AcDbSpline
210
0.0
220
0.0
230
1.0
 70
    24
 71
     3
 72
    14
 73
    10
 74
     0
 42
0.000000001
 43
0.00000001
 40
0.0
 40
0.0
 40
0.0
 40
0.0
 40
0.25
 40
0.25
 40
0.5
 40
0.5
 40
0.75
 40
0.75
 40
1.0
 40
1.0
 40
1.0
 40
1.0
 10
155.4306121774491
 20
130.8839554958705
 30
0.0
 10
155.4306121774491
 20
130.8839554958705
 30
0.0
 10
155.4145305759893
 20
130.8839554958705
 30
0.0
 10
155.3490390627224
 20
130.8839554958705
 30
0.0
 10
155.299731089595
 20
130.8839554958705
 30
0.0
 10
155.1651615678981
 20
130.8839554958705
 30
0.0
 10
155.0796384918128
 20
130.8839554958705
 30
0.0
 10
154.8726429962578
 20
130.8839554958705
 30
0.0
 10
154.7519493623142
 20
130.8839554958705
 30
0.0
 10
154.6306121774491
 20
130.8839554958705
 30
0.0
  0
LINE
  5
AD
330
1F
100
AcDbEntity
  8
0
  6
Continuous
 62
     7
370
    15
100
AcDbLine
 10
154.6306121774
 20
85.7160976396
 30
0.0
 11
152.4106121774
 21
85.7160976396
 31
0.0
  0
LINE
  5
AE
330
1F
100
AcDbEntity
  8
0
  6
Continuous
 62
     7
370
    15
100
AcDbLine
 10
154.6306121774
 20
130.8839554959
 30
0.0
 11
152.4106121774
 21
130.8839554959
 31
0.0
  0
SPLINE
  5
AF
330
1F
100
AcDbEntity
  8
0
  6
Continuous
 62
     7
370
    15
100
AcDbSpline
210
0.0
220
0.0
230
1.0
 70
     8
 71
     3
 72
    12
 73
     8
 74
     0
 42
0.000000001
 43
0.00000001
 40
0.0
 40
0.0
 40
0.0
 40
0.0
 40
0.5000000000000013
 40
0.5000000000000013
 40
0.7500000000000007
 40
0.7500000000000007
 40
1.0
 40
1.0
 40
1.0
 40
1.0
 10
155.4306121774491
 20
84.88187600806344
 30
0.0
 10
155.4306121774491
 20
85.09469856699633
 30
0.0
 10
155.3486868196293
 20
85.3089550736343
 30
0.0
 10
155.1297650161609
 20
85.54264470208417
 30
0.0
 10
155.0397177246699
 20
85.60712952692816
 30
0.0
 10
154.84430425665
 20
85.69332913808374
 30
0.0
 10
154.7370212896663
 20
85.71609763958377
 30
0.0
 10
154.6306121774491
 20
85.71609763958377
 30
0.0
  0
LINE
  5
B0
330
1F
100
AcDbEntity
  8
0
  6
Continuous
 62
     7
370
    15
100
AcDbLine
 10
142.4206121774
 20
90.3089554959
 30
0.0
 11
142.4206121774
 21
134.7589554959
 31
0.0
  0
SPLINE
  5
B1
330
1F
100
AcDbEntity
  8
0
  6
Continuous
 62
     7
370
    15
100
AcDbSpline
210
0.0
220
0.0
230
1.0
 70
     8
 71
     3
 72
    12
 73
     8
 74
     0
 42
0.000000001
 43
0.00000001
 40
0.0
 40
0.0
 40
0.0
 40
0.0
 40
0.4999999999999986
 40
0.4999999999999986
 40
0.7499999999999992
 40
0.7499999999999992
 40
1.0
 40
1.0
 40
1.0
 40
1.0
 10
161.4706121774491
 20
142.5445066293117
 30
0.0
 10
161.4706121774491
 20
142.6648336623648
 30
0.0
 10
161.416817365856
 20
142.7829312358466
 30
0.0
 10
161.2558937958898
 20
142.9225739782856
 30
0.0
 10
161.1911423347873
 20
142.9608499316801
 30
0.0
 10
161.0389221514696
 20
143.0156897613145
 30
0.0
 10
160.9561146359446
 20
143.0302915750861
 30
0.0
 10
160.8706121774491
 20
143.0302915750861
 30
0.0
  0
SPLINE
  5
B2
330
1F
100
AcDbEntity
  8
0
  6
Continuous
 62
     7
370
    15
100
AcDbSpline
210
0.0
220
0.0
230
1.0
 70
     8
 71
     3
 72
    14
 73
    10
 74
     0
 42
0.000000001
 43
0.00000001
 40
0.0
 40
0.0
 40
0.0
 40
0.0
 40
0.25
 40
0.25
 40
0.5
 40
0.5
 40
0.75
 40
0.75
 40
1.0
 40
1.0
 40
1.0
 40
1.0
 10
160.8706121774491
 20
138.4441851359181
 30
0.0
 10
160.9590347155715
 20
138.4441851359181
 30
0.0
 10
161.0470887052646
 20
138.4191127854587
 30
0.0
 10
161.1989184691359
 20
138.3327707204874
 30
0.0
 10
161.2647614136997
 20
138.2712274659745
 30
0.0
 10
161.3685604742452
 20
138.1293997197236
 30
0.0
 10
161.4070325837199
 20
138.0493511297535
 30
0.0
 10
161.4582552469945
 20
137.8803386330798
 30
0.0
 10
161.4706121774491
 20
137.7935593262102
 30
0.0
 10
161.4706121774491
 20
137.7053678519542
 30
0.0
  0
LINE
  5
B3
330
1F
100
AcDbEntity
  8
0
  6
Continuous
 62
     7
370
    15
100
AcDbLine
 10
161.4706121774
 20
137.705367852
 30
0.0
 11
161.4706121774
 21
142.5445066293
 31
0.0
  0
SPLINE
  5
B4
330
1F
100
AcDbEntity
  8
0
  6
Continuous
 62
     7
370
    15
100
AcDbSpline
210
0.0
220
0.0
230
1.0
 70
     8
 71
     3
 72
    12
 73
     8
 74
     0
 42
0.000000001
 43
0.00000001
 40
0.0
 40
0.0
 40
0.0
 40
0.0
 40
0.4999999999999996
 40
0.4999999999999996
 40
0.7499999999999998
 40
0.7499999999999998
 40
1.0
 40
1.0
 40
1.0
 40
1.0
 10
145.6206121774491
 20
137.7053678519542
 30
0.0
 10
145.6206121774491
 20
137.8819842484759
 30
0.0
 10
145.6699528122709
 20
138.0570414198496
 30
0.0
 10
145.826168370559
 20
138.2709916323422
 30
0.0
 10
145.8914709504597
 20
138.3323242751892
 30
0.0
 10
146.0452399684201
 20
138.4197123731604
 30
0.0
 10
146.1322530750305
 20
138.4441851359181
 30
0.0
 10
146.2206121774491
 20
138.4441851359181
 30
0.0
  0
LINE
  5
B5
330
1F
100
AcDbEntity
  8
0
  6
Continuous
 62
     7
370
    15
100
AcDbLine
 10
146.2206121774
 20
138.4441851359
 30
0.0
 11
149.9987755354
 21
138.4441851359
 31
0.0
  0
SPLINE
  5
B6
330
1F
100
AcDbEntity
  8
0
  6
Continuous
 62
     7
370
    15
100
AcDbSpline
210
0.0
220
0.0
230
1.0
 70
     8
 71
     3
 72
     8
 73
     4
 74
     0
 42
0.000000001
 43
0.00000001
 40
0.0
 40
0.0
 40
0.0
 40
0.0
 40
1.0
 40
1.0
 40
1.0
 40
1.0
 10
149.9987755353924
 20
138.4441851359181
 30
0.0
 10
150.5477203135892
 20
137.2790890236044
 30
0.0
 10
151.086330688106
 20
136.1099307067799
 30
0.0
 10
151.6106121774491
 20
134.936094551729
 30
0.0
  0
SPLINE
  5
B7
330
1F
100
AcDbEntity
  8
0
  6
Continuous
 62
     7
370
    15
100
AcDbSpline
210
0.0
220
0.0
230
1.0
 70
     8
 71
     3
 72
    14
 73
    10
 74
     0
 42
0.000000001
 43
0.00000001
 40
0.0
 40
0.0
 40
0.0
 40
0.0
 40
0.25
 40
0.25
 40
0.5
 40
0.5
 40
0.75
 40
0.75
 40
1.0
 40
1.0
 40
1.0
 40
1.0
 10
151.6106121774491
 20
134.7311963153958
 30
0.0
 10
151.6106121774491
 20
134.6092609802143
 30
0.0
 10
151.626656544989
 20
134.4897067397128
 30
0.0
 10
151.6923858871683
 20
134.2555907565696
 30
0.0
 10
151.7415932574167
 20
134.1436582164349
 30
0.0
 10
151.8766062383155
 20
133.941258407198
 30
0.0
 10
151.9625263069218
 20
133.851393213635
 30
0.0
 10
152.1690411089273
 20
133.7210587040248
 30
0.0
 10
152.2891798212983
 20
133.682891639327
 30
0.0
 10
152.4106121774491
 20
133.682891639327
 30
0.0
  0
LINE
  5
B8
330
1F
100
AcDbEntity
  8
0
  6
Continuous
 62
     7
370
    15
100
AcDbLine
 10
152.4106121774
 20
133.6828916393
 30
0.0
 11
154.6306121774
 21
133.6828916393
 31
0.0
  0
SPLINE
  5
B9
330
1F
100
AcDbEntity
  8
0
  6
Continuous
 62
     7
370
    15
100
AcDbSpline
210
0.0
220
0.0
230
1.0
 70
     8
 71
     3
 72
    12
 73
     8
 74
     0
 42
0.000000001
 43
0.00000001
 40
0.0
 40
0.0
 40
0.0
 40
0.0
 40
0.2500000000000015
 40
0.2500000000000015
 40
0.500000000000003
 40
0.500000000000003
 40
1.0
 40
1.0
 40
1.0
 40
1.0
 10
154.6306121774491
 20
133.682891639327
 30
0.0
 10
154.7526941749374
 20
133.682891639327
 30
0.0
 10
154.8732847174231
 20
133.7216179955007
 30
0.0
 10
155.0787800011229
 20
133.851581583247
 30
0.0
 10
155.1642964840754
 20
133.9407878197937
 30
0.0
 10
155.3676908356196
 20
134.2456643573393
 30
0.0
 10
155.4306121774491
 20
134.4884349714414
 30
0.0
 10
155.4306121774491
 20
134.7311963153958
 30
0.0
  0
LINE
  5
BA
330
1F
100
AcDbEntity
  8
0
  6
Continuous
 62
     7
370
    15
100
AcDbLine
 10
155.4306121774
 20
134.7311963154
 30
0.0
 11
155.4306121774
 21
134.9360945517
 31
0.0
  0
SPLINE
  5
BB
330
1F
100
AcDbEntity
  8
0
  6
Continuous
 62
     7
370
    15
100
AcDbSpline
210
0.0
220
0.0
230
1.0
 70
     8
 71
     3
 72
     8
 73
     4
 74
     0
 42
0.000000001
 43
0.00000001
 40
0.0
 40
0.0
 40
0.0
 40
0.0
 40
1.0
 40
1.0
 40
1.0
 40
1.0
 10
155.4306121774491
 20
134.936094551729
 30
0.0
 10
155.955403296945
 20
136.1110717394337
 30
0.0
 10
156.4939195481278
 20
137.2799709071719
 30
0.0
 10
157.0424488195058
 20
138.4441851359181
 30
0.0
  0
LINE
  5
BC
330
1F
100
AcDbEntity
  8
0
  6
Continuous
 62
     7
370
    15
100
AcDbLine
 10
157.0424488195
 20
138.4441851359
 30
0.0
 11
160.8706121774
 21
138.4441851359
 31
0.0
  0
LINE
  5
BD
330
1F
100
AcDbEntity
  8
0
  6
Continuous
 62
     7
370
    15
100
AcDbLine
 10
151.6106121774
 20
134.9360945517
 30
0.0
 11
151.6106121774
 21
134.7311963154
 31
0.0
  0
LINE
  5
BE
330
1F
100
AcDbEntity
  8
0
  6
Continuous
 62
     7
370
    15
100
AcDbLine
 10
145.6206121774
 20
137.705367852
 30
0.0
 11
145.6206121774
 21
130.8839554959
 31
0.0
  0
LINE
  5
BF
330
1F
100
AcDbEntity
  8
0
  6
Continuous
 62
     7
370
    15
100
AcDbLine
 10
161.4706121774
 20
137.705367852
 30
0.0
 11
161.4706121774
 21
130.8839554959
 31
0.0
  0
LINE
  5
C0
330
1F
100
AcDbEntity
  8
0
  6
Continuous
 62
     7
370
    15
100
AcDbLine
 10
160.8706121774
 20
143.0302915751
 30
0.0
 11
157.0424488195
 21
143.0302915751
 31
0.0
  0
LINE
  5
C1
330
1F
100
AcDbEntity
  8
0
  6
Continuous
 62
     7
370
    15
100
AcDbLine
 10
157.0424488195
 20
138.4441851359
 30
0.0
 11
157.0424488195
 21
143.0302915751
 31
0.0
  0
SPLINE
  5
C2
330
1F
100
AcDbEntity
  8
0
  6
Continuous
 62
     7
370
    15
100
AcDbSpline
210
0.0
220
0.0
230
1.0
 70
     8
 71
     3
 72
     8
 73
     4
 74
     0
 42
0.000000001
 43
0.00000001
 40
0.0
 40
0.0
 40
0.0
 40
0.0
 40
1.0
 40
1.0
 40
1.0
 40
1.0
 10
156.4845668637451
 20
142.246493652135
 30
0.0
 10
156.1326228408368
 20
141.6149322641212
 30
0.0
 10
155.7812644177766
 20
140.9830503644224
 30
0.0
 10
155.4306121774491
 20
140.350781955372
 30
0.0
  0
SPLINE
  5
C3
330
1F
100
AcDbEntity
  8
0
  6
Continuous
 62
     7
370
    15
100
AcDbSpline
210
0.0
220
0.0
230
1.0
 70
     8
 71
     3
 72
     8
 73
     4
 74
     0
 42
0.000000001
 43
0.00000001
 40
0.0
 40
0.0
 40
0.0
 40
0.0
 40
0.0012409313617635
 40
0.0012409313617635
 40
0.0012409313617635
 40
0.0012409313617635
 10
157.0424488195058
 20
143.0302915750861
 30
0.0
 10
156.8557758912736
 20
142.7692796973875
 30
0.0
 10
156.6697907033011
 20
142.5080211956122
 30
0.0
 10
156.4845668637451
 20
142.246493652135
 30
0.0
  0
LINE
  5
C4
330
1F
100
AcDbEntity
  8
0
  6
Continuous
 62
     7
370
    15
100
AcDbLine
 10
155.4306121774
 20
134.9360945517
 30
0.0
 11
155.4306121774
 21
140.3507819554
 31
0.0
  0
SPLINE
  5
C5
330
1F
100
AcDbEntity
  8
0
  6
Continuous
 62
     7
370
    15
100
AcDbSpline
210
0.0
220
0.0
230
1.0
 70
     8
 71
     3
 72
     8
 73
     4
 74
     0
 42
0.000000001
 43
0.00000001
 40
0.0
 40
0.0
 40
0.0
 40
0.0
 40
0.0012409313617635
 40
0.0012409313617635
 40
0.0012409313617635
 40
0.0012409313617635
 10
150.556657491153
 20
142.246493652135
 30
0.0
 10
150.371433651597
 20
142.5080211956122
 30
0.0
 10
150.1854484636245
 20
142.7692796973875
 30
0.0
 10
149.9987755353924
 20
143.0302915750861
 30
0.0
  0
SPLINE
  5
C6
330
1F
100
AcDbEntity
  8
0
  6
Continuous
 62
     7
370
    15
100
AcDbSpline
210
0.0
220
0.0
230
1.0
 70
     8
 71
     3
 72
     8
 73
     4
 74
     0
 42
0.000000001
 43
0.00000001
 40
0.0
 40
0.0
 40
0.0
 40
0.0
 40
1.0
 40
1.0
 40
1.0
 40
1.0
 10
151.6106121774491
 20
140.350781955372
 30
0.0
 10
151.2599599371215
 20
140.9830503644224
 30
0.0
 10
150.9086015140613
 20
141.6149322641212
 30
0.0
 10
150.556657491153
 20
142.246493652135
 30
0.0
  0
LINE
  5
C7
330
1F
100
AcDbEntity
  8
0
  6
Continuous
 62
     7
370
    15
100
AcDbLine
 10
149.9987755354
 20
138.4441851359
 30
0.0
 11
149.9987755354
 21
143.0302915751
 31
0.0
  0
LINE
  5
C8
330
1F
100
AcDbEntity
  8
0
  6
Continuous
 62
     7
370
    15
100
AcDbLine
 10
151.6106121774
 20
134.9360945517
 30
0.0
 11
151.6106121774
 21
140.3507819554
 31
0.0
  0
LINE
  5
C9
330
1F
100
AcDbEntity
  8
0
  6
Continuous
 62
     7
370
    15
100
AcDbLine
 10
154.6306121774
 20
139.3518133522
 30
0.0
 11
152.4106121774
 21
139.3518133522
 31
0.0
  0
SPLINE
  5
CA
330
1F
100
AcDbEntity
  8
0
  6
Continuous
 62
     7
370
    15
100
AcDbSpline
210
0.0
220
0.0
230
1.0
 70
     8
 71
     3
 72
    12
 73
     8
 74
     0
 42
0.000000001
 43
0.00000001
 40
0.0
 40
0.0
 40
0.0
 40
0.0
 40
0.5
 40
0.5
 40
0.75
 40
0.75
 40
1.0
 40
1.0
 40
1.0
 40
1.0
 10
155.4306121774491
 20
140.1860349836776
 30
0.0
 10
155.4306121774491
 20
139.9728975820261
 30
0.0
 10
155.3479697623011
 20
139.7579180572884
 30
0.0
 10
155.1293863514908
 20
139.5249989884026
 30
0.0
 10
155.04029639851
 20
139.4611320785821
 30
0.0
 10
154.8448910806125
 20
139.3747459242003
 30
0.0
 10
154.7383670336692
 20
139.3518133521573
 30
0.0
 10
154.6306121774491
 20
139.3518133521573
 30
0.0
  0
SPLINE
  5
CB
330
1F
100
AcDbEntity
  8
0
  6
Continuous
 62
     7
370
    15
100
AcDbSpline
210
0.0
220
0.0
230
1.0
 70
     8
 71
     3
 72
    10
 73
     6
 74
     0
 42
0.000000001
 43
0.00000001
 40
0.0
 40
0.0
 40
0.0
 40
0.0
 40
0.5
 40
0.5
 40
1.0
 40
1.0
 40
1.0
 40
1.0
 10
145.9078537787566
 20
142.9592520508275
 30
0.0
 10
145.8320141847531
 20
142.8892028644989
 30
0.0
 10
145.7646906670271
 20
142.8039840909252
 30
0.0
 10
145.658047028722
 20
142.5937579642633
 30
0.0
 10
145.6206121774491
 20
142.4702487733961
 30
0.0
 10
145.6206121774491
 20
142.3403306528734
 30
0.0
  0
SPLINE
  5
CC
330
1F
100
AcDbEntity
  8
0
  6
Continuous
 62
     7
370
    15
100
AcDbSpline
210
0.0
220
0.0
230
1.0
 70
     8
 71
     3
 72
     8
 73
     4
 74
     0
 42
0.000000001
 43
0.00000001
 40
0.0
 40
0.0
 40
0.0
 40
0.0
 40
1.0
 40
1.0
 40
1.0
 40
1.0
 10
146.2206121774491
 20
143.0302915750861
 30
0.0
 10
146.1084339232694
 20
143.0302915750861
 30
0.0
 10
145.999764410541
 20
143.0046105098251
 30
0.0
 10
145.9078537787566
 20
142.9592520508275
 30
0.0
  0
LINE
  5
CD
330
1F
100
AcDbEntity
  8
0
  6
Continuous
 62
     7
370
    15
100
AcDbLine
 10
145.6206121774
 20
137.705367852
 30
0.0
 11
145.6206121774
 21
142.3403306529
 31
0.0
  0
SPLINE
  5
CE
330
1F
100
AcDbEntity
  8
0
  6
Continuous
 62
     7
370
    15
100
AcDbSpline
210
0.0
220
0.0
230
1.0
 70
     8
 71
     3
 72
    14
 73
    10
 74
     0
 42
0.000000001
 43
0.00000001
 40
0.0
 40
0.0
 40
0.0
 40
0.0
 40
0.25
 40
0.25
 40
0.5
 40
0.5
 40
0.75
 40
0.75
 40
1.0
 40
1.0
 40
1.0
 40
1.0
 10
152.4106121774491
 20
139.3518133521573
 30
0.0
 10
152.3032431329347
 20
139.3518133521573
 30
0.0
 10
152.1964376411719
 20
139.3747383475622
 30
0.0
 10
152.001296272655
 20
139.4609307814364
 30
0.0
 10
151.9120865550651
 20
139.5247747781004
 30
0.0
 10
151.7661597622487
 20
139.6801908860417
 30
0.0
 10
151.7081700184507
 20
139.7728454642495
 30
0.0
 10
151.6305761769281
 20
139.972078804299
 30
0.0
 10
151.6106121774491
 20
140.0786838993543
 30
0.0
 10
151.6106121774491
 20
140.1860349836776
 30
0.0
  0
LINE
  5
CF
330
1F
100
AcDbEntity
  8
0
  6
Continuous
 62
     7
370
    15
100
AcDbLine
 10
149.9987755354
 20
143.0302915751
 30
0.0
 11
146.2206121774
 21
143.0302915751
 31
0.0
  0
LINE
  5
D0
330
1F
100
AcDbEntity
  8
0
  6
Continuous
 62
     7
370
    15
100
AcDbLine
 10
227.4206121774
 20
112.5339554959
 30
0.0
 11
227.4206121774
 21
100.2339554959
 31
0.0
  0
LINE
  5
D1
330
1F
100
AcDbEntity
  8
0
  6
Continuous
 62
     7
370
    15
100
AcDbLine
 10
227.4206121774
 20
124.8339554959
 30
0.0
 11
227.4206121774
 21
112.5339554959
 31
0.0
  0
LINE
  5
D2
330
1F
100
AcDbEntity
  8
0
  6
Continuous
 62
     7
370
    15
100
AcDbLine
 10
227.2206121774
 20
112.5339554959
 30
0.0
 11
227.2206121774
 21
100.0339554959
 31
0.0
  0
LINE
  5
D3
330
1F
100
AcDbEntity
  8
0
  6
Continuous
 62
     7
370
    15
100
AcDbLine
 10
227.2206121774
 20
125.0339554959
 30
0.0
 11
227.2206121774
 21
112.5339554959
 31
0.0
  0
SPLINE
  5
D4
330
1F
100
AcDbEntity
  8
0
  6
Continuous
 62
     7
370
    15
100
AcDbSpline
210
0.0
220
0.0
230
1.0
 70
    11
 71
     3
 72
    78
 73
    74
 74
     0
 42
0.000000001
 43
0.00000001
 40
0.0
 40
0.0
 40
0.0
 40
0.0
 40
0.0312499999999994
 40
0.0312499999999994
 40
0.0624999999999987
 40
0.0624999999999987
 40
0.0937499999999981
 40
0.0937499999999981
 40
0.1249999999999975
 40
0.1249999999999975
 40
0.1562499999999968
 40
0.1562499999999968
 40
0.1874999999999962
 40
0.1874999999999962
 40
0.2187499999999956
 40
0.2187499999999956
 40
0.2499999999999949
 40
0.2499999999999949
 40
0.2812499999999943
 40
0.2812499999999943
 40
0.2968749999999944
 40
0.2968749999999944
 40
0.3124999999999946
 40
0.3124999999999946
 40
0.3437499999999949
 40
0.3437499999999949
 40
0.359374999999995
 40
0.359374999999995
 40
0.3749999999999951
 40
0.3749999999999951
 40
0.4062499999999954
 40
0.4062499999999954
 40
0.4374999999999958
 40
0.4374999999999958
 40
0.4687499999999961
 40
0.4687499999999961
 40
0.4999999999999963
 40
0.4999999999999963
 40
0.5312499999999966
 40
0.5312499999999966
 40
0.5624999999999969
 40
0.5624999999999969
 40
0.5937499999999971
 40
0.5937499999999971
 40
0.6249999999999973
 40
0.6249999999999973
 40
0.6562499999999977
 40
0.6562499999999977
 40
0.6874999999999979
 40
0.6874999999999979
 40
0.7187499999999981
 40
0.7187499999999981
 40
0.7499999999999983
 40
0.7499999999999983
 40
0.7812499999999987
 40
0.7812499999999987
 40
0.8124999999999989
 40
0.8124999999999989
 40
0.828124999999999
 40
0.828124999999999
 40
0.8437499999999991
 40
0.8437499999999991
 40
0.8593749999999993
 40
0.8593749999999993
 40
0.8749999999999994
 40
0.8749999999999994
 40
0.9062499999999996
 40
0.9062499999999996
 40
0.9374999999999997
 40
0.9374999999999997
 40
0.9687499999999999
 40
0.9687499999999999
 40
1.0
 40
1.0
 40
1.0
 40
1.0
 10
215.0789319354075
 20
115.7263505129034
 30
0.0
 10
215.3220188562165
 20
115.9080551679083
 30
0.0
 10
215.5781971301004
 20
116.0648026447257
 30
0.0
 10
216.1145456903686
 20
116.3339377368806
 30
0.0
 10
216.3956853114239
 20
116.4465542309811
 30
0.0
 10
216.9787249368675
 20
116.6259928388969
 30
0.0
 10
217.2744280127093
 20
116.6910668542239
 30
0.0
 10
217.8739004817352
 20
116.7744939751984
 30
0.0
 10
218.1793240312878
 20
116.7927863138936
 30
0.0
 10
218.7913591891679
 20
116.7806629667232
 30
0.0
 10
219.092987088921
 20
116.7506203626693
 30
0.0
 10
219.6877541268024
 20
116.6437879988597
 30
0.0
 10
219.9823298414817
 20
116.566503848908
 30
0.0
 10
220.5562764769792
 20
116.3638593984957
 30
0.0
 10
220.8305163659386
 20
116.2405967649422
 30
0.0
 10
221.3538374096423
 20
115.949527947088
 30
0.0
 10
221.604141770001
 20
115.7808016057135
 30
0.0
 10
222.0716982919405
 20
115.3965778314773
 30
0.0
 10
222.2835824972661
 20
115.1858381054682
 30
0.0
 10
222.5671626745446
 20
114.8397991147478
 30
0.0
 10
222.6559377310524
 20
114.7194270948334
 30
0.0
 10
222.8211041414958
 20
114.467737270009
 30
0.0
 10
222.8979574115673
 20
114.3354732079514
 30
0.0
 10
223.1041195574908
 20
113.9275391754857
 30
0.0
 10
223.2086629843376
 20
113.6433475505363
 30
0.0
 10
223.3119669299654
 20
113.1969105720644
 30
0.0
 10
223.337334806456
 20
113.0440173572434
 30
0.0
 10
223.3679014418102
 20
112.7402984649076
 30
0.0
 10
223.3734249020991
 20
112.5884505281656
 30
0.0
 10
223.36100657137
 20
112.1329409246404
 30
0.0
 10
223.3126194900088
 20
111.8253041890029
 30
0.0
 10
223.1442499153931
 20
111.240802700135
 30
0.0
 10
223.0238989672057
 20
110.9591109941598
 30
0.0
 10
222.7228332359729
 20
110.4301686072409
 30
0.0
 10
222.5449918520382
 20
110.1865692829039
 30
0.0
 10
222.1402641066088
 20
109.7360083836501
 30
0.0
 10
221.9149873445995
 20
109.5316516240445
 30
0.0
 10
221.4341342328104
 20
109.1698698205925
 30
0.0
 10
221.174706087786
 20
109.0096407664179
 30
0.0
 10
220.633426782433
 20
108.7367098188281
 30
0.0
 10
220.3532992880795
 20
108.624347762813
 30
0.0
 10
219.774673592544
 20
108.445082651472
 30
0.0
 10
219.4734544504133
 20
108.3780370384849
 30
0.0
 10
218.8704490174784
 20
108.2935899124959
 30
0.0
 10
218.5676970096485
 20
108.2754258412619
 30
0.0
 10
217.9597117060435
 20
108.2866475639966
 30
0.0
 10
217.6517789056794
 20
108.3167410534403
 30
0.0
 10
217.0530738278687
 20
108.4241080726061
 30
0.0
 10
216.7609272512476
 20
108.5009400136409
 30
0.0
 10
216.1910016963892
 20
108.7016671172382
 30
0.0
 10
215.9107149596948
 20
108.827180221414
 30
0.0
 10
215.383936051904
 20
109.1204333977717
 30
0.0
 10
215.1360648269076
 20
109.2880619453232
 30
0.0
 10
214.6727600270757
 20
109.6685599445419
 30
0.0
 10
214.4552204601489
 20
109.8843036097059
 30
0.0
 10
214.0734779118577
 20
110.3515895515602
 30
0.0
 10
213.9078493254254
 20
110.6032530219099
 30
0.0
 10
213.7023271578778
 20
111.0120423357181
 30
0.0
 10
213.6414237409035
 20
111.1531649900694
 30
0.0
 10
213.5382421577228
 20
111.4383328962383
 30
0.0
 10
213.4954660880247
 20
111.5833097465304
 30
0.0
 10
213.427977067433
 20
111.8781913507823
 30
0.0
 10
213.4032601513037
 20
112.0280950140721
 30
0.0
 10
213.3729796451128
 20
112.3331423682929
 30
0.0
 10
213.3676385230071
 20
112.4883368764349
 30
0.0
 10
213.3813749176777
 20
112.9463968169677
 30
0.0
 10
213.4292000443952
 20
113.2471531421572
 30
0.0
 10
213.6010355702745
 20
113.8386581079208
 30
0.0
 10
213.7214151503158
 20
114.1173434110786
 30
0.0
 10
214.0232605902362
 20
114.6448984428906
 30
0.0
 10
214.2046785345815
 20
114.8919716812939
 30
0.0
 10
214.6090729507749
 20
115.3396551491507
 30
0.0
 10
214.8358450145985
 20
115.5446458578984
 30
0.0
 10
215.0789319354075
 20
115.7263505129033
 30
0.0
  0
LINE
  5
D5
330
1F
100
AcDbEntity
  8
0
  6
Continuous
 62
     7
370
    15
100
AcDbLine
 10
74.1706121774
 20
101.1268248988
 30
0.0
 11
74.1706121774
 21
123.9410860929
 31
0.0
  0
ARC
  5
D6
330
1F
100
AcDbEntity
  8
0
  6
Continuous
 62
     7
370
    15
100
AcDbCircle
 10
155.3157314374
 20
103.307022794
 30
0.0
 40
1.898361128509398
100
AcDbArc
 50
185.6273960531
 51
252.2367842804
  0
ARC
  5
D7
330
1F
100
AcDbEntity
  8
0
  6
Continuous
 62
     7
370
    15
100
AcDbCircle
 10
155.4227652006
 20
103.429745903
 30
0.0
 40
2.048902933347377
100
AcDbArc
 50
250.433076427
 51
331.8513020274
  0
ARC
  5
D8
330
1F
100
AcDbEntity
  8
0
  6
Continuous
 62
     7
370
    15
100
AcDbCircle
 10
155.2863899256
 20
103.2357042116
 30
0.0
 40
1.759676195915618
100
AcDbArc
 50
161.3531172159
 51
252.9613005726
  0
ARC
  5
D9
330
1F
100
AcDbEntity
  8
0
  6
Continuous
 62
     7
370
    15
100
AcDbCircle
 10
155.4239781267
 20
103.3781311066
 30
0.0
 40
1.938249387525099
100
AcDbArc
 50
250.3053519602
 51
335.246514553
  0
ARC
  5
DA
330
1F
100
AcDbEntity
  8
0
  6
Continuous
 62
     7
370
    15
100
AcDbCircle
 10
155.3364724481
 20
103.2407177942
 30
0.0
 40
1.401482373669634
100
AcDbArc
 50
87.1599884964
 51
252.1800799041
  0
ARC
  5
DB
330
1F
100
AcDbEntity
  8
0
  6
Continuous
 62
     7
370
    15
100
AcDbCircle
 10
155.4367555481
 20
103.3026017976
 30
0.0
 40
1.493049487038546
100
AcDbArc
 50
249.2418115672
 51
350.1569788648
  0
LINE
  5
DC
330
1F
100
AcDbEntity
  8
0
  6
Continuous
 62
     7
370
    15
100
AcDbLine
 10
216.6064662398
 20
114.0242985584
 30
0.0
 11
218.7792141611
 21
114.8069222251
 31
0.0
  0
LINE
  5
DD
330
1F
100
AcDbEntity
  8
0
  6
Continuous
 62
     7
370
    15
100
AcDbLine
 10
216.1978642561
 20
111.7513318292
 30
0.0
 11
216.6064662398
 21
114.0242985584
 31
0.0
  0
LINE
  5
DE
330
1F
100
AcDbEntity
  8
0
  6
Continuous
 62
     7
370
    15
100
AcDbLine
 10
217.9620101938
 20
110.2609887666
 30
0.0
 11
216.1978642561
 21
111.7513318292
 31
0.0
  0
LINE
  5
DF
330
1F
100
AcDbEntity
  8
0
  6
Continuous
 62
     7
370
    15
100
AcDbLine
 10
220.1347581151
 20
111.0436124333
 30
0.0
 11
217.9620101938
 21
110.2609887666
 31
0.0
  0
LINE
  5
E0
330
1F
100
AcDbEntity
  8
0
  6
Continuous
 62
     7
370
    15
100
AcDbLine
 10
220.5433600988
 20
113.3165791626
 30
0.0
 11
220.1347581151
 21
111.0436124333
 31
0.0
  0
LINE
  5
E1
330
1F
100
AcDbEntity
  8
0
  6
Continuous
 62
     7
370
    15
100
AcDbLine
 10
218.7792141611
 20
114.8069222251
 30
0.0
 11
220.5433600988
 21
113.3165791626
 31
0.0
  0
CIRCLE
  5
E2
330
1F
100
AcDbEntity
  8
0
  6
Continuous
 62
     7
370
    15
100
AcDbCircle
 10
218.3706121774
 20
112.5339554959
 30
0.0
 40
4.000000000000012
  0
SPLINE
  5
E3
330
1F
100
AcDbEntity
  8
0
  6
HIDDEN
 62
     7
370
     0
100
AcDbSpline
210
0.0
220
0.0
230
1.0
 70
     8
 71
     3
 72
     9
 73
     5
 74
     0
 42
0.000000001
 43
0.00000001
 40
0.0
 40
0.0
 40
0.0
 40
0.0
 40
0.9333108121103908
 40
1.0
 40
1.0
 40
1.0
 40
1.0
 10
153.4447214148087
 20
104.7874163264019
 30
0.0
 10
153.4301457314883
 20
104.6864468725787
 30
0.0
 10
153.41452855109
 20
104.5782627044399
 30
0.0
 10
153.4215581683579
 20
104.485779001941
 30
0.0
 10
153.4220269678247
 20
104.4796113389283
 30
0.0
  0
LWPOLYLINE
  5
E4
330
1F
100
AcDbEntity
  8
0
  6
HIDDEN
 62
     7
370
     0
100
AcDbPolyline
 90
       21
 70
   128
 43
0.0
 10
153.4447214148
 20
104.205547929
 10
153.6232510183
 20
103.6721767851
 10
153.9608670921
 20
103.2117658401
 10
154.4276868556
 20
102.8650665876
 10
154.9823915631
 20
102.662765771
 10
155.5758836731
 20
102.6227692645
 10
156.1556325273
 20
102.7486172041
 10
156.6703238985
 20
103.0291706463
 10
157.0744018708
 20
103.4395974884
 10
157.3321010457
 20
103.943570386
 10
157.4206121774
 20
104.4964821277
 10
157.3321010457
 20
105.0493938694
 10
157.0744018708
 20
105.5533667671
 10
156.6703238985
 20
105.9637936092
 10
156.1556325273
 20
106.2443470513
 10
155.5758836731
 20
106.370194991
 10
154.9823915631
 20
106.3301984844
 10
154.4276868556
 20
106.1278976678
 10
153.9608670921
 20
105.7811984154
 10
153.6232510183
 20
105.3207874703
 10
153.4447214148
 20
104.7874163264
  0
LWPOLYLINE
  5
E5
330
1F
100
AcDbEntity
  8
0
  6
HIDDEN
 62
     7
370
     0
100
AcDbPolyline
 90
       22
 70
   128
 43
0.0
 10
145.8708238246
 20
103.6357709431
 10
146.0235462844
 20
103.0288126147
 10
146.2652632035
 20
102.4757851975
 10
146.5744969729
 20
102.0258276042
 10
146.9237708151
 20
101.7189205418
 10
147.2820502166
 20
101.5823340494
 10
147.6175004801
 20
101.6282044364
 10
147.9003153777
 20
101.8524559176
 10
148.1053655646
 20
102.2351627647
 10
148.2144314319
 20
102.742319795
 10
148.2178219986
 20
103.3288638806
 10
148.115235998
 20
103.9426780055
 10
147.9157886464
 20
104.5292220911
 10
147.6372017163
 20
105.0363791214
 10
147.304228879
 20
105.4190859685
 10
146.9464562323
 20
105.6433374497
 10
146.595673446
 20
105.6892078367
 10
146.2830491099
 20
105.5526213443
 10
146.0363612682
 20
105.2457142819
 10
145.8775292184
 20
104.7957566886
 10
145.8206658849
 20
104.2427292714
 10
145.8708238246
 20
103.6357709431
  0
LWPOLYLINE
  5
E6
330
1F
100
AcDbEntity
  8
0
  6
HIDDEN
 62
     7
370
     0
100
AcDbPolyline
 90
       20
 70
   128
 43
0.0
 10
146.252339715
 20
103.6679017304
 10
146.3892807943
 20
103.142557865
 10
146.6096641918
 20
102.674143159
 10
146.8896079468
 20
102.3134176139
 10
147.1987758096
 20
102.0994714399
 10
147.5036646451
 20
102.0554890245
 10
147.7712350171
 20
102.186236545
 10
147.972491524
 20
102.4775454787
 10
148.0856249005
 20
102.8978479826
 10
148.0983753898
 20
103.4015977587
 10
148.0093612785
 20
103.9342057022
 10
147.8282286268
 20
104.4379554783
 10
147.5746059681
 20
104.8582579821
 10
147.2759772528
 20
105.1495669158
 10
146.9647035358
 20
105.2803144363
 10
146.6745161544
 20
105.236332021
 10
146.4368614141
 20
105.0223858469
 10
146.2774928934
 20
104.6616603018
 10
146.2136806446
 20
104.1932455958
 10
146.252339715
 20
103.6679017304
  0
ELLIPSE
  5
E7
330
1F
100
AcDbEntity
  8
0
  6
HIDDEN
 62
     7
370
     0
100
AcDbEllipse
 10
155.4206121774
 20
105.6463654353
 30
0.0
 11
1.383467579512114
 21
-1.091267719176599
 31
0.0
210
0.0
220
0.0
230
1.0
 40
0.8239737799
 41
2.147131942757435
 42
5.288724596347241
  0
ELLIPSE
  5
E8
330
1F
100
AcDbEntity
  8
0
  6
HIDDEN
 62
     7
370
     0
100
AcDbEllipse
 10
155.4206121774
 20
105.6463654353
 30
0.0
 11
1.383467579512114
 21
1.753907414218489
 31
0.0
210
0.0
220
0.0
230
1.0
 40
0.5126701559
 41
0.9944607108323609
 42
4.136053364422168
  0
SPLINE
  5
E9
330
1F
100
AcDbEntity
  8
0
  6
HIDDEN
 62
     7
370
     0
100
AcDbSpline
210
0.0
220
0.0
230
1.0
 70
     8
 71
     3
 72
    14
 73
    10
 74
     0
 42
0.000000001
 43
0.00000001
 40
0.0
 40
0.0
 40
0.0
 40
0.0
 40
0.25
 40
0.25
 40
0.5
 40
0.5
 40
0.75
 40
0.75
 40
1.0
 40
1.0
 40
1.0
 40
1.0
 10
153.4447214148086
 20
104.2055479290327
 30
0.0
 10
153.4810852428389
 20
104.2510425644345
 30
0.0
 10
153.5135629700491
 20
104.2994343706508
 30
0.0
 10
153.5623165994648
 20
104.4049195145804
 30
0.0
 10
153.5772203771393
 20
104.4615040228233
 30
0.0
 10
153.577230810797
 20
104.5703916167737
 30
0.0
 10
153.5623405149888
 20
104.6225762825364
 30
0.0
 10
153.5134515841113
 20
104.7138536814799
 30
0.0
 10
153.4810794058408
 20
104.7525203868541
 30
0.0
 10
153.4447214148087
 20
104.7874163264018
 30
0.0
  0
LWPOLYLINE
  5
EA
330
1F
100
AcDbEntity
  8
0
  6
HIDDEN
 62
     7
370
     0
100
AcDbPolyline
 90
       20
 70
   128
 43
0.0
 10
155.4206121774
 20
102.9895591065
 10
155.9563663016
 20
103.0735690845
 10
156.4340631534
 20
103.3164952336
 10
156.8019368666
 20
103.6920127364
 10
157.0201226162
 20
104.1594284445
 10
157.0649765909
 20
104.6680906134
 10
156.9316381664
 20
105.1628778043
 10
156.6345566301
 20
105.5901721476
 10
156.205925376
 20
105.9036696712
 10
155.6921932514
 20
106.0693980539
 10
155.1490311035
 20
106.0693980539
 10
154.6352989789
 20
105.9036696712
 10
154.2066677248
 20
105.5901721476
 10
153.9095861885
 20
105.1628778043
 10
153.776247764
 20
104.6680906134
 10
153.8211017386
 20
104.1594284445
 10
154.0392874883
 20
103.6920127364
 10
154.4071612015
 20
103.3164952336
 10
154.8848580533
 20
103.0735690845
 10
155.4206121774
 20
102.9895591065
  0
ELLIPSE
  5
EB
330
1F
100
AcDbEntity
  8
0
  6
HIDDEN
 62
     7
370
     0
100
AcDbEllipse
 10
155.4206121774
 20
105.6463654353
 30
0.0
 11
1.383467579512114
 21
-1.091267719176599
 31
0.0
210
0.0
220
0.0
230
1.0
 40
0.8239737799
 41
5.288724596347236
 42
5.331125843599268
  0
SPLINE
  5
EC
330
1F
100
AcDbEntity
  8
0
  6
HIDDEN
 62
     7
370
     0
100
AcDbSpline
210
0.0
220
0.0
230
1.0
 70
     8
 71
     3
 72
     8
 73
     4
 74
     0
 42
0.000000001
 43
0.00000001
 40
0.0
 40
0.0
 40
0.0
 40
0.0
 40
1.0
 40
1.0
 40
1.0
 40
1.0
 10
155.4905532735774
 20
104.0848135695126
 30
0.0
 10
155.4735685474929
 20
104.0919292795557
 30
0.0
 10
155.4565644029696
 20
104.0998044090691
 30
0.0
 10
155.439565518908
 20
104.1084275285135
 30
0.0
  0
ELLIPSE
  5
ED
330
1F
100
AcDbEntity
  8
0
  6
HIDDEN
 62
     7
370
     0
100
AcDbEllipse
 10
155.4206121774
 20
105.6463654353
 30
0.0
 11
1.383467579512114
 21
1.753907414218489
 31
0.0
210
0.0
220
0.0
230
1.0
 40
0.5126701559
 41
4.136053364422173
 42
4.147540490638707
  0
ELLIPSE
  5
EE
330
1F
100
AcDbEntity
  8
0
  6
HIDDEN
 62
     7
370
     0
100
AcDbEllipse
 10
155.4206121774
 20
105.6463654353
 30
0.0
 11
1.383467579512114
 21
1.753907414218489
 31
0.0
210
0.0
220
0.0
230
1.0
 40
0.5126701559
 41
0.9829735846157973
 42
0.9944607108323662
  0
SPLINE
  5
EF
330
1F
100
AcDbEntity
  8
0
  6
HIDDEN
 62
     7
370
     0
100
AcDbSpline
210
0.0
220
0.0
230
1.0
 70
     8
 71
     3
 72
     8
 73
     4
 74
     0
 42
0.000000001
 43
0.00000001
 40
0.0
 40
0.0
 40
0.0
 40
0.0
 40
1.0
 40
1.0
 40
1.0
 40
1.0
 10
155.4395655189079
 20
107.2092085855209
 30
0.0
 10
155.4565644029695
 20
107.2012253120151
 30
0.0
 10
155.473568547493
 20
107.1924889095764
 30
0.0
 10
155.4905532735775
 20
107.1830120577496
 30
0.0
  0
ELLIPSE
  5
F0
330
1F
100
AcDbEntity
  8
0
  6
HIDDEN
 62
     7
370
     0
100
AcDbEllipse
 10
155.4206121774
 20
105.6463654353
 30
0.0
 11
1.383467579512114
 21
-1.091267719176599
 31
0.0
210
0.0
220
0.0
230
1.0
 40
0.8239737799
 41
2.104730695505413
 42
2.147131942757429
  0
SPLINE
  5
F1
330
1F
100
AcDbEntity
  8
0
  6
HIDDEN
 62
     7
370
     0
100
AcDbSpline
210
0.0
220
0.0
230
1.0
 70
    11
 71
     3
 72
    54
 73
    50
 74
     0
 42
0.000000001
 43
0.00000001
 40
0.0
 40
0.0
 40
0.0
 40
0.0
 40
0.0312499999999999
 40
0.0312499999999999
 40
0.0624999999999998
 40
0.0624999999999998
 40
0.1249999999999996
 40
0.1249999999999996
 40
0.1562499999999995
 40
0.1562499999999995
 40
0.1874999999999994
 40
0.1874999999999994
 40
0.2187499999999993
 40
0.2187499999999993
 40
0.2499999999999992
 40
0.2499999999999992
 40
0.3124999999999989
 40
0.3124999999999989
 40
0.3749999999999988
 40
0.3749999999999988
 40
0.4062499999999987
 40
0.4062499999999987
 40
0.4374999999999986
 40
0.4374999999999986
 40
0.4999999999999984
 40
0.4999999999999984
 40
0.5624999999999982
 40
0.5624999999999982
 40
0.624999999999998
 40
0.624999999999998
 40
0.6562499999999981
 40
0.6562499999999981
 40
0.6874999999999982
 40
0.6874999999999982
 40
0.7187499999999983
 40
0.7187499999999983
 40
0.7499999999999984
 40
0.7499999999999984
 40
0.7812499999999987
 40
0.7812499999999987
 40
0.8124999999999988
 40
0.8124999999999988
 40
0.874999999999999
 40
0.874999999999999
 40
0.9062499999999992
 40
0.9062499999999992
 40
0.9374999999999994
 40
0.9374999999999994
 40
1.0
 40
1.0
 40
1.0
 40
1.0
 10
155.420612177449
 20
110.3410927520967
 30
0.0
 10
155.5334117833899
 20
110.3410927520967
 30
0.0
 10
155.643268281311
 20
110.3483451001172
 30
0.0
 10
155.8578334501115
 20
110.3767964468572
 30
0.0
 10
155.9631322842673
 20
110.3983664135548
 30
0.0
 10
156.2581747435292
 20
110.4826382645996
 30
0.0
 10
156.4341213656558
 20
110.5661904604593
 30
0.0
 10
156.656268647927
 20
110.7331555522082
 30
0.0
 10
156.7244747625037
 20
110.7968107350199
 30
0.0
 10
156.843243981416
 20
110.9366282038381
 30
0.0
 10
156.8943947246036
 20
111.0129959334135
 30
0.0
 10
156.9794110268152
 20
111.1809025805224
 30
0.0
 10
157.0132266767964
 20
111.2734684571483
 30
0.0
 10
157.0581673056628
 20
111.4654534576042
 30
0.0
 10
157.070029660907
 20
111.5658779282442
 30
0.0
 10
157.0717151077681
 20
111.8816734890045
 30
0.0
 10
157.0259007538048
 20
112.1015638825147
 30
0.0
 10
156.8580408201168
 20
112.5134094177327
 30
0.0
 10
156.7365064994113
 20
112.706563599719
 30
0.0
 10
156.5153211708223
 20
112.954981937523
 30
0.0
 10
156.433808109894
 20
113.0322423171063
 30
0.0
 10
156.2607261302417
 20
113.1688312523009
 30
0.0
 10
156.1689540521544
 20
113.2286803254759
 30
0.0
 10
155.874979873776
 20
113.380053079092
 30
0.0
 10
155.6525563134333
 20
113.4406973948234
 30
0.0
 10
155.2047914936288
 20
113.4434105579156
 30
0.0
 10
154.9834133728567
 20
113.3861607487355
 30
0.0
 10
154.5872024799102
 20
113.1874099736318
 30
0.0
 10
154.410839281092
 20
113.0480078898024
 30
0.0
 10
154.1863019460371
 20
112.7992727380423
 30
0.0
 10
154.1192193790062
 20
112.7109198102363
 30
0.0
 10
154.0000114361942
 20
112.5235622970805
 30
0.0
 10
153.947408886892
 20
112.4233335098869
 30
0.0
 10
153.8616017814591
 20
112.2171423088306
 30
0.0
 10
153.8284515186113
 20
112.1119597062299
 30
0.0
 10
153.7828842974646
 20
111.8973998596403
 30
0.0
 10
153.7710250743509
 20
111.7890651028448
 30
0.0
 10
153.7702208698543
 20
111.5799670380792
 30
0.0
 10
153.7813000846139
 20
111.4765234809191
 30
0.0
 10
153.8253267241126
 20
111.281650404107
 30
0.0
 10
153.8578002426679
 20
111.1905284611334
 30
0.0
 10
153.9851767023079
 20
110.9340917799835
 30
0.0
 10
154.107235567802
 20
110.7923366015401
 30
0.0
 10
154.3297268182098
 20
110.6239758444414
 30
0.0
 10
154.4100724727746
 20
110.5753381249378
 30
0.0
 10
154.5843988268825
 20
110.4910269972322
 30
0.0
 10
154.6784162791539
 20
110.4555724184005
 30
0.0
 10
154.9733310342314
 20
110.3708248024088
 30
0.0
 10
155.1950129655673
 20
110.3410927520967
 30
0.0
 10
155.420612177449
 20
110.3410927520967
 30
0.0
  0
CIRCLE
  5
F2
330
1F
100
AcDbEntity
  8
0
  6
HIDDEN
 62
     7
370
     0
100
AcDbCircle
 10
218.3706121774
 20
112.5339554959
 30
0.0
 40
3.5
  0
LINE
  5
F3
330
1F
100
AcDbEntity
  8
0
  6
HIDDEN
 62
     7
370
     0
100
AcDbLine
 10
145.6206121774
 20
137.3339554959
 30
0.0
 11
145.9578704777
 21
137.3339554959
 31
0.0
  0
ELLIPSE
  5
F4
330
1F
100
AcDbEntity
  8
0
  6
HIDDEN
 62
     7
370
     0
100
AcDbEllipse
 10
145.9578704777
 20
138.9339554959
 30
0.0
 11
0.0
 21
1.599999999999966
 31
0.0
210
0.0
220
0.0
230
1.0
 40
0.4142135624
 41
3.141592653589793
 42
4.712388980384695
  0
LINE
  5
F5
330
1F
100
AcDbEntity
  8
0
  6
HIDDEN
 62
     7
370
     0
100
AcDbLine
 10
145.9578704777
 20
89.9339554959
 30
0.0
 11
145.6206121774
 21
89.9339554959
 31
0.0
  0
ELLIPSE
  5
F6
330
1F
100
AcDbEntity
  8
0
  6
HIDDEN
 62
     7
370
     0
100
AcDbEllipse
 10
145.9578704777
 20
88.3339554959
 30
0.0
 11
0.0
 21
1.599999999999994
 31
0.0
210
0.0
220
0.0
230
1.0
 40
0.4142135624
 41
4.712388980384695
 42
6.283185307179586
  0
LINE
  5
F7
330
1F
100
AcDbEntity
  8
0
  6
HIDDEN
 62
     7
370
     0
100
AcDbLine
 10
146.6206121774
 20
82.6405071493
 30
0.0
 11
145.8367567188
 21
82.1822256464
 31
0.0
  0
LINE
  5
F8
330
1F
100
AcDbEntity
  8
0
  6
HIDDEN
 62
     7
370
     0
100
AcDbLine
 10
145.9078537788
 20
142.9592520508
 30
0.0
 11
146.6206121774
 21
142.2464936521
 31
0.0
  0
LINE
  5
F9
330
1F
100
AcDbEntity
  8
0
  6
HIDDEN
 62
     7
370
     0
100
AcDbLine
 10
81.1706121774
 20
104.0339554959
 30
0.0
 11
81.1706121774
 21
121.0339554959
 31
0.0
  0
LINE
  5
FA
330
1F
100
AcDbEntity
  8
0
  6
HIDDEN
 62
     7
370
     0
100
AcDbLine
 10
84.1665413918
 20
105.5339554959
 30
0.0
 11
84.1665413918
 21
119.5339554959
 31
0.0
  0
LINE
  5
FB
330
1F
100
AcDbEntity
  8
0
  6
HIDDEN
 62
     7
370
     0
100
AcDbLine
 10
150.4558225737
 20
82.6405071493
 30
0.0
 11
146.6206121774
 21
82.6405071493
 31
0.0
  0
LINE
  5
FC
330
1F
100
AcDbEntity
  8
0
  6
HIDDEN
 62
     7
370
     0
100
AcDbLine
 10
161.4706121774
 20
82.6405071493
 30
0.0
 11
156.5854017812
 21
82.6405071493
 31
0.0
  0
LINE
  5
FD
330
1F
100
AcDbEntity
  8
0
  6
HIDDEN
 62
     7
370
     0
100
AcDbLine
 10
146.6206121774
 20
82.6405071493
 30
0.0
 11
146.6206121774
 21
88.3339554959
 31
0.0
  0
LINE
  5
FE
330
1F
100
AcDbEntity
  8
0
  6
HIDDEN
 62
     7
370
     0
100
AcDbLine
 10
161.4706121774
 20
89.9339554959
 30
0.0
 11
145.9578704777
 21
89.9339554959
 31
0.0
  0
LINE
  5
FF
330
1F
100
AcDbEntity
  8
0
  6
HIDDEN
 62
     7
370
     0
100
AcDbLine
 10
146.6206121774
 20
142.2464936521
 30
0.0
 11
150.5566574912
 21
142.2464936521
 31
0.0
  0
LINE
  5
100
330
1F
100
AcDbEntity
  8
0
  6
HIDDEN
 62
     7
370
     0
100
AcDbLine
 10
156.4845668637
 20
142.2464936521
 30
0.0
 11
161.4706121774
 21
142.2464936521
 31
0.0
  0
LINE
  5
101
330
1F
100
AcDbEntity
  8
0
  6
HIDDEN
 62
     7
370
     0
100
AcDbLine
 10
146.6206121774
 20
142.2464936521
 30
0.0
 11
146.6206121774
 21
138.9339554959
 31
0.0
  0
LINE
  5
102
330
1F
100
AcDbEntity
  8
0
  6
HIDDEN
 62
     7
370
     0
100
AcDbLine
 10
145.9578704777
 20
137.3339554959
 30
0.0
 11
161.4706121774
 21
137.3339554959
 31
0.0
  0
LINE
  5
103
330
1F
100
AcDbEntity
  8
0
  6
HIDDEN
 62
     7
370
     0
100
AcDbLine
 10
208.9206121774
 20
112.5339554959
 30
0.0
 11
208.9206121774
 21
105.8339554959
 31
0.0
  0
LINE
  5
104
330
1F
100
AcDbEntity
  8
0
  6
HIDDEN
 62
     7
370
     0
100
AcDbLine
 10
208.9206121774
 20
119.2339554959
 30
0.0
 11
208.9206121774
 21
112.5339554959
 31
0.0
  0
LINE
  5
105
330
1F
100
AcDbEntity
  8
0
  6
HIDDEN
 62
     7
370
     0
100
AcDbLine
 10
212.2866375812
 20
112.5339554959
 30
0.0
 11
212.2866375812
 21
105.5339554959
 31
0.0
  0
LINE
  5
106
330
1F
100
AcDbEntity
  8
0
  6
HIDDEN
 62
     7
370
     0
100
AcDbLine
 10
212.2866375812
 20
119.5339554959
 30
0.0
 11
212.2866375812
 21
112.5339554959
 31
0.0
  0
LINE
  5
107
330
1F
100
AcDbEntity
  8
0
  6
HIDDEN
 62
     7
370
     0
100
AcDbLine
 10
117.1706121774
 20
105.5339554959
 30
0.0
 11
117.1706121774
 21
119.5339554959
 31
0.0
  0
LINE
  5
108
330
1F
100
AcDbEntity
  8
0
  6
HIDDEN
 62
     7
370
     0
100
AcDbLine
 10
119.8744849631
 20
115.0339554959
 30
0.0
 11
119.8744849631
 21
110.0339554959
 31
0.0
  0
SPLINE
  5
109
330
1F
100
AcDbEntity
  8
0
  6
HIDDEN
 62
     7
370
     0
100
AcDbSpline
210
0.0
220
0.0
230
1.0
 70
    11
 71
     3
 72
    54
 73
    50
 74
     0
 42
0.000000001
 43
0.00000001
 40
0.0
 40
0.0
 40
0.0
 40
0.0
 40
0.03125
 40
0.03125
 40
0.0624999999999999
 40
0.0624999999999999
 40
0.1249999999999998
 40
0.1249999999999998
 40
0.1562499999999996
 40
0.1562499999999996
 40
0.1874999999999994
 40
0.1874999999999994
 40
0.2187499999999992
 40
0.2187499999999992
 40
0.249999999999999
 40
0.249999999999999
 40
0.3124999999999987
 40
0.3124999999999987
 40
0.3749999999999983
 40
0.3749999999999983
 40
0.4062499999999981
 40
0.4062499999999981
 40
0.4374999999999979
 40
0.4374999999999979
 40
0.4999999999999979
 40
0.4999999999999979
 40
0.5624999999999979
 40
0.5624999999999979
 40
0.624999999999998
 40
0.624999999999998
 40
0.6562499999999981
 40
0.6562499999999981
 40
0.6874999999999983
 40
0.6874999999999983
 40
0.7187499999999984
 40
0.7187499999999984
 40
0.7499999999999987
 40
0.7499999999999987
 40
0.7812499999999989
 40
0.7812499999999989
 40
0.812499999999999
 40
0.812499999999999
 40
0.8749999999999994
 40
0.8749999999999994
 40
0.9062499999999997
 40
0.9062499999999997
 40
0.9374999999999999
 40
0.9374999999999999
 40
1.0
 40
1.0
 40
1.0
 40
1.0
 10
155.4206121774491
 20
111.6258325910508
 30
0.0
 10
155.3078125715082
 20
111.6258325910508
 30
0.0
 10
155.1979560735872
 20
111.640060729433
 30
0.0
 10
154.9833909047866
 20
111.6939066388414
 30
0.0
 10
154.8780920706309
 20
111.7341141698092
 30
0.0
 10
154.5830496113689
 20
111.8835616159694
 30
0.0
 10
154.4071029892424
 20
112.0235071531994
 30
0.0
 10
154.1849557069711
 20
112.2704028613237
 30
0.0
 10
154.1167495923944
 20
112.3604448321829
 30
0.0
 10
153.9979803734821
 20
112.5479854750038
 30
0.0
 10
153.9468296302945
 20
112.6458963900902
 30
0.0
 10
153.8618133280829
 20
112.8503336841331
 30
0.0
 10
153.8279976781017
 20
112.9578793875786
 30
0.0
 10
153.7830570492353
 20
113.1699078862028
 30
0.0
 10
153.7711946939911
 20
113.2757156599453
 30
0.0
 10
153.76950924713
 20
113.5922721382631
 30
0.0
 10
153.8153236010933
 20
113.7910461825648
 30
0.0
 10
153.9831835347813
 20
114.1306183391426
 30
0.0
 10
154.1047178554869
 20
114.2729115341731
 30
0.0
 10
154.3259031840759
 20
114.4414077285397
 30
0.0
 10
154.4074162450041
 20
114.4910362697586
 30
0.0
 10
154.5804982246564
 20
114.5752400912298
 30
0.0
 10
154.6722703027437
 20
114.6101947033436
 30
0.0
 10
154.9662444811221
 20
114.6957691481532
 30
0.0
 10
155.1886680414649
 20
114.7261064120929
 30
0.0
 10
155.6364328612694
 20
114.7275048887713
 30
0.0
 10
155.8578109820415
 20
114.6989882943344
 30
0.0
 10
156.2540218749879
 20
114.5870799902615
 30
0.0
 10
156.4303850738061
 20
114.5040526701456
 30
0.0
 10
156.654922408861
 20
114.3360002103841
 30
0.0
 10
156.7220049758919
 20
114.2735879167856
 30
0.0
 10
156.8412129187039
 20
114.1340780313196
 30
0.0
 10
156.8938154680062
 20
114.0559864221358
 30
0.0
 10
156.9796225734391
 20
113.8866629614045
 30
0.0
 10
157.0127728362868
 20
113.7961687339573
 30
0.0
 10
157.0583400574336
 20
113.6019308286397
 30
0.0
 10
157.0701992805472
 20
113.4989794109965
 30
0.0
 10
157.0710034850439
 20
113.2902444163514
 30
0.0
 10
157.0599242702842
 20
113.1817696340125
 30
0.0
 10
157.0158976307855
 20
112.9672452372358
 30
0.0
 10
156.9834241122302
 20
112.861714906309
 30
0.0
 10
156.8560476525902
 20
112.5504572108505
 30
0.0
 10
156.7339887870961
 20
112.3576638878022
 30
0.0
 10
156.5114975366883
 20
112.1090773959791
 30
0.0
 10
156.4311518821235
 20
112.0332544153874
 30
0.0
 10
156.2568255280156
 20
111.8963318287646
 30
0.0
 10
156.1628080757443
 20
111.8355221474231
 30
0.0
 10
155.8678933206667
 20
111.6853520598274
 30
0.0
 10
155.6462113893308
 20
111.6258325910508
 30
0.0
 10
155.4206121774491
 20
111.6258325910508
 30
0.0
  0
ELLIPSE
  5
10A
330
1F
100
AcDbEntity
  8
0
  6
HIDDEN
 62
     7
370
     0
100
AcDbEllipse
 10
155.4206121774
 20
119.4215455564
 30
0.0
 11
-1.383467579512143
 21
1.753907414218503
 31
0.0
210
0.0
220
0.0
230
1.0
 40
0.5126701559
 41
5.277237470121855
 42
5.288724596347227
  0
ELLIPSE
  5
10B
330
1F
100
AcDbEntity
  8
0
  6
HIDDEN
 62
     7
370
     0
100
AcDbEllipse
 10
155.4206121774
 20
119.4215455564
 30
0.0
 11
1.383467579512114
 21
1.091267719176599
 31
0.0
210
0.0
220
0.0
230
1.0
 40
0.8239737799
 41
0.9944607108323549
 42
4.136053364422144
  0
ELLIPSE
  5
10C
330
1F
100
AcDbEntity
  8
0
  6
HIDDEN
 62
     7
370
     0
100
AcDbEllipse
 10
155.4206121774
 20
119.4215455564
 30
0.0
 11
-1.383467579512143
 21
1.753907414218503
 31
0.0
210
0.0
220
0.0
230
1.0
 40
0.5126701559
 41
2.147131942757404
 42
2.158619068977435
  0
SPLINE
  5
10D
330
1F
100
AcDbEntity
  8
0
  6
HIDDEN
 62
     7
370
     0
100
AcDbSpline
210
0.0
220
0.0
230
1.0
 70
     8
 71
     3
 72
     8
 73
     4
 74
     0
 42
0.000000001
 43
0.00000001
 40
0.0
 40
0.0
 40
0.0
 40
0.0
 40
1.0
 40
1.0
 40
1.0
 40
1.0
 10
155.4395655188774
 20
117.8587024062059
 30
0.0
 10
155.4565644029594
 20
117.8666856797204
 30
0.0
 10
155.4735685475031
 20
117.8754220821695
 30
0.0
 10
155.490553273608
 20
117.8848989340086
 30
0.0
  0
ELLIPSE
  5
10E
330
1F
100
AcDbEntity
  8
0
  6
HIDDEN
 62
     7
370
     0
100
AcDbEllipse
 10
155.4206121774
 20
119.4215455564
 30
0.0
 11
1.383467579512114
 21
1.091267719176599
 31
0.0
210
0.0
220
0.0
230
1.0
 40
0.8239737799
 41
4.136053364422153
 42
4.178454611698562
  0
ELLIPSE
  5
10F
330
1F
100
AcDbEntity
  8
0
  6
HIDDEN
 62
     7
370
     0
100
AcDbEllipse
 10
155.4206121774
 20
119.4215455564
 30
0.0
 11
-1.383467579512143
 21
1.753907414218503
 31
0.0
210
0.0
220
0.0
230
1.0
 40
0.5126701559
 41
5.288724596347222
 42
8.430317249936984
  0
ELLIPSE
  5
110
330
1F
100
AcDbEntity
  8
0
  6
HIDDEN
 62
     7
370
     0
100
AcDbEllipse
 10
155.4206121774
 20
119.4215455564
 30
0.0
 11
1.383467579512114
 21
1.091267719176599
 31
0.0
210
0.0
220
0.0
230
1.0
 40
0.8239737799
 41
0.9520594635504916
 42
0.994460710832364
  0
SPLINE
  5
111
330
1F
100
AcDbEntity
  8
0
  6
HIDDEN
 62
     7
370
     0
100
AcDbSpline
210
0.0
220
0.0
230
1.0
 70
     8
 71
     3
 72
     8
 73
     4
 74
     0
 42
0.000000001
 43
0.00000001
 40
0.0
 40
0.0
 40
0.0
 40
0.0
 40
1.0
 40
1.0
 40
1.0
 40
1.0
 10
155.490553273617
 20
120.9830974222451
 30
0.0
 10
155.4735685475061
 20
120.9759817121922
 30
0.0
 10
155.4565644029564
 20
120.9681065826665
 30
0.0
 10
155.4395655188684
 20
120.9594834632075
 30
0.0
  0
LWPOLYLINE
  5
112
330
1F
100
AcDbEntity
  8
0
  6
HIDDEN
 62
     7
370
     0
100
AcDbPolyline
 90
       20
 70
   128
 43
0.0
 10
155.4206121774
 20
118.9773662366
 10
155.9563663016
 20
119.0613762146
 10
156.4340631534
 20
119.3043023638
 10
156.8019368666
 20
119.6798198665
 10
157.0201226162
 20
120.1472355747
 10
157.0649765909
 20
120.6558977435
 10
156.9316381664
 20
121.1506849344
 10
156.6345566301
 20
121.5779792778
 10
156.205925376
 20
121.8914768013
 10
155.6921932514
 20
122.057205184
 10
155.1490311035
 20
122.057205184
 10
154.6352989789
 20
121.8914768013
 10
154.2066677248
 20
121.5779792778
 10
153.9095861885
 20
121.1506849344
 10
153.776247764
 20
120.6558977435
 10
153.8211017386
 20
120.1472355747
 10
154.0392874883
 20
119.6798198665
 10
154.4071612015
 20
119.3043023638
 10
154.8848580533
 20
119.0613762146
 10
155.4206121774
 20
118.9773662366
  0
LINE
  5
113
330
1F
100
AcDbEntity
  8
0
  6
HIDDEN
 62
     7
370
     0
100
AcDbLine
 10
151.6106121774
 20
134.7311963154
 30
0.0
 11
151.6106121774
 21
130.8839554959
 31
0.0
  0
SPLINE
  5
114
330
1F
100
AcDbEntity
  8
0
  6
HIDDEN
 62
     7
370
     0
100
AcDbSpline
210
0.0
220
0.0
230
1.0
 70
     8
 71
     3
 72
    14
 73
    10
 74
     0
 42
0.000000001
 43
0.00000001
 40
0.0
 40
0.0
 40
0.0
 40
0.0
 40
0.25
 40
0.25
 40
0.5
 40
0.5
 40
0.75
 40
0.75
 40
1.0
 40
1.0
 40
1.0
 40
1.0
 10
154.630612177449
 20
123.8164346859786
 30
0.0
 10
154.7282944285629
 20
123.854957000011
 30
0.0
 10
154.8304079376003
 20
123.8925723594698
 30
0.0
 10
155.0225801087691
 20
123.9636810850567
 30
0.0
 10
155.113998782096
 20
123.9978871355608
 30
0.0
 10
155.2655147711102
 20
124.0647766139177
 30
0.0
 10
155.3266619736491
 20
124.0980470764786
 30
0.0
 10
155.4093686753376
 20
124.1674454265725
 30
0.0
 10
155.4306121774491
 20
124.2032225321685
 30
0.0
 10
155.4306121774491
 20
124.2397178644191
 30
0.0
  0
LINE
  5
115
330
1F
100
AcDbEntity
  8
0
  6
HIDDEN
 62
     7
370
     0
100
AcDbLine
 10
155.4306121774
 20
134.7311963154
 30
0.0
 11
155.4306121774
 21
130.8839554959
 31
0.0
  0
LINE
  5
116
330
1F
100
AcDbEntity
  8
0
  6
HIDDEN
 62
     7
370
     0
100
AcDbLine
 10
155.4306121774
 20
104.5326729757
 30
0.0
 11
155.4306121774
 21
100.7739494775
 31
0.0
  0
SPLINE
  5
117
330
1F
100
AcDbEntity
  8
0
  6
HIDDEN
 62
     7
370
     0
100
AcDbSpline
210
0.0
220
0.0
230
1.0
 70
     8
 71
     3
 72
    14
 73
    10
 74
     0
 42
0.000000001
 43
0.00000001
 40
0.0
 40
0.0
 40
0.0
 40
0.0
 40
0.2500000000000005
 40
0.2500000000000005
 40
0.5000000000000003
 40
0.5000000000000003
 40
0.7500000000000001
 40
0.7500000000000001
 40
1.0
 40
1.0
 40
1.0
 40
1.0
 10
155.4306121774491
 20
120.4809943662001
 30
0.0
 10
155.4306121774491
 20
120.4445054352929
 30
0.0
 10
155.4094428012768
 20
120.4080066435591
 30
0.0
 10
155.3266971834244
 20
120.3426312958222
 30
0.0
 10
155.2658435585966
 20
120.3146944614758
 30
0.0
 10
155.1142386919055
 20
120.2808034322291
 30
0.0
 10
155.0230163814383
 20
120.2753779796426
 30
0.0
 10
154.8306858317351
 20
120.2962973034552
 30
0.0
 10
154.7284349472581
 20
120.3228534508957
 30
0.0
 10
154.630612177449
 20
120.3633232092015
 30
0.0
  0
LINE
  5
118
330
1F
100
AcDbEntity
  8
0
  6
HIDDEN
 62
     7
370
     0
100
AcDbLine
 10
157.0424488195
 20
102.781935428
 30
0.0
 11
157.0424488195
 21
100.5824556977
 31
0.0
  0
LINE
  5
119
330
1F
100
AcDbEntity
  8
0
  6
HIDDEN
 62
     7
370
     0
100
AcDbLine
 10
157.0424488195
 20
138.4441851359
 30
0.0
 11
157.0424488195
 21
130.8839554959
 31
0.0
  0
LINE
  5
11A
330
1F
100
AcDbEntity
  8
0
  6
HIDDEN
 62
     7
370
     0
100
AcDbLine
 10
149.9987755354
 20
138.4441851359
 30
0.0
 11
149.9987755354
 21
130.8839554959
 31
0.0
  0
SPLINE
  5
11B
330
1F
100
AcDbEntity
  8
0
  6
HIDDEN
 62
     7
370
     0
100
AcDbSpline
210
0.0
220
0.0
230
1.0
 70
     8
 71
     3
 72
    10
 73
     6
 74
     0
 42
0.000000001
 43
0.00000001
 40
0.0
 40
0.0
 40
0.0
 40
0.0
 40
0.5
 40
0.5
 40
1.0
 40
1.0
 40
1.0
 40
1.0
 10
153.4447214148086
 20
120.2804946653394
 30
0.0
 10
153.4291153638274
 20
120.3857668659479
 30
0.0
 10
153.4206109007989
 20
120.4897053637388
 30
0.0
 10
153.4206134543886
 20
120.6892186356948
 30
0.0
 10
153.429111041989
 20
120.7804311303652
 30
0.0
 10
153.4447214148087
 20
120.8623630627083
 30
0.0
  0
SPLINE
  5
11C
330
1F
100
AcDbEntity
  8
0
  6
HIDDEN
 62
     7
370
     0
100
AcDbSpline
210
0.0
220
0.0
230
1.0
 70
     8
 71
     3
 72
    14
 73
    10
 74
     0
 42
0.000000001
 43
0.00000001
 40
0.0
 40
0.0
 40
0.0
 40
0.0
 40
0.25
 40
0.25
 40
0.5
 40
0.5
 40
0.75
 40
0.75
 40
1.0
 40
1.0
 40
1.0
 40
1.0
 10
153.4447214148087
 20
120.8623630627083
 30
0.0
 10
153.4810852428389
 20
120.8168684273065
 30
0.0
 10
153.5135629700491
 20
120.7684766210902
 30
0.0
 10
153.5623165994647
 20
120.6629914771607
 30
0.0
 10
153.5772203771392
 20
120.6064069689178
 30
0.0
 10
153.5772308107969
 20
120.4975193749673
 30
0.0
 10
153.5623405149887
 20
120.4453347092047
 30
0.0
 10
153.5134515841111
 20
120.3540573102612
 30
0.0
 10
153.4810794058407
 20
120.3153906048871
 30
0.0
 10
153.4447214148086
 20
120.2804946653394
 30
0.0
  0
LWPOLYLINE
  5
11D
330
1F
100
AcDbEntity
  8
0
  6
HIDDEN
 62
     7
370
     0
100
AcDbPolyline
 90
       20
 70
   128
 43
0.0
 10
146.252339715
 20
120.5140009047
 10
146.3892807943
 20
120.1224362548
 10
146.6096641918
 20
119.8693164638
 10
146.8896079468
 20
119.7820709885
 10
147.1987758096
 20
119.87015423
 10
147.5036646451
 20
120.1240210022
 10
147.7712350171
 20
120.5161609013
 10
147.972491524
 20
121.0040794846
 10
148.0856249005
 20
121.5349032026
 10
148.0983753898
 20
122.0511090691
 10
148.0093612785
 20
122.4967581684
 10
147.8282286268
 20
122.8235575059
 10
147.5746059681
 20
122.9960933025
 10
147.2759772528
 20
122.9956686274
 10
146.9647035358
 20
122.8223295008
 10
146.6745161544
 20
122.4948599066
 10
146.4368614141
 20
122.0487462567
 10
146.2774928934
 20
121.5323318872
 10
146.2136806446
 20
121.0015783079
 10
146.252339715
 20
120.5140009047
  0
LWPOLYLINE
  5
11E
330
1F
100
AcDbEntity
  8
0
  6
HIDDEN
 62
     7
370
     0
100
AcDbPolyline
 90
       21
 70
   128
 43
0.0
 10
153.4447214148
 20
120.2804946653
 10
153.6232510183
 20
119.7471235215
 10
153.9608670921
 20
119.2867125764
 10
154.4276868556
 20
118.9400133239
 10
154.9823915631
 20
118.7377125073
 10
155.5758836731
 20
118.6977160008
 10
156.1556325273
 20
118.8235639404
 10
156.6703238985
 20
119.1041173826
 10
157.0744018708
 20
119.5145442247
 10
157.3321010457
 20
120.0185171223
 10
157.4206121774
 20
120.571428864
 10
157.3321010457
 20
121.1243406057
 10
157.0744018708
 20
121.6283135034
 10
156.6703238985
 20
122.0387403455
 10
156.1556325273
 20
122.3192937877
 10
155.5758836731
 20
122.4451417273
 10
154.9823915631
 20
122.4051452207
 10
154.4276868556
 20
122.2028444041
 10
153.9608670921
 20
121.8561451517
 10
153.6232510183
 20
121.3957342066
 10
153.4447214148
 20
120.8623630627
  0
SPLINE
  5
11F
330
1F
100
AcDbEntity
  8
0
  6
HIDDEN
 62
     7
370
     0
100
AcDbSpline
210
0.0
220
0.0
230
1.0
 70
     8
 71
     3
 72
    12
 73
     8
 74
     0
 42
0.000000001
 43
0.00000001
 40
0.0
 40
0.0
 40
0.0
 40
0.0
 40
0.2500000000000003
 40
0.2500000000000003
 40
0.5000000000000007
 40
0.5000000000000007
 40
1.0
 40
1.0
 40
1.0
 40
1.0
 10
157.0424488195058
 20
124.4854552940775
 30
0.0
 10
157.1653963133013
 20
124.3274984453824
 30
0.0
 10
157.2589405164102
 20
124.1556650784049
 30
0.0
 10
157.3878799055724
 20
123.7839923687591
 30
0.0
 10
157.4204326629576
 20
123.5908039225678
 30
0.0
 10
157.4209690046914
 20
123.0025073842916
 30
0.0
 10
157.2883453477234
 20
122.6104891464029
 30
0.0
 10
157.0424488195058
 20
122.2859755636942
 30
0.0
  0
SPLINE
  5
120
330
1F
100
AcDbEntity
  8
0
  6
HIDDEN
 62
     7
370
     0
100
AcDbSpline
210
0.0
220
0.0
230
1.0
 70
     8
 71
     3
 72
    12
 73
     8
 74
     0
 42
0.000000001
 43
0.00000001
 40
0.0
 40
0.0
 40
0.0
 40
0.0
 40
0.2499999999999998
 40
0.2499999999999998
 40
0.4999999999999996
 40
0.4999999999999996
 40
1.0
 40
1.0
 40
1.0
 40
1.0
 10
157.0424488195058
 20
122.2859755636942
 30
0.0
 10
156.9275527682451
 20
122.0662351286377
 30
0.0
 10
156.8007867517725
 20
121.8692667770159
 30
0.0
 10
156.5405718181539
 20
121.515549204177
 30
0.0
 10
156.4070643601917
 20
121.3587239103048
 30
0.0
 10
155.9986660916035
 20
120.9321813393971
 30
0.0
 10
155.7150129566659
 20
120.7054891604419
 30
0.0
 10
155.4306121774492
 20
120.5352380160464
 30
0.0
  0
SPLINE
  5
121
330
1F
100
AcDbEntity
  8
0
  6
HIDDEN
 62
     7
370
     0
100
AcDbSpline
210
0.0
220
0.0
230
1.0
 70
     8
 71
     3
 72
    12
 73
     8
 74
     0
 42
0.000000001
 43
0.00000001
 40
0.0
 40
0.0
 40
0.0
 40
0.0
 40
0.5000000000000013
 40
0.5000000000000013
 40
0.7500000000000007
 40
0.7500000000000007
 40
1.0
 40
1.0
 40
1.0
 40
1.0
 10
155.4306121774491
 20
124.2939615142674
 30
0.0
 10
155.7148187120144
 20
124.4614256765612
 30
0.0
 10
155.9935144461182
 20
124.5730627760728
 30
0.0
 10
156.4028604893074
 20
124.6403760417121
 30
0.0
 10
156.5389998266269
 20
124.6455270817261
 30
0.0
 10
156.800319875623
 20
124.6077611441067
 30
0.0
 10
156.9257410580548
 20
124.5662113857625
 30
0.0
 10
157.0424488195062
 20
124.4854552940796
 30
0.0
  0
SPLINE
  5
122
330
1F
100
AcDbEntity
  8
0
  6
HIDDEN
 62
     7
370
     0
100
AcDbSpline
210
0.0
220
0.0
230
1.0
 70
     8
 71
     3
 72
    22
 73
    18
 74
     0
 42
0.000000001
 43
0.00000001
 40
0.0
 40
0.0
 40
0.0
 40
0.0
 40
0.125
 40
0.125
 40
0.25
 40
0.25
 40
0.375
 40
0.375
 40
0.5
 40
0.5
 40
0.625
 40
0.625
 40
0.75
 40
0.75
 40
0.875
 40
0.875
 40
1.0
 40
1.0
 40
1.0
 40
1.0
 10
154.6306121774491
 20
120.3633232092014
 30
0.0
 10
154.4505954828797
 20
120.437796996178
 30
0.0
 10
154.2861636610093
 20
120.5352462581621
 30
0.0
 10
153.9877674272508
 20
120.7746156917264
 30
0.0
 10
153.8574636998859
 20
120.9145123037969
 30
0.0
 10
153.6442449162669
 20
121.2227638938571
 30
0.0
 10
153.5606170591554
 20
121.3929271119763
 30
0.0
 10
153.4494861822372
 20
121.7434218467668
 30
0.0
 10
153.4206501873835
 20
121.9285468079181
 30
0.0
 10
153.4205742447239
 20
122.2917536825354
 30
0.0
 10
153.4492328701511
 20
122.4751236962429
 30
0.0
 10
153.5603839632638
 20
122.8210148087362
 30
0.0
 10
153.6434510839078
 20
122.9865343360037
 30
0.0
 10
153.8571370420265
 20
123.2870740734075
 30
0.0
 10
153.9861440319508
 20
123.4209459946915
 30
0.0
 10
154.2857533114403
 20
123.6521927640956
 30
0.0
 10
154.4505960096996
 20
123.7454428807544
 30
0.0
 10
154.6306121774491
 20
123.8164346859787
 30
0.0
  0
LWPOLYLINE
  5
123
330
1F
100
AcDbEntity
  8
0
  6
HIDDEN
 62
     7
370
     0
100
AcDbPolyline
 90
       22
 70
   128
 43
0.0
 10
145.8708238246
 20
120.3044930494
 10
146.0235462844
 20
119.8467309371
 10
146.2652632035
 20
119.5298393819
 10
146.5744969729
 20
119.381975589
 10
146.9237708151
 20
119.4162779054
 10
147.2820502166
 20
119.6296984196
 10
147.6175004801
 20
120.0032737825
 10
147.9003153777
 20
120.5038101836
 10
148.1053655646
 20
121.0868327671
 10
148.2144314319
 20
121.700537418
 10
148.2178219986
 20
122.2903937847
 10
148.115235998
 20
122.8039905406
 10
147.9157886464
 20
123.1956923601
 10
147.6372017163
 20
123.4306948174
 10
147.304228879
 20
123.488116913
 10
146.9464562323
 20
123.3628564418
 10
146.595673446
 20
123.0660433461
 10
146.2830491099
 20
122.6240507723
 10
146.0363612682
 20
122.0761517
 10
145.8775292184
 20
121.4710293663
 10
145.8206658849
 20
120.8624515461
 10
145.8708238246
 20
120.3044930494
  0
LWPOLYLINE
  5
124
330
1F
100
AcDbEntity
  8
0
  6
HIDDEN
 62
     7
370
     0
100
AcDbPolyline
 90
       19
 70
   128
 43
0.0
 10
155.3198975667
 20
119.0809392571
 10
155.8311197069
 20
119.1322698255
 10
156.2928285805
 20
119.3448084107
 10
156.6493352834
 20
119.6929197224
 10
156.8576398457
 20
120.1346163989
 10
156.8926176629
 20
120.6166233023
 10
156.7500498941
 20
121.0808032863
 10
156.4471323163
 20
121.4711693944
 10
156.0204012598
 20
121.7406377127
 10
155.5213267882
 20
121.856706385
 10
155.010104648
 20
121.8053758165
 10
154.5483957744
 20
121.5928372314
 10
154.1918890715
 20
121.2447259197
 10
153.9835845092
 20
120.8030292432
 10
153.948606692
 20
120.3210223398
 10
154.0911744608
 20
119.8568423557
 10
154.3940920386
 20
119.4664762476
 10
154.820823095
 20
119.1970079294
 10
155.3198975667
 20
119.0809392571
  0
LWPOLYLINE
  5
125
330
1F
100
AcDbEntity
  8
0
  6
HIDDEN
 62
     7
370
     0
100
AcDbPolyline
 90
       22
 70
   128
 43
0.0
 10
155.2845467253
 20
118.6963979888
 10
155.878736238
 20
118.7420130411
 10
156.4322194175
 20
118.9501797175
 10
156.8958168543
 20
119.3024014953
 10
157.2283358818
 20
119.7673819239
 10
157.400230725
 20
120.3038054516
 10
157.396227773
 20
120.8640084939
 10
157.2166827054
 20
121.3982145522
 10
156.8775488894
 20
121.8589570737
 10
156.408959853
 20
122.2052970637
 10
155.8525517883
 20
122.4064606939
 10
155.2577639936
 20
122.4445736932
 10
154.6774459747
 20
122.3162495542
 10
154.1631615343
 20
122.0328904399
 10
153.7606071017
 20
121.6196740511
 10
153.5055514049
 20
121.1133164772
 10
153.4206572619
 20
120.5588098109
 10
153.5134678898
 20
120.0054244028
 10
153.775736657
 20
119.502330975
 10
154.1841598326
 20
119.0942315863
 10
154.7024472251
 20
118.8173876582
 10
155.2845467253
 20
118.6963979888
  0
LWPOLYLINE
  5
126
330
1F
100
AcDbEntity
  8
0
  6
HIDDEN
 62
     7
370
     0
100
AcDbPolyline
 90
       22
 70
   128
 43
0.0
 10
155.2845467253
 20
119.021317125
 10
155.878736238
 20
119.0669321773
 10
156.4322194175
 20
119.2750988537
 10
156.8958168543
 20
119.6273206315
 10
157.2283358818
 20
120.09230106
 10
157.4002307251
 20
120.6287245877
 10
157.396227773
 20
121.1889276301
 10
157.2166827054
 20
121.7231336883
 10
156.8775488894
 20
122.1838762099
 10
156.408959853
 20
122.5302161998
 10
155.8525517883
 20
122.7313798301
 10
155.2577639936
 20
122.7694928294
 10
154.6774459747
 20
122.6411686904
 10
154.1631615343
 20
122.3578095761
 10
153.7606071017
 20
121.9445931873
 10
153.5055514049
 20
121.4382356134
 10
153.4206572619
 20
120.8837289471
 10
153.5134678898
 20
120.330343539
 10
153.775736657
 20
119.8272501112
 10
154.1841598326
 20
119.4191507224
 10
154.7024472251
 20
119.1423067944
 10
155.2845467253
 20
119.021317125
  0
LWPOLYLINE
  5
127
330
1F
100
AcDbEntity
  8
0
  6
HIDDEN
 62
     7
370
     0
100
AcDbPolyline
 90
       19
 70
   128
 43
0.0
 10
155.3185630883
 20
120.4306302379
 10
155.8365589716
 20
120.4826409414
 10
156.3043855328
 20
120.6979956835
 10
156.6656159843
 20
121.050719504
 10
156.8766806023
 20
121.4982687045
 10
156.912121879
 20
121.9866622464
 10
156.7676650734
 20
122.4569926604
 10
156.4607338081
 20
122.8525311575
 10
156.0283485236
 20
123.1255699572
 10
155.5226612666
 20
123.2431765507
 10
155.0046653833
 20
123.1911658472
 10
154.5368388221
 20
122.9758111051
 10
154.1756083706
 20
122.6230872846
 10
153.9645437526
 20
122.1755380841
 10
153.9291024759
 20
121.6871445423
 10
154.0735592815
 20
121.2168141282
 10
154.3804905468
 20
120.8212756312
 10
154.8128758313
 20
120.5482368315
 10
155.3185630883
 20
120.4306302379
  0
LWPOLYLINE
  5
128
330
1F
100
AcDbEntity
  8
0
  6
HIDDEN
 62
     7
370
     0
100
AcDbPolyline
 90
       19
 70
   128
 43
0.0
 10
155.3185630883
 20
119.427151826
 10
155.8365589716
 20
119.4791625295
 10
156.3043855328
 20
119.6945172716
 10
156.6656159843
 20
120.0472410921
 10
156.8766806023
 20
120.4947902926
 10
156.912121879
 20
120.9831838345
 10
156.7676650734
 20
121.4535142485
 10
156.4607338081
 20
121.8490527456
 10
156.0283485236
 20
122.1220915453
 10
155.5226612666
 20
122.2396981388
 10
155.0046653833
 20
122.1876874353
 10
154.5368388221
 20
121.9723326932
 10
154.1756083706
 20
121.6196088727
 10
153.9645437526
 20
121.1720596722
 10
153.9291024759
 20
120.6836661304
 10
154.0735592815
 20
120.2133357163
 10
154.3804905468
 20
119.8177972193
 10
154.8128758313
 20
119.5447584196
 10
155.3185630883
 20
119.427151826
  0
LWPOLYLINE
  5
129
330
1F
100
AcDbEntity
  8
0
  6
HIDDEN
 62
     7
370
     0
100
AcDbPolyline
 90
       22
 70
   128
 43
0.0
 10
155.2845467253
 20
119.2137034556
 10
155.878736238
 20
119.2593185079
 10
156.4322194175
 20
119.4674851843
 10
156.8958168543
 20
119.8197069621
 10
157.2283358818
 20
120.2846873907
 10
157.400230725
 20
120.8211109184
 10
157.396227773
 20
121.3813139607
 10
157.2166827054
 20
121.9155200189
 10
156.8775488894
 20
122.3762625405
 10
156.408959853
 20
122.7226025304
 10
155.8525517883
 20
122.9237661607
 10
155.2577639936
 20
122.96187916
 10
154.6774459747
 20
122.833555021
 10
154.1631615343
 20
122.5501959067
 10
153.7606071017
 20
122.1369795179
 10
153.5055514049
 20
121.630621944
 10
153.4206572619
 20
121.0761152777
 10
153.5134678898
 20
120.5227298696
 10
153.775736657
 20
120.0196364418
 10
154.1841598326
 20
119.611537053
 10
154.7024472251
 20
119.334693125
 10
155.2845467253
 20
119.2137034556
  0
LWPOLYLINE
  5
12A
330
1F
100
AcDbEntity
  8
0
  6
HIDDEN
 62
     7
370
     0
100
AcDbPolyline
 90
       21
 70
   128
 43
0.0
 10
155.2954319615
 20
119.2194161776
 10
155.8688326122
 20
119.2674951223
 10
156.3983583239
 20
119.4797255642
 10
156.8321754304
 20
119.8353329089
 10
157.1278188907
 20
120.2995078319
 10
157.2563490632
 20
120.8268136576
 10
157.2051845189
 20
121.3656340179
 10
156.9793336
 20
121.8632254216
 10
156.600904168
 20
122.2708801554
 10
156.1069395324
 20
122.5486941334
 10
155.5457923934
 20
122.669472988
 10
154.9723917427
 20
122.6213940434
 10
154.442866031
 20
122.4091636015
 10
154.0090489245
 20
122.0535562568
 10
153.7134054642
 20
121.5893813338
 10
153.5848752917
 20
121.0620755081
 10
153.636039836
 20
120.5232551478
 10
153.8618907549
 20
120.025663744
 10
154.2403201869
 20
119.6180090103
 10
154.7342848225
 20
119.3401950322
 10
155.2954319615
 20
119.2194161776
  0
LWPOLYLINE
  5
12B
330
1F
100
AcDbEntity
  8
0
  6
HIDDEN
 62
     7
370
     0
100
AcDbPolyline
 90
       22
 70
   128
 43
0.0
 10
155.2845467253
 20
119.4060897862
 10
155.878736238
 20
119.4517048385
 10
156.4322194175
 20
119.6598715149
 10
156.8958168543
 20
120.0120932927
 10
157.2283358818
 20
120.4770737213
 10
157.400230725
 20
121.013497249
 10
157.396227773
 20
121.5737002913
 10
157.2166827054
 20
122.1079063496
 10
156.8775488894
 20
122.5686488711
 10
156.408959853
 20
122.9149888611
 10
155.8525517883
 20
123.1161524913
 10
155.2577639936
 20
123.1542654906
 10
154.6774459747
 20
123.0259413516
 10
154.1631615343
 20
122.7425822373
 10
153.7606071017
 20
122.3293658485
 10
153.5055514049
 20
121.8230082746
 10
153.4206572619
 20
121.2685016083
 10
153.5134678898
 20
120.7151162002
 10
153.775736657
 20
120.2120227724
 10
154.1841598326
 20
119.8039233837
 10
154.7024472251
 20
119.5270794556
 10
155.2845467253
 20
119.4060897862
  0
LWPOLYLINE
  5
12C
330
1F
100
AcDbEntity
  8
0
  6
HIDDEN
 62
     7
370
     0
100
AcDbPolyline
 90
       21
 70
   128
 43
0.0
 10
155.2954319615
 20
119.4118025083
 10
155.8688326122
 20
119.4598814529
 10
156.3983583239
 20
119.6721118948
 10
156.8321754304
 20
120.0277192395
 10
157.1278188907
 20
120.4918941625
 10
157.2563490632
 20
121.0191999882
 10
157.2051845189
 20
121.5580203485
 10
156.9793336
 20
122.0556117523
 10
156.600904168
 20
122.463266486
 10
156.1069395324
 20
122.7410804641
 10
155.5457923934
 20
122.8618593187
 10
154.9723917427
 20
122.813780374
 10
154.442866031
 20
122.6015499321
 10
154.0090489245
 20
122.2459425874
 10
153.7134054642
 20
121.7817676644
 10
153.5848752917
 20
121.2544618387
 10
153.636039836
 20
120.7156414784
 10
153.8618907549
 20
120.2180500747
 10
154.2403201869
 20
119.8103953409
 10
154.7342848225
 20
119.5325813629
 10
155.2954319615
 20
119.4118025083
  0
LWPOLYLINE
  5
12D
330
1F
100
AcDbEntity
  8
0
  6
HIDDEN
 62
     7
370
     0
100
AcDbPolyline
 90
       22
 70
   128
 43
0.0
 10
155.2845467253
 20
119.5984761168
 10
155.878736238
 20
119.6440911691
 10
156.4322194175
 20
119.8522578455
 10
156.8958168543
 20
120.2044796233
 10
157.2283358818
 20
120.6694600519
 10
157.400230725
 20
121.2058835796
 10
157.396227773
 20
121.7660866219
 10
157.2166827054
 20
122.3002926802
 10
156.8775488894
 20
122.7610352018
 10
156.408959853
 20
123.1073751917
 10
155.8525517883
 20
123.3085388219
 10
155.2577639936
 20
123.3466518212
 10
154.6774459747
 20
123.2183276823
 10
154.1631615343
 20
122.934968568
 10
153.7606071017
 20
122.5217521791
 10
153.5055514049
 20
122.0153946053
 10
153.4206572619
 20
121.4608879389
 10
153.5134678898
 20
120.9075025309
 10
153.775736657
 20
120.404409103
 10
154.1841598326
 20
119.9963097143
 10
154.7024472251
 20
119.7194657862
 10
155.2845467253
 20
119.5984761168
  0
LWPOLYLINE
  5
12E
330
1F
100
AcDbEntity
  8
0
  6
HIDDEN
 62
     7
370
     0
100
AcDbPolyline
 90
       21
 70
   128
 43
0.0
 10
155.2954319615
 20
119.6041888389
 10
155.8688326122
 20
119.6522677836
 10
156.3983583239
 20
119.8644982254
 10
156.8321754304
 20
120.2201055701
 10
157.1278188907
 20
120.6842804931
 10
157.2563490632
 20
121.2115863189
 10
157.2051845189
 20
121.7504066791
 10
156.9793336
 20
122.2479980829
 10
156.600904168
 20
122.6556528166
 10
156.1069395324
 20
122.9334667947
 10
155.5457923934
 20
123.0542456493
 10
154.9723917427
 20
123.0061667046
 10
154.442866031
 20
122.7939362627
 10
154.0090489245
 20
122.438328918
 10
153.7134054642
 20
121.974153995
 10
153.5848752917
 20
121.4468481693
 10
153.636039836
 20
120.908027809
 10
153.8618907549
 20
120.4104364053
 10
154.2403201869
 20
120.0027816716
 10
154.7342848225
 20
119.7249676935
 10
155.2954319615
 20
119.6041888389
  0
LWPOLYLINE
  5
12F
330
1F
100
AcDbEntity
  8
0
  6
HIDDEN
 62
     7
370
     0
100
AcDbPolyline
 90
       22
 70
   128
 43
0.0
 10
155.2845467253
 20
119.7908624474
 10
155.878736238
 20
119.8364774997
 10
156.4322194175
 20
120.0446441761
 10
156.8958168543
 20
120.396865954
 10
157.2283358818
 20
120.8618463825
 10
157.4002307251
 20
121.3982699102
 10
157.396227773
 20
121.9584729525
 10
157.2166827054
 20
122.4926790108
 10
156.8775488894
 20
122.9534215324
 10
156.408959853
 20
123.2997615223
 10
155.8525517883
 20
123.5009251526
 10
155.2577639936
 20
123.5390381518
 10
154.6774459747
 20
123.4107140129
 10
154.1631615343
 20
123.1273548986
 10
153.7606071017
 20
122.7141385097
 10
153.5055514049
 20
122.2077809359
 10
153.4206572619
 20
121.6532742696
 10
153.5134678898
 20
121.0998888615
 10
153.775736657
 20
120.5967954336
 10
154.1841598326
 20
120.1886960449
 10
154.7024472251
 20
119.9118521169
 10
155.2845467253
 20
119.7908624474
  0
LWPOLYLINE
  5
130
330
1F
100
AcDbEntity
  8
0
  6
HIDDEN
 62
     7
370
     0
100
AcDbPolyline
 90
       21
 70
   128
 43
0.0
 10
155.2954319615
 20
119.7965751695
 10
155.8688326122
 20
119.8446541142
 10
156.3983583239
 20
120.0568845561
 10
156.8321754304
 20
120.4124919008
 10
157.1278188907
 20
120.8766668238
 10
157.2563490632
 20
121.4039726495
 10
157.2051845189
 20
121.9427930097
 10
156.9793336
 20
122.4403844135
 10
156.600904168
 20
122.8480391472
 10
156.1069395324
 20
123.1258531253
 10
155.5457923934
 20
123.2466319799
 10
154.9723917427
 20
123.1985530352
 10
154.442866031
 20
122.9863225933
 10
154.0090489245
 20
122.6307152486
 10
153.7134054642
 20
122.1665403256
 10
153.5848752917
 20
121.6392344999
 10
153.636039836
 20
121.1004141397
 10
153.8618907549
 20
120.6028227359
 10
154.2403201869
 20
120.1951680022
 10
154.7342848225
 20
119.9173540241
 10
155.2954319615
 20
119.7965751695
  0
LWPOLYLINE
  5
131
330
1F
100
AcDbEntity
  8
0
  6
HIDDEN
 62
     7
370
     0
100
AcDbPolyline
 90
       22
 70
   128
 43
0.0
 10
155.2845467253
 20
119.9276705048
 10
155.878736238
 20
119.9732855571
 10
156.4322194175
 20
120.1814522335
 10
156.8958168543
 20
120.5336740113
 10
157.2283358818
 20
120.9986544399
 10
157.400230725
 20
121.5350779675
 10
157.396227773
 20
122.0952810099
 10
157.2166827054
 20
122.6294870681
 10
156.8775488894
 20
123.0902295897
 10
156.408959853
 20
123.4365695796
 10
155.8525517883
 20
123.6377332099
 10
155.2577639936
 20
123.6758462092
 10
154.6774459747
 20
123.5475220702
 10
154.1631615343
 20
123.2641629559
 10
153.7606071017
 20
122.8509465671
 10
153.5055514049
 20
122.3445889932
 10
153.4206572619
 20
121.7900823269
 10
153.5134678898
 20
121.2366969188
 10
153.775736657
 20
120.733603491
 10
154.1841598326
 20
120.3255041022
 10
154.7024472251
 20
120.0486601742
 10
155.2845467253
 20
119.9276705048
  0
LWPOLYLINE
  5
132
330
1F
100
AcDbEntity
  8
0
  6
HIDDEN
 62
     7
370
     0
100
AcDbPolyline
 90
       21
 70
   128
 43
0.0
 10
155.2913499979
 20
120.0556240629
 10
155.883448496
 20
120.1052707992
 10
156.4302413504
 20
120.324421799
 10
156.8782046669
 20
120.6916250354
 10
157.1834886748
 20
121.1709360972
 10
157.3162100486
 20
121.7154366781
 10
157.2633770952
 20
122.2718272675
 10
157.0301614725
 20
122.7856444779
 10
156.6393919503
 20
123.2065923007
 10
156.1293197723
 20
123.4934654303
 10
155.549874357
 20
123.6181827258
 10
154.9577758589
 20
123.5685359894
 10
154.4109830045
 20
123.3493849897
 10
153.963019688
 20
122.9821817533
 10
153.6577356801
 20
122.5028706915
 10
153.5250143063
 20
121.9583701106
 10
153.5778472597
 20
121.4019795212
 10
153.8110628824
 20
120.8881623108
 10
154.2018324046
 20
120.4672144879
 10
154.7119045826
 20
120.1803413584
 10
155.2913499979
 20
120.0556240629
  0
LWPOLYLINE
  5
133
330
1F
100
AcDbEntity
  8
0
  6
HIDDEN
 62
     7
370
     0
100
AcDbPolyline
 90
       15
 70
   128
 43
0.0
 10
153.4265192196
 20
103.1208718597
 10
153.4212338134
 20
103.2183552376
 10
153.4953636835
 20
103.7742231904
 10
153.7405603311
 20
104.2848630529
 10
154.1350369581
 20
104.7049022325
 10
154.6437425849
 20
104.9970184048
 10
155.2214764843
 20
105.1352557659
 10
155.8169044638
 20
105.1073313196
 10
156.3771201347
 20
104.9157262756
 10
156.852345876
 20
104.5774655828
 10
157.2003557951
 20
104.1226051882
 10
157.3902276835
 20
103.5915614341
 10
157.4050905906
 20
103.0315198883
 10
157.2436238821
 20
102.4922427001
 10
157.2293366302
 20
102.4631524517
  0
ARC
  5
134
330
1F
100
AcDbEntity
  8
0
  6
HIDDEN
 62
     7
370
     0
100
AcDbCircle
 10
155.3982547107
 20
103.1727330563
 30
0.0
 40
1.885954364887785
100
AcDbArc
 50
341.2514166702
 51
160.6270533488
  0
ARC
  5
135
330
1F
100
AcDbEntity
  8
0
  6
HIDDEN
 62
     7
370
     0
100
AcDbCircle
 10
155.4621876464
 20
103.1890075973
 30
0.0
 40
1.452561774866364
100
AcDbArc
 50
354.404103811
 51
92.2203262475
  0
LWPOLYLINE
  5
136
330
1F
100
AcDbEntity
  8
0
  6
HIDDEN
 62
     7
370
     0
100
AcDbPolyline
 90
       22
 70
   128
 43
0.0
 10
154.7365718908
 20
101.635973226
 10
154.2130033568
 20
101.9038985994
 10
153.796736166
 20
102.3049384266
 10
153.5247574851
 20
102.803458559
 10
153.4212338134
 20
103.355163295
 10
153.4953636835
 20
103.9110312477
 10
153.7405603311
 20
104.4216711103
 10
154.1350369581
 20
104.8417102899
 10
154.6437425849
 20
105.1338264621
 10
155.2214764843
 20
105.2720638232
 10
155.8169044638
 20
105.2441393769
 10
156.3771201347
 20
105.0525343329
 10
156.852345876
 20
104.7142736401
 10
157.2003557951
 20
104.2594132456
 10
157.3902276835
 20
103.7283694914
 10
157.4050905906
 20
103.1683279457
 10
157.2436238821
 20
102.6290507574
 10
156.9201745834
 20
102.1584550713
 10
156.4634825842
 20
101.7983553794
 10
155.9141269728
 20
101.5807481194
 10
155.3209204061
 20
101.5249686514
 10
154.7365718908
 20
101.635973226
  0
LWPOLYLINE
  5
137
330
1F
100
AcDbEntity
  8
0
  6
HIDDEN
 62
     7
370
     0
100
AcDbPolyline
 90
       19
 70
   128
 43
0.0
 10
154.9075819625
 20
102.909952677
 10
154.4564307629
 20
103.1547165437
 10
154.1215740718
 20
103.5297165437
 10
153.9434005479
 20
103.9897221426
 10
153.9434005479
 20
104.4792498761
 10
154.1215740718
 20
104.9392554749
 10
154.4564307629
 20
105.3142554749
 10
154.9075819625
 20
105.5590193417
 10
155.4206121774
 20
105.6440249405
 10
155.9336423924
 20
105.5590193417
 10
156.384793592
 20
105.3142554749
 10
156.7196502831
 20
104.9392554749
 10
156.897823807
 20
104.4792498761
 10
156.897823807
 20
103.9897221426
 10
156.7196502831
 20
103.5297165437
 10
156.384793592
 20
103.1547165437
 10
155.9336423924
 20
102.909952677
 10
155.4206121774
 20
102.8249470781
 10
154.9075819625
 20
102.909952677
  0
LWPOLYLINE
  5
138
330
1F
100
AcDbEntity
  8
0
  6
HIDDEN
 62
     7
370
     0
100
AcDbPolyline
 90
       22
 70
   128
 43
0.0
 10
154.7365718908
 20
101.8283595566
 10
154.2130033568
 20
102.09628493
 10
153.796736166
 20
102.4973247572
 10
153.5247574851
 20
102.9958448896
 10
153.4212338134
 20
103.5475496256
 10
153.4953636835
 20
104.1034175783
 10
153.7405603311
 20
104.6140574409
 10
154.1350369581
 20
105.0340966205
 10
154.6437425849
 20
105.3262127927
 10
155.2214764843
 20
105.4644501538
 10
155.8169044638
 20
105.4365257076
 10
156.3771201347
 20
105.2449206635
 10
156.852345876
 20
104.9066599707
 10
157.2003557951
 20
104.4517995762
 10
157.3902276835
 20
103.920755822
 10
157.4050905906
 20
103.3607142763
 10
157.2436238821
 20
102.821437088
 10
156.9201745834
 20
102.350841402
 10
156.4634825842
 20
101.99074171
 10
155.9141269728
 20
101.77313445
 10
155.3209204061
 20
101.717354982
 10
154.7365718908
 20
101.8283595566
  0
LWPOLYLINE
  5
139
330
1F
100
AcDbEntity
  8
0
  6
HIDDEN
 62
     7
370
     0
100
AcDbPolyline
 90
       21
 70
   128
 43
0.0
 10
154.7912951137
 20
101.9215465294
 10
154.2877950628
 20
102.183809699
 10
153.8951830439
 20
102.5794436383
 10
153.6518906569
 20
103.0697209408
 10
153.5817330557
 20
103.6066498482
 10
153.6915777552
 20
104.137672018
 10
153.9706723908
 20
104.6108073003
 10
154.3916972351
 20
104.9797419173
 10
154.9134394427
 20
105.2083619781
 10
155.4848272514
 20
105.2742885582
 10
156.0499292412
 20
105.1710683047
 10
156.553429292
 20
104.9088051351
 10
156.946041311
 20
104.5131711958
 10
157.189333698
 20
104.0228938933
 10
157.2594912992
 20
103.4859649859
 10
157.1496465997
 20
102.9549428161
 10
156.8705519641
 20
102.4818075338
 10
156.4495271198
 20
102.1128729168
 10
155.9277849122
 20
101.884252856
 10
155.3563971035
 20
101.8183262758
 10
154.7912951137
 20
101.9215465294
  0
LWPOLYLINE
  5
13A
330
1F
100
AcDbEntity
  8
0
  6
HIDDEN
 62
     7
370
     0
100
AcDbPolyline
 90
       22
 70
   128
 43
0.0
 10
154.7365718908
 20
102.0207458872
 10
154.2130033568
 20
102.2886712607
 10
153.796736166
 20
102.6897110879
 10
153.5247574851
 20
103.1882312202
 10
153.4212338134
 20
103.7399359562
 10
153.4953636835
 20
104.295803909
 10
153.7405603311
 20
104.8064437715
 10
154.1350369581
 20
105.2264829511
 10
154.6437425849
 20
105.5185991234
 10
155.2214764843
 20
105.6568364844
 10
155.8169044638
 20
105.6289120382
 10
156.3771201347
 20
105.4373069941
 10
156.852345876
 20
105.0990463013
 10
157.2003557951
 20
104.6441859068
 10
157.3902276835
 20
104.1131421526
 10
157.4050905906
 20
103.5531006069
 10
157.2436238821
 20
103.0138234186
 10
156.9201745834
 20
102.5432277326
 10
156.4634825842
 20
102.1831280406
 10
155.9141269728
 20
101.9655207806
 10
155.3209204061
 20
101.9097413127
 10
154.7365718908
 20
102.0207458872
  0
LWPOLYLINE
  5
13B
330
1F
100
AcDbEntity
  8
0
  6
HIDDEN
 62
     7
370
     0
100
AcDbPolyline
 90
       21
 70
   128
 43
0.0
 10
154.7912951137
 20
102.11393286
 10
154.2877950628
 20
102.3761960296
 10
153.8951830439
 20
102.7718299689
 10
153.6518906569
 20
103.2621072714
 10
153.5817330557
 20
103.7990361788
 10
153.6915777552
 20
104.3300583486
 10
153.9706723908
 20
104.803193631
 10
154.3916972351
 20
105.1721282479
 10
154.9134394427
 20
105.4007483087
 10
155.4848272514
 20
105.4666748889
 10
156.0499292412
 20
105.3634546353
 10
156.553429292
 20
105.1011914657
 10
156.946041311
 20
104.7055575264
 10
157.189333698
 20
104.2152802239
 10
157.2594912992
 20
103.6783513165
 10
157.1496465997
 20
103.1473291467
 10
156.8705519641
 20
102.6741938644
 10
156.4495271198
 20
102.3052592474
 10
155.9277849122
 20
102.0766391866
 10
155.3563971035
 20
102.0107126065
 10
154.7912951137
 20
102.11393286
  0
LWPOLYLINE
  5
13C
330
1F
100
AcDbEntity
  8
0
  6
HIDDEN
 62
     7
370
     0
100
AcDbPolyline
 90
       22
 70
   128
 43
0.0
 10
154.7365718908
 20
102.2131322178
 10
154.2130033568
 20
102.4810575913
 10
153.796736166
 20
102.8820974185
 10
153.5247574851
 20
103.3806175508
 10
153.4212338134
 20
103.9323222868
 10
153.4953636835
 20
104.4881902396
 10
153.7405603311
 20
104.9988301021
 10
154.1350369581
 20
105.4188692817
 10
154.6437425849
 20
105.710985454
 10
155.2214764843
 20
105.8492228151
 10
155.8169044638
 20
105.8212983688
 10
156.3771201347
 20
105.6296933248
 10
156.852345876
 20
105.291432632
 10
157.2003557951
 20
104.8365722374
 10
157.3902276835
 20
104.3055284833
 10
157.4050905906
 20
103.7454869375
 10
157.2436238821
 20
103.2062097493
 10
156.9201745834
 20
102.7356140632
 10
156.4634825842
 20
102.3755143712
 10
155.9141269728
 20
102.1579071113
 10
155.3209204061
 20
102.1021276433
 10
154.7365718908
 20
102.2131322178
  0
LWPOLYLINE
  5
13D
330
1F
100
AcDbEntity
  8
0
  6
HIDDEN
 62
     7
370
     0
100
AcDbPolyline
 90
       21
 70
   128
 43
0.0
 10
154.7912951137
 20
102.3063191906
 10
154.2877950628
 20
102.5685823602
 10
153.8951830439
 20
102.9642162995
 10
153.6518906569
 20
103.454493602
 10
153.5817330557
 20
103.9914225094
 10
153.6915777552
 20
104.5224446792
 10
153.9706723908
 20
104.9955799616
 10
154.3916972351
 20
105.3645145786
 10
154.9134394427
 20
105.5931346393
 10
155.4848272514
 20
105.6590612195
 10
156.0499292412
 20
105.555840966
 10
156.553429292
 20
105.2935777964
 10
156.946041311
 20
104.8979438571
 10
157.189333698
 20
104.4076665545
 10
157.2594912992
 20
103.8707376472
 10
157.1496465997
 20
103.3397154774
 10
156.8705519641
 20
102.866580195
 10
156.4495271198
 20
102.497645578
 10
155.9277849122
 20
102.2690255172
 10
155.3563971035
 20
102.2030989371
 10
154.7912951137
 20
102.3063191906
  0
LWPOLYLINE
  5
13E
330
1F
100
AcDbEntity
  8
0
  6
HIDDEN
 62
     7
370
     0
100
AcDbPolyline
 90
       22
 70
   128
 43
0.0
 10
154.7365718908
 20
102.4055185484
 10
154.2130033568
 20
102.6734439219
 10
153.796736166
 20
103.0744837491
 10
153.5247574851
 20
103.5730038814
 10
153.4212338134
 20
104.1247086174
 10
153.4953636835
 20
104.6805765702
 10
153.7405603311
 20
105.1912164327
 10
154.1350369581
 20
105.6112556123
 10
154.6437425849
 20
105.9033717846
 10
155.2214764843
 20
106.0416091457
 10
155.8169044638
 20
106.0136846994
 10
156.3771201347
 20
105.8220796554
 10
156.852345876
 20
105.4838189626
 10
157.2003557951
 20
105.028958568
 10
157.3902276835
 20
104.4979148139
 10
157.4050905906
 20
103.9378732682
 10
157.2436238821
 20
103.3985960799
 10
156.9201745834
 20
102.9280003938
 10
156.4634825842
 20
102.5679007019
 10
155.9141269728
 20
102.3502934419
 10
155.3209204061
 20
102.2945139739
 10
154.7365718908
 20
102.4055185484
  0
LWPOLYLINE
  5
13F
330
1F
100
AcDbEntity
  8
0
  6
HIDDEN
 62
     7
370
     0
100
AcDbPolyline
 90
       21
 70
   128
 43
0.0
 10
154.7912951137
 20
102.4987055212
 10
154.2877950628
 20
102.7609686908
 10
153.8951830439
 20
103.1566026301
 10
153.6518906569
 20
103.6468799326
 10
153.5817330557
 20
104.18380884
 10
153.6915777552
 20
104.7148310098
 10
153.9706723908
 20
105.1879662922
 10
154.3916972351
 20
105.5569009092
 10
154.9134394427
 20
105.78552097
 10
155.4848272514
 20
105.8514475501
 10
156.0499292412
 20
105.7482272966
 10
156.553429292
 20
105.485964127
 10
156.946041311
 20
105.0903301877
 10
157.189333698
 20
104.6000528852
 10
157.2594912992
 20
104.0631239778
 10
157.1496465997
 20
103.532101808
 10
156.8705519641
 20
103.0589665256
 10
156.4495271198
 20
102.6900319086
 10
155.9277849122
 20
102.4614118478
 10
155.3563971035
 20
102.3954852677
 10
154.7912951137
 20
102.4987055212
  0
LWPOLYLINE
  5
140
330
1F
100
AcDbEntity
  8
0
  6
HIDDEN
 62
     7
370
     0
100
AcDbPolyline
 90
       22
 70
   128
 43
0.0
 10
154.7365718908
 20
102.7304376846
 10
154.2130033568
 20
102.9983630581
 10
153.796736166
 20
103.3994028853
 10
153.5247574851
 20
103.8979230176
 10
153.4212338134
 20
104.4496277536
 10
153.4953636835
 20
105.0054957064
 10
153.7405603311
 20
105.5161355689
 10
154.1350369581
 20
105.9361747485
 10
154.6437425849
 20
106.2282909208
 10
155.2214764843
 20
106.3665282818
 10
155.8169044638
 20
106.3386038356
 10
156.3771201347
 20
106.1469987915
 10
156.852345876
 20
105.8087380988
 10
157.2003557951
 20
105.3538777042
 10
157.3902276835
 20
104.8228339501
 10
157.4050905906
 20
104.2627924043
 10
157.2436238821
 20
103.723515216
 10
156.9201745834
 20
103.25291953
 10
156.4634825842
 20
102.892819838
 10
155.9141269728
 20
102.675212578
 10
155.3209204061
 20
102.6194331101
 10
154.7365718908
 20
102.7304376846
  0
LWPOLYLINE
  5
141
330
1F
100
AcDbEntity
  8
0
  6
HIDDEN
 62
     7
370
     0
100
AcDbPolyline
 90
       19
 70
   128
 43
0.0
 10
154.9142907704
 20
103.2918755332
 10
154.4690391976
 20
103.5334386649
 10
154.1385613699
 20
103.9035348543
 10
153.9627177906
 20
104.357525039
 10
153.9627177906
 20
104.8406513024
 10
154.1385613699
 20
105.2946414871
 10
154.4690391976
 20
105.6647376765
 10
154.9142907704
 20
105.9063008082
 10
155.4206121774
 20
105.9901948035
 10
155.9269335845
 20
105.9063008082
 10
156.3721851573
 20
105.6647376765
 10
156.702662985
 20
105.2946414871
 10
156.8785065643
 20
104.8406513024
 10
156.8785065643
 20
104.357525039
 10
156.702662985
 20
103.9035348543
 10
156.3721851573
 20
103.5334386649
 10
155.9269335845
 20
103.2918755332
 10
155.4206121774
 20
103.207981538
 10
154.9142907704
 20
103.2918755332
  0
LWPOLYLINE
  5
142
330
1F
100
AcDbEntity
  8
0
  6
HIDDEN
 62
     7
370
     0
100
AcDbPolyline
 90
       19
 70
   128
 43
0.0
 10
147.7726405402
 20
104.1589469542
 10
147.5421128998
 20
104.6368369844
 10
147.2492286106
 20
104.9939836757
 10
146.9293138404
 20
105.1873098665
 10
146.6209550318
 20
105.1934975648
 10
146.3613448082
 20
105.0118004429
 10
146.1817959939
 20
104.6641338553
 10
146.1039648258
 20
104.1924315235
 10
146.1372388914
 20
103.6535877102
 10
146.2776048473
 20
103.1125949319
 10
146.5081324878
 20
102.6347049018
 10
146.801016777
 20
102.2775582104
 10
147.1209315472
 20
102.0842320197
 10
147.4292903557
 20
102.0780443214
 10
147.6889005794
 20
102.2597414432
 10
147.8684493937
 20
102.6074080308
 10
147.9462805618
 20
103.0791103627
 10
147.9130064962
 20
103.6179541759
 10
147.7726405402
 20
104.1589469542
  0
LWPOLYLINE
  5
143
330
1F
100
AcDbEntity
  8
0
  6
HIDDEN
 62
     7
370
     0
100
AcDbPolyline
 90
       22
 70
   128
 43
0.0
 10
148.1381619766
 20
104.3298510215
 10
147.8983739367
 20
104.8463686104
 10
147.5973825001
 20
105.259244159
 10
147.261932077
 20
105.531791863
 10
146.9218289095
 20
105.639794663
 10
146.6072926565
 20
105.573656036
 10
146.3462712444
 20
105.3392526895
 10
146.1619575713
 20
104.9574123893
 10
146.0707287157
 20
104.4620633219
 10
146.0806907619
 20
103.8972194256
 10
146.1909585383
 20
103.3130695595
 10
146.3917342692
 20
102.7615180026
 10
146.6651781496
 20
102.2915725313
 10
146.986993491
 20
101.9449898629
 10
147.3285855878
 20
101.7525653885
 10
147.6596024833
 20
101.7313968671
 10
147.9506318736
 20
101.8833652148
 10
148.1758145204
 20
102.1949673768
 10
148.3151419571
 20
102.6385161338
 10
148.3562343296
 20
103.174600232
 10
148.2954404003
 20
103.755586247
 10
148.1381619766
 20
104.3298510215
  0
LWPOLYLINE
  5
144
330
1F
100
AcDbEntity
  8
0
  6
HIDDEN
 62
     7
370
     0
100
AcDbPolyline
 90
       22
 70
   128
 43
0.0
 10
149.7968083915
 20
104.7270720952
 10
149.5570203516
 20
105.243589684
 10
149.256028915
 20
105.6564652326
 10
148.9205784919
 20
105.9290129367
 10
148.5804753243
 20
106.0370157366
 10
148.2659390713
 20
105.9708771096
 10
148.0049176593
 20
105.7364737631
 10
147.8206039861
 20
105.3546334629
 10
147.7293751306
 20
104.8592843955
 10
147.7393371768
 20
104.2944404992
 10
147.8496049532
 20
103.7102906331
 10
148.0503806841
 20
103.1587390763
 10
148.3238245645
 20
102.6887936049
 10
148.6456399058
 20
102.3422109365
 10
148.9872320027
 20
102.1497864621
 10
149.3182488982
 20
102.1286179408
 10
149.6092782885
 20
102.2805862884
 10
149.8344609352
 20
102.5921884504
 10
149.9737883719
 20
103.0357372074
 10
150.0148807445
 20
103.5718213057
 10
149.9540868152
 20
104.1528073206
 10
149.7968083915
 20
104.7270720952
  0
LINE
  5
145
330
1F
100
AcDbEntity
  8
0
  6
HIDDEN
 62
     7
370
     0
100
AcDbLine
 10
146.4202843122
 20
104.3733182775
 30
0.0
 11
146.48899893
 21
103.2605463333
 31
0.0
  0
LINE
  5
146
330
1F
100
AcDbEntity
  8
0
  6
HIDDEN
 62
     7
370
     0
100
AcDbLine
 10
147.0938373116
 20
102.5229989989
 30
0.0
 11
146.48899893
 21
103.2605463333
 31
0.0
  0
LINE
  5
147
330
1F
100
AcDbEntity
  8
0
  6
HIDDEN
 62
     7
370
     0
100
AcDbLine
 10
147.6299610754
 20
102.8982236087
 30
0.0
 11
147.0938373116
 21
102.5229989989
 31
0.0
  0
LINE
  5
148
330
1F
100
AcDbEntity
  8
0
  6
HIDDEN
 62
     7
370
     0
100
AcDbLine
 10
147.6299610754
 20
102.8982236087
 30
0.0
 11
147.5612464576
 21
104.0109955529
 31
0.0
  0
LINE
  5
149
330
1F
100
AcDbEntity
  8
0
  6
HIDDEN
 62
     7
370
     0
100
AcDbLine
 10
146.956408076
 20
104.7485428873
 30
0.0
 11
147.5612464576
 21
104.0109955529
 31
0.0
  0
LINE
  5
14A
330
1F
100
AcDbEntity
  8
0
  6
HIDDEN
 62
     7
370
     0
100
AcDbLine
 10
146.956408076
 20
104.7485428873
 30
0.0
 11
146.4202843122
 21
104.3733182775
 31
0.0
  0
LINE
  5
14B
330
1F
100
AcDbEntity
  8
0
  6
HIDDEN
 62
     7
370
     0
100
AcDbLine
 10
148.789974524
 20
104.3052575953
 30
0.0
 11
147.5612464576
 21
104.0109955529
 31
0.0
  0
LWPOLYLINE
  5
14C
330
1F
100
AcDbEntity
  8
0
  6
HIDDEN
 62
     7
370
     0
100
AcDbPolyline
 90
       17
 70
   128
 43
0.0
 10
150.0629498254
 20
104.6304875832
 10
149.8576732301
 20
105.0421220989
 10
149.5952919122
 20
105.3292498566
 10
149.3157510486
 20
105.448158258
 10
149.061608202
 20
105.3807445771
 10
148.8715543169
 20
105.1372719355
 10
148.7745233745
 20
104.754806836
 10
148.7852874561
 20
104.2915761227
 10
148.9022078279
 20
103.8181024727
 10
149.1074844232
 20
103.4064679571
 10
149.3698657412
 20
103.1193401994
 10
149.6494066047
 20
103.0004317979
 10
149.9035494513
 20
103.0678454788
 10
150.0936033364
 20
103.3113181204
 10
150.1906342788
 20
103.69378322
 10
150.1798701973
 20
104.1570139332
 10
150.0629498254
 20
104.6304875832
  0
LINE
  5
14D
330
1F
100
AcDbEntity
  8
0
  6
HIDDEN
 62
     7
370
     0
100
AcDbLine
 10
148.8586891418
 20
103.1924856511
 30
0.0
 11
147.6299610754
 21
102.8982236087
 31
0.0
  0
LINE
  5
14E
330
1F
100
AcDbEntity
  8
0
  6
HIDDEN
 62
     7
370
     0
100
AcDbLine
 10
148.322565378
 20
102.8172610413
 30
0.0
 11
147.7177269964
 21
103.5548083757
 31
0.0
  0
LINE
  5
14F
330
1F
100
AcDbEntity
  8
0
  6
HIDDEN
 62
     7
370
     0
100
AcDbLine
 10
147.6490123786
 20
104.6675803199
 30
0.0
 11
147.7177269964
 21
103.5548083757
 31
0.0
  0
LINE
  5
150
330
1F
100
AcDbEntity
  8
0
  6
HIDDEN
 62
     7
370
     0
100
AcDbLine
 10
148.1851361424
 20
105.0428049297
 30
0.0
 11
147.6490123786
 21
104.6675803199
 31
0.0
  0
LINE
  5
151
330
1F
100
AcDbEntity
  8
0
  6
HIDDEN
 62
     7
370
     0
100
AcDbLine
 10
148.8586891418
 20
103.1924856511
 30
0.0
 11
148.322565378
 21
102.8172610413
 31
0.0
  0
LINE
  5
152
330
1F
100
AcDbEntity
  8
0
  6
HIDDEN
 62
     7
370
     0
100
AcDbLine
 10
148.1851361424
 20
105.0428049297
 30
0.0
 11
148.789974524
 21
104.3052575953
 31
0.0
  0
LINE
  5
153
330
1F
100
AcDbEntity
  8
0
  6
HIDDEN
 62
     7
370
     0
100
AcDbLine
 10
148.8586891418
 20
103.1924856511
 30
0.0
 11
148.789974524
 21
104.3052575953
 31
0.0
  0
LINE
  5
154
330
1F
100
AcDbEntity
  8
0
  6
HIDDEN
 62
     7
370
     0
100
AcDbLine
 10
147.6490123786
 20
104.6675803199
 30
0.0
 11
146.4202843122
 21
104.3733182775
 31
0.0
  0
LINE
  5
155
330
1F
100
AcDbEntity
  8
0
  6
HIDDEN
 62
     7
370
     0
100
AcDbLine
 10
148.1851361424
 20
105.0428049297
 30
0.0
 11
146.956408076
 21
104.7485428873
 31
0.0
  0
LINE
  5
156
330
1F
100
AcDbEntity
  8
0
  6
HIDDEN
 62
     7
370
     0
100
AcDbLine
 10
147.7177269964
 20
103.5548083757
 30
0.0
 11
146.48899893
 21
103.2605463333
 31
0.0
  0
LINE
  5
157
330
1F
100
AcDbEntity
  8
0
  6
HIDDEN
 62
     7
370
     0
100
AcDbLine
 10
148.322565378
 20
102.8172610413
 30
0.0
 11
147.0938373116
 21
102.5229989989
 31
0.0
  0
LWPOLYLINE
  5
158
330
1F
100
AcDbEntity
  8
0
  6
HIDDEN
 62
     7
370
     0
100
AcDbPolyline
 90
       22
 70
   128
 43
0.0
 10
149.7968083915
 20
120.3408388966
 10
149.5570203516
 20
119.8243213078
 10
149.256028915
 20
119.4114457591
 10
148.9205784919
 20
119.1388980551
 10
148.5804753243
 20
119.0308952552
 10
148.2659390713
 20
119.0970338821
 10
148.0049176593
 20
119.3314372287
 10
147.8206039861
 20
119.7132775288
 10
147.7293751306
 20
120.2086265963
 10
147.7393371768
 20
120.7734704925
 10
147.8496049532
 20
121.3576203586
 10
148.0503806841
 20
121.9091719155
 10
148.3238245645
 20
122.3791173868
 10
148.6456399058
 20
122.7257000552
 10
148.9872320027
 20
122.9181245296
 10
149.3182488982
 20
122.939293051
 10
149.6092782885
 20
122.7873247034
 10
149.8344609352
 20
122.4757225413
 10
149.9737883719
 20
122.0321737844
 10
150.0148807445
 20
121.4960896861
 10
149.9540868152
 20
120.9151036711
 10
149.7968083915
 20
120.3408388966
  0
LWPOLYLINE
  5
159
330
1F
100
AcDbEntity
  8
0
  6
HIDDEN
 62
     7
370
     0
100
AcDbPolyline
 90
       17
 70
   128
 43
0.0
 10
150.0629498254
 20
120.4374234085
 10
149.8576732301
 20
120.0257888929
 10
149.5952919122
 20
119.7386611352
 10
149.3157510486
 20
119.6197527337
 10
149.061608202
 20
119.6871664146
 10
148.8715543169
 20
119.9306390562
 10
148.7745233745
 20
120.3131041558
 10
148.7852874561
 20
120.776334869
 10
148.9022078279
 20
121.249808519
 10
149.1074844232
 20
121.6614430347
 10
149.3698657412
 20
121.9485707924
 10
149.6494066047
 20
122.0674791939
 10
149.9035494513
 20
122.0000655129
 10
150.0936033364
 20
121.7565928713
 10
150.1906342788
 20
121.3741277718
 10
150.1798701973
 20
120.9108970585
 10
150.0629498254
 20
120.4374234085
  0
LWPOLYLINE
  5
15A
330
1F
100
AcDbEntity
  8
0
  6
HIDDEN
 62
     7
370
     0
100
AcDbPolyline
 90
       22
 70
   128
 43
0.0
 10
148.1381619766
 20
120.7380599702
 10
147.8983739367
 20
120.2215423814
 10
147.5973825001
 20
119.8086668328
 10
147.261932077
 20
119.5361191287
 10
146.9218289095
 20
119.4281163288
 10
146.6072926565
 20
119.4942549557
 10
146.3462712444
 20
119.7286583023
 10
146.1619575713
 20
120.1104986025
 10
146.0707287157
 20
120.6058476699
 10
146.0806907619
 20
121.1706915661
 10
146.1909585383
 20
121.7548414322
 10
146.3917342692
 20
122.3063929891
 10
146.6651781496
 20
122.7763384605
 10
146.986993491
 20
123.1229211289
 10
147.3285855878
 20
123.3153456032
 10
147.6596024833
 20
123.3365141246
 10
147.9506318736
 20
123.184545777
 10
148.1758145204
 20
122.8729436149
 10
148.3151419571
 20
122.429394858
 10
148.3562343296
 20
121.8933107597
 10
148.2954404003
 20
121.3123247447
 10
148.1381619766
 20
120.7380599702
  0
LINE
  5
15B
330
1F
100
AcDbEntity
  8
0
  6
HIDDEN
 62
     7
370
     0
100
AcDbLine
 10
147.6490123786
 20
120.4003306718
 30
0.0
 11
147.7177269964
 21
121.513102616
 31
0.0
  0
LINE
  5
15C
330
1F
100
AcDbEntity
  8
0
  6
HIDDEN
 62
     7
370
     0
100
AcDbLine
 10
148.322565378
 20
122.2506499504
 30
0.0
 11
147.7177269964
 21
121.513102616
 31
0.0
  0
LINE
  5
15D
330
1F
100
AcDbEntity
  8
0
  6
HIDDEN
 62
     7
370
     0
100
AcDbLine
 10
147.7177269964
 20
121.513102616
 30
0.0
 11
146.48899893
 21
121.8073646585
 31
0.0
  0
LINE
  5
15E
330
1F
100
AcDbEntity
  8
0
  6
HIDDEN
 62
     7
370
     0
100
AcDbLine
 10
147.0938373116
 20
122.5449119929
 30
0.0
 11
146.48899893
 21
121.8073646585
 31
0.0
  0
LINE
  5
15F
330
1F
100
AcDbEntity
  8
0
  6
HIDDEN
 62
     7
370
     0
100
AcDbLine
 10
146.4202843122
 20
120.6945927143
 30
0.0
 11
146.48899893
 21
121.8073646585
 31
0.0
  0
LWPOLYLINE
  5
160
330
1F
100
AcDbEntity
  8
0
  6
HIDDEN
 62
     7
370
     0
100
AcDbPolyline
 90
       19
 70
   128
 43
0.0
 10
147.7726405402
 20
120.9089640375
 10
147.5421128998
 20
120.4310740074
 10
147.2492286106
 20
120.073927316
 10
146.9293138404
 20
119.8806011253
 10
146.6209550318
 20
119.874413427
 10
146.3613448082
 20
120.0561105489
 10
146.1817959939
 20
120.4037771365
 10
146.1039648258
 20
120.8754794683
 10
146.1372388914
 20
121.4143232815
 10
146.2776048473
 20
121.9553160599
 10
146.5081324878
 20
122.43320609
 10
146.801016777
 20
122.7903527814
 10
147.1209315472
 20
122.9836789721
 10
147.4292903557
 20
122.9898666704
 10
147.6889005794
 20
122.8081695485
 10
147.8684493937
 20
122.4605029609
 10
147.9462805618
 20
121.9888006291
 10
147.9130064962
 20
121.4499568158
 10
147.7726405402
 20
120.9089640375
  0
LINE
  5
161
330
1F
100
AcDbEntity
  8
0
  6
HIDDEN
 62
     7
370
     0
100
AcDbLine
 10
146.956408076
 20
120.3193681045
 30
0.0
 11
146.4202843122
 21
120.6945927143
 31
0.0
  0
LINE
  5
162
330
1F
100
AcDbEntity
  8
0
  6
HIDDEN
 62
     7
370
     0
100
AcDbLine
 10
148.1851361424
 20
120.025106062
 30
0.0
 11
147.6490123786
 21
120.4003306718
 31
0.0
  0
LINE
  5
163
330
1F
100
AcDbEntity
  8
0
  6
HIDDEN
 62
     7
370
     0
100
AcDbLine
 10
147.6490123786
 20
120.4003306718
 30
0.0
 11
146.4202843122
 21
120.6945927143
 31
0.0
  0
LINE
  5
164
330
1F
100
AcDbEntity
  8
0
  6
HIDDEN
 62
     7
370
     0
100
AcDbLine
 10
148.8586891418
 20
121.8754253406
 30
0.0
 11
147.6299610754
 21
122.1696873831
 31
0.0
  0
LINE
  5
165
330
1F
100
AcDbEntity
  8
0
  6
HIDDEN
 62
     7
370
     0
100
AcDbLine
 10
147.6299610754
 20
122.1696873831
 30
0.0
 11
147.0938373116
 21
122.5449119929
 31
0.0
  0
LINE
  5
166
330
1F
100
AcDbEntity
  8
0
  6
HIDDEN
 62
     7
370
     0
100
AcDbLine
 10
148.322565378
 20
122.2506499504
 30
0.0
 11
147.0938373116
 21
122.5449119929
 31
0.0
  0
LINE
  5
167
330
1F
100
AcDbEntity
  8
0
  6
HIDDEN
 62
     7
370
     0
100
AcDbLine
 10
148.8586891418
 20
121.8754253406
 30
0.0
 11
148.322565378
 21
122.2506499504
 31
0.0
  0
LINE
  5
168
330
1F
100
AcDbEntity
  8
0
  6
HIDDEN
 62
     7
370
     0
100
AcDbLine
 10
148.789974524
 20
120.7626533964
 30
0.0
 11
147.5612464576
 21
121.0569154389
 31
0.0
  0
LINE
  5
169
330
1F
100
AcDbEntity
  8
0
  6
HIDDEN
 62
     7
370
     0
100
AcDbLine
 10
148.1851361424
 20
120.025106062
 30
0.0
 11
146.956408076
 21
120.3193681045
 31
0.0
  0
LINE
  5
16A
330
1F
100
AcDbEntity
  8
0
  6
HIDDEN
 62
     7
370
     0
100
AcDbLine
 10
146.956408076
 20
120.3193681045
 30
0.0
 11
147.5612464576
 21
121.0569154389
 31
0.0
  0
LINE
  5
16B
330
1F
100
AcDbEntity
  8
0
  6
HIDDEN
 62
     7
370
     0
100
AcDbLine
 10
148.1851361424
 20
120.025106062
 30
0.0
 11
148.789974524
 21
120.7626533964
 31
0.0
  0
LINE
  5
16C
330
1F
100
AcDbEntity
  8
0
  6
HIDDEN
 62
     7
370
     0
100
AcDbLine
 10
147.6299610754
 20
122.1696873831
 30
0.0
 11
147.5612464576
 21
121.0569154389
 31
0.0
  0
LINE
  5
16D
330
1F
100
AcDbEntity
  8
0
  6
HIDDEN
 62
     7
370
     0
100
AcDbLine
 10
148.8586891418
 20
121.8754253406
 30
0.0
 11
148.789974524
 21
120.7626533964
 31
0.0
  0
LINE
  5
16E
330
1F
100
AcDbEntity
  8
0
  6
HIDDEN
 62
     7
370
     0
100
AcDbLine
 10
157.4206121774
 20
101.6751124264
 30
0.0
 11
157.4206121774
 21
104.4964821277
 31
0.0
  0
LINE
  5
16F
330
1F
100
AcDbEntity
  8
0
  6
HIDDEN
 62
     7
370
     0
100
AcDbLine
 10
153.4206121774
 20
104.4795278935
 30
0.0
 11
153.4206121774
 21
102.9580718971
 31
0.0
  0
LINE
  5
170
330
1F
100
AcDbEntity
  8
0
  6
HIDDEN
 62
     7
370
     0
100
AcDbLine
 10
145.6206121774
 20
101.1400304203
 30
0.0
 11
147.5142115176
 21
101.5935192146
 31
0.0
  0
LINE
  5
171
330
1F
100
AcDbEntity
  8
0
  6
HIDDEN
 62
     7
370
     0
100
AcDbLine
 10
146.53603387
 20
105.6780226715
 30
0.0
 11
145.6206121774
 21
105.4587928319
 31
0.0
  0
LINE
  5
172
330
1F
100
AcDbEntity
  8
0
  6
HIDDEN
 62
     7
370
     0
100
AcDbLine
 10
147.5435729023
 20
102.0632753723
 30
0.0
 11
154.7506333368
 21
103.7892588356
 31
0.0
  0
LINE
  5
173
330
1F
100
AcDbEntity
  8
0
  6
HIDDEN
 62
     7
370
     0
100
AcDbLine
 10
154.7506333368
 20
107.1825721591
 30
0.0
 11
146.7750047506
 21
105.2725280885
 31
0.0
  0
LINE
  5
174
330
1F
100
AcDbEntity
  8
0
  6
HIDDEN
 62
     7
370
     0
100
AcDbLine
 10
157.0706121774
 20
104.5400519308
 30
0.0
 11
157.0706121774
 21
111.6791766246
 31
0.0
  0
LINE
  5
175
330
1F
100
AcDbEntity
  8
0
  6
HIDDEN
 62
     7
370
     0
100
AcDbLine
 10
153.7706121774
 20
104.5622913744
 30
0.0
 11
153.7706121774
 21
104.5400519308
 31
0.0
  0
LINE
  5
176
330
1F
100
AcDbEntity
  8
0
  6
HIDDEN
 62
     7
370
     0
100
AcDbLine
 10
153.7706121774
 20
111.6792070865
 30
0.0
 11
153.7706121774
 21
105.9401387238
 31
0.0
  0
ARC
  5
177
330
1F
100
AcDbEntity
  8
0
  6
HIDDEN
 62
     7
370
     0
100
AcDbCircle
 10
74.9706121774
 20
103.2339554959
 30
0.0
 40
0.7999999999999972
100
AcDbArc
 50
90.0
 51
180.0
  0
ARC
  5
178
330
1F
100
AcDbEntity
  8
0
  6
HIDDEN
 62
     7
370
     0
100
AcDbCircle
 10
74.9706121774
 20
121.8339554959
 30
0.0
 40
0.799999999999983
100
AcDbArc
 50
180.0
 51
270.0
  0
LINE
  5
179
330
1F
100
AcDbEntity
  8
0
  6
HIDDEN
 62
     7
370
     0
100
AcDbLine
 10
82.0629846082
 20
103.8089554959
 30
0.0
 11
82.9396720698
 21
103.8089554959
 31
0.0
  0
LINE
  5
17A
330
1F
100
AcDbEntity
  8
0
  6
HIDDEN
 62
     7
370
     0
100
AcDbLine
 10
82.9396720698
 20
121.2589554959
 30
0.0
 11
82.0629846082
 21
121.2589554959
 31
0.0
  0
ARC
  5
17B
330
1F
100
AcDbEntity
  8
0
  6
HIDDEN
 62
     7
370
     0
100
AcDbCircle
 10
82.9396720698
 20
104.2089554959
 30
0.0
 40
0.4000000000000057
100
AcDbArc
 50
270.0
 51
330.0
  0
ARC
  5
17C
330
1F
100
AcDbEntity
  8
0
  6
HIDDEN
 62
     7
370
     0
100
AcDbCircle
 10
82.9396720698
 20
120.8589554959
 30
0.0
 40
0.4000000000000057
100
AcDbArc
 50
30.0
 51
90.0
  0
ARC
  5
17D
330
1F
100
AcDbEntity
  8
0
  6
HIDDEN
 62
     7
370
     0
100
AcDbCircle
 10
82.0629846082
 20
104.2089554959
 30
0.0
 40
0.3999999999999915
100
AcDbArc
 50
255.0
 51
270.0
  0
ARC
  5
17E
330
1F
100
AcDbEntity
  8
0
  6
HIDDEN
 62
     7
370
     0
100
AcDbCircle
 10
82.0629846082
 20
120.8589554959
 30
0.0
 40
0.3999999999999915
100
AcDbArc
 50
90.0
 51
105.0
  0
LINE
  5
17F
330
1F
100
AcDbEntity
  8
0
  6
HIDDEN
 62
     7
370
     0
100
AcDbLine
 10
81.9594569901
 20
121.2453258264
 30
0.0
 11
81.1706121774
 21
121.0339554959
 31
0.0
  0
LINE
  5
180
330
1F
100
AcDbEntity
  8
0
  6
HIDDEN
 62
     7
370
     0
100
AcDbLine
 10
81.1706121774
 20
104.0339554959
 30
0.0
 11
81.9594569901
 21
103.8225851654
 31
0.0
  0
LINE
  5
181
330
1F
100
AcDbEntity
  8
0
  6
HIDDEN
 62
     7
370
     0
100
AcDbLine
 10
83.2860822313
 20
104.0089554959
 30
0.0
 11
84.1665413918
 21
105.5339554959
 31
0.0
  0
LINE
  5
182
330
1F
100
AcDbEntity
  8
0
  6
HIDDEN
 62
     7
370
     0
100
AcDbLine
 10
84.1665413918
 20
119.5339554959
 30
0.0
 11
83.2860822313
 21
121.0589554959
 31
0.0
  0
LINE
  5
183
330
1F
100
AcDbEntity
  8
0
  6
HIDDEN
 62
     7
370
     0
100
AcDbLine
 10
74.9706121774
 20
104.0339554959
 30
0.0
 11
81.1706121774
 21
104.0339554959
 31
0.0
  0
LINE
  5
184
330
1F
100
AcDbEntity
  8
0
  6
HIDDEN
 62
     7
370
     0
100
AcDbLine
 10
81.1706121774
 20
121.0339554959
 30
0.0
 11
74.9706121774
 21
121.0339554959
 31
0.0
  0
ARC
  5
185
330
1F
100
AcDbEntity
  8
0
  6
HIDDEN
 62
     7
370
     0
100
AcDbCircle
 10
226.4206121774
 20
120.5339554959
 30
0.0
 40
1.0
100
AcDbArc
 50
270.0
 51
0.0
  0
ARC
  5
186
330
1F
100
AcDbEntity
  8
0
  6
HIDDEN
 62
     7
370
     0
100
AcDbCircle
 10
226.4206121774
 20
104.5339554959
 30
0.0
 40
1.0
100
AcDbArc
 50
0.0
 51
90.0
  0
ARC
  5
187
330
1F
100
AcDbEntity
  8
0
  6
HIDDEN
 62
     7
370
     0
100
AcDbCircle
 10
210.3152901794
 20
119.2339554959
 30
0.0
 40
0.7999999999999982
100
AcDbArc
 50
75.0
 51
90.0
  0
ARC
  5
188
330
1F
100
AcDbEntity
  8
0
  6
HIDDEN
 62
     7
370
     0
100
AcDbCircle
 10
210.3152901794
 20
105.8339554959
 30
0.0
 40
0.7999999999999982
100
AcDbArc
 50
270.0
 51
285.0
  0
LINE
  5
189
330
1F
100
AcDbEntity
  8
0
  6
HIDDEN
 62
     7
370
     0
100
AcDbLine
 10
210.3152901794
 20
120.0339554959
 30
0.0
 11
209.7206121774
 21
120.0339554959
 31
0.0
  0
LINE
  5
18A
330
1F
100
AcDbEntity
  8
0
  6
HIDDEN
 62
     7
370
     0
100
AcDbLine
 10
209.7206121774
 20
105.0339554959
 30
0.0
 11
210.3152901794
 21
105.0339554959
 31
0.0
  0
ARC
  5
18B
330
1F
100
AcDbEntity
  8
0
  6
HIDDEN
 62
     7
370
     0
100
AcDbCircle
 10
209.7206121774
 20
119.2339554959
 30
0.0
 40
0.7999999999999972
100
AcDbArc
 50
90.0
 51
180.0
  0
ARC
  5
18C
330
1F
100
AcDbEntity
  8
0
  6
HIDDEN
 62
     7
370
     0
100
AcDbCircle
 10
209.7206121774
 20
105.8339554959
 30
0.0
 40
0.799999999999983
100
AcDbArc
 50
180.0
 51
270.0
  0
LINE
  5
18D
330
1F
100
AcDbEntity
  8
0
  6
HIDDEN
 62
     7
370
     0
100
AcDbLine
 10
210.5223454155
 20
105.0612148348
 30
0.0
 11
212.2866375812
 21
105.5339554959
 31
0.0
  0
LINE
  5
18E
330
1F
100
AcDbEntity
  8
0
  6
HIDDEN
 62
     7
370
     0
100
AcDbLine
 10
212.2866375812
 20
119.5339554959
 30
0.0
 11
210.5223454155
 21
120.0066961569
 31
0.0
  0
LINE
  5
18F
330
1F
100
AcDbEntity
  8
0
  6
HIDDEN
 62
     7
370
     0
100
AcDbLine
 10
84.1665413918
 20
105.5339554959
 30
0.0
 11
117.1706121774
 21
105.5339554959
 31
0.0
  0
LINE
  5
190
330
1F
100
AcDbEntity
  8
0
  6
HIDDEN
 62
     7
370
     0
100
AcDbLine
 10
117.1706121774
 20
119.5339554959
 30
0.0
 11
84.1665413918
 21
119.5339554959
 31
0.0
  0
LINE
  5
191
330
1F
100
AcDbEntity
  8
0
  6
HIDDEN
 62
     7
370
     0
100
AcDbLine
 10
226.4206121774
 20
119.5339554959
 30
0.0
 11
212.2866375812
 21
119.5339554959
 31
0.0
  0
LINE
  5
192
330
1F
100
AcDbEntity
  8
0
  6
HIDDEN
 62
     7
370
     0
100
AcDbLine
 10
212.2866375812
 20
105.5339554959
 30
0.0
 11
226.4206121774
 21
105.5339554959
 31
0.0
  0
LINE
  5
193
330
1F
100
AcDbEntity
  8
0
  6
HIDDEN
 62
     7
370
     0
100
AcDbLine
 10
117.1706121774
 20
105.5339554959
 30
0.0
 11
119.8744849631
 21
110.0339554959
 31
0.0
  0
LINE
  5
194
330
1F
100
AcDbEntity
  8
0
  6
HIDDEN
 62
     7
370
     0
100
AcDbLine
 10
119.8744849631
 20
115.0339554959
 30
0.0
 11
117.1706121774
 21
119.5339554959
 31
0.0
  0
LINE
  5
195
330
1F
100
AcDbEntity
  8
0
  6
HIDDEN
 62
     7
370
     0
100
AcDbLine
 10
208.9206121774
 20
115.0339554959
 30
0.0
 11
119.8744849631
 21
115.0339554959
 31
0.0
  0
LINE
  5
196
330
1F
100
AcDbEntity
  8
0
  6
HIDDEN
 62
     7
370
     0
100
AcDbLine
 10
119.8744849631
 20
110.0339554959
 30
0.0
 11
208.9206121774
 21
110.0339554959
 31
0.0
  0
LINE
  5
197
330
1F
100
AcDbEntity
  8
0
  6
HIDDEN
 62
     7
370
     0
100
AcDbLine
 10
157.0706121774
 20
113.3887039053
 30
0.0
 11
157.0706121774
 21
120.5278590609
 31
0.0
  0
LINE
  5
198
330
1F
100
AcDbEntity
  8
0
  6
HIDDEN
 62
     7
370
     0
100
AcDbLine
 10
153.7706121774
 20
119.127772268
 30
0.0
 11
153.7706121774
 21
113.3887343671
 31
0.0
  0
LINE
  5
199
330
1F
100
AcDbEntity
  8
0
  6
HIDDEN
 62
     7
370
     0
100
AcDbLine
 10
153.7706121774
 20
120.5278590609
 30
0.0
 11
153.7706121774
 21
120.5056196174
 31
0.0
  0
LINE
  5
19A
330
1F
100
AcDbEntity
  8
0
  6
HIDDEN
 62
     7
370
     0
100
AcDbLine
 10
146.7750047506
 20
119.7953829032
 30
0.0
 11
154.7506333368
 21
117.8853388327
 31
0.0
  0
LINE
  5
19B
330
1F
100
AcDbEntity
  8
0
  6
HIDDEN
 62
     7
370
     0
100
AcDbLine
 10
154.7506333368
 20
121.2786521561
 30
0.0
 11
147.5435729023
 21
123.0046356194
 31
0.0
  0
LINE
  5
19C
330
1F
100
AcDbEntity
  8
0
  6
HIDDEN
 62
     7
370
     0
100
AcDbLine
 10
157.4206121774
 20
120.571428864
 30
0.0
 11
157.4206121774
 21
123.3927985654
 31
0.0
  0
LINE
  5
19D
330
1F
100
AcDbEntity
  8
0
  6
HIDDEN
 62
     7
370
     0
100
AcDbLine
 10
153.4206121774
 20
122.1098390946
 30
0.0
 11
153.4206121774
 21
120.5883830983
 31
0.0
  0
LINE
  5
19E
330
1F
100
AcDbEntity
  8
0
  6
HIDDEN
 62
     7
370
     0
100
AcDbLine
 10
145.6206121774
 20
119.6091181598
 30
0.0
 11
146.53603387
 21
119.3898883202
 31
0.0
  0
LINE
  5
19F
330
1F
100
AcDbEntity
  8
0
  6
HIDDEN
 62
     7
370
     0
100
AcDbLine
 10
147.5142115176
 20
123.4743917771
 30
0.0
 11
145.6206121774
 21
123.9278805715
 31
0.0
  0
LINE
  5
1A0
330
1F
100
AcDbEntity
  8
0
  6
HIDDEN
 62
     7
370
     0
100
AcDbLine
 10
157.4206121774
 20
120.571428864
 30
0.0
 11
157.4206121774
 21
120.8963480002
 31
0.0
  0
LINE
  5
1A1
330
1F
100
AcDbEntity
  8
0
  6
HIDDEN
 62
     7
370
     0
100
AcDbLine
 10
153.4206121774
 20
120.8963480002
 30
0.0
 11
153.4206121774
 21
120.571428864
 31
0.0
  0
LINE
  5
1A2
330
1F
100
AcDbEntity
  8
0
  6
HIDDEN
 62
     7
370
     0
100
AcDbLine
 10
156.9206121774
 20
120.8334249824
 30
0.0
 11
156.9206121774
 21
121.8369033943
 31
0.0
  0
LINE
  5
1A3
330
1F
100
AcDbEntity
  8
0
  6
HIDDEN
 62
     7
370
     0
100
AcDbLine
 10
153.9206121774
 20
121.8369033943
 30
0.0
 11
153.9206121774
 21
120.8334249824
 31
0.0
  0
LINE
  5
1A4
330
1F
100
AcDbEntity
  8
0
  6
HIDDEN
 62
     7
370
     0
100
AcDbLine
 10
157.4206121774
 20
121.6658933227
 30
0.0
 11
157.4206121774
 21
121.80270138
 31
0.0
  0
LINE
  5
1A5
330
1F
100
AcDbEntity
  8
0
  6
HIDDEN
 62
     7
370
     0
100
AcDbLine
 10
153.4206121774
 20
121.80270138
 30
0.0
 11
153.4206121774
 21
121.6658933227
 31
0.0
  0
LINE
  5
1A6
330
1F
100
AcDbEntity
  8
0
  6
HIDDEN
 62
     7
370
     0
100
AcDbLine
 10
153.4206121774
 20
103.4020176691
 30
0.0
 11
153.4206121774
 21
103.2652096117
 31
0.0
  0
LINE
  5
1A7
330
1F
100
AcDbEntity
  8
0
  6
HIDDEN
 62
     7
370
     0
100
AcDbLine
 10
157.4206121774
 20
103.2652096117
 30
0.0
 11
157.4206121774
 21
103.4020176691
 31
0.0
  0
LINE
  5
1A8
330
1F
100
AcDbEntity
  8
0
  6
HIDDEN
 62
     7
370
     0
100
AcDbLine
 10
153.9206121774
 20
104.2344860093
 30
0.0
 11
153.9206121774
 21
103.2310075974
 31
0.0
  0
LINE
  5
1A9
330
1F
100
AcDbEntity
  8
0
  6
HIDDEN
 62
     7
370
     0
100
AcDbLine
 10
156.9206121774
 20
103.2310075974
 30
0.0
 11
156.9206121774
 21
104.2344860093
 31
0.0
  0
LINE
  5
1AA
330
1F
100
AcDbEntity
  8
0
  6
HIDDEN
 62
     7
370
     0
100
AcDbLine
 10
153.4206121774
 20
104.4964821277
 30
0.0
 11
153.4206121774
 21
104.1715629916
 31
0.0
  0
LINE
  5
1AB
330
1F
100
AcDbEntity
  8
0
  6
HIDDEN
 62
     7
370
     0
100
AcDbLine
 10
157.4206121774
 20
104.1715629916
 30
0.0
 11
157.4206121774
 21
104.4964821277
 31
0.0
  0
CIRCLE
  5
1AC
330
1F
100
AcDbEntity
  8
0
  6
HIDDEN
 62
     7
370
     0
100
AcDbCircle
 10
155.4206121774
 20
121.2554691507
 30
0.0
 40
1.499999999999992
  0
ARC
  5
1AD
330
1F
100
AcDbEntity
  8
0
  6
HIDDEN
 62
     7
370
     0
100
AcDbCircle
 10
155.4206121774
 20
103.8124418411
 30
0.0
 40
1.500000000000018
100
AcDbArc
 50
71.1182787691
 51
191.5274417164
  0
ARC
  5
1AE
330
1F
100
AcDbEntity
  8
0
  6
HIDDEN
 62
     7
370
     0
100
AcDbCircle
 10
155.4206121774
 20
103.8124418411
 30
0.0
 40
1.500000000000005
100
AcDbArc
 50
336.6722113243
 51
71.1182787691
  0
LINE
  5
1AF
330
1F
100
AcDbEntity
  8
0
  6
HIDDEN
 62
     7
370
     0
100
AcDbLine
 10
147.6753672584
 20
101.734941287
 30
0.0
 11
149.3340136733
 21
102.1321623606
 31
0.0
  0
LINE
  5
1B0
330
1F
100
AcDbEntity
  8
0
  6
HIDDEN
 62
     7
370
     0
100
AcDbLine
 10
148.4024159136
 20
106.0221656529
 30
0.0
 11
146.7437694987
 21
105.6249445793
 31
0.0
  0
LINE
  5
1B1
330
1F
100
AcDbEntity
  8
0
  6
HIDDEN
 62
     7
370
     0
100
AcDbLine
 10
149.8969774207
 20
102.7431378499
 30
0.0
 11
150.1255554687
 21
103.3905286799
 31
0.0
  0
LINE
  5
1B2
330
1F
100
AcDbEntity
  8
0
  6
HIDDEN
 62
     7
370
     0
100
AcDbLine
 10
149.6781149526
 20
105.2588726755
 30
0.0
 11
149.181072595
 21
105.7324882428
 31
0.0
  0
LINE
  5
1B3
330
1F
100
AcDbEntity
  8
0
  6
HIDDEN
 62
     7
370
     0
100
AcDbLine
 10
149.181072595
 20
119.3354227489
 30
0.0
 11
149.6781149526
 21
119.8090383162
 31
0.0
  0
LINE
  5
1B4
330
1F
100
AcDbEntity
  8
0
  6
HIDDEN
 62
     7
370
     0
100
AcDbLine
 10
150.1255554687
 20
121.6773823118
 30
0.0
 11
149.8969774207
 21
122.3247731419
 31
0.0
  0
LINE
  5
1B5
330
1F
100
AcDbEntity
  8
0
  6
HIDDEN
 62
     7
370
     0
100
AcDbLine
 10
146.7437694987
 20
119.4429664125
 30
0.0
 11
148.4024159136
 21
119.0457453388
 31
0.0
  0
LINE
  5
1B6
330
1F
100
AcDbEntity
  8
0
  6
HIDDEN
 62
     7
370
     0
100
AcDbLine
 10
149.3340136733
 20
122.9357486312
 30
0.0
 11
147.6753672584
 21
123.3329697048
 31
0.0
  0
DIMENSION
  5
1B7
330
1F
100
AcDbEntity
  8
VERMASSUNG
100
AcDbDimension
  2
_D
 10
64.1706121774
 20
144.2839554959
 30
0.0
 11
64.1706121774
 21
112.5339554959
 31
0.0
 70
   160
  1
ISO 40 %%c<>
 71
     2
 42
-1.0
  3
SLDDIMSTYLE0
100
AcDbAlignedDimension
 13
160.8706121774
 23
80.7839554959
 33
0.0
 14
160.8706121774
 24
144.2839554959
 34
0.0
 50
90.0
100
AcDbRotatedDimension
  0
DIMENSION
  5
1C4
330
1F
100
AcDbEntity
  8
VERMASSUNG
100
AcDbDimension
  2
_D_1
 10
161.4706121774
 20
150.5378511705
 30
0.0
 11
194.4456121774
 21
150.5378511705
 31
0.0
 70
   160
  1
<>
 71
     2
 42
-1.0
  3
SLDDIMSTYLE0
100
AcDbAlignedDimension
 13
227.4206121774
 23
124.8339554959
 33
0.0
 14
161.4706121774
 24
137.705367852
 34
0.0
100
AcDbRotatedDimension
  0
DIMENSION
  5
1CE
330
1F
100
AcDbEntity
  8
VERMASSUNG
100
AcDbDimension
  2
_D_2
 10
142.4206121774
 20
156.5378511705
 30
0.0
 11
184.9206121774
 21
156.5378511705
 31
0.0
 70
   160
  1
<>
 71
     2
 42
-1.0
  3
SLDDIMSTYLE0
100
AcDbAlignedDimension
 13
227.4206121774
 23
124.8339554959
 33
0.0
 14
142.4206121774
 24
134.7589554959
 34
0.0
100
AcDbRotatedDimension
  0
DIMENSION
  5
1D8
330
1F
100
AcDbEntity
  8
VERMASSUNG
100
AcDbDimension
  2
_D_3
 10
74.1706121774
 20
162.1856166053
 30
0.0
 11
150.7956121774
 21
162.1856166053
 31
0.0
 70
   160
  1
<>
 71
     2
 42
-1.0
  3
SLDDIMSTYLE0
100
AcDbAlignedDimension
 13
227.4206121774
 23
124.8339554959
 33
0.0
 14
74.1706121774
 24
123.9410860929
 34
0.0
100
AcDbRotatedDimension
  0
DIMENSION
  5
1E2
330
1F
100
AcDbEntity
  8
VERMASSUNG
100
AcDbDimension
  2
_D_4
 10
237.0738076662
 20
105.5339554959
 30
0.0
 11
237.0738076662
 21
112.5339554959
 31
0.0
 70
   160
  1
%%c<>
 71
     2
 42
-1.0
  3
SLDDIMSTYLE1
100
AcDbAlignedDimension
 13
226.4206121774
 23
119.5339554959
 33
0.0
 14
226.4206121774
 24
105.5339554959
 34
0.0
 50
90.0
100
AcDbRotatedDimension
  0
DIMENSION
  5
1F0
330
1F
100
AcDbEntity
  8
VERMASSUNG
100
AcDbDimension
  2
_D_5
 10
243.3738076662
 20
100.0339554959
 30
0.0
 11
243.3738076662
 21
112.5339554959
 31
0.0
 70
   160
  1
WH %%c<>
 71
     2
 42
-1.0
  3
SLDDIMSTYLE1
100
AcDbAlignedDimension
 13
227.2206121774
 23
125.0339554959
 33
0.0
 14
227.2206121774
 24
100.0339554959
 34
0.0
 50
90.0
100
AcDbRotatedDimension
  0
LINE
  5
1FC
330
1F
100
AcDbEntity
  8
VERMASSUNG
  6
CENTERX2
370
     0
100
AcDbLine
 10
70.9595219519
 20
112.5339554959
 30
0.0
 11
230.1715520271
 21
112.5339554959
 31
0.0
  0
LINE
  5
1FD
330
1F
100
AcDbEntity
  8
0
  6
Continuous
 62
     7
370
    15
100
AcDbLine
 10
271.6960227739
 20
28.3739720794
 30
0.0
 11
271.7667219595
 21
28.4147991195
 31
0.0
  0
LINE
  5
1FE
330
1F
100
AcDbEntity
  8
0
  6
Continuous
 62
     7
370
    15
100
AcDbLine
 10
276.1147218767
 20
35.9465719706
 30
0.0
 11
276.1147218767
 21
36.0282127818
 31
0.0
  0
LINE
  5
1FF
330
1F
100
AcDbEntity
  8
0
  6
Continuous
 62
     7
370
    15
100
AcDbLine
 10
274.8200505337
 20
38.8897428222
 30
0.0
 11
252.634575274
 21
51.6971450764
 31
0.0
  0
LINE
  5
200
330
1F
100
AcDbEntity
  8
0
  6
Continuous
 62
     7
370
    15
100
AcDbLine
 10
246.385083195
 20
40.8715342967
 30
0.0
 11
268.5705584548
 21
28.0641320424
 31
0.0
  0
SPLINE
  5
201
330
1F
100
AcDbEntity
  8
0
  6
Continuous
 62
     7
370
    15
100
AcDbSpline
210
0.0
220
0.0
230
1.0
 70
     8
 71
     3
 72
    21
 73
    17
 74
     0
 42
0.000000001
 43
0.00000001
 40
0.0
 40
0.0
 40
0.0
 40
0.0
 40
0.0271478914836097
 40
0.1044589196835086
 40
0.1761146895864981
 40
0.2526001863188149
 40
0.3268045155644725
 40
0.4006260055227319
 40
0.4746240278335275
 40
0.5490171779881116
 40
0.6237465971085072
 40
0.6986639425985428
 40
0.7735954668097978
 40
0.848302547224324
 40
0.9226047657250321
 40
1.0
 40
1.0
 40
1.0
 40
1.0
 10
269.659332487327
 20
30.62318493873113
 30
0.0
 10
269.6307478095836
 20
30.63675316554531
 30
0.0
 10
269.520760462744
 20
30.68896062025268
 30
0.0
 10
269.3760086449863
 20
30.85694568807435
 30
0.0
 10
269.2138710572196
 20
31.14716478945994
 30
0.0
 10
269.1088436503207
 20
31.53274334587022
 30
0.0
 10
269.0714952559296
 20
32.0023388070871
 30
0.0
 10
269.1098142719933
 20
32.52628754085253
 30
0.0
 10
269.2246653441955
 20
33.08871530276891
 30
0.0
 10
269.4145418308671
 20
33.67101925399261
 30
0.0
 10
269.6746170887305
 20
34.25304539722989
 30
0.0
 10
269.996691798498
 20
34.81389306625211
 30
0.0
 10
270.3695599952416
 20
35.33403791831954
 30
0.0
 10
270.7789144900599
 20
35.79265688600516
 30
0.0
 10
271.2169160769971
 20
36.18924996724198
 30
0.0
 10
271.5119279665875
 20
36.37737664152884
 30
0.0
 10
271.6624414649421
 20
36.4733578710313
 30
0.0
  0
SPLINE
  5
202
330
1F
100
AcDbEntity
  8
0
  6
Continuous
 62
     7
370
    15
100
AcDbSpline
210
0.0
220
0.0
230
1.0
 70
     8
 71
     3
 72
    12
 73
     8
 74
     0
 42
0.000000001
 43
0.00000001
 40
0.0
 40
0.0
 40
0.0
 40
0.0
 40
0.1139810479814557
 40
0.3315399805445043
 40
0.5490110194094768
 40
0.7699600249243242
 40
0.9999999999999999
 40
0.9999999999999999
 40
0.9999999999999999
 40
0.9999999999999999
 10
271.6624414649422
 20
36.4733578710313
 30
0.0
 10
271.7354639529514
 20
36.51321377515355
 30
0.0
 10
271.947866582008
 20
36.62914379958554
 30
0.0
 10
272.2833138938209
 20
36.75032867443151
 30
0.0
 10
272.6392743428195
 20
36.80420548249222
 30
0.0
 10
272.9432110848947
 20
36.77798925855157
 30
0.0
 10
273.1000236115798
 20
36.69989095983355
 30
0.0
 10
273.1800103768506
 20
36.66005466346325
 30
0.0
  0
SPLINE
  5
203
330
1F
100
AcDbEntity
  8
0
  6
Continuous
 62
     7
370
    15
100
AcDbSpline
210
0.0
220
0.0
230
1.0
 70
     8
 71
     3
 72
    29
 73
    25
 74
     0
 42
0.000000001
 43
0.00000001
 40
0.0
 40
0.0
 40
0.0
 40
0.0
 40
0.0088377158045942
 40
0.0560448327979382
 40
0.1034527233236685
 40
0.151037997205182
 40
0.1987547201682011
 40
0.2465540249505216
 40
0.2943955433500491
 40
0.3422498625222013
 40
0.3900966697397792
 40
0.4379287708846107
 40
0.4857436955047725
 40
0.5335418637593671
 40
0.5813253714770926
 40
0.6290972381931997
 40
0.6768609683974994
 40
0.7246203114450455
 40
0.7723791404834721
 40
0.8201407106214734
 40
0.8679083770439018
 40
0.9156861371336198
 40
0.9634779435115134
 40
0.9999999999999999
 40
0.9999999999999999
 40
0.9999999999999999
 40
0.9999999999999999
 10
248.6189490143671
 20
64.48960767852866
 30
0.0
 10
248.5668475777822
 20
64.4971849681295
 30
0.0
 10
248.2364436174718
 20
64.54523674283358
 30
0.0
 10
247.5890921852672
 20
64.52862228949341
 30
0.0
 10
246.6820138924225
 20
64.43385280978768
 30
0.0
 10
245.7439507353459
 20
64.22163650794482
 30
0.0
 10
244.7865608085111
 20
63.90567518435632
 30
0.0
 10
243.8160572162217
 20
63.48502201790038
 30
0.0
 10
242.8402749552383
 20
62.9638997422782
 30
0.0
 10
241.8665737462815
 20
62.34623420811719
 30
0.0
 10
240.9022639823623
 20
61.63696719548182
 30
0.0
 10
239.9544373907702
 20
60.84157874724771
 30
0.0
 10
239.0299855360529
 20
59.96611860406386
 30
0.0
 10
238.1356084265092
 20
59.01716512163225
 30
0.0
 10
237.2777868097545
 20
58.00179418463063
 30
0.0
 10
236.4627464730836
 20
56.92753528475263
 30
0.0
 10
235.6964126726254
 20
55.80232314251969
 30
0.0
 10
234.9843905738812
 20
54.63444941096606
 30
0.0
 10
234.3318485332917
 20
53.432492613797
 30
0.0
 10
233.7437773939446
 20
52.20532422055093
 30
0.0
 10
233.2238383421842
 20
50.96178659365522
 30
0.0
 10
232.7784911955684
 20
49.71156042872995
 30
0.0
 10
232.431126938466
 20
48.55999129993015
 30
0.0
 10
232.2650632037877
 20
47.8342615823006
 30
0.0
 10
232.1931297293576
 20
47.51989878546558
 30
0.0
  0
SPLINE
  5
204
330
1F
100
AcDbEntity
  8
0
  6
Continuous
 62
     7
370
    15
100
AcDbSpline
210
0.0
220
0.0
230
1.0
 70
     8
 71
     3
 72
     9
 73
     5
 74
     0
 42
0.000000001
 43
0.00000001
 40
0.0
 40
0.0
 40
0.0
 40
0.0
 40
0.2330993185055978
 40
1.0
 40
1.0
 40
1.0
 40
1.0
 10
249.4954045177105
 20
64.34895049537089
 30
0.0
 10
249.4297069252833
 20
64.36589344483757
 30
0.0
 10
249.147863147925
 20
64.43857898323941
 30
0.0
 10
248.8485174410058
 20
64.46745932485888
 30
0.0
 10
248.6189490143671
 20
64.48960767852866
 30
0.0
  0
LINE
  5
205
330
1F
100
AcDbEntity
  8
0
  6
Continuous
 62
     7
370
    15
100
AcDbLine
 10
241.9552568783
 20
62.3862207033
 30
0.0
 11
220.6492450183
 21
70.0640628365
 31
0.0
  0
LINE
  5
206
330
1F
100
AcDbEntity
  8
0
  6
Continuous
 62
     7
370
    15
100
AcDbLine
 10
214.4844632691
 20
59.3851905513
 30
0.0
 11
234.7807004343
 21
42.2472156756
 31
0.0
  0
SPLINE
  5
207
330
1F
100
AcDbEntity
  8
0
  6
Continuous
 62
     7
370
    15
100
AcDbSpline
210
0.0
220
0.0
230
1.0
 70
     8
 71
     3
 72
    18
 73
    14
 74
     0
 42
0.000000001
 43
0.00000001
 40
0.0
 40
0.0
 40
0.0
 40
0.0
 40
0.0297112328556219
 40
0.1345066000939634
 40
0.2396868011593658
 40
0.3451483554052112
 40
0.4507841453988897
 40
0.5565070459433753
 40
0.6622532892427969
 40
0.7679811067096094
 40
0.8736756492266619
 40
0.9793321155884395
 40
1.0
 40
1.0
 40
1.0
 40
1.0
 10
243.5307027465076
 20
32.51502625749432
 30
0.0
 10
243.6137139644534
 20
32.51432158718258
 30
0.0
 10
243.989516501824
 20
32.51113145339448
 30
0.0
 10
244.6908254113532
 20
32.61444848554899
 30
0.0
 10
245.6281068118335
 20
32.82690605309669
 30
0.0
 10
246.5875736204237
 20
33.15382723672697
 30
0.0
 10
247.5585918081414
 20
33.58230509907144
 30
0.0
 10
248.5345764877873
 20
34.11160527157718
 30
0.0
 10
249.5075989867503
 20
34.73730881201857
 30
0.0
 10
250.4714328749719
 20
35.452571688349
 30
0.0
 10
251.4153091383343
 20
36.2596886039046
 30
0.0
 10
252.0966054018388
 20
36.89172742097693
 30
0.0
 10
252.4507128508835
 20
37.27394151639973
 30
0.0
 10
252.5086482511554
 20
37.33647543560302
 30
0.0
  0
SPLINE
  5
208
330
1F
100
AcDbEntity
  8
0
  6
Continuous
 62
     7
370
    15
100
AcDbSpline
210
0.0
220
0.0
230
1.0
 70
     8
 71
     3
 72
     9
 73
     5
 74
     0
 42
0.000000001
 43
0.00000001
 40
0.0
 40
0.0
 40
0.0
 40
0.0
 40
0.3521126033274005
 40
0.9999999999999999
 40
0.9999999999999999
 40
0.9999999999999999
 40
0.9999999999999999
 10
258.7554450670458
 20
48.16364215762133
 30
0.0
 10
258.8062138614454
 20
48.33131762974013
 30
0.0
 10
258.9503972673213
 20
48.80751606891637
 30
0.0
 10
259.0495025412009
 20
49.27672427927438
 30
0.0
 10
259.1137115990912
 20
49.58071836518063
 30
0.0
  0
LINE
  5
209
330
1F
100
AcDbEntity
  8
0
  6
Continuous
 62
     7
370
    15
100
AcDbLine
 10
238.9467219531
 20
34.0519172016
 30
0.0
 11
240.3001820881
 21
33.2705812969
 31
0.0
  0
LINE
  5
20A
330
1F
100
AcDbEntity
  8
0
  6
Continuous
 62
     7
370
    15
100
AcDbLine
 10
235.1206249159
 20
36.2606760064
 30
0.0
 11
236.4564073813
 21
35.4895452031
 31
0.0
  0
SPLINE
  5
20B
330
1F
100
AcDbEntity
  8
0
  6
Continuous
 62
     7
370
    15
100
AcDbSpline
210
0.0
220
0.0
230
1.0
 70
     8
 71
     3
 72
    10
 73
     6
 74
     0
 42
0.000000001
 43
0.00000001
 40
0.0
 40
0.0
 40
0.0
 40
0.0
 40
0.1903929418445907
 40
0.751510614859745
 40
1.0
 40
1.0
 40
1.0
 40
1.0
 10
232.2009236141704
 20
40.2581934817411
 30
0.0
 10
232.2322175465279
 20
40.15307705149795
 30
0.0
 10
232.3557395748105
 20
39.73816611856864
 30
0.0
 10
232.5557926908488
 20
39.21568381330376
 30
0.0
 10
232.7648958621322
 20
38.8413966371434
 30
0.0
 10
232.8290750437978
 20
38.72651820404047
 30
0.0
  0
SPLINE
  5
20C
330
1F
100
AcDbEntity
  8
0
  6
Continuous
 62
     7
370
    15
100
AcDbSpline
210
0.0
220
0.0
230
1.0
 70
     8
 71
     3
 72
    10
 73
     6
 74
     0
 42
0.000000001
 43
0.00000001
 40
0.0
 40
0.0
 40
0.0
 40
0.0
 40
0.0348703946806894
 40
0.6758503673521483
 40
1.0
 40
1.0
 40
1.0
 40
1.0
 10
258.2450786622596
 20
58.70923508713473
 30
0.0
 10
258.2374256744923
 20
58.72346828844917
 30
0.0
 10
258.0890971384578
 20
58.99933308507809
 30
0.0
 10
257.817374691241
 20
59.35170867610496
 30
0.0
 10
257.5321080079885
 20
59.65930853345306
 30
0.0
 10
257.4362979840566
 20
59.76261940508354
 30
0.0
  0
SPLINE
  5
20D
330
1F
100
AcDbEntity
  8
0
  6
Continuous
 62
     7
370
    15
100
AcDbSpline
210
0.0
220
0.0
230
1.0
 70
     8
 71
     3
 72
    10
 73
     6
 74
     0
 42
0.000000001
 43
0.00000001
 40
0.0
 40
0.0
 40
0.0
 40
0.0
 40
0.1721401549877471
 40
0.5979590197368645
 40
0.9999999999999999
 40
0.9999999999999999
 40
0.9999999999999999
 40
0.9999999999999999
 10
259.1074970523674
 20
56.72519081528962
 30
0.0
 10
259.0702479992016
 20
56.8504712444916
 30
0.0
 10
258.9408568799785
 20
57.28565478805913
 30
0.0
 10
258.670140090617
 20
57.96672390890615
 30
0.0
 10
258.3840265431106
 20
58.46651639322337
 30
0.0
 10
258.2450786622596
 20
58.70923508713473
 30
0.0
  0
SPLINE
  5
20E
330
1F
100
AcDbEntity
  8
0
  6
Continuous
 62
     7
370
    15
100
AcDbSpline
210
0.0
220
0.0
230
1.0
 70
     8
 71
     3
 72
    30
 73
    26
 74
     0
 42
0.000000001
 43
0.00000001
 40
0.0
 40
0.0
 40
0.0
 40
0.0
 40
0.025972793752001
 40
0.07025822856563
 40
0.1151905867043077
 40
0.1611449815125334
 40
0.2080323000866375
 40
0.2554901445087425
 40
0.3031610506177875
 40
0.3507928961623264
 40
0.3983332282526825
 40
0.4457880920416413
 40
0.4931887904953488
 40
0.5405763914557565
 40
0.5879910681604613
 40
0.6354691308282977
 40
0.6830577880113167
 40
0.7308007187785852
 40
0.7640876261949137
 40
0.7894887188106182
 40
0.837537872100846
 40
0.8855821717681359
 40
0.9331394312219098
 40
0.9797124501063338
 40
1.0
 40
1.0
 40
1.0
 40
1.0
 10
220.7279030661722
 20
70.01894761977823
 30
0.0
 10
220.6317643225554
 20
70.05943181328058
 30
0.0
 10
220.3717022788825
 20
70.16894439585226
 30
0.0
 10
219.897867928221
 20
70.22819391648058
 30
0.0
 10
219.3250252622799
 20
70.20765588612042
 30
0.0
 10
218.7241391743158
 20
70.0749905666604
 30
0.0
 10
218.1065718041774
 20
69.8367686755816
 30
0.0
 10
217.4834426585533
 20
69.49453178120774
 30
0.0
 10
216.8684705226839
 20
69.05595749514778
 30
0.0
 10
216.2743585377099
 20
68.53083795843632
 30
0.0
 10
215.7124426224597
 20
67.93050205141415
 30
0.0
 10
215.1926616741827
 20
67.26677663711976
 30
0.0
 10
214.7241440666025
 20
66.55220032036523
 30
0.0
 10
214.3152389504758
 20
65.79993696009453
 30
0.0
 10
213.9734549850361
 20
65.02365861820842
 30
0.0
 10
213.7053313991806
 20
64.2372448310999
 30
0.0
 10
213.5164042806233
 20
63.45457364439536
 30
0.0
 10
213.4219856660313
 20
62.76724289555427
 30
0.0
 10
213.3990019990431
 20
62.2196266570432
 30
0.0
 10
213.4165596054305
 20
61.68954543689023
 30
0.0
 10
213.4954830957708
 20
61.11716700262948
 30
0.0
 10
213.6799828079632
 20
60.49877650760648
 30
0.0
 10
213.9592800403272
 20
59.96357453922946
 30
0.0
 10
214.2436545935663
 20
59.5823488988855
 30
0.0
 10
214.4583415415059
 20
59.42125804821666
 30
0.0
 10
214.52348415467
 20
59.37237813693137
 30
0.0
  0
LINE
  5
20F
330
1F
100
AcDbEntity
  8
0
  6
Continuous
 62
     7
370
    15
100
AcDbLine
 10
266.5663569875
 20
40.386620454
 30
0.0
 11
266.5663569875
 21
39.9783500481
 31
0.0
  0
LINE
  5
210
330
1F
100
AcDbEntity
  8
0
  6
Continuous
 62
     7
370
    15
100
AcDbLine
 10
270.5663569875
 20
39.9783500481
 30
0.0
 11
270.5663569875
 21
40.386620454
 31
0.0
  0
LWPOLYLINE
  5
211
330
1F
100
AcDbEntity
  8
0
  6
Continuous
 62
     7
370
    15
100
AcDbPolyline
 90
       44
 70
   128
 43
0.0
 10
271.7660151724
 20
38.4578430198
 10
271.1328383981
 20
38.0388031629
 10
270.5131566875
 20
37.521665042
 10
269.9201774803
 20
36.9174505582
 10
269.3665390989
 20
36.2390374943
 10
268.8640413841
 20
35.500885047
 10
268.4233942024
 20
34.718725654
 10
268.0539891833
 20
33.909229685
 10
267.7636995536
 20
33.089650141
 10
267.5587123327
 20
32.2774549372
 10
267.4433964673
 20
31.4899546042
 10
267.4202097148
 20
30.7439333445
 10
267.4896462608
 20
30.0552913058
 10
267.6502261856
 20
29.4387056978
 10
267.8985270071
 20
28.9073179722
 10
268.2292566243
 20
28.4724537357
 10
268.6353661096
 20
28.1433813647
 10
269.1081999444
 20
27.9271144652
 10
269.6376804964
 20
27.8282623909
 10
270.2125228069
 20
27.8489320021
 10
270.8204751101
 20
27.9886827619
 10
271.4485799581
 20
28.2445361255
 10
272.0834503866
 20
28.6110390227
 10
272.7115552346
 20
29.0803800804
 10
273.3195075378
 20
29.6425561089
 10
273.8943498484
 20
30.2855853022
 10
274.4238304004
 20
30.9957626094
 10
274.8966642352
 20
31.7579518342
 10
275.3027737204
 20
32.5559082366
 10
275.6335033376
 20
33.3726247611
 10
275.8818041591
 20
34.190694513
 10
276.042384084
 20
34.9926817559
 10
276.1118206299
 20
35.761493524
 10
276.0886338775
 20
36.4807439292
 10
275.9733180121
 20
37.135103398
 10
275.7683307911
 20
37.7106253942
 10
275.4780411614
 20
38.1950436658
 10
275.1086361424
 20
38.5780336783
 10
274.6679889606
 20
38.8514326645
 10
274.1654912459
 20
39.0094135997
 10
273.6118528645
 20
39.0486093945
 10
273.0188736573
 20
38.9681846586
 10
272.3991919467
 20
38.7698535057
 10
271.7660151724
 20
38.4578430198
  0
LWPOLYLINE
  5
212
330
1F
100
AcDbEntity
  8
0
  6
Continuous
 62
     7
370
    15
100
AcDbPolyline
 90
       23
 70
   128
 43
0.0
 10
271.6953044943
 20
38.5803175066
 10
271.0518321627
 20
38.1544639935
 10
270.4220743267
 20
37.6289171226
 10
269.8194531812
 20
37.0148780131
 10
269.2568125496
 20
36.3254338425
 10
268.7461441403
 20
35.5752789163
 10
268.2983319638
 20
34.7804014845
 10
267.9229203591
 20
33.9577429793
 10
267.6279105728
 20
33.1248369387
 10
267.4195902263
 20
32.2994353088
 10
267.3023993061
 20
31.4991300924
 10
267.2788355334
 20
30.7409784056
 10
267.3494011288
 20
30.0411389355
 10
267.5125921094
 20
29.4145275452
 10
267.7649303426
 20
28.8744993688
 10
268.1010376771
 20
28.4325641691
 10
268.5137505687
 20
28.0981410278
 10
268.9942727585
 20
27.8783575934
 10
269.5323627504
 20
27.7778981683
 10
270.1165520903
 20
27.7989038707
 10
270.7343897968
 20
27.9409270006
 10
271.3727077318
 20
28.2009405815
 10
271.6960227739
 20
28.3739720794
  0
LWPOLYLINE
  5
213
330
1F
100
AcDbEntity
  8
0
  6
Continuous
 62
     7
370
    15
100
AcDbPolyline
 90
       12
 70
   128
 43
0.0
 10
276.1147218767
 20
36.0282127818
 10
276.0882096824
 20
36.5710704633
 10
275.9710187622
 20
37.2360699234
 10
275.7626984158
 20
37.8209500009
 10
275.4676886295
 20
38.3132449924
 10
275.0922770247
 20
38.7024624847
 10
274.6444648482
 20
38.9803069829
 10
274.1337964389
 20
39.1408567138
 10
273.5711558074
 20
39.1806898386
 10
272.9685346619
 20
39.0989573834
 10
272.3387768258
 20
38.8974013337
 10
271.6953044943
 20
38.5803175066
  0
LWPOLYLINE
  5
214
330
1F
100
AcDbEntity
  8
0
  6
Continuous
 62
     7
370
    15
100
AcDbPolyline
 90
       55
 70
   128
 43
0.0
 10
270.4615087313
 20
40.6876053097
 10
270.4950252709
 20
40.6619022989
 10
270.6073836173
 20
40.562283596
 10
270.6992029229
 20
40.4654407972
 10
270.7742683047
 20
40.3671027237
 10
270.8313044994
 20
40.266701422
 10
270.8682447794
 20
40.1645501052
 10
270.8829039487
 20
40.06864412
 10
270.880686906
 20
39.9955363718
 10
270.8495186592
 20
39.8711162455
 10
270.7973979236
 20
39.7690255814
 10
270.6580757049
 20
39.6020621381
 10
270.5320099093
 20
39.4957646009
 10
270.2854415097
 20
39.3387522087
 10
270.0957087426
 20
39.2442870054
 10
269.7896830046
 20
39.1228136445
 10
269.5772811171
 20
39.0558230109
 10
269.2128292561
 20
38.9684275837
 10
268.9731236306
 20
38.9285238385
 10
268.8267052911
 20
38.9108940383
 10
268.6215726925
 20
38.8949654431
 10
268.4162919127
 20
38.8896873628
 10
268.2707432162
 20
38.8927831357
 10
268.0547070018
 20
38.908662075
 10
267.8850657127
 20
38.9314402011
 10
267.7186940963
 20
38.9635762635
 10
267.517060782
 20
39.0172314431
 10
267.315673716
 20
39.0895951881
 10
267.1625318373
 20
39.1596365256
 10
267.012751826
 20
39.2433967929
 10
266.848409445
 20
39.357053512
 10
266.7147475523
 20
39.4715212288
 10
266.5946620267
 20
39.5978312294
 10
266.4895637312
 20
39.7353459298
 10
266.401360812
 20
39.8825687117
 10
266.3345138823
 20
40.0305606369
 10
266.2857276264
 20
40.1853320396
 10
266.2567551581
 20
40.345641648
 10
266.2496762413
 20
40.5090693085
 10
266.2569299259
 20
40.6089738691
 10
266.2827183494
 20
40.7477517438
 10
266.3154756467
 20
40.8523604953
 10
266.3732633298
 20
40.9797903551
 10
266.4473526303
 20
41.0971144972
 10
266.5201977434
 20
41.1859967809
 10
266.6057520753
 20
41.2696703621
 10
266.7302641776
 20
41.3647819648
 10
267.0025822983
 20
41.503675643
 10
267.2038765459
 20
41.5662943872
 10
267.5280534073
 20
41.6189299967
 10
267.7482467974
 20
41.6287330147
 10
268.1350199151
 20
41.6064332071
 10
268.3859794702
 20
41.5693827487
 10
268.5312543596
 20
41.5407936834
 10
268.5312543596
 20
41.5407936834
  0
SPLINE
  5
215
330
1F
100
AcDbEntity
  8
0
  6
Continuous
 62
     7
370
    15
100
AcDbSpline
210
0.0
220
0.0
230
1.0
 70
     8
 71
     3
 72
    12
 73
     8
 74
     0
 42
0.000000001
 43
0.00000001
 40
0.0
 40
0.0
 40
0.0
 40
0.0
 40
0.250000000000001
 40
0.250000000000001
 40
0.500000000000002
 40
0.500000000000002
 40
1.0
 40
1.0
 40
1.0
 40
1.0
 10
237.4720107414365
 20
44.47848275333797
 30
0.0
 10
237.5057899077088
 20
44.45898245572445
 30
0.0
 10
237.5441146041843
 20
44.43214270714729
 30
0.0
 10
237.6183377282969
 20
44.37374220382464
 30
0.0
 10
237.6537210927916
 20
44.34275254534374
 30
0.0
 10
237.7495310511765
 20
44.25201319232299
 30
0.0
 10
237.7985348093308
 20
44.19611906360545
 30
0.0
 10
237.8323438669456
 20
44.1488591998388
 30
0.0
  0
SPLINE
  5
216
330
1F
100
AcDbEntity
  8
0
  6
Continuous
 62
     7
370
    15
100
AcDbSpline
210
0.0
220
0.0
230
1.0
 70
     8
 71
     3
 72
    12
 73
     8
 74
     0
 42
0.000000001
 43
0.00000001
 40
0.0
 40
0.0
 40
0.0
 40
0.0
 40
0.5000000000000011
 40
0.5000000000000011
 40
0.7500000000000006
 40
0.7500000000000006
 40
1.0
 40
1.0
 40
1.0
 40
1.0
 10
254.9368737801366
 20
60.91866072416034
 30
0.0
 10
254.9368737801366
 20
60.99007975588501
 30
0.0
 10
254.9193092494756
 20
61.07260951507821
 30
0.0
 10
254.8641837149856
 20
61.19155423111109
 30
0.0
 10
254.8408912412289
 20
61.23018711833568
 30
0.0
 10
254.7869228521715
 20
61.29674962961273
 30
0.0
 10
254.7560753514183
 20
61.32467066786538
 30
0.0
 10
254.7247417457806
 20
61.34275917337534
 30
0.0
  0
ARC
  5
217
330
1F
100
AcDbEntity
  8
0
  6
Continuous
 62
     7
370
    15
100
AcDbCircle
 10
263.6229039898
 20
38.1320089106
 30
0.0
 40
26.51728421955555
100
AcDbArc
 50
139.7848443326
 51
157.6575393444
  0
LWPOLYLINE
  5
218
330
1F
100
AcDbEntity
  8
0
  6
Continuous
 62
     7
370
    15
100
AcDbPolyline
 90
       11
 70
   128
 43
0.0
 10
243.4357171333
 20
58.1460232844
 10
244.4409394815
 20
59.0423126674
 10
245.4672011252
 20
59.8417718697
 10
246.505662512
 20
60.5375148679
 10
247.5473790083
 20
61.1235489826
 10
248.5833779433
 20
61.5948264958
 10
249.6047358938
 20
61.9472881284
 10
250.6026555441
 20
62.1778980044
 10
251.5685414611
 20
62.2846697996
 10
252.4940741296
 20
62.2666838511
 10
253.3712816108
 20
62.1240950781
  0
LINE
  5
219
330
1F
100
AcDbEntity
  8
0
  6
Continuous
 62
     7
370
    15
100
AcDbLine
 10
254.7247417458
 20
61.3427591734
 30
0.0
 11
253.3712816108
 21
62.1240950781
 31
0.0
  0
LINE
  5
21A
330
1F
100
AcDbEntity
  8
0
  6
Continuous
 62
     7
370
    15
100
AcDbLine
 10
236.1185506065
 20
45.259818658
 30
0.0
 11
237.4720107414
 21
44.4784827533
 31
0.0
  0
ARC
  5
21B
330
1F
100
AcDbEntity
  8
0
  6
Continuous
 62
     7
370
    15
100
AcDbCircle
 10
261.7716621157
 20
39.2282368382
 30
0.0
 40
26.35264900072296
100
AcDbArc
 50
136.4938168976
 51
166.7688862419
  0
SPLINE
  5
21C
330
1F
100
AcDbEntity
  8
0
  6
Continuous
 62
     7
370
    15
100
AcDbSpline
210
0.0
220
0.0
230
1.0
 70
     8
 71
     3
 72
    12
 73
     8
 74
     0
 42
0.000000001
 43
0.00000001
 40
0.0
 40
0.0
 40
0.0
 40
0.0
 40
0.2499999999999995
 40
0.2499999999999995
 40
0.499999999999999
 40
0.499999999999999
 40
1.0
 40
1.0
 40
1.0
 40
1.0
 10
242.6580836171173
 20
57.37026611647248
 30
0.0
 10
242.7573982998373
 20
57.4036142007683
 30
0.0
 10
242.8512234395288
 20
57.44749640227281
 30
0.0
 10
243.0282165444343
 20
57.55562667106854
 30
0.0
 10
243.1080281123554
 20
57.61803216124972
 30
0.0
 10
243.3162119735757
 20
57.8254297390395
 30
0.0
 10
243.4079218071618
 20
57.98684027683328
 30
0.0
 10
243.4357171333356
 20
58.14602328437238
 30
0.0
  0
LINE
  5
21D
330
1F
100
AcDbEntity
  8
0
  6
Continuous
 62
     7
370
    15
100
AcDbLine
 10
258.954137671
 20
56.2476118316
 30
0.0
 11
259.0595011696
 21
56.4301067638
 31
0.0
  0
LINE
  5
21E
330
1F
100
AcDbEntity
  8
0
  6
Continuous
 62
     7
370
    15
100
AcDbLine
 10
257.7829785744
 20
55.5715160763
 30
0.0
 11
258.954137671
 21
56.2476118316
 31
0.0
  0
ARC
  5
21F
330
1F
100
AcDbEntity
  8
0
  6
Continuous
 62
     7
370
    15
100
AcDbCircle
 10
258.4454660306
 20
54.5358315002
 30
0.0
 40
1.229443846057533
100
AcDbArc
 50
122.60547834
 51
177.3945215143
  0
LINE
  5
220
330
1F
100
AcDbEntity
  8
0
  6
Continuous
 62
     7
370
    15
100
AcDbLine
 10
257.2172931495
 20
49.3250319454
 30
0.0
 11
257.2172931495
 21
54.591720182
 31
0.0
  0
ARC
  5
221
330
1F
100
AcDbEntity
  8
0
  6
Continuous
 62
     7
370
    15
100
AcDbCircle
 10
257.5621526434
 20
49.2690901878
 30
0.0
 40
0.349367357942876
100
AcDbArc
 50
170.7859630095
 51
309.2032852357
  0
LINE
  5
222
330
1F
100
AcDbEntity
  8
0
  6
Continuous
 62
     7
370
    15
100
AcDbLine
 10
258.954137671
 20
49.674458296
 30
0.0
 11
257.7829785744
 21
48.9983625406
 31
0.0
  0
LINE
  5
223
330
1F
100
AcDbEntity
  8
0
  6
Continuous
 62
     7
370
    15
100
AcDbLine
 10
259.0595011696
 20
49.6136134698
 30
0.0
 11
258.954137671
 21
49.674458296
 31
0.0
  0
LINE
  5
224
330
1F
100
AcDbEntity
  8
0
  6
Continuous
 62
     7
370
    15
100
AcDbLine
 10
237.8802390433
 20
37.5087555724
 30
0.0
 11
237.8323438669
 21
37.3865068872
 31
0.0
  0
LINE
  5
225
330
1F
100
AcDbEntity
  8
0
  6
Continuous
 62
     7
370
    15
100
AcDbLine
 10
237.8802390433
 20
37.5087555724
 30
0.0
 11
239.8931770104
 21
38.670799926
 31
0.0
  0
ARC
  5
226
330
1F
100
AcDbEntity
  8
0
  6
Continuous
 62
     7
370
    15
100
AcDbCircle
 10
239.2306895542
 20
39.7064845021
 30
0.0
 40
1.22944384605766
100
AcDbArc
 50
302.60547834
 51
357.3945215143
  0
LINE
  5
227
330
1F
100
AcDbEntity
  8
0
  6
Continuous
 62
     7
370
    15
100
AcDbLine
 10
240.4588624353
 20
44.9172840569
 30
0.0
 11
240.4588624353
 21
39.6505958203
 31
0.0
  0
ARC
  5
228
330
1F
100
AcDbEntity
  8
0
  6
Continuous
 62
     7
370
    15
100
AcDbCircle
 10
240.1140029414
 20
44.9732258145
 30
0.0
 40
0.3493673579428002
100
AcDbArc
 50
350.7859630095
 51
129.2032852357
  0
LINE
  5
229
330
1F
100
AcDbEntity
  8
0
  6
Continuous
 62
     7
370
    15
100
AcDbLine
 10
239.8931770104
 20
45.2439534617
 30
0.0
 11
237.8802390433
 21
44.0819091081
 31
0.0
  0
LINE
  5
22A
330
1F
100
AcDbEntity
  8
0
  6
Continuous
 62
     7
370
    15
100
AcDbLine
 10
237.8323438669
 20
44.1488591998
 30
0.0
 11
237.8802390433
 21
44.0819091081
 31
0.0
  0
LINE
  5
22B
330
1F
100
AcDbEntity
  8
0
  6
Continuous
 62
     7
370
    15
100
AcDbLine
 10
254.9368737801
 20
58.1336799324
 30
0.0
 11
254.9368737801
 21
60.9186607242
 31
0.0
  0
LINE
  5
22C
330
1F
100
AcDbEntity
  8
0
  6
Continuous
 62
     7
370
    15
100
AcDbLine
 10
257.3486072473
 20
59.5259440278
 30
0.0
 11
254.9368737801
 21
58.1336799324
 31
0.0
  0
SPLINE
  5
22D
330
1F
100
AcDbEntity
  8
0
  6
Continuous
 62
     7
370
    15
100
AcDbSpline
210
0.0
220
0.0
230
1.0
 70
     8
 71
     3
 72
     8
 73
     4
 74
     0
 42
0.000000001
 43
0.00000001
 40
0.0
 40
0.0
 40
0.0
 40
0.0
 40
1.0
 40
1.0
 40
1.0
 40
1.0
 10
235.1283993211989
 20
46.51819784220765
 30
0.0
 10
234.7477014551985
 20
46.45523100453705
 30
0.0
 10
234.3668634829586
 20
46.39253088240201
 30
0.0
 10
233.9859228322189
 20
46.33005000372898
 30
0.0
  0
SPLINE
  5
22E
330
1F
100
AcDbEntity
  8
0
  6
Continuous
 62
     7
370
    15
100
AcDbSpline
210
0.0
220
0.0
230
1.0
 70
     8
 71
     3
 72
     8
 73
     4
 74
     0
 42
0.000000001
 43
0.00000001
 40
0.0
 40
0.0
 40
0.0
 40
0.0
 40
0.0011901715795577
 40
0.0011901715795577
 40
0.0011901715795577
 40
0.0011901715795577
 10
233.6282360346611
 20
46.69744665958459
 30
0.0
 10
233.7478825421559
 20
46.57483174982911
 30
0.0
 10
233.867125716304
 20
46.45235970933339
 30
0.0
 10
233.9859228322189
 20
46.33005000372898
 30
0.0
  0
LWPOLYLINE
  5
22F
330
1F
100
AcDbEntity
  8
0
  6
Continuous
 62
     7
370
    15
100
AcDbPolyline
 90
       21
 70
   128
 43
0.0
 10
233.6282360347
 20
46.6974466596
 10
233.9784932195
 20
48.0620456664
 10
234.4226387146
 20
49.4372464466
 10
234.9566685839
 20
50.8106516751
 10
235.5757685908
 20
52.1698802136
 10
236.2743575983
 20
53.5026787257
 10
237.0461378823
 20
54.7970321394
 10
237.8841519054
 20
56.0412719621
 10
238.7808450381
 20
57.2241814714
 10
239.7281336637
 20
58.3350968328
 10
240.7174780509
 20
59.3640032331
 10
241.7399593392
 20
60.3016251635
 10
242.7863599417
 20
61.1395100372
 10
243.8472466406
 20
61.8701043891
 10
244.9130556271
 20
62.4868219697
 10
245.9741787186
 20
62.9841031192
 10
247.0210499752
 20
63.3574648878
 10
248.0442319364
 20
63.6035414492
 10
249.0345006986
 20
63.7201144428
 10
249.982929068
 20
63.7061329723
 10
250.880967039
 20
63.5617230796
  0
LINE
  5
230
330
1F
100
AcDbEntity
  8
0
  6
Continuous
 62
     7
370
    15
100
AcDbLine
 10
251.3052265866
 20
62.257612439
 30
0.0
 11
250.880967039
 21
63.5617230796
 31
0.0
  0
LWPOLYLINE
  5
231
330
1F
100
AcDbEntity
  8
0
  6
Continuous
 62
     7
370
    15
100
AcDbPolyline
 90
       20
 70
   128
 43
0.0
 10
235.1283993212
 20
46.5181978422
 10
235.4569825899
 20
47.8117476742
 10
235.8782268201
 20
49.1159938405
 10
236.3880259439
 20
50.4182232339
 10
236.9814107071
 20
51.7057424059
 10
237.6525971064
 20
52.9660012952
 10
238.3950427692
 20
54.1867155597
 10
239.2015107248
 20
55.3559863173
 10
240.0641399467
 20
56.4624161305
 10
240.9745219781
 20
57.4952201021
 10
241.9237828928
 20
58.444331001
 10
242.9026697935
 20
59.3004973924
 10
243.9016410046
 20
60.0553738156
 10
244.9109590789
 20
60.7016021315
 10
245.9207857137
 20
61.2328832455
 10
246.9212776488
 20
61.6440385083
 10
247.902682614
 20
61.931060194
 10
248.8554343888
 20
62.091150566
 10
249.7702460489
 20
62.1227491474
 10
250.1771774237
 20
62.0938645653
  0
LINE
  5
232
330
1F
100
AcDbEntity
  8
0
  6
Continuous
 62
     7
370
    15
100
AcDbLine
 10
232.2924535692
 20
47.4685774629
 30
0.0
 11
233.6282360347
 21
46.6974466596
 31
0.0
  0
LINE
  5
233
330
1F
100
AcDbEntity
  8
0
  6
Continuous
 62
     7
370
    15
100
AcDbLine
 10
250.880967039
 20
63.5617230796
 30
0.0
 11
249.5451845736
 21
64.3328538829
 31
0.0
  0
LINE
  5
234
330
1F
100
AcDbEntity
  8
0
  6
Continuous
 62
     7
370
    15
100
AcDbLine
 10
236.3549414263
 20
46.2179131921
 30
0.0
 11
235.7644307704
 21
46.5588077376
 31
0.0
  0
SPLINE
  5
235
330
1F
100
AcDbEntity
  8
0
  6
Continuous
 62
     7
370
    15
100
AcDbSpline
210
0.0
220
0.0
230
1.0
 70
     8
 71
     3
 72
    14
 73
    10
 74
     0
 42
0.000000001
 43
0.00000001
 40
0.0
 40
0.0
 40
0.0
 40
0.0
 40
0.1134875197912723
 40
0.2884507023113999
 40
0.4634439107903566
 40
0.6380743933922346
 40
0.8124677414442888
 40
0.9871169102209971
 40
0.9999999999999999
 40
0.9999999999999999
 40
0.9999999999999999
 40
0.9999999999999999
 10
243.1491660254042
 20
57.67057390399189
 30
0.0
 10
243.0796155903332
 20
57.67392396801167
 30
0.0
 10
242.9028395723253
 20
57.68243881018174
 30
0.0
 10
242.6080042908739
 20
57.59729213007323
 30
0.0
 10
242.3153580889522
 20
57.43385672030339
 30
0.0
 10
242.089815756209
 20
57.20316898224824
 30
0.0
 10
241.9707240508873
 20
56.94043635724947
 30
0.0
 10
241.9366574304
 20
56.74547572238445
 30
0.0
 10
241.968319625448
 20
56.65969851090912
 30
0.0
 10
241.9704947547007
 20
56.65380578863861
 30
0.0
  0
SPLINE
  5
236
330
1F
100
AcDbEntity
  8
0
  6
Continuous
 62
     7
370
    15
100
AcDbSpline
210
0.0
220
0.0
230
1.0
 70
     8
 71
     3
 72
    12
 73
     8
 74
     0
 42
0.000000001
 43
0.00000001
 40
0.0
 40
0.0
 40
0.0
 40
0.0
 40
0.2500000000000015
 40
0.2500000000000015
 40
0.500000000000003
 40
0.500000000000003
 40
1.0
 40
1.0
 40
1.0
 40
1.0
 10
235.7644307704363
 20
46.55880773762329
 30
0.0
 10
235.7268120354771
 20
46.58052457105948
 30
0.0
 10
235.6808196270898
 20
46.59778030504213
 30
0.0
 10
235.5812184971138
 20
46.62007409286995
 30
0.0
 10
235.5264677718598
 20
46.62527987744939
 30
0.0
 10
235.3669618730405
 20
46.62227797802226
 30
0.0
 10
235.2619590678229
 20
46.59530024276306
 30
0.0
 10
235.186646171631
 20
46.55182303322977
 30
0.0
  0
SPLINE
  5
237
330
1F
100
AcDbEntity
  8
0
  6
Continuous
 62
     7
370
    15
100
AcDbSpline
210
0.0
220
0.0
230
1.0
 70
     8
 71
     3
 72
    10
 73
     6
 74
     0
 42
0.000000001
 43
0.00000001
 40
0.0
 40
0.0
 40
0.0
 40
0.0
 40
0.5
 40
0.5
 40
1.0
 40
1.0
 40
1.0
 40
1.0
 10
232.1908094586476
 20
47.49929951418241
 30
0.0
 10
232.1980721402962
 20
47.50329611967024
 30
0.0
 10
232.2098658042619
 20
47.50347789805541
 30
0.0
 10
232.2439248150292
 20
47.49375626854566
 30
0.0
 10
232.2660973025815
 20
47.48379261176996
 30
0.0
 10
232.292453569245
 20
47.46857746288865
 30
0.0
  0
LINE
  5
238
330
1F
100
AcDbEntity
  8
0
  6
Continuous
 62
     7
370
    15
100
AcDbLine
 10
235.1866461716
 20
46.5518230332
 30
0.0
 11
235.1283993212
 21
46.5181978422
 31
0.0
  0
LINE
  5
239
330
1F
100
AcDbEntity
  8
0
  6
Continuous
 62
     7
370
    15
100
AcDbLine
 10
237.8802390433
 20
44.0819091081
 30
0.0
 11
236.1530563439
 21
45.078990457
 31
0.0
  0
SPLINE
  5
23A
330
1F
100
AcDbEntity
  8
0
  6
Continuous
 62
     7
370
    15
100
AcDbSpline
210
0.0
220
0.0
230
1.0
 70
     8
 71
     3
 72
     8
 73
     4
 74
     0
 42
0.000000001
 43
0.00000001
 40
0.0
 40
0.0
 40
0.0
 40
0.0
 40
0.0011901715795577
 40
0.0011901715795577
 40
0.0011901715795577
 40
0.0011901715795577
 10
236.1530563439078
 20
45.07899045698219
 30
0.0
 10
236.1408948770892
 20
45.13974071269302
 30
0.0
 10
236.1294114301332
 20
45.20000438682307
 30
0.0
 10
236.1185506064907
 20
45.25981865803981
 30
0.0
  0
ARC
  5
23B
330
1F
100
AcDbEntity
  8
0
  6
Continuous
 62
     7
370
    15
100
AcDbCircle
 10
245.1303628929
 20
45.5037217793
 30
0.0
 40
10.35597987025675
100
AcDbArc
 50
174.7138531563
 51
187.1556402654
  0
LINE
  5
23C
330
1F
100
AcDbEntity
  8
0
  6
Continuous
 62
     7
370
    15
100
AcDbLine
 10
234.8550411944
 20
46.4730561003
 30
0.0
 11
234.8550411944
 21
44.2137283427
 31
0.0
  0
LINE
  5
23D
330
1F
100
AcDbEntity
  8
0
  6
Continuous
 62
     7
370
    15
100
AcDbLine
 10
234.8550411944
 20
44.2137283427
 30
0.0
 11
234.8550411944
 21
42.7479203802
 31
0.0
  0
LINE
  5
23E
330
1F
100
AcDbEntity
  8
0
  6
Continuous
 62
     7
370
    15
100
AcDbLine
 10
232.629971193
 20
47.1128242232
 30
0.0
 11
232.1908094586
 21
47.4992995142
 31
0.0
  0
LINE
  5
23F
330
1F
100
AcDbEntity
  8
0
  6
Continuous
 62
     7
370
    15
100
AcDbLine
 10
233.9859228322
 20
46.3300500037
 30
0.0
 11
232.629971193
 21
47.1128242232
 31
0.0
  0
LINE
  5
240
330
1F
100
AcDbEntity
  8
0
  6
Continuous
 62
     7
370
    15
100
AcDbLine
 10
233.856252866
 20
46.2486218316
 30
0.0
 11
233.8573988255
 21
46.4042453335
 31
0.0
  0
ARC
  5
241
330
1F
100
AcDbEntity
  8
0
  6
Continuous
 62
     7
370
    15
100
AcDbCircle
 10
240.7800142522
 20
45.9854399549
 30
0.0
 40
6.928761536773301
100
AcDbArc
 50
177.823155111
 51
210.7662051763
  0
LINE
  5
242
330
1F
100
AcDbEntity
  8
0
  6
Continuous
 62
     7
370
    15
100
AcDbLine
 10
236.1530563439
 20
38.5058369213
 30
0.0
 11
237.8802390433
 21
37.5087555724
 31
0.0
  0
SPLINE
  5
243
330
1F
100
AcDbEntity
  8
0
  6
Continuous
 62
     7
370
    15
100
AcDbSpline
210
0.0
220
0.0
230
1.0
 70
     8
 71
     3
 72
    14
 73
    10
 74
     0
 42
0.000000001
 43
0.00000001
 40
0.0
 40
0.0
 40
0.0
 40
0.0
 40
0.25
 40
0.25
 40
0.5
 40
0.5
 40
0.75
 40
0.75
 40
1.0
 40
1.0
 40
1.0
 40
1.0
 10
237.8323438669456
 20
37.38650688716484
 30
0.0
 10
237.8154356694075
 20
37.3433500376157
 30
0.0
 10
237.7949124785265
 20
37.3033340651267
 30
0.0
 10
237.7461290429642
 20
37.23002443814178
 30
0.0
 10
237.7176720645884
 20
37.19673727953571
 30
0.0
 10
237.6543094420801
 20
37.14381443320538
 30
0.0
 10
237.6189903813392
 20
37.12375076678011
 30
0.0
 10
237.5441723042881
 20
37.10699177629808
 30
0.0
 10
237.5058028302234
 20
37.11118867190927
 30
0.0
 10
237.4720107414365
 20
37.1306964295317
 30
0.0
  0
LINE
  5
244
330
1F
100
AcDbEntity
  8
0
  6
Continuous
 62
     7
370
    15
100
AcDbLine
 10
237.4720107414
 20
37.1306964295
 30
0.0
 11
236.1185506065
 21
37.9120323342
 31
0.0
  0
SPLINE
  5
245
330
1F
100
AcDbEntity
  8
0
  6
Continuous
 62
     7
370
    15
100
AcDbSpline
210
0.0
220
0.0
230
1.0
 70
     8
 71
     3
 72
     8
 73
     4
 74
     0
 42
0.000000001
 43
0.00000001
 40
0.0
 40
0.0
 40
0.0
 40
0.0
 40
0.0011901715795577
 40
0.0011901715795577
 40
0.0011901715795577
 40
0.0011901715795577
 10
236.1185506064907
 20
37.91203233423355
 30
0.0
 10
236.1294114301332
 20
38.10998752259171
 30
0.0
 10
236.1408948770892
 20
38.30792643509328
 30
0.0
 10
236.1530563439078
 20
38.50583692130191
 30
0.0
  0
SPLINE
  5
246
330
1F
100
AcDbEntity
  8
0
  6
Continuous
 62
     7
370
    15
100
AcDbSpline
210
0.0
220
0.0
230
1.0
 70
     8
 71
     3
 72
     9
 73
     5
 74
     0
 42
0.000000001
 43
0.00000001
 40
0.0
 40
0.0
 40
0.0
 40
0.0
 40
0.4591040236990244
 40
1.0
 40
1.0
 40
1.0
 40
1.0
 10
259.1194399341995
 20
49.57899213801694
 30
0.0
 10
259.1166208984255
 20
49.58062228960014
 30
0.0
 10
259.1104805998688
 20
49.58417301339921
 30
0.0
 10
259.0773963222135
 20
49.60327907691553
 30
0.0
 10
259.059501169551
 20
49.61361346979447
 30
0.0
  0
ARC
  5
247
330
1F
100
AcDbEntity
  8
0
  6
Continuous
 62
     7
370
    15
100
AcDbCircle
 10
243.1481758399
 20
38.2057133991
 30
0.0
 40
5.682484599376292
100
AcDbArc
 50
206.730393228
 51
272.8196262956
  0
SPLINE
  5
248
330
1F
100
AcDbEntity
  8
0
  6
Continuous
 62
     7
370
    15
100
AcDbSpline
210
0.0
220
0.0
230
1.0
 70
     8
 71
     3
 72
     8
 73
     4
 74
     0
 42
0.000000001
 43
0.00000001
 40
0.0
 40
0.0
 40
0.0
 40
0.0
 40
1.0
 40
1.0
 40
1.0
 40
1.0
 10
236.4789732732652
 20
39.16537455973667
 30
0.0
 10
236.3698996928782
 20
38.94560235967745
 30
0.0
 10
236.2612881274102
 20
38.72574927800779
 30
0.0
 10
236.1530563439078
 20
38.50583692130191
 30
0.0
  0
LINE
  5
249
330
1F
100
AcDbEntity
  8
0
  6
Continuous
 62
     7
370
    15
100
AcDbLine
 10
236.5372201237
 20
39.1989997508
 30
0.0
 11
236.4789732733
 21
39.1653745597
 31
0.0
  0
SPLINE
  5
24A
330
1F
100
AcDbEntity
  8
0
  6
Continuous
 62
     7
370
    15
100
AcDbSpline
210
0.0
220
0.0
230
1.0
 70
     8
 71
     3
 72
    12
 73
     8
 74
     0
 42
0.000000001
 43
0.00000001
 40
0.0
 40
0.0
 40
0.0
 40
0.0
 40
0.2500000000000015
 40
0.2500000000000015
 40
0.500000000000003
 40
0.500000000000003
 40
1.0
 40
1.0
 40
1.0
 40
1.0
 10
236.5493192975534
 20
39.5325476998814
 30
0.0
 10
236.587356905106
 20
39.51058905644415
 30
0.0
 10
236.6168303090176
 20
39.48433211983949
 30
0.0
 10
236.6556240190606
 20
39.42646411054017
 30
0.0
 10
236.6644462220072
 20
39.39568197573104
 30
0.0
 10
236.6593369493204
 20
39.3027019923443
 30
0.0
 10
236.612713207551
 20
39.24258098041498
 30
0.0
 10
236.5372201236978
 20
39.19899975075906
 30
0.0
  0
LINE
  5
24B
330
1F
100
AcDbEntity
  8
0
  6
Continuous
 62
     7
370
    15
100
AcDbLine
 10
235.7644307704
 20
39.9856542019
 30
0.0
 11
236.5493192976
 21
39.5325476999
 31
0.0
  0
SPLINE
  5
24C
330
1F
100
AcDbEntity
  8
0
  6
Continuous
 62
     7
370
    15
100
AcDbSpline
210
0.0
220
0.0
230
1.0
 70
     8
 71
     3
 72
    12
 73
     8
 74
     0
 42
0.000000001
 43
0.00000001
 40
0.0
 40
0.0
 40
0.0
 40
0.0
 40
0.4999999999999984
 40
0.4999999999999984
 40
0.7499999999999992
 40
0.7499999999999992
 40
1.0
 40
1.0
 40
1.0
 40
1.0
 10
235.1866461716315
 20
39.97866949754975
 30
0.0
 10
235.2625769793827
 20
40.02250341983329
 30
0.0
 10
235.3664669388069
 20
40.0491607623425
 30
0.0
 10
235.5271690186392
 20
40.05211662511622
 30
0.0
 10
235.5809538190621
 20
40.04696335348028
 30
0.0
 10
235.6807227045047
 20
40.02466485087692
 30
0.0
 10
235.726274930332
 20
40.0076810995795
 30
0.0
 10
235.7644307704363
 20
39.985654201943
 30
0.0
  0
LINE
  5
24D
330
1F
100
AcDbEntity
  8
0
  6
Continuous
 62
     7
370
    15
100
AcDbLine
 10
235.1283993212
 20
39.9450443065
 30
0.0
 11
235.1866461716
 21
39.9786694975
 31
0.0
  0
SPLINE
  5
24E
330
1F
100
AcDbEntity
  8
0
  6
Continuous
 62
     7
370
    15
100
AcDbSpline
210
0.0
220
0.0
230
1.0
 70
     8
 71
     3
 72
     8
 73
     4
 74
     0
 42
0.000000001
 43
0.00000001
 40
0.0
 40
0.0
 40
0.0
 40
0.0
 40
1.0
 40
1.0
 40
1.0
 40
1.0
 10
233.9859228322208
 20
39.75689646804899
 30
0.0
 10
234.3668634829598
 20
39.81937734672192
 30
0.0
 10
234.7477014551991
 20
39.88207746885686
 30
0.0
 10
235.1283993211989
 20
39.94504430652736
 30
0.0
  0
LINE
  5
24F
330
1F
100
AcDbEntity
  8
0
  6
Continuous
 62
     7
370
    15
100
AcDbLine
 10
232.629971193
 20
40.5396706876
 30
0.0
 11
233.9859228322
 21
39.756896468
 31
0.0
  0
LINE
  5
250
330
1F
100
AcDbEntity
  8
0
  6
Continuous
 62
     7
370
    15
100
AcDbLine
 10
232.629971193
 20
40.5396706876
 30
0.0
 11
234.6429091601
 21
41.7017150412
 31
0.0
  0
ARC
  5
251
330
1F
100
AcDbEntity
  8
0
  6
Continuous
 62
     7
370
    15
100
AcDbCircle
 10
242.3030858317
 20
39.4771163038
 30
0.0
 40
6.379495574377931
100
AcDbArc
 50
194.2013580307
 51
238.2565007483
  0
ELLIPSE
  5
252
330
1F
100
AcDbEntity
  8
0
  6
Continuous
 62
     7
370
    15
100
AcDbEllipse
 10
234.408594585
 20
42.4902146156
 30
0.0
 11
-6.005970385558612E-5
 21
0.8534489614827194
 31
0.0
210
0.0
220
0.0
230
1.0
 40
0.7174342186
 41
3.534193645557365
 42
5.104989972352389
  0
ARC
  5
253
330
1F
100
AcDbEntity
  8
0
  6
Continuous
 62
     7
370
    15
100
AcDbCircle
 10
241.7551572794
 20
41.7934704346
 30
0.0
 40
6.879723845317408
100
AcDbArc
 50
195.5855779786
 51
215.4796569388
  0
ARC
  5
254
330
1F
100
AcDbEntity
  8
0
  6
Continuous
 62
     7
370
    15
100
AcDbCircle
 10
239.4660607442
 20
40.695490676
 30
0.0
 40
5.99094789190151
100
AcDbArc
 50
192.9819434216
 51
253.8515163634
  0
SPLINE
  5
255
330
1F
100
AcDbEntity
  8
0
  6
Continuous
 62
     7
370
    15
100
AcDbSpline
210
0.0
220
0.0
230
1.0
 70
     8
 71
     3
 72
     8
 73
     4
 74
     0
 42
0.000000001
 43
0.00000001
 40
0.0000000000000007
 40
0.0000000000000007
 40
0.0000000000000007
 40
0.0000000000000007
 40
0.0011901715795607
 40
0.0011901715795607
 40
0.0011901715795607
 40
0.0011901715795607
 10
233.9859228322217
 20
39.75689646804709
 30
0.0
 10
233.8671257163065
 20
39.6205454317317
 30
0.0
 10
233.7478825421562
 20
39.48481488559809
 30
0.0
 10
233.6282360346611
 20
39.34966033577832
 30
0.0
  0
LINE
  5
256
330
1F
100
AcDbEntity
  8
0
  6
Continuous
 62
     7
370
    15
100
AcDbLine
 10
232.1908094586
 20
40.2860960059
 30
0.0
 11
232.629971193
 21
40.5396706876
 31
0.0
  0
LINE
  5
257
330
1F
100
AcDbEntity
  8
0
  6
Continuous
 62
     7
370
    15
100
AcDbLine
 10
233.6282360347
 20
39.3496603358
 30
0.0
 11
232.2924535692
 21
40.1207911391
 31
0.0
  0
SPLINE
  5
258
330
1F
100
AcDbEntity
  8
0
  6
Continuous
 62
     7
370
    15
100
AcDbSpline
210
0.0
220
0.0
230
1.0
 70
     8
 71
     3
 72
    10
 73
     6
 74
     0
 42
0.000000001
 43
0.00000001
 40
0.0
 40
0.0
 40
0.0
 40
0.0
 40
0.5
 40
0.5
 40
1.0
 40
1.0
 40
1.0
 40
1.0
 10
232.292453569245
 20
40.12079113908238
 30
0.0
 10
232.2661493168681
 20
40.13597626075515
 30
0.0
 10
232.2439512027495
 20
40.15960591168903
 30
0.0
 10
232.2099393163178
 20
40.21704830449892
 30
0.0
 10
232.1980684359117
 20
40.25068658264954
 30
0.0
 10
232.1908094586476
 20
40.28609600589266
 30
0.0
  0
ARC
  5
259
330
1F
100
AcDbEntity
  8
0
  6
Continuous
 62
     7
370
    15
100
AcDbCircle
 10
238.1520672364
 20
41.3306560722
 30
0.0
 40
5.90714316825837
100
AcDbArc
 50
207.0721214573
 51
239.1239540606
  0
ELLIPSE
  5
25A
330
1F
100
AcDbEntity
  8
0
  6
Continuous
 62
     7
370
    15
100
AcDbEllipse
 10
234.2893557695
 20
42.4213571355
 30
0.0
 11
0.2600075789209484
 21
0.9705436209909378
 31
0.0
210
0.0
220
0.0
230
1.0
 40
0.5176380889
 41
3.619174351347763
 42
5.189970678142606
  0
SPLINE
  5
25B
330
1F
100
AcDbEntity
  8
0
  6
Continuous
 62
     7
370
    15
100
AcDbSpline
210
0.0
220
0.0
230
1.0
 70
     8
 71
     3
 72
    12
 73
     8
 74
     0
 42
0.000000001
 43
0.00000001
 40
0.0
 40
0.0
 40
0.0
 40
0.0
 40
0.4999999999999996
 40
0.4999999999999996
 40
0.7499999999999998
 40
0.7499999999999998
 40
1.0
 40
1.0
 40
1.0
 40
1.0
 10
251.7447860063615
 20
62.76096117093441
 30
0.0
 10
251.8072293321861
 20
62.79700893563471
 30
0.0
 10
251.8865659374082
 20
62.82266793569252
 30
0.0
 10
252.0174393007493
 20
62.83445169569898
 30
0.0
 10
252.0622116131203
 20
62.83364142349544
 30
0.0
 10
252.1474735291237
 20
62.82009294310811
 30
0.0
 10
252.1868897362419
 20
62.80732833209871
 30
0.0
 10
252.2181293964918
 20
62.78929406010675
 30
0.0
  0
LINE
  5
25C
330
1F
100
AcDbEntity
  8
0
  6
Continuous
 62
     7
370
    15
100
AcDbLine
 10
252.2181293965
 20
62.7892940601
 30
0.0
 11
253.369792662
 21
62.1244530085
 31
0.0
  0
SPLINE
  5
25D
330
1F
100
AcDbEntity
  8
0
  6
Continuous
 62
     7
370
    15
100
AcDbSpline
210
0.0
220
0.0
230
1.0
 70
     8
 71
     3
 72
     9
 73
     5
 74
     0
 42
0.000000001
 43
0.00000001
 40
0.0
 40
0.0
 40
0.0
 40
0.0
 40
0.8664449205980815
 40
1.0
 40
1.0
 40
1.0
 40
1.0
 10
254.9368737801366
 20
60.34413915412164
 30
0.0
 10
255.2560504474863
 20
60.41342930626453
 30
0.0
 10
255.6244254702509
 20
60.49339994316901
 30
0.0
 10
255.9947656249685
 20
60.57026900200192
 30
0.0
 10
256.0442264337375
 20
60.5805352552579
 30
0.0
  0
LINE
  5
25E
330
1F
100
AcDbEntity
  8
0
  6
Continuous
 62
     7
370
    15
100
AcDbLine
 10
256.0442264337
 20
60.5805352553
 30
0.0
 11
257.3976865687
 21
59.7991993506
 31
0.0
  0
SPLINE
  5
25F
330
1F
100
AcDbEntity
  8
0
  6
Continuous
 62
     7
370
    15
100
AcDbSpline
210
0.0
220
0.0
230
1.0
 70
     8
 71
     3
 72
    14
 73
    10
 74
     0
 42
0.000000001
 43
0.00000001
 40
0.0
 40
0.0
 40
0.0
 40
0.0
 40
0.25
 40
0.25
 40
0.5
 40
0.5
 40
0.75
 40
0.75
 40
1.0
 40
1.0
 40
1.0
 40
1.0
 10
257.3976865686833
 20
59.79919935055607
 30
0.0
 10
257.4289486568413
 20
59.78115213120828
 30
0.0
 10
257.4512160289375
 20
59.75806281576796
 30
0.0
 10
257.4743694269258
 20
59.70945146249926
 30
0.0
 10
257.4758895969218
 20
59.68345168093415
 30
0.0
 10
257.4624444261508
 20
59.63331875154672
 30
0.0
 10
257.4477449205027
 20
59.60912843643532
 30
0.0
 10
257.406099925527
 20
59.56417799366274
 30
0.0
 10
257.3797876420095
 20
59.54394408658097
 30
0.0
 10
257.3486072472649
 20
59.52594402783691
 30
0.0
  0
LINE
  5
260
330
1F
100
AcDbEntity
  8
0
  6
Continuous
 62
     7
370
    15
100
AcDbLine
 10
251.7447860064
 20
62.7609611709
 30
0.0
 11
251.2368653167
 21
62.4677447981
 31
0.0
  0
SPLINE
  5
261
330
1F
100
AcDbEntity
  8
0
  6
Continuous
 62
     7
370
    15
100
AcDbSpline
210
0.0
220
0.0
230
1.0
 70
     8
 71
     3
 72
    10
 73
     6
 74
     0
 42
0.000000001
 43
0.00000001
 40
0.0
 40
0.0
 40
0.0
 40
0.0
 40
0.4054444456562852
 40
0.8120071484377022
 40
1.0
 40
1.0
 40
1.0
 40
1.0
 10
259.059501169551
 20
56.43010676381111
 30
0.0
 10
259.0778197819187
 20
56.46903276969329
 30
0.0
 10
259.1145075312549
 20
56.54699214335122
 30
0.0
 10
259.1285275823548
 20
56.65449166077327
 30
0.0
 10
259.1104592318393
 20
56.70760054308426
 30
0.0
 10
259.1047461900359
 20
56.72439307013407
 30
0.0
  0
LINE
  5
262
330
1F
100
AcDbEntity
  8
0
  6
Continuous
 62
     7
370
    15
100
AcDbLine
 10
258.954137671
 20
49.674458296
 30
0.0
 11
257.2172931495
 21
50.6771172961
 31
0.0
  0
LWPOLYLINE
  5
263
330
1F
100
AcDbEntity
  8
0
  6
Continuous
 62
     7
370
    15
100
AcDbPolyline
 90
        3
 70
   128
 43
0.0
 10
242.1667090156
 20
56.8401177934
 10
242.2556916788
 20
56.9674766114
 10
242.4571841257
 20
57.1573971274
  0
LWPOLYLINE
  5
264
330
1F
100
AcDbEntity
  8
0
  6
Continuous
 62
     7
370
    15
100
AcDbPolyline
 90
        3
 70
   128
 43
0.0
 10
242.2246773524
 20
56.9043488465
 10
242.3224358975
 20
57.0279137144
 10
242.4314756887
 20
57.129773639
  0
LWPOLYLINE
  5
265
330
1F
100
AcDbEntity
  8
0
  6
Continuous
 62
     7
370
    15
100
AcDbPolyline
 90
       25
 70
   128
 43
0.0
 10
267.7150832118
 20
39.3418520237
 10
268.2124972896
 20
39.2502602297
 10
268.734026321
 20
39.2361095071
 10
269.2441289645
 20
39.3003642042
 10
269.7080425678
 20
39.4386454696
 10
270.0941521855
 20
39.6415296636
 10
270.3761450853
 20
39.8951905637
 10
270.534803917
 20
40.1823415986
 10
270.5593163435
 20
40.4834138999
 10
270.4480118834
 20
40.7778898879
 10
270.2084757517
 20
41.0457015106
 10
269.85703194
 20
41.2685978484
 10
269.4176307632
 20
41.4313888843
 10
268.9202166854
 20
41.5229806783
 10
268.398687654
 20
41.5371314009
 10
267.8885850105
 20
41.4728767038
 10
267.4246714072
 20
41.3345954384
 10
267.0385617895
 20
41.1317112444
 10
266.7565688898
 20
40.8780503444
 10
266.597910058
 20
40.5908993094
 10
266.5733976315
 20
40.2898270081
 10
266.6847020916
 20
39.9953510201
 10
266.9242382233
 20
39.7275393975
 10
267.275682035
 20
39.5046430596
 10
267.7150832118
 20
39.3418520237
  0
LINE
  5
266
330
1F
100
AcDbEntity
  8
0
  6
Continuous
 62
     7
370
    15
100
AcDbLine
 10
268.4695530527
 20
41.0508682589
 30
0.0
 11
269.5144346981
 21
40.7671410794
 31
0.0
  0
LINE
  5
267
330
1F
100
AcDbEntity
  8
0
  6
Continuous
 62
     7
370
    15
100
AcDbLine
 10
267.5214753421
 20
40.6703476335
 30
0.0
 11
268.4695530527
 21
41.0508682589
 31
0.0
  0
LINE
  5
268
330
1F
100
AcDbEntity
  8
0
  6
Continuous
 62
     7
370
    15
100
AcDbLine
 10
267.6182792769
 20
40.0060998286
 30
0.0
 11
267.5214753421
 21
40.6703476335
 31
0.0
  0
LINE
  5
269
330
1F
100
AcDbEntity
  8
0
  6
Continuous
 62
     7
370
    15
100
AcDbLine
 10
268.6631609224
 20
39.7223726491
 30
0.0
 11
267.6182792769
 21
40.0060998286
 31
0.0
  0
LINE
  5
26A
330
1F
100
AcDbEntity
  8
0
  6
Continuous
 62
     7
370
    15
100
AcDbLine
 10
269.6112386329
 20
40.1028932745
 30
0.0
 11
268.6631609224
 21
39.7223726491
 31
0.0
  0
LINE
  5
26B
330
1F
100
AcDbEntity
  8
0
  6
Continuous
 62
     7
370
    15
100
AcDbLine
 10
269.5144346981
 20
40.7671410794
 30
0.0
 11
269.6112386329
 21
40.1028932745
 31
0.0
  0
LINE
  5
26C
330
1F
100
AcDbEntity
  8
0
  6
Continuous
 62
     7
370
    15
100
AcDbLine
 10
269.5144346981
 20
40.0640400314
 30
0.0
 11
269.5144346981
 21
40.7671410794
 31
0.0
  0
LINE
  5
26D
330
1F
100
AcDbEntity
  8
0
  6
Continuous
 62
     7
370
    15
100
AcDbLine
 10
268.4695530527
 20
39.7749449333
 30
0.0
 11
268.4695530527
 21
41.0508682589
 31
0.0
  0
ARC
  5
26E
330
1F
100
AcDbEntity
  8
0
  6
Continuous
 62
     7
370
     0
100
AcDbCircle
 10
248.176848508
 20
43.4058467556
 30
0.0
 40
3.103733651030607
100
AcDbArc
 50
173.9482268812
 51
234.7395927254
  0
LWPOLYLINE
  5
26F
330
1F
100
AcDbEntity
  8
0
  6
Continuous
 62
     7
370
     0
100
AcDbPolyline
 90
       18
 70
   128
 43
0.0
 10
252.634575274
 20
51.6971450764
 10
252.5772327976
 20
51.7290551149
 10
252.0813066401
 20
51.9193486521
 10
251.5305739061
 20
51.9895417565
 10
250.9367725078
 20
51.9381383839
 10
250.312558291
 20
51.7662341079
 10
249.6712352981
 20
51.4774927696
 10
249.0264722151
 20
51.0780683895
 10
248.3920110478
 20
50.5764740047
 10
247.7813742345
 20
49.9834002288
 10
247.2075764386
 20
49.3114873995
 10
246.682847164
 20
48.5750561722
 10
246.2183701042
 20
47.7898023001
 10
245.8240447813
 20
46.9724621061
 10
245.5082755549
 20
46.1404557775
 10
245.2777924979
 20
45.3115160845
 10
245.1375079565
 20
44.5033104376
 10
245.0904118521
 20
43.7330643371
  0
LWPOLYLINE
  5
270
330
1F
100
AcDbEntity
  8
0
  6
Continuous
 62
     7
370
     0
100
AcDbPolyline
 90
       35
 70
   128
 43
0.0
 10
271.7660151724
 20
36.7022802743
 10
271.246293052
 20
36.3466384445
 10
270.7442694451
 20
35.8918822986
 10
270.2770401636
 20
35.3534980117
 10
269.8605161401
 20
34.749819615
 10
269.5088816007
 20
34.1014046523
 10
269.234111038
 20
33.4303341174
 10
269.0455614339
 20
32.7594605126
 10
268.9496536191
 20
32.1116296338
 10
268.9496536191
 20
31.5089025846
 10
269.0455614339
 20
30.9718045118
 10
269.234111038
 20
30.5186256461
 10
269.5088816007
 20
30.1647984502
 10
269.8605161401
 20
29.9223720849
 10
270.2770401636
 20
29.7996020894
 10
270.7442694451
 20
29.8006692485
 10
271.246293052
 20
29.9255372214
 10
271.7660151724
 20
30.1699537792
 10
272.2857372927
 20
30.525595609
 10
272.7877608996
 20
30.9803517549
 10
273.2549901812
 20
31.5187360418
 10
273.6715142047
 20
32.1224144384
 10
274.023148744
 20
32.7708294011
 10
274.2979193067
 20
33.441899936
 10
274.4864689108
 20
34.1127735408
 10
274.5823767256
 20
34.7606044196
 10
274.5823767256
 20
35.3633314688
 10
274.4864689108
 20
35.9004295416
 10
274.2979193067
 20
36.3536084073
 10
274.023148744
 20
36.7074356032
 10
273.6715142047
 20
36.9498619685
 10
273.2549901812
 20
37.0726319641
 10
272.7877608996
 20
37.071564805
 10
272.2857372927
 20
36.946696832
 10
271.7660151724
 20
36.7022802743
  0
LWPOLYLINE
  5
271
330
1F
100
AcDbEntity
  8
0
  6
Continuous
 62
     7
370
     0
100
AcDbPolyline
 90
       18
 70
   128
 43
0.0
 10
269.6507113983
 20
30.616007434
 10
269.6624617818
 20
30.6091301503
 10
270.0374956046
 20
30.4702169231
 10
270.4653686065
 20
30.4531250999
 10
270.929637868
 20
30.5585115102
 10
271.4124617818
 20
30.7823262131
 10
271.8952856955
 20
31.1159681352
 10
272.359554957
 20
31.5466156045
 10
272.787427959
 20
32.0577190803
 10
273.1624617818
 20
32.6296371426
 10
273.470244086
 20
33.2403913011
 10
273.6989469703
 20
33.8665106159
 10
273.8397815111
 20
34.483933673
 10
273.8873355159
 20
35.0689332504
 10
273.8397815111
 20
35.5990281425
 10
273.6989469703
 20
36.0538470998
 10
273.470244086
 20
36.415911685
 10
273.1883879209
 20
36.6558859936
  0
LWPOLYLINE
  5
272
330
1F
100
AcDbEntity
  8
0
  6
Continuous
 62
     7
370
     0
100
AcDbPolyline
 90
       21
 70
   128
 43
0.0
 10
237.4720107414
 20
44.4784827533
 10
237.8222679263
 20
45.8430817602
 10
238.2664134214
 20
47.2182825403
 10
238.8004432907
 20
48.5916877688
 10
239.4195432976
 20
49.9509163074
 10
240.118132305
 20
51.2837148195
 10
240.8899125891
 20
52.5780682331
 10
241.7279266122
 20
53.8223080558
 10
242.6246197449
 20
55.0052175652
 10
243.5719083705
 20
56.1161329266
 10
244.5612527577
 20
57.1450393269
 10
245.583734046
 20
58.0826612572
 10
246.6301346485
 20
58.9205461309
 10
247.6910213473
 20
59.6511404829
 10
248.7568303339
 20
60.2678580634
 10
249.8179534254
 20
60.7651392129
 10
250.864824682
 20
61.1385009816
 10
251.8880066432
 20
61.384577543
 10
252.8782754053
 20
61.5011505365
 10
253.8267037748
 20
61.487169066
 10
254.7247417458
 20
61.3427591734
  0
ARC
  5
273
330
1F
100
AcDbEntity
  8
0
  6
Continuous
 62
     7
370
     0
100
AcDbCircle
 10
260.9179740001
 20
39.1962222253
 30
0.0
 40
23.61090704840924
100
AcDbArc
 50
157.5509219284
 51
167.8916794504
  0
LWPOLYLINE
  5
274
330
1F
100
AcDbEntity
  8
0
  6
Continuous
 62
     7
370
     0
100
AcDbPolyline
 90
       14
 70
   128
 43
0.0
 10
243.3736357252
 20
55.253150728
 10
243.4236100206
 20
55.3117811249
 10
244.3449795888
 20
56.328887495
 10
245.3010489107
 20
57.2662469462
 10
246.2837346923
 20
58.115934371
 10
247.2847286052
 20
58.8707659043
 10
248.2955675307
 20
59.5243596603
 10
249.3077051135
 20
60.0711896898
 10
250.3125840183
 20
60.5066327005
 10
251.3017082801
 20
60.8270071457
 10
252.2667151347
 20
61.0296043508
 10
253.199445724
 20
61.112711414
 10
254.0920140763
 20
61.0756256887
 10
254.9368737801
 20
60.9186607242
  0
LWPOLYLINE
  5
275
330
1F
100
AcDbEntity
  8
0
  6
Continuous
 62
     7
370
     0
100
AcDbPolyline
 90
        3
 70
   128
 43
0.0
 10
259.0595011696
 20
49.6136134698
 10
258.7399538355
 20
48.307234298
 10
258.7074836766
 20
48.191329679
  0
LWPOLYLINE
  5
276
330
1F
100
AcDbEntity
  8
0
  6
Continuous
 62
     7
370
     0
100
AcDbPolyline
 90
       20
 70
   128
 43
0.0
 10
252.4579915976
 20
37.3657188992
 10
252.4367684475
 20
37.3439183191
 10
251.4672468698
 20
36.4081819687
 10
250.4716971538
 20
35.5628989478
 10
249.4587049979
 20
34.8153590432
 10
248.4370065254
 20
34.1720090972
 10
247.4154129435
 20
33.6383974099
 10
246.402734555
 20
33.2191258902
 10
245.4077047772
 20
32.9178103682
 10
244.4389048246
 20
32.7370494125
 10
243.5046897034
 20
32.6784019198
 10
242.6131161577
 20
32.7423736706
 10
241.7718731872
 20
32.9284129674
 10
240.9882157369
 20
33.234915393
 10
240.2689021298
 20
33.6592376464
 10
239.6201357825
 20
34.1977203396
 10
239.0475117066
 20
34.8457195557
 10
238.5559682567
 20
35.597646899
 10
238.1497445418
 20
36.4470176894
 10
237.8323438669
 20
37.3865068872
  0
ARC
  5
277
330
1F
100
AcDbEntity
  8
0
  6
Continuous
 62
     7
370
     0
100
AcDbCircle
 10
252.2607431718
 20
54.6934939869
 30
0.0
 40
7.017045977379198
100
AcDbArc
 50
14.3287300663
 51
43.5251561868
  0
LWPOLYLINE
  5
278
330
1F
100
AcDbEntity
  8
0
  6
Continuous
 62
     7
370
     0
100
AcDbPolyline
 90
       24
 70
   128
 43
0.0
 10
242.9690915086
 20
43.7330643371
 10
243.0159743317
 20
44.5861239278
 10
243.1558206231
 20
45.4787171878
 10
243.3862375739
 20
46.3955715991
 10
243.7032826861
 20
47.3209995283
 10
244.1015312301
 20
48.239166647
 10
244.5741690628
 20
49.1343628614
 10
245.1131092198
 20
49.9912711159
 10
245.7091302857
 20
50.7952294727
 10
246.3520341747
 20
51.5324819815
 10
247.0308206231
 20
52.1904140475
 10
247.7338754065
 20
52.7577682705
 10
248.4491690628
 20
53.2248370625
 10
249.164462719
 20
53.583628747
 10
249.8675175024
 20
53.8280042988
 10
250.5463039508
 20
53.9537823845
 10
251.1892078398
 20
53.958810906
 10
251.7852289057
 20
53.8430038241
 10
252.3241690628
 20
53.60834263
 10
252.7968068954
 20
53.2588424418
 10
253.1950554394
 20
52.8004833046
 10
253.5121005516
 20
52.2411078704
 10
253.7425175024
 20
51.5902872079
 10
253.8653891415
 20
50.9866113548
  0
LWPOLYLINE
  5
279
330
1F
100
AcDbEntity
  8
0
  6
Continuous
 62
     7
370
     0
100
AcDbPolyline
 90
       12
 70
   128
 43
0.0
 10
247.6158970625
 20
40.1610005751
 10
247.0308206231
 20
39.965287242
 10
246.3520341747
 20
39.8395091563
 10
245.7091302857
 20
39.8344806348
 10
245.1131092198
 20
39.9502877167
 10
244.5741690627
 20
40.1849489108
 10
244.1015312301
 20
40.534449099
 10
243.7032826861
 20
40.9928082362
 10
243.3862375739
 20
41.5521836704
 10
243.1558206231
 20
42.2030043329
 10
243.0159743317
 20
42.9341345018
 10
242.9690915086
 20
43.7330643371
  0
LWPOLYLINE
  5
27A
330
1F
100
AcDbEntity
  8
0
  6
Continuous
 62
     7
370
     0
100
AcDbPolyline
 90
       21
 70
   128
 43
0.0
 10
232.2924535692
 20
47.4685774629
 10
232.6427107541
 20
48.8331764697
 10
233.0868562492
 20
50.2083772499
 10
233.6208861185
 20
51.5817824784
 10
234.2399861254
 20
52.9410110169
 10
234.9385751328
 20
54.273809529
 10
235.7103554169
 20
55.5681629427
 10
236.54836944
 20
56.8124027654
 10
237.4450625727
 20
57.9953122748
 10
238.3923511983
 20
59.1062276361
 10
239.3816955855
 20
60.1351340365
 10
240.4041768738
 20
61.0727559668
 10
241.4505774763
 20
61.9106408405
 10
242.5114641751
 20
62.6412351924
 10
243.5772731617
 20
63.257952773
 10
244.6383962532
 20
63.7552339225
 10
245.6852675098
 20
64.1285956911
 10
246.708449471
 20
64.3746722525
 10
247.6987182331
 20
64.4912452461
 10
248.6471466026
 20
64.4772637756
 10
249.5451845736
 20
64.3328538829
  0
LWPOLYLINE
  5
27B
330
1F
100
AcDbEntity
  8
0
  6
Continuous
 62
     7
370
     0
100
AcDbPolyline
 90
       17
 70
   128
 43
0.0
 10
235.7644307704
 20
46.5588077376
 10
236.0947712932
 20
47.8229032812
 10
236.5159853532
 20
49.0961634997
 10
237.0238901991
 20
50.3659446298
 10
237.6134422202
 20
51.619637456
 10
238.2787870309
 20
52.8447925235
 10
239.0133176059
 20
54.0292437638
 10
239.8097398896
 20
55.1612293067
 10
240.6601452276
 20
56.2295082785
 10
241.5560889015
 20
57.223472426
 10
242.4886739869
 20
58.1332514591
 10
243.4486397017
 20
58.9498110652
 10
244.4264533683
 20
59.6650426217
 10
245.4124050744
 20
60.2718437167
 10
246.3967040954
 20
60.7641886771
 10
247.3695761183
 20
61.1371884057
 10
247.8744524069
 20
61.2844485025
  0
LWPOLYLINE
  5
27C
330
1F
100
AcDbEntity
  8
0
  6
Continuous
 62
     7
370
     0
100
AcDbPolyline
 90
       20
 70
   128
 43
0.0
 10
235.1866461716
 20
46.5518230332
 10
235.5154995568
 20
47.840488069
 10
235.9367155667
 20
49.1396000645
 10
236.4461762792
 20
50.4364585483
 10
237.0389010683
 20
51.71838508
 10
237.7090952956
 20
52.9728471979
 10
238.4502069603
 20
54.1875809399
 10
239.2549907538
 20
55.3507107394
 10
240.1155788913
 20
56.4508655237
 10
241.0235580296
 20
57.4772898811
 10
241.9700515183
 20
58.4199492087
 10
242.9458061802
 20
59.269627813
 10
243.9412827729
 20
60.0180190054
 10
244.9467492472
 20
60.6578063104
 10
245.9523758898
 20
61.1827349939
 10
246.9483314219
 20
61.5876732105
 10
247.9248791119
 20
61.8686621744
 10
248.8724719646
 20
62.0229548611
 10
249.7818460551
 20
62.0490428636
 10
249.947564664
 20
62.0396063364
  0
LINE
  5
27D
330
1F
100
AcDbEntity
  8
0
  6
Continuous
 62
     7
370
     0
100
AcDbLine
 10
240.4588624353
 20
44.9172840569
 30
0.0
 11
239.8930850631
 21
45.2439003817
 31
0.0
  0
LWPOLYLINE
  5
27E
330
1F
100
AcDbEntity
  8
0
  6
Continuous
 62
     7
370
     0
100
AcDbPolyline
 90
        3
 70
   128
 43
0.0
 10
234.7761978366
 20
45.5967185712
 10
234.7754916816
 20
45.717956559
 10
234.8002053844
 20
46.4513137937
  0
LINE
  5
27F
330
1F
100
AcDbEntity
  8
0
  6
Continuous
 62
     7
370
     0
100
AcDbLine
 10
234.97428001
 20
42.8167778604
 30
0.0
 11
240.4588624353
 21
39.6505958203
 31
0.0
  0
LINE
  5
280
330
1F
100
AcDbEntity
  8
0
  6
Continuous
 62
     7
370
     0
100
AcDbLine
 10
234.8550411944
 20
42.7479203802
 30
0.0
 11
234.97428001
 21
42.8167778604
 31
0.0
  0
LWPOLYLINE
  5
281
330
1F
100
AcDbEntity
  8
0
  6
Continuous
 62
     7
370
     0
100
AcDbPolyline
 90
       17
 70
   128
 43
0.0
 10
213.5036088231
 20
62.0099199363
 10
213.5503155881
 20
62.7737984788
 10
213.6894404093
 20
63.5753227593
 10
213.9180180827
 20
64.3974096793
 10
214.2311768721
 20
65.2225378834
 10
214.6222423416
 20
66.0331211965
 10
215.0828796096
 20
66.8118834426
 10
215.6032709926
 20
67.5422266564
 10
216.1723252516
 20
68.2085848403
 10
216.777913983
 20
68.7967557265
 10
217.4071301146
 20
69.2942034737
 10
218.0465629968
 20
69.6903258469
 10
218.6825842278
 20
69.9766801854
 10
219.3016381195
 20
70.1471633437
 10
219.8905306129
 20
70.198141769
 10
220.4367104868
 20
70.128528945
 10
220.6492450183
 20
70.0640628365
  0
ARC
  5
282
330
1F
100
AcDbEntity
  8
0
  6
Continuous
 62
     7
370
     0
100
AcDbCircle
 10
216.860008426
 20
61.7685615605
 30
0.0
 40
3.365066442058049
100
AcDbArc
 50
175.8869457832
 51
225.0942205936
  0
LWPOLYLINE
  5
283
330
1F
100
AcDbEntity
  8
0
  6
Continuous
 62
     7
370
     0
100
AcDbPolyline
 90
        3
 70
   128
 43
0.0
 10
238.0729617993
 20
35.6497725421
 10
237.8092705
 20
36.2004844313
 10
237.4720107414
 20
37.1306964295
  0
LINE
  5
284
330
1F
100
AcDbEntity
  8
0
  6
Continuous
 62
     7
370
     0
100
AcDbLine
 10
239.8931770104
 20
38.670799926
 30
0.0
 11
234.6429091601
 21
41.7017150412
 31
0.0
  0
LINE
  5
285
330
1F
100
AcDbEntity
  8
0
  6
Continuous
 62
     7
370
     0
100
AcDbLine
 10
236.6291151283
 20
39.2859603787
 30
0.0
 11
236.5493192976
 21
39.5325476999
 31
0.0
  0
LWPOLYLINE
  5
286
330
1F
100
AcDbEntity
  8
0
  6
Continuous
 62
     7
370
     0
100
AcDbPolyline
 90
        3
 70
   128
 43
0.0
 10
236.2602924531
 20
38.7613515746
 10
236.0898959596
 20
39.113817657
 10
235.7644307704
 20
39.9856542019
  0
ARC
  5
287
330
1F
100
AcDbEntity
  8
0
  6
Continuous
 62
     7
370
     0
100
AcDbCircle
 10
241.833801057
 20
41.854849384
 30
0.0
 40
6.906860287896022
100
AcDbArc
 50
195.7618828215
 51
213.7650118748
  0
LWPOLYLINE
  5
288
330
1F
100
AcDbEntity
  8
0
  6
Continuous
 62
     7
370
     0
100
AcDbPolyline
 90
        3
 70
   128
 43
0.0
 10
232.8921440208
 20
38.6422461006
 10
232.6297133279
 20
39.1905791409
 10
232.2924535692
 20
40.1207911391
  0
LINE
  5
289
330
1F
100
AcDbEntity
  8
0
  6
Continuous
 62
     7
370
     0
100
AcDbLine
 10
257.2172931569
 20
49.324925781
 30
0.0
 11
257.7829785744
 21
48.9983625406
 31
0.0
  0
OLE2FRAME
  5
28A
330
1F
100
AcDbEntity
  8
0
100
AcDbOle2Frame
 70
     2
  3
Paintbrush-Bild
 10
13.8511154363
 20
38.264191557
 30
0.0
 11
51.6290888628
 21
31.9806341108
 31
0.0
 71
     2
 72
     0
 73
     1
 90
    12928
310
80552BED0767C5B32B40DDAF6807D121434000000000000000006FFBDDFB85D0
310
4940DDAF6807D121434000000000000000006FFBDDFB85D04940416F4BD60AFB
310
3F4000000000000000002BED0767C5B32B40416F4BD60AFB3F40000000000000
310
0000000000000100000000010000010000000100000000000100000000320000
310
D0CF11E0A1B11AE1000000000000000000000000000000003E000300FEFF0900
310
0600000000000000000000000100000001000000000000000010000002000000
310
01000000FEFFFFFF0000000000000000FFFFFFFFFFFFFFFFFFFFFFFFFFFFFFFF
310
FFFFFFFFFFFFFFFFFFFFFFFFFFFFFFFFFFFFFFFFFFFFFFFFFFFFFFFFFFFFFFFF
310
FFFFFFFFFFFFFFFFFFFFFFFFFFFFFFFFFFFFFFFFFFFFFFFFFFFFFFFFFFFFFFFF
310
FFFFFFFFFFFFFFFFFFFFFFFFFFFFFFFFFFFFFFFFFFFFFFFFFFFFFFFFFFFFFFFF
310
FFFFFFFFFFFFFFFFFFFFFFFFFFFFFFFFFFFFFFFFFFFFFFFFFFFFFFFFFFFFFFFF
310
FFFFFFFFFFFFFFFFFFFFFFFFFFFFFFFFFFFFFFFFFFFFFFFFFFFFFFFFFFFFFFFF
310
FFFFFFFFFFFFFFFFFFFFFFFFFFFFFFFFFFFFFFFFFFFFFFFFFFFFFFFFFFFFFFFF
310
FFFFFFFFFFFFFFFFFFFFFFFFFFFFFFFFFFFFFFFFFFFFFFFFFFFFFFFFFFFFFFFF
310
FFFFFFFFFFFFFFFFFFFFFFFFFFFFFFFFFFFFFFFFFFFFFFFFFFFFFFFFFFFFFFFF
310
FFFFFFFFFFFFFFFFFFFFFFFFFFFFFFFFFFFFFFFFFFFFFFFFFFFFFFFFFFFFFFFF
310
FFFFFFFFFFFFFFFFFFFFFFFFFFFFFFFFFFFFFFFFFFFFFFFFFFFFFFFFFFFFFFFF
310
FFFFFFFFFFFFFFFFFFFFFFFFFFFFFFFFFFFFFFFFFFFFFFFFFFFFFFFFFFFFFFFF
310
FFFFFFFFFFFFFFFFFFFFFFFFFFFFFFFFFFFFFFFFFFFFFFFFFFFFFFFFFFFFFFFF
310
FFFFFFFFFFFFFFFFFFFFFFFFFFFFFFFFFFFFFFFFFFFFFFFFFFFFFFFFFFFFFFFF
310
FDFFFFFFFEFFFFFFFEFFFFFFFEFFFFFF05000000060000000700000008000000
310
090000000A0000000B0000000C0000000D0000000E0000000F00000010000000
310
11000000120000001300000014000000150000001600000017000000FEFFFFFF
310
FFFFFFFFFFFFFFFFFFFFFFFFFFFFFFFFFFFFFFFFFFFFFFFFFFFFFFFFFFFFFFFF
310
FFFFFFFFFFFFFFFFFFFFFFFFFFFFFFFFFFFFFFFFFFFFFFFFFFFFFFFFFFFFFFFF
310
FFFFFFFFFFFFFFFFFFFFFFFFFFFFFFFFFFFFFFFFFFFFFFFFFFFFFFFFFFFFFFFF
310
FFFFFFFFFFFFFFFFFFFFFFFFFFFFFFFFFFFFFFFFFFFFFFFFFFFFFFFFFFFFFFFF
310
FFFFFFFFFFFFFFFFFFFFFFFFFFFFFFFFFFFFFFFFFFFFFFFFFFFFFFFFFFFFFFFF
310
FFFFFFFFFFFFFFFFFFFFFFFFFFFFFFFFFFFFFFFFFFFFFFFFFFFFFFFFFFFFFFFF
310
FFFFFFFFFFFFFFFFFFFFFFFFFFFFFFFFFFFFFFFFFFFFFFFFFFFFFFFFFFFFFFFF
310
FFFFFFFFFFFFFFFFFFFFFFFFFFFFFFFFFFFFFFFFFFFFFFFFFFFFFFFFFFFFFFFF
310
FFFFFFFFFFFFFFFFFFFFFFFFFFFFFFFFFFFFFFFFFFFFFFFFFFFFFFFFFFFFFFFF
310
FFFFFFFFFFFFFFFFFFFFFFFFFFFFFFFFFFFFFFFFFFFFFFFFFFFFFFFFFFFFFFFF
310
FFFFFFFFFFFFFFFFFFFFFFFFFFFFFFFFFFFFFFFFFFFFFFFFFFFFFFFFFFFFFFFF
310
FFFFFFFFFFFFFFFFFFFFFFFFFFFFFFFFFFFFFFFFFFFFFFFFFFFFFFFFFFFFFFFF
310
FFFFFFFFFFFFFFFFFFFFFFFFFFFFFFFFFFFFFFFFFFFFFFFFFFFFFFFFFFFFFFFF
310
52006F006F007400200045006E00740072007900000000000000000000000000
310
0000000000000000000000000000000000000000000000000000000000000000
310
16000500FFFFFFFFFFFFFFFF020000000A00030000000000C000000000000046
310
000000000000000000000000E04062DC6124D20103000000C000000000000000
310
01004F006C006500000000000000000000000000000000000000000000000000
310
0000000000000000000000000000000000000000000000000000000000000000
310
0A000200FFFFFFFFFFFFFFFFFFFFFFFF00000000000000000000000000000000
310
0000000000000000000000000000000000000000000000001400000000000000
310
010043006F006D0070004F0062006A0000000000000000000000000000000000
310
0000000000000000000000000000000000000000000000000000000000000000
310
120002010100000003000000FFFFFFFF00000000000000000000000000000000
310
0000000000000000000000000000000000000000010000004D00000000000000
310
01004F006C006500310030004E00610074006900760065000000000000000000
310
0000000000000000000000000000000000000000000000000000000000000000
310
1A000200FFFFFFFFFFFFFFFFFFFFFFFF00000000000000000000000000000000
310
0000000000000000000000000000000000000000040000002426000000000000
310
FEFFFFFF02000000FEFFFFFFFFFFFFFFFFFFFFFFFFFFFFFFFFFFFFFFFFFFFFFF
310
FFFFFFFFFFFFFFFFFFFFFFFFFFFFFFFFFFFFFFFFFFFFFFFFFFFFFFFFFFFFFFFF
310
FFFFFFFFFFFFFFFFFFFFFFFFFFFFFFFFFFFFFFFFFFFFFFFFFFFFFFFFFFFFFFFF
310
FFFFFFFFFFFFFFFFFFFFFFFFFFFFFFFFFFFFFFFFFFFFFFFFFFFFFFFFFFFFFFFF
310
FFFFFFFFFFFFFFFFFFFFFFFFFFFFFFFFFFFFFFFFFFFFFFFFFFFFFFFFFFFFFFFF
310
FFFFFFFFFFFFFFFFFFFFFFFFFFFFFFFFFFFFFFFFFFFFFFFFFFFFFFFFFFFFFFFF
310
FFFFFFFFFFFFFFFFFFFFFFFFFFFFFFFFFFFFFFFFFFFFFFFFFFFFFFFFFFFFFFFF
310
FFFFFFFFFFFFFFFFFFFFFFFFFFFFFFFFFFFFFFFFFFFFFFFFFFFFFFFFFFFFFFFF
310
FFFFFFFFFFFFFFFFFFFFFFFFFFFFFFFFFFFFFFFFFFFFFFFFFFFFFFFFFFFFFFFF
310
FFFFFFFFFFFFFFFFFFFFFFFFFFFFFFFFFFFFFFFFFFFFFFFFFFFFFFFFFFFFFFFF
310
FFFFFFFFFFFFFFFFFFFFFFFFFFFFFFFFFFFFFFFFFFFFFFFFFFFFFFFFFFFFFFFF
310
FFFFFFFFFFFFFFFFFFFFFFFFFFFFFFFFFFFFFFFFFFFFFFFFFFFFFFFFFFFFFFFF
310
FFFFFFFFFFFFFFFFFFFFFFFFFFFFFFFFFFFFFFFFFFFFFFFFFFFFFFFFFFFFFFFF
310
FFFFFFFFFFFFFFFFFFFFFFFFFFFFFFFFFFFFFFFFFFFFFFFFFFFFFFFFFFFFFFFF
310
FFFFFFFFFFFFFFFFFFFFFFFFFFFFFFFFFFFFFFFFFFFFFFFFFFFFFFFFFFFFFFFF
310
FFFFFFFFFFFFFFFFFFFFFFFFFFFFFFFFFFFFFFFFFFFFFFFFFFFFFFFFFFFFFFFF
310
0100000200000000000000000000000000000000000000000000000000000000
310
0000000000000000000000000000000000000000000000000000000000000000
310
0100FEFF030A0000FFFFFFFF0A00030000000000C00000000000004607000000
310
5042727573680007000000504272757368000700000050427275736800F439B2
310
7100000000000000000000000000000000000000000000000000000000000000
310
0000000000000000000000000000000000000000000000000000000000000000
310
0000000000000000000000000000000000000000000000000000000000000000
310
0000000000000000000000000000000000000000000000000000000000000000
310
0000000000000000000000000000000000000000000000000000000000000000
310
0000000000000000000000000000000000000000000000000000000000000000
310
0000000000000000000000000000000000000000000000000000000000000000
310
0000000000000000000000000000000000000000000000000000000000000000
310
0000000000000000000000000000000000000000000000000000000000000000
310
0000000000000000000000000000000000000000000000000000000000000000
310
0000000000000000000000000000000000000000000000000000000000000000
310
0000000000000000000000000000000000000000000000000000000000000000
310
20260000424D0E260000000000003E00000028000000B40200006E0000000100
310
01000000000000000000130B0000130B00000200000002000000000000FFFFFF
310
FFFFFFFFFFFFFFFFFFFFFFFFFFFFFFFFFFFFFFFFFFFFFFFFFFFFFFFFFFFFFFFF
310
FFFFFFFFFFFFFFFFFFFFFFFFFFFFFFFFFFFFFFFFFFFFFFFFFFFFFFFFFFFFFFFF
310
FFFFFFFFFFFFFFFFFFFFFFFFFFFFFFFFFFFFFFFFFFFFFFFFF000FFFFFFFFFFFF
310
FFFFFFFFFFFFFFFFFFFFFFFFFFFFFFFFFFFFFFFFFFFFFFFFFFFFFFFFFFFFFFFF
310
FFFFFFFFFFFFFFFFFFFFFFFFFFFFFFFFFFFFFFFFFFFFFFFFFFFFFFFFFFFFFFFF
310
FFFFFFFFFFFFFFFFFFFFFFFFFFFFFFFFF000FFFFFFFFFFFFFFFFFFFFFFFFFFFF
310
FFFFFFFFFFFFFFFFFFFFFFFFFFFFFFFFFFFFFFFFFFFFFFFFFFFFFFFFFFFFFFFF
310
FFFFFFFFFFFFFFFFFFFFFFFFFFFFFFFFFFFFFFFFFFFFFFFFFFFFFFFFFFFFFFFF
310
FFFFFFFFFFFFFFFFF000FFFFFFFFFFFFFFFFFFFFFFFFFFFFFFFFFFFFFFFFFFFF
310
FFFFFFFFFFFFFFFFFFFFFFFFFFFFFFFFFFFFFFFFFFFFFFFFFFFFFFFFFFFFFFFF
310
FFFFFFFFFFFFFFFFFFFFFFFFFFFFFFFFFFFFFFFFFFFFFFFFFFFFFFFFFFFFFFFF
310
F000FFFFFFFFFFFFFFFFFFFFFFFFFFFFFFFFFFFFFFFFFFFFFFFFFFFFFFFFFFFF
310
FFFFFFFFFFFFFFFFFFFFFFFFFFFFFFFFFFFFFFFFFFFFFFFFFFFFFFFFFFFFFFFF
310
FFFFFFFFFFFFFFFFFFFFFFFFFFFFFFFFFFFFFFFFFFFFFFFFF000FFFFFFFFFFFF
310
FFFFFFFFFFFFFFFFFFFFFFFFFFFFFFFFFFFFFFFFFFFFFFFFFFFFFFFFFFFFFFFF
310
FFFFFFFFFFFFFFFFFFFFFFFFFFFFFFFFFFFFFFFFFFFFFFFFFFFFFFFFFFFFFFFF
310
FFFFFFFFFFFFFFFFFFFFFFFFFFFFFFFFF000FFFFFFFFFFFFFFFFFFFFFFFFFFFF
310
FFFFFFFFFFFFFFFFFFFFFFFFFFFFFFFFFFFFFFFFFFFFFFFFFFFFFFFFFFFFFFFF
310
FFFFFFFFFFFFFFFFFFFFFFFFFFFFFFFFFFFFFFFFFFFFFFFFFFFFFFFFFFFFFFFF
310
FFFFFFFFFFFFFFFFF000FFFFFFFFFFFFFFFFFFFFFFFFFFFFFFFFFFFFFFFFFFFF
310
FFFFFFFFFFFFFFFFFFFFFFFFFFFFFFFFFFFFFFFFFFFFFFFFFFFFFFFFFFFFFFFF
310
FFFFFFFFFFFFFFFFFFFFFFFFFFFFFFFFFFFFFFFFFFFFFFFFFFFFFFFFFFFFFFFF
310
F000FFFFFFFFFFFFFFFFFFFFFFFFFFFFFFFFFFFFFFFFFFFFFFFFFFFFFFFFFFFF
310
FFFFFFFFFFFFFFFFFFFFFFFFFFFFFFFFFFFFFFFFFFFFFFFFFFFFFFFFFFFFFFFF
310
FFFFFFFFFFFFFFFFFFFFFFFFFFFFFFFFFFFFFFFFFFFFFFFFF000FFFFFFFFFFFF
310
FFFFFFFFFFFFFFFFFFFFFFFFFFFFFFFFFFFFFFFFFFFFFFFFFFFFFFFFFFFFFFFF
310
FFFFFFFFFFFFFFFFFFFFFFFFFFFFFFFFFFFFFFFFFFFFFFFFFFFFFFFFFFFFFFFF
310
FFFFFFFFFFFFFFFFFFFFFFFFFFFFFFFFF000FFFFFFFFFFFFFFFFFFFFFFFFFFFF
310
FFFFFFFFFFFFFFFFFFFFFFFFFFFFFFFFFFFFFFFFFFFFFFFFFFFFFFFFFFFFFFFF
310
FFFFFFFFFFFFFFFFFFFFFFFFFFFFFFFFFFFFFFFFFFFFFFFFFFFFFFFFFFFFFFFF
310
FFFFFFFFFFFFFFFFF000FFFFFFFFFFFFFFFFFFFFFFFFFFFFFFFFFFFFFFFFFFFF
310
FFFFFFFFFFFFFFFFFFFFFFFFFFFFFFFFFFFFFFFFFFFFFFFFFFFFFFFFFFFFFFFF
310
FFFFFFFFFFFFFFFFFFFFFFFFFFFFFFFFFFFFFFFFFFFFFFFFFFFFFFFFFFFFFFFF
310
F000FFFFFFFFFFFFFFFFFFFFFFFFFFFFFFFFFFFFFFFFFFFFFFFFFFFFFFFFFFFF
310
FFFFFFFFFFFFFFFFFFFFFFFFFFFFFFFFFFFFFFFFFFFFFFFFFFFFFFFFFFFFFFFF
310
FFFFFFFFFFFFFFFFFFFFFFFFFFFFFFFFFFFFFFFFFFFFFFFFF000FFFFFFFFFFFF
310
FFFFFFFFFFFFFFFFFFFFFFFFFFFFFFFFFFFFFFFFFFFFFFFFFFFFFFFFFFFFFFFF
310
FFFFFFFFFFFFFFFFFFFFFFFFFFFFFFFFFFFFFFFFFFFFFFFFFFFFFFFFFFFFFFFF
310
FFFFFFFFFFFFFFFFFFFFFFFFFFFFFFFFF000FFFFFFFFFFFFFFFFFFFFFFFFFFFF
310
FFFFFFFFFFFFFFFFFFFFFFFFFFFFFFFFFFFFFFFFFFFFFFFFFFFFFFFFFFFFFFFF
310
FFFFFFFFFFFFFFFFFFFFFFFFFFFFFFFFFFFFFFFFFFFFFFFFFFFFFFFFFFFFFFFF
310
FFFFFFFFFFFFFFFFF000FFFFFFFFFFFFFFFFFFFFFFFFFFFFFFFFFFFFFFFFFFFF
310
FFFFFFFFFFFFFFFFFFFFFFFFFFFFFFFFFFFFFFFFFFFFFFFFFFFFFFFFFFFFFFFF
310
FFFFFFFFFFFFFFFFFFFFFFFFFFFFFFFFFFFFFFFFFFFFFFFFFFFFFFFFFFFFFFFF
310
F000FFFFFFFFFFFFFFFFFFFFFFFFFFFFFFFFFFFFFFFFFFFFFFFFFFFFFFFFFFFF
310
FFFFFFFFFFFFFFFFFFFFFFFFFFFFFFFFFFFFFFFFFFFFFFFFFFFFFFFFFFFFFFFF
310
FFFFFFFFFFFFFFFFFFFFFFFFFFFFFFFFFFFFFFFFFFFFFFFFF000FFFFFFFFFFFF
310
FFFFFFFFFFFFFFFFFFFFFFFFFFFFFFFFFFFFFFFFFFFFFFFFFFFFFFFFFFFFFFFF
310
FFFFFFFFFFFFFFFFFFFFFFFFFFFFFFFFFFFFFFFFFFFFFFFFFFFFFFFFFFFFFFFF
310
FFFFFFFFFFFFFFFFFFFFFFFFFFFFFFFFF000FFFFFFFFFFFFFFFFFFFFFFFFFFFF
310
FFFFFFFFFFFFFFFFFFFFFFFFFFFFFFFFFFFFFFFFFFFFFFFFFFFFFFFFFFFFFFFF
310
FFFFFFFFFFFFFFFFFFFFFFFFFFFFFFFFFFFFFFFFFFFFFFFFFFFFFFFFFFFFFFFF
310
FFFFFFFFFFFFFFFFF000FFFFF80003FFFFFFFFFFFFFFFFFFFFFFFFFFFFFFFFFF
310
FFFFF00007FFFFFFFFFF00007FFFFFF800000000000000007FFFFFFFFFFFFFFF
310
FFFFFFFC001FFFFFFFFFFFFFFC001FFFFFFFFFFFFFFFFFFFFFFFFFFE0007FFFF
310
F000FFFF8000007FFFFFFFF8000FFFFFC0007FFFFF80007FFFFF0000007FFFFF
310
FFF8000007FFFFF800000000000000007FFFFFF0001FFFFFFFFFFFC00001FFFF
310
FFFFFFFFC00001FFFFFFFF000000000003FFFFE000007FFFF000FFFE0000000F
310
FFFFFFF0000FFFFF80007FFFFF80007FFFFC0000001FFFFFFFC0000001FFFFF8
310
00000000000000007FFFFFF0001FFFFFFFFFFE0000003FFFFFFFFFFE0000003F
310
FFFFFF000000000003FFFF0000000FFFF000FFF800000003FFFFFFF00007FFFF
310
80007FFFFF80007FFFF000000007FFFFFF000000003FFFF80000000000000000
310
7FFFFFF0001FFFFFFFFFF80000000FFFFFFFFFF80000000FFFFFFF0000000000
310
03FFFC00000003FFF000FFE000000000FFFFFFF00007FFFF80003FFFFF80007F
310
FFC000000001FFFFFC000000001FFFF800000000000000007FFFFFF0001FFFFF
310
FFFFE000000003FFFFFFFFE000000003FFFFFF000000000003FFF000000000FF
310
F000FF80000000007FFFFFF00007FFFF80003FFFFF80007FFF8000000000FFFF
310
F80000000007FFF800000000000000007FFFFFF0001FFFFFFFFFC000000001FF
310
FFFFFFC000000001FFFFFF000000000003FFC0000000007FF000FF0000000000
310
3FFFFFE00007FFFF00003FFFFF80007FFE00000000003FFFF00000000003FFF8
310
00000000000000007FFFFFF0001FFFFFFFFF8000000000FFFFFFFF8000000000
310
FFFFFF000000000003FF80000000003FF000FE00000000001FFFFFE00003FFFF
310
00003FFFFF80007FFC00000000001FFFE00000000001FFF8000001FFFE000000
310
7FFFFFF0001FFFFFFFFE00000000003FFFFFFE00000000003FFFFF0000000000
310
03FF00000000001FF000FC00000000000FFFFFE00003FFFF00001FFFFF80007F
310
F800000000001FFFC00000000000FFF8000001FFFE0000007FFFFFF0001FFFFF
310
FFFC00000000001FFFFFFC00000000001FFFFF000000000003FE00000000000F
310
F000F8000000000007FFFFE00003FFFF00001FFFFF80007FF800000000000FFF
310
800000000000FFF8000001FFFE0000007FFFFFF0001FFFFFFFF800000000000F
310
FFFFF800000000000FFFFF000000000003FC000000000007F000F80000000000
310
03FFFFC00003FFFE00001FFFFF80007FF0000000000007FF0000000000007FF8
310
000001FFFE0000007FFFFFF0001FFFFFFFF0000000000007FFFFF00000000000
310
07FFFF000000000003F8000000000003F000F0000000000003FFFFC00001FFFE
310
00001FFFFF80007FE0000000000007FE0000000000003FF8000001FFFE000000
310
7FFFFFF0001FFFFFFFF0000000000007FFFFF0000000000007FFFF0000000000
310
03F800001F800003F000E00001FFF00001FFFFC00001FFFE00000FFFFF80007F
310
E00001FFE00003FE00001FFF00003FF8000001FFFE0000007FFFFFF0001FFFFF
310
FFE000003E000003FFFFE000003E000003FFFF000000000003F00001FFF80001
310
F000E00007FFFC0001FFFFC00001FFFE00000FFFFF80007FC0000FFFFC0003FC
310
0000FFFFC0001FF8000001FFFE0000007FFFFFF0001FFFFFFFC00003FFE00001
310
FFFFC00003FFE00001FFFF0001FFFFFFFFF00007FFFE0001F000E0000FFFFF00
310
00FFFF800001FFFC00000FFFFF80007FC0001FFFFE0001FC0001FFFFE0001FF8
310
000001FFFE0000007FFFFFF0001FFFFFFF80000FFFF80000FFFF80000FFFF800
310
00FFFF0003FFFFFFFFE0000FFFFF8000F000C0003FFFFF8000FFFF800000FFFC
310
000007FFFF80007F80003FFFFF0001FC0003FFFFF0001FF8000001FFFE000000
310
7FFFFFF0001FFFFFFF80003FFFFE0000FFFF80003FFFFE0000FFFF0003FFFFFF
310
FFE0003FFFFF8000F000C0003FFFFF8000FFFF800000FFFC000007FFFF80007F
310
80007FFFFF8001F80007FFFFF8000FF8000001FFFE0000007FFFFFF0001FFFFF
310
FF00007FFFFF00007FFF00007FFFFF00007FFF0003FFFFFFFFE0003FFFFFC000
310
F000C0007FFFFFC000FFFF000000FFFC000007FFFF80007F8000FFFFFF8000F8
310
000FFFFFF8000FF8000001FFFE0000007FFFFFF0001FFFFFFF0000FFFFFF8000
310
7FFF0000FFFFFF80007FFF0003FFFFFFFFC0007FFFFFC00070008000FFFFFFC0
310
00FFFF000000FFF8000007FFFF80007F8000FFFFFF8000F8000FFFFFF8000FF8
310
000001FFFE0000007FFFFFF0001FFFFFFE0001FFFFFFC0003FFE0001FFFFFFC0
310
003FFF0003FFFFFFFFC0007FFFFFE00070008000FFFFFFC0007FFF0000007FF8
310
000003FFFF80007F0001FFFFFF8000F8000FFFFFF8000FF8000001FFFE000000
310
7FFFFFF0001FFFFFFE0001FFFFFFC0003FFE0001FFFFFFC0003FFF0003FFFFFF
310
FFC000FFFFFFE00070008000FFFFFFC0007FFF0000007FF8000003FFFF80007F
310
0001FFFFFF8000F8001FFFFFF8000FF8000001FFFE0000007FFFFFF0001FFFFF
310
FE0003FFFFFFE0003FFE0003FFFFFFE0003FFF0003FFFFFFFFC000FFFFFFE000
310
70008000FFFFFFC0007FFE0000007FF8000003FFFF80007F0001FFFFFF8000F0
310
001FFFFFF8000FF8000001FFFE0000007FFFFFF0001FFFFFFC0003FFFFFFE000
310
1FFC0003FFFFFFE0001FFF0003FFFFFFFFC000FFFFFFC00070008000FFFFFF80
310
007FFE0000007FF0000003FFFF80007F0001FFFFFF0000F0001FFFFFF8000FF8
310
000001FFFE0000007FFFFFF0001FFFFFFC0007FFFFFFF0001FFC0007FFFFFFF0
310
001FFF0003FFFFFFFFC000FFFFFFC00070008001FFFFFF0000FFFE0000003FF0
310
000001FFFF80007F0001FFFFFF0000F8001FFFFFF0000FF8000001FFFE000000
310
7FFFFFF0001FFFFFFC0007FFFFFFF0001FFC0007FFFFFFF0001FFF0003FFFFFF
310
FFC001FFFFFF80007000FFFFFFFFFE0000FFFE0008003FF0008001FFFF80007F
310
FFFFFFFFFC0000FFFFFFFFFFE0000FF8000001FFFE0000007FFFFFF0001FFFFF
310
F8000FFFFFFFF8000FF8000FFFFFFFF8000FFF0003FFFFFFFFFFFFFFFFFF0000
310
7000FFFFFFFFFC0000FFFC0008003FF0008001FFFF80007FFFFFFFFFF80001FF
310
FFFFFFFF80000FF8000001FFFE0000007FFFFFF0001FFFFFF8000FFFFFFFF800
310
0FF8000FFFFFFFF8000FFF0003FFFFFFFFFFFFFFFFFE0000F000FFFFFFFFE000
310
00FFFC000C003FE000C001FFFF80007FFFFFFFFFC00001FFFFFFFFFE00001FF8
310
000001FFFE0000007FFFFFF0001FFFFFF8000FFFFFFFF8000FF8000FFFFFFFF8
310
000FFF0003FFFFFFFFFFFFFFFFF00000F000FFFFFFFE000001FFFC000C001FE0
310
00C000FFFF80007FFFFFFFFE000001FFFFFFFFE000001FF80FFFFFFFFFFFFFC0
310
7FFFFFF0001FFFFFF8000FFFFFFFF8000FF8000FFFFFFFF8000FFF0003FFFFFF
310
FFFFFFFFFF800000F000FFFFFFC0000001FFFC001C001FE001C000FFFF80007F
310
FFFFFF80000003FFFFFFF80000001FF80FFFFFFFFFFFFFC07FFFFFF0001FFFFF
310
F8001FFFFFFFFC000FF8001FFFFFFFFC000FFF0003FFFFFFFFFFFFFFF0000001
310
F000FFFFF800000001FFF8001C001FE001C000FFFF80007FFFFFF800000003FF
310
FFFF800000003FF80FFFFFFFFFFFFFC07FFFFFF0001FFFFFF8001FFFFFFFFC00
310
0FF8001FFFFFFFFC000FFF0003FFFFFFFFFFFFFE00000001F000FFFFC0000000
310
03FFF8001E001FC001E000FFFF80007FFFFF8000000007FFFFFC000000003FF8
310
0FFFFFFFFFFFFFC07FFFFFF0001FFFFFF8001FFFFFFFFC000FF8001FFFFFFFFC
310
000FFF0003FFFFFFFFFFFFE000000003F000FFFE0000000007FFF8001E000FC0
310
01E0007FFF80007FFFFE0000000007FFFFE0000000007FF80FFFFFFFFFFFFFC0
310
7FFFFFF0001FFFFFF0001FFFFFFFFC0007F0001FFFFFFFFC0007FF0003FFFFFF
310
FFFFFF0000000003F000FFF80000000007FFF8001E000FC003E0007FFF80007F
310
FFF0000000000FFFFF8000000000FFF80FFFFFFFFFFFFFC07FFFFFF0001FFFFF
310
F0001FFFFFFFFC0007F0001FFFFFFFFC0007FF0003FFFFFFFFFFFC0000000007
310
F000FFE0000000000FFFF0003E000FC003E0007FFF80007FFFC0000000001FFF
310
FE0000000001FFF80FFFFFFFFFFFFFC07FFFFFF0001FFFFFF0001FFFFFFFFC00
310
07F0001FFFFFFFFC0007FF0003FFFFFFFFFFF0000000000FF000FFC000000000
310
1FFFF0003F000F8003F0003FFF80007FFF80000000003FFFF80000000003FFF8
310
0FFFFFFFFFFFFFC07FFFFFF0001FFFFFF0001FFFFFFFFC0007F0001FFFFFFFFC
310
0007FF0003FFFFFFFFFFE0000000001FF000FF00000000007FFFF0003F000780
310
03F0003FFF80007FFF00000000007FFFF00000000007FFF80FFFFFFFFFFFFFC0
310
7FFFFFF0001FFFFFF0001FFFFFFFFC0007F0001FFFFFFFFC0007FF0003FFFFFF
310
FFFF80000000007FF000FE0000000000FFFFE0003F00078007F0003FFF80007F
310
FE0000000001FFFFE0000000001FFFF80FFFFFFFFFFFFFC07FFFFFF0001FFFFF
310
F0001FFFFFFFFC0007F0001FFFFFFFFC0007FF0003FFFFFFFFFF0000000000FF
310
F000FC0000000003FFFFE0007F00078007F0003FFF80007FFC0000000007FFFF
310
C0000000007FFFF80FFFFFFFFFFFFFC07FFFFFF0001FFFFFF8001FFFFFFFFC00
310
0FF8001FFFFFFFFC000FFF0003FFFFFFFFFE0000000003FFF000FC000000000F
310
FFFFE0007F80070007F8001FFF80007FF8000000001FFFFF8000000001FFFFF8
310
0FFFFFFFFFFFFFC07FFFFFF0001FFFFFF8001FFFFFFFFC000FF8001FFFFFFFFC
310
000FFF0003FFFFFFFFFC000000000FFFF000F8000000007FFFFFE0007F800700
310
07F8001FFF80007FF000000000FFFFFF800000000FFFFFF80FFFFFFFFFFFFFC0
310
7FFFFFF0001FFFFFF8000FFFFFFFF8000FF8000FFFFFFFF8000FFF0003FFFFFF
310
FFFC000000007FFFF000F800000007FFFFFFC0007F8003000FF8001FFF80007F
310
F000000007FFFFFF000000007FFFFFF80FFFFFFFFFFFFFC07FFFFFF0001FFFFF
310
F8000FFFFFFFF8000FF8000FFFFFFFF8000FFF0003FFFFFFFFF80000000FFFFF
310
F000F0000000FFFFFFFFC000FF8003000FF8001FFF80007FE0000000FFFFFFFF
310
0000000FFFFFFFF8000001FFFE0000007FFFFFF0001FFFFFF8000FFFFFFFF800
310
0FF8000FFFFFFFF8000FFF0003FFFFFFFFF8000000FFFFFFF000F000000FFFFF
310
FFFFC000FFC002000FF8000FFF80007FE000001FFFFFFFFE000001FFFFFFFFF8
310
000001FFFE0000007FFFFFF0001FFFFFF8000FFFFFFFF8000FF8000FFFFFFFF8
310
000FFF0003FFFFFFFFF000001FFFFFFFF000E00000FFFFFFFFFFC000FFC00200
310
0FFC000FFF80007FE00001FFFFFFFFFE00001FFFFFFFFFF8000001FFFE000000
310
7FFFFFF0001FFFFFFC000FFFFFFFF8001FFC000FFFFFFFF8001FFF0003FFFFFF
310
FFF00001FFFFFFFFF000E00007FFFFFFFFFF8000FFC000001FFC000FFF80007F
310
C0000FFFFFFFFFFE0000FFFFFFFFFFF8000001FFFE0000007FFFFFF0001FFFFF
310
FC0007FFFFFFF0001FFC0007FFFFFFF0001FFF0003FFFFFFFFF00007FFFFFFFF
310
F000E0001FFFFFFFFFFF8000FFC000001FFC000FFF80007FC0003FFFFFFFFFFE
310
0001FFFFFFFFFFF8000001FFFE0000007FFFFFF0001FFFFFFC0007FFFFFFF000
310
1FFC0007FFFFFFF0001FFF0003FFFFFFFFF0001FFFFFFFFFF000E0003FFFFF00
310
03FF8001FFE000001FFC0007FF80007FC0007FFFFF0007FC0003FFFFF0003FF8
310
000001FFFE0000007FFFFFF0001FFFFFFC0003FFFFFFE0001FFC0003FFFFFFE0
310
001FFF0003FFFFFFFFF0003FFFFFFFFFF000E0003FFFFF0001FF8001FFE00000
310
1FFE0007FF80007FC0007FFFFE0003FC0007FFFFE0003FF8000001FFFE000000
310
7FFFFFF0001FFFFFFE0003FFFFFFE0003FFE0003FFFFFFE0003FFF0003FFFFFF
310
FFF0003FFFFF8001F000E0003FFFFF0001FF0001FFE000001FFE0007FF80007F
310
C0007FFFFE0003FC0007FFFFE0003FF8000001FFFE0000007FFFFFF0001FFFFF
310
FE0001FFFFFFC0003FFE0001FFFFFFC0003FFF0003FFFFFFFFF0003FFFFF0001
310
F000E0003FFFFF0003FF0001FFE000003FFE0007FF80007FC0007FFFFE0003FC
310
0007FFFFE0003FF8000001FFFE0000007FFFFFF0001FFFFFFF0001FFFFFFC000
310
7FFF0001FFFFFFC0007FFF0003FFFFFFFFF0003FFFFF0001F000E0003FFFFE00
310
03FF0003FFF000003FFE0003FF80007FC0007FFFFC0003FE0007FFFFE0003FF8
310
000001FFFE0000007FFFFFF0001FFFFFFF0000FFFFFF80007FFF0000FFFFFF80
310
007FFF0003FFFFFFFFF0003FFFFF0001F000E0003FFFFE0003FF0003FFF00000
310
3FFF0003FF80007FC0007FFFFC0007FE0007FFFFC0003FF8000001FFFE000000
310
7FFFFFF0001FFFFFFF80007FFFFF0000FFFF80007FFFFF0000FFFF0003FFFFFF
310
FFF0003FFFFF0003F000E0003FFFFC0003FE0003FFF000003FFF0003FF80007F
310
E0003FFFF80007FE0003FFFFC0007FF8000001FFFE0000007FFFFFF0001FFFFF
310
FF80003FFFFE0000FFFF80003FFFFE0000FFFF0003FFFFFFFFF0001FFFFE0003
310
F000F0001FFFF80003FE0003FFF000007FFF0001FF80007FE0003FFFF00007FE
310
0001FFFF80007FF8000001FFFE0000007FFFFFF0001FFFFFFFC0000FFFF80001
310
FFFFC0000FFFF80001FFFF0003FFFFFFFFF0001FFFFC0003F000F0000FFFF000
310
07FE0007FFF800007FFF0001FF80007FE0001FFFE00007FF0000FFFE00007FF8
310
000001FFFE0000007FFFFFF0001FFFFFFFC00003FFE00001FFFFC00003FFE000
310
01FFFF0003FFFFFFFFF8000FFFF80003F000F00003FFC00007FC0007FFF80000
310
7FFF8001FF80007FF00007FF80000FFF00007FF80000FFF8000001FFFE000000
310
7F80000000000001FFE000003E000003FFFFE000003E000003FFFF0003FFFFFF
310
FFF80003FFE00007F000F800000000000FFC0007FFF800007FFF8001FF80007F
310
F000000000000FFF000000000000FFF8000001FFFE0000007F80000000000001
310
FFF0000000000007FFFFF0000000000007FFFF0003FFFFFFFFFC00007E000007
310
F000F800000000000FFC0007FFF80000FFFF8000FF80007FF800000000001FFF
310
800000000001FFF8000001FFFE0000007F80000000000001FFF800000000000F
310
FFFFF800000000000FFFFF0003FFFFFFFFFC00000000000FF000FC0000000000
310
1FFC0007FFFC0000FFFF8000FF80007FF800000000003FFFC00000000001FFF8
310
000001FFFE0000007F80000000000001FFF800000000000FFFFFF80000000000
310
0FFFFF0003FFFFFFFFFE00000000001FF000FE00000000003FF8000FFFFC0000
310
FFFF8000FF80007FFC00000000003FFFC00000000003FFF8000001FFFE000000
310
7F80000000000001FFFC00000000001FFFFFFC00000000001FFFFF0003FFFFFF
310
FFFF00000000001FF000FF00000000003FF8000FFFFC0000FFFFC000FF80007F
310
FE00000000007FFFE00000000007FFF8000001FFFE0000007F80000000000001
310
FFFE00000000003FFFFFFE00000000003FFFFF0003FFFFFFFFFF80000000003F
310
F000FF80000000007FF8000FFFFC0001FFFFC0007F80007FFF0000000000FFFF
310
F0000000000FFFF800000000000000007F80000000000001FFFF8000000000FF
310
FFFFFF8000000000FFFFFF0003FFFFFFFFFFC0000000007FF000FFC000000000
310
FFF8000FFFFE0001FFFFC0007F80007FFF8000000001FFFFF8000000001FFFF8
310
00000000000000007F80000000000001FFFFC000000001FFFFFFFFC000000001
310
FFFFFF0003FFFFFFFFFFE000000000FFF000FFE000000003FFF0001FFFFE0001
310
FFFFC0007F80007FFFC000000007FFFFFE000000003FFFF80000000000000000
310
7F80000000000001FFFFE000000003FFFFFFFFE000000003FFFFFF0003FFFFFF
310
FFFFF000000003FFF000FFF80000000FFFF0001FFFFE0001FFFFE0007F80007F
310
FFF00000000FFFFFFF00000000FFFFF800000000000000007F80000000000001
310
FFFFF80000000FFFFFFFFFF80000000FFFFFFF0003FFFFFFFFFFFC0000000FFF
310
F000FFFE0000003FFFF0001FFFFE0003FFFFE0003F80007FFFFC0000003FFFFF
310
FFC0000003FFFFF800000000000000007F80000000000001FFFFFE0000003FFF
310
FFFFFFFE0000003FFFFFFF0003FFFFFFFFFFFF0000003FFFF000FFFF800000FF
310
FFF0001FFFFF0003FFFFE0003F80007FFFFF000001FFFFFFFFF800001FFFFFF8
310
00000000000000007F80000000000001FFFFFFC00001FFFFFFFFFFFFC00001FF
310
FFFFFF0003FFFFFFFFFFFFC00000FFFFF000FFFFF8000FFFFFFFFFFFFFFFFFFF
310
FFFFFFFFFFFFFFFFFFFFF0001FFFFFFFFFFF0000FFFFFFF80000000000000000
310
7FFFFFFFFFFFFFFFFFFFFFFC001FFFFFFFFFFFFFFC001FFFFFFFFFFFFFFFFFFF
310
FFFFFFFC001FFFFFF000FFFFFFFFFFFFFFFFFFFFFFFFFFFFFFFFFFFFFFFFFFFF
310
FFFFFFFFFFFFFFFFFFFFFFFFFFFFFFFFFFFFFFFFFFFFFFFFFFFFFFFFFFFFFFFF
310
FFFFFFFFFFFFFFFFFFFFFFFFFFFFFFFFFFFFFFFFFFFFFFFFFFFFFFFFFFFFFFFF
310
F000FFFFFFFFFFFFFFFFFFFFFFFFFFFFFFFFFFFFFFFFFFFFFFFFFFFFFFFFFFFF
310
FFFFFFFFFFFFFFFFFFFFFFFFFFFFFFFFFFFFFFFFFFFFFFFFFFFFFFFFFFFFFFFF
310
FFFFFFFFFFFFFFFFFFFFFFFFFFFFFFFFFFFFFFFFFFFFFFFFF000FFFFFFFFFFFF
310
FFFFFFFFFFFFFFFFFFFFFFFFFFFFFFFFFFFFFFFFFFFFFFFFFFFFFFFFFFFFFFFF
310
FFFFFFFFFFFFFFFFFFFFFFFFFFFFFFFFFFFFFFFFFFFFFFFFFFFFFFFFFFFFFFFF
310
FFFFFFFFFFFFFFFFFFFFFFFFFFFFFFFFF000FFFFFFFFFFFFFFFFFFFFFFFFFFFF
310
FFFFFFFFFFFFFFFFFFFFFFFFFFFFFFFFFFFFFFFFFFFFFFFFFFFFFFFFFFFFFFFF
310
FFFFFFFFFFFFFFFFFFFFFFFFFFFFFFFFFFFFFFFFFFFFFFFFFFFFFFFFFFFFFFFF
310
FFFFFFFFFFFFFFFFF000FFFFFFFFFFFFFFFFFFFFFFFFFFFFFFFFFFFFFFFFFFFF
310
FFFFFFFFFFFFFFFFFFFFFFFFFFFFFFFFFFFFFFFFFFFFFFFFFFFFFFFFFFFFFFFF
310
FFFFFFFFFFFFFFFFFFFFFFFFFFFFFFFFFFFFFFFFFFFFFFFFFFFFFFFFFFFFFFFF
310
F000FFFFFFFFFFFFFFFFFFFFFFFFFFFFFFFFFFFFFFFFFFFFFFFFFFFFFFFFFFFF
310
FFFFFFFFFFFFFFFFFFFFFFFFFFFFFFFFFFFFFFFFFFFFFFFFFFFFFFFFFFFFFFFF
310
FFFFFFFFFFFFFFFFFFFFFFFFFFFFFFFFFFFFFFFFFFFFFFFFF000FFFFFFFFFFFF
310
FFFFFFFFFFFFFFFFFFFFFFFFFFFFFFFFFFFFFFFFFFFFFFFFFFFFFFFFFFFFFFFF
310
FFFFFFFFFFFFFFFFFFFFFFFFFFFFFFFFFFFFFFFFFFFFFFFFFFFFFFFFFFFFFFFF
310
FFFFFFFFFFFFFFFFFFFFFFFFFFFFFFFFF000FFFFFFFFFFFFFFFFFFFFFFFFFFFF
310
FFFFFFFFFFFFFFFFFFFFFFFFFFFFFFFFFFFFFFFFFFFFFFFFFFFFFFFFFFFFFFFF
310
FFFFFFFFFFFFFFFFFFFFFFFFFFFFFFFFFFFFFFFFFFFFFFFFFFFFFFFFFFFFFFFF
310
FFFFFFFFFFFFFFFFF000FFFFFFFFFFFFFFFFFFFFFFFFFFFFFFFFFFFFFFFFFFFF
310
FFFFFFFFFFFFFFFFFFFFFFFFFFFFFFFFFFFFFFFFFFFFFFFFFFFFFFFFFFFFFFFF
310
FFFFFFFFFFFFFFFFFFFFFFFFFFFFFFFFFFFFFFFFFFFFFFFFFFFFFFFFFFFFFFFF
310
F000FFFFFFFFFFFFFFFFFFFFFFFFFFFFFFFFFFFFFFFFFFFFFFFFFFFFFFFFFFFF
310
FFFFFFFFFFFFFFFFFFFFFFFFFFFFFFFFFFFFFFFFFFFFFFFFFFFFFFFFFFFFFFFF
310
FFFFFFFFFFFFFFFFFFFFFFFFFFFFFFFFFFFFFFFFFFFFFFFFF000FFFFFFFFFFFF
310
FFFFFFFFFFFFFFFFFFFFFFFFFFFFFFFFFFFFFFFFFFFFFFFFFFFFFFFFFFFFFFFF
310
FFFFFFFFFFFFFFFFFFFFFFFFFFFFFFFFFFFFFFFFFFFFFFFFFFFFFFFFFFFFFFFF
310
FFFFFFFFFFFFFFFFFFFFFFFFFFFFFFFFF000FFFFFFFFFFFFFFFFFFFFFFFFFFFF
310
FFFFFFFFFFFFFFFFFFFFFFFFFFFFFFFFFFFFFFFFFFFFFFFFFFFFFFFFFFFFFFFF
310
FFFFFFFFFFFFFFFFFFFFFFFFFFFFFFFFFFFFFFFFFFFFFFFFFFFFFFFFFFFFFFFF
310
FFFFFFFFFFFFFFFFF000FFFFFFFFFFFFFFFFFFFFFFFFFFFFFFFFFFFFFFFFFFFF
310
FFFFFFFFFFFFFFFFFFFFFFFFFFFFFFFFFFFFFFFFFFFFFFFFFFFFFFFFFFFFFFFF
310
FFFFFFFFFFFFFFFFFFFFFFFFFFFFFFFFFFFFFFFFFFFFFFFFFFFFFFFFFFFFFFFF
310
F000FFFFFFFFFFFFFFFFFFFFFFFFFFFFFFFFFFFFFFFFFFFFFFFFFFFFFFFFFFFF
310
FFFFFFFFFFFFFFFFFFFFFFFFFFFFFFFFFFFFFFFFFFFFFFFFFFFFFFFFFFFFFFFF
310
FFFFFFFFFFFFFFFFFFFFFFFFFFFFFFFFFFFFFFFFFFFFFFFFF000FFFFFFFFFFFF
310
FFFFFFFFFFFFFFFFFFFFFFFFFFFFFFFFFFFFFFFFFFFFFFFFFFFFFFFFFFFFFFFF
310
FFFFFFFFFFFFFFFFFFFFFFFFFFFFFFFFFFFFFFFFFFFFFFFFFFFFFFFFFFFFFFFF
310
FFFFFFFFFFFFFFFFFFFFFFFFFFFFFFFFF000FFFFFFFFFFFFFFFFFFFFFFFFFFFF
310
FFFFFFFFFFFFFFFFFFFFFFFFFFFFFFFFFFFFFFFFFFFFFFFFFFFFFFFFFFFFFFFF
310
FFFFFFFFFFFFFFFFFFFFFFFFFFFFFFFFFFFFFFFFFFFFFFFFFFFFFFFFFFFFFFFF
310
FFFFFFFFFFFFFFFFF000FFFFFFFFFFFFFFFFFFFFFFFFFFFFFFFFFFFFFFFFFFFF
310
FFFFFFFFFFFFFFFFFFFFFFFFFFFFFFFFFFFFFFFFFFFFFFFFFFFFFFFFFFFFFFFF
310
FFFFFFFFFFFFFFFFFFFFFFFFFFFFFFFFFFFFFFFFFFFFFFFFFFFFFFFFFFFFFFFF
310
F000FFFFFFFFFFFFFFFFFFFFFFFFFFFFFFFFFFFFFFFFFFFFFFFFFFFFFFFFFFFF
310
FFFFFFFFFFFFFFFFFFFFFFFFFFFFFFFFFFFFFFFFFFFFFFFFFFFFFFFFFFFFFFFF
310
FFFFFFFFFFFFFFFFFFFFFFFFFFFFFFFFFFFFFFFFFFFFFFFFF000FFFFFFFFFFFF
310
FFFFFFFFFFFFFFFFFFFFFFFFFFFFFFFFFFFFFFFFFFFFFFFFFFFFFFFFFFFFFFFF
310
FFFFFFFFFFFFFFFFFFFFFFFFFFFFFFFFFFFFFFFFFFFFFFFFFFFFFFFFFFFFFFFF
310
FFFFFFFFFFFFFFFFFFFFFFFFFFFFFFFFF000FFFFFFFFFFFFFFFFFFFFFFFFFFFF
310
FFFFFFFFFFFFFFFFFFFFFFFFFFFFFFFFFFFFFFFFFFFFFFFFFFFFFFFFFFFFFFFF
310
FFFFFFFFFFFFFFFFFFFFFFFFFFFFFFFFFFFFFFFFFFFFFFFFFFFFFFFFFFFFFFFF
310
FFFFFFFFFFFFFFFFF000FFFFFFFFFFFFFFFFFFFFFFFFFFFFFFFFFFFFFFFFFFFF
310
FFFFFFFFFFFFFFFFFFFFFFFFFFFFFFFFFFFFFFFFFFFFFFFFFFFFFFFFFFFFFFFF
310
FFFFFFFFFFFFFFFFFFFFFFFFFFFFFFFFFFFFFFFFFFFFFFFFFFFFFFFFFFFFFFFF
310
F000FFFFFFFFFFFFFFFFFFFFFFFFFFFFFFFFFFFFFFFFFFFFFFFFFFFFFFFFFFFF
310
FFFFFFFFFFFFFFFFFFFFFFFFFFFFFFFFFFFFFFFFFFFFFFFFFFFFFFFFFFFFFFFF
310
FFFFFFFFFFFFFFFFFFFFFFFFFFFFFFFFFFFFFFFFFFFFFFFFF000FFFFFFFFFFFF
310
FFFFFFFFFFFFFFFFFFFFFFFFFFFFFFFFFFFFFFFFFFFFFFFFFFFFFFFFFFFFFFFF
310
FFFFFFFFFFFFFFFFFFFFFFFFFFFFFFFFFFFFFFFFFFFFFFFFFFFFFFFFFFFFFFFF
310
FFFFFFFFFFFFFFFFFFFFFFFFFFFFFFFFF0000000000000000000000000000000
310
0000000000000000000000000000000000000000000000000000000000000000
310
0000000000000000000000000000000000000000000000000000000000000000
310
0000000000000000000000000000000000000000000000000000000000000000
310
0000000000000000000000000000000000000000000000000000000000000000
310
0000000000000000000000000000000000000000000000000000000000000000
310
0000000000000000000000000000000000000000000000000000000000000000
310
0000000000000000000000000000000000000000000000000000000000000000
310
0000000000000000000000000000000000000000000000000000000000000000
310
0000000000000000000000000000000000000000000000000000000000000000
310
0000000000000000000000000000000000000000000000000000000000000000
310
0000000000000000000000000000000000000000000000000000000000000000
310
0000000000000000000000000000000000000000000000000000000000000000
310
0000000000000000000000000000000000000000000000000000000000000000
310
0000000000000000000000000000000000000000000000000000000000000000
310
0000000000000000000000000000000000000000000000000000000000000000
  1
OLE
  0
ENDSEC
  0
SECTION
  2
OBJECTS
  0
DICTIONARY
  5
C
330
0
100
AcDbDictionary
281
     1
  3
ACAD_GROUP
350
D
  3
ACAD_LAYOUT
350
1A
  3
ACAD_MLINESTYLE
350
17
  3
ACAD_PLOTSETTINGS
350
19
  3
ACAD_PLOTSTYLENAME
350
E
  3
ACAD_SCALELIST
350
47
  0
DICTIONARY
  5
D
102
{ACAD_REACTORS
330
C
102
}
330
C
100
AcDbDictionary
281
     1
  0
DICTIONARY
  5
1A
102
{ACAD_REACTORS
330
C
102
}
330
C
100
AcDbDictionary
281
     1
  3
Layout1
350
1E
  3
Layout2
350
26
  3
Model
350
22
  0
DICTIONARY
  5
17
102
{ACAD_REACTORS
330
C
102
}
330
C
100
AcDbDictionary
281
     1
  3
Standard
350
18
  0
DICTIONARY
  5
19
102
{ACAD_REACTORS
330
C
102
}
330
C
100
AcDbDictionary
281
     1
  0
ACDBDICTIONARYWDFLT
  5
E
102
{ACAD_REACTORS
330
C
102
}
330
C
100
AcDbDictionary
281
     1
  3
Normal
350
F
100
AcDbDictionaryWithDefault
340
F
  0
DICTIONARY
  5
47
102
{ACAD_REACTORS
330
C
102
}
330
C
100
AcDbDictionary
281
     1
  3
A0
350
48
  3
A1
350
49
  3
A2
350
4A
  3
A3
350
4B
  3
A4
350
4C
  3
A5
350
4D
  3
A6
350
4E
  3
A7
350
4F
  3
A8
350
50
  3
A9
350
51
  3
B0
350
52
  3
B1
350
53
  3
B2
350
54
  3
B3
350
55
  3
B4
350
56
  3
B5
350
57
  3
B6
350
58
  3
B7
350
59
  3
B8
350
5A
  3
B9
350
5B
  3
C0
350
5C
  3
C1
350
5D
  3
C2
350
5E
  3
C3
350
5F
  3
C4
350
60
  3
C5
350
61
  3
C6
350
62
  3
C7
350
63
  3
C8
350
64
  3
C9
350
65
  3
D0
350
66
  3
D1
350
67
  3
D2
350
68
  0
LAYOUT
  5
1E
102
{ACAD_REACTORS
330
1A
102
}
330
1A
100
AcDbPlotSettings
  1

  2
none_device
  4

  6

 40
0.0
 41
0.0
 42
0.0
 43
0.0
 44
0.0
 45
0.0
 46
0.0
 47
0.0
 48
0.0
 49
0.0
140
0.0
141
0.0
142
1.0
143
1.0
 70
   688
 72
     1
 73
     0
 74
     5
  7

 75
    16
147
1.0
148
0.0
149
0.0
100
AcDbLayout
  1
Layout1
 70
     1
 71
     1
 10
0.0
 20
0.0
 11
420.0
 21
297.0
 12
0.0
 22
0.0
 32
0.0
 14
1.0000000000E+20
 24
1.0000000000E+20
 34
1.0000000000E+20
 15
-1.0000000000E+20
 25
-1.0000000000E+20
 35
-1.0000000000E+20
146
0.0
 13
0.0
 23
0.0
 33
0.0
 16
1.0
 26
0.0
 36
0.0
 17
0.0
 27
1.0
 37
0.0
 76
     0
330
1B
  0
LAYOUT
  5
26
102
{ACAD_REACTORS
330
1A
102
}
330
1A
100
AcDbPlotSettings
  1

  2
none_device
  4

  6

 40
0.0
 41
0.0
 42
0.0
 43
0.0
 44
0.0
 45
0.0
 46
0.0
 47
0.0
 48
0.0
 49
0.0
140
0.0
141
0.0
142
1.0
143
1.0
 70
   688
 72
     1
 73
     0
 74
     5
  7

 75
    16
147
1.0
148
0.0
149
0.0
100
AcDbLayout
  1
Layout2
 70
     1
 71
     2
 10
0.0
 20
0.0
 11
0.0
 21
0.0
 12
0.0
 22
0.0
 32
0.0
 14
0.0
 24
0.0
 34
0.0
 15
0.0
 25
0.0
 35
0.0
146
0.0
 13
0.0
 23
0.0
 33
0.0
 16
1.0
 26
0.0
 36
0.0
 17
0.0
 27
1.0
 37
0.0
 76
     0
330
23
  0
LAYOUT
  5
22
102
{ACAD_REACTORS
330
1A
102
}
330
1A
100
AcDbPlotSettings
  1

  2
none_device
  4
Letter_(8.50_x_11.00_Inches)
  6

 40
6.35
 41
6.35
 42
6.35000508
 43
6.35000508
 44
215.9
 45
279.4
 46
0.0
 47
0.0
 48
0.0
 49
0.0
140
0.0
141
0.0
142
1.0
143
1.0
 70
  1712
 72
     1
 73
     0
 74
     0
  7

 75
     0
147
1.0
148
0.0
149
0.0
100
AcDbLayout
  1
Model
 70
     1
 71
     0
 10
0.0
 20
0.0
 11
297.0
 21
210.0
 12
0.0
 22
0.0
 32
0.0
 14
0.0
 24
0.0
 34
0.0
 15
297.0
 25
210.0
 35
0.0
146
0.0
 13
0.0
 23
0.0
 33
0.0
 16
1.0
 26
0.0
 36
0.0
 17
0.0
 27
1.0
 37
0.0
 76
     0
330
1F
331
29
  0
MLINESTYLE
  5
18
102
{ACAD_REACTORS
330
17
102
}
330
17
100
AcDbMlineStyle
  2
Standard
 70
     0
  3

 62
   256
 51
90.0
 52
90.0
 71
     2
 49
0.5
 62
   256
  6
BYLAYER
 49
-0.5
 62
   256
  6
BYLAYER
  0
ACDBPLACEHOLDER
  5
F
102
{ACAD_REACTORS
330
E
102
}
330
E
  0
SCALE
  5
48
102
{ACAD_REACTORS
330
47
102
}
330
47
100
AcDbScale
 70
     0
300
1:1
140
1.0
141
1.0
290
     1
  0
SCALE
  5
49
102
{ACAD_REACTORS
330
47
102
}
330
47
100
AcDbScale
 70
     0
300
1:2
140
1.0
141
2.0
290
     0
  0
SCALE
  5
4A
102
{ACAD_REACTORS
330
47
102
}
330
47
100
AcDbScale
 70
     0
300
1:4
140
1.0
141
4.0
290
     0
  0
SCALE
  5
4B
102
{ACAD_REACTORS
330
47
102
}
330
47
100
AcDbScale
 70
     0
300
1:5
140
1.0
141
5.0
290
     0
  0
SCALE
  5
4C
102
{ACAD_REACTORS
330
47
102
}
330
47
100
AcDbScale
 70
     0
300
1:8
140
1.0
141
8.0
290
     0
  0
SCALE
  5
4D
102
{ACAD_REACTORS
330
47
102
}
330
47
100
AcDbScale
 70
     0
300
1:10
140
1.0
141
10.0
290
     0
  0
SCALE
  5
4E
102
{ACAD_REACTORS
330
47
102
}
330
47
100
AcDbScale
 70
     0
300
1:16
140
1.0
141
16.0
290
     0
  0
SCALE
  5
4F
102
{ACAD_REACTORS
330
47
102
}
330
47
100
AcDbScale
 70
     0
300
1:20
140
1.0
141
20.0
290
     0
  0
SCALE
  5
50
102
{ACAD_REACTORS
330
47
102
}
330
47
100
AcDbScale
 70
     0
300
1:30
140
1.0
141
30.0
290
     0
  0
SCALE
  5
51
102
{ACAD_REACTORS
330
47
102
}
330
47
100
AcDbScale
 70
     0
300
1:40
140
1.0
141
40.0
290
     0
  0
SCALE
  5
52
102
{ACAD_REACTORS
330
47
102
}
330
47
100
AcDbScale
 70
     0
300
1:50
140
1.0
141
50.0
290
     0
  0
SCALE
  5
53
102
{ACAD_REACTORS
330
47
102
}
330
47
100
AcDbScale
 70
     0
300
1:100
140
1.0
141
100.0
290
     0
  0
SCALE
  5
54
102
{ACAD_REACTORS
330
47
102
}
330
47
100
AcDbScale
 70
     0
300
2:1
140
2.0
141
1.0
290
     0
  0
SCALE
  5
55
102
{ACAD_REACTORS
330
47
102
}
330
47
100
AcDbScale
 70
     0
300
4:1
140
4.0
141
1.0
290
     0
  0
SCALE
  5
56
102
{ACAD_REACTORS
330
47
102
}
330
47
100
AcDbScale
 70
     0
300
8:1
140
8.0
141
1.0
290
     0
  0
SCALE
  5
57
102
{ACAD_REACTORS
330
47
102
}
330
47
100
AcDbScale
 70
     0
300
10:1
140
10.0
141
1.0
290
     0
  0
SCALE
  5
58
102
{ACAD_REACTORS
330
47
102
}
330
47
100
AcDbScale
 70
     0
300
100:1
140
100.0
141
1.0
290
     0
  0
SCALE
  5
59
102
{ACAD_REACTORS
330
47
102
}
330
47
100
AcDbScale
 70
     0
300
1/128" = 1'-0"
140
0.0078125
141
12.0
290
     0
  0
SCALE
  5
5A
102
{ACAD_REACTORS
330
47
102
}
330
47
100
AcDbScale
 70
     0
300
1/64" = 1'-0"
140
0.015625
141
12.0
290
     0
  0
SCALE
  5
5B
102
{ACAD_REACTORS
330
47
102
}
330
47
100
AcDbScale
 70
     0
300
1/32" = 1'-0"
140
0.03125
141
12.0
290
     0
  0
SCALE
  5
5C
102
{ACAD_REACTORS
330
47
102
}
330
47
100
AcDbScale
 70
     0
300
1/16" = 1'-0"
140
0.0625
141
12.0
290
     0
  0
SCALE
  5
5D
102
{ACAD_REACTORS
330
47
102
}
330
47
100
AcDbScale
 70
     0
300
3/32" = 1'-0"
140
0.09375
141
12.0
290
     0
  0
SCALE
  5
5E
102
{ACAD_REACTORS
330
47
102
}
330
47
100
AcDbScale
 70
     0
300
1/8" = 1'-0"
140
0.125
141
12.0
290
     0
  0
SCALE
  5
5F
102
{ACAD_REACTORS
330
47
102
}
330
47
100
AcDbScale
 70
     0
300
3/16" = 1'-0"
140
0.1875
141
12.0
290
     0
  0
SCALE
  5
60
102
{ACAD_REACTORS
330
47
102
}
330
47
100
AcDbScale
 70
     0
300
1/4" = 1'-0"
140
0.25
141
12.0
290
     0
  0
SCALE
  5
61
102
{ACAD_REACTORS
330
47
102
}
330
47
100
AcDbScale
 70
     0
300
3/8" = 1'-0"
140
0.375
141
12.0
290
     0
  0
SCALE
  5
62
102
{ACAD_REACTORS
330
47
102
}
330
47
100
AcDbScale
 70
     0
300
1/2" = 1'-0"
140
0.5
141
12.0
290
     0
  0
SCALE
  5
63
102
{ACAD_REACTORS
330
47
102
}
330
47
100
AcDbScale
 70
     0
300
3/4" = 1'-0"
140
0.75
141
12.0
290
     0
  0
SCALE
  5
64
102
{ACAD_REACTORS
330
47
102
}
330
47
100
AcDbScale
 70
     0
300
1" = 1'-0"
140
1.0
141
12.0
290
     0
  0
SCALE
  5
65
102
{ACAD_REACTORS
330
47
102
}
330
47
100
AcDbScale
 70
     0
300
1-1/2" = 1'-0"
140
1.5
141
12.0
290
     0
  0
SCALE
  5
66
102
{ACAD_REACTORS
330
47
102
}
330
47
100
AcDbScale
 70
     0
300
3" = 1'-0"
140
3.0
141
12.0
290
     0
  0
SCALE
  5
67
102
{ACAD_REACTORS
330
47
102
}
330
47
100
AcDbScale
 70
     0
300
6" = 1'-0"
140
6.0
141
12.0
290
     0
  0
SCALE
  5
68
102
{ACAD_REACTORS
330
47
102
}
330
47
100
AcDbScale
 70
     0
300
1'-0" = 1'-0"
140
12.0
141
12.0
290
     0
  0
ENDSEC
  0
EOF
