  0
SECTION
  2
HEADER
  9
$ACADVER
  1
AC1015
  9
$ACADMAINTVER
 70
     6
  9
$DWGCODEPAGE
  3
ANSI_1252
  9
$INSBASE
 10
0.0
 20
0.0
 30
0.0
  9
$EXTMIN
 10
0.0
 20
0.0
 30
0.0
  9
$EXTMAX
 10
297.0
 20
210.0
 30
0.0
  9
$LIMMIN
 10
0.0
 20
0.0
  9
$LIMMAX
 10
297.0
 20
210.0
  9
$ORTHOMODE
 70
     0
  9
$REGENMODE
 70
     1
  9
$FILLMODE
 70
     1
  9
$QTEXTMODE
 70
     0
  9
$MIRRTEXT
 70
     1
  9
$LTSCALE
 40
1.0
  9
$ATTMODE
 70
     1
  9
$TEXTSIZE
 40
2.0
  9
$TRACEWID
 40
1.0
  9
$TEXTSTYLE
  7
Standard
  9
$CLAYER
  8
0
  9
$CELTYPE
  6
ByLayer
  9
$CECOLOR
 62
   256
  9
$CELTSCALE
 40
1.0
  9
$DISPSILH
 70
     0
  9
$DIMSCALE
 40
1.0
  9
$DIMASZ
 40
3.0
  9
$DIMEXO
 40
0.0
  9
$DIMDLI
 40
3.75
  9
$DIMRND
 40
0.0
  9
$DIMDLE
 40
0.0
  9
$DIMEXE
 40
1.0
  9
$DIMTP
 40
0.0
  9
$DIMTM
 40
0.0
  9
$DIMTXT
 40
2.0
  9
$DIMCEN
 40
2.5
  9
$DIMTSZ
 40
0.0
  9
$DIMTOL
 70
     0
  9
$DIMLIM
 70
     0
  9
$DIMTIH
 70
     1
  9
$DIMTOH
 70
     1
  9
$DIMSE1
 70
     0
  9
$DIMSE2
 70
     0
  9
$DIMTAD
 70
     1
  9
$DIMZIN
 70
     0
  9
$DIMBLK
  1

  9
$DIMASO
 70
     1
  9
$DIMSHO
 70
     1
  9
$DIMPOST
  1

  9
$DIMAPOST
  1

  9
$DIMALT
 70
     0
  9
$DIMALTD
 70
     3
  9
$DIMALTF
 40
0.0393700787
  9
$DIMLFAC
 40
1.0
  9
$DIMTOFL
 70
     1
  9
$DIMTVP
 40
0.0
  9
$DIMTIX
 70
     0
  9
$DIMSOXD
 70
     0
  9
$DIMSAH
 70
     0
  9
$DIMBLK1
  1

  9
$DIMBLK2
  1

  9
$DIMSTYLE
  2
ISO-25
  9
$DIMCLRD
 70
     0
  9
$DIMCLRE
 70
     0
  9
$DIMCLRT
 70
     0
  9
$DIMTFAC
 40
1.0
  9
$DIMGAP
 40
1.524
  9
$DIMJUST
 70
     0
  9
$DIMSD1
 70
     0
  9
$DIMSD2
 70
     0
  9
$DIMTOLJ
 70
     0
  9
$DIMTZIN
 70
     0
  9
$DIMALTZ
 70
     0
  9
$DIMALTTZ
 70
     0
  9
$DIMUPT
 70
     0
  9
$DIMDEC
 70
     2
  9
$DIMTDEC
 70
     3
  9
$DIMALTU
 70
     2
  9
$DIMALTTD
 70
     3
  9
$DIMTXSTY
  7
Standard
  9
$DIMAUNIT
 70
     0
  9
$DIMADEC
 70
     2
  9
$DIMALTRND
 40
0.0
  9
$DIMAZIN
 70
     0
  9
$DIMDSEP
 70
    44
  9
$DIMATFIT
 70
     3
  9
$DIMFRAC
 70
     0
  9
$DIMLDRBLK
  1

  9
$DIMLUNIT
 70
     2
  9
$DIMLWD
 70
    -2
  9
$DIMLWE
 70
    -2
  9
$DIMTMOVE
 70
     0
  9
$LUNITS
 70
     2
  9
$LUPREC
 70
     2
  9
$SKETCHINC
 40
1.0
  9
$FILLETRAD
 40
10.0
  9
$AUNITS
 70
     0
  9
$AUPREC
 70
     2
  9
$MENU
  1
.
  9
$ELEVATION
 40
0.0
  9
$PELEVATION
 40
0.0
  9
$THICKNESS
 40
0.0
  9
$LIMCHECK
 70
     0
  9
$CHAMFERA
 40
0.0
  9
$CHAMFERB
 40
0.0
  9
$CHAMFERC
 40
0.0
  9
$CHAMFERD
 40
0.0
  9
$SKPOLY
 70
     0
  9
$TDCREATE
 40
2457674.433984722
  9
$TDUCREATE
 40
2457674.350651389
  9
$TDUPDATE
 40
2457674.433985937
  9
$TDUUPDATE
 40
2457674.350652604
  9
$TDINDWG
 40
0.0000000116
  9
$TDUSRTIMER
 40
0.0000000116
  9
$USRTIMER
 70
     1
  9
$ANGBASE
 50
0.0
  9
$ANGDIR
 70
     0
  9
$PDMODE
 70
     0
  9
$PDSIZE
 40
-1.0
  9
$PLINEWID
 40
0.0
  9
$SPLFRAME
 70
     0
  9
$SPLINETYPE
 70
     6
  9
$SPLINESEGS
 70
     8
  9
$HANDSEED
  5
288
  9
$SURFTAB1
 70
     6
  9
$SURFTAB2
 70
     6
  9
$SURFTYPE
 70
     6
  9
$SURFU
 70
     6
  9
$SURFV
 70
     6
  9
$UCSBASE
  2

  9
$UCSNAME
  2

  9
$UCSORG
 10
0.0
 20
0.0
 30
0.0
  9
$UCSXDIR
 10
1.0
 20
0.0
 30
0.0
  9
$UCSYDIR
 10
0.0
 20
1.0
 30
0.0
  9
$UCSORTHOREF
  2

  9
$UCSORTHOVIEW
 70
     0
  9
$UCSORGTOP
 10
0.0
 20
0.0
 30
0.0
  9
$UCSORGBOTTOM
 10
0.0
 20
0.0
 30
0.0
  9
$UCSORGLEFT
 10
0.0
 20
0.0
 30
0.0
  9
$UCSORGRIGHT
 10
0.0
 20
0.0
 30
0.0
  9
$UCSORGFRONT
 10
0.0
 20
0.0
 30
0.0
  9
$UCSORGBACK
 10
0.0
 20
0.0
 30
0.0
  9
$PUCSBASE
  2

  9
$PUCSNAME
  2

  9
$PUCSORG
 10
0.0
 20
0.0
 30
0.0
  9
$PUCSXDIR
 10
1.0
 20
0.0
 30
0.0
  9
$PUCSYDIR
 10
0.0
 20
1.0
 30
0.0
  9
$PUCSORTHOREF
  2

  9
$PUCSORTHOVIEW
 70
     0
  9
$PUCSORGTOP
 10
0.0
 20
0.0
 30
0.0
  9
$PUCSORGBOTTOM
 10
0.0
 20
0.0
 30
0.0
  9
$PUCSORGLEFT
 10
0.0
 20
0.0
 30
0.0
  9
$PUCSORGRIGHT
 10
0.0
 20
0.0
 30
0.0
  9
$PUCSORGFRONT
 10
0.0
 20
0.0
 30
0.0
  9
$PUCSORGBACK
 10
0.0
 20
0.0
 30
0.0
  9
$USERI1
 70
     0
  9
$USERI2
 70
     0
  9
$USERI3
 70
     0
  9
$USERI4
 70
     0
  9
$USERI5
 70
     0
  9
$USERR1
 40
0.0
  9
$USERR2
 40
0.0
  9
$USERR3
 40
0.0
  9
$USERR4
 40
0.0
  9
$USERR5
 40
0.0
  9
$WORLDVIEW
 70
     1
  9
$SHADEDGE
 70
     3
  9
$SHADEDIF
 70
    70
  9
$TILEMODE
 70
     1
  9
$MAXACTVP
 70
    64
  9
$PINSBASE
 10
0.0
 20
0.0
 30
0.0
  9
$PLIMCHECK
 70
     0
  9
$PEXTMIN
 10
1.0000000000E+20
 20
1.0000000000E+20
 30
1.0000000000E+20
  9
$PEXTMAX
 10
-1.0000000000E+20
 20
-1.0000000000E+20
 30
-1.0000000000E+20
  9
$PLIMMIN
 10
0.0
 20
0.0
  9
$PLIMMAX
 10
420.0
 20
297.0
  9
$UNITMODE
 70
     0
  9
$VISRETAIN
 70
     1
  9
$PLINEGEN
 70
     0
  9
$PSLTSCALE
 70
     1
  9
$TREEDEPTH
 70
  3020
  9
$CMLSTYLE
  2
Standard
  9
$CMLJUST
 70
     0
  9
$CMLSCALE
 40
20.0
  9
$PROXYGRAPHICS
 70
     1
  9
$MEASUREMENT
 70
     1
  9
$CELWEIGHT
370
    -1
  9
$ENDCAPS
280
     0
  9
$JOINSTYLE
280
     0
  9
$LWDISPLAY
290
     1
  9
$INSUNITS
 70
     4
  9
$HYPERLINKBASE
  1

  9
$STYLESHEET
  1

  9
$XEDIT
290
     1
  9
$CEPSNTYPE
380
     0
  9
$PSTYLEMODE
290
     1
  9
$FINGERPRINTGUID
  2
{2BE5DFD5-B0CE-4826-942D-C520578E5605}
  9
$VERSIONGUID
  2
{FAEB1C32-E019-11D5-929B-00C0DF256EC4}
  9
$EXTNAMES
290
     1
  9
$PSVPSCALE
 40
0.0
  9
$OLESTARTUP
290
     0
  0
ENDSEC
  0
SECTION
  2
CLASSES
  0
CLASS
  1
ACDBDICTIONARYWDFLT
  2
AcDbDictionaryWithDefault
  3
ObjectDBX Classes
 90
        0
280
     0
281
     0
  0
CLASS
  1
VISUALSTYLE
  2
AcDbVisualStyle
  3
ObjectDBX Classes
 90
     4095
280
     0
281
     0
  0
CLASS
  1
MATERIAL
  2
AcDbMaterial
  3
ObjectDBX Classes
 90
     1153
280
     0
281
     0
  0
CLASS
  1
SCALE
  2
AcDbScale
  3
ObjectDBX Classes
 90
     1153
280
     0
281
     0
  0
CLASS
  1
TABLESTYLE
  2
AcDbTableStyle
  3
ObjectDBX Classes
 90
     4095
280
     0
281
     0
  0
CLASS
  1
MLEADERSTYLE
  2
AcDbMLeaderStyle
  3
ACDB_MLEADERSTYLE_CLASS
 90
     4095
280
     0
281
     0
  0
CLASS
  1
SUN
  2
AcDbSun
  3
SCENEOE
 90
     1153
280
     0
281
     0
  0
CLASS
  1
ACDBPLACEHOLDER
  2
AcDbPlaceHolder
  3
ObjectDBX Classes
 90
        0
280
     0
281
     0
  0
CLASS
  1
LAYOUT
  2
AcDbLayout
  3
ObjectDBX Classes
 90
        0
280
     0
281
     0
  0
ENDSEC
  0
SECTION
  2
TABLES
  0
TABLE
  2
VPORT
  5
8
330
0
100
AcDbSymbolTable
 70
     1
  0
VPORT
  5
29
330
8
100
AcDbSymbolTableRecord
100
AcDbViewportTableRecord
  2
*Active
 70
     0
 10
0.0
 20
0.0
 11
1.0
 21
1.0
 12
148.5
 22
105.0
 13
0.0
 23
0.0
 14
10.0
 24
10.0
 15
10.0
 25
10.0
 16
0.0
 26
0.0
 36
1.0
 17
0.0
 27
0.0
 37
0.0
 40
210.0
 41
1.4142857143
 42
50.0
 43
0.0
 44
0.0
 50
0.0
 51
0.0
 71
     0
 72
  2000
 73
     1
 74
     3
 75
     0
 76
     0
 77
     0
 78
     0
281
     0
 65
     1
110
0.0
120
0.0
130
0.0
111
1.0
121
0.0
131
0.0
112
0.0
122
1.0
132
0.0
 79
     0
146
0.0
  0
ENDTAB
  0
TABLE
  2
LTYPE
  5
5
330
0
100
AcDbSymbolTable
 70
     6
  0
LTYPE
  5
14
330
5
100
AcDbSymbolTableRecord
100
AcDbLinetypeTableRecord
  2
ByBlock
 70
     0
  3

 72
    65
 73
     0
 40
0.0
  0
LTYPE
  5
15
330
5
100
AcDbSymbolTableRecord
100
AcDbLinetypeTableRecord
  2
ByLayer
 70
     0
  3

 72
    65
 73
     0
 40
0.0
  0
LTYPE
  5
16
330
5
100
AcDbSymbolTableRecord
100
AcDbLinetypeTableRecord
  2
Continuous
 70
     0
  3
Solid line
 72
    65
 73
     0
 40
0.0
  0
LTYPE
  5
6E
330
5
100
AcDbSymbolTableRecord
100
AcDbLinetypeTableRecord
  2
HIDDEN
 70
     0
  3
Hidden __ __ __ __ __ __ __ __ __ __ __ __ __ __
 72
    65
 73
     2
 40
1.905
 49
1.27
 74
     0
 49
-0.635
 74
     0
  0
LTYPE
  5
6F
330
5
100
AcDbSymbolTableRecord
100
AcDbLinetypeTableRecord
  2
PHANTOM
 70
     0
  3
Phantom ______  __  __  ______  __  __  ______
 72
    65
 73
     6
 40
12.7
 49
6.35
 74
     0
 49
-1.27
 74
     0
 49
1.27
 74
     0
 49
-1.27
 74
     0
 49
1.27
 74
     0
 49
-1.27
 74
     0
  0
LTYPE
  5
70
330
5
100
AcDbSymbolTableRecord
100
AcDbLinetypeTableRecord
  2
CENTER
 70
     0
  3
Center ____ _ ____ _ ____ _ ____ _ ____ _ ____
 72
    65
 73
     4
 40
10.16
 49
6.35
 74
     0
 49
-1.27
 74
     0
 49
1.27
 74
     0
 49
-1.27
 74
     0
  0
LTYPE
  5
71
330
5
100
AcDbSymbolTableRecord
100
AcDbLinetypeTableRecord
  2
CENTERX2
 70
     0
  3
Center (2x) ________  __  ________  __  _____
 72
    65
 73
     4
 40
20.32
 49
12.7
 74
     0
 49
-2.54
 74
     0
 49
2.54
 74
     0
 49
-2.54
 74
     0
  0
LTYPE
  5
72
330
5
100
AcDbSymbolTableRecord
100
AcDbLinetypeTableRecord
  2
DOT2
 70
     0
  3
Dot (.5x) ........................................
 72
    65
 73
     2
 40
0.635
 49
0.0
 74
     0
 49
-0.635
 74
     0
  0
ENDTAB
  0
TABLE
  2
LAYER
  5
2
330
0
100
AcDbSymbolTable
 70
     5
  0
LAYER
  5
10
330
2
100
AcDbSymbolTableRecord
100
AcDbLayerTableRecord
  2
0
 70
     0
 62
     7
  6
Continuous
370
    -3
390
F
  0
LAYER
  5
73
330
2
100
AcDbSymbolTableRecord
100
AcDbLayerTableRecord
  2
FORMAT
 70
     0
 62
     7
  6
Continuous
370
    -3
390
F
  0
LAYER
  5
74
330
2
100
AcDbSymbolTableRecord
100
AcDbLayerTableRecord
  2
VERMASSUNG
 70
     0
 62
     7
  6
Continuous
370
    -3
390
F
  0
LAYER
  5
75
330
2
100
AcDbSymbolTableRecord
100
AcDbLayerTableRecord
  2
KOPF_DÜNN
 70
     0
 62
     7
  6
Continuous
370
    -3
390
F
  0
LAYER
  5
76
330
2
100
AcDbSymbolTableRecord
100
AcDbLayerTableRecord
  2
KOPF_DICK
 70
     0
 62
     7
  6
Continuous
370
    15
390
F
  0
ENDTAB
  0
TABLE
  2
STYLE
  5
3
330
0
100
AcDbSymbolTable
 70
     2
  0
STYLE
  5
11
330
3
100
AcDbSymbolTableRecord
100
AcDbTextStyleTableRecord
  2
Standard
 70
     0
 40
0.0
 41
1.0
 50
0.0
 71
     0
 42
2.0
  3
txt
  4

  0
STYLE
  5
77
330
3
100
AcDbSymbolTableRecord
100
AcDbTextStyleTableRecord
  2
SLDTEXTSTYLE0
 70
     0
 40
0.0
 41
0.7
 50
0.0
 71
     0
 42
2.0
  3
TXT
  4

  0
ENDTAB
  0
TABLE
  2
VIEW
  5
6
330
0
100
AcDbSymbolTable
 70
     0
  0
ENDTAB
  0
TABLE
  2
UCS
  5
7
330
0
100
AcDbSymbolTable
 70
     0
  0
ENDTAB
  0
TABLE
  2
APPID
  5
9
330
0
100
AcDbSymbolTable
 70
     1
  0
APPID
  5
12
330
9
100
AcDbSymbolTableRecord
100
AcDbRegAppTableRecord
  2
ACAD
 70
     0
  0
ENDTAB
  0
TABLE
  2
DIMSTYLE
  5
A
330
0
100
AcDbSymbolTable
 70
     2
100
AcDbDimStyleTable
  0
DIMSTYLE
105
27
330
A
100
AcDbSymbolTableRecord
100
AcDbDimStyleTableRecord
  2
ISO-25
 70
     0
 41
2.5
 42
0.625
 43
3.75
 44
1.25
 73
     0
 74
     0
 77
     1
 78
     8
140
2.5
141
2.5
143
0.0393700787
147
0.625
171
     3
172
     1
178
     0
271
     2
272
     2
274
     3
278
    44
283
     0
284
     8
340
11
  0
DIMSTYLE
105
1B8
102
{ACAD_REACTORS
330
1B7
330
1C4
330
1CE
330
1D8
330
1E2
330
1ED
102
}
330
A
100
AcDbSymbolTableRecord
100
AcDbDimStyleTableRecord
  2
SLDDIMSTYLE0
 70
     0
 41
3.0
 44
0.0
 45
0.000000001
 73
     0
 74
     0
 77
     1
 78
    12
 79
     3
140
2.0
147
0.5
173
     1
178
     0
271
     2
272
     3
276
     2
284
    12
340
77
  0
ENDTAB
  0
TABLE
  2
BLOCK_RECORD
  5
1
330
0
100
AcDbSymbolTable
 70
     7
  0
BLOCK_RECORD
  5
1F
330
1
100
AcDbSymbolTableRecord
100
AcDbBlockTableRecord
  2
*Model_Space
340
22
  0
BLOCK_RECORD
  5
1B
330
1
100
AcDbSymbolTableRecord
100
AcDbBlockTableRecord
  2
*Paper_Space
340
1E
  0
BLOCK_RECORD
  5
23
330
1
100
AcDbSymbolTableRecord
100
AcDbBlockTableRecord
  2
*Paper_Space0
340
26
  0
BLOCK_RECORD
  5
1B9
330
1
100
AcDbSymbolTableRecord
100
AcDbBlockTableRecord
  2
_D
340
0
  0
BLOCK_RECORD
  5
1C5
330
1
100
AcDbSymbolTableRecord
100
AcDbBlockTableRecord
  2
_D_1
340
0
  0
BLOCK_RECORD
  5
1CF
330
1
100
AcDbSymbolTableRecord
100
AcDbBlockTableRecord
  2
_D_2
340
0
  0
BLOCK_RECORD
  5
1D9
330
1
100
AcDbSymbolTableRecord
100
AcDbBlockTableRecord
  2
_D_3
340
0
  0
BLOCK_RECORD
  5
1E3
330
1
100
AcDbSymbolTableRecord
100
AcDbBlockTableRecord
  2
_D_4
340
0
  0
BLOCK_RECORD
  5
1EE
330
1
100
AcDbSymbolTableRecord
100
AcDbBlockTableRecord
  2
_D_5
340
0
  0
ENDTAB
  0
ENDSEC
  0
SECTION
  2
BLOCKS
  0
BLOCK
  5
20
330
1F
100
AcDbEntity
  8
0
100
AcDbBlockBegin
  2
*Model_Space
 70
     0
 10
0.0
 20
0.0
 30
0.0
  3
*Model_Space
  1

  0
ENDBLK
  5
21
330
1F
100
AcDbEntity
  8
0
100
AcDbBlockEnd
  0
BLOCK
  5
1C
330
1B
100
AcDbEntity
 67
     1
  8
0
100
AcDbBlockBegin
  2
*Paper_Space
 70
     0
 10
0.0
 20
0.0
 30
0.0
  3
*Paper_Space
  1

  0
ENDBLK
  5
1D
330
1B
100
AcDbEntity
 67
     1
  8
0
100
AcDbBlockEnd
  0
BLOCK
  5
24
330
23
100
AcDbEntity
  8
0
100
AcDbBlockBegin
  2
*Paper_Space0
 70
     0
 10
0.0
 20
0.0
 30
0.0
  3
*Paper_Space0
  1

  0
ENDBLK
  5
25
330
23
100
AcDbEntity
  8
0
100
AcDbBlockEnd
  0
BLOCK
  5
1BA
330
1B9
100
AcDbEntity
  8
0
100
AcDbBlockBegin
  2
_D
 70
     0
 10
0.0
 20
0.0
 30
0.0
  3
_D
  1

  0
SOLID
  5
1BC
330
1B9
100
AcDbEntity
  8
VERMASSUNG
100
AcDbTrace
 10
86.2526276774
 20
81.5003414712
 30
0.0
 11
86.7026276774
 21
84.5003414712
 31
0.0
 12
85.8026276774
 22
84.5003414712
 32
0.0
 13
85.8026276774
 23
84.5003414712
 33
0.0
  0
SOLID
  5
1BD
330
1B9
100
AcDbEntity
  8
VERMASSUNG
100
AcDbTrace
 10
86.2526276774
 20
145.0003414712
 30
0.0
 11
85.8026276774
 21
142.0003414712
 31
0.0
 12
86.7026276774
 22
142.0003414712
 32
0.0
 13
86.7026276774
 23
142.0003414712
 33
0.0
  0
LINE
  5
1BE
330
1B9
100
AcDbEntity
  8
VERMASSUNG
100
AcDbLine
 10
179.0753213425
 20
81.5003414712
 30
0.0
 11
85.2526276774
 21
81.5003414712
 31
0.0
  0
LINE
  5
1BF
330
1B9
100
AcDbEntity
  8
VERMASSUNG
100
AcDbLine
 10
179.0753213425
 20
145.0003414712
 30
0.0
 11
85.2526276774
 21
145.0003414712
 31
0.0
  0
LINE
  5
1C0
330
1B9
100
AcDbEntity
  8
VERMASSUNG
100
AcDbLine
 10
86.2526276774
 20
81.5003414712
 30
0.0
 11
86.2526276774
 21
145.0003414712
 31
0.0
  0
MTEXT
  5
1C1
330
1B9
100
AcDbEntity
  8
VERMASSUNG
100
AcDbMText
 10
83.4744924212
 20
104.4474053229
 30
0.0
 40
2.0
 41
0.0
 71
     1
 72
     1
  1
ISO 40
  7
SLDTEXTSTYLE0
 11
3.391901413832837E-15
 21
1.0
 31
0.0
 73
     1
 44
1.0
  0
MTEXT
  5
1C2
330
1B9
100
AcDbEntity
  8
VERMASSUNG
100
AcDbMText
 10
83.6744923725
 20
113.647405527
 30
0.0
 40
2.0
 41
0.0
 71
     1
 72
     1
  1
%%c
  7
SLDTEXTSTYLE0
 11
3.391901413832837E-15
 21
1.0
 31
0.0
 73
     1
 44
1.0
  0
MTEXT
  5
1C3
330
1B9
100
AcDbEntity
  8
VERMASSUNG
100
AcDbMText
 10
83.6744920815
 20
117.2552858584
 30
0.0
 40
2.0
 41
0.0
 71
     1
 72
     1
  1
63.5
  7
SLDTEXTSTYLE0
 11
3.391901413832837E-15
 21
1.0
 31
0.0
 73
     1
 44
1.0
  0
ENDBLK
  5
1BB
330
1B9
100
AcDbEntity
  8
0
100
AcDbBlockEnd
  0
BLOCK
  5
1C6
330
1C5
100
AcDbEntity
  8
0
100
AcDbBlockBegin
  2
_D_1
 70
     0
 10
0.0
 20
0.0
 30
0.0
  3
_D_1
  1

  0
SOLID
  5
1C8
330
1C5
100
AcDbEntity
  8
VERMASSUNG
100
AcDbTrace
 10
179.6753213425
 20
149.9417910533
 30
0.0
 11
182.6753213425
 21
149.4917910533
 31
0.0
 12
182.6753213425
 22
150.3917910533
 32
0.0
 13
182.6753213425
 23
150.3917910533
 33
0.0
  0
SOLID
  5
1C9
330
1C5
100
AcDbEntity
  8
VERMASSUNG
100
AcDbTrace
 10
206.6253213425
 20
149.9417910533
 30
0.0
 11
203.6253213425
 21
150.3917910533
 31
0.0
 12
203.6253213425
 22
149.4917910533
 32
0.0
 13
203.6253213425
 23
149.4917910533
 33
0.0
  0
LINE
  5
1CA
330
1C5
100
AcDbEntity
  8
VERMASSUNG
100
AcDbLine
 10
179.6753213425
 20
143.2608926046
 30
0.0
 11
179.6753213425
 21
150.9417910533
 31
0.0
  0
LINE
  5
1CB
330
1C5
100
AcDbEntity
  8
VERMASSUNG
100
AcDbLine
 10
206.6253213425
 20
125.5503414712
 30
0.0
 11
206.6253213425
 21
150.9417910533
 31
0.0
  0
LINE
  5
1CC
330
1C5
100
AcDbEntity
  8
VERMASSUNG
100
AcDbLine
 10
179.6753213425
 20
149.9417910533
 30
0.0
 11
206.6253213425
 21
149.9417910533
 31
0.0
  0
MTEXT
  5
1CD
330
1C5
100
AcDbEntity
  8
VERMASSUNG
100
AcDbMText
 10
190.0509289635
 20
152.5199266493
 30
0.0
 40
2.0
 41
0.0
 71
     1
 72
     1
  1
26.95
  7
SLDTEXTSTYLE0
 73
     1
 44
1.0
  0
ENDBLK
  5
1C7
330
1C5
100
AcDbEntity
  8
0
100
AcDbBlockEnd
  0
BLOCK
  5
1D0
330
1CF
100
AcDbEntity
  8
0
100
AcDbBlockBegin
  2
_D_2
 70
     0
 10
0.0
 20
0.0
 30
0.0
  3
_D_2
  1

  0
SOLID
  5
1D2
330
1CF
100
AcDbEntity
  8
VERMASSUNG
100
AcDbTrace
 10
160.6253213425
 20
155.9417910533
 30
0.0
 11
163.6253213425
 21
155.4917910533
 31
0.0
 12
163.6253213425
 22
156.3917910533
 32
0.0
 13
163.6253213425
 23
156.3917910533
 33
0.0
  0
SOLID
  5
1D3
330
1CF
100
AcDbEntity
  8
VERMASSUNG
100
AcDbTrace
 10
206.6253213425
 20
155.9417910533
 30
0.0
 11
203.6253213425
 21
156.3917910533
 31
0.0
 12
203.6253213425
 22
155.4917910533
 32
0.0
 13
203.6253213425
 23
155.4917910533
 33
0.0
  0
LINE
  5
1D4
330
1CF
100
AcDbEntity
  8
VERMASSUNG
100
AcDbLine
 10
160.6253213425
 20
135.4753414712
 30
0.0
 11
160.6253213425
 21
156.9417910533
 31
0.0
  0
LINE
  5
1D5
330
1CF
100
AcDbEntity
  8
VERMASSUNG
100
AcDbLine
 10
206.6253213425
 20
125.5503414712
 30
0.0
 11
206.6253213425
 21
156.9417910533
 31
0.0
  0
LINE
  5
1D6
330
1CF
100
AcDbEntity
  8
VERMASSUNG
100
AcDbLine
 10
160.6253213425
 20
155.9417910533
 30
0.0
 11
206.6253213425
 21
155.9417910533
 31
0.0
  0
MTEXT
  5
1D7
330
1CF
100
AcDbEntity
  8
VERMASSUNG
100
AcDbMText
 10
182.1263625371
 20
158.5199266493
 30
0.0
 40
2.0
 41
0.0
 71
     1
 72
     1
  1
46
  7
SLDTEXTSTYLE0
 73
     1
 44
1.0
  0
ENDBLK
  5
1D1
330
1CF
100
AcDbEntity
  8
0
100
AcDbBlockEnd
  0
BLOCK
  5
1DA
330
1D9
100
AcDbEntity
  8
0
100
AcDbBlockBegin
  2
_D_3
 70
     0
 10
0.0
 20
0.0
 30
0.0
  3
_D_3
  1

  0
SOLID
  5
1DC
330
1D9
100
AcDbEntity
  8
VERMASSUNG
100
AcDbTrace
 10
92.3753213425
 20
161.9417910533
 30
0.0
 11
95.3753213425
 21
161.4917910533
 31
0.0
 12
95.3753213425
 22
162.3917910533
 32
0.0
 13
95.3753213425
 23
162.3917910533
 33
0.0
  0
SOLID
  5
1DD
330
1D9
100
AcDbEntity
  8
VERMASSUNG
100
AcDbTrace
 10
206.6253213425
 20
161.9417910533
 30
0.0
 11
203.6253213425
 21
162.3917910533
 31
0.0
 12
203.6253213425
 22
161.4917910533
 32
0.0
 13
203.6253213425
 23
161.4917910533
 33
0.0
  0
LINE
  5
1DE
330
1D9
100
AcDbEntity
  8
VERMASSUNG
100
AcDbLine
 10
92.3753213425
 20
124.6574720682
 30
0.0
 11
92.3753213425
 21
162.9417910533
 31
0.0
  0
LINE
  5
1DF
330
1D9
100
AcDbEntity
  8
VERMASSUNG
100
AcDbLine
 10
206.6253213425
 20
125.5503414712
 30
0.0
 11
206.6253213425
 21
162.9417910533
 31
0.0
  0
LINE
  5
1E0
330
1D9
100
AcDbEntity
  8
VERMASSUNG
100
AcDbLine
 10
92.3753213425
 20
161.9417910533
 30
0.0
 11
206.6253213425
 21
161.9417910533
 31
0.0
  0
MTEXT
  5
1E1
330
1D9
100
AcDbEntity
  8
VERMASSUNG
100
AcDbMText
 10
146.0005448235
 20
164.5199266493
 30
0.0
 40
2.0
 41
0.0
 71
     1
 72
     1
  1
114.25
  7
SLDTEXTSTYLE0
 73
     1
 44
1.0
  0
ENDBLK
  5
1DB
330
1D9
100
AcDbEntity
  8
0
100
AcDbBlockEnd
  0
BLOCK
  5
1E4
330
1E3
100
AcDbEntity
  8
0
100
AcDbBlockBegin
  2
_D_4
 70
     0
 10
0.0
 20
0.0
 30
0.0
  3
_D_4
  1

  0
SOLID
  5
1E6
330
1E3
100
AcDbEntity
  8
VERMASSUNG
100
AcDbTrace
 10
213.8278252624
 20
120.2503414712
 30
0.0
 11
213.3778252624
 21
117.2503414712
 31
0.0
 12
214.2778252624
 22
117.2503414712
 32
0.0
 13
214.2778252624
 23
117.2503414712
 33
0.0
  0
SOLID
  5
1E7
330
1E3
100
AcDbEntity
  8
VERMASSUNG
100
AcDbTrace
 10
213.8278252624
 20
106.2503414712
 30
0.0
 11
214.2778252624
 21
109.2503414712
 31
0.0
 12
213.3778252624
 22
109.2503414712
 32
0.0
 13
213.3778252624
 23
109.2503414712
 33
0.0
  0
LINE
  5
1E8
330
1E3
100
AcDbEntity
  8
VERMASSUNG
100
AcDbLine
 10
205.6253213425
 20
120.2503414712
 30
0.0
 11
214.8278252624
 21
120.2503414712
 31
0.0
  0
LINE
  5
1E9
330
1E3
100
AcDbEntity
  8
VERMASSUNG
100
AcDbLine
 10
205.6253213425
 20
106.2503414712
 30
0.0
 11
214.8278252624
 21
106.2503414712
 31
0.0
  0
LINE
  5
1EA
330
1E3
100
AcDbEntity
  8
VERMASSUNG
100
AcDbLine
 10
213.8278252624
 20
120.2503414712
 30
0.0
 11
213.8278252624
 21
106.2503414712
 31
0.0
  0
MTEXT
  5
1EB
330
1E3
100
AcDbEntity
  8
VERMASSUNG
100
AcDbMText
 10
211.2496897246
 20
110.1465371457
 30
0.0
 40
2.0
 41
0.0
 71
     1
 72
     1
  1
%%c
  7
SLDTEXTSTYLE0
 11
-7.044195017643634E-15
 21
1.0
 31
0.0
 73
     1
 44
1.0
  0
MTEXT
  5
1EC
330
1E3
100
AcDbEntity
  8
VERMASSUNG
100
AcDbMText
 10
211.2496896664
 20
113.7555093393
 30
0.0
 40
2.0
 41
0.0
 71
     1
 72
     1
  1
14
  7
SLDTEXTSTYLE0
 11
-7.044195017643634E-15
 21
1.0
 31
0.0
 73
     1
 44
1.0
  0
ENDBLK
  5
1E5
330
1E3
100
AcDbEntity
  8
0
100
AcDbBlockEnd
  0
BLOCK
  5
1EF
330
1EE
100
AcDbEntity
  8
0
100
AcDbBlockBegin
  2
_D_5
 70
     0
 10
0.0
 20
0.0
 30
0.0
  3
_D_5
  1

  0
SOLID
  5
1F1
330
1EE
100
AcDbEntity
  8
VERMASSUNG
100
AcDbTrace
 10
220.1278252624
 20
125.7503414712
 30
0.0
 11
219.6778252624
 21
122.7503414712
 31
0.0
 12
220.5778252624
 22
122.7503414712
 32
0.0
 13
220.5778252624
 23
122.7503414712
 33
0.0
  0
SOLID
  5
1F2
330
1EE
100
AcDbEntity
  8
VERMASSUNG
100
AcDbTrace
 10
220.1278252624
 20
100.7503414712
 30
0.0
 11
220.5778252624
 21
103.7503414712
 31
0.0
 12
219.6778252624
 22
103.7503414712
 32
0.0
 13
219.6778252624
 23
103.7503414712
 33
0.0
  0
LINE
  5
1F3
330
1EE
100
AcDbEntity
  8
VERMASSUNG
100
AcDbLine
 10
206.4253213425
 20
125.7503414712
 30
0.0
 11
221.1278252624
 21
125.7503414712
 31
0.0
  0
LINE
  5
1F4
330
1EE
100
AcDbEntity
  8
VERMASSUNG
100
AcDbLine
 10
206.4253213425
 20
100.7503414712
 30
0.0
 11
221.1278252624
 21
100.7503414712
 31
0.0
  0
LINE
  5
1F5
330
1EE
100
AcDbEntity
  8
VERMASSUNG
100
AcDbLine
 10
220.1278252624
 20
125.7503414712
 30
0.0
 11
220.1278252624
 21
100.7503414712
 31
0.0
  0
MTEXT
  5
1F6
330
1EE
100
AcDbEntity
  8
VERMASSUNG
100
AcDbMText
 10
217.3496900062
 20
107.5456947152
 30
0.0
 40
2.0
 41
0.0
 71
     1
 72
     1
  1
WH
  7
SLDTEXTSTYLE0
 11
-7.044195017643634E-15
 21
1.0
 31
0.0
 73
     1
 44
1.0
  0
MTEXT
  5
1F7
330
1EE
100
AcDbEntity
  8
VERMASSUNG
100
AcDbMText
 10
217.5496899575
 20
112.5456946035
 30
0.0
 40
2.0
 41
0.0
 71
     1
 72
     1
  1
%%c
  7
SLDTEXTSTYLE0
 11
-7.044195017643634E-15
 21
1.0
 31
0.0
 73
     1
 44
1.0
  0
MTEXT
  5
1F8
330
1EE
100
AcDbEntity
  8
VERMASSUNG
100
AcDbMText
 10
217.5496896664
 20
116.1556082065
 30
0.0
 40
2.0
 41
0.0
 71
     1
 72
     1
  1
25
  7
SLDTEXTSTYLE0
 11
-7.044195017643634E-15
 21
1.0
 31
0.0
 73
     1
 44
1.0
  0
ENDBLK
  5
1F0
330
1EE
100
AcDbEntity
  8
0
100
AcDbBlockEnd
  0
ENDSEC
  0
SECTION
  2
ENTITIES
  0
MTEXT
  5
78
330
1F
100
AcDbEntity
  8
KOPF_DÜNN
100
AcDbMText
 10
13.8892156294
 20
23.8442973028
 30
0.0
 40
3.0
 41
0.0
 71
     1
 72
     1
  1
A14.440.025.046
  7
SLDTEXTSTYLE0
 73
     1
 44
1.0
  0
MTEXT
  5
79
330
1F
100
AcDbEntity
  8
VERMASSUNG
100
AcDbMText
 10
13.9329988022
 20
28.8834360957
 30
0.0
 40
3.0
 41
0.0
 71
     1
 72
     1
  1
Aufnahme_Master shank WH25
  7
SLDTEXTSTYLE0
 73
     1
 44
1.0
  0
MTEXT
  5
7A
330
1F
100
AcDbEntity
  8
VERMASSUNG
100
AcDbMText
 10
98.8601118557
 20
13.8365368761
 30
0.0
 40
2.0
 41
0.0
 71
     1
 72
     1
  1
Datum: 01.09.2011
  7
SLDTEXTSTYLE0
 73
     1
 44
1.0
  0
MTEXT
  5
7B
330
1F
100
AcDbEntity
  8
VERMASSUNG
100
AcDbMText
 10
13.933048693
 20
18.0482802738
 30
0.0
 40
2.0
 41
0.0
 71
     1
 72
     1
  1
DIN 69871 AD/B
  7
SLDTEXTSTYLE0
 73
     1
 44
1.0
  0
MTEXT
  5
7C
330
1F
100
AcDbEntity
  8
VERMASSUNG
100
AcDbMText
 10
13.9808475933
 20
13.9090974274
 30
0.0
 40
2.0
 41
0.0
 71
     1
 72
     1
  1
Gewicht: 900g
  7
SLDTEXTSTYLE0
 73
     1
 44
1.0
  0
ARC
  5
7D
330
1F
100
AcDbEntity
  8
0
  6
Continuous
 62
     7
370
    15
100
AcDbCircle
 10
173.6253213425
 20
104.5288278163
 30
0.0
 40
1.499999999999997
100
AcDbArc
 50
191.5274417163
 51
336.6722113243
  0
ARC
  5
7E
330
1F
100
AcDbEntity
  8
0
  6
Continuous
 62
     7
370
    15
100
AcDbCircle
 10
163.2253213425
 20
90.4253414712
 30
0.0
 40
0.5999999999999943
100
AcDbArc
 50
0.0
 51
90.0
  0
ARC
  5
7F
330
1F
100
AcDbEntity
  8
0
  6
Continuous
 62
     7
370
    15
100
AcDbCircle
 10
163.2253213425
 20
136.0753414712
 30
0.0
 40
0.5999999999999943
100
AcDbArc
 50
270.0
 51
0.0
  0
LINE
  5
80
330
1F
100
AcDbEntity
  8
0
  6
Continuous
 62
     7
370
    15
100
AcDbLine
 10
160.6253213425
 20
91.0253414712
 30
0.0
 11
163.2253213425
 21
91.0253414712
 31
0.0
  0
LINE
  5
81
330
1F
100
AcDbEntity
  8
0
  6
Continuous
 62
     7
370
    15
100
AcDbLine
 10
163.2253213425
 20
135.4753414712
 30
0.0
 11
160.6253213425
 21
135.4753414712
 31
0.0
  0
LINE
  5
82
330
1F
100
AcDbEntity
  8
0
  6
Continuous
 62
     7
370
    15
100
AcDbLine
 10
160.6253213425
 20
135.4753414712
 30
0.0
 11
93.2310144494
 21
125.6470050492
 31
0.0
  0
LINE
  5
83
330
1F
100
AcDbEntity
  8
0
  6
Continuous
 62
     7
370
    15
100
AcDbLine
 10
93.2310144494
 20
100.8536778931
 30
0.0
 11
160.6253213425
 21
91.0253414712
 31
0.0
  0
ARC
  5
84
330
1F
100
AcDbEntity
  8
0
  6
Continuous
 62
     7
370
    15
100
AcDbCircle
 10
182.6753213425
 20
97.7503414712
 30
0.0
 40
3.0
100
AcDbArc
 50
90.0
 51
180.0
  0
ARC
  5
85
330
1F
100
AcDbEntity
  8
0
  6
Continuous
 62
     7
370
    15
100
AcDbCircle
 10
182.6753213425
 20
128.7503414712
 30
0.0
 40
3.0
100
AcDbArc
 50
180.0
 51
270.0
  0
LINE
  5
86
330
1F
100
AcDbEntity
  8
0
  6
Continuous
 62
     7
370
    15
100
AcDbLine
 10
206.4253213425
 20
100.7503414712
 30
0.0
 11
206.6253213425
 21
100.9503414712
 31
0.0
  0
LINE
  5
87
330
1F
100
AcDbEntity
  8
0
  6
Continuous
 62
     7
370
    15
100
AcDbLine
 10
206.6253213425
 20
125.5503414712
 30
0.0
 11
206.4253213425
 21
125.7503414712
 31
0.0
  0
LINE
  5
88
330
1F
100
AcDbEntity
  8
0
  6
Continuous
 62
     7
370
    15
100
AcDbLine
 10
206.4253213425
 20
125.7503414712
 30
0.0
 11
182.6753213425
 21
125.7503414712
 31
0.0
  0
LINE
  5
89
330
1F
100
AcDbEntity
  8
0
  6
Continuous
 62
     7
370
    15
100
AcDbLine
 10
182.6753213425
 20
100.7503414712
 30
0.0
 11
206.4253213425
 21
100.7503414712
 31
0.0
  0
ARC
  5
8A
330
1F
100
AcDbEntity
  8
0
  6
Continuous
 62
     7
370
    15
100
AcDbCircle
 10
93.3753213425
 20
101.8432108741
 30
0.0
 40
0.9999999999999938
100
AcDbArc
 50
180.0
 51
261.7028550302
  0
ARC
  5
8B
330
1F
100
AcDbEntity
  8
0
  6
Continuous
 62
     7
370
    15
100
AcDbCircle
 10
93.3753213425
 20
124.6574720682
 30
0.0
 40
0.9999999999999938
100
AcDbArc
 50
98.2971449698
 51
180.0
  0
ARC
  5
8C
330
1F
100
AcDbEntity
  8
0
  6
Continuous
 62
     7
370
    15
100
AcDbCircle
 10
173.5103112606
 20
104.0152260495
 30
0.0
 40
1.887491758844115
100
AcDbArc
 50
185.4103532092
 51
252.4538271244
  0
ARC
  5
8D
330
1F
100
AcDbEntity
  8
0
  6
Continuous
 62
     7
370
    15
100
AcDbCircle
 10
173.6320130427
 20
104.1343953601
 30
0.0
 40
2.039380740263092
100
AcDbArc
 50
250.2024963853
 51
332.0818820691
  0
ARC
  5
8E
330
1F
100
AcDbEntity
  8
0
  6
Continuous
 62
     7
370
    15
100
AcDbCircle
 10
173.4921823305
 20
103.9526458743
 30
0.0
 40
1.760525117256767
100
AcDbArc
 50
161.381524426
 51
252.9328933625
  0
ARC
  5
8F
330
1F
100
AcDbEntity
  8
0
  6
Continuous
 62
     7
370
    15
100
AcDbCircle
 10
173.6335892298
 20
104.0828421069
 30
0.0
 40
1.928928311768021
100
AcDbArc
 50
250.0513946595
 51
335.5004718537
  0
ARC
  5
90
330
1F
100
AcDbEntity
  8
0
  6
Continuous
 62
     7
370
    15
100
AcDbCircle
 10
173.5467270682
 20
103.9560929931
 30
0.0
 40
1.402228283732632
100
AcDbArc
 50
87.3883473304
 51
251.9517210701
  0
ARC
  5
91
330
1F
100
AcDbEntity
  8
0
  6
Continuous
 62
     7
370
    15
100
AcDbCircle
 10
173.6371300676
 20
104.0269520332
 30
0.0
 40
1.498976209192688
100
AcDbArc
 50
249.5046353668
 51
349.6008318401
  0
CIRCLE
  5
92
330
1F
100
AcDbEntity
  8
0
  6
Continuous
 62
     7
370
    15
100
AcDbCircle
 10
197.5753213425
 20
113.2503414712
 30
0.0
 40
4.000000000000024
  0
LINE
  5
93
330
1F
100
AcDbEntity
  8
0
  6
Continuous
 62
     7
370
    15
100
AcDbLine
 10
197.1821543289
 20
115.526028847
 30
0.0
 11
199.3495409143
 21
114.7286777808
 31
0.0
  0
LINE
  5
94
330
1F
100
AcDbEntity
  8
0
  6
Continuous
 62
     7
370
    15
100
AcDbLine
 10
199.7427079279
 20
112.4529904049
 30
0.0
 11
197.9684883561
 21
110.9746540953
 31
0.0
  0
LINE
  5
95
330
1F
100
AcDbEntity
  8
0
  6
Continuous
 62
     7
370
    15
100
AcDbLine
 10
195.8011017707
 20
111.7720051615
 30
0.0
 11
195.4079347571
 21
114.0476925374
 31
0.0
  0
LINE
  5
96
330
1F
100
AcDbEntity
  8
0
  6
Continuous
 62
     7
370
    15
100
AcDbLine
 10
195.4079347571
 20
114.0476925374
 30
0.0
 11
197.1821543289
 21
115.526028847
 31
0.0
  0
LINE
  5
97
330
1F
100
AcDbEntity
  8
0
  6
Continuous
 62
     7
370
    15
100
AcDbLine
 10
199.3495409143
 20
114.7286777808
 30
0.0
 11
199.7427079279
 21
112.4529904049
 31
0.0
  0
LINE
  5
98
330
1F
100
AcDbEntity
  8
0
  6
Continuous
 62
     7
370
    15
100
AcDbLine
 10
197.9684883561
 20
110.9746540953
 30
0.0
 11
195.8011017707
 21
111.7720051615
 31
0.0
  0
SPLINE
  5
99
330
1F
100
AcDbEntity
  8
0
  6
Continuous
 62
     7
370
    15
100
AcDbSpline
210
0.0
220
0.0
230
1.0
 70
     8
 71
     3
 72
    12
 73
     8
 74
     0
 42
0.000000001
 43
0.00000001
 40
0.0
 40
0.0
 40
0.0
 40
0.0
 40
0.250000000000001
 40
0.250000000000001
 40
0.500000000000002
 40
0.500000000000002
 40
1.0
 40
1.0
 40
1.0
 40
1.0
 10
179.0753213425047
 20
82.80224912251434
 30
0.0
 10
179.1708632526407
 20
82.80224912251435
 30
0.0
 10
179.2630081945034
 20
82.81850279171054
 30
0.0
 10
179.4193344711133
 20
82.87211121262403
 30
0.0
 10
179.4830026137333
 20
82.90852233790572
 30
0.0
 10
179.6318704591637
 20
83.0306459775922
 30
0.0
 10
179.6753213425047
 20
83.12579865302924
 30
0.0
 10
179.6753213425047
 20
83.22142510864892
 30
0.0
  0
SPLINE
  5
9A
330
1F
100
AcDbEntity
  8
0
  6
Continuous
 62
     7
370
    15
100
AcDbSpline
210
0.0
220
0.0
230
1.0
 70
    24
 71
     3
 72
    12
 73
     8
 74
     0
 42
0.000000001
 43
0.00000001
 40
0.0
 40
0.0
 40
0.0
 40
0.0
 40
0.5000000000000011
 40
0.5000000000000011
 40
0.7500000000000006
 40
0.7500000000000006
 40
1.0
 40
1.0
 40
1.0
 40
1.0
 10
179.6753213425047
 20
131.600341471151
 30
0.0
 10
179.6753213425047
 20
131.600341471151
 30
0.0
 10
179.6256413475496
 20
131.600341471151
 30
0.0
 10
179.4697227905321
 20
131.600341471151
 30
0.0
 10
179.4038417259559
 20
131.600341471151
 30
0.0
 10
179.2511960704672
 20
131.600341471151
 30
0.0
 10
179.1639461626063
 20
131.600341471151
 30
0.0
 10
179.0753213425045
 20
131.600341471151
 30
0.0
  0
LINE
  5
9B
330
1F
100
AcDbEntity
  8
0
  6
Continuous
 62
     7
370
    15
100
AcDbLine
 10
179.6753213425
 20
83.2214251086
 30
0.0
 11
179.6753213425
 21
131.6003414712
 31
0.0
  0
LINE
  5
9C
330
1F
100
AcDbEntity
  8
0
  6
Continuous
 62
     7
370
    15
100
AcDbLine
 10
175.2471579846
 20
103.4983214033
 30
0.0
 11
175.2471579846
 21
131.6003414712
 31
0.0
  0
LINE
  5
9D
330
1F
100
AcDbEntity
  8
0
  6
Continuous
 62
     7
370
    15
100
AcDbLine
 10
179.0753213425
 20
131.6003414712
 30
0.0
 11
175.2471579846
 21
131.6003414712
 31
0.0
  0
LINE
  5
9E
330
1F
100
AcDbEntity
  8
0
  6
Continuous
 62
     7
370
    15
100
AcDbLine
 10
175.2471579846
 20
82.8022491225
 30
0.0
 11
179.0753213425
 21
82.8022491225
 31
0.0
  0
LINE
  5
9F
330
1F
100
AcDbEntity
  8
0
  6
Continuous
 62
     7
370
    15
100
AcDbLine
 10
175.2471579846
 20
82.8022491225
 30
0.0
 11
175.2471579846
 21
101.2988416729
 31
0.0
  0
SPLINE
  5
A0
330
1F
100
AcDbEntity
  8
0
  6
Continuous
 62
     7
370
    15
100
AcDbSpline
210
0.0
220
0.0
230
1.0
 70
     8
 71
     3
 72
    12
 73
     8
 74
     0
 42
0.000000001
 43
0.00000001
 40
0.0
 40
0.0
 40
0.0
 40
0.0
 40
0.2499999999999997
 40
0.2499999999999997
 40
0.4999999999999993
 40
0.4999999999999993
 40
1.0
 40
1.0
 40
1.0
 40
1.0
 10
175.2471579845614
 20
101.298841672944
 30
0.0
 10
175.3701054783569
 20
101.4567985216391
 30
0.0
 10
175.4636496814658
 20
101.6286318886166
 30
0.0
 10
175.592589070628
 20
102.0003045982624
 30
0.0
 10
175.6251418280131
 20
102.1934930444537
 30
0.0
 10
175.6256781697469
 20
102.7817895827299
 30
0.0
 10
175.493054512779
 20
103.1738078206186
 30
0.0
 10
175.2471579845614
 20
103.4983214033273
 30
0.0
  0
LINE
  5
A1
330
1F
100
AcDbEntity
  8
0
  6
Continuous
 62
     7
370
    15
100
AcDbLine
 10
164.4253213425
 20
82.8022491225
 30
0.0
 11
168.2034847004
 21
82.8022491225
 31
0.0
  0
LINE
  5
A2
330
1F
100
AcDbEntity
  8
0
  6
Continuous
 62
     7
370
    15
100
AcDbLine
 10
168.2034847004
 20
131.6003414712
 30
0.0
 11
164.4253213425
 21
131.6003414712
 31
0.0
  0
LINE
  5
A3
330
1F
100
AcDbEntity
  8
0
  6
Continuous
 62
     7
370
    15
100
AcDbLine
 10
168.2034847004
 20
82.8022491225
 30
0.0
 11
168.2034847004
 21
131.6003414712
 31
0.0
  0
SPLINE
  5
A4
330
1F
100
AcDbEntity
  8
0
  6
Continuous
 62
     7
370
    15
100
AcDbSpline
210
0.0
220
0.0
230
1.0
 70
     8
 71
     3
 72
     8
 73
     4
 74
     0
 42
0.000000001
 43
0.00000001
 40
0.0
 40
0.0
 40
0.0
 40
0.0
 40
1.0
 40
1.0
 40
1.0
 40
1.0
 10
169.8153213425047
 20
85.43351501164956
 30
0.0
 10
169.4311865939203
 20
84.74087358970537
 30
0.0
 10
169.0462003174274
 20
84.04868741538165
 30
0.0
 10
168.660531738801
 20
83.35689312453748
 30
0.0
  0
SPLINE
  5
A5
330
1F
100
AcDbEntity
  8
0
  6
Continuous
 62
     7
370
    15
100
AcDbSpline
210
0.0
220
0.0
230
1.0
 70
     8
 71
     3
 72
     8
 73
     4
 74
     0
 42
0.000000001
 43
0.00000001
 40
0.0
 40
0.0
 40
0.0
 40
0.0
 40
0.0011901715795577
 40
0.0011901715795577
 40
0.0011901715795577
 40
0.0011901715795577
 10
168.2034847004479
 20
82.80224912251434
 30
0.0
 10
168.3573308899439
 20
82.98681436019793
 30
0.0
 10
168.5097261576165
 20
83.17168972072656
 30
0.0
 10
168.660531738801
 20
83.35689312453748
 30
0.0
  0
SPLINE
  5
A6
330
1F
100
AcDbEntity
  8
0
  6
Continuous
 62
     7
370
    15
100
AcDbSpline
210
0.0
220
0.0
230
1.0
 70
    24
 71
     3
 72
     8
 73
     4
 74
     0
 42
0.000000001
 43
0.00000001
 40
0.0
 40
0.0
 40
0.0
 40
0.0
 40
1.0
 40
1.0
 40
1.0
 40
1.0
 10
169.8153213425047
 20
131.600341471151
 30
0.0
 10
169.2905888541428
 20
131.600341471151
 30
0.0
 10
168.751913369924
 20
131.600341471151
 30
0.0
 10
168.2034847004479
 20
131.600341471151
 30
0.0
  0
LINE
  5
A7
330
1F
100
AcDbEntity
  8
0
  6
Continuous
 62
     7
370
    15
100
AcDbLine
 10
169.8153213425
 20
85.4335150116
 30
0.0
 11
169.8153213425
 21
131.6003414712
 31
0.0
  0
LINE
  5
A8
330
1F
100
AcDbEntity
  8
0
  6
Continuous
 62
     7
370
    15
100
AcDbLine
 10
173.6353213425
 20
105.249058951
 30
0.0
 11
173.6353213425
 21
131.6003414712
 31
0.0
  0
SPLINE
  5
A9
330
1F
100
AcDbEntity
  8
0
  6
Continuous
 62
     7
370
    15
100
AcDbSpline
210
0.0
220
0.0
230
1.0
 70
    24
 71
     3
 72
     8
 73
     4
 74
     0
 42
0.000000001
 43
0.00000001
 40
0.0
 40
0.0
 40
0.0
 40
0.0
 40
1.0
 40
1.0
 40
1.0
 40
1.0
 10
175.2471579845614
 20
131.600341471151
 30
0.0
 10
174.6987293150854
 20
131.600341471151
 30
0.0
 10
174.1600538308666
 20
131.600341471151
 30
0.0
 10
173.6353213425047
 20
131.600341471151
 30
0.0
  0
SPLINE
  5
AA
330
1F
100
AcDbEntity
  8
0
  6
Continuous
 62
     7
370
    15
100
AcDbSpline
210
0.0
220
0.0
230
1.0
 70
     8
 71
     3
 72
    12
 73
     8
 74
     0
 42
0.000000001
 43
0.00000001
 40
0.0
 40
0.0
 40
0.0
 40
0.0
 40
0.2499999999999994
 40
0.2499999999999994
 40
0.4999999999999989
 40
0.4999999999999989
 40
1.0
 40
1.0
 40
1.0
 40
1.0
 10
175.2471579845614
 20
103.4983214033273
 30
0.0
 10
175.1322619333007
 20
103.7180618383839
 30
0.0
 10
175.0054959168281
 20
103.9150301900056
 30
0.0
 10
174.7452809832095
 20
104.2687477628445
 30
0.0
 10
174.6117735252473
 20
104.4255730567168
 30
0.0
 10
174.2033752566591
 20
104.8521156276245
 30
0.0
 10
173.9197221217215
 20
105.0788078065797
 30
0.0
 10
173.6353213425048
 20
105.2490589509752
 30
0.0
  0
SPLINE
  5
AB
330
1F
100
AcDbEntity
  8
0
  6
Continuous
 62
     7
370
    15
100
AcDbSpline
210
0.0
220
0.0
230
1.0
 70
     8
 71
     3
 72
    10
 73
     6
 74
     0
 42
0.000000001
 43
0.00000001
 40
0.0
 40
0.0
 40
0.0
 40
0.0
 40
0.5
 40
0.5
 40
1.0
 40
1.0
 40
1.0
 40
1.0
 10
164.0414658838519
 20
82.8986116216828
 30
0.0
 10
164.0902358568332
 20
82.87038361447478
 30
0.0
 10
164.1476879801355
 20
82.84628901023319
 30
0.0
 10
164.2782848831243
 20
82.81202553714066
 30
0.0
 10
164.3507745629664
 20
82.80224912251433
 30
0.0
 10
164.4253213425046
 20
82.80224912251433
 30
0.0
  0
SPLINE
  5
AC
330
1F
100
AcDbEntity
  8
0
  6
Continuous
 62
     7
370
    15
100
AcDbSpline
210
0.0
220
0.0
230
1.0
 70
     8
 71
     3
 72
    10
 73
     6
 74
     0
 42
0.000000001
 43
0.00000001
 40
0.0
 40
0.0
 40
0.0
 40
0.0
 40
0.5
 40
0.5
 40
1.0
 40
1.0
 40
1.0
 40
1.0
 10
164.0414658838519
 20
82.8986116216828
 30
0.0
 10
163.9833432237758
 20
82.96591678154459
 30
0.0
 10
163.9309400577723
 20
83.04600216857824
 30
0.0
 10
163.8520370362259
 20
83.23002161026702
 30
0.0
 10
163.8253213425047
 20
83.33523296768746
 30
0.0
 10
163.8253213425047
 20
83.44396631414811
 30
0.0
  0
LINE
  5
AD
330
1F
100
AcDbEntity
  8
0
  6
Continuous
 62
     7
370
    15
100
AcDbLine
 10
163.8253213425
 20
83.4439663141
 30
0.0
 11
163.8253213425
 21
131.6003414712
 31
0.0
  0
SPLINE
  5
AE
330
1F
100
AcDbEntity
  8
0
  6
Continuous
 62
     7
370
    15
100
AcDbSpline
210
0.0
220
0.0
230
1.0
 70
    24
 71
     3
 72
    12
 73
     8
 74
     0
 42
0.000000001
 43
0.00000001
 40
0.0
 40
0.0
 40
0.0
 40
0.0
 40
0.25
 40
0.25
 40
0.5
 40
0.5
 40
1.0
 40
1.0
 40
1.0
 40
1.0
 10
164.4253213425046
 20
131.600341471151
 30
0.0
 10
164.3369059651941
 20
131.600341471151
 30
0.0
 10
164.2496355280236
 20
131.600341471151
 30
0.0
 10
164.0971718032517
 20
131.600341471151
 30
0.0
 10
164.0315331910293
 20
131.600341471151
 30
0.0
 10
163.8748747897454
 20
131.600341471151
 30
0.0
 10
163.8253213425047
 20
131.600341471151
 30
0.0
 10
163.8253213425047
 20
131.600341471151
 30
0.0
  0
SPLINE
  5
AF
330
1F
100
AcDbEntity
  8
0
  6
Continuous
 62
     7
370
    15
100
AcDbSpline
210
0.0
220
0.0
230
1.0
 70
     8
 71
     3
 72
    14
 73
    10
 74
     0
 42
0.000000001
 43
0.00000001
 40
0.0
 40
0.0
 40
0.0
 40
0.0
 40
0.2499999999999995
 40
0.2499999999999995
 40
0.4999999999999997
 40
0.4999999999999997
 40
0.7499999999999998
 40
0.7499999999999998
 40
1.0
 40
1.0
 40
1.0
 40
1.0
 10
173.6353213425047
 20
105.3033026008214
 30
0.0
 10
173.6353213425047
 20
105.3399534689852
 30
0.0
 10
173.6139935537929
 20
105.3764202662341
 30
0.0
 10
173.5315351511362
 20
105.441559120775
 30
0.0
 10
173.4704189592811
 20
105.4696302513659
 30
0.0
 10
173.3191158662189
 20
105.5034581330927
 30
0.0
 10
173.2277378428284
 20
105.5089212744893
 30
0.0
 10
173.0353641297755
 20
105.4879953564767
 30
0.0
 10
172.9331837902965
 20
105.4614599311014
 30
0.0
 10
172.8353213425046
 20
105.4209737578201
 30
0.0
  0
SPLINE
  5
B0
330
1F
100
AcDbEntity
  8
0
  6
Continuous
 62
     7
370
    15
100
AcDbSpline
210
0.0
220
0.0
230
1.0
 70
     8
 71
     3
 72
    12
 73
     8
 74
     0
 42
0.000000001
 43
0.00000001
 40
0.0
 40
0.0
 40
0.0
 40
0.0
 40
0.499999999999999
 40
0.499999999999999
 40
0.7499999999999994
 40
0.7499999999999994
 40
1.0
 40
1.0
 40
1.0
 40
1.0
 10
173.6353213425047
 20
101.4903354527541
 30
0.0
 10
173.91952787707
 20
101.3228712904603
 30
0.0
 10
174.1982236111738
 20
101.2112341909487
 30
0.0
 10
174.607569654363
 20
101.1439209253094
 30
0.0
 10
174.7437089916826
 20
101.1387698852954
 30
0.0
 10
175.0050290406786
 20
101.1765358229148
 30
0.0
 10
175.1304502231104
 20
101.2180855812591
 30
0.0
 10
175.2471579845618
 20
101.2988416729419
 30
0.0
  0
LINE
  5
B1
330
1F
100
AcDbEntity
  8
0
  6
Continuous
 62
     7
370
    15
100
AcDbLine
 10
173.6353213425
 20
101.5445791026
 30
0.0
 11
173.6353213425
 21
101.4903354528
 31
0.0
  0
SPLINE
  5
B2
330
1F
100
AcDbEntity
  8
0
  6
Continuous
 62
     7
370
    15
100
AcDbSpline
210
0.0
220
0.0
230
1.0
 70
     8
 71
     3
 72
    14
 73
    10
 74
     0
 42
0.000000001
 43
0.00000001
 40
0.0
 40
0.0
 40
0.0
 40
0.0
 40
0.25
 40
0.25
 40
0.5
 40
0.5
 40
0.75
 40
0.75
 40
1.0
 40
1.0
 40
1.0
 40
1.0
 10
172.8353213425011
 20
101.9678622810442
 30
0.0
 10
172.9327307624849
 20
101.9294475616501
 30
0.0
 10
173.0350550054985
 20
101.8917471568673
 30
0.0
 10
173.227056691036
 20
101.8207023712732
 30
0.0
 10
173.3184913206904
 20
101.7865009099151
 30
0.0
 10
173.4702701879855
 20
101.7195044845097
 30
0.0
 10
173.5312470779
 20
101.6863630162002
 30
0.0
 10
173.6142650164643
 20
101.6166854485502
 30
0.0
 10
173.6353213425047
 20
101.580951737383
 30
0.0
 10
173.6353213425047
 20
101.5445791026022
 30
0.0
  0
SPLINE
  5
B3
330
1F
100
AcDbEntity
  8
0
  6
Continuous
 62
     7
370
    15
100
AcDbSpline
210
0.0
220
0.0
230
1.0
 70
     8
 71
     3
 72
    22
 73
    18
 74
     0
 42
0.000000001
 43
0.00000001
 40
0.0
 40
0.0
 40
0.0
 40
0.0
 40
0.125
 40
0.125
 40
0.25
 40
0.25
 40
0.375
 40
0.375
 40
0.5
 40
0.5
 40
0.625
 40
0.625
 40
0.75
 40
0.75
 40
0.875
 40
0.875
 40
1.0
 40
1.0
 40
1.0
 40
1.0
 10
172.8353213425046
 20
105.4209737578201
 30
0.0
 10
172.6553046479354
 20
105.3464999708436
 30
0.0
 10
172.4908728260651
 20
105.2490507088596
 30
0.0
 10
172.1924765923067
 20
105.0096812752954
 30
0.0
 10
172.0621728649419
 20
104.8697846632251
 30
0.0
 10
171.8489540813228
 20
104.5615330731651
 30
0.0
 10
171.7653262242113
 20
104.391369855046
 30
0.0
 10
171.654195347293
 20
104.0408751202557
 30
0.0
 10
171.6253593524392
 20
103.8557501591044
 30
0.0
 10
171.6252834097794
 20
103.4925432844874
 30
0.0
 10
171.6539420352065
 20
103.3091732707799
 30
0.0
 10
171.7650931283188
 20
102.9632821582867
 30
0.0
 10
171.8481602489626
 20
102.7977626310193
 30
0.0
 10
172.0618462070809
 20
102.4972228936154
 30
0.0
 10
172.1908531970049
 20
102.3633509723314
 30
0.0
 10
172.4904624764941
 20
102.1321042029271
 30
0.0
 10
172.6553051747552
 20
102.0388540862671
 30
0.0
 10
172.8353213425046
 20
101.9678622810429
 30
0.0
  0
SPLINE
  5
B4
330
1F
100
AcDbEntity
  8
0
  6
Continuous
 62
     7
370
    15
100
AcDbSpline
210
0.0
220
0.0
230
1.0
 70
     8
 71
     3
 72
     8
 73
     4
 74
     0
 42
0.000000001
 43
0.00000001
 40
0.0
 40
0.0
 40
0.0
 40
0.0
 40
0.0011901715795577
 40
0.0011901715795577
 40
0.0011901715795577
 40
0.0011901715795577
 10
174.7901109462083
 20
83.35689312453748
 30
0.0
 10
174.9409165273928
 20
83.17168972072656
 30
0.0
 10
175.0933117950654
 20
82.98681436019793
 30
0.0
 10
175.2471579845614
 20
82.80224912251434
 30
0.0
  0
SPLINE
  5
B5
330
1F
100
AcDbEntity
  8
0
  6
Continuous
 62
     7
370
    15
100
AcDbSpline
210
0.0
220
0.0
230
1.0
 70
     8
 71
     3
 72
     8
 73
     4
 74
     0
 42
0.000000001
 43
0.00000001
 40
0.0
 40
0.0
 40
0.0
 40
0.0
 40
1.0
 40
1.0
 40
1.0
 40
1.0
 10
174.7901109462083
 20
83.35689312453748
 30
0.0
 10
174.404442367582
 20
84.04868741538165
 30
0.0
 10
174.019456091089
 20
84.74087358970536
 30
0.0
 10
173.6353213425047
 20
85.43351501164956
 30
0.0
  0
LINE
  5
B6
330
1F
100
AcDbEntity
  8
0
  6
Continuous
 62
     7
370
    15
100
AcDbLine
 10
173.6353213425
 20
85.4335150116
 30
0.0
 11
173.6353213425
 21
101.4903354528
 31
0.0
  0
SPLINE
  5
B7
330
1F
100
AcDbEntity
  8
0
  6
Continuous
 62
     7
370
    15
100
AcDbSpline
210
0.0
220
0.0
230
1.0
 70
     8
 71
     3
 72
    12
 73
     8
 74
     0
 42
0.000000001
 43
0.00000001
 40
0.0
 40
0.0
 40
0.0
 40
0.0
 40
0.2500000000000015
 40
0.2500000000000015
 40
0.500000000000003
 40
0.500000000000003
 40
1.0
 40
1.0
 40
1.0
 40
1.0
 10
170.6153213425046
 20
86.4324836148643
 30
0.0
 10
170.5089194921472
 20
86.4324836148643
 30
0.0
 10
170.4016040807507
 20
86.40971285084578
 30
0.0
 10
170.2061324897234
 20
86.32346990419367
 30
0.0
 10
170.1159503737859
 20
86.25879358372315
 30
0.0
 10
169.8977288870651
 20
86.02586425966635
 30
0.0
 10
169.8153213425043
 20
85.81127902177533
 30
0.0
 10
169.8153213425047
 20
85.59826198334261
 30
0.0
  0
SPLINE
  5
B8
330
1F
100
AcDbEntity
  8
0
  6
Continuous
 62
     7
370
    15
100
AcDbSpline
210
0.0
220
0.0
230
1.0
 70
    24
 71
     3
 72
    14
 73
    10
 74
     0
 42
0.000000001
 43
0.00000001
 40
0.0
 40
0.0
 40
0.0
 40
0.0
 40
0.1250000000000007
 40
0.1250000000000007
 40
0.2500000000000014
 40
0.2500000000000014
 40
0.499999999999999
 40
0.499999999999999
 40
1.0
 40
1.0
 40
1.0
 40
1.0
 10
170.6153213425046
 20
131.600341471151
 30
0.0
 10
170.5547040190871
 20
131.600341471151
 30
0.0
 10
170.492578870952
 20
131.600341471151
 30
0.0
 10
170.3763612079306
 20
131.600341471151
 30
0.0
 10
170.3217445682382
 20
131.600341471151
 30
0.0
 10
170.16706822973
 20
131.600341471151
 30
0.0
 10
170.080951480946
 20
131.600341471151
 30
0.0
 10
169.8796439004054
 20
131.600341471151
 30
0.0
 10
169.8153213425047
 20
131.600341471151
 30
0.0
 10
169.8153213425047
 20
131.600341471151
 30
0.0
  0
SPLINE
  5
B9
330
1F
100
AcDbEntity
  8
0
  6
Continuous
 62
     7
370
    15
100
AcDbSpline
210
0.0
220
0.0
230
1.0
 70
    24
 71
     3
 72
    14
 73
    10
 74
     0
 42
0.000000001
 43
0.00000001
 40
0.0
 40
0.0
 40
0.0
 40
0.0
 40
0.25
 40
0.25
 40
0.5
 40
0.5
 40
0.75
 40
0.75
 40
1.0
 40
1.0
 40
1.0
 40
1.0
 10
173.6353213425047
 20
131.600341471151
 30
0.0
 10
173.6353213425047
 20
131.600341471151
 30
0.0
 10
173.6192397410449
 20
131.600341471151
 30
0.0
 10
173.553748227778
 20
131.600341471151
 30
0.0
 10
173.5044402546506
 20
131.600341471151
 30
0.0
 10
173.3698707329537
 20
131.600341471151
 30
0.0
 10
173.2843476568684
 20
131.600341471151
 30
0.0
 10
173.0773521613134
 20
131.600341471151
 30
0.0
 10
172.9566585273698
 20
131.600341471151
 30
0.0
 10
172.8353213425047
 20
131.600341471151
 30
0.0
  0
LINE
  5
BA
330
1F
100
AcDbEntity
  8
0
  6
Continuous
 62
     7
370
    15
100
AcDbLine
 10
172.8353213425
 20
86.4324836149
 30
0.0
 11
170.6153213425
 21
86.4324836149
 31
0.0
  0
LINE
  5
BB
330
1F
100
AcDbEntity
  8
0
  6
Continuous
 62
     7
370
    15
100
AcDbLine
 10
172.8353213425
 20
131.6003414712
 30
0.0
 11
170.6153213425
 21
131.6003414712
 31
0.0
  0
SPLINE
  5
BC
330
1F
100
AcDbEntity
  8
0
  6
Continuous
 62
     7
370
    15
100
AcDbSpline
210
0.0
220
0.0
230
1.0
 70
     8
 71
     3
 72
    12
 73
     8
 74
     0
 42
0.000000001
 43
0.00000001
 40
0.0
 40
0.0
 40
0.0
 40
0.0
 40
0.5000000000000013
 40
0.5000000000000013
 40
0.7500000000000007
 40
0.7500000000000007
 40
1.0
 40
1.0
 40
1.0
 40
1.0
 10
173.6353213425047
 20
85.59826198334397
 30
0.0
 10
173.6353213425047
 20
85.81108454227684
 30
0.0
 10
173.5533959846849
 20
86.02534104891483
 30
0.0
 10
173.3344741812165
 20
86.2590306773647
 30
0.0
 10
173.2444268897255
 20
86.32351550220868
 30
0.0
 10
173.0490134217056
 20
86.40971511336426
 30
0.0
 10
172.9417304547219
 20
86.4324836148643
 30
0.0
 10
172.8353213425046
 20
86.4324836148643
 30
0.0
  0
LINE
  5
BD
330
1F
100
AcDbEntity
  8
0
  6
Continuous
 62
     7
370
    15
100
AcDbLine
 10
160.6253213425
 20
91.0253414712
 30
0.0
 11
160.6253213425
 21
135.4753414712
 31
0.0
  0
SPLINE
  5
BE
330
1F
100
AcDbEntity
  8
0
  6
Continuous
 62
     7
370
    15
100
AcDbSpline
210
0.0
220
0.0
230
1.0
 70
     8
 71
     3
 72
     8
 73
     4
 74
     0
 42
0.000000001
 43
0.00000001
 40
0.0
 40
0.0
 40
0.0
 40
0.0
 40
1.0
 40
1.0
 40
1.0
 40
1.0
 10
174.6892760288007
 20
142.9628796274156
 30
0.0
 10
174.3373320058924
 20
142.3313182394017
 30
0.0
 10
173.9859735828322
 20
141.6994363397029
 30
0.0
 10
173.6353213425047
 20
141.0671679306525
 30
0.0
  0
SPLINE
  5
BF
330
1F
100
AcDbEntity
  8
0
  6
Continuous
 62
     7
370
    15
100
AcDbSpline
210
0.0
220
0.0
230
1.0
 70
     8
 71
     3
 72
     8
 73
     4
 74
     0
 42
0.000000001
 43
0.00000001
 40
0.0
 40
0.0
 40
0.0
 40
0.0
 40
0.0012409313617635
 40
0.0012409313617635
 40
0.0012409313617635
 40
0.0012409313617635
 10
175.2471579845614
 20
143.7466775503666
 30
0.0
 10
175.0604850563292
 20
143.485665672668
 30
0.0
 10
174.8744998683567
 20
143.2244071708927
 30
0.0
 10
174.6892760288007
 20
142.9628796274156
 30
0.0
  0
LINE
  5
C0
330
1F
100
AcDbEntity
  8
0
  6
Continuous
 62
     7
370
    15
100
AcDbLine
 10
175.2471579846
 20
139.1605711112
 30
0.0
 11
175.2471579846
 21
143.7466775504
 31
0.0
  0
SPLINE
  5
C1
330
1F
100
AcDbEntity
  8
0
  6
Continuous
 62
     7
370
    15
100
AcDbSpline
210
0.0
220
0.0
230
1.0
 70
     8
 71
     3
 72
     8
 73
     4
 74
     0
 42
0.000000001
 43
0.00000001
 40
0.0
 40
0.0
 40
0.0
 40
0.0
 40
1.0
 40
1.0
 40
1.0
 40
1.0
 10
173.6353213425047
 20
135.6524805270095
 30
0.0
 10
174.1601124620006
 20
136.8274577147143
 30
0.0
 10
174.6986287131834
 20
137.9963568824524
 30
0.0
 10
175.2471579845614
 20
139.1605711111986
 30
0.0
  0
LINE
  5
C2
330
1F
100
AcDbEntity
  8
0
  6
Continuous
 62
     7
370
    15
100
AcDbLine
 10
173.6353213425
 20
135.652480527
 30
0.0
 11
173.6353213425
 21
141.0671679307
 31
0.0
  0
SPLINE
  5
C3
330
1F
100
AcDbEntity
  8
0
  6
Continuous
 62
     7
370
    15
100
AcDbSpline
210
0.0
220
0.0
230
1.0
 70
     8
 71
     3
 72
     8
 73
     4
 74
     0
 42
0.000000001
 43
0.00000001
 40
0.0
 40
0.0
 40
0.0
 40
0.0
 40
0.0012409313617635
 40
0.0012409313617635
 40
0.0012409313617635
 40
0.0012409313617635
 10
168.7613666562086
 20
142.9628796274156
 30
0.0
 10
168.5761428166526
 20
143.2244071708927
 30
0.0
 10
168.3901576286801
 20
143.485665672668
 30
0.0
 10
168.2034847004479
 20
143.7466775503666
 30
0.0
  0
SPLINE
  5
C4
330
1F
100
AcDbEntity
  8
0
  6
Continuous
 62
     7
370
    15
100
AcDbSpline
210
0.0
220
0.0
230
1.0
 70
     8
 71
     3
 72
     8
 73
     4
 74
     0
 42
0.000000001
 43
0.00000001
 40
0.0
 40
0.0
 40
0.0
 40
0.0
 40
1.0
 40
1.0
 40
1.0
 40
1.0
 10
169.8153213425047
 20
141.0671679306525
 30
0.0
 10
169.4646691021771
 20
141.6994363397029
 30
0.0
 10
169.1133106791169
 20
142.3313182394017
 30
0.0
 10
168.7613666562086
 20
142.9628796274156
 30
0.0
  0
SPLINE
  5
C5
330
1F
100
AcDbEntity
  8
0
  6
Continuous
 62
     7
370
    15
100
AcDbSpline
210
0.0
220
0.0
230
1.0
 70
     8
 71
     3
 72
     8
 73
     4
 74
     0
 42
0.000000001
 43
0.00000001
 40
0.0
 40
0.0
 40
0.0
 40
0.0
 40
1.0
 40
1.0
 40
1.0
 40
1.0
 10
168.2034847004479
 20
139.1605711111986
 30
0.0
 10
168.7524294786448
 20
137.9954749988849
 30
0.0
 10
169.2910398531616
 20
136.8263166820604
 30
0.0
 10
169.8153213425047
 20
135.6524805270095
 30
0.0
  0
LINE
  5
C6
330
1F
100
AcDbEntity
  8
0
  6
Continuous
 62
     7
370
    15
100
AcDbLine
 10
168.2034847004
 20
139.1605711112
 30
0.0
 11
168.2034847004
 21
143.7466775504
 31
0.0
  0
LINE
  5
C7
330
1F
100
AcDbEntity
  8
0
  6
Continuous
 62
     7
370
    15
100
AcDbLine
 10
169.8153213425
 20
135.652480527
 30
0.0
 11
169.8153213425
 21
141.0671679307
 31
0.0
  0
SPLINE
  5
C8
330
1F
100
AcDbEntity
  8
0
  6
Continuous
 62
     7
370
    15
100
AcDbSpline
210
0.0
220
0.0
230
1.0
 70
     8
 71
     3
 72
    12
 73
     8
 74
     0
 42
0.000000001
 43
0.00000001
 40
0.0
 40
0.0
 40
0.0
 40
0.0
 40
0.5
 40
0.5
 40
0.75
 40
0.75
 40
1.0
 40
1.0
 40
1.0
 40
1.0
 10
173.6353213425047
 20
140.9024209589581
 30
0.0
 10
173.6353213425047
 20
140.6892835573066
 30
0.0
 10
173.5526789273567
 20
140.4743040325689
 30
0.0
 10
173.3340955165463
 20
140.2413849636831
 30
0.0
 10
173.2450055635656
 20
140.1775180538626
 30
0.0
 10
173.0496002456681
 20
140.0911318994809
 30
0.0
 10
172.9430761987248
 20
140.0681993274378
 30
0.0
 10
172.8353213425046
 20
140.0681993274378
 30
0.0
  0
SPLINE
  5
C9
330
1F
100
AcDbEntity
  8
0
  6
Continuous
 62
     7
370
    15
100
AcDbSpline
210
0.0
220
0.0
230
1.0
 70
     8
 71
     3
 72
    12
 73
     8
 74
     0
 42
0.000000001
 43
0.00000001
 40
0.0
 40
0.0
 40
0.0
 40
0.0
 40
0.2500000000000015
 40
0.2500000000000015
 40
0.500000000000003
 40
0.500000000000003
 40
1.0
 40
1.0
 40
1.0
 40
1.0
 10
172.8353213425046
 20
134.3992776146075
 30
0.0
 10
172.957403339993
 20
134.3992776146075
 30
0.0
 10
173.0779938824787
 20
134.4380039707812
 30
0.0
 10
173.2834891661785
 20
134.5679675585275
 30
0.0
 10
173.369005649131
 20
134.6571737950742
 30
0.0
 10
173.5724000006752
 20
134.9620503326199
 30
0.0
 10
173.6353213425047
 20
135.204820946722
 30
0.0
 10
173.6353213425047
 20
135.4475822906763
 30
0.0
  0
SPLINE
  5
CA
330
1F
100
AcDbEntity
  8
0
  6
Continuous
 62
     7
370
    15
100
AcDbSpline
210
0.0
220
0.0
230
1.0
 70
     8
 71
     3
 72
    12
 73
     8
 74
     0
 42
0.000000001
 43
0.00000001
 40
0.0
 40
0.0
 40
0.0
 40
0.0
 40
0.4999999999999986
 40
0.4999999999999986
 40
0.7499999999999992
 40
0.7499999999999992
 40
1.0
 40
1.0
 40
1.0
 40
1.0
 10
179.6753213425047
 20
143.2608926045922
 30
0.0
 10
179.6753213425047
 20
143.3812196376453
 30
0.0
 10
179.6215265309117
 20
143.4993172111271
 30
0.0
 10
179.4606029609454
 20
143.6389599535661
 30
0.0
 10
179.3958514998428
 20
143.6772359069606
 30
0.0
 10
179.2436313165252
 20
143.732075736595
 30
0.0
 10
179.1608238010002
 20
143.7466775503666
 30
0.0
 10
179.0753213425047
 20
143.7466775503666
 30
0.0
  0
SPLINE
  5
CB
330
1F
100
AcDbEntity
  8
0
  6
Continuous
 62
     7
370
    15
100
AcDbSpline
210
0.0
220
0.0
230
1.0
 70
     8
 71
     3
 72
    14
 73
    10
 74
     0
 42
0.000000001
 43
0.00000001
 40
0.0
 40
0.0
 40
0.0
 40
0.0
 40
0.25
 40
0.25
 40
0.5
 40
0.5
 40
0.75
 40
0.75
 40
1.0
 40
1.0
 40
1.0
 40
1.0
 10
179.0753213425047
 20
139.1605711111986
 30
0.0
 10
179.1637438806272
 20
139.1605711111986
 30
0.0
 10
179.2517978703202
 20
139.1354987607392
 30
0.0
 10
179.4036276341915
 20
139.0491566957679
 30
0.0
 10
179.4694705787553
 20
138.987613441255
 30
0.0
 10
179.5732696393008
 20
138.8457856950041
 30
0.0
 10
179.6117417487755
 20
138.765737105034
 30
0.0
 10
179.6629644120501
 20
138.5967246083603
 30
0.0
 10
179.6753213425047
 20
138.5099453014907
 30
0.0
 10
179.6753213425047
 20
138.4217538272347
 30
0.0
  0
LINE
  5
CC
330
1F
100
AcDbEntity
  8
0
  6
Continuous
 62
     7
370
    15
100
AcDbLine
 10
179.6753213425
 20
138.4217538272
 30
0.0
 11
179.6753213425
 21
143.2608926046
 31
0.0
  0
LINE
  5
CD
330
1F
100
AcDbEntity
  8
0
  6
Continuous
 62
     7
370
    15
100
AcDbLine
 10
179.0753213425
 20
143.7466775504
 30
0.0
 11
175.2471579846
 21
143.7466775504
 31
0.0
  0
LINE
  5
CE
330
1F
100
AcDbEntity
  8
0
  6
Continuous
 62
     7
370
    15
100
AcDbLine
 10
175.2471579846
 20
139.1605711112
 30
0.0
 11
179.0753213425
 21
139.1605711112
 31
0.0
  0
SPLINE
  5
CF
330
1F
100
AcDbEntity
  8
0
  6
Continuous
 62
     7
370
    15
100
AcDbSpline
210
0.0
220
0.0
230
1.0
 70
     8
 71
     3
 72
    12
 73
     8
 74
     0
 42
0.000000001
 43
0.00000001
 40
0.0
 40
0.0
 40
0.0
 40
0.0
 40
0.4999999999999996
 40
0.4999999999999996
 40
0.7499999999999998
 40
0.7499999999999998
 40
1.0
 40
1.0
 40
1.0
 40
1.0
 10
163.8253213425047
 20
138.4217538272347
 30
0.0
 10
163.8253213425047
 20
138.5983702237564
 30
0.0
 10
163.8746619773265
 20
138.7734273951301
 30
0.0
 10
164.0308775356146
 20
138.9873776076228
 30
0.0
 10
164.0961801155153
 20
139.0487102504697
 30
0.0
 10
164.2499491334757
 20
139.136098348441
 30
0.0
 10
164.3369622400861
 20
139.1605711111986
 30
0.0
 10
164.4253213425046
 20
139.1605711111986
 30
0.0
  0
LINE
  5
D0
330
1F
100
AcDbEntity
  8
0
  6
Continuous
 62
     7
370
    15
100
AcDbLine
 10
164.4253213425
 20
139.1605711112
 30
0.0
 11
168.2034847004
 21
139.1605711112
 31
0.0
  0
SPLINE
  5
D1
330
1F
100
AcDbEntity
  8
0
  6
Continuous
 62
     7
370
    15
100
AcDbSpline
210
0.0
220
0.0
230
1.0
 70
     8
 71
     3
 72
    14
 73
    10
 74
     0
 42
0.000000001
 43
0.00000001
 40
0.0
 40
0.0
 40
0.0
 40
0.0
 40
0.25
 40
0.25
 40
0.5
 40
0.5
 40
0.75
 40
0.75
 40
1.0
 40
1.0
 40
1.0
 40
1.0
 10
169.8153213425047
 20
135.4475822906763
 30
0.0
 10
169.8153213425047
 20
135.3256469554948
 30
0.0
 10
169.8313657100446
 20
135.2060927149933
 30
0.0
 10
169.8970950522239
 20
134.9719767318501
 30
0.0
 10
169.9463024224723
 20
134.8600441917154
 30
0.0
 10
170.0813154033711
 20
134.6576443824785
 30
0.0
 10
170.1672354719774
 20
134.5677791889156
 30
0.0
 10
170.3737502739829
 20
134.4374446793053
 30
0.0
 10
170.4938889863539
 20
134.3992776146075
 30
0.0
 10
170.6153213425046
 20
134.3992776146075
 30
0.0
  0
LINE
  5
D2
330
1F
100
AcDbEntity
  8
0
  6
Continuous
 62
     7
370
    15
100
AcDbLine
 10
170.6153213425
 20
134.3992776146
 30
0.0
 11
172.8353213425
 21
134.3992776146
 31
0.0
  0
LINE
  5
D3
330
1F
100
AcDbEntity
  8
0
  6
Continuous
 62
     7
370
    15
100
AcDbLine
 10
173.6353213425
 20
135.4475822907
 30
0.0
 11
173.6353213425
 21
135.652480527
 31
0.0
  0
LINE
  5
D4
330
1F
100
AcDbEntity
  8
0
  6
Continuous
 62
     7
370
    15
100
AcDbLine
 10
169.8153213425
 20
135.652480527
 30
0.0
 11
169.8153213425
 21
135.4475822907
 31
0.0
  0
LINE
  5
D5
330
1F
100
AcDbEntity
  8
0
  6
Continuous
 62
     7
370
    15
100
AcDbLine
 10
163.8253213425
 20
138.4217538272
 30
0.0
 11
163.8253213425
 21
131.6003414712
 31
0.0
  0
LINE
  5
D6
330
1F
100
AcDbEntity
  8
0
  6
Continuous
 62
     7
370
    15
100
AcDbLine
 10
179.6753213425
 20
138.4217538272
 30
0.0
 11
179.6753213425
 21
131.6003414712
 31
0.0
  0
LINE
  5
D7
330
1F
100
AcDbEntity
  8
0
  6
Continuous
 62
     7
370
    15
100
AcDbLine
 10
172.8353213425
 20
140.0681993274
 30
0.0
 11
170.6153213425
 21
140.0681993274
 31
0.0
  0
SPLINE
  5
D8
330
1F
100
AcDbEntity
  8
0
  6
Continuous
 62
     7
370
    15
100
AcDbSpline
210
0.0
220
0.0
230
1.0
 70
     8
 71
     3
 72
    14
 73
    10
 74
     0
 42
0.000000001
 43
0.00000001
 40
0.0
 40
0.0
 40
0.0
 40
0.0
 40
0.25
 40
0.25
 40
0.5
 40
0.5
 40
0.75
 40
0.75
 40
1.0
 40
1.0
 40
1.0
 40
1.0
 10
170.6153213425046
 20
140.0681993274378
 30
0.0
 10
170.5079522979903
 20
140.0681993274378
 30
0.0
 10
170.4011468062274
 20
140.0911243228427
 30
0.0
 10
170.2060054377106
 20
140.1773167567169
 30
0.0
 10
170.1167957201207
 20
140.2411607533809
 30
0.0
 10
169.9708689273043
 20
140.3965768613223
 30
0.0
 10
169.9128791835062
 20
140.48923143953
 30
0.0
 10
169.8352853419837
 20
140.6884647795796
 30
0.0
 10
169.8153213425047
 20
140.7950698746348
 30
0.0
 10
169.8153213425047
 20
140.9024209589581
 30
0.0
  0
SPLINE
  5
D9
330
1F
100
AcDbEntity
  8
0
  6
Continuous
 62
     7
370
    15
100
AcDbSpline
210
0.0
220
0.0
230
1.0
 70
     8
 71
     3
 72
    10
 73
     6
 74
     0
 42
0.000000001
 43
0.00000001
 40
0.0
 40
0.0
 40
0.0
 40
0.0
 40
0.5
 40
0.5
 40
1.0
 40
1.0
 40
1.0
 40
1.0
 10
164.1125629438122
 20
143.675638026108
 30
0.0
 10
164.0367233498087
 20
143.6055888397794
 30
0.0
 10
163.9693998320827
 20
143.5203700662057
 30
0.0
 10
163.8627561937776
 20
143.3101439395439
 30
0.0
 10
163.8253213425047
 20
143.1866347486766
 30
0.0
 10
163.8253213425047
 20
143.0567166281539
 30
0.0
  0
SPLINE
  5
DA
330
1F
100
AcDbEntity
  8
0
  6
Continuous
 62
     7
370
    15
100
AcDbSpline
210
0.0
220
0.0
230
1.0
 70
     8
 71
     3
 72
     8
 73
     4
 74
     0
 42
0.000000001
 43
0.00000001
 40
0.0
 40
0.0
 40
0.0
 40
0.0
 40
1.0
 40
1.0
 40
1.0
 40
1.0
 10
164.4253213425046
 20
143.7466775503666
 30
0.0
 10
164.313143088325
 20
143.7466775503666
 30
0.0
 10
164.2044735755966
 20
143.7209964851056
 30
0.0
 10
164.1125629438122
 20
143.675638026108
 30
0.0
  0
LINE
  5
DB
330
1F
100
AcDbEntity
  8
0
  6
Continuous
 62
     7
370
    15
100
AcDbLine
 10
163.8253213425
 20
138.4217538272
 30
0.0
 11
163.8253213425
 21
143.0567166282
 31
0.0
  0
LINE
  5
DC
330
1F
100
AcDbEntity
  8
0
  6
Continuous
 62
     7
370
    15
100
AcDbLine
 10
168.2034847004
 20
143.7466775504
 30
0.0
 11
164.4253213425
 21
143.7466775504
 31
0.0
  0
LINE
  5
DD
330
1F
100
AcDbEntity
  8
0
  6
Continuous
 62
     7
370
    15
100
AcDbLine
 10
206.6253213425
 20
113.2503414712
 30
0.0
 11
206.6253213425
 21
100.9503414712
 31
0.0
  0
LINE
  5
DE
330
1F
100
AcDbEntity
  8
0
  6
Continuous
 62
     7
370
    15
100
AcDbLine
 10
206.6253213425
 20
125.5503414712
 30
0.0
 11
206.6253213425
 21
113.2503414712
 31
0.0
  0
LINE
  5
DF
330
1F
100
AcDbEntity
  8
0
  6
Continuous
 62
     7
370
    15
100
AcDbLine
 10
206.4253213425
 20
113.2503414712
 30
0.0
 11
206.4253213425
 21
100.7503414712
 31
0.0
  0
LINE
  5
E0
330
1F
100
AcDbEntity
  8
0
  6
Continuous
 62
     7
370
    15
100
AcDbLine
 10
206.4253213425
 20
125.7503414712
 30
0.0
 11
206.4253213425
 21
113.2503414712
 31
0.0
  0
SPLINE
  5
E1
330
1F
100
AcDbEntity
  8
0
  6
Continuous
 62
     7
370
    15
100
AcDbSpline
210
0.0
220
0.0
230
1.0
 70
    11
 71
     3
 72
    74
 73
    70
 74
     0
 42
0.000000001
 43
0.00000001
 40
0.0
 40
0.0
 40
0.0
 40
0.0
 40
0.062499999999999
 40
0.062499999999999
 40
0.0937499999999988
 40
0.0937499999999988
 40
0.1249999999999986
 40
0.1249999999999986
 40
0.1562499999999984
 40
0.1562499999999984
 40
0.1874999999999982
 40
0.1874999999999982
 40
0.2499999999999979
 40
0.2499999999999979
 40
0.2812499999999978
 40
0.2812499999999978
 40
0.3124999999999977
 40
0.3124999999999977
 40
0.3437499999999976
 40
0.3437499999999976
 40
0.3749999999999974
 40
0.3749999999999974
 40
0.3906249999999974
 40
0.3906249999999974
 40
0.4062499999999973
 40
0.4062499999999973
 40
0.4374999999999973
 40
0.4374999999999973
 40
0.4687499999999974
 40
0.4687499999999974
 40
0.4999999999999974
 40
0.4999999999999974
 40
0.5312499999999974
 40
0.5312499999999974
 40
0.5624999999999976
 40
0.5624999999999976
 40
0.5937499999999976
 40
0.5937499999999976
 40
0.6249999999999977
 40
0.6249999999999977
 40
0.6562499999999977
 40
0.6562499999999977
 40
0.6874999999999978
 40
0.6874999999999978
 40
0.7187499999999978
 40
0.7187499999999978
 40
0.7499999999999978
 40
0.7499999999999978
 40
0.7812499999999979
 40
0.7812499999999979
 40
0.7968749999999981
 40
0.7968749999999981
 40
0.8124999999999982
 40
0.8124999999999982
 40
0.8437499999999988
 40
0.8437499999999988
 40
0.859374999999999
 40
0.859374999999999
 40
0.8749999999999991
 40
0.8749999999999991
 40
0.9062499999999994
 40
0.9062499999999994
 40
0.9218749999999994
 40
0.9218749999999994
 40
0.9374999999999996
 40
0.9374999999999996
 40
0.9687499999999999
 40
0.9687499999999999
 40
1.0
 40
1.0
 40
1.0
 40
1.0
 10
194.1370899428124
 20
116.5924730011637
 30
0.0
 10
194.6487329050306
 20
116.9689552526573
 30
0.0
 10
195.214402034223
 20
117.2447672979638
 30
0.0
 10
196.1319802845526
 20
117.522135264457
 30
0.0
 10
196.4420370281198
 20
117.5889514364526
 30
0.0
 10
197.0702476440696
 20
117.6740244614098
 30
0.0
 10
197.3898163100145
 20
117.6922270117998
 30
0.0
 10
198.0313690835766
 20
117.678043052539
 30
0.0
 10
198.3473649356048
 20
117.6460185635522
 30
0.0
 10
198.970140573251
 20
117.533469847406
 30
0.0
 10
199.2779984376623
 20
117.4525860703506
 30
0.0
 10
200.1802248737058
 20
117.1342261138433
 30
0.0
 10
200.7308254797936
 20
116.8327855613288
 30
0.0
 10
201.4670648793109
 20
116.2300062129806
 30
0.0
 10
201.6901559273848
 20
116.0090533996922
 30
0.0
 10
202.0889286178622
 20
115.5233455650976
 30
0.0
 10
202.266191953034
 20
115.2548672628417
 30
0.0
 10
202.5511341040059
 20
114.6893406333133
 30
0.0
 10
202.6608013005567
 20
114.3906244275912
 30
0.0
 10
202.8034864533736
 20
113.7631524363789
 30
0.0
 10
202.8338448270645
 20
113.4468884424059
 30
0.0
 10
202.8180273955835
 20
112.9686948663175
 30
0.0
 10
202.802188087993
 20
112.8074022151397
 30
0.0
 10
202.7502576231827
 20
112.4908830936551
 30
0.0
 10
202.7143928690485
 20
112.335694921188
 30
0.0
 10
202.5787053836518
 20
111.8788102490625
 30
0.0
 10
202.4488242837242
 20
111.5826980752403
 30
0.0
 10
202.1302015409135
 20
111.0351068981587
 30
0.0
 10
201.9406763570956
 20
110.7803959766225
 30
0.0
 10
201.5120032157664
 20
110.3123244140853
 30
0.0
 10
201.2770716952396
 20
110.1030711415542
 30
0.0
 10
200.7699298476388
 20
109.7280249773654
 30
0.0
 10
200.4962714995789
 20
109.5621194415667
 30
0.0
 10
199.9307747222566
 20
109.2819061668423
 30
0.0
 10
199.6369198524891
 20
109.1658807205153
 30
0.0
 10
199.0270016845022
 20
108.9806346550871
 30
0.0
 10
198.7130002452351
 20
108.9125434568371
 30
0.0
 10
198.0840958832806
 20
108.8269455957998
 30
0.0
 10
197.7667778868092
 20
108.8086666523449
 30
0.0
 10
197.1262629133467
 20
108.8221499086336
 30
0.0
 10
196.8059123761622
 20
108.8543039154728
 30
0.0
 10
196.1821194759181
 20
108.9668059193735
 30
0.0
 10
195.8760798370324
 20
109.0471415552288
 30
0.0
 10
195.2760309133123
 20
109.258364642006
 30
0.0
 10
194.9844510452839
 20
109.388934550205
 30
0.0
 10
194.4355478776785
 20
109.6934098750525
 30
0.0
 10
194.175540464689
 20
109.868121946277
 30
0.0
 10
193.6867846549121
 20
110.2678247046754
 30
0.0
 10
193.4599693385086
 20
110.4921612593196
 30
0.0
 10
193.1608051563013
 20
110.8566932247724
 30
0.0
 10
193.0673384314769
 20
110.9833981333843
 30
0.0
 10
192.8937989062842
 20
111.2480693234015
 30
0.0
 10
192.8132801492142
 20
111.3869993661753
 30
0.0
 10
192.5982979892132
 20
111.8138836088007
 30
0.0
 10
192.4894018330647
 20
112.1117511144405
 30
0.0
 10
192.3828376724635
 20
112.5807384011647
 30
0.0
 10
192.357083693375
 20
112.7408274585215
 30
0.0
 10
192.32685006981
 20
113.058719366732
 30
0.0
 10
192.3220391630796
 20
113.2177523249858
 30
0.0
 10
192.338382442188
 20
113.6951111574834
 30
0.0
 10
192.3919300199696
 20
114.01726009587
 30
0.0
 10
192.5284903649
 20
114.4748077149198
 30
0.0
 10
192.5832807519986
 20
114.6239920653288
 30
0.0
 10
192.7107385004971
 20
114.9159780023434
 30
0.0
 10
192.7838568124497
 20
115.0593989355141
 30
0.0
 10
193.0242937395025
 20
115.4713315431003
 30
0.0
 10
193.2132251952901
 20
115.7244032218106
 30
0.0
 10
193.6429378576578
 20
116.192484193134
 30
0.0
 10
193.8812684617033
 20
116.4042318754169
 30
0.0
 10
194.1370899428123
 20
116.5924730011637
 30
0.0
  0
LINE
  5
E2
330
1F
100
AcDbEntity
  8
0
  6
Continuous
 62
     7
370
    15
100
AcDbLine
 10
92.3753213425
 20
101.8432108741
 30
0.0
 11
92.3753213425
 21
124.6574720618
 31
0.0
  0
ARC
  5
E3
330
1F
100
AcDbEntity
  8
0
  6
HIDDEN
 62
     7
370
     0
100
AcDbCircle
 10
173.6073885511
 20
103.9405978722
 30
0.0
 40
1.978860320144469
100
AcDbArc
 50
337.3814109797
 51
182.9934616609
  0
ARC
  5
E4
330
1F
100
AcDbEntity
  8
0
  6
HIDDEN
 62
     7
370
     0
100
AcDbCircle
 10
173.601653791
 20
103.8853273371
 30
0.0
 40
1.885980489032367
100
AcDbArc
 50
341.373287973
 51
160.5051820461
  0
ARC
  5
E5
330
1F
100
AcDbEntity
  8
0
  6
HIDDEN
 62
     7
370
     0
100
AcDbCircle
 10
173.6828460242
 20
103.9206304765
 30
0.0
 40
1.438049198582665
100
AcDbArc
 50
353.4414839099
 51
92.8788432092
  0
LWPOLYLINE
  5
E6
330
1F
100
AcDbEntity
  8
0
  6
HIDDEN
 62
     7
370
     0
100
AcDbPolyline
 90
       24
 70
   128
 43
0.0
 10
172.9412810559
 20
102.3523592012
 10
172.4595950553
 20
102.5912709415
 10
172.0643656406
 20
102.9434431281
 10
171.7849051695
 20
103.3827567612
 10
171.6419399465
 20
103.8766299582
 10
171.6460730484
 20
104.3884344035
 10
171.7969979417
 20
104.8802119027
 10
172.0835212177
 20
105.3154895684
 10
172.4843927556
 20
105.6619848474
 10
172.9698817475
 20
105.89399977
 10
173.5039816956
 20
105.9943268508
 10
174.0470808503
 20
105.9555252891
 10
174.5589000317
 20
105.7804728193
 10
175.0014799526
 20
105.4821522823
 10
175.3419964849
 20
105.0826887475
 10
175.5551950751
 20
104.611708598
 10
175.6252637591
 20
104.1041422767
 10
175.5470058633
 20
103.5976336559
 10
175.3262254177
 20
103.1297481627
 10
174.9792966979
 20
102.7351867238
 10
174.53194982
 20
102.4432121561
 10
174.0173624556
 20
102.2754788776
 10
173.4736991952
 20
102.2444268982
 10
172.9412810559
 20
102.3523592012
  0
LWPOLYLINE
  5
E7
330
1F
100
AcDbEntity
  8
0
  6
HIDDEN
 62
     7
370
     0
100
AcDbPolyline
 90
       21
 70
   128
 43
0.0
 10
173.1122911275
 20
103.6263386523
 10
172.7018291295
 20
103.8401401492
 10
172.3817649837
 20
104.1626678171
 10
172.1834287986
 20
104.5623504007
 10
172.126235102
 20
105.0000641839
 10
172.2157824113
 20
105.4329626919
 10
172.4433052121
 20
105.8186708025
 10
172.7865319873
 20
106.1194327185
 10
173.2118653088
 20
106.3058077681
 10
173.6776705876
 20
106.3595522628
 10
174.1383515575
 20
106.2754053169
 10
174.5488135555
 20
106.06160382
 10
174.8688777013
 20
105.7390761521
 10
175.0672138864
 20
105.3393935685
 10
175.124407583
 20
104.9016797853
 10
175.0348602737
 20
104.4687812773
 10
174.8073374729
 20
104.0830731667
 10
174.4641106977
 20
103.7823112507
 10
174.0387773762
 20
103.5959362011
 10
173.5729720975
 20
103.5421917065
 10
173.1122911275
 20
103.6263386523
  0
LWPOLYLINE
  5
E8
330
1F
100
AcDbEntity
  8
0
  6
HIDDEN
 62
     7
370
     0
100
AcDbPolyline
 90
       24
 70
   128
 43
0.0
 10
172.9412810559
 20
102.5447455319
 10
172.4595950553
 20
102.7836572721
 10
172.0643656406
 20
103.1358294588
 10
171.7849051695
 20
103.5751430918
 10
171.6419399465
 20
104.0690162888
 10
171.6460730484
 20
104.5808207341
 10
171.7969979417
 20
105.0725982333
 10
172.0835212177
 20
105.507875899
 10
172.4843927556
 20
105.854371178
 10
172.9698817475
 20
106.0863861006
 10
173.5039816956
 20
106.1867131814
 10
174.0470808503
 20
106.1479116197
 10
174.5589000317
 20
105.97285915
 10
175.0014799526
 20
105.6745386129
 10
175.3419964849
 20
105.2750750782
 10
175.5551950751
 20
104.8040949286
 10
175.6252637591
 20
104.2965286073
 10
175.5470058633
 20
103.7900199865
 10
175.3262254177
 20
103.3221344933
 10
174.9792966979
 20
102.9275730544
 10
174.53194982
 20
102.6355984867
 10
174.0173624556
 20
102.4678652082
 10
173.4736991952
 20
102.4368132288
 10
172.9412810559
 20
102.5447455319
  0
LWPOLYLINE
  5
E9
330
1F
100
AcDbEntity
  8
0
  6
HIDDEN
 62
     7
370
     0
100
AcDbPolyline
 90
       23
 70
   128
 43
0.0
 10
172.9960042788
 20
102.6379325047
 10
172.534370753
 20
102.8703533978
 10
172.1611195559
 20
103.2155733968
 10
171.9064892796
 20
103.6456248304
 10
171.7911085548
 20
104.125667489
 10
171.8243248415
 20
104.6168111713
 10
172.0034471538
 20
105.0792663372
 10
172.3139640672
 20
105.4755676195
 10
172.7307193481
 20
105.7736090451
 10
173.2199499622
 20
105.9492450703
 10
173.7420213547
 20
105.9882467089
 10
174.2546384062
 20
105.88745428
 10
174.716271932
 20
105.6550333868
 10
175.0895231291
 20
105.3098133878
 10
175.3441534054
 20
104.8797619543
 10
175.4595341303
 20
104.3997192957
 10
175.4263178435
 20
103.9085756133
 10
175.2471955312
 20
103.4461204474
 10
174.9366786178
 20
103.0498191651
 10
174.5199233369
 20
102.7517777395
 10
174.0306927228
 20
102.5761417143
 10
173.5086213303
 20
102.5371400758
 10
172.9960042788
 20
102.6379325047
  0
LWPOLYLINE
  5
EA
330
1F
100
AcDbEntity
  8
0
  6
HIDDEN
 62
     7
370
     0
100
AcDbPolyline
 90
       24
 70
   128
 43
0.0
 10
172.9412810559
 20
102.7371318625
 10
172.4595950553
 20
102.9760436027
 10
172.0643656406
 20
103.3282157894
 10
171.7849051695
 20
103.7675294224
 10
171.6419399465
 20
104.2614026195
 10
171.6460730484
 20
104.7732070647
 10
171.7969979417
 20
105.2649845639
 10
172.0835212177
 20
105.7002622296
 10
172.4843927556
 20
106.0467575086
 10
172.9698817475
 20
106.2787724312
 10
173.5039816956
 20
106.379099512
 10
174.0470808503
 20
106.3402979504
 10
174.5589000317
 20
106.1652454806
 10
175.0014799526
 20
105.8669249435
 10
175.3419964849
 20
105.4674614088
 10
175.5551950751
 20
104.9964812592
 10
175.6252637591
 20
104.488914938
 10
175.5470058633
 20
103.9824063171
 10
175.3262254177
 20
103.5145208239
 10
174.9792966979
 20
103.119959385
 10
174.53194982
 20
102.8279848173
 10
174.0173624556
 20
102.6602515388
 10
173.4736991952
 20
102.6291995595
 10
172.9412810559
 20
102.7371318625
  0
LWPOLYLINE
  5
EB
330
1F
100
AcDbEntity
  8
0
  6
HIDDEN
 62
     7
370
     0
100
AcDbPolyline
 90
       23
 70
   128
 43
0.0
 10
172.9960042788
 20
102.8303188353
 10
172.534370753
 20
103.0627397285
 10
172.1611195559
 20
103.4079597274
 10
171.9064892796
 20
103.838011161
 10
171.7911085548
 20
104.3180538196
 10
171.8243248415
 20
104.8091975019
 10
172.0034471538
 20
105.2716526679
 10
172.3139640672
 20
105.6679539501
 10
172.7307193481
 20
105.9659953758
 10
173.2199499622
 20
106.141631401
 10
173.7420213547
 20
106.1806330395
 10
174.2546384062
 20
106.0798406106
 10
174.716271932
 20
105.8474197174
 10
175.0895231291
 20
105.5021997184
 10
175.3441534054
 20
105.0721482849
 10
175.4595341303
 20
104.5921056263
 10
175.4263178435
 20
104.100961944
 10
175.2471955312
 20
103.638506778
 10
174.9366786178
 20
103.2422054958
 10
174.5199233369
 20
102.9441640701
 10
174.0306927228
 20
102.7685280449
 10
173.5086213303
 20
102.7295264064
 10
172.9960042788
 20
102.8303188353
  0
LWPOLYLINE
  5
EC
330
1F
100
AcDbEntity
  8
0
  6
HIDDEN
 62
     7
370
     0
100
AcDbPolyline
 90
       24
 70
   128
 43
0.0
 10
172.9412810559
 20
102.9295181931
 10
172.4595950553
 20
103.1684299333
 10
172.0643656406
 20
103.52060212
 10
171.7849051695
 20
103.9599157531
 10
171.6419399465
 20
104.4537889501
 10
171.6460730484
 20
104.9655933954
 10
171.7969979417
 20
105.4573708945
 10
172.0835212177
 20
105.8926485602
 10
172.4843927556
 20
106.2391438393
 10
172.9698817475
 20
106.4711587619
 10
173.5039816956
 20
106.5714858426
 10
174.0470808503
 20
106.532684281
 10
174.5589000317
 20
106.3576318112
 10
175.0014799526
 20
106.0593112742
 10
175.3419964849
 20
105.6598477394
 10
175.5551950751
 20
105.1888675898
 10
175.6252637591
 20
104.6813012686
 10
175.5470058633
 20
104.1747926477
 10
175.3262254177
 20
103.7069071545
 10
174.9792966979
 20
103.3123457156
 10
174.53194982
 20
103.020371148
 10
174.0173624556
 20
102.8526378695
 10
173.4736991952
 20
102.8215858901
 10
172.9412810559
 20
102.9295181931
  0
LWPOLYLINE
  5
ED
330
1F
100
AcDbEntity
  8
0
  6
HIDDEN
 62
     7
370
     0
100
AcDbPolyline
 90
       23
 70
   128
 43
0.0
 10
172.9960042788
 20
103.0227051659
 10
172.534370753
 20
103.2551260591
 10
172.1611195559
 20
103.6003460581
 10
171.9064892796
 20
104.0303974916
 10
171.7911085548
 20
104.5104401502
 10
171.8243248415
 20
105.0015838326
 10
172.0034471538
 20
105.4640389985
 10
172.3139640672
 20
105.8603402807
 10
172.7307193481
 20
106.1583817064
 10
173.2199499622
 20
106.3340177316
 10
173.7420213547
 20
106.3730193701
 10
174.2546384062
 20
106.2722269412
 10
174.716271932
 20
106.039806048
 10
175.0895231291
 20
105.6945860491
 10
175.3441534054
 20
105.2645346155
 10
175.4595341303
 20
104.7844919569
 10
175.4263178435
 20
104.2933482746
 10
175.2471955312
 20
103.8308931086
 10
174.9366786178
 20
103.4345918264
 10
174.5199233369
 20
103.1365504008
 10
174.0306927228
 20
102.9609143756
 10
173.5086213303
 20
102.921912737
 10
172.9960042788
 20
103.0227051659
  0
LWPOLYLINE
  5
EE
330
1F
100
AcDbEntity
  8
0
  6
HIDDEN
 62
     7
370
     0
100
AcDbPolyline
 90
       24
 70
   128
 43
0.0
 10
172.9412810559
 20
103.1219045237
 10
172.4595950553
 20
103.360816264
 10
172.0643656406
 20
103.7129884506
 10
171.7849051695
 20
104.1523020837
 10
171.6419399465
 20
104.6461752807
 10
171.6460730484
 20
105.157979726
 10
171.7969979417
 20
105.6497572252
 10
172.0835212177
 20
106.0850348909
 10
172.4843927556
 20
106.4315301699
 10
172.9698817475
 20
106.6635450925
 10
173.5039816956
 20
106.7638721733
 10
174.0470808503
 20
106.7250706116
 10
174.5589000317
 20
106.5500181418
 10
175.0014799526
 20
106.2516976048
 10
175.3419964849
 20
105.85223407
 10
175.5551950751
 20
105.3812539205
 10
175.6252637591
 20
104.8736875992
 10
175.5470058633
 20
104.3671789783
 10
175.3262254177
 20
103.8992934852
 10
174.9792966979
 20
103.5047320463
 10
174.53194982
 20
103.2127574786
 10
174.0173624556
 20
103.0450242001
 10
173.4736991952
 20
103.0139722207
 10
172.9412810559
 20
103.1219045237
  0
LWPOLYLINE
  5
EF
330
1F
100
AcDbEntity
  8
0
  6
HIDDEN
 62
     7
370
     0
100
AcDbPolyline
 90
       23
 70
   128
 43
0.0
 10
172.9960042788
 20
103.2150914965
 10
172.534370753
 20
103.4475123897
 10
172.1611195559
 20
103.7927323887
 10
171.9064892796
 20
104.2227838222
 10
171.7911085548
 20
104.7028264808
 10
171.8243248415
 20
105.1939701632
 10
172.0034471538
 20
105.6564253291
 10
172.3139640672
 20
106.0527266114
 10
172.7307193481
 20
106.350768037
 10
173.2199499622
 20
106.5264040622
 10
173.7420213547
 20
106.5654057007
 10
174.2546384062
 20
106.4646132719
 10
174.716271932
 20
106.2321923787
 10
175.0895231291
 20
105.8869723797
 10
175.3441534054
 20
105.4569209461
 10
175.4595341303
 20
104.9768782876
 10
175.4263178435
 20
104.4857346052
 10
175.2471955312
 20
104.0232794393
 10
174.9366786178
 20
103.626978157
 10
174.5199233369
 20
103.3289367314
 10
174.0306927228
 20
103.1533007062
 10
173.5086213303
 20
103.1142990676
 10
172.9960042788
 20
103.2150914965
  0
LWPOLYLINE
  5
F0
330
1F
100
AcDbEntity
  8
0
  6
HIDDEN
 62
     7
370
     0
100
AcDbPolyline
 90
       24
 70
   128
 43
0.0
 10
172.9412810559
 20
103.4468236599
 10
172.4595950553
 20
103.6857354001
 10
172.0643656406
 20
104.0379075868
 10
171.7849051695
 20
104.4772212198
 10
171.6419399465
 20
104.9710944169
 10
171.6460730484
 20
105.4828988621
 10
171.7969979417
 20
105.9746763613
 10
172.0835212177
 20
106.409954027
 10
172.4843927556
 20
106.756449306
 10
172.9698817475
 20
106.9884642286
 10
173.5039816956
 20
107.0887913094
 10
174.0470808503
 20
107.0499897478
 10
174.5589000317
 20
106.874937278
 10
175.0014799526
 20
106.5766167409
 10
175.3419964849
 20
106.1771532062
 10
175.5551950751
 20
105.7061730566
 10
175.6252637591
 20
105.1986067354
 10
175.5470058633
 20
104.6920981145
 10
175.3262254177
 20
104.2242126213
 10
174.9792966979
 20
103.8296511824
 10
174.53194982
 20
103.5376766147
 10
174.0173624556
 20
103.3699433362
 10
173.4736991952
 20
103.3388913569
 10
172.9412810559
 20
103.4468236599
  0
LWPOLYLINE
  5
F1
330
1F
100
AcDbEntity
  8
0
  6
HIDDEN
 62
     7
370
     0
100
AcDbPolyline
 90
       21
 70
   128
 43
0.0
 10
173.1189999355
 20
104.0082615085
 10
172.7139054785
 20
104.21926716
 10
172.3980267565
 20
104.537577189
 10
172.2022841796
 20
104.9320331921
 10
172.1458383952
 20
105.3640230673
 10
172.2342147097
 20
105.7912606359
 10
172.4587622339
 20
106.1719249079
 10
172.7975006916
 20
106.468753812
 10
173.2172720023
 20
106.652691667
 10
173.6769860255
 20
106.7057333542
 10
174.1316427495
 20
106.6226867835
 10
174.5367372065
 20
106.411681132
 10
174.8526159285
 20
106.093371103
 10
175.0483585054
 20
105.6989150999
 10
175.1048042898
 20
105.2669252247
 10
175.0164279753
 20
104.8396876561
 10
174.7918804511
 20
104.4590233841
 10
174.4531419934
 20
104.16219448
 10
174.0333706827
 20
103.978256625
 10
173.5736566595
 20
103.9252149378
 10
173.1189999355
 20
104.0082615085
  0
LWPOLYLINE
  5
F2
330
1F
100
AcDbEntity
  8
0
  6
HIDDEN
 62
     7
370
     0
100
AcDbPolyline
 90
       21
 70
   128
 43
0.0
 10
173.5246067318
 20
119.7973252323
 10
173.9859402011
 20
119.8360074806
 10
174.4119737839
 20
120.0067589542
 10
174.7610043448
 20
120.292865309
 10
174.9988663407
 20
120.6663204616
 10
175.1022761821
 20
121.0905680198
 10
175.0611113932
 20
121.5240796766
 10
174.8794014705
 20
121.9244202906
 10
174.5749334471
 20
122.2524017331
 10
174.1775107747
 20
122.4759188954
 10
173.7260359532
 20
122.5730923603
 10
173.264702484
 20
122.534410112
 10
172.8386689012
 20
122.3636586385
 10
172.4896383402
 20
122.0775522836
 10
172.2517763444
 20
121.704097131
 10
172.1483665029
 20
121.2798495728
 10
172.1895312918
 20
120.846337916
 10
172.3712412145
 20
120.445997302
 10
172.6757092379
 20
120.1180158595
 10
173.0731319104
 20
119.8944986972
 10
173.5246067318
 20
119.7973252323
  0
LWPOLYLINE
  5
F3
330
1F
100
AcDbEntity
  8
0
  6
HIDDEN
 62
     7
370
     0
100
AcDbPolyline
 90
       24
 70
   128
 43
0.0
 10
173.4892558904
 20
119.4127839641
 10
174.0326449191
 20
119.4478190607
 10
174.5458246215
 20
119.6193182267
 10
174.9907348068
 20
119.9145621537
 10
175.3343785217
 20
120.3116539501
 10
175.5512692841
 20
120.7811431341
 10
175.6253212983
 20
121.2882098405
 10
175.5510424652
 20
121.7952472515
 10
175.333941706
 20
122.2646507219
 10
174.9901203908
 20
122.6616067436
 10
174.5450781738
 20
122.9566749044
 10
174.0318218002
 20
123.1279713487
 10
173.4884171472
 20
123.1627918028
 10
172.9551660522
 20
123.0585537931
 10
172.4716173092
 20
122.8229881757
 10
172.0736335166
 20
122.4735657749
 10
171.7907313115
 20
122.0362016517
 10
171.6438922563
 20
121.5433331022
 10
171.6440067321
 20
121.0315139321
 10
171.7910662485
 20
120.5387034278
 10
172.0741640741
 20
120.1014510899
 10
172.4723041383
 20
119.7521859241
 10
172.9559582138
 20
119.5168113298
 10
173.4892558904
 20
119.4127839641
  0
LWPOLYLINE
  5
F4
330
1F
100
AcDbEntity
  8
0
  6
HIDDEN
 62
     7
370
     0
100
AcDbPolyline
 90
       24
 70
   128
 43
0.0
 10
173.4892558904
 20
119.7377031002
 10
174.0326449191
 20
119.7727381968
 10
174.5458246215
 20
119.9442373629
 10
174.9907348068
 20
120.2394812898
 10
175.3343785217
 20
120.6365730863
 10
175.5512692841
 20
121.1060622702
 10
175.6253212983
 20
121.6131289767
 10
175.5510424652
 20
122.1201663877
 10
175.333941706
 20
122.589569858
 10
174.9901203908
 20
122.9865258797
 10
174.5450781738
 20
123.2815940405
 10
174.0318218002
 20
123.4528904848
 10
173.4884171472
 20
123.487710939
 10
172.9551660522
 20
123.3834729292
 10
172.4716173092
 20
123.1479073119
 10
172.0736335166
 20
122.7984849111
 10
171.7907313115
 20
122.3611207878
 10
171.6438922563
 20
121.8682522384
 10
171.6440067321
 20
121.3564330683
 10
171.7910662485
 20
120.8636225639
 10
172.0741640741
 20
120.4263702261
 10
172.4723041383
 20
120.0771050602
 10
172.9559582138
 20
119.841730466
 10
173.4892558904
 20
119.7377031002
  0
LWPOLYLINE
  5
F5
330
1F
100
AcDbEntity
  8
0
  6
HIDDEN
 62
     7
370
     0
100
AcDbPolyline
 90
       21
 70
   128
 43
0.0
 10
173.5232722534
 20
121.1470162132
 10
173.9907184361
 20
121.1862110051
 10
174.4223970053
 20
121.3592249522
 10
174.7760522552
 20
121.6491222441
 10
175.0170659457
 20
122.027525714
 10
175.1218459776
 20
122.4573945936
 10
175.0801357513
 20
122.8966503221
 10
174.8960181544
 20
123.3022954882
 10
174.5875159001
 20
123.6346227168
 10
174.1848273384
 20
123.8611015033
 10
173.7273704316
 20
123.959562526
 10
173.2599242489
 20
123.9203677342
 10
172.8282456797
 20
123.747353787
 10
172.4745904298
 20
123.4574564951
 10
172.2335767393
 20
123.0790530253
 10
172.1287967074
 20
122.6491841456
 10
172.1705069337
 20
122.2099284171
 10
172.3546245306
 20
121.804283251
 10
172.663126785
 20
121.4719560224
 10
173.0658153466
 20
121.245477236
 10
173.5232722534
 20
121.1470162132
  0
LWPOLYLINE
  5
F6
330
1F
100
AcDbEntity
  8
0
  6
HIDDEN
 62
     7
370
     0
100
AcDbPolyline
 90
       21
 70
   128
 43
0.0
 10
173.5232722534
 20
120.1435378013
 10
173.9907184361
 20
120.1827325931
 10
174.4223970053
 20
120.3557465403
 10
174.7760522552
 20
120.6456438322
 10
175.0170659457
 20
121.024047302
 10
175.1218459776
 20
121.4539161817
 10
175.0801357513
 20
121.8931719102
 10
174.8960181544
 20
122.2988170763
 10
174.5875159001
 20
122.6311443049
 10
174.1848273384
 20
122.8576230913
 10
173.7273704316
 20
122.9560841141
 10
173.2599242489
 20
122.9168893222
 10
172.8282456797
 20
122.7438753751
 10
172.4745904298
 20
122.4539780832
 10
172.2335767393
 20
122.0755746134
 10
172.1287967074
 20
121.6457057337
 10
172.1705069337
 20
121.2064500052
 10
172.3546245306
 20
120.8008048391
 10
172.663126785
 20
120.4684776105
 10
173.0658153466
 20
120.2419988241
 10
173.5232722534
 20
120.1435378013
  0
LWPOLYLINE
  5
F7
330
1F
100
AcDbEntity
  8
0
  6
HIDDEN
 62
     7
370
     0
100
AcDbPolyline
 90
       24
 70
   128
 43
0.0
 10
173.4892558904
 20
119.9300894309
 10
174.0326449191
 20
119.9651245274
 10
174.5458246215
 20
120.1366236935
 10
174.9907348068
 20
120.4318676205
 10
175.3343785217
 20
120.8289594169
 10
175.5512692841
 20
121.2984486008
 10
175.6253212983
 20
121.8055153073
 10
175.5510424652
 20
122.3125527183
 10
175.333941706
 20
122.7819561887
 10
174.9901203908
 20
123.1789122103
 10
174.5450781738
 20
123.4739803711
 10
174.0318218002
 20
123.6452768155
 10
173.4884171472
 20
123.6800972696
 10
172.9551660522
 20
123.5758592599
 10
172.4716173092
 20
123.3402936425
 10
172.0736335166
 20
122.9908712417
 10
171.7907313115
 20
122.5535071185
 10
171.6438922563
 20
122.060638569
 10
171.6440067321
 20
121.5488193989
 10
171.7910662485
 20
121.0560088946
 10
172.0741640741
 20
120.6187565567
 10
172.4723041383
 20
120.2694913908
 10
172.9559582138
 20
120.0341167966
 10
173.4892558904
 20
119.9300894309
  0
LWPOLYLINE
  5
F8
330
1F
100
AcDbEntity
  8
0
  6
HIDDEN
 62
     7
370
     0
100
AcDbPolyline
 90
       23
 70
   128
 43
0.0
 10
173.5001411265
 20
119.9358021529
 10
174.0223986513
 20
119.9725374627
 10
174.5124873341
 20
120.1460482384
 10
174.9307031044
 20
120.4422776689
 10
175.2431646077
 20
120.8372270075
 10
175.4245580714
 20
121.2988998076
 10
175.4601880758
 20
121.7898940846
 10
175.3471680898
 20
122.2704324023
 10
175.0946543206
 20
122.701584404
 10
174.723103932
 20
123.0484207187
 10
174.2626177267
 20
123.2828427309
 10
173.7505015585
 20
123.3858589633
 10
173.2282440337
 20
123.3491236535
 10
172.7381553509
 20
123.1756128778
 10
172.3199395806
 20
122.8793834473
 10
172.0074780773
 20
122.4844341087
 10
171.8260846136
 20
122.0227613086
 10
171.7904546092
 20
121.5317670316
 10
171.9034745952
 20
121.051228714
 10
172.1559883644
 20
120.6200767123
 10
172.5275387531
 20
120.2732403976
 10
172.9880249583
 20
120.0388183854
 10
173.5001411265
 20
119.9358021529
  0
LWPOLYLINE
  5
F9
330
1F
100
AcDbEntity
  8
0
  6
HIDDEN
 62
     7
370
     0
100
AcDbPolyline
 90
       24
 70
   128
 43
0.0
 10
173.4892558904
 20
120.1224757615
 10
174.0326449191
 20
120.1575108581
 10
174.5458246215
 20
120.3290100241
 10
174.9907348068
 20
120.6242539511
 10
175.3343785217
 20
121.0213457475
 10
175.5512692841
 20
121.4908349315
 10
175.6253212983
 20
121.9979016379
 10
175.5510424652
 20
122.5049390489
 10
175.333941706
 20
122.9743425193
 10
174.9901203908
 20
123.371298541
 10
174.5450781738
 20
123.6663667018
 10
174.0318218002
 20
123.8376631461
 10
173.4884171472
 20
123.8724836003
 10
172.9551660522
 20
123.7682455905
 10
172.4716173092
 20
123.5326799731
 10
172.0736335166
 20
123.1832575723
 10
171.7907313115
 20
122.7458934491
 10
171.6438922563
 20
122.2530248996
 10
171.6440067321
 20
121.7412057295
 10
171.7910662485
 20
121.2483952252
 10
172.0741640741
 20
120.8111428873
 10
172.4723041383
 20
120.4618777215
 10
172.9559582138
 20
120.2265031272
 10
173.4892558904
 20
120.1224757615
  0
LWPOLYLINE
  5
FA
330
1F
100
AcDbEntity
  8
0
  6
HIDDEN
 62
     7
370
     0
100
AcDbPolyline
 90
       23
 70
   128
 43
0.0
 10
173.5001411265
 20
120.1281884835
 10
174.0223986513
 20
120.1649237933
 10
174.5124873341
 20
120.3384345691
 10
174.9307031044
 20
120.6346639996
 10
175.2431646077
 20
121.0296133381
 10
175.4245580714
 20
121.4912861382
 10
175.4601880758
 20
121.9822804152
 10
175.3471680898
 20
122.4628187329
 10
175.0946543206
 20
122.8939707346
 10
174.723103932
 20
123.2408070493
 10
174.2626177267
 20
123.4752290615
 10
173.7505015585
 20
123.5782452939
 10
173.2282440337
 20
123.5415099841
 10
172.7381553509
 20
123.3679992084
 10
172.3199395806
 20
123.0717697779
 10
172.0074780773
 20
122.6768204393
 10
171.8260846136
 20
122.2151476393
 10
171.7904546092
 20
121.7241533622
 10
171.9034745952
 20
121.2436150446
 10
172.1559883644
 20
120.8124630429
 10
172.5275387531
 20
120.4656267282
 10
172.9880249583
 20
120.231204716
 10
173.5001411265
 20
120.1281884835
  0
LWPOLYLINE
  5
FB
330
1F
100
AcDbEntity
  8
0
  6
HIDDEN
 62
     7
370
     0
100
AcDbPolyline
 90
       24
 70
   128
 43
0.0
 10
173.4892558904
 20
120.3148620921
 10
174.0326449191
 20
120.3498971887
 10
174.5458246215
 20
120.5213963548
 10
174.9907348068
 20
120.8166402817
 10
175.3343785217
 20
121.2137320781
 10
175.5512692841
 20
121.6832212621
 10
175.6253212983
 20
122.1902879685
 10
175.5510424652
 20
122.6973253796
 10
175.333941706
 20
123.1667288499
 10
174.9901203908
 20
123.5636848716
 10
174.5450781738
 20
123.8587530324
 10
174.0318218002
 20
124.0300494767
 10
173.4884171472
 20
124.0648699309
 10
172.9551660522
 20
123.9606319211
 10
172.4716173092
 20
123.7250663037
 10
172.0736335166
 20
123.3756439029
 10
171.7907313115
 20
122.9382797797
 10
171.6438922563
 20
122.4454112302
 10
171.6440067321
 20
121.9335920601
 10
171.7910662485
 20
121.4407815558
 10
172.0741640741
 20
121.0035292179
 10
172.4723041383
 20
120.6542640521
 10
172.9559582138
 20
120.4188894578
 10
173.4892558904
 20
120.3148620921
  0
LWPOLYLINE
  5
FC
330
1F
100
AcDbEntity
  8
0
  6
HIDDEN
 62
     7
370
     0
100
AcDbPolyline
 90
       23
 70
   128
 43
0.0
 10
173.5001411265
 20
120.3205748142
 10
174.0223986513
 20
120.357310124
 10
174.5124873341
 20
120.5308208997
 10
174.9307031044
 20
120.8270503302
 10
175.2431646077
 20
121.2219996688
 10
175.4245580714
 20
121.6836724688
 10
175.4601880758
 20
122.1746667459
 10
175.3471680898
 20
122.6552050635
 10
175.0946543206
 20
123.0863570652
 10
174.723103932
 20
123.4331933799
 10
174.2626177267
 20
123.6676153921
 10
173.7505015585
 20
123.7706316246
 10
173.2282440337
 20
123.7338963148
 10
172.7381553509
 20
123.560385539
 10
172.3199395806
 20
123.2641561085
 10
172.0074780773
 20
122.86920677
 10
171.8260846136
 20
122.4075339699
 10
171.7904546092
 20
121.9165396929
 10
171.9034745952
 20
121.4360013752
 10
172.1559883644
 20
121.0048493735
 10
172.5275387531
 20
120.6580130588
 10
172.9880249583
 20
120.4235910466
 10
173.5001411265
 20
120.3205748142
  0
LWPOLYLINE
  5
FD
330
1F
100
AcDbEntity
  8
0
  6
HIDDEN
 62
     7
370
     0
100
AcDbPolyline
 90
       24
 70
   128
 43
0.0
 10
173.4892558904
 20
120.5072484227
 10
174.0326449191
 20
120.5422835193
 10
174.5458246215
 20
120.7137826854
 10
174.9907348068
 20
121.0090266123
 10
175.3343785217
 20
121.4061184088
 10
175.5512692841
 20
121.8756075927
 10
175.6253212983
 20
122.3826742992
 10
175.5510424652
 20
122.8897117102
 10
175.333941706
 20
123.3591151805
 10
174.9901203908
 20
123.7560712022
 10
174.5450781738
 20
124.051139363
 10
174.0318218002
 20
124.2224358073
 10
173.4884171472
 20
124.2572562615
 10
172.9551660522
 20
124.1530182517
 10
172.4716173092
 20
123.9174526343
 10
172.0736335166
 20
123.5680302336
 10
171.7907313115
 20
123.1306661103
 10
171.6438922563
 20
122.6377975609
 10
171.6440067321
 20
122.1259783907
 10
171.7910662485
 20
121.6331678864
 10
172.0741640741
 20
121.1959155485
 10
172.4723041383
 20
120.8466503827
 10
172.9559582138
 20
120.6112757885
 10
173.4892558904
 20
120.5072484227
  0
LWPOLYLINE
  5
FE
330
1F
100
AcDbEntity
  8
0
  6
HIDDEN
 62
     7
370
     0
100
AcDbPolyline
 90
       23
 70
   128
 43
0.0
 10
173.5001411265
 20
120.5129611448
 10
174.0223986513
 20
120.5496964546
 10
174.5124873341
 20
120.7232072303
 10
174.9307031044
 20
121.0194366608
 10
175.2431646077
 20
121.4143859994
 10
175.4245580714
 20
121.8760587995
 10
175.4601880758
 20
122.3670530765
 10
175.3471680898
 20
122.8475913941
 10
175.0946543206
 20
123.2787433958
 10
174.723103932
 20
123.6255797105
 10
174.2626177267
 20
123.8600017227
 10
173.7505015585
 20
123.9630179552
 10
173.2282440337
 20
123.9262826454
 10
172.7381553509
 20
123.7527718697
 10
172.3199395806
 20
123.4565424392
 10
172.0074780773
 20
123.0615931006
 10
171.8260846136
 20
122.5999203005
 10
171.7904546092
 20
122.1089260235
 10
171.9034745952
 20
121.6283877058
 10
172.1559883644
 20
121.1972357041
 10
172.5275387531
 20
120.8503993894
 10
172.9880249583
 20
120.6159773772
 10
173.5001411265
 20
120.5129611448
  0
LWPOLYLINE
  5
FF
330
1F
100
AcDbEntity
  8
0
  6
HIDDEN
 62
     7
370
     0
100
AcDbPolyline
 90
       24
 70
   128
 43
0.0
 10
173.4892558904
 20
120.6440564801
 10
174.0326449191
 20
120.6790915766
 10
174.5458246215
 20
120.8505907427
 10
174.9907348068
 20
121.1458346697
 10
175.3343785217
 20
121.5429264661
 10
175.5512692841
 20
122.01241565
 10
175.6253212983
 20
122.5194823565
 10
175.5510424652
 20
123.0265197675
 10
175.333941706
 20
123.4959232379
 10
174.9901203908
 20
123.8928792595
 10
174.5450781738
 20
124.1879474203
 10
174.0318218002
 20
124.3592438647
 10
173.4884171472
 20
124.3940643188
 10
172.9551660522
 20
124.2898263091
 10
172.4716173092
 20
124.0542606917
 10
172.0736335166
 20
123.7048382909
 10
171.7907313115
 20
123.2674741677
 10
171.6438922563
 20
122.7746056182
 10
171.6440067321
 20
122.2627864481
 10
171.7910662485
 20
121.7699759438
 10
172.0741640741
 20
121.3327236059
 10
172.4723041383
 20
120.98345844
 10
172.9559582138
 20
120.7480838458
 10
173.4892558904
 20
120.6440564801
  0
LWPOLYLINE
  5
100
330
1F
100
AcDbEntity
  8
0
  6
HIDDEN
 62
     7
370
     0
100
AcDbPolyline
 90
       23
 70
   128
 43
0.0
 10
173.496059163
 20
120.7720100382
 10
174.0353468245
 20
120.8099432385
 10
174.5414166599
 20
120.9891119743
 10
174.973269901
 20
121.2950010601
 10
175.2959203664
 20
121.7028291815
 10
175.4832288343
 20
122.1795565294
 10
175.5200206867
 20
122.6865614894
 10
175.4033152664
 20
123.1827695348
 10
175.1425673525
 20
123.6279808409
 10
174.7589011903
 20
123.9861270354
 10
174.2833991305
 20
124.2281932436
 10
173.754583522
 20
124.3345687011
 10
173.2152958606
 20
124.2966355007
 10
172.7092260251
 20
124.1174667649
 10
172.277372784
 20
123.8115776791
 10
171.9547223186
 20
123.4037495577
 10
171.7674138507
 20
122.9270222098
 10
171.7306219983
 20
122.4200172499
 10
171.8473274186
 20
121.9238092045
 10
172.1080753325
 20
121.4785978984
 10
172.4917414947
 20
121.1204517038
 10
172.9672435545
 20
120.8783854956
 10
173.496059163
 20
120.7720100382
  0
SPLINE
  5
101
330
1F
100
AcDbEntity
  8
0
  6
HIDDEN
 62
     7
370
     0
100
AcDbSpline
210
0.0
220
0.0
230
1.0
 70
     8
 71
     3
 72
     9
 73
     5
 74
     0
 42
0.000000001
 43
0.00000001
 40
0.0
 40
0.0
 40
0.0
 40
0.0
 40
0.9333108121103368
 40
1.0
 40
1.0
 40
1.0
 40
1.0
 10
171.6494305798643
 20
105.5038023016824
 30
0.0
 10
171.6348548965439
 20
105.4028328478593
 30
0.0
 10
171.6192377161456
 20
105.2946486797205
 30
0.0
 10
171.6262673334135
 20
105.2021649772215
 30
0.0
 10
171.6267361328803
 20
105.1959973142088
 30
0.0
  0
LWPOLYLINE
  5
102
330
1F
100
AcDbEntity
  8
0
  6
HIDDEN
 62
     7
370
     0
100
AcDbPolyline
 90
       23
 70
   128
 43
0.0
 10
171.6494305799
 20
104.9219339043
 10
171.8048118483
 20
104.4347111563
 10
172.0935349226
 20
104.0044839102
 10
172.4944525049
 20
103.662763827
 10
172.9781996981
 20
103.4345799291
 10
173.5093448142
 20
103.3366453691
 10
174.0489845411
 20
103.3761332879
 10
174.5575933857
 20
103.5501514235
 10
174.9979186876
 20
103.8459539525
 10
175.3377091616
 20
104.2418750482
 10
175.5520771182
 20
104.708915777
 10
175.6253213425
 20
105.212868103
 10
175.5520771182
 20
105.716820429
 10
175.3377091616
 20
106.1838611578
 10
174.9979186876
 20
106.5797822535
 10
174.5575933857
 20
106.8755847825
 10
174.0489845411
 20
107.0496029181
 10
173.5093448142
 20
107.0890908369
 10
172.9781996981
 20
106.9911562769
 10
172.4944525049
 20
106.762972379
 10
172.0935349226
 20
106.4212522958
 10
171.8048118483
 20
105.9910250497
 10
171.6494305799
 20
105.5038023017
  0
LWPOLYLINE
  5
103
330
1F
100
AcDbEntity
  8
0
  6
HIDDEN
 62
     7
370
     0
100
AcDbPolyline
 90
       24
 70
   128
 43
0.0
 10
164.0755329897
 20
104.3521569183
 10
164.2111882707
 20
103.7965928047
 10
164.4223916867
 20
103.2822323399
 10
164.6934792465
 20
102.8472232864
 10
165.0043456259
 20
102.5238282759
 10
165.3319352876
 20
102.3360320366
 10
165.6519524052
 20
102.2977625567
 10
165.9406627728
 20
102.4118581084
 10
166.1766540635
 20
102.6698567466
 10
166.3424238826
 20
103.0526238924
 10
166.4256778411
 20
103.5317714578
 10
166.4202413737
 20
104.0717632599
 10
166.3265176784
 20
104.6325505768
 10
166.1514578128
 20
105.1725423788
 10
165.9080451664
 20
105.6516899443
 10
165.6143325416
 20
106.0344570901
 10
165.2921032601
 20
106.2924557283
 10
164.9652555937
 20
106.4065512799
 10
164.6580303385
 20
106.3682818
 10
164.3932129862
 20
106.1804855608
 10
164.1904438285
 20
105.8570905503
 10
164.064761326
 20
105.4220814968
 10
164.0254867752
 20
104.907721032
 10
164.0755329897
 20
104.3521569183
  0
LWPOLYLINE
  5
104
330
1F
100
AcDbEntity
  8
0
  6
HIDDEN
 62
     7
370
     0
100
AcDbPolyline
 90
       22
 70
   128
 43
0.0
 10
164.45704888
 20
104.3842877057
 10
164.5770450984
 20
103.9073918763
 10
164.7669655348
 20
103.4728703342
 10
165.0099349251
 20
103.1193322252
 10
165.2843643726
 20
102.8781909618
 10
165.5658696165
 20
102.7708730036
 10
165.8294376807
 20
102.8069140219
 10
166.051649386
 20
102.9831116143
 10
166.2127602471
 20
103.2838098513
 10
166.2984548571
 20
103.6822903751
 10
166.3011188738
 20
104.1431464423
 10
166.2205155877
 20
104.6254289691
 10
166.0638069543
 20
105.0862850363
 10
165.8449172235
 20
105.4847655601
 10
165.5832957085
 20
105.7854637971
 10
165.3021886289
 20
105.9616613895
 10
165.0265735825
 20
105.9977024078
 10
164.7809401756
 20
105.8903844496
 10
164.5871140143
 20
105.6492431862
 10
164.4623174037
 20
105.2957050772
 10
164.4176390703
 20
104.8611835351
 10
164.45704888
 20
104.3842877057
  0
ELLIPSE
  5
105
330
1F
100
AcDbEntity
  8
0
  6
HIDDEN
 62
     7
370
     0
100
AcDbEllipse
 10
173.6253213425
 20
106.3627514106
 30
0.0
 11
1.383467579512143
 21
-1.091267719176614
 31
0.0
210
0.0
220
0.0
230
1.0
 40
0.8239737799
 41
2.147131942757431
 42
5.288724596347237
  0
ELLIPSE
  5
106
330
1F
100
AcDbEntity
  8
0
  6
HIDDEN
 62
     7
370
     0
100
AcDbEllipse
 10
173.6253213425
 20
106.3627514106
 30
0.0
 11
1.383467579512143
 21
1.753907414218489
 31
0.0
210
0.0
220
0.0
230
1.0
 40
0.5126701559
 41
0.9944607108323741
 42
4.13605336442218
  0
SPLINE
  5
107
330
1F
100
AcDbEntity
  8
0
  6
HIDDEN
 62
     7
370
     0
100
AcDbSpline
210
0.0
220
0.0
230
1.0
 70
     8
 71
     3
 72
    14
 73
    10
 74
     0
 42
0.000000001
 43
0.00000001
 40
0.0
 40
0.0
 40
0.0
 40
0.0
 40
0.25
 40
0.25
 40
0.5
 40
0.5
 40
0.75
 40
0.75
 40
1.0
 40
1.0
 40
1.0
 40
1.0
 10
171.6494305798643
 20
104.9219339043132
 30
0.0
 10
171.6857944078945
 20
104.967428539715
 30
0.0
 10
171.7182721351047
 20
105.0158203459313
 30
0.0
 10
171.7670257645204
 20
105.1213054898609
 30
0.0
 10
171.7819295421949
 20
105.1778899981038
 30
0.0
 10
171.7819399758526
 20
105.2867775920543
 30
0.0
 10
171.7670496800444
 20
105.3389622578169
 30
0.0
 10
171.7181607491669
 20
105.4302396567604
 30
0.0
 10
171.6857885708964
 20
105.4689063621346
 30
0.0
 10
171.6494305798643
 20
105.5038023016824
 30
0.0
  0
LWPOLYLINE
  5
108
330
1F
100
AcDbEntity
  8
0
  6
HIDDEN
 62
     7
370
     0
100
AcDbPolyline
 90
       22
 70
   128
 43
0.0
 10
173.6253213425
 20
103.7059450818
 10
174.1116673803
 20
103.7748291276
 10
174.5547994383
 20
103.9753606154
 10
174.9153432886
 20
104.2897214423
 10
175.1612630278
 20
104.6899792694
 10
175.2707076079
 20
105.1405694322
 10
175.2339523976
 20
105.6014550174
 10
175.0542632587
 20
106.0316843182
 10
174.7476063598
 20
106.3930295732
 10
174.341229512
 20
106.6533836707
 10
173.8712410817
 20
106.7896130066
 10
173.3794016033
 20
106.7896130066
 10
172.909413173
 20
106.6533836707
 10
172.5030363252
 20
106.3930295732
 10
172.1963794263
 20
106.0316843182
 10
172.0166902874
 20
105.6014550174
 10
171.9799350772
 20
105.1405694322
 10
172.0893796572
 20
104.6899792694
 10
172.3352993964
 20
104.2897214423
 10
172.6958432467
 20
103.9753606154
 10
173.1389753047
 20
103.7748291276
 10
173.6253213425
 20
103.7059450818
  0
ELLIPSE
  5
109
330
1F
100
AcDbEntity
  8
0
  6
HIDDEN
 62
     7
370
     0
100
AcDbEllipse
 10
173.6253213425
 20
106.3627514106
 30
0.0
 11
1.383467579512143
 21
1.753907414218489
 31
0.0
210
0.0
220
0.0
230
1.0
 40
0.5126701559
 41
0.9829735846098984
 42
0.994460710832376
  0
SPLINE
  5
10A
330
1F
100
AcDbEntity
  8
0
  6
HIDDEN
 62
     7
370
     0
100
AcDbSpline
210
0.0
220
0.0
230
1.0
 70
     8
 71
     3
 72
     8
 73
     4
 74
     0
 42
0.000000001
 43
0.00000001
 40
0.0
 40
0.0
 40
0.0
 40
0.0
 40
1.0
 40
1.0
 40
1.0
 40
1.0
 10
173.6442746839369
 20
107.9255945608139
 30
0.0
 10
173.6612735680163
 20
107.9176112873005
 30
0.0
 10
173.6782777125574
 20
107.9088748848528
 30
0.0
 10
173.6952624386597
 20
107.8993980330153
 30
0.0
  0
ELLIPSE
  5
10B
330
1F
100
AcDbEntity
  8
0
  6
HIDDEN
 62
     7
370
     0
100
AcDbEllipse
 10
173.6253213425
 20
106.3627514106
 30
0.0
 11
1.383467579512143
 21
-1.091267719176614
 31
0.0
210
0.0
220
0.0
230
1.0
 40
0.8239737799
 41
2.104730695492899
 42
2.147131942757418
  0
ELLIPSE
  5
10C
330
1F
100
AcDbEntity
  8
0
  6
HIDDEN
 62
     7
370
     0
100
AcDbEllipse
 10
173.6253213425
 20
106.3627514106
 30
0.0
 11
1.383467579512143
 21
-1.091267719176614
 31
0.0
210
0.0
220
0.0
230
1.0
 40
0.8239737799
 41
5.288724596347224
 42
5.331125843612099
  0
SPLINE
  5
10D
330
1F
100
AcDbEntity
  8
0
  6
HIDDEN
 62
     7
370
     0
100
AcDbSpline
210
0.0
220
0.0
230
1.0
 70
     8
 71
     3
 72
     8
 73
     4
 74
     0
 42
0.000000001
 43
0.00000001
 40
0.0
 40
0.0
 40
0.0
 40
0.0
 40
1.0
 40
1.0
 40
1.0
 40
1.0
 10
173.6952624386597
 20
104.8011995447819
 30
0.0
 10
173.6782777125574
 20
104.8083152548317
 30
0.0
 10
173.6612735680163
 20
104.8161903843533
 30
0.0
 10
173.6442746839369
 20
104.8248135038076
 30
0.0
  0
ELLIPSE
  5
10E
330
1F
100
AcDbEntity
  8
0
  6
HIDDEN
 62
     7
370
     0
100
AcDbEllipse
 10
173.6253213425
 20
106.3627514106
 30
0.0
 11
1.383467579512143
 21
1.753907414218489
 31
0.0
210
0.0
220
0.0
230
1.0
 40
0.5126701559
 41
4.136053364422182
 42
4.147540490644658
  0
SPLINE
  5
10F
330
1F
100
AcDbEntity
  8
0
  6
HIDDEN
 62
     7
370
     0
100
AcDbSpline
210
0.0
220
0.0
230
1.0
 70
    11
 71
     3
 72
    54
 73
    50
 74
     0
 42
0.000000001
 43
0.00000001
 40
0.0
 40
0.0
 40
0.0
 40
0.0
 40
0.0312500000000002
 40
0.0312500000000002
 40
0.0625000000000005
 40
0.0625000000000005
 40
0.125000000000001
 40
0.125000000000001
 40
0.1562500000000011
 40
0.1562500000000011
 40
0.1875000000000011
 40
0.1875000000000011
 40
0.2187500000000012
 40
0.2187500000000012
 40
0.2500000000000013
 40
0.2500000000000013
 40
0.3125000000000014
 40
0.3125000000000014
 40
0.3750000000000016
 40
0.3750000000000016
 40
0.4062500000000017
 40
0.4062500000000017
 40
0.4375000000000017
 40
0.4375000000000017
 40
0.5000000000000014
 40
0.5000000000000014
 40
0.5625000000000011
 40
0.5625000000000011
 40
0.6250000000000009
 40
0.6250000000000009
 40
0.6562500000000008
 40
0.6562500000000008
 40
0.6875000000000007
 40
0.6875000000000007
 40
0.7187500000000006
 40
0.7187500000000006
 40
0.7500000000000004
 40
0.7500000000000004
 40
0.7812500000000004
 40
0.7812500000000004
 40
0.8125000000000003
 40
0.8125000000000003
 40
0.8750000000000002
 40
0.8750000000000002
 40
0.9062500000000001
 40
0.9062500000000001
 40
0.9375000000000001
 40
0.9375000000000001
 40
1.0
 40
1.0
 40
1.0
 40
1.0
 10
173.6253213425046
 20
111.0574787273772
 30
0.0
 10
173.7381209484455
 20
111.0574787273773
 30
0.0
 10
173.8479774463665
 20
111.0647310753977
 30
0.0
 10
174.0625426151671
 20
111.0931824221377
 30
0.0
 10
174.1678414493229
 20
111.1147523888353
 30
0.0
 10
174.4628839085848
 20
111.1990242398802
 30
0.0
 10
174.6388305307113
 20
111.2825764357398
 30
0.0
 10
174.8609778129826
 20
111.4495415274887
 30
0.0
 10
174.9291839275593
 20
111.5131967103004
 30
0.0
 10
175.0479531464716
 20
111.6530141791186
 30
0.0
 10
175.0991038896592
 20
111.7293819086941
 30
0.0
 10
175.1841201918708
 20
111.8972885558029
 30
0.0
 10
175.217935841852
 20
111.9898544324288
 30
0.0
 10
175.2628764707184
 20
112.1818394328847
 30
0.0
 10
175.2747388259627
 20
112.2822639035247
 30
0.0
 10
175.2764242728237
 20
112.598059464285
 30
0.0
 10
175.2306099188604
 20
112.8179498577952
 30
0.0
 10
175.0627499851724
 20
113.2297953930133
 30
0.0
 10
174.9412156644669
 20
113.4229495749995
 30
0.0
 10
174.7200303358779
 20
113.6713679128035
 30
0.0
 10
174.6385172749496
 20
113.7486282923869
 30
0.0
 10
174.4654352952973
 20
113.8852172275815
 30
0.0
 10
174.37366321721
 20
113.9450663007565
 30
0.0
 10
174.0796890388316
 20
114.0964390543726
 30
0.0
 10
173.8572654784888
 20
114.1570833701039
 30
0.0
 10
173.4095006586844
 20
114.1597965331961
 30
0.0
 10
173.1881225379122
 20
114.102546724016
 30
0.0
 10
172.7919116449658
 20
113.9037959489123
 30
0.0
 10
172.6155484461476
 20
113.7643938650829
 30
0.0
 10
172.3910111110927
 20
113.5156587133228
 30
0.0
 10
172.3239285440619
 20
113.4273057855168
 30
0.0
 10
172.2047206012498
 20
113.239948272361
 30
0.0
 10
172.1521180519476
 20
113.1397194851674
 30
0.0
 10
172.0663109465147
 20
112.9335282841111
 30
0.0
 10
172.0331606836669
 20
112.8283456815105
 30
0.0
 10
171.9875934625202
 20
112.6137858349208
 30
0.0
 10
171.9757342394065
 20
112.5054510781253
 30
0.0
 10
171.9749300349098
 20
112.2963530133598
 30
0.0
 10
171.9860092496695
 20
112.1929094561996
 30
0.0
 10
172.0300358891682
 20
111.9980363793875
 30
0.0
 10
172.0625094077235
 20
111.9069144364139
 30
0.0
 10
172.1898858673635
 20
111.650477755264
 30
0.0
 10
172.3119447328576
 20
111.5087225768206
 30
0.0
 10
172.5344359832654
 20
111.3403618197219
 30
0.0
 10
172.6147816378302
 20
111.2917241002184
 30
0.0
 10
172.7891079919381
 20
111.2074129725127
 30
0.0
 10
172.8831254442095
 20
111.171958393681
 30
0.0
 10
173.1780401992871
 20
111.0872107776893
 30
0.0
 10
173.3997221306229
 20
111.0574787273773
 30
0.0
 10
173.6253213425046
 20
111.0574787273773
 30
0.0
  0
CIRCLE
  5
110
330
1F
100
AcDbEntity
  8
0
  6
HIDDEN
 62
     7
370
     0
100
AcDbCircle
 10
197.5753213425
 20
113.2503414712
 30
0.0
 40
3.500000000000014
  0
LINE
  5
111
330
1F
100
AcDbEntity
  8
0
  6
HIDDEN
 62
     7
370
     0
100
AcDbLine
 10
163.8253213425
 20
138.0503414712
 30
0.0
 11
164.1625796427
 21
138.0503414712
 31
0.0
  0
ELLIPSE
  5
112
330
1F
100
AcDbEntity
  8
0
  6
HIDDEN
 62
     7
370
     0
100
AcDbEllipse
 10
164.1625796427
 20
139.6503414712
 30
0.0
 11
0.0
 21
1.600000000000023
 31
0.0
210
0.0
220
0.0
230
1.0
 40
0.4142135624
 41
3.141592653589793
 42
4.712388980384695
  0
LINE
  5
113
330
1F
100
AcDbEntity
  8
0
  6
HIDDEN
 62
     7
370
     0
100
AcDbLine
 10
164.1625796427
 20
90.6503414712
 30
0.0
 11
163.8253213425
 21
90.6503414712
 31
0.0
  0
ELLIPSE
  5
114
330
1F
100
AcDbEntity
  8
0
  6
HIDDEN
 62
     7
370
     0
100
AcDbEllipse
 10
164.1625796427
 20
89.0503414712
 30
0.0
 11
0.0
 21
1.599999999999994
 31
0.0
210
0.0
220
0.0
230
1.0
 40
0.4142135624
 41
4.712388980384695
 42
6.283185307179586
  0
LINE
  5
115
330
1F
100
AcDbEntity
  8
0
  6
HIDDEN
 62
     7
370
     0
100
AcDbLine
 10
164.8253213425
 20
83.3568931245
 30
0.0
 11
164.0414658839
 21
82.8986116217
 31
0.0
  0
LINE
  5
116
330
1F
100
AcDbEntity
  8
0
  6
HIDDEN
 62
     7
370
     0
100
AcDbLine
 10
164.1125629438
 20
143.6756380261
 30
0.0
 11
164.8253213425
 21
142.9628796274
 31
0.0
  0
LINE
  5
117
330
1F
100
AcDbEntity
  8
0
  6
HIDDEN
 62
     7
370
     0
100
AcDbLine
 10
99.3753213425
 20
104.7503414712
 30
0.0
 11
99.3753213425
 21
121.7503414712
 31
0.0
  0
LINE
  5
118
330
1F
100
AcDbEntity
  8
0
  6
HIDDEN
 62
     7
370
     0
100
AcDbLine
 10
102.3712505569
 20
106.2503414712
 30
0.0
 11
102.3712505569
 21
120.2503414712
 31
0.0
  0
LINE
  5
119
330
1F
100
AcDbEntity
  8
0
  6
HIDDEN
 62
     7
370
     0
100
AcDbLine
 10
168.6605317388
 20
83.3568931245
 30
0.0
 11
164.8253213425
 21
83.3568931245
 31
0.0
  0
LINE
  5
11A
330
1F
100
AcDbEntity
  8
0
  6
HIDDEN
 62
     7
370
     0
100
AcDbLine
 10
179.6753213425
 20
83.3568931245
 30
0.0
 11
174.7901109462
 21
83.3568931245
 31
0.0
  0
LINE
  5
11B
330
1F
100
AcDbEntity
  8
0
  6
HIDDEN
 62
     7
370
     0
100
AcDbLine
 10
164.8253213425
 20
83.3568931245
 30
0.0
 11
164.8253213425
 21
89.0503414712
 31
0.0
  0
LINE
  5
11C
330
1F
100
AcDbEntity
  8
0
  6
HIDDEN
 62
     7
370
     0
100
AcDbLine
 10
179.6753213425
 20
90.6503414712
 30
0.0
 11
164.1625796427
 21
90.6503414712
 31
0.0
  0
LINE
  5
11D
330
1F
100
AcDbEntity
  8
0
  6
HIDDEN
 62
     7
370
     0
100
AcDbLine
 10
164.1625796427
 20
138.0503414712
 30
0.0
 11
179.6753213425
 21
138.0503414712
 31
0.0
  0
LINE
  5
11E
330
1F
100
AcDbEntity
  8
0
  6
HIDDEN
 62
     7
370
     0
100
AcDbLine
 10
164.8253213425
 20
142.9628796274
 30
0.0
 11
168.7613666562
 21
142.9628796274
 31
0.0
  0
LINE
  5
11F
330
1F
100
AcDbEntity
  8
0
  6
HIDDEN
 62
     7
370
     0
100
AcDbLine
 10
174.6892760288
 20
142.9628796274
 30
0.0
 11
179.6753213425
 21
142.9628796274
 31
0.0
  0
LINE
  5
120
330
1F
100
AcDbEntity
  8
0
  6
HIDDEN
 62
     7
370
     0
100
AcDbLine
 10
164.8253213425
 20
142.9628796274
 30
0.0
 11
164.8253213425
 21
139.6503414712
 31
0.0
  0
LINE
  5
121
330
1F
100
AcDbEntity
  8
0
  6
HIDDEN
 62
     7
370
     0
100
AcDbLine
 10
188.1253213425
 20
113.2503414712
 30
0.0
 11
188.1253213425
 21
106.5503414712
 31
0.0
  0
LINE
  5
122
330
1F
100
AcDbEntity
  8
0
  6
HIDDEN
 62
     7
370
     0
100
AcDbLine
 10
188.1253213425
 20
119.9503414712
 30
0.0
 11
188.1253213425
 21
113.2503414712
 31
0.0
  0
LINE
  5
123
330
1F
100
AcDbEntity
  8
0
  6
HIDDEN
 62
     7
370
     0
100
AcDbLine
 10
191.4913467463
 20
113.2503414712
 30
0.0
 11
191.4913467463
 21
106.2503414712
 31
0.0
  0
LINE
  5
124
330
1F
100
AcDbEntity
  8
0
  6
HIDDEN
 62
     7
370
     0
100
AcDbLine
 10
191.4913467463
 20
120.2503414712
 30
0.0
 11
191.4913467463
 21
113.2503414712
 31
0.0
  0
LINE
  5
125
330
1F
100
AcDbEntity
  8
0
  6
HIDDEN
 62
     7
370
     0
100
AcDbLine
 10
135.3753213425
 20
106.2503414712
 30
0.0
 11
135.3753213425
 21
120.2503414712
 31
0.0
  0
LINE
  5
126
330
1F
100
AcDbEntity
  8
0
  6
HIDDEN
 62
     7
370
     0
100
AcDbLine
 10
138.0791941281
 20
115.7503414712
 30
0.0
 11
138.0791941281
 21
110.7503414712
 31
0.0
  0
SPLINE
  5
127
330
1F
100
AcDbEntity
  8
0
  6
HIDDEN
 62
     7
370
     0
100
AcDbSpline
210
0.0
220
0.0
230
1.0
 70
    11
 71
     3
 72
    54
 73
    50
 74
     0
 42
0.000000001
 43
0.00000001
 40
0.0
 40
0.0
 40
0.0
 40
0.0
 40
0.0312500000000002
 40
0.0312500000000002
 40
0.0625000000000004
 40
0.0625000000000004
 40
0.1250000000000012
 40
0.1250000000000012
 40
0.1562500000000015
 40
0.1562500000000015
 40
0.1875000000000018
 40
0.1875000000000018
 40
0.218750000000002
 40
0.218750000000002
 40
0.2500000000000023
 40
0.2500000000000023
 40
0.3125000000000028
 40
0.3125000000000028
 40
0.3750000000000033
 40
0.3750000000000033
 40
0.4062500000000034
 40
0.4062500000000034
 40
0.4375000000000035
 40
0.4375000000000035
 40
0.5000000000000032
 40
0.5000000000000032
 40
0.562500000000003
 40
0.562500000000003
 40
0.6250000000000027
 40
0.6250000000000027
 40
0.6562500000000024
 40
0.6562500000000024
 40
0.6875000000000022
 40
0.6875000000000022
 40
0.718750000000002
 40
0.718750000000002
 40
0.7500000000000017
 40
0.7500000000000017
 40
0.7812500000000014
 40
0.7812500000000014
 40
0.8125000000000012
 40
0.8125000000000012
 40
0.875000000000001
 40
0.875000000000001
 40
0.9062500000000009
 40
0.9062500000000009
 40
0.9375000000000007
 40
0.9375000000000007
 40
1.0
 40
1.0
 40
1.0
 40
1.0
 10
173.6253213425047
 20
112.3422185663313
 30
0.0
 10
173.5125217365638
 20
112.3422185663313
 30
0.0
 10
173.4026652386428
 20
112.3564467047135
 30
0.0
 10
173.1881000698422
 20
112.4102926141219
 30
0.0
 10
173.0828012356865
 20
112.4505001450897
 30
0.0
 10
172.7877587764245
 20
112.5999475912499
 30
0.0
 10
172.611812154298
 20
112.7398931284799
 30
0.0
 10
172.3896648720267
 20
112.9867888366043
 30
0.0
 10
172.32145875745
 20
113.0768308074634
 30
0.0
 10
172.2026895385377
 20
113.2643714502843
 30
0.0
 10
172.1515387953501
 20
113.3622823653707
 30
0.0
 10
172.0665224931385
 20
113.5667196594136
 30
0.0
 10
172.0327068431573
 20
113.6742653628591
 30
0.0
 10
171.9877662142909
 20
113.8862938614833
 30
0.0
 10
171.9759038590467
 20
113.9921016352258
 30
0.0
 10
171.9742184121856
 20
114.3086581135436
 30
0.0
 10
172.0200327661489
 20
114.5074321578453
 30
0.0
 10
172.187892699837
 20
114.8470043144231
 30
0.0
 10
172.3094270205425
 20
114.9892975094536
 30
0.0
 10
172.5306123491315
 20
115.1577937038202
 30
0.0
 10
172.6121254100597
 20
115.2074222450391
 30
0.0
 10
172.785207389712
 20
115.2916260665103
 30
0.0
 10
172.8769794677993
 20
115.3265806786241
 30
0.0
 10
173.1709536461777
 20
115.4121551234337
 30
0.0
 10
173.3933772065205
 20
115.4424923873735
 30
0.0
 10
173.841142026325
 20
115.4438908640519
 30
0.0
 10
174.0625201470971
 20
115.4153742696149
 30
0.0
 10
174.4587310400435
 20
115.303465965542
 30
0.0
 10
174.6350942388617
 20
115.2204386454262
 30
0.0
 10
174.8596315739166
 20
115.0523861856646
 30
0.0
 10
174.9267141409475
 20
114.9899738920661
 30
0.0
 10
175.0459220837595
 20
114.8504640066001
 30
0.0
 10
175.0985246330618
 20
114.7723723974163
 30
0.0
 10
175.1843317384946
 20
114.603048936685
 30
0.0
 10
175.2174820013424
 20
114.5125547092378
 30
0.0
 10
175.2630492224892
 20
114.3183168039202
 30
0.0
 10
175.2749084456028
 20
114.215365386277
 30
0.0
 10
175.2757126500995
 20
114.006630391632
 30
0.0
 10
175.2646334353398
 20
113.898155609293
 30
0.0
 10
175.2206067958411
 20
113.6836312125163
 30
0.0
 10
175.1881332772859
 20
113.5781008815895
 30
0.0
 10
175.0607568176458
 20
113.266843186131
 30
0.0
 10
174.9386979521517
 20
113.0740498630827
 30
0.0
 10
174.7162067017439
 20
112.8254633712596
 30
0.0
 10
174.6358610471791
 20
112.7496403906679
 30
0.0
 10
174.4615346930712
 20
112.6127178040451
 30
0.0
 10
174.3675172407999
 20
112.5519081227036
 30
0.0
 10
174.0726024857223
 20
112.4017380351079
 30
0.0
 10
173.8509205543864
 20
112.3422185663313
 30
0.0
 10
173.6253213425047
 20
112.3422185663313
 30
0.0
  0
ELLIPSE
  5
128
330
1F
100
AcDbEntity
  8
0
  6
HIDDEN
 62
     7
370
     0
100
AcDbEllipse
 10
173.6253213425
 20
120.1379315317
 30
0.0
 11
-1.383467579512143
 21
1.753907414218517
 31
0.0
210
0.0
220
0.0
230
1.0
 40
0.5126701559
 41
5.288724596347226
 42
8.430317249936989
  0
ELLIPSE
  5
129
330
1F
100
AcDbEntity
  8
0
  6
HIDDEN
 62
     7
370
     0
100
AcDbEllipse
 10
173.6253213425
 20
120.1379315317
 30
0.0
 11
1.383467579512143
 21
1.091267719176614
 31
0.0
210
0.0
220
0.0
230
1.0
 40
0.8239737799
 41
0.9520594635583276
 42
0.9944607108323754
  0
SPLINE
  5
12A
330
1F
100
AcDbEntity
  8
0
  6
HIDDEN
 62
     7
370
     0
100
AcDbSpline
210
0.0
220
0.0
230
1.0
 70
     8
 71
     3
 72
     8
 73
     4
 74
     0
 42
0.000000001
 43
0.00000001
 40
0.0
 40
0.0
 40
0.0
 40
0.0
 40
1.0
 40
1.0
 40
1.0
 40
1.0
 10
173.6952624386597
 20
121.6994833975203
 30
0.0
 10
173.6782777125574
 20
121.6923676874705
 30
0.0
 10
173.6612735680163
 20
121.6844925579489
 30
0.0
 10
173.6442746839369
 20
121.6758694384946
 30
0.0
  0
ELLIPSE
  5
12B
330
1F
100
AcDbEntity
  8
0
  6
HIDDEN
 62
     7
370
     0
100
AcDbEllipse
 10
173.6253213425
 20
120.1379315317
 30
0.0
 11
-1.383467579512143
 21
1.753907414218517
 31
0.0
210
0.0
220
0.0
230
1.0
 40
0.5126701559
 41
5.277237470124733
 42
5.288724596347228
  0
ELLIPSE
  5
12C
330
1F
100
AcDbEntity
  8
0
  6
HIDDEN
 62
     7
370
     0
100
AcDbEllipse
 10
173.6253213425
 20
120.1379315317
 30
0.0
 11
1.383467579512143
 21
1.091267719176614
 31
0.0
210
0.0
220
0.0
230
1.0
 40
0.8239737799
 41
0.9944607108323629
 42
4.136053364422152
  0
ELLIPSE
  5
12D
330
1F
100
AcDbEntity
  8
0
  6
HIDDEN
 62
     7
370
     0
100
AcDbEllipse
 10
173.6253213425
 20
120.1379315317
 30
0.0
 11
-1.383467579512143
 21
1.753907414218517
 31
0.0
210
0.0
220
0.0
230
1.0
 40
0.5126701559
 41
2.147131942757405
 42
2.1586190689799
  0
SPLINE
  5
12E
330
1F
100
AcDbEntity
  8
0
  6
HIDDEN
 62
     7
370
     0
100
AcDbSpline
210
0.0
220
0.0
230
1.0
 70
     8
 71
     3
 72
     8
 73
     4
 74
     0
 42
0.000000001
 43
0.00000001
 40
0.0
 40
0.0
 40
0.0
 40
0.0
 40
1.0
 40
1.0
 40
1.0
 40
1.0
 10
173.6442746839369
 20
118.5750883814883
 30
0.0
 10
173.6612735680163
 20
118.5830716550016
 30
0.0
 10
173.6782777125574
 20
118.5918080574494
 30
0.0
 10
173.6952624386597
 20
118.6012849092869
 30
0.0
  0
ELLIPSE
  5
12F
330
1F
100
AcDbEntity
  8
0
  6
HIDDEN
 62
     7
370
     0
100
AcDbEllipse
 10
173.6253213425
 20
120.1379315317
 30
0.0
 11
1.383467579512143
 21
1.091267719176614
 31
0.0
210
0.0
220
0.0
230
1.0
 40
0.8239737799
 41
4.136053364422165
 42
4.178454611696214
  0
LWPOLYLINE
  5
130
330
1F
100
AcDbEntity
  8
0
  6
HIDDEN
 62
     7
370
     0
100
AcDbPolyline
 90
       22
 70
   128
 43
0.0
 10
173.6253213425
 20
119.6937522119
 10
174.1116673803
 20
119.7626362577
 10
174.5547994383
 20
119.9631677455
 10
174.9153432886
 20
120.2775285724
 10
175.1612630278
 20
120.6777863995
 10
175.2707076079
 20
121.1283765623
 10
175.2339523976
 20
121.5892621476
 10
175.0542632587
 20
122.0194914484
 10
174.7476063598
 20
122.3808367033
 10
174.341229512
 20
122.6411908008
 10
173.8712410817
 20
122.7774201367
 10
173.3794016033
 20
122.7774201367
 10
172.909413173
 20
122.6411908008
 10
172.5030363252
 20
122.3808367033
 10
172.1963794263
 20
122.0194914484
 10
172.0166902874
 20
121.5892621476
 10
171.9799350772
 20
121.1283765623
 10
172.0893796572
 20
120.6777863995
 10
172.3352993964
 20
120.2775285724
 10
172.6958432467
 20
119.9631677455
 10
173.1389753047
 20
119.7626362577
 10
173.6253213425
 20
119.6937522119
  0
LINE
  5
131
330
1F
100
AcDbEntity
  8
0
  6
HIDDEN
 62
     7
370
     0
100
AcDbLine
 10
169.8153213425
 20
135.4475822907
 30
0.0
 11
169.8153213425
 21
131.6003414712
 31
0.0
  0
LINE
  5
132
330
1F
100
AcDbEntity
  8
0
  6
HIDDEN
 62
     7
370
     0
100
AcDbLine
 10
173.6353213425
 20
135.4475822907
 30
0.0
 11
173.6353213425
 21
131.6003414712
 31
0.0
  0
SPLINE
  5
133
330
1F
100
AcDbEntity
  8
0
  6
HIDDEN
 62
     7
370
     0
100
AcDbSpline
210
0.0
220
0.0
230
1.0
 70
     8
 71
     3
 72
    14
 73
    10
 74
     0
 42
0.000000001
 43
0.00000001
 40
0.0
 40
0.0
 40
0.0
 40
0.0
 40
0.25
 40
0.25
 40
0.5
 40
0.5
 40
0.75
 40
0.75
 40
1.0
 40
1.0
 40
1.0
 40
1.0
 10
172.8353213425046
 20
124.5328206612592
 30
0.0
 10
172.9330035936186
 20
124.5713429752916
 30
0.0
 10
173.0351171026559
 20
124.6089583347503
 30
0.0
 10
173.2272892738247
 20
124.6800670603372
 30
0.0
 10
173.3187079471516
 20
124.7142731108413
 30
0.0
 10
173.4702239361658
 20
124.7811625891982
 30
0.0
 10
173.5313711387047
 20
124.8144330517592
 30
0.0
 10
173.6140778403932
 20
124.883831401853
 30
0.0
 10
173.6353213425047
 20
124.919608507449
 30
0.0
 10
173.6353213425047
 20
124.9561038396996
 30
0.0
  0
SPLINE
  5
134
330
1F
100
AcDbEntity
  8
0
  6
HIDDEN
 62
     7
370
     0
100
AcDbSpline
210
0.0
220
0.0
230
1.0
 70
     8
 71
     3
 72
    14
 73
    10
 74
     0
 42
0.000000001
 43
0.00000001
 40
0.0
 40
0.0
 40
0.0
 40
0.0
 40
0.2500000000000005
 40
0.2500000000000005
 40
0.5000000000000003
 40
0.5000000000000003
 40
0.7500000000000001
 40
0.7500000000000001
 40
1.0
 40
1.0
 40
1.0
 40
1.0
 10
173.6353213425047
 20
121.1973803414807
 30
0.0
 10
173.6353213425047
 20
121.1608914105734
 30
0.0
 10
173.6141519663324
 20
121.1243926188396
 30
0.0
 10
173.53140634848
 20
121.0590172711027
 30
0.0
 10
173.4705527236522
 20
121.0310804367564
 30
0.0
 10
173.3189478569612
 20
120.9971894075096
 30
0.0
 10
173.227725546494
 20
120.9917639549232
 30
0.0
 10
173.0353949967907
 20
121.0126832787358
 30
0.0
 10
172.9331441123137
 20
121.0392394261762
 30
0.0
 10
172.8353213425046
 20
121.079709184482
 30
0.0
  0
LINE
  5
135
330
1F
100
AcDbEntity
  8
0
  6
HIDDEN
 62
     7
370
     0
100
AcDbLine
 10
173.6353213425
 20
105.249058951
 30
0.0
 11
173.6353213425
 21
101.4903354528
 31
0.0
  0
LINE
  5
136
330
1F
100
AcDbEntity
  8
0
  6
HIDDEN
 62
     7
370
     0
100
AcDbLine
 10
168.2034847004
 20
139.1605711112
 30
0.0
 11
168.2034847004
 21
131.6003414712
 31
0.0
  0
LINE
  5
137
330
1F
100
AcDbEntity
  8
0
  6
HIDDEN
 62
     7
370
     0
100
AcDbLine
 10
175.2471579846
 20
103.4983214033
 30
0.0
 11
175.2471579846
 21
101.2988416729
 31
0.0
  0
LINE
  5
138
330
1F
100
AcDbEntity
  8
0
  6
HIDDEN
 62
     7
370
     0
100
AcDbLine
 10
175.2471579846
 20
139.1605711112
 30
0.0
 11
175.2471579846
 21
131.6003414712
 31
0.0
  0
SPLINE
  5
139
330
1F
100
AcDbEntity
  8
0
  6
HIDDEN
 62
     7
370
     0
100
AcDbSpline
210
0.0
220
0.0
230
1.0
 70
     8
 71
     3
 72
    10
 73
     6
 74
     0
 42
0.000000001
 43
0.00000001
 40
0.0
 40
0.0
 40
0.0
 40
0.0
 40
0.5
 40
0.5
 40
1.0
 40
1.0
 40
1.0
 40
1.0
 10
171.6494305798642
 20
120.9968806406199
 30
0.0
 10
171.633824528883
 20
121.1021528412284
 30
0.0
 10
171.6253200658545
 20
121.2060913390193
 30
0.0
 10
171.6253226194441
 20
121.4056046109753
 30
0.0
 10
171.6338202070446
 20
121.4968171056457
 30
0.0
 10
171.6494305798643
 20
121.5787490379888
 30
0.0
  0
SPLINE
  5
13A
330
1F
100
AcDbEntity
  8
0
  6
HIDDEN
 62
     7
370
     0
100
AcDbSpline
210
0.0
220
0.0
230
1.0
 70
     8
 71
     3
 72
    14
 73
    10
 74
     0
 42
0.000000001
 43
0.00000001
 40
0.0
 40
0.0
 40
0.0
 40
0.0
 40
0.25
 40
0.25
 40
0.5
 40
0.5
 40
0.75
 40
0.75
 40
1.0
 40
1.0
 40
1.0
 40
1.0
 10
171.6494305798643
 20
121.5787490379888
 30
0.0
 10
171.6857944078945
 20
121.533254402587
 30
0.0
 10
171.7182721351047
 20
121.4848625963707
 30
0.0
 10
171.7670257645204
 20
121.3793774524412
 30
0.0
 10
171.7819295421949
 20
121.3227929441983
 30
0.0
 10
171.7819399758525
 20
121.2139053502479
 30
0.0
 10
171.7670496800443
 20
121.1617206844852
 30
0.0
 10
171.7181607491667
 20
121.0704432855417
 30
0.0
 10
171.6857885708964
 20
121.0317765801676
 30
0.0
 10
171.6494305798643
 20
120.9968806406199
 30
0.0
  0
LWPOLYLINE
  5
13B
330
1F
100
AcDbEntity
  8
0
  6
HIDDEN
 62
     7
370
     0
100
AcDbPolyline
 90
       22
 70
   128
 43
0.0
 10
164.45704888
 20
121.23038688
 10
164.5770450984
 20
120.870716649
 10
164.7669655348
 20
120.621730427
 10
165.0099349251
 20
120.5055517326
 10
165.2843643726
 20
120.5325035526
 10
165.5658696165
 20
120.7001910995
 10
165.8294376807
 20
120.9937145989
 10
166.051649386
 20
121.3869931998
 10
166.2127602471
 20
121.8450823725
 10
166.2984548571
 20
122.3272788839
 10
166.3011188738
 20
122.7907374578
 10
166.2205155877
 20
123.194277766
 10
166.0638069543
 20
123.5020434813
 10
165.8449172235
 20
123.6866882692
 10
165.5832957085
 20
123.73180563
 10
165.3021886289
 20
123.6333866883
 10
165.0265735825
 20
123.4001763989
 10
164.7809401756
 20
123.0528965194
 10
164.5871140143
 20
122.6224043912
 10
164.4623174037
 20
122.1469511291
 10
164.4176390703
 20
121.6687828417
 10
164.45704888
 20
121.23038688
  0
LWPOLYLINE
  5
13C
330
1F
100
AcDbEntity
  8
0
  6
HIDDEN
 62
     7
370
     0
100
AcDbPolyline
 90
       23
 70
   128
 43
0.0
 10
171.6494305799
 20
120.9968806406
 10
171.8048118483
 20
120.5096578926
 10
172.0935349226
 20
120.0794306465
 10
172.4944525049
 20
119.7377105633
 10
172.9781996981
 20
119.5095266654
 10
173.5093448142
 20
119.4115921054
 10
174.0489845411
 20
119.4510800242
 10
174.5575933857
 20
119.6250981598
 10
174.9979186876
 20
119.9209006888
 10
175.3377091616
 20
120.3168217845
 10
175.5520771182
 20
120.7838625133
 10
175.6253213425
 20
121.2878148393
 10
175.5520771182
 20
121.7917671653
 10
175.3377091616
 20
122.2588078941
 10
174.9979186876
 20
122.6547289898
 10
174.5575933857
 20
122.9505315188
 10
174.0489845411
 20
123.1245496544
 10
173.5093448142
 20
123.1640375732
 10
172.9781996981
 20
123.0661030132
 10
172.4944525049
 20
122.8379191153
 10
172.0935349226
 20
122.4961990321
 10
171.8048118483
 20
122.065971786
 10
171.6494305799
 20
121.578749038
  0
SPLINE
  5
13D
330
1F
100
AcDbEntity
  8
0
  6
HIDDEN
 62
     7
370
     0
100
AcDbSpline
210
0.0
220
0.0
230
1.0
 70
     8
 71
     3
 72
    12
 73
     8
 74
     0
 42
0.000000001
 43
0.00000001
 40
0.0
 40
0.0
 40
0.0
 40
0.0
 40
0.2499999999999997
 40
0.2499999999999997
 40
0.4999999999999993
 40
0.4999999999999993
 40
1.0
 40
1.0
 40
1.0
 40
1.0
 10
175.2471579845614
 20
125.201841269358
 30
0.0
 10
175.370105478357
 20
125.043884420663
 30
0.0
 10
175.4636496814658
 20
124.8720510536854
 30
0.0
 10
175.592589070628
 20
124.5003783440396
 30
0.0
 10
175.6251418280131
 20
124.3071898978484
 30
0.0
 10
175.6256781697469
 20
123.7188933595721
 30
0.0
 10
175.493054512779
 20
123.3268751216834
 30
0.0
 10
175.2471579845614
 20
123.0023615389747
 30
0.0
  0
SPLINE
  5
13E
330
1F
100
AcDbEntity
  8
0
  6
HIDDEN
 62
     7
370
     0
100
AcDbSpline
210
0.0
220
0.0
230
1.0
 70
     8
 71
     3
 72
    12
 73
     8
 74
     0
 42
0.000000001
 43
0.00000001
 40
0.0
 40
0.0
 40
0.0
 40
0.0
 40
0.2500000000000003
 40
0.2500000000000003
 40
0.5000000000000007
 40
0.5000000000000007
 40
1.0
 40
1.0
 40
1.0
 40
1.0
 10
175.2471579845614
 20
123.0023615389747
 30
0.0
 10
175.1322619333007
 20
122.7826211039182
 30
0.0
 10
175.0054959168281
 20
122.5856527522964
 30
0.0
 10
174.7452809832095
 20
122.2319351794575
 30
0.0
 10
174.6117735252473
 20
122.0751098855853
 30
0.0
 10
174.2033752566591
 20
121.6485673146776
 30
0.0
 10
173.9197221217215
 20
121.4218751357224
 30
0.0
 10
173.6353213425048
 20
121.2516239913269
 30
0.0
  0
SPLINE
  5
13F
330
1F
100
AcDbEntity
  8
0
  6
HIDDEN
 62
     7
370
     0
100
AcDbSpline
210
0.0
220
0.0
230
1.0
 70
     8
 71
     3
 72
    12
 73
     8
 74
     0
 42
0.000000001
 43
0.00000001
 40
0.0
 40
0.0
 40
0.0
 40
0.0
 40
0.5000000000000013
 40
0.5000000000000013
 40
0.7500000000000007
 40
0.7500000000000007
 40
1.0
 40
1.0
 40
1.0
 40
1.0
 10
173.6353213425047
 20
125.010347489548
 30
0.0
 10
173.91952787707
 20
125.1778116518417
 30
0.0
 10
174.1982236111738
 20
125.2894487513533
 30
0.0
 10
174.607569654363
 20
125.3567620169927
 30
0.0
 10
174.7437089916826
 20
125.3619130570066
 30
0.0
 10
175.0050290406786
 20
125.3241471193872
 30
0.0
 10
175.1304502231104
 20
125.282597361043
 30
0.0
 10
175.2471579845618
 20
125.2018412693602
 30
0.0
  0
SPLINE
  5
140
330
1F
100
AcDbEntity
  8
0
  6
HIDDEN
 62
     7
370
     0
100
AcDbSpline
210
0.0
220
0.0
230
1.0
 70
     8
 71
     3
 72
    22
 73
    18
 74
     0
 42
0.000000001
 43
0.00000001
 40
0.0
 40
0.0
 40
0.0
 40
0.0
 40
0.125
 40
0.125
 40
0.25
 40
0.25
 40
0.375
 40
0.375
 40
0.5
 40
0.5
 40
0.625
 40
0.625
 40
0.75
 40
0.75
 40
0.875
 40
0.875
 40
1.0
 40
1.0
 40
1.0
 40
1.0
 10
172.8353213425046
 20
121.079709184482
 30
0.0
 10
172.6553046479353
 20
121.1541829714585
 30
0.0
 10
172.4908728260649
 20
121.2516322334426
 30
0.0
 10
172.1924765923064
 20
121.4910016670069
 30
0.0
 10
172.0621728649415
 20
121.6308982790774
 30
0.0
 10
171.8489540813225
 20
121.9391498691376
 30
0.0
 10
171.765326224211
 20
122.1093130872568
 30
0.0
 10
171.6541953472928
 20
122.4598078220473
 30
0.0
 10
171.6253593524391
 20
122.6449327831987
 30
0.0
 10
171.6252834097795
 20
123.0081396578159
 30
0.0
 10
171.6539420352067
 20
123.1915096715234
 30
0.0
 10
171.7650931283194
 20
123.5374007840167
 30
0.0
 10
171.8481602489634
 20
123.7029203112842
 30
0.0
 10
172.0618462070821
 20
124.003460048688
 30
0.0
 10
172.1908531970064
 20
124.137331969972
 30
0.0
 10
172.4904624764959
 20
124.3685787393761
 30
0.0
 10
172.6553051747551
 20
124.4618288560349
 30
0.0
 10
172.8353213425046
 20
124.5328206612592
 30
0.0
  0
LWPOLYLINE
  5
141
330
1F
100
AcDbEntity
  8
0
  6
HIDDEN
 62
     7
370
     0
100
AcDbPolyline
 90
       24
 70
   128
 43
0.0
 10
164.0755329897
 20
121.0208790247
 10
164.2111882707
 20
120.5978380164
 10
164.4223916867
 20
120.2898044437
 10
164.6934792465
 20
120.1196237475
 10
165.0043456259
 20
120.0999174516
 10
165.3319352876
 20
120.2321470817
 10
165.6519524052
 20
120.5065057711
 10
165.9406627728
 20
120.9026455909
 10
166.1766540635
 20
121.3911866629
 10
166.3424238826
 20
121.9358961308
 10
166.4256778411
 20
122.4963753851
 10
166.4202413737
 20
123.0310562435
 10
166.3265176784
 20
123.5002838729
 10
166.1514578128
 20
123.8692578066
 10
165.9080451664
 20
124.1106129357
 10
165.6143325416
 20
124.2064490545
 10
165.2921032601
 20
124.1496584366
 10
164.9652555937
 20
123.9444529821
 10
164.6580303385
 20
123.606051841
 10
164.3932129862
 20
123.1595526778
 10
164.1904438285
 20
122.6380702928
 10
164.064761326
 20
122.0802806489
 10
164.0254867752
 20
121.5275524523
 10
164.0755329897
 20
121.0208790247
  0
LWPOLYLINE
  5
142
330
1F
100
AcDbEntity
  8
0
  6
HIDDEN
 62
     7
370
     0
100
AcDbPolyline
 90
       24
 70
   128
 43
0.0
 10
167.3103466071
 20
119.9844106333
 10
166.9987454594
 20
119.7954481035
 10
166.6926457916
 20
119.7482664942
 10
166.4147496158
 20
119.8463650494
 10
166.18566722
 20
120.0824682482
 10
166.0223885976
 20
120.4390653963
 10
165.937023377
 20
120.8897093146
 10
165.9359027062
 20
121.4009778052
 10
166.0191097001
 20
121.9349524231
 10
166.1804732767
 20
122.4520307137
 10
166.4080258377
 20
122.9138633456
 10
166.6848908505
 20
123.2861983052
 10
166.9905345039
 20
123.541421212
 10
167.3022886062
 20
123.6606033504
 10
167.5970317819
 20
123.6349055265
 10
167.8529042779
 20
123.4662336303
 10
168.0509292018
 20
123.1670972848
 10
168.1764199509
 20
122.7596820643
 10
168.2200694504
 20
122.2742040918
 10
168.1786404166
 20
121.7466690476
 10
168.0552054514
 20
121.2162017927
 10
167.8589191615
 20
120.7221446567
 10
167.6043392031
 20
120.3011395971
 10
167.3103466071
 20
119.9844106333
  0
LWPOLYLINE
  5
143
330
1F
100
AcDbEntity
  8
0
  6
HIDDEN
 62
     7
370
     0
100
AcDbPolyline
 90
       19
 70
   128
 43
0.0
 10
167.8356771471
 20
120.4833004847
 10
167.5868192977
 20
120.3479013984
 10
167.3500794555
 20
120.3586995261
 10
167.1540119395
 20
120.5143924541
 10
167.0222653857
 20
120.7962013175
 10
166.9707303729
 20
121.1701358084
 10
167.0056227841
 20
121.5910939085
 10
167.1227340797
 20
122.0083018582
 10
167.307938909
 20
122.3714382214
 10
167.5388988363
 20
122.6367033934
 10
167.7877566857
 20
122.7721024797
 10
168.0244965279
 20
122.761304352
 10
168.2205640439
 20
122.605611424
 10
168.3523105977
 20
122.3238025606
 10
168.4038456106
 20
121.9498680697
 10
168.3689531993
 20
121.5289099696
 10
168.2518419037
 20
121.1117020199
 10
168.0666370744
 20
120.7485656567
 10
167.8356771471
 20
120.4833004847
  0
LWPOLYLINE
  5
144
330
1F
100
AcDbEntity
  8
0
  6
HIDDEN
 62
     7
370
     0
100
AcDbPolyline
 90
       24
 70
   128
 43
0.0
 10
165.6517001923
 20
120.3816317069
 10
165.3400990445
 20
120.1926691771
 10
165.0339993767
 20
120.1454875678
 10
164.7561032009
 20
120.243586123
 10
164.5270208051
 20
120.4796893218
 10
164.3637421827
 20
120.8362864699
 10
164.2783769622
 20
121.2869303882
 10
164.2772562913
 20
121.7981988788
 10
164.3604632853
 20
122.3321734968
 10
164.5218268618
 20
122.8492517873
 10
164.7493794228
 20
123.3110844192
 10
165.0262444357
 20
123.6834193788
 10
165.331888089
 20
123.9386422856
 10
165.6436421913
 20
124.057824424
 10
165.938385367
 20
124.0321266001
 10
166.194257863
 20
123.863454704
 10
166.3922827869
 20
123.5643183585
 10
166.517773536
 20
123.1569031379
 10
166.5614230355
 20
122.6714251654
 10
166.5199940017
 20
122.1438901213
 10
166.3965590365
 20
121.6134228664
 10
166.2002727467
 20
121.1193657303
 10
165.9456927883
 20
120.6983606707
 10
165.6517001923
 20
120.3816317069
  0
LINE
  5
145
330
1F
100
AcDbEntity
  8
0
  6
HIDDEN
 62
     7
370
     0
100
AcDbLine
 10
165.8288645795
 20
121.8829855126
 30
0.0
 11
166.3214838952
 21
122.8488781808
 31
0.0
  0
LINE
  5
146
330
1F
100
AcDbEntity
  8
0
  6
HIDDEN
 62
     7
370
     0
100
AcDbLine
 10
164.6001365131
 20
122.177247555
 30
0.0
 11
165.0927558287
 21
123.1431402232
 31
0.0
  0
LWPOLYLINE
  5
147
330
1F
100
AcDbEntity
  8
0
  6
HIDDEN
 62
     7
370
     0
100
AcDbPolyline
 90
       21
 70
   128
 43
0.0
 10
165.420957091
 20
120.7617345507
 10
165.1324172421
 20
120.5964795011
 10
164.8534130145
 20
120.583149579
 10
164.6112552862
 20
120.7230496099
 10
164.4296481426
 20
121.002485204
 10
164.3263685564
 20
121.3941032586
 10
164.311526253
 20
121.8595694698
 10
164.3865741006
 20
122.3533207618
 10
164.5441658928
 20
122.827025318
 10
164.7688754471
 20
123.2343136359
 10
165.0387066267
 20
123.5353174972
 10
165.3272464756
 20
123.7005725468
 10
165.6062507032
 20
123.7139024689
 10
165.8484084315
 20
123.5740024381
 10
166.0300155751
 20
123.2945668439
 10
166.1332951613
 20
122.9029487893
 10
166.1481374647
 20
122.4374825781
 10
166.0730896171
 20
121.9437312861
 10
165.9154978249
 20
121.4700267299
 10
165.6907882706
 20
121.062738412
 10
165.420957091
 20
120.7617345507
  0
LINE
  5
148
330
1F
100
AcDbEntity
  8
0
  6
HIDDEN
 62
     7
370
     0
100
AcDbLine
 10
164.7372125432
 20
121.1826333558
 30
0.0
 11
164.6001365131
 21
122.177247555
 31
0.0
  0
LINE
  5
149
330
1F
100
AcDbEntity
  8
0
  6
HIDDEN
 62
     7
370
     0
100
AcDbLine
 10
165.9659406096
 20
120.8883713133
 30
0.0
 11
165.8288645795
 21
121.8829855126
 31
0.0
  0
LINE
  5
14A
330
1F
100
AcDbEntity
  8
0
  6
HIDDEN
 62
     7
370
     0
100
AcDbLine
 10
165.8288645795
 20
121.8829855126
 30
0.0
 11
164.6001365131
 21
122.177247555
 31
0.0
  0
LINE
  5
14B
330
1F
100
AcDbEntity
  8
0
  6
HIDDEN
 62
     7
370
     0
100
AcDbLine
 10
165.7224511745
 20
123.1144186921
 30
0.0
 11
165.0927558287
 21
123.1431402232
 31
0.0
  0
LINE
  5
14C
330
1F
100
AcDbEntity
  8
0
  6
HIDDEN
 62
     7
370
     0
100
AcDbLine
 10
166.9511792409
 20
122.8201566497
 30
0.0
 11
166.3214838952
 21
122.8488781808
 31
0.0
  0
LINE
  5
14D
330
1F
100
AcDbEntity
  8
0
  6
HIDDEN
 62
     7
370
     0
100
AcDbLine
 10
166.3214838952
 20
122.8488781808
 30
0.0
 11
165.0927558287
 21
123.1431402232
 31
0.0
  0
LINE
  5
14E
330
1F
100
AcDbEntity
  8
0
  6
HIDDEN
 62
     7
370
     0
100
AcDbLine
 10
166.5956359554
 20
120.8596497823
 30
0.0
 11
165.3669078889
 21
121.1539118247
 31
0.0
  0
LINE
  5
14F
330
1F
100
AcDbEntity
  8
0
  6
HIDDEN
 62
     7
370
     0
100
AcDbLine
 10
165.9659406096
 20
120.8883713133
 30
0.0
 11
164.7372125432
 21
121.1826333558
 31
0.0
  0
LINE
  5
150
330
1F
100
AcDbEntity
  8
0
  6
HIDDEN
 62
     7
370
     0
100
AcDbLine
 10
164.7372125432
 20
121.1826333558
 30
0.0
 11
165.3669078889
 21
121.1539118247
 31
0.0
  0
LINE
  5
151
330
1F
100
AcDbEntity
  8
0
  6
HIDDEN
 62
     7
370
     0
100
AcDbLine
 10
165.9659406096
 20
120.8883713133
 30
0.0
 11
166.5956359554
 21
120.8596497823
 31
0.0
  0
LINE
  5
152
330
1F
100
AcDbEntity
  8
0
  6
HIDDEN
 62
     7
370
     0
100
AcDbLine
 10
167.088255271
 20
121.8255424504
 30
0.0
 11
165.8595272046
 21
122.1198044929
 31
0.0
  0
LINE
  5
153
330
1F
100
AcDbEntity
  8
0
  6
HIDDEN
 62
     7
370
     0
100
AcDbLine
 10
165.8595272046
 20
122.1198044929
 30
0.0
 11
165.3669078889
 21
121.1539118247
 31
0.0
  0
LINE
  5
154
330
1F
100
AcDbEntity
  8
0
  6
HIDDEN
 62
     7
370
     0
100
AcDbLine
 10
167.088255271
 20
121.8255424504
 30
0.0
 11
166.5956359554
 21
120.8596497823
 31
0.0
  0
LINE
  5
155
330
1F
100
AcDbEntity
  8
0
  6
HIDDEN
 62
     7
370
     0
100
AcDbLine
 10
166.9511792409
 20
122.8201566497
 30
0.0
 11
165.7224511745
 21
123.1144186921
 31
0.0
  0
LINE
  5
156
330
1F
100
AcDbEntity
  8
0
  6
HIDDEN
 62
     7
370
     0
100
AcDbLine
 10
165.8595272046
 20
122.1198044929
 30
0.0
 11
165.7224511745
 21
123.1144186921
 31
0.0
  0
LINE
  5
157
330
1F
100
AcDbEntity
  8
0
  6
HIDDEN
 62
     7
370
     0
100
AcDbLine
 10
167.088255271
 20
121.8255424504
 30
0.0
 11
166.9511792409
 21
122.8201566497
 31
0.0
  0
LWPOLYLINE
  5
158
330
1F
100
AcDbEntity
  8
0
  6
HIDDEN
 62
     7
370
     0
100
AcDbPolyline
 90
       21
 70
   128
 43
0.0
 10
165.420957091
 20
105.7389483916
 10
165.1324172421
 20
105.9042034412
 10
164.8534130145
 20
105.9175333633
 10
164.6112552862
 20
105.7776333324
 10
164.4296481426
 20
105.4981977383
 10
164.3263685564
 20
105.1065796837
 10
164.311526253
 20
104.6411134725
 10
164.3865741006
 20
104.1473621805
 10
164.5441658928
 20
103.6736576243
 10
164.7688754471
 20
103.2663693064
 10
165.0387066267
 20
102.9653654451
 10
165.3272464756
 20
102.8001103955
 10
165.6062507032
 20
102.7867804734
 10
165.8484084315
 20
102.9266805042
 10
166.0300155751
 20
103.2061160984
 10
166.1332951613
 20
103.597734153
 10
166.1481374647
 20
104.0632003642
 10
166.0730896171
 20
104.5569516562
 10
165.9154978249
 20
105.0306562124
 10
165.6907882706
 20
105.4379445303
 10
165.420957091
 20
105.7389483916
  0
LWPOLYLINE
  5
159
330
1F
100
AcDbEntity
  8
0
  6
HIDDEN
 62
     7
370
     0
100
AcDbPolyline
 90
       24
 70
   128
 43
0.0
 10
165.6517001923
 20
106.1190512354
 10
165.3400990445
 20
106.3080137652
 10
165.0339993767
 20
106.3551953745
 10
164.7561032009
 20
106.2570968193
 10
164.5270208051
 20
106.0209936205
 10
164.3637421827
 20
105.6643964724
 10
164.2783769622
 20
105.2137525541
 10
164.2772562913
 20
104.7024840635
 10
164.3604632853
 20
104.1685094455
 10
164.5218268618
 20
103.651431155
 10
164.7493794228
 20
103.1895985231
 10
165.0262444357
 20
102.8172635635
 10
165.331888089
 20
102.5620406567
 10
165.6436421913
 20
102.4428585183
 10
165.938385367
 20
102.4685563422
 10
166.194257863
 20
102.6372282383
 10
166.3922827869
 20
102.9363645838
 10
166.517773536
 20
103.3437798044
 10
166.5614230355
 20
103.8292577769
 10
166.5199940017
 20
104.356792821
 10
166.3965590365
 20
104.8872600759
 10
166.2002727467
 20
105.381317212
 10
165.9456927883
 20
105.8023222716
 10
165.6517001923
 20
106.1190512354
  0
LWPOLYLINE
  5
15A
330
1F
100
AcDbEntity
  8
0
  6
HIDDEN
 62
     7
370
     0
100
AcDbPolyline
 90
       24
 70
   128
 43
0.0
 10
167.3103466071
 20
106.516272309
 10
166.9987454594
 20
106.7052348388
 10
166.6926457916
 20
106.7524164481
 10
166.4147496158
 20
106.6543178929
 10
166.18566722
 20
106.4182146941
 10
166.0223885976
 20
106.061617546
 10
165.937023377
 20
105.6109736277
 10
165.9359027062
 20
105.0997051371
 10
166.0191097001
 20
104.5657305192
 10
166.1804732767
 20
104.0486522286
 10
166.4080258377
 20
103.5868195967
 10
166.6848908505
 20
103.2144846371
 10
166.9905345039
 20
102.9592617303
 10
167.3022886062
 20
102.8400795919
 10
167.5970317819
 20
102.8657774158
 10
167.8529042779
 20
103.034449312
 10
168.0509292018
 20
103.3335856575
 10
168.1764199509
 20
103.741000878
 10
168.2200694504
 20
104.2264788505
 10
168.1786404166
 20
104.7540138947
 10
168.0552054514
 20
105.2844811496
 10
167.8589191615
 20
105.7785382856
 10
167.6043392031
 20
106.1995433452
 10
167.3103466071
 20
106.516272309
  0
LINE
  5
15B
330
1F
100
AcDbEntity
  8
0
  6
HIDDEN
 62
     7
370
     0
100
AcDbLine
 10
164.6001365131
 20
104.3234353873
 30
0.0
 11
165.0927558287
 21
103.3575427191
 31
0.0
  0
LINE
  5
15C
330
1F
100
AcDbEntity
  8
0
  6
HIDDEN
 62
     7
370
     0
100
AcDbLine
 10
165.7224511745
 20
103.3862642502
 30
0.0
 11
165.0927558287
 21
103.3575427191
 31
0.0
  0
LINE
  5
15D
330
1F
100
AcDbEntity
  8
0
  6
HIDDEN
 62
     7
370
     0
100
AcDbLine
 10
165.8595272046
 20
104.3808784494
 30
0.0
 11
165.7224511745
 21
103.3862642502
 31
0.0
  0
LINE
  5
15E
330
1F
100
AcDbEntity
  8
0
  6
HIDDEN
 62
     7
370
     0
100
AcDbLine
 10
165.8595272046
 20
104.3808784494
 30
0.0
 11
165.3669078889
 21
105.3467711176
 31
0.0
  0
LINE
  5
15F
330
1F
100
AcDbEntity
  8
0
  6
HIDDEN
 62
     7
370
     0
100
AcDbLine
 10
164.7372125432
 20
105.3180495865
 30
0.0
 11
165.3669078889
 21
105.3467711176
 31
0.0
  0
LINE
  5
160
330
1F
100
AcDbEntity
  8
0
  6
HIDDEN
 62
     7
370
     0
100
AcDbLine
 10
164.7372125432
 20
105.3180495865
 30
0.0
 11
164.6001365131
 21
104.3234353873
 31
0.0
  0
LWPOLYLINE
  5
161
330
1F
100
AcDbEntity
  8
0
  6
HIDDEN
 62
     7
370
     0
100
AcDbPolyline
 90
       19
 70
   128
 43
0.0
 10
167.8356771471
 20
106.0173824576
 10
167.5868192977
 20
106.1527815439
 10
167.3500794555
 20
106.1419834162
 10
167.1540119395
 20
105.9862904882
 10
167.0222653857
 20
105.7044816248
 10
166.9707303729
 20
105.3305471339
 10
167.0056227841
 20
104.9095890338
 10
167.1227340797
 20
104.4923810841
 10
167.307938909
 20
104.1292447209
 10
167.5388988363
 20
103.8639795489
 10
167.7877566857
 20
103.7285804626
 10
168.0244965279
 20
103.7393785903
 10
168.2205640439
 20
103.8950715183
 10
168.3523105977
 20
104.1768803817
 10
168.4038456106
 20
104.5508148726
 10
168.3689531993
 20
104.9717729727
 10
168.2518419037
 20
105.3889809224
 10
168.0666370744
 20
105.7521172856
 10
167.8356771471
 20
106.0173824576
  0
LINE
  5
162
330
1F
100
AcDbEntity
  8
0
  6
HIDDEN
 62
     7
370
     0
100
AcDbLine
 10
167.088255271
 20
104.6751404919
 30
0.0
 11
165.8595272046
 21
104.3808784494
 31
0.0
  0
LINE
  5
163
330
1F
100
AcDbEntity
  8
0
  6
HIDDEN
 62
     7
370
     0
100
AcDbLine
 10
166.5956359554
 20
105.64103316
 30
0.0
 11
165.3669078889
 21
105.3467711176
 31
0.0
  0
LINE
  5
164
330
1F
100
AcDbEntity
  8
0
  6
HIDDEN
 62
     7
370
     0
100
AcDbLine
 10
166.9511792409
 20
103.6805262926
 30
0.0
 11
166.3214838952
 21
103.6518047615
 31
0.0
  0
LINE
  5
165
330
1F
100
AcDbEntity
  8
0
  6
HIDDEN
 62
     7
370
     0
100
AcDbLine
 10
165.8288645795
 20
104.6176974297
 30
0.0
 11
166.3214838952
 21
103.6518047615
 31
0.0
  0
LINE
  5
166
330
1F
100
AcDbEntity
  8
0
  6
HIDDEN
 62
     7
370
     0
100
AcDbLine
 10
165.9659406096
 20
105.612311629
 30
0.0
 11
165.8288645795
 21
104.6176974297
 31
0.0
  0
LINE
  5
167
330
1F
100
AcDbEntity
  8
0
  6
HIDDEN
 62
     7
370
     0
100
AcDbLine
 10
165.9659406096
 20
105.612311629
 30
0.0
 11
166.5956359554
 21
105.64103316
 31
0.0
  0
LINE
  5
168
330
1F
100
AcDbEntity
  8
0
  6
HIDDEN
 62
     7
370
     0
100
AcDbLine
 10
167.088255271
 20
104.6751404919
 30
0.0
 11
166.9511792409
 21
103.6805262926
 31
0.0
  0
LINE
  5
169
330
1F
100
AcDbEntity
  8
0
  6
HIDDEN
 62
     7
370
     0
100
AcDbLine
 10
167.088255271
 20
104.6751404919
 30
0.0
 11
166.5956359554
 21
105.64103316
 31
0.0
  0
LINE
  5
16A
330
1F
100
AcDbEntity
  8
0
  6
HIDDEN
 62
     7
370
     0
100
AcDbLine
 10
166.3214838952
 20
103.6518047615
 30
0.0
 11
165.0927558287
 21
103.3575427191
 31
0.0
  0
LINE
  5
16B
330
1F
100
AcDbEntity
  8
0
  6
HIDDEN
 62
     7
370
     0
100
AcDbLine
 10
166.9511792409
 20
103.6805262926
 30
0.0
 11
165.7224511745
 21
103.3862642502
 31
0.0
  0
LINE
  5
16C
330
1F
100
AcDbEntity
  8
0
  6
HIDDEN
 62
     7
370
     0
100
AcDbLine
 10
165.8288645795
 20
104.6176974297
 30
0.0
 11
164.6001365131
 21
104.3234353873
 31
0.0
  0
LINE
  5
16D
330
1F
100
AcDbEntity
  8
0
  6
HIDDEN
 62
     7
370
     0
100
AcDbLine
 10
165.9659406096
 20
105.612311629
 30
0.0
 11
164.7372125432
 21
105.3180495865
 31
0.0
  0
LINE
  5
16E
330
1F
100
AcDbEntity
  8
0
  6
HIDDEN
 62
     7
370
     0
100
AcDbLine
 10
171.6253213425
 20
104.1184036444
 30
0.0
 11
171.6253213425
 21
103.981595587
 31
0.0
  0
LINE
  5
16F
330
1F
100
AcDbEntity
  8
0
  6
HIDDEN
 62
     7
370
     0
100
AcDbLine
 10
175.6253213425
 20
103.981595587
 30
0.0
 11
175.6253213425
 21
104.1184036444
 31
0.0
  0
LINE
  5
170
330
1F
100
AcDbEntity
  8
0
  6
HIDDEN
 62
     7
370
     0
100
AcDbLine
 10
172.1253213425
 20
104.9508719846
 30
0.0
 11
172.1253213425
 21
103.9473935727
 31
0.0
  0
LINE
  5
171
330
1F
100
AcDbEntity
  8
0
  6
HIDDEN
 62
     7
370
     0
100
AcDbLine
 10
175.1253213425
 20
103.9473935727
 30
0.0
 11
175.1253213425
 21
104.9508719846
 31
0.0
  0
LINE
  5
172
330
1F
100
AcDbEntity
  8
0
  6
HIDDEN
 62
     7
370
     0
100
AcDbLine
 10
171.6253213425
 20
105.212868103
 30
0.0
 11
171.6253213425
 21
104.8879489668
 31
0.0
  0
LINE
  5
173
330
1F
100
AcDbEntity
  8
0
  6
HIDDEN
 62
     7
370
     0
100
AcDbLine
 10
175.6253213425
 20
104.8879489668
 30
0.0
 11
175.6253213425
 21
105.212868103
 31
0.0
  0
LINE
  5
174
330
1F
100
AcDbEntity
  8
0
  6
HIDDEN
 62
     7
370
     0
100
AcDbLine
 10
175.6253213425
 20
121.2878148393
 30
0.0
 11
175.6253213425
 21
121.6127339755
 31
0.0
  0
LINE
  5
175
330
1F
100
AcDbEntity
  8
0
  6
HIDDEN
 62
     7
370
     0
100
AcDbLine
 10
171.6253213425
 20
121.6127339755
 30
0.0
 11
171.6253213425
 21
121.2878148393
 31
0.0
  0
LINE
  5
176
330
1F
100
AcDbEntity
  8
0
  6
HIDDEN
 62
     7
370
     0
100
AcDbLine
 10
175.1253213425
 20
121.5498109577
 30
0.0
 11
175.1253213425
 21
122.5532893696
 31
0.0
  0
LINE
  5
177
330
1F
100
AcDbEntity
  8
0
  6
HIDDEN
 62
     7
370
     0
100
AcDbLine
 10
172.1253213425
 20
122.5532893696
 30
0.0
 11
172.1253213425
 21
121.5498109577
 31
0.0
  0
LINE
  5
178
330
1F
100
AcDbEntity
  8
0
  6
HIDDEN
 62
     7
370
     0
100
AcDbLine
 10
175.6253213425
 20
122.3822792979
 30
0.0
 11
175.6253213425
 21
122.5190873553
 31
0.0
  0
LINE
  5
179
330
1F
100
AcDbEntity
  8
0
  6
HIDDEN
 62
     7
370
     0
100
AcDbLine
 10
171.6253213425
 20
122.5190873553
 30
0.0
 11
171.6253213425
 21
122.3822792979
 31
0.0
  0
ARC
  5
17A
330
1F
100
AcDbEntity
  8
0
  6
HIDDEN
 62
     7
370
     0
100
AcDbCircle
 10
173.6253213425
 20
104.5288278163
 30
0.0
 40
1.500000000000014
100
AcDbArc
 50
71.1182787691
 51
191.5274417163
  0
ARC
  5
17B
330
1F
100
AcDbEntity
  8
0
  6
HIDDEN
 62
     7
370
     0
100
AcDbCircle
 10
173.6253213425
 20
104.5288278163
 30
0.0
 40
1.500000000000014
100
AcDbArc
 50
336.6722113243
 51
71.1182787691
  0
CIRCLE
  5
17C
330
1F
100
AcDbEntity
  8
0
  6
HIDDEN
 62
     7
370
     0
100
AcDbCircle
 10
173.6253213425
 20
121.971855126
 30
0.0
 40
1.499999999999992
  0
LINE
  5
17D
330
1F
100
AcDbEntity
  8
0
  6
HIDDEN
 62
     7
370
     0
100
AcDbLine
 10
175.6253213425
 20
102.3914984017
 30
0.0
 11
175.6253213425
 21
105.212868103
 31
0.0
  0
LINE
  5
17E
330
1F
100
AcDbEntity
  8
0
  6
HIDDEN
 62
     7
370
     0
100
AcDbLine
 10
171.6253213425
 20
105.1959138687
 30
0.0
 11
171.6253213425
 21
103.6744578724
 31
0.0
  0
LINE
  5
17F
330
1F
100
AcDbEntity
  8
0
  6
HIDDEN
 62
     7
370
     0
100
AcDbLine
 10
163.8253213425
 20
101.8564163955
 30
0.0
 11
165.7189206827
 21
102.3099051899
 31
0.0
  0
LINE
  5
180
330
1F
100
AcDbEntity
  8
0
  6
HIDDEN
 62
     7
370
     0
100
AcDbLine
 10
164.740743035
 20
106.3944086468
 30
0.0
 11
163.8253213425
 21
106.1751788072
 31
0.0
  0
LINE
  5
181
330
1F
100
AcDbEntity
  8
0
  6
HIDDEN
 62
     7
370
     0
100
AcDbLine
 10
165.7482820674
 20
102.7796613476
 30
0.0
 11
172.9553425018
 21
104.5056448109
 31
0.0
  0
LINE
  5
182
330
1F
100
AcDbEntity
  8
0
  6
HIDDEN
 62
     7
370
     0
100
AcDbLine
 10
172.9553425018
 20
107.8989581343
 30
0.0
 11
164.9797139156
 21
105.9889140638
 31
0.0
  0
LINE
  5
183
330
1F
100
AcDbEntity
  8
0
  6
HIDDEN
 62
     7
370
     0
100
AcDbLine
 10
175.2753213425
 20
105.2564379061
 30
0.0
 11
175.2753213425
 21
112.3958753709
 31
0.0
  0
LINE
  5
184
330
1F
100
AcDbEntity
  8
0
  6
HIDDEN
 62
     7
370
     0
100
AcDbLine
 10
171.9753213425
 20
105.2786773497
 30
0.0
 11
171.9753213425
 21
105.2564379061
 31
0.0
  0
LINE
  5
185
330
1F
100
AcDbEntity
  8
0
  6
HIDDEN
 62
     7
370
     0
100
AcDbLine
 10
171.9753213425
 20
112.3995307059
 30
0.0
 11
171.9753213425
 21
106.6565246991
 31
0.0
  0
ARC
  5
186
330
1F
100
AcDbEntity
  8
0
  6
HIDDEN
 62
     7
370
     0
100
AcDbCircle
 10
93.1753213425
 20
103.9503414712
 30
0.0
 40
0.7999999999999972
100
AcDbArc
 50
90.0
 51
180.0
  0
ARC
  5
187
330
1F
100
AcDbEntity
  8
0
  6
HIDDEN
 62
     7
370
     0
100
AcDbCircle
 10
93.1753213425
 20
122.5503414712
 30
0.0
 40
0.7999999999999972
100
AcDbArc
 50
180.0
 51
270.0
  0
ARC
  5
188
330
1F
100
AcDbEntity
  8
0
  6
HIDDEN
 62
     7
370
     0
100
AcDbCircle
 10
101.1443812348
 20
104.9253414712
 30
0.0
 40
0.4000000000000199
100
AcDbArc
 50
270.0
 51
330.0
  0
ARC
  5
189
330
1F
100
AcDbEntity
  8
0
  6
HIDDEN
 62
     7
370
     0
100
AcDbCircle
 10
101.1443812348
 20
121.5753414712
 30
0.0
 40
0.4000000000000244
100
AcDbArc
 50
30.0
 51
90.0
  0
LINE
  5
18A
330
1F
100
AcDbEntity
  8
0
  6
HIDDEN
 62
     7
370
     0
100
AcDbLine
 10
100.2676937732
 20
104.5253414712
 30
0.0
 11
101.1443812348
 21
104.5253414712
 31
0.0
  0
LINE
  5
18B
330
1F
100
AcDbEntity
  8
0
  6
HIDDEN
 62
     7
370
     0
100
AcDbLine
 10
101.1443812348
 20
121.9753414712
 30
0.0
 11
100.2676937732
 21
121.9753414712
 31
0.0
  0
ARC
  5
18C
330
1F
100
AcDbEntity
  8
0
  6
HIDDEN
 62
     7
370
     0
100
AcDbCircle
 10
100.2676937732
 20
104.9253414712
 30
0.0
 40
0.4000000000000057
100
AcDbArc
 50
255.0
 51
270.0
  0
ARC
  5
18D
330
1F
100
AcDbEntity
  8
0
  6
HIDDEN
 62
     7
370
     0
100
AcDbCircle
 10
100.2676937732
 20
121.5753414712
 30
0.0
 40
0.4000000000000057
100
AcDbArc
 50
90.0
 51
105.0
  0
LINE
  5
18E
330
1F
100
AcDbEntity
  8
0
  6
HIDDEN
 62
     7
370
     0
100
AcDbLine
 10
100.1641661552
 20
121.9617118017
 30
0.0
 11
99.3753213425
 21
121.7503414712
 31
0.0
  0
LINE
  5
18F
330
1F
100
AcDbEntity
  8
0
  6
HIDDEN
 62
     7
370
     0
100
AcDbLine
 10
99.3753213425
 20
104.7503414712
 30
0.0
 11
100.1641661552
 21
104.5389711406
 31
0.0
  0
LINE
  5
190
330
1F
100
AcDbEntity
  8
0
  6
HIDDEN
 62
     7
370
     0
100
AcDbLine
 10
101.4907913963
 20
104.7253414712
 30
0.0
 11
102.3712505569
 21
106.2503414712
 31
0.0
  0
LINE
  5
191
330
1F
100
AcDbEntity
  8
0
  6
HIDDEN
 62
     7
370
     0
100
AcDbLine
 10
102.3712505569
 20
120.2503414712
 30
0.0
 11
101.4907913963
 21
121.7753414712
 31
0.0
  0
LINE
  5
192
330
1F
100
AcDbEntity
  8
0
  6
HIDDEN
 62
     7
370
     0
100
AcDbLine
 10
93.1753213425
 20
104.7503414712
 30
0.0
 11
99.3753213425
 21
104.7503414712
 31
0.0
  0
LINE
  5
193
330
1F
100
AcDbEntity
  8
0
  6
HIDDEN
 62
     7
370
     0
100
AcDbLine
 10
99.3753213425
 20
121.7503414712
 30
0.0
 11
93.1753213425
 21
121.7503414712
 31
0.0
  0
ARC
  5
194
330
1F
100
AcDbEntity
  8
0
  6
HIDDEN
 62
     7
370
     0
100
AcDbCircle
 10
205.6253213425
 20
121.2503414712
 30
0.0
 40
1.0
100
AcDbArc
 50
270.0
 51
0.0
  0
ARC
  5
195
330
1F
100
AcDbEntity
  8
0
  6
HIDDEN
 62
     7
370
     0
100
AcDbCircle
 10
205.6253213425
 20
105.2503414712
 30
0.0
 40
1.0
100
AcDbArc
 50
0.0
 51
90.0
  0
ARC
  5
196
330
1F
100
AcDbEntity
  8
0
  6
HIDDEN
 62
     7
370
     0
100
AcDbCircle
 10
189.5199993444
 20
119.9503414712
 30
0.0
 40
0.7999999999999972
100
AcDbArc
 50
75.0
 51
90.0
  0
ARC
  5
197
330
1F
100
AcDbEntity
  8
0
  6
HIDDEN
 62
     7
370
     0
100
AcDbCircle
 10
189.5199993444
 20
106.5503414712
 30
0.0
 40
0.7999999999999972
100
AcDbArc
 50
270.0
 51
285.0
  0
LINE
  5
198
330
1F
100
AcDbEntity
  8
0
  6
HIDDEN
 62
     7
370
     0
100
AcDbLine
 10
189.5199993444
 20
120.7503414712
 30
0.0
 11
188.9253213425
 21
120.7503414712
 31
0.0
  0
LINE
  5
199
330
1F
100
AcDbEntity
  8
0
  6
HIDDEN
 62
     7
370
     0
100
AcDbLine
 10
188.9253213425
 20
105.7503414712
 30
0.0
 11
189.5199993444
 21
105.7503414712
 31
0.0
  0
ARC
  5
19A
330
1F
100
AcDbEntity
  8
0
  6
HIDDEN
 62
     7
370
     0
100
AcDbCircle
 10
188.9253213425
 20
119.9503414712
 30
0.0
 40
0.8000000000000398
100
AcDbArc
 50
90.0
 51
180.0
  0
ARC
  5
19B
330
1F
100
AcDbEntity
  8
0
  6
HIDDEN
 62
     7
370
     0
100
AcDbCircle
 10
188.9253213425
 20
106.5503414712
 30
0.0
 40
0.8000000000000398
100
AcDbArc
 50
180.0
 51
270.0
  0
LINE
  5
19C
330
1F
100
AcDbEntity
  8
0
  6
HIDDEN
 62
     7
370
     0
100
AcDbLine
 10
189.7270545805
 20
105.7776008101
 30
0.0
 11
191.4913467463
 21
106.2503414712
 31
0.0
  0
LINE
  5
19D
330
1F
100
AcDbEntity
  8
0
  6
HIDDEN
 62
     7
370
     0
100
AcDbLine
 10
191.4913467463
 20
120.2503414712
 30
0.0
 11
189.7270545805
 21
120.7230821322
 31
0.0
  0
LINE
  5
19E
330
1F
100
AcDbEntity
  8
0
  6
HIDDEN
 62
     7
370
     0
100
AcDbLine
 10
102.3712505569
 20
106.2503414712
 30
0.0
 11
135.3753213425
 21
106.2503414712
 31
0.0
  0
LINE
  5
19F
330
1F
100
AcDbEntity
  8
0
  6
HIDDEN
 62
     7
370
     0
100
AcDbLine
 10
135.3753213425
 20
120.2503414712
 30
0.0
 11
102.3712505569
 21
120.2503414712
 31
0.0
  0
LINE
  5
1A0
330
1F
100
AcDbEntity
  8
0
  6
HIDDEN
 62
     7
370
     0
100
AcDbLine
 10
135.3753213425
 20
106.2503414712
 30
0.0
 11
138.0791941281
 21
110.7503414712
 31
0.0
  0
LINE
  5
1A1
330
1F
100
AcDbEntity
  8
0
  6
HIDDEN
 62
     7
370
     0
100
AcDbLine
 10
138.0791941281
 20
115.7503414712
 30
0.0
 11
135.3753213425
 21
120.2503414712
 31
0.0
  0
LINE
  5
1A2
330
1F
100
AcDbEntity
  8
0
  6
HIDDEN
 62
     7
370
     0
100
AcDbLine
 10
205.6253213425
 20
120.2503414712
 30
0.0
 11
191.4913467463
 21
120.2503414712
 31
0.0
  0
LINE
  5
1A3
330
1F
100
AcDbEntity
  8
0
  6
HIDDEN
 62
     7
370
     0
100
AcDbLine
 10
191.4913467463
 20
106.2503414712
 30
0.0
 11
205.6253213425
 21
106.2503414712
 31
0.0
  0
LINE
  5
1A4
330
1F
100
AcDbEntity
  8
0
  6
HIDDEN
 62
     7
370
     0
100
AcDbLine
 10
188.1253213425
 20
115.7503414712
 30
0.0
 11
138.0791941281
 21
115.7503414712
 31
0.0
  0
LINE
  5
1A5
330
1F
100
AcDbEntity
  8
0
  6
HIDDEN
 62
     7
370
     0
100
AcDbLine
 10
138.0791941281
 20
110.7503414712
 30
0.0
 11
188.1253213425
 21
110.7503414712
 31
0.0
  0
LINE
  5
1A6
330
1F
100
AcDbEntity
  8
0
  6
HIDDEN
 62
     7
370
     0
100
AcDbLine
 10
175.2753213425
 20
114.1043405801
 30
0.0
 11
175.2753213425
 21
121.2442450362
 31
0.0
  0
LINE
  5
1A7
330
1F
100
AcDbEntity
  8
0
  6
HIDDEN
 62
     7
370
     0
100
AcDbLine
 10
171.9753213425
 20
119.8441582433
 30
0.0
 11
171.9753213425
 21
114.1051356938
 31
0.0
  0
LINE
  5
1A8
330
1F
100
AcDbEntity
  8
0
  6
HIDDEN
 62
     7
370
     0
100
AcDbLine
 10
171.9753213425
 20
121.2442450362
 30
0.0
 11
171.9753213425
 21
121.2220055926
 31
0.0
  0
LINE
  5
1A9
330
1F
100
AcDbEntity
  8
0
  6
HIDDEN
 62
     7
370
     0
100
AcDbLine
 10
164.9797139156
 20
120.5117688785
 30
0.0
 11
172.9553425018
 21
118.601724808
 31
0.0
  0
LINE
  5
1AA
330
1F
100
AcDbEntity
  8
0
  6
HIDDEN
 62
     7
370
     0
100
AcDbLine
 10
172.9553425018
 20
121.9950381314
 30
0.0
 11
165.7482820674
 21
123.7210215947
 31
0.0
  0
LINE
  5
1AB
330
1F
100
AcDbEntity
  8
0
  6
HIDDEN
 62
     7
370
     0
100
AcDbLine
 10
175.6253213425
 20
121.2878148393
 30
0.0
 11
175.6253213425
 21
124.1091845406
 31
0.0
  0
LINE
  5
1AC
330
1F
100
AcDbEntity
  8
0
  6
HIDDEN
 62
     7
370
     0
100
AcDbLine
 10
171.6253213425
 20
122.8262250699
 30
0.0
 11
171.6253213425
 21
121.3053398648
 31
0.0
  0
LINE
  5
1AD
330
1F
100
AcDbEntity
  8
0
  6
HIDDEN
 62
     7
370
     0
100
AcDbLine
 10
163.8253213425
 20
120.3255041351
 30
0.0
 11
164.740743035
 21
120.1062742955
 31
0.0
  0
LINE
  5
1AE
330
1F
100
AcDbEntity
  8
0
  6
HIDDEN
 62
     7
370
     0
100
AcDbLine
 10
165.7189206827
 20
124.1907777524
 30
0.0
 11
163.8253213425
 21
124.6442665468
 31
0.0
  0
LINE
  5
1AF
330
1F
100
AcDbEntity
  8
0
  6
HIDDEN
 62
     7
370
     0
100
AcDbLine
 10
167.38578176
 20
120.0518087242
 30
0.0
 11
167.8828241177
 21
120.5254242915
 31
0.0
  0
LINE
  5
1B0
330
1F
100
AcDbEntity
  8
0
  6
HIDDEN
 62
     7
370
     0
100
AcDbLine
 10
168.3302646337
 20
122.3937682871
 30
0.0
 11
168.1016865857
 21
123.0411591172
 31
0.0
  0
LINE
  5
1B1
330
1F
100
AcDbEntity
  8
0
  6
HIDDEN
 62
     7
370
     0
100
AcDbLine
 10
164.9484786638
 20
120.1593523878
 30
0.0
 11
166.6071250787
 21
119.7621313141
 31
0.0
  0
LINE
  5
1B2
330
1F
100
AcDbEntity
  8
0
  6
HIDDEN
 62
     7
370
     0
100
AcDbLine
 10
167.5387228383
 20
123.6521346064
 30
0.0
 11
165.8800764235
 21
124.0493556801
 31
0.0
  0
LINE
  5
1B3
330
1F
100
AcDbEntity
  8
0
  6
HIDDEN
 62
     7
370
     0
100
AcDbLine
 10
165.8800764235
 20
102.4513272622
 30
0.0
 11
167.5387228383
 21
102.8485483359
 31
0.0
  0
LINE
  5
1B4
330
1F
100
AcDbEntity
  8
0
  6
HIDDEN
 62
     7
370
     0
100
AcDbLine
 10
166.6071250787
 20
106.7385516282
 30
0.0
 11
164.9484786638
 21
106.3413305545
 31
0.0
  0
LINE
  5
1B5
330
1F
100
AcDbEntity
  8
0
  6
HIDDEN
 62
     7
370
     0
100
AcDbLine
 10
168.1016865857
 20
103.4595238251
 30
0.0
 11
168.3302646337
 21
104.1069146552
 31
0.0
  0
LINE
  5
1B6
330
1F
100
AcDbEntity
  8
0
  6
HIDDEN
 62
     7
370
     0
100
AcDbLine
 10
167.8828241177
 20
105.9752586508
 30
0.0
 11
167.38578176
 21
106.4488742181
 31
0.0
  0
DIMENSION
  5
1B7
330
1F
100
AcDbEntity
  8
VERMASSUNG
100
AcDbDimension
  2
_D
 10
86.2526276774
 20
145.0003414712
 30
0.0
 11
86.2526276774
 21
113.2503414712
 31
0.0
 70
   160
  1
ISO 40 %%c<>
 71
     2
 42
-1.0
  3
SLDDIMSTYLE0
100
AcDbAlignedDimension
 13
179.0753213425
 23
81.5003414712
 33
0.0
 14
179.0753213425
 24
145.0003414712
 34
0.0
 50
90.0
100
AcDbRotatedDimension
  0
DIMENSION
  5
1C4
330
1F
100
AcDbEntity
  8
VERMASSUNG
100
AcDbDimension
  2
_D_1
 10
206.6253213425
 20
149.9417910533
 30
0.0
 11
193.1503213425
 21
149.9417910533
 31
0.0
 70
   160
  1
<>
 71
     2
 42
-1.0
  3
SLDDIMSTYLE0
100
AcDbAlignedDimension
 13
179.6753213425
 23
143.2608926046
 33
0.0
 14
206.6253213425
 24
125.5503414712
 34
0.0
100
AcDbRotatedDimension
  0
DIMENSION
  5
1CE
330
1F
100
AcDbEntity
  8
VERMASSUNG
100
AcDbDimension
  2
_D_2
 10
206.6253213425
 20
155.9417910533
 30
0.0
 11
183.6253213425
 21
155.9417910533
 31
0.0
 70
   160
  1
<>
 71
     2
 42
-1.0
  3
SLDDIMSTYLE0
100
AcDbAlignedDimension
 13
160.6253213425
 23
135.4753414712
 33
0.0
 14
206.6253213425
 24
125.5503414712
 34
0.0
100
AcDbRotatedDimension
  0
DIMENSION
  5
1D8
330
1F
100
AcDbEntity
  8
VERMASSUNG
100
AcDbDimension
  2
_D_3
 10
206.6253213425
 20
161.9417910533
 30
0.0
 11
149.5003213425
 21
161.9417910533
 31
0.0
 70
   160
  1
<>
 71
     2
 42
-1.0
  3
SLDDIMSTYLE0
100
AcDbAlignedDimension
 13
92.3753213425
 23
124.6574720682
 33
0.0
 14
206.6253213425
 24
125.5503414712
 34
0.0
100
AcDbRotatedDimension
  0
DIMENSION
  5
1E2
330
1F
100
AcDbEntity
  8
VERMASSUNG
100
AcDbDimension
  2
_D_4
 10
213.8278252624
 20
106.2503414712
 30
0.0
 11
213.8278252624
 21
113.2503414712
 31
0.0
 70
   160
  1
%%c<>
 71
     2
 42
-1.0
  3
SLDDIMSTYLE0
100
AcDbAlignedDimension
 13
205.6253213425
 23
120.2503414712
 33
0.0
 14
205.6253213425
 24
106.2503414712
 34
0.0
 50
90.0
100
AcDbRotatedDimension
  0
DIMENSION
  5
1ED
330
1F
100
AcDbEntity
  8
VERMASSUNG
100
AcDbDimension
  2
_D_5
 10
220.1278252624
 20
100.7503414712
 30
0.0
 11
220.1278252624
 21
113.2503414712
 31
0.0
 70
   160
  1
WH %%c<>
 71
     2
 42
-1.0
  3
SLDDIMSTYLE0
100
AcDbAlignedDimension
 13
206.4253213425
 23
125.7503414712
 33
0.0
 14
206.4253213425
 24
100.7503414712
 34
0.0
 50
90.0
100
AcDbRotatedDimension
  0
LINE
  5
1F9
330
1F
100
AcDbEntity
  8
VERMASSUNG
  6
CENTERX2
370
     0
100
AcDbLine
 10
90.3753213425
 20
113.2503414712
 30
0.0
 11
208.8161919269
 21
113.2503414712
 31
0.0
  0
LINE
  5
1FA
330
1F
100
AcDbEntity
  8
0
  6
Continuous
 62
     7
370
    15
100
AcDbLine
 10
252.8335488781
 20
45.0284019662
 30
0.0
 11
252.8335488781
 21
44.5180639588
 31
0.0
  0
LINE
  5
1FB
330
1F
100
AcDbEntity
  8
0
  6
Continuous
 62
     7
370
    15
100
AcDbLine
 10
256.8335488781
 20
44.5180639588
 30
0.0
 11
256.8335488781
 21
45.0284019662
 31
0.0
  0
LINE
  5
1FC
330
1F
100
AcDbEntity
  8
0
  6
Continuous
 62
     7
370
    15
100
AcDbLine
 10
257.9632146645
 20
33.0157535916
 30
0.0
 11
258.0339138502
 21
33.0565806317
 31
0.0
  0
LINE
  5
1FD
330
1F
100
AcDbEntity
  8
0
  6
Continuous
 62
     7
370
    15
100
AcDbLine
 10
262.3819137673
 20
40.5883534828
 30
0.0
 11
262.3819137673
 21
40.6699942939
 31
0.0
  0
LINE
  5
1FE
330
1F
100
AcDbEntity
  8
0
  6
Continuous
 62
     7
370
    15
100
AcDbLine
 10
261.0872424244
 20
43.5315243344
 30
0.0
 11
252.6903493978
 21
48.3789474983
 31
0.0
  0
LINE
  5
1FF
330
1F
100
AcDbEntity
  8
0
  6
Continuous
 62
     7
370
    15
100
AcDbLine
 10
246.4408573188
 20
37.5533367186
 30
0.0
 11
254.8377503454
 21
32.7059135546
 31
0.0
  0
SPLINE
  5
200
330
1F
100
AcDbEntity
  8
0
  6
Continuous
 62
     7
370
    15
100
AcDbSpline
210
0.0
220
0.0
230
1.0
 70
     8
 71
     3
 72
    32
 73
    28
 74
     0
 42
0.000000001
 43
0.00000001
 40
0.0
 40
0.0
 40
0.0
 40
0.0
 40
0.0092352682439236
 40
0.0506640818456872
 40
0.0922010330988231
 40
0.1339019747851768
 40
0.1757527206206528
 40
0.2177206575293966
 40
0.2597682543354048
 40
0.3018621230602249
 40
0.3439768613144205
 40
0.3860929834928952
 40
0.4282001903110031
 40
0.4702943574932665
 40
0.5123742498815564
 40
0.5544404422795196
 40
0.5964945930988504
 40
0.6385389818944548
 40
0.6805762292239088
 40
0.722609135994368
 40
0.7646405975001794
 40
0.8066734011849209
 40
0.84870969916554
 40
0.8907524874638919
 40
0.9328047537781796
 40
0.9748694214519285
 40
1.0
 40
1.0
 40
1.0
 40
1.0
 10
249.5514447434347
 20
61.03139480314902
 30
0.0
 10
249.4966042657329
 20
61.04540606606612
 30
0.0
 10
249.1957529664145
 20
61.12227094453466
 30
0.0
 10
248.6215053728506
 20
61.19822308343615
 30
0.0
 10
247.8185170277525
 20
61.22174932519854
 30
0.0
 10
246.9841304527869
 20
61.14941782076652
 30
0.0
 10
246.1251886671132
 20
60.98587932328849
 30
0.0
 10
245.2467283350728
 20
60.73076709942896
 30
0.0
 10
244.3547137011121
 20
60.38600529856808
 30
0.0
 10
243.4550186669464
 20
59.95382075390626
 30
0.0
 10
242.5535538959629
 20
59.43719625003874
 30
0.0
 10
241.6561269725844
 20
58.83964405271018
 30
0.0
 10
240.7684241626399
 20
58.16517208290503
 30
0.0
 10
239.895983454054
 20
57.41821082845318
 30
0.0
 10
239.0442076450488
 20
56.60359371419213
 30
0.0
 10
238.2183610916316
 20
55.72653986545042
 30
0.0
 10
237.4235487164439
 20
54.79262863271703
 30
0.0
 10
236.6646905759387
 20
53.80777106977344
 30
0.0
 10
235.9464959926535
 20
52.77817845280334
 30
0.0
 10
235.2734308600745
 20
51.71032592252169
 30
0.0
 10
234.6497094397184
 20
50.61091986821399
 30
0.0
 10
234.0792030913277
 20
49.48684736084088
 30
0.0
 10
233.5656653081273
 20
48.34518571412493
 30
0.0
 10
233.111760968969
 20
47.19293492032912
 30
0.0
 10
232.722589168498
 20
46.03779213505907
 30
0.0
 10
232.4367887341123
 20
45.03985643795349
 30
0.0
 10
232.3001106690052
 20
44.43332693006505
 30
0.0
 10
232.2489939748326
 20
44.20648889766322
 30
0.0
  0
SPLINE
  5
201
330
1F
100
AcDbEntity
  8
0
  6
Continuous
 62
     7
370
    15
100
AcDbSpline
210
0.0
220
0.0
230
1.0
 70
     8
 71
     3
 72
    23
 73
    19
 74
     0
 42
0.000000001
 43
0.00000001
 40
0.0
 40
0.0
 40
0.0
 40
0.0
 40
0.0387788000371095
 40
0.1096394671616491
 40
0.175558730526885
 40
0.2458759060950308
 40
0.3139745788119533
 40
0.3816004207022237
 40
0.4492952939681891
 40
0.5173153531385166
 40
0.5856621876593769
 40
0.6542385093511522
 40
0.7229147869945636
 40
0.7915365152286752
 40
0.8599311442759257
 40
0.9279607133983794
 40
0.9918889041697189
 40
1.0
 40
1.0
 40
1.0
 40
1.0
 10
255.9505374818143
 20
35.25104171059615
 30
0.0
 10
255.9098518876844
 20
35.27120860632814
 30
0.0
 10
255.7948213334307
 20
35.32822655686412
 30
0.0
 10
255.6474174647306
 20
35.49433796405869
 30
0.0
 10
255.4958618290982
 20
35.75873196909675
 30
0.0
 10
255.3912041214732
 20
36.10420359626799
 30
0.0
 10
255.3428014157101
 20
36.52428559379855
 30
0.0
 10
255.3580935172739
 20
36.99416734024863
 30
0.0
 10
255.4384781017096
 20
37.502067925366
 30
0.0
 10
255.5837284062321
 20
38.03377834556127
 30
0.0
 10
255.7912281467903
 20
38.57369759595776
 30
0.0
 10
256.055846265162
 20
39.10544174063889
 30
0.0
 10
256.3700749624321
 20
39.61271665806363
 30
0.0
 10
256.7242423707436
 20
40.07995507430863
 30
0.0
 10
257.106891237359
 20
40.49324376467109
 30
0.0
 10
257.4978001285577
 20
40.83399854897176
 30
0.0
 10
257.7740881112684
 20
41.02423508367802
 30
0.0
 10
257.9138924153112
 20
41.10594000745634
 30
0.0
 10
257.9296333555824
 20
41.11513938321136
 30
0.0
  0
SPLINE
  5
202
330
1F
100
AcDbEntity
  8
0
  6
Continuous
 62
     7
370
    15
100
AcDbSpline
210
0.0
220
0.0
230
1.0
 70
     8
 71
     3
 72
    13
 73
     9
 74
     0
 42
0.000000001
 43
0.00000001
 40
0.0
 40
0.0
 40
0.0
 40
0.0
 40
0.104494188214338
 40
0.3039177342178936
 40
0.5031670493674375
 40
0.7047629036785209
 40
0.9152734549776487
 40
1.0
 40
1.0
 40
1.0
 40
1.0
 10
257.9296333555824
 20
41.11513938321136
 30
0.0
 10
257.9971784608747
 20
41.1521749443853
 30
0.0
 10
258.1936310646865
 20
41.25989159379726
 30
0.0
 10
258.5051034813409
 20
41.37735677035793
 30
0.0
 10
258.8417054151112
 20
41.44197586248215
 30
0.0
 10
259.131742600793
 20
41.42746466974094
 30
0.0
 10
259.3306638574269
 20
41.37835946145074
 30
0.0
 10
259.4243047125784
 20
41.30820602794077
 30
0.0
 10
259.4511775758764
 20
41.28807353742108
 30
0.0
  0
LINE
  5
203
330
1F
100
AcDbEntity
  8
0
  6
Continuous
 62
     7
370
    15
100
AcDbLine
 10
242.0168621522
 20
59.0659218098
 30
0.0
 11
220.7050191421
 21
66.7458652584
 31
0.0
  0
LINE
  5
204
330
1F
100
AcDbEntity
  8
0
  6
Continuous
 62
     7
370
    15
100
AcDbLine
 10
214.5402373929
 20
56.0669929732
 30
0.0
 11
234.8364745581
 21
38.9290180975
 31
0.0
  0
SPLINE
  5
205
330
1F
100
AcDbEntity
  8
0
  6
Continuous
 62
     7
370
    15
100
AcDbSpline
210
0.0
220
0.0
230
1.0
 70
     8
 71
     3
 72
    19
 73
    15
 74
     0
 42
0.000000001
 43
0.00000001
 40
0.0
 40
0.0
 40
0.0
 40
0.0
 40
0.0178707764941006
 40
0.1077838141517884
 40
0.1980449275994297
 40
0.2886025878761131
 40
0.3793786056040043
 40
0.4702940214264595
 40
0.5612836226093584
 40
0.6522998658357899
 40
0.7433059347943042
 40
0.8342879657383626
 40
0.9252400646854192
 40
1.0
 40
1.0
 40
1.0
 40
1.0
 10
242.9722089369445
 20
29.20134401368939
 30
0.0
 10
243.0241639603832
 20
29.19601679757065
 30
0.0
 10
243.3375197114568
 20
29.16388681864787
 30
0.0
 10
243.943766649789
 20
29.19519067500989
 30
0.0
 10
244.7869604907761
 20
29.29992458017052
 30
0.0
 10
245.6556116999122
 20
29.50469321059305
 30
0.0
 10
246.5404337194063
 20
29.79799039373187
 30
0.0
 10
247.4365088514911
 20
30.18069600812114
 30
0.0
 10
248.33768349249
 20
30.64942031541293
 30
0.0
 10
249.2380842431645
 20
31.2013156606052
 30
0.0
 10
250.1321940806615
 20
31.83198769586448
 30
0.0
 10
251.0134197130262
 20
32.53951240969426
 30
0.0
 10
251.8285823186415
 20
33.2651666732666
 30
0.0
 10
252.3363849973344
 20
33.78372482839689
 30
0.0
 10
252.5654769614806
 20
34.01766905765655
 30
0.0
  0
SPLINE
  5
206
330
1F
100
AcDbEntity
  8
0
  6
Continuous
 62
     7
370
    15
100
AcDbSpline
210
0.0
220
0.0
230
1.0
 70
     8
 71
     3
 72
    10
 73
     6
 74
     0
 42
0.000000001
 43
0.00000001
 40
0.0
 40
0.0
 40
0.0
 40
0.0
 40
0.0046323627888183
 40
0.8108995019266267
 40
0.9999999999999999
 40
0.9999999999999999
 40
0.9999999999999999
 40
0.9999999999999999
 10
258.8188545741904
 20
44.84103676653532
 30
0.0
 10
258.8195490479886
 20
44.84324650468766
 30
0.0
 10
258.9411173453674
 20
45.23006326512267
 30
0.0
 10
259.055606073417
 20
45.70463870890229
 30
0.0
 10
259.1552335693083
 20
46.17185664605261
 30
0.0
 10
259.1741608564639
 20
46.26061896996288
 30
0.0
  0
LINE
  5
207
330
1F
100
AcDbEntity
  8
0
  6
Continuous
 62
     7
370
    15
100
AcDbLine
 10
239.0024960769
 20
30.7337196235
 30
0.0
 11
240.3559562119
 21
29.9523837188
 31
0.0
  0
LINE
  5
208
330
1F
100
AcDbEntity
  8
0
  6
Continuous
 62
     7
370
    15
100
AcDbLine
 10
235.1763990397
 20
32.9424784283
 30
0.0
 11
236.5121815051
 21
32.171347625
 31
0.0
  0
SPLINE
  5
209
330
1F
100
AcDbEntity
  8
0
  6
Continuous
 62
     7
370
    15
100
AcDbSpline
210
0.0
220
0.0
230
1.0
 70
     8
 71
     3
 72
    11
 73
     7
 74
     0
 42
0.000000001
 43
0.00000001
 40
0.0
 40
0.0
 40
0.0
 40
0.0
 40
0.1180303235717174
 40
0.4827379440339454
 40
0.8468841580017388
 40
0.9999999999999999
 40
0.9999999999999999
 40
0.9999999999999999
 40
0.9999999999999999
 10
232.2564115949333
 20
36.93962795349736
 30
0.0
 10
232.2837217091717
 20
36.84674010763002
 30
0.0
 10
232.3954186697479
 20
36.46683360239623
 30
0.0
 10
232.6446673458815
 20
35.84775292486188
 30
0.0
 10
232.9412536248775
 20
35.23830430077371
 30
0.0
 10
233.1570932767225
 20
34.92716023945969
 30
0.0
 10
233.2209844314045
 20
34.83505782370858
 30
0.0
  0
SPLINE
  5
20A
330
1F
100
AcDbEntity
  8
0
  6
Continuous
 62
     7
370
    15
100
AcDbSpline
210
0.0
220
0.0
230
1.0
 70
     8
 71
     3
 72
    12
 73
     8
 74
     0
 42
0.000000001
 43
0.00000001
 40
0.0
 40
0.0
 40
0.0
 40
0.0
 40
0.0933264148550376
 40
0.3301955762439064
 40
0.5666966603693856
 40
0.8024483873783463
 40
1.0
 40
1.0
 40
1.0
 40
1.0
 10
259.163468392351
 20
53.40720521376982
 30
0.0
 10
259.130115256177
 20
53.52018384019903
 30
0.0
 10
259.0121094586154
 20
53.919910356159
 30
0.0
 10
258.7584387808013
 20
54.56128388681556
 30
0.0
 10
258.3764750989562
 20
55.29883548191025
 30
0.0
 10
257.9577531710472
 20
55.93429241183992
 30
0.0
 10
257.6366634419278
 20
56.28314685390414
 30
0.0
 10
257.4902722467022
 20
56.44219653410916
 30
0.0
  0
SPLINE
  5
20B
330
1F
100
AcDbEntity
  8
0
  6
Continuous
 62
     7
370
    15
100
AcDbSpline
210
0.0
220
0.0
230
1.0
 70
     8
 71
     3
 72
    26
 73
    22
 74
     0
 42
0.000000001
 43
0.00000001
 40
0.0
 40
0.0
 40
0.0
 40
0.0
 40
0.0073241588370225
 40
0.0609613871783108
 40
0.1150337756070772
 40
0.170127527737143
 40
0.226384543038003
 40
0.2835519853231651
 40
0.3412214298063942
 40
0.3990421664729808
 40
0.4568009735674776
 40
0.5144522732586964
 40
0.5720037625607503
 40
0.6294873298922916
 40
0.6869448217878166
 40
0.7444215680235347
 40
0.801950288307656
 40
0.8595796760941382
 40
0.9173570495096339
 40
0.9753217913859848
 40
1.0
 40
1.0
 40
1.0
 40
1.0
 10
220.7615201167007
 20
66.71839818895795
 30
0.0
 10
220.741467492047
 20
66.72825012956754
 30
0.0
 10
220.5745628900771
 20
66.8102510772973
 30
0.0
 10
220.2196379328767
 20
66.87810831683359
 30
0.0
 10
219.7066635522122
 20
66.91444910437508
 30
0.0
 10
219.1637286778065
 20
66.8501797218319
 30
0.0
 10
218.6019253667147
 20
66.69636809048299
 30
0.0
 10
218.0278740574776
 20
66.4507967846266
 30
0.0
 10
217.4521733828099
 20
66.1179757908576
 30
0.0
 10
216.8853661230117
 20
65.70401715215702
 30
0.0
 10
216.3373074078409
 20
65.21701541175524
 30
0.0
 10
215.8167110250598
 20
64.66580181463104
 30
0.0
 10
215.3313894633041
 20
64.05965027808915
 30
0.0
 10
214.8885807396186
 20
63.40834921390037
 30
0.0
 10
214.4949774165704
 20
62.72215844981221
 30
0.0
 10
214.1566722676885
 20
62.01174699780579
 30
0.0
 10
213.8791771945421
 20
61.28806431347738
 30
0.0
 10
213.6668938871082
 20
60.56190210476628
 30
0.0
 10
213.5249342515771
 20
59.84464897364202
 30
0.0
 10
213.4663552570569
 20
59.27942373047837
 30
0.0
 10
213.4616584142456
 20
58.95970630120566
 30
0.0
 10
213.4602558788081
 20
58.86423471687435
 30
0.0
  0
SPLINE
  5
20C
330
1F
100
AcDbEntity
  8
0
  6
Continuous
 62
     7
370
    15
100
AcDbSpline
210
0.0
220
0.0
230
1.0
 70
     8
 71
     3
 72
    13
 73
     9
 74
     0
 42
0.000000001
 43
0.00000001
 40
0.0
 40
0.0
 40
0.0
 40
0.0
 40
0.102564578780943
 40
0.2964611411165138
 40
0.490384240326765
 40
0.6827276568378037
 40
0.8717653751966684
 40
0.9999999999999999
 40
0.9999999999999999
 40
0.9999999999999999
 40
0.9999999999999999
 10
213.4602558788081
 20
58.86423471687435
 30
0.0
 10
213.4624097285121
 20
58.7468554411386
 30
0.0
 10
213.4686353938306
 20
58.40757267469371
 30
0.0
 10
213.5384669569668
 20
57.87686495063426
 30
0.0
 10
213.6952144155562
 20
57.2963794308053
 30
0.0
 10
213.9330801734393
 20
56.78302661026645
 30
0.0
 10
214.2042413083446
 20
56.37820933075457
 30
0.0
 10
214.4235875128067
 20
56.18417844381442
 30
0.0
 10
214.512242508546
 20
56.10575535234973
 30
0.0
  0
ARC
  5
20D
330
1F
100
AcDbEntity
  8
0
  6
Continuous
 62
     7
370
    15
100
AcDbCircle
 10
243.1507812988
 20
52.9636533875
 30
0.0
 40
1.08323558096265
100
AcDbArc
 50
126.0728109075
 51
148.9778286101
  0
LWPOLYLINE
  5
20E
330
1F
100
AcDbEntity
  8
0
  6
Continuous
 62
     7
370
    15
100
AcDbPolyline
 90
        3
 70
   128
 43
0.0
 10
242.2804514762
 20
53.5861512684
 10
242.3056967195
 20
53.6223124619
 10
242.4872498124
 20
53.8115760609
  0
LWPOLYLINE
  5
20F
330
1F
100
AcDbEntity
  8
0
  6
Continuous
 62
     7
370
    15
100
AcDbPolyline
 90
       27
 70
   128
 43
0.0
 10
253.1992160152
 20
45.6939013071
 10
252.9708228035
 20
45.448773496
 10
252.8506844605
 20
45.1792152195
 10
252.84578299
 20
44.900892225
 10
252.9564032478
 20
44.6299796331
 10
253.1761163864
 20
44.382221899
 10
253.4921534769
 20
44.1720178017
 10
253.8861475924
 20
44.0115836392
 10
254.3352012269
 20
43.9102432618
 10
254.8132170155
 20
43.873886204
 10
255.2924144181
 20
43.9046254058
 10
255.7449442234
 20
44.0006744166
 10
256.144507044
 20
44.1564512169
 10
256.4678817411
 20
44.3629026253
 10
256.6962749528
 20
44.6080304364
 10
256.8164132958
 20
44.8775887129
 10
256.8213147663
 20
45.1559117074
 10
256.7106945085
 20
45.4268242993
 10
256.4909813699
 20
45.6745820333
 10
256.1749442794
 20
45.8847861307
 10
255.7809501639
 20
46.0452202932
 10
255.3318965294
 20
46.1465606706
 10
254.8538807407
 20
46.1829177283
 10
254.3746833382
 20
46.1521785265
 10
253.9221535329
 20
46.0561295158
 10
253.5225907123
 20
45.9003527155
 10
253.1992160152
 20
45.6939013071
  0
LINE
  5
210
330
1F
100
AcDbEntity
  8
0
  6
Continuous
 62
     7
370
    15
100
AcDbLine
 10
255.9835010381
 20
44.9680115923
 30
0.0
 11
255.3179295812
 21
44.4232929991
 31
0.0
  0
LINE
  5
211
330
1F
100
AcDbEntity
  8
0
  6
Continuous
 62
     7
370
    15
100
AcDbLine
 10
255.4991203351
 20
45.5731205594
 30
0.0
 11
255.9835010381
 21
44.9680115923
 31
0.0
  0
LINE
  5
212
330
1F
100
AcDbEntity
  8
0
  6
Continuous
 62
     7
370
    15
100
AcDbLine
 10
254.3491681751
 20
45.6335109332
 30
0.0
 11
255.4991203351
 21
45.5731205594
 31
0.0
  0
LINE
  5
213
330
1F
100
AcDbEntity
  8
0
  6
Continuous
 62
     7
370
    15
100
AcDbLine
 10
253.6835967182
 20
45.08879234
 30
0.0
 11
254.3491681751
 21
45.6335109332
 31
0.0
  0
LINE
  5
214
330
1F
100
AcDbEntity
  8
0
  6
Continuous
 62
     7
370
    15
100
AcDbLine
 10
254.1679774212
 20
44.483683373
 30
0.0
 11
253.6835967182
 21
45.08879234
 31
0.0
  0
LINE
  5
215
330
1F
100
AcDbEntity
  8
0
  6
Continuous
 62
     7
370
    15
100
AcDbLine
 10
255.3179295812
 20
44.4232929991
 30
0.0
 11
254.1679774212
 21
44.483683373
 31
0.0
  0
LINE
  5
216
330
1F
100
AcDbEntity
  8
0
  6
Continuous
 62
     7
370
    15
100
AcDbLine
 10
255.4991203351
 20
44.5715835719
 30
0.0
 11
255.4991203351
 21
45.5731205594
 31
0.0
  0
LINE
  5
217
330
1F
100
AcDbEntity
  8
0
  6
Continuous
 62
     7
370
    15
100
AcDbLine
 10
254.3491681751
 20
44.4741680403
 30
0.0
 11
254.3491681751
 21
45.6335109332
 31
0.0
  0
SPLINE
  5
218
330
1F
100
AcDbEntity
  8
0
  6
Continuous
 62
     7
370
    15
100
AcDbSpline
210
0.0
220
0.0
230
1.0
 70
     8
 71
     3
 72
    12
 73
     8
 74
     0
 42
0.000000001
 43
0.00000001
 40
0.0
 40
0.0
 40
0.0
 40
0.0
 40
0.250000000000001
 40
0.250000000000001
 40
0.500000000000002
 40
0.500000000000002
 40
1.0
 40
1.0
 40
1.0
 40
1.0
 10
237.5277848652144
 20
41.1602851752466
 30
0.0
 10
237.5615640314867
 20
41.14078487763308
 30
0.0
 10
237.5998887279622
 20
41.11394512905592
 30
0.0
 10
237.6741118520748
 20
41.05554462573327
 30
0.0
 10
237.7094952165695
 20
41.02455496725236
 30
0.0
 10
237.8053051749545
 20
40.93381561423162
 30
0.0
 10
237.8543089331087
 20
40.87792148551409
 30
0.0
 10
237.8881179907235
 20
40.83066162174742
 30
0.0
  0
SPLINE
  5
219
330
1F
100
AcDbEntity
  8
0
  6
Continuous
 62
     7
370
    15
100
AcDbSpline
210
0.0
220
0.0
230
1.0
 70
     8
 71
     3
 72
    12
 73
     8
 74
     0
 42
0.000000001
 43
0.00000001
 40
0.0
 40
0.0
 40
0.0
 40
0.0
 40
0.5000000000000011
 40
0.5000000000000011
 40
0.7500000000000006
 40
0.7500000000000006
 40
1.0
 40
1.0
 40
1.0
 40
1.0
 10
254.9926479039146
 20
57.60046314606897
 30
0.0
 10
254.9926479039146
 20
57.67188217779364
 30
0.0
 10
254.9750833732535
 20
57.75441193698684
 30
0.0
 10
254.9199578387636
 20
57.87335665301972
 30
0.0
 10
254.8966653650068
 20
57.91198954024431
 30
0.0
 10
254.8426969759494
 20
57.97855205152136
 30
0.0
 10
254.8118494751963
 20
58.00647308977402
 30
0.0
 10
254.7805158695586
 20
58.02456159528397
 30
0.0
  0
LWPOLYLINE
  5
21A
330
1F
100
AcDbEntity
  8
0
  6
Continuous
 62
     7
370
    15
100
AcDbPolyline
 90
       12
 70
   128
 43
0.0
 10
243.4914912571
 20
54.8278257063
 10
244.4043287343
 20
55.6465252717
 10
245.3352139485
 20
56.3857423061
 10
246.2775195922
 20
57.0402140573
 10
247.2245370524
 20
57.605281105
 10
248.1695241703
 20
58.0769205333
 10
249.1057532425
 20
58.4517745713
 10
250.0265589168
 20
58.7271744981
 10
250.9253856458
 20
58.9011596423
 10
251.7958343584
 20
58.9724913409
 10
252.6317080166
 20
58.9406617581
 10
253.4270557346
 20
58.8058975
  0
LINE
  5
21B
330
1F
100
AcDbEntity
  8
0
  6
Continuous
 62
     7
370
    15
100
AcDbLine
 10
254.7805158696
 20
58.0245615953
 30
0.0
 11
253.4270557346
 21
58.8058975
 31
0.0
  0
LINE
  5
21C
330
1F
100
AcDbEntity
  8
0
  6
Continuous
 62
     7
370
    15
100
AcDbLine
 10
236.1743247303
 20
41.9416210799
 30
0.0
 11
237.5277848652
 21
41.1602851752
 31
0.0
  0
ARC
  5
21D
330
1F
100
AcDbEntity
  8
0
  6
Continuous
 62
     7
370
    15
100
AcDbCircle
 10
261.7902721856
 20
35.9301075159
 30
0.0
 40
26.31188057447564
100
AcDbArc
 50
136.4697995782
 51
166.7929035612
  0
SPLINE
  5
21E
330
1F
100
AcDbEntity
  8
0
  6
Continuous
 62
     7
370
    15
100
AcDbSpline
210
0.0
220
0.0
230
1.0
 70
     8
 71
     3
 72
    12
 73
     8
 74
     0
 42
0.000000001
 43
0.00000001
 40
0.0
 40
0.0
 40
0.0
 40
0.0
 40
0.2499999999999997
 40
0.2499999999999997
 40
0.4999999999999993
 40
0.4999999999999993
 40
1.0
 40
1.0
 40
1.0
 40
1.0
 10
242.7138577408953
 20
54.05206853838111
 30
0.0
 10
242.8131724236152
 20
54.08541662267693
 30
0.0
 10
242.9069975633067
 20
54.12929882418145
 30
0.0
 10
243.0839906682123
 20
54.23742909297718
 30
0.0
 10
243.1638022361333
 20
54.29983458315836
 30
0.0
 10
243.3719860973537
 20
54.50723216094813
 30
0.0
 10
243.4636959309397
 20
54.66864269874191
 30
0.0
 10
243.4914912571135
 20
54.827825706281
 30
0.0
  0
LINE
  5
21F
330
1F
100
AcDbEntity
  8
0
  6
Continuous
 62
     7
370
    15
100
AcDbLine
 10
259.0099117948
 20
52.9294142536
 30
0.0
 11
259.1152752933
 21
53.1119091857
 31
0.0
  0
LINE
  5
220
330
1F
100
AcDbEntity
  8
0
  6
Continuous
 62
     7
370
    15
100
AcDbLine
 10
257.8387526982
 20
52.2533184982
 30
0.0
 11
259.0099117948
 21
52.9294142536
 31
0.0
  0
ARC
  5
221
330
1F
100
AcDbEntity
  8
0
  6
Continuous
 62
     7
370
    15
100
AcDbCircle
 10
258.5012401543
 20
51.2176339221
 30
0.0
 40
1.22944384605776
100
AcDbArc
 50
122.60547834
 51
177.3945215143
  0
LINE
  5
222
330
1F
100
AcDbEntity
  8
0
  6
Continuous
 62
     7
370
    15
100
AcDbLine
 10
257.2730672732
 20
46.0068343673
 30
0.0
 11
257.2730672732
 21
51.2735226039
 31
0.0
  0
ARC
  5
223
330
1F
100
AcDbEntity
  8
0
  6
Continuous
 62
     7
370
    15
100
AcDbCircle
 10
257.6179267672
 20
45.9508926098
 30
0.0
 40
0.3493673579427906
100
AcDbArc
 50
170.7859630095
 51
309.2032852357
  0
LINE
  5
224
330
1F
100
AcDbEntity
  8
0
  6
Continuous
 62
     7
370
    15
100
AcDbLine
 10
259.0099117948
 20
46.3562607179
 30
0.0
 11
257.8387526982
 21
45.6801649625
 31
0.0
  0
LINE
  5
225
330
1F
100
AcDbEntity
  8
0
  6
Continuous
 62
     7
370
    15
100
AcDbLine
 10
259.1152752933
 20
46.2954158917
 30
0.0
 11
259.0099117948
 21
46.3562607179
 31
0.0
  0
LINE
  5
226
330
1F
100
AcDbEntity
  8
0
  6
Continuous
 62
     7
370
    15
100
AcDbLine
 10
237.9360131671
 20
34.1905579943
 30
0.0
 11
237.8881179907
 21
34.0683093091
 31
0.0
  0
LINE
  5
227
330
1F
100
AcDbEntity
  8
0
  6
Continuous
 62
     7
370
    15
100
AcDbLine
 10
237.9360131671
 20
34.1905579943
 30
0.0
 11
239.9489511342
 21
35.3526023479
 31
0.0
  0
ARC
  5
228
330
1F
100
AcDbEntity
  8
0
  6
Continuous
 62
     7
370
    15
100
AcDbCircle
 10
239.286463678
 20
36.388286924
 30
0.0
 40
1.229443846057681
100
AcDbArc
 50
302.60547834
 51
357.3945215143
  0
LINE
  5
229
330
1F
100
AcDbEntity
  8
0
  6
Continuous
 62
     7
370
    15
100
AcDbLine
 10
240.5146365591
 20
41.5990864788
 30
0.0
 11
240.5146365591
 21
36.3323982422
 31
0.0
  0
ARC
  5
22A
330
1F
100
AcDbEntity
  8
0
  6
Continuous
 62
     7
370
    15
100
AcDbCircle
 10
240.1697770652
 20
41.6550282364
 30
0.0
 40
0.3493673579427946
100
AcDbArc
 50
350.7859630095
 51
129.2032852357
  0
LINE
  5
22B
330
1F
100
AcDbEntity
  8
0
  6
Continuous
 62
     7
370
    15
100
AcDbLine
 10
239.9489511342
 20
41.9257558836
 30
0.0
 11
237.9360131671
 21
40.76371153
 31
0.0
  0
LINE
  5
22C
330
1F
100
AcDbEntity
  8
0
  6
Continuous
 62
     7
370
    15
100
AcDbLine
 10
237.8881179907
 20
40.8306616217
 30
0.0
 11
237.9360131671
 21
40.76371153
 31
0.0
  0
LINE
  5
22D
330
1F
100
AcDbEntity
  8
0
  6
Continuous
 62
     7
370
    15
100
AcDbLine
 10
254.9926479039
 20
54.8154823543
 30
0.0
 11
254.9926479039
 21
57.6004631461
 31
0.0
  0
LINE
  5
22E
330
1F
100
AcDbEntity
  8
0
  6
Continuous
 62
     7
370
    15
100
AcDbLine
 10
257.404381371
 20
56.2077464497
 30
0.0
 11
254.9926479039
 21
54.8154823543
 31
0.0
  0
SPLINE
  5
22F
330
1F
100
AcDbEntity
  8
0
  6
Continuous
 62
     7
370
    15
100
AcDbSpline
210
0.0
220
0.0
230
1.0
 70
     8
 71
     3
 72
     8
 73
     4
 74
     0
 42
0.000000001
 43
0.00000001
 40
0.0
 40
0.0
 40
0.0
 40
0.0
 40
1.0
 40
1.0
 40
1.0
 40
1.0
 10
235.1841734449769
 20
43.20000026411628
 30
0.0
 10
234.8034755789764
 20
43.13703342644568
 30
0.0
 10
234.4226376067365
 20
43.07433330431065
 30
0.0
 10
234.0416969559969
 20
43.01185242563761
 30
0.0
  0
SPLINE
  5
230
330
1F
100
AcDbEntity
  8
0
  6
Continuous
 62
     7
370
    15
100
AcDbSpline
210
0.0
220
0.0
230
1.0
 70
     8
 71
     3
 72
     8
 73
     4
 74
     0
 42
0.000000001
 43
0.00000001
 40
0.0
 40
0.0
 40
0.0
 40
0.0
 40
0.0011901715795577
 40
0.0011901715795577
 40
0.0011901715795577
 40
0.0011901715795577
 10
233.684010158439
 20
43.37924908149321
 30
0.0
 10
233.8036566659339
 20
43.25663417173774
 30
0.0
 10
233.9228998400819
 20
43.13416213124203
 30
0.0
 10
234.0416969559969
 20
43.01185242563761
 30
0.0
  0
LWPOLYLINE
  5
231
330
1F
100
AcDbEntity
  8
0
  6
Continuous
 62
     7
370
    15
100
AcDbPolyline
 90
       23
 70
   128
 43
0.0
 10
233.6840101584
 20
43.3792490815
 10
233.998492486
 20
44.6191696737
 10
234.3908451546
 20
45.8687822242
 10
234.8581446193
 20
47.1187754707
 10
235.3969088826
 20
48.3598353143
 10
236.0031234397
 20
49.5827142218
 10
236.6722711925
 20
50.7783001316
 10
237.3993661071
 20
51.9376843513
 10
238.1789903673
 20
53.0522279388
 10
239.0053347435
 20
54.1136260738
 10
239.87224188
 20
55.1139699398
 10
240.7732521747
 20
56.0458056551
 10
241.7016519121
 20
56.902189814
 10
242.6505232892
 20
57.6767412248
 10
243.6127959623
 20
58.3636884574
 10
244.5812997304
 20
58.9579128486
 10
245.5488179625
 20
59.4549866427
 10
246.5081413712
 20
59.851205984
 10
247.4521217314
 20
60.1436185156
 10
248.3737251439
 20
60.3300453784
 10
249.2660844473
 20
60.4090974463
 10
250.1225503873
 20
60.3801856771
 10
250.9367411628
 20
60.2435255015
  0
SPLINE
  5
232
330
1F
100
AcDbEntity
  8
0
  6
Continuous
 62
     7
370
    15
100
AcDbSpline
210
0.0
220
0.0
230
1.0
 70
     8
 71
     3
 72
     9
 73
     5
 74
     0
 42
0.000000001
 43
0.00000001
 40
0.0
 40
0.0
 40
0.0
 40
0.0
 40
0.003105750263304
 40
1.0
 40
1.0
 40
1.0
 40
1.0
 10
251.37079611705
 20
58.90921363443381
 30
0.0
 10
251.3703568454652
 20
58.91059447254668
 30
0.0
 10
251.2289186912074
 20
59.35520140993628
 30
0.0
 10
251.082602716557
 20
59.80005425665634
 30
0.0
 10
250.9367411627832
 20
60.24352550153056
 30
0.0
  0
LWPOLYLINE
  5
233
330
1F
100
AcDbEntity
  8
0
  6
Continuous
 62
     7
370
    15
100
AcDbPolyline
 90
       22
 70
   128
 43
0.0
 10
235.184173445
 20
43.2000002641
 10
235.4790018309
 20
44.3753220767
 10
235.8506922905
 20
45.5604376341
 10
236.2962501503
 20
46.7457985768
 10
236.8120855946
 20
47.9218545688
 10
237.3940425881
 20
49.0791302427
 10
238.0374323607
 20
50.2083015425
 10
238.7370711843
 20
51.3002708464
 10
239.4873221379
 20
52.3462402653
 10
240.2821405236
 20
53.3377825268
 10
241.1151225679
 20
54.2669088724
 10
241.9795570166
 20
55.126133423
 10
242.8684792065
 20
55.9085334908
 10
243.7747271793
 20
56.6078053558
 10
244.6909993843
 20
57.2183150534
 10
245.6099135067
 20
57.7351437671
 10
246.5240659459
 20
58.1541274591
 10
247.4260914658
 20
58.4718904188
 10
248.3087225359
 20
58.6858724616
 10
249.1648478844
 20
58.7943495551
 10
249.9875697939
 20
58.7964477102
 10
250.2329515475
 20
58.7756669872
  0
LWPOLYLINE
  5
234
330
1F
100
AcDbEntity
  8
0
  6
Continuous
 62
     7
370
    15
100
AcDbPolyline
 90
       47
 70
   128
 43
0.0
 10
258.033207063
 20
43.099624532
 10
257.4410582432
 20
42.7110116677
 10
256.8599400355
 20
42.236092672
 10
256.3006775726
 20
41.6837143872
 10
255.7736888561
 20
41.0641665756
 10
255.2887906885
 20
40.3889902407
 10
254.8550158054
 20
39.6707626402
 10
254.4804446121
 20
38.9228629953
 10
254.1720546611
 20
38.1592232613
 10
253.9355906738
 20
37.3940686016
 10
253.7754575268
 20
36.6416523997
 10
253.6946381978
 20
35.915990746
 10
253.6946381978
 20
35.2306013439
 10
253.7754575268
 20
34.5982517013
 10
253.9355906738
 20
34.0307212956
 10
254.1720546611
 20
33.5385821443
 10
254.4804446121
 20
33.1310018687
 10
254.8550158054
 20
32.8155729183
 10
255.2887906885
 20
32.5981711374
 10
255.7736888561
 20
32.48284631
 10
256.3006775726
 20
32.4717467193
 10
256.8599400355
 20
32.5650791298
 10
257.4410582432
 20
32.7611049353
 10
258.033207063
 20
33.0561725458
 10
258.6253558828
 20
33.4447854101
 10
259.2064740905
 20
33.9197044058
 10
259.7657365534
 20
34.4720826906
 10
260.29272527
 20
35.0916305022
 10
260.7776234375
 20
35.7668068371
 10
261.2113983206
 20
36.4850344376
 10
261.585969514
 20
37.2329340825
 10
261.8943594649
 20
37.9965738165
 10
262.1308234522
 20
38.7617284762
 10
262.2909565992
 20
39.5141446781
 10
262.3717759283
 20
40.2398063318
 10
262.3717759283
 20
40.9251957339
 10
262.2909565992
 20
41.5575453765
 10
262.1308234522
 20
42.1250757822
 10
261.8943594649
 20
42.6172149335
 10
261.585969514
 20
43.0247952091
 10
261.2113983206
 20
43.3402241595
 10
260.7776234375
 20
43.5576259404
 10
260.29272527
 20
43.6729507678
 10
259.7657365534
 20
43.6840503585
 10
259.2064740905
 20
43.590717948
 10
258.6253558828
 20
43.3946921425
 10
258.033207063
 20
43.099624532
  0
LWPOLYLINE
  5
235
330
1F
100
AcDbEntity
  8
0
  6
Continuous
 62
     7
370
    15
100
AcDbPolyline
 90
       25
 70
   128
 43
0.0
 10
257.9624963849
 20
43.2220990188
 10
257.3734456975
 20
42.836512326
 10
256.7949066335
 20
42.3667364985
 10
256.2372032363
 20
41.8211546971
 10
255.7102877363
 20
41.2095028421
 10
255.2235629529
 20
40.5426958751
 10
254.7857145015
 20
39.8326329824
 10
254.404555798
 20
39.0919852531
 10
254.0868886287
 20
38.3339695634
 10
253.8383817715
 20
37.5721127214
 10
253.6634698374
 20
36.8200100804
 10
253.5652741338
 20
36.0910829298
 10
253.5455469654
 20
35.3983389919
 10
253.6046403641
 20
34.7541402987
 10
253.7414998068
 20
34.1699825912
 10
253.9536830333
 20
33.6562901774
 10
254.2374036291
 20
33.2222299107
 10
254.5875985934
 20
32.8755476068
 10
254.9980186887
 20
32.6224298197
 10
255.4613399587
 20
32.4673934422
 10
255.9692944244
 20
32.4132051021
 10
256.5128176263
 20
32.4608317918
 10
257.08221038
 20
32.6094236117
 10
257.6673118583
 20
32.8563289373
 10
257.9632146645
 20
33.0157535916
  0
LWPOLYLINE
  5
236
330
1F
100
AcDbEntity
  8
0
  6
Continuous
 62
     7
370
    15
100
AcDbPolyline
 90
       13
 70
   128
 43
0.0
 10
262.3819137673
 20
40.6699942939
 10
262.359718636
 20
41.1680076755
 10
262.2615229324
 20
41.78356048
 10
262.0866109983
 20
42.3337141005
 10
261.8381041411
 20
42.8086510325
 10
261.5204369718
 20
43.1998960153
 10
261.1392782683
 20
43.500467273
 10
260.7014298169
 20
43.7050011042
 10
260.2147050335
 20
43.8098475979
 10
259.6877895335
 20
43.813135766
 10
259.1300861363
 20
43.714806931
 10
258.5515470723
 20
43.5166157733
 10
257.9624963849
 20
43.2220990188
  0
LINE
  5
237
330
1F
100
AcDbEntity
  8
0
  6
Continuous
 62
     7
370
    15
100
AcDbLine
 10
254.7995724434
 20
46.2264934447
 30
0.0
 11
255.0020786501
 21
46.1717601344
 31
0.0
  0
SPLINE
  5
238
330
1F
100
AcDbEntity
  8
0
  6
Continuous
 62
     7
370
    15
100
AcDbSpline
210
0.0
220
0.0
230
1.0
 70
     8
 71
     3
 72
    61
 73
    57
 74
     0
 42
0.000000001
 43
0.00000001
 40
0.0
 40
0.0
 40
0.0
 40
0.0
 40
0.0061330815644932
 40
0.0247495567790609
 40
0.0435519489208227
 40
0.0617247237213876
 40
0.080082008694361
 40
0.0987199301812585
 40
0.1175610703732666
 40
0.1340006166975217
 40
0.1472590064063318
 40
0.160661273097382
 40
0.1775793131552659
 40
0.2080327008265399
 40
0.2277932269928496
 40
0.2415679215962789
 40
0.2583730244586944
 40
0.278280980256688
 40
0.3062586728958439
 40
0.3243972266136802
 40
0.353670415487127
 40
0.3725832236046954
 40
0.3840891615238793
 40
0.4002748612914453
 40
0.4166450156425716
 40
0.4284160327704054
 40
0.4464631922506222
 40
0.4610168681215314
 40
0.4757064885954546
 40
0.49421718970562
 40
0.5136328950716674
 40
0.5301802121322529
 40
0.5469304447337454
 40
0.5669239762806579
 40
0.5850974402218517
 40
0.6034483364050472
 40
0.6220637610370826
 40
0.6408653377362569
 40
0.6605932028704258
 40
0.6774178392788113
 40
0.6944747632303855
 40
0.7148671381733741
 40
0.7307734561424153
 40
0.7436010697976146
 40
0.7565674451499309
 40
0.7729347669420048
 40
0.8027583095626671
 40
0.822113095558226
 40
0.852001429669348
 40
0.8714719258007342
 40
0.8993698034234789
 40
0.9174440234779723
 40
0.9471888518629848
 40
0.966402074556163
 40
0.9886961181739302
 40
1.0
 40
1.0
 40
1.0
 40
1.0
 10
256.6767629248928
 20
45.42720774588657
 30
0.0
 10
256.6933112391602
 20
45.41607552293165
 30
0.0
 10
256.7600906288115
 20
45.37115233363395
 30
0.0
 10
256.86148387969
 20
45.29121931072311
 30
0.0
 10
256.9777386293846
 20
45.18893587613685
 30
0.0
 10
257.0744496469465
 20
45.08669578449067
 30
0.0
 10
257.1525224798486
 20
44.98440132592347
 30
0.0
 10
257.2113186640785
 20
44.88038078921421
 30
0.0
 10
257.2473035895659
 20
44.77930808052331
 30
0.0
 10
257.2610317430696
 20
44.68767003930301
 30
0.0
 10
257.2585783607397
 20
44.60576891772404
 30
0.0
 10
257.2422739143579
 20
44.52245430514011
 30
0.0
 10
257.1968588806243
 20
44.40559468932614
 30
0.0
 10
257.1055487818469
 20
44.27537279798755
 30
0.0
 10
256.9759925962742
 20
44.15262296066089
 30
0.0
 10
256.8523847450695
 20
44.057863709739
 30
0.0
 10
256.7093942357553
 20
43.96531964257274
 30
0.0
 10
256.4997266752054
 20
43.85251780364297
 30
0.0
 10
256.2557649299694
 20
43.7479654502468
 30
0.0
 10
255.9559033578636
 20
43.64480038120166
 30
0.0
 10
255.6775669324688
 20
43.57011867079277
 30
0.0
 10
255.4221713033863
 20
43.51988618341277
 30
0.0
 10
255.2219527978287
 20
43.48937239180064
 30
0.0
 10
255.0327155729067
 20
43.46821390522062
 30
0.0
 10
254.8436766582967
 20
43.45632455645771
 30
0.0
 10
254.6489131175024
 20
43.45263312081443
 30
0.0
 10
254.464571437421
 20
43.4581002076789
 30
0.0
 10
254.2725326076933
 20
43.47468229332947
 30
0.0
 10
254.0832971686986
 20
43.50131826398113
 30
0.0
 10
253.8815478558834
 20
43.54318896101876
 30
0.0
 10
253.6820302931119
 20
43.6014396180226
 30
0.0
 10
253.4988548957767
 20
43.67137854151234
 30
0.0
 10
253.3239080982675
 20
43.75456161182105
 30
0.0
 10
253.1563603635086
 20
43.85405699813919
 30
0.0
 10
252.9989847413667
 20
43.97030795229741
 30
0.0
 10
252.8605711562709
 20
44.09574174900779
 30
0.0
 10
252.7371469809516
 20
44.2337396896033
 30
0.0
 10
252.6289389542843
 20
44.38528044523401
 30
0.0
 10
252.5433981235088
 20
44.540619616179
 30
0.0
 10
252.4793333267605
 20
44.69720094419478
 30
0.0
 10
252.4329655442741
 20
44.86003913172618
 30
0.0
 10
252.4085106024872
 20
45.02311999353049
 30
0.0
 10
252.4060539812642
 20
45.17378087553595
 30
0.0
 10
252.41808084413
 20
45.30079435913187
 30
0.0
 10
252.4435275428353
 20
45.42745554466518
 30
0.0
 10
252.5010470915911
 20
45.60059915051076
 30
0.0
 10
252.6046592660377
 20
45.78084456281265
 30
0.0
 10
252.7805671394752
 20
45.97179002774022
 30
0.0
 10
252.9769278578252
 20
46.109785092259
 30
0.0
 10
253.2375108742146
 20
46.2252464806105
 30
0.0
 10
253.485616291531
 20
46.28980965581855
 30
0.0
 10
253.7915842219207
 20
46.3277046106585
 30
0.0
 10
254.0753787303755
 20
46.32988645448574
 30
0.0
 10
254.3810978215868
 20
46.30283957719515
 30
0.0
 10
254.6084167382128
 20
46.26742863593208
 30
0.0
 10
254.7514496253301
 20
46.23679874401752
 30
0.0
 10
254.7995724433868
 20
46.22649344468806
 30
0.0
  0
LINE
  5
239
330
1F
100
AcDbEntity
  8
0
  6
Continuous
 62
     7
370
    15
100
AcDbLine
 10
232.348227693
 20
44.1503798848
 30
0.0
 11
233.6840101584
 21
43.3792490815
 31
0.0
  0
LINE
  5
23A
330
1F
100
AcDbEntity
  8
0
  6
Continuous
 62
     7
370
    15
100
AcDbLine
 10
250.9367411628
 20
60.2435255015
 30
0.0
 11
249.6009586974
 21
61.0146563048
 31
0.0
  0
LINE
  5
23B
330
1F
100
AcDbEntity
  8
0
  6
Continuous
 62
     7
370
    15
100
AcDbLine
 10
236.4107155501
 20
42.8997156141
 30
0.0
 11
235.8202048942
 21
43.2406101595
 31
0.0
  0
SPLINE
  5
23C
330
1F
100
AcDbEntity
  8
0
  6
Continuous
 62
     7
370
    15
100
AcDbSpline
210
0.0
220
0.0
230
1.0
 70
     8
 71
     3
 72
    14
 73
    10
 74
     0
 42
0.000000001
 43
0.00000001
 40
0.0
 40
0.0
 40
0.0
 40
0.0
 40
0.1133498324767517
 40
0.2881007431031477
 40
0.4628816432597526
 40
0.6373002576119151
 40
0.811482025114782
 40
0.9859193029710067
 40
1.0
 40
1.0
 40
1.0
 40
1.0
 10
243.2049401491821
 20
54.35237632590052
 30
0.0
 10
243.1353896443201
 20
54.35572636834933
 30
0.0
 10
242.9586134489248
 20
54.36424115569255
 30
0.0
 10
242.6637800556381
 20
54.27909505917741
 30
0.0
 10
242.3711261506391
 20
54.11565726854272
 30
0.0
 10
242.1456124232795
 20
53.88497837183104
 30
0.0
 10
242.0264141154184
 20
53.62221279815117
 30
0.0
 10
241.9925093494791
 20
53.42668319238538
 30
0.0
 10
242.0244746577356
 20
53.34038067019394
 30
0.0
 10
242.0268621956947
 20
53.33393460228686
 30
0.0
  0
SPLINE
  5
23D
330
1F
100
AcDbEntity
  8
0
  6
Continuous
 62
     7
370
    15
100
AcDbSpline
210
0.0
220
0.0
230
1.0
 70
     8
 71
     3
 72
    12
 73
     8
 74
     0
 42
0.000000001
 43
0.00000001
 40
0.0
 40
0.0
 40
0.0
 40
0.0
 40
0.2500000000000015
 40
0.2500000000000015
 40
0.500000000000003
 40
0.500000000000003
 40
1.0
 40
1.0
 40
1.0
 40
1.0
 10
235.8202048942143
 20
43.24061015953191
 30
0.0
 10
235.782586159255
 20
43.26232699296811
 30
0.0
 10
235.7365937508677
 20
43.27958272695076
 30
0.0
 10
235.6369926208917
 20
43.30187651477858
 30
0.0
 10
235.5822418956377
 20
43.30708229935802
 30
0.0
 10
235.4227359968184
 20
43.3040803999309
 30
0.0
 10
235.3177331916008
 20
43.27710266467169
 30
0.0
 10
235.2424202954089
 20
43.23362545513839
 30
0.0
  0
SPLINE
  5
23E
330
1F
100
AcDbEntity
  8
0
  6
Continuous
 62
     7
370
    15
100
AcDbSpline
210
0.0
220
0.0
230
1.0
 70
     8
 71
     3
 72
    10
 73
     6
 74
     0
 42
0.000000001
 43
0.00000001
 40
0.0
 40
0.0
 40
0.0
 40
0.0
 40
0.5
 40
0.5
 40
1.0
 40
1.0
 40
1.0
 40
1.0
 10
232.2465835824255
 20
44.18110193609105
 30
0.0
 10
232.2538462640742
 20
44.18509854157887
 30
0.0
 10
232.2656399280399
 20
44.18528031996404
 30
0.0
 10
232.2996989388072
 20
44.17555869045429
 30
0.0
 10
232.3218714263594
 20
44.16559503367859
 30
0.0
 10
232.3482276930229
 20
44.15037988479728
 30
0.0
  0
LINE
  5
23F
330
1F
100
AcDbEntity
  8
0
  6
Continuous
 62
     7
370
    15
100
AcDbLine
 10
235.2424202954
 20
43.2336254551
 30
0.0
 11
235.184173445
 21
43.2000002641
 31
0.0
  0
LINE
  5
240
330
1F
100
AcDbEntity
  8
0
  6
Continuous
 62
     7
370
    15
100
AcDbLine
 10
259.4666542224
 20
41.2907994548
 30
0.0
 11
259.4295114545
 21
41.3131715852
 31
0.0
  0
LINE
  5
241
330
1F
100
AcDbEntity
  8
0
  6
Continuous
 62
     7
370
    15
100
AcDbLine
 10
237.9360131671
 20
40.76371153
 30
0.0
 11
236.2088304677
 21
41.7607928789
 31
0.0
  0
SPLINE
  5
242
330
1F
100
AcDbEntity
  8
0
  6
Continuous
 62
     7
370
    15
100
AcDbSpline
210
0.0
220
0.0
230
1.0
 70
     8
 71
     3
 72
     8
 73
     4
 74
     0
 42
0.000000001
 43
0.00000001
 40
0.0
 40
0.0
 40
0.0
 40
0.0
 40
0.0011901715795577
 40
0.0011901715795577
 40
0.0011901715795577
 40
0.0011901715795577
 10
236.2088304676858
 20
41.76079287889082
 30
0.0
 10
236.1966690008672
 20
41.82154313460165
 30
0.0
 10
236.1851855539111
 20
41.8818068087317
 30
0.0
 10
236.1743247302686
 20
41.94162107994844
 30
0.0
  0
ARC
  5
243
330
1F
100
AcDbEntity
  8
0
  6
Continuous
 62
     7
370
    15
100
AcDbCircle
 10
245.1866805348
 20
42.1855675619
 30
0.0
 40
10.35652455636814
100
AcDbArc
 50
174.7086205927
 51
187.1555037252
  0
LINE
  5
244
330
1F
100
AcDbEntity
  8
0
  6
Continuous
 62
     7
370
    15
100
AcDbLine
 10
234.9108153182
 20
43.1548585222
 30
0.0
 11
234.9108153182
 21
40.8955307646
 31
0.0
  0
LINE
  5
245
330
1F
100
AcDbEntity
  8
0
  6
Continuous
 62
     7
370
    15
100
AcDbLine
 10
234.9108153182
 20
40.8955307646
 30
0.0
 11
234.9108153182
 21
39.4297228021
 31
0.0
  0
LINE
  5
246
330
1F
100
AcDbEntity
  8
0
  6
Continuous
 62
     7
370
    15
100
AcDbLine
 10
232.6857453167
 20
43.7946266452
 30
0.0
 11
232.2465835824
 21
44.1811019361
 31
0.0
  0
LINE
  5
247
330
1F
100
AcDbEntity
  8
0
  6
Continuous
 62
     7
370
    15
100
AcDbLine
 10
234.041696956
 20
43.0118524256
 30
0.0
 11
232.6857453167
 21
43.7946266452
 31
0.0
  0
LINE
  5
248
330
1F
100
AcDbEntity
  8
0
  6
Continuous
 62
     7
370
    15
100
AcDbLine
 10
233.9120269898
 20
42.9304242535
 30
0.0
 11
233.912718497
 21
43.0512008834
 31
0.0
  0
ARC
  5
249
330
1F
100
AcDbEntity
  8
0
  6
Continuous
 62
     7
370
    15
100
AcDbCircle
 10
240.9124901095
 20
42.6867858193
 30
0.0
 40
7.00470153378931
100
AcDbArc
 50
178.0067287441
 51
210.5826315432
  0
LINE
  5
24A
330
1F
100
AcDbEntity
  8
0
  6
Continuous
 62
     7
370
    15
100
AcDbLine
 10
214.5402373929
 20
56.0669929732
 30
0.0
 11
214.5104415613
 21
56.0926253072
 31
0.0
  0
LINE
  5
24B
330
1F
100
AcDbEntity
  8
0
  6
Continuous
 62
     7
370
    15
100
AcDbLine
 10
236.2088304677
 20
35.1876393432
 30
0.0
 11
237.9360131671
 21
34.1905579943
 31
0.0
  0
SPLINE
  5
24C
330
1F
100
AcDbEntity
  8
0
  6
Continuous
 62
     7
370
    15
100
AcDbSpline
210
0.0
220
0.0
230
1.0
 70
     8
 71
     3
 72
    14
 73
    10
 74
     0
 42
0.000000001
 43
0.00000001
 40
0.0
 40
0.0
 40
0.0
 40
0.0
 40
0.25
 40
0.25
 40
0.5
 40
0.5
 40
0.75
 40
0.75
 40
1.0
 40
1.0
 40
1.0
 40
1.0
 10
237.8881179907235
 20
34.06830930907347
 30
0.0
 10
237.8712097931854
 20
34.02515245952432
 30
0.0
 10
237.8506866023044
 20
33.98513648703533
 30
0.0
 10
237.8019031667421
 20
33.9118268600504
 30
0.0
 10
237.7734461883663
 20
33.87853970144433
 30
0.0
 10
237.7100835658581
 20
33.82561685511401
 30
0.0
 10
237.6747645051171
 20
33.80555318868875
 30
0.0
 10
237.599946428066
 20
33.78879419820671
 30
0.0
 10
237.5615769540014
 20
33.79299109381789
 30
0.0
 10
237.5277848652144
 20
33.81249885144033
 30
0.0
  0
LINE
  5
24D
330
1F
100
AcDbEntity
  8
0
  6
Continuous
 62
     7
370
    15
100
AcDbLine
 10
237.5277848652
 20
33.8124988514
 30
0.0
 11
236.1743247303
 21
34.5938347561
 31
0.0
  0
SPLINE
  5
24E
330
1F
100
AcDbEntity
  8
0
  6
Continuous
 62
     7
370
    15
100
AcDbSpline
210
0.0
220
0.0
230
1.0
 70
     8
 71
     3
 72
     8
 73
     4
 74
     0
 42
0.000000001
 43
0.00000001
 40
0.0
 40
0.0
 40
0.0
 40
0.0
 40
0.0011901715795577
 40
0.0011901715795577
 40
0.0011901715795577
 40
0.0011901715795577
 10
236.1743247302686
 20
34.59383475614218
 30
0.0
 10
236.1851855539111
 20
34.79178994450034
 30
0.0
 10
236.1966690008672
 20
34.98972885700191
 30
0.0
 10
236.2088304676858
 20
35.18763934321053
 30
0.0
  0
SPLINE
  5
24F
330
1F
100
AcDbEntity
  8
0
  6
Continuous
 62
     7
370
    15
100
AcDbSpline
210
0.0
220
0.0
230
1.0
 70
     8
 71
     3
 72
    10
 73
     6
 74
     0
 42
0.000000001
 43
0.00000001
 40
0.0
 40
0.0
 40
0.0
 40
0.0
 40
0.0059012164597326
 40
0.4787690122256021
 40
1.0
 40
1.0
 40
1.0
 40
1.0
 10
259.1760301612587
 20
46.26032275927771
 30
0.0
 10
259.1760831224857
 20
46.26029221593092
 30
0.0
 10
259.1803798966351
 20
46.25781421701745
 30
0.0
 10
259.1637126186458
 20
46.2674429834211
 30
0.0
 10
259.1319363762153
 20
46.28579399494455
 30
0.0
 10
259.115275293329
 20
46.29541589170311
 30
0.0
  0
ARC
  5
250
330
1F
100
AcDbEntity
  8
0
  6
Continuous
 62
     7
370
    15
100
AcDbCircle
 10
243.1331088047
 20
34.7631281593
 30
0.0
 40
5.548849366528733
100
AcDbArc
 50
212.548574771
 51
267.4372561144
  0
SPLINE
  5
251
330
1F
100
AcDbEntity
  8
0
  6
Continuous
 62
     7
370
    15
100
AcDbSpline
210
0.0
220
0.0
230
1.0
 70
     8
 71
     3
 72
     8
 73
     4
 74
     0
 42
0.000000001
 43
0.00000001
 40
0.0
 40
0.0
 40
0.0
 40
0.0
 40
1.0
 40
1.0
 40
1.0
 40
1.0
 10
236.5347473970432
 20
35.8471769816453
 30
0.0
 10
236.4256738166561
 20
35.62740478158607
 30
0.0
 10
236.3170622511882
 20
35.40755169991641
 30
0.0
 10
236.2088304676858
 20
35.18763934321053
 30
0.0
  0
LINE
  5
252
330
1F
100
AcDbEntity
  8
0
  6
Continuous
 62
     7
370
    15
100
AcDbLine
 10
236.5929942475
 20
35.8808021727
 30
0.0
 11
236.534747397
 21
35.8471769816
 31
0.0
  0
SPLINE
  5
253
330
1F
100
AcDbEntity
  8
0
  6
Continuous
 62
     7
370
    15
100
AcDbSpline
210
0.0
220
0.0
230
1.0
 70
     8
 71
     3
 72
    12
 73
     8
 74
     0
 42
0.000000001
 43
0.00000001
 40
0.0
 40
0.0
 40
0.0
 40
0.0
 40
0.2500000000000015
 40
0.2500000000000015
 40
0.500000000000003
 40
0.500000000000003
 40
1.0
 40
1.0
 40
1.0
 40
1.0
 10
236.6050934213313
 20
36.21435012179003
 30
0.0
 10
236.6431310288839
 20
36.19239147835278
 30
0.0
 10
236.6726044327956
 20
36.16613454174812
 30
0.0
 10
236.7113981428385
 20
36.10826653244881
 30
0.0
 10
236.7202203457851
 20
36.07748439763968
 30
0.0
 10
236.7151110730983
 20
35.98450441425292
 30
0.0
 10
236.6684873313289
 20
35.92438340232361
 30
0.0
 10
236.5929942474757
 20
35.88080217266769
 30
0.0
  0
LINE
  5
254
330
1F
100
AcDbEntity
  8
0
  6
Continuous
 62
     7
370
    15
100
AcDbLine
 10
235.8202048942
 20
36.6674566239
 30
0.0
 11
236.6050934213
 21
36.2143501218
 31
0.0
  0
SPLINE
  5
255
330
1F
100
AcDbEntity
  8
0
  6
Continuous
 62
     7
370
    15
100
AcDbSpline
210
0.0
220
0.0
230
1.0
 70
     8
 71
     3
 72
    12
 73
     8
 74
     0
 42
0.000000001
 43
0.00000001
 40
0.0
 40
0.0
 40
0.0
 40
0.0
 40
0.4999999999999984
 40
0.4999999999999984
 40
0.7499999999999992
 40
0.7499999999999992
 40
1.0
 40
1.0
 40
1.0
 40
1.0
 10
235.2424202954094
 20
36.66047191945838
 30
0.0
 10
235.3183511031607
 20
36.70430584174192
 30
0.0
 10
235.4222410625848
 20
36.73096318425112
 30
0.0
 10
235.5829431424172
 20
36.73391904702486
 30
0.0
 10
235.63672794284
 20
36.72876577538891
 30
0.0
 10
235.7364968282826
 20
36.70646727278555
 30
0.0
 10
235.78204905411
 20
36.68948352148813
 30
0.0
 10
235.8202048942143
 20
36.66745662385162
 30
0.0
  0
LINE
  5
256
330
1F
100
AcDbEntity
  8
0
  6
Continuous
 62
     7
370
    15
100
AcDbLine
 10
235.184173445
 20
36.6268467284
 30
0.0
 11
235.2424202954
 21
36.6604719195
 31
0.0
  0
SPLINE
  5
257
330
1F
100
AcDbEntity
  8
0
  6
Continuous
 62
     7
370
    15
100
AcDbSpline
210
0.0
220
0.0
230
1.0
 70
     8
 71
     3
 72
     8
 73
     4
 74
     0
 42
0.000000001
 43
0.00000001
 40
0.0
 40
0.0
 40
0.0
 40
0.0
 40
1.0
 40
1.0
 40
1.0
 40
1.0
 10
234.0416969559987
 20
36.43869888995763
 30
0.0
 10
234.4226376067378
 20
36.50117976863056
 30
0.0
 10
234.803475578977
 20
36.5638798907655
 30
0.0
 10
235.1841734449769
 20
36.626846728436
 30
0.0
  0
LINE
  5
258
330
1F
100
AcDbEntity
  8
0
  6
Continuous
 62
     7
370
    15
100
AcDbLine
 10
232.6857453167
 20
37.2214731095
 30
0.0
 11
234.041696956
 21
36.43869889
 31
0.0
  0
LINE
  5
259
330
1F
100
AcDbEntity
  8
0
  6
Continuous
 62
     7
370
    15
100
AcDbLine
 10
232.6857453167
 20
37.2214731095
 30
0.0
 11
234.6986832839
 21
38.3835174631
 31
0.0
  0
ARC
  5
25A
330
1F
100
AcDbEntity
  8
0
  6
Continuous
 62
     7
370
    15
100
AcDbCircle
 10
242.410782764
 20
36.1969607514
 30
0.0
 40
6.439209715693609
100
AcDbArc
 50
194.4161657948
 51
238.0416929841
  0
ELLIPSE
  5
25B
330
1F
100
AcDbEntity
  8
0
  6
Continuous
 62
     7
370
    15
100
AcDbEllipse
 10
234.4643687088
 20
39.1720170375
 30
0.0
 11
-6.005970382716441E-5
 21
0.8534489614827264
 31
0.0
210
0.0
220
0.0
230
1.0
 40
0.7174342186
 41
3.534193645557533
 42
5.104989972352352
  0
ARC
  5
25C
330
1F
100
AcDbEntity
  8
0
  6
Continuous
 62
     7
370
    15
100
AcDbCircle
 10
241.8431579425
 20
38.4906666532
 30
0.0
 40
6.914904138900272
100
AcDbArc
 50
195.6366952156
 51
215.4285397018
  0
ARC
  5
25D
330
1F
100
AcDbEntity
  8
0
  6
Continuous
 62
     7
370
    15
100
AcDbCircle
 10
239.5459289214
 20
37.4000910419
 30
0.0
 40
6.019570994993637
100
AcDbArc
 50
193.141875593
 51
253.691584192
  0
SPLINE
  5
25E
330
1F
100
AcDbEntity
  8
0
  6
Continuous
 62
     7
370
    15
100
AcDbSpline
210
0.0
220
0.0
230
1.0
 70
     8
 71
     3
 72
     8
 73
     4
 74
     0
 42
0.000000001
 43
0.00000001
 40
0.0000000000000007
 40
0.0000000000000007
 40
0.0000000000000007
 40
0.0000000000000007
 40
0.0011901715795607
 40
0.0011901715795607
 40
0.0011901715795607
 40
0.0011901715795607
 10
234.0416969559997
 20
36.43869888995571
 30
0.0
 10
233.9228998400844
 20
36.30234785364032
 30
0.0
 10
233.8036566659342
 20
36.16661730750671
 30
0.0
 10
233.684010158439
 20
36.03146275768695
 30
0.0
  0
LINE
  5
25F
330
1F
100
AcDbEntity
  8
0
  6
Continuous
 62
     7
370
    15
100
AcDbLine
 10
232.2465835824
 20
36.9678984278
 30
0.0
 11
232.6857453167
 21
37.2214731095
 31
0.0
  0
LINE
  5
260
330
1F
100
AcDbEntity
  8
0
  6
Continuous
 62
     7
370
    15
100
AcDbLine
 10
233.6840101584
 20
36.0314627577
 30
0.0
 11
232.348227693
 21
36.802593561
 31
0.0
  0
SPLINE
  5
261
330
1F
100
AcDbEntity
  8
0
  6
Continuous
 62
     7
370
    15
100
AcDbSpline
210
0.0
220
0.0
230
1.0
 70
     8
 71
     3
 72
    10
 73
     6
 74
     0
 42
0.000000001
 43
0.00000001
 40
0.0
 40
0.0
 40
0.0
 40
0.0
 40
0.5
 40
0.5
 40
1.0
 40
1.0
 40
1.0
 40
1.0
 10
232.3482276930229
 20
36.80259356099101
 30
0.0
 10
232.321923440646
 20
36.81777868266379
 30
0.0
 10
232.2997253265275
 20
36.84140833359766
 30
0.0
 10
232.2657134400957
 20
36.89885072640755
 30
0.0
 10
232.2538425596896
 20
36.93248900455816
 30
0.0
 10
232.2465835824255
 20
36.96789842780129
 30
0.0
  0
ARC
  5
262
330
1F
100
AcDbEntity
  8
0
  6
Continuous
 62
     7
370
    15
100
AcDbCircle
 10
238.0618507655
 20
37.8478021715
 30
0.0
 40
5.691048469931552
100
AcDbArc
 50
212.7820144324
 51
239.5347399606
  0
ELLIPSE
  5
263
330
1F
100
AcDbEntity
  8
0
  6
Continuous
 62
     7
370
    15
100
AcDbEllipse
 10
234.3451298933
 20
39.1031595574
 30
0.0
 11
0.26000757892092
 21
0.9705436209909237
 31
0.0
210
0.0
220
0.0
230
1.0
 40
0.5176380889
 41
3.619174351347694
 42
5.189970678142645
  0
SPLINE
  5
264
330
1F
100
AcDbEntity
  8
0
  6
Continuous
 62
     7
370
    15
100
AcDbSpline
210
0.0
220
0.0
230
1.0
 70
     8
 71
     3
 72
    12
 73
     8
 74
     0
 42
0.000000001
 43
0.00000001
 40
0.0
 40
0.0
 40
0.0
 40
0.0
 40
0.4999999999999996
 40
0.4999999999999996
 40
0.7499999999999998
 40
0.7499999999999998
 40
1.0
 40
1.0
 40
1.0
 40
1.0
 10
251.8005601301394
 20
59.44276359284304
 30
0.0
 10
251.863003455964
 20
59.47881135754335
 30
0.0
 10
251.9423400611861
 20
59.50447035760115
 30
0.0
 10
252.0732134245273
 20
59.51625411760762
 30
0.0
 10
252.1179857368982
 20
59.51544384540408
 30
0.0
 10
252.2032476529015
 20
59.50189536501674
 30
0.0
 10
252.2426638600199
 20
59.48913075400733
 30
0.0
 10
252.2739035202697
 20
59.47109648201538
 30
0.0
  0
LINE
  5
265
330
1F
100
AcDbEntity
  8
0
  6
Continuous
 62
     7
370
    15
100
AcDbLine
 10
252.2739035203
 20
59.471096482
 30
0.0
 11
253.4255667857
 21
58.8062554304
 31
0.0
  0
SPLINE
  5
266
330
1F
100
AcDbEntity
  8
0
  6
Continuous
 62
     7
370
    15
100
AcDbSpline
210
0.0
220
0.0
230
1.0
 70
     8
 71
     3
 72
     9
 73
     5
 74
     0
 42
0.000000001
 43
0.00000001
 40
0.0
 40
0.0
 40
0.0
 40
0.0
 40
0.8664449205980815
 40
1.0
 40
1.0
 40
1.0
 40
1.0
 10
254.9926479039146
 20
57.02594157603028
 30
0.0
 10
255.3118245712642
 20
57.09523172817315
 30
0.0
 10
255.6801995940289
 20
57.17520236507765
 30
0.0
 10
256.0505397487464
 20
57.25207142391056
 30
0.0
 10
256.1000005575154
 20
57.26233767716653
 30
0.0
  0
LINE
  5
267
330
1F
100
AcDbEntity
  8
0
  6
Continuous
 62
     7
370
    15
100
AcDbLine
 10
256.1000005575
 20
57.2623376772
 30
0.0
 11
257.4534606925
 21
56.4810017725
 31
0.0
  0
SPLINE
  5
268
330
1F
100
AcDbEntity
  8
0
  6
Continuous
 62
     7
370
    15
100
AcDbSpline
210
0.0
220
0.0
230
1.0
 70
     8
 71
     3
 72
    14
 73
    10
 74
     0
 42
0.000000001
 43
0.00000001
 40
0.0
 40
0.0
 40
0.0
 40
0.0
 40
0.25
 40
0.25
 40
0.5
 40
0.5
 40
0.75
 40
0.75
 40
1.0
 40
1.0
 40
1.0
 40
1.0
 10
257.4534606924612
 20
56.4810017724647
 30
0.0
 10
257.4847227806192
 20
56.46295455311691
 30
0.0
 10
257.5069901527154
 20
56.43986523767659
 30
0.0
 10
257.5301435507037
 20
56.39125388440789
 30
0.0
 10
257.5316637206997
 20
56.36525410284278
 30
0.0
 10
257.5182185499287
 20
56.31512117345535
 30
0.0
 10
257.5035190442807
 20
56.29093085834396
 30
0.0
 10
257.461874049305
 20
56.24598041557137
 30
0.0
 10
257.4355617657874
 20
56.22574650848961
 30
0.0
 10
257.4043813710427
 20
56.20774644974555
 30
0.0
  0
LINE
  5
269
330
1F
100
AcDbEntity
  8
0
  6
Continuous
 62
     7
370
    15
100
AcDbLine
 10
251.8005601301
 20
59.4427635928
 30
0.0
 11
251.2926394404
 21
59.14954722
 31
0.0
  0
SPLINE
  5
26A
330
1F
100
AcDbEntity
  8
0
  6
Continuous
 62
     7
370
    15
100
AcDbSpline
210
0.0
220
0.0
230
1.0
 70
     8
 71
     3
 72
    10
 73
     6
 74
     0
 42
0.000000001
 43
0.00000001
 40
0.0
 40
0.0
 40
0.0
 40
0.0
 40
0.4052295512037488
 40
0.8115767668318159
 40
1.0
 40
1.0
 40
1.0
 40
1.0
 10
259.115275293329
 20
53.11190918571974
 30
0.0
 10
259.1335949041641
 20
53.15083560021322
 30
0.0
 10
259.1702846531892
 20
53.22879579222075
 30
0.0
 10
259.1842997990006
 20
53.3363472668912
 30
0.0
 10
259.1662101974783
 20
53.38950141715386
 30
0.0
 10
259.1604794130849
 20
53.40634064793452
 30
0.0
  0
LINE
  5
26B
330
1F
100
AcDbEntity
  8
0
  6
Continuous
 62
     7
370
    15
100
AcDbLine
 10
259.0099117948
 20
46.3562607179
 30
0.0
 11
257.2730672732
 21
47.358919718
 31
0.0
  0
LWPOLYLINE
  5
26C
330
1F
100
AcDbEntity
  8
0
  6
Continuous
 62
     7
370
     0
100
AcDbPolyline
 90
       23
 70
   128
 43
0.0
 10
237.5277848652
 20
41.1602851752
 10
237.8422671927
 20
42.4002057674
 10
238.2346198614
 20
43.6498183179
 10
238.7019193261
 20
44.8998115645
 10
239.2406835894
 20
46.1408714081
 10
239.8468981465
 20
47.3637503155
 10
240.5160458992
 20
48.5593362253
 10
241.2431408139
 20
49.7187204451
 10
242.0227650741
 20
50.8332640326
 10
242.8491094503
 20
51.8946621676
 10
243.7160165868
 20
52.8950060336
 10
244.6170268815
 20
53.8268417488
 10
245.5454266189
 20
54.6832259078
 10
246.494297996
 20
55.4577773186
 10
247.4565706691
 20
56.1447245512
 10
248.4250744372
 20
56.7389489424
 10
249.3925926693
 20
57.2360227364
 10
250.351916078
 20
57.6322420777
 10
251.2958964382
 20
57.9246546094
 10
252.2174998507
 20
58.1110814722
 10
253.109859154
 20
58.1901335401
 10
253.9663250941
 20
58.1612217708
 10
254.7805158696
 20
58.0245615953
  0
LWPOLYLINE
  5
26D
330
1F
100
AcDbEntity
  8
0
  6
Continuous
 62
     7
370
     0
100
AcDbPolyline
 90
       23
 70
   128
 43
0.0
 10
237.8881179907
 20
40.8306616217
 10
238.185767569
 20
42.0645166276
 10
238.5629166531
 20
43.310035047
 10
239.0166596656
 20
44.5576213361
 10
239.5435009449
 20
45.7976640207
 10
240.1393816762
 20
47.0206097424
 10
240.7997111612
 20
48.2170368591
 10
241.5194021845
 20
49.3777280293
 10
242.2929102063
 20
50.4937412234
 10
243.1142760775
 20
51.5564786133
 10
243.9771719495
 20
52.5577528108
 10
244.8749500243
 20
53.4898499435
 10
245.8006937694
 20
54.3455890829
 10
246.7472712032
 20
55.1183775668
 10
247.7073898402
 20
55.8022617896
 10
248.6736528728
 20
56.3919730689
 10
249.6386161565
 20
56.8829682362
 10
250.5948455604
 20
57.2714646371
 10
251.5349742394
 20
57.5544692737
 10
252.4517593898
 20
57.7298018625
 10
253.3381380475
 20
57.7961116313
 10
254.1872815018
 20
57.752887726
 10
254.9926479039
 20
57.6004631461
  0
LWPOLYLINE
  5
26E
330
1F
100
AcDbEntity
  8
0
  6
Continuous
 62
     7
370
     0
100
AcDbPolyline
 90
        3
 70
   128
 43
0.0
 10
259.1152752933
 20
46.2954158917
 10
258.8198268161
 20
45.0766325341
 10
258.7632578004
 20
44.8731321009
  0
LWPOLYLINE
  5
26F
330
1F
100
AcDbEntity
  8
0
  6
Continuous
 62
     7
370
     0
100
AcDbPolyline
 90
       21
 70
   128
 43
0.0
 10
252.5137657214
 20
34.0475213211
 10
252.2370255446
 20
33.767789321
 10
251.3257213272
 20
32.9134465948
 10
250.3932239644
 20
32.1392324427
 10
249.4465395201
 20
31.4509637112
 10
248.4927806491
 20
30.8538115191
 10
247.5391131581
 20
30.3522624063
 10
246.592702167
 20
29.9500846249
 10
245.660658276
 20
29.6502998278
 10
244.7499841422
 20
29.455160366
 10
243.8675218667
 20
29.3661323666
 10
243.0199015887
 20
29.3838847171
 10
242.2134916712
 20
29.50828404
 10
241.454350855
 20
29.7383956951
 10
240.7481827369
 20
30.0724908013
 10
240.100292918
 20
30.5080592265
 10
239.5155491415
 20
31.0418284462
 10
238.9983447197
 20
31.6697881314
 10
238.5525655269
 20
32.3872202787
 10
238.181560803
 20
33.1887346576
 10
237.8881179907
 20
34.0683093091
  0
ARC
  5
270
330
1F
100
AcDbEntity
  8
0
  6
Continuous
 62
     7
370
     0
100
AcDbCircle
 10
252.3165172956
 20
51.3752964088
 30
0.0
 40
7.017045977378987
100
AcDbArc
 50
14.3287300663
 51
43.5251561868
  0
LWPOLYLINE
  5
271
330
1F
100
AcDbEntity
  8
0
  6
Continuous
 62
     7
370
     0
100
AcDbPolyline
 90
       26
 70
   128
 43
0.0
 10
243.0248656323
 20
40.414866759
 10
243.0648215677
 20
41.2007119999
 10
243.1841067264
 20
42.0212299887
 10
243.3809816622
 20
42.8644557254
 10
243.6525754951
 20
43.7180930801
 10
243.9949277756
 20
44.5696940979
 10
244.4030462364
 20
45.4068405182
 10
244.8709795914
 20
46.2173248613
 10
245.3919043186
 20
46.9893284403
 10
245.9582241625
 20
47.7115937047
 10
246.5616809044
 20
48.3735884004
 10
247.1934747863
 20
48.9656591543
 10
247.8443928306
 20
49.4791722413
 10
248.5049431865
 20
49.9066394844
 10
249.1654935425
 20
50.2418274487
 10
249.8164115868
 20
50.4798483387
 10
250.4482054686
 20
50.6172312741
 10
251.0516622106
 20
50.6519729021
 10
251.6179820544
 20
50.5835666117
 10
252.1389067816
 20
50.4130099206
 10
252.6068401367
 20
50.1427899293
 10
253.0149585975
 20
49.776847054
 10
253.3573108779
 20
49.3205175657
 10
253.6289047109
 20
48.7804557758
 10
253.8257796466
 20
48.1645370016
 10
253.9211632653
 20
47.6684137768
  0
LWPOLYLINE
  5
272
330
1F
100
AcDbEntity
  8
0
  6
Continuous
 62
     7
370
     0
100
AcDbPolyline
 90
       13
 70
   128
 43
0.0
 10
247.6716711863
 20
36.842802997
 10
247.1934747863
 20
36.6770480459
 10
246.5616809044
 20
36.5396651106
 10
245.9582241625
 20
36.5049234825
 10
245.3919043186
 20
36.5733297729
 10
244.8709795914
 20
36.7438864641
 10
244.4030462364
 20
37.0141064553
 10
243.9949277756
 20
37.3800493306
 10
243.6525754951
 20
37.836378819
 10
243.3809816622
 20
38.3764406088
 10
243.1841067264
 20
38.9923593831
 10
243.0648215677
 20
39.6751536592
 10
243.0248656323
 20
40.414866759
  0
ARC
  5
273
330
1F
100
AcDbEntity
  8
0
  6
Continuous
 62
     7
370
     0
100
AcDbCircle
 10
248.2793901181
 20
40.1088086704
 30
0.0
 40
3.148116857812347
100
AcDbArc
 50
174.4209254684
 51
234.2668941382
  0
LWPOLYLINE
  5
274
330
1F
100
AcDbEntity
  8
0
  6
Continuous
 62
     7
370
     0
100
AcDbPolyline
 90
       19
 70
   128
 43
0.0
 10
252.6903493978
 20
48.3789474983
 10
252.4189023081
 20
48.5105239346
 10
251.943613863
 20
48.6405379748
 10
251.4258897642
 20
48.6692922863
 10
250.8749688105
 20
48.5962737477
 10
250.3006821992
 20
48.4227853767
 10
249.7132780885
 20
48.1519230773
 10
249.1232387188
 20
47.7885203937
 10
248.5410933566
 20
47.3390622553
 10
247.9772303997
 20
46.8115692533
 10
247.4417119958
 20
46.2154545128
 10
246.9440944836
 20
45.5613557155
 10
246.4932578593
 20
44.8609452698
 10
246.0972473133
 20
44.1267220169
 10
245.7631296631
 20
43.371788188
 10
245.496867246
 20
42.6096155952
 10
245.3032115213
 20
41.8538052265
 10
245.1856182798
 20
41.1178445357
 10
245.1461859759
 20
40.414866759
  0
LWPOLYLINE
  5
275
330
1F
100
AcDbEntity
  8
0
  6
Continuous
 62
     7
370
     0
100
AcDbPolyline
 90
       38
 70
   128
 43
0.0
 10
258.033207063
 20
41.3440617864
 10
257.5552005587
 20
41.0211337202
 10
257.0909454312
 20
40.6135341366
 10
256.6537974553
 20
40.1329889334
 10
256.2563325824
 20
39.5933225213
 10
255.909985153
 20
39.0100601204
 10
255.6247189523
 20
38.3999811279
 10
255.4087405695
 20
37.7806364057
 10
255.2682633092
 20
37.1698433739
 10
255.2073284467
 20
36.5851734359
 10
255.2276889669
 20
36.0434464813
 10
255.3287591347
 20
35.5602470083
 10
255.5076313454
 20
35.149475786
 10
255.7591597713
 20
34.8229499545
 10
256.0761083973
 20
34.5900630675
 10
256.4493591887
 20
34.4575148567
 10
256.8681743998
 20
34.4291184928
 10
257.3205054794
 20
34.5056908876
 10
257.7933396859
 20
34.6850291925
 10
258.2730744401
 20
34.9619741712
 10
258.7459086467
 20
35.3285586208
 10
259.1982397263
 20
35.7742365742
 10
259.6170549373
 20
36.2861866879
 10
259.9903057287
 20
36.8496810895
 10
260.3072543548
 20
37.4485090709
 10
260.5587827806
 20
38.0654434414
 10
260.7376549913
 20
38.6827361223
 10
260.8387251592
 20
39.2826287272
 10
260.8590856793
 20
39.847863438
 10
260.7981508168
 20
40.3621794812
 10
260.6576735566
 20
40.8107809207
 10
260.4416951737
 20
41.1807623099
 10
260.156428973
 20
41.4614799577
 10
259.8100815437
 20
41.6448581285
 10
259.4126166707
 20
41.7256213663
 10
258.9754686948
 20
41.7014462598
 10
258.5112135673
 20
41.5730282827
 10
258.033207063
 20
41.3440617864
  0
LWPOLYLINE
  5
276
330
1F
100
AcDbEntity
  8
0
  6
Continuous
 62
     7
370
     0
100
AcDbPolyline
 90
       23
 70
   128
 43
0.0
 10
232.348227693
 20
44.1503798848
 10
232.6627100205
 20
45.390300477
 10
233.0550626892
 20
46.6399130275
 10
233.5223621539
 20
47.889906274
 10
234.0611264172
 20
49.1309661177
 10
234.6673409743
 20
50.3538450251
 10
235.336488727
 20
51.5494309349
 10
236.0635836417
 20
52.7088151546
 10
236.8432079019
 20
53.8233587421
 10
237.6695522781
 20
54.8847568771
 10
238.5364594146
 20
55.8851007431
 10
239.4374697093
 20
56.8169364584
 10
240.3658694467
 20
57.6733206173
 10
241.3147408238
 20
58.4478720281
 10
242.2770134969
 20
59.1348192607
 10
243.245517265
 20
59.7290436519
 10
244.2130354971
 20
60.226117446
 10
245.1723589058
 20
60.6223367873
 10
246.116339266
 20
60.9147493189
 10
247.0379426785
 20
61.1011761817
 10
247.9303019819
 20
61.1802282496
 10
248.7867679219
 20
61.1513164804
 10
249.6009586974
 20
61.0146563048
  0
LWPOLYLINE
  5
277
330
1F
100
AcDbEntity
  8
0
  6
Continuous
 62
     7
370
     0
100
AcDbPolyline
 90
       19
 70
   128
 43
0.0
 10
235.8202048942
 20
43.2406101595
 10
236.1167034813
 20
44.3892195708
 10
236.4885927366
 20
45.5463520903
 10
236.9328202008
 20
46.7025099983
 10
237.4457396641
 20
47.8482035744
 10
238.023141094
 20
48.9740289894
 10
238.6602851915
 20
50.0707454914
 10
239.351942291
 20
51.129351254
 10
240.0924352852
 20
52.1411572629
 10
240.8756862229
 20
53.0978586352
 10
241.6952661966
 20
53.9916027858
 10
242.5444481106
 20
54.815053881
 10
243.4162618975
 20
55.5614530513
 10
244.3035517274
 20
56.2246738677
 10
245.1990347438
 20
56.7992726273
 10
246.0953608406
 20
57.2805330353
 10
246.9851729916
 20
57.6645049163
 10
247.8611676369
 20
57.948036637
 10
247.9302265307
 20
57.9662509244
  0
LWPOLYLINE
  5
278
330
1F
100
AcDbEntity
  8
0
  6
Continuous
 62
     7
370
     0
100
AcDbPolyline
 90
       22
 70
   128
 43
0.0
 10
235.2424202954
 20
43.2336254551
 10
235.5375063889
 20
44.404517021
 10
235.9092088977
 20
45.5849953528
 10
236.3545242029
 20
46.7655213514
 10
236.8698538421
 20
47.9365555324
 10
237.4510335877
 20
49.0886351121
 10
238.0933670966
 20
50.2124504733
 10
238.7916638601
 20
51.2989203937
 10
239.5402811468
 20
52.3392654286
 10
240.3331696002
 20
53.3250788549
 10
241.1639221211
 20
54.2483946035
 10
242.0258256421
 20
55.1017516306
 10
242.9119153737
 20
55.8782542084
 10
243.8150310846
 20
56.5716276473
 10
244.7278749617
 20
57.1762689999
 10
245.6430705813
 20
57.6872923368
 10
246.5532225162
 20
58.1005682284
 10
247.4509760954
 20
58.4127571133
 10
248.3290768356
 20
58.6213362847
 10
249.1804290624
 20
58.7246202756
 10
249.998153248
 20
58.7217744783
 10
250.0033387877
 20
58.7214087584
  0
LWPOLYLINE
  5
279
330
1F
100
AcDbEntity
  8
0
  6
Continuous
 62
     7
370
     0
100
AcDbPolyline
 90
       19
 70
   128
 43
0.0
 10
255.9516133438
 20
35.2385447783
 10
256.2249593902
 20
35.1301395559
 10
256.6058462028
 20
35.0872322314
 10
257.021246071
 20
35.1470073899
 10
257.4578077013
 20
35.3075438085
 10
257.9014996436
 20
35.5636817148
 10
258.3380612738
 20
35.9071886255
 10
258.753461142
 20
36.3270239461
 10
259.1343479546
 20
36.8096938239
 10
259.4684796961
 20
37.3396848517
 10
259.7451170973
 20
37.899962682
 10
259.9553688045
 20
38.4725195243
 10
260.092477155
 20
39.0389529305
 10
260.1520353734
 20
39.5810572649
 10
260.1321292097
 20
40.0814088482
 10
260.0333984643
 20
40.5239259687
 10
259.8590164246
 20
40.8943857622
 10
259.6145878729
 20
41.180881346
 10
259.4666542224
 20
41.2907994548
  0
LINE
  5
27A
330
1F
100
AcDbEntity
  8
0
  6
Continuous
 62
     7
370
     0
100
AcDbLine
 10
240.5146365591
 20
41.5990864788
 30
0.0
 11
239.9488591869
 21
41.9257028036
 31
0.0
  0
LWPOLYLINE
  5
27B
330
1F
100
AcDbEntity
  8
0
  6
Continuous
 62
     7
370
     0
100
AcDbPolyline
 90
        3
 70
   128
 43
0.0
 10
234.8319719604
 20
42.2785209931
 10
234.8312658053
 20
42.3997589809
 10
234.856064737
 20
43.1344023375
  0
LINE
  5
27C
330
1F
100
AcDbEntity
  8
0
  6
Continuous
 62
     7
370
     0
100
AcDbLine
 10
235.0300541338
 20
39.4985802823
 30
0.0
 11
240.5146365591
 21
36.3323982422
 31
0.0
  0
LINE
  5
27D
330
1F
100
AcDbEntity
  8
0
  6
Continuous
 62
     7
370
     0
100
AcDbLine
 10
234.9108153182
 20
39.4297228021
 30
0.0
 11
235.0300541338
 21
39.4985802823
 31
0.0
  0
LWPOLYLINE
  5
27E
330
1F
100
AcDbEntity
  8
0
  6
Continuous
 62
     7
370
     0
100
AcDbPolyline
 90
       18
 70
   128
 43
0.0
 10
213.5593829469
 20
58.6917223582
 10
213.6002053505
 20
59.4044540316
 10
213.721912117
 20
60.1510414063
 10
213.9222360798
 20
60.9175769722
 10
214.1974455823
 20
61.689781622
 10
214.5424139924
 20
62.4532706442
 10
214.9507152012
 20
63.1938216829
 10
215.4147433297
 20
63.8976396734
 10
215.9258544118
 20
64.5516138181
 10
216.4745274153
 20
65.1435618162
 10
217.0505416001
 20
65.6624567965
 10
217.6431669118
 20
66.0986327272
 10
218.2413638622
 20
66.4439644761
 10
218.8339891739
 20
66.6920191661
 10
219.4100033587
 20
66.8381760075
 10
219.9586763622
 20
66.8797123751
 10
220.4697874443
 20
66.8158545248
 10
220.7050191421
 20
66.7458652584
  0
ARC
  5
27F
330
1F
100
AcDbEntity
  8
0
  6
Continuous
 62
     7
370
     0
100
AcDbCircle
 10
216.9708664598
 20
58.4664948311
 30
0.0
 40
3.418910235415896
100
AcDbArc
 50
176.2227909
 51
223.9742602738
  0
ARC
  5
280
330
1F
100
AcDbEntity
  8
0
  6
Continuous
 62
     7
370
     0
100
AcDbCircle
 10
244.9048815871
 20
35.9480601658
 30
0.0
 40
7.679985558028156
100
AcDbArc
 50
196.1449546969
 51
212.8886373485
  0
LINE
  5
281
330
1F
100
AcDbEntity
  8
0
  6
Continuous
 62
     7
370
     0
100
AcDbLine
 10
239.9489511342
 20
35.3526023479
 30
0.0
 11
234.6986832839
 21
38.3835174631
 31
0.0
  0
LINE
  5
282
330
1F
100
AcDbEntity
  8
0
  6
Continuous
 62
     7
370
     0
100
AcDbLine
 10
236.6833166299
 20
35.9723681006
 30
0.0
 11
236.6050934213
 21
36.2143501218
 31
0.0
  0
LWPOLYLINE
  5
283
330
1F
100
AcDbEntity
  8
0
  6
Continuous
 62
     7
370
     0
100
AcDbPolyline
 90
        3
 70
   128
 43
0.0
 10
236.3176038219
 20
35.4402035857
 10
236.1194426954
 20
35.854898756
 10
235.8202048942
 20
36.6674566239
  0
ARC
  5
284
330
1F
100
AcDbEntity
  8
0
  6
Continuous
 62
     7
370
     0
100
AcDbCircle
 10
241.9195752611
 20
38.5506944123
 30
0.0
 40
6.939548941287434
100
AcDbArc
 50
195.8061815001
 51
213.7821209436
  0
ARC
  5
285
330
1F
100
AcDbEntity
  8
0
  6
Continuous
 62
     7
370
     0
100
AcDbCircle
 10
239.7246630968
 20
38.9378980559
 30
0.0
 40
7.67927890834098
100
AcDbArc
 50
196.1444861465
 51
212.9026097258
  0
LINE
  5
286
330
1F
100
AcDbEntity
  8
0
  6
Continuous
 62
     7
370
     0
100
AcDbLine
 10
257.2730672807
 20
46.0067282029
 30
0.0
 11
257.8387526982
 21
45.6801649625
 31
0.0
  0
OLE2FRAME
  5
287
330
1F
100
AcDbEntity
  8
0
100
AcDbOle2Frame
 70
     2
  3
Paintbrush-Bild
 10
13.8511154363
 20
38.264191557
 30
0.0
 11
51.6290888628
 21
31.9806341108
 31
0.0
 71
     2
 72
     0
 73
     1
 90
    12928
310
80552BED0767C5B32B40DDAF6807D121434000000000000000006FFBDDFB85D0
310
4940DDAF6807D121434000000000000000006FFBDDFB85D04940416F4BD60AFB
310
3F4000000000000000002BED0767C5B32B40416F4BD60AFB3F40000000000000
310
0000000000000100000000010000010000000100000000000100000000320000
310
D0CF11E0A1B11AE1000000000000000000000000000000003E000300FEFF0900
310
0600000000000000000000000100000001000000000000000010000002000000
310
01000000FEFFFFFF0000000000000000FFFFFFFFFFFFFFFFFFFFFFFFFFFFFFFF
310
FFFFFFFFFFFFFFFFFFFFFFFFFFFFFFFFFFFFFFFFFFFFFFFFFFFFFFFFFFFFFFFF
310
FFFFFFFFFFFFFFFFFFFFFFFFFFFFFFFFFFFFFFFFFFFFFFFFFFFFFFFFFFFFFFFF
310
FFFFFFFFFFFFFFFFFFFFFFFFFFFFFFFFFFFFFFFFFFFFFFFFFFFFFFFFFFFFFFFF
310
FFFFFFFFFFFFFFFFFFFFFFFFFFFFFFFFFFFFFFFFFFFFFFFFFFFFFFFFFFFFFFFF
310
FFFFFFFFFFFFFFFFFFFFFFFFFFFFFFFFFFFFFFFFFFFFFFFFFFFFFFFFFFFFFFFF
310
FFFFFFFFFFFFFFFFFFFFFFFFFFFFFFFFFFFFFFFFFFFFFFFFFFFFFFFFFFFFFFFF
310
FFFFFFFFFFFFFFFFFFFFFFFFFFFFFFFFFFFFFFFFFFFFFFFFFFFFFFFFFFFFFFFF
310
FFFFFFFFFFFFFFFFFFFFFFFFFFFFFFFFFFFFFFFFFFFFFFFFFFFFFFFFFFFFFFFF
310
FFFFFFFFFFFFFFFFFFFFFFFFFFFFFFFFFFFFFFFFFFFFFFFFFFFFFFFFFFFFFFFF
310
FFFFFFFFFFFFFFFFFFFFFFFFFFFFFFFFFFFFFFFFFFFFFFFFFFFFFFFFFFFFFFFF
310
FFFFFFFFFFFFFFFFFFFFFFFFFFFFFFFFFFFFFFFFFFFFFFFFFFFFFFFFFFFFFFFF
310
FFFFFFFFFFFFFFFFFFFFFFFFFFFFFFFFFFFFFFFFFFFFFFFFFFFFFFFFFFFFFFFF
310
FFFFFFFFFFFFFFFFFFFFFFFFFFFFFFFFFFFFFFFFFFFFFFFFFFFFFFFFFFFFFFFF
310
FDFFFFFFFEFFFFFFFEFFFFFFFEFFFFFF05000000060000000700000008000000
310
090000000A0000000B0000000C0000000D0000000E0000000F00000010000000
310
11000000120000001300000014000000150000001600000017000000FEFFFFFF
310
FFFFFFFFFFFFFFFFFFFFFFFFFFFFFFFFFFFFFFFFFFFFFFFFFFFFFFFFFFFFFFFF
310
FFFFFFFFFFFFFFFFFFFFFFFFFFFFFFFFFFFFFFFFFFFFFFFFFFFFFFFFFFFFFFFF
310
FFFFFFFFFFFFFFFFFFFFFFFFFFFFFFFFFFFFFFFFFFFFFFFFFFFFFFFFFFFFFFFF
310
FFFFFFFFFFFFFFFFFFFFFFFFFFFFFFFFFFFFFFFFFFFFFFFFFFFFFFFFFFFFFFFF
310
FFFFFFFFFFFFFFFFFFFFFFFFFFFFFFFFFFFFFFFFFFFFFFFFFFFFFFFFFFFFFFFF
310
FFFFFFFFFFFFFFFFFFFFFFFFFFFFFFFFFFFFFFFFFFFFFFFFFFFFFFFFFFFFFFFF
310
FFFFFFFFFFFFFFFFFFFFFFFFFFFFFFFFFFFFFFFFFFFFFFFFFFFFFFFFFFFFFFFF
310
FFFFFFFFFFFFFFFFFFFFFFFFFFFFFFFFFFFFFFFFFFFFFFFFFFFFFFFFFFFFFFFF
310
FFFFFFFFFFFFFFFFFFFFFFFFFFFFFFFFFFFFFFFFFFFFFFFFFFFFFFFFFFFFFFFF
310
FFFFFFFFFFFFFFFFFFFFFFFFFFFFFFFFFFFFFFFFFFFFFFFFFFFFFFFFFFFFFFFF
310
FFFFFFFFFFFFFFFFFFFFFFFFFFFFFFFFFFFFFFFFFFFFFFFFFFFFFFFFFFFFFFFF
310
FFFFFFFFFFFFFFFFFFFFFFFFFFFFFFFFFFFFFFFFFFFFFFFFFFFFFFFFFFFFFFFF
310
FFFFFFFFFFFFFFFFFFFFFFFFFFFFFFFFFFFFFFFFFFFFFFFFFFFFFFFFFFFFFFFF
310
52006F006F007400200045006E00740072007900000000000000000000000000
310
0000000000000000000000000000000000000000000000000000000000000000
310
16000500FFFFFFFFFFFFFFFF020000000A00030000000000C000000000000046
310
000000000000000000000000F02C481D6224D20103000000C000000000000000
310
01004F006C006500000000000000000000000000000000000000000000000000
310
0000000000000000000000000000000000000000000000000000000000000000
310
0A000200FFFFFFFFFFFFFFFFFFFFFFFF00000000000000000000000000000000
310
0000000000000000000000000000000000000000000000001400000000000000
310
010043006F006D0070004F0062006A0000000000000000000000000000000000
310
0000000000000000000000000000000000000000000000000000000000000000
310
120002010100000003000000FFFFFFFF00000000000000000000000000000000
310
0000000000000000000000000000000000000000010000004D00000000000000
310
01004F006C006500310030004E00610074006900760065000000000000000000
310
0000000000000000000000000000000000000000000000000000000000000000
310
1A000200FFFFFFFFFFFFFFFFFFFFFFFF00000000000000000000000000000000
310
0000000000000000000000000000000000000000040000002426000000000000
310
FEFFFFFF02000000FEFFFFFFFFFFFFFFFFFFFFFFFFFFFFFFFFFFFFFFFFFFFFFF
310
FFFFFFFFFFFFFFFFFFFFFFFFFFFFFFFFFFFFFFFFFFFFFFFFFFFFFFFFFFFFFFFF
310
FFFFFFFFFFFFFFFFFFFFFFFFFFFFFFFFFFFFFFFFFFFFFFFFFFFFFFFFFFFFFFFF
310
FFFFFFFFFFFFFFFFFFFFFFFFFFFFFFFFFFFFFFFFFFFFFFFFFFFFFFFFFFFFFFFF
310
FFFFFFFFFFFFFFFFFFFFFFFFFFFFFFFFFFFFFFFFFFFFFFFFFFFFFFFFFFFFFFFF
310
FFFFFFFFFFFFFFFFFFFFFFFFFFFFFFFFFFFFFFFFFFFFFFFFFFFFFFFFFFFFFFFF
310
FFFFFFFFFFFFFFFFFFFFFFFFFFFFFFFFFFFFFFFFFFFFFFFFFFFFFFFFFFFFFFFF
310
FFFFFFFFFFFFFFFFFFFFFFFFFFFFFFFFFFFFFFFFFFFFFFFFFFFFFFFFFFFFFFFF
310
FFFFFFFFFFFFFFFFFFFFFFFFFFFFFFFFFFFFFFFFFFFFFFFFFFFFFFFFFFFFFFFF
310
FFFFFFFFFFFFFFFFFFFFFFFFFFFFFFFFFFFFFFFFFFFFFFFFFFFFFFFFFFFFFFFF
310
FFFFFFFFFFFFFFFFFFFFFFFFFFFFFFFFFFFFFFFFFFFFFFFFFFFFFFFFFFFFFFFF
310
FFFFFFFFFFFFFFFFFFFFFFFFFFFFFFFFFFFFFFFFFFFFFFFFFFFFFFFFFFFFFFFF
310
FFFFFFFFFFFFFFFFFFFFFFFFFFFFFFFFFFFFFFFFFFFFFFFFFFFFFFFFFFFFFFFF
310
FFFFFFFFFFFFFFFFFFFFFFFFFFFFFFFFFFFFFFFFFFFFFFFFFFFFFFFFFFFFFFFF
310
FFFFFFFFFFFFFFFFFFFFFFFFFFFFFFFFFFFFFFFFFFFFFFFFFFFFFFFFFFFFFFFF
310
FFFFFFFFFFFFFFFFFFFFFFFFFFFFFFFFFFFFFFFFFFFFFFFFFFFFFFFFFFFFFFFF
310
0100000200000000000000000000000000000000000000000000000000000000
310
0000000000000000000000000000000000000000000000000000000000000000
310
0100FEFF030A0000FFFFFFFF0A00030000000000C00000000000004607000000
310
5042727573680007000000504272757368000700000050427275736800F439B2
310
7100000000000000000000000000000000000000000000000000000000000000
310
0000000000000000000000000000000000000000000000000000000000000000
310
0000000000000000000000000000000000000000000000000000000000000000
310
0000000000000000000000000000000000000000000000000000000000000000
310
0000000000000000000000000000000000000000000000000000000000000000
310
0000000000000000000000000000000000000000000000000000000000000000
310
0000000000000000000000000000000000000000000000000000000000000000
310
0000000000000000000000000000000000000000000000000000000000000000
310
0000000000000000000000000000000000000000000000000000000000000000
310
0000000000000000000000000000000000000000000000000000000000000000
310
0000000000000000000000000000000000000000000000000000000000000000
310
0000000000000000000000000000000000000000000000000000000000000000
310
20260000424D0E260000000000003E00000028000000B40200006E0000000100
310
01000000000000000000130B0000130B00000200000002000000000000FFFFFF
310
FFFFFFFFFFFFFFFFFFFFFFFFFFFFFFFFFFFFFFFFFFFFFFFFFFFFFFFFFFFFFFFF
310
FFFFFFFFFFFFFFFFFFFFFFFFFFFFFFFFFFFFFFFFFFFFFFFFFFFFFFFFFFFFFFFF
310
FFFFFFFFFFFFFFFFFFFFFFFFFFFFFFFFFFFFFFFFFFFFFFFFF000FFFFFFFFFFFF
310
FFFFFFFFFFFFFFFFFFFFFFFFFFFFFFFFFFFFFFFFFFFFFFFFFFFFFFFFFFFFFFFF
310
FFFFFFFFFFFFFFFFFFFFFFFFFFFFFFFFFFFFFFFFFFFFFFFFFFFFFFFFFFFFFFFF
310
FFFFFFFFFFFFFFFFFFFFFFFFFFFFFFFFF000FFFFFFFFFFFFFFFFFFFFFFFFFFFF
310
FFFFFFFFFFFFFFFFFFFFFFFFFFFFFFFFFFFFFFFFFFFFFFFFFFFFFFFFFFFFFFFF
310
FFFFFFFFFFFFFFFFFFFFFFFFFFFFFFFFFFFFFFFFFFFFFFFFFFFFFFFFFFFFFFFF
310
FFFFFFFFFFFFFFFFF000FFFFFFFFFFFFFFFFFFFFFFFFFFFFFFFFFFFFFFFFFFFF
310
FFFFFFFFFFFFFFFFFFFFFFFFFFFFFFFFFFFFFFFFFFFFFFFFFFFFFFFFFFFFFFFF
310
FFFFFFFFFFFFFFFFFFFFFFFFFFFFFFFFFFFFFFFFFFFFFFFFFFFFFFFFFFFFFFFF
310
F000FFFFFFFFFFFFFFFFFFFFFFFFFFFFFFFFFFFFFFFFFFFFFFFFFFFFFFFFFFFF
310
FFFFFFFFFFFFFFFFFFFFFFFFFFFFFFFFFFFFFFFFFFFFFFFFFFFFFFFFFFFFFFFF
310
FFFFFFFFFFFFFFFFFFFFFFFFFFFFFFFFFFFFFFFFFFFFFFFFF000FFFFFFFFFFFF
310
FFFFFFFFFFFFFFFFFFFFFFFFFFFFFFFFFFFFFFFFFFFFFFFFFFFFFFFFFFFFFFFF
310
FFFFFFFFFFFFFFFFFFFFFFFFFFFFFFFFFFFFFFFFFFFFFFFFFFFFFFFFFFFFFFFF
310
FFFFFFFFFFFFFFFFFFFFFFFFFFFFFFFFF000FFFFFFFFFFFFFFFFFFFFFFFFFFFF
310
FFFFFFFFFFFFFFFFFFFFFFFFFFFFFFFFFFFFFFFFFFFFFFFFFFFFFFFFFFFFFFFF
310
FFFFFFFFFFFFFFFFFFFFFFFFFFFFFFFFFFFFFFFFFFFFFFFFFFFFFFFFFFFFFFFF
310
FFFFFFFFFFFFFFFFF000FFFFFFFFFFFFFFFFFFFFFFFFFFFFFFFFFFFFFFFFFFFF
310
FFFFFFFFFFFFFFFFFFFFFFFFFFFFFFFFFFFFFFFFFFFFFFFFFFFFFFFFFFFFFFFF
310
FFFFFFFFFFFFFFFFFFFFFFFFFFFFFFFFFFFFFFFFFFFFFFFFFFFFFFFFFFFFFFFF
310
F000FFFFFFFFFFFFFFFFFFFFFFFFFFFFFFFFFFFFFFFFFFFFFFFFFFFFFFFFFFFF
310
FFFFFFFFFFFFFFFFFFFFFFFFFFFFFFFFFFFFFFFFFFFFFFFFFFFFFFFFFFFFFFFF
310
FFFFFFFFFFFFFFFFFFFFFFFFFFFFFFFFFFFFFFFFFFFFFFFFF000FFFFFFFFFFFF
310
FFFFFFFFFFFFFFFFFFFFFFFFFFFFFFFFFFFFFFFFFFFFFFFFFFFFFFFFFFFFFFFF
310
FFFFFFFFFFFFFFFFFFFFFFFFFFFFFFFFFFFFFFFFFFFFFFFFFFFFFFFFFFFFFFFF
310
FFFFFFFFFFFFFFFFFFFFFFFFFFFFFFFFF000FFFFFFFFFFFFFFFFFFFFFFFFFFFF
310
FFFFFFFFFFFFFFFFFFFFFFFFFFFFFFFFFFFFFFFFFFFFFFFFFFFFFFFFFFFFFFFF
310
FFFFFFFFFFFFFFFFFFFFFFFFFFFFFFFFFFFFFFFFFFFFFFFFFFFFFFFFFFFFFFFF
310
FFFFFFFFFFFFFFFFF000FFFFFFFFFFFFFFFFFFFFFFFFFFFFFFFFFFFFFFFFFFFF
310
FFFFFFFFFFFFFFFFFFFFFFFFFFFFFFFFFFFFFFFFFFFFFFFFFFFFFFFFFFFFFFFF
310
FFFFFFFFFFFFFFFFFFFFFFFFFFFFFFFFFFFFFFFFFFFFFFFFFFFFFFFFFFFFFFFF
310
F000FFFFFFFFFFFFFFFFFFFFFFFFFFFFFFFFFFFFFFFFFFFFFFFFFFFFFFFFFFFF
310
FFFFFFFFFFFFFFFFFFFFFFFFFFFFFFFFFFFFFFFFFFFFFFFFFFFFFFFFFFFFFFFF
310
FFFFFFFFFFFFFFFFFFFFFFFFFFFFFFFFFFFFFFFFFFFFFFFFF000FFFFFFFFFFFF
310
FFFFFFFFFFFFFFFFFFFFFFFFFFFFFFFFFFFFFFFFFFFFFFFFFFFFFFFFFFFFFFFF
310
FFFFFFFFFFFFFFFFFFFFFFFFFFFFFFFFFFFFFFFFFFFFFFFFFFFFFFFFFFFFFFFF
310
FFFFFFFFFFFFFFFFFFFFFFFFFFFFFFFFF000FFFFFFFFFFFFFFFFFFFFFFFFFFFF
310
FFFFFFFFFFFFFFFFFFFFFFFFFFFFFFFFFFFFFFFFFFFFFFFFFFFFFFFFFFFFFFFF
310
FFFFFFFFFFFFFFFFFFFFFFFFFFFFFFFFFFFFFFFFFFFFFFFFFFFFFFFFFFFFFFFF
310
FFFFFFFFFFFFFFFFF000FFFFFFFFFFFFFFFFFFFFFFFFFFFFFFFFFFFFFFFFFFFF
310
FFFFFFFFFFFFFFFFFFFFFFFFFFFFFFFFFFFFFFFFFFFFFFFFFFFFFFFFFFFFFFFF
310
FFFFFFFFFFFFFFFFFFFFFFFFFFFFFFFFFFFFFFFFFFFFFFFFFFFFFFFFFFFFFFFF
310
F000FFFFFFFFFFFFFFFFFFFFFFFFFFFFFFFFFFFFFFFFFFFFFFFFFFFFFFFFFFFF
310
FFFFFFFFFFFFFFFFFFFFFFFFFFFFFFFFFFFFFFFFFFFFFFFFFFFFFFFFFFFFFFFF
310
FFFFFFFFFFFFFFFFFFFFFFFFFFFFFFFFFFFFFFFFFFFFFFFFF000FFFFFFFFFFFF
310
FFFFFFFFFFFFFFFFFFFFFFFFFFFFFFFFFFFFFFFFFFFFFFFFFFFFFFFFFFFFFFFF
310
FFFFFFFFFFFFFFFFFFFFFFFFFFFFFFFFFFFFFFFFFFFFFFFFFFFFFFFFFFFFFFFF
310
FFFFFFFFFFFFFFFFFFFFFFFFFFFFFFFFF000FFFFFFFFFFFFFFFFFFFFFFFFFFFF
310
FFFFFFFFFFFFFFFFFFFFFFFFFFFFFFFFFFFFFFFFFFFFFFFFFFFFFFFFFFFFFFFF
310
FFFFFFFFFFFFFFFFFFFFFFFFFFFFFFFFFFFFFFFFFFFFFFFFFFFFFFFFFFFFFFFF
310
FFFFFFFFFFFFFFFFF000FFFFF80003FFFFFFFFFFFFFFFFFFFFFFFFFFFFFFFFFF
310
FFFFF00007FFFFFFFFFF00007FFFFFF800000000000000007FFFFFFFFFFFFFFF
310
FFFFFFFC001FFFFFFFFFFFFFFC001FFFFFFFFFFFFFFFFFFFFFFFFFFE0007FFFF
310
F000FFFF8000007FFFFFFFF8000FFFFFC0007FFFFF80007FFFFF0000007FFFFF
310
FFF8000007FFFFF800000000000000007FFFFFF0001FFFFFFFFFFFC00001FFFF
310
FFFFFFFFC00001FFFFFFFF000000000003FFFFE000007FFFF000FFFE0000000F
310
FFFFFFF0000FFFFF80007FFFFF80007FFFFC0000001FFFFFFFC0000001FFFFF8
310
00000000000000007FFFFFF0001FFFFFFFFFFE0000003FFFFFFFFFFE0000003F
310
FFFFFF000000000003FFFF0000000FFFF000FFF800000003FFFFFFF00007FFFF
310
80007FFFFF80007FFFF000000007FFFFFF000000003FFFF80000000000000000
310
7FFFFFF0001FFFFFFFFFF80000000FFFFFFFFFF80000000FFFFFFF0000000000
310
03FFFC00000003FFF000FFE000000000FFFFFFF00007FFFF80003FFFFF80007F
310
FFC000000001FFFFFC000000001FFFF800000000000000007FFFFFF0001FFFFF
310
FFFFE000000003FFFFFFFFE000000003FFFFFF000000000003FFF000000000FF
310
F000FF80000000007FFFFFF00007FFFF80003FFFFF80007FFF8000000000FFFF
310
F80000000007FFF800000000000000007FFFFFF0001FFFFFFFFFC000000001FF
310
FFFFFFC000000001FFFFFF000000000003FFC0000000007FF000FF0000000000
310
3FFFFFE00007FFFF00003FFFFF80007FFE00000000003FFFF00000000003FFF8
310
00000000000000007FFFFFF0001FFFFFFFFF8000000000FFFFFFFF8000000000
310
FFFFFF000000000003FF80000000003FF000FE00000000001FFFFFE00003FFFF
310
00003FFFFF80007FFC00000000001FFFE00000000001FFF8000001FFFE000000
310
7FFFFFF0001FFFFFFFFE00000000003FFFFFFE00000000003FFFFF0000000000
310
03FF00000000001FF000FC00000000000FFFFFE00003FFFF00001FFFFF80007F
310
F800000000001FFFC00000000000FFF8000001FFFE0000007FFFFFF0001FFFFF
310
FFFC00000000001FFFFFFC00000000001FFFFF000000000003FE00000000000F
310
F000F8000000000007FFFFE00003FFFF00001FFFFF80007FF800000000000FFF
310
800000000000FFF8000001FFFE0000007FFFFFF0001FFFFFFFF800000000000F
310
FFFFF800000000000FFFFF000000000003FC000000000007F000F80000000000
310
03FFFFC00003FFFE00001FFFFF80007FF0000000000007FF0000000000007FF8
310
000001FFFE0000007FFFFFF0001FFFFFFFF0000000000007FFFFF00000000000
310
07FFFF000000000003F8000000000003F000F0000000000003FFFFC00001FFFE
310
00001FFFFF80007FE0000000000007FE0000000000003FF8000001FFFE000000
310
7FFFFFF0001FFFFFFFF0000000000007FFFFF0000000000007FFFF0000000000
310
03F800001F800003F000E00001FFF00001FFFFC00001FFFE00000FFFFF80007F
310
E00001FFE00003FE00001FFF00003FF8000001FFFE0000007FFFFFF0001FFFFF
310
FFE000003E000003FFFFE000003E000003FFFF000000000003F00001FFF80001
310
F000E00007FFFC0001FFFFC00001FFFE00000FFFFF80007FC0000FFFFC0003FC
310
0000FFFFC0001FF8000001FFFE0000007FFFFFF0001FFFFFFFC00003FFE00001
310
FFFFC00003FFE00001FFFF0001FFFFFFFFF00007FFFE0001F000E0000FFFFF00
310
00FFFF800001FFFC00000FFFFF80007FC0001FFFFE0001FC0001FFFFE0001FF8
310
000001FFFE0000007FFFFFF0001FFFFFFF80000FFFF80000FFFF80000FFFF800
310
00FFFF0003FFFFFFFFE0000FFFFF8000F000C0003FFFFF8000FFFF800000FFFC
310
000007FFFF80007F80003FFFFF0001FC0003FFFFF0001FF8000001FFFE000000
310
7FFFFFF0001FFFFFFF80003FFFFE0000FFFF80003FFFFE0000FFFF0003FFFFFF
310
FFE0003FFFFF8000F000C0003FFFFF8000FFFF800000FFFC000007FFFF80007F
310
80007FFFFF8001F80007FFFFF8000FF8000001FFFE0000007FFFFFF0001FFFFF
310
FF00007FFFFF00007FFF00007FFFFF00007FFF0003FFFFFFFFE0003FFFFFC000
310
F000C0007FFFFFC000FFFF000000FFFC000007FFFF80007F8000FFFFFF8000F8
310
000FFFFFF8000FF8000001FFFE0000007FFFFFF0001FFFFFFF0000FFFFFF8000
310
7FFF0000FFFFFF80007FFF0003FFFFFFFFC0007FFFFFC00070008000FFFFFFC0
310
00FFFF000000FFF8000007FFFF80007F8000FFFFFF8000F8000FFFFFF8000FF8
310
000001FFFE0000007FFFFFF0001FFFFFFE0001FFFFFFC0003FFE0001FFFFFFC0
310
003FFF0003FFFFFFFFC0007FFFFFE00070008000FFFFFFC0007FFF0000007FF8
310
000003FFFF80007F0001FFFFFF8000F8000FFFFFF8000FF8000001FFFE000000
310
7FFFFFF0001FFFFFFE0001FFFFFFC0003FFE0001FFFFFFC0003FFF0003FFFFFF
310
FFC000FFFFFFE00070008000FFFFFFC0007FFF0000007FF8000003FFFF80007F
310
0001FFFFFF8000F8001FFFFFF8000FF8000001FFFE0000007FFFFFF0001FFFFF
310
FE0003FFFFFFE0003FFE0003FFFFFFE0003FFF0003FFFFFFFFC000FFFFFFE000
310
70008000FFFFFFC0007FFE0000007FF8000003FFFF80007F0001FFFFFF8000F0
310
001FFFFFF8000FF8000001FFFE0000007FFFFFF0001FFFFFFC0003FFFFFFE000
310
1FFC0003FFFFFFE0001FFF0003FFFFFFFFC000FFFFFFC00070008000FFFFFF80
310
007FFE0000007FF0000003FFFF80007F0001FFFFFF0000F0001FFFFFF8000FF8
310
000001FFFE0000007FFFFFF0001FFFFFFC0007FFFFFFF0001FFC0007FFFFFFF0
310
001FFF0003FFFFFFFFC000FFFFFFC00070008001FFFFFF0000FFFE0000003FF0
310
000001FFFF80007F0001FFFFFF0000F8001FFFFFF0000FF8000001FFFE000000
310
7FFFFFF0001FFFFFFC0007FFFFFFF0001FFC0007FFFFFFF0001FFF0003FFFFFF
310
FFC001FFFFFF80007000FFFFFFFFFE0000FFFE0008003FF0008001FFFF80007F
310
FFFFFFFFFC0000FFFFFFFFFFE0000FF8000001FFFE0000007FFFFFF0001FFFFF
310
F8000FFFFFFFF8000FF8000FFFFFFFF8000FFF0003FFFFFFFFFFFFFFFFFF0000
310
7000FFFFFFFFFC0000FFFC0008003FF0008001FFFF80007FFFFFFFFFF80001FF
310
FFFFFFFF80000FF8000001FFFE0000007FFFFFF0001FFFFFF8000FFFFFFFF800
310
0FF8000FFFFFFFF8000FFF0003FFFFFFFFFFFFFFFFFE0000F000FFFFFFFFE000
310
00FFFC000C003FE000C001FFFF80007FFFFFFFFFC00001FFFFFFFFFE00001FF8
310
000001FFFE0000007FFFFFF0001FFFFFF8000FFFFFFFF8000FF8000FFFFFFFF8
310
000FFF0003FFFFFFFFFFFFFFFFF00000F000FFFFFFFE000001FFFC000C001FE0
310
00C000FFFF80007FFFFFFFFE000001FFFFFFFFE000001FF80FFFFFFFFFFFFFC0
310
7FFFFFF0001FFFFFF8000FFFFFFFF8000FF8000FFFFFFFF8000FFF0003FFFFFF
310
FFFFFFFFFF800000F000FFFFFFC0000001FFFC001C001FE001C000FFFF80007F
310
FFFFFF80000003FFFFFFF80000001FF80FFFFFFFFFFFFFC07FFFFFF0001FFFFF
310
F8001FFFFFFFFC000FF8001FFFFFFFFC000FFF0003FFFFFFFFFFFFFFF0000001
310
F000FFFFF800000001FFF8001C001FE001C000FFFF80007FFFFFF800000003FF
310
FFFF800000003FF80FFFFFFFFFFFFFC07FFFFFF0001FFFFFF8001FFFFFFFFC00
310
0FF8001FFFFFFFFC000FFF0003FFFFFFFFFFFFFE00000001F000FFFFC0000000
310
03FFF8001E001FC001E000FFFF80007FFFFF8000000007FFFFFC000000003FF8
310
0FFFFFFFFFFFFFC07FFFFFF0001FFFFFF8001FFFFFFFFC000FF8001FFFFFFFFC
310
000FFF0003FFFFFFFFFFFFE000000003F000FFFE0000000007FFF8001E000FC0
310
01E0007FFF80007FFFFE0000000007FFFFE0000000007FF80FFFFFFFFFFFFFC0
310
7FFFFFF0001FFFFFF0001FFFFFFFFC0007F0001FFFFFFFFC0007FF0003FFFFFF
310
FFFFFF0000000003F000FFF80000000007FFF8001E000FC003E0007FFF80007F
310
FFF0000000000FFFFF8000000000FFF80FFFFFFFFFFFFFC07FFFFFF0001FFFFF
310
F0001FFFFFFFFC0007F0001FFFFFFFFC0007FF0003FFFFFFFFFFFC0000000007
310
F000FFE0000000000FFFF0003E000FC003E0007FFF80007FFFC0000000001FFF
310
FE0000000001FFF80FFFFFFFFFFFFFC07FFFFFF0001FFFFFF0001FFFFFFFFC00
310
07F0001FFFFFFFFC0007FF0003FFFFFFFFFFF0000000000FF000FFC000000000
310
1FFFF0003F000F8003F0003FFF80007FFF80000000003FFFF80000000003FFF8
310
0FFFFFFFFFFFFFC07FFFFFF0001FFFFFF0001FFFFFFFFC0007F0001FFFFFFFFC
310
0007FF0003FFFFFFFFFFE0000000001FF000FF00000000007FFFF0003F000780
310
03F0003FFF80007FFF00000000007FFFF00000000007FFF80FFFFFFFFFFFFFC0
310
7FFFFFF0001FFFFFF0001FFFFFFFFC0007F0001FFFFFFFFC0007FF0003FFFFFF
310
FFFF80000000007FF000FE0000000000FFFFE0003F00078007F0003FFF80007F
310
FE0000000001FFFFE0000000001FFFF80FFFFFFFFFFFFFC07FFFFFF0001FFFFF
310
F0001FFFFFFFFC0007F0001FFFFFFFFC0007FF0003FFFFFFFFFF0000000000FF
310
F000FC0000000003FFFFE0007F00078007F0003FFF80007FFC0000000007FFFF
310
C0000000007FFFF80FFFFFFFFFFFFFC07FFFFFF0001FFFFFF8001FFFFFFFFC00
310
0FF8001FFFFFFFFC000FFF0003FFFFFFFFFE0000000003FFF000FC000000000F
310
FFFFE0007F80070007F8001FFF80007FF8000000001FFFFF8000000001FFFFF8
310
0FFFFFFFFFFFFFC07FFFFFF0001FFFFFF8001FFFFFFFFC000FF8001FFFFFFFFC
310
000FFF0003FFFFFFFFFC000000000FFFF000F8000000007FFFFFE0007F800700
310
07F8001FFF80007FF000000000FFFFFF800000000FFFFFF80FFFFFFFFFFFFFC0
310
7FFFFFF0001FFFFFF8000FFFFFFFF8000FF8000FFFFFFFF8000FFF0003FFFFFF
310
FFFC000000007FFFF000F800000007FFFFFFC0007F8003000FF8001FFF80007F
310
F000000007FFFFFF000000007FFFFFF80FFFFFFFFFFFFFC07FFFFFF0001FFFFF
310
F8000FFFFFFFF8000FF8000FFFFFFFF8000FFF0003FFFFFFFFF80000000FFFFF
310
F000F0000000FFFFFFFFC000FF8003000FF8001FFF80007FE0000000FFFFFFFF
310
0000000FFFFFFFF8000001FFFE0000007FFFFFF0001FFFFFF8000FFFFFFFF800
310
0FF8000FFFFFFFF8000FFF0003FFFFFFFFF8000000FFFFFFF000F000000FFFFF
310
FFFFC000FFC002000FF8000FFF80007FE000001FFFFFFFFE000001FFFFFFFFF8
310
000001FFFE0000007FFFFFF0001FFFFFF8000FFFFFFFF8000FF8000FFFFFFFF8
310
000FFF0003FFFFFFFFF000001FFFFFFFF000E00000FFFFFFFFFFC000FFC00200
310
0FFC000FFF80007FE00001FFFFFFFFFE00001FFFFFFFFFF8000001FFFE000000
310
7FFFFFF0001FFFFFFC000FFFFFFFF8001FFC000FFFFFFFF8001FFF0003FFFFFF
310
FFF00001FFFFFFFFF000E00007FFFFFFFFFF8000FFC000001FFC000FFF80007F
310
C0000FFFFFFFFFFE0000FFFFFFFFFFF8000001FFFE0000007FFFFFF0001FFFFF
310
FC0007FFFFFFF0001FFC0007FFFFFFF0001FFF0003FFFFFFFFF00007FFFFFFFF
310
F000E0001FFFFFFFFFFF8000FFC000001FFC000FFF80007FC0003FFFFFFFFFFE
310
0001FFFFFFFFFFF8000001FFFE0000007FFFFFF0001FFFFFFC0007FFFFFFF000
310
1FFC0007FFFFFFF0001FFF0003FFFFFFFFF0001FFFFFFFFFF000E0003FFFFF00
310
03FF8001FFE000001FFC0007FF80007FC0007FFFFF0007FC0003FFFFF0003FF8
310
000001FFFE0000007FFFFFF0001FFFFFFC0003FFFFFFE0001FFC0003FFFFFFE0
310
001FFF0003FFFFFFFFF0003FFFFFFFFFF000E0003FFFFF0001FF8001FFE00000
310
1FFE0007FF80007FC0007FFFFE0003FC0007FFFFE0003FF8000001FFFE000000
310
7FFFFFF0001FFFFFFE0003FFFFFFE0003FFE0003FFFFFFE0003FFF0003FFFFFF
310
FFF0003FFFFF8001F000E0003FFFFF0001FF0001FFE000001FFE0007FF80007F
310
C0007FFFFE0003FC0007FFFFE0003FF8000001FFFE0000007FFFFFF0001FFFFF
310
FE0001FFFFFFC0003FFE0001FFFFFFC0003FFF0003FFFFFFFFF0003FFFFF0001
310
F000E0003FFFFF0003FF0001FFE000003FFE0007FF80007FC0007FFFFE0003FC
310
0007FFFFE0003FF8000001FFFE0000007FFFFFF0001FFFFFFF0001FFFFFFC000
310
7FFF0001FFFFFFC0007FFF0003FFFFFFFFF0003FFFFF0001F000E0003FFFFE00
310
03FF0003FFF000003FFE0003FF80007FC0007FFFFC0003FE0007FFFFE0003FF8
310
000001FFFE0000007FFFFFF0001FFFFFFF0000FFFFFF80007FFF0000FFFFFF80
310
007FFF0003FFFFFFFFF0003FFFFF0001F000E0003FFFFE0003FF0003FFF00000
310
3FFF0003FF80007FC0007FFFFC0007FE0007FFFFC0003FF8000001FFFE000000
310
7FFFFFF0001FFFFFFF80007FFFFF0000FFFF80007FFFFF0000FFFF0003FFFFFF
310
FFF0003FFFFF0003F000E0003FFFFC0003FE0003FFF000003FFF0003FF80007F
310
E0003FFFF80007FE0003FFFFC0007FF8000001FFFE0000007FFFFFF0001FFFFF
310
FF80003FFFFE0000FFFF80003FFFFE0000FFFF0003FFFFFFFFF0001FFFFE0003
310
F000F0001FFFF80003FE0003FFF000007FFF0001FF80007FE0003FFFF00007FE
310
0001FFFF80007FF8000001FFFE0000007FFFFFF0001FFFFFFFC0000FFFF80001
310
FFFFC0000FFFF80001FFFF0003FFFFFFFFF0001FFFFC0003F000F0000FFFF000
310
07FE0007FFF800007FFF0001FF80007FE0001FFFE00007FF0000FFFE00007FF8
310
000001FFFE0000007FFFFFF0001FFFFFFFC00003FFE00001FFFFC00003FFE000
310
01FFFF0003FFFFFFFFF8000FFFF80003F000F00003FFC00007FC0007FFF80000
310
7FFF8001FF80007FF00007FF80000FFF00007FF80000FFF8000001FFFE000000
310
7F80000000000001FFE000003E000003FFFFE000003E000003FFFF0003FFFFFF
310
FFF80003FFE00007F000F800000000000FFC0007FFF800007FFF8001FF80007F
310
F000000000000FFF000000000000FFF8000001FFFE0000007F80000000000001
310
FFF0000000000007FFFFF0000000000007FFFF0003FFFFFFFFFC00007E000007
310
F000F800000000000FFC0007FFF80000FFFF8000FF80007FF800000000001FFF
310
800000000001FFF8000001FFFE0000007F80000000000001FFF800000000000F
310
FFFFF800000000000FFFFF0003FFFFFFFFFC00000000000FF000FC0000000000
310
1FFC0007FFFC0000FFFF8000FF80007FF800000000003FFFC00000000001FFF8
310
000001FFFE0000007F80000000000001FFF800000000000FFFFFF80000000000
310
0FFFFF0003FFFFFFFFFE00000000001FF000FE00000000003FF8000FFFFC0000
310
FFFF8000FF80007FFC00000000003FFFC00000000003FFF8000001FFFE000000
310
7F80000000000001FFFC00000000001FFFFFFC00000000001FFFFF0003FFFFFF
310
FFFF00000000001FF000FF00000000003FF8000FFFFC0000FFFFC000FF80007F
310
FE00000000007FFFE00000000007FFF8000001FFFE0000007F80000000000001
310
FFFE00000000003FFFFFFE00000000003FFFFF0003FFFFFFFFFF80000000003F
310
F000FF80000000007FF8000FFFFC0001FFFFC0007F80007FFF0000000000FFFF
310
F0000000000FFFF800000000000000007F80000000000001FFFF8000000000FF
310
FFFFFF8000000000FFFFFF0003FFFFFFFFFFC0000000007FF000FFC000000000
310
FFF8000FFFFE0001FFFFC0007F80007FFF8000000001FFFFF8000000001FFFF8
310
00000000000000007F80000000000001FFFFC000000001FFFFFFFFC000000001
310
FFFFFF0003FFFFFFFFFFE000000000FFF000FFE000000003FFF0001FFFFE0001
310
FFFFC0007F80007FFFC000000007FFFFFE000000003FFFF80000000000000000
310
7F80000000000001FFFFE000000003FFFFFFFFE000000003FFFFFF0003FFFFFF
310
FFFFF000000003FFF000FFF80000000FFFF0001FFFFE0001FFFFE0007F80007F
310
FFF00000000FFFFFFF00000000FFFFF800000000000000007F80000000000001
310
FFFFF80000000FFFFFFFFFF80000000FFFFFFF0003FFFFFFFFFFFC0000000FFF
310
F000FFFE0000003FFFF0001FFFFE0003FFFFE0003F80007FFFFC0000003FFFFF
310
FFC0000003FFFFF800000000000000007F80000000000001FFFFFE0000003FFF
310
FFFFFFFE0000003FFFFFFF0003FFFFFFFFFFFF0000003FFFF000FFFF800000FF
310
FFF0001FFFFF0003FFFFE0003F80007FFFFF000001FFFFFFFFF800001FFFFFF8
310
00000000000000007F80000000000001FFFFFFC00001FFFFFFFFFFFFC00001FF
310
FFFFFF0003FFFFFFFFFFFFC00000FFFFF000FFFFF8000FFFFFFFFFFFFFFFFFFF
310
FFFFFFFFFFFFFFFFFFFFF0001FFFFFFFFFFF0000FFFFFFF80000000000000000
310
7FFFFFFFFFFFFFFFFFFFFFFC001FFFFFFFFFFFFFFC001FFFFFFFFFFFFFFFFFFF
310
FFFFFFFC001FFFFFF000FFFFFFFFFFFFFFFFFFFFFFFFFFFFFFFFFFFFFFFFFFFF
310
FFFFFFFFFFFFFFFFFFFFFFFFFFFFFFFFFFFFFFFFFFFFFFFFFFFFFFFFFFFFFFFF
310
FFFFFFFFFFFFFFFFFFFFFFFFFFFFFFFFFFFFFFFFFFFFFFFFFFFFFFFFFFFFFFFF
310
F000FFFFFFFFFFFFFFFFFFFFFFFFFFFFFFFFFFFFFFFFFFFFFFFFFFFFFFFFFFFF
310
FFFFFFFFFFFFFFFFFFFFFFFFFFFFFFFFFFFFFFFFFFFFFFFFFFFFFFFFFFFFFFFF
310
FFFFFFFFFFFFFFFFFFFFFFFFFFFFFFFFFFFFFFFFFFFFFFFFF000FFFFFFFFFFFF
310
FFFFFFFFFFFFFFFFFFFFFFFFFFFFFFFFFFFFFFFFFFFFFFFFFFFFFFFFFFFFFFFF
310
FFFFFFFFFFFFFFFFFFFFFFFFFFFFFFFFFFFFFFFFFFFFFFFFFFFFFFFFFFFFFFFF
310
FFFFFFFFFFFFFFFFFFFFFFFFFFFFFFFFF000FFFFFFFFFFFFFFFFFFFFFFFFFFFF
310
FFFFFFFFFFFFFFFFFFFFFFFFFFFFFFFFFFFFFFFFFFFFFFFFFFFFFFFFFFFFFFFF
310
FFFFFFFFFFFFFFFFFFFFFFFFFFFFFFFFFFFFFFFFFFFFFFFFFFFFFFFFFFFFFFFF
310
FFFFFFFFFFFFFFFFF000FFFFFFFFFFFFFFFFFFFFFFFFFFFFFFFFFFFFFFFFFFFF
310
FFFFFFFFFFFFFFFFFFFFFFFFFFFFFFFFFFFFFFFFFFFFFFFFFFFFFFFFFFFFFFFF
310
FFFFFFFFFFFFFFFFFFFFFFFFFFFFFFFFFFFFFFFFFFFFFFFFFFFFFFFFFFFFFFFF
310
F000FFFFFFFFFFFFFFFFFFFFFFFFFFFFFFFFFFFFFFFFFFFFFFFFFFFFFFFFFFFF
310
FFFFFFFFFFFFFFFFFFFFFFFFFFFFFFFFFFFFFFFFFFFFFFFFFFFFFFFFFFFFFFFF
310
FFFFFFFFFFFFFFFFFFFFFFFFFFFFFFFFFFFFFFFFFFFFFFFFF000FFFFFFFFFFFF
310
FFFFFFFFFFFFFFFFFFFFFFFFFFFFFFFFFFFFFFFFFFFFFFFFFFFFFFFFFFFFFFFF
310
FFFFFFFFFFFFFFFFFFFFFFFFFFFFFFFFFFFFFFFFFFFFFFFFFFFFFFFFFFFFFFFF
310
FFFFFFFFFFFFFFFFFFFFFFFFFFFFFFFFF000FFFFFFFFFFFFFFFFFFFFFFFFFFFF
310
FFFFFFFFFFFFFFFFFFFFFFFFFFFFFFFFFFFFFFFFFFFFFFFFFFFFFFFFFFFFFFFF
310
FFFFFFFFFFFFFFFFFFFFFFFFFFFFFFFFFFFFFFFFFFFFFFFFFFFFFFFFFFFFFFFF
310
FFFFFFFFFFFFFFFFF000FFFFFFFFFFFFFFFFFFFFFFFFFFFFFFFFFFFFFFFFFFFF
310
FFFFFFFFFFFFFFFFFFFFFFFFFFFFFFFFFFFFFFFFFFFFFFFFFFFFFFFFFFFFFFFF
310
FFFFFFFFFFFFFFFFFFFFFFFFFFFFFFFFFFFFFFFFFFFFFFFFFFFFFFFFFFFFFFFF
310
F000FFFFFFFFFFFFFFFFFFFFFFFFFFFFFFFFFFFFFFFFFFFFFFFFFFFFFFFFFFFF
310
FFFFFFFFFFFFFFFFFFFFFFFFFFFFFFFFFFFFFFFFFFFFFFFFFFFFFFFFFFFFFFFF
310
FFFFFFFFFFFFFFFFFFFFFFFFFFFFFFFFFFFFFFFFFFFFFFFFF000FFFFFFFFFFFF
310
FFFFFFFFFFFFFFFFFFFFFFFFFFFFFFFFFFFFFFFFFFFFFFFFFFFFFFFFFFFFFFFF
310
FFFFFFFFFFFFFFFFFFFFFFFFFFFFFFFFFFFFFFFFFFFFFFFFFFFFFFFFFFFFFFFF
310
FFFFFFFFFFFFFFFFFFFFFFFFFFFFFFFFF000FFFFFFFFFFFFFFFFFFFFFFFFFFFF
310
FFFFFFFFFFFFFFFFFFFFFFFFFFFFFFFFFFFFFFFFFFFFFFFFFFFFFFFFFFFFFFFF
310
FFFFFFFFFFFFFFFFFFFFFFFFFFFFFFFFFFFFFFFFFFFFFFFFFFFFFFFFFFFFFFFF
310
FFFFFFFFFFFFFFFFF000FFFFFFFFFFFFFFFFFFFFFFFFFFFFFFFFFFFFFFFFFFFF
310
FFFFFFFFFFFFFFFFFFFFFFFFFFFFFFFFFFFFFFFFFFFFFFFFFFFFFFFFFFFFFFFF
310
FFFFFFFFFFFFFFFFFFFFFFFFFFFFFFFFFFFFFFFFFFFFFFFFFFFFFFFFFFFFFFFF
310
F000FFFFFFFFFFFFFFFFFFFFFFFFFFFFFFFFFFFFFFFFFFFFFFFFFFFFFFFFFFFF
310
FFFFFFFFFFFFFFFFFFFFFFFFFFFFFFFFFFFFFFFFFFFFFFFFFFFFFFFFFFFFFFFF
310
FFFFFFFFFFFFFFFFFFFFFFFFFFFFFFFFFFFFFFFFFFFFFFFFF000FFFFFFFFFFFF
310
FFFFFFFFFFFFFFFFFFFFFFFFFFFFFFFFFFFFFFFFFFFFFFFFFFFFFFFFFFFFFFFF
310
FFFFFFFFFFFFFFFFFFFFFFFFFFFFFFFFFFFFFFFFFFFFFFFFFFFFFFFFFFFFFFFF
310
FFFFFFFFFFFFFFFFFFFFFFFFFFFFFFFFF000FFFFFFFFFFFFFFFFFFFFFFFFFFFF
310
FFFFFFFFFFFFFFFFFFFFFFFFFFFFFFFFFFFFFFFFFFFFFFFFFFFFFFFFFFFFFFFF
310
FFFFFFFFFFFFFFFFFFFFFFFFFFFFFFFFFFFFFFFFFFFFFFFFFFFFFFFFFFFFFFFF
310
FFFFFFFFFFFFFFFFF000FFFFFFFFFFFFFFFFFFFFFFFFFFFFFFFFFFFFFFFFFFFF
310
FFFFFFFFFFFFFFFFFFFFFFFFFFFFFFFFFFFFFFFFFFFFFFFFFFFFFFFFFFFFFFFF
310
FFFFFFFFFFFFFFFFFFFFFFFFFFFFFFFFFFFFFFFFFFFFFFFFFFFFFFFFFFFFFFFF
310
F000FFFFFFFFFFFFFFFFFFFFFFFFFFFFFFFFFFFFFFFFFFFFFFFFFFFFFFFFFFFF
310
FFFFFFFFFFFFFFFFFFFFFFFFFFFFFFFFFFFFFFFFFFFFFFFFFFFFFFFFFFFFFFFF
310
FFFFFFFFFFFFFFFFFFFFFFFFFFFFFFFFFFFFFFFFFFFFFFFFF000FFFFFFFFFFFF
310
FFFFFFFFFFFFFFFFFFFFFFFFFFFFFFFFFFFFFFFFFFFFFFFFFFFFFFFFFFFFFFFF
310
FFFFFFFFFFFFFFFFFFFFFFFFFFFFFFFFFFFFFFFFFFFFFFFFFFFFFFFFFFFFFFFF
310
FFFFFFFFFFFFFFFFFFFFFFFFFFFFFFFFF000FFFFFFFFFFFFFFFFFFFFFFFFFFFF
310
FFFFFFFFFFFFFFFFFFFFFFFFFFFFFFFFFFFFFFFFFFFFFFFFFFFFFFFFFFFFFFFF
310
FFFFFFFFFFFFFFFFFFFFFFFFFFFFFFFFFFFFFFFFFFFFFFFFFFFFFFFFFFFFFFFF
310
FFFFFFFFFFFFFFFFF000FFFFFFFFFFFFFFFFFFFFFFFFFFFFFFFFFFFFFFFFFFFF
310
FFFFFFFFFFFFFFFFFFFFFFFFFFFFFFFFFFFFFFFFFFFFFFFFFFFFFFFFFFFFFFFF
310
FFFFFFFFFFFFFFFFFFFFFFFFFFFFFFFFFFFFFFFFFFFFFFFFFFFFFFFFFFFFFFFF
310
F000FFFFFFFFFFFFFFFFFFFFFFFFFFFFFFFFFFFFFFFFFFFFFFFFFFFFFFFFFFFF
310
FFFFFFFFFFFFFFFFFFFFFFFFFFFFFFFFFFFFFFFFFFFFFFFFFFFFFFFFFFFFFFFF
310
FFFFFFFFFFFFFFFFFFFFFFFFFFFFFFFFFFFFFFFFFFFFFFFFF000FFFFFFFFFFFF
310
FFFFFFFFFFFFFFFFFFFFFFFFFFFFFFFFFFFFFFFFFFFFFFFFFFFFFFFFFFFFFFFF
310
FFFFFFFFFFFFFFFFFFFFFFFFFFFFFFFFFFFFFFFFFFFFFFFFFFFFFFFFFFFFFFFF
310
FFFFFFFFFFFFFFFFFFFFFFFFFFFFFFFFF0000000000000000000000000000000
310
0000000000000000000000000000000000000000000000000000000000000000
310
0000000000000000000000000000000000000000000000000000000000000000
310
0000000000000000000000000000000000000000000000000000000000000000
310
0000000000000000000000000000000000000000000000000000000000000000
310
0000000000000000000000000000000000000000000000000000000000000000
310
0000000000000000000000000000000000000000000000000000000000000000
310
0000000000000000000000000000000000000000000000000000000000000000
310
0000000000000000000000000000000000000000000000000000000000000000
310
0000000000000000000000000000000000000000000000000000000000000000
310
0000000000000000000000000000000000000000000000000000000000000000
310
0000000000000000000000000000000000000000000000000000000000000000
310
0000000000000000000000000000000000000000000000000000000000000000
310
0000000000000000000000000000000000000000000000000000000000000000
310
0000000000000000000000000000000000000000000000000000000000000000
310
0000000000000000000000000000000000000000000000000000000000000000
  1
OLE
  0
ENDSEC
  0
SECTION
  2
OBJECTS
  0
DICTIONARY
  5
C
330
0
100
AcDbDictionary
281
     1
  3
ACAD_GROUP
350
D
  3
ACAD_LAYOUT
350
1A
  3
ACAD_MLINESTYLE
350
17
  3
ACAD_PLOTSETTINGS
350
19
  3
ACAD_PLOTSTYLENAME
350
E
  3
ACAD_SCALELIST
350
47
  0
DICTIONARY
  5
D
102
{ACAD_REACTORS
330
C
102
}
330
C
100
AcDbDictionary
281
     1
  0
DICTIONARY
  5
1A
102
{ACAD_REACTORS
330
C
102
}
330
C
100
AcDbDictionary
281
     1
  3
Layout1
350
1E
  3
Layout2
350
26
  3
Model
350
22
  0
DICTIONARY
  5
17
102
{ACAD_REACTORS
330
C
102
}
330
C
100
AcDbDictionary
281
     1
  3
Standard
350
18
  0
DICTIONARY
  5
19
102
{ACAD_REACTORS
330
C
102
}
330
C
100
AcDbDictionary
281
     1
  0
ACDBDICTIONARYWDFLT
  5
E
102
{ACAD_REACTORS
330
C
102
}
330
C
100
AcDbDictionary
281
     1
  3
Normal
350
F
100
AcDbDictionaryWithDefault
340
F
  0
DICTIONARY
  5
47
102
{ACAD_REACTORS
330
C
102
}
330
C
100
AcDbDictionary
281
     1
  3
A0
350
48
  3
A1
350
49
  3
A2
350
4A
  3
A3
350
4B
  3
A4
350
4C
  3
A5
350
4D
  3
A6
350
4E
  3
A7
350
4F
  3
A8
350
50
  3
A9
350
51
  3
B0
350
52
  3
B1
350
53
  3
B2
350
54
  3
B3
350
55
  3
B4
350
56
  3
B5
350
57
  3
B6
350
58
  3
B7
350
59
  3
B8
350
5A
  3
B9
350
5B
  3
C0
350
5C
  3
C1
350
5D
  3
C2
350
5E
  3
C3
350
5F
  3
C4
350
60
  3
C5
350
61
  3
C6
350
62
  3
C7
350
63
  3
C8
350
64
  3
C9
350
65
  3
D0
350
66
  3
D1
350
67
  3
D2
350
68
  0
LAYOUT
  5
1E
102
{ACAD_REACTORS
330
1A
102
}
330
1A
100
AcDbPlotSettings
  1

  2
none_device
  4

  6

 40
0.0
 41
0.0
 42
0.0
 43
0.0
 44
0.0
 45
0.0
 46
0.0
 47
0.0
 48
0.0
 49
0.0
140
0.0
141
0.0
142
1.0
143
1.0
 70
   688
 72
     1
 73
     0
 74
     5
  7

 75
    16
147
1.0
148
0.0
149
0.0
100
AcDbLayout
  1
Layout1
 70
     1
 71
     1
 10
0.0
 20
0.0
 11
420.0
 21
297.0
 12
0.0
 22
0.0
 32
0.0
 14
1.0000000000E+20
 24
1.0000000000E+20
 34
1.0000000000E+20
 15
-1.0000000000E+20
 25
-1.0000000000E+20
 35
-1.0000000000E+20
146
0.0
 13
0.0
 23
0.0
 33
0.0
 16
1.0
 26
0.0
 36
0.0
 17
0.0
 27
1.0
 37
0.0
 76
     0
330
1B
  0
LAYOUT
  5
26
102
{ACAD_REACTORS
330
1A
102
}
330
1A
100
AcDbPlotSettings
  1

  2
none_device
  4

  6

 40
0.0
 41
0.0
 42
0.0
 43
0.0
 44
0.0
 45
0.0
 46
0.0
 47
0.0
 48
0.0
 49
0.0
140
0.0
141
0.0
142
1.0
143
1.0
 70
   688
 72
     1
 73
     0
 74
     5
  7

 75
    16
147
1.0
148
0.0
149
0.0
100
AcDbLayout
  1
Layout2
 70
     1
 71
     2
 10
0.0
 20
0.0
 11
0.0
 21
0.0
 12
0.0
 22
0.0
 32
0.0
 14
0.0
 24
0.0
 34
0.0
 15
0.0
 25
0.0
 35
0.0
146
0.0
 13
0.0
 23
0.0
 33
0.0
 16
1.0
 26
0.0
 36
0.0
 17
0.0
 27
1.0
 37
0.0
 76
     0
330
23
  0
LAYOUT
  5
22
102
{ACAD_REACTORS
330
1A
102
}
330
1A
100
AcDbPlotSettings
  1

  2
none_device
  4
Letter_(8.50_x_11.00_Inches)
  6

 40
6.35
 41
6.35
 42
6.35000508
 43
6.35000508
 44
215.9
 45
279.4
 46
0.0
 47
0.0
 48
0.0
 49
0.0
140
0.0
141
0.0
142
1.0
143
1.0
 70
  1712
 72
     1
 73
     0
 74
     0
  7

 75
     0
147
1.0
148
0.0
149
0.0
100
AcDbLayout
  1
Model
 70
     1
 71
     0
 10
0.0
 20
0.0
 11
297.0
 21
210.0
 12
0.0
 22
0.0
 32
0.0
 14
0.0
 24
0.0
 34
0.0
 15
297.0
 25
210.0
 35
0.0
146
0.0
 13
0.0
 23
0.0
 33
0.0
 16
1.0
 26
0.0
 36
0.0
 17
0.0
 27
1.0
 37
0.0
 76
     0
330
1F
331
29
  0
MLINESTYLE
  5
18
102
{ACAD_REACTORS
330
17
102
}
330
17
100
AcDbMlineStyle
  2
Standard
 70
     0
  3

 62
   256
 51
90.0
 52
90.0
 71
     2
 49
0.5
 62
   256
  6
BYLAYER
 49
-0.5
 62
   256
  6
BYLAYER
  0
ACDBPLACEHOLDER
  5
F
102
{ACAD_REACTORS
330
E
102
}
330
E
  0
SCALE
  5
48
102
{ACAD_REACTORS
330
47
102
}
330
47
100
AcDbScale
 70
     0
300
1:1
140
1.0
141
1.0
290
     1
  0
SCALE
  5
49
102
{ACAD_REACTORS
330
47
102
}
330
47
100
AcDbScale
 70
     0
300
1:2
140
1.0
141
2.0
290
     0
  0
SCALE
  5
4A
102
{ACAD_REACTORS
330
47
102
}
330
47
100
AcDbScale
 70
     0
300
1:4
140
1.0
141
4.0
290
     0
  0
SCALE
  5
4B
102
{ACAD_REACTORS
330
47
102
}
330
47
100
AcDbScale
 70
     0
300
1:5
140
1.0
141
5.0
290
     0
  0
SCALE
  5
4C
102
{ACAD_REACTORS
330
47
102
}
330
47
100
AcDbScale
 70
     0
300
1:8
140
1.0
141
8.0
290
     0
  0
SCALE
  5
4D
102
{ACAD_REACTORS
330
47
102
}
330
47
100
AcDbScale
 70
     0
300
1:10
140
1.0
141
10.0
290
     0
  0
SCALE
  5
4E
102
{ACAD_REACTORS
330
47
102
}
330
47
100
AcDbScale
 70
     0
300
1:16
140
1.0
141
16.0
290
     0
  0
SCALE
  5
4F
102
{ACAD_REACTORS
330
47
102
}
330
47
100
AcDbScale
 70
     0
300
1:20
140
1.0
141
20.0
290
     0
  0
SCALE
  5
50
102
{ACAD_REACTORS
330
47
102
}
330
47
100
AcDbScale
 70
     0
300
1:30
140
1.0
141
30.0
290
     0
  0
SCALE
  5
51
102
{ACAD_REACTORS
330
47
102
}
330
47
100
AcDbScale
 70
     0
300
1:40
140
1.0
141
40.0
290
     0
  0
SCALE
  5
52
102
{ACAD_REACTORS
330
47
102
}
330
47
100
AcDbScale
 70
     0
300
1:50
140
1.0
141
50.0
290
     0
  0
SCALE
  5
53
102
{ACAD_REACTORS
330
47
102
}
330
47
100
AcDbScale
 70
     0
300
1:100
140
1.0
141
100.0
290
     0
  0
SCALE
  5
54
102
{ACAD_REACTORS
330
47
102
}
330
47
100
AcDbScale
 70
     0
300
2:1
140
2.0
141
1.0
290
     0
  0
SCALE
  5
55
102
{ACAD_REACTORS
330
47
102
}
330
47
100
AcDbScale
 70
     0
300
4:1
140
4.0
141
1.0
290
     0
  0
SCALE
  5
56
102
{ACAD_REACTORS
330
47
102
}
330
47
100
AcDbScale
 70
     0
300
8:1
140
8.0
141
1.0
290
     0
  0
SCALE
  5
57
102
{ACAD_REACTORS
330
47
102
}
330
47
100
AcDbScale
 70
     0
300
10:1
140
10.0
141
1.0
290
     0
  0
SCALE
  5
58
102
{ACAD_REACTORS
330
47
102
}
330
47
100
AcDbScale
 70
     0
300
100:1
140
100.0
141
1.0
290
     0
  0
SCALE
  5
59
102
{ACAD_REACTORS
330
47
102
}
330
47
100
AcDbScale
 70
     0
300
1/128" = 1'-0"
140
0.0078125
141
12.0
290
     0
  0
SCALE
  5
5A
102
{ACAD_REACTORS
330
47
102
}
330
47
100
AcDbScale
 70
     0
300
1/64" = 1'-0"
140
0.015625
141
12.0
290
     0
  0
SCALE
  5
5B
102
{ACAD_REACTORS
330
47
102
}
330
47
100
AcDbScale
 70
     0
300
1/32" = 1'-0"
140
0.03125
141
12.0
290
     0
  0
SCALE
  5
5C
102
{ACAD_REACTORS
330
47
102
}
330
47
100
AcDbScale
 70
     0
300
1/16" = 1'-0"
140
0.0625
141
12.0
290
     0
  0
SCALE
  5
5D
102
{ACAD_REACTORS
330
47
102
}
330
47
100
AcDbScale
 70
     0
300
3/32" = 1'-0"
140
0.09375
141
12.0
290
     0
  0
SCALE
  5
5E
102
{ACAD_REACTORS
330
47
102
}
330
47
100
AcDbScale
 70
     0
300
1/8" = 1'-0"
140
0.125
141
12.0
290
     0
  0
SCALE
  5
5F
102
{ACAD_REACTORS
330
47
102
}
330
47
100
AcDbScale
 70
     0
300
3/16" = 1'-0"
140
0.1875
141
12.0
290
     0
  0
SCALE
  5
60
102
{ACAD_REACTORS
330
47
102
}
330
47
100
AcDbScale
 70
     0
300
1/4" = 1'-0"
140
0.25
141
12.0
290
     0
  0
SCALE
  5
61
102
{ACAD_REACTORS
330
47
102
}
330
47
100
AcDbScale
 70
     0
300
3/8" = 1'-0"
140
0.375
141
12.0
290
     0
  0
SCALE
  5
62
102
{ACAD_REACTORS
330
47
102
}
330
47
100
AcDbScale
 70
     0
300
1/2" = 1'-0"
140
0.5
141
12.0
290
     0
  0
SCALE
  5
63
102
{ACAD_REACTORS
330
47
102
}
330
47
100
AcDbScale
 70
     0
300
3/4" = 1'-0"
140
0.75
141
12.0
290
     0
  0
SCALE
  5
64
102
{ACAD_REACTORS
330
47
102
}
330
47
100
AcDbScale
 70
     0
300
1" = 1'-0"
140
1.0
141
12.0
290
     0
  0
SCALE
  5
65
102
{ACAD_REACTORS
330
47
102
}
330
47
100
AcDbScale
 70
     0
300
1-1/2" = 1'-0"
140
1.5
141
12.0
290
     0
  0
SCALE
  5
66
102
{ACAD_REACTORS
330
47
102
}
330
47
100
AcDbScale
 70
     0
300
3" = 1'-0"
140
3.0
141
12.0
290
     0
  0
SCALE
  5
67
102
{ACAD_REACTORS
330
47
102
}
330
47
100
AcDbScale
 70
     0
300
6" = 1'-0"
140
6.0
141
12.0
290
     0
  0
SCALE
  5
68
102
{ACAD_REACTORS
330
47
102
}
330
47
100
AcDbScale
 70
     0
300
1'-0" = 1'-0"
140
12.0
141
12.0
290
     0
  0
ENDSEC
  0
EOF
