  0
SECTION
  2
HEADER
  9
$ACADVER
  1
AC1015
  9
$ACADMAINTVER
 70
     6
  9
$DWGCODEPAGE
  3
ANSI_1252
  9
$INSBASE
 10
0.0
 20
0.0
 30
0.0
  9
$EXTMIN
 10
0.0
 20
0.0
 30
0.0
  9
$EXTMAX
 10
297.0
 20
210.0
 30
0.0
  9
$LIMMIN
 10
0.0
 20
0.0
  9
$LIMMAX
 10
297.0
 20
210.0
  9
$ORTHOMODE
 70
     0
  9
$REGENMODE
 70
     1
  9
$FILLMODE
 70
     1
  9
$QTEXTMODE
 70
     0
  9
$MIRRTEXT
 70
     1
  9
$LTSCALE
 40
1.0
  9
$ATTMODE
 70
     1
  9
$TEXTSIZE
 40
2.0
  9
$TRACEWID
 40
1.0
  9
$TEXTSTYLE
  7
Standard
  9
$CLAYER
  8
0
  9
$CELTYPE
  6
ByLayer
  9
$CECOLOR
 62
   256
  9
$CELTSCALE
 40
1.0
  9
$DISPSILH
 70
     0
  9
$DIMSCALE
 40
1.0
  9
$DIMASZ
 40
3.0
  9
$DIMEXO
 40
0.0
  9
$DIMDLI
 40
3.75
  9
$DIMRND
 40
0.0
  9
$DIMDLE
 40
0.0
  9
$DIMEXE
 40
1.0
  9
$DIMTP
 40
0.0
  9
$DIMTM
 40
0.0
  9
$DIMTXT
 40
2.0
  9
$DIMCEN
 40
2.5
  9
$DIMTSZ
 40
0.0
  9
$DIMTOL
 70
     0
  9
$DIMLIM
 70
     0
  9
$DIMTIH
 70
     1
  9
$DIMTOH
 70
     1
  9
$DIMSE1
 70
     0
  9
$DIMSE2
 70
     0
  9
$DIMTAD
 70
     1
  9
$DIMZIN
 70
     0
  9
$DIMBLK
  1

  9
$DIMASO
 70
     1
  9
$DIMSHO
 70
     1
  9
$DIMPOST
  1

  9
$DIMAPOST
  1

  9
$DIMALT
 70
     0
  9
$DIMALTD
 70
     3
  9
$DIMALTF
 40
0.0393700787
  9
$DIMLFAC
 40
1.0
  9
$DIMTOFL
 70
     1
  9
$DIMTVP
 40
0.0
  9
$DIMTIX
 70
     0
  9
$DIMSOXD
 70
     0
  9
$DIMSAH
 70
     0
  9
$DIMBLK1
  1

  9
$DIMBLK2
  1

  9
$DIMSTYLE
  2
ISO-25
  9
$DIMCLRD
 70
     0
  9
$DIMCLRE
 70
     0
  9
$DIMCLRT
 70
     0
  9
$DIMTFAC
 40
1.0
  9
$DIMGAP
 40
1.524
  9
$DIMJUST
 70
     0
  9
$DIMSD1
 70
     0
  9
$DIMSD2
 70
     0
  9
$DIMTOLJ
 70
     0
  9
$DIMTZIN
 70
     0
  9
$DIMALTZ
 70
     0
  9
$DIMALTTZ
 70
     0
  9
$DIMUPT
 70
     0
  9
$DIMDEC
 70
     2
  9
$DIMTDEC
 70
     3
  9
$DIMALTU
 70
     2
  9
$DIMALTTD
 70
     3
  9
$DIMTXSTY
  7
Standard
  9
$DIMAUNIT
 70
     0
  9
$DIMADEC
 70
     2
  9
$DIMALTRND
 40
0.0
  9
$DIMAZIN
 70
     0
  9
$DIMDSEP
 70
    44
  9
$DIMATFIT
 70
     3
  9
$DIMFRAC
 70
     0
  9
$DIMLDRBLK
  1

  9
$DIMLUNIT
 70
     2
  9
$DIMLWD
 70
    -2
  9
$DIMLWE
 70
    -2
  9
$DIMTMOVE
 70
     0
  9
$LUNITS
 70
     2
  9
$LUPREC
 70
     2
  9
$SKETCHINC
 40
1.0
  9
$FILLETRAD
 40
10.0
  9
$AUNITS
 70
     0
  9
$AUPREC
 70
     2
  9
$MENU
  1
.
  9
$ELEVATION
 40
0.0
  9
$PELEVATION
 40
0.0
  9
$THICKNESS
 40
0.0
  9
$LIMCHECK
 70
     0
  9
$CHAMFERA
 40
0.0
  9
$CHAMFERB
 40
0.0
  9
$CHAMFERC
 40
0.0
  9
$CHAMFERD
 40
0.0
  9
$SKPOLY
 70
     0
  9
$TDCREATE
 40
2457674.434800509
  9
$TDUCREATE
 40
2457674.351467176
  9
$TDUPDATE
 40
2457674.43480184
  9
$TDUUPDATE
 40
2457674.351468507
  9
$TDINDWG
 40
0.0000000116
  9
$TDUSRTIMER
 40
0.0000000116
  9
$USRTIMER
 70
     1
  9
$ANGBASE
 50
0.0
  9
$ANGDIR
 70
     0
  9
$PDMODE
 70
     0
  9
$PDSIZE
 40
-1.0
  9
$PLINEWID
 40
0.0
  9
$SPLFRAME
 70
     0
  9
$SPLINETYPE
 70
     6
  9
$SPLINESEGS
 70
     8
  9
$HANDSEED
  5
22C
  9
$SURFTAB1
 70
     6
  9
$SURFTAB2
 70
     6
  9
$SURFTYPE
 70
     6
  9
$SURFU
 70
     6
  9
$SURFV
 70
     6
  9
$UCSBASE
  2

  9
$UCSNAME
  2

  9
$UCSORG
 10
0.0
 20
0.0
 30
0.0
  9
$UCSXDIR
 10
1.0
 20
0.0
 30
0.0
  9
$UCSYDIR
 10
0.0
 20
1.0
 30
0.0
  9
$UCSORTHOREF
  2

  9
$UCSORTHOVIEW
 70
     0
  9
$UCSORGTOP
 10
0.0
 20
0.0
 30
0.0
  9
$UCSORGBOTTOM
 10
0.0
 20
0.0
 30
0.0
  9
$UCSORGLEFT
 10
0.0
 20
0.0
 30
0.0
  9
$UCSORGRIGHT
 10
0.0
 20
0.0
 30
0.0
  9
$UCSORGFRONT
 10
0.0
 20
0.0
 30
0.0
  9
$UCSORGBACK
 10
0.0
 20
0.0
 30
0.0
  9
$PUCSBASE
  2

  9
$PUCSNAME
  2

  9
$PUCSORG
 10
0.0
 20
0.0
 30
0.0
  9
$PUCSXDIR
 10
1.0
 20
0.0
 30
0.0
  9
$PUCSYDIR
 10
0.0
 20
1.0
 30
0.0
  9
$PUCSORTHOREF
  2

  9
$PUCSORTHOVIEW
 70
     0
  9
$PUCSORGTOP
 10
0.0
 20
0.0
 30
0.0
  9
$PUCSORGBOTTOM
 10
0.0
 20
0.0
 30
0.0
  9
$PUCSORGLEFT
 10
0.0
 20
0.0
 30
0.0
  9
$PUCSORGRIGHT
 10
0.0
 20
0.0
 30
0.0
  9
$PUCSORGFRONT
 10
0.0
 20
0.0
 30
0.0
  9
$PUCSORGBACK
 10
0.0
 20
0.0
 30
0.0
  9
$USERI1
 70
     0
  9
$USERI2
 70
     0
  9
$USERI3
 70
     0
  9
$USERI4
 70
     0
  9
$USERI5
 70
     0
  9
$USERR1
 40
0.0
  9
$USERR2
 40
0.0
  9
$USERR3
 40
0.0
  9
$USERR4
 40
0.0
  9
$USERR5
 40
0.0
  9
$WORLDVIEW
 70
     1
  9
$SHADEDGE
 70
     3
  9
$SHADEDIF
 70
    70
  9
$TILEMODE
 70
     1
  9
$MAXACTVP
 70
    64
  9
$PINSBASE
 10
0.0
 20
0.0
 30
0.0
  9
$PLIMCHECK
 70
     0
  9
$PEXTMIN
 10
1.0000000000E+20
 20
1.0000000000E+20
 30
1.0000000000E+20
  9
$PEXTMAX
 10
-1.0000000000E+20
 20
-1.0000000000E+20
 30
-1.0000000000E+20
  9
$PLIMMIN
 10
0.0
 20
0.0
  9
$PLIMMAX
 10
420.0
 20
297.0
  9
$UNITMODE
 70
     0
  9
$VISRETAIN
 70
     1
  9
$PLINEGEN
 70
     0
  9
$PSLTSCALE
 70
     1
  9
$TREEDEPTH
 70
  3020
  9
$CMLSTYLE
  2
Standard
  9
$CMLJUST
 70
     0
  9
$CMLSCALE
 40
20.0
  9
$PROXYGRAPHICS
 70
     1
  9
$MEASUREMENT
 70
     1
  9
$CELWEIGHT
370
    -1
  9
$ENDCAPS
280
     0
  9
$JOINSTYLE
280
     0
  9
$LWDISPLAY
290
     1
  9
$INSUNITS
 70
     4
  9
$HYPERLINKBASE
  1

  9
$STYLESHEET
  1

  9
$XEDIT
290
     1
  9
$CEPSNTYPE
380
     0
  9
$PSTYLEMODE
290
     1
  9
$FINGERPRINTGUID
  2
{9749D85C-34A5-4810-8AE6-D33873776FC8}
  9
$VERSIONGUID
  2
{FAEB1C32-E019-11D5-929B-00C0DF256EC4}
  9
$EXTNAMES
290
     1
  9
$PSVPSCALE
 40
0.0
  9
$OLESTARTUP
290
     0
  0
ENDSEC
  0
SECTION
  2
CLASSES
  0
CLASS
  1
ACDBDICTIONARYWDFLT
  2
AcDbDictionaryWithDefault
  3
ObjectDBX Classes
 90
        0
280
     0
281
     0
  0
CLASS
  1
VISUALSTYLE
  2
AcDbVisualStyle
  3
ObjectDBX Classes
 90
     4095
280
     0
281
     0
  0
CLASS
  1
MATERIAL
  2
AcDbMaterial
  3
ObjectDBX Classes
 90
     1153
280
     0
281
     0
  0
CLASS
  1
SCALE
  2
AcDbScale
  3
ObjectDBX Classes
 90
     1153
280
     0
281
     0
  0
CLASS
  1
TABLESTYLE
  2
AcDbTableStyle
  3
ObjectDBX Classes
 90
     4095
280
     0
281
     0
  0
CLASS
  1
MLEADERSTYLE
  2
AcDbMLeaderStyle
  3
ACDB_MLEADERSTYLE_CLASS
 90
     4095
280
     0
281
     0
  0
CLASS
  1
SUN
  2
AcDbSun
  3
SCENEOE
 90
     1153
280
     0
281
     0
  0
CLASS
  1
ACDBPLACEHOLDER
  2
AcDbPlaceHolder
  3
ObjectDBX Classes
 90
        0
280
     0
281
     0
  0
CLASS
  1
LAYOUT
  2
AcDbLayout
  3
ObjectDBX Classes
 90
        0
280
     0
281
     0
  0
ENDSEC
  0
SECTION
  2
TABLES
  0
TABLE
  2
VPORT
  5
8
330
0
100
AcDbSymbolTable
 70
     1
  0
VPORT
  5
29
330
8
100
AcDbSymbolTableRecord
100
AcDbViewportTableRecord
  2
*Active
 70
     0
 10
0.0
 20
0.0
 11
1.0
 21
1.0
 12
148.5
 22
105.0
 13
0.0
 23
0.0
 14
10.0
 24
10.0
 15
10.0
 25
10.0
 16
0.0
 26
0.0
 36
1.0
 17
0.0
 27
0.0
 37
0.0
 40
210.0
 41
1.4142857143
 42
50.0
 43
0.0
 44
0.0
 50
0.0
 51
0.0
 71
     0
 72
  2000
 73
     1
 74
     3
 75
     0
 76
     0
 77
     0
 78
     0
281
     0
 65
     1
110
0.0
120
0.0
130
0.0
111
1.0
121
0.0
131
0.0
112
0.0
122
1.0
132
0.0
 79
     0
146
0.0
  0
ENDTAB
  0
TABLE
  2
LTYPE
  5
5
330
0
100
AcDbSymbolTable
 70
     6
  0
LTYPE
  5
14
330
5
100
AcDbSymbolTableRecord
100
AcDbLinetypeTableRecord
  2
ByBlock
 70
     0
  3

 72
    65
 73
     0
 40
0.0
  0
LTYPE
  5
15
330
5
100
AcDbSymbolTableRecord
100
AcDbLinetypeTableRecord
  2
ByLayer
 70
     0
  3

 72
    65
 73
     0
 40
0.0
  0
LTYPE
  5
16
330
5
100
AcDbSymbolTableRecord
100
AcDbLinetypeTableRecord
  2
Continuous
 70
     0
  3
Solid line
 72
    65
 73
     0
 40
0.0
  0
LTYPE
  5
6E
330
5
100
AcDbSymbolTableRecord
100
AcDbLinetypeTableRecord
  2
HIDDEN
 70
     0
  3
Hidden __ __ __ __ __ __ __ __ __ __ __ __ __ __
 72
    65
 73
     2
 40
1.905
 49
1.27
 74
     0
 49
-0.635
 74
     0
  0
LTYPE
  5
6F
330
5
100
AcDbSymbolTableRecord
100
AcDbLinetypeTableRecord
  2
PHANTOM
 70
     0
  3
Phantom ______  __  __  ______  __  __  ______
 72
    65
 73
     6
 40
12.7
 49
6.35
 74
     0
 49
-1.27
 74
     0
 49
1.27
 74
     0
 49
-1.27
 74
     0
 49
1.27
 74
     0
 49
-1.27
 74
     0
  0
LTYPE
  5
70
330
5
100
AcDbSymbolTableRecord
100
AcDbLinetypeTableRecord
  2
CENTER
 70
     0
  3
Center ____ _ ____ _ ____ _ ____ _ ____ _ ____
 72
    65
 73
     4
 40
10.16
 49
6.35
 74
     0
 49
-1.27
 74
     0
 49
1.27
 74
     0
 49
-1.27
 74
     0
  0
LTYPE
  5
71
330
5
100
AcDbSymbolTableRecord
100
AcDbLinetypeTableRecord
  2
CENTERX2
 70
     0
  3
Center (2x) ________  __  ________  __  _____
 72
    65
 73
     4
 40
20.32
 49
12.7
 74
     0
 49
-2.54
 74
     0
 49
2.54
 74
     0
 49
-2.54
 74
     0
  0
LTYPE
  5
72
330
5
100
AcDbSymbolTableRecord
100
AcDbLinetypeTableRecord
  2
DOT2
 70
     0
  3
Dot (.5x) ........................................
 72
    65
 73
     2
 40
0.635
 49
0.0
 74
     0
 49
-0.635
 74
     0
  0
ENDTAB
  0
TABLE
  2
LAYER
  5
2
330
0
100
AcDbSymbolTable
 70
     5
  0
LAYER
  5
10
330
2
100
AcDbSymbolTableRecord
100
AcDbLayerTableRecord
  2
0
 70
     0
 62
     7
  6
Continuous
370
    -3
390
F
  0
LAYER
  5
73
330
2
100
AcDbSymbolTableRecord
100
AcDbLayerTableRecord
  2
FORMAT
 70
     0
 62
     7
  6
Continuous
370
    -3
390
F
  0
LAYER
  5
74
330
2
100
AcDbSymbolTableRecord
100
AcDbLayerTableRecord
  2
VERMASSUNG
 70
     0
 62
     7
  6
Continuous
370
    -3
390
F
  0
LAYER
  5
75
330
2
100
AcDbSymbolTableRecord
100
AcDbLayerTableRecord
  2
KOPF_DÜNN
 70
     0
 62
     7
  6
Continuous
370
    -3
390
F
  0
LAYER
  5
76
330
2
100
AcDbSymbolTableRecord
100
AcDbLayerTableRecord
  2
KOPF_DICK
 70
     0
 62
     7
  6
Continuous
370
    15
390
F
  0
ENDTAB
  0
TABLE
  2
STYLE
  5
3
330
0
100
AcDbSymbolTable
 70
     2
  0
STYLE
  5
11
330
3
100
AcDbSymbolTableRecord
100
AcDbTextStyleTableRecord
  2
Standard
 70
     0
 40
0.0
 41
1.0
 50
0.0
 71
     0
 42
2.0
  3
txt
  4

  0
STYLE
  5
77
330
3
100
AcDbSymbolTableRecord
100
AcDbTextStyleTableRecord
  2
SLDTEXTSTYLE0
 70
     0
 40
0.0
 41
0.7
 50
0.0
 71
     0
 42
2.0
  3
TXT
  4

  0
ENDTAB
  0
TABLE
  2
VIEW
  5
6
330
0
100
AcDbSymbolTable
 70
     0
  0
ENDTAB
  0
TABLE
  2
UCS
  5
7
330
0
100
AcDbSymbolTable
 70
     0
  0
ENDTAB
  0
TABLE
  2
APPID
  5
9
330
0
100
AcDbSymbolTable
 70
     1
  0
APPID
  5
12
330
9
100
AcDbSymbolTableRecord
100
AcDbRegAppTableRecord
  2
ACAD
 70
     0
  0
ENDTAB
  0
TABLE
  2
DIMSTYLE
  5
A
330
0
100
AcDbSymbolTable
 70
     3
100
AcDbDimStyleTable
  0
DIMSTYLE
105
27
330
A
100
AcDbSymbolTableRecord
100
AcDbDimStyleTableRecord
  2
ISO-25
 70
     0
 41
2.5
 42
0.625
 43
3.75
 44
1.25
 73
     0
 74
     0
 77
     1
 78
     8
140
2.5
141
2.5
143
0.0393700787
147
0.625
171
     3
172
     1
178
     0
271
     2
272
     2
274
     3
278
    44
283
     0
284
     8
340
11
  0
DIMSTYLE
105
14B
102
{ACAD_REACTORS
330
14A
330
157
330
171
330
17B
330
185
102
}
330
A
100
AcDbSymbolTableRecord
100
AcDbDimStyleTableRecord
  2
SLDDIMSTYLE0
 70
     0
 41
3.0
 44
0.0
 45
0.000000001
 73
     0
 74
     0
 77
     1
 78
    12
 79
     3
140
2.0
147
0.5
173
     1
178
     0
271
     2
272
     3
276
     2
284
    12
340
77
  0
DIMSTYLE
105
164
102
{ACAD_REACTORS
330
163
102
}
330
A
100
AcDbSymbolTableRecord
100
AcDbDimStyleTableRecord
  2
SLDDIMSTYLE1
 70
     0
 41
3.0
 44
0.0
 45
0.000000001
 73
     0
 74
     0
 77
     1
 78
    12
 79
     3
140
2.0
147
0.5
172
     1
173
     1
178
     0
271
     2
272
     3
276
     2
284
    12
289
     0
340
77
  0
ENDTAB
  0
TABLE
  2
BLOCK_RECORD
  5
1
330
0
100
AcDbSymbolTable
 70
     8
  0
BLOCK_RECORD
  5
1F
330
1
100
AcDbSymbolTableRecord
100
AcDbBlockTableRecord
  2
*Model_Space
340
22
  0
BLOCK_RECORD
  5
1B
330
1
100
AcDbSymbolTableRecord
100
AcDbBlockTableRecord
  2
*Paper_Space
340
1E
  0
BLOCK_RECORD
  5
23
330
1
100
AcDbSymbolTableRecord
100
AcDbBlockTableRecord
  2
*Paper_Space0
340
26
  0
BLOCK_RECORD
  5
14C
330
1
100
AcDbSymbolTableRecord
100
AcDbBlockTableRecord
  2
_D
340
0
  0
BLOCK_RECORD
  5
158
330
1
100
AcDbSymbolTableRecord
100
AcDbBlockTableRecord
  2
_D_1
340
0
  0
BLOCK_RECORD
  5
165
330
1
100
AcDbSymbolTableRecord
100
AcDbBlockTableRecord
  2
_D_2
340
0
  0
BLOCK_RECORD
  5
172
330
1
100
AcDbSymbolTableRecord
100
AcDbBlockTableRecord
  2
_D_3
340
0
  0
BLOCK_RECORD
  5
17C
330
1
100
AcDbSymbolTableRecord
100
AcDbBlockTableRecord
  2
_D_4
340
0
  0
BLOCK_RECORD
  5
186
330
1
100
AcDbSymbolTableRecord
100
AcDbBlockTableRecord
  2
_D_5
340
0
  0
BLOCK_RECORD
  5
18F
330
1
100
AcDbSymbolTableRecord
100
AcDbBlockTableRecord
  2
SW_CENTERMARKSYMBOL_0
340
0
102
{BLKREFS
331
19A
102
}
  0
ENDTAB
  0
ENDSEC
  0
SECTION
  2
BLOCKS
  0
BLOCK
  5
20
330
1F
100
AcDbEntity
  8
0
100
AcDbBlockBegin
  2
*Model_Space
 70
     0
 10
0.0
 20
0.0
 30
0.0
  3
*Model_Space
  1

  0
ENDBLK
  5
21
330
1F
100
AcDbEntity
  8
0
100
AcDbBlockEnd
  0
BLOCK
  5
1C
330
1B
100
AcDbEntity
 67
     1
  8
0
100
AcDbBlockBegin
  2
*Paper_Space
 70
     0
 10
0.0
 20
0.0
 30
0.0
  3
*Paper_Space
  1

  0
ENDBLK
  5
1D
330
1B
100
AcDbEntity
 67
     1
  8
0
100
AcDbBlockEnd
  0
BLOCK
  5
24
330
23
100
AcDbEntity
  8
0
100
AcDbBlockBegin
  2
*Paper_Space0
 70
     0
 10
0.0
 20
0.0
 30
0.0
  3
*Paper_Space0
  1

  0
ENDBLK
  5
25
330
23
100
AcDbEntity
  8
0
100
AcDbBlockEnd
  0
BLOCK
  5
14D
330
14C
100
AcDbEntity
  8
0
100
AcDbBlockBegin
  2
_D
 70
     0
 10
0.0
 20
0.0
 30
0.0
  3
_D
  1

  0
SOLID
  5
14F
330
14C
100
AcDbEntity
  8
VERMASSUNG
100
AcDbTrace
 10
64.9928037141
 20
79.56755789
 30
0.0
 11
65.4428037141
 21
82.56755789
 31
0.0
 12
64.5428037141
 22
82.56755789
 32
0.0
 13
64.5428037141
 23
82.56755789
 33
0.0
  0
SOLID
  5
150
330
14C
100
AcDbEntity
  8
VERMASSUNG
100
AcDbTrace
 10
64.9928037141
 20
143.06755789
 30
0.0
 11
64.5428037141
 21
140.06755789
 31
0.0
 12
65.4428037141
 22
140.06755789
 32
0.0
 13
65.4428037141
 23
140.06755789
 33
0.0
  0
LINE
  5
151
330
14C
100
AcDbEntity
  8
VERMASSUNG
100
AcDbLine
 10
162.6101560148
 20
79.56755789
 30
0.0
 11
63.9928037141
 21
79.56755789
 31
0.0
  0
LINE
  5
152
330
14C
100
AcDbEntity
  8
VERMASSUNG
100
AcDbLine
 10
162.6101560148
 20
143.06755789
 30
0.0
 11
63.9928037141
 21
143.06755789
 31
0.0
  0
LINE
  5
153
330
14C
100
AcDbEntity
  8
VERMASSUNG
100
AcDbLine
 10
64.9928037141
 20
79.56755789
 30
0.0
 11
64.9928037141
 21
143.06755789
 31
0.0
  0
MTEXT
  5
154
330
14C
100
AcDbEntity
  8
VERMASSUNG
100
AcDbMText
 10
62.2146684578
 20
102.5146217417
 30
0.0
 40
2.0
 41
0.0
 71
     1
 72
     1
  1
ISO 40
  7
SLDTEXTSTYLE0
 11
3.391901413832837E-15
 21
1.0
 31
0.0
 73
     1
 44
1.0
  0
MTEXT
  5
155
330
14C
100
AcDbEntity
  8
VERMASSUNG
100
AcDbMText
 10
62.4146684091
 20
111.7146219459
 30
0.0
 40
2.0
 41
0.0
 71
     1
 72
     1
  1
%%c
  7
SLDTEXTSTYLE0
 11
3.391901413832837E-15
 21
1.0
 31
0.0
 73
     1
 44
1.0
  0
MTEXT
  5
156
330
14C
100
AcDbEntity
  8
VERMASSUNG
100
AcDbMText
 10
62.4146681181
 20
115.3225022773
 30
0.0
 40
2.0
 41
0.0
 71
     1
 72
     1
  1
63.5
  7
SLDTEXTSTYLE0
 11
3.391901413832837E-15
 21
1.0
 31
0.0
 73
     1
 44
1.0
  0
ENDBLK
  5
14E
330
14C
100
AcDbEntity
  8
0
100
AcDbBlockEnd
  0
BLOCK
  5
159
330
158
100
AcDbEntity
  8
0
100
AcDbBlockBegin
  2
_D_1
 70
     0
 10
0.0
 20
0.0
 30
0.0
  3
_D_1
  1

  0
SOLID
  5
15B
330
158
100
AcDbEntity
  8
VERMASSUNG
100
AcDbTrace
 10
242.3042508828
 20
121.31755789
 30
0.0
 11
241.8542508828
 21
118.31755789
 31
0.0
 12
242.7542508828
 22
118.31755789
 32
0.0
 13
242.7542508828
 23
118.31755789
 33
0.0
  0
SOLID
  5
15C
330
158
100
AcDbEntity
  8
VERMASSUNG
100
AcDbTrace
 10
242.3042508828
 20
101.31755789
 30
0.0
 11
242.7542508828
 21
104.31755789
 31
0.0
 12
241.8542508828
 22
104.31755789
 32
0.0
 13
241.8542508828
 23
104.31755789
 33
0.0
  0
LINE
  5
15D
330
158
100
AcDbEntity
  8
VERMASSUNG
100
AcDbLine
 10
228.9601560148
 20
121.31755789
 30
0.0
 11
243.3042508828
 21
121.31755789
 31
0.0
  0
LINE
  5
15E
330
158
100
AcDbEntity
  8
VERMASSUNG
100
AcDbLine
 10
228.9601560148
 20
101.31755789
 30
0.0
 11
243.3042508828
 21
101.31755789
 31
0.0
  0
LINE
  5
15F
330
158
100
AcDbEntity
  8
VERMASSUNG
100
AcDbLine
 10
242.3042508828
 20
121.31755789
 30
0.0
 11
242.3042508828
 21
101.31755789
 31
0.0
  0
MTEXT
  5
160
330
158
100
AcDbEntity
  8
VERMASSUNG
100
AcDbMText
 10
239.5261156266
 20
105.0125580766
 30
0.0
 40
2.0
 41
0.0
 71
     1
 72
     1
  1
WH
  7
SLDTEXTSTYLE0
 11
-7.044195017643634E-15
 21
1.0
 31
0.0
 73
     1
 44
1.0
  0
MTEXT
  5
161
330
158
100
AcDbEntity
  8
VERMASSUNG
100
AcDbMText
 10
239.7261155779
 20
110.0125579648
 30
0.0
 40
2.0
 41
0.0
 71
     1
 72
     1
  1
%%c
  7
SLDTEXTSTYLE0
 11
-7.044195017643634E-15
 21
1.0
 31
0.0
 73
     1
 44
1.0
  0
MTEXT
  5
162
330
158
100
AcDbEntity
  8
VERMASSUNG
100
AcDbMText
 10
239.5261156266
 20
114.8100579792
 30
0.0
 40
2.0
 41
0.0
 71
     1
 72
     1
  1
20
  7
SLDTEXTSTYLE0
 11
-7.044195017643634E-15
 21
1.0
 31
0.0
 73
     1
 44
1.0
  0
ENDBLK
  5
15A
330
158
100
AcDbEntity
  8
0
100
AcDbBlockEnd
  0
BLOCK
  5
166
330
165
100
AcDbEntity
  8
0
100
AcDbBlockBegin
  2
_D_2
 70
     0
 10
0.0
 20
0.0
 30
0.0
  3
_D_2
  1

  0
SOLID
  5
168
330
165
100
AcDbEntity
  8
VERMASSUNG
100
AcDbTrace
 10
236.0042508828
 20
105.81755789
 30
0.0
 11
235.5542508828
 21
102.81755789
 31
0.0
 12
236.4542508828
 22
102.81755789
 32
0.0
 13
236.4542508828
 23
102.81755789
 33
0.0
  0
SOLID
  5
169
330
165
100
AcDbEntity
  8
VERMASSUNG
100
AcDbTrace
 10
236.0042508828
 20
116.81755789
 30
0.0
 11
236.4542508828
 21
119.81755789
 31
0.0
 12
235.5542508828
 22
119.81755789
 32
0.0
 13
235.5542508828
 23
119.81755789
 33
0.0
  0
LINE
  5
16A
330
165
100
AcDbEntity
  8
VERMASSUNG
100
AcDbLine
 10
228.1601560148
 20
105.81755789
 30
0.0
 11
237.0042508828
 21
105.81755789
 31
0.0
  0
LINE
  5
16B
330
165
100
AcDbEntity
  8
VERMASSUNG
100
AcDbLine
 10
228.1601560148
 20
116.81755789
 30
0.0
 11
237.0042508828
 21
116.81755789
 31
0.0
  0
LINE
  5
16C
330
165
100
AcDbEntity
  8
VERMASSUNG
100
AcDbLine
 10
236.0042508828
 20
105.81755789
 30
0.0
 11
236.0042508828
 21
99.81755789
 31
0.0
  0
LINE
  5
16D
330
165
100
AcDbEntity
  8
VERMASSUNG
100
AcDbLine
 10
236.0042508828
 20
105.81755789
 30
0.0
 11
236.0042508828
 21
116.81755789
 31
0.0
  0
LINE
  5
16E
330
165
100
AcDbEntity
  8
VERMASSUNG
100
AcDbLine
 10
236.0042508828
 20
116.81755789
 30
0.0
 11
236.0042508828
 21
122.81755789
 31
0.0
  0
MTEXT
  5
16F
330
165
100
AcDbEntity
  8
VERMASSUNG
100
AcDbMText
 10
233.4261155779
 20
108.512557719
 30
0.0
 40
2.0
 41
0.0
 71
     1
 72
     1
  1
%%c
  7
SLDTEXTSTYLE0
 11
6.123233995736766E-17
 21
1.0
 31
0.0
 73
     1
 44
1.0
  0
MTEXT
  5
170
330
165
100
AcDbEntity
  8
VERMASSUNG
100
AcDbMText
 10
233.2261156266
 20
112.1225577333
 30
0.0
 40
2.0
 41
0.0
 71
     1
 72
     1
  1
11
  7
SLDTEXTSTYLE0
 11
6.123233995736766E-17
 21
1.0
 31
0.0
 73
     1
 44
1.0
  0
ENDBLK
  5
167
330
165
100
AcDbEntity
  8
0
100
AcDbBlockEnd
  0
BLOCK
  5
173
330
172
100
AcDbEntity
  8
0
100
AcDbBlockBegin
  2
_D_3
 70
     0
 10
0.0
 20
0.0
 30
0.0
  3
_D_3
  1

  0
SOLID
  5
175
330
172
100
AcDbEntity
  8
VERMASSUNG
100
AcDbTrace
 10
229.1601560148
 20
147.4736620005
 30
0.0
 11
226.1601560148
 21
147.9236620005
 31
0.0
 12
226.1601560148
 22
147.0236620005
 32
0.0
 13
226.1601560148
 23
147.0236620005
 33
0.0
  0
SOLID
  5
176
330
172
100
AcDbEntity
  8
VERMASSUNG
100
AcDbTrace
 10
163.2101560148
 20
147.4736620005
 30
0.0
 11
166.2101560148
 21
147.0236620005
 31
0.0
 12
166.2101560148
 22
147.9236620005
 32
0.0
 13
166.2101560148
 23
147.9236620005
 33
0.0
  0
LINE
  5
177
330
172
100
AcDbEntity
  8
VERMASSUNG
100
AcDbLine
 10
229.1601560148
 20
121.11755789
 30
0.0
 11
229.1601560148
 21
148.4736620005
 31
0.0
  0
LINE
  5
178
330
172
100
AcDbEntity
  8
VERMASSUNG
100
AcDbLine
 10
163.2101560148
 20
141.3281090235
 30
0.0
 11
163.2101560148
 21
148.4736620005
 31
0.0
  0
LINE
  5
179
330
172
100
AcDbEntity
  8
VERMASSUNG
100
AcDbLine
 10
229.1601560148
 20
147.4736620005
 30
0.0
 11
163.2101560148
 21
147.4736620005
 31
0.0
  0
MTEXT
  5
17A
330
172
100
AcDbEntity
  8
VERMASSUNG
100
AcDbMText
 10
193.0851561586
 20
150.0517975965
 30
0.0
 40
2.0
 41
0.0
 71
     1
 72
     1
  1
65.95
  7
SLDTEXTSTYLE0
 73
     1
 44
1.0
  0
ENDBLK
  5
174
330
172
100
AcDbEntity
  8
0
100
AcDbBlockEnd
  0
BLOCK
  5
17D
330
17C
100
AcDbEntity
  8
0
100
AcDbBlockBegin
  2
_D_4
 70
     0
 10
0.0
 20
0.0
 30
0.0
  3
_D_4
  1

  0
SOLID
  5
17F
330
17C
100
AcDbEntity
  8
VERMASSUNG
100
AcDbTrace
 10
229.1601560148
 20
153.4736620005
 30
0.0
 11
226.1601560148
 21
153.9236620005
 31
0.0
 12
226.1601560148
 22
153.0236620005
 32
0.0
 13
226.1601560148
 23
153.0236620005
 33
0.0
  0
SOLID
  5
180
330
17C
100
AcDbEntity
  8
VERMASSUNG
100
AcDbTrace
 10
144.1601560148
 20
153.4736620005
 30
0.0
 11
147.1601560148
 21
153.0236620005
 31
0.0
 12
147.1601560148
 22
153.9236620005
 32
0.0
 13
147.1601560148
 23
153.9236620005
 33
0.0
  0
LINE
  5
181
330
17C
100
AcDbEntity
  8
VERMASSUNG
100
AcDbLine
 10
229.1601560148
 20
121.11755789
 30
0.0
 11
229.1601560148
 21
154.4736620005
 31
0.0
  0
LINE
  5
182
330
17C
100
AcDbEntity
  8
VERMASSUNG
100
AcDbLine
 10
144.1601560148
 20
133.54255789
 30
0.0
 11
144.1601560148
 21
154.4736620005
 31
0.0
  0
LINE
  5
183
330
17C
100
AcDbEntity
  8
VERMASSUNG
100
AcDbLine
 10
229.1601560148
 20
153.4736620005
 30
0.0
 11
144.1601560148
 21
153.4736620005
 31
0.0
  0
MTEXT
  5
184
330
17C
100
AcDbEntity
  8
VERMASSUNG
100
AcDbMText
 10
185.2601560647
 20
156.0517975965
 30
0.0
 40
2.0
 41
0.0
 71
     1
 72
     1
  1
85
  7
SLDTEXTSTYLE0
 73
     1
 44
1.0
  0
ENDBLK
  5
17E
330
17C
100
AcDbEntity
  8
0
100
AcDbBlockEnd
  0
BLOCK
  5
187
330
186
100
AcDbEntity
  8
0
100
AcDbBlockBegin
  2
_D_5
 70
     0
 10
0.0
 20
0.0
 30
0.0
  3
_D_5
  1

  0
SOLID
  5
189
330
186
100
AcDbEntity
  8
VERMASSUNG
100
AcDbTrace
 10
229.1601560148
 20
159.4736620005
 30
0.0
 11
226.1601560148
 21
159.9236620005
 31
0.0
 12
226.1601560148
 22
159.0236620005
 32
0.0
 13
226.1601560148
 23
159.0236620005
 33
0.0
  0
SOLID
  5
18A
330
186
100
AcDbEntity
  8
VERMASSUNG
100
AcDbTrace
 10
75.9101560148
 20
159.4736620005
 30
0.0
 11
78.9101560148
 21
159.0236620005
 31
0.0
 12
78.9101560148
 22
159.9236620005
 32
0.0
 13
78.9101560148
 23
159.9236620005
 33
0.0
  0
LINE
  5
18B
330
186
100
AcDbEntity
  8
VERMASSUNG
100
AcDbLine
 10
229.1601560148
 20
121.11755789
 30
0.0
 11
229.1601560148
 21
160.4736620005
 31
0.0
  0
LINE
  5
18C
330
186
100
AcDbEntity
  8
VERMASSUNG
100
AcDbLine
 10
75.9101560148
 20
122.7246884871
 30
0.0
 11
75.9101560148
 21
160.4736620005
 31
0.0
  0
LINE
  5
18D
330
186
100
AcDbEntity
  8
VERMASSUNG
100
AcDbLine
 10
229.1601560148
 20
159.4736620005
 30
0.0
 11
75.9101560148
 21
159.4736620005
 31
0.0
  0
MTEXT
  5
18E
330
186
100
AcDbEntity
  8
VERMASSUNG
100
AcDbMText
 10
148.9351560766
 20
162.0517975965
 30
0.0
 40
2.0
 41
0.0
 71
     1
 72
     1
  1
153.25
  7
SLDTEXTSTYLE0
 73
     1
 44
1.0
  0
ENDBLK
  5
188
330
186
100
AcDbEntity
  8
0
100
AcDbBlockEnd
  0
BLOCK
  5
190
330
18F
100
AcDbEntity
  8
0
100
AcDbBlockBegin
  2
SW_CENTERMARKSYMBOL_0
 70
     0
 10
0.0
 20
0.0
 30
0.0
  3
SW_CENTERMARKSYMBOL_0
  1

  0
LINE
  5
192
330
18F
100
AcDbEntity
  8
VERMASSUNG
 62
     0
100
AcDbLine
 10
0.0
 20
0.0
 30
0.0
 11
0.0
 21
2.5
 31
0.0
  0
LINE
  5
193
330
18F
100
AcDbEntity
  8
VERMASSUNG
 62
     0
100
AcDbLine
 10
0.0
 20
0.0
 30
0.0
 11
-2.5
 21
0.0
 31
0.0
  0
LINE
  5
194
330
18F
100
AcDbEntity
  8
VERMASSUNG
 62
     0
100
AcDbLine
 10
0.0
 20
0.0
 30
0.0
 11
0.0
 21
-2.5
 31
0.0
  0
LINE
  5
195
330
18F
100
AcDbEntity
  8
VERMASSUNG
 62
     0
100
AcDbLine
 10
0.0
 20
0.0
 30
0.0
 11
2.5
 21
0.0
 31
0.0
  0
LINE
  5
196
330
18F
100
AcDbEntity
  8
VERMASSUNG
 62
     0
100
AcDbLine
 10
0.0
 20
2.5
 30
0.0
 11
0.0
 21
4.75
 31
0.0
  0
LINE
  5
197
330
18F
100
AcDbEntity
  8
VERMASSUNG
 62
     0
100
AcDbLine
 10
-2.5
 20
0.0
 30
0.0
 11
-4.75
 21
0.0
 31
0.0
  0
LINE
  5
198
330
18F
100
AcDbEntity
  8
VERMASSUNG
 62
     0
100
AcDbLine
 10
0.0
 20
-2.5
 30
0.0
 11
0.0
 21
-4.75
 31
0.0
  0
LINE
  5
199
330
18F
100
AcDbEntity
  8
VERMASSUNG
 62
     0
100
AcDbLine
 10
2.5
 20
0.0
 30
0.0
 11
4.75
 21
0.0
 31
0.0
  0
ENDBLK
  5
191
330
18F
100
AcDbEntity
  8
0
100
AcDbBlockEnd
  0
ENDSEC
  0
SECTION
  2
ENTITIES
  0
MTEXT
  5
78
330
1F
100
AcDbEntity
  8
KOPF_DÜNN
100
AcDbMText
 10
13.8892156294
 20
23.8442973028
 30
0.0
 40
3.0
 41
0.0
 71
     1
 72
     1
  1
A14.440.020.085
  7
SLDTEXTSTYLE0
 73
     1
 44
1.0
  0
MTEXT
  5
79
330
1F
100
AcDbEntity
  8
VERMASSUNG
100
AcDbMText
 10
13.9329988022
 20
28.8834360957
 30
0.0
 40
3.0
 41
0.0
 71
     1
 72
     1
  1
Aufnahme_Master shank WH20
  7
SLDTEXTSTYLE0
 73
     1
 44
1.0
  0
MTEXT
  5
7A
330
1F
100
AcDbEntity
  8
VERMASSUNG
100
AcDbMText
 10
98.8601118557
 20
13.8365368761
 30
0.0
 40
2.0
 41
0.0
 71
     1
 72
     1
  1
Datum: 19.10.2011
  7
SLDTEXTSTYLE0
 73
     1
 44
1.0
  0
MTEXT
  5
7B
330
1F
100
AcDbEntity
  8
VERMASSUNG
100
AcDbMText
 10
13.933048693
 20
18.0482802738
 30
0.0
 40
2.0
 41
0.0
 71
     1
 72
     1
  1
DIN 69871 AD/B
  7
SLDTEXTSTYLE0
 73
     1
 44
1.0
  0
MTEXT
  5
7C
330
1F
100
AcDbEntity
  8
VERMASSUNG
100
AcDbMText
 10
13.9808475933
 20
13.9090974274
 30
0.0
 40
2.0
 41
0.0
 71
     1
 72
     1
  1
Gewicht: 969g
  7
SLDTEXTSTYLE0
 73
     1
 44
1.0
  0
ARC
  5
7D
330
1F
100
AcDbEntity
  8
0
  6
Continuous
 62
     7
370
    15
100
AcDbCircle
 10
146.7601560148
 20
88.49255789
 30
0.0
 40
0.6000000000000085
100
AcDbArc
 50
0.0
 51
90.0
  0
ARC
  5
7E
330
1F
100
AcDbEntity
  8
0
  6
Continuous
 62
     7
370
    15
100
AcDbCircle
 10
146.7601560148
 20
134.14255789
 30
0.0
 40
0.6000000000000227
100
AcDbArc
 50
270.0
 51
0.0
  0
LINE
  5
7F
330
1F
100
AcDbEntity
  8
0
  6
Continuous
 62
     7
370
    15
100
AcDbLine
 10
144.1601560148
 20
89.09255789
 30
0.0
 11
146.7601560148
 21
89.09255789
 31
0.0
  0
LINE
  5
80
330
1F
100
AcDbEntity
  8
0
  6
Continuous
 62
     7
370
    15
100
AcDbLine
 10
146.7601560148
 20
133.54255789
 30
0.0
 11
144.1601560148
 21
133.54255789
 31
0.0
  0
LINE
  5
81
330
1F
100
AcDbEntity
  8
0
  6
Continuous
 62
     7
370
    15
100
AcDbLine
 10
144.1601560148
 20
133.54255789
 30
0.0
 11
76.7658491217
 21
123.7142214681
 31
0.0
  0
LINE
  5
82
330
1F
100
AcDbEntity
  8
0
  6
Continuous
 62
     7
370
    15
100
AcDbLine
 10
76.7658491217
 20
98.920894312
 30
0.0
 11
144.1601560148
 21
89.09255789
 31
0.0
  0
ARC
  5
83
330
1F
100
AcDbEntity
  8
0
  6
Continuous
 62
     7
370
    15
100
AcDbCircle
 10
166.2101560148
 20
98.31755789
 30
0.0
 40
3.0
100
AcDbArc
 50
90.0
 51
180.0
  0
ARC
  5
84
330
1F
100
AcDbEntity
  8
0
  6
Continuous
 62
     7
370
    15
100
AcDbCircle
 10
166.2101560148
 20
124.31755789
 30
0.0
 40
3.0
100
AcDbArc
 50
180.0
 51
270.0
  0
ARC
  5
85
330
1F
100
AcDbEntity
  8
0
  6
Continuous
 62
     7
370
    15
100
AcDbCircle
 10
76.9101560148
 20
99.910427293
 30
0.0
 40
0.9999999999999858
100
AcDbArc
 50
180.0
 51
261.7028550302
  0
ARC
  5
86
330
1F
100
AcDbEntity
  8
0
  6
Continuous
 62
     7
370
    15
100
AcDbCircle
 10
76.9101560148
 20
122.7246884871
 30
0.0
 40
0.9999999999999858
100
AcDbArc
 50
98.2971449698
 51
180.0
  0
LINE
  5
87
330
1F
100
AcDbEntity
  8
0
  6
Continuous
 62
     7
370
    15
100
AcDbLine
 10
228.9601560148
 20
101.31755789
 30
0.0
 11
229.1601560148
 21
101.51755789
 31
0.0
  0
LINE
  5
88
330
1F
100
AcDbEntity
  8
0
  6
Continuous
 62
     7
370
    15
100
AcDbLine
 10
229.1601560148
 20
121.11755789
 30
0.0
 11
228.9601560148
 21
121.31755789
 31
0.0
  0
LINE
  5
89
330
1F
100
AcDbEntity
  8
0
  6
Continuous
 62
     7
370
    15
100
AcDbLine
 10
166.2101560148
 20
101.31755789
 30
0.0
 11
228.9601560148
 21
101.31755789
 31
0.0
  0
LINE
  5
8A
330
1F
100
AcDbEntity
  8
0
  6
Continuous
 62
     7
370
    15
100
AcDbLine
 10
228.9601560148
 20
121.31755789
 30
0.0
 11
166.2101560148
 21
121.31755789
 31
0.0
  0
SPLINE
  5
8B
330
1F
100
AcDbEntity
  8
0
  6
Continuous
 62
     7
370
    15
100
AcDbSpline
210
0.0
220
0.0
230
1.0
 70
     8
 71
     3
 72
     8
 73
     4
 74
     0
 42
0.000000001
 43
0.00000001
 40
0.0
 40
0.0
 40
0.0
 40
0.0
 40
1.0
 40
1.0
 40
1.0
 40
1.0
 10
153.350156014761
 20
83.50073143054293
 30
0.0
 10
152.9660212661767
 20
82.80809000859874
 30
0.0
 10
152.5810349896837
 20
82.11590383427503
 30
0.0
 10
152.1953664110574
 20
81.42410954343083
 30
0.0
  0
SPLINE
  5
8C
330
1F
100
AcDbEntity
  8
0
  6
Continuous
 62
     7
370
    15
100
AcDbSpline
210
0.0
220
0.0
230
1.0
 70
     8
 71
     3
 72
     8
 73
     4
 74
     0
 42
0.000000001
 43
0.00000001
 40
0.0
 40
0.0
 40
0.0
 40
0.0
 40
0.0011901715795577
 40
0.0011901715795577
 40
0.0011901715795577
 40
0.0011901715795577
 10
151.7383193727043
 20
80.86946554140769
 30
0.0
 10
151.8921655622002
 20
81.05403077909128
 30
0.0
 10
152.0445608298729
 20
81.2389061396199
 30
0.0
 10
152.1953664110574
 20
81.42410954343083
 30
0.0
  0
LINE
  5
8D
330
1F
100
AcDbEntity
  8
0
  6
Continuous
 62
     7
370
    15
100
AcDbLine
 10
151.7383193727
 20
80.8694655414
 30
0.0
 11
151.7383193727
 21
129.66755789
 31
0.0
  0
SPLINE
  5
8E
330
1F
100
AcDbEntity
  8
0
  6
Continuous
 62
     7
370
    15
100
AcDbSpline
210
0.0
220
0.0
230
1.0
 70
    24
 71
     3
 72
     8
 73
     4
 74
     0
 42
0.000000001
 43
0.00000001
 40
0.0
 40
0.0
 40
0.0
 40
0.0
 40
1.0
 40
1.0
 40
1.0
 40
1.0
 10
153.350156014761
 20
129.6675578900444
 30
0.0
 10
152.8254235263991
 20
129.6675578900444
 30
0.0
 10
152.2867480421803
 20
129.6675578900444
 30
0.0
 10
151.7383193727043
 20
129.6675578900444
 30
0.0
  0
LINE
  5
8F
330
1F
100
AcDbEntity
  8
0
  6
Continuous
 62
     7
370
    15
100
AcDbLine
 10
153.3501560148
 20
83.5007314305
 30
0.0
 11
153.3501560148
 21
129.66755789
 31
0.0
  0
LINE
  5
90
330
1F
100
AcDbEntity
  8
0
  6
Continuous
 62
     7
370
    15
100
AcDbLine
 10
158.7819926568
 20
101.5655378222
 30
0.0
 11
158.7819926568
 21
129.66755789
 31
0.0
  0
LINE
  5
91
330
1F
100
AcDbEntity
  8
0
  6
Continuous
 62
     7
370
    15
100
AcDbLine
 10
162.6101560148
 20
129.66755789
 30
0.0
 11
158.7819926568
 21
129.66755789
 31
0.0
  0
LINE
  5
92
330
1F
100
AcDbEntity
  8
0
  6
Continuous
 62
     7
370
    15
100
AcDbLine
 10
158.7819926568
 20
80.8694655414
 30
0.0
 11
162.6101560148
 21
80.8694655414
 31
0.0
  0
LINE
  5
93
330
1F
100
AcDbEntity
  8
0
  6
Continuous
 62
     7
370
    15
100
AcDbLine
 10
158.7819926568
 20
80.8694655414
 30
0.0
 11
158.7819926568
 21
99.3660580918
 31
0.0
  0
SPLINE
  5
94
330
1F
100
AcDbEntity
  8
0
  6
Continuous
 62
     7
370
    15
100
AcDbSpline
210
0.0
220
0.0
230
1.0
 70
     8
 71
     3
 72
    12
 73
     8
 74
     0
 42
0.000000001
 43
0.00000001
 40
0.0
 40
0.0
 40
0.0
 40
0.0
 40
0.2499999999999997
 40
0.2499999999999997
 40
0.4999999999999993
 40
0.4999999999999993
 40
1.0
 40
1.0
 40
1.0
 40
1.0
 10
158.7819926568177
 20
99.36605809183733
 30
0.0
 10
158.9049401506133
 20
99.52401494053242
 30
0.0
 10
158.9984843537221
 20
99.69584830750995
 30
0.0
 10
159.1274237428844
 20
100.0675210171558
 30
0.0
 10
159.1599765002695
 20
100.260709463347
 30
0.0
 10
159.1605128420033
 20
100.8490060016233
 30
0.0
 10
159.0278891850353
 20
101.241024239512
 30
0.0
 10
158.7819926568177
 20
101.5655378222207
 30
0.0
  0
SPLINE
  5
95
330
1F
100
AcDbEntity
  8
0
  6
Continuous
 62
     7
370
    15
100
AcDbSpline
210
0.0
220
0.0
230
1.0
 70
     8
 71
     3
 72
    12
 73
     8
 74
     0
 42
0.000000001
 43
0.00000001
 40
0.0
 40
0.0
 40
0.0
 40
0.0
 40
0.250000000000001
 40
0.250000000000001
 40
0.500000000000002
 40
0.500000000000002
 40
1.0
 40
1.0
 40
1.0
 40
1.0
 10
162.610156014761
 20
80.86946554140769
 30
0.0
 10
162.705697924897
 20
80.86946554140769
 30
0.0
 10
162.7978428667598
 20
80.8857192106039
 30
0.0
 10
162.9541691433697
 20
80.93932763151737
 30
0.0
 10
163.0178372859897
 20
80.97573875679906
 30
0.0
 10
163.16670513142
 20
81.09786239648555
 30
0.0
 10
163.210156014761
 20
81.19301507192259
 30
0.0
 10
163.210156014761
 20
81.28864152754228
 30
0.0
  0
SPLINE
  5
96
330
1F
100
AcDbEntity
  8
0
  6
Continuous
 62
     7
370
    15
100
AcDbSpline
210
0.0
220
0.0
230
1.0
 70
    24
 71
     3
 72
    12
 73
     8
 74
     0
 42
0.000000001
 43
0.00000001
 40
0.0
 40
0.0
 40
0.0
 40
0.0
 40
0.5000000000000011
 40
0.5000000000000011
 40
0.7500000000000006
 40
0.7500000000000006
 40
1.0
 40
1.0
 40
1.0
 40
1.0
 10
163.210156014761
 20
129.6675578900444
 30
0.0
 10
163.210156014761
 20
129.6675578900444
 30
0.0
 10
163.160476019806
 20
129.6675578900444
 30
0.0
 10
163.0045574627885
 20
129.6675578900444
 30
0.0
 10
162.9386763982123
 20
129.6675578900444
 30
0.0
 10
162.7860307427236
 20
129.6675578900444
 30
0.0
 10
162.6987808348626
 20
129.6675578900444
 30
0.0
 10
162.6101560147609
 20
129.6675578900444
 30
0.0
  0
LINE
  5
97
330
1F
100
AcDbEntity
  8
0
  6
Continuous
 62
     7
370
    15
100
AcDbLine
 10
163.2101560148
 20
81.2886415275
 30
0.0
 11
163.2101560148
 21
129.66755789
 31
0.0
  0
LINE
  5
98
330
1F
100
AcDbEntity
  8
0
  6
Continuous
 62
     7
370
    15
100
AcDbLine
 10
147.9601560148
 20
80.8694655414
 30
0.0
 11
151.7383193727
 21
80.8694655414
 31
0.0
  0
LINE
  5
99
330
1F
100
AcDbEntity
  8
0
  6
Continuous
 62
     7
370
    15
100
AcDbLine
 10
151.7383193727
 20
129.66755789
 30
0.0
 11
147.9601560148
 21
129.66755789
 31
0.0
  0
LINE
  5
9A
330
1F
100
AcDbEntity
  8
0
  6
Continuous
 62
     7
370
    15
100
AcDbLine
 10
157.1701560148
 20
103.3162753699
 30
0.0
 11
157.1701560148
 21
129.66755789
 31
0.0
  0
SPLINE
  5
9B
330
1F
100
AcDbEntity
  8
0
  6
Continuous
 62
     7
370
    15
100
AcDbSpline
210
0.0
220
0.0
230
1.0
 70
    24
 71
     3
 72
     8
 73
     4
 74
     0
 42
0.000000001
 43
0.00000001
 40
0.0
 40
0.0
 40
0.0
 40
0.0
 40
1.0
 40
1.0
 40
1.0
 40
1.0
 10
158.7819926568177
 20
129.6675578900444
 30
0.0
 10
158.2335639873417
 20
129.6675578900444
 30
0.0
 10
157.6948885031229
 20
129.6675578900444
 30
0.0
 10
157.170156014761
 20
129.6675578900444
 30
0.0
  0
SPLINE
  5
9C
330
1F
100
AcDbEntity
  8
0
  6
Continuous
 62
     7
370
    15
100
AcDbSpline
210
0.0
220
0.0
230
1.0
 70
     8
 71
     3
 72
    12
 73
     8
 74
     0
 42
0.000000001
 43
0.00000001
 40
0.0
 40
0.0
 40
0.0
 40
0.0
 40
0.2499999999999994
 40
0.2499999999999994
 40
0.4999999999999989
 40
0.4999999999999989
 40
1.0
 40
1.0
 40
1.0
 40
1.0
 10
158.7819926568177
 20
101.5655378222207
 30
0.0
 10
158.6670966055571
 20
101.7852782572772
 30
0.0
 10
158.5403305890844
 20
101.982246608899
 30
0.0
 10
158.2801156554659
 20
102.3359641817379
 30
0.0
 10
158.1466081975037
 20
102.4927894756101
 30
0.0
 10
157.7382099289155
 20
102.9193320465178
 30
0.0
 10
157.4545567939779
 20
103.146024225473
 30
0.0
 10
157.1701560147611
 20
103.3162753698685
 30
0.0
  0
SPLINE
  5
9D
330
1F
100
AcDbEntity
  8
0
  6
Continuous
 62
     7
370
    15
100
AcDbSpline
210
0.0
220
0.0
230
1.0
 70
     8
 71
     3
 72
    10
 73
     6
 74
     0
 42
0.000000001
 43
0.00000001
 40
0.0
 40
0.0
 40
0.0
 40
0.0
 40
0.5
 40
0.5
 40
1.0
 40
1.0
 40
1.0
 40
1.0
 10
147.5763005561082
 20
80.96582804057614
 30
0.0
 10
147.6250705290896
 20
80.93760003336814
 30
0.0
 10
147.6825226523919
 20
80.91350542912654
 30
0.0
 10
147.8131195553806
 20
80.87924195603401
 30
0.0
 10
147.8856092352228
 20
80.86946554140768
 30
0.0
 10
147.960156014761
 20
80.86946554140768
 30
0.0
  0
SPLINE
  5
9E
330
1F
100
AcDbEntity
  8
0
  6
Continuous
 62
     7
370
    15
100
AcDbSpline
210
0.0
220
0.0
230
1.0
 70
     8
 71
     3
 72
    10
 73
     6
 74
     0
 42
0.000000001
 43
0.00000001
 40
0.0
 40
0.0
 40
0.0
 40
0.0
 40
0.5
 40
0.5
 40
1.0
 40
1.0
 40
1.0
 40
1.0
 10
147.5763005561082
 20
80.96582804057614
 30
0.0
 10
147.5181778960321
 20
81.03313320043794
 30
0.0
 10
147.4657747300286
 20
81.1132185874716
 30
0.0
 10
147.3868717084823
 20
81.29723802916038
 30
0.0
 10
147.360156014761
 20
81.40244938658083
 30
0.0
 10
147.360156014761
 20
81.51118273304148
 30
0.0
  0
LINE
  5
9F
330
1F
100
AcDbEntity
  8
0
  6
Continuous
 62
     7
370
    15
100
AcDbLine
 10
147.3601560148
 20
81.511182733
 30
0.0
 11
147.3601560148
 21
129.66755789
 31
0.0
  0
SPLINE
  5
A0
330
1F
100
AcDbEntity
  8
0
  6
Continuous
 62
     7
370
    15
100
AcDbSpline
210
0.0
220
0.0
230
1.0
 70
    24
 71
     3
 72
    12
 73
     8
 74
     0
 42
0.000000001
 43
0.00000001
 40
0.0
 40
0.0
 40
0.0
 40
0.0
 40
0.25
 40
0.25
 40
0.5
 40
0.5
 40
1.0
 40
1.0
 40
1.0
 40
1.0
 10
147.960156014761
 20
129.6675578900444
 30
0.0
 10
147.8717406374505
 20
129.6675578900444
 30
0.0
 10
147.78447020028
 20
129.6675578900444
 30
0.0
 10
147.6320064755081
 20
129.6675578900444
 30
0.0
 10
147.5663678632857
 20
129.6675578900444
 30
0.0
 10
147.4097094620018
 20
129.6675578900444
 30
0.0
 10
147.360156014761
 20
129.6675578900444
 30
0.0
 10
147.360156014761
 20
129.6675578900444
 30
0.0
  0
SPLINE
  5
A1
330
1F
100
AcDbEntity
  8
0
  6
Continuous
 62
     7
370
    15
100
AcDbSpline
210
0.0
220
0.0
230
1.0
 70
     8
 71
     3
 72
    14
 73
    10
 74
     0
 42
0.000000001
 43
0.00000001
 40
0.0
 40
0.0
 40
0.0
 40
0.0
 40
0.2499999999999995
 40
0.2499999999999995
 40
0.4999999999999997
 40
0.4999999999999997
 40
0.7499999999999998
 40
0.7499999999999998
 40
1.0
 40
1.0
 40
1.0
 40
1.0
 10
157.170156014761
 20
103.3705190197147
 30
0.0
 10
157.170156014761
 20
103.4071698878785
 30
0.0
 10
157.1488282260492
 20
103.4436366851275
 30
0.0
 10
157.0663698233926
 20
103.5087755396683
 30
0.0
 10
157.0052536315374
 20
103.5368466702592
 30
0.0
 10
156.8539505384753
 20
103.5706745519861
 30
0.0
 10
156.7625725150847
 20
103.5761376933826
 30
0.0
 10
156.5701988020319
 20
103.55521177537
 30
0.0
 10
156.4680184625528
 20
103.5286763499947
 30
0.0
 10
156.370156014761
 20
103.4881901767135
 30
0.0
  0
SPLINE
  5
A2
330
1F
100
AcDbEntity
  8
0
  6
Continuous
 62
     7
370
    15
100
AcDbSpline
210
0.0
220
0.0
230
1.0
 70
     8
 71
     3
 72
    12
 73
     8
 74
     0
 42
0.000000001
 43
0.00000001
 40
0.0
 40
0.0
 40
0.0
 40
0.0
 40
0.499999999999999
 40
0.499999999999999
 40
0.7499999999999994
 40
0.7499999999999994
 40
1.0
 40
1.0
 40
1.0
 40
1.0
 10
157.170156014761
 20
99.55755187164745
 30
0.0
 10
157.4543625493263
 20
99.39008770935371
 30
0.0
 10
157.7330582834301
 20
99.2784506098421
 30
0.0
 10
158.1424043266194
 20
99.21113734420274
 30
0.0
 10
158.2785436639389
 20
99.20598630418877
 30
0.0
 10
158.539863712935
 20
99.24375224180815
 30
0.0
 10
158.6652848953667
 20
99.28530200015241
 30
0.0
 10
158.7819926568182
 20
99.36605809183523
 30
0.0
  0
LINE
  5
A3
330
1F
100
AcDbEntity
  8
0
  6
Continuous
 62
     7
370
    15
100
AcDbLine
 10
157.1701560148
 20
99.6117955215
 30
0.0
 11
157.1701560148
 21
99.5575518716
 31
0.0
  0
SPLINE
  5
A4
330
1F
100
AcDbEntity
  8
0
  6
Continuous
 62
     7
370
    15
100
AcDbSpline
210
0.0
220
0.0
230
1.0
 70
     8
 71
     3
 72
    14
 73
    10
 74
     0
 42
0.000000001
 43
0.00000001
 40
0.0
 40
0.0
 40
0.0
 40
0.0
 40
0.25
 40
0.25
 40
0.5
 40
0.5
 40
0.75
 40
0.75
 40
1.0
 40
1.0
 40
1.0
 40
1.0
 10
156.3701560147575
 20
100.0350786999376
 30
0.0
 10
156.4675654347413
 20
99.99666398054342
 30
0.0
 10
156.5698896777549
 20
99.95896357576068
 30
0.0
 10
156.7618913632924
 20
99.88791879016654
 30
0.0
 10
156.8533259929468
 20
99.85371732880849
 30
0.0
 10
157.0051048602419
 20
99.7867209034031
 30
0.0
 10
157.0660817501564
 20
99.75357943509361
 30
0.0
 10
157.1490996887207
 20
99.68390186744352
 30
0.0
 10
157.170156014761
 20
99.64816815627633
 30
0.0
 10
157.170156014761
 20
99.61179552149554
 30
0.0
  0
SPLINE
  5
A5
330
1F
100
AcDbEntity
  8
0
  6
Continuous
 62
     7
370
    15
100
AcDbSpline
210
0.0
220
0.0
230
1.0
 70
     8
 71
     3
 72
    22
 73
    18
 74
     0
 42
0.000000001
 43
0.00000001
 40
0.0
 40
0.0
 40
0.0
 40
0.0
 40
0.125
 40
0.125
 40
0.25
 40
0.25
 40
0.375
 40
0.375
 40
0.5
 40
0.5
 40
0.625
 40
0.625
 40
0.75
 40
0.75
 40
0.875
 40
0.875
 40
1.0
 40
1.0
 40
1.0
 40
1.0
 10
156.370156014761
 20
103.4881901767135
 30
0.0
 10
156.1901393201917
 20
103.4137163897369
 30
0.0
 10
156.0257074983215
 20
103.316267127753
 30
0.0
 10
155.727311264563
 20
103.0768976941888
 30
0.0
 10
155.5970075371982
 20
102.9370010821184
 30
0.0
 10
155.3837887535792
 20
102.6287494920584
 30
0.0
 10
155.3001608964677
 20
102.4585862739393
 30
0.0
 10
155.1890300195494
 20
102.108091539149
 30
0.0
 10
155.1601940246956
 20
101.9229665779978
 30
0.0
 10
155.1601180820357
 20
101.5597597033807
 30
0.0
 10
155.1887767074628
 20
101.3763896896733
 30
0.0
 10
155.2999278005752
 20
101.0304985771801
 30
0.0
 10
155.3829949212189
 20
100.8649790499126
 30
0.0
 10
155.5966808793372
 20
100.5644393125088
 30
0.0
 10
155.7256878692613
 20
100.4305673912248
 30
0.0
 10
156.0252971487505
 20
100.1993206218204
 30
0.0
 10
156.1901398470116
 20
100.1060705051605
 30
0.0
 10
156.370156014761
 20
100.0350786999362
 30
0.0
  0
ARC
  5
A6
330
1F
100
AcDbEntity
  8
0
  6
Continuous
 62
     7
370
    15
100
AcDbCircle
 10
157.1656569166
 20
103.4479751105
 30
0.0
 40
2.055455965826556
100
AcDbArc
 50
206.3328441703
 51
313.0178064209
  0
SPLINE
  5
A7
330
1F
100
AcDbEntity
  8
0
  6
Continuous
 62
     7
370
    15
100
AcDbSpline
210
0.0
220
0.0
230
1.0
 70
     8
 71
     3
 72
     8
 73
     4
 74
     0
 42
0.000000001
 43
0.00000001
 40
0.0
 40
0.0
 40
0.0
 40
0.0
 40
0.0011901715795577
 40
0.0011901715795577
 40
0.0011901715795577
 40
0.0011901715795577
 10
158.3249456184647
 20
81.42410954343083
 30
0.0
 10
158.4757511996492
 20
81.2389061396199
 30
0.0
 10
158.6281464673218
 20
81.05403077909128
 30
0.0
 10
158.7819926568177
 20
80.86946554140769
 30
0.0
  0
SPLINE
  5
A8
330
1F
100
AcDbEntity
  8
0
  6
Continuous
 62
     7
370
    15
100
AcDbSpline
210
0.0
220
0.0
230
1.0
 70
     8
 71
     3
 72
     8
 73
     4
 74
     0
 42
0.000000001
 43
0.00000001
 40
0.0
 40
0.0
 40
0.0
 40
0.0
 40
1.0
 40
1.0
 40
1.0
 40
1.0
 10
158.3249456184647
 20
81.42410954343083
 30
0.0
 10
157.9392770398383
 20
82.11590383427502
 30
0.0
 10
157.5542907633454
 20
82.80809000859874
 30
0.0
 10
157.170156014761
 20
83.50073143054291
 30
0.0
  0
LINE
  5
A9
330
1F
100
AcDbEntity
  8
0
  6
Continuous
 62
     7
370
    15
100
AcDbLine
 10
157.1701560148
 20
83.5007314305
 30
0.0
 11
157.1701560148
 21
99.5575518716
 31
0.0
  0
SPLINE
  5
AA
330
1F
100
AcDbEntity
  8
0
  6
Continuous
 62
     7
370
    15
100
AcDbSpline
210
0.0
220
0.0
230
1.0
 70
     8
 71
     3
 72
    12
 73
     8
 74
     0
 42
0.000000001
 43
0.00000001
 40
0.0
 40
0.0
 40
0.0
 40
0.0
 40
0.2500000000000015
 40
0.2500000000000015
 40
0.500000000000003
 40
0.500000000000003
 40
1.0
 40
1.0
 40
1.0
 40
1.0
 10
154.150156014761
 20
84.49970003375765
 30
0.0
 10
154.0437541644035
 20
84.49970003375766
 30
0.0
 10
153.9364387530071
 20
84.47692926973916
 30
0.0
 10
153.7409671619798
 20
84.39068632308705
 30
0.0
 10
153.6507850460422
 20
84.32601000261651
 30
0.0
 10
153.4325635593215
 20
84.09308067855972
 30
0.0
 10
153.3501560147607
 20
83.87849544066869
 30
0.0
 10
153.350156014761
 20
83.66547840223596
 30
0.0
  0
SPLINE
  5
AB
330
1F
100
AcDbEntity
  8
0
  6
Continuous
 62
     7
370
    15
100
AcDbSpline
210
0.0
220
0.0
230
1.0
 70
    24
 71
     3
 72
    14
 73
    10
 74
     0
 42
0.000000001
 43
0.00000001
 40
0.0
 40
0.0
 40
0.0
 40
0.0
 40
0.1250000000000007
 40
0.1250000000000007
 40
0.2500000000000014
 40
0.2500000000000014
 40
0.499999999999999
 40
0.499999999999999
 40
1.0
 40
1.0
 40
1.0
 40
1.0
 10
154.150156014761
 20
129.6675578900444
 30
0.0
 10
154.0895386913434
 20
129.6675578900444
 30
0.0
 10
154.0274135432084
 20
129.6675578900444
 30
0.0
 10
153.911195880187
 20
129.6675578900444
 30
0.0
 10
153.8565792404946
 20
129.6675578900444
 30
0.0
 10
153.7019029019864
 20
129.6675578900444
 30
0.0
 10
153.6157861532024
 20
129.6675578900444
 30
0.0
 10
153.4144785726618
 20
129.6675578900444
 30
0.0
 10
153.350156014761
 20
129.6675578900444
 30
0.0
 10
153.350156014761
 20
129.6675578900444
 30
0.0
  0
SPLINE
  5
AC
330
1F
100
AcDbEntity
  8
0
  6
Continuous
 62
     7
370
    15
100
AcDbSpline
210
0.0
220
0.0
230
1.0
 70
    24
 71
     3
 72
    14
 73
    10
 74
     0
 42
0.000000001
 43
0.00000001
 40
0.0
 40
0.0
 40
0.0
 40
0.0
 40
0.25
 40
0.25
 40
0.5
 40
0.5
 40
0.75
 40
0.75
 40
1.0
 40
1.0
 40
1.0
 40
1.0
 10
157.170156014761
 20
129.6675578900444
 30
0.0
 10
157.170156014761
 20
129.6675578900444
 30
0.0
 10
157.1540744133012
 20
129.6675578900444
 30
0.0
 10
157.0885829000343
 20
129.6675578900444
 30
0.0
 10
157.039274926907
 20
129.6675578900444
 30
0.0
 10
156.90470540521
 20
129.6675578900444
 30
0.0
 10
156.8191823291247
 20
129.6675578900444
 30
0.0
 10
156.6121868335697
 20
129.6675578900444
 30
0.0
 10
156.4914931996261
 20
129.6675578900444
 30
0.0
 10
156.3701560147611
 20
129.6675578900444
 30
0.0
  0
LINE
  5
AD
330
1F
100
AcDbEntity
  8
0
  6
Continuous
 62
     7
370
    15
100
AcDbLine
 10
156.3701560148
 20
84.4997000338
 30
0.0
 11
154.1501560148
 21
84.4997000338
 31
0.0
  0
LINE
  5
AE
330
1F
100
AcDbEntity
  8
0
  6
Continuous
 62
     7
370
    15
100
AcDbLine
 10
156.3701560148
 20
129.66755789
 30
0.0
 11
154.1501560148
 21
129.66755789
 31
0.0
  0
SPLINE
  5
AF
330
1F
100
AcDbEntity
  8
0
  6
Continuous
 62
     7
370
    15
100
AcDbSpline
210
0.0
220
0.0
230
1.0
 70
     8
 71
     3
 72
    12
 73
     8
 74
     0
 42
0.000000001
 43
0.00000001
 40
0.0
 40
0.0
 40
0.0
 40
0.0
 40
0.5000000000000013
 40
0.5000000000000013
 40
0.7500000000000007
 40
0.7500000000000007
 40
1.0
 40
1.0
 40
1.0
 40
1.0
 10
157.170156014761
 20
83.66547840223733
 30
0.0
 10
157.170156014761
 20
83.87830096117021
 30
0.0
 10
157.0882306569413
 20
84.09255746780818
 30
0.0
 10
156.8693088534729
 20
84.32624709625804
 30
0.0
 10
156.7792615619819
 20
84.39073192110205
 30
0.0
 10
156.583848093962
 20
84.47693153225762
 30
0.0
 10
156.4765651269782
 20
84.49970003375765
 30
0.0
 10
156.370156014761
 20
84.49970003375765
 30
0.0
  0
ELLIPSE
  5
B0
330
1F
100
AcDbEntity
  8
0
  6
Continuous
 62
     7
370
    15
100
AcDbEllipse
 10
157.1601560148
 20
104.4299678295
 30
0.0
 11
1.383467579512143
 21
-1.091267719176599
 31
0.0
210
0.0
220
0.0
230
1.0
 40
0.8239737799
 41
4.683536802182993
 42
5.288724596347223
  0
ELLIPSE
  5
B1
330
1F
100
AcDbEntity
  8
0
  6
Continuous
 62
     7
370
    15
100
AcDbEllipse
 10
157.1601560148
 20
104.4299678295
 30
0.0
 11
1.383467579512143
 21
1.753907414218489
 31
0.0
210
0.0
220
0.0
230
1.0
 40
0.5126701559
 41
2.88331070217881
 42
4.136053364422189
  0
ARC
  5
B2
330
1F
100
AcDbEntity
  8
0
  6
Continuous
 62
     7
370
    15
100
AcDbCircle
 10
157.1714930638
 20
103.4695658723
 30
0.0
 40
1.696442253831694
100
AcDbArc
 50
269.6170987291
 51
313.398606343
  0
ARC
  5
B3
330
1F
100
AcDbEntity
  8
0
  6
Continuous
 62
     7
370
    15
100
AcDbCircle
 10
157.1279892248
 20
103.4086061335
 30
0.0
 40
1.635760938914595
100
AcDbArc
 50
197.5864705991
 51
271.126778411
  0
ELLIPSE
  5
B4
330
1F
100
AcDbEntity
  8
0
  6
Continuous
 62
     7
370
    15
100
AcDbEllipse
 10
157.1601560148
 20
104.4299678295
 30
0.0
 11
1.383467579512143
 21
-1.091267719176599
 31
0.0
210
0.0
220
0.0
230
1.0
 40
0.8239737799
 41
5.288724596347225
 42
5.33112584364343
  0
SPLINE
  5
B5
330
1F
100
AcDbEntity
  8
0
  6
Continuous
 62
     7
370
    15
100
AcDbSpline
210
0.0
220
0.0
230
1.0
 70
     8
 71
     3
 72
     8
 73
     4
 74
     0
 42
0.000000001
 43
0.00000001
 40
0.0
 40
0.0
 40
0.0
 40
0.0
 40
1.0
 40
1.0
 40
1.0
 40
1.0
 10
157.230097110916
 20
102.8684159636753
 30
0.0
 10
157.2131123848138
 20
102.875531673725
 30
0.0
 10
157.1961082402727
 20
102.8834068032467
 30
0.0
 10
157.1791093561933
 20
102.8920299227009
 30
0.0
  0
ELLIPSE
  5
B6
330
1F
100
AcDbEntity
  8
0
  6
Continuous
 62
     7
370
    15
100
AcDbEllipse
 10
157.1601560148
 20
104.4299678295
 30
0.0
 11
1.383467579512143
 21
1.753907414218489
 31
0.0
210
0.0
220
0.0
230
1.0
 40
0.5126701559
 41
4.136053364422176
 42
4.147540490644671
  0
LINE
  5
B7
330
1F
100
AcDbEntity
  8
0
  6
Continuous
 62
     7
370
    15
100
AcDbLine
 10
144.1601560148
 20
89.09255789
 30
0.0
 11
144.1601560148
 21
133.54255789
 31
0.0
  0
SPLINE
  5
B8
330
1F
100
AcDbEntity
  8
0
  6
Continuous
 62
     7
370
    15
100
AcDbSpline
210
0.0
220
0.0
230
1.0
 70
     8
 71
     3
 72
    12
 73
     8
 74
     0
 42
0.000000001
 43
0.00000001
 40
0.0
 40
0.0
 40
0.0
 40
0.0
 40
0.5
 40
0.5
 40
0.75
 40
0.75
 40
1.0
 40
1.0
 40
1.0
 40
1.0
 10
157.170156014761
 20
138.9696373778515
 30
0.0
 10
157.170156014761
 20
138.7564999762
 30
0.0
 10
157.0875135996131
 20
138.5415204514622
 30
0.0
 10
156.8689301888027
 20
138.3086013825765
 30
0.0
 10
156.779840235822
 20
138.244734472756
 30
0.0
 10
156.5844349179245
 20
138.1583483183742
 30
0.0
 10
156.4779108709811
 20
138.1354157463311
 30
0.0
 10
156.370156014761
 20
138.1354157463311
 30
0.0
  0
SPLINE
  5
B9
330
1F
100
AcDbEntity
  8
0
  6
Continuous
 62
     7
370
    15
100
AcDbSpline
210
0.0
220
0.0
230
1.0
 70
     8
 71
     3
 72
    12
 73
     8
 74
     0
 42
0.000000001
 43
0.00000001
 40
0.0
 40
0.0
 40
0.0
 40
0.0
 40
0.2500000000000015
 40
0.2500000000000015
 40
0.500000000000003
 40
0.500000000000003
 40
1.0
 40
1.0
 40
1.0
 40
1.0
 10
156.370156014761
 20
132.4664940335009
 30
0.0
 10
156.4922380122493
 20
132.4664940335009
 30
0.0
 10
156.612828554735
 20
132.5052203896746
 30
0.0
 10
156.8183238384348
 20
132.6351839774209
 30
0.0
 10
156.9038403213873
 20
132.7243902139676
 30
0.0
 10
157.1072346729315
 20
133.0292667515132
 30
0.0
 10
157.170156014761
 20
133.2720373656153
 30
0.0
 10
157.170156014761
 20
133.5147987095697
 30
0.0
  0
LINE
  5
BA
330
1F
100
AcDbEntity
  8
0
  6
Continuous
 62
     7
370
    15
100
AcDbLine
 10
156.3701560148
 20
138.1354157463
 30
0.0
 11
154.1501560148
 21
138.1354157463
 31
0.0
  0
LINE
  5
BB
330
1F
100
AcDbEntity
  8
0
  6
Continuous
 62
     7
370
    15
100
AcDbLine
 10
154.1501560148
 20
132.4664940335
 30
0.0
 11
156.3701560148
 21
132.4664940335
 31
0.0
  0
SPLINE
  5
BC
330
1F
100
AcDbEntity
  8
0
  6
Continuous
 62
     7
370
    15
100
AcDbSpline
210
0.0
220
0.0
230
1.0
 70
     8
 71
     3
 72
    12
 73
     8
 74
     0
 42
0.000000001
 43
0.00000001
 40
0.0
 40
0.0
 40
0.0
 40
0.0
 40
0.4999999999999986
 40
0.4999999999999986
 40
0.7499999999999992
 40
0.7499999999999992
 40
1.0
 40
1.0
 40
1.0
 40
1.0
 10
163.210156014761
 20
141.3281090234856
 30
0.0
 10
163.210156014761
 20
141.4484360565387
 30
0.0
 10
163.156361203168
 20
141.5665336300205
 30
0.0
 10
162.9954376332018
 20
141.7061763724595
 30
0.0
 10
162.9306861720992
 20
141.744452325854
 30
0.0
 10
162.7784659887815
 20
141.7992921554884
 30
0.0
 10
162.6956584732566
 20
141.81389396926
 30
0.0
 10
162.610156014761
 20
141.81389396926
 30
0.0
  0
SPLINE
  5
BD
330
1F
100
AcDbEntity
  8
0
  6
Continuous
 62
     7
370
    15
100
AcDbSpline
210
0.0
220
0.0
230
1.0
 70
     8
 71
     3
 72
    14
 73
    10
 74
     0
 42
0.000000001
 43
0.00000001
 40
0.0
 40
0.0
 40
0.0
 40
0.0
 40
0.25
 40
0.25
 40
0.5
 40
0.5
 40
0.75
 40
0.75
 40
1.0
 40
1.0
 40
1.0
 40
1.0
 10
162.610156014761
 20
137.227787530092
 30
0.0
 10
162.6985785528835
 20
137.227787530092
 30
0.0
 10
162.7866325425765
 20
137.2027151796325
 30
0.0
 10
162.9384623064479
 20
137.1163731146612
 30
0.0
 10
163.0043052510117
 20
137.0548298601483
 30
0.0
 10
163.1081043115572
 20
136.9130021138974
 30
0.0
 10
163.1465764210319
 20
136.8329535239274
 30
0.0
 10
163.1977990843065
 20
136.6639410272537
 30
0.0
 10
163.210156014761
 20
136.577161720384
 30
0.0
 10
163.210156014761
 20
136.488970246128
 30
0.0
  0
LINE
  5
BE
330
1F
100
AcDbEntity
  8
0
  6
Continuous
 62
     7
370
    15
100
AcDbLine
 10
163.2101560148
 20
136.4889702461
 30
0.0
 11
163.2101560148
 21
141.3281090235
 31
0.0
  0
SPLINE
  5
BF
330
1F
100
AcDbEntity
  8
0
  6
Continuous
 62
     7
370
    15
100
AcDbSpline
210
0.0
220
0.0
230
1.0
 70
     8
 71
     3
 72
     8
 73
     4
 74
     0
 42
0.000000001
 43
0.00000001
 40
0.0
 40
0.0
 40
0.0
 40
0.0
 40
1.0
 40
1.0
 40
1.0
 40
1.0
 10
158.2241107010571
 20
141.0300960463089
 30
0.0
 10
157.8721666781488
 20
140.3985346582951
 30
0.0
 10
157.5208082550886
 20
139.7666527585962
 30
0.0
 10
157.170156014761
 20
139.1343843495458
 30
0.0
  0
SPLINE
  5
C0
330
1F
100
AcDbEntity
  8
0
  6
Continuous
 62
     7
370
    15
100
AcDbSpline
210
0.0
220
0.0
230
1.0
 70
     8
 71
     3
 72
     8
 73
     4
 74
     0
 42
0.000000001
 43
0.00000001
 40
0.0
 40
0.0
 40
0.0
 40
0.0
 40
0.0012409313617635
 40
0.0012409313617635
 40
0.0012409313617635
 40
0.0012409313617635
 10
158.7819926568177
 20
141.81389396926
 30
0.0
 10
158.5953197285856
 20
141.5528820915614
 30
0.0
 10
158.409334540613
 20
141.2916235897861
 30
0.0
 10
158.2241107010571
 20
141.0300960463089
 30
0.0
  0
LINE
  5
C1
330
1F
100
AcDbEntity
  8
0
  6
Continuous
 62
     7
370
    15
100
AcDbLine
 10
158.7819926568
 20
137.2277875301
 30
0.0
 11
158.7819926568
 21
141.8138939693
 31
0.0
  0
SPLINE
  5
C2
330
1F
100
AcDbEntity
  8
0
  6
Continuous
 62
     7
370
    15
100
AcDbSpline
210
0.0
220
0.0
230
1.0
 70
     8
 71
     3
 72
     8
 73
     4
 74
     0
 42
0.000000001
 43
0.00000001
 40
0.0
 40
0.0
 40
0.0
 40
0.0
 40
1.0
 40
1.0
 40
1.0
 40
1.0
 10
157.170156014761
 20
133.7196969459029
 30
0.0
 10
157.694947134257
 20
134.8946741336076
 30
0.0
 10
158.2334633854398
 20
136.0635733013458
 30
0.0
 10
158.7819926568177
 20
137.227787530092
 30
0.0
  0
LINE
  5
C3
330
1F
100
AcDbEntity
  8
0
  6
Continuous
 62
     7
370
    15
100
AcDbLine
 10
157.1701560148
 20
133.7196969459
 30
0.0
 11
157.1701560148
 21
139.1343843495
 31
0.0
  0
SPLINE
  5
C4
330
1F
100
AcDbEntity
  8
0
  6
Continuous
 62
     7
370
    15
100
AcDbSpline
210
0.0
220
0.0
230
1.0
 70
     8
 71
     3
 72
     8
 73
     4
 74
     0
 42
0.000000001
 43
0.00000001
 40
0.0
 40
0.0
 40
0.0
 40
0.0
 40
0.0012409313617635
 40
0.0012409313617635
 40
0.0012409313617635
 40
0.0012409313617635
 10
152.296201328465
 20
141.0300960463089
 30
0.0
 10
152.110977488909
 20
141.2916235897861
 30
0.0
 10
151.9249923009365
 20
141.5528820915614
 30
0.0
 10
151.7383193727043
 20
141.81389396926
 30
0.0
  0
SPLINE
  5
C5
330
1F
100
AcDbEntity
  8
0
  6
Continuous
 62
     7
370
    15
100
AcDbSpline
210
0.0
220
0.0
230
1.0
 70
     8
 71
     3
 72
     8
 73
     4
 74
     0
 42
0.000000001
 43
0.00000001
 40
0.0
 40
0.0
 40
0.0
 40
0.0
 40
1.0
 40
1.0
 40
1.0
 40
1.0
 10
153.350156014761
 20
139.1343843495458
 30
0.0
 10
152.9995037744335
 20
139.7666527585962
 30
0.0
 10
152.6481453513732
 20
140.3985346582951
 30
0.0
 10
152.296201328465
 20
141.0300960463089
 30
0.0
  0
SPLINE
  5
C6
330
1F
100
AcDbEntity
  8
0
  6
Continuous
 62
     7
370
    15
100
AcDbSpline
210
0.0
220
0.0
230
1.0
 70
     8
 71
     3
 72
     8
 73
     4
 74
     0
 42
0.000000001
 43
0.00000001
 40
0.0
 40
0.0
 40
0.0
 40
0.0
 40
1.0
 40
1.0
 40
1.0
 40
1.0
 10
151.7383193727043
 20
137.227787530092
 30
0.0
 10
152.2872641509012
 20
136.0626914177783
 30
0.0
 10
152.825874525418
 20
134.8935331009538
 30
0.0
 10
153.350156014761
 20
133.7196969459029
 30
0.0
  0
LINE
  5
C7
330
1F
100
AcDbEntity
  8
0
  6
Continuous
 62
     7
370
    15
100
AcDbLine
 10
151.7383193727
 20
137.2277875301
 30
0.0
 11
151.7383193727
 21
141.8138939693
 31
0.0
  0
LINE
  5
C8
330
1F
100
AcDbEntity
  8
0
  6
Continuous
 62
     7
370
    15
100
AcDbLine
 10
153.3501560148
 20
133.7196969459
 30
0.0
 11
153.3501560148
 21
139.1343843495
 31
0.0
  0
LINE
  5
C9
330
1F
100
AcDbEntity
  8
0
  6
Continuous
 62
     7
370
    15
100
AcDbLine
 10
162.6101560148
 20
141.8138939693
 30
0.0
 11
158.7819926568
 21
141.8138939693
 31
0.0
  0
LINE
  5
CA
330
1F
100
AcDbEntity
  8
0
  6
Continuous
 62
     7
370
    15
100
AcDbLine
 10
158.7819926568
 20
137.2277875301
 30
0.0
 11
162.6101560148
 21
137.2277875301
 31
0.0
  0
SPLINE
  5
CB
330
1F
100
AcDbEntity
  8
0
  6
Continuous
 62
     7
370
    15
100
AcDbSpline
210
0.0
220
0.0
230
1.0
 70
     8
 71
     3
 72
    12
 73
     8
 74
     0
 42
0.000000001
 43
0.00000001
 40
0.0
 40
0.0
 40
0.0
 40
0.0
 40
0.4999999999999996
 40
0.4999999999999996
 40
0.7499999999999998
 40
0.7499999999999998
 40
1.0
 40
1.0
 40
1.0
 40
1.0
 10
147.360156014761
 20
136.488970246128
 30
0.0
 10
147.360156014761
 20
136.6655866426498
 30
0.0
 10
147.4094966495828
 20
136.8406438140235
 30
0.0
 10
147.5657122078709
 20
137.0545940265161
 30
0.0
 10
147.6310147877717
 20
137.1159266693631
 30
0.0
 10
147.784783805732
 20
137.2033147673343
 30
0.0
 10
147.8717969123425
 20
137.227787530092
 30
0.0
 10
147.960156014761
 20
137.227787530092
 30
0.0
  0
LINE
  5
CC
330
1F
100
AcDbEntity
  8
0
  6
Continuous
 62
     7
370
    15
100
AcDbLine
 10
147.9601560148
 20
137.2277875301
 30
0.0
 11
151.7383193727
 21
137.2277875301
 31
0.0
  0
SPLINE
  5
CD
330
1F
100
AcDbEntity
  8
0
  6
Continuous
 62
     7
370
    15
100
AcDbSpline
210
0.0
220
0.0
230
1.0
 70
     8
 71
     3
 72
    14
 73
    10
 74
     0
 42
0.000000001
 43
0.00000001
 40
0.0
 40
0.0
 40
0.0
 40
0.0
 40
0.25
 40
0.25
 40
0.5
 40
0.5
 40
0.75
 40
0.75
 40
1.0
 40
1.0
 40
1.0
 40
1.0
 10
153.350156014761
 20
133.5147987095697
 30
0.0
 10
153.350156014761
 20
133.3928633743881
 30
0.0
 10
153.366200382301
 20
133.2733091338867
 30
0.0
 10
153.4319297244803
 20
133.0391931507434
 30
0.0
 10
153.4811370947286
 20
132.9272606106088
 30
0.0
 10
153.6161500756275
 20
132.7248608013719
 30
0.0
 10
153.7020701442338
 20
132.6349956078089
 30
0.0
 10
153.9085849462392
 20
132.5046610981987
 30
0.0
 10
154.0287236586103
 20
132.4664940335009
 30
0.0
 10
154.150156014761
 20
132.4664940335009
 30
0.0
  0
LINE
  5
CE
330
1F
100
AcDbEntity
  8
0
  6
Continuous
 62
     7
370
    15
100
AcDbLine
 10
157.1701560148
 20
133.5147987096
 30
0.0
 11
157.1701560148
 21
133.7196969459
 31
0.0
  0
LINE
  5
CF
330
1F
100
AcDbEntity
  8
0
  6
Continuous
 62
     7
370
    15
100
AcDbLine
 10
153.3501560148
 20
133.7196969459
 30
0.0
 11
153.3501560148
 21
133.5147987096
 31
0.0
  0
LINE
  5
D0
330
1F
100
AcDbEntity
  8
0
  6
Continuous
 62
     7
370
    15
100
AcDbLine
 10
147.3601560148
 20
136.4889702461
 30
0.0
 11
147.3601560148
 21
129.66755789
 31
0.0
  0
LINE
  5
D1
330
1F
100
AcDbEntity
  8
0
  6
Continuous
 62
     7
370
    15
100
AcDbLine
 10
163.2101560148
 20
136.4889702461
 30
0.0
 11
163.2101560148
 21
129.66755789
 31
0.0
  0
LINE
  5
D2
330
1F
100
AcDbEntity
  8
0
  6
Continuous
 62
     7
370
    15
100
AcDbLine
 10
151.7383193727
 20
141.8138939693
 30
0.0
 11
147.9601560148
 21
141.8138939693
 31
0.0
  0
SPLINE
  5
D3
330
1F
100
AcDbEntity
  8
0
  6
Continuous
 62
     7
370
    15
100
AcDbSpline
210
0.0
220
0.0
230
1.0
 70
     8
 71
     3
 72
    10
 73
     6
 74
     0
 42
0.000000001
 43
0.00000001
 40
0.0
 40
0.0
 40
0.0
 40
0.0
 40
0.5
 40
0.5
 40
1.0
 40
1.0
 40
1.0
 40
1.0
 10
147.6473976160686
 20
141.7428544450013
 30
0.0
 10
147.5715580220651
 20
141.6728052586727
 30
0.0
 10
147.5042345043391
 20
141.5875864850991
 30
0.0
 10
147.397590866034
 20
141.3773603584372
 30
0.0
 10
147.360156014761
 20
141.2538511675699
 30
0.0
 10
147.360156014761
 20
141.1239330470473
 30
0.0
  0
SPLINE
  5
D4
330
1F
100
AcDbEntity
  8
0
  6
Continuous
 62
     7
370
    15
100
AcDbSpline
210
0.0
220
0.0
230
1.0
 70
     8
 71
     3
 72
     8
 73
     4
 74
     0
 42
0.000000001
 43
0.00000001
 40
0.0
 40
0.0
 40
0.0
 40
0.0
 40
1.0
 40
1.0
 40
1.0
 40
1.0
 10
147.960156014761
 20
141.81389396926
 30
0.0
 10
147.8479777605814
 20
141.81389396926
 30
0.0
 10
147.7393082478529
 20
141.788212903999
 30
0.0
 10
147.6473976160686
 20
141.7428544450013
 30
0.0
  0
LINE
  5
D5
330
1F
100
AcDbEntity
  8
0
  6
Continuous
 62
     7
370
    15
100
AcDbLine
 10
147.3601560148
 20
136.4889702461
 30
0.0
 11
147.3601560148
 21
141.123933047
 31
0.0
  0
SPLINE
  5
D6
330
1F
100
AcDbEntity
  8
0
  6
Continuous
 62
     7
370
    15
100
AcDbSpline
210
0.0
220
0.0
230
1.0
 70
     8
 71
     3
 72
    14
 73
    10
 74
     0
 42
0.000000001
 43
0.00000001
 40
0.0
 40
0.0
 40
0.0
 40
0.0
 40
0.25
 40
0.25
 40
0.5
 40
0.5
 40
0.75
 40
0.75
 40
1.0
 40
1.0
 40
1.0
 40
1.0
 10
154.150156014761
 20
138.1354157463311
 30
0.0
 10
154.0427869702467
 20
138.1354157463311
 30
0.0
 10
153.9359814784838
 20
138.1583407417361
 30
0.0
 10
153.740840109967
 20
138.2445331756103
 30
0.0
 10
153.6516303923771
 20
138.3083771722742
 30
0.0
 10
153.5057035995607
 20
138.4637932802156
 30
0.0
 10
153.4477138557626
 20
138.5564478584234
 30
0.0
 10
153.3701200142401
 20
138.7556811984729
 30
0.0
 10
153.350156014761
 20
138.8622862935281
 30
0.0
 10
153.350156014761
 20
138.9696373778515
 30
0.0
  0
LINE
  5
D7
330
1F
100
AcDbEntity
  8
0
  6
Continuous
 62
     7
370
    15
100
AcDbLine
 10
75.9101560148
 20
99.910427293
 30
0.0
 11
75.9101560148
 21
122.7246884871
 31
0.0
  0
LINE
  5
D8
330
1F
100
AcDbEntity
  8
0
  6
Continuous
 62
     7
370
    15
100
AcDbLine
 10
229.1601560148
 20
101.51755789
 30
0.0
 11
229.1601560148
 21
121.11755789
 31
0.0
  0
LINE
  5
D9
330
1F
100
AcDbEntity
  8
0
  6
Continuous
 62
     7
370
    15
100
AcDbLine
 10
228.9601560148
 20
101.31755789
 30
0.0
 11
228.9601560148
 21
121.31755789
 31
0.0
  0
SPLINE
  5
DA
330
1F
100
AcDbEntity
  8
0
  6
Continuous
 62
     7
370
    15
100
AcDbSpline
210
0.0
220
0.0
230
1.0
 70
    11
 71
     3
 72
    60
 73
    56
 74
     0
 42
0.000000001
 43
0.00000001
 40
0.0
 40
0.0
 40
0.0
 40
0.0
 40
0.0624999999999987
 40
0.0624999999999987
 40
0.093749999999998
 40
0.093749999999998
 40
0.1249999999999973
 40
0.1249999999999973
 40
0.1562499999999966
 40
0.1562499999999966
 40
0.1874999999999959
 40
0.1874999999999959
 40
0.2187499999999953
 40
0.2187499999999953
 40
0.2499999999999946
 40
0.2499999999999946
 40
0.2812499999999939
 40
0.2812499999999939
 40
0.3124999999999933
 40
0.3124999999999933
 40
0.3437499999999926
 40
0.3437499999999926
 40
0.3749999999999919
 40
0.3749999999999919
 40
0.4062499999999912
 40
0.4062499999999912
 40
0.4374999999999906
 40
0.4374999999999906
 40
0.4687499999999899
 40
0.4687499999999899
 40
0.4999999999999892
 40
0.4999999999999892
 40
0.5312499999999886
 40
0.5312499999999886
 40
0.5624999999999879
 40
0.5624999999999879
 40
0.6249999999999888
 40
0.6249999999999888
 40
0.6874999999999897
 40
0.6874999999999897
 40
0.7499999999999905
 40
0.7499999999999905
 40
0.7812499999999918
 40
0.7812499999999918
 40
0.8124999999999931
 40
0.8124999999999931
 40
0.8437499999999944
 40
0.8437499999999944
 40
0.8749999999999958
 40
0.8749999999999958
 40
0.9062499999999971
 40
0.9062499999999971
 40
0.9374999999999984
 40
0.9374999999999984
 40
1.0
 40
1.0
 40
1.0
 40
1.0
 10
221.1069720373131
 20
113.2814235554852
 30
0.0
 10
221.3977615638961
 20
113.5120524971299
 30
0.0
 10
221.7241647300839
 20
113.6834091881275
 30
0.0
 10
222.2537817223799
 20
113.8560253592308
 30
0.0
 10
222.4332820260148
 20
113.8979993820994
 30
0.0
 10
222.79799020621
 20
113.9522509629462
 30
0.0
 10
222.984839109899
 20
113.9644480541912
 30
0.0
 10
223.3562218960175
 20
113.9577914104674
 30
0.0
 10
223.539594549372
 20
113.9392713581195
 30
0.0
 10
223.9017888336106
 20
113.8722770956747
 30
0.0
 10
224.0822891313097
 20
113.8231350071813
 30
0.0
 10
224.4293561952092
 20
113.6957358302103
 30
0.0
 10
224.5953429789978
 20
113.618088790964
 30
0.0
 10
224.9121191243532
 20
113.4342482312496
 30
0.0
 10
225.0644831796888
 20
113.3266248847361
 30
0.0
 10
225.3431979116012
 20
113.0866377333925
 30
0.0
 10
225.4694951139007
 20
112.9549639281721
 30
0.0
 10
225.6945765299924
 20
112.666587243395
 30
0.0
 10
225.794375792024
 20
112.5073648598571
 30
0.0
 10
225.9537973826456
 20
112.1753540873723
 30
0.0
 10
226.0144298334855
 20
112.0022947531265
 30
0.0
 10
226.094794485336
 20
111.640928349225
 30
0.0
 10
226.1135831555742
 20
111.4527331590294
 30
0.0
 10
226.1056690902336
 20
111.0834797032715
 30
0.0
 10
226.0790921510405
 20
110.8972816363525
 30
0.0
 10
225.9832586877575
 20
110.537997330201
 30
0.0
 10
225.9150898316654
 20
110.3664210526744
 30
0.0
 10
225.7406479266321
 20
110.0383029260169
 30
0.0
 10
225.6357015284634
 20
109.8848678309927
 30
0.0
 10
225.3982737127504
 20
109.6035672850898
 30
0.0
 10
225.2637129795988
 20
109.4736227568875
 30
0.0
 10
224.9757154176207
 20
109.2439014441686
 30
0.0
 10
224.8218981780138
 20
109.1432057513364
 30
0.0
 10
224.4952884202062
 20
108.9686929796498
 30
0.0
 10
224.3236191482109
 20
108.8958218015245
 30
0.0
 10
223.7983470180463
 20
108.7235976181143
 30
0.0
 10
223.423457509696
 20
108.6678102518177
 30
0.0
 10
222.6853896035616
 20
108.6800218363475
 30
0.0
 10
222.3125277685293
 20
108.7483048859305
 30
0.0
 10
221.6223282781781
 20
109.0009016546048
 30
0.0
 10
221.2949867022704
 20
109.1889726969292
 30
0.0
 10
220.8792757302636
 20
109.5464661254258
 30
0.0
 10
220.7510779548244
 20
109.6795885641524
 30
0.0
 10
220.5229627799044
 20
109.9723123481694
 30
0.0
 10
220.4259130066509
 20
110.1279054582696
 30
0.0
 10
220.2670757960071
 20
110.4584872471979
 30
0.0
 10
220.2047425474819
 20
110.6364034506366
 30
0.0
 10
220.124803284045
 20
110.998977293819
 30
0.0
 10
220.1065911385095
 20
111.1826560253811
 30
0.0
 10
220.1148586981101
 20
111.5549384159683
 30
0.0
 10
220.1420027330282
 20
111.7416970643922
 30
0.0
 10
220.2378652624654
 20
112.0992188130376
 30
0.0
 10
220.3078172342397
 20
112.2744382261708
 30
0.0
 10
220.569580461869
 20
112.7641775347666
 30
0.0
 10
220.8161825107301
 20
113.0507946138405
 30
0.0
 10
221.1069720373131
 20
113.2814235554852
 30
0.0
  0
CIRCLE
  5
DB
330
1F
100
AcDbEntity
  8
0
  6
Continuous
 62
     7
370
    15
100
AcDbCircle
 10
223.1101560148
 20
111.31755789
 30
0.0
 40
2.25
  0
SPLINE
  5
DC
330
1F
100
AcDbEntity
  8
0
  6
HIDDEN
 62
     7
370
     0
100
AcDbSpline
210
0.0
220
0.0
230
1.0
 70
     8
 71
     3
 72
    10
 73
     6
 74
     0
 42
0.000000001
 43
0.00000001
 40
0.0
 40
0.0
 40
0.0
 40
0.0
 40
0.5
 40
0.5
 40
1.0
 40
1.0
 40
1.0
 40
1.0
 10
155.1842652521206
 20
103.5710187205757
 30
0.0
 10
155.1686592011394
 20
103.4657465199672
 30
0.0
 10
155.1601547381108
 20
103.3618080221762
 30
0.0
 10
155.1601572917005
 20
103.1622947502201
 30
0.0
 10
155.168654879301
 20
103.0710822555497
 30
0.0
 10
155.1842652521206
 20
102.9891503232066
 30
0.0
  0
LINE
  5
DD
330
1F
100
AcDbEntity
  8
0
  6
HIDDEN
 62
     7
370
     0
100
AcDbLine
 10
155.1842652521
 20
102.9891503232
 30
0.0
 11
155.3234908941
 21
102.536205637
 31
0.0
  0
LWPOLYLINE
  5
DE
330
1F
100
AcDbEntity
  8
0
  6
HIDDEN
 62
     7
370
     0
100
AcDbPolyline
 90
       15
 70
   128
 43
0.0
 10
158.5679416326
 20
101.9451455117
 10
158.8139457081
 20
102.2231998825
 10
159.071644883
 20
102.7271727802
 10
159.1601560148
 20
103.2800845219
 10
159.071644883
 20
103.8329962636
 10
158.8139457081
 20
104.3369691612
 10
158.4098677358
 20
104.7473960033
 10
157.8951763646
 20
105.0279494455
 10
157.3154275104
 20
105.1537973851
 10
156.7219354004
 20
105.1138008786
 10
156.1672306929
 20
104.911500062
 10
155.7004109295
 20
104.5648008095
 10
155.3627948556
 20
104.1043898645
 10
155.1842652521
 20
103.5710187206
 10
155.1842652521
 20
103.5710187206
  0
LWPOLYLINE
  5
DF
330
1F
100
AcDbEntity
  8
0
  6
HIDDEN
 62
     7
370
     0
100
AcDbPolyline
 90
       22
 70
   128
 43
0.0
 10
147.6103676619
 20
102.4193733372
 10
147.7630901217
 20
101.8124150089
 10
148.0048070408
 20
101.2593875917
 10
148.3140408102
 20
100.8094299984
 10
148.6633146524
 20
100.502522936
 10
149.0215940539
 20
100.3659364436
 10
149.3570443174
 20
100.4118068306
 10
149.639859215
 20
100.6360583118
 10
149.8449094019
 20
101.0187651589
 10
149.9539752692
 20
101.5259221892
 10
149.9573658359
 20
102.1124662748
 10
149.8547798353
 20
102.7262803997
 10
149.6553324837
 20
103.3128244853
 10
149.3767455537
 20
103.8199815156
 10
149.0437727164
 20
104.2026883627
 10
148.6860000697
 20
104.4269398439
 10
148.3352172833
 20
104.4728102309
 10
148.0225929472
 20
104.3362237385
 10
147.7759051056
 20
104.029316676
 10
147.6170730557
 20
103.5793590828
 10
147.5602097222
 20
103.0263316656
 10
147.6103676619
 20
102.4193733372
  0
LWPOLYLINE
  5
E0
330
1F
100
AcDbEntity
  8
0
  6
HIDDEN
 62
     7
370
     0
100
AcDbPolyline
 90
       20
 70
   128
 43
0.0
 10
147.9918835523
 20
102.4515041246
 10
148.1288246316
 20
101.9261602592
 10
148.3492080291
 20
101.4577455532
 10
148.6291517841
 20
101.0970200081
 10
148.9383196469
 20
100.8830738341
 10
149.2432084824
 20
100.8390914187
 10
149.5107788544
 20
100.9698389392
 10
149.7120353613
 20
101.2611478729
 10
149.8251687378
 20
101.6814503768
 10
149.8379192271
 20
102.1852001528
 10
149.7489051158
 20
102.7178080964
 10
149.5677724642
 20
103.2215578724
 10
149.3141498054
 20
103.6418603763
 10
149.0155210901
 20
103.93316931
 10
148.7042473731
 20
104.0639168305
 10
148.4140599917
 20
104.0199344151
 10
148.1764052514
 20
103.8059882411
 10
148.0170367308
 20
103.445262696
 10
147.953224482
 20
102.97684799
 10
147.9918835523
 20
102.4515041246
  0
ELLIPSE
  5
E1
330
1F
100
AcDbEntity
  8
0
  6
HIDDEN
 62
     7
370
     0
100
AcDbEllipse
 10
157.1601560148
 20
104.4299678295
 30
0.0
 11
1.383467579512143
 21
-1.091267719176599
 31
0.0
210
0.0
220
0.0
230
1.0
 40
0.8239737799
 41
2.147131942757417
 42
4.683536802182993
  0
ELLIPSE
  5
E2
330
1F
100
AcDbEntity
  8
0
  6
HIDDEN
 62
     7
370
     0
100
AcDbEllipse
 10
157.1601560148
 20
104.4299678295
 30
0.0
 11
1.383467579512143
 21
1.753907414218489
 31
0.0
210
0.0
220
0.0
230
1.0
 40
0.5126701559
 41
0.9944607108323831
 42
2.88331070217881
  0
SPLINE
  5
E3
330
1F
100
AcDbEntity
  8
0
  6
HIDDEN
 62
     7
370
     0
100
AcDbSpline
210
0.0
220
0.0
230
1.0
 70
     8
 71
     3
 72
    14
 73
    10
 74
     0
 42
0.000000001
 43
0.00000001
 40
0.0
 40
0.0
 40
0.0
 40
0.0
 40
0.25
 40
0.25
 40
0.5
 40
0.5
 40
0.75
 40
0.75
 40
1.0
 40
1.0
 40
1.0
 40
1.0
 10
155.1842652521206
 20
102.9891503232066
 30
0.0
 10
155.2206290801509
 20
103.0346449586084
 30
0.0
 10
155.2531068073611
 20
103.0830367648247
 30
0.0
 10
155.3018604367768
 20
103.1885219087542
 30
0.0
 10
155.3167642144513
 20
103.2451064169972
 30
0.0
 10
155.3167746481089
 20
103.3539940109476
 30
0.0
 10
155.3018843523008
 20
103.4061786767102
 30
0.0
 10
155.2529954214232
 20
103.4974560756538
 30
0.0
 10
155.2206232431528
 20
103.536122781028
 30
0.0
 10
155.1842652521206
 20
103.5710187205757
 30
0.0
  0
LWPOLYLINE
  5
E4
330
1F
100
AcDbEntity
  8
0
  6
HIDDEN
 62
     7
370
     0
100
AcDbPolyline
 90
       15
 70
   128
 43
0.0
 10
158.3370673674
 20
102.2369455482
 10
158.5414807039
 20
102.4756151306
 10
158.7596664536
 20
102.9430308387
 10
158.8045204282
 20
103.4516930076
 10
158.6711820037
 20
103.9464801985
 10
158.3741004674
 20
104.3737745418
 10
157.9454692133
 20
104.6872720654
 10
157.4317370887
 20
104.8530004481
 10
156.8885749408
 20
104.8530004481
 10
156.3748428162
 20
104.6872720654
 10
155.9462115622
 20
104.3737745418
 10
155.6491300258
 20
103.9464801985
 10
155.5157916013
 20
103.4516930076
 10
155.560645576
 20
102.9430308387
 10
155.5686804142
 20
102.9143694669
  0
SPLINE
  5
E5
330
1F
100
AcDbEntity
  8
0
  6
HIDDEN
 62
     7
370
     0
100
AcDbSpline
210
0.0
220
0.0
230
1.0
 70
    11
 71
     3
 72
    56
 73
    52
 74
     0
 42
0.000000001
 43
0.00000001
 40
0.0
 40
0.0
 40
0.0
 40
0.0
 40
0.0624999999999995
 40
0.0624999999999995
 40
0.0937499999999992
 40
0.0937499999999992
 40
0.124999999999999
 40
0.124999999999999
 40
0.1562499999999987
 40
0.1562499999999987
 40
0.1874999999999984
 40
0.1874999999999984
 40
0.2187499999999982
 40
0.2187499999999982
 40
0.2499999999999979
 40
0.2499999999999979
 40
0.3124999999999975
 40
0.3124999999999975
 40
0.374999999999997
 40
0.374999999999997
 40
0.4062499999999968
 40
0.4062499999999968
 40
0.4374999999999965
 40
0.4374999999999965
 40
0.4999999999999964
 40
0.4999999999999964
 40
0.5312499999999967
 40
0.5312499999999967
 40
0.5624999999999968
 40
0.5624999999999968
 40
0.593749999999997
 40
0.593749999999997
 40
0.6249999999999972
 40
0.6249999999999972
 40
0.6562499999999973
 40
0.6562499999999973
 40
0.6874999999999976
 40
0.6874999999999976
 40
0.7187499999999978
 40
0.7187499999999978
 40
0.7499999999999979
 40
0.7499999999999979
 40
0.7812499999999981
 40
0.7812499999999981
 40
0.8124999999999983
 40
0.8124999999999983
 40
0.8749999999999989
 40
0.8749999999999989
 40
0.9374999999999996
 40
0.9374999999999996
 40
1.0
 40
1.0
 40
1.0
 40
1.0
 10
157.1601560147611
 20
109.3227678666586
 30
0.0
 10
156.9291881470088
 20
109.3227678666586
 30
0.0
 10
156.7083468377562
 20
109.3466392243217
 30
0.0
 10
156.4180750198723
 20
109.4183835589903
 30
0.0
 10
156.326035025333
 20
109.4488420649649
 30
0.0
 10
156.1557172055852
 20
109.5225698752336
 30
0.0
 10
156.0769667755411
 20
109.5658065143803
 30
0.0
 10
155.9307622857491
 20
109.6675217356373
 30
0.0
 10
155.8627738870481
 20
109.7267143484169
 30
0.0
 10
155.7430579522631
 20
109.8598595141899
 30
0.0
 10
155.6909208243724
 20
109.9338088029585
 30
0.0
 10
155.6035961992357
 20
110.0996731235697
 30
0.0
 10
155.5691628487166
 20
110.1908433315191
 30
0.0
 10
155.5227064198344
 20
110.3846669167576
 30
0.0
 10
155.5103663528648
 20
110.4897793826251
 30
0.0
 10
155.5097436011744
 20
110.8098913335378
 30
0.0
 10
155.5579257754956
 20
111.0361472779524
 30
0.0
 10
155.7312416162544
 20
111.4595362917761
 30
0.0
 10
155.8543589923819
 20
111.6561121971887
 30
0.0
 10
156.0743472232054
 20
111.9102645671538
 30
0.0
 10
156.1533282389171
 20
111.9881170813549
 30
0.0
 10
156.324060306717
 20
112.1299111968311
 30
0.0
 10
156.4158884214931
 20
112.1936843700806
 30
0.0
 10
156.7061450127241
 20
112.3543435932007
 30
0.0
 10
156.9294007243872
 20
112.4235118139966
 30
0.0
 10
157.2736418945454
 20
112.423873372414
 30
0.0
 10
157.3862306931245
 20
112.4074996698039
 30
0.0
 10
157.6051336041502
 20
112.3460544657804
 30
0.0
 10
157.7072572002863
 20
112.3025193017645
 30
0.0
 10
157.9015226025418
 20
112.1955783594373
 30
0.0
 10
157.9935649396486
 20
112.1318394422934
 30
0.0
 10
158.1635154679026
 20
111.9912899021513
 30
0.0
 10
158.2424199641453
 20
111.9139296789938
 30
0.0
 10
158.3893666851399
 20
111.7450031530146
 30
0.0
 10
158.4572576552624
 20
111.6532318649035
 30
0.0
 10
158.5767188525423
 20
111.4614909733856
 30
0.0
 10
158.6290565126328
 20
111.3607323488144
 30
0.0
 10
158.7169896724232
 20
111.1481010196929
 30
0.0
 10
158.7509381438523
 20
111.0401429615907
 30
0.0
 10
158.7975960749345
 20
110.8209436250176
 30
0.0
 10
158.8099055356767
 20
110.7093216503318
 30
0.0
 10
158.8103986934622
 20
110.4960540391961
 30
0.0
 10
158.798696824657
 20
110.3913783864538
 30
0.0
 10
158.7528301902837
 20
110.1958234682768
 30
0.0
 10
158.7192231671578
 20
110.1054921944359
 30
0.0
 10
158.5885567772235
 20
109.8542265900171
 30
0.0
 10
158.4656832562367
 20
109.7210838694665
 30
0.0
 10
158.1727129402407
 20
109.5160826597584
 30
0.0
 10
158.0008932502544
 20
109.4429707459771
 30
0.0
 10
157.6139182463343
 20
109.3469209017336
 30
0.0
 10
157.3911238825133
 20
109.3227678666586
 30
0.0
 10
157.160156014761
 20
109.3227678666586
 30
0.0
  0
ELLIPSE
  5
E6
330
1F
100
AcDbEntity
  8
0
  6
HIDDEN
 62
     7
370
     0
100
AcDbEllipse
 10
157.1601560148
 20
104.4299678295
 30
0.0
 11
1.383467579512143
 21
1.753907414218489
 31
0.0
210
0.0
220
0.0
230
1.0
 40
0.5126701559
 41
0.9829735846098757
 42
0.9944607108323705
  0
SPLINE
  5
E7
330
1F
100
AcDbEntity
  8
0
  6
HIDDEN
 62
     7
370
     0
100
AcDbSpline
210
0.0
220
0.0
230
1.0
 70
     8
 71
     3
 72
     8
 73
     4
 74
     0
 42
0.000000001
 43
0.00000001
 40
0.0
 40
0.0
 40
0.0
 40
0.0
 40
1.0
 40
1.0
 40
1.0
 40
1.0
 10
157.1791093561933
 20
105.9928109797073
 30
0.0
 10
157.1961082402727
 20
105.9848277061939
 30
0.0
 10
157.2131123848138
 20
105.9760913037462
 30
0.0
 10
157.230097110916
 20
105.9666144519086
 30
0.0
  0
ELLIPSE
  5
E8
330
1F
100
AcDbEntity
  8
0
  6
HIDDEN
 62
     7
370
     0
100
AcDbEllipse
 10
157.1601560148
 20
104.4299678295
 30
0.0
 11
1.383467579512143
 21
-1.091267719176599
 31
0.0
210
0.0
220
0.0
230
1.0
 40
0.8239737799
 41
2.104730695461233
 42
2.14713194275742
  0
LINE
  5
E9
330
1F
100
AcDbEntity
  8
0
  6
HIDDEN
 62
     7
370
     0
100
AcDbLine
 10
147.3601560148
 20
136.11755789
 30
0.0
 11
147.697414315
 21
136.11755789
 31
0.0
  0
ELLIPSE
  5
EA
330
1F
100
AcDbEntity
  8
0
  6
HIDDEN
 62
     7
370
     0
100
AcDbEllipse
 10
147.697414315
 20
137.71755789
 30
0.0
 11
0.0
 21
1.599999999999994
 31
0.0
210
0.0
220
0.0
230
1.0
 40
0.4142135624
 41
3.141592653589793
 42
4.712388980384695
  0
LINE
  5
EB
330
1F
100
AcDbEntity
  8
0
  6
HIDDEN
 62
     7
370
     0
100
AcDbLine
 10
147.697414315
 20
88.71755789
 30
0.0
 11
147.3601560148
 21
88.71755789
 31
0.0
  0
ELLIPSE
  5
EC
330
1F
100
AcDbEntity
  8
0
  6
HIDDEN
 62
     7
370
     0
100
AcDbEllipse
 10
147.697414315
 20
87.11755789
 30
0.0
 11
0.0
 21
1.599999999999994
 31
0.0
210
0.0
220
0.0
230
1.0
 40
0.4142135624
 41
4.712388980384695
 42
6.283185307179586
  0
LINE
  5
ED
330
1F
100
AcDbEntity
  8
0
  6
HIDDEN
 62
     7
370
     0
100
AcDbLine
 10
148.3601560148
 20
81.4241095434
 30
0.0
 11
147.5763005561
 21
80.9658280406
 31
0.0
  0
LINE
  5
EE
330
1F
100
AcDbEntity
  8
0
  6
HIDDEN
 62
     7
370
     0
100
AcDbLine
 10
147.6473976161
 20
141.742854445
 30
0.0
 11
148.3601560148
 21
141.0300960463
 31
0.0
  0
LINE
  5
EF
330
1F
100
AcDbEntity
  8
0
  6
HIDDEN
 62
     7
370
     0
100
AcDbLine
 10
82.9101560148
 20
102.81755789
 30
0.0
 11
82.9101560148
 21
119.81755789
 31
0.0
  0
LINE
  5
F0
330
1F
100
AcDbEntity
  8
0
  6
HIDDEN
 62
     7
370
     0
100
AcDbLine
 10
85.9060852291
 20
104.31755789
 30
0.0
 11
85.9060852291
 21
118.31755789
 31
0.0
  0
LINE
  5
F1
330
1F
100
AcDbEntity
  8
0
  6
HIDDEN
 62
     7
370
     0
100
AcDbLine
 10
152.1953664111
 20
81.4241095434
 30
0.0
 11
148.3601560148
 21
81.4241095434
 31
0.0
  0
LINE
  5
F2
330
1F
100
AcDbEntity
  8
0
  6
HIDDEN
 62
     7
370
     0
100
AcDbLine
 10
163.2101560148
 20
81.4241095434
 30
0.0
 11
158.3249456185
 21
81.4241095434
 31
0.0
  0
LINE
  5
F3
330
1F
100
AcDbEntity
  8
0
  6
HIDDEN
 62
     7
370
     0
100
AcDbLine
 10
148.3601560148
 20
81.4241095434
 30
0.0
 11
148.3601560148
 21
87.11755789
 31
0.0
  0
LINE
  5
F4
330
1F
100
AcDbEntity
  8
0
  6
HIDDEN
 62
     7
370
     0
100
AcDbLine
 10
163.2101560148
 20
88.71755789
 30
0.0
 11
147.697414315
 21
88.71755789
 31
0.0
  0
LINE
  5
F5
330
1F
100
AcDbEntity
  8
0
  6
HIDDEN
 62
     7
370
     0
100
AcDbLine
 10
147.697414315
 20
136.11755789
 30
0.0
 11
163.2101560148
 21
136.11755789
 31
0.0
  0
LINE
  5
F6
330
1F
100
AcDbEntity
  8
0
  6
HIDDEN
 62
     7
370
     0
100
AcDbLine
 10
148.3601560148
 20
141.0300960463
 30
0.0
 11
152.2962013285
 21
141.0300960463
 31
0.0
  0
LINE
  5
F7
330
1F
100
AcDbEntity
  8
0
  6
HIDDEN
 62
     7
370
     0
100
AcDbLine
 10
158.2241107011
 20
141.0300960463
 30
0.0
 11
163.2101560148
 21
141.0300960463
 31
0.0
  0
LINE
  5
F8
330
1F
100
AcDbEntity
  8
0
  6
HIDDEN
 62
     7
370
     0
100
AcDbLine
 10
148.3601560148
 20
141.0300960463
 30
0.0
 11
148.3601560148
 21
137.71755789
 31
0.0
  0
LINE
  5
F9
330
1F
100
AcDbEntity
  8
0
  6
HIDDEN
 62
     7
370
     0
100
AcDbLine
 10
118.9101560148
 20
104.31755789
 30
0.0
 11
118.9101560148
 21
118.31755789
 31
0.0
  0
LINE
  5
FA
330
1F
100
AcDbEntity
  8
0
  6
HIDDEN
 62
     7
370
     0
100
AcDbLine
 10
121.854373048
 20
109.21755789
 30
0.0
 11
121.854373048
 21
113.41755789
 31
0.0
  0
LINE
  5
FB
330
1F
100
AcDbEntity
  8
0
  6
HIDDEN
 62
     7
370
     0
100
AcDbLine
 10
215.6601560148
 20
106.11755789
 30
0.0
 11
215.6601560148
 21
116.51755789
 31
0.0
  0
LINE
  5
FC
330
1F
100
AcDbEntity
  8
0
  6
HIDDEN
 62
     7
370
     0
100
AcDbLine
 10
219.0261814185
 20
105.81755789
 30
0.0
 11
219.0261814185
 21
116.81755789
 31
0.0
  0
SPLINE
  5
FD
330
1F
100
AcDbEntity
  8
0
  6
HIDDEN
 62
     7
370
     0
100
AcDbSpline
210
0.0
220
0.0
230
1.0
 70
    11
 71
     3
 72
    56
 73
    52
 74
     0
 42
0.000000001
 43
0.00000001
 40
0.0
 40
0.0
 40
0.0
 40
0.0
 40
0.0625000000000006
 40
0.0625000000000006
 40
0.0937500000000007
 40
0.0937500000000007
 40
0.1250000000000008
 40
0.1250000000000008
 40
0.1562500000000009
 40
0.1562500000000009
 40
0.1875000000000011
 40
0.1875000000000011
 40
0.2187500000000012
 40
0.2187500000000012
 40
0.2500000000000013
 40
0.2500000000000013
 40
0.3125000000000016
 40
0.3125000000000016
 40
0.3750000000000019
 40
0.3750000000000019
 40
0.4062500000000021
 40
0.4062500000000021
 40
0.4375000000000022
 40
0.4375000000000022
 40
0.500000000000002
 40
0.500000000000002
 40
0.531250000000002
 40
0.531250000000002
 40
0.5625000000000019
 40
0.5625000000000019
 40
0.5937500000000017
 40
0.5937500000000017
 40
0.6250000000000016
 40
0.6250000000000016
 40
0.6562500000000014
 40
0.6562500000000014
 40
0.6875000000000013
 40
0.6875000000000013
 40
0.7187500000000012
 40
0.7187500000000012
 40
0.750000000000001
 40
0.750000000000001
 40
0.7812500000000009
 40
0.7812500000000009
 40
0.8125000000000008
 40
0.8125000000000008
 40
0.8750000000000006
 40
0.8750000000000006
 40
0.9375000000000002
 40
0.9375000000000002
 40
1.0
 40
1.0
 40
1.0
 40
1.0
 10
157.160156014761
 20
110.2113622648367
 30
0.0
 10
157.3911238825132
 20
110.2113622648367
 30
0.0
 10
157.6119651917659
 20
110.2799459266555
 30
0.0
 10
157.9022370096498
 20
110.4400281934317
 30
0.0
 10
157.9942770041891
 20
110.5037789353904
 30
0.0
 10
158.1645948239369
 20
110.6448057020964
 30
0.0
 10
158.2433452539809
 20
110.7221820962169
 30
0.0
 10
158.389549743773
 20
110.8903912785615
 30
0.0
 10
158.457538142474
 20
110.9822567136507
 30
0.0
 10
158.577254077259
 20
111.1745617936007
 30
0.0
 10
158.6293912051497
 20
111.2751807598168
 30
0.0
 10
158.7167158302864
 20
111.4863645826196
 30
0.0
 10
158.7511491808055
 20
111.59580066479
 30
0.0
 10
158.7976056096877
 20
111.8143813344847
 30
0.0
 10
158.8099456766572
 20
111.9261509363
 30
0.0
 10
158.8105684283477
 20
112.2465975912627
 30
0.0
 10
158.7623862540264
 20
112.446574865311
 30
0.0
 10
158.5890704132677
 20
112.7799494985723
 30
0.0
 10
158.4659530371401
 20
112.9138224010143
 30
0.0
 10
158.2459648063167
 20
113.0677866766404
 30
0.0
 10
158.1669837906049
 20
113.1113508409411
 30
0.0
 10
157.9962517228051
 20
113.1855757525377
 30
0.0
 10
157.9044236080289
 20
113.2160754821007
 30
0.0
 10
157.6141670167979
 20
113.2881610291437
 30
0.0
 10
157.3909113051349
 20
113.3122590387368
 30
0.0
 10
157.0466701349766
 20
113.3123919854749
 30
0.0
 10
156.9340813363975
 20
113.3065324811553
 30
0.0
 10
156.7151784253718
 20
113.2825340100905
 30
0.0
 10
156.6130548292358
 20
113.2648663455418
 30
0.0
 10
156.4187894269802
 20
113.2169657435534
 30
0.0
 10
156.3267470898735
 20
113.1865168741526
 30
0.0
 10
156.1567965616195
 20
113.1130775400015
 30
0.0
 10
156.0778920653767
 20
113.0698934100577
 30
0.0
 10
155.9309453443822
 20
112.9677805360321
 30
0.0
 10
155.8630543742597
 20
112.9086398782381
 30
0.0
 10
155.7435931769797
 20
112.7759245340381
 30
0.0
 10
155.6912555168892
 20
112.7019308026488
 30
0.0
 10
155.6033223570989
 20
112.5349344019334
 30
0.0
 10
155.5693738856697
 20
112.4449881658815
 30
0.0
 10
155.5227159545876
 20
112.2506526284877
 30
0.0
 10
155.5104064938454
 20
112.1456716298754
 30
0.0
 10
155.5099133360598
 20
111.9326690711944
 30
0.0
 10
155.521615204865
 20
111.8216785695984
 30
0.0
 10
155.5674818392383
 20
111.6016726307861
 30
0.0
 10
155.6010888623642
 20
111.4935019526294
 30
0.0
 10
155.7317552522985
 20
111.1743737984646
 30
0.0
 10
155.8546287732854
 20
110.9786681294052
 30
0.0
 10
156.1475990892813
 20
110.640247134345
 30
0.0
 10
156.3194187792676
 20
110.4947808006402
 30
0.0
 10
156.7063937831878
 20
110.2806818430133
 30
0.0
 10
156.9291881470088
 20
110.2113622648367
 30
0.0
 10
157.160156014761
 20
110.2113622648367
 30
0.0
  0
ELLIPSE
  5
FE
330
1F
100
AcDbEntity
  8
0
  6
HIDDEN
 62
     7
370
     0
100
AcDbEllipse
 10
157.1601560148
 20
118.2051479506
 30
0.0
 11
-1.383467579512086
 21
1.753907414218503
 31
0.0
210
0.0
220
0.0
230
1.0
 40
0.5126701559
 41
5.288724596347256
 42
8.430317249937037
  0
ELLIPSE
  5
FF
330
1F
100
AcDbEntity
  8
0
  6
HIDDEN
 62
     7
370
     0
100
AcDbEllipse
 10
157.1601560148
 20
118.2051479506
 30
0.0
 11
1.383467579512143
 21
1.091267719176599
 31
0.0
210
0.0
220
0.0
230
1.0
 40
0.8239737799
 41
0.9520594635583308
 42
0.9944607108323791
  0
SPLINE
  5
100
330
1F
100
AcDbEntity
  8
0
  6
HIDDEN
 62
     7
370
     0
100
AcDbSpline
210
0.0
220
0.0
230
1.0
 70
     8
 71
     3
 72
     8
 73
     4
 74
     0
 42
0.000000001
 43
0.00000001
 40
0.0
 40
0.0
 40
0.0
 40
0.0
 40
1.0
 40
1.0
 40
1.0
 40
1.0
 10
157.2300971109161
 20
119.7666998164136
 30
0.0
 10
157.2131123848138
 20
119.7595841063639
 30
0.0
 10
157.1961082402727
 20
119.7517089768422
 30
0.0
 10
157.1791093561933
 20
119.743085857388
 30
0.0
  0
ELLIPSE
  5
101
330
1F
100
AcDbEntity
  8
0
  6
HIDDEN
 62
     7
370
     0
100
AcDbEllipse
 10
157.1601560148
 20
118.2051479506
 30
0.0
 11
-1.383467579512086
 21
1.753907414218503
 31
0.0
210
0.0
220
0.0
230
1.0
 40
0.5126701559
 41
5.277237470124732
 42
5.288724596347244
  0
ELLIPSE
  5
102
330
1F
100
AcDbEntity
  8
0
  6
HIDDEN
 62
     7
370
     0
100
AcDbEllipse
 10
157.1601560148
 20
118.2051479506
 30
0.0
 11
1.383467579512143
 21
1.091267719176599
 31
0.0
210
0.0
220
0.0
230
1.0
 40
0.8239737799
 41
0.9944607108323756
 42
4.136053364422182
  0
ELLIPSE
  5
103
330
1F
100
AcDbEntity
  8
0
  6
HIDDEN
 62
     7
370
     0
100
AcDbEllipse
 10
157.1601560148
 20
118.2051479506
 30
0.0
 11
-1.383467579512086
 21
1.753907414218503
 31
0.0
210
0.0
220
0.0
230
1.0
 40
0.5126701559
 41
2.147131942757438
 42
2.158619068979933
  0
SPLINE
  5
104
330
1F
100
AcDbEntity
  8
0
  6
HIDDEN
 62
     7
370
     0
100
AcDbSpline
210
0.0
220
0.0
230
1.0
 70
     8
 71
     3
 72
     8
 73
     4
 74
     0
 42
0.000000001
 43
0.00000001
 40
0.0
 40
0.0
 40
0.0
 40
0.0
 40
1.0
 40
1.0
 40
1.0
 40
1.0
 10
157.1791093561933
 20
116.6423048003816
 30
0.0
 10
157.1961082402726
 20
116.650288073895
 30
0.0
 10
157.2131123848138
 20
116.6590244763427
 30
0.0
 10
157.230097110916
 20
116.6685013281803
 30
0.0
  0
ELLIPSE
  5
105
330
1F
100
AcDbEntity
  8
0
  6
HIDDEN
 62
     7
370
     0
100
AcDbEllipse
 10
157.1601560148
 20
118.2051479506
 30
0.0
 11
1.383467579512143
 21
1.091267719176599
 31
0.0
210
0.0
220
0.0
230
1.0
 40
0.8239737799
 41
4.136053364422185
 42
4.178454611696218
  0
LWPOLYLINE
  5
106
330
1F
100
AcDbEntity
  8
0
  6
HIDDEN
 62
     7
370
     0
100
AcDbPolyline
 90
       20
 70
   128
 43
0.0
 10
157.1601560148
 20
117.7609686308
 10
157.6959101389
 20
117.8449786088
 10
158.1736069907
 20
118.0879047579
 10
158.5414807039
 20
118.4634222607
 10
158.7596664536
 20
118.9308379688
 10
158.8045204282
 20
119.4395001377
 10
158.6711820037
 20
119.9342873286
 10
158.3741004674
 20
120.3615816719
 10
157.9454692133
 20
120.6750791955
 10
157.4317370887
 20
120.8408075782
 10
156.8885749408
 20
120.8408075782
 10
156.3748428162
 20
120.6750791955
 10
155.9462115622
 20
120.3615816719
 10
155.6491300258
 20
119.9342873286
 10
155.5157916013
 20
119.4395001377
 10
155.560645576
 20
118.9308379688
 10
155.7788313256
 20
118.4634222607
 10
156.1467050388
 20
118.0879047579
 10
156.6244018906
 20
117.8449786088
 10
157.1601560148
 20
117.7609686308
  0
LINE
  5
107
330
1F
100
AcDbEntity
  8
0
  6
HIDDEN
 62
     7
370
     0
100
AcDbLine
 10
153.3501560148
 20
133.5147987096
 30
0.0
 11
153.3501560148
 21
129.66755789
 31
0.0
  0
SPLINE
  5
108
330
1F
100
AcDbEntity
  8
0
  6
HIDDEN
 62
     7
370
     0
100
AcDbSpline
210
0.0
220
0.0
230
1.0
 70
     8
 71
     3
 72
    14
 73
    10
 74
     0
 42
0.000000001
 43
0.00000001
 40
0.0
 40
0.0
 40
0.0
 40
0.0
 40
0.25
 40
0.25
 40
0.5
 40
0.5
 40
0.75
 40
0.75
 40
1.0
 40
1.0
 40
1.0
 40
1.0
 10
156.3701560147609
 20
122.6000370801525
 30
0.0
 10
156.4678382658749
 20
122.6385593941849
 30
0.0
 10
156.5699517749123
 20
122.6761747536437
 30
0.0
 10
156.7621239460811
 20
122.7472834792306
 30
0.0
 10
156.853542619408
 20
122.7814895297347
 30
0.0
 10
157.0050586084222
 20
122.8483790080916
 30
0.0
 10
157.0662058109611
 20
122.8816494706525
 30
0.0
 10
157.1489125126495
 20
122.9510478207464
 30
0.0
 10
157.170156014761
 20
122.9868249263423
 30
0.0
 10
157.170156014761
 20
123.023320258593
 30
0.0
  0
LINE
  5
109
330
1F
100
AcDbEntity
  8
0
  6
HIDDEN
 62
     7
370
     0
100
AcDbLine
 10
157.1701560148
 20
133.5147987096
 30
0.0
 11
157.1701560148
 21
129.66755789
 31
0.0
  0
LINE
  5
10A
330
1F
100
AcDbEntity
  8
0
  6
HIDDEN
 62
     7
370
     0
100
AcDbLine
 10
157.1701560148
 20
103.3162753699
 30
0.0
 11
157.1701560148
 21
99.5575518716
 31
0.0
  0
SPLINE
  5
10B
330
1F
100
AcDbEntity
  8
0
  6
HIDDEN
 62
     7
370
     0
100
AcDbSpline
210
0.0
220
0.0
230
1.0
 70
     8
 71
     3
 72
    14
 73
    10
 74
     0
 42
0.000000001
 43
0.00000001
 40
0.0
 40
0.0
 40
0.0
 40
0.0
 40
0.2500000000000005
 40
0.2500000000000005
 40
0.5000000000000003
 40
0.5000000000000003
 40
0.7500000000000001
 40
0.7500000000000001
 40
1.0
 40
1.0
 40
1.0
 40
1.0
 10
157.170156014761
 20
119.264596760374
 30
0.0
 10
157.170156014761
 20
119.2281078294668
 30
0.0
 10
157.1489866385888
 20
119.191609037733
 30
0.0
 10
157.0662410207364
 20
119.1262336899961
 30
0.0
 10
157.0053873959086
 20
119.0982968556497
 30
0.0
 10
156.8537825292175
 20
119.064405826403
 30
0.0
 10
156.7625602187503
 20
119.0589803738165
 30
0.0
 10
156.5702296690471
 20
119.0798996976291
 30
0.0
 10
156.4679787845701
 20
119.1064558450696
 30
0.0
 10
156.3701560147609
 20
119.1469256033754
 30
0.0
  0
LINE
  5
10C
330
1F
100
AcDbEntity
  8
0
  6
HIDDEN
 62
     7
370
     0
100
AcDbLine
 10
151.7383193727
 20
137.2277875301
 30
0.0
 11
151.7383193727
 21
129.66755789
 31
0.0
  0
LINE
  5
10D
330
1F
100
AcDbEntity
  8
0
  6
HIDDEN
 62
     7
370
     0
100
AcDbLine
 10
158.7819926568
 20
101.5655378222
 30
0.0
 11
158.7819926568
 21
99.3660580918
 31
0.0
  0
LINE
  5
10E
330
1F
100
AcDbEntity
  8
0
  6
HIDDEN
 62
     7
370
     0
100
AcDbLine
 10
158.7819926568
 20
137.2277875301
 30
0.0
 11
158.7819926568
 21
129.66755789
 31
0.0
  0
SPLINE
  5
10F
330
1F
100
AcDbEntity
  8
0
  6
HIDDEN
 62
     7
370
     0
100
AcDbSpline
210
0.0
220
0.0
230
1.0
 70
     8
 71
     3
 72
    10
 73
     6
 74
     0
 42
0.000000001
 43
0.00000001
 40
0.0
 40
0.0
 40
0.0
 40
0.0
 40
0.5
 40
0.5
 40
1.0
 40
1.0
 40
1.0
 40
1.0
 10
155.1842652521206
 20
119.0640970595132
 30
0.0
 10
155.1686592011394
 20
119.1693692601218
 30
0.0
 10
155.1601547381108
 20
119.2733077579126
 30
0.0
 10
155.1601572917005
 20
119.4728210298687
 30
0.0
 10
155.168654879301
 20
119.5640335245391
 30
0.0
 10
155.1842652521206
 20
119.6459654568822
 30
0.0
  0
SPLINE
  5
110
330
1F
100
AcDbEntity
  8
0
  6
HIDDEN
 62
     7
370
     0
100
AcDbSpline
210
0.0
220
0.0
230
1.0
 70
     8
 71
     3
 72
    14
 73
    10
 74
     0
 42
0.000000001
 43
0.00000001
 40
0.0
 40
0.0
 40
0.0
 40
0.0
 40
0.25
 40
0.25
 40
0.5
 40
0.5
 40
0.75
 40
0.75
 40
1.0
 40
1.0
 40
1.0
 40
1.0
 10
155.1842652521206
 20
119.6459654568822
 30
0.0
 10
155.2206290801508
 20
119.6004708214804
 30
0.0
 10
155.253106807361
 20
119.5520790152641
 30
0.0
 10
155.3018604367767
 20
119.4465938713346
 30
0.0
 10
155.3167642144513
 20
119.3900093630917
 30
0.0
 10
155.3167746481089
 20
119.2811217691412
 30
0.0
 10
155.3018843523007
 20
119.2289371033786
 30
0.0
 10
155.2529954214231
 20
119.1376597044351
 30
0.0
 10
155.2206232431527
 20
119.0989929990609
 30
0.0
 10
155.1842652521206
 20
119.0640970595132
 30
0.0
  0
LWPOLYLINE
  5
111
330
1F
100
AcDbEntity
  8
0
  6
HIDDEN
 62
     7
370
     0
100
AcDbPolyline
 90
       20
 70
   128
 43
0.0
 10
147.9918835523
 20
119.2976032989
 10
148.1288246316
 20
118.906038649
 10
148.3492080291
 20
118.652918858
 10
148.6291517841
 20
118.5656733827
 10
148.9383196469
 20
118.6537566241
 10
149.2432084824
 20
118.9076233964
 10
149.5107788544
 20
119.2997632955
 10
149.7120353613
 20
119.7876818788
 10
149.8251687378
 20
120.3185055968
 10
149.8379192271
 20
120.8347114632
 10
149.7489051158
 20
121.2803605626
 10
149.5677724642
 20
121.6071599001
 10
149.3141498054
 20
121.7796956967
 10
149.0155210901
 20
121.7792710216
 10
148.7042473731
 20
121.6059318949
 10
148.4140599917
 20
121.2784623008
 10
148.1764052514
 20
120.8323486509
 10
148.0170367308
 20
120.3159342813
 10
147.953224482
 20
119.7851807021
 10
147.9918835523
 20
119.2976032989
  0
LWPOLYLINE
  5
112
330
1F
100
AcDbEntity
  8
0
  6
HIDDEN
 62
     7
370
     0
100
AcDbPolyline
 90
       21
 70
   128
 43
0.0
 10
155.1842652521
 20
119.0640970595
 10
155.3627948556
 20
118.5307259156
 10
155.7004109295
 20
118.0703149705
 10
156.1672306929
 20
117.7236157181
 10
156.7219354004
 20
117.5213149015
 10
157.3154275104
 20
117.4813183949
 10
157.8951763646
 20
117.6071663346
 10
158.4098677358
 20
117.8877197768
 10
158.8139457081
 20
118.2981466188
 10
159.071644883
 20
118.8021195165
 10
159.1601560148
 20
119.3550312582
 10
159.071644883
 20
119.9079429999
 10
158.8139457081
 20
120.4119158976
 10
158.4098677358
 20
120.8223427396
 10
157.8951763646
 20
121.1028961818
 10
157.3154275104
 20
121.2287441214
 10
156.7219354004
 20
121.1887476149
 10
156.1672306929
 20
120.9864467983
 10
155.7004109295
 20
120.6397475459
 10
155.3627948556
 20
120.1793366008
 10
155.1842652521
 20
119.6459654569
  0
SPLINE
  5
113
330
1F
100
AcDbEntity
  8
0
  6
HIDDEN
 62
     7
370
     0
100
AcDbSpline
210
0.0
220
0.0
230
1.0
 70
     8
 71
     3
 72
    12
 73
     8
 74
     0
 42
0.000000001
 43
0.00000001
 40
0.0
 40
0.0
 40
0.0
 40
0.0
 40
0.2499999999999997
 40
0.2499999999999997
 40
0.4999999999999993
 40
0.4999999999999993
 40
1.0
 40
1.0
 40
1.0
 40
1.0
 10
158.7819926568177
 20
123.2690576882514
 30
0.0
 10
158.9049401506133
 20
123.1111008395563
 30
0.0
 10
158.9984843537222
 20
122.9392674725788
 30
0.0
 10
159.1274237428844
 20
122.567594762933
 30
0.0
 10
159.1599765002695
 20
122.3744063167417
 30
0.0
 10
159.1605128420033
 20
121.7861097784655
 30
0.0
 10
159.0278891850353
 20
121.3940915405768
 30
0.0
 10
158.7819926568177
 20
121.0695779578681
 30
0.0
  0
SPLINE
  5
114
330
1F
100
AcDbEntity
  8
0
  6
HIDDEN
 62
     7
370
     0
100
AcDbSpline
210
0.0
220
0.0
230
1.0
 70
     8
 71
     3
 72
    12
 73
     8
 74
     0
 42
0.000000001
 43
0.00000001
 40
0.0
 40
0.0
 40
0.0
 40
0.0
 40
0.2500000000000003
 40
0.2500000000000003
 40
0.5000000000000007
 40
0.5000000000000007
 40
1.0
 40
1.0
 40
1.0
 40
1.0
 10
158.7819926568177
 20
121.0695779578681
 30
0.0
 10
158.6670966055571
 20
120.8498375228115
 30
0.0
 10
158.5403305890844
 20
120.6528691711898
 30
0.0
 10
158.2801156554659
 20
120.2991515983509
 30
0.0
 10
158.1466081975037
 20
120.1423263044786
 30
0.0
 10
157.7382099289155
 20
119.715783733571
 30
0.0
 10
157.4545567939779
 20
119.4890915546157
 30
0.0
 10
157.1701560147611
 20
119.3188404102203
 30
0.0
  0
SPLINE
  5
115
330
1F
100
AcDbEntity
  8
0
  6
HIDDEN
 62
     7
370
     0
100
AcDbSpline
210
0.0
220
0.0
230
1.0
 70
     8
 71
     3
 72
    12
 73
     8
 74
     0
 42
0.000000001
 43
0.00000001
 40
0.0
 40
0.0
 40
0.0
 40
0.0
 40
0.5000000000000013
 40
0.5000000000000013
 40
0.7500000000000007
 40
0.7500000000000007
 40
1.0
 40
1.0
 40
1.0
 40
1.0
 10
157.170156014761
 20
123.0775639084413
 30
0.0
 10
157.4543625493263
 20
123.2450280707351
 30
0.0
 10
157.7330582834301
 20
123.3566651702467
 30
0.0
 10
158.1424043266194
 20
123.423978435886
 30
0.0
 10
158.2785436639389
 20
123.4291294759
 30
0.0
 10
158.539863712935
 20
123.3913635382806
 30
0.0
 10
158.6652848953667
 20
123.3498137799363
 30
0.0
 10
158.7819926568182
 20
123.2690576882535
 30
0.0
  0
SPLINE
  5
116
330
1F
100
AcDbEntity
  8
0
  6
HIDDEN
 62
     7
370
     0
100
AcDbSpline
210
0.0
220
0.0
230
1.0
 70
     8
 71
     3
 72
    22
 73
    18
 74
     0
 42
0.000000001
 43
0.00000001
 40
0.0
 40
0.0
 40
0.0
 40
0.0
 40
0.125
 40
0.125
 40
0.25
 40
0.25
 40
0.375
 40
0.375
 40
0.5
 40
0.5
 40
0.625
 40
0.625
 40
0.75
 40
0.75
 40
0.875
 40
0.875
 40
1.0
 40
1.0
 40
1.0
 40
1.0
 10
156.370156014761
 20
119.1469256033753
 30
0.0
 10
156.1901393201916
 20
119.2213993903519
 30
0.0
 10
156.0257074983213
 20
119.3188486523359
 30
0.0
 10
155.7273112645627
 20
119.5582180859003
 30
0.0
 10
155.5970075371979
 20
119.6981146979707
 30
0.0
 10
155.3837887535789
 20
120.0063662880309
 30
0.0
 10
155.3001608964674
 20
120.1765295061502
 30
0.0
 10
155.1890300195492
 20
120.5270242409407
 30
0.0
 10
155.1601940246955
 20
120.712149202092
 30
0.0
 10
155.1601180820359
 20
121.0753560767092
 30
0.0
 10
155.1887767074631
 20
121.2587260904168
 30
0.0
 10
155.2999278005758
 20
121.6046172029101
 30
0.0
 10
155.3829949212197
 20
121.7701367301776
 30
0.0
 10
155.5966808793384
 20
122.0706764675813
 30
0.0
 10
155.7256878692627
 20
122.2045483888653
 30
0.0
 10
156.0252971487523
 20
122.4357951582695
 30
0.0
 10
156.1901398470115
 20
122.5290452749282
 30
0.0
 10
156.370156014761
 20
122.6000370801525
 30
0.0
  0
LWPOLYLINE
  5
117
330
1F
100
AcDbEntity
  8
0
  6
HIDDEN
 62
     7
370
     0
100
AcDbPolyline
 90
       22
 70
   128
 43
0.0
 10
147.6103676619
 20
119.0880954436
 10
147.7630901217
 20
118.6303333313
 10
148.0048070408
 20
118.3134417761
 10
148.3140408102
 20
118.1655779832
 10
148.6633146524
 20
118.1998802996
 10
149.0215940539
 20
118.4133008138
 10
149.3570443174
 20
118.7868761767
 10
149.639859215
 20
119.2874125778
 10
149.8449094019
 20
119.8704351613
 10
149.9539752692
 20
120.4841398122
 10
149.9573658359
 20
121.0739961789
 10
149.8547798353
 20
121.5875929348
 10
149.6553324837
 20
121.9792947542
 10
149.3767455537
 20
122.2142972116
 10
149.0437727164
 20
122.2717193072
 10
148.6860000697
 20
122.1464588359
 10
148.3352172833
 20
121.8496457403
 10
148.0225929472
 20
121.4076531665
 10
147.7759051056
 20
120.8597540942
 10
147.6170730557
 20
120.2546317605
 10
147.5602097222
 20
119.6460539403
 10
147.6103676619
 20
119.0880954436
  0
LINE
  5
118
330
1F
100
AcDbEntity
  8
0
  6
HIDDEN
 62
     7
370
     0
100
AcDbLine
 10
159.1601560148
 20
100.4585468567
 30
0.0
 11
159.1601560148
 21
103.2800845219
 31
0.0
  0
LINE
  5
119
330
1F
100
AcDbEntity
  8
0
  6
HIDDEN
 62
     7
370
     0
100
AcDbLine
 10
155.1601560148
 20
103.2625594964
 30
0.0
 11
155.1601560148
 21
101.7410451921
 31
0.0
  0
LINE
  5
11A
330
1F
100
AcDbEntity
  8
0
  6
HIDDEN
 62
     7
370
     0
100
AcDbLine
 10
147.3601560148
 20
99.9236328144
 30
0.0
 11
149.2537553549
 21
100.3771216088
 31
0.0
  0
LINE
  5
11B
330
1F
100
AcDbEntity
  8
0
  6
HIDDEN
 62
     7
370
     0
100
AcDbLine
 10
148.2755777073
 20
104.4616250657
 30
0.0
 11
147.3601560148
 21
104.2423952261
 31
0.0
  0
LINE
  5
11C
330
1F
100
AcDbEntity
  8
0
  6
HIDDEN
 62
     7
370
     0
100
AcDbLine
 10
149.2831167396
 20
100.8468777665
 30
0.0
 11
156.4901771741
 21
102.5728612298
 31
0.0
  0
LINE
  5
11D
330
1F
100
AcDbEntity
  8
0
  6
HIDDEN
 62
     7
370
     0
100
AcDbLine
 10
156.4901771741
 20
105.9661745532
 30
0.0
 11
148.5145485879
 21
104.0561304827
 31
0.0
  0
LINE
  5
11E
330
1F
100
AcDbEntity
  8
0
  6
HIDDEN
 62
     7
370
     0
100
AcDbLine
 10
158.8101560148
 20
103.323654325
 30
0.0
 11
158.8101560148
 21
110.5995366296
 31
0.0
  0
LINE
  5
11F
330
1F
100
AcDbEntity
  8
0
  6
HIDDEN
 62
     7
370
     0
100
AcDbLine
 10
155.5101560148
 20
103.3458937686
 30
0.0
 11
155.5101560148
 21
103.323654325
 31
0.0
  0
LINE
  5
120
330
1F
100
AcDbEntity
  8
0
  6
HIDDEN
 62
     7
370
     0
100
AcDbLine
 10
155.5101560148
 20
110.6002229417
 30
0.0
 11
155.5101560148
 21
104.7237411179
 31
0.0
  0
ARC
  5
121
330
1F
100
AcDbEntity
  8
0
  6
HIDDEN
 62
     7
370
     0
100
AcDbCircle
 10
76.7101560148
 20
102.01755789
 30
0.0
 40
0.7999999999999972
100
AcDbArc
 50
90.0
 51
180.0
  0
ARC
  5
122
330
1F
100
AcDbEntity
  8
0
  6
HIDDEN
 62
     7
370
     0
100
AcDbCircle
 10
76.7101560148
 20
120.61755789
 30
0.0
 40
0.7999999999999972
100
AcDbArc
 50
180.0
 51
270.0
  0
ARC
  5
123
330
1F
100
AcDbEntity
  8
0
  6
HIDDEN
 62
     7
370
     0
100
AcDbCircle
 10
84.6792159071
 20
102.99255789
 30
0.0
 40
0.4000000000000057
100
AcDbArc
 50
270.0
 51
330.0
  0
ARC
  5
124
330
1F
100
AcDbEntity
  8
0
  6
HIDDEN
 62
     7
370
     0
100
AcDbCircle
 10
84.6792159071
 20
119.64255789
 30
0.0
 40
0.4000000000000057
100
AcDbArc
 50
30.0
 51
90.0
  0
LINE
  5
125
330
1F
100
AcDbEntity
  8
0
  6
HIDDEN
 62
     7
370
     0
100
AcDbLine
 10
83.8025284455
 20
102.59255789
 30
0.0
 11
84.6792159071
 21
102.59255789
 31
0.0
  0
LINE
  5
126
330
1F
100
AcDbEntity
  8
0
  6
HIDDEN
 62
     7
370
     0
100
AcDbLine
 10
84.6792159071
 20
120.04255789
 30
0.0
 11
83.8025284455
 21
120.04255789
 31
0.0
  0
ARC
  5
127
330
1F
100
AcDbEntity
  8
0
  6
HIDDEN
 62
     7
370
     0
100
AcDbCircle
 10
83.8025284455
 20
102.99255789
 30
0.0
 40
0.3999999999999915
100
AcDbArc
 50
255.0
 51
270.0
  0
ARC
  5
128
330
1F
100
AcDbEntity
  8
0
  6
HIDDEN
 62
     7
370
     0
100
AcDbCircle
 10
83.8025284455
 20
119.64255789
 30
0.0
 40
0.3999999999999915
100
AcDbArc
 50
90.0
 51
105.0
  0
LINE
  5
129
330
1F
100
AcDbEntity
  8
0
  6
HIDDEN
 62
     7
370
     0
100
AcDbLine
 10
83.6990008275
 20
120.0289282206
 30
0.0
 11
82.9101560148
 21
119.81755789
 31
0.0
  0
LINE
  5
12A
330
1F
100
AcDbEntity
  8
0
  6
HIDDEN
 62
     7
370
     0
100
AcDbLine
 10
82.9101560148
 20
102.81755789
 30
0.0
 11
83.6990008275
 21
102.6061875595
 31
0.0
  0
LINE
  5
12B
330
1F
100
AcDbEntity
  8
0
  6
HIDDEN
 62
     7
370
     0
100
AcDbLine
 10
85.0256260686
 20
102.79255789
 30
0.0
 11
85.9060852291
 21
104.31755789
 31
0.0
  0
LINE
  5
12C
330
1F
100
AcDbEntity
  8
0
  6
HIDDEN
 62
     7
370
     0
100
AcDbLine
 10
85.9060852291
 20
118.31755789
 30
0.0
 11
85.0256260686
 21
119.84255789
 31
0.0
  0
LINE
  5
12D
330
1F
100
AcDbEntity
  8
0
  6
HIDDEN
 62
     7
370
     0
100
AcDbLine
 10
76.7101560148
 20
102.81755789
 30
0.0
 11
82.9101560148
 21
102.81755789
 31
0.0
  0
LINE
  5
12E
330
1F
100
AcDbEntity
  8
0
  6
HIDDEN
 62
     7
370
     0
100
AcDbLine
 10
82.9101560148
 20
119.81755789
 30
0.0
 11
76.7101560148
 21
119.81755789
 31
0.0
  0
LINE
  5
12F
330
1F
100
AcDbEntity
  8
0
  6
HIDDEN
 62
     7
370
     0
100
AcDbLine
 10
85.9060852291
 20
104.31755789
 30
0.0
 11
118.9101560148
 21
104.31755789
 31
0.0
  0
LINE
  5
130
330
1F
100
AcDbEntity
  8
0
  6
HIDDEN
 62
     7
370
     0
100
AcDbLine
 10
118.9101560148
 20
118.31755789
 30
0.0
 11
85.9060852291
 21
118.31755789
 31
0.0
  0
LINE
  5
131
330
1F
100
AcDbEntity
  8
0
  6
HIDDEN
 62
     7
370
     0
100
AcDbLine
 10
118.9101560148
 20
104.31755789
 30
0.0
 11
121.854373048
 21
109.21755789
 31
0.0
  0
LINE
  5
132
330
1F
100
AcDbEntity
  8
0
  6
HIDDEN
 62
     7
370
     0
100
AcDbLine
 10
121.854373048
 20
113.41755789
 30
0.0
 11
118.9101560148
 21
118.31755789
 31
0.0
  0
ARC
  5
133
330
1F
100
AcDbEntity
  8
0
  6
HIDDEN
 62
     7
370
     0
100
AcDbCircle
 10
228.1601560148
 20
104.81755789
 30
0.0
 40
1.000000000000028
100
AcDbArc
 50
0.0
 51
90.0
  0
ARC
  5
134
330
1F
100
AcDbEntity
  8
0
  6
HIDDEN
 62
     7
370
     0
100
AcDbCircle
 10
228.1601560148
 20
117.81755789
 30
0.0
 40
1.000000000000028
100
AcDbArc
 50
270.0
 51
0.0
  0
ARC
  5
135
330
1F
100
AcDbEntity
  8
0
  6
HIDDEN
 62
     7
370
     0
100
AcDbCircle
 10
216.4601560148
 20
106.11755789
 30
0.0
 40
0.8000000000000398
100
AcDbArc
 50
180.0
 51
270.0
  0
ARC
  5
136
330
1F
100
AcDbEntity
  8
0
  6
HIDDEN
 62
     7
370
     0
100
AcDbCircle
 10
216.4601560148
 20
116.51755789
 30
0.0
 40
0.8000000000000398
100
AcDbArc
 50
90.0
 51
180.0
  0
LINE
  5
137
330
1F
100
AcDbEntity
  8
0
  6
HIDDEN
 62
     7
370
     0
100
AcDbLine
 10
216.4601560148
 20
105.31755789
 30
0.0
 11
217.0548340167
 21
105.31755789
 31
0.0
  0
LINE
  5
138
330
1F
100
AcDbEntity
  8
0
  6
HIDDEN
 62
     7
370
     0
100
AcDbLine
 10
217.0548340167
 20
117.31755789
 30
0.0
 11
216.4601560148
 21
117.31755789
 31
0.0
  0
ARC
  5
139
330
1F
100
AcDbEntity
  8
0
  6
HIDDEN
 62
     7
370
     0
100
AcDbCircle
 10
217.0548340167
 20
106.11755789
 30
0.0
 40
0.8000000000000046
100
AcDbArc
 50
270.0
 51
285.0
  0
ARC
  5
13A
330
1F
100
AcDbEntity
  8
0
  6
HIDDEN
 62
     7
370
     0
100
AcDbCircle
 10
217.0548340167
 20
116.51755789
 30
0.0
 40
0.8000000000000184
100
AcDbArc
 50
75.0
 51
90.0
  0
LINE
  5
13B
330
1F
100
AcDbEntity
  8
0
  6
HIDDEN
 62
     7
370
     0
100
AcDbLine
 10
217.2618892528
 20
105.344817229
 30
0.0
 11
219.0261814185
 21
105.81755789
 31
0.0
  0
LINE
  5
13C
330
1F
100
AcDbEntity
  8
0
  6
HIDDEN
 62
     7
370
     0
100
AcDbLine
 10
219.0261814185
 20
116.81755789
 30
0.0
 11
217.2618892528
 21
117.2902985511
 31
0.0
  0
LINE
  5
13D
330
1F
100
AcDbEntity
  8
0
  6
HIDDEN
 62
     7
370
     0
100
AcDbLine
 10
219.0261814185
 20
105.81755789
 30
0.0
 11
228.1601560148
 21
105.81755789
 31
0.0
  0
LINE
  5
13E
330
1F
100
AcDbEntity
  8
0
  6
HIDDEN
 62
     7
370
     0
100
AcDbLine
 10
228.1601560148
 20
116.81755789
 30
0.0
 11
219.0261814185
 21
116.81755789
 31
0.0
  0
LINE
  5
13F
330
1F
100
AcDbEntity
  8
0
  6
HIDDEN
 62
     7
370
     0
100
AcDbLine
 10
121.854373048
 20
109.21755789
 30
0.0
 11
215.6601560148
 21
109.21755789
 31
0.0
  0
LINE
  5
140
330
1F
100
AcDbEntity
  8
0
  6
HIDDEN
 62
     7
370
     0
100
AcDbLine
 10
215.6601560148
 20
113.41755789
 30
0.0
 11
121.854373048
 21
113.41755789
 31
0.0
  0
LINE
  5
141
330
1F
100
AcDbEntity
  8
0
  6
HIDDEN
 62
     7
370
     0
100
AcDbLine
 10
158.8101560148
 20
112.0348928384
 30
0.0
 11
158.8101560148
 21
119.3114614551
 31
0.0
  0
LINE
  5
142
330
1F
100
AcDbEntity
  8
0
  6
HIDDEN
 62
     7
370
     0
100
AcDbLine
 10
155.5101560148
 20
117.9113746621
 30
0.0
 11
155.5101560148
 21
112.0355791505
 31
0.0
  0
LINE
  5
143
330
1F
100
AcDbEntity
  8
0
  6
HIDDEN
 62
     7
370
     0
100
AcDbLine
 10
155.5101560148
 20
119.3114614551
 30
0.0
 11
155.5101560148
 21
119.2892220115
 31
0.0
  0
LINE
  5
144
330
1F
100
AcDbEntity
  8
0
  6
HIDDEN
 62
     7
370
     0
100
AcDbLine
 10
148.5145485879
 20
118.5789852974
 30
0.0
 11
156.4901771741
 21
116.6689412269
 31
0.0
  0
LINE
  5
145
330
1F
100
AcDbEntity
  8
0
  6
HIDDEN
 62
     7
370
     0
100
AcDbLine
 10
156.4901771741
 20
120.0622545503
 30
0.0
 11
149.2831167396
 21
121.7882380136
 31
0.0
  0
LINE
  5
146
330
1F
100
AcDbEntity
  8
0
  6
HIDDEN
 62
     7
370
     0
100
AcDbLine
 10
159.1601560148
 20
119.3550312582
 30
0.0
 11
159.1601560148
 21
122.1764009595
 31
0.0
  0
LINE
  5
147
330
1F
100
AcDbEntity
  8
0
  6
HIDDEN
 62
     7
370
     0
100
AcDbLine
 10
155.1601560148
 20
120.8934414888
 30
0.0
 11
155.1601560148
 21
119.3719854925
 31
0.0
  0
LINE
  5
148
330
1F
100
AcDbEntity
  8
0
  6
HIDDEN
 62
     7
370
     0
100
AcDbLine
 10
147.3601560148
 20
118.392720554
 30
0.0
 11
148.2755777073
 21
118.1734907144
 31
0.0
  0
LINE
  5
149
330
1F
100
AcDbEntity
  8
0
  6
HIDDEN
 62
     7
370
     0
100
AcDbLine
 10
149.2537553549
 20
122.2579941713
 30
0.0
 11
147.3601560148
 21
122.7114829657
 31
0.0
  0
DIMENSION
  5
14A
330
1F
100
AcDbEntity
  8
VERMASSUNG
100
AcDbDimension
  2
_D
 10
63.0934607686
 20
143.06755789
 30
0.0
 11
63.0934607686
 21
111.31755789
 31
0.0
 70
   160
  1
ISO 40 %%c<>
 71
     2
 42
-1.0
  3
SLDDIMSTYLE0
100
AcDbAlignedDimension
 13
162.6101560148
 23
79.56755789
 33
0.0
 14
162.6101560148
 24
143.06755789
 34
0.0
 50
90.0
100
AcDbRotatedDimension
  0
DIMENSION
  5
157
330
1F
100
AcDbEntity
  8
VERMASSUNG
100
AcDbDimension
  2
_D_1
 10
242.3042508828
 20
101.31755789
 30
0.0
 11
242.3042508828
 21
111.31755789
 31
0.0
 70
   160
  1
WH %%c <>
 71
     2
 42
-1.0
  3
SLDDIMSTYLE0
100
AcDbAlignedDimension
 13
228.9601560148
 23
121.31755789
 33
0.0
 14
228.9601560148
 24
101.31755789
 34
0.0
 50
90.0
100
AcDbRotatedDimension
  0
DIMENSION
  5
163
330
1F
100
AcDbEntity
  8
VERMASSUNG
100
AcDbDimension
  2
_D_2
 10
236.0042508828
 20
116.81755789
 30
0.0
 11
236.0042508828
 21
111.31755789
 31
0.0
 70
   160
  1
%%c<>
 71
     2
 42
-1.0
  3
SLDDIMSTYLE1
100
AcDbAlignedDimension
 13
228.1601560148
 23
105.81755789
 33
0.0
 14
228.1601560148
 24
116.81755789
 34
0.0
 50
90.0
100
AcDbRotatedDimension
  0
DIMENSION
  5
171
330
1F
100
AcDbEntity
  8
VERMASSUNG
100
AcDbDimension
  2
_D_3
 10
163.2101560148
 20
147.4736620005
 30
0.0
 11
196.1851560148
 21
147.4736620005
 31
0.0
 70
   160
  1
<>
 71
     2
 42
-1.0
  3
SLDDIMSTYLE0
100
AcDbAlignedDimension
 13
229.1601560148
 23
121.11755789
 33
0.0
 14
163.2101560148
 24
141.3281090235
 34
0.0
100
AcDbRotatedDimension
  0
DIMENSION
  5
17B
330
1F
100
AcDbEntity
  8
VERMASSUNG
100
AcDbDimension
  2
_D_4
 10
144.1601560148
 20
153.4736620005
 30
0.0
 11
186.6601560148
 21
153.4736620005
 31
0.0
 70
   160
  1
<>
 71
     2
 42
-1.0
  3
SLDDIMSTYLE0
100
AcDbAlignedDimension
 13
229.1601560148
 23
121.11755789
 33
0.0
 14
144.1601560148
 24
133.54255789
 34
0.0
100
AcDbRotatedDimension
  0
DIMENSION
  5
185
330
1F
100
AcDbEntity
  8
VERMASSUNG
100
AcDbDimension
  2
_D_5
 10
75.9101560148
 20
159.4736620005
 30
0.0
 11
152.5351560148
 21
159.4736620005
 31
0.0
 70
   160
  1
<>
 71
     2
 42
-1.0
  3
SLDDIMSTYLE0
100
AcDbAlignedDimension
 13
229.1601560148
 23
121.11755789
 33
0.0
 14
75.9101560148
 24
122.7246884871
 34
0.0
100
AcDbRotatedDimension
  0
INSERT
  5
19A
330
1F
100
AcDbEntity
  8
VERMASSUNG
100
AcDbBlockReference
  2
SW_CENTERMARKSYMBOL_0
 10
223.1101560148
 20
111.31755789
 30
0.0
  0
LINE
  5
19B
330
1F
100
AcDbEntity
  8
0
  6
HIDDEN
 62
     7
370
     0
100
AcDbLine
 10
108.0256261559
 20
119.31755827
 30
0.0
 11
85.328736219
 21
119.31755827
 31
0.0
  0
LINE
  5
19C
330
1F
100
AcDbEntity
  8
0
  6
HIDDEN
 62
     7
370
     0
100
AcDbLine
 10
85.328736219
 20
103.3175575101
 30
0.0
 11
108.0256261559
 21
103.3175575101
 31
0.0
  0
LINE
  5
19D
330
1F
100
AcDbEntity
  8
0
  6
HIDDEN
 62
     7
370
     0
100
AcDbLine
 10
108.0256261559
 20
111.31755789
 30
0.0
 11
108.0256261559
 21
110.1252197075
 31
0.0
  0
LINE
  5
19E
330
1F
100
AcDbEntity
  8
0
  6
HIDDEN
 62
     7
370
     0
100
AcDbLine
 10
108.0256261559
 20
111.31755789
 30
0.0
 11
108.0256261559
 21
110.1252197075
 31
0.0
  0
LWPOLYLINE
  5
19F
330
1F
100
AcDbEntity
  8
0
  6
HIDDEN
 62
     7
370
     0
100
AcDbPolyline
 90
       11
 70
   128
 43
0.0
 10
108.0256104469
 20
110.1252197075
 10
108.0256261559
 20
108.9595164192
 10
108.0256261559
 20
107.8464879208
 10
108.0256261559
 20
106.8109973819
 10
108.0256261559
 20
105.8761758284
 10
108.0256261559
 20
105.0629058407
 10
108.0256261559
 20
104.3893547282
 10
108.0256261559
 20
103.8705680073
 10
108.0256261559
 20
103.5181345903
 10
108.0256261559
 20
103.3399278783
 10
108.0256261559
 20
103.3175575101
  0
LWPOLYLINE
  5
1A0
330
1F
100
AcDbEntity
  8
0
  6
HIDDEN
 62
     7
370
     0
100
AcDbPolyline
 90
       12
 70
   128
 43
0.0
 10
108.0256104469
 20
119.31755827
 10
108.0256261559
 20
119.2951879018
 10
108.0256261559
 20
119.1169811898
 10
108.0256261559
 20
118.7645477728
 10
108.0256261559
 20
118.2457610519
 10
108.0256261559
 20
117.5722099394
 10
108.0256261559
 20
116.7589399517
 10
108.0256261559
 20
115.8241183982
 10
108.0256261559
 20
114.7886278593
 10
108.0256261559
 20
113.6755993609
 10
108.0256261559
 20
112.5098960726
 10
108.0256261559
 20
111.31755789
  0
LWPOLYLINE
  5
1A1
330
1F
100
AcDbEntity
  8
0
  6
HIDDEN
 62
     7
370
     0
100
AcDbPolyline
 90
       11
 70
   128
 43
0.0
 10
108.0256104469
 20
110.1252197075
 10
108.0256261559
 20
108.9595164192
 10
108.0256261559
 20
107.8464879208
 10
108.0256261559
 20
106.8109973819
 10
108.0256261559
 20
105.8761758284
 10
108.0256261559
 20
105.0629058407
 10
108.0256261559
 20
104.3893547282
 10
108.0256261559
 20
103.8705680073
 10
108.0256261559
 20
103.5181345903
 10
108.0256261559
 20
103.3399278783
 10
108.0256261559
 20
103.3175575101
  0
LWPOLYLINE
  5
1A2
330
1F
100
AcDbEntity
  8
0
  6
HIDDEN
 62
     7
370
     0
100
AcDbPolyline
 90
       12
 70
   128
 43
0.0
 10
108.0256104469
 20
119.31755827
 10
108.0256261559
 20
119.2951879018
 10
108.0256261559
 20
119.1169811898
 10
108.0256261559
 20
118.7645477728
 10
108.0256261559
 20
118.2457610519
 10
108.0256261559
 20
117.5722099394
 10
108.0256261559
 20
116.7589399517
 10
108.0256261559
 20
115.8241183982
 10
108.0256261559
 20
114.7886278593
 10
108.0256261559
 20
113.6755993609
 10
108.0256261559
 20
112.5098960726
 10
108.0256261559
 20
111.31755789
  0
ARC
  5
1A3
330
1F
100
AcDbEntity
  8
0
  6
Continuous
 62
     7
370
     0
100
AcDbCircle
 10
223.1101560148
 20
111.31755789
 30
0.0
 40
2.499999944122218
100
AcDbArc
 50
75.0
 51
345.0
  0
LWPOLYLINE
  5
1A4
330
1F
100
AcDbEntity
  8
0
  6
HIDDEN
 62
     7
370
     0
100
AcDbPolyline
 90
       22
 70
   128
 43
0.0
 10
149.866104126
 20
101.2324445435
 10
149.6978512662
 20
100.8269373813
 10
149.4493180582
 20
100.5635602885
 10
149.1426000068
 20
100.4657136761
 10
148.8049499387
 20
100.5420933031
 10
148.4663694793
 20
100.7859116905
 10
148.1569436075
 20
101.1755044126
 10
147.9041654313
 20
101.6762551405
 10
147.7304958901
 20
102.2436699384
 10
147.6513660675
 20
102.8273307272
 10
147.6738069834
 20
103.3753777408
 10
147.7958246762
 20
103.839113053
 10
148.0065776197
 20
104.1773335562
 10
148.2873390125
 20
104.3599854708
 10
148.6131622153
 20
104.3708400355
 10
148.9550968329
 20
104.2089328655
 10
149.2827593977
 20
103.8886496351
 10
149.567036766
 20
103.4384496995
 10
149.7826691413
 20
102.898333829
 10
149.9104964243
 20
102.3162954041
 10
149.9391611362
 20
101.7440507673
 10
149.866115644
 20
101.2324445435
  0
LWPOLYLINE
  5
1A5
330
1F
100
AcDbEntity
  8
0
  6
HIDDEN
 62
     7
370
     0
100
AcDbPolyline
 90
       22
 70
   128
 43
0.0
 10
149.866104126
 20
120.0614251681
 10
149.6978512662
 20
119.4915386402
 10
149.4493180582
 20
118.9853657522
 10
149.1426000068
 20
118.587883331
 10
148.8049499387
 20
118.3344085255
 10
148.4663694793
 20
118.2474644408
 10
148.1569436075
 20
118.3347759322
 10
147.9041654313
 20
118.5885850825
 10
147.7304958901
 20
118.9863399156
 10
147.6513660675
 20
119.4926981368
 10
147.6738069834
 20
120.0626675525
 10
147.7958246762
 20
120.6456037723
 10
148.0065776197
 20
121.1897103601
 10
148.2873390125
 20
121.6466414296
 10
148.6131622153
 20
121.9757969045
 10
148.9550968329
 20
122.1479285993
 10
149.2827593977
 20
122.1477432662
 10
149.567036766
 20
121.9752558061
 10
149.7826691413
 20
121.645793926
 10
149.9104964243
 20
121.1886318886
 10
149.9391611362
 20
120.6443893277
 10
149.866115644
 20
120.0614251681
  0
LINE
  5
1A6
330
1F
100
AcDbEntity
  8
VERMASSUNG
  6
CENTERX2
370
     0
100
AcDbLine
 10
159.1051576609
 20
117.7393490708
 30
0.0
 11
148.7646665311
 21
120.2157424429
 31
0.0
  0
LINE
  5
1A7
330
1F
100
AcDbEntity
  8
VERMASSUNG
  6
CENTERX2
370
     0
100
AcDbLine
 10
148.7646665311
 20
120.2157424429
 30
0.0
 11
146.6196648849
 21
120.7294383392
 31
0.0
  0
LINE
  5
1A8
330
1F
100
AcDbEntity
  8
VERMASSUNG
  6
CENTERX2
370
     0
100
AcDbLine
 10
73.9101560148
 20
111.31755789
 30
0.0
 11
231.3454844579
 21
111.31755789
 31
0.0
  0
LINE
  5
1A9
330
1F
100
AcDbEntity
  8
0
  6
Continuous
 62
     7
370
    15
100
AcDbLine
 10
266.8427380263
 20
30.7181490841
 30
0.0
 11
266.9134372119
 21
30.7589761241
 31
0.0
  0
LINE
  5
1AA
330
1F
100
AcDbEntity
  8
0
  6
Continuous
 62
     7
370
    15
100
AcDbLine
 10
270.3776973085
 20
36.7599008348
 30
0.0
 11
270.3776973085
 21
36.841541646
 31
0.0
  0
LINE
  5
1AB
330
1F
100
AcDbEntity
  8
0
  6
Continuous
 62
     7
370
    15
100
AcDbLine
 10
242.1568913113
 20
43.2776793087
 30
0.0
 11
264.342366571
 21
30.4702770545
 31
0.0
  0
LINE
  5
1AC
330
1F
100
AcDbEntity
  8
0
  6
Continuous
 62
     7
370
    15
100
AcDbLine
 10
269.3419602342
 20
39.1307656783
 30
0.0
 11
247.1564849745
 21
51.9381679325
 31
0.0
  0
SPLINE
  5
1AD
330
1F
100
AcDbEntity
  8
0
  6
Continuous
 62
     7
370
    15
100
AcDbSpline
210
0.0
220
0.0
230
1.0
 70
     8
 71
     3
 72
    13
 73
     9
 74
     0
 42
0.000000001
 43
0.00000001
 40
0.0
 40
0.0
 40
0.0
 40
0.0
 40
0.1000279921692526
 40
0.3183802635371835
 40
0.5165407061243137
 40
0.7284693980523834
 40
0.9318203093815383
 40
1.0
 40
1.0
 40
1.0
 40
1.0
 10
265.2002819722491
 20
32.58159932545118
 30
0.0
 10
265.1755478305468
 20
32.59318608830079
 30
0.0
 10
265.0968212422912
 20
32.63006573098484
 30
0.0
 10
264.9941589801338
 20
32.74205370114433
 30
0.0
 10
264.8791026801082
 20
32.93375522522243
 30
0.0
 10
264.7972490569526
 20
33.19188149393202
 30
0.0
 10
264.7640525530218
 20
33.44198800727018
 30
0.0
 10
264.7617914104757
 20
33.59797293568244
 30
0.0
 10
264.7612236512688
 20
33.63713980705533
 30
0.0
  0
SPLINE
  5
1AE
330
1F
100
AcDbEntity
  8
0
  6
Continuous
 62
     7
370
    15
100
AcDbSpline
210
0.0
220
0.0
230
1.0
 70
     8
 71
     3
 72
    23
 73
    19
 74
     0
 42
0.000000001
 43
0.00000001
 40
0.0
 40
0.0
 40
0.0
 40
0.0
 40
0.0346710003208333
 40
0.1014396684545886
 40
0.1686567555823658
 40
0.2363084519532212
 40
0.3042870019008163
 40
0.3724373493370731
 40
0.4405874100125871
 40
0.508510736846811
 40
0.5760367164337796
 40
0.6430140052449057
 40
0.7093611024477332
 40
0.775191520198139
 40
0.840977979627967
 40
0.9077813157199456
 40
0.9783966691488168
 40
1.0
 40
1.0
 40
1.0
 40
1.0
 10
264.7612236512688
 20
33.63713980705533
 30
0.0
 10
264.7625352183497
 20
33.69920116625976
 30
0.0
 10
264.7663725731597
 20
33.88077895874575
 30
0.0
 10
264.8104809274734
 20
34.21035957064175
 30
0.0
 10
264.9113776534672
 20
34.6237337836009
 30
0.0
 10
265.0625755725795
 20
35.0489194479174
 30
0.0
 10
265.259845529935
 20
35.47187698243651
 30
0.0
 10
265.4979825701448
 20
35.879557445983
 30
0.0
 10
265.7695939758673
 20
36.25908144172924
 30
0.0
 10
266.0657225897035
 20
36.59873415751416
 30
0.0
 10
266.3760085420528
 20
36.8884200663593
 30
0.0
 10
266.6890566049905
 20
37.12025964462093
 30
0.0
 10
266.9928258955225
 20
37.28931647365933
 30
0.0
 10
267.2749828828573
 20
37.39379070498358
 30
0.0
 10
267.5250018281787
 20
37.43779476469328
 30
0.0
 10
267.7341615904216
 20
37.42386946924184
 30
0.0
 10
267.8674948796763
 20
37.39073656100859
 30
0.0
 10
267.9285901836407
 20
37.34360273395907
 30
0.0
 10
267.9429024900383
 20
37.3325610706781
 30
0.0
  0
SPLINE
  5
1AF
330
1F
100
AcDbEntity
  8
0
  6
Continuous
 62
     7
370
    15
100
AcDbSpline
210
0.0
220
0.0
230
1.0
 70
     8
 71
     3
 72
    35
 73
    31
 74
     0
 42
0.000000001
 43
0.00000001
 40
0.0
 40
0.0
 40
0.0
 40
0.0
 40
0.0068048087499757
 40
0.0437191406179462
 40
0.0807181774405026
 40
0.1178477326496105
 40
0.1551013380066835
 40
0.1924585255290409
 40
0.2298929159843578
 40
0.2673786073277904
 40
0.3048937999882148
 40
0.3424220374915234
 40
0.3799500800711719
 40
0.4174710301733675
 40
0.4549817173371109
 40
0.4924809221917126
 40
0.5299687211045089
 40
0.567446019567264
 40
0.6049142352373156
 40
0.6423750910657784
 40
0.6798304855778443
 40
0.7172824152622499
 40
0.7547329308172787
 40
0.792184114043858
 40
0.8296373864526102
 40
0.8670948424208409
 40
0.9045585947340259
 40
0.9420307333085164
 40
0.9795132814994728
 40
1.0
 40
1.0
 40
1.0
 40
1.0
 10
244.642884472364
 20
65.67402607361552
 30
0.0
 10
244.6025182486271
 20
65.6844274775927
 30
0.0
 10
244.3431756753665
 20
65.751253814645
 30
0.0
 10
243.8432800932648
 20
65.82459767403077
 30
0.0
 10
243.1342835465305
 20
65.86378958297554
 30
0.0
 10
242.399097464209
 20
65.82658999418032
 30
0.0
 10
241.642818499396
 20
65.71690966978787
 30
0.0
 10
240.8688569525988
 20
65.53407314061874
 30
0.0
 10
240.0814061199659
 20
65.27922935251947
 30
0.0
 10
239.2845969695033
 20
64.95363584800643
 30
0.0
 10
238.4826164528983
 20
64.55907935279174
 30
0.0
 10
237.6796169839569
 20
64.09771040781318
 30
0.0
 10
236.8796908898302
 20
63.57202850254239
 30
0.0
 10
236.0868519357808
 20
62.98483520443384
 30
0.0
 10
235.3050211660316
 20
62.3391989049892
 30
0.0
 10
234.5380397557307
 20
61.63844590507573
 30
0.0
 10
233.7896675635659
 20
60.88615112339733
 30
0.0
 10
233.0635720617372
 20
60.08612428274339
 30
0.0
 10
232.3633149227589
 20
59.24239499362601
 30
0.0
 10
231.6923371968455
 20
58.35919619054804
 30
0.0
 10
231.0539433790719
 20
57.44094570496891
 30
0.0
 10
230.4512867543518
 20
56.49222646425602
 30
0.0
 10
229.8873499235256
 20
55.51776397690907
 30
0.0
 10
229.36494862285
 20
54.52241308312556
 30
0.0
 10
228.8866567959564
 20
53.51111541967204
 30
0.0
 10
228.4550069470215
 20
52.48892389331774
 30
0.0
 10
228.0716822585978
 20
51.46078583608604
 30
0.0
 10
227.7404785002785
 20
50.43221547932776
 30
0.0
 10
227.4992110739454
 20
49.56179947963301
 30
0.0
 10
227.3822520611097
 20
49.03887421889112
 30
0.0
 10
227.3409179799867
 20
48.85406900700792
 30
0.0
  0
LINE
  5
1B0
330
1F
100
AcDbEntity
  8
0
  6
Continuous
 62
     7
370
    15
100
AcDbLine
 10
237.1047155309
 20
63.7088677926
 30
0.0
 11
215.7961039266
 21
71.3876467706
 31
0.0
  0
LINE
  5
1B1
330
1F
100
AcDbEntity
  8
0
  6
Continuous
 62
     7
370
    15
100
AcDbLine
 10
209.6313221775
 20
60.7087744854
 30
0.0
 11
229.9275593426
 21
43.5707996097
 31
0.0
  0
SPLINE
  5
1B2
330
1F
100
AcDbEntity
  8
0
  6
Continuous
 62
     7
370
    15
100
AcDbSpline
210
0.0
220
0.0
230
1.0
 70
     8
 71
     3
 72
    23
 73
    19
 74
     0
 42
0.000000001
 43
0.00000001
 40
0.0
 40
0.0
 40
0.0
 40
0.0
 40
0.0029961105017588
 40
0.0703199405069201
 40
0.1378699202499595
 40
0.2056573050306013
 40
0.2736589617055599
 40
0.3418318476622912
 40
0.4101270901925751
 40
0.4784997767202743
 40
0.5469137574107108
 40
0.6153421295040555
 40
0.6837636415780842
 40
0.752169528281561
 40
0.8205555172719332
 40
0.8889203981054014
 40
0.9572649646392436
 40
1.0
 40
1.0
 40
1.0
 40
1.0
 10
237.2913372070996
 20
33.92776823214768
 30
0.0
 10
237.3011664529138
 20
33.92544849481402
 30
0.0
 10
237.5318628776519
 20
33.87100330956482
 30
0.0
 10
238.0114268661605
 20
33.83167512515426
 30
0.0
 10
238.7284265399169
 20
33.81598429259912
 30
0.0
 10
239.4726017503959
 20
33.88201342639559
 30
0.0
 10
240.2358705599653
 20
34.01901015833011
 30
0.0
 10
241.0154549482529
 20
34.2292764789068
 30
0.0
 10
241.8069209057
 20
34.51099669571886
 30
0.0
 10
242.6061759190905
 20
34.86287594155807
 30
0.0
 10
243.4090283126186
 20
35.28293793069486
 30
0.0
 10
244.2113406008428
 20
35.7689183928657
 30
0.0
 10
245.0090744966545
 20
36.31815150828056
 30
0.0
 10
245.7981508520139
 20
36.92789977662251
 30
0.0
 10
246.5750468829527
 20
37.59436672980176
 30
0.0
 10
247.3345898853218
 20
38.31648600697939
 30
0.0
 10
247.9853269398709
 20
38.98628344968559
 30
0.0
 10
248.3712431689545
 20
39.43273775574762
 30
0.0
 10
248.5197145661767
 20
39.60449962949495
 30
0.0
  0
SPLINE
  5
1B3
330
1F
100
AcDbEntity
  8
0
  6
Continuous
 62
     7
370
    15
100
AcDbSpline
210
0.0
220
0.0
230
1.0
 70
     8
 71
     3
 72
    11
 73
     7
 74
     0
 42
0.000000001
 43
0.00000001
 40
0.0
 40
0.0
 40
0.0
 40
0.0
 40
0.1276092066879494
 40
0.515514168851231
 40
0.9035344590107003
 40
1.0
 40
1.0
 40
1.0
 40
1.0
 10
253.5195968795705
 20
48.26482161908043
 30
0.0
 10
253.5601247790815
 20
48.37759332128143
 30
0.0
 10
253.7238489097608
 20
48.83316711441886
 30
0.0
 10
253.9570018219981
 20
49.63093695679576
 30
0.0
 10
254.1587811112124
 20
50.39766122615808
 30
0.0
 10
254.2476638724547
 20
50.8185792775553
 30
0.0
 10
254.2653612396358
 20
50.90238789471118
 30
0.0
  0
LINE
  5
1B4
330
1F
100
AcDbEntity
  8
0
  6
Continuous
 62
     7
370
    15
100
AcDbLine
 10
234.0935808615
 20
35.3755011357
 30
0.0
 11
235.4470409964
 21
34.594165231
 31
0.0
  0
LINE
  5
1B5
330
1F
100
AcDbEntity
  8
0
  6
Continuous
 62
     7
370
    15
100
AcDbLine
 10
230.2674838242
 20
37.5842599405
 30
0.0
 11
231.6032662897
 21
36.8131291372
 31
0.0
  0
SPLINE
  5
1B6
330
1F
100
AcDbEntity
  8
0
  6
Continuous
 62
     7
370
    15
100
AcDbSpline
210
0.0
220
0.0
230
1.0
 70
     8
 71
     3
 72
    12
 73
     8
 74
     0
 42
0.000000001
 43
0.00000001
 40
0.0
 40
0.0
 40
0.0
 40
0.0
 40
0.073993362355559
 40
0.3219726139039314
 40
0.5696235732647642
 40
0.8166192673744744
 40
1.0
 40
1.0
 40
1.0
 40
1.0
 10
227.347116623791
 20
41.58092304903778
 30
0.0
 10
227.3694757160627
 20
41.50457177999538
 30
0.0
 10
227.4667684346806
 20
41.17233903795111
 30
0.0
 10
227.6781686263958
 20
40.61864799637716
 30
0.0
 10
228.0038629820999
 20
39.9464279477186
 30
0.0
 10
228.3457712780285
 20
39.37838154428602
 30
0.0
 10
228.600594154527
 20
39.06254154248524
 30
0.0
 10
228.7091726055741
 20
38.92796407186949
 30
0.0
  0
SPLINE
  5
1B7
330
1F
100
AcDbEntity
  8
0
  6
Continuous
 62
     7
370
    15
100
AcDbSpline
210
0.0
220
0.0
230
1.0
 70
     8
 71
     3
 72
    13
 73
     9
 74
     0
 42
0.000000001
 43
0.00000001
 40
0.0
 40
0.0
 40
0.0
 40
0.0
 40
0.0796555513385926
 40
0.2906759030104148
 40
0.5014141774612315
 40
0.7115916633913977
 40
0.9210649558943514
 40
1.0
 40
1.0
 40
1.0
 40
1.0
 10
254.2548146994854
 20
58.04926681085464
 30
0.0
 10
254.2264884187471
 20
58.14582160268198
 30
0.0
 10
254.1231212698899
 20
58.49816554899517
 30
0.0
 10
253.9040430864023
 20
59.07034413590122
 30
0.0
 10
253.5786692505988
 20
59.74328685843827
 30
0.0
 10
253.1980568686662
 20
60.35517034864856
 30
0.0
 10
252.8608301252697
 20
60.79783398802877
 30
0.0
 10
252.6438412712452
 20
61.02553106392104
 30
0.0
 10
252.5844531656021
 20
61.08784992383899
 30
0.0
  0
SPLINE
  5
1B8
330
1F
100
AcDbEntity
  8
0
  6
Continuous
 62
     7
370
    15
100
AcDbSpline
210
0.0
220
0.0
230
1.0
 70
     8
 71
     3
 72
    28
 73
    24
 74
     0
 42
0.000000001
 43
0.00000001
 40
0.0
 40
0.0
 40
0.0
 40
0.0
 40
0.0087626158492433
 40
0.0567940232519363
 40
0.1052589397685397
 40
0.1545531581982763
 40
0.2047859681453892
 40
0.2558022346515267
 40
0.3073140473388351
 40
0.3590472450466697
 40
0.4107920958622194
 40
0.4624634423923138
 40
0.5140436553321076
 40
0.5655431039121145
 40
0.6169855796271945
 40
0.6684008394112724
 40
0.7198212454291347
 40
0.7712718555451404
 40
0.8227843880912735
 40
0.8743929647374105
 40
0.9261292874959238
 40
0.9780171956588127
 40
0.9999999999999999
 40
0.9999999999999999
 40
0.9999999999999999
 40
0.9999999999999999
 10
215.8136843129897
 20
71.37495902444915
 30
0.0
 10
215.7894078169487
 20
71.38592476684211
 30
0.0
 10
215.6320621219704
 20
71.45699813570297
 30
0.0
 10
215.3095515782732
 20
71.51834444082436
 30
0.0
 10
214.8528555684568
 20
71.55397795045707
 30
0.0
 10
214.3716472695284
 20
71.5099891325673
 30
0.0
 10
213.8738975078041
 20
71.39436170131387
 30
0.0
 10
213.3642572587637
 20
71.20514462690969
 30
0.0
 10
212.8501088062334
 20
70.9450078486021
 30
0.0
 10
212.3390011643486
 20
70.6176421215386
 30
0.0
 10
211.8382227073054
 20
70.22827352000039
 30
0.0
 10
211.3543379980136
 20
69.78280233455922
 30
0.0
 10
210.893220257828
 20
69.28747134505691
 30
0.0
 10
210.4603026655623
 20
68.74883597791346
 30
0.0
 10
210.0606857212378
 20
68.17378707335489
 30
0.0
 10
209.6991339477362
 20
67.5695171778077
 30
0.0
 10
209.3800711952031
 20
66.94350403504514
 30
0.0
 10
209.1074916433805
 20
66.30339883430827
 30
0.0
 10
208.8850232351785
 20
65.65697455703592
 30
0.0
 10
208.7155258550327
 20
65.01179157041464
 30
0.0
 10
208.6025634056638
 20
64.3759084689231
 30
0.0
 10
208.5561526001682
 20
63.87491733170164
 30
0.0
 10
208.5524442208478
 20
63.5906190796084
 30
0.0
 10
208.5513406633721
 20
63.5060162290543
 30
0.0
  0
SPLINE
  5
1B9
330
1F
100
AcDbEntity
  8
0
  6
Continuous
 62
     7
370
    15
100
AcDbSpline
210
0.0
220
0.0
230
1.0
 70
     8
 71
     3
 72
    14
 73
    10
 74
     0
 42
0.000000001
 43
0.00000001
 40
0.0
 40
0.0
 40
0.0
 40
0.0
 40
0.0897005693116034
 40
0.2591513458576364
 40
0.4286640438166288
 40
0.5971744828351296
 40
0.7635124106004489
 40
0.926640045389196
 40
1.0
 40
1.0
 40
1.0
 40
1.0
 10
208.5513406633721
 20
63.5060162290543
 30
0.0
 10
208.5530553816705
 20
63.40131400982653
 30
0.0
 10
208.5580093251987
 20
63.09882182682932
 30
0.0
 10
208.6132277406342
 20
62.62222138856037
 30
0.0
 10
208.7380375795384
 20
62.09540328777588
 30
0.0
 10
208.9246968315236
 20
61.61564206065683
 30
0.0
 10
209.1732925548164
 20
61.19642282442224
 30
0.0
 10
209.4139653564551
 20
60.89244968841957
 30
0.0
 10
209.5881176526757
 20
60.75547807000777
 30
0.0
 10
209.6421408028061
 20
60.71298860265276
 30
0.0
  0
LWPOLYLINE
  5
1BA
330
1F
100
AcDbEntity
  8
0
  6
Continuous
 62
     7
370
    15
100
AcDbPolyline
 90
       47
 70
   128
 43
0.0
 10
263.4480508529
 20
32.7595010868
 10
263.4803224034
 20
33.3229406248
 10
263.5765358971
 20
33.9131442894
 10
263.7348990584
 20
34.519117703
 10
263.9524618816
 20
35.1295727275
 10
264.2251715826
 20
35.7331377408
 10
264.5479480959
 20
36.3185694687
 10
264.9147787056
 20
36.8749624259
 10
265.3188300517
 20
37.3919520641
 10
265.7525754219
 20
37.8599078447
 10
266.2079349609
 20
38.2701126369
 10
266.6764261818
 20
38.6149251015
 10
267.1493219797
 20
38.8879220347
 10
267.6178132006
 20
39.0840180202
 10
268.0731727395
 20
39.1995601608
 10
268.5069181098
 20
39.2323961251
 10
268.9109694558
 20
39.1819142411
 10
269.2778000656
 20
39.0490548908
 10
269.6005765788
 20
38.8362929926
 10
269.8732862799
 20
38.5475918981
 10
270.090849103
 20
38.1883295623
 10
270.2492122644
 20
37.765198363
 10
270.345425758
 20
37.2860804336
 10
270.3776973085
 20
36.7599008348
 10
270.345425758
 20
36.1964612968
 10
270.2492122644
 20
35.6062576322
 10
270.090849103
 20
35.0002842186
 10
269.8732862799
 20
34.3898291941
 10
269.6005765788
 20
33.7862641808
 10
269.2778000656
 20
33.2008324529
 10
268.9109694558
 20
32.6444394958
 10
268.5069181098
 20
32.1274498575
 10
268.0731727395
 20
31.6594940769
 10
267.6178132006
 20
31.2492892848
 10
267.1493219797
 20
30.9044768202
 10
266.6764261818
 20
30.6314798869
 10
266.2079349609
 20
30.4353839014
 10
265.7525754219
 20
30.3198417608
 10
265.3188300517
 20
30.2870057966
 10
264.9147787056
 20
30.3374876805
 10
264.5479480959
 20
30.4703470308
 10
264.2251715826
 20
30.683108929
 10
263.9524618816
 20
30.9718100235
 10
263.7348990584
 20
31.3310723593
 10
263.5765358971
 20
31.7542035587
 10
263.4803224034
 20
32.233321488
 10
263.4480508529
 20
32.7595010868
  0
LWPOLYLINE
  5
1BB
330
1F
100
AcDbEntity
  8
0
  6
Continuous
 62
     7
370
    15
100
AcDbPolyline
 90
       25
 70
   128
 43
0.0
 10
263.3066294967
 20
32.7595010868
 10
263.3381753398
 20
33.3218833082
 10
263.432249933
 20
33.9106518608
 10
263.5871745128
 20
34.5153001558
 10
263.8001844464
 20
35.12503823
 10
264.0674785666
 20
35.7289852932
 10
264.3842870034
 20
36.3163638955
 10
264.7449563028
 20
36.876692252
 10
265.1430503126
 20
37.3999712899
 10
265.5714650357
 20
37.8768630823
 10
266.0225554013
 20
38.2988574839
 10
266.488271691
 20
38.6584239946
 10
266.9603031868
 20
38.9491461415
 10
267.4302264753
 20
39.165835981
 10
267.8896557643
 20
39.3046266778
 10
268.3303925274
 20
39.3630415087
 10
268.7445718064
 20
39.3400380595
 10
269.1248025624
 20
39.2360268273
 10
269.4642995685
 20
39.0528638951
 10
269.7570044926
 20
38.7938178098
 10
269.9976940085
 20
38.4635112548
 10
270.1820730059
 20
38.0678385585
 10
270.3068512373
 20
37.6138605095
 10
270.3698020322
 20
37.1096783569
 10
270.3776973085
 20
36.841541646
  0
LWPOLYLINE
  5
1BC
330
1F
100
AcDbEntity
  8
0
  6
Continuous
 62
     7
370
    15
100
AcDbPolyline
 90
       13
 70
   128
 43
0.0
 10
266.8427380263
 20
30.7181490841
 10
266.488271691
 20
30.5340240652
 10
266.0225554013
 20
30.3558859931
 10
265.5714650357
 20
30.2570625445
 10
265.1430503126
 20
30.2393172263
 10
264.7449563028
 20
30.302966704
 10
264.3842870034
 20
30.4468751511
 10
264.0674785666
 20
30.6684745182
 10
263.8001844464
 20
30.9638103591
 10
263.5871745128
 20
31.3276123989
 10
263.432249933
 20
31.7533885814
 10
263.3381753398
 20
32.2335409207
 10
263.3066294967
 20
32.7595010868
  0
SPLINE
  5
1BD
330
1F
100
AcDbEntity
  8
0
  6
Continuous
 62
     7
370
    15
100
AcDbSpline
210
0.0
220
0.0
230
1.0
 70
    11
 71
     3
 72
    60
 73
    56
 74
     0
 42
0.000000001
 43
0.00000001
 40
0.0
 40
0.0
 40
0.0
 40
0.0
 40
0.0624999999999987
 40
0.0624999999999987
 40
0.093749999999998
 40
0.093749999999998
 40
0.1249999999999973
 40
0.1249999999999973
 40
0.1562499999999966
 40
0.1562499999999966
 40
0.1874999999999959
 40
0.1874999999999959
 40
0.2187499999999953
 40
0.2187499999999953
 40
0.2499999999999946
 40
0.2499999999999946
 40
0.2812499999999939
 40
0.2812499999999939
 40
0.3124999999999933
 40
0.3124999999999933
 40
0.3437499999999926
 40
0.3437499999999926
 40
0.3749999999999919
 40
0.3749999999999919
 40
0.4062499999999912
 40
0.4062499999999912
 40
0.4374999999999906
 40
0.4374999999999906
 40
0.4687499999999899
 40
0.4687499999999899
 40
0.4999999999999892
 40
0.4999999999999892
 40
0.5312499999999886
 40
0.5312499999999886
 40
0.5624999999999879
 40
0.5624999999999879
 40
0.6249999999999888
 40
0.6249999999999888
 40
0.6874999999999897
 40
0.6874999999999897
 40
0.7499999999999905
 40
0.7499999999999905
 40
0.7812499999999918
 40
0.7812499999999918
 40
0.8124999999999931
 40
0.8124999999999931
 40
0.8437499999999944
 40
0.8437499999999944
 40
0.8749999999999958
 40
0.8749999999999958
 40
0.9062499999999971
 40
0.9062499999999971
 40
0.9374999999999984
 40
0.9374999999999984
 40
1.0
 40
1.0
 40
1.0
 40
1.0
 10
264.7599749451065
 20
40.80740086600356
 30
0.0
 10
264.9443242124663
 20
40.77626316566298
 30
0.0
 10
265.1203088976754
 20
40.72737258784606
 30
0.0
 10
265.3685858135823
 20
40.63645962072975
 30
0.0
 10
265.446888812647
 20
40.60379524169307
 30
0.0
 10
265.5950134566856
 20
40.53444786814778
 30
0.0
 10
265.6653868430785
 20
40.49742118566246
 30
0.0
 10
265.7943370073601
 20
40.42100751632638
 30
0.0
 10
265.8526212033942
 20
40.38188796772739
 30
0.0
 10
265.9569901720025
 20
40.30161867948561
 30
0.0
 10
266.0034323122495
 20
40.26006084049889
 30
0.0
 10
266.0810966384774
 20
40.17631882067185
 30
0.0
 10
266.1123294546846
 20
40.13431599829904
 30
0.0
 10
266.1593292817184
 20
40.04913593902682
 30
0.0
 10
266.17514751102
 20
40.00546115076067
 30
0.0
 10
266.1888397784396
 20
39.91844148784197
 30
0.0
 10
266.186938862247
 20
39.87521177698187
 30
0.0
 10
266.1645606053949
 20
39.78819377114419
 30
0.0
 10
266.1435513593066
 20
39.74378092930858
 30
0.0
 10
266.0825318688791
 20
39.65742954300441
 30
0.0
 10
266.0427829630572
 20
39.61529751645087
 30
0.0
 10
265.9434338408569
 20
39.53258534344074
 30
0.0
 10
265.8835395913374
 20
39.49212910309227
 30
0.0
 10
265.7501907354313
 20
39.4176334848664
 30
0.0
 10
265.6749634105869
 20
39.38253157164723
 30
0.0
 10
265.5140549800841
 20
39.31994492982447
 30
0.0
 10
265.4292922752149
 20
39.29265022567461
 30
0.0
 10
265.251610472034
 20
39.24625155766533
 30
0.0
 10
265.1602588190491
 20
39.22763869936512
 30
0.0
 10
264.9768606480029
 20
39.20038701030847
 30
0.0
 10
264.8833439160215
 20
39.19160280477647
 30
0.0
 10
264.7003026524982
 20
39.18476295163781
 30
0.0
 10
264.6103187422845
 20
39.1865506791106
 30
0.0
 10
264.4331451728792
 20
39.20105177439911
 30
0.0
 10
264.3466870676019
 20
39.213814509339
 30
0.0
 10
264.1000848810112
 20
39.26787872285988
 30
0.0
 10
263.9478176117296
 20
39.3265239616758
 30
0.0
 10
263.6911886481428
 20
39.48102417003953
 30
0.0
 10
263.5835037858444
 20
39.5789371733107
 30
0.0
 10
263.4287878598627
 20
39.79734464942825
 30
0.0
 10
263.3795482905046
 20
39.92092075332386
 30
0.0
 10
263.3589652806045
 20
40.10682888514183
 30
0.0
 10
263.3607064120073
 20
40.16971470239589
 30
0.0
 10
263.3835490048151
 20
40.29404693828218
 30
0.0
 10
263.4042472000539
 20
40.35384522963732
 30
0.0
 10
263.4649680780223
 20
40.46763522826021
 30
0.0
 10
263.5058328236267
 20
40.52238984685125
 30
0.0
 10
263.6057592375948
 20
40.62011637847536
 30
0.0
 10
263.6642605101144
 20
40.66305803537067
 30
0.0
 10
263.7988052352933
 20
40.736575394124
 30
0.0
 10
263.8744312542459
 20
40.76657737547476
 30
0.0
 10
264.0347268030037
 20
40.81116625135499
 30
0.0
 10
264.1214079774142
 20
40.82630594821143
 30
0.0
 10
264.387104247136
 20
40.8502979957324
 30
0.0
 10
264.5756256777466
 20
40.83853856634415
 30
0.0
 10
264.7599749451065
 20
40.80740086600356
 30
0.0
  0
LWPOLYLINE
  5
1BE
330
1F
100
AcDbEntity
  8
0
  6
Continuous
 62
     7
370
    15
100
AcDbPolyline
 90
        7
 70
   128
 43
0.0
 10
265.5693711965
 20
40.2302490478
 10
265.7612649309
 20
40.0822671049
 10
265.8731662918
 20
39.9090697308
 10
265.8960096966
 20
39.7246883468
 10
265.8279445083
 20
39.5440604361
 10
265.6744849637
 20
39.3818193978
 10
265.6411823639
 20
39.3573797312
  0
LWPOLYLINE
  5
1BF
330
1F
100
AcDbEntity
  8
0
  6
Continuous
 62
     7
370
    15
100
AcDbPolyline
 90
       12
 70
   128
 43
0.0
 10
263.9154378591
 20
39.3512599208
 10
263.7864872044
 20
39.459771865
 10
263.6745858434
 20
39.632969239
 10
263.6517424387
 20
39.817350623
 10
263.719807627
 20
39.9979785337
 10
263.8732671716
 20
40.160219572
 10
264.0996886928
 20
40.290929934
 10
264.3807288656
 20
40.3795202434
 10
264.6936194865
 20
40.4188134402
 10
265.0130120184
 20
40.4056262234
 10
265.3130311777
 20
40.3410269427
 10
265.5693711965
 20
40.2302490478
  0
SPLINE
  5
1C0
330
1F
100
AcDbEntity
  8
0
  6
Continuous
 62
     7
370
    15
100
AcDbSpline
210
0.0
220
0.0
230
1.0
 70
     8
 71
     3
 72
    12
 73
     8
 74
     0
 42
0.000000001
 43
0.00000001
 40
0.0
 40
0.0
 40
0.0
 40
0.0
 40
0.250000000000001
 40
0.250000000000001
 40
0.500000000000002
 40
0.500000000000002
 40
1.0
 40
1.0
 40
1.0
 40
1.0
 10
232.6188696497784
 20
45.80206668742655
 30
0.0
 10
232.6526488160507
 20
45.78256638981304
 30
0.0
 10
232.6909735125262
 20
45.75572664123587
 30
0.0
 10
232.7651966366388
 20
45.69732613791322
 30
0.0
 10
232.8005800011335
 20
45.66633647943233
 30
0.0
 10
232.8963899595184
 20
45.57559712641158
 30
0.0
 10
232.9453937176727
 20
45.51970299769404
 30
0.0
 10
232.9792027752875
 20
45.47244313392738
 30
0.0
  0
SPLINE
  5
1C1
330
1F
100
AcDbEntity
  8
0
  6
Continuous
 62
     7
370
    15
100
AcDbSpline
210
0.0
220
0.0
230
1.0
 70
     8
 71
     3
 72
    12
 73
     8
 74
     0
 42
0.000000001
 43
0.00000001
 40
0.0
 40
0.0
 40
0.0
 40
0.0
 40
0.5000000000000011
 40
0.5000000000000011
 40
0.7500000000000006
 40
0.7500000000000006
 40
1.0
 40
1.0
 40
1.0
 40
1.0
 10
250.0837326884785
 20
62.24224465824893
 30
0.0
 10
250.0837326884785
 20
62.31366368997359
 30
0.0
 10
250.0661681578175
 20
62.3961934491668
 30
0.0
 10
250.0110426233276
 20
62.51513816519967
 30
0.0
 10
249.9877501495708
 20
62.55377105242427
 30
0.0
 10
249.9337817605134
 20
62.62033356370132
 30
0.0
 10
249.9029342597602
 20
62.64825460195397
 30
0.0
 10
249.8716006541225
 20
62.66634310746392
 30
0.0
  0
LWPOLYLINE
  5
1C2
330
1F
100
AcDbEntity
  8
0
  6
Continuous
 62
     7
370
    15
100
AcDbPolyline
 90
       13
 70
   128
 43
0.0
 10
238.5825760417
 20
59.4696072185
 10
239.4185637933
 20
60.223040851
 10
240.2701778724
 20
60.9100712191
 10
241.1323232359
 20
61.5265879523
 10
241.9998418339
 20
62.0689025496
 10
242.8675434698
 20
62.5337704472
 10
243.7302368517
 20
62.9184104299
 10
244.582760651
 20
63.2205212709
 10
245.4200143821
 20
63.4382954989
 10
246.236988917
 20
63.5704302129
 10
247.0287964543
 20
63.6161348762
 10
247.790699762
 20
63.5751360466
 10
248.5181405192
 20
63.4476790122
  0
LINE
  5
1C3
330
1F
100
AcDbEntity
  8
0
  6
Continuous
 62
     7
370
    15
100
AcDbLine
 10
249.8716006541
 20
62.6663431075
 30
0.0
 11
248.5181405192
 21
63.4476790122
 31
0.0
  0
LINE
  5
1C4
330
1F
100
AcDbEntity
  8
0
  6
Continuous
 62
     7
370
    15
100
AcDbLine
 10
231.2654095148
 20
46.5834025921
 30
0.0
 11
232.6188696498
 21
45.8020666874
 31
0.0
  0
ARC
  5
1C5
330
1F
100
AcDbEntity
  8
0
  6
Continuous
 62
     7
370
    15
100
AcDbCircle
 10
256.9399589989
 20
40.5402444582
 30
0.0
 40
26.37616824794611
100
AcDbArc
 50
136.5076374495
 51
166.75506569
  0
SPLINE
  5
1C6
330
1F
100
AcDbEntity
  8
0
  6
Continuous
 62
     7
370
    15
100
AcDbSpline
210
0.0
220
0.0
230
1.0
 70
     8
 71
     3
 72
    12
 73
     8
 74
     0
 42
0.000000001
 43
0.00000001
 40
0.0
 40
0.0
 40
0.0
 40
0.0
 40
0.2499999999999997
 40
0.2499999999999997
 40
0.4999999999999993
 40
0.4999999999999993
 40
1.0
 40
1.0
 40
1.0
 40
1.0
 10
237.8049425254592
 20
58.69385005056107
 30
0.0
 10
237.9042572081792
 20
58.72719813485688
 30
0.0
 10
237.9980823478706
 20
58.7710803363614
 30
0.0
 10
238.1750754527762
 20
58.87921060515713
 30
0.0
 10
238.2548870206973
 20
58.94161609533832
 30
0.0
 10
238.4630708819176
 20
59.14901367312808
 30
0.0
 10
238.5547807155037
 20
59.31042421092187
 30
0.0
 10
238.5825760416775
 20
59.46960721846096
 30
0.0
  0
LINE
  5
1C7
330
1F
100
AcDbEntity
  8
0
  6
Continuous
 62
     7
370
    15
100
AcDbLine
 10
254.1009965794
 20
57.5711957657
 30
0.0
 11
254.2063600779
 21
57.7536906979
 31
0.0
  0
LINE
  5
1C8
330
1F
100
AcDbEntity
  8
0
  6
Continuous
 62
     7
370
    15
100
AcDbLine
 10
252.9298374828
 20
56.8951000104
 30
0.0
 11
254.1009965794
 21
57.5711957657
 31
0.0
  0
ARC
  5
1C9
330
1F
100
AcDbEntity
  8
0
  6
Continuous
 62
     7
370
    15
100
AcDbCircle
 10
253.5923249389
 20
55.8594154343
 30
0.0
 40
1.229443846057702
100
AcDbArc
 50
122.60547834
 51
177.3945215143
  0
LINE
  5
1CA
330
1F
100
AcDbEntity
  8
0
  6
Continuous
 62
     7
370
    15
100
AcDbLine
 10
252.3641520578
 20
50.6486158795
 30
0.0
 11
252.3641520578
 21
55.9153041161
 31
0.0
  0
ARC
  5
1CB
330
1F
100
AcDbEntity
  8
0
  6
Continuous
 62
     7
370
    15
100
AcDbCircle
 10
252.7090115517
 20
50.5926741219
 30
0.0
 40
0.3493673579427671
100
AcDbArc
 50
170.7859630095
 51
309.2032852357
  0
LINE
  5
1CC
330
1F
100
AcDbEntity
  8
0
  6
Continuous
 62
     7
370
    15
100
AcDbLine
 10
254.1009965794
 20
50.9980422301
 30
0.0
 11
252.9298374828
 21
50.3219464747
 31
0.0
  0
LINE
  5
1CD
330
1F
100
AcDbEntity
  8
0
  6
Continuous
 62
     7
370
    15
100
AcDbLine
 10
254.2063600779
 20
50.9371974039
 30
0.0
 11
254.1009965794
 21
50.9980422301
 31
0.0
  0
LINE
  5
1CE
330
1F
100
AcDbEntity
  8
0
  6
Continuous
 62
     7
370
    15
100
AcDbLine
 10
233.0270979516
 20
38.8323395065
 30
0.0
 11
232.9792027753
 21
38.7100908213
 31
0.0
  0
LINE
  5
1CF
330
1F
100
AcDbEntity
  8
0
  6
Continuous
 62
     7
370
    15
100
AcDbLine
 10
233.0270979516
 20
38.8323395065
 30
0.0
 11
235.0400359187
 21
39.9943838601
 31
0.0
  0
ARC
  5
1D0
330
1F
100
AcDbEntity
  8
0
  6
Continuous
 62
     7
370
    15
100
AcDbCircle
 10
234.3775484626
 20
41.0300684362
 30
0.0
 40
1.229443846057644
100
AcDbArc
 50
302.60547834
 51
357.3945215143
  0
LINE
  5
1D1
330
1F
100
AcDbEntity
  8
0
  6
Continuous
 62
     7
370
    15
100
AcDbLine
 10
235.6057213437
 20
46.240867991
 30
0.0
 11
235.6057213437
 21
40.9741797544
 31
0.0
  0
ARC
  5
1D2
330
1F
100
AcDbEntity
  8
0
  6
Continuous
 62
     7
370
    15
100
AcDbCircle
 10
235.2608618497
 20
46.2968097485
 30
0.0
 40
0.3493673579428056
100
AcDbArc
 50
350.7859630095
 51
129.2032852357
  0
LINE
  5
1D3
330
1F
100
AcDbEntity
  8
0
  6
Continuous
 62
     7
370
    15
100
AcDbLine
 10
235.0400359187
 20
46.5675373958
 30
0.0
 11
233.0270979516
 21
45.4054930422
 31
0.0
  0
LINE
  5
1D4
330
1F
100
AcDbEntity
  8
0
  6
Continuous
 62
     7
370
    15
100
AcDbLine
 10
232.9792027753
 20
45.4724431339
 30
0.0
 11
233.0270979516
 21
45.4054930422
 31
0.0
  0
LINE
  5
1D5
330
1F
100
AcDbEntity
  8
0
  6
Continuous
 62
     7
370
    15
100
AcDbLine
 10
250.0837326885
 20
59.4572638665
 30
0.0
 11
250.0837326885
 21
62.2422446582
 31
0.0
  0
LINE
  5
1D6
330
1F
100
AcDbEntity
  8
0
  6
Continuous
 62
     7
370
    15
100
AcDbLine
 10
252.4954661556
 20
60.8495279619
 30
0.0
 11
250.0837326885
 21
59.4572638665
 31
0.0
  0
SPLINE
  5
1D7
330
1F
100
AcDbEntity
  8
0
  6
Continuous
 62
     7
370
    15
100
AcDbSpline
210
0.0
220
0.0
230
1.0
 70
     8
 71
     3
 72
     8
 73
     4
 74
     0
 42
0.000000001
 43
0.00000001
 40
0.0
 40
0.0
 40
0.0
 40
0.0
 40
1.0
 40
1.0
 40
1.0
 40
1.0
 10
230.2752582295408
 20
47.84178177629624
 30
0.0
 10
229.8945603635404
 20
47.77881493862564
 30
0.0
 10
229.5137223913005
 20
47.7161148164906
 30
0.0
 10
229.1327817405608
 20
47.65363393781757
 30
0.0
  0
SPLINE
  5
1D8
330
1F
100
AcDbEntity
  8
0
  6
Continuous
 62
     7
370
    15
100
AcDbSpline
210
0.0
220
0.0
230
1.0
 70
     8
 71
     3
 72
     8
 73
     4
 74
     0
 42
0.000000001
 43
0.00000001
 40
0.0
 40
0.0
 40
0.0
 40
0.0
 40
0.0011901715795577
 40
0.0011901715795577
 40
0.0011901715795577
 40
0.0011901715795577
 10
228.775094943003
 20
48.02103059367318
 30
0.0
 10
228.8947414504978
 20
47.89841568391769
 30
0.0
 10
229.0139846246459
 20
47.77594364342198
 30
0.0
 10
229.1327817405608
 20
47.65363393781757
 30
0.0
  0
LWPOLYLINE
  5
1D9
330
1F
100
AcDbEntity
  8
0
  6
Continuous
 62
     7
370
    15
100
AcDbPolyline
 90
       26
 70
   128
 43
0.0
 10
228.775094943
 20
48.0210305937
 10
229.0476761934
 20
49.1114659184
 10
229.3808105059
 20
50.2102704439
 10
229.7725753257
 20
51.3111028477
 10
230.2207097346
 20
52.4076101038
 10
230.7226274991
 20
53.4934641477
 10
231.2754319965
 20
54.5623983954
 10
231.8759329306
 20
55.6082439088
 10
232.5206647441
 20
56.6249649979
 10
233.2059066183
 20
57.6066940525
 10
233.9277039465
 20
58.5477654055
 10
234.6818911563
 20
59.4427480301
 10
235.4641157499
 20
60.2864768823
 10
236.2698634224
 20
61.0740827096
 10
237.0944841149
 20
61.8010201514
 10
237.93321885
 20
62.4630939713
 10
238.7812271967
 20
63.0564832679
 10
239.6336152049
 20
63.577763526
 10
240.4854636491
 20
64.0239263794
 10
241.3318564174
 20
64.3923969729
 10
242.1679088836
 20
64.6810488219
 10
242.9887960962
 20
64.8882160846
 10
243.7897806242
 20
65.0127031758
 10
244.5662398973
 20
65.0537916667
 10
245.313692883
 20
65.0112444311
 10
246.0278259473
 20
64.8853070137
  0
LINE
  5
1DA
330
1F
100
AcDbEntity
  8
0
  6
Continuous
 62
     7
370
    15
100
AcDbLine
 10
246.4565290618
 20
63.5675375108
 30
0.0
 11
246.0278259473
 21
64.8853070137
 31
0.0
  0
LWPOLYLINE
  5
1DB
330
1F
100
AcDbEntity
  8
0
  6
Continuous
 62
     7
370
    15
100
AcDbPolyline
 90
       25
 70
   128
 43
0.0
 10
230.2752582295
 20
47.8417817763
 10
230.5305962457
 20
48.8753601674
 10
230.8457117034
 20
49.9174084929
 10
231.2186382161
 20
50.9614241521
 10
231.6470486438
 20
52.0008922677
 10
232.1282696154
 20
53.02932634
 10
232.6592982107
 20
54.040308724
 10
233.2368206997
 20
55.0275306769
 10
233.8572332204
 20
55.9848317263
 10
234.5166642684
 20
56.9062381121
 10
235.210998855
 20
57.7860000646
 10
235.9359041866
 20
58.6186276843
 10
236.6868567012
 20
59.3989251996
 10
237.4591702972
 20
60.1220233899
 10
238.2480255755
 20
60.7834099704
 10
239.048499913
 20
61.3789577497
 10
239.8555981815
 20
61.9049503845
 10
240.6642839181
 20
62.3581055699
 10
241.4695107537
 20
62.7355955224
 10
242.2662539034
 20
63.0350646252
 10
243.0495415223
 20
63.2546441281
 10
243.8144857311
 20
63.3929638089
 10
244.5563131169
 20
63.4491605236
 10
245.2703945207
 20
63.4228835929
 10
245.324036332
 20
63.4174484994
  0
LINE
  5
1DC
330
1F
100
AcDbEntity
  8
0
  6
Continuous
 62
     7
370
    15
100
AcDbLine
 10
227.4393124776
 20
48.792161397
 30
0.0
 11
228.775094943
 21
48.0210305937
 31
0.0
  0
LINE
  5
1DD
330
1F
100
AcDbEntity
  8
0
  6
Continuous
 62
     7
370
    15
100
AcDbLine
 10
246.0278259473
 20
64.8853070137
 30
0.0
 11
244.6920434819
 21
65.656437817
 31
0.0
  0
LINE
  5
1DE
330
1F
100
AcDbEntity
  8
0
  6
Continuous
 62
     7
370
    15
100
AcDbLine
 10
231.5018003346
 20
47.5414971262
 30
0.0
 11
230.9112896788
 21
47.8823916717
 31
0.0
  0
SPLINE
  5
1DF
330
1F
100
AcDbEntity
  8
0
  6
Continuous
 62
     7
370
    15
100
AcDbSpline
210
0.0
220
0.0
230
1.0
 70
     8
 71
     3
 72
    21
 73
    17
 74
     0
 42
0.000000001
 43
0.00000001
 40
0.0
 40
0.0
 40
0.0
 40
0.0
 40
0.0292899098628219
 40
0.1111265814426992
 40
0.1906542078595089
 40
0.2724869409763856
 40
0.3520244243916481
 40
0.4338776843443601
 40
0.513251180722579
 40
0.5949330273463117
 40
0.6742033613714289
 40
0.7557663077786685
 40
0.8351541129953204
 40
0.9168348801470632
 40
0.989282472835716
 40
1.0
 40
1.0
 40
1.0
 40
1.0
 10
238.3105909703374
 20
59.00094295453941
 30
0.0
 10
238.2914308362794
 20
59.00261714452919
 30
0.0
 10
238.2187368536823
 20
59.00896905927118
 30
0.0
 10
238.0876686970998
 20
58.99764675900303
 30
0.0
 10
237.9219459882356
 20
58.96666199264938
 30
0.0
 10
237.761667969246
 20
58.91355458924505
 30
0.0
 10
237.6091773629519
 20
58.84030961766369
 30
0.0
 10
237.4715791476595
 20
58.74966585440583
 30
0.0
 10
237.3503832092111
 20
58.6425770754453
 30
0.0
 10
237.251239434002
 20
58.52403073884879
 30
0.0
 10
237.1749715194619
 20
58.3952507517084
 30
0.0
 10
237.1251807310938
 20
58.26239689346054
 30
0.0
 10
237.1014541761982
 20
58.12664766224778
 30
0.0
 10
237.1076558685553
 20
57.99965446094757
 30
0.0
 10
237.1240674901808
 20
57.9119356513153
 30
0.0
 10
237.1433110289964
 20
57.87228541455755
 30
0.0
 10
237.1457909526754
 20
57.86717567034901
 30
0.0
  0
SPLINE
  5
1E0
330
1F
100
AcDbEntity
  8
0
  6
Continuous
 62
     7
370
    15
100
AcDbSpline
210
0.0
220
0.0
230
1.0
 70
     8
 71
     3
 72
    12
 73
     8
 74
     0
 42
0.000000001
 43
0.00000001
 40
0.0
 40
0.0
 40
0.0
 40
0.0
 40
0.2500000000000015
 40
0.2500000000000015
 40
0.500000000000003
 40
0.500000000000003
 40
1.0
 40
1.0
 40
1.0
 40
1.0
 10
230.9112896787782
 20
47.88239167171188
 30
0.0
 10
230.873670943819
 20
47.90410850514807
 30
0.0
 10
230.8276785354317
 20
47.92136423913072
 30
0.0
 10
230.7280774054557
 20
47.94365802695854
 30
0.0
 10
230.6733266802017
 20
47.94886381153798
 30
0.0
 10
230.5138207813823
 20
47.94586191211085
 30
0.0
 10
230.4088179761648
 20
47.91888417685165
 30
0.0
 10
230.3335050799729
 20
47.87540696731836
 30
0.0
  0
SPLINE
  5
1E1
330
1F
100
AcDbEntity
  8
0
  6
Continuous
 62
     7
370
    15
100
AcDbSpline
210
0.0
220
0.0
230
1.0
 70
     8
 71
     3
 72
    10
 73
     6
 74
     0
 42
0.000000001
 43
0.00000001
 40
0.0
 40
0.0
 40
0.0
 40
0.0
 40
0.5
 40
0.5
 40
1.0
 40
1.0
 40
1.0
 40
1.0
 10
227.3376683669895
 20
48.822883448271
 30
0.0
 10
227.3449310486381
 20
48.82688005375883
 30
0.0
 10
227.3567247126038
 20
48.827061832144
 30
0.0
 10
227.3907837233711
 20
48.81734020263425
 30
0.0
 10
227.4129562109233
 20
48.80737654585855
 30
0.0
 10
227.4393124775869
 20
48.79216139697724
 30
0.0
  0
LINE
  5
1E2
330
1F
100
AcDbEntity
  8
0
  6
Continuous
 62
     7
370
    15
100
AcDbLine
 10
230.33350508
 20
47.8754069673
 30
0.0
 11
230.2752582295
 21
47.8417817763
 31
0.0
  0
LINE
  5
1E3
330
1F
100
AcDbEntity
  8
0
  6
Continuous
 62
     7
370
    15
100
AcDbLine
 10
233.0270979516
 20
45.4054930422
 30
0.0
 11
231.2999152522
 21
46.4025743911
 31
0.0
  0
SPLINE
  5
1E4
330
1F
100
AcDbEntity
  8
0
  6
Continuous
 62
     7
370
    15
100
AcDbSpline
210
0.0
220
0.0
230
1.0
 70
     8
 71
     3
 72
     8
 73
     4
 74
     0
 42
0.000000001
 43
0.00000001
 40
0.0
 40
0.0
 40
0.0
 40
0.0
 40
0.0011901715795577
 40
0.0011901715795577
 40
0.0011901715795577
 40
0.0011901715795577
 10
231.2999152522497
 20
46.40257439107077
 30
0.0
 10
231.2877537854311
 20
46.46332464678161
 30
0.0
 10
231.2762703384751
 20
46.52358832091166
 30
0.0
 10
231.2654095148326
 20
46.5834025921284
 30
0.0
  0
ARC
  5
1E5
330
1F
100
AcDbEntity
  8
0
  6
Continuous
 62
     7
370
    15
100
AcDbCircle
 10
240.2784544841
 20
46.8274040542
 30
0.0
 40
10.35721520226674
100
AcDbArc
 50
174.7019862405
 51
187.1553306173
  0
LINE
  5
1E6
330
1F
100
AcDbEntity
  8
0
  6
Continuous
 62
     7
370
    15
100
AcDbLine
 10
230.0019001028
 20
47.7966400344
 30
0.0
 11
230.0019001028
 21
45.5373122768
 31
0.0
  0
LINE
  5
1E7
330
1F
100
AcDbEntity
  8
0
  6
Continuous
 62
     7
370
    15
100
AcDbLine
 10
230.0019001028
 20
45.5373122768
 30
0.0
 11
230.0019001028
 21
44.0715043143
 31
0.0
  0
LINE
  5
1E8
330
1F
100
AcDbEntity
  8
0
  6
Continuous
 62
     7
370
    15
100
AcDbLine
 10
227.7768301013
 20
48.4364081573
 30
0.0
 11
227.337668367
 21
48.8228834483
 31
0.0
  0
LINE
  5
1E9
330
1F
100
AcDbEntity
  8
0
  6
Continuous
 62
     7
370
    15
100
AcDbLine
 10
229.1327817406
 20
47.6536339378
 30
0.0
 11
227.7768301013
 21
48.4364081573
 31
0.0
  0
LINE
  5
1EA
330
1F
100
AcDbEntity
  8
0
  6
Continuous
 62
     7
370
    15
100
AcDbLine
 10
229.0031117744
 20
47.5722057657
 30
0.0
 11
229.0042577339
 21
47.7278292676
 31
0.0
  0
ARC
  5
1EB
330
1F
100
AcDbEntity
  8
0
  6
Continuous
 62
     7
370
    15
100
AcDbCircle
 10
235.8830024013
 20
47.2978457106
 30
0.0
 40
6.885358994152813
100
AcDbArc
 50
177.7163375077
 51
210.8730227796
  0
LINE
  5
1EC
330
1F
100
AcDbEntity
  8
0
  6
Continuous
 62
     7
370
    15
100
AcDbLine
 10
231.2999152522
 20
39.8294208554
 30
0.0
 11
233.0270979516
 21
38.8323395065
 31
0.0
  0
SPLINE
  5
1ED
330
1F
100
AcDbEntity
  8
0
  6
Continuous
 62
     7
370
    15
100
AcDbSpline
210
0.0
220
0.0
230
1.0
 70
     8
 71
     3
 72
    14
 73
    10
 74
     0
 42
0.000000001
 43
0.00000001
 40
0.0
 40
0.0
 40
0.0
 40
0.0
 40
0.25
 40
0.25
 40
0.5
 40
0.5
 40
0.75
 40
0.75
 40
1.0
 40
1.0
 40
1.0
 40
1.0
 10
232.9792027752875
 20
38.71009082125343
 30
0.0
 10
232.9622945777494
 20
38.66693397170429
 30
0.0
 10
232.9417713868684
 20
38.62691799921529
 30
0.0
 10
232.8929879513061
 20
38.55360837223036
 30
0.0
 10
232.8645309729303
 20
38.52032121362429
 30
0.0
 10
232.801168350422
 20
38.46739836729397
 30
0.0
 10
232.7658492896811
 20
38.4473347008687
 30
0.0
 10
232.69103121263
 20
38.43057571038667
 30
0.0
 10
232.6526617385653
 20
38.43477260599786
 30
0.0
 10
232.6188696497784
 20
38.45428036362028
 30
0.0
  0
LINE
  5
1EE
330
1F
100
AcDbEntity
  8
0
  6
Continuous
 62
     7
370
    15
100
AcDbLine
 10
232.6188696498
 20
38.4542803636
 30
0.0
 11
231.2654095148
 21
39.2356162683
 31
0.0
  0
SPLINE
  5
1EF
330
1F
100
AcDbEntity
  8
0
  6
Continuous
 62
     7
370
    15
100
AcDbSpline
210
0.0
220
0.0
230
1.0
 70
     8
 71
     3
 72
     8
 73
     4
 74
     0
 42
0.000000001
 43
0.00000001
 40
0.0
 40
0.0
 40
0.0
 40
0.0
 40
0.0011901715795577
 40
0.0011901715795577
 40
0.0011901715795577
 40
0.0011901715795577
 10
231.2654095148326
 20
39.23561626832213
 30
0.0
 10
231.2762703384751
 20
39.4335714566803
 30
0.0
 10
231.2877537854311
 20
39.63151036918187
 30
0.0
 10
231.2999152522497
 20
39.8294208553905
 30
0.0
  0
SPLINE
  5
1F0
330
1F
100
AcDbEntity
  8
0
  6
Continuous
 62
     7
370
    15
100
AcDbSpline
210
0.0
220
0.0
230
1.0
 70
     8
 71
     3
 72
    10
 73
     6
 74
     0
 42
0.000000001
 43
0.00000001
 40
0.0
 40
0.0
 40
0.0
 40
0.0
 40
0.006477995098733
 40
0.4790714317685199
 40
1.0
 40
1.0
 40
1.0
 40
1.0
 10
254.2670994989305
 20
50.90211317973908
 30
0.0
 10
254.2671577364317
 20
50.90207959346171
 30
0.0
 10
254.2714646126626
 20
50.89959576540348
 30
0.0
 10
254.2548020046322
 20
50.90922183893703
 30
0.0
 10
254.2230227435397
 20
50.92757459330651
 30
0.0
 10
254.2063600778929
 20
50.93719740388306
 30
0.0
  0
ARC
  5
1F1
330
1F
100
AcDbEntity
  8
0
  6
Continuous
 62
     7
370
    15
100
AcDbCircle
 10
238.1724653197
 20
39.3158708258
 30
0.0
 40
5.448953187907985
100
AcDbArc
 50
219.4643214701
 51
260.0136633542
  0
SPLINE
  5
1F2
330
1F
100
AcDbEntity
  8
0
  6
Continuous
 62
     7
370
    15
100
AcDbSpline
210
0.0
220
0.0
230
1.0
 70
     8
 71
     3
 72
     8
 73
     4
 74
     0
 42
0.000000001
 43
0.00000001
 40
0.0
 40
0.0
 40
0.0
 40
0.0
 40
1.0
 40
1.0
 40
1.0
 40
1.0
 10
231.6258321816071
 20
40.48895849382526
 30
0.0
 10
231.5167586012201
 20
40.26918629376604
 30
0.0
 10
231.4081470357521
 20
40.04933321209637
 30
0.0
 10
231.2999152522497
 20
39.8294208553905
 30
0.0
  0
LINE
  5
1F3
330
1F
100
AcDbEntity
  8
0
  6
Continuous
 62
     7
370
    15
100
AcDbLine
 10
231.684079032
 20
40.5225836848
 30
0.0
 11
231.6258321816
 21
40.4889584938
 31
0.0
  0
SPLINE
  5
1F4
330
1F
100
AcDbEntity
  8
0
  6
Continuous
 62
     7
370
    15
100
AcDbSpline
210
0.0
220
0.0
230
1.0
 70
     8
 71
     3
 72
    12
 73
     8
 74
     0
 42
0.000000001
 43
0.00000001
 40
0.0
 40
0.0
 40
0.0
 40
0.0
 40
0.2500000000000015
 40
0.2500000000000015
 40
0.500000000000003
 40
0.500000000000003
 40
1.0
 40
1.0
 40
1.0
 40
1.0
 10
231.6961782058953
 20
40.85613163396999
 30
0.0
 10
231.7342158134479
 20
40.83417299053274
 30
0.0
 10
231.7636892173595
 20
40.80791605392807
 30
0.0
 10
231.8024829274025
 20
40.75004804462876
 30
0.0
 10
231.8113051303491
 20
40.71926590981963
 30
0.0
 10
231.8061958576623
 20
40.62628592643289
 30
0.0
 10
231.7595721158929
 20
40.56616491450357
 30
0.0
 10
231.6840790320396
 20
40.52258368484765
 30
0.0
  0
LINE
  5
1F5
330
1F
100
AcDbEntity
  8
0
  6
Continuous
 62
     7
370
    15
100
AcDbLine
 10
230.9112896788
 20
41.309238136
 30
0.0
 11
231.6961782059
 21
40.856131634
 31
0.0
  0
SPLINE
  5
1F6
330
1F
100
AcDbEntity
  8
0
  6
Continuous
 62
     7
370
    15
100
AcDbSpline
210
0.0
220
0.0
230
1.0
 70
     8
 71
     3
 72
    12
 73
     8
 74
     0
 42
0.000000001
 43
0.00000001
 40
0.0
 40
0.0
 40
0.0
 40
0.0
 40
0.4999999999999984
 40
0.4999999999999984
 40
0.7499999999999992
 40
0.7499999999999992
 40
1.0
 40
1.0
 40
1.0
 40
1.0
 10
230.3335050799733
 20
41.30225343163833
 30
0.0
 10
230.4094358877246
 20
41.34608735392188
 30
0.0
 10
230.5133258471488
 20
41.37274469643108
 30
0.0
 10
230.6740279269811
 20
41.37570055920481
 30
0.0
 10
230.727812727404
 20
41.37054728756887
 30
0.0
 10
230.8275816128466
 20
41.34824878496551
 30
0.0
 10
230.8731338386739
 20
41.33126503366809
 30
0.0
 10
230.9112896787782
 20
41.30923813603159
 30
0.0
  0
LINE
  5
1F7
330
1F
100
AcDbEntity
  8
0
  6
Continuous
 62
     7
370
    15
100
AcDbLine
 10
230.2752582295
 20
41.2686282406
 30
0.0
 11
230.33350508
 21
41.3022534316
 31
0.0
  0
SPLINE
  5
1F8
330
1F
100
AcDbEntity
  8
0
  6
Continuous
 62
     7
370
    15
100
AcDbSpline
210
0.0
220
0.0
230
1.0
 70
     8
 71
     3
 72
     8
 73
     4
 74
     0
 42
0.000000001
 43
0.00000001
 40
0.0
 40
0.0
 40
0.0
 40
0.0
 40
1.0
 40
1.0
 40
1.0
 40
1.0
 10
229.1327817405627
 20
41.08048040213758
 30
0.0
 10
229.5137223913017
 20
41.14296128081051
 30
0.0
 10
229.894560363541
 20
41.20566140294545
 30
0.0
 10
230.2752582295408
 20
41.26862824061595
 30
0.0
  0
LINE
  5
1F9
330
1F
100
AcDbEntity
  8
0
  6
Continuous
 62
     7
370
    15
100
AcDbLine
 10
227.7768301013
 20
41.8632546217
 30
0.0
 11
229.1327817406
 21
41.0804804021
 31
0.0
  0
LINE
  5
1FA
330
1F
100
AcDbEntity
  8
0
  6
Continuous
 62
     7
370
    15
100
AcDbLine
 10
227.7768301013
 20
41.8632546217
 30
0.0
 11
229.7897680684
 21
43.0252989753
 31
0.0
  0
ARC
  5
1FB
330
1F
100
AcDbEntity
  8
0
  6
Continuous
 62
     7
370
    15
100
AcDbCircle
 10
237.5473915929
 20
40.8720961387
 30
0.0
 40
6.491638098026638
100
AcDbArc
 50
194.6012478937
 51
237.8566108853
  0
ELLIPSE
  5
1FC
330
1F
100
AcDbEntity
  8
0
  6
Continuous
 62
     7
370
    15
100
AcDbEllipse
 10
229.5554534934
 20
43.8137985497
 30
0.0
 11
-6.005970385558612E-5
 21
0.8534489614827194
 31
0.0
210
0.0
220
0.0
230
1.0
 40
0.7174342186
 41
3.534193645557408
 42
5.104989972352381
  0
ARC
  5
1FD
330
1F
100
AcDbEntity
  8
0
  6
Continuous
 62
     7
370
    15
100
AcDbCircle
 10
236.8472969654
 20
43.0909163904
 30
0.0
 40
6.820001997501806
100
AcDbArc
 50
195.4975754009
 51
215.5676595165
  0
ARC
  5
1FE
330
1F
100
AcDbEntity
  8
0
  6
Continuous
 62
     7
370
    15
100
AcDbCircle
 10
234.6650200641
 20
42.0683723453
 30
0.0
 40
6.052900154436563
100
AcDbArc
 50
193.32587432
 51
253.507585465
  0
SPLINE
  5
1FF
330
1F
100
AcDbEntity
  8
0
  6
Continuous
 62
     7
370
    15
100
AcDbSpline
210
0.0
220
0.0
230
1.0
 70
     8
 71
     3
 72
     8
 73
     4
 74
     0
 42
0.000000001
 43
0.00000001
 40
0.0000000000000007
 40
0.0000000000000007
 40
0.0000000000000007
 40
0.0000000000000007
 40
0.0011901715795607
 40
0.0011901715795607
 40
0.0011901715795607
 40
0.0011901715795607
 10
229.1327817405636
 20
41.08048040213568
 30
0.0
 10
229.0139846246484
 20
40.94412936582029
 30
0.0
 10
228.8947414504981
 20
40.80839881968667
 30
0.0
 10
228.775094943003
 20
40.67324426986691
 30
0.0
  0
LINE
  5
200
330
1F
100
AcDbEntity
  8
0
  6
Continuous
 62
     7
370
    15
100
AcDbLine
 10
227.337668367
 20
41.60967994
 30
0.0
 11
227.7768301013
 21
41.8632546217
 31
0.0
  0
LINE
  5
201
330
1F
100
AcDbEntity
  8
0
  6
Continuous
 62
     7
370
    15
100
AcDbLine
 10
228.775094943
 20
40.6732442699
 30
0.0
 11
227.4393124776
 21
41.4443750732
 31
0.0
  0
SPLINE
  5
202
330
1F
100
AcDbEntity
  8
0
  6
Continuous
 62
     7
370
    15
100
AcDbSpline
210
0.0
220
0.0
230
1.0
 70
     8
 71
     3
 72
    10
 73
     6
 74
     0
 42
0.000000001
 43
0.00000001
 40
0.0
 40
0.0
 40
0.0
 40
0.0
 40
0.5
 40
0.5
 40
1.0
 40
1.0
 40
1.0
 40
1.0
 10
227.4393124775869
 20
41.44437507317097
 30
0.0
 10
227.41300822521
 20
41.45956019484374
 30
0.0
 10
227.3908101110915
 20
41.48318984577761
 30
0.0
 10
227.3567982246597
 20
41.54063223858751
 30
0.0
 10
227.3449273442536
 20
41.57427051673812
 30
0.0
 10
227.3376683669895
 20
41.60967993998125
 30
0.0
  0
ARC
  5
203
330
1F
100
AcDbEntity
  8
0
  6
Continuous
 62
     7
370
    15
100
AcDbCircle
 10
233.0500633922
 20
42.3615160717
 30
0.0
 40
5.528555434721866
100
AcDbArc
 50
219.07310084
 51
239.7807415056
  0
ELLIPSE
  5
204
330
1F
100
AcDbEntity
  8
0
  6
Continuous
 62
     7
370
    15
100
AcDbEllipse
 10
229.4362146778
 20
43.7449410696
 30
0.0
 11
0.2600075789209484
 21
0.9705436209909378
 31
0.0
210
0.0
220
0.0
230
1.0
 40
0.5176380889
 41
3.619174351347741
 42
5.189970678142646
  0
SPLINE
  5
205
330
1F
100
AcDbEntity
  8
0
  6
Continuous
 62
     7
370
    15
100
AcDbSpline
210
0.0
220
0.0
230
1.0
 70
     8
 71
     3
 72
    12
 73
     8
 74
     0
 42
0.000000001
 43
0.00000001
 40
0.0
 40
0.0
 40
0.0
 40
0.0
 40
0.4999999999999996
 40
0.4999999999999996
 40
0.7499999999999998
 40
0.7499999999999998
 40
1.0
 40
1.0
 40
1.0
 40
1.0
 10
246.8916449147034
 20
64.08454510502298
 30
0.0
 10
246.954088240528
 20
64.1205928697233
 30
0.0
 10
247.0334248457501
 20
64.14625186978111
 30
0.0
 10
247.1642982090912
 20
64.15803562978758
 30
0.0
 10
247.2090705214622
 20
64.15722535758403
 30
0.0
 10
247.2943324374655
 20
64.14367687719668
 30
0.0
 10
247.3337486445839
 20
64.1309122661873
 30
0.0
 10
247.3649883048337
 20
64.11287799419533
 30
0.0
  0
LINE
  5
206
330
1F
100
AcDbEntity
  8
0
  6
Continuous
 62
     7
370
    15
100
AcDbLine
 10
247.3649883048
 20
64.1128779942
 30
0.0
 11
248.5166515703
 21
63.4480369426
 31
0.0
  0
SPLINE
  5
207
330
1F
100
AcDbEntity
  8
0
  6
Continuous
 62
     7
370
    15
100
AcDbSpline
210
0.0
220
0.0
230
1.0
 70
     8
 71
     3
 72
     9
 73
     5
 74
     0
 42
0.000000001
 43
0.00000001
 40
0.0
 40
0.0
 40
0.0
 40
0.0
 40
0.8664449205980815
 40
1.0
 40
1.0
 40
1.0
 40
1.0
 10
250.0837326884785
 20
61.66772308821023
 30
0.0
 10
250.4029093558281
 20
61.73701324035312
 30
0.0
 10
250.7712843785928
 20
61.8169838772576
 30
0.0
 10
251.1416245333103
 20
61.89385293609051
 30
0.0
 10
251.1910853420794
 20
61.90411918934648
 30
0.0
  0
LINE
  5
208
330
1F
100
AcDbEntity
  8
0
  6
Continuous
 62
     7
370
    15
100
AcDbLine
 10
251.1910853421
 20
61.9041191893
 30
0.0
 11
252.544545477
 21
61.1227832846
 31
0.0
  0
SPLINE
  5
209
330
1F
100
AcDbEntity
  8
0
  6
Continuous
 62
     7
370
    15
100
AcDbSpline
210
0.0
220
0.0
230
1.0
 70
     8
 71
     3
 72
    14
 73
    10
 74
     0
 42
0.000000001
 43
0.00000001
 40
0.0
 40
0.0
 40
0.0
 40
0.0
 40
0.25
 40
0.25
 40
0.5
 40
0.5
 40
0.75
 40
0.75
 40
1.0
 40
1.0
 40
1.0
 40
1.0
 10
252.5445454770251
 20
61.12278328464465
 30
0.0
 10
252.5758075651832
 20
61.10473606529686
 30
0.0
 10
252.5980749372794
 20
61.08164674985655
 30
0.0
 10
252.6212283352677
 20
61.03303539658785
 30
0.0
 10
252.6227485052637
 20
61.00703561502274
 30
0.0
 10
252.6093033344927
 20
60.95690268563531
 30
0.0
 10
252.5946038288446
 20
60.93271237052391
 30
0.0
 10
252.552958833869
 20
60.88776192775133
 30
0.0
 10
252.5266465503514
 20
60.86752802066956
 30
0.0
 10
252.4954661556067
 20
60.8495279619255
 30
0.0
  0
LINE
  5
20A
330
1F
100
AcDbEntity
  8
0
  6
Continuous
 62
     7
370
    15
100
AcDbLine
 10
246.8916449147
 20
64.084545105
 30
0.0
 11
246.383724225
 21
63.7913287321
 31
0.0
  0
SPLINE
  5
20B
330
1F
100
AcDbEntity
  8
0
  6
Continuous
 62
     7
370
    15
100
AcDbSpline
210
0.0
220
0.0
230
1.0
 70
     8
 71
     3
 72
    10
 73
     6
 74
     0
 42
0.000000001
 43
0.00000001
 40
0.0
 40
0.0
 40
0.0
 40
0.0
 40
0.4049455747946007
 40
0.8110080307776256
 40
1.0
 40
1.0
 40
1.0
 40
1.0
 10
254.2063600778929
 20
57.7536906978997
 30
0.0
 10
254.2246810068108
 20
57.79261765180335
 30
0.0
 10
254.2613733956369
 20
57.87057892411899
 30
0.0
 10
254.2753820681109
 20
57.97819915017031
 30
0.0
 10
254.2572643507542
 20
58.03141319487155
 30
0.0
 10
254.2515100820083
 20
58.04831421547131
 30
0.0
  0
LINE
  5
20C
330
1F
100
AcDbEntity
  8
0
  6
Continuous
 62
     7
370
    15
100
AcDbLine
 10
254.1009965794
 20
50.9980422301
 30
0.0
 11
252.3641520578
 21
52.0007012302
 31
0.0
  0
ARC
  5
20D
330
1F
100
AcDbEntity
  8
0
  6
Continuous
 62
     7
370
     0
100
AcDbCircle
 10
243.6277175507
 20
45.3220568701
 30
0.0
 40
2.518493486249857
100
AcDbArc
 50
174.4209254684
 51
234.2668941382
  0
LWPOLYLINE
  5
20E
330
1F
100
AcDbEntity
  8
0
  6
Continuous
 62
     7
370
     0
100
AcDbPolyline
 90
       19
 70
   128
 43
0.0
 10
247.1564849745
 20
51.9381679325
 10
246.9393273027
 20
52.0434290815
 10
246.5590965467
 20
52.1474403137
 10
246.1449172676
 20
52.1704437629
 10
245.7041805046
 20
52.1120289321
 10
245.2447512156
 20
51.9732382353
 10
244.774827927
 20
51.7565483957
 10
244.3027964313
 20
51.4658262488
 10
243.8370801415
 20
51.1062597381
 10
243.3859897759
 20
50.6842653365
 10
242.9575750528
 20
50.2073735441
 10
242.5594810431
 20
49.6840945062
 10
242.1988117437
 20
49.1237661497
 10
241.8820033069
 20
48.5363875474
 10
241.6147091867
 20
47.9324404843
 10
241.401699253
 20
47.32270241
 10
241.2467746732
 20
46.718054115
 10
241.1527000801
 20
46.1292855625
 10
241.1211542369
 20
45.5669033411
  0
LWPOLYLINE
  5
20F
330
1F
100
AcDbEntity
  8
0
  6
Continuous
 62
     7
370
     0
100
AcDbPolyline
 90
       39
 70
   128
 43
0.0
 10
264.6147770419
 20
33.4330377791
 10
264.6461200901
 20
33.887925887
 10
264.7392942783
 20
34.3665937463
 10
264.8917580573
 20
34.8559845457
 10
265.0993526128
 20
35.3427489798
 10
265.3564153065
 20
35.813609384
 10
265.6559341381
 20
36.2557219136
 10
265.9897390148
 20
36.6570268915
 10
266.3487246096
 20
37.006577764
 10
266.7230987314
 20
37.2948396945
 10
267.10264943
 20
37.5139496489
 10
267.4770235518
 20
37.6579308789
 10
267.8360091466
 20
37.7228559518
 10
268.1698140233
 20
37.706953881
 10
268.4693328549
 20
37.6106584334
 10
268.7263955486
 20
37.4365962979
 10
268.9339901041
 20
37.1895154357
 10
269.0864538832
 20
36.8761555687
 10
269.1796280713
 20
36.5050643371
 10
269.2109711196
 20
36.0863641425
 10
269.1796280713
 20
35.6314760347
 10
269.0864538832
 20
35.1528081753
 10
268.9339901041
 20
34.663417376
 10
268.7263955486
 20
34.1766529418
 10
268.4693328549
 20
33.7057925377
 10
268.1698140233
 20
33.263680008
 10
267.8360091466
 20
32.8623750301
 10
267.4770235518
 20
32.5128241576
 10
267.10264943
 20
32.2245622272
 10
266.7230987314
 20
32.0054522727
 10
266.3487246096
 20
31.8614710428
 10
265.9897390148
 20
31.7965459698
 10
265.6559341381
 20
31.8124480406
 10
265.3564153065
 20
31.9087434882
 10
265.0993526128
 20
32.0828056238
 10
264.8917580573
 20
32.3298864859
 10
264.7392942783
 20
32.643246353
 10
264.6461200901
 20
33.0143375845
 10
264.6147770419
 20
33.4330377791
  0
LWPOLYLINE
  5
210
330
1F
100
AcDbEntity
  8
0
  6
Continuous
 62
     7
370
     0
100
AcDbPolyline
 90
       19
 70
   128
 43
0.0
 10
267.9524276281
 20
37.3346374852
 10
268.1324895479
 20
37.191838319
 10
268.3112939795
 20
36.9494760373
 10
268.4337885481
 20
36.64329259
 10
268.4960361773
 20
36.283128965
 10
268.4960361773
 20
35.8805611177
 10
268.4337885481
 20
35.4485279097
 10
268.3112939795
 20
35.000915244
 10
268.1324895479
 20
34.5521097598
 10
267.9031221748
 20
34.1165364348
 10
267.6305639163
 20
33.7081949539
 10
267.323575019
 20
33.3402097484
 10
266.9920223589
 20
33.0244081655
 10
266.646562311
 20
32.770940328
 10
266.2982982457
 20
32.5879529007
 10
265.9584236565
 20
32.4813272501
 10
265.6378623924
 20
32.4544904123
 10
265.3469175562
 20
32.5083049454
 10
265.2034035729
 20
32.571514911
  0
LWPOLYLINE
  5
211
330
1F
100
AcDbEntity
  8
0
  6
Continuous
 62
     7
370
     0
100
AcDbPolyline
 90
       26
 70
   128
 43
0.0
 10
232.6188696498
 20
45.8020666874
 10
232.8914509001
 20
46.8925020122
 10
233.2245852127
 20
47.9913065377
 10
233.6163500325
 20
49.0921389414
 10
234.0644844413
 20
50.1886461976
 10
234.5664022059
 20
51.2745002415
 10
235.1192067032
 20
52.3434344891
 10
235.7197076374
 20
53.3892800026
 10
236.3644394509
 20
54.4060010916
 10
237.0496813251
 20
55.3877301462
 10
237.7714786532
 20
56.3288014993
 10
238.5256658631
 20
57.2237841239
 10
239.3078904566
 20
58.0675129761
 10
240.1136381292
 20
58.8551188033
 10
240.9382588217
 20
59.5820562451
 10
241.7769935568
 20
60.244130065
 10
242.6250019035
 20
60.8375193617
 10
243.4773899117
 20
61.3587996198
 10
244.3292383558
 20
61.8049624732
 10
245.1756311242
 20
62.1734330667
 10
246.0116835903
 20
62.4620849157
 10
246.832570803
 20
62.6692521784
 10
247.633555331
 20
62.7937392696
 10
248.4100146041
 20
62.8348277605
 10
249.1574675898
 20
62.7922805248
 10
249.8716006541
 20
62.6663431075
  0
LWPOLYLINE
  5
212
330
1F
100
AcDbEntity
  8
0
  6
Continuous
 62
     7
370
     0
100
AcDbPolyline
 90
       26
 70
   128
 43
0.0
 10
232.9792027753
 20
45.4724431339
 10
233.2368858757
 20
46.5574312128
 10
233.5563807931
 20
47.6523410203
 10
233.9357811378
 20
48.7506393546
 10
234.3728230713
 20
49.8457727952
 10
234.8648988144
 20
50.9312068059
 10
235.4090722072
 20
52.0004647261
 10
236.0020962295
 20
53.047166416
 10
236.6404323745
 20
54.0650663262
 10
237.3202717635
 20
55.0480907642
 10
238.0375578726
 20
55.9903741356
 10
238.7880107375
 20
56.8862939433
 10
239.5671524917
 20
57.730504336
 10
240.3703340855
 20
58.517968007
 10
241.192763026
 20
59.2439862504
 10
242.0295319738
 20
59.9042269984
 10
242.8756480241
 20
60.4947506698
 10
243.7260624993
 20
61.0120336775
 10
244.5757010733
 20
61.4529894528
 10
245.4194940498
 20
61.8149868631
 10
246.2524066127
 20
62.0958659111
 10
247.0694688678
 20
62.2939506237
 10
247.8658054981
 20
62.408059052
 10
248.6366648538
 20
62.4375103241
 10
249.3774473054
 20
62.3821287076
 10
250.0837326885
 20
62.2422446582
  0
ARC
  5
213
330
1F
100
AcDbEntity
  8
0
  6
Continuous
 62
     7
370
     0
100
AcDbCircle
 10
232.0026009498
 20
55.6803210719
 30
0.0
 40
22.70471628426118
100
AcDbArc
 50
341.0108496917
 51
347.9418229554
  0
LWPOLYLINE
  5
214
330
1F
100
AcDbEntity
  8
0
  6
Continuous
 62
     7
370
     0
100
AcDbPolyline
 90
       25
 70
   128
 43
0.0
 10
248.4721376596
 20
39.6319651931
 10
248.4648497976
 20
39.6236062653
 10
247.695586739
 20
38.7831686934
 10
246.9023404024
 20
37.9979399063
 10
246.0897514451
 20
37.272513657
 10
245.2625736827
 20
36.6111338412
 10
244.4256462787
 20
36.0176696694
 10
243.5838654337
 20
35.4955930313
 10
242.7421557421
 20
35.0479581847
 10
241.905441382
 20
34.6773838874
 10
241.0786173078
 20
34.3860380766
 10
240.2665206135
 20
34.1756251863
 10
239.4739022352
 20
34.0473761761
 10
238.7053991564
 20
34.0020413295
 10
237.9655072812
 20
34.039885865
 10
237.2585551321
 20
34.1606883841
 10
236.5886785274
 20
34.3637421666
 10
235.9597963857
 20
34.6478593054
 10
235.3755877993
 20
35.0113776558
 10
234.8394705107
 20
35.4521705591
 10
234.3545809187
 20
35.9676592845
 10
233.9237557288
 20
36.5548281149
 10
233.5495153588
 20
37.2102419895
 10
233.2340491932
 20
37.9300665999
 10
232.9792027753
 20
38.7100908213
  0
ARC
  5
215
330
1F
100
AcDbEntity
  8
0
  6
Continuous
 62
     7
370
     0
100
AcDbCircle
 10
247.4076020802
 20
56.0170779209
 30
0.0
 40
7.017045977378589
100
AcDbArc
 50
14.3287300663
 51
43.5251561868
  0
LWPOLYLINE
  5
216
330
1F
100
AcDbEntity
  8
0
  6
Continuous
 62
     7
370
     0
100
AcDbPolyline
 90
       27
 70
   128
 43
0.0
 10
238.9998338934
 20
45.5669033411
 10
239.0320941383
 20
46.2132634456
 10
239.12842201
 20
46.8877969571
 10
239.2874652763
 20
47.5810349036
 10
239.5069913183
 20
48.2832457441
 10
239.7839184716
 20
48.9845719774
 10
240.1143592861
 20
49.6751685207
 10
240.493675097
 20
50.3453409123
 10
240.9165411418
 20
50.9856814008
 10
241.3770213081
 20
51.5872010095
 10
241.8686514639
 20
52.1414557215
 10
242.3845301994
 20
52.6406650157
 10
242.917415708
 20
53.0778210878
 10
243.4598274453
 20
53.4467872249
 10
244.0041511393
 20
53.7423839511
 10
244.5427456787
 20
53.9604617364
 10
245.0680503767
 20
54.0979592468
 10
245.5726911068
 20
54.1529463185
 10
246.0495838194
 20
54.1246510536
 10
246.4920339862
 20
54.0134706557
 10
246.8938305766
 20
53.8209658537
 10
247.2493332474
 20
53.5498389931
 10
247.5535515201
 20
53.2038961008
 10
247.8022148373
 20
52.7879934567
 10
247.9918325109
 20
52.3079694221
 10
248.1197427246
 20
51.7705624823
 10
248.1726495191
 20
51.3515486275
  0
LWPOLYLINE
  5
217
330
1F
100
AcDbEntity
  8
0
  6
Continuous
 62
     7
370
     0
100
AcDbPolyline
 90
       14
 70
   128
 43
0.0
 10
243.1730558559
 20
42.6910600037
 10
242.917415708
 20
42.5791292797
 10
242.3845301994
 20
42.4010288397
 10
241.8686514639
 20
42.304617224
 10
241.3770213081
 20
42.2912478404
 10
240.9165411418
 20
42.3611083656
 10
240.493675097
 20
42.5132181111
 10
240.1143592861
 20
42.7454417894
 10
239.7839184716
 20
43.0545194892
 10
239.5069913183
 20
43.436112437
 10
239.2874652763
 20
43.8848639044
 10
239.12842201
 20
44.3944744043
 10
239.0320941383
 20
44.9577901225
 10
238.9998338934
 20
45.5669033411
  0
LWPOLYLINE
  5
218
330
1F
100
AcDbEntity
  8
0
  6
Continuous
 62
     7
370
     0
100
AcDbPolyline
 90
       26
 70
   128
 43
0.0
 10
227.4393124776
 20
48.792161397
 10
227.7118937279
 20
49.8825967217
 10
228.0450280405
 20
50.9814012472
 10
228.4367928603
 20
52.082233651
 10
228.8849272691
 20
53.1787409072
 10
229.3868450337
 20
54.264594951
 10
229.9396495311
 20
55.3335291987
 10
230.5401504652
 20
56.3793747121
 10
231.1848822787
 20
57.3960958012
 10
231.8701241529
 20
58.3778248558
 10
232.5919214811
 20
59.3188962088
 10
233.3461086909
 20
60.2138788334
 10
234.1283332844
 20
61.0576076856
 10
234.934080957
 20
61.8452135129
 10
235.7587016495
 20
62.5721509547
 10
236.5974363846
 20
63.2342247746
 10
237.4454447313
 20
63.8276140712
 10
238.2978327395
 20
64.3488943293
 10
239.1496811837
 20
64.7950571827
 10
239.996073952
 20
65.1635277762
 10
240.8321264181
 20
65.4521796252
 10
241.6530136308
 20
65.6593468879
 10
242.4539981588
 20
65.7838339791
 10
243.2304574319
 20
65.82492247
 10
243.9779104176
 20
65.7823752344
 10
244.6920434819
 20
65.656437817
  0
LWPOLYLINE
  5
219
330
1F
100
AcDbEntity
  8
0
  6
Continuous
 62
     7
370
     0
100
AcDbPolyline
 90
       21
 70
   128
 43
0.0
 10
230.9112896788
 20
47.8823916717
 10
231.1681740147
 20
48.8925311397
 10
231.4837017385
 20
49.9101522089
 10
231.8558669642
 20
50.9287856171
 10
232.282303748
 20
51.9419556662
 10
232.7603011285
 20
52.9432213901
 10
233.2868203611
 20
53.9262175013
 10
233.8585142361
 20
54.8846948567
 10
234.471748358
 20
55.8125601848
 10
235.1226242495
 20
56.7039148222
 10
235.8070041359
 20
57.5530922126
 10
236.5205372493
 20
58.3546939308
 10
237.2586874878
 20
59.1036240014
 10
238.0167622524
 20
59.7951212957
 10
238.7899422793
 20
60.4247897986
 10
239.5733122766
 20
60.9886265558
 10
240.3618921726
 20
61.4830471212
 10
241.1506687749
 20
61.904908344
 10
241.9346276405
 20
62.2515283509
 10
242.708784954
 20
62.520703595
 10
243.0213113152
 20
62.6080324366
  0
LWPOLYLINE
  5
21A
330
1F
100
AcDbEntity
  8
0
  6
Continuous
 62
     7
370
     0
100
AcDbPolyline
 90
       24
 70
   128
 43
0.0
 10
230.33350508
 20
47.8754069673
 10
230.589082671
 20
48.9050978366
 10
230.9042483054
 20
49.9430975521
 10
231.2770294714
 20
50.9829096361
 10
231.705093062
 20
52.0180262679
 10
232.1857599767
 20
53.0419690141
 10
232.716021889
 20
54.0483293746
 10
233.292560075
 20
55.0308088914
 10
233.9117661834
 20
55.9832585684
 10
234.5697648195
 20
56.8997173557
 10
235.2624377996
 20
57.7744494578
 10
235.9854499256
 20
58.601980232
 10
236.7342761169
 20
59.3771304522
 10
237.5042297321
 20
60.095048724
 10
238.2904919003
 20
60.7512418476
 10
239.0881416813
 20
61.3416029395
 10
239.8921868636
 20
61.8624371356
 10
240.6975952094
 20
62.3104847168
 10
241.499325949
 20
62.6829415097
 10
242.2923613298
 20
62.9774764374
 10
243.0717380203
 20
63.1922461085
 10
243.832578174
 20
63.3259063547
 10
244.5701199581
 20
63.3776206433
 10
245.0944235723
 20
63.3631902705
  0
LINE
  5
21B
330
1F
100
AcDbEntity
  8
0
  6
Continuous
 62
     7
370
     0
100
AcDbLine
 10
235.6057213437
 20
46.240867991
 30
0.0
 11
235.0399439715
 21
46.5674843158
 31
0.0
  0
LWPOLYLINE
  5
21C
330
1F
100
AcDbEntity
  8
0
  6
Continuous
 62
     7
370
     0
100
AcDbPolyline
 90
        3
 70
   128
 43
0.0
 10
229.9230567449
 20
46.9203025053
 10
229.9223505899
 20
47.041540493
 10
229.9472700644
 20
47.7779992278
  0
LINE
  5
21D
330
1F
100
AcDbEntity
  8
0
  6
Continuous
 62
     7
370
     0
100
AcDbLine
 10
230.1211389183
 20
44.1403617944
 30
0.0
 11
235.6057213437
 21
40.9741797544
 31
0.0
  0
LINE
  5
21E
330
1F
100
AcDbEntity
  8
0
  6
Continuous
 62
     7
370
     0
100
AcDbLine
 10
230.0019001028
 20
44.0715043143
 30
0.0
 11
230.1211389183
 21
44.1403617944
 31
0.0
  0
LWPOLYLINE
  5
21F
330
1F
100
AcDbEntity
  8
0
  6
Continuous
 62
     7
370
     0
100
AcDbPolyline
 90
       20
 70
   128
 43
0.0
 10
208.6504677315
 20
63.3335038704
 10
208.6824238792
 20
63.9620109076
 10
208.7778263296
 20
64.6182486796
 10
208.9352839003
 20
65.2926477621
 10
209.1525005053
 20
65.9753738978
 10
209.4263086373
 20
66.6564714024
 10
209.7527155572
 20
67.3260083404
 10
210.1269615171
 20
67.9742213556
 10
210.5435891683
 20
68.5916580427
 10
210.9965231413
 20
69.1693147844
 10
211.479158639
 20
69.6987680447
 10
211.9844577489
 20
70.1722972027
 10
212.5050520723
 20
70.5829971371
 10
213.0333501716
 20
70.924878918
 10
213.5616482708
 20
71.1929571391
 10
214.0822425942
 20
71.3833226165
 10
214.5875417041
 20
71.4931993926
 10
215.0701772018
 20
71.5209852168
 10
215.5231111748
 20
71.4662749092
 10
215.7961039266
 20
71.3876467706
  0
ARC
  5
220
330
1F
100
AcDbEntity
  8
0
  6
Continuous
 62
     7
370
     0
100
AcDbCircle
 10
211.9734179193
 20
63.0796455365
 30
0.0
 40
3.33263289376537
100
AcDbArc
 50
175.6313478108
 51
225.349818566
  0
ARC
  5
221
330
1F
100
AcDbEntity
  8
0
  6
Continuous
 62
     7
370
     0
100
AcDbCircle
 10
239.6599644967
 20
40.4498519979
 30
0.0
 40
7.318423518160438
100
AcDbArc
 50
195.8236739665
 51
218.9163302873
  0
LINE
  5
222
330
1F
100
AcDbEntity
  8
0
  6
Continuous
 62
     7
370
     0
100
AcDbLine
 10
235.0400359187
 20
39.9943838601
 30
0.0
 11
229.7897680684
 21
43.0252989753
 31
0.0
  0
LINE
  5
223
330
1F
100
AcDbEntity
  8
0
  6
Continuous
 62
     7
370
     0
100
AcDbLine
 10
231.7745012541
 20
40.61385696
 30
0.0
 11
231.6961782059
 21
40.856131634
 31
0.0
  0
LWPOLYLINE
  5
224
330
1F
100
AcDbEntity
  8
0
  6
Continuous
 62
     7
370
     0
100
AcDbPolyline
 90
        3
 70
   128
 43
0.0
 10
231.4124068296
 20
40.0748641378
 10
231.1688759805
 20
40.5940153802
 10
230.9112896788
 20
41.309238136
  0
ARC
  5
225
330
1F
100
AcDbEntity
  8
0
  6
Continuous
 62
     7
370
     0
100
AcDbCircle
 10
237.0386232624
 20
43.2065821714
 30
0.0
 40
6.970299691512855
100
AcDbArc
 50
195.8551408698
 51
214.0479672439
  0
ARC
  5
226
330
1F
100
AcDbEntity
  8
0
  6
Continuous
 62
     7
370
     0
100
AcDbCircle
 10
234.4959847989
 20
43.4462415007
 30
0.0
 40
7.335127363860932
100
AcDbArc
 50
195.8378013933
 51
218.5320738678
  0
LINE
  5
227
330
1F
100
AcDbEntity
  8
0
  6
Continuous
 62
     7
370
     0
100
AcDbLine
 10
252.3641520653
 20
50.6485097151
 30
0.0
 11
252.9298374828
 21
50.3219464747
 31
0.0
  0
LINE
  5
228
330
1F
100
AcDbEntity
  8
0
  6
Continuous
 62
     7
370
     0
100
AcDbLine
 10
263.8899935971
 20
39.3628313339
 30
0.0
 11
263.9736704026
 21
39.3187192036
 31
0.0
  0
LINE
  5
229
330
1F
100
AcDbEntity
  8
0
  6
Continuous
 62
     7
370
     0
100
AcDbLine
 10
265.7315808958
 20
39.4093469055
 30
0.0
 11
265.9027196817
 21
39.5631674585
 31
0.0
  0
LWPOLYLINE
  5
22A
330
1F
100
AcDbEntity
  8
0
  6
Continuous
 62
     7
370
     0
100
AcDbPolyline
 90
       18
 70
   128
 43
0.0
 10
265.9025192261
 20
39.5631674585
 10
266.0056998672
 20
39.750478353
 10
266.0173237128
 20
39.9468811473
 10
265.9367244917
 20
40.1378122549
 10
265.7698835577
 20
40.3091090968
 10
265.5291723691
 20
40.4480687081
 10
265.2324427505
 20
40.5443854499
 10
264.9017071695
 20
40.5909128692
 10
264.5614880536
 20
40.5842040866
 10
264.2370209108
 20
40.5247548909
 10
263.9523726873
 20
40.4169728413
 10
263.7286496782
 20
40.2688543936
 10
263.5824456975
 20
40.0913840599
 10
263.5246054041
 20
39.8977231679
 10
263.5594167665
 20
39.7022357745
 10
263.6843008421
 20
39.5194184615
 10
263.8899935971
 20
39.3628313339
 10
263.8899935971
 20
39.3628313339
  0
OLE2FRAME
  5
22B
330
1F
100
AcDbEntity
  8
0
100
AcDbOle2Frame
 70
     2
  3
Paintbrush-Bild
 10
13.8511154363
 20
38.264191557
 30
0.0
 11
51.6290888628
 21
31.9806341108
 31
0.0
 71
     2
 72
     0
 73
     1
 90
    12928
310
80552BED0767C5B32B40DDAF6807D121434000000000000000006FFBDDFB85D0
310
4940DDAF6807D121434000000000000000006FFBDDFB85D04940416F4BD60AFB
310
3F4000000000000000002BED0767C5B32B40416F4BD60AFB3F40000000000000
310
0000000000000100000000010000010000000100000000000100000000320000
310
D0CF11E0A1B11AE1000000000000000000000000000000003E000300FEFF0900
310
0600000000000000000000000100000001000000000000000010000002000000
310
01000000FEFFFFFF0000000000000000FFFFFFFFFFFFFFFFFFFFFFFFFFFFFFFF
310
FFFFFFFFFFFFFFFFFFFFFFFFFFFFFFFFFFFFFFFFFFFFFFFFFFFFFFFFFFFFFFFF
310
FFFFFFFFFFFFFFFFFFFFFFFFFFFFFFFFFFFFFFFFFFFFFFFFFFFFFFFFFFFFFFFF
310
FFFFFFFFFFFFFFFFFFFFFFFFFFFFFFFFFFFFFFFFFFFFFFFFFFFFFFFFFFFFFFFF
310
FFFFFFFFFFFFFFFFFFFFFFFFFFFFFFFFFFFFFFFFFFFFFFFFFFFFFFFFFFFFFFFF
310
FFFFFFFFFFFFFFFFFFFFFFFFFFFFFFFFFFFFFFFFFFFFFFFFFFFFFFFFFFFFFFFF
310
FFFFFFFFFFFFFFFFFFFFFFFFFFFFFFFFFFFFFFFFFFFFFFFFFFFFFFFFFFFFFFFF
310
FFFFFFFFFFFFFFFFFFFFFFFFFFFFFFFFFFFFFFFFFFFFFFFFFFFFFFFFFFFFFFFF
310
FFFFFFFFFFFFFFFFFFFFFFFFFFFFFFFFFFFFFFFFFFFFFFFFFFFFFFFFFFFFFFFF
310
FFFFFFFFFFFFFFFFFFFFFFFFFFFFFFFFFFFFFFFFFFFFFFFFFFFFFFFFFFFFFFFF
310
FFFFFFFFFFFFFFFFFFFFFFFFFFFFFFFFFFFFFFFFFFFFFFFFFFFFFFFFFFFFFFFF
310
FFFFFFFFFFFFFFFFFFFFFFFFFFFFFFFFFFFFFFFFFFFFFFFFFFFFFFFFFFFFFFFF
310
FFFFFFFFFFFFFFFFFFFFFFFFFFFFFFFFFFFFFFFFFFFFFFFFFFFFFFFFFFFFFFFF
310
FFFFFFFFFFFFFFFFFFFFFFFFFFFFFFFFFFFFFFFFFFFFFFFFFFFFFFFFFFFFFFFF
310
FDFFFFFFFEFFFFFFFEFFFFFFFEFFFFFF05000000060000000700000008000000
310
090000000A0000000B0000000C0000000D0000000E0000000F00000010000000
310
11000000120000001300000014000000150000001600000017000000FEFFFFFF
310
FFFFFFFFFFFFFFFFFFFFFFFFFFFFFFFFFFFFFFFFFFFFFFFFFFFFFFFFFFFFFFFF
310
FFFFFFFFFFFFFFFFFFFFFFFFFFFFFFFFFFFFFFFFFFFFFFFFFFFFFFFFFFFFFFFF
310
FFFFFFFFFFFFFFFFFFFFFFFFFFFFFFFFFFFFFFFFFFFFFFFFFFFFFFFFFFFFFFFF
310
FFFFFFFFFFFFFFFFFFFFFFFFFFFFFFFFFFFFFFFFFFFFFFFFFFFFFFFFFFFFFFFF
310
FFFFFFFFFFFFFFFFFFFFFFFFFFFFFFFFFFFFFFFFFFFFFFFFFFFFFFFFFFFFFFFF
310
FFFFFFFFFFFFFFFFFFFFFFFFFFFFFFFFFFFFFFFFFFFFFFFFFFFFFFFFFFFFFFFF
310
FFFFFFFFFFFFFFFFFFFFFFFFFFFFFFFFFFFFFFFFFFFFFFFFFFFFFFFFFFFFFFFF
310
FFFFFFFFFFFFFFFFFFFFFFFFFFFFFFFFFFFFFFFFFFFFFFFFFFFFFFFFFFFFFFFF
310
FFFFFFFFFFFFFFFFFFFFFFFFFFFFFFFFFFFFFFFFFFFFFFFFFFFFFFFFFFFFFFFF
310
FFFFFFFFFFFFFFFFFFFFFFFFFFFFFFFFFFFFFFFFFFFFFFFFFFFFFFFFFFFFFFFF
310
FFFFFFFFFFFFFFFFFFFFFFFFFFFFFFFFFFFFFFFFFFFFFFFFFFFFFFFFFFFFFFFF
310
FFFFFFFFFFFFFFFFFFFFFFFFFFFFFFFFFFFFFFFFFFFFFFFFFFFFFFFFFFFFFFFF
310
FFFFFFFFFFFFFFFFFFFFFFFFFFFFFFFFFFFFFFFFFFFFFFFFFFFFFFFFFFFFFFFF
310
52006F006F007400200045006E00740072007900000000000000000000000000
310
0000000000000000000000000000000000000000000000000000000000000000
310
16000500FFFFFFFFFFFFFFFF020000000A00030000000000C000000000000046
310
000000000000000000000000D0B44C476224D20103000000C000000000000000
310
01004F006C006500000000000000000000000000000000000000000000000000
310
0000000000000000000000000000000000000000000000000000000000000000
310
0A000200FFFFFFFFFFFFFFFFFFFFFFFF00000000000000000000000000000000
310
0000000000000000000000000000000000000000000000001400000000000000
310
010043006F006D0070004F0062006A0000000000000000000000000000000000
310
0000000000000000000000000000000000000000000000000000000000000000
310
120002010100000003000000FFFFFFFF00000000000000000000000000000000
310
0000000000000000000000000000000000000000010000004D00000000000000
310
01004F006C006500310030004E00610074006900760065000000000000000000
310
0000000000000000000000000000000000000000000000000000000000000000
310
1A000200FFFFFFFFFFFFFFFFFFFFFFFF00000000000000000000000000000000
310
0000000000000000000000000000000000000000040000002426000000000000
310
FEFFFFFF02000000FEFFFFFFFFFFFFFFFFFFFFFFFFFFFFFFFFFFFFFFFFFFFFFF
310
FFFFFFFFFFFFFFFFFFFFFFFFFFFFFFFFFFFFFFFFFFFFFFFFFFFFFFFFFFFFFFFF
310
FFFFFFFFFFFFFFFFFFFFFFFFFFFFFFFFFFFFFFFFFFFFFFFFFFFFFFFFFFFFFFFF
310
FFFFFFFFFFFFFFFFFFFFFFFFFFFFFFFFFFFFFFFFFFFFFFFFFFFFFFFFFFFFFFFF
310
FFFFFFFFFFFFFFFFFFFFFFFFFFFFFFFFFFFFFFFFFFFFFFFFFFFFFFFFFFFFFFFF
310
FFFFFFFFFFFFFFFFFFFFFFFFFFFFFFFFFFFFFFFFFFFFFFFFFFFFFFFFFFFFFFFF
310
FFFFFFFFFFFFFFFFFFFFFFFFFFFFFFFFFFFFFFFFFFFFFFFFFFFFFFFFFFFFFFFF
310
FFFFFFFFFFFFFFFFFFFFFFFFFFFFFFFFFFFFFFFFFFFFFFFFFFFFFFFFFFFFFFFF
310
FFFFFFFFFFFFFFFFFFFFFFFFFFFFFFFFFFFFFFFFFFFFFFFFFFFFFFFFFFFFFFFF
310
FFFFFFFFFFFFFFFFFFFFFFFFFFFFFFFFFFFFFFFFFFFFFFFFFFFFFFFFFFFFFFFF
310
FFFFFFFFFFFFFFFFFFFFFFFFFFFFFFFFFFFFFFFFFFFFFFFFFFFFFFFFFFFFFFFF
310
FFFFFFFFFFFFFFFFFFFFFFFFFFFFFFFFFFFFFFFFFFFFFFFFFFFFFFFFFFFFFFFF
310
FFFFFFFFFFFFFFFFFFFFFFFFFFFFFFFFFFFFFFFFFFFFFFFFFFFFFFFFFFFFFFFF
310
FFFFFFFFFFFFFFFFFFFFFFFFFFFFFFFFFFFFFFFFFFFFFFFFFFFFFFFFFFFFFFFF
310
FFFFFFFFFFFFFFFFFFFFFFFFFFFFFFFFFFFFFFFFFFFFFFFFFFFFFFFFFFFFFFFF
310
FFFFFFFFFFFFFFFFFFFFFFFFFFFFFFFFFFFFFFFFFFFFFFFFFFFFFFFFFFFFFFFF
310
0100000200000000000000000000000000000000000000000000000000000000
310
0000000000000000000000000000000000000000000000000000000000000000
310
0100FEFF030A0000FFFFFFFF0A00030000000000C00000000000004607000000
310
5042727573680007000000504272757368000700000050427275736800F439B2
310
7100000000000000000000000000000000000000000000000000000000000000
310
0000000000000000000000000000000000000000000000000000000000000000
310
0000000000000000000000000000000000000000000000000000000000000000
310
0000000000000000000000000000000000000000000000000000000000000000
310
0000000000000000000000000000000000000000000000000000000000000000
310
0000000000000000000000000000000000000000000000000000000000000000
310
0000000000000000000000000000000000000000000000000000000000000000
310
0000000000000000000000000000000000000000000000000000000000000000
310
0000000000000000000000000000000000000000000000000000000000000000
310
0000000000000000000000000000000000000000000000000000000000000000
310
0000000000000000000000000000000000000000000000000000000000000000
310
0000000000000000000000000000000000000000000000000000000000000000
310
20260000424D0E260000000000003E00000028000000B40200006E0000000100
310
01000000000000000000130B0000130B00000200000002000000000000FFFFFF
310
FFFFFFFFFFFFFFFFFFFFFFFFFFFFFFFFFFFFFFFFFFFFFFFFFFFFFFFFFFFFFFFF
310
FFFFFFFFFFFFFFFFFFFFFFFFFFFFFFFFFFFFFFFFFFFFFFFFFFFFFFFFFFFFFFFF
310
FFFFFFFFFFFFFFFFFFFFFFFFFFFFFFFFFFFFFFFFFFFFFFFFF000FFFFFFFFFFFF
310
FFFFFFFFFFFFFFFFFFFFFFFFFFFFFFFFFFFFFFFFFFFFFFFFFFFFFFFFFFFFFFFF
310
FFFFFFFFFFFFFFFFFFFFFFFFFFFFFFFFFFFFFFFFFFFFFFFFFFFFFFFFFFFFFFFF
310
FFFFFFFFFFFFFFFFFFFFFFFFFFFFFFFFF000FFFFFFFFFFFFFFFFFFFFFFFFFFFF
310
FFFFFFFFFFFFFFFFFFFFFFFFFFFFFFFFFFFFFFFFFFFFFFFFFFFFFFFFFFFFFFFF
310
FFFFFFFFFFFFFFFFFFFFFFFFFFFFFFFFFFFFFFFFFFFFFFFFFFFFFFFFFFFFFFFF
310
FFFFFFFFFFFFFFFFF000FFFFFFFFFFFFFFFFFFFFFFFFFFFFFFFFFFFFFFFFFFFF
310
FFFFFFFFFFFFFFFFFFFFFFFFFFFFFFFFFFFFFFFFFFFFFFFFFFFFFFFFFFFFFFFF
310
FFFFFFFFFFFFFFFFFFFFFFFFFFFFFFFFFFFFFFFFFFFFFFFFFFFFFFFFFFFFFFFF
310
F000FFFFFFFFFFFFFFFFFFFFFFFFFFFFFFFFFFFFFFFFFFFFFFFFFFFFFFFFFFFF
310
FFFFFFFFFFFFFFFFFFFFFFFFFFFFFFFFFFFFFFFFFFFFFFFFFFFFFFFFFFFFFFFF
310
FFFFFFFFFFFFFFFFFFFFFFFFFFFFFFFFFFFFFFFFFFFFFFFFF000FFFFFFFFFFFF
310
FFFFFFFFFFFFFFFFFFFFFFFFFFFFFFFFFFFFFFFFFFFFFFFFFFFFFFFFFFFFFFFF
310
FFFFFFFFFFFFFFFFFFFFFFFFFFFFFFFFFFFFFFFFFFFFFFFFFFFFFFFFFFFFFFFF
310
FFFFFFFFFFFFFFFFFFFFFFFFFFFFFFFFF000FFFFFFFFFFFFFFFFFFFFFFFFFFFF
310
FFFFFFFFFFFFFFFFFFFFFFFFFFFFFFFFFFFFFFFFFFFFFFFFFFFFFFFFFFFFFFFF
310
FFFFFFFFFFFFFFFFFFFFFFFFFFFFFFFFFFFFFFFFFFFFFFFFFFFFFFFFFFFFFFFF
310
FFFFFFFFFFFFFFFFF000FFFFFFFFFFFFFFFFFFFFFFFFFFFFFFFFFFFFFFFFFFFF
310
FFFFFFFFFFFFFFFFFFFFFFFFFFFFFFFFFFFFFFFFFFFFFFFFFFFFFFFFFFFFFFFF
310
FFFFFFFFFFFFFFFFFFFFFFFFFFFFFFFFFFFFFFFFFFFFFFFFFFFFFFFFFFFFFFFF
310
F000FFFFFFFFFFFFFFFFFFFFFFFFFFFFFFFFFFFFFFFFFFFFFFFFFFFFFFFFFFFF
310
FFFFFFFFFFFFFFFFFFFFFFFFFFFFFFFFFFFFFFFFFFFFFFFFFFFFFFFFFFFFFFFF
310
FFFFFFFFFFFFFFFFFFFFFFFFFFFFFFFFFFFFFFFFFFFFFFFFF000FFFFFFFFFFFF
310
FFFFFFFFFFFFFFFFFFFFFFFFFFFFFFFFFFFFFFFFFFFFFFFFFFFFFFFFFFFFFFFF
310
FFFFFFFFFFFFFFFFFFFFFFFFFFFFFFFFFFFFFFFFFFFFFFFFFFFFFFFFFFFFFFFF
310
FFFFFFFFFFFFFFFFFFFFFFFFFFFFFFFFF000FFFFFFFFFFFFFFFFFFFFFFFFFFFF
310
FFFFFFFFFFFFFFFFFFFFFFFFFFFFFFFFFFFFFFFFFFFFFFFFFFFFFFFFFFFFFFFF
310
FFFFFFFFFFFFFFFFFFFFFFFFFFFFFFFFFFFFFFFFFFFFFFFFFFFFFFFFFFFFFFFF
310
FFFFFFFFFFFFFFFFF000FFFFFFFFFFFFFFFFFFFFFFFFFFFFFFFFFFFFFFFFFFFF
310
FFFFFFFFFFFFFFFFFFFFFFFFFFFFFFFFFFFFFFFFFFFFFFFFFFFFFFFFFFFFFFFF
310
FFFFFFFFFFFFFFFFFFFFFFFFFFFFFFFFFFFFFFFFFFFFFFFFFFFFFFFFFFFFFFFF
310
F000FFFFFFFFFFFFFFFFFFFFFFFFFFFFFFFFFFFFFFFFFFFFFFFFFFFFFFFFFFFF
310
FFFFFFFFFFFFFFFFFFFFFFFFFFFFFFFFFFFFFFFFFFFFFFFFFFFFFFFFFFFFFFFF
310
FFFFFFFFFFFFFFFFFFFFFFFFFFFFFFFFFFFFFFFFFFFFFFFFF000FFFFFFFFFFFF
310
FFFFFFFFFFFFFFFFFFFFFFFFFFFFFFFFFFFFFFFFFFFFFFFFFFFFFFFFFFFFFFFF
310
FFFFFFFFFFFFFFFFFFFFFFFFFFFFFFFFFFFFFFFFFFFFFFFFFFFFFFFFFFFFFFFF
310
FFFFFFFFFFFFFFFFFFFFFFFFFFFFFFFFF000FFFFFFFFFFFFFFFFFFFFFFFFFFFF
310
FFFFFFFFFFFFFFFFFFFFFFFFFFFFFFFFFFFFFFFFFFFFFFFFFFFFFFFFFFFFFFFF
310
FFFFFFFFFFFFFFFFFFFFFFFFFFFFFFFFFFFFFFFFFFFFFFFFFFFFFFFFFFFFFFFF
310
FFFFFFFFFFFFFFFFF000FFFFFFFFFFFFFFFFFFFFFFFFFFFFFFFFFFFFFFFFFFFF
310
FFFFFFFFFFFFFFFFFFFFFFFFFFFFFFFFFFFFFFFFFFFFFFFFFFFFFFFFFFFFFFFF
310
FFFFFFFFFFFFFFFFFFFFFFFFFFFFFFFFFFFFFFFFFFFFFFFFFFFFFFFFFFFFFFFF
310
F000FFFFFFFFFFFFFFFFFFFFFFFFFFFFFFFFFFFFFFFFFFFFFFFFFFFFFFFFFFFF
310
FFFFFFFFFFFFFFFFFFFFFFFFFFFFFFFFFFFFFFFFFFFFFFFFFFFFFFFFFFFFFFFF
310
FFFFFFFFFFFFFFFFFFFFFFFFFFFFFFFFFFFFFFFFFFFFFFFFF000FFFFFFFFFFFF
310
FFFFFFFFFFFFFFFFFFFFFFFFFFFFFFFFFFFFFFFFFFFFFFFFFFFFFFFFFFFFFFFF
310
FFFFFFFFFFFFFFFFFFFFFFFFFFFFFFFFFFFFFFFFFFFFFFFFFFFFFFFFFFFFFFFF
310
FFFFFFFFFFFFFFFFFFFFFFFFFFFFFFFFF000FFFFFFFFFFFFFFFFFFFFFFFFFFFF
310
FFFFFFFFFFFFFFFFFFFFFFFFFFFFFFFFFFFFFFFFFFFFFFFFFFFFFFFFFFFFFFFF
310
FFFFFFFFFFFFFFFFFFFFFFFFFFFFFFFFFFFFFFFFFFFFFFFFFFFFFFFFFFFFFFFF
310
FFFFFFFFFFFFFFFFF000FFFFF80003FFFFFFFFFFFFFFFFFFFFFFFFFFFFFFFFFF
310
FFFFF00007FFFFFFFFFF00007FFFFFF800000000000000007FFFFFFFFFFFFFFF
310
FFFFFFFC001FFFFFFFFFFFFFFC001FFFFFFFFFFFFFFFFFFFFFFFFFFE0007FFFF
310
F000FFFF8000007FFFFFFFF8000FFFFFC0007FFFFF80007FFFFF0000007FFFFF
310
FFF8000007FFFFF800000000000000007FFFFFF0001FFFFFFFFFFFC00001FFFF
310
FFFFFFFFC00001FFFFFFFF000000000003FFFFE000007FFFF000FFFE0000000F
310
FFFFFFF0000FFFFF80007FFFFF80007FFFFC0000001FFFFFFFC0000001FFFFF8
310
00000000000000007FFFFFF0001FFFFFFFFFFE0000003FFFFFFFFFFE0000003F
310
FFFFFF000000000003FFFF0000000FFFF000FFF800000003FFFFFFF00007FFFF
310
80007FFFFF80007FFFF000000007FFFFFF000000003FFFF80000000000000000
310
7FFFFFF0001FFFFFFFFFF80000000FFFFFFFFFF80000000FFFFFFF0000000000
310
03FFFC00000003FFF000FFE000000000FFFFFFF00007FFFF80003FFFFF80007F
310
FFC000000001FFFFFC000000001FFFF800000000000000007FFFFFF0001FFFFF
310
FFFFE000000003FFFFFFFFE000000003FFFFFF000000000003FFF000000000FF
310
F000FF80000000007FFFFFF00007FFFF80003FFFFF80007FFF8000000000FFFF
310
F80000000007FFF800000000000000007FFFFFF0001FFFFFFFFFC000000001FF
310
FFFFFFC000000001FFFFFF000000000003FFC0000000007FF000FF0000000000
310
3FFFFFE00007FFFF00003FFFFF80007FFE00000000003FFFF00000000003FFF8
310
00000000000000007FFFFFF0001FFFFFFFFF8000000000FFFFFFFF8000000000
310
FFFFFF000000000003FF80000000003FF000FE00000000001FFFFFE00003FFFF
310
00003FFFFF80007FFC00000000001FFFE00000000001FFF8000001FFFE000000
310
7FFFFFF0001FFFFFFFFE00000000003FFFFFFE00000000003FFFFF0000000000
310
03FF00000000001FF000FC00000000000FFFFFE00003FFFF00001FFFFF80007F
310
F800000000001FFFC00000000000FFF8000001FFFE0000007FFFFFF0001FFFFF
310
FFFC00000000001FFFFFFC00000000001FFFFF000000000003FE00000000000F
310
F000F8000000000007FFFFE00003FFFF00001FFFFF80007FF800000000000FFF
310
800000000000FFF8000001FFFE0000007FFFFFF0001FFFFFFFF800000000000F
310
FFFFF800000000000FFFFF000000000003FC000000000007F000F80000000000
310
03FFFFC00003FFFE00001FFFFF80007FF0000000000007FF0000000000007FF8
310
000001FFFE0000007FFFFFF0001FFFFFFFF0000000000007FFFFF00000000000
310
07FFFF000000000003F8000000000003F000F0000000000003FFFFC00001FFFE
310
00001FFFFF80007FE0000000000007FE0000000000003FF8000001FFFE000000
310
7FFFFFF0001FFFFFFFF0000000000007FFFFF0000000000007FFFF0000000000
310
03F800001F800003F000E00001FFF00001FFFFC00001FFFE00000FFFFF80007F
310
E00001FFE00003FE00001FFF00003FF8000001FFFE0000007FFFFFF0001FFFFF
310
FFE000003E000003FFFFE000003E000003FFFF000000000003F00001FFF80001
310
F000E00007FFFC0001FFFFC00001FFFE00000FFFFF80007FC0000FFFFC0003FC
310
0000FFFFC0001FF8000001FFFE0000007FFFFFF0001FFFFFFFC00003FFE00001
310
FFFFC00003FFE00001FFFF0001FFFFFFFFF00007FFFE0001F000E0000FFFFF00
310
00FFFF800001FFFC00000FFFFF80007FC0001FFFFE0001FC0001FFFFE0001FF8
310
000001FFFE0000007FFFFFF0001FFFFFFF80000FFFF80000FFFF80000FFFF800
310
00FFFF0003FFFFFFFFE0000FFFFF8000F000C0003FFFFF8000FFFF800000FFFC
310
000007FFFF80007F80003FFFFF0001FC0003FFFFF0001FF8000001FFFE000000
310
7FFFFFF0001FFFFFFF80003FFFFE0000FFFF80003FFFFE0000FFFF0003FFFFFF
310
FFE0003FFFFF8000F000C0003FFFFF8000FFFF800000FFFC000007FFFF80007F
310
80007FFFFF8001F80007FFFFF8000FF8000001FFFE0000007FFFFFF0001FFFFF
310
FF00007FFFFF00007FFF00007FFFFF00007FFF0003FFFFFFFFE0003FFFFFC000
310
F000C0007FFFFFC000FFFF000000FFFC000007FFFF80007F8000FFFFFF8000F8
310
000FFFFFF8000FF8000001FFFE0000007FFFFFF0001FFFFFFF0000FFFFFF8000
310
7FFF0000FFFFFF80007FFF0003FFFFFFFFC0007FFFFFC00070008000FFFFFFC0
310
00FFFF000000FFF8000007FFFF80007F8000FFFFFF8000F8000FFFFFF8000FF8
310
000001FFFE0000007FFFFFF0001FFFFFFE0001FFFFFFC0003FFE0001FFFFFFC0
310
003FFF0003FFFFFFFFC0007FFFFFE00070008000FFFFFFC0007FFF0000007FF8
310
000003FFFF80007F0001FFFFFF8000F8000FFFFFF8000FF8000001FFFE000000
310
7FFFFFF0001FFFFFFE0001FFFFFFC0003FFE0001FFFFFFC0003FFF0003FFFFFF
310
FFC000FFFFFFE00070008000FFFFFFC0007FFF0000007FF8000003FFFF80007F
310
0001FFFFFF8000F8001FFFFFF8000FF8000001FFFE0000007FFFFFF0001FFFFF
310
FE0003FFFFFFE0003FFE0003FFFFFFE0003FFF0003FFFFFFFFC000FFFFFFE000
310
70008000FFFFFFC0007FFE0000007FF8000003FFFF80007F0001FFFFFF8000F0
310
001FFFFFF8000FF8000001FFFE0000007FFFFFF0001FFFFFFC0003FFFFFFE000
310
1FFC0003FFFFFFE0001FFF0003FFFFFFFFC000FFFFFFC00070008000FFFFFF80
310
007FFE0000007FF0000003FFFF80007F0001FFFFFF0000F0001FFFFFF8000FF8
310
000001FFFE0000007FFFFFF0001FFFFFFC0007FFFFFFF0001FFC0007FFFFFFF0
310
001FFF0003FFFFFFFFC000FFFFFFC00070008001FFFFFF0000FFFE0000003FF0
310
000001FFFF80007F0001FFFFFF0000F8001FFFFFF0000FF8000001FFFE000000
310
7FFFFFF0001FFFFFFC0007FFFFFFF0001FFC0007FFFFFFF0001FFF0003FFFFFF
310
FFC001FFFFFF80007000FFFFFFFFFE0000FFFE0008003FF0008001FFFF80007F
310
FFFFFFFFFC0000FFFFFFFFFFE0000FF8000001FFFE0000007FFFFFF0001FFFFF
310
F8000FFFFFFFF8000FF8000FFFFFFFF8000FFF0003FFFFFFFFFFFFFFFFFF0000
310
7000FFFFFFFFFC0000FFFC0008003FF0008001FFFF80007FFFFFFFFFF80001FF
310
FFFFFFFF80000FF8000001FFFE0000007FFFFFF0001FFFFFF8000FFFFFFFF800
310
0FF8000FFFFFFFF8000FFF0003FFFFFFFFFFFFFFFFFE0000F000FFFFFFFFE000
310
00FFFC000C003FE000C001FFFF80007FFFFFFFFFC00001FFFFFFFFFE00001FF8
310
000001FFFE0000007FFFFFF0001FFFFFF8000FFFFFFFF8000FF8000FFFFFFFF8
310
000FFF0003FFFFFFFFFFFFFFFFF00000F000FFFFFFFE000001FFFC000C001FE0
310
00C000FFFF80007FFFFFFFFE000001FFFFFFFFE000001FF80FFFFFFFFFFFFFC0
310
7FFFFFF0001FFFFFF8000FFFFFFFF8000FF8000FFFFFFFF8000FFF0003FFFFFF
310
FFFFFFFFFF800000F000FFFFFFC0000001FFFC001C001FE001C000FFFF80007F
310
FFFFFF80000003FFFFFFF80000001FF80FFFFFFFFFFFFFC07FFFFFF0001FFFFF
310
F8001FFFFFFFFC000FF8001FFFFFFFFC000FFF0003FFFFFFFFFFFFFFF0000001
310
F000FFFFF800000001FFF8001C001FE001C000FFFF80007FFFFFF800000003FF
310
FFFF800000003FF80FFFFFFFFFFFFFC07FFFFFF0001FFFFFF8001FFFFFFFFC00
310
0FF8001FFFFFFFFC000FFF0003FFFFFFFFFFFFFE00000001F000FFFFC0000000
310
03FFF8001E001FC001E000FFFF80007FFFFF8000000007FFFFFC000000003FF8
310
0FFFFFFFFFFFFFC07FFFFFF0001FFFFFF8001FFFFFFFFC000FF8001FFFFFFFFC
310
000FFF0003FFFFFFFFFFFFE000000003F000FFFE0000000007FFF8001E000FC0
310
01E0007FFF80007FFFFE0000000007FFFFE0000000007FF80FFFFFFFFFFFFFC0
310
7FFFFFF0001FFFFFF0001FFFFFFFFC0007F0001FFFFFFFFC0007FF0003FFFFFF
310
FFFFFF0000000003F000FFF80000000007FFF8001E000FC003E0007FFF80007F
310
FFF0000000000FFFFF8000000000FFF80FFFFFFFFFFFFFC07FFFFFF0001FFFFF
310
F0001FFFFFFFFC0007F0001FFFFFFFFC0007FF0003FFFFFFFFFFFC0000000007
310
F000FFE0000000000FFFF0003E000FC003E0007FFF80007FFFC0000000001FFF
310
FE0000000001FFF80FFFFFFFFFFFFFC07FFFFFF0001FFFFFF0001FFFFFFFFC00
310
07F0001FFFFFFFFC0007FF0003FFFFFFFFFFF0000000000FF000FFC000000000
310
1FFFF0003F000F8003F0003FFF80007FFF80000000003FFFF80000000003FFF8
310
0FFFFFFFFFFFFFC07FFFFFF0001FFFFFF0001FFFFFFFFC0007F0001FFFFFFFFC
310
0007FF0003FFFFFFFFFFE0000000001FF000FF00000000007FFFF0003F000780
310
03F0003FFF80007FFF00000000007FFFF00000000007FFF80FFFFFFFFFFFFFC0
310
7FFFFFF0001FFFFFF0001FFFFFFFFC0007F0001FFFFFFFFC0007FF0003FFFFFF
310
FFFF80000000007FF000FE0000000000FFFFE0003F00078007F0003FFF80007F
310
FE0000000001FFFFE0000000001FFFF80FFFFFFFFFFFFFC07FFFFFF0001FFFFF
310
F0001FFFFFFFFC0007F0001FFFFFFFFC0007FF0003FFFFFFFFFF0000000000FF
310
F000FC0000000003FFFFE0007F00078007F0003FFF80007FFC0000000007FFFF
310
C0000000007FFFF80FFFFFFFFFFFFFC07FFFFFF0001FFFFFF8001FFFFFFFFC00
310
0FF8001FFFFFFFFC000FFF0003FFFFFFFFFE0000000003FFF000FC000000000F
310
FFFFE0007F80070007F8001FFF80007FF8000000001FFFFF8000000001FFFFF8
310
0FFFFFFFFFFFFFC07FFFFFF0001FFFFFF8001FFFFFFFFC000FF8001FFFFFFFFC
310
000FFF0003FFFFFFFFFC000000000FFFF000F8000000007FFFFFE0007F800700
310
07F8001FFF80007FF000000000FFFFFF800000000FFFFFF80FFFFFFFFFFFFFC0
310
7FFFFFF0001FFFFFF8000FFFFFFFF8000FF8000FFFFFFFF8000FFF0003FFFFFF
310
FFFC000000007FFFF000F800000007FFFFFFC0007F8003000FF8001FFF80007F
310
F000000007FFFFFF000000007FFFFFF80FFFFFFFFFFFFFC07FFFFFF0001FFFFF
310
F8000FFFFFFFF8000FF8000FFFFFFFF8000FFF0003FFFFFFFFF80000000FFFFF
310
F000F0000000FFFFFFFFC000FF8003000FF8001FFF80007FE0000000FFFFFFFF
310
0000000FFFFFFFF8000001FFFE0000007FFFFFF0001FFFFFF8000FFFFFFFF800
310
0FF8000FFFFFFFF8000FFF0003FFFFFFFFF8000000FFFFFFF000F000000FFFFF
310
FFFFC000FFC002000FF8000FFF80007FE000001FFFFFFFFE000001FFFFFFFFF8
310
000001FFFE0000007FFFFFF0001FFFFFF8000FFFFFFFF8000FF8000FFFFFFFF8
310
000FFF0003FFFFFFFFF000001FFFFFFFF000E00000FFFFFFFFFFC000FFC00200
310
0FFC000FFF80007FE00001FFFFFFFFFE00001FFFFFFFFFF8000001FFFE000000
310
7FFFFFF0001FFFFFFC000FFFFFFFF8001FFC000FFFFFFFF8001FFF0003FFFFFF
310
FFF00001FFFFFFFFF000E00007FFFFFFFFFF8000FFC000001FFC000FFF80007F
310
C0000FFFFFFFFFFE0000FFFFFFFFFFF8000001FFFE0000007FFFFFF0001FFFFF
310
FC0007FFFFFFF0001FFC0007FFFFFFF0001FFF0003FFFFFFFFF00007FFFFFFFF
310
F000E0001FFFFFFFFFFF8000FFC000001FFC000FFF80007FC0003FFFFFFFFFFE
310
0001FFFFFFFFFFF8000001FFFE0000007FFFFFF0001FFFFFFC0007FFFFFFF000
310
1FFC0007FFFFFFF0001FFF0003FFFFFFFFF0001FFFFFFFFFF000E0003FFFFF00
310
03FF8001FFE000001FFC0007FF80007FC0007FFFFF0007FC0003FFFFF0003FF8
310
000001FFFE0000007FFFFFF0001FFFFFFC0003FFFFFFE0001FFC0003FFFFFFE0
310
001FFF0003FFFFFFFFF0003FFFFFFFFFF000E0003FFFFF0001FF8001FFE00000
310
1FFE0007FF80007FC0007FFFFE0003FC0007FFFFE0003FF8000001FFFE000000
310
7FFFFFF0001FFFFFFE0003FFFFFFE0003FFE0003FFFFFFE0003FFF0003FFFFFF
310
FFF0003FFFFF8001F000E0003FFFFF0001FF0001FFE000001FFE0007FF80007F
310
C0007FFFFE0003FC0007FFFFE0003FF8000001FFFE0000007FFFFFF0001FFFFF
310
FE0001FFFFFFC0003FFE0001FFFFFFC0003FFF0003FFFFFFFFF0003FFFFF0001
310
F000E0003FFFFF0003FF0001FFE000003FFE0007FF80007FC0007FFFFE0003FC
310
0007FFFFE0003FF8000001FFFE0000007FFFFFF0001FFFFFFF0001FFFFFFC000
310
7FFF0001FFFFFFC0007FFF0003FFFFFFFFF0003FFFFF0001F000E0003FFFFE00
310
03FF0003FFF000003FFE0003FF80007FC0007FFFFC0003FE0007FFFFE0003FF8
310
000001FFFE0000007FFFFFF0001FFFFFFF0000FFFFFF80007FFF0000FFFFFF80
310
007FFF0003FFFFFFFFF0003FFFFF0001F000E0003FFFFE0003FF0003FFF00000
310
3FFF0003FF80007FC0007FFFFC0007FE0007FFFFC0003FF8000001FFFE000000
310
7FFFFFF0001FFFFFFF80007FFFFF0000FFFF80007FFFFF0000FFFF0003FFFFFF
310
FFF0003FFFFF0003F000E0003FFFFC0003FE0003FFF000003FFF0003FF80007F
310
E0003FFFF80007FE0003FFFFC0007FF8000001FFFE0000007FFFFFF0001FFFFF
310
FF80003FFFFE0000FFFF80003FFFFE0000FFFF0003FFFFFFFFF0001FFFFE0003
310
F000F0001FFFF80003FE0003FFF000007FFF0001FF80007FE0003FFFF00007FE
310
0001FFFF80007FF8000001FFFE0000007FFFFFF0001FFFFFFFC0000FFFF80001
310
FFFFC0000FFFF80001FFFF0003FFFFFFFFF0001FFFFC0003F000F0000FFFF000
310
07FE0007FFF800007FFF0001FF80007FE0001FFFE00007FF0000FFFE00007FF8
310
000001FFFE0000007FFFFFF0001FFFFFFFC00003FFE00001FFFFC00003FFE000
310
01FFFF0003FFFFFFFFF8000FFFF80003F000F00003FFC00007FC0007FFF80000
310
7FFF8001FF80007FF00007FF80000FFF00007FF80000FFF8000001FFFE000000
310
7F80000000000001FFE000003E000003FFFFE000003E000003FFFF0003FFFFFF
310
FFF80003FFE00007F000F800000000000FFC0007FFF800007FFF8001FF80007F
310
F000000000000FFF000000000000FFF8000001FFFE0000007F80000000000001
310
FFF0000000000007FFFFF0000000000007FFFF0003FFFFFFFFFC00007E000007
310
F000F800000000000FFC0007FFF80000FFFF8000FF80007FF800000000001FFF
310
800000000001FFF8000001FFFE0000007F80000000000001FFF800000000000F
310
FFFFF800000000000FFFFF0003FFFFFFFFFC00000000000FF000FC0000000000
310
1FFC0007FFFC0000FFFF8000FF80007FF800000000003FFFC00000000001FFF8
310
000001FFFE0000007F80000000000001FFF800000000000FFFFFF80000000000
310
0FFFFF0003FFFFFFFFFE00000000001FF000FE00000000003FF8000FFFFC0000
310
FFFF8000FF80007FFC00000000003FFFC00000000003FFF8000001FFFE000000
310
7F80000000000001FFFC00000000001FFFFFFC00000000001FFFFF0003FFFFFF
310
FFFF00000000001FF000FF00000000003FF8000FFFFC0000FFFFC000FF80007F
310
FE00000000007FFFE00000000007FFF8000001FFFE0000007F80000000000001
310
FFFE00000000003FFFFFFE00000000003FFFFF0003FFFFFFFFFF80000000003F
310
F000FF80000000007FF8000FFFFC0001FFFFC0007F80007FFF0000000000FFFF
310
F0000000000FFFF800000000000000007F80000000000001FFFF8000000000FF
310
FFFFFF8000000000FFFFFF0003FFFFFFFFFFC0000000007FF000FFC000000000
310
FFF8000FFFFE0001FFFFC0007F80007FFF8000000001FFFFF8000000001FFFF8
310
00000000000000007F80000000000001FFFFC000000001FFFFFFFFC000000001
310
FFFFFF0003FFFFFFFFFFE000000000FFF000FFE000000003FFF0001FFFFE0001
310
FFFFC0007F80007FFFC000000007FFFFFE000000003FFFF80000000000000000
310
7F80000000000001FFFFE000000003FFFFFFFFE000000003FFFFFF0003FFFFFF
310
FFFFF000000003FFF000FFF80000000FFFF0001FFFFE0001FFFFE0007F80007F
310
FFF00000000FFFFFFF00000000FFFFF800000000000000007F80000000000001
310
FFFFF80000000FFFFFFFFFF80000000FFFFFFF0003FFFFFFFFFFFC0000000FFF
310
F000FFFE0000003FFFF0001FFFFE0003FFFFE0003F80007FFFFC0000003FFFFF
310
FFC0000003FFFFF800000000000000007F80000000000001FFFFFE0000003FFF
310
FFFFFFFE0000003FFFFFFF0003FFFFFFFFFFFF0000003FFFF000FFFF800000FF
310
FFF0001FFFFF0003FFFFE0003F80007FFFFF000001FFFFFFFFF800001FFFFFF8
310
00000000000000007F80000000000001FFFFFFC00001FFFFFFFFFFFFC00001FF
310
FFFFFF0003FFFFFFFFFFFFC00000FFFFF000FFFFF8000FFFFFFFFFFFFFFFFFFF
310
FFFFFFFFFFFFFFFFFFFFF0001FFFFFFFFFFF0000FFFFFFF80000000000000000
310
7FFFFFFFFFFFFFFFFFFFFFFC001FFFFFFFFFFFFFFC001FFFFFFFFFFFFFFFFFFF
310
FFFFFFFC001FFFFFF000FFFFFFFFFFFFFFFFFFFFFFFFFFFFFFFFFFFFFFFFFFFF
310
FFFFFFFFFFFFFFFFFFFFFFFFFFFFFFFFFFFFFFFFFFFFFFFFFFFFFFFFFFFFFFFF
310
FFFFFFFFFFFFFFFFFFFFFFFFFFFFFFFFFFFFFFFFFFFFFFFFFFFFFFFFFFFFFFFF
310
F000FFFFFFFFFFFFFFFFFFFFFFFFFFFFFFFFFFFFFFFFFFFFFFFFFFFFFFFFFFFF
310
FFFFFFFFFFFFFFFFFFFFFFFFFFFFFFFFFFFFFFFFFFFFFFFFFFFFFFFFFFFFFFFF
310
FFFFFFFFFFFFFFFFFFFFFFFFFFFFFFFFFFFFFFFFFFFFFFFFF000FFFFFFFFFFFF
310
FFFFFFFFFFFFFFFFFFFFFFFFFFFFFFFFFFFFFFFFFFFFFFFFFFFFFFFFFFFFFFFF
310
FFFFFFFFFFFFFFFFFFFFFFFFFFFFFFFFFFFFFFFFFFFFFFFFFFFFFFFFFFFFFFFF
310
FFFFFFFFFFFFFFFFFFFFFFFFFFFFFFFFF000FFFFFFFFFFFFFFFFFFFFFFFFFFFF
310
FFFFFFFFFFFFFFFFFFFFFFFFFFFFFFFFFFFFFFFFFFFFFFFFFFFFFFFFFFFFFFFF
310
FFFFFFFFFFFFFFFFFFFFFFFFFFFFFFFFFFFFFFFFFFFFFFFFFFFFFFFFFFFFFFFF
310
FFFFFFFFFFFFFFFFF000FFFFFFFFFFFFFFFFFFFFFFFFFFFFFFFFFFFFFFFFFFFF
310
FFFFFFFFFFFFFFFFFFFFFFFFFFFFFFFFFFFFFFFFFFFFFFFFFFFFFFFFFFFFFFFF
310
FFFFFFFFFFFFFFFFFFFFFFFFFFFFFFFFFFFFFFFFFFFFFFFFFFFFFFFFFFFFFFFF
310
F000FFFFFFFFFFFFFFFFFFFFFFFFFFFFFFFFFFFFFFFFFFFFFFFFFFFFFFFFFFFF
310
FFFFFFFFFFFFFFFFFFFFFFFFFFFFFFFFFFFFFFFFFFFFFFFFFFFFFFFFFFFFFFFF
310
FFFFFFFFFFFFFFFFFFFFFFFFFFFFFFFFFFFFFFFFFFFFFFFFF000FFFFFFFFFFFF
310
FFFFFFFFFFFFFFFFFFFFFFFFFFFFFFFFFFFFFFFFFFFFFFFFFFFFFFFFFFFFFFFF
310
FFFFFFFFFFFFFFFFFFFFFFFFFFFFFFFFFFFFFFFFFFFFFFFFFFFFFFFFFFFFFFFF
310
FFFFFFFFFFFFFFFFFFFFFFFFFFFFFFFFF000FFFFFFFFFFFFFFFFFFFFFFFFFFFF
310
FFFFFFFFFFFFFFFFFFFFFFFFFFFFFFFFFFFFFFFFFFFFFFFFFFFFFFFFFFFFFFFF
310
FFFFFFFFFFFFFFFFFFFFFFFFFFFFFFFFFFFFFFFFFFFFFFFFFFFFFFFFFFFFFFFF
310
FFFFFFFFFFFFFFFFF000FFFFFFFFFFFFFFFFFFFFFFFFFFFFFFFFFFFFFFFFFFFF
310
FFFFFFFFFFFFFFFFFFFFFFFFFFFFFFFFFFFFFFFFFFFFFFFFFFFFFFFFFFFFFFFF
310
FFFFFFFFFFFFFFFFFFFFFFFFFFFFFFFFFFFFFFFFFFFFFFFFFFFFFFFFFFFFFFFF
310
F000FFFFFFFFFFFFFFFFFFFFFFFFFFFFFFFFFFFFFFFFFFFFFFFFFFFFFFFFFFFF
310
FFFFFFFFFFFFFFFFFFFFFFFFFFFFFFFFFFFFFFFFFFFFFFFFFFFFFFFFFFFFFFFF
310
FFFFFFFFFFFFFFFFFFFFFFFFFFFFFFFFFFFFFFFFFFFFFFFFF000FFFFFFFFFFFF
310
FFFFFFFFFFFFFFFFFFFFFFFFFFFFFFFFFFFFFFFFFFFFFFFFFFFFFFFFFFFFFFFF
310
FFFFFFFFFFFFFFFFFFFFFFFFFFFFFFFFFFFFFFFFFFFFFFFFFFFFFFFFFFFFFFFF
310
FFFFFFFFFFFFFFFFFFFFFFFFFFFFFFFFF000FFFFFFFFFFFFFFFFFFFFFFFFFFFF
310
FFFFFFFFFFFFFFFFFFFFFFFFFFFFFFFFFFFFFFFFFFFFFFFFFFFFFFFFFFFFFFFF
310
FFFFFFFFFFFFFFFFFFFFFFFFFFFFFFFFFFFFFFFFFFFFFFFFFFFFFFFFFFFFFFFF
310
FFFFFFFFFFFFFFFFF000FFFFFFFFFFFFFFFFFFFFFFFFFFFFFFFFFFFFFFFFFFFF
310
FFFFFFFFFFFFFFFFFFFFFFFFFFFFFFFFFFFFFFFFFFFFFFFFFFFFFFFFFFFFFFFF
310
FFFFFFFFFFFFFFFFFFFFFFFFFFFFFFFFFFFFFFFFFFFFFFFFFFFFFFFFFFFFFFFF
310
F000FFFFFFFFFFFFFFFFFFFFFFFFFFFFFFFFFFFFFFFFFFFFFFFFFFFFFFFFFFFF
310
FFFFFFFFFFFFFFFFFFFFFFFFFFFFFFFFFFFFFFFFFFFFFFFFFFFFFFFFFFFFFFFF
310
FFFFFFFFFFFFFFFFFFFFFFFFFFFFFFFFFFFFFFFFFFFFFFFFF000FFFFFFFFFFFF
310
FFFFFFFFFFFFFFFFFFFFFFFFFFFFFFFFFFFFFFFFFFFFFFFFFFFFFFFFFFFFFFFF
310
FFFFFFFFFFFFFFFFFFFFFFFFFFFFFFFFFFFFFFFFFFFFFFFFFFFFFFFFFFFFFFFF
310
FFFFFFFFFFFFFFFFFFFFFFFFFFFFFFFFF000FFFFFFFFFFFFFFFFFFFFFFFFFFFF
310
FFFFFFFFFFFFFFFFFFFFFFFFFFFFFFFFFFFFFFFFFFFFFFFFFFFFFFFFFFFFFFFF
310
FFFFFFFFFFFFFFFFFFFFFFFFFFFFFFFFFFFFFFFFFFFFFFFFFFFFFFFFFFFFFFFF
310
FFFFFFFFFFFFFFFFF000FFFFFFFFFFFFFFFFFFFFFFFFFFFFFFFFFFFFFFFFFFFF
310
FFFFFFFFFFFFFFFFFFFFFFFFFFFFFFFFFFFFFFFFFFFFFFFFFFFFFFFFFFFFFFFF
310
FFFFFFFFFFFFFFFFFFFFFFFFFFFFFFFFFFFFFFFFFFFFFFFFFFFFFFFFFFFFFFFF
310
F000FFFFFFFFFFFFFFFFFFFFFFFFFFFFFFFFFFFFFFFFFFFFFFFFFFFFFFFFFFFF
310
FFFFFFFFFFFFFFFFFFFFFFFFFFFFFFFFFFFFFFFFFFFFFFFFFFFFFFFFFFFFFFFF
310
FFFFFFFFFFFFFFFFFFFFFFFFFFFFFFFFFFFFFFFFFFFFFFFFF000FFFFFFFFFFFF
310
FFFFFFFFFFFFFFFFFFFFFFFFFFFFFFFFFFFFFFFFFFFFFFFFFFFFFFFFFFFFFFFF
310
FFFFFFFFFFFFFFFFFFFFFFFFFFFFFFFFFFFFFFFFFFFFFFFFFFFFFFFFFFFFFFFF
310
FFFFFFFFFFFFFFFFFFFFFFFFFFFFFFFFF000FFFFFFFFFFFFFFFFFFFFFFFFFFFF
310
FFFFFFFFFFFFFFFFFFFFFFFFFFFFFFFFFFFFFFFFFFFFFFFFFFFFFFFFFFFFFFFF
310
FFFFFFFFFFFFFFFFFFFFFFFFFFFFFFFFFFFFFFFFFFFFFFFFFFFFFFFFFFFFFFFF
310
FFFFFFFFFFFFFFFFF000FFFFFFFFFFFFFFFFFFFFFFFFFFFFFFFFFFFFFFFFFFFF
310
FFFFFFFFFFFFFFFFFFFFFFFFFFFFFFFFFFFFFFFFFFFFFFFFFFFFFFFFFFFFFFFF
310
FFFFFFFFFFFFFFFFFFFFFFFFFFFFFFFFFFFFFFFFFFFFFFFFFFFFFFFFFFFFFFFF
310
F000FFFFFFFFFFFFFFFFFFFFFFFFFFFFFFFFFFFFFFFFFFFFFFFFFFFFFFFFFFFF
310
FFFFFFFFFFFFFFFFFFFFFFFFFFFFFFFFFFFFFFFFFFFFFFFFFFFFFFFFFFFFFFFF
310
FFFFFFFFFFFFFFFFFFFFFFFFFFFFFFFFFFFFFFFFFFFFFFFFF000FFFFFFFFFFFF
310
FFFFFFFFFFFFFFFFFFFFFFFFFFFFFFFFFFFFFFFFFFFFFFFFFFFFFFFFFFFFFFFF
310
FFFFFFFFFFFFFFFFFFFFFFFFFFFFFFFFFFFFFFFFFFFFFFFFFFFFFFFFFFFFFFFF
310
FFFFFFFFFFFFFFFFFFFFFFFFFFFFFFFFF0000000000000000000000000000000
310
0000000000000000000000000000000000000000000000000000000000000000
310
0000000000000000000000000000000000000000000000000000000000000000
310
0000000000000000000000000000000000000000000000000000000000000000
310
0000000000000000000000000000000000000000000000000000000000000000
310
0000000000000000000000000000000000000000000000000000000000000000
310
0000000000000000000000000000000000000000000000000000000000000000
310
0000000000000000000000000000000000000000000000000000000000000000
310
0000000000000000000000000000000000000000000000000000000000000000
310
0000000000000000000000000000000000000000000000000000000000000000
310
0000000000000000000000000000000000000000000000000000000000000000
310
0000000000000000000000000000000000000000000000000000000000000000
310
0000000000000000000000000000000000000000000000000000000000000000
310
0000000000000000000000000000000000000000000000000000000000000000
310
0000000000000000000000000000000000000000000000000000000000000000
310
0000000000000000000000000000000000000000000000000000000000000000
  1
OLE
  0
ENDSEC
  0
SECTION
  2
OBJECTS
  0
DICTIONARY
  5
C
330
0
100
AcDbDictionary
281
     1
  3
ACAD_GROUP
350
D
  3
ACAD_LAYOUT
350
1A
  3
ACAD_MLINESTYLE
350
17
  3
ACAD_PLOTSETTINGS
350
19
  3
ACAD_PLOTSTYLENAME
350
E
  3
ACAD_SCALELIST
350
47
  0
DICTIONARY
  5
D
102
{ACAD_REACTORS
330
C
102
}
330
C
100
AcDbDictionary
281
     1
  0
DICTIONARY
  5
1A
102
{ACAD_REACTORS
330
C
102
}
330
C
100
AcDbDictionary
281
     1
  3
Layout1
350
1E
  3
Layout2
350
26
  3
Model
350
22
  0
DICTIONARY
  5
17
102
{ACAD_REACTORS
330
C
102
}
330
C
100
AcDbDictionary
281
     1
  3
Standard
350
18
  0
DICTIONARY
  5
19
102
{ACAD_REACTORS
330
C
102
}
330
C
100
AcDbDictionary
281
     1
  0
ACDBDICTIONARYWDFLT
  5
E
102
{ACAD_REACTORS
330
C
102
}
330
C
100
AcDbDictionary
281
     1
  3
Normal
350
F
100
AcDbDictionaryWithDefault
340
F
  0
DICTIONARY
  5
47
102
{ACAD_REACTORS
330
C
102
}
330
C
100
AcDbDictionary
281
     1
  3
A0
350
48
  3
A1
350
49
  3
A2
350
4A
  3
A3
350
4B
  3
A4
350
4C
  3
A5
350
4D
  3
A6
350
4E
  3
A7
350
4F
  3
A8
350
50
  3
A9
350
51
  3
B0
350
52
  3
B1
350
53
  3
B2
350
54
  3
B3
350
55
  3
B4
350
56
  3
B5
350
57
  3
B6
350
58
  3
B7
350
59
  3
B8
350
5A
  3
B9
350
5B
  3
C0
350
5C
  3
C1
350
5D
  3
C2
350
5E
  3
C3
350
5F
  3
C4
350
60
  3
C5
350
61
  3
C6
350
62
  3
C7
350
63
  3
C8
350
64
  3
C9
350
65
  3
D0
350
66
  3
D1
350
67
  3
D2
350
68
  0
LAYOUT
  5
1E
102
{ACAD_REACTORS
330
1A
102
}
330
1A
100
AcDbPlotSettings
  1

  2
none_device
  4

  6

 40
0.0
 41
0.0
 42
0.0
 43
0.0
 44
0.0
 45
0.0
 46
0.0
 47
0.0
 48
0.0
 49
0.0
140
0.0
141
0.0
142
1.0
143
1.0
 70
   688
 72
     1
 73
     0
 74
     5
  7

 75
    16
147
1.0
148
0.0
149
0.0
100
AcDbLayout
  1
Layout1
 70
     1
 71
     1
 10
0.0
 20
0.0
 11
420.0
 21
297.0
 12
0.0
 22
0.0
 32
0.0
 14
1.0000000000E+20
 24
1.0000000000E+20
 34
1.0000000000E+20
 15
-1.0000000000E+20
 25
-1.0000000000E+20
 35
-1.0000000000E+20
146
0.0
 13
0.0
 23
0.0
 33
0.0
 16
1.0
 26
0.0
 36
0.0
 17
0.0
 27
1.0
 37
0.0
 76
     0
330
1B
  0
LAYOUT
  5
26
102
{ACAD_REACTORS
330
1A
102
}
330
1A
100
AcDbPlotSettings
  1

  2
none_device
  4

  6

 40
0.0
 41
0.0
 42
0.0
 43
0.0
 44
0.0
 45
0.0
 46
0.0
 47
0.0
 48
0.0
 49
0.0
140
0.0
141
0.0
142
1.0
143
1.0
 70
   688
 72
     1
 73
     0
 74
     5
  7

 75
    16
147
1.0
148
0.0
149
0.0
100
AcDbLayout
  1
Layout2
 70
     1
 71
     2
 10
0.0
 20
0.0
 11
0.0
 21
0.0
 12
0.0
 22
0.0
 32
0.0
 14
0.0
 24
0.0
 34
0.0
 15
0.0
 25
0.0
 35
0.0
146
0.0
 13
0.0
 23
0.0
 33
0.0
 16
1.0
 26
0.0
 36
0.0
 17
0.0
 27
1.0
 37
0.0
 76
     0
330
23
  0
LAYOUT
  5
22
102
{ACAD_REACTORS
330
1A
102
}
330
1A
100
AcDbPlotSettings
  1

  2
none_device
  4
Letter_(8.50_x_11.00_Inches)
  6

 40
6.35
 41
6.35
 42
6.35000508
 43
6.35000508
 44
215.9
 45
279.4
 46
0.0
 47
0.0
 48
0.0
 49
0.0
140
0.0
141
0.0
142
1.0
143
1.0
 70
  1712
 72
     1
 73
     0
 74
     0
  7

 75
     0
147
1.0
148
0.0
149
0.0
100
AcDbLayout
  1
Model
 70
     1
 71
     0
 10
0.0
 20
0.0
 11
297.0
 21
210.0
 12
0.0
 22
0.0
 32
0.0
 14
0.0
 24
0.0
 34
0.0
 15
297.0
 25
210.0
 35
0.0
146
0.0
 13
0.0
 23
0.0
 33
0.0
 16
1.0
 26
0.0
 36
0.0
 17
0.0
 27
1.0
 37
0.0
 76
     0
330
1F
331
29
  0
MLINESTYLE
  5
18
102
{ACAD_REACTORS
330
17
102
}
330
17
100
AcDbMlineStyle
  2
Standard
 70
     0
  3

 62
   256
 51
90.0
 52
90.0
 71
     2
 49
0.5
 62
   256
  6
BYLAYER
 49
-0.5
 62
   256
  6
BYLAYER
  0
ACDBPLACEHOLDER
  5
F
102
{ACAD_REACTORS
330
E
102
}
330
E
  0
SCALE
  5
48
102
{ACAD_REACTORS
330
47
102
}
330
47
100
AcDbScale
 70
     0
300
1:1
140
1.0
141
1.0
290
     1
  0
SCALE
  5
49
102
{ACAD_REACTORS
330
47
102
}
330
47
100
AcDbScale
 70
     0
300
1:2
140
1.0
141
2.0
290
     0
  0
SCALE
  5
4A
102
{ACAD_REACTORS
330
47
102
}
330
47
100
AcDbScale
 70
     0
300
1:4
140
1.0
141
4.0
290
     0
  0
SCALE
  5
4B
102
{ACAD_REACTORS
330
47
102
}
330
47
100
AcDbScale
 70
     0
300
1:5
140
1.0
141
5.0
290
     0
  0
SCALE
  5
4C
102
{ACAD_REACTORS
330
47
102
}
330
47
100
AcDbScale
 70
     0
300
1:8
140
1.0
141
8.0
290
     0
  0
SCALE
  5
4D
102
{ACAD_REACTORS
330
47
102
}
330
47
100
AcDbScale
 70
     0
300
1:10
140
1.0
141
10.0
290
     0
  0
SCALE
  5
4E
102
{ACAD_REACTORS
330
47
102
}
330
47
100
AcDbScale
 70
     0
300
1:16
140
1.0
141
16.0
290
     0
  0
SCALE
  5
4F
102
{ACAD_REACTORS
330
47
102
}
330
47
100
AcDbScale
 70
     0
300
1:20
140
1.0
141
20.0
290
     0
  0
SCALE
  5
50
102
{ACAD_REACTORS
330
47
102
}
330
47
100
AcDbScale
 70
     0
300
1:30
140
1.0
141
30.0
290
     0
  0
SCALE
  5
51
102
{ACAD_REACTORS
330
47
102
}
330
47
100
AcDbScale
 70
     0
300
1:40
140
1.0
141
40.0
290
     0
  0
SCALE
  5
52
102
{ACAD_REACTORS
330
47
102
}
330
47
100
AcDbScale
 70
     0
300
1:50
140
1.0
141
50.0
290
     0
  0
SCALE
  5
53
102
{ACAD_REACTORS
330
47
102
}
330
47
100
AcDbScale
 70
     0
300
1:100
140
1.0
141
100.0
290
     0
  0
SCALE
  5
54
102
{ACAD_REACTORS
330
47
102
}
330
47
100
AcDbScale
 70
     0
300
2:1
140
2.0
141
1.0
290
     0
  0
SCALE
  5
55
102
{ACAD_REACTORS
330
47
102
}
330
47
100
AcDbScale
 70
     0
300
4:1
140
4.0
141
1.0
290
     0
  0
SCALE
  5
56
102
{ACAD_REACTORS
330
47
102
}
330
47
100
AcDbScale
 70
     0
300
8:1
140
8.0
141
1.0
290
     0
  0
SCALE
  5
57
102
{ACAD_REACTORS
330
47
102
}
330
47
100
AcDbScale
 70
     0
300
10:1
140
10.0
141
1.0
290
     0
  0
SCALE
  5
58
102
{ACAD_REACTORS
330
47
102
}
330
47
100
AcDbScale
 70
     0
300
100:1
140
100.0
141
1.0
290
     0
  0
SCALE
  5
59
102
{ACAD_REACTORS
330
47
102
}
330
47
100
AcDbScale
 70
     0
300
1/128" = 1'-0"
140
0.0078125
141
12.0
290
     0
  0
SCALE
  5
5A
102
{ACAD_REACTORS
330
47
102
}
330
47
100
AcDbScale
 70
     0
300
1/64" = 1'-0"
140
0.015625
141
12.0
290
     0
  0
SCALE
  5
5B
102
{ACAD_REACTORS
330
47
102
}
330
47
100
AcDbScale
 70
     0
300
1/32" = 1'-0"
140
0.03125
141
12.0
290
     0
  0
SCALE
  5
5C
102
{ACAD_REACTORS
330
47
102
}
330
47
100
AcDbScale
 70
     0
300
1/16" = 1'-0"
140
0.0625
141
12.0
290
     0
  0
SCALE
  5
5D
102
{ACAD_REACTORS
330
47
102
}
330
47
100
AcDbScale
 70
     0
300
3/32" = 1'-0"
140
0.09375
141
12.0
290
     0
  0
SCALE
  5
5E
102
{ACAD_REACTORS
330
47
102
}
330
47
100
AcDbScale
 70
     0
300
1/8" = 1'-0"
140
0.125
141
12.0
290
     0
  0
SCALE
  5
5F
102
{ACAD_REACTORS
330
47
102
}
330
47
100
AcDbScale
 70
     0
300
3/16" = 1'-0"
140
0.1875
141
12.0
290
     0
  0
SCALE
  5
60
102
{ACAD_REACTORS
330
47
102
}
330
47
100
AcDbScale
 70
     0
300
1/4" = 1'-0"
140
0.25
141
12.0
290
     0
  0
SCALE
  5
61
102
{ACAD_REACTORS
330
47
102
}
330
47
100
AcDbScale
 70
     0
300
3/8" = 1'-0"
140
0.375
141
12.0
290
     0
  0
SCALE
  5
62
102
{ACAD_REACTORS
330
47
102
}
330
47
100
AcDbScale
 70
     0
300
1/2" = 1'-0"
140
0.5
141
12.0
290
     0
  0
SCALE
  5
63
102
{ACAD_REACTORS
330
47
102
}
330
47
100
AcDbScale
 70
     0
300
3/4" = 1'-0"
140
0.75
141
12.0
290
     0
  0
SCALE
  5
64
102
{ACAD_REACTORS
330
47
102
}
330
47
100
AcDbScale
 70
     0
300
1" = 1'-0"
140
1.0
141
12.0
290
     0
  0
SCALE
  5
65
102
{ACAD_REACTORS
330
47
102
}
330
47
100
AcDbScale
 70
     0
300
1-1/2" = 1'-0"
140
1.5
141
12.0
290
     0
  0
SCALE
  5
66
102
{ACAD_REACTORS
330
47
102
}
330
47
100
AcDbScale
 70
     0
300
3" = 1'-0"
140
3.0
141
12.0
290
     0
  0
SCALE
  5
67
102
{ACAD_REACTORS
330
47
102
}
330
47
100
AcDbScale
 70
     0
300
6" = 1'-0"
140
6.0
141
12.0
290
     0
  0
SCALE
  5
68
102
{ACAD_REACTORS
330
47
102
}
330
47
100
AcDbScale
 70
     0
300
1'-0" = 1'-0"
140
12.0
141
12.0
290
     0
  0
ENDSEC
  0
EOF
