  0
SECTION
  2
HEADER
  9
$ACADVER
  1
AC1015
  9
$ACADMAINTVER
 70
     6
  9
$DWGCODEPAGE
  3
ANSI_1252
  9
$INSBASE
 10
0.0
 20
0.0
 30
0.0
  9
$EXTMIN
 10
0.0
 20
0.0
 30
0.0
  9
$EXTMAX
 10
297.0
 20
210.0
 30
0.0
  9
$LIMMIN
 10
0.0
 20
0.0
  9
$LIMMAX
 10
297.0
 20
210.0
  9
$ORTHOMODE
 70
     0
  9
$REGENMODE
 70
     1
  9
$FILLMODE
 70
     1
  9
$QTEXTMODE
 70
     0
  9
$MIRRTEXT
 70
     1
  9
$LTSCALE
 40
1.0
  9
$ATTMODE
 70
     1
  9
$TEXTSIZE
 40
2.0
  9
$TRACEWID
 40
1.0
  9
$TEXTSTYLE
  7
Standard
  9
$CLAYER
  8
0
  9
$CELTYPE
  6
ByLayer
  9
$CECOLOR
 62
   256
  9
$CELTSCALE
 40
1.0
  9
$DISPSILH
 70
     0
  9
$DIMSCALE
 40
1.0
  9
$DIMASZ
 40
3.0
  9
$DIMEXO
 40
0.0
  9
$DIMDLI
 40
3.75
  9
$DIMRND
 40
0.0
  9
$DIMDLE
 40
0.0
  9
$DIMEXE
 40
1.0
  9
$DIMTP
 40
0.0
  9
$DIMTM
 40
0.0
  9
$DIMTXT
 40
2.0
  9
$DIMCEN
 40
2.5
  9
$DIMTSZ
 40
0.0
  9
$DIMTOL
 70
     0
  9
$DIMLIM
 70
     0
  9
$DIMTIH
 70
     1
  9
$DIMTOH
 70
     1
  9
$DIMSE1
 70
     0
  9
$DIMSE2
 70
     0
  9
$DIMTAD
 70
     1
  9
$DIMZIN
 70
     0
  9
$DIMBLK
  1

  9
$DIMASO
 70
     1
  9
$DIMSHO
 70
     1
  9
$DIMPOST
  1

  9
$DIMAPOST
  1

  9
$DIMALT
 70
     0
  9
$DIMALTD
 70
     3
  9
$DIMALTF
 40
0.0393700787
  9
$DIMLFAC
 40
1.0
  9
$DIMTOFL
 70
     1
  9
$DIMTVP
 40
0.0
  9
$DIMTIX
 70
     0
  9
$DIMSOXD
 70
     0
  9
$DIMSAH
 70
     0
  9
$DIMBLK1
  1

  9
$DIMBLK2
  1

  9
$DIMSTYLE
  2
ISO-25
  9
$DIMCLRD
 70
     0
  9
$DIMCLRE
 70
     0
  9
$DIMCLRT
 70
     0
  9
$DIMTFAC
 40
1.0
  9
$DIMGAP
 40
1.524
  9
$DIMJUST
 70
     0
  9
$DIMSD1
 70
     0
  9
$DIMSD2
 70
     0
  9
$DIMTOLJ
 70
     0
  9
$DIMTZIN
 70
     0
  9
$DIMALTZ
 70
     0
  9
$DIMALTTZ
 70
     0
  9
$DIMUPT
 70
     0
  9
$DIMDEC
 70
     2
  9
$DIMTDEC
 70
     3
  9
$DIMALTU
 70
     2
  9
$DIMALTTD
 70
     3
  9
$DIMTXSTY
  7
Standard
  9
$DIMAUNIT
 70
     0
  9
$DIMADEC
 70
     2
  9
$DIMALTRND
 40
0.0
  9
$DIMAZIN
 70
     0
  9
$DIMDSEP
 70
    44
  9
$DIMATFIT
 70
     3
  9
$DIMFRAC
 70
     0
  9
$DIMLDRBLK
  1

  9
$DIMLUNIT
 70
     2
  9
$DIMLWD
 70
    -2
  9
$DIMLWE
 70
    -2
  9
$DIMTMOVE
 70
     0
  9
$LUNITS
 70
     2
  9
$LUPREC
 70
     2
  9
$SKETCHINC
 40
1.0
  9
$FILLETRAD
 40
10.0
  9
$AUNITS
 70
     0
  9
$AUPREC
 70
     2
  9
$MENU
  1
.
  9
$ELEVATION
 40
0.0
  9
$PELEVATION
 40
0.0
  9
$THICKNESS
 40
0.0
  9
$LIMCHECK
 70
     0
  9
$CHAMFERA
 40
0.0
  9
$CHAMFERB
 40
0.0
  9
$CHAMFERC
 40
0.0
  9
$CHAMFERD
 40
0.0
  9
$SKPOLY
 70
     0
  9
$TDCREATE
 40
2457674.435546019
  9
$TDUCREATE
 40
2457674.352212685
  9
$TDUPDATE
 40
2457674.435547257
  9
$TDUUPDATE
 40
2457674.352213924
  9
$TDINDWG
 40
0.0000000116
  9
$TDUSRTIMER
 40
0.0000000116
  9
$USRTIMER
 70
     1
  9
$ANGBASE
 50
0.0
  9
$ANGDIR
 70
     0
  9
$PDMODE
 70
     0
  9
$PDSIZE
 40
-1.0
  9
$PLINEWID
 40
0.0
  9
$SPLFRAME
 70
     0
  9
$SPLINETYPE
 70
     6
  9
$SPLINESEGS
 70
     8
  9
$HANDSEED
  5
256
  9
$SURFTAB1
 70
     6
  9
$SURFTAB2
 70
     6
  9
$SURFTYPE
 70
     6
  9
$SURFU
 70
     6
  9
$SURFV
 70
     6
  9
$UCSBASE
  2

  9
$UCSNAME
  2

  9
$UCSORG
 10
0.0
 20
0.0
 30
0.0
  9
$UCSXDIR
 10
1.0
 20
0.0
 30
0.0
  9
$UCSYDIR
 10
0.0
 20
1.0
 30
0.0
  9
$UCSORTHOREF
  2

  9
$UCSORTHOVIEW
 70
     0
  9
$UCSORGTOP
 10
0.0
 20
0.0
 30
0.0
  9
$UCSORGBOTTOM
 10
0.0
 20
0.0
 30
0.0
  9
$UCSORGLEFT
 10
0.0
 20
0.0
 30
0.0
  9
$UCSORGRIGHT
 10
0.0
 20
0.0
 30
0.0
  9
$UCSORGFRONT
 10
0.0
 20
0.0
 30
0.0
  9
$UCSORGBACK
 10
0.0
 20
0.0
 30
0.0
  9
$PUCSBASE
  2

  9
$PUCSNAME
  2

  9
$PUCSORG
 10
0.0
 20
0.0
 30
0.0
  9
$PUCSXDIR
 10
1.0
 20
0.0
 30
0.0
  9
$PUCSYDIR
 10
0.0
 20
1.0
 30
0.0
  9
$PUCSORTHOREF
  2

  9
$PUCSORTHOVIEW
 70
     0
  9
$PUCSORGTOP
 10
0.0
 20
0.0
 30
0.0
  9
$PUCSORGBOTTOM
 10
0.0
 20
0.0
 30
0.0
  9
$PUCSORGLEFT
 10
0.0
 20
0.0
 30
0.0
  9
$PUCSORGRIGHT
 10
0.0
 20
0.0
 30
0.0
  9
$PUCSORGFRONT
 10
0.0
 20
0.0
 30
0.0
  9
$PUCSORGBACK
 10
0.0
 20
0.0
 30
0.0
  9
$USERI1
 70
     0
  9
$USERI2
 70
     0
  9
$USERI3
 70
     0
  9
$USERI4
 70
     0
  9
$USERI5
 70
     0
  9
$USERR1
 40
0.0
  9
$USERR2
 40
0.0
  9
$USERR3
 40
0.0
  9
$USERR4
 40
0.0
  9
$USERR5
 40
0.0
  9
$WORLDVIEW
 70
     1
  9
$SHADEDGE
 70
     3
  9
$SHADEDIF
 70
    70
  9
$TILEMODE
 70
     1
  9
$MAXACTVP
 70
    64
  9
$PINSBASE
 10
0.0
 20
0.0
 30
0.0
  9
$PLIMCHECK
 70
     0
  9
$PEXTMIN
 10
1.0000000000E+20
 20
1.0000000000E+20
 30
1.0000000000E+20
  9
$PEXTMAX
 10
-1.0000000000E+20
 20
-1.0000000000E+20
 30
-1.0000000000E+20
  9
$PLIMMIN
 10
0.0
 20
0.0
  9
$PLIMMAX
 10
420.0
 20
297.0
  9
$UNITMODE
 70
     0
  9
$VISRETAIN
 70
     1
  9
$PLINEGEN
 70
     0
  9
$PSLTSCALE
 70
     1
  9
$TREEDEPTH
 70
  3020
  9
$CMLSTYLE
  2
Standard
  9
$CMLJUST
 70
     0
  9
$CMLSCALE
 40
20.0
  9
$PROXYGRAPHICS
 70
     1
  9
$MEASUREMENT
 70
     1
  9
$CELWEIGHT
370
    -1
  9
$ENDCAPS
280
     0
  9
$JOINSTYLE
280
     0
  9
$LWDISPLAY
290
     1
  9
$INSUNITS
 70
     4
  9
$HYPERLINKBASE
  1

  9
$STYLESHEET
  1

  9
$XEDIT
290
     1
  9
$CEPSNTYPE
380
     0
  9
$PSTYLEMODE
290
     1
  9
$FINGERPRINTGUID
  2
{504079AD-5337-4991-ABB0-AA735207B906}
  9
$VERSIONGUID
  2
{FAEB1C32-E019-11D5-929B-00C0DF256EC4}
  9
$EXTNAMES
290
     1
  9
$PSVPSCALE
 40
0.0
  9
$OLESTARTUP
290
     0
  0
ENDSEC
  0
SECTION
  2
CLASSES
  0
CLASS
  1
ACDBDICTIONARYWDFLT
  2
AcDbDictionaryWithDefault
  3
ObjectDBX Classes
 90
        0
280
     0
281
     0
  0
CLASS
  1
VISUALSTYLE
  2
AcDbVisualStyle
  3
ObjectDBX Classes
 90
     4095
280
     0
281
     0
  0
CLASS
  1
MATERIAL
  2
AcDbMaterial
  3
ObjectDBX Classes
 90
     1153
280
     0
281
     0
  0
CLASS
  1
SCALE
  2
AcDbScale
  3
ObjectDBX Classes
 90
     1153
280
     0
281
     0
  0
CLASS
  1
TABLESTYLE
  2
AcDbTableStyle
  3
ObjectDBX Classes
 90
     4095
280
     0
281
     0
  0
CLASS
  1
MLEADERSTYLE
  2
AcDbMLeaderStyle
  3
ACDB_MLEADERSTYLE_CLASS
 90
     4095
280
     0
281
     0
  0
CLASS
  1
SUN
  2
AcDbSun
  3
SCENEOE
 90
     1153
280
     0
281
     0
  0
CLASS
  1
ACDBPLACEHOLDER
  2
AcDbPlaceHolder
  3
ObjectDBX Classes
 90
        0
280
     0
281
     0
  0
CLASS
  1
LAYOUT
  2
AcDbLayout
  3
ObjectDBX Classes
 90
        0
280
     0
281
     0
  0
ENDSEC
  0
SECTION
  2
TABLES
  0
TABLE
  2
VPORT
  5
8
330
0
100
AcDbSymbolTable
 70
     1
  0
VPORT
  5
29
330
8
100
AcDbSymbolTableRecord
100
AcDbViewportTableRecord
  2
*Active
 70
     0
 10
0.0
 20
0.0
 11
1.0
 21
1.0
 12
148.5
 22
105.0
 13
0.0
 23
0.0
 14
10.0
 24
10.0
 15
10.0
 25
10.0
 16
0.0
 26
0.0
 36
1.0
 17
0.0
 27
0.0
 37
0.0
 40
210.0
 41
1.4142857143
 42
50.0
 43
0.0
 44
0.0
 50
0.0
 51
0.0
 71
     0
 72
  2000
 73
     1
 74
     3
 75
     0
 76
     0
 77
     0
 78
     0
281
     0
 65
     1
110
0.0
120
0.0
130
0.0
111
1.0
121
0.0
131
0.0
112
0.0
122
1.0
132
0.0
 79
     0
146
0.0
  0
ENDTAB
  0
TABLE
  2
LTYPE
  5
5
330
0
100
AcDbSymbolTable
 70
     6
  0
LTYPE
  5
14
330
5
100
AcDbSymbolTableRecord
100
AcDbLinetypeTableRecord
  2
ByBlock
 70
     0
  3

 72
    65
 73
     0
 40
0.0
  0
LTYPE
  5
15
330
5
100
AcDbSymbolTableRecord
100
AcDbLinetypeTableRecord
  2
ByLayer
 70
     0
  3

 72
    65
 73
     0
 40
0.0
  0
LTYPE
  5
16
330
5
100
AcDbSymbolTableRecord
100
AcDbLinetypeTableRecord
  2
Continuous
 70
     0
  3
Solid line
 72
    65
 73
     0
 40
0.0
  0
LTYPE
  5
6E
330
5
100
AcDbSymbolTableRecord
100
AcDbLinetypeTableRecord
  2
HIDDEN
 70
     0
  3
Hidden __ __ __ __ __ __ __ __ __ __ __ __ __ __
 72
    65
 73
     2
 40
1.905
 49
1.27
 74
     0
 49
-0.635
 74
     0
  0
LTYPE
  5
6F
330
5
100
AcDbSymbolTableRecord
100
AcDbLinetypeTableRecord
  2
PHANTOM
 70
     0
  3
Phantom ______  __  __  ______  __  __  ______
 72
    65
 73
     6
 40
12.7
 49
6.35
 74
     0
 49
-1.27
 74
     0
 49
1.27
 74
     0
 49
-1.27
 74
     0
 49
1.27
 74
     0
 49
-1.27
 74
     0
  0
LTYPE
  5
70
330
5
100
AcDbSymbolTableRecord
100
AcDbLinetypeTableRecord
  2
CENTER
 70
     0
  3
Center ____ _ ____ _ ____ _ ____ _ ____ _ ____
 72
    65
 73
     4
 40
10.16
 49
6.35
 74
     0
 49
-1.27
 74
     0
 49
1.27
 74
     0
 49
-1.27
 74
     0
  0
LTYPE
  5
71
330
5
100
AcDbSymbolTableRecord
100
AcDbLinetypeTableRecord
  2
CENTERX2
 70
     0
  3
Center (2x) ________  __  ________  __  _____
 72
    65
 73
     4
 40
20.32
 49
12.7
 74
     0
 49
-2.54
 74
     0
 49
2.54
 74
     0
 49
-2.54
 74
     0
  0
LTYPE
  5
72
330
5
100
AcDbSymbolTableRecord
100
AcDbLinetypeTableRecord
  2
DOT2
 70
     0
  3
Dot (.5x) ........................................
 72
    65
 73
     2
 40
0.635
 49
0.0
 74
     0
 49
-0.635
 74
     0
  0
ENDTAB
  0
TABLE
  2
LAYER
  5
2
330
0
100
AcDbSymbolTable
 70
     5
  0
LAYER
  5
10
330
2
100
AcDbSymbolTableRecord
100
AcDbLayerTableRecord
  2
0
 70
     0
 62
     7
  6
Continuous
370
    -3
390
F
  0
LAYER
  5
73
330
2
100
AcDbSymbolTableRecord
100
AcDbLayerTableRecord
  2
FORMAT
 70
     0
 62
     7
  6
Continuous
370
    -3
390
F
  0
LAYER
  5
74
330
2
100
AcDbSymbolTableRecord
100
AcDbLayerTableRecord
  2
VERMASSUNG
 70
     0
 62
     7
  6
Continuous
370
    -3
390
F
  0
LAYER
  5
75
330
2
100
AcDbSymbolTableRecord
100
AcDbLayerTableRecord
  2
KOPF_DÜNN
 70
     0
 62
     7
  6
Continuous
370
    -3
390
F
  0
LAYER
  5
76
330
2
100
AcDbSymbolTableRecord
100
AcDbLayerTableRecord
  2
KOPF_DICK
 70
     0
 62
     7
  6
Continuous
370
    15
390
F
  0
ENDTAB
  0
TABLE
  2
STYLE
  5
3
330
0
100
AcDbSymbolTable
 70
     2
  0
STYLE
  5
11
330
3
100
AcDbSymbolTableRecord
100
AcDbTextStyleTableRecord
  2
Standard
 70
     0
 40
0.0
 41
1.0
 50
0.0
 71
     0
 42
2.0
  3
txt
  4

  0
STYLE
  5
77
330
3
100
AcDbSymbolTableRecord
100
AcDbTextStyleTableRecord
  2
SLDTEXTSTYLE0
 70
     0
 40
0.0
 41
0.7
 50
0.0
 71
     0
 42
2.0
  3
TXT
  4

  0
ENDTAB
  0
TABLE
  2
VIEW
  5
6
330
0
100
AcDbSymbolTable
 70
     0
  0
ENDTAB
  0
TABLE
  2
UCS
  5
7
330
0
100
AcDbSymbolTable
 70
     0
  0
ENDTAB
  0
TABLE
  2
APPID
  5
9
330
0
100
AcDbSymbolTable
 70
     1
  0
APPID
  5
12
330
9
100
AcDbSymbolTableRecord
100
AcDbRegAppTableRecord
  2
ACAD
 70
     0
  0
ENDTAB
  0
TABLE
  2
DIMSTYLE
  5
A
330
0
100
AcDbSymbolTable
 70
     3
100
AcDbDimStyleTable
  0
DIMSTYLE
105
27
330
A
100
AcDbSymbolTableRecord
100
AcDbDimStyleTableRecord
  2
ISO-25
 70
     0
 41
2.5
 42
0.625
 43
3.75
 44
1.25
 73
     0
 74
     0
 77
     1
 78
     8
140
2.5
141
2.5
143
0.0393700787
147
0.625
171
     3
172
     1
178
     0
271
     2
272
     2
274
     3
278
    44
283
     0
284
     8
340
11
  0
DIMSTYLE
105
183
102
{ACAD_REACTORS
330
182
330
18F
330
199
330
1A3
102
}
330
A
100
AcDbSymbolTableRecord
100
AcDbDimStyleTableRecord
  2
SLDDIMSTYLE0
 70
     0
 41
3.0
 44
0.0
 45
0.000000001
 73
     0
 74
     0
 77
     1
 78
    12
 79
     3
140
2.0
147
0.5
173
     1
178
     0
271
     2
272
     3
276
     2
284
    12
340
77
  0
DIMSTYLE
105
1AE
102
{ACAD_REACTORS
330
1AD
330
1BC
102
}
330
A
100
AcDbSymbolTableRecord
100
AcDbDimStyleTableRecord
  2
SLDDIMSTYLE1
 70
     0
 41
3.0
 44
0.0
 45
0.000000001
 73
     0
 74
     0
 77
     1
 78
    12
 79
     3
140
2.0
147
0.5
172
     1
173
     1
178
     0
271
     2
272
     3
276
     2
284
    12
289
     0
340
77
  0
ENDTAB
  0
TABLE
  2
BLOCK_RECORD
  5
1
330
0
100
AcDbSymbolTable
 70
     7
  0
BLOCK_RECORD
  5
1F
330
1
100
AcDbSymbolTableRecord
100
AcDbBlockTableRecord
  2
*Model_Space
340
22
  0
BLOCK_RECORD
  5
1B
330
1
100
AcDbSymbolTableRecord
100
AcDbBlockTableRecord
  2
*Paper_Space
340
1E
  0
BLOCK_RECORD
  5
23
330
1
100
AcDbSymbolTableRecord
100
AcDbBlockTableRecord
  2
*Paper_Space0
340
26
  0
BLOCK_RECORD
  5
184
330
1
100
AcDbSymbolTableRecord
100
AcDbBlockTableRecord
  2
_D
340
0
  0
BLOCK_RECORD
  5
190
330
1
100
AcDbSymbolTableRecord
100
AcDbBlockTableRecord
  2
_D_1
340
0
  0
BLOCK_RECORD
  5
19A
330
1
100
AcDbSymbolTableRecord
100
AcDbBlockTableRecord
  2
_D_2
340
0
  0
BLOCK_RECORD
  5
1A4
330
1
100
AcDbSymbolTableRecord
100
AcDbBlockTableRecord
  2
_D_3
340
0
  0
BLOCK_RECORD
  5
1AF
330
1
100
AcDbSymbolTableRecord
100
AcDbBlockTableRecord
  2
_D_4
340
0
  0
BLOCK_RECORD
  5
1BD
330
1
100
AcDbSymbolTableRecord
100
AcDbBlockTableRecord
  2
_D_5
340
0
  0
ENDTAB
  0
ENDSEC
  0
SECTION
  2
BLOCKS
  0
BLOCK
  5
20
330
1F
100
AcDbEntity
  8
0
100
AcDbBlockBegin
  2
*Model_Space
 70
     0
 10
0.0
 20
0.0
 30
0.0
  3
*Model_Space
  1

  0
ENDBLK
  5
21
330
1F
100
AcDbEntity
  8
0
100
AcDbBlockEnd
  0
BLOCK
  5
1C
330
1B
100
AcDbEntity
 67
     1
  8
0
100
AcDbBlockBegin
  2
*Paper_Space
 70
     0
 10
0.0
 20
0.0
 30
0.0
  3
*Paper_Space
  1

  0
ENDBLK
  5
1D
330
1B
100
AcDbEntity
 67
     1
  8
0
100
AcDbBlockEnd
  0
BLOCK
  5
24
330
23
100
AcDbEntity
  8
0
100
AcDbBlockBegin
  2
*Paper_Space0
 70
     0
 10
0.0
 20
0.0
 30
0.0
  3
*Paper_Space0
  1

  0
ENDBLK
  5
25
330
23
100
AcDbEntity
  8
0
100
AcDbBlockEnd
  0
BLOCK
  5
185
330
184
100
AcDbEntity
  8
0
100
AcDbBlockBegin
  2
_D
 70
     0
 10
0.0
 20
0.0
 30
0.0
  3
_D
  1

  0
SOLID
  5
187
330
184
100
AcDbEntity
  8
VERMASSUNG
100
AcDbTrace
 10
86.2285792118
 20
81.7903651025
 30
0.0
 11
86.6785792118
 21
84.7903651025
 31
0.0
 12
85.7785792118
 22
84.7903651025
 32
0.0
 13
85.7785792118
 23
84.7903651025
 33
0.0
  0
SOLID
  5
188
330
184
100
AcDbEntity
  8
VERMASSUNG
100
AcDbTrace
 10
86.2285792118
 20
145.2903651025
 30
0.0
 11
85.7785792118
 21
142.2903651025
 31
0.0
 12
86.6785792118
 22
142.2903651025
 32
0.0
 13
86.6785792118
 23
142.2903651025
 33
0.0
  0
LINE
  5
189
330
184
100
AcDbEntity
  8
VERMASSUNG
100
AcDbLine
 10
181.0292362664
 20
81.7903651025
 30
0.0
 11
85.2285792118
 21
81.7903651025
 31
0.0
  0
LINE
  5
18A
330
184
100
AcDbEntity
  8
VERMASSUNG
100
AcDbLine
 10
181.0292362664
 20
145.2903651025
 30
0.0
 11
85.2285792118
 21
145.2903651025
 31
0.0
  0
LINE
  5
18B
330
184
100
AcDbEntity
  8
VERMASSUNG
100
AcDbLine
 10
86.2285792118
 20
81.7903651025
 30
0.0
 11
86.2285792118
 21
145.2903651025
 31
0.0
  0
MTEXT
  5
18C
330
184
100
AcDbEntity
  8
VERMASSUNG
100
AcDbMText
 10
83.4504439556
 20
104.7374289542
 30
0.0
 40
2.0
 41
0.0
 71
     1
 72
     1
  1
ISO 40
  7
SLDTEXTSTYLE0
 11
3.391901413832837E-15
 21
1.0
 31
0.0
 73
     1
 44
1.0
  0
MTEXT
  5
18D
330
184
100
AcDbEntity
  8
VERMASSUNG
100
AcDbMText
 10
83.6504439069
 20
113.9374291583
 30
0.0
 40
2.0
 41
0.0
 71
     1
 72
     1
  1
%%c
  7
SLDTEXTSTYLE0
 11
3.391901413832837E-15
 21
1.0
 31
0.0
 73
     1
 44
1.0
  0
MTEXT
  5
18E
330
184
100
AcDbEntity
  8
VERMASSUNG
100
AcDbMText
 10
83.6504436158
 20
117.5453094897
 30
0.0
 40
2.0
 41
0.0
 71
     1
 72
     1
  1
63.5
  7
SLDTEXTSTYLE0
 11
3.391901413832837E-15
 21
1.0
 31
0.0
 73
     1
 44
1.0
  0
ENDBLK
  5
186
330
184
100
AcDbEntity
  8
0
100
AcDbBlockEnd
  0
BLOCK
  5
191
330
190
100
AcDbEntity
  8
0
100
AcDbBlockBegin
  2
_D_1
 70
     0
 10
0.0
 20
0.0
 30
0.0
  3
_D_1
  1

  0
SOLID
  5
193
330
190
100
AcDbEntity
  8
VERMASSUNG
100
AcDbTrace
 10
162.5792362664
 20
155.8921007217
 30
0.0
 11
165.5792362664
 21
155.4421007217
 31
0.0
 12
165.5792362664
 22
156.3421007217
 32
0.0
 13
165.5792362664
 23
156.3421007217
 33
0.0
  0
SOLID
  5
194
330
190
100
AcDbEntity
  8
VERMASSUNG
100
AcDbTrace
 10
208.5792362664
 20
155.8921007217
 30
0.0
 11
205.5792362664
 21
156.3421007217
 31
0.0
 12
205.5792362664
 22
155.4421007217
 32
0.0
 13
205.5792362664
 23
155.4421007217
 33
0.0
  0
LINE
  5
195
330
190
100
AcDbEntity
  8
VERMASSUNG
100
AcDbLine
 10
162.5792362664
 20
135.7653651025
 30
0.0
 11
162.5792362664
 21
156.8921007217
 31
0.0
  0
LINE
  5
196
330
190
100
AcDbEntity
  8
VERMASSUNG
100
AcDbLine
 10
208.5792362664
 20
123.3403651025
 30
0.0
 11
208.5792362664
 21
156.8921007217
 31
0.0
  0
LINE
  5
197
330
190
100
AcDbEntity
  8
VERMASSUNG
100
AcDbLine
 10
162.5792362664
 20
155.8921007217
 30
0.0
 11
208.5792362664
 21
155.8921007217
 31
0.0
  0
MTEXT
  5
198
330
190
100
AcDbEntity
  8
VERMASSUNG
100
AcDbMText
 10
184.080277461
 20
158.4702363177
 30
0.0
 40
2.0
 41
0.0
 71
     1
 72
     1
  1
46
  7
SLDTEXTSTYLE0
 73
     1
 44
1.0
  0
ENDBLK
  5
192
330
190
100
AcDbEntity
  8
0
100
AcDbBlockEnd
  0
BLOCK
  5
19B
330
19A
100
AcDbEntity
  8
0
100
AcDbBlockBegin
  2
_D_2
 70
     0
 10
0.0
 20
0.0
 30
0.0
  3
_D_2
  1

  0
SOLID
  5
19D
330
19A
100
AcDbEntity
  8
VERMASSUNG
100
AcDbTrace
 10
181.6292362664
 20
149.8921007217
 30
0.0
 11
184.6292362664
 21
149.4421007217
 31
0.0
 12
184.6292362664
 22
150.3421007217
 32
0.0
 13
184.6292362664
 23
150.3421007217
 33
0.0
  0
SOLID
  5
19E
330
19A
100
AcDbEntity
  8
VERMASSUNG
100
AcDbTrace
 10
208.5792362664
 20
149.8921007217
 30
0.0
 11
205.5792362664
 21
150.3421007217
 31
0.0
 12
205.5792362664
 22
149.4421007217
 32
0.0
 13
205.5792362664
 23
149.4421007217
 33
0.0
  0
LINE
  5
19F
330
19A
100
AcDbEntity
  8
VERMASSUNG
100
AcDbLine
 10
181.6292362664
 20
143.5509162359
 30
0.0
 11
181.6292362664
 21
150.8921007217
 31
0.0
  0
LINE
  5
1A0
330
19A
100
AcDbEntity
  8
VERMASSUNG
100
AcDbLine
 10
208.5792362664
 20
123.3403651025
 30
0.0
 11
208.5792362664
 21
150.8921007217
 31
0.0
  0
LINE
  5
1A1
330
19A
100
AcDbEntity
  8
VERMASSUNG
100
AcDbLine
 10
181.6292362664
 20
149.8921007217
 30
0.0
 11
208.5792362664
 21
149.8921007217
 31
0.0
  0
MTEXT
  5
1A2
330
19A
100
AcDbEntity
  8
VERMASSUNG
100
AcDbMText
 10
192.0048438874
 20
152.4702363177
 30
0.0
 40
2.0
 41
0.0
 71
     1
 72
     1
  1
26.95
  7
SLDTEXTSTYLE0
 73
     1
 44
1.0
  0
ENDBLK
  5
19C
330
19A
100
AcDbEntity
  8
0
100
AcDbBlockEnd
  0
BLOCK
  5
1A5
330
1A4
100
AcDbEntity
  8
0
100
AcDbBlockBegin
  2
_D_3
 70
     0
 10
0.0
 20
0.0
 30
0.0
  3
_D_3
  1

  0
SOLID
  5
1A7
330
1A4
100
AcDbEntity
  8
VERMASSUNG
100
AcDbTrace
 10
94.3292362664
 20
161.8921007217
 30
0.0
 11
97.3292362664
 21
161.4421007217
 31
0.0
 12
97.3292362664
 22
162.3421007217
 32
0.0
 13
97.3292362664
 23
162.3421007217
 33
0.0
  0
SOLID
  5
1A8
330
1A4
100
AcDbEntity
  8
VERMASSUNG
100
AcDbTrace
 10
208.5792362664
 20
161.8921007217
 30
0.0
 11
205.5792362664
 21
162.3421007217
 31
0.0
 12
205.5792362664
 22
161.4421007217
 32
0.0
 13
205.5792362664
 23
161.4421007217
 33
0.0
  0
LINE
  5
1A9
330
1A4
100
AcDbEntity
  8
VERMASSUNG
100
AcDbLine
 10
94.3292362664
 20
124.9474956995
 30
0.0
 11
94.3292362664
 21
162.8921007217
 31
0.0
  0
LINE
  5
1AA
330
1A4
100
AcDbEntity
  8
VERMASSUNG
100
AcDbLine
 10
208.5792362664
 20
123.3403651025
 30
0.0
 11
208.5792362664
 21
162.8921007217
 31
0.0
  0
LINE
  5
1AB
330
1A4
100
AcDbEntity
  8
VERMASSUNG
100
AcDbLine
 10
94.3292362664
 20
161.8921007217
 30
0.0
 11
208.5792362664
 21
161.8921007217
 31
0.0
  0
MTEXT
  5
1AC
330
1A4
100
AcDbEntity
  8
VERMASSUNG
100
AcDbMText
 10
147.9544597473
 20
164.4702363177
 30
0.0
 40
2.0
 41
0.0
 71
     1
 72
     1
  1
114.25
  7
SLDTEXTSTYLE0
 73
     1
 44
1.0
  0
ENDBLK
  5
1A6
330
1A4
100
AcDbEntity
  8
0
100
AcDbBlockEnd
  0
BLOCK
  5
1B0
330
1AF
100
AcDbEntity
  8
0
100
AcDbBlockBegin
  2
_D_4
 70
     0
 10
0.0
 20
0.0
 30
0.0
  3
_D_4
  1

  0
SOLID
  5
1B2
330
1AF
100
AcDbEntity
  8
VERMASSUNG
100
AcDbTrace
 10
222.1883826078
 20
123.5403651025
 30
0.0
 11
222.6383826078
 21
126.5403651025
 31
0.0
 12
221.7383826078
 22
126.5403651025
 32
0.0
 13
221.7383826078
 23
126.5403651025
 33
0.0
  0
SOLID
  5
1B3
330
1AF
100
AcDbEntity
  8
VERMASSUNG
100
AcDbTrace
 10
222.1883826078
 20
103.5403651025
 30
0.0
 11
221.7383826078
 21
100.5403651025
 31
0.0
 12
222.6383826078
 22
100.5403651025
 32
0.0
 13
222.6383826078
 23
100.5403651025
 33
0.0
  0
LINE
  5
1B4
330
1AF
100
AcDbEntity
  8
VERMASSUNG
100
AcDbLine
 10
208.3792362664
 20
123.5403651025
 30
0.0
 11
223.1883826078
 21
123.5403651025
 31
0.0
  0
LINE
  5
1B5
330
1AF
100
AcDbEntity
  8
VERMASSUNG
100
AcDbLine
 10
208.3792362664
 20
103.5403651025
 30
0.0
 11
223.1883826078
 21
103.5403651025
 31
0.0
  0
LINE
  5
1B6
330
1AF
100
AcDbEntity
  8
VERMASSUNG
100
AcDbLine
 10
222.1883826078
 20
123.5403651025
 30
0.0
 11
222.1883826078
 21
129.5403651025
 31
0.0
  0
LINE
  5
1B7
330
1AF
100
AcDbEntity
  8
VERMASSUNG
100
AcDbLine
 10
222.1883826078
 20
123.5403651025
 30
0.0
 11
222.1883826078
 21
103.5403651025
 31
0.0
  0
LINE
  5
1B8
330
1AF
100
AcDbEntity
  8
VERMASSUNG
100
AcDbLine
 10
222.1883826078
 20
103.5403651025
 30
0.0
 11
222.1883826078
 21
97.5403651025
 31
0.0
  0
MTEXT
  5
1B9
330
1AF
100
AcDbEntity
  8
VERMASSUNG
100
AcDbMText
 10
219.4102473516
 20
107.8357183466
 30
0.0
 40
2.0
 41
0.0
 71
     1
 72
     1
  1
WH
  7
SLDTEXTSTYLE0
 11
-7.044195017643634E-15
 21
1.0
 31
0.0
 73
     1
 44
1.0
  0
MTEXT
  5
1BA
330
1AF
100
AcDbEntity
  8
VERMASSUNG
100
AcDbMText
 10
219.6102473029
 20
112.8357182348
 30
0.0
 40
2.0
 41
0.0
 71
     1
 72
     1
  1
%%c
  7
SLDTEXTSTYLE0
 11
-7.044195017643634E-15
 21
1.0
 31
0.0
 73
     1
 44
1.0
  0
MTEXT
  5
1BB
330
1AF
100
AcDbEntity
  8
VERMASSUNG
100
AcDbMText
 10
219.6102470119
 20
116.4456318378
 30
0.0
 40
2.0
 41
0.0
 71
     1
 72
     1
  1
20
  7
SLDTEXTSTYLE0
 11
-7.044195017643634E-15
 21
1.0
 31
0.0
 73
     1
 44
1.0
  0
ENDBLK
  5
1B1
330
1AF
100
AcDbEntity
  8
0
100
AcDbBlockEnd
  0
BLOCK
  5
1BE
330
1BD
100
AcDbEntity
  8
0
100
AcDbBlockBegin
  2
_D_5
 70
     0
 10
0.0
 20
0.0
 30
0.0
  3
_D_5
  1

  0
SOLID
  5
1C0
330
1BD
100
AcDbEntity
  8
VERMASSUNG
100
AcDbTrace
 10
215.8883826078
 20
108.0403651025
 30
0.0
 11
215.4383826078
 21
105.0403651025
 31
0.0
 12
216.3383826078
 22
105.0403651025
 32
0.0
 13
216.3383826078
 23
105.0403651025
 33
0.0
  0
SOLID
  5
1C1
330
1BD
100
AcDbEntity
  8
VERMASSUNG
100
AcDbTrace
 10
215.8883826078
 20
119.0403651025
 30
0.0
 11
216.3383826078
 21
122.0403651025
 31
0.0
 12
215.4383826078
 22
122.0403651025
 32
0.0
 13
215.4383826078
 23
122.0403651025
 33
0.0
  0
LINE
  5
1C2
330
1BD
100
AcDbEntity
  8
VERMASSUNG
100
AcDbLine
 10
207.5792362664
 20
108.0403651025
 30
0.0
 11
216.8883826078
 21
108.0403651025
 31
0.0
  0
LINE
  5
1C3
330
1BD
100
AcDbEntity
  8
VERMASSUNG
100
AcDbLine
 10
207.5792362664
 20
119.0403651025
 30
0.0
 11
216.8883826078
 21
119.0403651025
 31
0.0
  0
LINE
  5
1C4
330
1BD
100
AcDbEntity
  8
VERMASSUNG
100
AcDbLine
 10
215.8883826078
 20
108.0403651025
 30
0.0
 11
215.8883826078
 21
102.0403651025
 31
0.0
  0
LINE
  5
1C5
330
1BD
100
AcDbEntity
  8
VERMASSUNG
100
AcDbLine
 10
215.8883826078
 20
108.0403651025
 30
0.0
 11
215.8883826078
 21
119.0403651025
 31
0.0
  0
LINE
  5
1C6
330
1BD
100
AcDbEntity
  8
VERMASSUNG
100
AcDbLine
 10
215.8883826078
 20
119.0403651025
 30
0.0
 11
215.8883826078
 21
125.0403651025
 31
0.0
  0
MTEXT
  5
1C7
330
1BD
100
AcDbEntity
  8
VERMASSUNG
100
AcDbMText
 10
213.3102470701
 20
110.7365731355
 30
0.0
 40
2.0
 41
0.0
 71
     1
 72
     1
  1
%%c
  7
SLDTEXTSTYLE0
 11
6.123233995736766E-17
 21
1.0
 31
0.0
 73
     1
 44
1.0
  0
MTEXT
  5
1C8
330
1BD
100
AcDbEntity
  8
VERMASSUNG
100
AcDbMText
 10
213.3102470119
 20
114.3455453291
 30
0.0
 40
2.0
 41
0.0
 71
     1
 72
     1
  1
11
  7
SLDTEXTSTYLE0
 11
6.123233995736766E-17
 21
1.0
 31
0.0
 73
     1
 44
1.0
  0
ENDBLK
  5
1BF
330
1BD
100
AcDbEntity
  8
0
100
AcDbBlockEnd
  0
ENDSEC
  0
SECTION
  2
ENTITIES
  0
MTEXT
  5
78
330
1F
100
AcDbEntity
  8
KOPF_DÜNN
100
AcDbMText
 10
13.8892156294
 20
23.8442973028
 30
0.0
 40
3.0
 41
0.0
 71
     1
 72
     1
  1
A14.440.020.046
  7
SLDTEXTSTYLE0
 73
     1
 44
1.0
  0
MTEXT
  5
79
330
1F
100
AcDbEntity
  8
VERMASSUNG
100
AcDbMText
 10
13.9329988022
 20
28.8834360957
 30
0.0
 40
3.0
 41
0.0
 71
     1
 72
     1
  1
Aufnahme_Master shank WH20
  7
SLDTEXTSTYLE0
 73
     1
 44
1.0
  0
MTEXT
  5
7A
330
1F
100
AcDbEntity
  8
VERMASSUNG
100
AcDbMText
 10
98.8601118557
 20
13.8365368761
 30
0.0
 40
2.0
 41
0.0
 71
     1
 72
     1
  1
Datum: 01.09.2011
  7
SLDTEXTSTYLE0
 73
     1
 44
1.0
  0
MTEXT
  5
7B
330
1F
100
AcDbEntity
  8
VERMASSUNG
100
AcDbMText
 10
13.933048693
 20
18.0482802738
 30
0.0
 40
2.0
 41
0.0
 71
     1
 72
     1
  1
DIN 69871 AD/B
  7
SLDTEXTSTYLE0
 73
     1
 44
1.0
  0
MTEXT
  5
7C
330
1F
100
AcDbEntity
  8
VERMASSUNG
100
AcDbMText
 10
13.9808475933
 20
13.9090974274
 30
0.0
 40
2.0
 41
0.0
 71
     1
 72
     1
  1
Gewicht: 878g
  7
SLDTEXTSTYLE0
 73
     1
 44
1.0
  0
ARC
  5
7D
330
1F
100
AcDbEntity
  8
0
  6
Continuous
 62
     7
370
    15
100
AcDbCircle
 10
165.1792362664
 20
90.7153651025
 30
0.0
 40
0.6000000000000085
100
AcDbArc
 50
0.0
 51
90.0
  0
ARC
  5
7E
330
1F
100
AcDbEntity
  8
0
  6
Continuous
 62
     7
370
    15
100
AcDbCircle
 10
165.1792362664
 20
136.3653651025
 30
0.0
 40
0.6000000000000227
100
AcDbArc
 50
270.0
 51
0.0
  0
LINE
  5
7F
330
1F
100
AcDbEntity
  8
0
  6
Continuous
 62
     7
370
    15
100
AcDbLine
 10
162.5792362664
 20
91.3153651025
 30
0.0
 11
165.1792362664
 21
91.3153651025
 31
0.0
  0
LINE
  5
80
330
1F
100
AcDbEntity
  8
0
  6
Continuous
 62
     7
370
    15
100
AcDbLine
 10
165.1792362664
 20
135.7653651025
 30
0.0
 11
162.5792362664
 21
135.7653651025
 31
0.0
  0
LINE
  5
81
330
1F
100
AcDbEntity
  8
0
  6
Continuous
 62
     7
370
    15
100
AcDbLine
 10
162.5792362664
 20
135.7653651025
 30
0.0
 11
95.1849293733
 21
125.9370286806
 31
0.0
  0
LINE
  5
82
330
1F
100
AcDbEntity
  8
0
  6
Continuous
 62
     7
370
    15
100
AcDbLine
 10
95.1849293733
 20
101.1437015244
 30
0.0
 11
162.5792362664
 21
91.3153651025
 31
0.0
  0
ARC
  5
83
330
1F
100
AcDbEntity
  8
0
  6
Continuous
 62
     7
370
    15
100
AcDbCircle
 10
184.6292362664
 20
100.5403651025
 30
0.0
 40
3.0
100
AcDbArc
 50
90.0
 51
180.0
  0
ARC
  5
84
330
1F
100
AcDbEntity
  8
0
  6
Continuous
 62
     7
370
    15
100
AcDbCircle
 10
184.6292362664
 20
126.5403651025
 30
0.0
 40
3.0
100
AcDbArc
 50
180.0
 51
270.0
  0
ARC
  5
85
330
1F
100
AcDbEntity
  8
0
  6
Continuous
 62
     7
370
    15
100
AcDbCircle
 10
95.3292362664
 20
102.1332345055
 30
0.0
 40
0.9999999999999959
100
AcDbArc
 50
180.0
 51
261.7028550302
  0
ARC
  5
86
330
1F
100
AcDbEntity
  8
0
  6
Continuous
 62
     7
370
    15
100
AcDbCircle
 10
95.3292362664
 20
124.9474956995
 30
0.0
 40
0.9999999999999959
100
AcDbArc
 50
98.2971449698
 51
180.0
  0
LINE
  5
87
330
1F
100
AcDbEntity
  8
0
  6
Continuous
 62
     7
370
    15
100
AcDbLine
 10
208.3792362664
 20
103.5403651025
 30
0.0
 11
208.5792362664
 21
103.7403651025
 31
0.0
  0
LINE
  5
88
330
1F
100
AcDbEntity
  8
0
  6
Continuous
 62
     7
370
    15
100
AcDbLine
 10
208.5792362664
 20
123.3403651025
 30
0.0
 11
208.3792362664
 21
123.5403651025
 31
0.0
  0
LINE
  5
89
330
1F
100
AcDbEntity
  8
0
  6
Continuous
 62
     7
370
    15
100
AcDbLine
 10
184.6292362664
 20
103.5403651025
 30
0.0
 11
208.3792362664
 21
103.5403651025
 31
0.0
  0
LINE
  5
8A
330
1F
100
AcDbEntity
  8
0
  6
Continuous
 62
     7
370
    15
100
AcDbLine
 10
208.3792362664
 20
123.5403651025
 30
0.0
 11
184.6292362664
 21
123.5403651025
 31
0.0
  0
SPLINE
  5
8B
330
1F
100
AcDbEntity
  8
0
  6
Continuous
 62
     7
370
    15
100
AcDbSpline
210
0.0
220
0.0
230
1.0
 70
    24
 71
     3
 72
    10
 73
     6
 74
     0
 42
0.000000001
 43
0.00000001
 40
0.0
 40
0.0
 40
0.0
 40
0.0
 40
0.4391119879276824
 40
0.7513633230734865
 40
0.9999999999999999
 40
0.9999999999999999
 40
0.9999999999999999
 40
0.9999999999999999
 10
203.692221260934
 20
114.395233066412
 30
0.0
 10
203.5029932551577
 20
114.4782264635818
 30
0.0
 10
203.1792057313653
 20
114.620236238776
 30
0.0
 10
202.7085202775231
 20
114.826673888703
 30
0.0
 10
202.4742439890843
 20
114.9294249850543
 30
0.0
 10
202.3703913900158
 20
114.9749736339779
 30
0.0
  0
SPLINE
  5
8C
330
1F
100
AcDbEntity
  8
0
  6
Continuous
 62
     7
370
    15
100
AcDbSpline
210
0.0
220
0.0
230
1.0
 70
    24
 71
     3
 72
    10
 73
     6
 74
     0
 42
0.000000001
 43
0.00000001
 40
0.0
 40
0.0
 40
0.0
 40
0.0
 40
0.4391119879276841
 40
0.7513633230734588
 40
1.0
 40
1.0
 40
1.0
 40
1.0
 10
202.3703913900158
 20
114.9749736339779
 30
0.0
 10
202.2039029968322
 20
114.8525940724531
 30
0.0
 10
201.9190251620321
 20
114.6431907390175
 30
0.0
 10
201.5049021859766
 20
114.3387840037618
 30
0.0
 10
201.2987789820503
 20
114.1872703346451
 30
0.0
 10
201.2074063954402
 20
114.1201056700645
 30
0.0
  0
SPLINE
  5
8D
330
1F
100
AcDbEntity
  8
0
  6
Continuous
 62
     7
370
    15
100
AcDbSpline
210
0.0
220
0.0
230
1.0
 70
    24
 71
     3
 72
    11
 73
     7
 74
     0
 42
0.000000001
 43
0.00000001
 40
0.0
 40
0.0
 40
0.0
 40
0.0
 40
0.1855070912791566
 40
0.5226425778603119
 40
0.8775754485095512
 40
1.0
 40
1.0
 40
1.0
 40
1.0
 10
201.2074063954401
 20
114.1201056700645
 30
0.0
 10
201.2166802590177
 20
114.0363487109825
 30
0.0
 10
201.2428081872469
 20
113.8003741576296
 30
0.0
 10
201.2916999058276
 20
113.358808283995
 30
0.0
 10
201.3364219517445
 20
112.9549008360826
 30
0.0
 10
201.3601626574404
 20
112.7404864985294
 30
0.0
 10
201.3662512717828
 20
112.6854971385852
 30
0.0
  0
SPLINE
  5
8E
330
1F
100
AcDbEntity
  8
0
  6
Continuous
 62
     7
370
    15
100
AcDbSpline
210
0.0
220
0.0
230
1.0
 70
    24
 71
     3
 72
    10
 73
     6
 74
     0
 42
0.000000001
 43
0.00000001
 40
0.0
 40
0.0
 40
0.0
 40
0.0
 40
0.4391119879276963
 40
0.7513633230734895
 40
1.0
 40
1.0
 40
1.0
 40
1.0
 10
201.3662512717828
 20
112.6854971385852
 30
0.0
 10
201.5554792775591
 20
112.6025037414153
 30
0.0
 10
201.8792668013515
 20
112.4604939662211
 30
0.0
 10
202.3499522551938
 20
112.2540563162942
 30
0.0
 10
202.5842285436325
 20
112.1513052199429
 30
0.0
 10
202.6880811427011
 20
112.1057565710193
 30
0.0
  0
SPLINE
  5
8F
330
1F
100
AcDbEntity
  8
0
  6
Continuous
 62
     7
370
    15
100
AcDbSpline
210
0.0
220
0.0
230
1.0
 70
    24
 71
     3
 72
    10
 73
     6
 74
     0
 42
0.000000001
 43
0.00000001
 40
0.0
 40
0.0
 40
0.0
 40
0.0
 40
0.4391119879276961
 40
0.7513633230734653
 40
1.0
 40
1.0
 40
1.0
 40
1.0
 10
202.6880811427011
 20
112.1057565710193
 30
0.0
 10
202.8545695358847
 20
112.2281361325442
 30
0.0
 10
203.1394473706848
 20
112.4375394659797
 30
0.0
 10
203.5535703467402
 20
112.7419462012355
 30
0.0
 10
203.7596935506665
 20
112.8934598703522
 30
0.0
 10
203.8510661372767
 20
112.9606245349327
 30
0.0
  0
SPLINE
  5
90
330
1F
100
AcDbEntity
  8
0
  6
Continuous
 62
     7
370
    15
100
AcDbSpline
210
0.0
220
0.0
230
1.0
 70
    24
 71
     3
 72
    11
 73
     7
 74
     0
 42
0.000000001
 43
0.00000001
 40
0.0
 40
0.0
 40
0.0
 40
0.0
 40
0.1224245514904022
 40
0.4773574221396562
 40
0.8144929087208521
 40
0.9999999999999999
 40
0.9999999999999999
 40
0.9999999999999999
 40
0.9999999999999999
 10
203.8510661372767
 20
112.9606245349327
 30
0.0
 10
203.8449775229343
 20
113.0156138948769
 30
0.0
 10
203.8212368172383
 20
113.23002823243
 30
0.0
 10
203.7765147713215
 20
113.6339356803425
 30
0.0
 10
203.7276230527407
 20
114.075501553977
 30
0.0
 10
203.7014951245116
 20
114.3114761073299
 30
0.0
 10
203.692221260934
 20
114.395233066412
 30
0.0
  0
CIRCLE
  5
91
330
1F
100
AcDbEntity
  8
0
  6
Continuous
 62
     7
370
    15
100
AcDbCircle
 10
202.5292362664
 20
113.5403651025
 30
0.0
 40
1.550000000000022
  0
CIRCLE
  5
92
330
1F
100
AcDbEntity
  8
0
  6
Continuous
 62
     7
370
    15
100
AcDbCircle
 10
202.5292362664
 20
113.5403651025
 30
0.0
 40
2.200000000000026
  0
CIRCLE
  5
93
330
1F
100
AcDbEntity
  8
0
  6
Continuous
 62
     7
370
    15
100
AcDbCircle
 10
202.5292362664
 20
113.5403651025
 30
0.0
 40
2.500000000000042
  0
ARC
  5
94
330
1F
100
AcDbEntity
  8
0
  6
Continuous
 62
     7
370
    15
100
AcDbCircle
 10
202.5292362664
 20
113.5403651025
 30
0.0
 40
1.250000000000029
100
AcDbArc
 50
306.3182531131
 51
6.3182531131
  0
ARC
  5
95
330
1F
100
AcDbEntity
  8
0
  6
Continuous
 62
     7
370
    15
100
AcDbCircle
 10
202.5292362664
 20
113.5403651025
 30
0.0
 40
1.250000000000068
100
AcDbArc
 50
246.3182531131
 51
306.3182531131
  0
ARC
  5
96
330
1F
100
AcDbEntity
  8
0
  6
Continuous
 62
     7
370
    15
100
AcDbCircle
 10
202.5292362664
 20
113.5403651025
 30
0.0
 40
1.250000000000007
100
AcDbArc
 50
126.3182531131
 51
186.3182531131
  0
ARC
  5
97
330
1F
100
AcDbEntity
  8
0
  6
Continuous
 62
     7
370
    15
100
AcDbCircle
 10
202.5292362664
 20
113.5403651025
 30
0.0
 40
1.250000000000068
100
AcDbArc
 50
186.3182531131
 51
246.3182531131
  0
ARC
  5
98
330
1F
100
AcDbEntity
  8
0
  6
Continuous
 62
     7
370
    15
100
AcDbCircle
 10
202.5292362664
 20
113.5403651025
 30
0.0
 40
1.250000000000015
100
AcDbArc
 50
6.3182531131
 51
66.3182531131
  0
ARC
  5
99
330
1F
100
AcDbEntity
  8
0
  6
Continuous
 62
     7
370
    15
100
AcDbCircle
 10
202.5292362664
 20
113.5403651025
 30
0.0
 40
1.250000000000015
100
AcDbArc
 50
66.3182531131
 51
126.3182531131
  0
SPLINE
  5
9A
330
1F
100
AcDbEntity
  8
0
  6
Continuous
 62
     7
370
    15
100
AcDbSpline
210
0.0
220
0.0
230
1.0
 70
     8
 71
     3
 72
     8
 73
     4
 74
     0
 42
0.000000001
 43
0.00000001
 40
0.0
 40
0.0
 40
0.0
 40
0.0
 40
1.0
 40
1.0
 40
1.0
 40
1.0
 10
171.7692362663584
 20
85.72353864299717
 30
0.0
 10
171.385101517774
 20
85.03089722105298
 30
0.0
 10
171.0001152412811
 20
84.33871104672927
 30
0.0
 10
170.6144466626547
 20
83.64691675588507
 30
0.0
  0
SPLINE
  5
9B
330
1F
100
AcDbEntity
  8
0
  6
Continuous
 62
     7
370
    15
100
AcDbSpline
210
0.0
220
0.0
230
1.0
 70
     8
 71
     3
 72
     8
 73
     4
 74
     0
 42
0.000000001
 43
0.00000001
 40
0.0
 40
0.0
 40
0.0
 40
0.0
 40
0.0011901715795577
 40
0.0011901715795577
 40
0.0011901715795577
 40
0.0011901715795577
 10
170.1573996243017
 20
83.09227275386193
 30
0.0
 10
170.3112458137976
 20
83.27683799154552
 30
0.0
 10
170.4636410814703
 20
83.46171335207414
 30
0.0
 10
170.6144466626547
 20
83.64691675588507
 30
0.0
  0
LINE
  5
9C
330
1F
100
AcDbEntity
  8
0
  6
Continuous
 62
     7
370
    15
100
AcDbLine
 10
170.1573996243
 20
83.0922727539
 30
0.0
 11
170.1573996243
 21
131.8903651025
 31
0.0
  0
SPLINE
  5
9D
330
1F
100
AcDbEntity
  8
0
  6
Continuous
 62
     7
370
    15
100
AcDbSpline
210
0.0
220
0.0
230
1.0
 70
    24
 71
     3
 72
     8
 73
     4
 74
     0
 42
0.000000001
 43
0.00000001
 40
0.0
 40
0.0
 40
0.0
 40
0.0
 40
1.0
 40
1.0
 40
1.0
 40
1.0
 10
171.7692362663584
 20
131.8903651024986
 30
0.0
 10
171.2445037779965
 20
131.8903651024986
 30
0.0
 10
170.7058282937777
 20
131.8903651024986
 30
0.0
 10
170.1573996243017
 20
131.8903651024986
 30
0.0
  0
LINE
  5
9E
330
1F
100
AcDbEntity
  8
0
  6
Continuous
 62
     7
370
    15
100
AcDbLine
 10
171.7692362664
 20
85.723538643
 30
0.0
 11
171.7692362664
 21
131.8903651025
 31
0.0
  0
SPLINE
  5
9F
330
1F
100
AcDbEntity
  8
0
  6
Continuous
 62
     7
370
    15
100
AcDbSpline
210
0.0
220
0.0
230
1.0
 70
     8
 71
     3
 72
    12
 73
     8
 74
     0
 42
0.000000001
 43
0.00000001
 40
0.0
 40
0.0
 40
0.0
 40
0.0
 40
0.250000000000001
 40
0.250000000000001
 40
0.500000000000002
 40
0.500000000000002
 40
1.0
 40
1.0
 40
1.0
 40
1.0
 10
181.0292362663584
 20
83.09227275386193
 30
0.0
 10
181.1247781764944
 20
83.09227275386193
 30
0.0
 10
181.2169231183572
 20
83.10852642305814
 30
0.0
 10
181.3732493949671
 20
83.16213484397161
 30
0.0
 10
181.436917537587
 20
83.1985459692533
 30
0.0
 10
181.5857853830174
 20
83.3206696089398
 30
0.0
 10
181.6292362663584
 20
83.41582228437683
 30
0.0
 10
181.6292362663584
 20
83.51144873999652
 30
0.0
  0
SPLINE
  5
A0
330
1F
100
AcDbEntity
  8
0
  6
Continuous
 62
     7
370
    15
100
AcDbSpline
210
0.0
220
0.0
230
1.0
 70
    24
 71
     3
 72
    12
 73
     8
 74
     0
 42
0.000000001
 43
0.00000001
 40
0.0
 40
0.0
 40
0.0
 40
0.0
 40
0.5000000000000011
 40
0.5000000000000011
 40
0.7500000000000006
 40
0.7500000000000006
 40
1.0
 40
1.0
 40
1.0
 40
1.0
 10
181.6292362663584
 20
131.8903651024986
 30
0.0
 10
181.6292362663584
 20
131.8903651024986
 30
0.0
 10
181.5795562714034
 20
131.8903651024986
 30
0.0
 10
181.4236377143858
 20
131.8903651024986
 30
0.0
 10
181.3577566498097
 20
131.8903651024986
 30
0.0
 10
181.205110994321
 20
131.8903651024986
 30
0.0
 10
181.11786108646
 20
131.8903651024986
 30
0.0
 10
181.0292362663583
 20
131.8903651024986
 30
0.0
  0
LINE
  5
A1
330
1F
100
AcDbEntity
  8
0
  6
Continuous
 62
     7
370
    15
100
AcDbLine
 10
181.6292362664
 20
83.51144874
 30
0.0
 11
181.6292362664
 21
131.8903651025
 31
0.0
  0
LINE
  5
A2
330
1F
100
AcDbEntity
  8
0
  6
Continuous
 62
     7
370
    15
100
AcDbLine
 10
177.2010729084
 20
83.0922727539
 30
0.0
 11
181.0292362664
 21
83.0922727539
 31
0.0
  0
LINE
  5
A3
330
1F
100
AcDbEntity
  8
0
  6
Continuous
 62
     7
370
    15
100
AcDbLine
 10
177.2010729084
 20
83.0922727539
 30
0.0
 11
177.2010729084
 21
131.8903651025
 31
0.0
  0
LINE
  5
A4
330
1F
100
AcDbEntity
  8
0
  6
Continuous
 62
     7
370
    15
100
AcDbLine
 10
181.0292362664
 20
131.8903651025
 30
0.0
 11
177.2010729084
 21
131.8903651025
 31
0.0
  0
LINE
  5
A5
330
1F
100
AcDbEntity
  8
0
  6
Continuous
 62
     7
370
    15
100
AcDbLine
 10
166.3792362664
 20
83.0922727539
 30
0.0
 11
170.1573996243
 21
83.0922727539
 31
0.0
  0
LINE
  5
A6
330
1F
100
AcDbEntity
  8
0
  6
Continuous
 62
     7
370
    15
100
AcDbLine
 10
170.1573996243
 20
131.8903651025
 30
0.0
 11
166.3792362664
 21
131.8903651025
 31
0.0
  0
SPLINE
  5
A7
330
1F
100
AcDbEntity
  8
0
  6
Continuous
 62
     7
370
    15
100
AcDbSpline
210
0.0
220
0.0
230
1.0
 70
     8
 71
     3
 72
     8
 73
     4
 74
     0
 42
0.000000001
 43
0.00000001
 40
0.0
 40
0.0
 40
0.0
 40
0.0
 40
0.0011901715795577
 40
0.0011901715795577
 40
0.0011901715795577
 40
0.0011901715795577
 10
176.7440258700621
 20
83.64691675588507
 30
0.0
 10
176.8948314512466
 20
83.46171335207414
 30
0.0
 10
177.0472267189192
 20
83.27683799154552
 30
0.0
 10
177.2010729084151
 20
83.09227275386193
 30
0.0
  0
SPLINE
  5
A8
330
1F
100
AcDbEntity
  8
0
  6
Continuous
 62
     7
370
    15
100
AcDbSpline
210
0.0
220
0.0
230
1.0
 70
     8
 71
     3
 72
     8
 73
     4
 74
     0
 42
0.000000001
 43
0.00000001
 40
0.0
 40
0.0
 40
0.0
 40
0.0
 40
1.0
 40
1.0
 40
1.0
 40
1.0
 10
176.7440258700621
 20
83.64691675588507
 30
0.0
 10
176.3583572914357
 20
84.33871104672926
 30
0.0
 10
175.9733710149428
 20
85.03089722105298
 30
0.0
 10
175.5892362663584
 20
85.72353864299716
 30
0.0
  0
LINE
  5
A9
330
1F
100
AcDbEntity
  8
0
  6
Continuous
 62
     7
370
    15
100
AcDbLine
 10
175.5892362664
 20
85.723538643
 30
0.0
 11
175.5892362664
 21
131.8903651025
 31
0.0
  0
SPLINE
  5
AA
330
1F
100
AcDbEntity
  8
0
  6
Continuous
 62
     7
370
    15
100
AcDbSpline
210
0.0
220
0.0
230
1.0
 70
    24
 71
     3
 72
     8
 73
     4
 74
     0
 42
0.000000001
 43
0.00000001
 40
0.0
 40
0.0
 40
0.0
 40
0.0
 40
1.0
 40
1.0
 40
1.0
 40
1.0
 10
177.2010729084151
 20
131.8903651024986
 30
0.0
 10
176.6526442389391
 20
131.8903651024986
 30
0.0
 10
176.1139687547203
 20
131.8903651024986
 30
0.0
 10
175.5892362663584
 20
131.8903651024986
 30
0.0
  0
SPLINE
  5
AB
330
1F
100
AcDbEntity
  8
0
  6
Continuous
 62
     7
370
    15
100
AcDbSpline
210
0.0
220
0.0
230
1.0
 70
     8
 71
     3
 72
    10
 73
     6
 74
     0
 42
0.000000001
 43
0.00000001
 40
0.0
 40
0.0
 40
0.0
 40
0.0
 40
0.5
 40
0.5
 40
1.0
 40
1.0
 40
1.0
 40
1.0
 10
165.9953808077056
 20
83.18863525303038
 30
0.0
 10
166.0441507806869
 20
83.16040724582238
 30
0.0
 10
166.1016029039893
 20
83.13631264158079
 30
0.0
 10
166.232199806978
 20
83.10204916848825
 30
0.0
 10
166.3046894868202
 20
83.09227275386192
 30
0.0
 10
166.3792362663584
 20
83.09227275386192
 30
0.0
  0
SPLINE
  5
AC
330
1F
100
AcDbEntity
  8
0
  6
Continuous
 62
     7
370
    15
100
AcDbSpline
210
0.0
220
0.0
230
1.0
 70
     8
 71
     3
 72
    10
 73
     6
 74
     0
 42
0.000000001
 43
0.00000001
 40
0.0
 40
0.0
 40
0.0
 40
0.0
 40
0.5
 40
0.5
 40
1.0
 40
1.0
 40
1.0
 40
1.0
 10
165.9953808077056
 20
83.18863525303038
 30
0.0
 10
165.9372581476295
 20
83.25594041289219
 30
0.0
 10
165.884854981626
 20
83.33602579992584
 30
0.0
 10
165.8059519600796
 20
83.52004524161462
 30
0.0
 10
165.7792362663584
 20
83.62525659903507
 30
0.0
 10
165.7792362663584
 20
83.73398994549572
 30
0.0
  0
LINE
  5
AD
330
1F
100
AcDbEntity
  8
0
  6
Continuous
 62
     7
370
    15
100
AcDbLine
 10
165.7792362664
 20
83.7339899455
 30
0.0
 11
165.7792362664
 21
131.8903651025
 31
0.0
  0
SPLINE
  5
AE
330
1F
100
AcDbEntity
  8
0
  6
Continuous
 62
     7
370
    15
100
AcDbSpline
210
0.0
220
0.0
230
1.0
 70
    24
 71
     3
 72
    12
 73
     8
 74
     0
 42
0.000000001
 43
0.00000001
 40
0.0
 40
0.0
 40
0.0
 40
0.0
 40
0.25
 40
0.25
 40
0.5
 40
0.5
 40
1.0
 40
1.0
 40
1.0
 40
1.0
 10
166.3792362663584
 20
131.8903651024986
 30
0.0
 10
166.2908208890479
 20
131.8903651024986
 30
0.0
 10
166.2035504518773
 20
131.8903651024986
 30
0.0
 10
166.0510867271055
 20
131.8903651024986
 30
0.0
 10
165.9854481148831
 20
131.8903651024986
 30
0.0
 10
165.8287897135991
 20
131.8903651024986
 30
0.0
 10
165.7792362663584
 20
131.8903651024986
 30
0.0
 10
165.7792362663584
 20
131.8903651024986
 30
0.0
  0
SPLINE
  5
AF
330
1F
100
AcDbEntity
  8
0
  6
Continuous
 62
     7
370
    15
100
AcDbSpline
210
0.0
220
0.0
230
1.0
 70
     8
 71
     3
 72
    12
 73
     8
 74
     0
 42
0.000000001
 43
0.00000001
 40
0.0
 40
0.0
 40
0.0
 40
0.0
 40
0.5000000000000013
 40
0.5000000000000013
 40
0.7500000000000007
 40
0.7500000000000007
 40
1.0
 40
1.0
 40
1.0
 40
1.0
 10
175.5892362663584
 20
85.88828561469157
 30
0.0
 10
175.5892362663584
 20
86.10110817362445
 30
0.0
 10
175.5073109085387
 20
86.31536468026242
 30
0.0
 10
175.2883891050703
 20
86.54905430871229
 30
0.0
 10
175.1983418135792
 20
86.61353913355629
 30
0.0
 10
175.0029283455594
 20
86.69973874471187
 30
0.0
 10
174.8956453785756
 20
86.72250724621189
 30
0.0
 10
174.7892362663584
 20
86.72250724621189
 30
0.0
  0
SPLINE
  5
B0
330
1F
100
AcDbEntity
  8
0
  6
Continuous
 62
     7
370
    15
100
AcDbSpline
210
0.0
220
0.0
230
1.0
 70
    24
 71
     3
 72
    14
 73
    10
 74
     0
 42
0.000000001
 43
0.00000001
 40
0.0
 40
0.0
 40
0.0
 40
0.0
 40
0.25
 40
0.25
 40
0.5
 40
0.5
 40
0.75
 40
0.75
 40
1.0
 40
1.0
 40
1.0
 40
1.0
 10
175.5892362663584
 20
131.8903651024986
 30
0.0
 10
175.5892362663584
 20
131.8903651024986
 30
0.0
 10
175.5731546648986
 20
131.8903651024986
 30
0.0
 10
175.5076631516317
 20
131.8903651024986
 30
0.0
 10
175.4583551785044
 20
131.8903651024986
 30
0.0
 10
175.3237856568074
 20
131.8903651024986
 30
0.0
 10
175.2382625807221
 20
131.8903651024986
 30
0.0
 10
175.0312670851671
 20
131.8903651024986
 30
0.0
 10
174.9105734512235
 20
131.8903651024986
 30
0.0
 10
174.7892362663584
 20
131.8903651024986
 30
0.0
  0
SPLINE
  5
B1
330
1F
100
AcDbEntity
  8
0
  6
Continuous
 62
     7
370
    15
100
AcDbSpline
210
0.0
220
0.0
230
1.0
 70
     8
 71
     3
 72
    12
 73
     8
 74
     0
 42
0.000000001
 43
0.00000001
 40
0.0
 40
0.0
 40
0.0
 40
0.0
 40
0.2500000000000015
 40
0.2500000000000015
 40
0.500000000000003
 40
0.500000000000003
 40
1.0
 40
1.0
 40
1.0
 40
1.0
 10
172.5692362663584
 20
86.72250724621189
 30
0.0
 10
172.4628344160009
 20
86.7225072462119
 30
0.0
 10
172.3555190046044
 20
86.6997364821934
 30
0.0
 10
172.1600474135772
 20
86.6134935355413
 30
0.0
 10
172.0698652976396
 20
86.54881721507076
 30
0.0
 10
171.8516438109189
 20
86.31588789101396
 30
0.0
 10
171.7692362663581
 20
86.10130265312293
 30
0.0
 10
171.7692362663584
 20
85.8882856146902
 30
0.0
  0
SPLINE
  5
B2
330
1F
100
AcDbEntity
  8
0
  6
Continuous
 62
     7
370
    15
100
AcDbSpline
210
0.0
220
0.0
230
1.0
 70
    24
 71
     3
 72
    14
 73
    10
 74
     0
 42
0.000000001
 43
0.00000001
 40
0.0
 40
0.0
 40
0.0
 40
0.0
 40
0.1250000000000007
 40
0.1250000000000007
 40
0.2500000000000014
 40
0.2500000000000014
 40
0.499999999999999
 40
0.499999999999999
 40
1.0
 40
1.0
 40
1.0
 40
1.0
 10
172.5692362663584
 20
131.8903651024986
 30
0.0
 10
172.5086189429408
 20
131.8903651024986
 30
0.0
 10
172.4464937948058
 20
131.8903651024986
 30
0.0
 10
172.3302761317844
 20
131.8903651024986
 30
0.0
 10
172.275659492092
 20
131.8903651024986
 30
0.0
 10
172.1209831535838
 20
131.8903651024986
 30
0.0
 10
172.0348664047998
 20
131.8903651024986
 30
0.0
 10
171.8335588242592
 20
131.8903651024986
 30
0.0
 10
171.7692362663584
 20
131.8903651024986
 30
0.0
 10
171.7692362663584
 20
131.8903651024986
 30
0.0
  0
LINE
  5
B3
330
1F
100
AcDbEntity
  8
0
  6
Continuous
 62
     7
370
    15
100
AcDbLine
 10
174.7892362664
 20
86.7225072462
 30
0.0
 11
172.5692362664
 21
86.7225072462
 31
0.0
  0
LINE
  5
B4
330
1F
100
AcDbEntity
  8
0
  6
Continuous
 62
     7
370
    15
100
AcDbLine
 10
174.7892362664
 20
131.8903651025
 30
0.0
 11
172.5692362664
 21
131.8903651025
 31
0.0
  0
LINE
  5
B5
330
1F
100
AcDbEntity
  8
0
  6
Continuous
 62
     7
370
    15
100
AcDbLine
 10
162.5792362664
 20
91.3153651025
 30
0.0
 11
162.5792362664
 21
135.7653651025
 31
0.0
  0
SPLINE
  5
B6
330
1F
100
AcDbEntity
  8
0
  6
Continuous
 62
     7
370
    15
100
AcDbSpline
210
0.0
220
0.0
230
1.0
 70
     8
 71
     3
 72
     8
 73
     4
 74
     0
 42
0.000000001
 43
0.00000001
 40
0.0
 40
0.0
 40
0.0
 40
0.0
 40
1.0
 40
1.0
 40
1.0
 40
1.0
 10
176.6431909526545
 20
143.2529032587631
 30
0.0
 10
176.2912469297462
 20
142.6213418707493
 30
0.0
 10
175.939888506686
 20
141.9894599710505
 30
0.0
 10
175.5892362663584
 20
141.3571915620001
 30
0.0
  0
SPLINE
  5
B7
330
1F
100
AcDbEntity
  8
0
  6
Continuous
 62
     7
370
    15
100
AcDbSpline
210
0.0
220
0.0
230
1.0
 70
     8
 71
     3
 72
     8
 73
     4
 74
     0
 42
0.000000001
 43
0.00000001
 40
0.0
 40
0.0
 40
0.0
 40
0.0
 40
0.0012409313617635
 40
0.0012409313617635
 40
0.0012409313617635
 40
0.0012409313617635
 10
177.2010729084151
 20
144.0367011817142
 30
0.0
 10
177.014399980183
 20
143.7756893040156
 30
0.0
 10
176.8284147922104
 20
143.5144308022403
 30
0.0
 10
176.6431909526545
 20
143.2529032587631
 30
0.0
  0
LINE
  5
B8
330
1F
100
AcDbEntity
  8
0
  6
Continuous
 62
     7
370
    15
100
AcDbLine
 10
177.2010729084
 20
139.4505947425
 30
0.0
 11
177.2010729084
 21
144.0367011817
 31
0.0
  0
SPLINE
  5
B9
330
1F
100
AcDbEntity
  8
0
  6
Continuous
 62
     7
370
    15
100
AcDbSpline
210
0.0
220
0.0
230
1.0
 70
     8
 71
     3
 72
     8
 73
     4
 74
     0
 42
0.000000001
 43
0.00000001
 40
0.0
 40
0.0
 40
0.0
 40
0.0
 40
1.0
 40
1.0
 40
1.0
 40
1.0
 10
175.5892362663584
 20
135.9425041583571
 30
0.0
 10
176.1140273858543
 20
137.1174813460618
 30
0.0
 10
176.6525436370372
 20
138.2863805138
 30
0.0
 10
177.2010729084151
 20
139.4505947425462
 30
0.0
  0
LINE
  5
BA
330
1F
100
AcDbEntity
  8
0
  6
Continuous
 62
     7
370
    15
100
AcDbLine
 10
175.5892362664
 20
135.9425041584
 30
0.0
 11
175.5892362664
 21
141.357191562
 31
0.0
  0
LINE
  5
BB
330
1F
100
AcDbEntity
  8
0
  6
Continuous
 62
     7
370
    15
100
AcDbLine
 10
174.7892362664
 20
140.3582229588
 30
0.0
 11
172.5692362664
 21
140.3582229588
 31
0.0
  0
LINE
  5
BC
330
1F
100
AcDbEntity
  8
0
  6
Continuous
 62
     7
370
    15
100
AcDbLine
 10
172.5692362664
 20
134.689301246
 30
0.0
 11
174.7892362664
 21
134.689301246
 31
0.0
  0
SPLINE
  5
BD
330
1F
100
AcDbEntity
  8
0
  6
Continuous
 62
     7
370
    15
100
AcDbSpline
210
0.0
220
0.0
230
1.0
 70
     8
 71
     3
 72
    12
 73
     8
 74
     0
 42
0.000000001
 43
0.00000001
 40
0.0
 40
0.0
 40
0.0
 40
0.0
 40
0.5
 40
0.5
 40
0.75
 40
0.75
 40
1.0
 40
1.0
 40
1.0
 40
1.0
 10
175.5892362663584
 20
141.1924445903057
 30
0.0
 10
175.5892362663584
 20
140.9793071886542
 30
0.0
 10
175.5065938512105
 20
140.7643276639165
 30
0.0
 10
175.2880104404001
 20
140.5314085950307
 30
0.0
 10
175.1989204874194
 20
140.4675416852103
 30
0.0
 10
175.0035151695218
 20
140.3811555308285
 30
0.0
 10
174.8969911225785
 20
140.3582229587853
 30
0.0
 10
174.7892362663584
 20
140.3582229587853
 30
0.0
  0
SPLINE
  5
BE
330
1F
100
AcDbEntity
  8
0
  6
Continuous
 62
     7
370
    15
100
AcDbSpline
210
0.0
220
0.0
230
1.0
 70
     8
 71
     3
 72
    12
 73
     8
 74
     0
 42
0.000000001
 43
0.00000001
 40
0.0
 40
0.0
 40
0.0
 40
0.0
 40
0.2500000000000015
 40
0.2500000000000015
 40
0.500000000000003
 40
0.500000000000003
 40
1.0
 40
1.0
 40
1.0
 40
1.0
 10
174.7892362663584
 20
134.6893012459551
 30
0.0
 10
174.9113182638467
 20
134.6893012459551
 30
0.0
 10
175.0319088063324
 20
134.7280276021288
 30
0.0
 10
175.2374040900322
 20
134.8579911898751
 30
0.0
 10
175.3229205729847
 20
134.9471974264218
 30
0.0
 10
175.5263149245289
 20
135.2520739639675
 30
0.0
 10
175.5892362663584
 20
135.4948445780695
 30
0.0
 10
175.5892362663584
 20
135.7376059220239
 30
0.0
  0
SPLINE
  5
BF
330
1F
100
AcDbEntity
  8
0
  6
Continuous
 62
     7
370
    15
100
AcDbSpline
210
0.0
220
0.0
230
1.0
 70
     8
 71
     3
 72
     8
 73
     4
 74
     0
 42
0.000000001
 43
0.00000001
 40
0.0
 40
0.0
 40
0.0
 40
0.0
 40
0.0012409313617635
 40
0.0012409313617635
 40
0.0012409313617635
 40
0.0012409313617635
 10
170.7152815800624
 20
143.2529032587632
 30
0.0
 10
170.5300577405064
 20
143.5144308022403
 30
0.0
 10
170.3440725525339
 20
143.7756893040156
 30
0.0
 10
170.1573996243017
 20
144.0367011817142
 30
0.0
  0
SPLINE
  5
C0
330
1F
100
AcDbEntity
  8
0
  6
Continuous
 62
     7
370
    15
100
AcDbSpline
210
0.0
220
0.0
230
1.0
 70
     8
 71
     3
 72
     8
 73
     4
 74
     0
 42
0.000000001
 43
0.00000001
 40
0.0
 40
0.0
 40
0.0
 40
0.0
 40
1.0
 40
1.0
 40
1.0
 40
1.0
 10
171.7692362663584
 20
141.3571915620001
 30
0.0
 10
171.4185840260309
 20
141.9894599710505
 30
0.0
 10
171.0672256029706
 20
142.6213418707493
 30
0.0
 10
170.7152815800624
 20
143.2529032587632
 30
0.0
  0
LINE
  5
C1
330
1F
100
AcDbEntity
  8
0
  6
Continuous
 62
     7
370
    15
100
AcDbLine
 10
171.7692362664
 20
135.9425041584
 30
0.0
 11
171.7692362664
 21
141.357191562
 31
0.0
  0
SPLINE
  5
C2
330
1F
100
AcDbEntity
  8
0
  6
Continuous
 62
     7
370
    15
100
AcDbSpline
210
0.0
220
0.0
230
1.0
 70
     8
 71
     3
 72
     8
 73
     4
 74
     0
 42
0.000000001
 43
0.00000001
 40
0.0
 40
0.0
 40
0.0
 40
0.0
 40
1.0
 40
1.0
 40
1.0
 40
1.0
 10
170.1573996243017
 20
139.4505947425462
 30
0.0
 10
170.7063444024985
 20
138.2854986302325
 30
0.0
 10
171.2449547770154
 20
137.116340313408
 30
0.0
 10
171.7692362663584
 20
135.9425041583571
 30
0.0
  0
LINE
  5
C3
330
1F
100
AcDbEntity
  8
0
  6
Continuous
 62
     7
370
    15
100
AcDbLine
 10
170.1573996243
 20
139.4505947425
 30
0.0
 11
170.1573996243
 21
144.0367011817
 31
0.0
  0
SPLINE
  5
C4
330
1F
100
AcDbEntity
  8
0
  6
Continuous
 62
     7
370
    15
100
AcDbSpline
210
0.0
220
0.0
230
1.0
 70
     8
 71
     3
 72
    12
 73
     8
 74
     0
 42
0.000000001
 43
0.00000001
 40
0.0
 40
0.0
 40
0.0
 40
0.0
 40
0.4999999999999986
 40
0.4999999999999986
 40
0.7499999999999992
 40
0.7499999999999992
 40
1.0
 40
1.0
 40
1.0
 40
1.0
 10
181.6292362663584
 20
143.5509162359398
 30
0.0
 10
181.6292362663584
 20
143.671243268993
 30
0.0
 10
181.5754414547654
 20
143.7893408424748
 30
0.0
 10
181.4145178847992
 20
143.9289835849137
 30
0.0
 10
181.3497664236966
 20
143.9672595383082
 30
0.0
 10
181.1975462403789
 20
144.0220993679426
 30
0.0
 10
181.114738724854
 20
144.0367011817142
 30
0.0
 10
181.0292362663584
 20
144.0367011817142
 30
0.0
  0
SPLINE
  5
C5
330
1F
100
AcDbEntity
  8
0
  6
Continuous
 62
     7
370
    15
100
AcDbSpline
210
0.0
220
0.0
230
1.0
 70
     8
 71
     3
 72
    14
 73
    10
 74
     0
 42
0.000000001
 43
0.00000001
 40
0.0
 40
0.0
 40
0.0
 40
0.0
 40
0.25
 40
0.25
 40
0.5
 40
0.5
 40
0.75
 40
0.75
 40
1.0
 40
1.0
 40
1.0
 40
1.0
 10
181.0292362663584
 20
139.4505947425462
 30
0.0
 10
181.1176588044809
 20
139.4505947425462
 30
0.0
 10
181.2057127941739
 20
139.4255223920868
 30
0.0
 10
181.3575425580453
 20
139.3391803271155
 30
0.0
 10
181.4233855026091
 20
139.2776370726026
 30
0.0
 10
181.5271845631546
 20
139.1358093263517
 30
0.0
 10
181.5656566726293
 20
139.0557607363816
 30
0.0
 10
181.6168793359038
 20
138.8867482397079
 30
0.0
 10
181.6292362663584
 20
138.7999689328383
 30
0.0
 10
181.6292362663584
 20
138.7117774585823
 30
0.0
  0
LINE
  5
C6
330
1F
100
AcDbEntity
  8
0
  6
Continuous
 62
     7
370
    15
100
AcDbLine
 10
181.6292362664
 20
138.7117774586
 30
0.0
 11
181.6292362664
 21
143.5509162359
 31
0.0
  0
SPLINE
  5
C7
330
1F
100
AcDbEntity
  8
0
  6
Continuous
 62
     7
370
    15
100
AcDbSpline
210
0.0
220
0.0
230
1.0
 70
     8
 71
     3
 72
    12
 73
     8
 74
     0
 42
0.000000001
 43
0.00000001
 40
0.0
 40
0.0
 40
0.0
 40
0.0
 40
0.4999999999999996
 40
0.4999999999999996
 40
0.7499999999999998
 40
0.7499999999999998
 40
1.0
 40
1.0
 40
1.0
 40
1.0
 10
165.7792362663584
 20
138.7117774585823
 30
0.0
 10
165.7792362663584
 20
138.888393855104
 30
0.0
 10
165.8285769011802
 20
139.0634510264777
 30
0.0
 10
165.9847924594683
 20
139.2774012389704
 30
0.0
 10
166.0500950393691
 20
139.3387338818173
 30
0.0
 10
166.2038640573294
 20
139.4261219797885
 30
0.0
 10
166.2908771639399
 20
139.4505947425462
 30
0.0
 10
166.3792362663584
 20
139.4505947425462
 30
0.0
  0
LINE
  5
C8
330
1F
100
AcDbEntity
  8
0
  6
Continuous
 62
     7
370
    15
100
AcDbLine
 10
166.3792362664
 20
139.4505947425
 30
0.0
 11
170.1573996243
 21
139.4505947425
 31
0.0
  0
LINE
  5
C9
330
1F
100
AcDbEntity
  8
0
  6
Continuous
 62
     7
370
    15
100
AcDbLine
 10
171.7692362664
 20
135.9425041584
 30
0.0
 11
171.7692362664
 21
135.737605922
 31
0.0
  0
SPLINE
  5
CA
330
1F
100
AcDbEntity
  8
0
  6
Continuous
 62
     7
370
    15
100
AcDbSpline
210
0.0
220
0.0
230
1.0
 70
     8
 71
     3
 72
    14
 73
    10
 74
     0
 42
0.000000001
 43
0.00000001
 40
0.0
 40
0.0
 40
0.0
 40
0.0
 40
0.25
 40
0.25
 40
0.5
 40
0.5
 40
0.75
 40
0.75
 40
1.0
 40
1.0
 40
1.0
 40
1.0
 10
171.7692362663584
 20
135.7376059220239
 30
0.0
 10
171.7692362663584
 20
135.6156705868424
 30
0.0
 10
171.7852806338984
 20
135.496116346341
 30
0.0
 10
171.8510099760777
 20
135.2620003631977
 30
0.0
 10
171.900217346326
 20
135.150067823063
 30
0.0
 10
172.0352303272249
 20
134.9476680138261
 30
0.0
 10
172.1211503958312
 20
134.8578028202632
 30
0.0
 10
172.3276651978366
 20
134.7274683106529
 30
0.0
 10
172.4478039102077
 20
134.6893012459551
 30
0.0
 10
172.5692362663584
 20
134.6893012459551
 30
0.0
  0
LINE
  5
CB
330
1F
100
AcDbEntity
  8
0
  6
Continuous
 62
     7
370
    15
100
AcDbLine
 10
177.2010729084
 20
139.4505947425
 30
0.0
 11
181.0292362664
 21
139.4505947425
 31
0.0
  0
LINE
  5
CC
330
1F
100
AcDbEntity
  8
0
  6
Continuous
 62
     7
370
    15
100
AcDbLine
 10
175.5892362664
 20
135.737605922
 30
0.0
 11
175.5892362664
 21
135.9425041584
 31
0.0
  0
LINE
  5
CD
330
1F
100
AcDbEntity
  8
0
  6
Continuous
 62
     7
370
    15
100
AcDbLine
 10
165.7792362664
 20
138.7117774586
 30
0.0
 11
165.7792362664
 21
131.8903651025
 31
0.0
  0
LINE
  5
CE
330
1F
100
AcDbEntity
  8
0
  6
Continuous
 62
     7
370
    15
100
AcDbLine
 10
181.6292362664
 20
138.7117774586
 30
0.0
 11
181.6292362664
 21
131.8903651025
 31
0.0
  0
LINE
  5
CF
330
1F
100
AcDbEntity
  8
0
  6
Continuous
 62
     7
370
    15
100
AcDbLine
 10
181.0292362664
 20
144.0367011817
 30
0.0
 11
177.2010729084
 21
144.0367011817
 31
0.0
  0
SPLINE
  5
D0
330
1F
100
AcDbEntity
  8
0
  6
Continuous
 62
     7
370
    15
100
AcDbSpline
210
0.0
220
0.0
230
1.0
 70
     8
 71
     3
 72
    10
 73
     6
 74
     0
 42
0.000000001
 43
0.00000001
 40
0.0
 40
0.0
 40
0.0
 40
0.0
 40
0.5
 40
0.5
 40
1.0
 40
1.0
 40
1.0
 40
1.0
 10
166.066477867666
 20
143.9656616574556
 30
0.0
 10
165.9906382736625
 20
143.895612471127
 30
0.0
 10
165.9233147559365
 20
143.8103936975533
 30
0.0
 10
165.8166711176314
 20
143.6001675708915
 30
0.0
 10
165.7792362663584
 20
143.4766583800242
 30
0.0
 10
165.7792362663584
 20
143.3467402595015
 30
0.0
  0
SPLINE
  5
D1
330
1F
100
AcDbEntity
  8
0
  6
Continuous
 62
     7
370
    15
100
AcDbSpline
210
0.0
220
0.0
230
1.0
 70
     8
 71
     3
 72
     8
 73
     4
 74
     0
 42
0.000000001
 43
0.00000001
 40
0.0
 40
0.0
 40
0.0
 40
0.0
 40
1.0
 40
1.0
 40
1.0
 40
1.0
 10
166.3792362663584
 20
144.0367011817142
 30
0.0
 10
166.2670580121788
 20
144.0367011817142
 30
0.0
 10
166.1583884994503
 20
144.0110201164532
 30
0.0
 10
166.066477867666
 20
143.9656616574556
 30
0.0
  0
LINE
  5
D2
330
1F
100
AcDbEntity
  8
0
  6
Continuous
 62
     7
370
    15
100
AcDbLine
 10
165.7792362664
 20
138.7117774586
 30
0.0
 11
165.7792362664
 21
143.3467402595
 31
0.0
  0
SPLINE
  5
D3
330
1F
100
AcDbEntity
  8
0
  6
Continuous
 62
     7
370
    15
100
AcDbSpline
210
0.0
220
0.0
230
1.0
 70
     8
 71
     3
 72
    14
 73
    10
 74
     0
 42
0.000000001
 43
0.00000001
 40
0.0
 40
0.0
 40
0.0
 40
0.0
 40
0.25
 40
0.25
 40
0.5
 40
0.5
 40
0.75
 40
0.75
 40
1.0
 40
1.0
 40
1.0
 40
1.0
 10
172.5692362663584
 20
140.3582229587853
 30
0.0
 10
172.4618672218441
 20
140.3582229587853
 30
0.0
 10
172.3550617300812
 20
140.3811479541903
 30
0.0
 10
172.1599203615644
 20
140.4673403880645
 30
0.0
 10
172.0707106439745
 20
140.5311843847285
 30
0.0
 10
171.9247838511581
 20
140.6866004926699
 30
0.0
 10
171.86679410736
 20
140.7792550708776
 30
0.0
 10
171.7892002658375
 20
140.9784884109272
 30
0.0
 10
171.7692362663584
 20
141.0850935059824
 30
0.0
 10
171.7692362663584
 20
141.1924445903057
 30
0.0
  0
LINE
  5
D4
330
1F
100
AcDbEntity
  8
0
  6
Continuous
 62
     7
370
    15
100
AcDbLine
 10
170.1573996243
 20
144.0367011817
 30
0.0
 11
166.3792362664
 21
144.0367011817
 31
0.0
  0
LINE
  5
D5
330
1F
100
AcDbEntity
  8
0
  6
Continuous
 62
     7
370
    15
100
AcDbLine
 10
94.3292362664
 20
102.1332345055
 30
0.0
 11
94.3292362664
 21
124.9474956932
 31
0.0
  0
LINE
  5
D6
330
1F
100
AcDbEntity
  8
0
  6
Continuous
 62
     7
370
    15
100
AcDbLine
 10
208.5792362664
 20
103.7403651025
 30
0.0
 11
208.5792362664
 21
123.3403651025
 31
0.0
  0
LINE
  5
D7
330
1F
100
AcDbEntity
  8
0
  6
Continuous
 62
     7
370
    15
100
AcDbLine
 10
208.3792362664
 20
103.5403651025
 30
0.0
 11
208.3792362664
 21
123.5403651025
 31
0.0
  0
SPLINE
  5
D8
330
1F
100
AcDbEntity
  8
0
  6
Continuous
 62
     7
370
    15
100
AcDbSpline
210
0.0
220
0.0
230
1.0
 70
    11
 71
     3
 72
    60
 73
    56
 74
     0
 42
0.000000001
 43
0.00000001
 40
0.0
 40
0.0
 40
0.0
 40
0.0
 40
0.0624999999999995
 40
0.0624999999999995
 40
0.0937499999999992
 40
0.0937499999999992
 40
0.124999999999999
 40
0.124999999999999
 40
0.1562499999999987
 40
0.1562499999999987
 40
0.1874999999999984
 40
0.1874999999999984
 40
0.2187499999999982
 40
0.2187499999999982
 40
0.2499999999999979
 40
0.2499999999999979
 40
0.2812499999999977
 40
0.2812499999999977
 40
0.3124999999999974
 40
0.3124999999999974
 40
0.3437499999999972
 40
0.3437499999999972
 40
0.3749999999999969
 40
0.3749999999999969
 40
0.4062499999999967
 40
0.4062499999999967
 40
0.4374999999999964
 40
0.4374999999999964
 40
0.4687499999999962
 40
0.4687499999999962
 40
0.4999999999999959
 40
0.4999999999999959
 40
0.5312499999999957
 40
0.5312499999999957
 40
0.5624999999999953
 40
0.5624999999999953
 40
0.624999999999996
 40
0.624999999999996
 40
0.6874999999999966
 40
0.6874999999999966
 40
0.7499999999999971
 40
0.7499999999999971
 40
0.7812499999999974
 40
0.7812499999999974
 40
0.8124999999999978
 40
0.8124999999999978
 40
0.8437499999999981
 40
0.8437499999999981
 40
0.8749999999999983
 40
0.8749999999999983
 40
0.9062499999999987
 40
0.9062499999999987
 40
0.937499999999999
 40
0.937499999999999
 40
1.0
 40
1.0
 40
1.0
 40
1.0
 10
200.5260522889104
 20
115.5042307679394
 30
0.0
 10
200.8168418154934
 20
115.7348597095841
 30
0.0
 10
201.1432449816812
 20
115.9062164005817
 30
0.0
 10
201.6728619739773
 20
116.078832571685
 30
0.0
 10
201.8523622776122
 20
116.1208065945536
 30
0.0
 10
202.2170704578074
 20
116.1750581754004
 30
0.0
 10
202.4039193614965
 20
116.1872552666455
 30
0.0
 10
202.7753021476149
 20
116.1805986229216
 30
0.0
 10
202.9586748009694
 20
116.1620785705738
 30
0.0
 10
203.320869085208
 20
116.0950843081289
 30
0.0
 10
203.5013693829071
 20
116.0459422196355
 30
0.0
 10
203.8484364468065
 20
115.9185430426645
 30
0.0
 10
204.0144232305952
 20
115.8408960034183
 30
0.0
 10
204.3311993759507
 20
115.6570554437038
 30
0.0
 10
204.4835634312861
 20
115.5494320971903
 30
0.0
 10
204.7622781631985
 20
115.3094449458468
 30
0.0
 10
204.8885753654981
 20
115.1777711406263
 30
0.0
 10
205.1136567815898
 20
114.8893944558493
 30
0.0
 10
205.2134560436214
 20
114.7301720723113
 30
0.0
 10
205.372877634243
 20
114.3981612998265
 30
0.0
 10
205.4335100850828
 20
114.2251019655807
 30
0.0
 10
205.5138747369334
 20
113.8637355616793
 30
0.0
 10
205.5326634071716
 20
113.6755403714837
 30
0.0
 10
205.524749341831
 20
113.3062869157257
 30
0.0
 10
205.4981724026379
 20
113.1200888488068
 30
0.0
 10
205.4023389393549
 20
112.7608045426553
 30
0.0
 10
205.3341700832628
 20
112.5892282651286
 30
0.0
 10
205.1597281782294
 20
112.2611101384711
 30
0.0
 10
205.0547817800608
 20
112.107675043447
 30
0.0
 10
204.8173539643478
 20
111.8263744975441
 30
0.0
 10
204.6827932311962
 20
111.6964299693417
 30
0.0
 10
204.3947956692182
 20
111.4667086566229
 30
0.0
 10
204.2409784296112
 20
111.3660129637906
 30
0.0
 10
203.9143686718036
 20
111.191500192104
 30
0.0
 10
203.7426993998083
 20
111.1186290139787
 30
0.0
 10
203.2174272696437
 20
110.9464048305685
 30
0.0
 10
202.8425377612935
 20
110.8906174642719
 30
0.0
 10
202.1044698551591
 20
110.9028290488018
 30
0.0
 10
201.7316080201267
 20
110.9711120983847
 30
0.0
 10
201.0414085297755
 20
111.2237088670591
 30
0.0
 10
200.7140669538679
 20
111.4117799093834
 30
0.0
 10
200.298355981861
 20
111.76927333788
 30
0.0
 10
200.1701582064217
 20
111.9023957766066
 30
0.0
 10
199.9420430315018
 20
112.1951195606236
 30
0.0
 10
199.8449932582483
 20
112.3507126707239
 30
0.0
 10
199.6861560476045
 20
112.6812944596521
 30
0.0
 10
199.6238227990792
 20
112.8592106630908
 30
0.0
 10
199.5438835356424
 20
113.2217845062733
 30
0.0
 10
199.5256713901069
 20
113.4054632378354
 30
0.0
 10
199.5339389497075
 20
113.7777456284225
 30
0.0
 10
199.5610829846256
 20
113.9645042768465
 30
0.0
 10
199.6569455140628
 20
114.3220260254919
 30
0.0
 10
199.7268974858371
 20
114.4972454386251
 30
0.0
 10
199.9886607134664
 20
114.9869847472209
 30
0.0
 10
200.2352627623275
 20
115.2736018262947
 30
0.0
 10
200.5260522889105
 20
115.5042307679394
 30
0.0
  0
LWPOLYLINE
  5
D9
330
1F
100
AcDbEntity
  8
0
  6
HIDDEN
 62
     7
370
     0
100
AcDbPolyline
 90
       21
 70
   128
 43
0.0
 10
167.0620352793
 20
106.0839814884
 10
166.7745142176
 20
106.1778770563
 10
166.5098448797
 20
106.1173271758
 10
166.2939349446
 20
105.908258891
 10
166.1479191808
 20
105.5711372624
 10
166.0860906289
 20
105.1389621037
 10
166.1145014981
 20
104.6540377307
 10
166.2303707347
 20
104.1638319197
 10
166.4223562505
 20
103.7163294309
 10
166.6716651656
 20
103.3553349258
 10
166.9538933863
 20
103.1161850619
 10
167.241414448
 20
103.022289494
 10
167.5060837858
 20
103.0828393745
 10
167.721993721
 20
103.2919076593
 10
167.8680094848
 20
103.629029288
 10
167.9298380367
 20
104.0612044466
 10
167.9014271675
 20
104.5461288196
 10
167.7855579309
 20
105.0363346306
 10
167.593572415
 20
105.4838371194
 10
167.3442635
 20
105.8448316245
 10
167.0620352793
 20
106.0839814884
  0
LWPOLYLINE
  5
DA
330
1F
100
AcDbEntity
  8
0
  6
HIDDEN
 62
     7
370
     0
100
AcDbPolyline
 90
       24
 70
   128
 43
0.0
 10
167.2595788952
 20
106.4876070829
 10
166.9481209497
 20
106.5998565201
 10
166.6547808068
 20
106.5670679585
 10
166.4013141631
 20
106.3916731757
 10
166.2065194798
 20
106.0866804004
 10
166.0848437875
 20
105.6747095515
 10
166.0453112158
 20
105.1863146222
 10
166.0908537146
 20
104.6577176301
 10
166.218093605
 20
104.128122196
 10
166.4175940866
 20
103.6368059905
 10
166.6745591213
 20
103.2202076889
 10
166.9699307879
 20
102.9092244815
 10
167.2818027212
 20
102.7269205701
 10
167.5870448066
 20
102.6868166018
 10
167.863018635
 20
102.7918869044
 10
168.0892564902
 20
103.0343388944
 10
168.2489793452
 20
103.3961910167
 10
168.3303412867
 20
103.8506063548
 10
168.3273080717
 20
104.3638830019
 10
168.2401046598
 20
104.8979535771
 10
168.0751985292
 20
105.4132085092
 10
167.8448200131
 20
105.8714336968
 10
167.5660552323
 20
106.2386446742
 10
167.2595788952
 20
106.4876070829
  0
LWPOLYLINE
  5
DB
330
1F
100
AcDbEntity
  8
0
  6
HIDDEN
 62
     7
370
     0
100
AcDbPolyline
 90
       24
 70
   128
 43
0.0
 10
168.91822531
 20
106.8848281566
 10
168.6067673646
 20
106.9970775937
 10
168.3134272217
 20
106.9642890321
 10
168.0599605779
 20
106.7888942494
 10
167.8651658947
 20
106.483901474
 10
167.7434902024
 20
106.0719306251
 10
167.7039576307
 20
105.5835356958
 10
167.7495001294
 20
105.0549387037
 10
167.8767400199
 20
104.5253432696
 10
168.0762405015
 20
104.0340270641
 10
168.3332055361
 20
103.6174287626
 10
168.6285772027
 20
103.3064455551
 10
168.940449136
 20
103.1241416437
 10
169.2456912215
 20
103.0840376754
 10
169.5216650499
 20
103.1891079781
 10
169.747902905
 20
103.431559968
 10
169.9076257601
 20
103.7934120903
 10
169.9889877016
 20
104.2478274284
 10
169.9859544866
 20
104.7611040755
 10
169.8987510747
 20
105.2951746508
 10
169.733844944
 20
105.8104295828
 10
169.503466428
 20
106.2686547705
 10
169.2247016471
 20
106.6358657478
 10
168.91822531
 20
106.8848281566
  0
LINE
  5
DC
330
1F
100
AcDbEntity
  8
0
  6
HIDDEN
 62
     7
370
     0
100
AcDbLine
 10
166.4159819853
 20
104.402660788
 30
0.0
 11
166.9691843632
 21
103.535823607
 31
0.0
  0
LINE
  5
DD
330
1F
100
AcDbEntity
  8
0
  6
HIDDEN
 62
     7
370
     0
100
AcDbLine
 10
167.5611667107
 20
103.7332460942
 30
0.0
 11
166.9691843632
 21
103.535823607
 31
0.0
  0
LINE
  5
DE
330
1F
100
AcDbEntity
  8
0
  6
HIDDEN
 62
     7
370
     0
100
AcDbLine
 10
167.5999466803
 20
104.7975057623
 30
0.0
 11
167.5611667107
 21
103.7332460942
 31
0.0
  0
LINE
  5
DF
330
1F
100
AcDbEntity
  8
0
  6
HIDDEN
 62
     7
370
     0
100
AcDbLine
 10
167.5999466803
 20
104.7975057623
 30
0.0
 11
167.0467443024
 21
105.6643429433
 31
0.0
  0
LINE
  5
E0
330
1F
100
AcDbEntity
  8
0
  6
HIDDEN
 62
     7
370
     0
100
AcDbLine
 10
166.4547619549
 20
105.4669204562
 30
0.0
 11
167.0467443024
 21
105.6643429433
 31
0.0
  0
LINE
  5
E1
330
1F
100
AcDbEntity
  8
0
  6
HIDDEN
 62
     7
370
     0
100
AcDbLine
 10
166.4547619549
 20
105.4669204562
 30
0.0
 11
166.4159819853
 21
104.402660788
 31
0.0
  0
LWPOLYLINE
  5
E2
330
1F
100
AcDbEntity
  8
0
  6
HIDDEN
 62
     7
370
     0
100
AcDbPolyline
 90
       19
 70
   128
 43
0.0
 10
169.5074010142
 20
106.3407022461
 10
169.2600716249
 20
106.4143182414
 10
169.0375103364
 20
106.3400954148
 10
168.8665613248
 20
106.1269861347
 10
168.7678435638
 20
105.8006945253
 10
168.7532638723
 20
105.4005761704
 10
168.8245807763
 20
104.9748912486
 10
168.9731924046
 20
104.574983644
 10
169.1811740016
 20
104.2490881156
 10
169.4234399172
 20
104.036512474
 10
169.6707693065
 20
103.9628964787
 10
169.8933305949
 20
104.0371193053
 10
170.0642796065
 20
104.2502285854
 10
170.1629973675
 20
104.5765201948
 10
170.177577059
 20
104.9766385497
 10
170.106260155
 20
105.4023234715
 10
169.9576485267
 20
105.8022310762
 10
169.7496669297
 20
106.1281266045
 10
169.5074010142
 20
106.3407022461
  0
LINE
  5
E3
330
1F
100
AcDbEntity
  8
0
  6
HIDDEN
 62
     7
370
     0
100
AcDbLine
 10
168.8286747467
 20
105.0917678048
 30
0.0
 11
167.5999466803
 21
104.7975057623
 31
0.0
  0
LINE
  5
E4
330
1F
100
AcDbEntity
  8
0
  6
HIDDEN
 62
     7
370
     0
100
AcDbLine
 10
168.7898947771
 20
104.0275081366
 30
0.0
 11
167.5611667107
 21
103.7332460942
 31
0.0
  0
LINE
  5
E5
330
1F
100
AcDbEntity
  8
0
  6
HIDDEN
 62
     7
370
     0
100
AcDbLine
 10
167.6834900213
 20
105.7611824986
 30
0.0
 11
168.2754723688
 21
105.9586049858
 31
0.0
  0
LINE
  5
E6
330
1F
100
AcDbEntity
  8
0
  6
HIDDEN
 62
     7
370
     0
100
AcDbLine
 10
167.6834900213
 20
105.7611824986
 30
0.0
 11
166.4547619549
 21
105.4669204562
 31
0.0
  0
LINE
  5
E7
330
1F
100
AcDbEntity
  8
0
  6
HIDDEN
 62
     7
370
     0
100
AcDbLine
 10
168.2754723688
 20
105.9586049858
 30
0.0
 11
167.0467443024
 21
105.6643429433
 31
0.0
  0
LINE
  5
E8
330
1F
100
AcDbEntity
  8
0
  6
HIDDEN
 62
     7
370
     0
100
AcDbLine
 10
167.6447100518
 20
104.6969228304
 30
0.0
 11
168.1979124297
 21
103.8300856494
 31
0.0
  0
LINE
  5
E9
330
1F
100
AcDbEntity
  8
0
  6
HIDDEN
 62
     7
370
     0
100
AcDbLine
 10
167.6834900213
 20
105.7611824986
 30
0.0
 11
167.6447100518
 21
104.6969228304
 31
0.0
  0
LINE
  5
EA
330
1F
100
AcDbEntity
  8
0
  6
HIDDEN
 62
     7
370
     0
100
AcDbLine
 10
168.7898947771
 20
104.0275081366
 30
0.0
 11
168.1979124297
 21
103.8300856494
 31
0.0
  0
LINE
  5
EB
330
1F
100
AcDbEntity
  8
0
  6
HIDDEN
 62
     7
370
     0
100
AcDbLine
 10
168.8286747467
 20
105.0917678048
 30
0.0
 11
168.7898947771
 21
104.0275081366
 31
0.0
  0
LINE
  5
EC
330
1F
100
AcDbEntity
  8
0
  6
HIDDEN
 62
     7
370
     0
100
AcDbLine
 10
168.8286747467
 20
105.0917678048
 30
0.0
 11
168.2754723688
 21
105.9586049858
 31
0.0
  0
LINE
  5
ED
330
1F
100
AcDbEntity
  8
0
  6
HIDDEN
 62
     7
370
     0
100
AcDbLine
 10
167.6447100518
 20
104.6969228304
 30
0.0
 11
166.4159819853
 21
104.402660788
 31
0.0
  0
LINE
  5
EE
330
1F
100
AcDbEntity
  8
0
  6
HIDDEN
 62
     7
370
     0
100
AcDbLine
 10
168.1979124297
 20
103.8300856494
 30
0.0
 11
166.9691843632
 21
103.535823607
 31
0.0
  0
LWPOLYLINE
  5
EF
330
1F
100
AcDbEntity
  8
0
  6
HIDDEN
 62
     7
370
     0
100
AcDbPolyline
 90
       24
 70
   128
 43
0.0
 10
168.91822531
 20
120.1959020484
 10
168.6067673646
 20
120.0836526112
 10
168.3134272217
 20
120.1164411729
 10
168.0599605779
 20
120.2918359556
 10
167.8651658947
 20
120.596828731
 10
167.7434902024
 20
121.0087995799
 10
167.7039576307
 20
121.4971945092
 10
167.7495001294
 20
122.0257915013
 10
167.8767400199
 20
122.5553869354
 10
168.0762405015
 20
123.0467031409
 10
168.3332055361
 20
123.4633014424
 10
168.6285772027
 20
123.7742846499
 10
168.940449136
 20
123.9565885613
 10
169.2456912215
 20
123.9966925296
 10
169.5216650499
 20
123.8916222269
 10
169.747902905
 20
123.649170237
 10
169.9076257601
 20
123.2873181147
 10
169.9889877016
 20
122.8329027766
 10
169.9859544866
 20
122.3196261295
 10
169.8987510747
 20
121.7855555542
 10
169.733844944
 20
121.2703006222
 10
169.503466428
 20
120.8120754345
 10
169.2247016471
 20
120.4448644572
 10
168.91822531
 20
120.1959020484
  0
LWPOLYLINE
  5
F0
330
1F
100
AcDbEntity
  8
0
  6
HIDDEN
 62
     7
370
     0
100
AcDbPolyline
 90
       19
 70
   128
 43
0.0
 10
169.5074010142
 20
120.7400279589
 10
169.2600716249
 20
120.6664119636
 10
169.0375103364
 20
120.7406347902
 10
168.8665613248
 20
120.9537440703
 10
168.7678435638
 20
121.2800356797
 10
168.7532638723
 20
121.6801540346
 10
168.8245807763
 20
122.1058389564
 10
168.9731924046
 20
122.505746561
 10
169.1811740016
 20
122.8316420894
 10
169.4234399172
 20
123.044217731
 10
169.6707693065
 20
123.1178337263
 10
169.8933305949
 20
123.0436108997
 10
170.0642796065
 20
122.8305016195
 10
170.1629973675
 20
122.5042100102
 10
170.177577059
 20
122.1040916553
 10
170.106260155
 20
121.6784067335
 10
169.9576485267
 20
121.2784991288
 10
169.7496669297
 20
120.9526036005
 10
169.5074010142
 20
120.7400279589
  0
LWPOLYLINE
  5
F1
330
1F
100
AcDbEntity
  8
0
  6
HIDDEN
 62
     7
370
     0
100
AcDbPolyline
 90
       24
 70
   128
 43
0.0
 10
167.2595788952
 20
120.5931231221
 10
166.9481209497
 20
120.4808736849
 10
166.6547808068
 20
120.5136622465
 10
166.4013141631
 20
120.6890570293
 10
166.2065194798
 20
120.9940498046
 10
166.0848437875
 20
121.4060206535
 10
166.0453112158
 20
121.8944155828
 10
166.0908537146
 20
122.4230125749
 10
166.218093605
 20
122.952608009
 10
166.4175940866
 20
123.4439242145
 10
166.6745591213
 20
123.8605225161
 10
166.9699307879
 20
124.1715057235
 10
167.2818027212
 20
124.3538096349
 10
167.5870448066
 20
124.3939136032
 10
167.863018635
 20
124.2888433006
 10
168.0892564902
 20
124.0463913106
 10
168.2489793452
 20
123.6845391883
 10
168.3303412867
 20
123.2301238502
 10
168.3273080717
 20
122.7168472031
 10
168.2401046598
 20
122.1827766279
 10
168.0751985292
 20
121.6675216958
 10
167.8448200131
 20
121.2092965082
 10
167.5660552323
 20
120.8420855308
 10
167.2595788952
 20
120.5931231221
  0
LINE
  5
F2
330
1F
100
AcDbEntity
  8
0
  6
HIDDEN
 62
     7
370
     0
100
AcDbLine
 10
167.6447100518
 20
122.3838073746
 30
0.0
 11
168.1979124297
 21
123.2506445556
 31
0.0
  0
LINE
  5
F3
330
1F
100
AcDbEntity
  8
0
  6
HIDDEN
 62
     7
370
     0
100
AcDbLine
 10
166.4159819853
 20
122.678069417
 30
0.0
 11
166.9691843632
 21
123.544906598
 31
0.0
  0
LWPOLYLINE
  5
F4
330
1F
100
AcDbEntity
  8
0
  6
HIDDEN
 62
     7
370
     0
100
AcDbPolyline
 90
       21
 70
   128
 43
0.0
 10
167.0620352793
 20
120.9967487166
 10
166.7745142176
 20
120.9028531487
 10
166.5098448797
 20
120.9634030292
 10
166.2939349446
 20
121.172471314
 10
166.1479191808
 20
121.5095929426
 10
166.0860906289
 20
121.9417681013
 10
166.1145014981
 20
122.4266924743
 10
166.2303707347
 20
122.9168982853
 10
166.4223562505
 20
123.3644007741
 10
166.6716651656
 20
123.7253952792
 10
166.9538933863
 20
123.9645451431
 10
167.241414448
 20
124.058440711
 10
167.5060837858
 20
123.9978908305
 10
167.721993721
 20
123.7888225457
 10
167.8680094847
 20
123.451700917
 10
167.9298380367
 20
123.0195257584
 10
167.9014271675
 20
122.5346013854
 10
167.7855579308
 20
122.0443955744
 10
167.593572415
 20
121.5968930856
 10
167.3442635
 20
121.2358985805
 10
167.0620352793
 20
120.9967487166
  0
LINE
  5
F5
330
1F
100
AcDbEntity
  8
0
  6
HIDDEN
 62
     7
370
     0
100
AcDbLine
 10
166.4547619549
 20
121.6138097488
 30
0.0
 11
166.4159819853
 21
122.678069417
 31
0.0
  0
LINE
  5
F6
330
1F
100
AcDbEntity
  8
0
  6
HIDDEN
 62
     7
370
     0
100
AcDbLine
 10
167.6834900213
 20
121.3195477064
 30
0.0
 11
167.6447100518
 21
122.3838073746
 31
0.0
  0
LINE
  5
F7
330
1F
100
AcDbEntity
  8
0
  6
HIDDEN
 62
     7
370
     0
100
AcDbLine
 10
167.6447100518
 20
122.3838073746
 30
0.0
 11
166.4159819853
 21
122.678069417
 31
0.0
  0
LINE
  5
F8
330
1F
100
AcDbEntity
  8
0
  6
HIDDEN
 62
     7
370
     0
100
AcDbLine
 10
167.6834900213
 20
121.3195477064
 30
0.0
 11
166.4547619549
 21
121.6138097488
 31
0.0
  0
LINE
  5
F9
330
1F
100
AcDbEntity
  8
0
  6
HIDDEN
 62
     7
370
     0
100
AcDbLine
 10
166.4547619549
 20
121.6138097488
 30
0.0
 11
167.0467443024
 21
121.4163872617
 31
0.0
  0
LINE
  5
FA
330
1F
100
AcDbEntity
  8
0
  6
HIDDEN
 62
     7
370
     0
100
AcDbLine
 10
167.6834900213
 20
121.3195477064
 30
0.0
 11
168.2754723688
 21
121.1221252192
 31
0.0
  0
LINE
  5
FB
330
1F
100
AcDbEntity
  8
0
  6
HIDDEN
 62
     7
370
     0
100
AcDbLine
 10
168.7898947771
 20
123.0532220684
 30
0.0
 11
167.5611667107
 21
123.3474841108
 31
0.0
  0
LINE
  5
FC
330
1F
100
AcDbEntity
  8
0
  6
HIDDEN
 62
     7
370
     0
100
AcDbLine
 10
167.5611667107
 20
123.3474841108
 30
0.0
 11
166.9691843632
 21
123.544906598
 31
0.0
  0
LINE
  5
FD
330
1F
100
AcDbEntity
  8
0
  6
HIDDEN
 62
     7
370
     0
100
AcDbLine
 10
168.7898947771
 20
123.0532220684
 30
0.0
 11
168.1979124297
 21
123.2506445556
 31
0.0
  0
LINE
  5
FE
330
1F
100
AcDbEntity
  8
0
  6
HIDDEN
 62
     7
370
     0
100
AcDbLine
 10
168.1979124297
 20
123.2506445556
 30
0.0
 11
166.9691843632
 21
123.544906598
 31
0.0
  0
LINE
  5
FF
330
1F
100
AcDbEntity
  8
0
  6
HIDDEN
 62
     7
370
     0
100
AcDbLine
 10
168.8286747467
 20
121.9889624002
 30
0.0
 11
167.5999466803
 21
122.2832244427
 31
0.0
  0
LINE
  5
100
330
1F
100
AcDbEntity
  8
0
  6
HIDDEN
 62
     7
370
     0
100
AcDbLine
 10
168.2754723688
 20
121.1221252192
 30
0.0
 11
167.0467443024
 21
121.4163872617
 31
0.0
  0
LINE
  5
101
330
1F
100
AcDbEntity
  8
0
  6
HIDDEN
 62
     7
370
     0
100
AcDbLine
 10
167.5999466803
 20
122.2832244427
 30
0.0
 11
167.0467443024
 21
121.4163872617
 31
0.0
  0
LINE
  5
102
330
1F
100
AcDbEntity
  8
0
  6
HIDDEN
 62
     7
370
     0
100
AcDbLine
 10
168.8286747467
 20
121.9889624002
 30
0.0
 11
168.2754723688
 21
121.1221252192
 31
0.0
  0
LINE
  5
103
330
1F
100
AcDbEntity
  8
0
  6
HIDDEN
 62
     7
370
     0
100
AcDbLine
 10
167.5999466803
 20
122.2832244427
 30
0.0
 11
167.5611667107
 21
123.3474841108
 31
0.0
  0
LINE
  5
104
330
1F
100
AcDbEntity
  8
0
  6
HIDDEN
 62
     7
370
     0
100
AcDbLine
 10
168.8286747467
 20
121.9889624002
 30
0.0
 11
168.7898947771
 21
123.0532220684
 31
0.0
  0
LWPOLYLINE
  5
105
330
1F
100
AcDbEntity
  8
0
  6
HIDDEN
 62
     7
370
     0
100
AcDbPolyline
 90
       27
 70
   128
 43
0.0
 10
174.2952266408
 20
123.9401463693
 10
174.857170507
 20
123.7354607517
 10
175.3506571168
 20
123.4103512118
 10
175.7470068221
 20
122.9837119341
 10
176.0231852188
 20
122.4803376427
 10
176.1631418223
 20
121.9294826218
 10
176.1587428634
 20
121.3631605629
 10
176.0102439938
 20
120.8142840455
 10
175.7262754279
 20
120.3147517778
 10
175.3233403867
 20
119.8935947595
 10
174.82485599
 20
119.5752891055
 10
174.2597923392
 20
119.3783335836
 10
173.6609888797
 20
119.3141745327
 10
173.0632458919
 20
119.3865406437
 10
172.5013020257
 20
119.5912262612
 10
172.0078154159
 20
119.9163358012
 10
171.6114657106
 20
120.3429750789
 10
171.3352873139
 20
120.8463493703
 10
171.1953307105
 20
121.3972043912
 10
171.1997296693
 20
121.9635264501
 10
171.3482285389
 20
122.5124029675
 10
171.6321971048
 20
123.0119352351
 10
172.035132146
 20
123.4330922535
 10
172.5336165427
 20
123.7513979074
 10
173.0986801935
 20
123.9483534294
 10
173.6974836531
 20
124.0125124803
 10
174.2952266408
 20
123.9401463693
  0
LWPOLYLINE
  5
106
330
1F
100
AcDbEntity
  8
0
  6
HIDDEN
 62
     7
370
     0
100
AcDbPolyline
 90
       22
 70
   128
 43
0.0
 10
174.1104295285
 20
123.0005904029
 10
174.5911911855
 20
122.8103524372
 10
174.9909216458
 20
122.4954052014
 10
175.274103104
 20
122.0837331396
 10
175.4155736447
 20
121.611915121
 10
175.4027629895
 20
121.1218742471
 10
175.2368094214
 20
120.6571528002
 10
174.9324586432
 20
120.2590433201
 10
174.5167535571
 20
119.9629195812
 10
174.0266313844
 20
119.7950934773
 10
173.5056416309
 20
119.7704770942
 10
173.0000765225
 20
119.8912577055
 10
172.5548577379
 20
120.1467034239
 10
172.2095449197
 20
120.5141167763
 10
171.9948206274
 20
120.9608514739
 10
171.9297640565
 20
121.4472131785
 10
172.0201557688
 20
121.9299865183
 10
172.2579640642
 20
122.3662749632
 10
172.6220586318
 20
122.7173123705
 10
173.0800880717
 20
122.951907526
 10
173.5913544579
 20
123.0492156205
 10
174.1104295285
 20
123.0005904029
  0
LWPOLYLINE
  5
107
330
1F
100
AcDbEntity
  8
0
  6
HIDDEN
 62
     7
370
     0
100
AcDbPolyline
 90
       27
 70
   128
 43
0.0
 10
174.2952266408
 20
125.3058598657
 10
174.857170507
 20
125.1011742482
 10
175.3506571168
 20
124.7760647082
 10
175.7470068221
 20
124.3494254305
 10
176.0231852188
 20
123.8460511391
 10
176.1631418223
 20
123.2951961182
 10
176.1587428634
 20
122.7288740593
 10
176.0102439938
 20
122.1799975419
 10
175.7262754279
 20
121.6804652742
 10
175.3233403867
 20
121.2593082559
 10
174.82485599
 20
120.9410026019
 10
174.2597923392
 20
120.74404708
 10
173.6609888797
 20
120.6798880291
 10
173.0632458919
 20
120.7522541401
 10
172.5013020257
 20
120.9569397576
 10
172.0078154159
 20
121.2820492976
 10
171.6114657106
 20
121.7086885753
 10
171.3352873139
 20
122.2120628667
 10
171.1953307105
 20
122.7629178876
 10
171.1997296693
 20
123.3292399465
 10
171.3482285389
 20
123.8781164639
 10
171.6321971048
 20
124.3776487316
 10
172.035132146
 20
124.7988057499
 10
172.5336165427
 20
125.1171114039
 10
173.0986801935
 20
125.3140669258
 10
173.6974836531
 20
125.3782259767
 10
174.2952266408
 20
125.3058598657
  0
LINE
  5
108
330
1F
100
AcDbEntity
  8
0
  6
HIDDEN
 62
     7
370
     0
100
AcDbLine
 10
172.6455958712
 20
123.3795660065
 30
0.0
 11
174.0348784749
 21
123.7474015747
 31
0.0
  0
LINE
  5
109
330
1F
100
AcDbEntity
  8
0
  6
HIDDEN
 62
     7
370
     0
100
AcDbLine
 10
174.0348784749
 20
123.7474015747
 30
0.0
 11
174.0348784749
 21
124.4314418613
 31
0.0
  0
LINE
  5
10A
330
1F
100
AcDbEntity
  8
0
  6
HIDDEN
 62
     7
370
     0
100
AcDbLine
 10
175.0685188701
 20
122.8007243972
 30
0.0
 11
174.0348784749
 21
123.7474015747
 31
0.0
  0
LINE
  5
10B
330
1F
100
AcDbEntity
  8
0
  6
HIDDEN
 62
     7
370
     0
100
AcDbLine
 10
172.6455958712
 20
123.3795660065
 30
0.0
 11
172.6455958712
 21
124.0636062932
 31
0.0
  0
LINE
  5
10C
330
1F
100
AcDbEntity
  8
0
  6
HIDDEN
 62
     7
370
     0
100
AcDbLine
 10
172.6455958712
 20
123.3795660065
 30
0.0
 11
172.2899536627
 21
122.0650532608
 31
0.0
  0
LINE
  5
10D
330
1F
100
AcDbEntity
  8
0
  6
HIDDEN
 62
     7
370
     0
100
AcDbLine
 10
174.7128766616
 20
121.4862116514
 30
0.0
 11
174.7128766616
 21
122.1702519381
 31
0.0
  0
LINE
  5
10E
330
1F
100
AcDbEntity
  8
0
  6
HIDDEN
 62
     7
370
     0
100
AcDbLine
 10
175.0685188701
 20
123.4847646838
 30
0.0
 11
174.7128766616
 21
122.1702519381
 31
0.0
  0
LINE
  5
10F
330
1F
100
AcDbEntity
  8
0
  6
HIDDEN
 62
     7
370
     0
100
AcDbLine
 10
175.0685188701
 20
122.8007243972
 30
0.0
 11
175.0685188701
 21
123.4847646838
 31
0.0
  0
LINE
  5
110
330
1F
100
AcDbEntity
  8
0
  6
HIDDEN
 62
     7
370
     0
100
AcDbLine
 10
175.0685188701
 20
122.8007243972
 30
0.0
 11
174.7128766616
 21
121.4862116514
 31
0.0
  0
LINE
  5
111
330
1F
100
AcDbEntity
  8
0
  6
HIDDEN
 62
     7
370
     0
100
AcDbLine
 10
173.3235940578
 20
121.1183760832
 30
0.0
 11
173.3235940578
 21
121.8024163699
 31
0.0
  0
LINE
  5
112
330
1F
100
AcDbEntity
  8
0
  6
HIDDEN
 62
     7
370
     0
100
AcDbLine
 10
172.2899536627
 20
122.7490935474
 30
0.0
 11
173.3235940578
 21
121.8024163699
 31
0.0
  0
LINE
  5
113
330
1F
100
AcDbEntity
  8
0
  6
HIDDEN
 62
     7
370
     0
100
AcDbLine
 10
172.2899536627
 20
122.0650532608
 30
0.0
 11
172.2899536627
 21
122.7490935474
 31
0.0
  0
LINE
  5
114
330
1F
100
AcDbEntity
  8
0
  6
HIDDEN
 62
     7
370
     0
100
AcDbLine
 10
172.2899536627
 20
122.0650532608
 30
0.0
 11
173.3235940578
 21
121.1183760832
 31
0.0
  0
LINE
  5
115
330
1F
100
AcDbEntity
  8
0
  6
HIDDEN
 62
     7
370
     0
100
AcDbLine
 10
174.7128766616
 20
122.1702519381
 30
0.0
 11
173.3235940578
 21
121.8024163699
 31
0.0
  0
LINE
  5
116
330
1F
100
AcDbEntity
  8
0
  6
HIDDEN
 62
     7
370
     0
100
AcDbLine
 10
174.7128766616
 20
121.4862116514
 30
0.0
 11
173.3235940578
 21
121.1183760832
 31
0.0
  0
LWPOLYLINE
  5
117
330
1F
100
AcDbEntity
  8
0
  6
HIDDEN
 62
     7
370
     0
100
AcDbPolyline
 90
       24
 70
   128
 43
0.0
 10
174.1855803542
 20
124.9884610688
 10
174.704142513
 20
124.7906881783
 10
175.1466920641
 20
124.468780235
 10
175.4804071319
 20
124.0466116785
 10
175.6805375964
 20
123.5554928193
 10
175.7322406966
 20
123.0318476965
 10
175.6316818501
 20
122.5145126734
 10
175.3863190464
 20
122.0418561219
 10
175.0143497224
 20
121.6489328162
 10
174.5433611411
 20
121.3648840804
 10
174.0082843709
 20
121.2107765098
 10
173.4488036081
 20
121.1980395579
 10
172.9064129814
 20
121.3276178661
 10
172.4213391223
 20
121.5899012042
 10
172.0295577399
 20
121.9654372168
 10
171.760125467
 20
122.4263741158
 10
171.6330248628
 20
122.9385263201
 10
171.6576823976
 20
123.4639098435
 10
171.8322693348
 20
123.9635593937
 10
172.14383736
 20
124.4004182493
 10
172.5692788982
 20
124.7420865874
 10
173.0770408966
 20
124.9632244304
 10
173.6294649707
 20
125.0474309961
 10
174.1855803542
 20
124.9884610688
  0
LINE
  5
118
330
1F
100
AcDbEntity
  8
0
  6
HIDDEN
 62
     7
370
     0
100
AcDbLine
 10
172.6455958712
 20
124.0636062932
 30
0.0
 11
172.2899536627
 21
122.7490935474
 31
0.0
  0
LINE
  5
119
330
1F
100
AcDbEntity
  8
0
  6
HIDDEN
 62
     7
370
     0
100
AcDbLine
 10
175.0685188701
 20
123.4847646838
 30
0.0
 11
174.0348784749
 21
124.4314418613
 31
0.0
  0
LINE
  5
11A
330
1F
100
AcDbEntity
  8
0
  6
HIDDEN
 62
     7
370
     0
100
AcDbLine
 10
172.6455958712
 20
124.0636062932
 30
0.0
 11
174.0348784749
 21
124.4314418613
 31
0.0
  0
LWPOLYLINE
  5
11B
330
1F
100
AcDbEntity
  8
0
  6
HIDDEN
 62
     7
370
     0
100
AcDbPolyline
 90
       24
 70
   128
 43
0.0
 10
165.88114877
 20
104.6000832752
 10
166.0135741635
 20
104.0577468785
 10
166.2197489267
 20
103.5556330914
 10
166.4843820208
 20
103.1309813964
 10
166.7878468197
 20
102.815286267
 10
167.1076367276
 20
102.6319613668
 10
167.4200343899
 20
102.594603065
 10
167.7018707012
 20
102.705982056
 10
167.9322431516
 20
102.9578378694
 10
168.0940660703
 20
103.3314915118
 10
168.1753377916
 20
103.7992308018
 10
168.170030764
 20
104.3263656562
 10
168.0785385852
 20
104.8738008941
 10
167.9076468117
 20
105.4009357485
 10
167.6700297045
 20
105.8686750386
 10
167.3833102374
 20
106.2423286809
 10
167.0687530817
 20
106.4941844944
 10
166.7496875025
 20
106.6055634853
 10
166.4497771343
 20
106.5682051835
 10
166.1912649571
 20
106.3848802833
 10
165.9933236365
 20
106.0691851539
 10
165.8706335746
 20
105.6445334589
 10
165.8322941321
 20
105.1424196718
 10
165.88114877
 20
104.6000832752
  0
LWPOLYLINE
  5
11C
330
1F
100
AcDbEntity
  8
0
  6
HIDDEN
 62
     7
370
     0
100
AcDbPolyline
 90
       22
 70
   128
 43
0.0
 10
166.1010152213
 20
104.6000832752
 10
166.2210114397
 20
104.1231874458
 10
166.4109318761
 20
103.6886659036
 10
166.6539012664
 20
103.3351277947
 10
166.9283307139
 20
103.0939865313
 10
167.2098359578
 20
102.986668573
 10
167.473404022
 20
103.0227095914
 10
167.6956157273
 20
103.1989071837
 10
167.8567265884
 20
103.4996054208
 10
167.9424211984
 20
103.8980859445
 10
167.9450852151
 20
104.3589420118
 10
167.8644819289
 20
104.8412245385
 10
167.7077732956
 20
105.3020806058
 10
167.4888835648
 20
105.7005611296
 10
167.2272620498
 20
106.0012593666
 10
166.9461549702
 20
106.1774569589
 10
166.6705399238
 20
106.2134979773
 10
166.4249065169
 20
106.106180019
 10
166.2310803556
 20
105.8650387557
 10
166.106283745
 20
105.5115006467
 10
166.0616054115
 20
105.0769791046
 10
166.1010152213
 20
104.6000832752
  0
SPLINE
  5
11D
330
1F
100
AcDbEntity
  8
0
  6
HIDDEN
 62
     7
370
     0
100
AcDbSpline
210
0.0
220
0.0
230
1.0
 70
     8
 71
     3
 72
    48
 73
    44
 74
     0
 42
0.000000001
 43
0.00000001
 40
0.0
 40
0.0
 40
0.0
 40
0.0
 40
0.0625000000000001
 40
0.0625000000000001
 40
0.1250000000000001
 40
0.1250000000000001
 40
0.1875000000000002
 40
0.1875000000000002
 40
0.2500000000000002
 40
0.2500000000000002
 40
0.3125000000000003
 40
0.3125000000000003
 40
0.3437500000000006
 40
0.3437500000000006
 40
0.3750000000000008
 40
0.3750000000000008
 40
0.4375000000000005
 40
0.4375000000000005
 40
0.5000000000000002
 40
0.5000000000000002
 40
0.5624999999999999
 40
0.5624999999999999
 40
0.5937499999999998
 40
0.5937499999999998
 40
0.6249999999999996
 40
0.6249999999999996
 40
0.6562499999999993
 40
0.6562499999999993
 40
0.6874999999999991
 40
0.6874999999999991
 40
0.718749999999999
 40
0.718749999999999
 40
0.7499999999999988
 40
0.7499999999999988
 40
0.7812499999999986
 40
0.7812499999999986
 40
0.8124999999999983
 40
0.8124999999999983
 40
0.874999999999999
 40
0.874999999999999
 40
0.9374999999999994
 40
0.9374999999999994
 40
1.0
 40
1.0
 40
1.0
 40
1.0
 10
171.8791596819981
 20
104.23006341649
 30
0.0
 10
171.9421857062405
 20
104.184598904912
 30
0.0
 10
172.005993622596
 20
104.1594913969559
 30
0.0
 10
172.1288109071799
 20
104.1373321519326
 30
0.0
 10
172.1880556473227
 20
104.1404681492882
 30
0.0
 10
172.2920044309983
 20
104.1742606389545
 30
0.0
 10
172.3360524409298
 20
104.2042772518337
 30
0.0
 10
172.3856171183659
 20
104.299773796046
 30
0.0
 10
172.3892732668821
 20
104.3651943991549
 30
0.0
 10
172.3200784505078
 20
104.5493593783002
 30
0.0
 10
172.2454367466409
 20
104.6680247367513
 30
0.0
 10
172.1107439207021
 20
104.8768261013467
 30
0.0
 10
172.0621420025589
 20
104.9522502978457
 30
0.0
 10
171.9672877527694
 20
105.1087523156299
 30
0.0
 10
171.9205067075592
 20
105.1905501727838
 30
0.0
 10
171.787387012628
 20
105.4483421987097
 30
0.0
 10
171.711721336752
 20
105.6307260081738
 30
0.0
 10
171.606610682213
 20
106.0105514407606
 30
0.0
 10
171.5790824159955
 20
106.1997717550266
 30
0.0
 10
171.5793914019125
 20
106.5708321591324
 30
0.0
 10
171.6076017715137
 20
106.7454348218531
 30
0.0
 10
171.6863846330086
 20
106.9802962408243
 30
0.0
 10
171.7182217416914
 20
107.0528274734717
 30
0.0
 10
171.7914170990058
 20
107.1863959972956
 30
0.0
 10
171.8332579419547
 20
107.2478848652485
 30
0.0
 10
171.9216792387157
 20
107.3545657128838
 30
0.0
 10
171.9683711345995
 20
107.400194521452
 30
0.0
 10
172.0632707241925
 20
107.4752079227018
 30
0.0
 10
172.1119053904082
 20
107.5046201269343
 30
0.0
 10
172.201418957129
 20
107.542956256523
 30
0.0
 10
172.2429746489555
 20
107.5523267322407
 30
0.0
 10
172.3117058462349
 20
107.5503680349368
 30
0.0
 10
172.3377941873308
 20
107.5392176568345
 30
0.0
 10
172.3720743938222
 20
107.499974530935
 30
0.0
 10
172.3800117543037
 20
107.4717059086547
 30
0.0
 10
172.3803778093315
 20
107.4050535616967
 30
0.0
 10
172.3731691160147
 20
107.3663956100162
 30
0.0
 10
172.3358558969697
 20
107.2381759088601
 30
0.0
 10
172.2918340534902
 20
107.1399688538074
 30
0.0
 10
172.1890634725153
 20
106.9247116065096
 30
0.0
 10
172.1293193976539
 20
106.806412197718
 30
0.0
 10
172.0058725558393
 20
106.5509025151915
 30
0.0
 10
171.9419630528854
 20
106.413834112428
 30
0.0
 10
171.8791596819981
 20
106.2626898372123
 30
0.0
  0
SPLINE
  5
11E
330
1F
100
AcDbEntity
  8
0
  6
HIDDEN
 62
     7
370
     0
100
AcDbSpline
210
0.0
220
0.0
230
1.0
 70
     8
 71
     3
 72
    18
 73
    14
 74
     0
 42
0.000000001
 43
0.00000001
 40
0.0
 40
0.0
 40
0.0
 40
0.0
 40
0.2499999999999997
 40
0.2499999999999997
 40
0.3749999999999997
 40
0.3749999999999997
 40
0.4999999999999998
 40
0.4999999999999998
 40
0.6249999999999998
 40
0.6249999999999998
 40
0.7499999999999999
 40
0.7499999999999999
 40
1.0
 40
1.0
 40
1.0
 40
1.0
 10
171.8791596819981
 20
106.2626898372123
 30
0.0
 10
171.9711523590601
 20
106.0906593031315
 30
0.0
 10
172.0312731055202
 20
105.9019945566763
 30
0.0
 10
172.0866216179845
 20
105.6118726988543
 30
0.0
 10
172.0992251512951
 20
105.5152486980587
 30
0.0
 10
172.1157574795189
 20
105.3227996184442
 30
0.0
 10
172.1196462915458
 20
105.2264844338016
 30
0.0
 10
172.1195907725067
 20
105.0422130117422
 30
0.0
 10
172.1157614623455
 20
104.9533677093192
 30
0.0
 10
172.0992082530502
 20
104.7820236612186
 30
0.0
 10
172.0863156011321
 20
104.6996350682307
 30
0.0
 10
172.0311425821359
 20
104.470803067743
 30
0.0
 10
171.9697122904037
 20
104.3364435562773
 30
0.0
 10
171.8791596819981
 20
104.23006341649
 30
0.0
  0
ELLIPSE
  5
11F
330
1F
100
AcDbEntity
  8
0
  6
HIDDEN
 62
     7
370
     0
100
AcDbEllipse
 10
173.6792362664
 20
113.5403651025
 30
0.0
 11
1.720219293006892
 21
1.720219293006892
 31
0.0
210
0.0
220
0.0
230
1.0
 40
0.7002075382
 41
0.9599310885968819
 42
4.101523742186688
  0
ELLIPSE
  5
120
330
1F
100
AcDbEntity
  8
0
  6
HIDDEN
 62
     7
370
     0
100
AcDbEllipse
 10
173.6792362664
 20
113.5403651025
 30
0.0
 11
-1.720219293006892
 21
1.720219293006892
 31
0.0
210
0.0
220
0.0
230
1.0
 40
0.7002075382
 41
2.181661564992909
 42
5.323254218582715
  0
LWPOLYLINE
  5
121
330
1F
100
AcDbEntity
  8
0
  6
HIDDEN
 62
     7
370
     0
100
AcDbPolyline
 90
       20
 70
   128
 43
0.0
 10
171.879159682
 20
104.2300634165
 10
172.2385646879
 20
103.8106242713
 10
172.7052547284
 20
103.4981038321
 10
173.2444759719
 20
103.3157751104
 10
173.816073278
 20
103.277215901
 10
174.3774805007
 20
103.3852976606
 10
174.8868903371
 20
103.6319716741
 10
175.3063676651
 20
103.998868432
 10
175.604674526
 20
104.4586655856
 10
175.759596376
 20
104.9771226083
 10
175.759596376
 20
105.5156306454
 10
175.604674526
 20
106.0340876681
 10
175.3063676651
 20
106.4938848217
 10
174.8868903371
 20
106.8607815796
 10
174.3774805007
 20
107.1074555931
 10
173.816073278
 20
107.2155373527
 10
173.2444759719
 20
107.1769781433
 10
172.7052547284
 20
106.9946494216
 10
172.2385646879
 20
106.6821289824
 10
171.879159682
 20
106.2626898372
  0
CIRCLE
  5
122
330
1F
100
AcDbEntity
  8
0
  6
HIDDEN
 62
     7
370
     0
100
AcDbCircle
 10
202.5292362664
 20
113.5403651025
 30
0.0
 40
2.25
  0
LINE
  5
123
330
1F
100
AcDbEntity
  8
0
  6
HIDDEN
 62
     7
370
     0
100
AcDbLine
 10
165.7792362664
 20
138.3403651025
 30
0.0
 11
166.1164945666
 21
138.3403651025
 31
0.0
  0
ELLIPSE
  5
124
330
1F
100
AcDbEntity
  8
0
  6
HIDDEN
 62
     7
370
     0
100
AcDbEllipse
 10
166.1164945666
 20
139.9403651025
 30
0.0
 11
0.0
 21
1.599999999999994
 31
0.0
210
0.0
220
0.0
230
1.0
 40
0.4142135624
 41
3.141592653589793
 42
4.712388980384695
  0
LINE
  5
125
330
1F
100
AcDbEntity
  8
0
  6
HIDDEN
 62
     7
370
     0
100
AcDbLine
 10
166.1164945666
 20
90.9403651025
 30
0.0
 11
165.7792362664
 21
90.9403651025
 31
0.0
  0
ELLIPSE
  5
126
330
1F
100
AcDbEntity
  8
0
  6
HIDDEN
 62
     7
370
     0
100
AcDbEllipse
 10
166.1164945666
 20
89.3403651025
 30
0.0
 11
0.0
 21
1.599999999999994
 31
0.0
210
0.0
220
0.0
230
1.0
 40
0.4142135624
 41
4.712388980384695
 42
6.283185307179586
  0
LINE
  5
127
330
1F
100
AcDbEntity
  8
0
  6
HIDDEN
 62
     7
370
     0
100
AcDbLine
 10
166.7792362664
 20
83.6469167559
 30
0.0
 11
165.9953808077
 21
83.188635253
 31
0.0
  0
LINE
  5
128
330
1F
100
AcDbEntity
  8
0
  6
HIDDEN
 62
     7
370
     0
100
AcDbLine
 10
166.0664778677
 20
143.9656616575
 30
0.0
 11
166.7792362664
 21
143.2529032588
 31
0.0
  0
LINE
  5
129
330
1F
100
AcDbEntity
  8
0
  6
HIDDEN
 62
     7
370
     0
100
AcDbLine
 10
101.3292362664
 20
105.0403651025
 30
0.0
 11
101.3292362664
 21
122.0403651025
 31
0.0
  0
LINE
  5
12A
330
1F
100
AcDbEntity
  8
0
  6
HIDDEN
 62
     7
370
     0
100
AcDbLine
 10
104.3251654807
 20
106.5403651025
 30
0.0
 11
104.3251654807
 21
120.5403651025
 31
0.0
  0
LINE
  5
12B
330
1F
100
AcDbEntity
  8
0
  6
HIDDEN
 62
     7
370
     0
100
AcDbLine
 10
170.6144466627
 20
83.6469167559
 30
0.0
 11
166.7792362664
 21
83.6469167559
 31
0.0
  0
LINE
  5
12C
330
1F
100
AcDbEntity
  8
0
  6
HIDDEN
 62
     7
370
     0
100
AcDbLine
 10
181.6292362664
 20
83.6469167559
 30
0.0
 11
176.7440258701
 21
83.6469167559
 31
0.0
  0
LINE
  5
12D
330
1F
100
AcDbEntity
  8
0
  6
HIDDEN
 62
     7
370
     0
100
AcDbLine
 10
166.7792362664
 20
83.6469167559
 30
0.0
 11
166.7792362664
 21
89.3403651025
 31
0.0
  0
LINE
  5
12E
330
1F
100
AcDbEntity
  8
0
  6
HIDDEN
 62
     7
370
     0
100
AcDbLine
 10
181.6292362664
 20
90.9403651025
 30
0.0
 11
166.1164945666
 21
90.9403651025
 31
0.0
  0
LINE
  5
12F
330
1F
100
AcDbEntity
  8
0
  6
HIDDEN
 62
     7
370
     0
100
AcDbLine
 10
166.7792362664
 20
143.2529032588
 30
0.0
 11
170.7152815801
 21
143.2529032588
 31
0.0
  0
LINE
  5
130
330
1F
100
AcDbEntity
  8
0
  6
HIDDEN
 62
     7
370
     0
100
AcDbLine
 10
176.6431909527
 20
143.2529032588
 30
0.0
 11
181.6292362664
 21
143.2529032588
 31
0.0
  0
LINE
  5
131
330
1F
100
AcDbEntity
  8
0
  6
HIDDEN
 62
     7
370
     0
100
AcDbLine
 10
166.7792362664
 20
143.2529032588
 30
0.0
 11
166.7792362664
 21
139.9403651025
 31
0.0
  0
LINE
  5
132
330
1F
100
AcDbEntity
  8
0
  6
HIDDEN
 62
     7
370
     0
100
AcDbLine
 10
166.1164945666
 20
138.3403651025
 30
0.0
 11
181.6292362664
 21
138.3403651025
 31
0.0
  0
LINE
  5
133
330
1F
100
AcDbEntity
  8
0
  6
HIDDEN
 62
     7
370
     0
100
AcDbLine
 10
140.2734532996
 20
111.4403651025
 30
0.0
 11
140.2734532996
 21
115.6403651025
 31
0.0
  0
LINE
  5
134
330
1F
100
AcDbEntity
  8
0
  6
HIDDEN
 62
     7
370
     0
100
AcDbLine
 10
137.3292362664
 20
106.5403651025
 30
0.0
 11
137.3292362664
 21
120.5403651025
 31
0.0
  0
LINE
  5
135
330
1F
100
AcDbEntity
  8
0
  6
HIDDEN
 62
     7
370
     0
100
AcDbLine
 10
195.0792362664
 20
108.3403651025
 30
0.0
 11
195.0792362664
 21
118.7403650641
 31
0.0
  0
LINE
  5
136
330
1F
100
AcDbEntity
  8
0
  6
HIDDEN
 62
     7
370
     0
100
AcDbLine
 10
198.4452616701
 20
108.0403651025
 30
0.0
 11
198.4452616701
 21
119.0403651025
 31
0.0
  0
ELLIPSE
  5
137
330
1F
100
AcDbEntity
  8
0
  6
HIDDEN
 62
     7
370
     0
100
AcDbEllipse
 10
173.6792362664
 20
113.5403651025
 30
0.0
 11
1.720219293006892
 21
1.720219293006892
 31
0.0
210
0.0
220
0.0
230
1.0
 40
0.7002075382
 41
4.101523742186691
 42
7.243116395776471
  0
ELLIPSE
  5
138
330
1F
100
AcDbEntity
  8
0
  6
HIDDEN
 62
     7
370
     0
100
AcDbEllipse
 10
173.6792362664
 20
113.5403651025
 30
0.0
 11
-1.720219293006892
 21
1.720219293006892
 31
0.0
210
0.0
220
0.0
230
1.0
 40
0.7002075382
 41
5.323254218582718
 42
8.464846872172497
  0
SPLINE
  5
139
330
1F
100
AcDbEntity
  8
0
  6
HIDDEN
 62
     7
370
     0
100
AcDbSpline
210
0.0
220
0.0
230
1.0
 70
    11
 71
     3
 72
    58
 73
    54
 74
     0
 42
0.000000001
 43
0.00000001
 40
0.0
 40
0.0
 40
0.0
 40
0.0
 40
0.0312500000000003
 40
0.0312500000000003
 40
0.0625000000000007
 40
0.0625000000000007
 40
0.1250000000000012
 40
0.1250000000000012
 40
0.1562500000000014
 40
0.1562500000000014
 40
0.1875000000000016
 40
0.1875000000000016
 40
0.2187500000000017
 40
0.2187500000000017
 40
0.2500000000000019
 40
0.2500000000000019
 40
0.3125000000000014
 40
0.3125000000000014
 40
0.3437500000000013
 40
0.3437500000000013
 40
0.3750000000000011
 40
0.3750000000000011
 40
0.4375000000000009
 40
0.4375000000000009
 40
0.4687500000000008
 40
0.4687500000000008
 40
0.5000000000000008
 40
0.5000000000000008
 40
0.5312500000000007
 40
0.5312500000000007
 40
0.5625000000000006
 40
0.5625000000000006
 40
0.6250000000000004
 40
0.6250000000000004
 40
0.6875000000000003
 40
0.6875000000000003
 40
0.7500000000000001
 40
0.7500000000000001
 40
0.7812500000000001
 40
0.7812500000000001
 40
0.8125000000000001
 40
0.8125000000000001
 40
0.8437500000000001
 40
0.8437500000000001
 40
0.8750000000000001
 40
0.8750000000000001
 40
0.9062500000000001
 40
0.9062500000000001
 40
0.9375000000000001
 40
0.9375000000000001
 40
0.9687500000000001
 40
0.9687500000000001
 40
1.0
 40
1.0
 40
1.0
 40
1.0
 10
171.6328372699432
 20
120.269849713141
 30
0.0
 10
171.6610608651101
 20
120.163217422855
 30
0.0
 10
171.6992066842895
 20
120.0661603165996
 30
0.0
 10
171.7917800429633
 20
119.8907573720985
 30
0.0
 10
171.8469331598748
 20
119.8120521607286
 30
0.0
 10
172.0221344936523
 20
119.6176764295611
 30
0.0
 10
172.1588432567496
 20
119.5384077070103
 30
0.0
 10
172.303695711928
 20
119.5258948179508
 30
0.0
 10
172.3391801643202
 20
119.5392372349709
 30
0.0
 10
172.3794848331511
 20
119.5939971380765
 30
0.0
 10
172.3839550014879
 20
119.634770586989
 30
0.0
 10
172.3705616635498
 20
119.7311851535641
 30
0.0
 10
172.3528297671444
 20
119.7877060384708
 30
0.0
 10
172.305461581977
 20
119.9090175071227
 30
0.0
 10
172.2757637099624
 20
119.9742807777441
 30
0.0
 10
172.1764506380885
 20
120.1827043230197
 30
0.0
 10
172.0964001086
 20
120.3391797265831
 30
0.0
 10
171.9752155186573
 20
120.5970225389018
 30
0.0
 10
171.9343638511912
 20
120.6871626357371
 30
0.0
 10
171.8534979450259
 20
120.8784385974719
 30
0.0
 10
171.8131460908917
 20
120.9804019855906
 30
0.0
 10
171.69921932887
 20
121.302884585562
 30
0.0
 10
171.6304518314417
 20
121.5444241400554
 30
0.0
 10
171.5815323795154
 20
121.9253451483534
 30
0.0
 10
171.5756155279949
 20
122.0517678898516
 30
0.0
 10
171.5875037379493
 20
122.2798880090505
 30
0.0
 10
171.6052131245606
 20
122.3820937624744
 30
0.0
 10
171.6548512772356
 20
122.5516125900851
 30
0.0
 10
171.6871008808586
 20
122.6216866336456
 30
0.0
 10
171.7571877132798
 20
122.7350538997669
 30
0.0
 10
171.7954698290397
 20
122.7796204598429
 30
0.0
 10
171.9152222420504
 20
122.8869237747645
 30
0.0
 10
171.9983424245115
 20
122.9217530496661
 30
0.0
 10
172.1568238221921
 20
122.9462974339668
 30
0.0
 10
172.2329473667664
 20
122.9349851990363
 30
0.0
 10
172.348530021321
 20
122.8663699739597
 30
0.0
 10
172.3901397035012
 20
122.8090284090661
 30
0.0
 10
172.372201643659
 20
122.6654670301864
 30
0.0
 10
172.3517459758833
 20
122.6074145681402
 30
0.0
 10
172.2816275638878
 20
122.4710006350488
 30
0.0
 10
172.2310261646158
 20
122.390546205522
 30
0.0
 10
172.1176536248238
 20
122.2144732511869
 30
0.0
 10
172.0540665848181
 20
122.1167398206251
 30
0.0
 10
171.9319712666966
 20
121.9114590827106
 30
0.0
 10
171.8721696202167
 20
121.8019383344603
 30
0.0
 10
171.765063969708
 20
121.5728020361363
 30
0.0
 10
171.7185555264898
 20
121.4552914310585
 30
0.0
 10
171.6432956359472
 20
121.2130485712844
 30
0.0
 10
171.6150711097919
 20
121.0891279405966
 30
0.0
 10
171.5814260404974
 20
120.8458473283504
 30
0.0
 10
171.575605144123
 20
120.7234815741523
 30
0.0
 10
171.5873971325497
 20
120.4885346790033
 30
0.0
 10
171.6046136747762
 20
120.376482003427
 30
0.0
 10
171.6328372699432
 20
120.269849713141
 30
0.0
  0
SPLINE
  5
13A
330
1F
100
AcDbEntity
  8
0
  6
HIDDEN
 62
     7
370
     0
100
AcDbSpline
210
0.0
220
0.0
230
1.0
 70
     8
 71
     3
 72
    16
 73
    12
 74
     0
 42
0.000000001
 43
0.00000001
 40
0.0
 40
0.0
 40
0.0
 40
0.0
 40
0.25
 40
0.25
 40
0.5
 40
0.5
 40
0.75
 40
0.75
 40
0.875
 40
0.875
 40
1.0
 40
1.0
 40
1.0
 40
1.0
 10
172.5692362663584
 20
121.4223417800662
 30
0.0
 10
172.4554843046457
 20
121.4904448274078
 30
0.0
 10
172.3534140507557
 20
121.5736618077751
 30
0.0
 10
172.1675402614944
 20
121.7635722056966
 30
0.0
 10
172.0878873335335
 20
121.8662125643268
 30
0.0
 10
171.9501272355451
 20
122.0808068379716
 30
0.0
 10
171.8920786963405
 20
122.1934341145248
 30
0.0
 10
171.8249775482084
 20
122.3554978839229
 30
0.0
 10
171.8059148928028
 20
122.4084596511919
 30
0.0
 10
171.7778505119022
 20
122.5026455930379
 30
0.0
 10
171.7692362663584
 20
122.5431867866632
 30
0.0
 10
171.7692362663584
 20
122.565791741703
 30
0.0
  0
SPLINE
  5
13B
330
1F
100
AcDbEntity
  8
0
  6
HIDDEN
 62
     7
370
     0
100
AcDbSpline
210
0.0
220
0.0
230
1.0
 70
     8
 71
     3
 72
    14
 73
    10
 74
     0
 42
0.000000001
 43
0.00000001
 40
0.0
 40
0.0
 40
0.0
 40
0.0
 40
0.25
 40
0.25
 40
0.5
 40
0.5
 40
0.75
 40
0.75
 40
1.0
 40
1.0
 40
1.0
 40
1.0
 10
174.7892362663584
 20
121.4223417800662
 30
0.0
 10
174.6223771151429
 20
121.3224435760836
 30
0.0
 10
174.4450943668497
 20
121.2467732779013
 30
0.0
 10
174.0701387193645
 20
121.1431711274078
 30
0.0
 10
173.8747786706541
 20
121.1167287397101
 30
0.0
 10
173.4865116602149
 20
121.1164772582746
 30
0.0
 10
173.2896233291013
 20
121.1430415850825
 30
0.0
 10
172.9167767238605
 20
121.2456103154626
 30
0.0
 10
172.7360966088242
 20
121.3224428628847
 30
0.0
 10
172.5692362663584
 20
121.4223417800662
 30
0.0
  0
SPLINE
  5
13C
330
1F
100
AcDbEntity
  8
0
  6
HIDDEN
 62
     7
370
     0
100
AcDbSpline
210
0.0
220
0.0
230
1.0
 70
     8
 71
     3
 72
    16
 73
    12
 74
     0
 42
0.000000001
 43
0.00000001
 40
0.0
 40
0.0
 40
0.0
 40
0.0
 40
0.1249999999999984
 40
0.1249999999999984
 40
0.2499999999999968
 40
0.2499999999999968
 40
0.4999999999999979
 40
0.4999999999999979
 40
0.7499999999999989
 40
0.7499999999999989
 40
1.0
 40
1.0
 40
1.0
 40
1.0
 10
175.5892362663584
 20
122.5657917417035
 30
0.0
 10
175.5892362663584
 20
122.5431364639506
 30
0.0
 10
175.5806250908757
 20
122.5026432255003
 30
0.0
 10
175.5525067502074
 20
122.4083015543688
 30
0.0
 10
175.5335089459307
 20
122.3555422388423
 30
0.0
 10
175.4665213011343
 20
122.1937207362685
 30
0.0
 10
175.4087428641859
 20
122.0815440079426
 30
0.0
 10
175.2712963090875
 20
121.867203370183
 30
0.0
 10
175.1898495633249
 20
121.7625386078706
 30
0.0
 10
175.0070880710602
 20
121.5756632253931
 30
0.0
 10
174.9030201906643
 20
121.4904639633412
 30
0.0
 10
174.7892362663585
 20
121.422341780066
 30
0.0
  0
SPLINE
  5
13D
330
1F
100
AcDbEntity
  8
0
  6
HIDDEN
 62
     7
370
     0
100
AcDbSpline
210
0.0
220
0.0
230
1.0
 70
     8
 71
     3
 72
    16
 73
    12
 74
     0
 42
0.000000001
 43
0.00000001
 40
0.0
 40
0.0
 40
0.0
 40
0.0
 40
0.2499999999999971
 40
0.2499999999999971
 40
0.3749999999999968
 40
0.3749999999999968
 40
0.4999999999999964
 40
0.4999999999999964
 40
0.7499999999999982
 40
0.7499999999999982
 40
1.0
 40
1.0
 40
1.0
 40
1.0
 10
175.5892362663586
 20
124.2603866948964
 30
0.0
 10
175.6437504582762
 20
124.1818323739475
 30
0.0
 10
175.6913621061321
 20
124.0854119054953
 30
0.0
 10
175.7422984894308
 20
123.9096748069148
 30
0.0
 10
175.7557467438175
 20
123.8464478646704
 30
0.0
 10
175.7742833205026
 20
123.7089701431289
 30
0.0
 10
175.7792014013073
 20
123.6342498202714
 30
0.0
 10
175.7793054207531
 20
123.4056726956704
 30
0.0
 10
175.7595576062047
 20
123.2402262914516
 30
0.0
 10
175.6914010194061
 20
122.9206197095481
 30
0.0
 10
175.6438162904115
 20
122.765738101076
 30
0.0
 10
175.5892362663586
 20
122.6199298919216
 30
0.0
  0
SPLINE
  5
13E
330
1F
100
AcDbEntity
  8
0
  6
HIDDEN
 62
     7
370
     0
100
AcDbSpline
210
0.0
220
0.0
230
1.0
 70
     8
 71
     3
 72
    16
 73
    12
 74
     0
 42
0.000000001
 43
0.00000001
 40
0.0
 40
0.0
 40
0.0
 40
0.0
 40
0.2500000000000014
 40
0.2500000000000014
 40
0.5000000000000029
 40
0.5000000000000029
 40
0.7500000000000043
 40
0.7500000000000043
 40
0.8750000000000021
 40
0.8750000000000021
 40
1.0
 40
1.0
 40
1.0
 40
1.0
 10
174.7892362663584
 20
124.7726589697627
 30
0.0
 10
174.9029882280712
 20
124.7076468405778
 30
0.0
 10
175.0050584819611
 20
124.6435013920535
 30
0.0
 10
175.1909322712225
 20
124.5133030691236
 30
0.0
 10
175.2705851991833
 20
124.450118711916
 30
0.0
 10
175.4083452971717
 20
124.3304511472851
 30
0.0
 10
175.4663938363764
 20
124.2730563328412
 30
0.0
 10
175.5334949845085
 20
124.2101164206381
 30
0.0
 10
175.552557639914
 20
124.1930753688904
 30
0.0
 10
175.5806220208146
 20
124.1791544848466
 30
0.0
 10
175.5892362663584
 20
124.1836435896385
 30
0.0
 10
175.5892362663584
 20
124.2062485446782
 30
0.0
  0
SPLINE
  5
13F
330
1F
100
AcDbEntity
  8
0
  6
HIDDEN
 62
     7
370
     0
100
AcDbSpline
210
0.0
220
0.0
230
1.0
 70
     8
 71
     3
 72
    14
 73
    10
 74
     0
 42
0.000000001
 43
0.00000001
 40
0.0
 40
0.0
 40
0.0
 40
0.0
 40
0.25
 40
0.25
 40
0.5
 40
0.5
 40
0.75
 40
0.75
 40
1.0
 40
1.0
 40
1.0
 40
1.0
 10
172.5692362663584
 20
124.7726589697627
 30
0.0
 10
172.7360954175739
 20
124.8680232037607
 30
0.0
 10
172.9133781658671
 20
124.9398940688937
 30
0.0
 10
173.2883338133524
 20
125.038184333141
 30
0.0
 10
173.4836938620628
 20
125.0631920781787
 30
0.0
 10
173.8719608725018
 20
125.0634301579439
 30
0.0
 10
174.0688492036155
 20
125.0383063733327
 30
0.0
 10
174.4416958088563
 20
124.9409982534294
 30
0.0
 10
174.6223759238926
 20
124.8680238845905
 30
0.0
 10
174.7892362663584
 20
124.7726589697627
 30
0.0
  0
SPLINE
  5
140
330
1F
100
AcDbEntity
  8
0
  6
HIDDEN
 62
     7
370
     0
100
AcDbSpline
210
0.0
220
0.0
230
1.0
 70
     8
 71
     3
 72
    16
 73
    12
 74
     0
 42
0.000000001
 43
0.00000001
 40
0.0
 40
0.0
 40
0.0
 40
0.0
 40
0.1249999999999996
 40
0.1249999999999996
 40
0.2499999999999992
 40
0.2499999999999992
 40
0.4999999999999994
 40
0.4999999999999994
 40
0.7499999999999997
 40
0.7499999999999997
 40
1.0
 40
1.0
 40
1.0
 40
1.0
 10
171.7692362663584
 20
124.2062485446778
 30
0.0
 10
171.7692362663584
 20
124.183593266925
 30
0.0
 10
171.7778474418411
 20
124.1791438562264
 30
0.0
 10
171.8059657825094
 20
124.1931097331792
 30
0.0
 10
171.8249635867861
 20
124.2101050922688
 30
0.0
 10
171.8919512315825
 20
124.2729332443851
 30
0.0
 10
171.9497296685309
 20
124.3300744539111
 30
0.0
 10
172.0871762236293
 20
124.449532083166
 30
0.0
 10
172.1686229693919
 20
124.5140371878767
 30
0.0
 10
172.3513844616567
 20
124.6421038894829
 30
0.0
 10
172.4554523420526
 20
124.7076285731458
 30
0.0
 10
172.5692362663583
 20
124.7726589697627
 30
0.0
  0
SPLINE
  5
141
330
1F
100
AcDbEntity
  8
0
  6
HIDDEN
 62
     7
370
     0
100
AcDbSpline
210
0.0
220
0.0
230
1.0
 70
     8
 71
     3
 72
    16
 73
    12
 74
     0
 42
0.000000001
 43
0.00000001
 40
0.0
 40
0.0
 40
0.0
 40
0.0
 40
0.2500000000000023
 40
0.2500000000000023
 40
0.3750000000000022
 40
0.3750000000000022
 40
0.500000000000002
 40
0.500000000000002
 40
0.750000000000001
 40
0.750000000000001
 40
1.0
 40
1.0
 40
1.0
 40
1.0
 10
171.7692362663583
 20
122.6199298919216
 30
0.0
 10
171.7147220744406
 20
122.7655622333309
 30
0.0
 10
171.6671104265847
 20
122.9206507703904
 30
0.0
 10
171.6161740432861
 20
123.159187123813
 30
0.0
 10
171.6027257888993
 20
123.2390017478485
 30
0.0
 10
171.5841892122142
 20
123.3993460474401
 30
0.0
 10
171.5792711314095
 20
123.4801350343173
 30
0.0
 10
171.5791671119637
 20
123.708840502329
 30
0.0
 10
171.5989149265122
 20
123.8499144284802
 30
0.0
 10
171.6670715133107
 20
124.08549084679
 30
0.0
 10
171.7146562423053
 20
124.1817375106008
 30
0.0
 10
171.7692362663583
 20
124.2603866948964
 30
0.0
  0
LINE
  5
142
330
1F
100
AcDbEntity
  8
0
  6
HIDDEN
 62
     7
370
     0
100
AcDbLine
 10
171.7692362664
 20
135.737605922
 30
0.0
 11
171.7692362664
 21
131.8903651025
 31
0.0
  0
LINE
  5
143
330
1F
100
AcDbEntity
  8
0
  6
HIDDEN
 62
     7
370
     0
100
AcDbLine
 10
175.5892362664
 20
135.737605922
 30
0.0
 11
175.5892362664
 21
131.8903651025
 31
0.0
  0
SPLINE
  5
144
330
1F
100
AcDbEntity
  8
0
  6
HIDDEN
 62
     7
370
     0
100
AcDbSpline
210
0.0
220
0.0
230
1.0
 70
     8
 71
     3
 72
    14
 73
    10
 74
     0
 42
0.000000001
 43
0.00000001
 40
0.0
 40
0.0
 40
0.0
 40
0.0
 40
0.25
 40
0.25
 40
0.5
 40
0.5
 40
0.75
 40
0.75
 40
1.0
 40
1.0
 40
1.0
 40
1.0
 10
181.6292362663584
 20
83.51144873999651
 30
0.0
 10
181.6292362663584
 20
83.46362513544932
 30
0.0
 10
181.6180589975122
 20
83.41675405452129
 30
0.0
 10
181.5717821113675
 20
83.3250505482832
 30
0.0
 10
181.5362228155029
 20
83.28012135462134
 30
0.0
 10
181.4378916994038
 20
83.19923591052319
 30
0.0
 10
181.3745530252787
 20
83.16267719522804
 30
0.0
 10
181.217114939566
 20
83.10849780238797
 30
0.0
 10
181.1248147268854
 20
83.09227275386193
 30
0.0
 10
181.0292362663584
 20
83.09227275386193
 30
0.0
  0
LINE
  5
145
330
1F
100
AcDbEntity
  8
0
  6
HIDDEN
 62
     7
370
     0
100
AcDbLine
 10
170.1573996243
 20
139.4505947425
 30
0.0
 11
170.1573996243
 21
131.8903651025
 31
0.0
  0
LINE
  5
146
330
1F
100
AcDbEntity
  8
0
  6
HIDDEN
 62
     7
370
     0
100
AcDbLine
 10
177.2010729084
 20
139.4505947425
 30
0.0
 11
177.2010729084
 21
131.8903651025
 31
0.0
  0
LWPOLYLINE
  5
147
330
1F
100
AcDbEntity
  8
0
  6
HIDDEN
 62
     7
370
     0
100
AcDbPolyline
 90
       22
 70
   128
 43
0.0
 10
166.1010152213
 20
121.5946385733
 10
166.2210114397
 20
121.2349683422
 10
166.4109318761
 20
120.9859821202
 10
166.6539012664
 20
120.8698034258
 10
166.9283307139
 20
120.8967552458
 10
167.2098359578
 20
121.0644427927
 10
167.473404022
 20
121.3579662921
 10
167.6956157273
 20
121.751244893
 10
167.8567265884
 20
122.2093340658
 10
167.9424211984
 20
122.6915305772
 10
167.9450852151
 20
123.154989151
 10
167.8644819289
 20
123.5585294592
 10
167.7077732956
 20
123.8662951745
 10
167.4888835648
 20
124.0509399624
 10
167.2272620498
 20
124.0960573233
 10
166.9461549702
 20
123.9976383815
 10
166.6705399238
 20
123.7644280921
 10
166.4249065169
 20
123.4171482127
 10
166.2310803556
 20
122.9866560845
 10
166.106283745
 20
122.5112028223
 10
166.0616054115
 20
122.033034535
 10
166.1010152213
 20
121.5946385733
  0
LWPOLYLINE
  5
148
330
1F
100
AcDbEntity
  8
0
  6
HIDDEN
 62
     7
370
     0
100
AcDbPolyline
 90
       24
 70
   128
 43
0.0
 10
165.88114877
 20
121.3798486686
 10
166.0135741635
 20
120.9668800653
 10
166.2197489267
 20
120.6661806253
 10
166.4843820208
 20
120.5000518505
 10
166.7878468197
 20
120.480814752
 10
167.1076367276
 20
120.6098960576
 10
167.4200343899
 20
120.8777223973
 10
167.7018707012
 20
121.2644303166
 10
167.9322431516
 20
121.7413394584
 10
168.0940660703
 20
122.2730796532
 10
168.1753377916
 20
122.8202141633
 10
168.170030764
 20
123.3421645251
 10
168.0785385852
 20
123.8002200681
 10
167.9076468117
 20
124.1604089081
 10
167.6700297045
 20
124.3960174865
 10
167.3833102374
 20
124.489571793
 10
167.0687530817
 20
124.4341333326
 10
166.7496875025
 20
124.2338137223
 10
166.4497771343
 20
123.9034697513
 10
166.1912649571
 20
123.4676015205
 10
165.9933236365
 20
122.9585353827
 10
165.8706335746
 20
122.4140264447
 10
165.8322941321
 20
121.8744584432
 10
165.88114877
 20
121.3798486686
  0
LINE
  5
149
330
1F
100
AcDbEntity
  8
0
  6
HIDDEN
 62
     7
370
     0
100
AcDbLine
 10
167.6582088974
 20
102.6992536191
 30
0.0
 11
169.3168553123
 21
103.0964746927
 31
0.0
  0
LINE
  5
14A
330
1F
100
AcDbEntity
  8
0
  6
HIDDEN
 62
     7
370
     0
100
AcDbLine
 10
168.3852575526
 20
106.986477985
 30
0.0
 11
166.7266111377
 21
106.5892569114
 31
0.0
  0
LINE
  5
14B
330
1F
100
AcDbEntity
  8
0
  6
HIDDEN
 62
     7
370
     0
100
AcDbLine
 10
169.8798190597
 20
103.707450182
 30
0.0
 11
170.1083971077
 21
104.354841012
 31
0.0
  0
LINE
  5
14C
330
1F
100
AcDbEntity
  8
0
  6
HIDDEN
 62
     7
370
     0
100
AcDbLine
 10
169.6609565916
 20
106.2231850076
 30
0.0
 11
169.163914234
 21
106.6968005749
 31
0.0
  0
LINE
  5
14D
330
1F
100
AcDbEntity
  8
0
  6
HIDDEN
 62
     7
370
     0
100
AcDbLine
 10
169.163914234
 20
120.3839296301
 30
0.0
 11
169.6609565916
 21
120.8575451974
 31
0.0
  0
LINE
  5
14E
330
1F
100
AcDbEntity
  8
0
  6
HIDDEN
 62
     7
370
     0
100
AcDbLine
 10
170.1083971077
 20
122.725889193
 30
0.0
 11
169.8798190597
 21
123.373280023
 31
0.0
  0
LINE
  5
14F
330
1F
100
AcDbEntity
  8
0
  6
HIDDEN
 62
     7
370
     0
100
AcDbLine
 10
166.7266111377
 20
120.4914732936
 30
0.0
 11
168.3852575526
 21
120.09425222
 31
0.0
  0
LINE
  5
150
330
1F
100
AcDbEntity
  8
0
  6
HIDDEN
 62
     7
370
     0
100
AcDbLine
 10
169.3168553123
 20
123.9842555123
 30
0.0
 11
167.6582088974
 21
124.3814765859
 31
0.0
  0
LINE
  5
151
330
1F
100
AcDbEntity
  8
0
  6
HIDDEN
 62
     7
370
     0
100
AcDbLine
 10
171.1792362664
 20
123.0290570029
 30
0.0
 11
171.1792362664
 21
121.6633435065
 31
0.0
  0
LINE
  5
152
330
1F
100
AcDbEntity
  8
0
  6
HIDDEN
 62
     7
370
     0
100
AcDbLine
 10
176.1792362664
 20
121.6633435065
 30
0.0
 11
176.1792362664
 21
123.0290570029
 31
0.0
  0
LINE
  5
153
330
1F
100
AcDbEntity
  8
0
  6
HIDDEN
 62
     7
370
     0
100
AcDbLine
 10
165.7792362664
 20
102.1978538651
 30
0.0
 11
167.4854081846
 21
102.6064565879
 31
0.0
  0
LINE
  5
154
330
1F
100
AcDbEntity
  8
0
  6
HIDDEN
 62
     7
370
     0
100
AcDbLine
 10
166.530520481
 20
106.5937099625
 30
0.0
 11
165.7792362664
 21
106.4137886003
 31
0.0
  0
LINE
  5
155
330
1F
100
AcDbEntity
  8
0
  6
HIDDEN
 62
     7
370
     0
100
AcDbLine
 10
167.3922484087
 20
102.9954569171
 30
0.0
 11
172.2169537123
 21
104.1509018651
 31
0.0
  0
LINE
  5
156
330
1F
100
AcDbEntity
  8
0
  6
HIDDEN
 62
     7
370
     0
100
AcDbLine
 10
172.2150393133
 20
107.5437567186
 30
0.0
 11
166.6236802569
 21
106.2047096332
 31
0.0
  0
LINE
  5
157
330
1F
100
AcDbEntity
  8
0
  6
HIDDEN
 62
     7
370
     0
100
AcDbLine
 10
175.7792362664
 20
105.2463766269
 30
0.0
 11
175.7792362664
 21
112.8221228015
 31
0.0
  0
LINE
  5
158
330
1F
100
AcDbEntity
  8
0
  6
HIDDEN
 62
     7
370
     0
100
AcDbLine
 10
171.5792362664
 20
112.8221228015
 30
0.0
 11
171.5792362664
 21
106.3836136043
 31
0.0
  0
ARC
  5
159
330
1F
100
AcDbEntity
  8
0
  6
HIDDEN
 62
     7
370
     0
100
AcDbCircle
 10
95.1292362664
 20
104.2403651025
 30
0.0
 40
0.7999999999999972
100
AcDbArc
 50
90.0
 51
180.0
  0
ARC
  5
15A
330
1F
100
AcDbEntity
  8
0
  6
HIDDEN
 62
     7
370
     0
100
AcDbCircle
 10
95.1292362664
 20
122.8403651025
 30
0.0
 40
0.7999999999999972
100
AcDbArc
 50
180.0
 51
270.0
  0
LINE
  5
15B
330
1F
100
AcDbEntity
  8
0
  6
HIDDEN
 62
     7
370
     0
100
AcDbLine
 10
102.2216086971
 20
104.8153651025
 30
0.0
 11
103.0982961587
 21
104.8153651025
 31
0.0
  0
LINE
  5
15C
330
1F
100
AcDbEntity
  8
0
  6
HIDDEN
 62
     7
370
     0
100
AcDbLine
 10
103.0982961587
 20
122.2653651025
 30
0.0
 11
102.2216086971
 21
122.2653651025
 31
0.0
  0
ARC
  5
15D
330
1F
100
AcDbEntity
  8
0
  6
HIDDEN
 62
     7
370
     0
100
AcDbCircle
 10
103.0982961587
 20
105.2153651025
 30
0.0
 40
0.4000000000000173
100
AcDbArc
 50
270.0
 51
330.0
  0
ARC
  5
15E
330
1F
100
AcDbEntity
  8
0
  6
HIDDEN
 62
     7
370
     0
100
AcDbCircle
 10
103.0982961587
 20
121.8653651025
 30
0.0
 40
0.4000000000000173
100
AcDbArc
 50
30.0
 51
90.0
  0
ARC
  5
15F
330
1F
100
AcDbEntity
  8
0
  6
HIDDEN
 62
     7
370
     0
100
AcDbCircle
 10
102.2216086971
 20
105.2153651025
 30
0.0
 40
0.3999999999999915
100
AcDbArc
 50
255.0
 51
270.0
  0
ARC
  5
160
330
1F
100
AcDbEntity
  8
0
  6
HIDDEN
 62
     7
370
     0
100
AcDbCircle
 10
102.2216086971
 20
121.8653651025
 30
0.0
 40
0.3999999999999915
100
AcDbArc
 50
90.0
 51
105.0
  0
LINE
  5
161
330
1F
100
AcDbEntity
  8
0
  6
HIDDEN
 62
     7
370
     0
100
AcDbLine
 10
102.1180810791
 20
122.251735433
 30
0.0
 11
101.3292362664
 21
122.0403651025
 31
0.0
  0
LINE
  5
162
330
1F
100
AcDbEntity
  8
0
  6
HIDDEN
 62
     7
370
     0
100
AcDbLine
 10
101.3292362664
 20
105.0403651025
 30
0.0
 11
102.1180810791
 21
104.828994772
 31
0.0
  0
LINE
  5
163
330
1F
100
AcDbEntity
  8
0
  6
HIDDEN
 62
     7
370
     0
100
AcDbLine
 10
103.4447063202
 20
105.0153651025
 30
0.0
 11
104.3251654807
 21
106.5403651025
 31
0.0
  0
LINE
  5
164
330
1F
100
AcDbEntity
  8
0
  6
HIDDEN
 62
     7
370
     0
100
AcDbLine
 10
104.3251654807
 20
120.5403651025
 30
0.0
 11
103.4447063202
 21
122.0653651025
 31
0.0
  0
LINE
  5
165
330
1F
100
AcDbEntity
  8
0
  6
HIDDEN
 62
     7
370
     0
100
AcDbLine
 10
95.1292362664
 20
105.0403651025
 30
0.0
 11
101.3292362664
 21
105.0403651025
 31
0.0
  0
LINE
  5
166
330
1F
100
AcDbEntity
  8
0
  6
HIDDEN
 62
     7
370
     0
100
AcDbLine
 10
101.3292362664
 20
122.0403651025
 30
0.0
 11
95.1292362664
 21
122.0403651025
 31
0.0
  0
LINE
  5
167
330
1F
100
AcDbEntity
  8
0
  6
HIDDEN
 62
     7
370
     0
100
AcDbLine
 10
137.3292362664
 20
106.5403651025
 30
0.0
 11
140.2734532996
 21
111.4403651025
 31
0.0
  0
LINE
  5
168
330
1F
100
AcDbEntity
  8
0
  6
HIDDEN
 62
     7
370
     0
100
AcDbLine
 10
140.2734532996
 20
115.6403651025
 30
0.0
 11
137.3292362664
 21
120.5403651025
 31
0.0
  0
LINE
  5
169
330
1F
100
AcDbEntity
  8
0
  6
HIDDEN
 62
     7
370
     0
100
AcDbLine
 10
104.3251654807
 20
106.5403651025
 30
0.0
 11
137.3292362664
 21
106.5403651025
 31
0.0
  0
LINE
  5
16A
330
1F
100
AcDbEntity
  8
0
  6
HIDDEN
 62
     7
370
     0
100
AcDbLine
 10
137.3292362664
 20
120.5403651025
 30
0.0
 11
104.3251654807
 21
120.5403651025
 31
0.0
  0
ARC
  5
16B
330
1F
100
AcDbEntity
  8
0
  6
HIDDEN
 62
     7
370
     0
100
AcDbCircle
 10
207.5792362664
 20
107.0403651025
 30
0.0
 40
1.0
100
AcDbArc
 50
0.0
 51
90.0
  0
ARC
  5
16C
330
1F
100
AcDbEntity
  8
0
  6
HIDDEN
 62
     7
370
     0
100
AcDbCircle
 10
207.5792362664
 20
120.0403651025
 30
0.0
 40
1.0
100
AcDbArc
 50
270.0
 51
0.0
  0
ARC
  5
16D
330
1F
100
AcDbEntity
  8
0
  6
HIDDEN
 62
     7
370
     0
100
AcDbCircle
 10
195.8792362664
 20
108.3403651025
 30
0.0
 40
0.7999999999999972
100
AcDbArc
 50
180.0
 51
270.0
  0
ARC
  5
16E
330
1F
100
AcDbEntity
  8
0
  6
HIDDEN
 62
     7
370
     0
100
AcDbCircle
 10
195.8792362664
 20
118.7403651025
 30
0.0
 40
0.8000000000000114
100
AcDbArc
 50
90.0
 51
180.0
  0
ARC
  5
16F
330
1F
100
AcDbEntity
  8
0
  6
HIDDEN
 62
     7
370
     0
100
AcDbCircle
 10
196.4739142683
 20
108.3403651025
 30
0.0
 40
0.7999999999999982
100
AcDbArc
 50
270.0
 51
285.0
  0
ARC
  5
170
330
1F
100
AcDbEntity
  8
0
  6
HIDDEN
 62
     7
370
     0
100
AcDbCircle
 10
196.4739142683
 20
118.7403651025
 30
0.0
 40
0.8000000000000119
100
AcDbArc
 50
75.0
 51
90.0
  0
LINE
  5
171
330
1F
100
AcDbEntity
  8
0
  6
HIDDEN
 62
     7
370
     0
100
AcDbLine
 10
195.8792362664
 20
107.5403651025
 30
0.0
 11
196.4739142683
 21
107.5403651025
 31
0.0
  0
LINE
  5
172
330
1F
100
AcDbEntity
  8
0
  6
HIDDEN
 62
     7
370
     0
100
AcDbLine
 10
196.4739142683
 20
119.5403651025
 30
0.0
 11
195.8792362664
 21
119.5403651025
 31
0.0
  0
LINE
  5
173
330
1F
100
AcDbEntity
  8
0
  6
HIDDEN
 62
     7
370
     0
100
AcDbLine
 10
196.6809695044
 20
107.5676244415
 30
0.0
 11
198.4452616701
 21
108.0403651025
 31
0.0
  0
LINE
  5
174
330
1F
100
AcDbEntity
  8
0
  6
HIDDEN
 62
     7
370
     0
100
AcDbLine
 10
198.4452616701
 20
119.0403651025
 30
0.0
 11
196.6809695044
 21
119.5131057635
 31
0.0
  0
LINE
  5
175
330
1F
100
AcDbEntity
  8
0
  6
HIDDEN
 62
     7
370
     0
100
AcDbLine
 10
198.4452616701
 20
108.0403651025
 30
0.0
 11
207.5792362664
 21
108.0403651025
 31
0.0
  0
LINE
  5
176
330
1F
100
AcDbEntity
  8
0
  6
HIDDEN
 62
     7
370
     0
100
AcDbLine
 10
207.5792362664
 20
119.0403651025
 30
0.0
 11
198.4452616701
 21
119.0403651025
 31
0.0
  0
LINE
  5
177
330
1F
100
AcDbEntity
  8
0
  6
HIDDEN
 62
     7
370
     0
100
AcDbLine
 10
174.3974785673
 20
111.4403651025
 30
0.0
 11
195.0792362664
 21
111.4403651025
 31
0.0
  0
LINE
  5
178
330
1F
100
AcDbEntity
  8
0
  6
HIDDEN
 62
     7
370
     0
100
AcDbLine
 10
195.0792362664
 20
115.6403651025
 30
0.0
 11
174.3974785673
 21
115.6403651025
 31
0.0
  0
LINE
  5
179
330
1F
100
AcDbEntity
  8
0
  6
HIDDEN
 62
     7
370
     0
100
AcDbLine
 10
172.9609939654
 20
115.6403651025
 30
0.0
 11
140.2734532996
 21
115.6403651025
 31
0.0
  0
LINE
  5
17A
330
1F
100
AcDbEntity
  8
0
  6
HIDDEN
 62
     7
370
     0
100
AcDbLine
 10
140.2734532996
 20
111.4403651025
 30
0.0
 11
172.9609939654
 21
111.4403651025
 31
0.0
  0
LINE
  5
17B
330
1F
100
AcDbEntity
  8
0
  6
HIDDEN
 62
     7
370
     0
100
AcDbLine
 10
175.7792362664
 20
114.2586074035
 30
0.0
 11
175.7792362664
 21
123.5560120588
 31
0.0
  0
LINE
  5
17C
330
1F
100
AcDbEntity
  8
0
  6
HIDDEN
 62
     7
370
     0
100
AcDbLine
 10
171.5792362664
 20
120.6970975737
 30
0.0
 11
171.5792362664
 21
114.2586074035
 31
0.0
  0
LINE
  5
17D
330
1F
100
AcDbEntity
  8
0
  6
HIDDEN
 62
     7
370
     0
100
AcDbLine
 10
171.5792362664
 20
123.5560120588
 30
0.0
 11
171.5792362664
 21
122.074424949
 31
0.0
  0
LINE
  5
17E
330
1F
100
AcDbEntity
  8
0
  6
HIDDEN
 62
     7
370
     0
100
AcDbLine
 10
166.6236802569
 20
120.8760205718
 30
0.0
 11
172.2167072689
 21
119.5365740359
 31
0.0
  0
LINE
  5
17F
330
1F
100
AcDbEntity
  8
0
  6
HIDDEN
 62
     7
370
     0
100
AcDbLine
 10
172.2171533657
 20
122.9297805258
 30
0.0
 11
167.3922484087
 21
124.0852732879
 31
0.0
  0
LINE
  5
180
330
1F
100
AcDbEntity
  8
0
  6
HIDDEN
 62
     7
370
     0
100
AcDbLine
 10
165.7792362664
 20
120.6669416047
 30
0.0
 11
166.530520481
 21
120.4870202425
 31
0.0
  0
LINE
  5
181
330
1F
100
AcDbEntity
  8
0
  6
HIDDEN
 62
     7
370
     0
100
AcDbLine
 10
167.4854081846
 20
124.4742736171
 30
0.0
 11
165.7792362664
 21
124.8828763399
 31
0.0
  0
DIMENSION
  5
182
330
1F
100
AcDbEntity
  8
VERMASSUNG
100
AcDbDimension
  2
_D
 10
84.3292362664
 20
145.2903651025
 30
0.0
 11
84.3292362664
 21
113.5403651025
 31
0.0
 70
   160
  1
ISO 40 %%c<>
 71
     2
 42
-1.0
  3
SLDDIMSTYLE0
100
AcDbAlignedDimension
 13
181.0292362664
 23
81.7903651025
 33
0.0
 14
181.0292362664
 24
145.2903651025
 34
0.0
 50
90.0
100
AcDbRotatedDimension
  0
DIMENSION
  5
18F
330
1F
100
AcDbEntity
  8
VERMASSUNG
100
AcDbDimension
  2
_D_1
 10
208.5792362664
 20
155.8921007217
 30
0.0
 11
185.5792362664
 21
155.8921007217
 31
0.0
 70
   160
  1
<>
 71
     2
 42
-1.0
  3
SLDDIMSTYLE0
100
AcDbAlignedDimension
 13
162.5792362664
 23
135.7653651025
 33
0.0
 14
208.5792362664
 24
123.3403651025
 34
0.0
100
AcDbRotatedDimension
  0
DIMENSION
  5
199
330
1F
100
AcDbEntity
  8
VERMASSUNG
100
AcDbDimension
  2
_D_2
 10
208.5792362664
 20
149.8921007217
 30
0.0
 11
195.1042362664
 21
149.8921007217
 31
0.0
 70
   160
  1
<>
 71
     2
 42
-1.0
  3
SLDDIMSTYLE0
100
AcDbAlignedDimension
 13
181.6292362664
 23
143.5509162359
 33
0.0
 14
208.5792362664
 24
123.3403651025
 34
0.0
100
AcDbRotatedDimension
  0
DIMENSION
  5
1A3
330
1F
100
AcDbEntity
  8
VERMASSUNG
100
AcDbDimension
  2
_D_3
 10
208.5792362664
 20
161.8921007217
 30
0.0
 11
151.4542362664
 21
161.8921007217
 31
0.0
 70
   160
  1
<>
 71
     2
 42
-1.0
  3
SLDDIMSTYLE0
100
AcDbAlignedDimension
 13
94.3292362664
 23
124.9474956995
 33
0.0
 14
208.5792362664
 24
123.3403651025
 34
0.0
100
AcDbRotatedDimension
  0
DIMENSION
  5
1AD
330
1F
100
AcDbEntity
  8
VERMASSUNG
100
AcDbDimension
  2
_D_4
 10
222.1883826078
 20
103.5403651025
 30
0.0
 11
222.1883826078
 21
113.5403651025
 31
0.0
 70
   160
  1
WH %%c<>
 71
     2
 42
-1.0
  3
SLDDIMSTYLE1
100
AcDbAlignedDimension
 13
208.3792362664
 23
123.5403651025
 33
0.0
 14
208.3792362664
 24
103.5403651025
 34
0.0
 50
90.0
100
AcDbRotatedDimension
  0
DIMENSION
  5
1BC
330
1F
100
AcDbEntity
  8
VERMASSUNG
100
AcDbDimension
  2
_D_5
 10
215.8883826078
 20
119.0403651025
 30
0.0
 11
215.8883826078
 21
113.5403651025
 31
0.0
 70
   160
  1
%%c<>
 71
     2
 42
-1.0
  3
SLDDIMSTYLE1
100
AcDbAlignedDimension
 13
207.5792362664
 23
108.0403651025
 33
0.0
 14
207.5792362664
 24
119.0403651025
 34
0.0
 50
90.0
100
AcDbRotatedDimension
  0
LINE
  5
1C9
330
1F
100
AcDbEntity
  8
VERMASSUNG
  6
CENTERX2
370
     0
100
AcDbLine
 10
92.3292362664
 20
113.5403651025
 30
0.0
 11
211.1463801104
 21
113.5403651025
 31
0.0
  0
LINE
  5
1CA
330
1F
100
AcDbEntity
  8
0
  6
Continuous
 62
     7
370
    15
100
AcDbLine
 10
264.0579477848
 20
45.7684867926
 30
0.0
 11
263.9518645331
 21
45.8297472569
 31
0.0
  0
LINE
  5
1CB
330
1F
100
AcDbEntity
  8
0
  6
Continuous
 62
     7
370
    15
100
AcDbLine
 10
262.3959768417
 20
45.8297472569
 30
0.0
 11
262.28989359
 21
45.7684867926
 31
0.0
  0
LINE
  5
1CC
330
1F
100
AcDbEntity
  8
0
  6
Continuous
 62
     7
370
    15
100
AcDbLine
 10
261.9239206874
 20
45.2583146468
 30
0.0
 11
261.9239206874
 21
45.1766605656
 31
0.0
  0
LINE
  5
1CD
330
1F
100
AcDbEntity
  8
0
  6
Continuous
 62
     7
370
    15
100
AcDbLine
 10
264.4239206874
 20
45.1766605656
 30
0.0
 11
264.4239206874
 21
45.2583146468
 31
0.0
  0
SPLINE
  5
1CE
330
1F
100
AcDbEntity
  8
0
  6
Continuous
 62
     7
370
    15
100
AcDbSpline
210
0.0
220
0.0
230
1.0
 70
     8
 71
     3
 72
    32
 73
    28
 74
     0
 42
0.000000001
 43
0.00000001
 40
0.0
 40
0.0
 40
0.0
 40
0.0
 40
0.0092352682439236
 40
0.0506640818456872
 40
0.0922010330988231
 40
0.1339019747851768
 40
0.1757527206206528
 40
0.2177206575293966
 40
0.2597682543354048
 40
0.3018621230602249
 40
0.3439768613144205
 40
0.3860929834928952
 40
0.4282001903110031
 40
0.4702943574932665
 40
0.5123742498815564
 40
0.5544404422795196
 40
0.5964945930988504
 40
0.6385389818944548
 40
0.6805762292239088
 40
0.722609135994368
 40
0.7646405975001794
 40
0.8066734011849209
 40
0.84870969916554
 40
0.8907524874638919
 40
0.9328047537781796
 40
0.9748694214519285
 40
1.0
 40
1.0
 40
1.0
 40
1.0
 10
256.8311563809219
 20
63.01677070428187
 30
0.0
 10
256.7763159032201
 20
63.03078196719897
 30
0.0
 10
256.4754646039016
 20
63.1076468456675
 30
0.0
 10
255.9012170103377
 20
63.183598984569
 30
0.0
 10
255.0982286652397
 20
63.20712522633139
 30
0.0
 10
254.2638420902741
 20
63.13479372189937
 30
0.0
 10
253.4049003046004
 20
62.97125522442133
 30
0.0
 10
252.5264399725599
 20
62.7161430005618
 30
0.0
 10
251.6344253385992
 20
62.37138119970092
 30
0.0
 10
250.7347303044335
 20
61.93919665503911
 30
0.0
 10
249.8332655334501
 20
61.42257215117159
 30
0.0
 10
248.9358386100715
 20
60.82501995384303
 30
0.0
 10
248.0481358001271
 20
60.15054798403787
 30
0.0
 10
247.1756950915412
 20
59.40358672958602
 30
0.0
 10
246.3239192825359
 20
58.58896961532498
 30
0.0
 10
245.4980727291188
 20
57.71191576658326
 30
0.0
 10
244.7032603539311
 20
56.77800453384987
 30
0.0
 10
243.9444022134258
 20
55.79314697090629
 30
0.0
 10
243.2262076301406
 20
54.76355435393619
 30
0.0
 10
242.5531424975617
 20
53.69570182365453
 30
0.0
 10
241.9294210772056
 20
52.59629576934684
 30
0.0
 10
241.3589147288149
 20
51.47222326197373
 30
0.0
 10
240.8453769456144
 20
50.33056161525778
 30
0.0
 10
240.3914726064561
 20
49.17831082146196
 30
0.0
 10
240.0023008059852
 20
48.02316803619192
 30
0.0
 10
239.7165003715995
 20
47.02523233908633
 30
0.0
 10
239.5798223064924
 20
46.4187028311979
 30
0.0
 10
239.5287056123198
 20
46.19186479879607
 30
0.0
  0
LINE
  5
1CF
330
1F
100
AcDbEntity
  8
0
  6
Continuous
 62
     7
370
    15
100
AcDbLine
 10
265.2427826461
 20
36.0217225633
 30
0.0
 11
265.3134818317
 21
36.0625496034
 31
0.0
  0
LINE
  5
1D0
330
1F
100
AcDbEntity
  8
0
  6
Continuous
 62
     7
370
    15
100
AcDbLine
 10
268.7777419283
 20
42.063474314
 30
0.0
 11
268.7777419283
 21
42.1451151252
 31
0.0
  0
LINE
  5
1D1
330
1F
100
AcDbEntity
  8
0
  6
Continuous
 62
     7
370
    15
100
AcDbLine
 10
254.3455181642
 20
40.6212736977
 30
0.0
 11
262.7424111908
 21
35.7738505337
 31
0.0
  0
LINE
  5
1D2
330
1F
100
AcDbEntity
  8
0
  6
Continuous
 62
     7
370
    15
100
AcDbLine
 10
267.742004854
 20
44.4343391575
 30
0.0
 11
259.3451118274
 21
49.2817623215
 31
0.0
  0
SPLINE
  5
1D3
330
1F
100
AcDbEntity
  8
0
  6
Continuous
 62
     7
370
    15
100
AcDbSpline
210
0.0
220
0.0
230
1.0
 70
     8
 71
     3
 72
    12
 73
     8
 74
     0
 42
0.000000001
 43
0.00000001
 40
0.0
 40
0.0
 40
0.0
 40
0.0
 40
0.2579908028612012
 40
0.4934403673642969
 40
0.7202900437524925
 40
0.9457559971546264
 40
1.0
 40
1.0
 40
1.0
 40
1.0
 10
263.5591802648981
 20
37.9070373123871
 30
0.0
 10
263.5054211747097
 20
37.94701306864485
 30
0.0
 10
263.4026000472991
 20
38.02347180916863
 30
0.0
 10
263.2800998683784
 20
38.23483268708972
 30
0.0
 10
263.1936570684629
 20
38.50844460225593
 30
0.0
 10
263.1632783143305
 20
38.75909287230743
 30
0.0
 10
263.1615947615486
 20
38.91121275788631
 30
0.0
 10
263.1612682710543
 20
38.94071328627965
 30
0.0
  0
SPLINE
  5
1D4
330
1F
100
AcDbEntity
  8
0
  6
Continuous
 62
     7
370
    15
100
AcDbSpline
210
0.0
220
0.0
230
1.0
 70
     8
 71
     3
 72
    21
 73
    17
 74
     0
 42
0.000000001
 43
0.00000001
 40
0.0
 40
0.0
 40
0.0
 40
0.0
 40
0.038976660520016
 40
0.1141266063889696
 40
0.1898391855502266
 40
0.2660669893932243
 40
0.3426378998450732
 40
0.4193231930865646
 40
0.4958318184679694
 40
0.5718869843216309
 40
0.6472655761468677
 40
0.7218420027942212
 40
0.7958002691966783
 40
0.8698675420135926
 40
0.9459876092140911
 40
0.9999999999999999
 40
0.9999999999999999
 40
0.9999999999999999
 40
0.9999999999999999
 10
263.1612682710543
 20
38.94071328627965
 30
0.0
 10
263.162918535706
 20
39.01048190620759
 30
0.0
 10
263.1677506352709
 20
39.21476969583824
 30
0.0
 10
263.2234877108287
 20
39.58887704254339
 30
0.0
 10
263.3507496722135
 20
40.05767688247177
 30
0.0
 10
263.5403499278498
 20
40.53618156071345
 30
0.0
 10
263.7853814160908
 20
41.00466287006213
 30
0.0
 10
264.0771293087705
 20
41.44488490791682
 30
0.0
 10
264.4037165392123
 20
41.8395029880519
 30
0.0
 10
264.7509992667704
 20
42.17352255402794
 30
0.0
 10
265.1030538318441
 20
42.435319727954
 30
0.0
 10
265.4426887652479
 20
42.61745865700975
 30
0.0
 10
265.7530190239754
 20
42.719099550429
 30
0.0
 10
266.0174209392557
 20
42.74303493417219
 30
0.0
 10
266.209256744573
 20
42.71594010709226
 30
0.0
 10
266.2997265724294
 20
42.66064031463681
 30
0.0
 10
266.3372767099749
 20
42.63768774733192
 30
0.0
  0
LINE
  5
1D5
330
1F
100
AcDbEntity
  8
0
  6
Continuous
 62
     7
370
    15
100
AcDbLine
 10
249.2965737897
 20
61.051297711
 30
0.0
 11
227.9847307796
 21
68.7312411595
 31
0.0
  0
LINE
  5
1D6
330
1F
100
AcDbEntity
  8
0
  6
Continuous
 62
     7
370
    15
100
AcDbLine
 10
221.8199490304
 20
58.0523688744
 30
0.0
 11
242.1161861956
 21
40.9143939987
 31
0.0
  0
SPLINE
  5
1D7
330
1F
100
AcDbEntity
  8
0
  6
Continuous
 62
     7
370
    15
100
AcDbSpline
210
0.0
220
0.0
230
1.0
 70
     8
 71
     3
 72
    20
 73
    16
 74
     0
 42
0.000000001
 43
0.00000001
 40
0.0
 40
0.0
 40
0.0
 40
0.0
 40
0.0163013882961419
 40
0.0983183806874601
 40
0.1806528813085069
 40
0.2632578864042643
 40
0.3460620730857053
 40
0.428993416103525
 40
0.5119924296205465
 40
0.5950157455117133
 40
0.678029780625853
 40
0.7610218887124991
 40
0.8439866933909377
 40
0.9269235057410251
 40
1.0
 40
1.0
 40
1.0
 40
1.0
 10
250.2519205744316
 20
31.18671991482224
 30
0.0
 10
250.3038755977788
 20
31.18139269890498
 30
0.0
 10
250.6172313482997
 20
31.14926272119739
 30
0.0
 10
251.2234783039908
 20
31.18056653939223
 30
0.0
 10
252.0666720680401
 20
31.28530061371565
 30
0.0
 10
252.9353235625022
 20
31.49006861679366
 30
0.0
 10
253.8201445142779
 20
31.78336814751891
 30
0.0
 10
254.7162236397967
 20
32.16606498156706
 30
0.0
 10
255.6173833595134
 20
32.6348220961975
 30
0.0
 10
256.5178398194836
 20
33.18659495367719
 30
0.0
 10
257.4117417768745
 20
33.81772405374789
 30
0.0
 10
258.293742924474
 20
34.52354364662476
 30
0.0
 10
259.1573353667042
 20
35.301245664886
 30
0.0
 10
259.9676766974079
 20
36.106006284277
 30
0.0
 10
260.4735615898218
 20
36.678624063005
 30
0.0
 10
260.710517624148
 20
36.9468377220146
 30
0.0
  0
SPLINE
  5
1D8
330
1F
100
AcDbEntity
  8
0
  6
Continuous
 62
     7
370
    15
100
AcDbSpline
210
0.0
220
0.0
230
1.0
 70
     8
 71
     3
 72
    11
 73
     7
 74
     0
 42
0.000000001
 43
0.00000001
 40
0.0
 40
0.0
 40
0.0
 40
0.0
 40
0.0275287450920089
 40
0.4626510383957806
 40
0.897914145005491
 40
1.0
 40
1.0
 40
1.0
 40
1.0
 10
265.7113240799452
 20
45.60662621554638
 30
0.0
 10
265.7203557675114
 20
45.63095199839724
 30
0.0
 10
265.8721432760596
 20
46.03977371032507
 30
0.0
 10
266.1056255377945
 20
46.83416235246877
 30
0.0
 10
266.3364089164745
 20
47.6900594778529
 30
0.0
 10
266.4351194179124
 20
48.15723971033864
 30
0.0
 10
266.4538724939511
 20
48.24599487109573
 30
0.0
  0
LINE
  5
1D9
330
1F
100
AcDbEntity
  8
0
  6
Continuous
 62
     7
370
    15
100
AcDbLine
 10
246.2822077144
 20
32.7190955246
 30
0.0
 11
247.6356678494
 21
31.9377596199
 31
0.0
  0
LINE
  5
1DA
330
1F
100
AcDbEntity
  8
0
  6
Continuous
 62
     7
370
    15
100
AcDbLine
 10
242.4561106772
 20
34.9278543295
 30
0.0
 11
243.7918931426
 21
34.1567235262
 31
0.0
  0
SPLINE
  5
1DB
330
1F
100
AcDbEntity
  8
0
  6
Continuous
 62
     7
370
    15
100
AcDbSpline
210
0.0
220
0.0
230
1.0
 70
     8
 71
     3
 72
    11
 73
     7
 74
     0
 42
0.000000001
 43
0.00000001
 40
0.0
 40
0.0
 40
0.0
 40
0.0
 40
0.1180303235717174
 40
0.4827379440339454
 40
0.8468841580017388
 40
0.9999999999999999
 40
0.9999999999999999
 40
0.9999999999999999
 40
0.9999999999999999
 10
239.5361232324204
 20
38.92500385463021
 30
0.0
 10
239.5634333466589
 20
38.83211600876287
 30
0.0
 10
239.6751303072351
 20
38.45220950352908
 30
0.0
 10
239.9243789833686
 20
37.83312882599473
 30
0.0
 10
240.2209652623646
 20
37.22368020190655
 30
0.0
 10
240.4368049142097
 20
36.91253614059254
 30
0.0
 10
240.5006960688917
 20
36.82043372484142
 30
0.0
  0
SPLINE
  5
1DC
330
1F
100
AcDbEntity
  8
0
  6
Continuous
 62
     7
370
    15
100
AcDbSpline
210
0.0
220
0.0
230
1.0
 70
     8
 71
     3
 72
    12
 73
     8
 74
     0
 42
0.000000001
 43
0.00000001
 40
0.0
 40
0.0
 40
0.0
 40
0.0
 40
0.0929298992022911
 40
0.3299026506060037
 40
0.5665071637750589
 40
0.8023619921111705
 40
1.0
 40
1.0
 40
1.0
 40
1.0
 10
266.4427002031978
 20
55.39415894742893
 30
0.0
 10
266.409500746135
 20
55.50660616116362
 30
0.0
 10
266.2916421346686
 20
55.90579559516463
 30
0.0
 10
266.0381443999198
 20
56.54665453311411
 30
0.0
 10
265.6561883440824
 20
57.28421278672523
 30
0.0
 10
265.2374644820852
 20
57.91966802793935
 30
0.0
 10
264.9163749771877
 20
58.26852266577905
 30
0.0
 10
264.7699838841893
 20
58.427572435242
 30
0.0
  0
SPLINE
  5
1DD
330
1F
100
AcDbEntity
  8
0
  6
Continuous
 62
     7
370
    15
100
AcDbSpline
210
0.0
220
0.0
230
1.0
 70
     8
 71
     3
 72
    26
 73
    22
 74
     0
 42
0.000000001
 43
0.00000001
 40
0.0
 40
0.0
 40
0.0
 40
0.0
 40
0.0073241588370225
 40
0.0609613871783108
 40
0.1150337756070772
 40
0.170127527737143
 40
0.226384543038003
 40
0.2835519853231651
 40
0.3412214298063942
 40
0.3990421664729808
 40
0.4568009735674776
 40
0.5144522732586964
 40
0.5720037625607503
 40
0.6294873298922916
 40
0.6869448217878166
 40
0.7444215680235347
 40
0.801950288307656
 40
0.8595796760941382
 40
0.9173570495096339
 40
0.9753217913859848
 40
1.0
 40
1.0
 40
1.0
 40
1.0
 10
228.0412317541879
 20
68.70377409009079
 30
0.0
 10
228.0211791295341
 20
68.71362603070038
 30
0.0
 10
227.8542745275643
 20
68.79562697843014
 30
0.0
 10
227.4993495703638
 20
68.86348421796644
 30
0.0
 10
226.9863751896994
 20
68.89982500550792
 30
0.0
 10
226.4434403152937
 20
68.83555562296476
 30
0.0
 10
225.8816370042018
 20
68.68174399161583
 30
0.0
 10
225.3075856949647
 20
68.43617268575946
 30
0.0
 10
224.7318850202971
 20
68.10335169199044
 30
0.0
 10
224.1650777604988
 20
67.68939305328988
 30
0.0
 10
223.617019045328
 20
67.2023913128881
 30
0.0
 10
223.096422662547
 20
66.65117771576388
 30
0.0
 10
222.6111011007912
 20
66.04502617922199
 30
0.0
 10
222.1682923771057
 20
65.39372511503322
 30
0.0
 10
221.7746890540576
 20
64.70753435094507
 30
0.0
 10
221.4363839051757
 20
63.99712289893863
 30
0.0
 10
221.1588888320292
 20
63.27344021461023
 30
0.0
 10
220.9466055245954
 20
62.54727800589912
 30
0.0
 10
220.8046458890643
 20
61.83002487477486
 30
0.0
 10
220.7460668945441
 20
61.26479963161122
 30
0.0
 10
220.7413700517328
 20
60.9450822023385
 30
0.0
 10
220.7399675162953
 20
60.8496106180072
 30
0.0
  0
SPLINE
  5
1DE
330
1F
100
AcDbEntity
  8
0
  6
Continuous
 62
     7
370
    15
100
AcDbSpline
210
0.0
220
0.0
230
1.0
 70
     8
 71
     3
 72
    13
 73
     9
 74
     0
 42
0.000000001
 43
0.00000001
 40
0.0
 40
0.0
 40
0.0
 40
0.0
 40
0.102564578780943
 40
0.2964611411165138
 40
0.490384240326765
 40
0.6827276568378037
 40
0.8717653751966684
 40
0.9999999999999999
 40
0.9999999999999999
 40
0.9999999999999999
 40
0.9999999999999999
 10
220.7399675162953
 20
60.8496106180072
 30
0.0
 10
220.7421213659992
 20
60.73223134227145
 30
0.0
 10
220.7483470313177
 20
60.39294857582655
 30
0.0
 10
220.8181785944539
 20
59.86224085176711
 30
0.0
 10
220.9749260530433
 20
59.28175533193814
 30
0.0
 10
221.2127918109264
 20
58.76840251139929
 30
0.0
 10
221.4839529458317
 20
58.36358523188741
 30
0.0
 10
221.7032991502939
 20
58.16955434494727
 30
0.0
 10
221.7919541460332
 20
58.09113125348257
 30
0.0
  0
LWPOLYLINE
  5
1DF
330
1F
100
AcDbEntity
  8
0
  6
Continuous
 62
     7
370
    15
100
AcDbPolyline
 90
        6
 70
   128
 43
0.0
 10
264.1497076319
 20
44.8073129532
 10
264.3433664278
 20
45.0034588525
 10
264.4225517265
 20
45.2245518126
 10
264.3795123195
 20
45.4489497141
 10
264.2184612036
 20
45.654686927
 10
264.0579477848
 20
45.7684867926
  0
LWPOLYLINE
  5
1E0
330
1F
100
AcDbEntity
  8
0
  6
Continuous
 62
     7
370
    15
100
AcDbPolyline
 90
       12
 70
   128
 43
0.0
 10
262.28989359
 20
45.7684867926
 10
262.1981337429
 20
45.7093163404
 10
262.0044749471
 20
45.5131704412
 10
261.9252896483
 20
45.2920774811
 10
261.9683290554
 20
45.0676795795
 10
262.1293801712
 20
44.8619423666
 10
262.3926781905
 20
44.6950048341
 10
262.7324496687
 20
44.583207991
 10
263.1154354061
 20
44.537495291
 10
263.5041460903
 20
44.5623414118
 10
263.8605320113
 20
44.655314242
 10
264.1497076319
 20
44.8073129532
  0
LWPOLYLINE
  5
1E1
330
1F
100
AcDbEntity
  8
0
  6
Continuous
 62
     7
370
    15
100
AcDbPolyline
 90
       20
 70
   128
 43
0.0
 10
264.0326131986
 20
44.9839142782
 10
264.209315611
 20
45.1663760416
 10
264.2738169176
 20
45.3720735095
 10
264.219127401
 20
45.5787161695
 10
264.0511735189
 20
45.763911083
 10
263.7881556806
 20
45.9075895075
 10
263.4585759499
 20
45.9941816564
 10
263.0981494047
 20
46.0143039267
 10
262.7459338536
 20
45.9657757581
 10
262.4400973169
 20
45.8538559308
 10
262.2137819288
 20
45.6906726947
 10
262.0915124733
 20
45.4939094853
 10
262.0865387431
 20
45.2848886496
 10
262.199399719
 20
45.0862608384
 10
262.4178651631
 20
44.9195504571
 10
262.7182609547
 20
44.8028231622
 10
263.0680345486
 20
44.7487281674
 10
263.4292825486
 20
44.7631275048
 10
263.7628581286
 20
44.8444607826
 10
264.0326131986
 20
44.9839142782
  0
LWPOLYLINE
  5
1E2
330
1F
100
AcDbEntity
  8
0
  6
Continuous
 62
     7
370
    15
100
AcDbPolyline
 90
       17
 70
   128
 43
0.0
 10
263.778908593
 20
45.1011747186
 10
263.9182171381
 20
45.2561125898
 10
263.9442132957
 20
45.4300323448
 10
263.8529393864
 20
45.5964562774
 10
263.6582910355
 20
45.7300478525
 10
263.3899016899
 20
45.8104689638
 10
263.0886311945
 20
45.8254762261
 10
262.8003452513
 20
45.7727849198
 10
262.5689327818
 20
45.6604168186
 10
262.4296242367
 20
45.5054789474
 10
262.4036280791
 20
45.3315591924
 10
262.4949019884
 20
45.1651352598
 10
262.6895503394
 20
45.0315436847
 10
262.9579396849
 20
44.9511225734
 10
263.2592101803
 20
44.9361153111
 10
263.5474961235
 20
44.9888066174
 10
263.778908593
 20
45.1011747186
  0
SPLINE
  5
1E3
330
1F
100
AcDbEntity
  8
0
  6
Continuous
 62
     7
370
    15
100
AcDbSpline
210
0.0
220
0.0
230
1.0
 70
     8
 71
     3
 72
    10
 73
     6
 74
     0
 42
0.000000001
 43
0.00000001
 40
0.0
 40
0.0
 40
0.0
 40
0.0
 40
0.4391119879276847
 40
0.7513633230734877
 40
1.0
 40
1.0
 40
1.0
 40
1.0
 10
263.887339442607
 20
45.27437690051235
 30
0.0
 10
263.8497798365358
 20
45.2949852407252
 30
0.0
 10
263.7855116971845
 20
45.33024811537009
 30
0.0
 10
263.6920859901534
 20
45.49503320780685
 30
0.0
 10
263.6455848125424
 20
45.61105836225791
 30
0.0
 10
263.6249712532837
 20
45.66249128330754
 30
0.0
  0
SPLINE
  5
1E4
330
1F
100
AcDbEntity
  8
0
  6
Continuous
 62
     7
370
    15
100
AcDbSpline
210
0.0
220
0.0
230
1.0
 70
     8
 71
     3
 72
    10
 73
     6
 74
     0
 42
0.000000001
 43
0.00000001
 40
0.0
 40
0.0
 40
0.0
 40
0.0
 40
0.4391119879276825
 40
0.7513633230734558
 40
1.0
 40
1.0
 40
1.0
 40
1.0
 10
263.6249712532837
 20
45.66249128330754
 30
0.0
 10
263.5228410084629
 20
45.63654138511847
 30
0.0
 10
263.3480862255267
 20
45.59213858521137
 30
0.0
 10
263.0940476098506
 20
45.64111478624005
 30
0.0
 10
262.9676038807851
 20
45.69949788477923
 30
0.0
 10
262.9115524980913
 20
45.72537859411339
 30
0.0
  0
SPLINE
  5
1E5
330
1F
100
AcDbEntity
  8
0
  6
Continuous
 62
     7
370
    15
100
AcDbSpline
210
0.0
220
0.0
230
1.0
 70
     8
 71
     3
 72
    11
 73
     7
 74
     0
 42
0.000000001
 43
0.00000001
 40
0.0
 40
0.0
 40
0.0
 40
0.0
 40
0.1855070912791564
 40
0.5226425778603124
 40
0.8775754485095517
 40
1.0
 40
1.0
 40
1.0
 40
1.0
 10
262.9115524980913
 20
45.72537859411339
 30
0.0
 10
262.8852187471338
 20
45.69042054089225
 30
0.0
 10
262.8110267613168
 20
45.59193068303028
 30
0.0
 10
262.6721954823991
 20
45.45884885656285
 30
0.0
 10
262.545204265672
 20
45.40865461260502
 30
0.0
 10
262.4777909566321
 20
45.40188713120232
 30
0.0
 10
262.460501932222
 20
45.40015152212404
 30
0.0
  0
SPLINE
  5
1E6
330
1F
100
AcDbEntity
  8
0
  6
Continuous
 62
     7
370
    15
100
AcDbSpline
210
0.0
220
0.0
230
1.0
 70
     8
 71
     3
 72
    10
 73
     6
 74
     0
 42
0.000000001
 43
0.00000001
 40
0.0
 40
0.0
 40
0.0
 40
0.0
 40
0.5016108313994887
 40
0.8583049234174699
 40
1.0
 40
1.0
 40
1.0
 40
1.0
 10
262.460501932222
 20
45.40015152212404
 30
0.0
 10
262.4979842611147
 20
45.31017569811152
 30
0.0
 10
262.562120171697
 20
45.15621831141987
 30
0.0
 10
262.6445421500088
 20
45.05407555231136
 30
0.0
 10
262.6809489645892
 20
45.03567368228207
 30
0.0
 10
262.6912996437474
 20
45.03044191853733
 30
0.0
  0
SPLINE
  5
1E7
330
1F
100
AcDbEntity
  8
0
  6
Continuous
 62
     7
370
    15
100
AcDbSpline
210
0.0
220
0.0
230
1.0
 70
     8
 71
     3
 72
    10
 73
     6
 74
     0
 42
0.000000001
 43
0.00000001
 40
0.0
 40
0.0
 40
0.0
 40
0.0
 40
0.1187419962254795
 40
0.6872057197942961
 40
1.0
 40
1.0
 40
1.0
 40
1.0
 10
263.6189206675962
 20
45.01154424905567
 30
0.0
 10
263.6296360599337
 20
45.01566885281009
 30
0.0
 10
263.6916501673115
 20
45.03953952520927
 30
0.0
 10
263.7870696789592
 20
45.14311423886873
 30
0.0
 10
263.8610727464435
 20
45.23999129586375
 30
0.0
 10
263.887339442607
 20
45.27437690051235
 30
0.0
  0
LINE
  5
1E8
330
1F
100
AcDbEntity
  8
0
  6
Continuous
 62
     7
370
    15
100
AcDbLine
 10
263.6249712533
 20
45.0169769852
 30
0.0
 11
263.6249712533
 21
45.6624912833
 31
0.0
  0
LINE
  5
1E9
330
1F
100
AcDbEntity
  8
0
  6
Continuous
 62
     7
370
    15
100
AcDbLine
 10
262.9115524981
 20
44.9598156824
 30
0.0
 11
262.9115524981
 21
45.7253785941
 31
0.0
  0
SPLINE
  5
1EA
330
1F
100
AcDbEntity
  8
0
  6
Continuous
 62
     7
370
    15
100
AcDbSpline
210
0.0
220
0.0
230
1.0
 70
     8
 71
     3
 72
    12
 73
     8
 74
     0
 42
0.000000001
 43
0.00000001
 40
0.0
 40
0.0
 40
0.0
 40
0.0
 40
0.250000000000001
 40
0.250000000000001
 40
0.500000000000002
 40
0.500000000000002
 40
1.0
 40
1.0
 40
1.0
 40
1.0
 10
244.8074965027015
 20
43.14566107637945
 30
0.0
 10
244.8412756689739
 20
43.12616077876592
 30
0.0
 10
244.8796003654493
 20
43.09932103018876
 30
0.0
 10
244.9538234895619
 20
43.04092052686612
 30
0.0
 10
244.9892068540566
 20
43.00993086838521
 30
0.0
 10
245.0850168124416
 20
42.91919151536446
 30
0.0
 10
245.1340205705959
 20
42.86329738664693
 30
0.0
 10
245.1678296282106
 20
42.81603752288026
 30
0.0
  0
SPLINE
  5
1EB
330
1F
100
AcDbEntity
  8
0
  6
Continuous
 62
     7
370
    15
100
AcDbSpline
210
0.0
220
0.0
230
1.0
 70
     8
 71
     3
 72
    12
 73
     8
 74
     0
 42
0.000000001
 43
0.00000001
 40
0.0
 40
0.0
 40
0.0
 40
0.0
 40
0.5000000000000011
 40
0.5000000000000011
 40
0.7500000000000006
 40
0.7500000000000006
 40
1.0
 40
1.0
 40
1.0
 40
1.0
 10
262.2723595414017
 20
59.58583904720182
 30
0.0
 10
262.2723595414017
 20
59.65725807892649
 30
0.0
 10
262.2547950107407
 20
59.73978783811969
 30
0.0
 10
262.1996694762507
 20
59.85873255415257
 30
0.0
 10
262.176377002494
 20
59.89736544137715
 30
0.0
 10
262.1224086134366
 20
59.9639279526542
 30
0.0
 10
262.0915611126834
 20
59.99184899090686
 30
0.0
 10
262.0602275070457
 20
60.00993749641682
 30
0.0
  0
LINE
  5
1EC
330
1F
100
AcDbEntity
  8
0
  6
Continuous
 62
     7
370
    15
100
AcDbLine
 10
243.4540363678
 20
43.9269969811
 30
0.0
 11
244.8074965027
 21
43.1456610764
 31
0.0
  0
LWPOLYLINE
  5
1ED
330
1F
100
AcDbEntity
  8
0
  6
Continuous
 62
     7
370
    15
100
AcDbPolyline
 90
       23
 70
   128
 43
0.0
 10
243.4540363678
 20
43.9269969811
 10
243.7685186953
 20
45.1669175733
 10
244.1608713639
 20
46.4165301238
 10
244.6281708287
 20
47.6665233703
 10
245.1669350919
 20
48.9075832139
 10
245.773149649
 20
50.1304621213
 10
246.4422974018
 20
51.3260480312
 10
247.1693923164
 20
52.4854322509
 10
247.9490165766
 20
53.5999758384
 10
248.7753609529
 20
54.6613739734
 10
249.6422680893
 20
55.6617178394
 10
250.543278384
 20
56.5935535546
 10
251.4716781214
 20
57.4499377136
 10
252.4205494985
 20
58.2244891244
 10
253.3828221716
 20
58.911436357
 10
254.3513259397
 20
59.5056607482
 10
255.3188441718
 20
60.0027345423
 10
256.2781675805
 20
60.3989538836
 10
257.2221479407
 20
60.6913664152
 10
258.1437513532
 20
60.877793278
 10
259.0361106566
 20
60.9568453459
 10
259.8925765966
 20
60.9279335767
 10
260.7067673721
 20
60.7912734011
  0
LINE
  5
1EE
330
1F
100
AcDbEntity
  8
0
  6
Continuous
 62
     7
370
    15
100
AcDbLine
 10
262.060227507
 20
60.0099374964
 30
0.0
 11
260.7067673721
 21
60.7912734011
 31
0.0
  0
LINE
  5
1EF
330
1F
100
AcDbEntity
  8
0
  6
Continuous
 62
     7
370
    15
100
AcDbLine
 10
266.2896234323
 20
54.9147901547
 30
0.0
 11
266.3949869308
 21
55.0972850869
 31
0.0
  0
LINE
  5
1F0
330
1F
100
AcDbEntity
  8
0
  6
Continuous
 62
     7
370
    15
100
AcDbLine
 10
265.1184643357
 20
54.2386943993
 30
0.0
 11
266.2896234323
 21
54.9147901547
 31
0.0
  0
ARC
  5
1F1
330
1F
100
AcDbEntity
  8
0
  6
Continuous
 62
     7
370
    15
100
AcDbCircle
 10
265.7809517918
 20
53.2030098233
 30
0.0
 40
1.229443846057893
100
AcDbArc
 50
122.60547834
 51
177.3945215143
  0
LINE
  5
1F2
330
1F
100
AcDbEntity
  8
0
  6
Continuous
 62
     7
370
    15
100
AcDbLine
 10
264.5527789107
 20
47.9922102684
 30
0.0
 11
264.5527789107
 21
53.2588985051
 31
0.0
  0
ARC
  5
1F3
330
1F
100
AcDbEntity
  8
0
  6
Continuous
 62
     7
370
    15
100
AcDbCircle
 10
264.8976384047
 20
47.9362685109
 30
0.0
 40
0.3493673579428071
100
AcDbArc
 50
170.7859630095
 51
309.2032852357
  0
LINE
  5
1F4
330
1F
100
AcDbEntity
  8
0
  6
Continuous
 62
     7
370
    15
100
AcDbLine
 10
266.2896234323
 20
48.341636619
 30
0.0
 11
265.1184643357
 21
47.6655408636
 31
0.0
  0
LINE
  5
1F5
330
1F
100
AcDbEntity
  8
0
  6
Continuous
 62
     7
370
    15
100
AcDbLine
 10
266.3949869308
 20
48.2807917928
 30
0.0
 11
266.2896234323
 21
48.341636619
 31
0.0
  0
LINE
  5
1F6
330
1F
100
AcDbEntity
  8
0
  6
Continuous
 62
     7
370
    15
100
AcDbLine
 10
245.2157248045
 20
36.1759338955
 30
0.0
 11
245.1678296282
 21
36.0536852102
 31
0.0
  0
LINE
  5
1F7
330
1F
100
AcDbEntity
  8
0
  6
Continuous
 62
     7
370
    15
100
AcDbLine
 10
245.2157248045
 20
36.1759338955
 30
0.0
 11
247.2286627717
 21
37.3379782491
 31
0.0
  0
ARC
  5
1F8
330
1F
100
AcDbEntity
  8
0
  6
Continuous
 62
     7
370
    15
100
AcDbCircle
 10
246.5661753155
 20
38.3736628251
 30
0.0
 40
1.229443846057703
100
AcDbArc
 50
302.60547834
 51
357.3945215143
  0
LINE
  5
1F9
330
1F
100
AcDbEntity
  8
0
  6
Continuous
 62
     7
370
    15
100
AcDbLine
 10
247.7943481966
 20
43.58446238
 30
0.0
 11
247.7943481966
 21
38.3177741433
 31
0.0
  0
ARC
  5
1FA
330
1F
100
AcDbEntity
  8
0
  6
Continuous
 62
     7
370
    15
100
AcDbCircle
 10
247.4494887027
 20
43.6404041375
 30
0.0
 40
0.3493673579428048
100
AcDbArc
 50
350.7859630095
 51
129.2032852357
  0
LINE
  5
1FB
330
1F
100
AcDbEntity
  8
0
  6
Continuous
 62
     7
370
    15
100
AcDbLine
 10
247.2286627717
 20
43.9111317848
 30
0.0
 11
245.2157248045
 21
42.7490874311
 31
0.0
  0
LINE
  5
1FC
330
1F
100
AcDbEntity
  8
0
  6
Continuous
 62
     7
370
    15
100
AcDbLine
 10
245.1678296282
 20
42.8160375229
 30
0.0
 11
245.2157248045
 21
42.7490874311
 31
0.0
  0
LINE
  5
1FD
330
1F
100
AcDbEntity
  8
0
  6
Continuous
 62
     7
370
    15
100
AcDbLine
 10
262.2723595414
 20
56.8008582555
 30
0.0
 11
262.2723595414
 21
59.5858390472
 31
0.0
  0
LINE
  5
1FE
330
1F
100
AcDbEntity
  8
0
  6
Continuous
 62
     7
370
    15
100
AcDbLine
 10
264.6840930085
 20
58.1931223509
 30
0.0
 11
262.2723595414
 21
56.8008582555
 31
0.0
  0
SPLINE
  5
1FF
330
1F
100
AcDbEntity
  8
0
  6
Continuous
 62
     7
370
    15
100
AcDbSpline
210
0.0
220
0.0
230
1.0
 70
     8
 71
     3
 72
     8
 73
     4
 74
     0
 42
0.000000001
 43
0.00000001
 40
0.0
 40
0.0
 40
0.0
 40
0.0
 40
1.0
 40
1.0
 40
1.0
 40
1.0
 10
242.463885082464
 20
45.18537616524912
 30
0.0
 10
242.0831872164636
 20
45.12240932757852
 30
0.0
 10
241.7023492442237
 20
45.05970920544348
 30
0.0
 10
241.321408593484
 20
44.99722832677046
 30
0.0
  0
SPLINE
  5
200
330
1F
100
AcDbEntity
  8
0
  6
Continuous
 62
     7
370
    15
100
AcDbSpline
210
0.0
220
0.0
230
1.0
 70
     8
 71
     3
 72
     8
 73
     4
 74
     0
 42
0.000000001
 43
0.00000001
 40
0.0
 40
0.0
 40
0.0
 40
0.0
 40
0.0011901715795577
 40
0.0011901715795577
 40
0.0011901715795577
 40
0.0011901715795577
 10
240.9637217959262
 20
45.36462498262606
 30
0.0
 10
241.083368303421
 20
45.24201007287058
 30
0.0
 10
241.2026114775691
 20
45.11953803237487
 30
0.0
 10
241.321408593484
 20
44.99722832677046
 30
0.0
  0
LWPOLYLINE
  5
201
330
1F
100
AcDbEntity
  8
0
  6
Continuous
 62
     7
370
    15
100
AcDbPolyline
 90
       23
 70
   128
 43
0.0
 10
240.9637217959
 20
45.3646249826
 10
241.2782041234
 20
46.6045455748
 10
241.6705567921
 20
47.8541581253
 10
242.1378562568
 20
49.1041513719
 10
242.6766205201
 20
50.3452112155
 10
243.2828350772
 20
51.5680901229
 10
243.9519828299
 20
52.7636760327
 10
244.6790777446
 20
53.9230602525
 10
245.4587020048
 20
55.03760384
 10
246.285046381
 20
56.099001975
 10
247.1519535175
 20
57.0993458409
 10
248.0529638122
 20
58.0311815562
 10
248.9813635496
 20
58.8875657152
 10
249.9302349267
 20
59.6621171259
 10
250.8925075998
 20
60.3490643586
 10
251.8610113679
 20
60.9432887498
 10
252.8285296
 20
61.4403625438
 10
253.7878530087
 20
61.8365818851
 10
254.7318333689
 20
62.1289944167
 10
255.6534367814
 20
62.3154212795
 10
256.5457960848
 20
62.3944733474
 10
257.4022620248
 20
62.3655615782
 10
258.2164528003
 20
62.2289014027
  0
LINE
  5
202
330
1F
100
AcDbEntity
  8
0
  6
Continuous
 62
     7
370
    15
100
AcDbLine
 10
258.6421268039
 20
60.920442935
 30
0.0
 11
258.2164528003
 21
62.2289014027
 31
0.0
  0
LWPOLYLINE
  5
203
330
1F
100
AcDbEntity
  8
0
  6
Continuous
 62
     7
370
    15
100
AcDbPolyline
 90
       22
 70
   128
 43
0.0
 10
242.4638850825
 20
45.1853761652
 10
242.7587134684
 20
46.3606979779
 10
243.130403928
 20
47.5458135352
 10
243.5759617878
 20
48.731174478
 10
244.0917972321
 20
49.9072304699
 10
244.6737542256
 20
51.0645061438
 10
245.3171439982
 20
52.1936774436
 10
246.0167828218
 20
53.2856467476
 10
246.7670337754
 20
54.3316161665
 10
247.5618521611
 20
55.3231584279
 10
248.3948342054
 20
56.2522847736
 10
249.2592686541
 20
57.1115093241
 10
250.148190844
 20
57.893909392
 10
251.0544388168
 20
58.5931812569
 10
251.9707110218
 20
59.2036909545
 10
252.8896251441
 20
59.7205196683
 10
253.8037775834
 20
60.1395033602
 10
254.7058031033
 20
60.45726632
 10
255.5884341733
 20
60.6712483627
 10
256.4445595219
 20
60.7797254563
 10
257.2672814314
 20
60.7818236114
 10
257.512663185
 20
60.7610428883
  0
LINE
  5
204
330
1F
100
AcDbEntity
  8
0
  6
Continuous
 62
     7
370
    15
100
AcDbLine
 10
239.6279393305
 20
46.1357557859
 30
0.0
 11
240.9637217959
 21
45.3646249826
 31
0.0
  0
LINE
  5
205
330
1F
100
AcDbEntity
  8
0
  6
Continuous
 62
     7
370
    15
100
AcDbLine
 10
258.2164528003
 20
62.2289014027
 30
0.0
 11
256.8806703349
 21
63.000032206
 31
0.0
  0
LINE
  5
206
330
1F
100
AcDbEntity
  8
0
  6
Continuous
 62
     7
370
    15
100
AcDbLine
 10
243.6904271875
 20
44.8850915152
 30
0.0
 11
243.0999165317
 21
45.2259860607
 31
0.0
  0
SPLINE
  5
207
330
1F
100
AcDbEntity
  8
0
  6
Continuous
 62
     7
370
    15
100
AcDbSpline
210
0.0
220
0.0
230
1.0
 70
     8
 71
     3
 72
    12
 73
     8
 74
     0
 42
0.000000001
 43
0.00000001
 40
0.0
 40
0.0
 40
0.0
 40
0.0
 40
0.2500000000000015
 40
0.2500000000000015
 40
0.500000000000003
 40
0.500000000000003
 40
1.0
 40
1.0
 40
1.0
 40
1.0
 10
243.0999165317014
 20
45.22598606066476
 30
0.0
 10
243.0622977967421
 20
45.24770289410096
 30
0.0
 10
243.0163053883548
 20
45.2649586280836
 30
0.0
 10
242.9167042583789
 20
45.28725241591142
 30
0.0
 10
242.8619535331248
 20
45.29245820049086
 30
0.0
 10
242.7024476343055
 20
45.28945630106374
 30
0.0
 10
242.5974448290879
 20
45.26247856580454
 30
0.0
 10
242.522131932896
 20
45.21900135627124
 30
0.0
  0
SPLINE
  5
208
330
1F
100
AcDbEntity
  8
0
  6
Continuous
 62
     7
370
    15
100
AcDbSpline
210
0.0
220
0.0
230
1.0
 70
     8
 71
     3
 72
    10
 73
     6
 74
     0
 42
0.000000001
 43
0.00000001
 40
0.0
 40
0.0
 40
0.0
 40
0.0
 40
0.5
 40
0.5
 40
1.0
 40
1.0
 40
1.0
 40
1.0
 10
239.5262952199127
 20
46.16647783722389
 30
0.0
 10
239.5335579015613
 20
46.17047444271171
 30
0.0
 10
239.545351565527
 20
46.17065622109689
 30
0.0
 10
239.5794105762943
 20
46.16093459158714
 30
0.0
 10
239.6015830638465
 20
46.15097093481143
 30
0.0
 10
239.6279393305101
 20
46.13575578593013
 30
0.0
  0
LWPOLYLINE
  5
209
330
1F
100
AcDbEntity
  8
0
  6
Continuous
 62
     7
370
    15
100
AcDbPolyline
 90
       42
 70
   128
 43
0.0
 10
261.8480954727
 20
38.0630745661
 10
261.8887017326
 20
38.6972734763
 10
262.009568736
 20
39.3634902913
 10
262.2078634628
 20
40.0461094536
 10
262.4789380526
 20
40.7291309487
 10
262.8164387469
 20
41.3965453315
 10
263.2124548153
 20
42.0327089747
 10
263.6577039769
 20
42.6227107416
 10
264.1417499688
 20
43.1527214909
 10
264.6532471631
 20
43.6103182198
 10
265.1802064991
 20
43.9847752489
 10
265.7102764967
 20
44.2673156227
 10
266.2310327643
 20
44.4513168343
 10
266.7302692163
 20
44.5324660514
 10
267.1962841736
 20
44.508861205
 10
267.6181546405
 20
44.3810555727
 10
267.9859923308
 20
44.1520448103
 10
268.2911754407
 20
43.8271967359
 10
268.5265507369
 20
43.414125513
 10
268.686601222
 20
42.922513181
 10
268.7675754481
 20
42.3638827163
 10
268.7675754481
 20
41.7513279435
 10
268.686601222
 20
41.0992066273
 10
268.5265507369
 20
40.4228039387
 10
268.2911754407
 20
39.7379741833
 10
267.9859923308
 20
39.0607691903
 10
267.6181546405
 20
38.4070620706
 10
267.1962841736
 20
37.7921751651
 10
266.7302692163
 20
37.2305209017
 10
266.2310327643
 20
36.7352639803
 10
265.7102764967
 20
36.3180128034
 10
265.1802064991
 20
35.988547385
 10
264.6532471631
 20
35.7545901151
 10
264.1417499688
 20
35.621624754
 10
263.6577039769
 20
35.5927678969
 10
263.2124548153
 20
35.6686959241
 10
262.8164387469
 20
35.8476291471
 10
262.4789380526
 20
36.1253735228
 10
262.2078634628
 20
36.4954189583
 10
262.009568736
 20
36.9490919024
 10
261.8887017326
 20
37.4757586456
 10
261.8480954727
 20
38.0630745661
  0
LWPOLYLINE
  5
20A
330
1F
100
AcDbEntity
  8
0
  6
Continuous
 62
     7
370
    15
100
AcDbPolyline
 90
       23
 70
   128
 43
0.0
 10
261.7066741165
 20
38.0630745661
 10
261.746163109
 20
38.6943665414
 10
261.8637479679
 20
39.3571495175
 10
262.0568020417
 20
40.036618018
 10
262.3210128214
 20
40.7175938393
 10
262.6504782747
 20
41.3848651069
 10
263.0378386879
 20
42.0235260832
 10
263.4744410694
 20
42.6193101374
 10
263.9505324435
 20
43.1589084383
 10
264.4554777156
 20
43.6302672515
 10
264.9779972427
 20
44.0228572
 10
265.5064188021
 20
44.327908473
 10
266.0289383292
 20
44.5386067292
 10
266.5338836013
 20
44.6502453177
 10
267.0099749754
 20
44.660330417
 10
267.4465773569
 20
44.5686367426
 10
267.83393777
 20
44.3772125796
 10
268.1634032234
 20
44.0903340276
 10
268.427614003
 20
43.7144094793
 10
268.6206680768
 20
43.2578364679
 10
268.7382529357
 20
42.7308140801
 10
268.7777419283
 20
42.1451151252
 10
268.7777419283
 20
42.1451151252
  0
LWPOLYLINE
  5
20B
330
1F
100
AcDbEntity
  8
0
  6
Continuous
 62
     7
370
    15
100
AcDbPolyline
 90
       12
 70
   128
 43
0.0
 10
265.2427826461
 20
36.0217225633
 10
264.9779972427
 20
35.8802812183
 10
264.4554777156
 20
35.6695829621
 10
263.9505324435
 20
35.5579443735
 10
263.4744410694
 20
35.5478592742
 10
263.0378386879
 20
35.6395529487
 10
262.6504782747
 20
35.8309771116
 10
262.3210128214
 20
36.1178556637
 10
262.0568020417
 20
36.493780212
 10
261.8637479679
 20
36.9503532233
 10
261.746163109
 20
37.4773756111
 10
261.7066741165
 20
38.0630745661
  0
LINE
  5
20C
330
1F
100
AcDbEntity
  8
0
  6
Continuous
 62
     7
370
    15
100
AcDbLine
 10
242.5221319329
 20
45.2190013563
 30
0.0
 11
242.4638850825
 21
45.1853761652
 31
0.0
  0
SPLINE
  5
20D
330
1F
100
AcDbEntity
  8
0
  6
Continuous
 62
     7
370
    15
100
AcDbSpline
210
0.0
220
0.0
230
1.0
 70
    11
 71
     3
 72
    60
 73
    56
 74
     0
 42
0.000000001
 43
0.00000001
 40
0.0
 40
0.0
 40
0.0
 40
0.0
 40
0.0624999999999995
 40
0.0624999999999995
 40
0.0937499999999992
 40
0.0937499999999992
 40
0.124999999999999
 40
0.124999999999999
 40
0.1562499999999987
 40
0.1562499999999987
 40
0.1874999999999984
 40
0.1874999999999984
 40
0.2187499999999982
 40
0.2187499999999982
 40
0.2499999999999979
 40
0.2499999999999979
 40
0.2812499999999977
 40
0.2812499999999977
 40
0.3124999999999974
 40
0.3124999999999974
 40
0.3437499999999972
 40
0.3437499999999972
 40
0.3749999999999969
 40
0.3749999999999969
 40
0.4062499999999967
 40
0.4062499999999967
 40
0.4374999999999964
 40
0.4374999999999964
 40
0.4687499999999962
 40
0.4687499999999962
 40
0.4999999999999959
 40
0.4999999999999959
 40
0.5312499999999957
 40
0.5312499999999957
 40
0.5624999999999953
 40
0.5624999999999953
 40
0.624999999999996
 40
0.624999999999996
 40
0.6874999999999966
 40
0.6874999999999966
 40
0.7499999999999971
 40
0.7499999999999971
 40
0.7812499999999974
 40
0.7812499999999974
 40
0.8124999999999978
 40
0.8124999999999978
 40
0.8437499999999981
 40
0.8437499999999981
 40
0.8749999999999983
 40
0.8749999999999983
 40
0.9062499999999987
 40
0.9062499999999987
 40
0.937499999999999
 40
0.937499999999999
 40
1.0
 40
1.0
 40
1.0
 40
1.0
 10
263.160019564892
 20
46.11097434522787
 30
0.0
 10
263.3443688322518
 20
46.07983664488729
 30
0.0
 10
263.5203535174609
 20
46.03094606707038
 30
0.0
 10
263.7686304333678
 20
45.94003309995406
 30
0.0
 10
263.8469334324325
 20
45.90736872091738
 30
0.0
 10
263.9950580764711
 20
45.83802134737209
 30
0.0
 10
264.0654314628641
 20
45.80099466488677
 30
0.0
 10
264.1943816271457
 20
45.7245809955507
 30
0.0
 10
264.2526658231797
 20
45.68546144695171
 30
0.0
 10
264.357034791788
 20
45.60519215870993
 30
0.0
 10
264.4034769320349
 20
45.56363431972321
 30
0.0
 10
264.481141258263
 20
45.47989229989617
 30
0.0
 10
264.5123740744701
 20
45.43788947752336
 30
0.0
 10
264.559373901504
 20
45.35270941825113
 30
0.0
 10
264.5751921308055
 20
45.30903462998499
 30
0.0
 10
264.5888843982252
 20
45.22201496706629
 30
0.0
 10
264.5869834820326
 20
45.17878525620618
 30
0.0
 10
264.5646052251804
 20
45.0917672503685
 30
0.0
 10
264.5435959790922
 20
45.0473544085329
 30
0.0
 10
264.4825764886647
 20
44.96100302222873
 30
0.0
 10
264.4428275828427
 20
44.91887099567519
 30
0.0
 10
264.3434784606425
 20
44.83615882266505
 30
0.0
 10
264.2835842111229
 20
44.79570258231659
 30
0.0
 10
264.1502353552169
 20
44.72120696409071
 30
0.0
 10
264.0750080303724
 20
44.68610505087155
 30
0.0
 10
263.9140995998696
 20
44.62351840904877
 30
0.0
 10
263.8293368950005
 20
44.59622370489893
 30
0.0
 10
263.6516550918195
 20
44.54982503688964
 30
0.0
 10
263.5603034388346
 20
44.53121217858943
 30
0.0
 10
263.3769052677885
 20
44.50396048953277
 30
0.0
 10
263.283388535807
 20
44.49517628400078
 30
0.0
 10
263.1003472722838
 20
44.48833643086212
 30
0.0
 10
263.0103633620701
 20
44.49012415833491
 30
0.0
 10
262.8331897926647
 20
44.50462525362342
 30
0.0
 10
262.7467316873874
 20
44.51738798856331
 30
0.0
 10
262.5001295007967
 20
44.5714522020842
 30
0.0
 10
262.3478622315152
 20
44.6300974409001
 30
0.0
 10
262.0912332679283
 20
44.78459764926383
 30
0.0
 10
261.9835484056298
 20
44.88251065253501
 30
0.0
 10
261.8288324796482
 20
45.10091812865257
 30
0.0
 10
261.7795929102901
 20
45.22449423254816
 30
0.0
 10
261.75900990039
 20
45.41040236436614
 30
0.0
 10
261.7607510317928
 20
45.47328818162021
 30
0.0
 10
261.7835936246006
 20
45.5976204175065
 30
0.0
 10
261.8042918198394
 20
45.65741870886163
 30
0.0
 10
261.8650126978079
 20
45.77120870748453
 30
0.0
 10
261.9058774434123
 20
45.82596332607557
 30
0.0
 10
262.0058038573803
 20
45.92368985769969
 30
0.0
 10
262.0643051298999
 20
45.96663151459499
 30
0.0
 10
262.1988498550788
 20
46.04014887334831
 30
0.0
 10
262.2744758740315
 20
46.07015085469907
 30
0.0
 10
262.4347714227893
 20
46.11473973057931
 30
0.0
 10
262.5214525971997
 20
46.12987942743575
 30
0.0
 10
262.7871488669215
 20
46.1538714749567
 30
0.0
 10
262.9756702975321
 20
46.14211204556847
 30
0.0
 10
263.160019564892
 20
46.11097434522788
 30
0.0
  0
LINE
  5
20E
330
1F
100
AcDbEntity
  8
0
  6
Continuous
 62
     7
370
    15
100
AcDbLine
 10
263.5844770525
 20
37.8857420964
 30
0.0
 11
263.5415520036
 21
37.9121199251
 31
0.0
  0
LINE
  5
20F
330
1F
100
AcDbEntity
  8
0
  6
Continuous
 62
     7
370
    15
100
AcDbLine
 10
245.2157248045
 20
42.7490874311
 30
0.0
 11
243.4885421052
 21
43.74616878
 31
0.0
  0
SPLINE
  5
210
330
1F
100
AcDbEntity
  8
0
  6
Continuous
 62
     7
370
    15
100
AcDbSpline
210
0.0
220
0.0
230
1.0
 70
     8
 71
     3
 72
     8
 73
     4
 74
     0
 42
0.000000001
 43
0.00000001
 40
0.0
 40
0.0
 40
0.0
 40
0.0
 40
0.0011901715795577
 40
0.0011901715795577
 40
0.0011901715795577
 40
0.0011901715795577
 10
243.4885421051729
 20
43.74616878002367
 30
0.0
 10
243.4763806383543
 20
43.8069190357345
 30
0.0
 10
243.4648971913983
 20
43.86718270986454
 30
0.0
 10
243.4540363677557
 20
43.92699698108129
 30
0.0
  0
ARC
  5
211
330
1F
100
AcDbEntity
  8
0
  6
Continuous
 62
     7
370
    15
100
AcDbCircle
 10
252.4663921722
 20
44.170943463
 30
0.0
 40
10.35652455636822
100
AcDbArc
 50
174.7086205927
 51
187.1555037252
  0
LINE
  5
212
330
1F
100
AcDbEntity
  8
0
  6
Continuous
 62
     7
370
    15
100
AcDbLine
 10
242.1905269557
 20
45.1402344234
 30
0.0
 11
242.1905269557
 21
42.8809066658
 31
0.0
  0
LINE
  5
213
330
1F
100
AcDbEntity
  8
0
  6
Continuous
 62
     7
370
    15
100
AcDbLine
 10
242.1905269557
 20
42.8809066658
 30
0.0
 11
242.1905269557
 21
41.4150987033
 31
0.0
  0
LINE
  5
214
330
1F
100
AcDbEntity
  8
0
  6
Continuous
 62
     7
370
    15
100
AcDbLine
 10
239.9654569542
 20
45.7800025463
 30
0.0
 11
239.5262952199
 21
46.1664778372
 31
0.0
  0
LINE
  5
215
330
1F
100
AcDbEntity
  8
0
  6
Continuous
 62
     7
370
    15
100
AcDbLine
 10
241.3214085935
 20
44.9972283268
 30
0.0
 11
239.9654569542
 21
45.7800025463
 31
0.0
  0
LINE
  5
216
330
1F
100
AcDbEntity
  8
0
  6
Continuous
 62
     7
370
    15
100
AcDbLine
 10
241.1917386273
 20
44.9158001547
 30
0.0
 11
241.1924301345
 21
45.0365767846
 31
0.0
  0
ARC
  5
217
330
1F
100
AcDbEntity
  8
0
  6
Continuous
 62
     7
370
    15
100
AcDbCircle
 10
248.192201747
 20
44.6721617205
 30
0.0
 40
7.004701533789079
100
AcDbArc
 50
178.0067287441
 51
210.5826315432
  0
LINE
  5
218
330
1F
100
AcDbEntity
  8
0
  6
Continuous
 62
     7
370
    15
100
AcDbLine
 10
221.8199490304
 20
58.0523688744
 30
0.0
 11
221.7901531987
 21
58.0780012083
 31
0.0
  0
LINE
  5
219
330
1F
100
AcDbEntity
  8
0
  6
Continuous
 62
     7
370
    15
100
AcDbLine
 10
243.4885421052
 20
37.1730152443
 30
0.0
 11
245.2157248045
 21
36.1759338955
 31
0.0
  0
SPLINE
  5
21A
330
1F
100
AcDbEntity
  8
0
  6
Continuous
 62
     7
370
    15
100
AcDbSpline
210
0.0
220
0.0
230
1.0
 70
     8
 71
     3
 72
    14
 73
    10
 74
     0
 42
0.000000001
 43
0.00000001
 40
0.0
 40
0.0
 40
0.0
 40
0.0
 40
0.25
 40
0.25
 40
0.5
 40
0.5
 40
0.75
 40
0.75
 40
1.0
 40
1.0
 40
1.0
 40
1.0
 10
245.1678296282106
 20
36.05368521020631
 30
0.0
 10
245.1509214306726
 20
36.01052836065717
 30
0.0
 10
245.1303982397916
 20
35.97051238816817
 30
0.0
 10
245.0816148042292
 20
35.89720276118325
 30
0.0
 10
245.0531578258534
 20
35.86391560257718
 30
0.0
 10
244.9897952033452
 20
35.81099275624685
 30
0.0
 10
244.9544761426043
 20
35.7909290898216
 30
0.0
 10
244.8796580655532
 20
35.77417009933956
 30
0.0
 10
244.8412885914885
 20
35.77836699495074
 30
0.0
 10
244.8074965027015
 20
35.79787475257318
 30
0.0
  0
LINE
  5
21B
330
1F
100
AcDbEntity
  8
0
  6
Continuous
 62
     7
370
    15
100
AcDbLine
 10
244.8074965027
 20
35.7978747526
 30
0.0
 11
243.4540363678
 21
36.5792106573
 31
0.0
  0
SPLINE
  5
21C
330
1F
100
AcDbEntity
  8
0
  6
Continuous
 62
     7
370
    15
100
AcDbSpline
210
0.0
220
0.0
230
1.0
 70
     8
 71
     3
 72
     8
 73
     4
 74
     0
 42
0.000000001
 43
0.00000001
 40
0.0
 40
0.0
 40
0.0
 40
0.0
 40
0.0011901715795577
 40
0.0011901715795577
 40
0.0011901715795577
 40
0.0011901715795577
 10
243.4540363677557
 20
36.57921065727503
 30
0.0
 10
243.4648971913983
 20
36.77716584563319
 30
0.0
 10
243.4763806383543
 20
36.97510475813475
 30
0.0
 10
243.4885421051729
 20
37.17301524434338
 30
0.0
  0
SPLINE
  5
21D
330
1F
100
AcDbEntity
  8
0
  6
Continuous
 62
     7
370
    15
100
AcDbSpline
210
0.0
220
0.0
230
1.0
 70
     8
 71
     3
 72
    10
 73
     6
 74
     0
 42
0.000000001
 43
0.00000001
 40
0.0
 40
0.0
 40
0.0
 40
0.0
 40
0.0059012164597326
 40
0.4787690122256021
 40
1.0
 40
1.0
 40
1.0
 40
1.0
 10
266.4557417987459
 20
48.24569866041056
 30
0.0
 10
266.4557947599729
 20
48.24566811706377
 30
0.0
 10
266.4600915341223
 20
48.2431901181503
 30
0.0
 10
266.443424256133
 20
48.25281888455395
 30
0.0
 10
266.4116480137025
 20
48.2711698960774
 30
0.0
 10
266.3949869308161
 20
48.28079179283595
 30
0.0
  0
ARC
  5
21E
330
1F
100
AcDbEntity
  8
0
  6
Continuous
 62
     7
370
    15
100
AcDbCircle
 10
250.4128204421
 20
36.7485040604
 30
0.0
 40
5.548849366528774
100
AcDbArc
 50
212.548574771
 51
267.4372561144
  0
SPLINE
  5
21F
330
1F
100
AcDbEntity
  8
0
  6
Continuous
 62
     7
370
    15
100
AcDbSpline
210
0.0
220
0.0
230
1.0
 70
     8
 71
     3
 72
     8
 73
     4
 74
     0
 42
0.000000001
 43
0.00000001
 40
0.0
 40
0.0
 40
0.0
 40
0.0
 40
1.0
 40
1.0
 40
1.0
 40
1.0
 10
243.8144590345303
 20
37.83255288277815
 30
0.0
 10
243.7053854541433
 20
37.61278068271892
 30
0.0
 10
243.5967738886753
 20
37.39292760104926
 30
0.0
 10
243.4885421051729
 20
37.17301524434338
 30
0.0
  0
LINE
  5
220
330
1F
100
AcDbEntity
  8
0
  6
Continuous
 62
     7
370
    15
100
AcDbLine
 10
243.872705885
 20
37.8661780738
 30
0.0
 11
243.8144590345
 21
37.8325528828
 31
0.0
  0
SPLINE
  5
221
330
1F
100
AcDbEntity
  8
0
  6
Continuous
 62
     7
370
    15
100
AcDbSpline
210
0.0
220
0.0
230
1.0
 70
     8
 71
     3
 72
    12
 73
     8
 74
     0
 42
0.000000001
 43
0.00000001
 40
0.0
 40
0.0
 40
0.0
 40
0.0
 40
0.2500000000000015
 40
0.2500000000000015
 40
0.500000000000003
 40
0.500000000000003
 40
1.0
 40
1.0
 40
1.0
 40
1.0
 10
243.8848050588185
 20
38.19972602292287
 30
0.0
 10
243.9228426663711
 20
38.17776737948562
 30
0.0
 10
243.9523160702827
 20
38.15151044288097
 30
0.0
 10
243.9911097803257
 20
38.09364243358166
 30
0.0
 10
243.9999319832722
 20
38.06286029877253
 30
0.0
 10
243.9948227105855
 20
37.96988031538577
 30
0.0
 10
243.9481989688161
 20
37.90975930345646
 30
0.0
 10
243.8727058849628
 20
37.86617807380053
 30
0.0
  0
LINE
  5
222
330
1F
100
AcDbEntity
  8
0
  6
Continuous
 62
     7
370
    15
100
AcDbLine
 10
243.0999165317
 20
38.652832525
 30
0.0
 11
243.8848050588
 21
38.1997260229
 31
0.0
  0
SPLINE
  5
223
330
1F
100
AcDbEntity
  8
0
  6
Continuous
 62
     7
370
    15
100
AcDbSpline
210
0.0
220
0.0
230
1.0
 70
     8
 71
     3
 72
    12
 73
     8
 74
     0
 42
0.000000001
 43
0.00000001
 40
0.0
 40
0.0
 40
0.0
 40
0.0
 40
0.4999999999999984
 40
0.4999999999999984
 40
0.7499999999999992
 40
0.7499999999999992
 40
1.0
 40
1.0
 40
1.0
 40
1.0
 10
242.5221319328965
 20
38.64584782059122
 30
0.0
 10
242.5980627406478
 20
38.68968174287477
 30
0.0
 10
242.701952700072
 20
38.71633908538397
 30
0.0
 10
242.8626547799043
 20
38.7192949481577
 30
0.0
 10
242.9164395803272
 20
38.71414167652175
 30
0.0
 10
243.0162084657698
 20
38.6918431739184
 30
0.0
 10
243.0617606915971
 20
38.67485942262097
 30
0.0
 10
243.0999165317014
 20
38.65283252498447
 30
0.0
  0
LINE
  5
224
330
1F
100
AcDbEntity
  8
0
  6
Continuous
 62
     7
370
    15
100
AcDbLine
 10
242.4638850825
 20
38.6122226296
 30
0.0
 11
242.5221319329
 21
38.6458478206
 31
0.0
  0
SPLINE
  5
225
330
1F
100
AcDbEntity
  8
0
  6
Continuous
 62
     7
370
    15
100
AcDbSpline
210
0.0
220
0.0
230
1.0
 70
     8
 71
     3
 72
     8
 73
     4
 74
     0
 42
0.000000001
 43
0.00000001
 40
0.0
 40
0.0
 40
0.0
 40
0.0
 40
1.0
 40
1.0
 40
1.0
 40
1.0
 10
241.3214085934859
 20
38.42407479109048
 30
0.0
 10
241.7023492442249
 20
38.4865556697634
 30
0.0
 10
242.0831872164642
 20
38.54925579189834
 30
0.0
 10
242.463885082464
 20
38.61222262956883
 30
0.0
  0
LINE
  5
226
330
1F
100
AcDbEntity
  8
0
  6
Continuous
 62
     7
370
    15
100
AcDbLine
 10
239.9654569542
 20
39.2068490106
 30
0.0
 11
241.3214085935
 21
38.4240747911
 31
0.0
  0
LINE
  5
227
330
1F
100
AcDbEntity
  8
0
  6
Continuous
 62
     7
370
    15
100
AcDbLine
 10
239.9654569542
 20
39.2068490106
 30
0.0
 11
241.9783949213
 21
40.3688933642
 31
0.0
  0
ARC
  5
228
330
1F
100
AcDbEntity
  8
0
  6
Continuous
 62
     7
370
    15
100
AcDbCircle
 10
249.6808831506
 20
38.1752948252
 30
0.0
 40
6.42814946370269
100
AcDbArc
 50
194.3767045206
 51
238.0811542583
  0
ELLIPSE
  5
229
330
1F
100
AcDbEntity
  8
0
  6
Continuous
 62
     7
370
    15
100
AcDbEllipse
 10
241.7440803463
 20
41.1573929387
 30
0.0
 11
-6.005970379874270E-5
 21
0.8534489614827194
 31
0.0
210
0.0
220
0.0
230
1.0
 40
0.7174342186
 41
3.534193645557573
 42
5.104989972352382
  0
ARC
  5
22A
330
1F
100
AcDbEntity
  8
0
  6
Continuous
 62
     7
370
    15
100
AcDbCircle
 10
246.8256405589
 20
39.385466943
 30
0.0
 40
6.019570994993633
100
AcDbArc
 50
193.141875593
 51
253.691584192
  0
SPLINE
  5
22B
330
1F
100
AcDbEntity
  8
0
  6
Continuous
 62
     7
370
    15
100
AcDbSpline
210
0.0
220
0.0
230
1.0
 70
     8
 71
     3
 72
     8
 73
     4
 74
     0
 42
0.000000001
 43
0.00000001
 40
0.0000000000000007
 40
0.0000000000000007
 40
0.0000000000000007
 40
0.0000000000000007
 40
0.0011901715795607
 40
0.0011901715795607
 40
0.0011901715795607
 40
0.0011901715795607
 10
241.3214085934868
 20
38.42407479108856
 30
0.0
 10
241.2026114775716
 20
38.28772375477317
 30
0.0
 10
241.0833683034213
 20
38.15199320863956
 30
0.0
 10
240.9637217959262
 20
38.0168386588198
 30
0.0
  0
ARC
  5
22C
330
1F
100
AcDbEntity
  8
0
  6
Continuous
 62
     7
370
    15
100
AcDbCircle
 10
249.1207483969
 20
40.4750293191
 30
0.0
 40
6.9125883682838
100
AcDbArc
 50
195.6333466245
 51
215.4318882929
  0
LINE
  5
22D
330
1F
100
AcDbEntity
  8
0
  6
Continuous
 62
     7
370
    15
100
AcDbLine
 10
239.5262952199
 20
38.9532743289
 30
0.0
 11
239.9654569542
 21
39.2068490106
 31
0.0
  0
LINE
  5
22E
330
1F
100
AcDbEntity
  8
0
  6
Continuous
 62
     7
370
    15
100
AcDbLine
 10
240.9637217959
 20
38.0168386588
 30
0.0
 11
239.6279393305
 21
38.7879694621
 31
0.0
  0
SPLINE
  5
22F
330
1F
100
AcDbEntity
  8
0
  6
Continuous
 62
     7
370
    15
100
AcDbSpline
210
0.0
220
0.0
230
1.0
 70
     8
 71
     3
 72
    10
 73
     6
 74
     0
 42
0.000000001
 43
0.00000001
 40
0.0
 40
0.0
 40
0.0
 40
0.0
 40
0.5
 40
0.5
 40
1.0
 40
1.0
 40
1.0
 40
1.0
 10
239.6279393305101
 20
38.78796946212386
 30
0.0
 10
239.6016350781332
 20
38.80315458379663
 30
0.0
 10
239.5794369640146
 20
38.8267842347305
 30
0.0
 10
239.5454250775829
 20
38.88422662754039
 30
0.0
 10
239.5335541971768
 20
38.91786490569101
 30
0.0
 10
239.5262952199127
 20
38.95327432893414
 30
0.0
  0
ARC
  5
230
330
1F
100
AcDbEntity
  8
0
  6
Continuous
 62
     7
370
    15
100
AcDbCircle
 10
245.341562403
 20
39.8331780726
 30
0.0
 40
5.691048469932207
100
AcDbArc
 50
212.7820144324
 51
239.5347399606
  0
ELLIPSE
  5
231
330
1F
100
AcDbEntity
  8
0
  6
Continuous
 62
     7
370
    15
100
AcDbEllipse
 10
241.6248415308
 20
41.0885354585
 30
0.0
 11
0.2600075789209199
 21
0.9705436209909308
 31
0.0
210
0.0
220
0.0
230
1.0
 40
0.5176380889
 41
3.619174351347692
 42
5.18997067814265
  0
SPLINE
  5
232
330
1F
100
AcDbEntity
  8
0
  6
Continuous
 62
     7
370
    15
100
AcDbSpline
210
0.0
220
0.0
230
1.0
 70
     8
 71
     3
 72
    12
 73
     8
 74
     0
 42
0.000000001
 43
0.00000001
 40
0.0
 40
0.0
 40
0.0
 40
0.0
 40
0.4999999999999996
 40
0.4999999999999996
 40
0.7499999999999998
 40
0.7499999999999998
 40
1.0
 40
1.0
 40
1.0
 40
1.0
 10
259.0802717676265
 20
61.42813949397588
 30
0.0
 10
259.1427150934512
 20
61.4641872586762
 30
0.0
 10
259.2220516986733
 20
61.48984625873399
 30
0.0
 10
259.3529250620144
 20
61.50163001874046
 30
0.0
 10
259.3976973743854
 20
61.50081974653693
 30
0.0
 10
259.4829592903887
 20
61.48727126614958
 30
0.0
 10
259.522375497507
 20
61.47450665514017
 30
0.0
 10
259.5536151577569
 20
61.45647238314822
 30
0.0
  0
LINE
  5
233
330
1F
100
AcDbEntity
  8
0
  6
Continuous
 62
     7
370
    15
100
AcDbLine
 10
259.5536151578
 20
61.4564723831
 30
0.0
 11
260.7052784232
 21
60.7916313315
 31
0.0
  0
SPLINE
  5
234
330
1F
100
AcDbEntity
  8
0
  6
Continuous
 62
     7
370
    15
100
AcDbSpline
210
0.0
220
0.0
230
1.0
 70
     8
 71
     3
 72
     9
 73
     5
 74
     0
 42
0.000000001
 43
0.00000001
 40
0.0
 40
0.0
 40
0.0
 40
0.0
 40
0.8664449205980815
 40
1.0
 40
1.0
 40
1.0
 40
1.0
 10
262.2723595414017
 20
59.01131747716312
 30
0.0
 10
262.5915362087513
 20
59.080607629306
 30
0.0
 10
262.959911231516
 20
59.16057826621049
 30
0.0
 10
263.3302513862336
 20
59.23744732504339
 30
0.0
 10
263.3797121950026
 20
59.24771357829938
 30
0.0
  0
LINE
  5
235
330
1F
100
AcDbEntity
  8
0
  6
Continuous
 62
     7
370
    15
100
AcDbLine
 10
263.379712195
 20
59.2477135783
 30
0.0
 11
264.7331723299
 21
58.4663776736
 31
0.0
  0
SPLINE
  5
236
330
1F
100
AcDbEntity
  8
0
  6
Continuous
 62
     7
370
    15
100
AcDbSpline
210
0.0
220
0.0
230
1.0
 70
     8
 71
     3
 72
    14
 73
    10
 74
     0
 42
0.000000001
 43
0.00000001
 40
0.0
 40
0.0
 40
0.0
 40
0.0
 40
0.25
 40
0.25
 40
0.5
 40
0.5
 40
0.75
 40
0.75
 40
1.0
 40
1.0
 40
1.0
 40
1.0
 10
264.7331723299483
 20
58.46637767359754
 30
0.0
 10
264.7644344181064
 20
58.44833045424975
 30
0.0
 10
264.7867017902026
 20
58.42524113880944
 30
0.0
 10
264.8098551881909
 20
58.37662978554074
 30
0.0
 10
264.8113753581868
 20
58.35063000397562
 30
0.0
 10
264.7979301874159
 20
58.30049707458819
 30
0.0
 10
264.7832306817678
 20
58.2763067594768
 30
0.0
 10
264.7415856867921
 20
58.23135631670421
 30
0.0
 10
264.7152734032746
 20
58.21112240962245
 30
0.0
 10
264.6840930085299
 20
58.19312235087839
 30
0.0
  0
LINE
  5
237
330
1F
100
AcDbEntity
  8
0
  6
Continuous
 62
     7
370
    15
100
AcDbLine
 10
259.0802717676
 20
61.428139494
 30
0.0
 11
258.5723510779
 21
61.1349231211
 31
0.0
  0
SPLINE
  5
238
330
1F
100
AcDbEntity
  8
0
  6
Continuous
 62
     7
370
    15
100
AcDbSpline
210
0.0
220
0.0
230
1.0
 70
     8
 71
     3
 72
    13
 73
     9
 74
     0
 42
0.000000001
 43
0.00000001
 40
0.0
 40
0.0
 40
0.0
 40
0.0
 40
0.1991081556287206
 40
0.4038362870660659
 40
0.6030467867018525
 40
0.8091154722977187
 40
0.990737674174989
 40
1.0
 40
1.0
 40
1.0
 40
1.0
 10
266.3949869308161
 20
55.09728508685259
 30
0.0
 10
266.4049549831837
 20
55.11617509313153
 30
0.0
 10
266.4251724436121
 20
55.15448829016886
 30
0.0
 10
266.4449092889741
 20
55.21565129441197
 30
0.0
 10
266.4563170067856
 20
55.27856977961886
 30
0.0
 10
266.4558543406081
 20
55.33773273517667
 30
0.0
 10
266.4515412134202
 20
55.37744499248905
 30
0.0
 10
266.4449094106184
 20
55.39403632610795
 30
0.0
 10
266.4445876144042
 20
55.3948413905084
 30
0.0
  0
LINE
  5
239
330
1F
100
AcDbEntity
  8
0
  6
Continuous
 62
     7
370
    15
100
AcDbLine
 10
266.2896234323
 20
48.341636619
 30
0.0
 11
264.5527789107
 21
49.3442956191
 31
0.0
  0
LWPOLYLINE
  5
23A
330
1F
100
AcDbEntity
  8
0
  6
Continuous
 62
     7
370
     0
100
AcDbPolyline
 90
       23
 70
   128
 43
0.0
 10
244.8074965027
 20
43.1456610764
 10
245.1219788302
 20
44.3855816686
 10
245.5143314989
 20
45.6351942191
 10
245.9816309636
 20
46.8851874656
 10
246.5203952269
 20
48.1262473092
 10
247.126609784
 20
49.3491262166
 10
247.7957575367
 20
50.5447121265
 10
248.5228524514
 20
51.7040963462
 10
249.3024767115
 20
52.8186399337
 10
250.1288210878
 20
53.8800380687
 10
250.9957282243
 20
54.8803819347
 10
251.8967385189
 20
55.8122176499
 10
252.8251382563
 20
56.6686018089
 10
253.7740096335
 20
57.4431532197
 10
254.7362823066
 20
58.1301004523
 10
255.7047860747
 20
58.7243248435
 10
256.6723043068
 20
59.2213986376
 10
257.6316277155
 20
59.6176179789
 10
258.5756080757
 20
59.9100305105
 10
259.4972114882
 20
60.0964573733
 10
260.3895707915
 20
60.1755094412
 10
261.2460367316
 20
60.146597672
 10
262.060227507
 20
60.0099374964
  0
LWPOLYLINE
  5
23B
330
1F
100
AcDbEntity
  8
0
  6
Continuous
 62
     7
370
     0
100
AcDbPolyline
 90
       23
 70
   128
 43
0.0
 10
245.1678296282
 20
42.8160375229
 10
245.4654792064
 20
44.0498925288
 10
245.8426282906
 20
45.2954109481
 10
246.2963713031
 20
46.5429972373
 10
246.8232125823
 20
47.7830399218
 10
247.4190933137
 20
49.0059856435
 10
248.0794227987
 20
50.2024127602
 10
248.799113822
 20
51.3631039304
 10
249.5726218438
 20
52.4791171245
 10
250.393987715
 20
53.5418545145
 10
251.256883587
 20
54.543128712
 10
252.1546616618
 20
55.4752258446
 10
253.0804054069
 20
56.330964984
 10
254.0269828406
 20
57.1037534679
 10
254.9871014777
 20
57.7876376907
 10
255.9533645103
 20
58.37734897
 10
256.918327794
 20
58.8683441373
 10
257.8745571978
 20
59.2568405382
 10
258.8146858769
 20
59.5398451748
 10
259.7314710273
 20
59.7151777636
 10
260.617849685
 20
59.7814875324
 10
261.4669931393
 20
59.7382636272
 10
262.2723595414
 20
59.5858390472
  0
ARC
  5
23C
330
1F
100
AcDbEntity
  8
0
  6
Continuous
 62
     7
370
     0
100
AcDbCircle
 10
244.1017788611
 20
53.0487616369
 30
0.0
 40
22.79738279880896
100
AcDbArc
 50
341.024953256
 51
347.9277193911
  0
LWPOLYLINE
  5
23D
330
1F
100
AcDbEntity
  8
0
  6
Continuous
 62
     7
370
     0
100
AcDbPolyline
 90
       22
 70
   128
 43
0.0
 10
260.6607645125
 20
36.975559582
 10
260.4000014188
 20
36.6812176519
 10
259.5167371821
 20
35.7531652221
 10
258.6054329647
 20
34.8988224959
 10
257.6729356019
 20
34.1246083438
 10
256.7262511576
 20
33.4363396123
 10
255.7724922866
 20
32.8391874202
 10
254.8188247956
 20
32.3376383074
 10
253.8724138044
 20
31.9354605261
 10
252.9403699135
 20
31.6356757289
 10
252.0296957797
 20
31.4405362671
 10
251.1472335042
 20
31.3515082677
 10
250.2996132261
 20
31.3692606182
 10
249.4932033087
 20
31.4936599411
 10
248.7340624925
 20
31.7237715962
 10
248.0278943744
 20
32.0578667025
 10
247.3800045555
 20
32.4934351276
 10
246.7952607789
 20
33.0272043473
 10
246.2780563572
 20
33.6551640325
 10
245.8322771644
 20
34.3725961798
 10
245.4612724405
 20
35.1741105587
 10
245.1678296282
 20
36.0536852102
  0
ARC
  5
23E
330
1F
100
AcDbEntity
  8
0
  6
Continuous
 62
     7
370
     0
100
AcDbCircle
 10
259.5962289331
 20
53.3606723099
 30
0.0
 40
7.017045977378948
100
AcDbArc
 50
14.3287300663
 51
43.5251561868
  0
LWPOLYLINE
  5
23F
330
1F
100
AcDbEntity
  8
0
  6
Continuous
 62
     7
370
     0
100
AcDbPolyline
 90
       24
 70
   128
 43
0.0
 10
251.1884607463
 20
42.91049773
 10
251.2294703424
 20
43.6415946178
 10
251.3517673135
 20
44.4069937362
 10
251.5531692672
 20
45.1930365196
 10
251.830082181
 20
45.9856960162
 10
252.1775645372
 20
46.7708271982
 10
252.5894155051
 20
47.5344193813
 10
253.0582855943
 20
48.2628462447
 10
253.575807807
 20
48.943108994
 10
254.132746947
 20
49.5630683241
 10
254.7191644223
 20
50.1116610462
 10
255.324595599
 20
50.5790975101
 10
255.9382365434
 20
50.9570363011
 10
256.5491368185
 20
51.2387330925
 10
257.1463948943
 20
51.4191609983
 10
257.7193526862
 20
51.4951002784
 10
258.2577857489
 20
51.4651957944
 10
258.7520857318
 20
51.3299811926
 10
259.1934318397
 20
51.0918693808
 10
259.5739482411
 20
50.7551094699
 10
259.8868446116
 20
50.3257109484
 10
260.1265373083
 20
49.8113364432
 10
260.2887490091
 20
49.2211649795
 10
260.361276372
 20
48.6951430164
  0
LWPOLYLINE
  5
240
330
1F
100
AcDbEntity
  8
0
  6
Continuous
 62
     7
370
     0
100
AcDbPolyline
 90
       13
 70
   128
 43
0.0
 10
255.3616827088
 20
40.0346543926
 10
255.324595599
 20
40.0173776019
 10
254.7191644223
 20
39.7857981081
 10
254.132746947
 20
39.657327625
 10
253.575807807
 20
39.6342587113
 10
253.0582855943
 20
39.7170030323
 10
252.5894155051
 20
39.9040840136
 10
252.1775645372
 20
40.1921631907
 10
251.830082181
 20
40.576099784
 10
251.5531692672
 20
41.0490424356
 10
251.3517673135
 20
41.6025514729
 10
251.2294703424
 20
42.226749514
 10
251.1884607463
 20
42.91049773
  0
LWPOLYLINE
  5
241
330
1F
100
AcDbEntity
  8
0
  6
Continuous
 62
     7
370
     0
100
AcDbPolyline
 90
       23
 70
   128
 43
0.0
 10
239.6279393305
 20
46.1357557859
 10
239.942421658
 20
47.3756763781
 10
240.3347743267
 20
48.6252889286
 10
240.8020737914
 20
49.8752821752
 10
241.3408380547
 20
51.1163420188
 10
241.9470526118
 20
52.3392209262
 10
242.6162003645
 20
53.534806836
 10
243.3432952792
 20
54.6941910558
 10
244.1229195394
 20
55.8087346433
 10
244.9492639156
 20
56.8701327783
 10
245.8161710521
 20
57.8704766442
 10
246.7171813468
 20
58.8023123595
 10
247.6455810841
 20
59.6586965185
 10
248.5944524613
 20
60.4332479292
 10
249.5567251344
 20
61.1201951619
 10
250.5252289025
 20
61.7144195531
 10
251.4927471346
 20
62.2114933471
 10
252.4520705433
 20
62.6077126884
 10
253.3960509035
 20
62.90012522
 10
254.317654316
 20
63.0865520829
 10
255.2100136193
 20
63.1656041507
 10
256.0664795594
 20
63.1366923815
 10
256.8806703349
 20
63.000032206
  0
LWPOLYLINE
  5
242
330
1F
100
AcDbEntity
  8
0
  6
Continuous
 62
     7
370
     0
100
AcDbPolyline
 90
       19
 70
   128
 43
0.0
 10
243.0999165317
 20
45.2259860607
 10
243.3964151188
 20
46.3745954719
 10
243.7683043741
 20
47.5317279914
 10
244.2125318383
 20
48.6878858994
 10
244.7254513016
 20
49.8335794755
 10
245.3028527315
 20
50.9594048905
 10
245.939996829
 20
52.0561213925
 10
246.6316539285
 20
53.1147271551
 10
247.3721469227
 20
54.126533164
 10
248.1553978604
 20
55.0832345363
 10
248.9749778341
 20
55.9769786869
 10
249.8241597481
 20
56.8004297822
 10
250.6959735349
 20
57.5468289525
 10
251.5832633649
 20
58.2100497688
 10
252.4787463813
 20
58.7846485284
 10
253.3750724781
 20
59.2659089365
 10
254.2648846291
 20
59.6498808175
 10
255.1408792744
 20
59.9334125381
 10
255.2099381682
 20
59.9516268256
  0
LWPOLYLINE
  5
243
330
1F
100
AcDbEntity
  8
0
  6
Continuous
 62
     7
370
     0
100
AcDbPolyline
 90
       22
 70
   128
 43
0.0
 10
242.5221319329
 20
45.2190013563
 10
242.8172180264
 20
46.3898929222
 10
243.1889205352
 20
47.570371254
 10
243.6342358404
 20
48.7508972525
 10
244.1495654796
 20
49.9219314335
 10
244.7307452252
 20
51.0740110132
 10
245.3730787341
 20
52.1978263744
 10
246.0713754975
 20
53.2842962948
 10
246.8199927843
 20
54.3246413298
 10
247.6128812377
 20
55.3104547561
 10
248.4436337586
 20
56.2337705047
 10
249.3055372796
 20
57.0871275318
 10
250.1916270111
 20
57.8636301095
 10
251.0947427221
 20
58.5570035484
 10
252.0075865992
 20
59.1616449011
 10
252.9227822188
 20
59.672668238
 10
253.8329341537
 20
60.0859441295
 10
254.7306877329
 20
60.3981330144
 10
255.6087884731
 20
60.6067121859
 10
256.4601406999
 20
60.7099961767
 10
257.2778648855
 20
60.7071503794
 10
257.2830504252
 20
60.7067846595
  0
ARC
  5
244
330
1F
100
AcDbEntity
  8
0
  6
Continuous
 62
     7
370
     0
100
AcDbCircle
 10
255.7689329714
 20
42.6442004192
 30
0.0
 40
2.473528296590391
100
AcDbArc
 50
173.8196216534
 51
234.8681979532
  0
LWPOLYLINE
  5
245
330
1F
100
AcDbEntity
  8
0
  6
Continuous
 62
     7
370
     0
100
AcDbPolyline
 90
       17
 70
   128
 43
0.0
 10
259.3451118274
 20
49.2817623215
 10
259.0496843303
 20
49.4160599065
 10
258.6130819488
 20
49.507753581
 10
258.1369905747
 20
49.4976684817
 10
257.6320453026
 20
49.3860298931
 10
257.1095257755
 20
49.1753316369
 10
256.5811042161
 20
48.8702803639
 10
256.058584689
 20
48.4776904155
 10
255.5536394169
 20
48.0063316023
 10
255.0775480428
 20
47.4667333014
 10
254.6409456613
 20
46.8709492471
 10
254.2535852481
 20
46.2322882708
 10
253.9241197948
 20
45.5650170033
 10
253.6599090151
 20
44.884041182
 10
253.4668549414
 20
44.2045726815
 10
253.3492700824
 20
43.5417897053
 10
253.3097810899
 20
42.91049773
  0
LWPOLYLINE
  5
246
330
1F
100
AcDbEntity
  8
0
  6
Continuous
 62
     7
370
     0
100
AcDbPolyline
 90
       34
 70
   128
 43
0.0
 10
263.0148216616
 20
38.7366112583
 10
263.056351269
 20
39.2628127257
 10
263.1794391027
 20
39.8179449649
 10
263.3796364478
 20
40.3819440506
 10
263.6497076506
 20
40.9344255863
 10
263.9798916343
 20
41.4554214498
 10
264.3582546892
 20
41.9261014932
 10
264.7711217889
 20
42.3294541133
 10
265.2035708406
 20
42.6509010955
 10
265.6399720089
 20
42.8788245085
 10
266.0645526185
 20
43.0049866061
 10
266.4619672199
 20
43.0248275614
 10
266.817852214
 20
42.9376302707
 10
267.1193449899
 20
42.7465462713
 10
267.3555488131
 20
42.4584818366
 10
267.517926662
 20
42.083848366
 10
267.600609778
 20
41.6361860892
 10
267.600609778
 20
41.1316746871
 10
267.517926662
 20
40.5885485165
 10
267.3555488131
 20
40.0264375721
 10
267.1193449899
 20
39.4656580081
 10
266.817852214
 20
38.9264778591
 10
266.4619672199
 20
38.4283845004
 10
266.0645526185
 20
37.9893803237
 10
265.6399720089
 20
37.6253320839
 10
265.2035708406
 20
37.3493974329
 10
264.7711217889
 20
37.1715493678
 10
264.3582546892
 20
37.0982157811
 10
263.9798916343
 20
37.1320471398
 10
263.6497076506
 20
37.2718206904
 10
263.3796364478
 20
37.5124846525
 10
263.1794391027
 20
37.8453408035
 10
263.056351269
 20
38.258358855
 10
263.0148216616
 20
38.7366112583
  0
LWPOLYLINE
  5
247
330
1F
100
AcDbEntity
  8
0
  6
Continuous
 62
     7
370
     0
100
AcDbPolyline
 90
       18
 70
   128
 43
0.0
 10
266.3456605488
 20
42.6423155606
 10
266.434803598
 20
42.5817774553
 10
266.6595704687
 20
42.3386233751
 10
266.8147307405
 20
42.0106722031
 10
266.8939321336
 20
41.6113502989
 10
266.8939321336
 20
41.1570059481
 10
266.8147307405
 20
40.6662400619
 10
266.6595704687
 20
40.1591446533
 10
266.434803598
 20
39.6564802679
 10
266.1496321103
 20
39.1788260448
 10
265.8157309601
 20
38.7457372038
 10
265.4467700994
 20
38.3749444531
 10
265.0578548295
 20
38.0816280915
 10
264.664907387
 20
37.8777965252
 10
264.2840150865
 20
37.7717946425
 10
263.9307717035
 20
37.767962173
 10
263.6196390636
 20
37.8664560183
 10
263.5844770525
 20
37.8857420964
  0
LINE
  5
248
330
1F
100
AcDbEntity
  8
0
  6
Continuous
 62
     7
370
     0
100
AcDbLine
 10
247.7943481966
 20
43.58446238
 30
0.0
 11
247.2285708244
 21
43.9110787047
 31
0.0
  0
LWPOLYLINE
  5
249
330
1F
100
AcDbEntity
  8
0
  6
Continuous
 62
     7
370
     0
100
AcDbPolyline
 90
        3
 70
   128
 43
0.0
 10
242.1116835979
 20
44.2638968942
 10
242.1109774428
 20
44.385134882
 10
242.1357763744
 20
45.1197782386
  0
LINE
  5
24A
330
1F
100
AcDbEntity
  8
0
  6
Continuous
 62
     7
370
     0
100
AcDbLine
 10
242.3097657712
 20
41.4839561834
 30
0.0
 11
247.7943481966
 21
38.3177741433
 31
0.0
  0
LINE
  5
24B
330
1F
100
AcDbEntity
  8
0
  6
Continuous
 62
     7
370
     0
100
AcDbLine
 10
242.1905269557
 20
41.4150987033
 30
0.0
 11
242.3097657712
 21
41.4839561834
 31
0.0
  0
LWPOLYLINE
  5
24C
330
1F
100
AcDbEntity
  8
0
  6
Continuous
 62
     7
370
     0
100
AcDbPolyline
 90
       18
 70
   128
 43
0.0
 10
220.8390945844
 20
60.6770982594
 10
220.879916988
 20
61.3898299327
 10
221.0016237545
 20
62.1364173074
 10
221.2019477173
 20
62.9029528733
 10
221.4771572198
 20
63.6751575232
 10
221.8221256299
 20
64.4386465454
 10
222.2304268387
 20
65.179197584
 10
222.6944549671
 20
65.8830155745
 10
223.2055660493
 20
66.5369897193
 10
223.7542390528
 20
67.1289377174
 10
224.3302532375
 20
67.6478326976
 10
224.9228785493
 20
68.0840086284
 10
225.5210754997
 20
68.4293403773
 10
226.1137008114
 20
68.6773950672
 10
226.6897149962
 20
68.8235519087
 10
227.2383879997
 20
68.8650882762
 10
227.7494990818
 20
68.801230426
 10
227.9847307796
 20
68.7312411595
  0
ARC
  5
24D
330
1F
100
AcDbEntity
  8
0
  6
Continuous
 62
     7
370
     0
100
AcDbCircle
 10
224.2505780973
 20
60.4518707322
 30
0.0
 40
3.418910235415896
100
AcDbArc
 50
176.2227909
 51
223.9742602738
  0
ARC
  5
24E
330
1F
100
AcDbEntity
  8
0
  6
Continuous
 62
     7
370
     0
100
AcDbCircle
 10
252.1845932246
 20
37.9334360669
 30
0.0
 40
7.679985558026707
100
AcDbArc
 50
196.1449546969
 51
212.8886373485
  0
LINE
  5
24F
330
1F
100
AcDbEntity
  8
0
  6
Continuous
 62
     7
370
     0
100
AcDbLine
 10
247.2286627717
 20
37.3379782491
 30
0.0
 11
241.9783949213
 21
40.3688933642
 31
0.0
  0
LINE
  5
250
330
1F
100
AcDbEntity
  8
0
  6
Continuous
 62
     7
370
     0
100
AcDbLine
 10
243.9629649518
 20
37.9579296138
 30
0.0
 11
243.8848050588
 21
38.1997260229
 31
0.0
  0
LWPOLYLINE
  5
251
330
1F
100
AcDbEntity
  8
0
  6
Continuous
 62
     7
370
     0
100
AcDbPolyline
 90
        3
 70
   128
 43
0.0
 10
243.6044380175
 20
37.4119576949
 10
243.4016035633
 20
37.834675084
 10
243.0999165317
 20
38.652832525
  0
ARC
  5
252
330
1F
100
AcDbEntity
  8
0
  6
Continuous
 62
     7
370
     0
100
AcDbCircle
 10
249.191367174
 20
40.5328445169
 30
0.0
 40
6.931050081526704
100
AcDbArc
 50
195.7983562482
 51
213.9203570807
  0
ARC
  5
253
330
1F
100
AcDbEntity
  8
0
  6
Continuous
 62
     7
370
     0
100
AcDbCircle
 10
247.0043747343
 20
40.923273957
 30
0.0
 40
7.679278908341312
100
AcDbArc
 50
196.1444861465
 51
212.9026097258
  0
LINE
  5
254
330
1F
100
AcDbEntity
  8
0
  6
Continuous
 62
     7
370
     0
100
AcDbLine
 10
264.5527789182
 20
47.992104104
 30
0.0
 11
265.1184643357
 21
47.6655408636
 31
0.0
  0
OLE2FRAME
  5
255
330
1F
100
AcDbEntity
  8
0
100
AcDbOle2Frame
 70
     2
  3
Paintbrush-Bild
 10
13.8511154363
 20
38.264191557
 30
0.0
 11
51.6290888628
 21
31.9806341108
 31
0.0
 71
     2
 72
     0
 73
     1
 90
    12928
310
80552BED0767C5B32B40DDAF6807D121434000000000000000006FFBDDFB85D0
310
4940DDAF6807D121434000000000000000006FFBDDFB85D04940416F4BD60AFB
310
3F4000000000000000002BED0767C5B32B40416F4BD60AFB3F40000000000000
310
0000000000000100000000010000010000000100000000000100000000320000
310
D0CF11E0A1B11AE1000000000000000000000000000000003E000300FEFF0900
310
0600000000000000000000000100000001000000000000000010000002000000
310
01000000FEFFFFFF0000000000000000FFFFFFFFFFFFFFFFFFFFFFFFFFFFFFFF
310
FFFFFFFFFFFFFFFFFFFFFFFFFFFFFFFFFFFFFFFFFFFFFFFFFFFFFFFFFFFFFFFF
310
FFFFFFFFFFFFFFFFFFFFFFFFFFFFFFFFFFFFFFFFFFFFFFFFFFFFFFFFFFFFFFFF
310
FFFFFFFFFFFFFFFFFFFFFFFFFFFFFFFFFFFFFFFFFFFFFFFFFFFFFFFFFFFFFFFF
310
FFFFFFFFFFFFFFFFFFFFFFFFFFFFFFFFFFFFFFFFFFFFFFFFFFFFFFFFFFFFFFFF
310
FFFFFFFFFFFFFFFFFFFFFFFFFFFFFFFFFFFFFFFFFFFFFFFFFFFFFFFFFFFFFFFF
310
FFFFFFFFFFFFFFFFFFFFFFFFFFFFFFFFFFFFFFFFFFFFFFFFFFFFFFFFFFFFFFFF
310
FFFFFFFFFFFFFFFFFFFFFFFFFFFFFFFFFFFFFFFFFFFFFFFFFFFFFFFFFFFFFFFF
310
FFFFFFFFFFFFFFFFFFFFFFFFFFFFFFFFFFFFFFFFFFFFFFFFFFFFFFFFFFFFFFFF
310
FFFFFFFFFFFFFFFFFFFFFFFFFFFFFFFFFFFFFFFFFFFFFFFFFFFFFFFFFFFFFFFF
310
FFFFFFFFFFFFFFFFFFFFFFFFFFFFFFFFFFFFFFFFFFFFFFFFFFFFFFFFFFFFFFFF
310
FFFFFFFFFFFFFFFFFFFFFFFFFFFFFFFFFFFFFFFFFFFFFFFFFFFFFFFFFFFFFFFF
310
FFFFFFFFFFFFFFFFFFFFFFFFFFFFFFFFFFFFFFFFFFFFFFFFFFFFFFFFFFFFFFFF
310
FFFFFFFFFFFFFFFFFFFFFFFFFFFFFFFFFFFFFFFFFFFFFFFFFFFFFFFFFFFFFFFF
310
FDFFFFFFFEFFFFFFFEFFFFFFFEFFFFFF05000000060000000700000008000000
310
090000000A0000000B0000000C0000000D0000000E0000000F00000010000000
310
11000000120000001300000014000000150000001600000017000000FEFFFFFF
310
FFFFFFFFFFFFFFFFFFFFFFFFFFFFFFFFFFFFFFFFFFFFFFFFFFFFFFFFFFFFFFFF
310
FFFFFFFFFFFFFFFFFFFFFFFFFFFFFFFFFFFFFFFFFFFFFFFFFFFFFFFFFFFFFFFF
310
FFFFFFFFFFFFFFFFFFFFFFFFFFFFFFFFFFFFFFFFFFFFFFFFFFFFFFFFFFFFFFFF
310
FFFFFFFFFFFFFFFFFFFFFFFFFFFFFFFFFFFFFFFFFFFFFFFFFFFFFFFFFFFFFFFF
310
FFFFFFFFFFFFFFFFFFFFFFFFFFFFFFFFFFFFFFFFFFFFFFFFFFFFFFFFFFFFFFFF
310
FFFFFFFFFFFFFFFFFFFFFFFFFFFFFFFFFFFFFFFFFFFFFFFFFFFFFFFFFFFFFFFF
310
FFFFFFFFFFFFFFFFFFFFFFFFFFFFFFFFFFFFFFFFFFFFFFFFFFFFFFFFFFFFFFFF
310
FFFFFFFFFFFFFFFFFFFFFFFFFFFFFFFFFFFFFFFFFFFFFFFFFFFFFFFFFFFFFFFF
310
FFFFFFFFFFFFFFFFFFFFFFFFFFFFFFFFFFFFFFFFFFFFFFFFFFFFFFFFFFFFFFFF
310
FFFFFFFFFFFFFFFFFFFFFFFFFFFFFFFFFFFFFFFFFFFFFFFFFFFFFFFFFFFFFFFF
310
FFFFFFFFFFFFFFFFFFFFFFFFFFFFFFFFFFFFFFFFFFFFFFFFFFFFFFFFFFFFFFFF
310
FFFFFFFFFFFFFFFFFFFFFFFFFFFFFFFFFFFFFFFFFFFFFFFFFFFFFFFFFFFFFFFF
310
FFFFFFFFFFFFFFFFFFFFFFFFFFFFFFFFFFFFFFFFFFFFFFFFFFFFFFFFFFFFFFFF
310
52006F006F007400200045006E00740072007900000000000000000000000000
310
0000000000000000000000000000000000000000000000000000000000000000
310
16000500FFFFFFFFFFFFFFFF020000000A00030000000000C000000000000046
310
00000000000000000000000010FAAF6D6224D20103000000C000000000000000
310
01004F006C006500000000000000000000000000000000000000000000000000
310
0000000000000000000000000000000000000000000000000000000000000000
310
0A000200FFFFFFFFFFFFFFFFFFFFFFFF00000000000000000000000000000000
310
0000000000000000000000000000000000000000000000001400000000000000
310
010043006F006D0070004F0062006A0000000000000000000000000000000000
310
0000000000000000000000000000000000000000000000000000000000000000
310
120002010100000003000000FFFFFFFF00000000000000000000000000000000
310
0000000000000000000000000000000000000000010000004D00000000000000
310
01004F006C006500310030004E00610074006900760065000000000000000000
310
0000000000000000000000000000000000000000000000000000000000000000
310
1A000200FFFFFFFFFFFFFFFFFFFFFFFF00000000000000000000000000000000
310
0000000000000000000000000000000000000000040000002426000000000000
310
FEFFFFFF02000000FEFFFFFFFFFFFFFFFFFFFFFFFFFFFFFFFFFFFFFFFFFFFFFF
310
FFFFFFFFFFFFFFFFFFFFFFFFFFFFFFFFFFFFFFFFFFFFFFFFFFFFFFFFFFFFFFFF
310
FFFFFFFFFFFFFFFFFFFFFFFFFFFFFFFFFFFFFFFFFFFFFFFFFFFFFFFFFFFFFFFF
310
FFFFFFFFFFFFFFFFFFFFFFFFFFFFFFFFFFFFFFFFFFFFFFFFFFFFFFFFFFFFFFFF
310
FFFFFFFFFFFFFFFFFFFFFFFFFFFFFFFFFFFFFFFFFFFFFFFFFFFFFFFFFFFFFFFF
310
FFFFFFFFFFFFFFFFFFFFFFFFFFFFFFFFFFFFFFFFFFFFFFFFFFFFFFFFFFFFFFFF
310
FFFFFFFFFFFFFFFFFFFFFFFFFFFFFFFFFFFFFFFFFFFFFFFFFFFFFFFFFFFFFFFF
310
FFFFFFFFFFFFFFFFFFFFFFFFFFFFFFFFFFFFFFFFFFFFFFFFFFFFFFFFFFFFFFFF
310
FFFFFFFFFFFFFFFFFFFFFFFFFFFFFFFFFFFFFFFFFFFFFFFFFFFFFFFFFFFFFFFF
310
FFFFFFFFFFFFFFFFFFFFFFFFFFFFFFFFFFFFFFFFFFFFFFFFFFFFFFFFFFFFFFFF
310
FFFFFFFFFFFFFFFFFFFFFFFFFFFFFFFFFFFFFFFFFFFFFFFFFFFFFFFFFFFFFFFF
310
FFFFFFFFFFFFFFFFFFFFFFFFFFFFFFFFFFFFFFFFFFFFFFFFFFFFFFFFFFFFFFFF
310
FFFFFFFFFFFFFFFFFFFFFFFFFFFFFFFFFFFFFFFFFFFFFFFFFFFFFFFFFFFFFFFF
310
FFFFFFFFFFFFFFFFFFFFFFFFFFFFFFFFFFFFFFFFFFFFFFFFFFFFFFFFFFFFFFFF
310
FFFFFFFFFFFFFFFFFFFFFFFFFFFFFFFFFFFFFFFFFFFFFFFFFFFFFFFFFFFFFFFF
310
FFFFFFFFFFFFFFFFFFFFFFFFFFFFFFFFFFFFFFFFFFFFFFFFFFFFFFFFFFFFFFFF
310
0100000200000000000000000000000000000000000000000000000000000000
310
0000000000000000000000000000000000000000000000000000000000000000
310
0100FEFF030A0000FFFFFFFF0A00030000000000C00000000000004607000000
310
5042727573680007000000504272757368000700000050427275736800F439B2
310
7100000000000000000000000000000000000000000000000000000000000000
310
0000000000000000000000000000000000000000000000000000000000000000
310
0000000000000000000000000000000000000000000000000000000000000000
310
0000000000000000000000000000000000000000000000000000000000000000
310
0000000000000000000000000000000000000000000000000000000000000000
310
0000000000000000000000000000000000000000000000000000000000000000
310
0000000000000000000000000000000000000000000000000000000000000000
310
0000000000000000000000000000000000000000000000000000000000000000
310
0000000000000000000000000000000000000000000000000000000000000000
310
0000000000000000000000000000000000000000000000000000000000000000
310
0000000000000000000000000000000000000000000000000000000000000000
310
0000000000000000000000000000000000000000000000000000000000000000
310
20260000424D0E260000000000003E00000028000000B40200006E0000000100
310
01000000000000000000130B0000130B00000200000002000000000000FFFFFF
310
FFFFFFFFFFFFFFFFFFFFFFFFFFFFFFFFFFFFFFFFFFFFFFFFFFFFFFFFFFFFFFFF
310
FFFFFFFFFFFFFFFFFFFFFFFFFFFFFFFFFFFFFFFFFFFFFFFFFFFFFFFFFFFFFFFF
310
FFFFFFFFFFFFFFFFFFFFFFFFFFFFFFFFFFFFFFFFFFFFFFFFF000FFFFFFFFFFFF
310
FFFFFFFFFFFFFFFFFFFFFFFFFFFFFFFFFFFFFFFFFFFFFFFFFFFFFFFFFFFFFFFF
310
FFFFFFFFFFFFFFFFFFFFFFFFFFFFFFFFFFFFFFFFFFFFFFFFFFFFFFFFFFFFFFFF
310
FFFFFFFFFFFFFFFFFFFFFFFFFFFFFFFFF000FFFFFFFFFFFFFFFFFFFFFFFFFFFF
310
FFFFFFFFFFFFFFFFFFFFFFFFFFFFFFFFFFFFFFFFFFFFFFFFFFFFFFFFFFFFFFFF
310
FFFFFFFFFFFFFFFFFFFFFFFFFFFFFFFFFFFFFFFFFFFFFFFFFFFFFFFFFFFFFFFF
310
FFFFFFFFFFFFFFFFF000FFFFFFFFFFFFFFFFFFFFFFFFFFFFFFFFFFFFFFFFFFFF
310
FFFFFFFFFFFFFFFFFFFFFFFFFFFFFFFFFFFFFFFFFFFFFFFFFFFFFFFFFFFFFFFF
310
FFFFFFFFFFFFFFFFFFFFFFFFFFFFFFFFFFFFFFFFFFFFFFFFFFFFFFFFFFFFFFFF
310
F000FFFFFFFFFFFFFFFFFFFFFFFFFFFFFFFFFFFFFFFFFFFFFFFFFFFFFFFFFFFF
310
FFFFFFFFFFFFFFFFFFFFFFFFFFFFFFFFFFFFFFFFFFFFFFFFFFFFFFFFFFFFFFFF
310
FFFFFFFFFFFFFFFFFFFFFFFFFFFFFFFFFFFFFFFFFFFFFFFFF000FFFFFFFFFFFF
310
FFFFFFFFFFFFFFFFFFFFFFFFFFFFFFFFFFFFFFFFFFFFFFFFFFFFFFFFFFFFFFFF
310
FFFFFFFFFFFFFFFFFFFFFFFFFFFFFFFFFFFFFFFFFFFFFFFFFFFFFFFFFFFFFFFF
310
FFFFFFFFFFFFFFFFFFFFFFFFFFFFFFFFF000FFFFFFFFFFFFFFFFFFFFFFFFFFFF
310
FFFFFFFFFFFFFFFFFFFFFFFFFFFFFFFFFFFFFFFFFFFFFFFFFFFFFFFFFFFFFFFF
310
FFFFFFFFFFFFFFFFFFFFFFFFFFFFFFFFFFFFFFFFFFFFFFFFFFFFFFFFFFFFFFFF
310
FFFFFFFFFFFFFFFFF000FFFFFFFFFFFFFFFFFFFFFFFFFFFFFFFFFFFFFFFFFFFF
310
FFFFFFFFFFFFFFFFFFFFFFFFFFFFFFFFFFFFFFFFFFFFFFFFFFFFFFFFFFFFFFFF
310
FFFFFFFFFFFFFFFFFFFFFFFFFFFFFFFFFFFFFFFFFFFFFFFFFFFFFFFFFFFFFFFF
310
F000FFFFFFFFFFFFFFFFFFFFFFFFFFFFFFFFFFFFFFFFFFFFFFFFFFFFFFFFFFFF
310
FFFFFFFFFFFFFFFFFFFFFFFFFFFFFFFFFFFFFFFFFFFFFFFFFFFFFFFFFFFFFFFF
310
FFFFFFFFFFFFFFFFFFFFFFFFFFFFFFFFFFFFFFFFFFFFFFFFF000FFFFFFFFFFFF
310
FFFFFFFFFFFFFFFFFFFFFFFFFFFFFFFFFFFFFFFFFFFFFFFFFFFFFFFFFFFFFFFF
310
FFFFFFFFFFFFFFFFFFFFFFFFFFFFFFFFFFFFFFFFFFFFFFFFFFFFFFFFFFFFFFFF
310
FFFFFFFFFFFFFFFFFFFFFFFFFFFFFFFFF000FFFFFFFFFFFFFFFFFFFFFFFFFFFF
310
FFFFFFFFFFFFFFFFFFFFFFFFFFFFFFFFFFFFFFFFFFFFFFFFFFFFFFFFFFFFFFFF
310
FFFFFFFFFFFFFFFFFFFFFFFFFFFFFFFFFFFFFFFFFFFFFFFFFFFFFFFFFFFFFFFF
310
FFFFFFFFFFFFFFFFF000FFFFFFFFFFFFFFFFFFFFFFFFFFFFFFFFFFFFFFFFFFFF
310
FFFFFFFFFFFFFFFFFFFFFFFFFFFFFFFFFFFFFFFFFFFFFFFFFFFFFFFFFFFFFFFF
310
FFFFFFFFFFFFFFFFFFFFFFFFFFFFFFFFFFFFFFFFFFFFFFFFFFFFFFFFFFFFFFFF
310
F000FFFFFFFFFFFFFFFFFFFFFFFFFFFFFFFFFFFFFFFFFFFFFFFFFFFFFFFFFFFF
310
FFFFFFFFFFFFFFFFFFFFFFFFFFFFFFFFFFFFFFFFFFFFFFFFFFFFFFFFFFFFFFFF
310
FFFFFFFFFFFFFFFFFFFFFFFFFFFFFFFFFFFFFFFFFFFFFFFFF000FFFFFFFFFFFF
310
FFFFFFFFFFFFFFFFFFFFFFFFFFFFFFFFFFFFFFFFFFFFFFFFFFFFFFFFFFFFFFFF
310
FFFFFFFFFFFFFFFFFFFFFFFFFFFFFFFFFFFFFFFFFFFFFFFFFFFFFFFFFFFFFFFF
310
FFFFFFFFFFFFFFFFFFFFFFFFFFFFFFFFF000FFFFFFFFFFFFFFFFFFFFFFFFFFFF
310
FFFFFFFFFFFFFFFFFFFFFFFFFFFFFFFFFFFFFFFFFFFFFFFFFFFFFFFFFFFFFFFF
310
FFFFFFFFFFFFFFFFFFFFFFFFFFFFFFFFFFFFFFFFFFFFFFFFFFFFFFFFFFFFFFFF
310
FFFFFFFFFFFFFFFFF000FFFFFFFFFFFFFFFFFFFFFFFFFFFFFFFFFFFFFFFFFFFF
310
FFFFFFFFFFFFFFFFFFFFFFFFFFFFFFFFFFFFFFFFFFFFFFFFFFFFFFFFFFFFFFFF
310
FFFFFFFFFFFFFFFFFFFFFFFFFFFFFFFFFFFFFFFFFFFFFFFFFFFFFFFFFFFFFFFF
310
F000FFFFFFFFFFFFFFFFFFFFFFFFFFFFFFFFFFFFFFFFFFFFFFFFFFFFFFFFFFFF
310
FFFFFFFFFFFFFFFFFFFFFFFFFFFFFFFFFFFFFFFFFFFFFFFFFFFFFFFFFFFFFFFF
310
FFFFFFFFFFFFFFFFFFFFFFFFFFFFFFFFFFFFFFFFFFFFFFFFF000FFFFFFFFFFFF
310
FFFFFFFFFFFFFFFFFFFFFFFFFFFFFFFFFFFFFFFFFFFFFFFFFFFFFFFFFFFFFFFF
310
FFFFFFFFFFFFFFFFFFFFFFFFFFFFFFFFFFFFFFFFFFFFFFFFFFFFFFFFFFFFFFFF
310
FFFFFFFFFFFFFFFFFFFFFFFFFFFFFFFFF000FFFFFFFFFFFFFFFFFFFFFFFFFFFF
310
FFFFFFFFFFFFFFFFFFFFFFFFFFFFFFFFFFFFFFFFFFFFFFFFFFFFFFFFFFFFFFFF
310
FFFFFFFFFFFFFFFFFFFFFFFFFFFFFFFFFFFFFFFFFFFFFFFFFFFFFFFFFFFFFFFF
310
FFFFFFFFFFFFFFFFF000FFFFF80003FFFFFFFFFFFFFFFFFFFFFFFFFFFFFFFFFF
310
FFFFF00007FFFFFFFFFF00007FFFFFF800000000000000007FFFFFFFFFFFFFFF
310
FFFFFFFC001FFFFFFFFFFFFFFC001FFFFFFFFFFFFFFFFFFFFFFFFFFE0007FFFF
310
F000FFFF8000007FFFFFFFF8000FFFFFC0007FFFFF80007FFFFF0000007FFFFF
310
FFF8000007FFFFF800000000000000007FFFFFF0001FFFFFFFFFFFC00001FFFF
310
FFFFFFFFC00001FFFFFFFF000000000003FFFFE000007FFFF000FFFE0000000F
310
FFFFFFF0000FFFFF80007FFFFF80007FFFFC0000001FFFFFFFC0000001FFFFF8
310
00000000000000007FFFFFF0001FFFFFFFFFFE0000003FFFFFFFFFFE0000003F
310
FFFFFF000000000003FFFF0000000FFFF000FFF800000003FFFFFFF00007FFFF
310
80007FFFFF80007FFFF000000007FFFFFF000000003FFFF80000000000000000
310
7FFFFFF0001FFFFFFFFFF80000000FFFFFFFFFF80000000FFFFFFF0000000000
310
03FFFC00000003FFF000FFE000000000FFFFFFF00007FFFF80003FFFFF80007F
310
FFC000000001FFFFFC000000001FFFF800000000000000007FFFFFF0001FFFFF
310
FFFFE000000003FFFFFFFFE000000003FFFFFF000000000003FFF000000000FF
310
F000FF80000000007FFFFFF00007FFFF80003FFFFF80007FFF8000000000FFFF
310
F80000000007FFF800000000000000007FFFFFF0001FFFFFFFFFC000000001FF
310
FFFFFFC000000001FFFFFF000000000003FFC0000000007FF000FF0000000000
310
3FFFFFE00007FFFF00003FFFFF80007FFE00000000003FFFF00000000003FFF8
310
00000000000000007FFFFFF0001FFFFFFFFF8000000000FFFFFFFF8000000000
310
FFFFFF000000000003FF80000000003FF000FE00000000001FFFFFE00003FFFF
310
00003FFFFF80007FFC00000000001FFFE00000000001FFF8000001FFFE000000
310
7FFFFFF0001FFFFFFFFE00000000003FFFFFFE00000000003FFFFF0000000000
310
03FF00000000001FF000FC00000000000FFFFFE00003FFFF00001FFFFF80007F
310
F800000000001FFFC00000000000FFF8000001FFFE0000007FFFFFF0001FFFFF
310
FFFC00000000001FFFFFFC00000000001FFFFF000000000003FE00000000000F
310
F000F8000000000007FFFFE00003FFFF00001FFFFF80007FF800000000000FFF
310
800000000000FFF8000001FFFE0000007FFFFFF0001FFFFFFFF800000000000F
310
FFFFF800000000000FFFFF000000000003FC000000000007F000F80000000000
310
03FFFFC00003FFFE00001FFFFF80007FF0000000000007FF0000000000007FF8
310
000001FFFE0000007FFFFFF0001FFFFFFFF0000000000007FFFFF00000000000
310
07FFFF000000000003F8000000000003F000F0000000000003FFFFC00001FFFE
310
00001FFFFF80007FE0000000000007FE0000000000003FF8000001FFFE000000
310
7FFFFFF0001FFFFFFFF0000000000007FFFFF0000000000007FFFF0000000000
310
03F800001F800003F000E00001FFF00001FFFFC00001FFFE00000FFFFF80007F
310
E00001FFE00003FE00001FFF00003FF8000001FFFE0000007FFFFFF0001FFFFF
310
FFE000003E000003FFFFE000003E000003FFFF000000000003F00001FFF80001
310
F000E00007FFFC0001FFFFC00001FFFE00000FFFFF80007FC0000FFFFC0003FC
310
0000FFFFC0001FF8000001FFFE0000007FFFFFF0001FFFFFFFC00003FFE00001
310
FFFFC00003FFE00001FFFF0001FFFFFFFFF00007FFFE0001F000E0000FFFFF00
310
00FFFF800001FFFC00000FFFFF80007FC0001FFFFE0001FC0001FFFFE0001FF8
310
000001FFFE0000007FFFFFF0001FFFFFFF80000FFFF80000FFFF80000FFFF800
310
00FFFF0003FFFFFFFFE0000FFFFF8000F000C0003FFFFF8000FFFF800000FFFC
310
000007FFFF80007F80003FFFFF0001FC0003FFFFF0001FF8000001FFFE000000
310
7FFFFFF0001FFFFFFF80003FFFFE0000FFFF80003FFFFE0000FFFF0003FFFFFF
310
FFE0003FFFFF8000F000C0003FFFFF8000FFFF800000FFFC000007FFFF80007F
310
80007FFFFF8001F80007FFFFF8000FF8000001FFFE0000007FFFFFF0001FFFFF
310
FF00007FFFFF00007FFF00007FFFFF00007FFF0003FFFFFFFFE0003FFFFFC000
310
F000C0007FFFFFC000FFFF000000FFFC000007FFFF80007F8000FFFFFF8000F8
310
000FFFFFF8000FF8000001FFFE0000007FFFFFF0001FFFFFFF0000FFFFFF8000
310
7FFF0000FFFFFF80007FFF0003FFFFFFFFC0007FFFFFC00070008000FFFFFFC0
310
00FFFF000000FFF8000007FFFF80007F8000FFFFFF8000F8000FFFFFF8000FF8
310
000001FFFE0000007FFFFFF0001FFFFFFE0001FFFFFFC0003FFE0001FFFFFFC0
310
003FFF0003FFFFFFFFC0007FFFFFE00070008000FFFFFFC0007FFF0000007FF8
310
000003FFFF80007F0001FFFFFF8000F8000FFFFFF8000FF8000001FFFE000000
310
7FFFFFF0001FFFFFFE0001FFFFFFC0003FFE0001FFFFFFC0003FFF0003FFFFFF
310
FFC000FFFFFFE00070008000FFFFFFC0007FFF0000007FF8000003FFFF80007F
310
0001FFFFFF8000F8001FFFFFF8000FF8000001FFFE0000007FFFFFF0001FFFFF
310
FE0003FFFFFFE0003FFE0003FFFFFFE0003FFF0003FFFFFFFFC000FFFFFFE000
310
70008000FFFFFFC0007FFE0000007FF8000003FFFF80007F0001FFFFFF8000F0
310
001FFFFFF8000FF8000001FFFE0000007FFFFFF0001FFFFFFC0003FFFFFFE000
310
1FFC0003FFFFFFE0001FFF0003FFFFFFFFC000FFFFFFC00070008000FFFFFF80
310
007FFE0000007FF0000003FFFF80007F0001FFFFFF0000F0001FFFFFF8000FF8
310
000001FFFE0000007FFFFFF0001FFFFFFC0007FFFFFFF0001FFC0007FFFFFFF0
310
001FFF0003FFFFFFFFC000FFFFFFC00070008001FFFFFF0000FFFE0000003FF0
310
000001FFFF80007F0001FFFFFF0000F8001FFFFFF0000FF8000001FFFE000000
310
7FFFFFF0001FFFFFFC0007FFFFFFF0001FFC0007FFFFFFF0001FFF0003FFFFFF
310
FFC001FFFFFF80007000FFFFFFFFFE0000FFFE0008003FF0008001FFFF80007F
310
FFFFFFFFFC0000FFFFFFFFFFE0000FF8000001FFFE0000007FFFFFF0001FFFFF
310
F8000FFFFFFFF8000FF8000FFFFFFFF8000FFF0003FFFFFFFFFFFFFFFFFF0000
310
7000FFFFFFFFFC0000FFFC0008003FF0008001FFFF80007FFFFFFFFFF80001FF
310
FFFFFFFF80000FF8000001FFFE0000007FFFFFF0001FFFFFF8000FFFFFFFF800
310
0FF8000FFFFFFFF8000FFF0003FFFFFFFFFFFFFFFFFE0000F000FFFFFFFFE000
310
00FFFC000C003FE000C001FFFF80007FFFFFFFFFC00001FFFFFFFFFE00001FF8
310
000001FFFE0000007FFFFFF0001FFFFFF8000FFFFFFFF8000FF8000FFFFFFFF8
310
000FFF0003FFFFFFFFFFFFFFFFF00000F000FFFFFFFE000001FFFC000C001FE0
310
00C000FFFF80007FFFFFFFFE000001FFFFFFFFE000001FF80FFFFFFFFFFFFFC0
310
7FFFFFF0001FFFFFF8000FFFFFFFF8000FF8000FFFFFFFF8000FFF0003FFFFFF
310
FFFFFFFFFF800000F000FFFFFFC0000001FFFC001C001FE001C000FFFF80007F
310
FFFFFF80000003FFFFFFF80000001FF80FFFFFFFFFFFFFC07FFFFFF0001FFFFF
310
F8001FFFFFFFFC000FF8001FFFFFFFFC000FFF0003FFFFFFFFFFFFFFF0000001
310
F000FFFFF800000001FFF8001C001FE001C000FFFF80007FFFFFF800000003FF
310
FFFF800000003FF80FFFFFFFFFFFFFC07FFFFFF0001FFFFFF8001FFFFFFFFC00
310
0FF8001FFFFFFFFC000FFF0003FFFFFFFFFFFFFE00000001F000FFFFC0000000
310
03FFF8001E001FC001E000FFFF80007FFFFF8000000007FFFFFC000000003FF8
310
0FFFFFFFFFFFFFC07FFFFFF0001FFFFFF8001FFFFFFFFC000FF8001FFFFFFFFC
310
000FFF0003FFFFFFFFFFFFE000000003F000FFFE0000000007FFF8001E000FC0
310
01E0007FFF80007FFFFE0000000007FFFFE0000000007FF80FFFFFFFFFFFFFC0
310
7FFFFFF0001FFFFFF0001FFFFFFFFC0007F0001FFFFFFFFC0007FF0003FFFFFF
310
FFFFFF0000000003F000FFF80000000007FFF8001E000FC003E0007FFF80007F
310
FFF0000000000FFFFF8000000000FFF80FFFFFFFFFFFFFC07FFFFFF0001FFFFF
310
F0001FFFFFFFFC0007F0001FFFFFFFFC0007FF0003FFFFFFFFFFFC0000000007
310
F000FFE0000000000FFFF0003E000FC003E0007FFF80007FFFC0000000001FFF
310
FE0000000001FFF80FFFFFFFFFFFFFC07FFFFFF0001FFFFFF0001FFFFFFFFC00
310
07F0001FFFFFFFFC0007FF0003FFFFFFFFFFF0000000000FF000FFC000000000
310
1FFFF0003F000F8003F0003FFF80007FFF80000000003FFFF80000000003FFF8
310
0FFFFFFFFFFFFFC07FFFFFF0001FFFFFF0001FFFFFFFFC0007F0001FFFFFFFFC
310
0007FF0003FFFFFFFFFFE0000000001FF000FF00000000007FFFF0003F000780
310
03F0003FFF80007FFF00000000007FFFF00000000007FFF80FFFFFFFFFFFFFC0
310
7FFFFFF0001FFFFFF0001FFFFFFFFC0007F0001FFFFFFFFC0007FF0003FFFFFF
310
FFFF80000000007FF000FE0000000000FFFFE0003F00078007F0003FFF80007F
310
FE0000000001FFFFE0000000001FFFF80FFFFFFFFFFFFFC07FFFFFF0001FFFFF
310
F0001FFFFFFFFC0007F0001FFFFFFFFC0007FF0003FFFFFFFFFF0000000000FF
310
F000FC0000000003FFFFE0007F00078007F0003FFF80007FFC0000000007FFFF
310
C0000000007FFFF80FFFFFFFFFFFFFC07FFFFFF0001FFFFFF8001FFFFFFFFC00
310
0FF8001FFFFFFFFC000FFF0003FFFFFFFFFE0000000003FFF000FC000000000F
310
FFFFE0007F80070007F8001FFF80007FF8000000001FFFFF8000000001FFFFF8
310
0FFFFFFFFFFFFFC07FFFFFF0001FFFFFF8001FFFFFFFFC000FF8001FFFFFFFFC
310
000FFF0003FFFFFFFFFC000000000FFFF000F8000000007FFFFFE0007F800700
310
07F8001FFF80007FF000000000FFFFFF800000000FFFFFF80FFFFFFFFFFFFFC0
310
7FFFFFF0001FFFFFF8000FFFFFFFF8000FF8000FFFFFFFF8000FFF0003FFFFFF
310
FFFC000000007FFFF000F800000007FFFFFFC0007F8003000FF8001FFF80007F
310
F000000007FFFFFF000000007FFFFFF80FFFFFFFFFFFFFC07FFFFFF0001FFFFF
310
F8000FFFFFFFF8000FF8000FFFFFFFF8000FFF0003FFFFFFFFF80000000FFFFF
310
F000F0000000FFFFFFFFC000FF8003000FF8001FFF80007FE0000000FFFFFFFF
310
0000000FFFFFFFF8000001FFFE0000007FFFFFF0001FFFFFF8000FFFFFFFF800
310
0FF8000FFFFFFFF8000FFF0003FFFFFFFFF8000000FFFFFFF000F000000FFFFF
310
FFFFC000FFC002000FF8000FFF80007FE000001FFFFFFFFE000001FFFFFFFFF8
310
000001FFFE0000007FFFFFF0001FFFFFF8000FFFFFFFF8000FF8000FFFFFFFF8
310
000FFF0003FFFFFFFFF000001FFFFFFFF000E00000FFFFFFFFFFC000FFC00200
310
0FFC000FFF80007FE00001FFFFFFFFFE00001FFFFFFFFFF8000001FFFE000000
310
7FFFFFF0001FFFFFFC000FFFFFFFF8001FFC000FFFFFFFF8001FFF0003FFFFFF
310
FFF00001FFFFFFFFF000E00007FFFFFFFFFF8000FFC000001FFC000FFF80007F
310
C0000FFFFFFFFFFE0000FFFFFFFFFFF8000001FFFE0000007FFFFFF0001FFFFF
310
FC0007FFFFFFF0001FFC0007FFFFFFF0001FFF0003FFFFFFFFF00007FFFFFFFF
310
F000E0001FFFFFFFFFFF8000FFC000001FFC000FFF80007FC0003FFFFFFFFFFE
310
0001FFFFFFFFFFF8000001FFFE0000007FFFFFF0001FFFFFFC0007FFFFFFF000
310
1FFC0007FFFFFFF0001FFF0003FFFFFFFFF0001FFFFFFFFFF000E0003FFFFF00
310
03FF8001FFE000001FFC0007FF80007FC0007FFFFF0007FC0003FFFFF0003FF8
310
000001FFFE0000007FFFFFF0001FFFFFFC0003FFFFFFE0001FFC0003FFFFFFE0
310
001FFF0003FFFFFFFFF0003FFFFFFFFFF000E0003FFFFF0001FF8001FFE00000
310
1FFE0007FF80007FC0007FFFFE0003FC0007FFFFE0003FF8000001FFFE000000
310
7FFFFFF0001FFFFFFE0003FFFFFFE0003FFE0003FFFFFFE0003FFF0003FFFFFF
310
FFF0003FFFFF8001F000E0003FFFFF0001FF0001FFE000001FFE0007FF80007F
310
C0007FFFFE0003FC0007FFFFE0003FF8000001FFFE0000007FFFFFF0001FFFFF
310
FE0001FFFFFFC0003FFE0001FFFFFFC0003FFF0003FFFFFFFFF0003FFFFF0001
310
F000E0003FFFFF0003FF0001FFE000003FFE0007FF80007FC0007FFFFE0003FC
310
0007FFFFE0003FF8000001FFFE0000007FFFFFF0001FFFFFFF0001FFFFFFC000
310
7FFF0001FFFFFFC0007FFF0003FFFFFFFFF0003FFFFF0001F000E0003FFFFE00
310
03FF0003FFF000003FFE0003FF80007FC0007FFFFC0003FE0007FFFFE0003FF8
310
000001FFFE0000007FFFFFF0001FFFFFFF0000FFFFFF80007FFF0000FFFFFF80
310
007FFF0003FFFFFFFFF0003FFFFF0001F000E0003FFFFE0003FF0003FFF00000
310
3FFF0003FF80007FC0007FFFFC0007FE0007FFFFC0003FF8000001FFFE000000
310
7FFFFFF0001FFFFFFF80007FFFFF0000FFFF80007FFFFF0000FFFF0003FFFFFF
310
FFF0003FFFFF0003F000E0003FFFFC0003FE0003FFF000003FFF0003FF80007F
310
E0003FFFF80007FE0003FFFFC0007FF8000001FFFE0000007FFFFFF0001FFFFF
310
FF80003FFFFE0000FFFF80003FFFFE0000FFFF0003FFFFFFFFF0001FFFFE0003
310
F000F0001FFFF80003FE0003FFF000007FFF0001FF80007FE0003FFFF00007FE
310
0001FFFF80007FF8000001FFFE0000007FFFFFF0001FFFFFFFC0000FFFF80001
310
FFFFC0000FFFF80001FFFF0003FFFFFFFFF0001FFFFC0003F000F0000FFFF000
310
07FE0007FFF800007FFF0001FF80007FE0001FFFE00007FF0000FFFE00007FF8
310
000001FFFE0000007FFFFFF0001FFFFFFFC00003FFE00001FFFFC00003FFE000
310
01FFFF0003FFFFFFFFF8000FFFF80003F000F00003FFC00007FC0007FFF80000
310
7FFF8001FF80007FF00007FF80000FFF00007FF80000FFF8000001FFFE000000
310
7F80000000000001FFE000003E000003FFFFE000003E000003FFFF0003FFFFFF
310
FFF80003FFE00007F000F800000000000FFC0007FFF800007FFF8001FF80007F
310
F000000000000FFF000000000000FFF8000001FFFE0000007F80000000000001
310
FFF0000000000007FFFFF0000000000007FFFF0003FFFFFFFFFC00007E000007
310
F000F800000000000FFC0007FFF80000FFFF8000FF80007FF800000000001FFF
310
800000000001FFF8000001FFFE0000007F80000000000001FFF800000000000F
310
FFFFF800000000000FFFFF0003FFFFFFFFFC00000000000FF000FC0000000000
310
1FFC0007FFFC0000FFFF8000FF80007FF800000000003FFFC00000000001FFF8
310
000001FFFE0000007F80000000000001FFF800000000000FFFFFF80000000000
310
0FFFFF0003FFFFFFFFFE00000000001FF000FE00000000003FF8000FFFFC0000
310
FFFF8000FF80007FFC00000000003FFFC00000000003FFF8000001FFFE000000
310
7F80000000000001FFFC00000000001FFFFFFC00000000001FFFFF0003FFFFFF
310
FFFF00000000001FF000FF00000000003FF8000FFFFC0000FFFFC000FF80007F
310
FE00000000007FFFE00000000007FFF8000001FFFE0000007F80000000000001
310
FFFE00000000003FFFFFFE00000000003FFFFF0003FFFFFFFFFF80000000003F
310
F000FF80000000007FF8000FFFFC0001FFFFC0007F80007FFF0000000000FFFF
310
F0000000000FFFF800000000000000007F80000000000001FFFF8000000000FF
310
FFFFFF8000000000FFFFFF0003FFFFFFFFFFC0000000007FF000FFC000000000
310
FFF8000FFFFE0001FFFFC0007F80007FFF8000000001FFFFF8000000001FFFF8
310
00000000000000007F80000000000001FFFFC000000001FFFFFFFFC000000001
310
FFFFFF0003FFFFFFFFFFE000000000FFF000FFE000000003FFF0001FFFFE0001
310
FFFFC0007F80007FFFC000000007FFFFFE000000003FFFF80000000000000000
310
7F80000000000001FFFFE000000003FFFFFFFFE000000003FFFFFF0003FFFFFF
310
FFFFF000000003FFF000FFF80000000FFFF0001FFFFE0001FFFFE0007F80007F
310
FFF00000000FFFFFFF00000000FFFFF800000000000000007F80000000000001
310
FFFFF80000000FFFFFFFFFF80000000FFFFFFF0003FFFFFFFFFFFC0000000FFF
310
F000FFFE0000003FFFF0001FFFFE0003FFFFE0003F80007FFFFC0000003FFFFF
310
FFC0000003FFFFF800000000000000007F80000000000001FFFFFE0000003FFF
310
FFFFFFFE0000003FFFFFFF0003FFFFFFFFFFFF0000003FFFF000FFFF800000FF
310
FFF0001FFFFF0003FFFFE0003F80007FFFFF000001FFFFFFFFF800001FFFFFF8
310
00000000000000007F80000000000001FFFFFFC00001FFFFFFFFFFFFC00001FF
310
FFFFFF0003FFFFFFFFFFFFC00000FFFFF000FFFFF8000FFFFFFFFFFFFFFFFFFF
310
FFFFFFFFFFFFFFFFFFFFF0001FFFFFFFFFFF0000FFFFFFF80000000000000000
310
7FFFFFFFFFFFFFFFFFFFFFFC001FFFFFFFFFFFFFFC001FFFFFFFFFFFFFFFFFFF
310
FFFFFFFC001FFFFFF000FFFFFFFFFFFFFFFFFFFFFFFFFFFFFFFFFFFFFFFFFFFF
310
FFFFFFFFFFFFFFFFFFFFFFFFFFFFFFFFFFFFFFFFFFFFFFFFFFFFFFFFFFFFFFFF
310
FFFFFFFFFFFFFFFFFFFFFFFFFFFFFFFFFFFFFFFFFFFFFFFFFFFFFFFFFFFFFFFF
310
F000FFFFFFFFFFFFFFFFFFFFFFFFFFFFFFFFFFFFFFFFFFFFFFFFFFFFFFFFFFFF
310
FFFFFFFFFFFFFFFFFFFFFFFFFFFFFFFFFFFFFFFFFFFFFFFFFFFFFFFFFFFFFFFF
310
FFFFFFFFFFFFFFFFFFFFFFFFFFFFFFFFFFFFFFFFFFFFFFFFF000FFFFFFFFFFFF
310
FFFFFFFFFFFFFFFFFFFFFFFFFFFFFFFFFFFFFFFFFFFFFFFFFFFFFFFFFFFFFFFF
310
FFFFFFFFFFFFFFFFFFFFFFFFFFFFFFFFFFFFFFFFFFFFFFFFFFFFFFFFFFFFFFFF
310
FFFFFFFFFFFFFFFFFFFFFFFFFFFFFFFFF000FFFFFFFFFFFFFFFFFFFFFFFFFFFF
310
FFFFFFFFFFFFFFFFFFFFFFFFFFFFFFFFFFFFFFFFFFFFFFFFFFFFFFFFFFFFFFFF
310
FFFFFFFFFFFFFFFFFFFFFFFFFFFFFFFFFFFFFFFFFFFFFFFFFFFFFFFFFFFFFFFF
310
FFFFFFFFFFFFFFFFF000FFFFFFFFFFFFFFFFFFFFFFFFFFFFFFFFFFFFFFFFFFFF
310
FFFFFFFFFFFFFFFFFFFFFFFFFFFFFFFFFFFFFFFFFFFFFFFFFFFFFFFFFFFFFFFF
310
FFFFFFFFFFFFFFFFFFFFFFFFFFFFFFFFFFFFFFFFFFFFFFFFFFFFFFFFFFFFFFFF
310
F000FFFFFFFFFFFFFFFFFFFFFFFFFFFFFFFFFFFFFFFFFFFFFFFFFFFFFFFFFFFF
310
FFFFFFFFFFFFFFFFFFFFFFFFFFFFFFFFFFFFFFFFFFFFFFFFFFFFFFFFFFFFFFFF
310
FFFFFFFFFFFFFFFFFFFFFFFFFFFFFFFFFFFFFFFFFFFFFFFFF000FFFFFFFFFFFF
310
FFFFFFFFFFFFFFFFFFFFFFFFFFFFFFFFFFFFFFFFFFFFFFFFFFFFFFFFFFFFFFFF
310
FFFFFFFFFFFFFFFFFFFFFFFFFFFFFFFFFFFFFFFFFFFFFFFFFFFFFFFFFFFFFFFF
310
FFFFFFFFFFFFFFFFFFFFFFFFFFFFFFFFF000FFFFFFFFFFFFFFFFFFFFFFFFFFFF
310
FFFFFFFFFFFFFFFFFFFFFFFFFFFFFFFFFFFFFFFFFFFFFFFFFFFFFFFFFFFFFFFF
310
FFFFFFFFFFFFFFFFFFFFFFFFFFFFFFFFFFFFFFFFFFFFFFFFFFFFFFFFFFFFFFFF
310
FFFFFFFFFFFFFFFFF000FFFFFFFFFFFFFFFFFFFFFFFFFFFFFFFFFFFFFFFFFFFF
310
FFFFFFFFFFFFFFFFFFFFFFFFFFFFFFFFFFFFFFFFFFFFFFFFFFFFFFFFFFFFFFFF
310
FFFFFFFFFFFFFFFFFFFFFFFFFFFFFFFFFFFFFFFFFFFFFFFFFFFFFFFFFFFFFFFF
310
F000FFFFFFFFFFFFFFFFFFFFFFFFFFFFFFFFFFFFFFFFFFFFFFFFFFFFFFFFFFFF
310
FFFFFFFFFFFFFFFFFFFFFFFFFFFFFFFFFFFFFFFFFFFFFFFFFFFFFFFFFFFFFFFF
310
FFFFFFFFFFFFFFFFFFFFFFFFFFFFFFFFFFFFFFFFFFFFFFFFF000FFFFFFFFFFFF
310
FFFFFFFFFFFFFFFFFFFFFFFFFFFFFFFFFFFFFFFFFFFFFFFFFFFFFFFFFFFFFFFF
310
FFFFFFFFFFFFFFFFFFFFFFFFFFFFFFFFFFFFFFFFFFFFFFFFFFFFFFFFFFFFFFFF
310
FFFFFFFFFFFFFFFFFFFFFFFFFFFFFFFFF000FFFFFFFFFFFFFFFFFFFFFFFFFFFF
310
FFFFFFFFFFFFFFFFFFFFFFFFFFFFFFFFFFFFFFFFFFFFFFFFFFFFFFFFFFFFFFFF
310
FFFFFFFFFFFFFFFFFFFFFFFFFFFFFFFFFFFFFFFFFFFFFFFFFFFFFFFFFFFFFFFF
310
FFFFFFFFFFFFFFFFF000FFFFFFFFFFFFFFFFFFFFFFFFFFFFFFFFFFFFFFFFFFFF
310
FFFFFFFFFFFFFFFFFFFFFFFFFFFFFFFFFFFFFFFFFFFFFFFFFFFFFFFFFFFFFFFF
310
FFFFFFFFFFFFFFFFFFFFFFFFFFFFFFFFFFFFFFFFFFFFFFFFFFFFFFFFFFFFFFFF
310
F000FFFFFFFFFFFFFFFFFFFFFFFFFFFFFFFFFFFFFFFFFFFFFFFFFFFFFFFFFFFF
310
FFFFFFFFFFFFFFFFFFFFFFFFFFFFFFFFFFFFFFFFFFFFFFFFFFFFFFFFFFFFFFFF
310
FFFFFFFFFFFFFFFFFFFFFFFFFFFFFFFFFFFFFFFFFFFFFFFFF000FFFFFFFFFFFF
310
FFFFFFFFFFFFFFFFFFFFFFFFFFFFFFFFFFFFFFFFFFFFFFFFFFFFFFFFFFFFFFFF
310
FFFFFFFFFFFFFFFFFFFFFFFFFFFFFFFFFFFFFFFFFFFFFFFFFFFFFFFFFFFFFFFF
310
FFFFFFFFFFFFFFFFFFFFFFFFFFFFFFFFF000FFFFFFFFFFFFFFFFFFFFFFFFFFFF
310
FFFFFFFFFFFFFFFFFFFFFFFFFFFFFFFFFFFFFFFFFFFFFFFFFFFFFFFFFFFFFFFF
310
FFFFFFFFFFFFFFFFFFFFFFFFFFFFFFFFFFFFFFFFFFFFFFFFFFFFFFFFFFFFFFFF
310
FFFFFFFFFFFFFFFFF000FFFFFFFFFFFFFFFFFFFFFFFFFFFFFFFFFFFFFFFFFFFF
310
FFFFFFFFFFFFFFFFFFFFFFFFFFFFFFFFFFFFFFFFFFFFFFFFFFFFFFFFFFFFFFFF
310
FFFFFFFFFFFFFFFFFFFFFFFFFFFFFFFFFFFFFFFFFFFFFFFFFFFFFFFFFFFFFFFF
310
F000FFFFFFFFFFFFFFFFFFFFFFFFFFFFFFFFFFFFFFFFFFFFFFFFFFFFFFFFFFFF
310
FFFFFFFFFFFFFFFFFFFFFFFFFFFFFFFFFFFFFFFFFFFFFFFFFFFFFFFFFFFFFFFF
310
FFFFFFFFFFFFFFFFFFFFFFFFFFFFFFFFFFFFFFFFFFFFFFFFF000FFFFFFFFFFFF
310
FFFFFFFFFFFFFFFFFFFFFFFFFFFFFFFFFFFFFFFFFFFFFFFFFFFFFFFFFFFFFFFF
310
FFFFFFFFFFFFFFFFFFFFFFFFFFFFFFFFFFFFFFFFFFFFFFFFFFFFFFFFFFFFFFFF
310
FFFFFFFFFFFFFFFFFFFFFFFFFFFFFFFFF000FFFFFFFFFFFFFFFFFFFFFFFFFFFF
310
FFFFFFFFFFFFFFFFFFFFFFFFFFFFFFFFFFFFFFFFFFFFFFFFFFFFFFFFFFFFFFFF
310
FFFFFFFFFFFFFFFFFFFFFFFFFFFFFFFFFFFFFFFFFFFFFFFFFFFFFFFFFFFFFFFF
310
FFFFFFFFFFFFFFFFF000FFFFFFFFFFFFFFFFFFFFFFFFFFFFFFFFFFFFFFFFFFFF
310
FFFFFFFFFFFFFFFFFFFFFFFFFFFFFFFFFFFFFFFFFFFFFFFFFFFFFFFFFFFFFFFF
310
FFFFFFFFFFFFFFFFFFFFFFFFFFFFFFFFFFFFFFFFFFFFFFFFFFFFFFFFFFFFFFFF
310
F000FFFFFFFFFFFFFFFFFFFFFFFFFFFFFFFFFFFFFFFFFFFFFFFFFFFFFFFFFFFF
310
FFFFFFFFFFFFFFFFFFFFFFFFFFFFFFFFFFFFFFFFFFFFFFFFFFFFFFFFFFFFFFFF
310
FFFFFFFFFFFFFFFFFFFFFFFFFFFFFFFFFFFFFFFFFFFFFFFFF000FFFFFFFFFFFF
310
FFFFFFFFFFFFFFFFFFFFFFFFFFFFFFFFFFFFFFFFFFFFFFFFFFFFFFFFFFFFFFFF
310
FFFFFFFFFFFFFFFFFFFFFFFFFFFFFFFFFFFFFFFFFFFFFFFFFFFFFFFFFFFFFFFF
310
FFFFFFFFFFFFFFFFFFFFFFFFFFFFFFFFF0000000000000000000000000000000
310
0000000000000000000000000000000000000000000000000000000000000000
310
0000000000000000000000000000000000000000000000000000000000000000
310
0000000000000000000000000000000000000000000000000000000000000000
310
0000000000000000000000000000000000000000000000000000000000000000
310
0000000000000000000000000000000000000000000000000000000000000000
310
0000000000000000000000000000000000000000000000000000000000000000
310
0000000000000000000000000000000000000000000000000000000000000000
310
0000000000000000000000000000000000000000000000000000000000000000
310
0000000000000000000000000000000000000000000000000000000000000000
310
0000000000000000000000000000000000000000000000000000000000000000
310
0000000000000000000000000000000000000000000000000000000000000000
310
0000000000000000000000000000000000000000000000000000000000000000
310
0000000000000000000000000000000000000000000000000000000000000000
310
0000000000000000000000000000000000000000000000000000000000000000
310
0000000000000000000000000000000000000000000000000000000000000000
  1
OLE
  0
ENDSEC
  0
SECTION
  2
OBJECTS
  0
DICTIONARY
  5
C
330
0
100
AcDbDictionary
281
     1
  3
ACAD_GROUP
350
D
  3
ACAD_LAYOUT
350
1A
  3
ACAD_MLINESTYLE
350
17
  3
ACAD_PLOTSETTINGS
350
19
  3
ACAD_PLOTSTYLENAME
350
E
  3
ACAD_SCALELIST
350
47
  0
DICTIONARY
  5
D
102
{ACAD_REACTORS
330
C
102
}
330
C
100
AcDbDictionary
281
     1
  0
DICTIONARY
  5
1A
102
{ACAD_REACTORS
330
C
102
}
330
C
100
AcDbDictionary
281
     1
  3
Layout1
350
1E
  3
Layout2
350
26
  3
Model
350
22
  0
DICTIONARY
  5
17
102
{ACAD_REACTORS
330
C
102
}
330
C
100
AcDbDictionary
281
     1
  3
Standard
350
18
  0
DICTIONARY
  5
19
102
{ACAD_REACTORS
330
C
102
}
330
C
100
AcDbDictionary
281
     1
  0
ACDBDICTIONARYWDFLT
  5
E
102
{ACAD_REACTORS
330
C
102
}
330
C
100
AcDbDictionary
281
     1
  3
Normal
350
F
100
AcDbDictionaryWithDefault
340
F
  0
DICTIONARY
  5
47
102
{ACAD_REACTORS
330
C
102
}
330
C
100
AcDbDictionary
281
     1
  3
A0
350
48
  3
A1
350
49
  3
A2
350
4A
  3
A3
350
4B
  3
A4
350
4C
  3
A5
350
4D
  3
A6
350
4E
  3
A7
350
4F
  3
A8
350
50
  3
A9
350
51
  3
B0
350
52
  3
B1
350
53
  3
B2
350
54
  3
B3
350
55
  3
B4
350
56
  3
B5
350
57
  3
B6
350
58
  3
B7
350
59
  3
B8
350
5A
  3
B9
350
5B
  3
C0
350
5C
  3
C1
350
5D
  3
C2
350
5E
  3
C3
350
5F
  3
C4
350
60
  3
C5
350
61
  3
C6
350
62
  3
C7
350
63
  3
C8
350
64
  3
C9
350
65
  3
D0
350
66
  3
D1
350
67
  3
D2
350
68
  0
LAYOUT
  5
1E
102
{ACAD_REACTORS
330
1A
102
}
330
1A
100
AcDbPlotSettings
  1

  2
none_device
  4

  6

 40
0.0
 41
0.0
 42
0.0
 43
0.0
 44
0.0
 45
0.0
 46
0.0
 47
0.0
 48
0.0
 49
0.0
140
0.0
141
0.0
142
1.0
143
1.0
 70
   688
 72
     1
 73
     0
 74
     5
  7

 75
    16
147
1.0
148
0.0
149
0.0
100
AcDbLayout
  1
Layout1
 70
     1
 71
     1
 10
0.0
 20
0.0
 11
420.0
 21
297.0
 12
0.0
 22
0.0
 32
0.0
 14
1.0000000000E+20
 24
1.0000000000E+20
 34
1.0000000000E+20
 15
-1.0000000000E+20
 25
-1.0000000000E+20
 35
-1.0000000000E+20
146
0.0
 13
0.0
 23
0.0
 33
0.0
 16
1.0
 26
0.0
 36
0.0
 17
0.0
 27
1.0
 37
0.0
 76
     0
330
1B
  0
LAYOUT
  5
26
102
{ACAD_REACTORS
330
1A
102
}
330
1A
100
AcDbPlotSettings
  1

  2
none_device
  4

  6

 40
0.0
 41
0.0
 42
0.0
 43
0.0
 44
0.0
 45
0.0
 46
0.0
 47
0.0
 48
0.0
 49
0.0
140
0.0
141
0.0
142
1.0
143
1.0
 70
   688
 72
     1
 73
     0
 74
     5
  7

 75
    16
147
1.0
148
0.0
149
0.0
100
AcDbLayout
  1
Layout2
 70
     1
 71
     2
 10
0.0
 20
0.0
 11
0.0
 21
0.0
 12
0.0
 22
0.0
 32
0.0
 14
0.0
 24
0.0
 34
0.0
 15
0.0
 25
0.0
 35
0.0
146
0.0
 13
0.0
 23
0.0
 33
0.0
 16
1.0
 26
0.0
 36
0.0
 17
0.0
 27
1.0
 37
0.0
 76
     0
330
23
  0
LAYOUT
  5
22
102
{ACAD_REACTORS
330
1A
102
}
330
1A
100
AcDbPlotSettings
  1

  2
none_device
  4
Letter_(8.50_x_11.00_Inches)
  6

 40
6.35
 41
6.35
 42
6.35000508
 43
6.35000508
 44
215.9
 45
279.4
 46
0.0
 47
0.0
 48
0.0
 49
0.0
140
0.0
141
0.0
142
1.0
143
1.0
 70
  1712
 72
     1
 73
     0
 74
     0
  7

 75
     0
147
1.0
148
0.0
149
0.0
100
AcDbLayout
  1
Model
 70
     1
 71
     0
 10
0.0
 20
0.0
 11
297.0
 21
210.0
 12
0.0
 22
0.0
 32
0.0
 14
0.0
 24
0.0
 34
0.0
 15
297.0
 25
210.0
 35
0.0
146
0.0
 13
0.0
 23
0.0
 33
0.0
 16
1.0
 26
0.0
 36
0.0
 17
0.0
 27
1.0
 37
0.0
 76
     0
330
1F
331
29
  0
MLINESTYLE
  5
18
102
{ACAD_REACTORS
330
17
102
}
330
17
100
AcDbMlineStyle
  2
Standard
 70
     0
  3

 62
   256
 51
90.0
 52
90.0
 71
     2
 49
0.5
 62
   256
  6
BYLAYER
 49
-0.5
 62
   256
  6
BYLAYER
  0
ACDBPLACEHOLDER
  5
F
102
{ACAD_REACTORS
330
E
102
}
330
E
  0
SCALE
  5
48
102
{ACAD_REACTORS
330
47
102
}
330
47
100
AcDbScale
 70
     0
300
1:1
140
1.0
141
1.0
290
     1
  0
SCALE
  5
49
102
{ACAD_REACTORS
330
47
102
}
330
47
100
AcDbScale
 70
     0
300
1:2
140
1.0
141
2.0
290
     0
  0
SCALE
  5
4A
102
{ACAD_REACTORS
330
47
102
}
330
47
100
AcDbScale
 70
     0
300
1:4
140
1.0
141
4.0
290
     0
  0
SCALE
  5
4B
102
{ACAD_REACTORS
330
47
102
}
330
47
100
AcDbScale
 70
     0
300
1:5
140
1.0
141
5.0
290
     0
  0
SCALE
  5
4C
102
{ACAD_REACTORS
330
47
102
}
330
47
100
AcDbScale
 70
     0
300
1:8
140
1.0
141
8.0
290
     0
  0
SCALE
  5
4D
102
{ACAD_REACTORS
330
47
102
}
330
47
100
AcDbScale
 70
     0
300
1:10
140
1.0
141
10.0
290
     0
  0
SCALE
  5
4E
102
{ACAD_REACTORS
330
47
102
}
330
47
100
AcDbScale
 70
     0
300
1:16
140
1.0
141
16.0
290
     0
  0
SCALE
  5
4F
102
{ACAD_REACTORS
330
47
102
}
330
47
100
AcDbScale
 70
     0
300
1:20
140
1.0
141
20.0
290
     0
  0
SCALE
  5
50
102
{ACAD_REACTORS
330
47
102
}
330
47
100
AcDbScale
 70
     0
300
1:30
140
1.0
141
30.0
290
     0
  0
SCALE
  5
51
102
{ACAD_REACTORS
330
47
102
}
330
47
100
AcDbScale
 70
     0
300
1:40
140
1.0
141
40.0
290
     0
  0
SCALE
  5
52
102
{ACAD_REACTORS
330
47
102
}
330
47
100
AcDbScale
 70
     0
300
1:50
140
1.0
141
50.0
290
     0
  0
SCALE
  5
53
102
{ACAD_REACTORS
330
47
102
}
330
47
100
AcDbScale
 70
     0
300
1:100
140
1.0
141
100.0
290
     0
  0
SCALE
  5
54
102
{ACAD_REACTORS
330
47
102
}
330
47
100
AcDbScale
 70
     0
300
2:1
140
2.0
141
1.0
290
     0
  0
SCALE
  5
55
102
{ACAD_REACTORS
330
47
102
}
330
47
100
AcDbScale
 70
     0
300
4:1
140
4.0
141
1.0
290
     0
  0
SCALE
  5
56
102
{ACAD_REACTORS
330
47
102
}
330
47
100
AcDbScale
 70
     0
300
8:1
140
8.0
141
1.0
290
     0
  0
SCALE
  5
57
102
{ACAD_REACTORS
330
47
102
}
330
47
100
AcDbScale
 70
     0
300
10:1
140
10.0
141
1.0
290
     0
  0
SCALE
  5
58
102
{ACAD_REACTORS
330
47
102
}
330
47
100
AcDbScale
 70
     0
300
100:1
140
100.0
141
1.0
290
     0
  0
SCALE
  5
59
102
{ACAD_REACTORS
330
47
102
}
330
47
100
AcDbScale
 70
     0
300
1/128" = 1'-0"
140
0.0078125
141
12.0
290
     0
  0
SCALE
  5
5A
102
{ACAD_REACTORS
330
47
102
}
330
47
100
AcDbScale
 70
     0
300
1/64" = 1'-0"
140
0.015625
141
12.0
290
     0
  0
SCALE
  5
5B
102
{ACAD_REACTORS
330
47
102
}
330
47
100
AcDbScale
 70
     0
300
1/32" = 1'-0"
140
0.03125
141
12.0
290
     0
  0
SCALE
  5
5C
102
{ACAD_REACTORS
330
47
102
}
330
47
100
AcDbScale
 70
     0
300
1/16" = 1'-0"
140
0.0625
141
12.0
290
     0
  0
SCALE
  5
5D
102
{ACAD_REACTORS
330
47
102
}
330
47
100
AcDbScale
 70
     0
300
3/32" = 1'-0"
140
0.09375
141
12.0
290
     0
  0
SCALE
  5
5E
102
{ACAD_REACTORS
330
47
102
}
330
47
100
AcDbScale
 70
     0
300
1/8" = 1'-0"
140
0.125
141
12.0
290
     0
  0
SCALE
  5
5F
102
{ACAD_REACTORS
330
47
102
}
330
47
100
AcDbScale
 70
     0
300
3/16" = 1'-0"
140
0.1875
141
12.0
290
     0
  0
SCALE
  5
60
102
{ACAD_REACTORS
330
47
102
}
330
47
100
AcDbScale
 70
     0
300
1/4" = 1'-0"
140
0.25
141
12.0
290
     0
  0
SCALE
  5
61
102
{ACAD_REACTORS
330
47
102
}
330
47
100
AcDbScale
 70
     0
300
3/8" = 1'-0"
140
0.375
141
12.0
290
     0
  0
SCALE
  5
62
102
{ACAD_REACTORS
330
47
102
}
330
47
100
AcDbScale
 70
     0
300
1/2" = 1'-0"
140
0.5
141
12.0
290
     0
  0
SCALE
  5
63
102
{ACAD_REACTORS
330
47
102
}
330
47
100
AcDbScale
 70
     0
300
3/4" = 1'-0"
140
0.75
141
12.0
290
     0
  0
SCALE
  5
64
102
{ACAD_REACTORS
330
47
102
}
330
47
100
AcDbScale
 70
     0
300
1" = 1'-0"
140
1.0
141
12.0
290
     0
  0
SCALE
  5
65
102
{ACAD_REACTORS
330
47
102
}
330
47
100
AcDbScale
 70
     0
300
1-1/2" = 1'-0"
140
1.5
141
12.0
290
     0
  0
SCALE
  5
66
102
{ACAD_REACTORS
330
47
102
}
330
47
100
AcDbScale
 70
     0
300
3" = 1'-0"
140
3.0
141
12.0
290
     0
  0
SCALE
  5
67
102
{ACAD_REACTORS
330
47
102
}
330
47
100
AcDbScale
 70
     0
300
6" = 1'-0"
140
6.0
141
12.0
290
     0
  0
SCALE
  5
68
102
{ACAD_REACTORS
330
47
102
}
330
47
100
AcDbScale
 70
     0
300
1'-0" = 1'-0"
140
12.0
141
12.0
290
     0
  0
ENDSEC
  0
EOF
