  0
SECTION
  2
HEADER
  9
$ACADVER
  1
AC1015
  9
$ACADMAINTVER
 70
     6
  9
$DWGCODEPAGE
  3
ANSI_1252
  9
$INSBASE
 10
0.0
 20
0.0
 30
0.0
  9
$EXTMIN
 10
0.0
 20
0.0
 30
0.0
  9
$EXTMAX
 10
297.0
 20
210.0
 30
0.0
  9
$LIMMIN
 10
0.0
 20
0.0
  9
$LIMMAX
 10
297.0
 20
210.0
  9
$ORTHOMODE
 70
     0
  9
$REGENMODE
 70
     1
  9
$FILLMODE
 70
     1
  9
$QTEXTMODE
 70
     0
  9
$MIRRTEXT
 70
     1
  9
$LTSCALE
 40
1.0
  9
$ATTMODE
 70
     1
  9
$TEXTSIZE
 40
2.0
  9
$TRACEWID
 40
1.0
  9
$TEXTSTYLE
  7
Standard
  9
$CLAYER
  8
0
  9
$CELTYPE
  6
ByLayer
  9
$CECOLOR
 62
   256
  9
$CELTSCALE
 40
1.0
  9
$DISPSILH
 70
     0
  9
$DIMSCALE
 40
1.0
  9
$DIMASZ
 40
3.0
  9
$DIMEXO
 40
0.0
  9
$DIMDLI
 40
3.75
  9
$DIMRND
 40
0.0
  9
$DIMDLE
 40
0.0
  9
$DIMEXE
 40
1.0
  9
$DIMTP
 40
0.0
  9
$DIMTM
 40
0.0
  9
$DIMTXT
 40
2.0
  9
$DIMCEN
 40
2.5
  9
$DIMTSZ
 40
0.0
  9
$DIMTOL
 70
     0
  9
$DIMLIM
 70
     0
  9
$DIMTIH
 70
     1
  9
$DIMTOH
 70
     1
  9
$DIMSE1
 70
     0
  9
$DIMSE2
 70
     0
  9
$DIMTAD
 70
     1
  9
$DIMZIN
 70
     0
  9
$DIMBLK
  1

  9
$DIMASO
 70
     1
  9
$DIMSHO
 70
     1
  9
$DIMPOST
  1

  9
$DIMAPOST
  1

  9
$DIMALT
 70
     0
  9
$DIMALTD
 70
     3
  9
$DIMALTF
 40
0.0393700787
  9
$DIMLFAC
 40
1.0
  9
$DIMTOFL
 70
     1
  9
$DIMTVP
 40
0.0
  9
$DIMTIX
 70
     0
  9
$DIMSOXD
 70
     0
  9
$DIMSAH
 70
     0
  9
$DIMBLK1
  1

  9
$DIMBLK2
  1

  9
$DIMSTYLE
  2
ISO-25
  9
$DIMCLRD
 70
     0
  9
$DIMCLRE
 70
     0
  9
$DIMCLRT
 70
     0
  9
$DIMTFAC
 40
1.0
  9
$DIMGAP
 40
1.524
  9
$DIMJUST
 70
     0
  9
$DIMSD1
 70
     0
  9
$DIMSD2
 70
     0
  9
$DIMTOLJ
 70
     0
  9
$DIMTZIN
 70
     0
  9
$DIMALTZ
 70
     0
  9
$DIMALTTZ
 70
     0
  9
$DIMUPT
 70
     0
  9
$DIMDEC
 70
     2
  9
$DIMTDEC
 70
     3
  9
$DIMALTU
 70
     2
  9
$DIMALTTD
 70
     3
  9
$DIMTXSTY
  7
Standard
  9
$DIMAUNIT
 70
     0
  9
$DIMADEC
 70
     2
  9
$DIMALTRND
 40
0.0
  9
$DIMAZIN
 70
     0
  9
$DIMDSEP
 70
    44
  9
$DIMATFIT
 70
     3
  9
$DIMFRAC
 70
     0
  9
$DIMLDRBLK
  1

  9
$DIMLUNIT
 70
     2
  9
$DIMLWD
 70
    -2
  9
$DIMLWE
 70
    -2
  9
$DIMTMOVE
 70
     0
  9
$LUNITS
 70
     2
  9
$LUPREC
 70
     2
  9
$SKETCHINC
 40
1.0
  9
$FILLETRAD
 40
10.0
  9
$AUNITS
 70
     0
  9
$AUPREC
 70
     2
  9
$MENU
  1
.
  9
$ELEVATION
 40
0.0
  9
$PELEVATION
 40
0.0
  9
$THICKNESS
 40
0.0
  9
$LIMCHECK
 70
     0
  9
$CHAMFERA
 40
0.0
  9
$CHAMFERB
 40
0.0
  9
$CHAMFERC
 40
0.0
  9
$CHAMFERD
 40
0.0
  9
$SKPOLY
 70
     0
  9
$TDCREATE
 40
2457673.485747268
  9
$TDUCREATE
 40
2457673.402413935
  9
$TDUPDATE
 40
2457673.485748657
  9
$TDUUPDATE
 40
2457673.402415324
  9
$TDINDWG
 40
0.0000000116
  9
$TDUSRTIMER
 40
0.0000000116
  9
$USRTIMER
 70
     1
  9
$ANGBASE
 50
0.0
  9
$ANGDIR
 70
     0
  9
$PDMODE
 70
     0
  9
$PDSIZE
 40
-1.0
  9
$PLINEWID
 40
0.0
  9
$SPLFRAME
 70
     0
  9
$SPLINETYPE
 70
     6
  9
$SPLINESEGS
 70
     8
  9
$HANDSEED
  5
2A5
  9
$SURFTAB1
 70
     6
  9
$SURFTAB2
 70
     6
  9
$SURFTYPE
 70
     6
  9
$SURFU
 70
     6
  9
$SURFV
 70
     6
  9
$UCSBASE
  2

  9
$UCSNAME
  2

  9
$UCSORG
 10
0.0
 20
0.0
 30
0.0
  9
$UCSXDIR
 10
1.0
 20
0.0
 30
0.0
  9
$UCSYDIR
 10
0.0
 20
1.0
 30
0.0
  9
$UCSORTHOREF
  2

  9
$UCSORTHOVIEW
 70
     0
  9
$UCSORGTOP
 10
0.0
 20
0.0
 30
0.0
  9
$UCSORGBOTTOM
 10
0.0
 20
0.0
 30
0.0
  9
$UCSORGLEFT
 10
0.0
 20
0.0
 30
0.0
  9
$UCSORGRIGHT
 10
0.0
 20
0.0
 30
0.0
  9
$UCSORGFRONT
 10
0.0
 20
0.0
 30
0.0
  9
$UCSORGBACK
 10
0.0
 20
0.0
 30
0.0
  9
$PUCSBASE
  2

  9
$PUCSNAME
  2

  9
$PUCSORG
 10
0.0
 20
0.0
 30
0.0
  9
$PUCSXDIR
 10
1.0
 20
0.0
 30
0.0
  9
$PUCSYDIR
 10
0.0
 20
1.0
 30
0.0
  9
$PUCSORTHOREF
  2

  9
$PUCSORTHOVIEW
 70
     0
  9
$PUCSORGTOP
 10
0.0
 20
0.0
 30
0.0
  9
$PUCSORGBOTTOM
 10
0.0
 20
0.0
 30
0.0
  9
$PUCSORGLEFT
 10
0.0
 20
0.0
 30
0.0
  9
$PUCSORGRIGHT
 10
0.0
 20
0.0
 30
0.0
  9
$PUCSORGFRONT
 10
0.0
 20
0.0
 30
0.0
  9
$PUCSORGBACK
 10
0.0
 20
0.0
 30
0.0
  9
$USERI1
 70
     0
  9
$USERI2
 70
     0
  9
$USERI3
 70
     0
  9
$USERI4
 70
     0
  9
$USERI5
 70
     0
  9
$USERR1
 40
0.0
  9
$USERR2
 40
0.0
  9
$USERR3
 40
0.0
  9
$USERR4
 40
0.0
  9
$USERR5
 40
0.0
  9
$WORLDVIEW
 70
     1
  9
$SHADEDGE
 70
     3
  9
$SHADEDIF
 70
    70
  9
$TILEMODE
 70
     1
  9
$MAXACTVP
 70
    64
  9
$PINSBASE
 10
0.0
 20
0.0
 30
0.0
  9
$PLIMCHECK
 70
     0
  9
$PEXTMIN
 10
1.0000000000E+20
 20
1.0000000000E+20
 30
1.0000000000E+20
  9
$PEXTMAX
 10
-1.0000000000E+20
 20
-1.0000000000E+20
 30
-1.0000000000E+20
  9
$PLIMMIN
 10
0.0
 20
0.0
  9
$PLIMMAX
 10
420.0
 20
297.0
  9
$UNITMODE
 70
     0
  9
$VISRETAIN
 70
     1
  9
$PLINEGEN
 70
     0
  9
$PSLTSCALE
 70
     1
  9
$TREEDEPTH
 70
  3020
  9
$CMLSTYLE
  2
Standard
  9
$CMLJUST
 70
     0
  9
$CMLSCALE
 40
20.0
  9
$PROXYGRAPHICS
 70
     1
  9
$MEASUREMENT
 70
     1
  9
$CELWEIGHT
370
    -1
  9
$ENDCAPS
280
     0
  9
$JOINSTYLE
280
     0
  9
$LWDISPLAY
290
     1
  9
$INSUNITS
 70
     4
  9
$HYPERLINKBASE
  1

  9
$STYLESHEET
  1

  9
$XEDIT
290
     1
  9
$CEPSNTYPE
380
     0
  9
$PSTYLEMODE
290
     1
  9
$FINGERPRINTGUID
  2
{D062B6E4-79C2-4505-ADF3-9ACA94321FBC}
  9
$VERSIONGUID
  2
{FAEB1C32-E019-11D5-929B-00C0DF256EC4}
  9
$EXTNAMES
290
     1
  9
$PSVPSCALE
 40
0.0
  9
$OLESTARTUP
290
     0
  0
ENDSEC
  0
SECTION
  2
CLASSES
  0
CLASS
  1
ACDBDICTIONARYWDFLT
  2
AcDbDictionaryWithDefault
  3
ObjectDBX Classes
 90
        0
280
     0
281
     0
  0
CLASS
  1
VISUALSTYLE
  2
AcDbVisualStyle
  3
ObjectDBX Classes
 90
     4095
280
     0
281
     0
  0
CLASS
  1
MATERIAL
  2
AcDbMaterial
  3
ObjectDBX Classes
 90
     1153
280
     0
281
     0
  0
CLASS
  1
SCALE
  2
AcDbScale
  3
ObjectDBX Classes
 90
     1153
280
     0
281
     0
  0
CLASS
  1
TABLESTYLE
  2
AcDbTableStyle
  3
ObjectDBX Classes
 90
     4095
280
     0
281
     0
  0
CLASS
  1
MLEADERSTYLE
  2
AcDbMLeaderStyle
  3
ACDB_MLEADERSTYLE_CLASS
 90
     4095
280
     0
281
     0
  0
CLASS
  1
SUN
  2
AcDbSun
  3
SCENEOE
 90
     1153
280
     0
281
     0
  0
CLASS
  1
ACDBPLACEHOLDER
  2
AcDbPlaceHolder
  3
ObjectDBX Classes
 90
        0
280
     0
281
     0
  0
CLASS
  1
LAYOUT
  2
AcDbLayout
  3
ObjectDBX Classes
 90
        0
280
     0
281
     0
  0
ENDSEC
  0
SECTION
  2
TABLES
  0
TABLE
  2
VPORT
  5
8
330
0
100
AcDbSymbolTable
 70
     1
  0
VPORT
  5
29
330
8
100
AcDbSymbolTableRecord
100
AcDbViewportTableRecord
  2
*Active
 70
     0
 10
0.0
 20
0.0
 11
1.0
 21
1.0
 12
148.5
 22
105.0
 13
0.0
 23
0.0
 14
10.0
 24
10.0
 15
10.0
 25
10.0
 16
0.0
 26
0.0
 36
1.0
 17
0.0
 27
0.0
 37
0.0
 40
210.0
 41
1.4142857143
 42
50.0
 43
0.0
 44
0.0
 50
0.0
 51
0.0
 71
     0
 72
  2000
 73
     1
 74
     3
 75
     0
 76
     0
 77
     0
 78
     0
281
     0
 65
     1
110
0.0
120
0.0
130
0.0
111
1.0
121
0.0
131
0.0
112
0.0
122
1.0
132
0.0
 79
     0
146
0.0
  0
ENDTAB
  0
TABLE
  2
LTYPE
  5
5
330
0
100
AcDbSymbolTable
 70
     6
  0
LTYPE
  5
14
330
5
100
AcDbSymbolTableRecord
100
AcDbLinetypeTableRecord
  2
ByBlock
 70
     0
  3

 72
    65
 73
     0
 40
0.0
  0
LTYPE
  5
15
330
5
100
AcDbSymbolTableRecord
100
AcDbLinetypeTableRecord
  2
ByLayer
 70
     0
  3

 72
    65
 73
     0
 40
0.0
  0
LTYPE
  5
16
330
5
100
AcDbSymbolTableRecord
100
AcDbLinetypeTableRecord
  2
Continuous
 70
     0
  3
Solid line
 72
    65
 73
     0
 40
0.0
  0
LTYPE
  5
6E
330
5
100
AcDbSymbolTableRecord
100
AcDbLinetypeTableRecord
  2
HIDDEN
 70
     0
  3
Hidden __ __ __ __ __ __ __ __ __ __ __ __ __ __
 72
    65
 73
     2
 40
1.905
 49
1.27
 74
     0
 49
-0.635
 74
     0
  0
LTYPE
  5
6F
330
5
100
AcDbSymbolTableRecord
100
AcDbLinetypeTableRecord
  2
PHANTOM
 70
     0
  3
Phantom ______  __  __  ______  __  __  ______
 72
    65
 73
     6
 40
12.7
 49
6.35
 74
     0
 49
-1.27
 74
     0
 49
1.27
 74
     0
 49
-1.27
 74
     0
 49
1.27
 74
     0
 49
-1.27
 74
     0
  0
LTYPE
  5
70
330
5
100
AcDbSymbolTableRecord
100
AcDbLinetypeTableRecord
  2
CENTER
 70
     0
  3
Center ____ _ ____ _ ____ _ ____ _ ____ _ ____
 72
    65
 73
     4
 40
10.16
 49
6.35
 74
     0
 49
-1.27
 74
     0
 49
1.27
 74
     0
 49
-1.27
 74
     0
  0
LTYPE
  5
71
330
5
100
AcDbSymbolTableRecord
100
AcDbLinetypeTableRecord
  2
CENTERX2
 70
     0
  3
Center (2x) ________  __  ________  __  _____
 72
    65
 73
     4
 40
20.32
 49
12.7
 74
     0
 49
-2.54
 74
     0
 49
2.54
 74
     0
 49
-2.54
 74
     0
  0
LTYPE
  5
72
330
5
100
AcDbSymbolTableRecord
100
AcDbLinetypeTableRecord
  2
DOT2
 70
     0
  3
Dot (.5x) ........................................
 72
    65
 73
     2
 40
0.635
 49
0.0
 74
     0
 49
-0.635
 74
     0
  0
ENDTAB
  0
TABLE
  2
LAYER
  5
2
330
0
100
AcDbSymbolTable
 70
     5
  0
LAYER
  5
10
330
2
100
AcDbSymbolTableRecord
100
AcDbLayerTableRecord
  2
0
 70
     0
 62
     7
  6
Continuous
370
    -3
390
F
  0
LAYER
  5
73
330
2
100
AcDbSymbolTableRecord
100
AcDbLayerTableRecord
  2
FORMAT
 70
     0
 62
     7
  6
Continuous
370
    -3
390
F
  0
LAYER
  5
74
330
2
100
AcDbSymbolTableRecord
100
AcDbLayerTableRecord
  2
VERMASSUNG
 70
     0
 62
     7
  6
Continuous
370
    -3
390
F
  0
LAYER
  5
75
330
2
100
AcDbSymbolTableRecord
100
AcDbLayerTableRecord
  2
KOPF_DÜNN
 70
     0
 62
     7
  6
Continuous
370
    -3
390
F
  0
LAYER
  5
76
330
2
100
AcDbSymbolTableRecord
100
AcDbLayerTableRecord
  2
KOPF_DICK
 70
     0
 62
     7
  6
Continuous
370
    15
390
F
  0
ENDTAB
  0
TABLE
  2
STYLE
  5
3
330
0
100
AcDbSymbolTable
 70
     2
  0
STYLE
  5
11
330
3
100
AcDbSymbolTableRecord
100
AcDbTextStyleTableRecord
  2
Standard
 70
     0
 40
0.0
 41
1.0
 50
0.0
 71
     0
 42
2.0
  3
txt
  4

  0
STYLE
  5
77
330
3
100
AcDbSymbolTableRecord
100
AcDbTextStyleTableRecord
  2
SLDTEXTSTYLE0
 70
     0
 40
0.0
 41
0.7
 50
0.0
 71
     0
 42
2.0
  3
TXT
  4

  0
ENDTAB
  0
TABLE
  2
VIEW
  5
6
330
0
100
AcDbSymbolTable
 70
     0
  0
ENDTAB
  0
TABLE
  2
UCS
  5
7
330
0
100
AcDbSymbolTable
 70
     0
  0
ENDTAB
  0
TABLE
  2
APPID
  5
9
330
0
100
AcDbSymbolTable
 70
     1
  0
APPID
  5
12
330
9
100
AcDbSymbolTableRecord
100
AcDbRegAppTableRecord
  2
ACAD
 70
     0
  0
ENDTAB
  0
TABLE
  2
DIMSTYLE
  5
A
330
0
100
AcDbSymbolTable
 70
     2
100
AcDbDimStyleTable
  0
DIMSTYLE
105
27
330
A
100
AcDbSymbolTableRecord
100
AcDbDimStyleTableRecord
  2
ISO-25
 70
     0
 41
2.5
 42
0.625
 43
3.75
 44
1.25
 73
     0
 74
     0
 77
     1
 78
     8
140
2.5
141
2.5
143
0.0393700787
147
0.625
171
     3
172
     1
178
     0
271
     2
272
     2
274
     3
278
    44
283
     0
284
     8
340
11
  0
DIMSTYLE
105
1CB
102
{ACAD_REACTORS
330
1CA
330
1D8
330
1E4
330
1EF
330
1FB
330
205
102
}
330
A
100
AcDbSymbolTableRecord
100
AcDbDimStyleTableRecord
  2
SLDDIMSTYLE0
 70
     0
 41
3.0
 44
0.0
 45
0.000000001
 73
     0
 74
     0
 77
     1
 78
    12
 79
     3
140
2.0
147
0.5
173
     1
178
     0
271
     2
272
     3
276
     2
284
    12
340
77
  0
ENDTAB
  0
TABLE
  2
BLOCK_RECORD
  5
1
330
0
100
AcDbSymbolTable
 70
     7
  0
BLOCK_RECORD
  5
1F
330
1
100
AcDbSymbolTableRecord
100
AcDbBlockTableRecord
  2
*Model_Space
340
22
  0
BLOCK_RECORD
  5
1B
330
1
100
AcDbSymbolTableRecord
100
AcDbBlockTableRecord
  2
*Paper_Space
340
1E
  0
BLOCK_RECORD
  5
23
330
1
100
AcDbSymbolTableRecord
100
AcDbBlockTableRecord
  2
*Paper_Space0
340
26
  0
BLOCK_RECORD
  5
1CC
330
1
100
AcDbSymbolTableRecord
100
AcDbBlockTableRecord
  2
_D
340
0
  0
BLOCK_RECORD
  5
1D9
330
1
100
AcDbSymbolTableRecord
100
AcDbBlockTableRecord
  2
_D_1
340
0
  0
BLOCK_RECORD
  5
1E5
330
1
100
AcDbSymbolTableRecord
100
AcDbBlockTableRecord
  2
_D_2
340
0
  0
BLOCK_RECORD
  5
1F0
330
1
100
AcDbSymbolTableRecord
100
AcDbBlockTableRecord
  2
_D_3
340
0
  0
BLOCK_RECORD
  5
1FC
330
1
100
AcDbSymbolTableRecord
100
AcDbBlockTableRecord
  2
_D_4
340
0
  0
BLOCK_RECORD
  5
206
330
1
100
AcDbSymbolTableRecord
100
AcDbBlockTableRecord
  2
_D_5
340
0
  0
ENDTAB
  0
ENDSEC
  0
SECTION
  2
BLOCKS
  0
BLOCK
  5
20
330
1F
100
AcDbEntity
  8
0
100
AcDbBlockBegin
  2
*Model_Space
 70
     0
 10
0.0
 20
0.0
 30
0.0
  3
*Model_Space
  1

  0
ENDBLK
  5
21
330
1F
100
AcDbEntity
  8
0
100
AcDbBlockEnd
  0
BLOCK
  5
1C
330
1B
100
AcDbEntity
 67
     1
  8
0
100
AcDbBlockBegin
  2
*Paper_Space
 70
     0
 10
0.0
 20
0.0
 30
0.0
  3
*Paper_Space
  1

  0
ENDBLK
  5
1D
330
1B
100
AcDbEntity
 67
     1
  8
0
100
AcDbBlockEnd
  0
BLOCK
  5
24
330
23
100
AcDbEntity
  8
0
100
AcDbBlockBegin
  2
*Paper_Space0
 70
     0
 10
0.0
 20
0.0
 30
0.0
  3
*Paper_Space0
  1

  0
ENDBLK
  5
25
330
23
100
AcDbEntity
  8
0
100
AcDbBlockEnd
  0
BLOCK
  5
1CD
330
1CC
100
AcDbEntity
  8
0
100
AcDbBlockBegin
  2
_D
 70
     0
 10
0.0
 20
0.0
 30
0.0
  3
_D
  1

  0
SOLID
  5
1CF
330
1CC
100
AcDbEntity
  8
VERMASSUNG
100
AcDbTrace
 10
89.5252398064
 20
84.777703083
 30
0.0
 11
89.9752398064
 21
87.777703083
 31
0.0
 12
89.0752398064
 22
87.777703083
 32
0.0
 13
89.0752398064
 23
87.777703083
 33
0.0
  0
SOLID
  5
1D0
330
1CC
100
AcDbEntity
  8
VERMASSUNG
100
AcDbTrace
 10
89.5252398064
 20
134.727703083
 30
0.0
 11
89.0752398064
 21
131.727703083
 31
0.0
 12
89.9752398064
 22
131.727703083
 32
0.0
 13
89.9752398064
 23
131.727703083
 33
0.0
  0
LINE
  5
1D1
330
1CC
100
AcDbEntity
  8
VERMASSUNG
100
AcDbLine
 10
160.6515695067
 20
84.777703083
 30
0.0
 11
88.5252398064
 21
84.777703083
 31
0.0
  0
LINE
  5
1D2
330
1CC
100
AcDbEntity
  8
VERMASSUNG
100
AcDbLine
 10
160.6515695067
 20
134.727703083
 30
0.0
 11
88.5252398064
 21
134.727703083
 31
0.0
  0
LINE
  5
1D3
330
1CC
100
AcDbEntity
  8
VERMASSUNG
100
AcDbLine
 10
89.5252398064
 20
84.777703083
 30
0.0
 11
89.5252398064
 21
134.727703083
 31
0.0
  0
MTEXT
  5
1D4
330
1CC
100
AcDbEntity
  8
VERMASSUNG
100
AcDbMText
 10
86.7471045502
 20
99.6493457194
 30
0.0
 40
2.0
 41
0.0
 71
     1
 72
     1
  1
ISO 30
  7
SLDTEXTSTYLE0
 11
3.391901413832837E-15
 21
1.0
 31
0.0
 73
     1
 44
1.0
  0
MTEXT
  5
1D5
330
1CC
100
AcDbEntity
  8
VERMASSUNG
100
AcDbMText
 10
86.9471045015
 20
108.649345332
 30
0.0
 40
2.0
 41
0.0
 71
     1
 72
     1
  1
%%c
  7
SLDTEXTSTYLE0
 11
3.391901413832837E-15
 21
1.0
 31
0.0
 73
     1
 44
1.0
  0
MTEXT
  5
1D6
330
1CC
100
AcDbEntity
  8
VERMASSUNG
100
AcDbMText
 10
86.9471042104
 20
112.2586886648
 30
0.0
 40
2.0
 41
0.0
 71
     1
 72
     1
  1
49.95
  7
SLDTEXTSTYLE0
 11
3.391901413832837E-15
 21
1.0
 31
0.0
 73
     1
 44
1.0
  0
MTEXT
  5
1D7
330
1CC
100
AcDbEntity
  8
VERMASSUNG
100
AcDbMText
 10
86.9471042104
 20
119.8457169862
 30
0.0
 40
2.0
 41
0.0
 71
     1
 72
     1
  1

  7
SLDTEXTSTYLE0
 11
3.391901413832837E-15
 21
1.0
 31
0.0
 73
     1
 44
1.0
  0
ENDBLK
  5
1CE
330
1CC
100
AcDbEntity
  8
0
100
AcDbBlockEnd
  0
BLOCK
  5
1DA
330
1D9
100
AcDbEntity
  8
0
100
AcDbBlockBegin
  2
_D_1
 70
     0
 10
0.0
 20
0.0
 30
0.0
  3
_D_1
  1

  0
SOLID
  5
1DC
330
1D9
100
AcDbEntity
  8
VERMASSUNG
100
AcDbTrace
 10
203.8476457399
 20
134.752703083
 30
0.0
 11
203.3976457399
 21
131.752703083
 31
0.0
 12
204.2976457399
 22
131.752703083
 32
0.0
 13
204.2976457399
 23
131.752703083
 33
0.0
  0
SOLID
  5
1DD
330
1D9
100
AcDbEntity
  8
VERMASSUNG
100
AcDbTrace
 10
203.8476457399
 20
84.752703083
 30
0.0
 11
204.2976457399
 21
87.752703083
 31
0.0
 12
203.3976457399
 22
87.752703083
 32
0.0
 13
203.3976457399
 23
87.752703083
 33
0.0
  0
LINE
  5
1DE
330
1D9
100
AcDbEntity
  8
VERMASSUNG
100
AcDbLine
 10
189.7015695067
 20
134.752703083
 30
0.0
 11
204.8476457399
 21
134.752703083
 31
0.0
  0
LINE
  5
1DF
330
1D9
100
AcDbEntity
  8
VERMASSUNG
100
AcDbLine
 10
189.7015695067
 20
84.752703083
 30
0.0
 11
204.8476457399
 21
84.752703083
 31
0.0
  0
LINE
  5
1E0
330
1D9
100
AcDbEntity
  8
VERMASSUNG
100
AcDbLine
 10
203.8476457399
 20
134.752703083
 30
0.0
 11
203.8476457399
 21
84.752703083
 31
0.0
  0
MTEXT
  5
1E1
330
1D9
100
AcDbEntity
  8
VERMASSUNG
100
AcDbMText
 10
201.0695104837
 20
104.048056327
 30
0.0
 40
2.0
 41
0.0
 71
     1
 72
     1
  1
WH
  7
SLDTEXTSTYLE0
 11
-7.044195017643634E-15
 21
1.0
 31
0.0
 73
     1
 44
1.0
  0
MTEXT
  5
1E2
330
1D9
100
AcDbEntity
  8
VERMASSUNG
100
AcDbMText
 10
201.269510435
 20
109.0480562153
 30
0.0
 40
2.0
 41
0.0
 71
     1
 72
     1
  1
%%c
  7
SLDTEXTSTYLE0
 11
-7.044195017643634E-15
 21
1.0
 31
0.0
 73
     1
 44
1.0
  0
MTEXT
  5
1E3
330
1D9
100
AcDbEntity
  8
VERMASSUNG
100
AcDbMText
 10
201.269510144
 20
112.6579698183
 30
0.0
 40
2.0
 41
0.0
 71
     1
 72
     1
  1
50
  7
SLDTEXTSTYLE0
 11
-7.044195017643634E-15
 21
1.0
 31
0.0
 73
     1
 44
1.0
  0
ENDBLK
  5
1DB
330
1D9
100
AcDbEntity
  8
0
100
AcDbBlockEnd
  0
BLOCK
  5
1E6
330
1E5
100
AcDbEntity
  8
0
100
AcDbBlockBegin
  2
_D_2
 70
     0
 10
0.0
 20
0.0
 30
0.0
  3
_D_2
  1

  0
SOLID
  5
1E8
330
1E5
100
AcDbEntity
  8
VERMASSUNG
100
AcDbTrace
 10
197.8476457399
 20
123.752703083
 30
0.0
 11
197.3976457399
 21
120.752703083
 31
0.0
 12
198.2976457399
 22
120.752703083
 32
0.0
 13
198.2976457399
 23
120.752703083
 33
0.0
  0
SOLID
  5
1E9
330
1E5
100
AcDbEntity
  8
VERMASSUNG
100
AcDbTrace
 10
197.8476457399
 20
95.752703083
 30
0.0
 11
198.2976457399
 21
98.752703083
 31
0.0
 12
197.3976457399
 22
98.752703083
 32
0.0
 13
197.3976457399
 23
98.752703083
 33
0.0
  0
LINE
  5
1EA
330
1E5
100
AcDbEntity
  8
VERMASSUNG
100
AcDbLine
 10
189.2015695067
 20
123.752703083
 30
0.0
 11
198.8476457399
 21
123.752703083
 31
0.0
  0
LINE
  5
1EB
330
1E5
100
AcDbEntity
  8
VERMASSUNG
100
AcDbLine
 10
189.2015695067
 20
95.752703083
 30
0.0
 11
198.8476457399
 21
95.752703083
 31
0.0
  0
LINE
  5
1EC
330
1E5
100
AcDbEntity
  8
VERMASSUNG
100
AcDbLine
 10
197.8476457399
 20
123.752703083
 30
0.0
 11
197.8476457399
 21
95.752703083
 31
0.0
  0
MTEXT
  5
1ED
330
1E5
100
AcDbEntity
  8
VERMASSUNG
100
AcDbMText
 10
195.2695102022
 20
106.5485269759
 30
0.0
 40
2.0
 41
0.0
 71
     1
 72
     1
  1
%%c
  7
SLDTEXTSTYLE0
 11
-7.044195017643634E-15
 21
1.0
 31
0.0
 73
     1
 44
1.0
  0
MTEXT
  5
1EE
330
1E5
100
AcDbEntity
  8
VERMASSUNG
100
AcDbMText
 10
195.269510144
 20
110.1574991695
 30
0.0
 40
2.0
 41
0.0
 71
     1
 72
     1
  1
28
  7
SLDTEXTSTYLE0
 11
-7.044195017643634E-15
 21
1.0
 31
0.0
 73
     1
 44
1.0
  0
ENDBLK
  5
1E7
330
1E5
100
AcDbEntity
  8
0
100
AcDbBlockEnd
  0
BLOCK
  5
1F1
330
1F0
100
AcDbEntity
  8
0
100
AcDbBlockBegin
  2
_D_3
 70
     0
 10
0.0
 20
0.0
 30
0.0
  3
_D_3
  1

  0
ARC
  5
1F3
330
1F0
100
AcDbEntity
  8
VERMASSUNG
100
AcDbCircle
 10
174.8383630186
 20
142.7240992678
 30
0.0
 40
4.24705993853726
100
AcDbArc
 50
153.4349488229
 51
206.5650511771
  0
ARC
  5
1F4
330
1F0
100
AcDbEntity
  8
VERMASSUNG
100
AcDbCircle
 10
176.6147759949
 20
142.7240992678
 30
0.0
 40
4.247059938537284
100
AcDbArc
 50
333.4349488229
 51
26.5650511771
  0
SOLID
  5
1F5
330
1F0
100
AcDbEntity
  8
VERMASSUNG
100
AcDbTrace
 10
161.2515695067
 20
140.8247563223
 30
0.0
 11
164.2515695067
 21
140.3747563223
 31
0.0
 12
164.2515695067
 22
141.2747563223
 32
0.0
 13
164.2515695067
 23
141.2747563223
 33
0.0
  0
SOLID
  5
1F6
330
1F0
100
AcDbEntity
  8
VERMASSUNG
100
AcDbTrace
 10
190.2015695067
 20
140.8247563223
 30
0.0
 11
187.2015695067
 21
141.2747563223
 31
0.0
 12
187.2015695067
 22
140.3747563223
 32
0.0
 13
187.2015695067
 23
140.3747563223
 33
0.0
  0
LINE
  5
1F7
330
1F0
100
AcDbEntity
  8
VERMASSUNG
100
AcDbLine
 10
161.2515695067
 20
132.6640606969
 30
0.0
 11
161.2515695067
 21
141.8247563223
 31
0.0
  0
LINE
  5
1F8
330
1F0
100
AcDbEntity
  8
VERMASSUNG
100
AcDbLine
 10
190.2015695067
 20
134.252703083
 30
0.0
 11
190.2015695067
 21
141.8247563223
 31
0.0
  0
LINE
  5
1F9
330
1F0
100
AcDbEntity
  8
VERMASSUNG
100
AcDbLine
 10
161.2515695067
 20
140.8247563223
 30
0.0
 11
190.2015695067
 21
140.8247563223
 31
0.0
  0
MTEXT
  5
1FA
330
1F0
100
AcDbEntity
  8
VERMASSUNG
100
AcDbMText
 10
172.6271771277
 20
143.4028919183
 30
0.0
 40
2.0
 41
0.0
 71
     1
 72
     1
  1
28.95
  7
SLDTEXTSTYLE0
 73
     1
 44
1.0
  0
ENDBLK
  5
1F2
330
1F0
100
AcDbEntity
  8
0
100
AcDbBlockEnd
  0
BLOCK
  5
1FD
330
1FC
100
AcDbEntity
  8
0
100
AcDbBlockBegin
  2
_D_4
 70
     0
 10
0.0
 20
0.0
 30
0.0
  3
_D_4
  1

  0
SOLID
  5
1FF
330
1FC
100
AcDbEntity
  8
VERMASSUNG
100
AcDbTrace
 10
142.2015695067
 20
146.8247563223
 30
0.0
 11
145.2015695067
 21
146.3747563223
 31
0.0
 12
145.2015695067
 22
147.2747563223
 32
0.0
 13
145.2015695067
 23
147.2747563223
 33
0.0
  0
SOLID
  5
200
330
1FC
100
AcDbEntity
  8
VERMASSUNG
100
AcDbTrace
 10
190.2015695067
 20
146.8247563223
 30
0.0
 11
187.2015695067
 21
147.2747563223
 31
0.0
 12
187.2015695067
 22
146.3747563223
 32
0.0
 13
187.2015695067
 23
146.3747563223
 33
0.0
  0
LINE
  5
201
330
1FC
100
AcDbEntity
  8
VERMASSUNG
100
AcDbLine
 10
142.2015695067
 20
125.627703083
 30
0.0
 11
142.2015695067
 21
147.8247563223
 31
0.0
  0
LINE
  5
202
330
1FC
100
AcDbEntity
  8
VERMASSUNG
100
AcDbLine
 10
190.2015695067
 20
134.252703083
 30
0.0
 11
190.2015695067
 21
147.8247563223
 31
0.0
  0
LINE
  5
203
330
1FC
100
AcDbEntity
  8
VERMASSUNG
100
AcDbLine
 10
142.2015695067
 20
146.8247563223
 30
0.0
 11
190.2015695067
 21
146.8247563223
 31
0.0
  0
MTEXT
  5
204
330
1FC
100
AcDbEntity
  8
VERMASSUNG
100
AcDbMText
 10
164.7026107014
 20
149.4028919183
 30
0.0
 40
2.0
 41
0.0
 71
     1
 72
     1
  1
48
  7
SLDTEXTSTYLE0
 73
     1
 44
1.0
  0
ENDBLK
  5
1FE
330
1FC
100
AcDbEntity
  8
0
100
AcDbBlockEnd
  0
BLOCK
  5
207
330
206
100
AcDbEntity
  8
0
100
AcDbBlockBegin
  2
_D_5
 70
     0
 10
0.0
 20
0.0
 30
0.0
  3
_D_5
  1

  0
ARC
  5
209
330
206
100
AcDbEntity
  8
VERMASSUNG
100
AcDbCircle
 10
141.4883630186
 20
154.7240992678
 30
0.0
 40
4.247059938537297
100
AcDbArc
 50
153.4349488229
 51
206.5650511771
  0
ARC
  5
20A
330
206
100
AcDbEntity
  8
VERMASSUNG
100
AcDbCircle
 10
143.2647759949
 20
154.7240992678
 30
0.0
 40
4.247059938537297
100
AcDbArc
 50
333.4349488229
 51
26.5650511771
  0
SOLID
  5
20B
330
206
100
AcDbEntity
  8
VERMASSUNG
100
AcDbTrace
 10
94.5515695067
 20
152.8247563223
 30
0.0
 11
97.5515695067
 21
152.3747563223
 31
0.0
 12
97.5515695067
 22
153.2747563223
 32
0.0
 13
97.5515695067
 23
153.2747563223
 33
0.0
  0
SOLID
  5
20C
330
206
100
AcDbEntity
  8
VERMASSUNG
100
AcDbTrace
 10
190.2015695067
 20
152.8247563223
 30
0.0
 11
187.2015695067
 21
153.2747563223
 31
0.0
 12
187.2015695067
 22
152.3747563223
 32
0.0
 13
187.2015695067
 23
152.3747563223
 33
0.0
  0
LINE
  5
20D
330
206
100
AcDbEntity
  8
VERMASSUNG
100
AcDbLine
 10
94.5515695067
 20
117.8140003467
 30
0.0
 11
94.5515695067
 21
153.8247563223
 31
0.0
  0
LINE
  5
20E
330
206
100
AcDbEntity
  8
VERMASSUNG
100
AcDbLine
 10
190.2015695067
 20
134.252703083
 30
0.0
 11
190.2015695067
 21
153.8247563223
 31
0.0
  0
LINE
  5
20F
330
206
100
AcDbEntity
  8
VERMASSUNG
100
AcDbLine
 10
94.5515695067
 20
152.8247563223
 30
0.0
 11
190.2015695067
 21
152.8247563223
 31
0.0
  0
MTEXT
  5
210
330
206
100
AcDbEntity
  8
VERMASSUNG
100
AcDbMText
 10
139.2771771277
 20
155.4028919183
 30
0.0
 40
2.0
 41
0.0
 71
     1
 72
     1
  1
95.65
  7
SLDTEXTSTYLE0
 73
     1
 44
1.0
  0
ENDBLK
  5
208
330
206
100
AcDbEntity
  8
0
100
AcDbBlockEnd
  0
ENDSEC
  0
SECTION
  2
ENTITIES
  0
MTEXT
  5
78
330
1F
100
AcDbEntity
  8
KOPF_DÜNN
100
AcDbMText
 10
13.8892156294
 20
23.8442973028
 30
0.0
 40
3.0
 41
0.0
 71
     1
 72
     1
  1
A14.430.050.048
  7
SLDTEXTSTYLE0
 73
     1
 44
1.0
  0
MTEXT
  5
79
330
1F
100
AcDbEntity
  8
VERMASSUNG
100
AcDbMText
 10
13.9329988022
 20
28.8834360957
 30
0.0
 40
3.0
 41
0.0
 71
     1
 72
     1
  1
Aufnahme_Master shank WH50
  7
SLDTEXTSTYLE0
 73
     1
 44
1.0
  0
MTEXT
  5
7A
330
1F
100
AcDbEntity
  8
VERMASSUNG
100
AcDbMText
 10
98.8601118557
 20
13.8365368761
 30
0.0
 40
2.0
 41
0.0
 71
     1
 72
     1
  1
Datum: 01.09.2011
  7
SLDTEXTSTYLE0
 73
     1
 44
1.0
  0
MTEXT
  5
7B
330
1F
100
AcDbEntity
  8
VERMASSUNG
100
AcDbMText
 10
13.933048693
 20
18.0482802738
 30
0.0
 40
2.0
 41
0.0
 71
     1
 72
     1
  1
DIN 69 871 AD/B
  7
SLDTEXTSTYLE0
 73
     1
 44
1.0
  0
MTEXT
  5
7C
330
1F
100
AcDbEntity
  8
VERMASSUNG
100
AcDbMText
 10
13.9808475933
 20
13.9090974274
 30
0.0
 40
2.0
 41
0.0
 71
     1
 72
     1
  1
Gewicht: 620g
  7
SLDTEXTSTYLE0
 73
     1
 44
1.0
  0
LINE
  5
7D
330
1F
100
AcDbEntity
  8
0
  6
Continuous
 62
     7
370
    15
100
AcDbLine
 10
170.8515695067
 20
132.252703083
 30
0.0
 11
170.4512993994
 21
131.8524329757
 31
0.0
  0
LINE
  5
7E
330
1F
100
AcDbEntity
  8
0
  6
Continuous
 62
     7
370
    15
100
AcDbLine
 10
189.7015695067
 20
134.752703083
 30
0.0
 11
186.1445696583
 21
134.752703083
 31
0.0
  0
LINE
  5
7F
330
1F
100
AcDbEntity
  8
0
  6
Continuous
 62
     7
370
    15
100
AcDbLine
 10
177.2015695067
 20
84.752703083
 30
0.0
 11
189.7015695067
 21
84.752703083
 31
0.0
  0
LINE
  5
80
330
1F
100
AcDbEntity
  8
0
  6
Continuous
 62
     7
370
    15
100
AcDbLine
 10
189.7015695067
 20
84.752703083
 30
0.0
 11
190.2015695067
 21
85.252703083
 31
0.0
  0
LINE
  5
81
330
1F
100
AcDbEntity
  8
0
  6
Continuous
 62
     7
370
    15
100
AcDbLine
 10
190.2015695067
 20
134.252703083
 30
0.0
 11
189.7015695067
 21
134.752703083
 31
0.0
  0
LINE
  5
82
330
1F
100
AcDbEntity
  8
0
  6
Continuous
 62
     7
370
    15
100
AcDbLine
 10
169.27833161
 20
87.252703083
 30
0.0
 11
176.2015695067
 21
87.252703083
 31
0.0
  0
ARC
  5
83
330
1F
100
AcDbEntity
  8
0
  6
Continuous
 62
     7
370
    15
100
AcDbCircle
 10
176.2015695067
 20
86.252703083
 30
0.0
 40
1.0
100
AcDbArc
 50
0.0
 51
90.0
  0
ARC
  5
84
330
1F
100
AcDbEntity
  8
0
  6
Continuous
 62
     7
370
    15
100
AcDbCircle
 10
144.8015695067
 20
93.277703083
 30
0.0
 40
0.5999999999999943
100
AcDbArc
 50
0.0
 51
90.0
  0
ARC
  5
85
330
1F
100
AcDbEntity
  8
0
  6
Continuous
 62
     7
370
    15
100
AcDbCircle
 10
144.8015695067
 20
126.227703083
 30
0.0
 40
0.5999999999999943
100
AcDbArc
 50
270.0
 51
0.0
  0
LINE
  5
86
330
1F
100
AcDbEntity
  8
0
  6
Continuous
 62
     7
370
    15
100
AcDbLine
 10
142.2015695067
 20
93.877703083
 30
0.0
 11
144.8015695067
 21
93.877703083
 31
0.0
  0
LINE
  5
87
330
1F
100
AcDbEntity
  8
0
  6
Continuous
 62
     7
370
    15
100
AcDbLine
 10
144.8015695067
 20
125.627703083
 30
0.0
 11
142.2015695067
 21
125.627703083
 31
0.0
  0
LINE
  5
88
330
1F
100
AcDbEntity
  8
0
  6
Continuous
 62
     7
370
    15
100
AcDbLine
 10
142.2015695067
 20
125.627703083
 30
0.0
 11
95.4072626137
 21
118.8035333277
 31
0.0
  0
LINE
  5
89
330
1F
100
AcDbEntity
  8
0
  6
Continuous
 62
     7
370
    15
100
AcDbLine
 10
95.4072626137
 20
100.7018728382
 30
0.0
 11
142.2015695067
 21
93.877703083
 31
0.0
  0
ARC
  5
8A
330
1F
100
AcDbEntity
  8
0
  6
Continuous
 62
     7
370
    15
100
AcDbCircle
 10
95.5515695067
 20
101.6914058193
 30
0.0
 40
1.0
100
AcDbArc
 50
180.0
 51
261.7028550302
  0
ARC
  5
8B
330
1F
100
AcDbEntity
  8
0
  6
Continuous
 62
     7
370
    15
100
AcDbCircle
 10
95.5515695067
 20
117.8140003467
 30
0.0
 40
1.0
100
AcDbArc
 50
98.2971449698
 51
180.0
  0
SPLINE
  5
8C
330
1F
100
AcDbEntity
  8
0
  6
Continuous
 62
     7
370
    15
100
AcDbSpline
210
0.0
220
0.0
230
1.0
 70
    24
 71
     3
 72
    11
 73
     7
 74
     0
 42
0.000000001
 43
0.00000001
 40
0.0
 40
0.0
 40
0.0
 40
0.0
 40
0.216455377944337
 40
0.4403112895790592
 40
0.7519005688038856
 40
0.9999999999999999
 40
0.9999999999999999
 40
0.9999999999999999
 40
0.9999999999999999
 10
173.0072173825107
 20
108.2990698008214
 30
0.0
 10
173.2011476952904
 20
108.1623232224922
 30
0.0
 10
173.5956387304379
 20
107.884154748133
 30
0.0
 10
174.3277087296528
 20
107.3679483539126
 30
0.0
 10
175.1129851217931
 20
106.8142243995259
 30
0.0
 10
175.6155148572461
 20
106.4598743196087
 30
0.0
 10
175.8382767947368
 20
106.3027976238761
 30
0.0
  0
SPLINE
  5
8D
330
1F
100
AcDbEntity
  8
0
  6
Continuous
 62
     7
370
    15
100
AcDbSpline
210
0.0
220
0.0
230
1.0
 70
    24
 71
     3
 72
    11
 73
     7
 74
     0
 42
0.000000001
 43
0.00000001
 40
0.0
 40
0.0
 40
0.0
 40
0.0
 40
0.216455377944356
 40
0.4403112895790561
 40
0.7519005688038883
 40
1.0
 40
1.0
 40
1.0
 40
1.0
 10
175.8382767947368
 20
106.3027976238761
 30
0.0
 10
176.0536679618403
 20
106.4023729121427
 30
0.0
 10
176.4918144447412
 20
106.604927932966
 30
0.0
 10
177.3048972953394
 20
106.9808159525244
 30
0.0
 10
178.1770745025924
 20
107.3840232799166
 30
0.0
 10
178.7352155413603
 20
107.6420517570174
 30
0.0
 10
178.9826289189526
 20
107.7564309060143
 30
0.0
  0
SPLINE
  5
8E
330
1F
100
AcDbEntity
  8
0
  6
Continuous
 62
     7
370
    15
100
AcDbSpline
210
0.0
220
0.0
230
1.0
 70
    24
 71
     3
 72
    21
 73
    17
 74
     0
 42
0.000000001
 43
0.00000001
 40
0.0
 40
0.0
 40
0.0
 40
0.0
 40
0.0459884793660913
 40
0.1381576750354609
 40
0.1843685985639433
 40
0.2461032364962109
 40
0.3080383296587551
 40
0.3918029824329289
 40
0.5197555617867609
 40
0.562749347622282
 40
0.649261098967612
 40
0.7373630866510288
 40
0.8269240350124366
 40
0.8718879817001248
 40
0.9679335170027017
 40
1.0
 40
1.0
 40
1.0
 40
1.0
 10
178.9826289189526
 20
107.7564309060143
 30
0.0
 10
178.9871333071605
 20
107.8060321666678
 30
0.0
 10
179.0006653006257
 20
107.9550432873914
 30
0.0
 10
179.0191610831342
 20
108.1587144824234
 30
0.0
 10
179.0396255875288
 20
108.3840647785744
 30
0.0
 10
179.0572809130661
 20
108.5784810596483
 30
0.0
 10
179.0792048763326
 20
108.8199025727044
 30
0.0
 10
179.1086251990304
 20
109.143872227915
 30
0.0
 10
179.1364990481886
 20
109.4508124812196
 30
0.0
 10
179.1645548126078
 20
109.7597559424752
 30
0.0
 10
179.1881462818723
 20
110.0195396383256
 30
0.0
 10
179.2162854335492
 20
110.3294013403985
 30
0.0
 10
179.2394477854102
 20
110.5844596966018
 30
0.0
 10
179.2629521929666
 20
110.8432846894552
 30
0.0
 10
179.2802503910021
 20
111.0337683667018
 30
0.0
 10
179.2927843712911
 20
111.1717896016956
 30
0.0
 10
179.2959216309422
 20
111.2063363650979
 30
0.0
  0
SPLINE
  5
8F
330
1F
100
AcDbEntity
  8
0
  6
Continuous
 62
     7
370
    15
100
AcDbSpline
210
0.0
220
0.0
230
1.0
 70
    24
 71
     3
 72
    11
 73
     7
 74
     0
 42
0.000000001
 43
0.00000001
 40
0.0
 40
0.0
 40
0.0
 40
0.0
 40
0.216455377944341
 40
0.4403112895790512
 40
0.7519005688038857
 40
0.9999999999999999
 40
0.9999999999999999
 40
0.9999999999999999
 40
0.9999999999999999
 10
179.2959216309422
 20
111.2063363650979
 30
0.0
 10
179.1019913181624
 20
111.343082943427
 30
0.0
 10
178.7075002830149
 20
111.6212514177863
 30
0.0
 10
177.9754302838001
 20
112.1374578120067
 30
0.0
 10
177.1901538916598
 20
112.6911817663933
 30
0.0
 10
176.6876241562067
 20
113.0455318463106
 30
0.0
 10
176.464862218716
 20
113.2026085420432
 30
0.0
  0
SPLINE
  5
90
330
1F
100
AcDbEntity
  8
0
  6
Continuous
 62
     7
370
    15
100
AcDbSpline
210
0.0
220
0.0
230
1.0
 70
    24
 71
     3
 72
    11
 73
     7
 74
     0
 42
0.000000001
 43
0.00000001
 40
0.0
 40
0.0
 40
0.0
 40
0.0
 40
0.2164553779443464
 40
0.4403112895790684
 40
0.751900568803894
 40
0.9999999999999999
 40
0.9999999999999999
 40
0.9999999999999999
 40
0.9999999999999999
 10
176.464862218716
 20
113.2026085420432
 30
0.0
 10
176.2494710516125
 20
113.1030332537766
 30
0.0
 10
175.8113245687117
 20
112.9004782329532
 30
0.0
 10
174.9982417181134
 20
112.5245902133949
 30
0.0
 10
174.1260645108604
 20
112.1213828860026
 30
0.0
 10
173.5679234720925
 20
111.8633544089018
 30
0.0
 10
173.3205100945003
 20
111.7489752599049
 30
0.0
  0
SPLINE
  5
91
330
1F
100
AcDbEntity
  8
0
  6
Continuous
 62
     7
370
    15
100
AcDbSpline
210
0.0
220
0.0
230
1.0
 70
    24
 71
     3
 72
    21
 73
    17
 74
     0
 42
0.000000001
 43
0.00000001
 40
0.0
 40
0.0
 40
0.0
 40
0.0
 40
0.0320027986439999
 40
0.128125859610247
 40
0.1857521610573335
 40
0.2433822027624465
 40
0.3019909635887064
 40
0.360807069785516
 40
0.4204293179417246
 40
0.4803400136413059
 40
0.6453907657235572
 40
0.701613147344669
 40
0.7585492287763848
 40
0.8156510903713452
 40
0.9537817175651953
 40
1.0
 40
1.0
 40
1.0
 40
1.0
 10
173.3205100945003
 20
111.7489752599049
 30
0.0
 10
173.3173793996728
 20
111.7145007867923
 30
0.0
 10
173.3048454031807
 20
111.5764793733745
 30
0.0
 10
173.2862838755728
 20
111.3720842088112
 30
0.0
 10
173.2646963463532
 20
111.1343674281371
 30
0.0
 10
173.246633508309
 20
110.9354637154422
 30
0.0
 10
173.2281555676723
 20
110.7319889908924
 30
0.0
 10
173.2092033666615
 20
110.5232918229519
 30
0.0
 10
173.189898710568
 20
110.3107135027613
 30
0.0
 10
173.1588984356565
 20
109.9693457863823
 30
0.0
 10
173.1280766797477
 20
109.6299438791585
 30
0.0
 10
173.0983415607095
 20
109.302507760888
 30
0.0
 10
173.0803794000056
 20
109.1047126833207
 30
0.0
 10
173.0542022456281
 20
108.8164560328011
 30
0.0
 10
173.0297992669064
 20
108.5477361861908
 30
0.0
 10
173.0117440278741
 20
108.3489161520225
 30
0.0
 10
173.0072173825107
 20
108.2990698008214
 30
0.0
  0
CIRCLE
  5
92
330
1F
100
AcDbEntity
  8
0
  6
Continuous
 62
     7
370
    15
100
AcDbCircle
 10
176.1515695067
 20
109.752703083
 30
0.0
 40
3.600000000000024
  0
CIRCLE
  5
93
330
1F
100
AcDbEntity
  8
0
  6
Continuous
 62
     7
370
    15
100
AcDbCircle
 10
176.1515695067
 20
109.752703083
 30
0.0
 40
6.000000000000022
  0
CIRCLE
  5
94
330
1F
100
AcDbEntity
  8
0
  6
Continuous
 62
     7
370
    15
100
AcDbCircle
 10
176.1515695067
 20
109.752703083
 30
0.0
 40
5.300000000000017
  0
ARC
  5
95
330
1F
100
AcDbEntity
  8
0
  6
Continuous
 62
     7
370
    15
100
AcDbCircle
 10
176.1515695067
 20
109.752703083
 30
0.0
 40
3.000000000000032
100
AcDbArc
 50
354.8110901317
 51
54.8110901317
  0
ARC
  5
96
330
1F
100
AcDbEntity
  8
0
  6
Continuous
 62
     7
370
    15
100
AcDbCircle
 10
176.1515695067
 20
109.752703083
 30
0.0
 40
3.000000000000029
100
AcDbArc
 50
114.8110901317
 51
174.8110901317
  0
ARC
  5
97
330
1F
100
AcDbEntity
  8
0
  6
Continuous
 62
     7
370
    15
100
AcDbCircle
 10
176.1515695067
 20
109.752703083
 30
0.0
 40
3.00000000000006
100
AcDbArc
 50
174.8110901317
 51
234.8110901317
  0
ARC
  5
98
330
1F
100
AcDbEntity
  8
0
  6
Continuous
 62
     7
370
    15
100
AcDbCircle
 10
176.1515695067
 20
109.752703083
 30
0.0
 40
3.000000000000017
100
AcDbArc
 50
294.8110901317
 51
354.8110901317
  0
ARC
  5
99
330
1F
100
AcDbEntity
  8
0
  6
Continuous
 62
     7
370
    15
100
AcDbCircle
 10
176.1515695067
 20
109.752703083
 30
0.0
 40
3.000000000000032
100
AcDbArc
 50
54.8110901317
 51
114.8110901317
  0
ARC
  5
9A
330
1F
100
AcDbEntity
  8
0
  6
Continuous
 62
     7
370
    15
100
AcDbCircle
 10
176.1515695067
 20
109.752703083
 30
0.0
 40
3.00000000000006
100
AcDbArc
 50
234.8110901317
 51
294.8110901317
  0
LINE
  5
9B
330
1F
100
AcDbEntity
  8
0
  6
Continuous
 62
     7
370
    15
100
AcDbLine
 10
172.236579433
 20
131.552703083
 30
0.0
 11
176.9424355882
 21
131.552703083
 31
0.0
  0
LINE
  5
9C
330
1F
100
AcDbEntity
  8
0
  6
Continuous
 62
     7
370
    15
100
AcDbLine
 10
170.8515695067
 20
132.252703083
 30
0.0
 11
177.2015695067
 21
132.252703083
 31
0.0
  0
SPLINE
  5
9D
330
1F
100
AcDbEntity
  8
0
  6
Continuous
 62
     7
370
    15
100
AcDbSpline
210
0.0
220
0.0
230
1.0
 70
    24
 71
     3
 72
     8
 73
     4
 74
     0
 42
0.000000001
 43
0.00000001
 40
0.0
 40
0.0
 40
0.0
 40
0.0
 40
1.0
 40
1.0
 40
1.0
 40
1.0
 10
177.2015695067265
 20
101.292593303029
 30
0.0
 10
177.2015695067265
 20
101.6886070039703
 30
0.0
 10
177.2015695067265
 20
102.0848246328027
 30
0.0
 10
177.2015695067265
 20
102.481364388021
 30
0.0
  0
SPLINE
  5
9E
330
1F
100
AcDbEntity
  8
0
  6
Continuous
 62
     7
370
    15
100
AcDbSpline
210
0.0
220
0.0
230
1.0
 70
     8
 71
     3
 72
    14
 73
    10
 74
     0
 42
0.000000001
 43
0.00000001
 40
0.0
 40
0.0
 40
0.0
 40
0.0
 40
0.25
 40
0.25
 40
0.5
 40
0.5
 40
0.75
 40
0.75
 40
1.0
 40
1.0
 40
1.0
 40
1.0
 10
176.2015695067265
 20
103.2216347291662
 30
0.0
 10
176.3408014682539
 20
103.2224525675642
 30
0.0
 10
176.4777304749554
 20
103.2033138148478
 30
0.0
 10
176.7265290943441
 20
103.1290535043821
 30
0.0
 10
176.8382989057469
 20
103.0735256471318
 30
0.0
 10
177.0180417574968
 20
102.9365886079206
 30
0.0
 10
177.0873167091875
 20
102.8545717811286
 30
0.0
 10
177.1789046827311
 20
102.6760236616582
 30
0.0
 10
177.2015695067265
 20
102.5800755332861
 30
0.0
 10
177.2015695067265
 20
102.481364388021
 30
0.0
  0
SPLINE
  5
9F
330
1F
100
AcDbEntity
  8
0
  6
Continuous
 62
     7
370
    15
100
AcDbSpline
210
0.0
220
0.0
230
1.0
 70
     8
 71
     3
 72
    48
 73
    44
 74
     0
 42
0.000000001
 43
0.00000001
 40
0.0
 40
0.0
 40
0.0
 40
0.0
 40
0.0624999999999995
 40
0.0624999999999995
 40
0.124999999999999
 40
0.124999999999999
 40
0.1874999999999994
 40
0.1874999999999994
 40
0.2499999999999998
 40
0.2499999999999998
 40
0.2812499999999998
 40
0.2812499999999998
 40
0.3124999999999998
 40
0.3124999999999998
 40
0.3749999999999994
 40
0.3749999999999994
 40
0.4062499999999993
 40
0.4062499999999993
 40
0.4374999999999992
 40
0.4374999999999992
 40
0.468749999999999
 40
0.468749999999999
 40
0.4999999999999989
 40
0.4999999999999989
 40
0.5624999999999988
 40
0.5624999999999988
 40
0.5937499999999986
 40
0.5937499999999986
 40
0.6249999999999984
 40
0.6249999999999984
 40
0.6874999999999983
 40
0.6874999999999983
 40
0.749999999999998
 40
0.749999999999998
 40
0.8124999999999978
 40
0.8124999999999978
 40
0.8437499999999979
 40
0.8437499999999979
 40
0.874999999999998
 40
0.874999999999998
 40
0.9374999999999989
 40
0.9374999999999989
 40
1.0
 40
1.0
 40
1.0
 40
1.0
 10
176.2015695067264
 20
116.283771436753
 30
0.0
 10
175.7391405357219
 20
116.2864877108373
 30
0.0
 10
175.270398208926
 20
116.2507949506609
 30
0.0
 10
174.3596666222065
 20
116.1055612813227
 30
0.0
 10
173.9135165332962
 20
115.996462999188
 30
0.0
 10
173.0399051698
 20
115.7033233795084
 30
0.0
 10
172.6108132623332
 20
115.5175548412253
 30
0.0
 10
171.8057266243524
 20
115.0813442741027
 30
0.0
 10
171.4253346677969
 20
114.8299095274215
 30
0.0
 10
170.8899055286674
 20
114.3986748828145
 30
0.0
 10
170.7164487982791
 20
114.2449611104968
 30
0.0
 10
170.3866801172966
 20
113.9220767004282
 30
0.0
 10
170.2311273073431
 20
113.7538357451837
 30
0.0
 10
169.7925841951412
 20
113.2284272282122
 30
0.0
 10
169.5373296807638
 20
112.8508548564468
 30
0.0
 10
169.2166145911098
 20
112.2379899872678
 30
0.0
 10
169.1197049137722
 20
112.0243277257437
 30
0.0
 10
168.9536384618682
 20
111.5923308420906
 30
0.0
 10
168.8838008261864
 20
111.3730802453805
 30
0.0
 10
168.7706560060424
 20
110.9280120446238
 30
0.0
 10
168.7273461151981
 20
110.7021951426371
 30
0.0
 10
168.6682914438868
 20
110.2437200387248
 30
0.0
 10
168.6525740063687
 20
110.0092782191543
 30
0.0
 10
168.6497022870774
 20
109.3087268537483
 30
0.0
 10
168.7053383252166
 20
108.8499410068311
 30
0.0
 10
168.8716042076797
 20
108.1735910853471
 30
0.0
 10
168.9414867287884
 20
107.9490924721202
 30
0.0
 10
169.1052109710363
 20
107.5150338846615
 30
0.0
 10
169.1992192719906
 20
107.3042410740998
 30
0.0
 10
169.5157591014102
 20
106.6894774068842
 30
0.0
 10
169.7758366832928
 20
106.299695173083
 30
0.0
 10
170.3632453697912
 20
105.59076655392
 30
0.0
 10
170.6909594644901
 20
105.2688433683106
 30
0.0
 10
171.4108377694819
 20
104.6853805901222
 30
0.0
 10
171.7949963876519
 20
104.430613083684
 30
0.0
 10
172.4005649226109
 20
104.1014119556349
 30
0.0
 10
172.6075844712012
 20
104.0003976926652
 30
0.0
 10
173.0319734643482
 20
103.8156701372481
 30
0.0
 10
173.2500090391652
 20
103.7318146250653
 30
0.0
 10
173.9083262195186
 20
103.5102320418979
 30
0.0
 10
174.3559962568982
 20
103.4005864676373
 30
0.0
 10
175.2685206502159
 20
103.2547553026052
 30
0.0
 10
175.7377200508345
 20
103.2189101112572
 30
0.0
 10
176.2015695067265
 20
103.2216347291662
 30
0.0
  0
SPLINE
  5
A0
330
1F
100
AcDbEntity
  8
0
  6
Continuous
 62
     7
370
    15
100
AcDbSpline
210
0.0
220
0.0
230
1.0
 70
     8
 71
     3
 72
    14
 73
    10
 74
     0
 42
0.000000001
 43
0.00000001
 40
0.0
 40
0.0
 40
0.0
 40
0.0
 40
0.25
 40
0.25
 40
0.5
 40
0.5
 40
0.75
 40
0.75
 40
1.0
 40
1.0
 40
1.0
 40
1.0
 10
177.2015695067265
 20
117.0240417778983
 30
0.0
 10
177.2015695067265
 20
116.9252050837266
 30
0.0
 10
177.1793588454949
 20
116.8304155855721
 30
0.0
 10
177.0872477766361
 20
116.6505529147201
 30
0.0
 10
177.0197173532048
 20
116.5702585401207
 30
0.0
 10
176.8381384454039
 20
116.4315952076109
 30
0.0
 10
176.7280628159735
 20
116.3769169838105
 30
0.0
 10
176.478019179564
 20
116.3020727520398
 30
0.0
 10
176.3411028770675
 20
116.2829518279017
 30
0.0
 10
176.2015695067265
 20
116.283771436753
 30
0.0
  0
SPLINE
  5
A1
330
1F
100
AcDbEntity
  8
0
  6
Continuous
 62
     7
370
    15
100
AcDbSpline
210
0.0
220
0.0
230
1.0
 70
    24
 71
     3
 72
     8
 73
     4
 74
     0
 42
0.000000001
 43
0.00000001
 40
0.0
 40
0.0
 40
0.0
 40
0.0
 40
1.0
 40
1.0
 40
1.0
 40
1.0
 10
177.2015695067265
 20
117.0240417778983
 30
0.0
 10
177.2015695067265
 20
117.42058149112
 30
0.0
 10
177.2015695067265
 20
117.8167991258528
 30
0.0
 10
177.2015695067265
 20
118.2128128628902
 30
0.0
  0
SPLINE
  5
A2
330
1F
100
AcDbEntity
  8
0
  6
Continuous
 62
     7
370
    15
100
AcDbSpline
210
0.0
220
0.0
230
1.0
 70
     8
 71
     3
 72
    52
 73
    48
 74
     0
 42
0.000000001
 43
0.00000001
 40
0.0
 40
0.0
 40
0.0
 40
0.0
 40
0.0624999999999997
 40
0.0624999999999997
 40
0.0937499999999993
 40
0.0937499999999993
 40
0.1249999999999988
 40
0.1249999999999988
 40
0.1874999999999985
 40
0.1874999999999985
 40
0.2187499999999984
 40
0.2187499999999984
 40
0.2499999999999983
 40
0.2499999999999983
 40
0.3124999999999986
 40
0.3124999999999986
 40
0.3437499999999987
 40
0.3437499999999987
 40
0.3749999999999988
 40
0.3749999999999988
 40
0.4374999999999988
 40
0.4374999999999988
 40
0.4687499999999987
 40
0.4687499999999987
 40
0.4999999999999986
 40
0.4999999999999986
 40
0.5312499999999984
 40
0.5312499999999984
 40
0.5624999999999983
 40
0.5624999999999983
 40
0.5937499999999981
 40
0.5937499999999981
 40
0.624999999999998
 40
0.624999999999998
 40
0.687499999999998
 40
0.687499999999998
 40
0.7187499999999982
 40
0.7187499999999982
 40
0.7499999999999983
 40
0.7499999999999983
 40
0.8124999999999988
 40
0.8124999999999988
 40
0.8749999999999992
 40
0.8749999999999992
 40
0.9374999999999996
 40
0.9374999999999996
 40
1.0
 40
1.0
 40
1.0
 40
1.0
 10
177.2015695067264
 20
118.2128128628902
 30
0.0
 10
177.7631043843036
 20
118.1616574650891
 30
0.0
 10
178.3166912629777
 20
118.0700452297928
 30
0.0
 10
179.1351979090106
 20
117.871449865384
 30
0.0
 10
179.4060455987929
 20
117.795003376918
 30
0.0
 10
179.943654312453
 20
117.6208385778537
 30
0.0
 10
180.2100085607746
 20
117.5231260907544
 30
0.0
 10
180.9886671217836
 20
117.2028069818985
 30
0.0
 10
181.4855319510172
 20
116.951800317661
 30
0.0
 10
182.1971063085958
 20
116.5169639451402
 30
0.0
 10
182.4286448260621
 20
116.3622393123769
 30
0.0
 10
182.8799017512124
 20
116.0320491465101
 30
0.0
 10
183.1006426319754
 20
115.8556314314526
 30
0.0
 10
183.7337600913597
 20
115.3015630999399
 30
0.0
 10
184.1185528242409
 20
114.8991710591362
 30
0.0
 10
184.6360615522519
 20
114.2414137145048
 30
0.0
 10
184.7985494590171
 20
114.0130721457859
 30
0.0
 10
185.1018273212011
 20
113.536487110105
 30
0.0
 10
185.2412961114912
 20
113.2900491676766
 30
0.0
 10
185.6165020790103
 20
112.5356379440948
 30
0.0
 10
185.8120844531432
 20
112.0088758041337
 30
0.0
 10
186.013982637931
 20
111.1783223585898
 30
0.0
 10
186.0649557403489
 20
110.8978987164102
 30
0.0
 10
186.1331398528174
 20
110.3377511902897
 30
0.0
 10
186.150654011426
 20
110.0568190152012
 30
0.0
 10
186.152415246296
 20
109.4932303761948
 30
0.0
 10
186.1366651223983
 20
109.2105740510867
 30
0.0
 10
186.0708128261319
 20
108.6434824550702
 30
0.0
 10
186.0209919442854
 20
108.3626790068971
 30
0.0
 10
185.8905108978691
 20
107.8132637293422
 30
0.0
 10
185.8097180847747
 20
107.543496370867
 30
0.0
 10
185.6181173894324
 20
107.0134511553771
 30
0.0
 10
185.5068105990355
 20
106.7521900418011
 30
0.0
 10
185.1315195343935
 20
105.98919919826
 30
0.0
 10
184.8311745382714
 20
105.5159808728462
 30
0.0
 10
184.3137599398861
 20
104.852535834609
 30
0.0
 10
184.1291599386649
 20
104.6383116296183
 30
0.0
 10
183.7424274548405
 20
104.229913222795
 30
0.0
 10
183.5407018593434
 20
104.0359509931144
 30
0.0
 10
182.9118983107739
 20
103.4826142641058
 30
0.0
 10
182.461396211229
 20
103.1515447713426
 30
0.0
 10
181.4996954830021
 20
102.5607306051969
 30
0.0
 10
180.9993510564936
 20
102.3077425727548
 30
0.0
 10
179.9643236690034
 20
101.8804811745436
 30
0.0
 10
179.4282421003588
 20
101.7057995146156
 30
0.0
 10
178.3240170310317
 20
101.4364151465382
 30
0.0
 10
177.7657947677683
 20
101.3439937927058
 30
0.0
 10
177.2015695067265
 20
101.292593303029
 30
0.0
  0
LINE
  5
A3
330
1F
100
AcDbEntity
  8
0
  6
Continuous
 62
     7
370
    15
100
AcDbLine
 10
177.2015695067
 20
133.2777225837
 30
0.0
 11
177.2015695067
 21
118.2128128629
 31
0.0
  0
SPLINE
  5
A4
330
1F
100
AcDbEntity
  8
0
  6
Continuous
 62
     7
370
    15
100
AcDbSpline
210
0.0
220
0.0
230
1.0
 70
     8
 71
     3
 72
    23
 73
    19
 74
     0
 42
0.000000001
 43
0.00000001
 40
0.0
 40
0.0
 40
0.0
 40
0.0
 40
0.0203645883218917
 40
0.0680389963843672
 40
0.1584453647208132
 40
0.2396795010295945
 40
0.3344568210351337
 40
0.4193484571770274
 40
0.4705728328067109
 40
0.5287527094719213
 40
0.6266265334121661
 40
0.6863974800148337
 40
0.7466609062697384
 40
0.807645287357921
 40
0.8691284452389663
 40
0.9343957730048178
 40
0.9835664064726656
 40
1.0
 40
1.0
 40
1.0
 40
1.0
 10
186.1445696583165
 20
134.7507037542281
 30
0.0
 10
186.1461810063759
 20
134.7511638291464
 30
0.0
 10
186.1515645919928
 20
134.752700959935
 30
0.0
 10
186.0811622267807
 20
134.7326003708615
 30
0.0
 10
185.8743578645216
 20
134.6739698407762
 30
0.0
 10
185.435929762732
 20
134.5533769655059
 30
0.0
 10
184.8483886655127
 20
134.3991019440704
 30
0.0
 10
184.2060857040735
 20
134.2418166500074
 30
0.0
 10
183.6004588280151
 20
134.1035427953515
 30
0.0
 10
182.9037672848698
 20
133.954322405599
 30
0.0
 10
182.1113363423812
 20
133.8019421669114
 30
0.0
 10
181.2580770358539
 20
133.6602017587367
 30
0.0
 10
180.5196797427379
 20
133.5529639733569
 30
0.0
 10
179.7489898217514
 20
133.4582760196043
 30
0.0
 10
178.935727796893
 20
133.3775535625397
 30
0.0
 10
178.1573580541309
 20
133.3202958717868
 30
0.0
 10
177.5710241683171
 20
133.2906200356119
 30
0.0
 10
177.2755776617053
 20
133.2803061662809
 30
0.0
 10
177.2015695067265
 20
133.2777225837277
 30
0.0
  0
LINE
  5
A5
330
1F
100
AcDbEntity
  8
0
  6
Continuous
 62
     7
370
    15
100
AcDbLine
 10
177.2015695067
 20
101.292593303
 30
0.0
 11
177.2015695067
 21
84.752703083
 31
0.0
  0
LINE
  5
A6
330
1F
100
AcDbEntity
  8
0
  6
Continuous
 62
     7
370
    15
100
AcDbLine
 10
189.7015695067
 20
109.752703083
 30
0.0
 11
189.7015695067
 21
84.752703083
 31
0.0
  0
LINE
  5
A7
330
1F
100
AcDbEntity
  8
0
  6
Continuous
 62
     7
370
    15
100
AcDbLine
 10
189.7015695067
 20
134.752703083
 30
0.0
 11
189.7015695067
 21
109.752703083
 31
0.0
  0
LINE
  5
A8
330
1F
100
AcDbEntity
  8
0
  6
Continuous
 62
     7
370
    15
100
AcDbLine
 10
190.2015695067
 20
109.752703083
 30
0.0
 11
190.2015695067
 21
85.252703083
 31
0.0
  0
LINE
  5
A9
330
1F
100
AcDbEntity
  8
0
  6
Continuous
 62
     7
370
    15
100
AcDbLine
 10
190.2015695067
 20
134.252703083
 30
0.0
 11
190.2015695067
 21
109.752703083
 31
0.0
  0
LINE
  5
AA
330
1F
100
AcDbEntity
  8
0
  6
Continuous
 62
     7
370
    15
100
AcDbLine
 10
156.6646348248
 20
86.4449680258
 30
0.0
 11
160.6515695067
 21
86.4449680258
 31
0.0
  0
LINE
  5
AB
330
1F
100
AcDbEntity
  8
0
  6
Continuous
 62
     7
370
    15
100
AcDbLine
 10
156.6646348248
 20
86.4449680258
 30
0.0
 11
156.6646348248
 21
124.602703083
 31
0.0
  0
LINE
  5
AC
330
1F
100
AcDbEntity
  8
0
  6
Continuous
 62
     7
370
    15
100
AcDbLine
 10
160.6515695067
 20
124.602703083
 30
0.0
 11
156.6646348248
 21
124.602703083
 31
0.0
  0
SPLINE
  5
AD
330
1F
100
AcDbEntity
  8
0
  6
Continuous
 62
     7
370
    15
100
AcDbSpline
210
0.0
220
0.0
230
1.0
 70
     8
 71
     3
 72
    12
 73
     8
 74
     0
 42
0.000000001
 43
0.00000001
 40
0.0
 40
0.0
 40
0.0
 40
0.0
 40
0.2499999999999991
 40
0.2499999999999991
 40
0.4999999999999982
 40
0.4999999999999982
 40
1.0
 40
1.0
 40
1.0
 40
1.0
 10
160.6515695067265
 20
86.44496802579704
 30
0.0
 10
160.7467835445083
 20
86.44496802579704
 30
0.0
 10
160.8387089433933
 20
86.45897507949002
 30
0.0
 10
160.9949497616561
 20
86.50536846042293
 30
0.0
 10
161.0587559313452
 20
86.53695710211979
 30
0.0
 10
161.2080821523969
 20
86.64323796593214
 30
0.0
 10
161.2515695067264
 20
86.72617879490345
 30
0.0
 10
161.2515695067264
 20
86.80954242077637
 30
0.0
  0
SPLINE
  5
AE
330
1F
100
AcDbEntity
  8
0
  6
Continuous
 62
     7
370
    15
100
AcDbSpline
210
0.0
220
0.0
230
1.0
 70
    24
 71
     3
 72
    14
 73
    10
 74
     0
 42
0.000000001
 43
0.00000001
 40
0.0
 40
0.0
 40
0.0
 40
0.0
 40
0.25
 40
0.25
 40
0.5
 40
0.5
 40
0.75
 40
0.75
 40
1.0
 40
1.0
 40
1.0
 40
1.0
 10
161.2515695067264
 20
124.6027030829596
 30
0.0
 10
161.2515695067264
 20
124.6027030829596
 30
0.0
 10
161.2392629288496
 20
124.6027030829596
 30
0.0
 10
161.1892950844759
 20
124.6027030829596
 30
0.0
 10
161.1510922199038
 20
124.6027030829596
 30
0.0
 10
161.0482041524352
 20
124.6027030829596
 30
0.0
 10
160.9831763106703
 20
124.6027030829596
 30
0.0
 10
160.8279129667504
 20
124.6027030829596
 30
0.0
 10
160.7402259792815
 20
124.6027030829596
 30
0.0
 10
160.6515695067264
 20
124.6027030829596
 30
0.0
  0
LINE
  5
AF
330
1F
100
AcDbEntity
  8
0
  6
Continuous
 62
     7
370
    15
100
AcDbLine
 10
161.2515695067
 20
86.8095424208
 30
0.0
 11
161.2515695067
 21
124.602703083
 31
0.0
  0
SPLINE
  5
B0
330
1F
100
AcDbEntity
  8
0
  6
Continuous
 62
     7
370
    15
100
AcDbSpline
210
0.0
220
0.0
230
1.0
 70
     8
 71
     3
 72
     8
 73
     4
 74
     0
 42
0.000000001
 43
0.00000001
 40
0.0
 40
0.0
 40
0.0
 40
0.0
 40
0.0011140524372172
 40
0.0011140524372172
 40
0.0011140524372172
 40
0.0011140524372172
 10
156.2347040541442
 20
86.89867099718468
 30
0.0
 10
156.3763132230697
 20
86.74712472114649
 30
0.0
 10
156.5196842678562
 20
86.5958973958632
 30
0.0
 10
156.664634824756
 20
86.44496802579704
 30
0.0
  0
SPLINE
  5
B1
330
1F
100
AcDbEntity
  8
0
  6
Continuous
 62
     7
370
    15
100
AcDbSpline
210
0.0
220
0.0
230
1.0
 70
     8
 71
     3
 72
     8
 73
     4
 74
     0
 42
0.000000001
 43
0.00000001
 40
0.0
 40
0.0
 40
0.0
 40
0.0
 40
1.0
 40
1.0
 40
1.0
 40
1.0
 10
156.2347040541442
 20
86.89867099718468
 30
0.0
 10
155.8923563320686
 20
87.52734385487628
 30
0.0
 10
155.5511864064825
 20
88.15669872843009
 30
0.0
 10
155.2115695067264
 20
88.78680189254837
 30
0.0
  0
LINE
  5
B2
330
1F
100
AcDbEntity
  8
0
  6
Continuous
 62
     7
370
    15
100
AcDbLine
 10
155.2115695067
 20
88.7868018925
 30
0.0
 11
155.2115695067
 21
124.602703083
 31
0.0
  0
SPLINE
  5
B3
330
1F
100
AcDbEntity
  8
0
  6
Continuous
 62
     7
370
    15
100
AcDbSpline
210
0.0
220
0.0
230
1.0
 70
    24
 71
     3
 72
     8
 73
     4
 74
     0
 42
0.000000001
 43
0.00000001
 40
0.0
 40
0.0
 40
0.0
 40
0.0
 40
1.0
 40
1.0
 40
1.0
 40
1.0
 10
156.664634824756
 20
124.6027030829596
 30
0.0
 10
156.1672792791593
 20
124.6027030829596
 30
0.0
 10
155.6811973411405
 20
124.6027030829596
 30
0.0
 10
155.2115695067264
 20
124.6027030829596
 30
0.0
  0
LINE
  5
B4
330
1F
100
AcDbEntity
  8
0
  6
Continuous
 62
     7
370
    15
100
AcDbLine
 10
146.0015695067
 20
86.4449680258
 30
0.0
 11
149.9385041887
 21
86.4449680258
 31
0.0
  0
LINE
  5
B5
330
1F
100
AcDbEntity
  8
0
  6
Continuous
 62
     7
370
    15
100
AcDbLine
 10
149.9385041887
 20
124.602703083
 30
0.0
 11
146.0015695067
 21
124.602703083
 31
0.0
  0
LINE
  5
B6
330
1F
100
AcDbEntity
  8
0
  6
Continuous
 62
     7
370
    15
100
AcDbLine
 10
149.9385041887
 20
86.4449680258
 30
0.0
 11
149.9385041887
 21
124.602703083
 31
0.0
  0
SPLINE
  5
B7
330
1F
100
AcDbEntity
  8
0
  6
Continuous
 62
     7
370
    15
100
AcDbSpline
210
0.0
220
0.0
230
1.0
 70
     8
 71
     3
 72
    10
 73
     6
 74
     0
 42
0.000000001
 43
0.00000001
 40
0.0
 40
0.0
 40
0.0
 40
0.0
 40
0.5
 40
0.5
 40
1.0
 40
1.0
 40
1.0
 40
1.0
 10
145.6336923666315
 20
86.52088565557001
 30
0.0
 10
145.6817652010275
 20
86.49835771306763
 30
0.0
 10
145.7374550750316
 20
86.47936442238088
 30
0.0
 10
145.8627317103953
 20
86.45248414321397
 30
0.0
 10
145.9311773978934
 20
86.44496802579704
 30
0.0
 10
146.0015695067264
 20
86.44496802579704
 30
0.0
  0
SPLINE
  5
B8
330
1F
100
AcDbEntity
  8
0
  6
Continuous
 62
     7
370
    15
100
AcDbSpline
210
0.0
220
0.0
230
1.0
 70
     8
 71
     3
 72
    10
 73
     6
 74
     0
 42
0.000000001
 43
0.00000001
 40
0.0
 40
0.0
 40
0.0
 40
0.0
 40
0.5
 40
0.5
 40
1.0
 40
1.0
 40
1.0
 40
1.0
 10
145.6336923666315
 20
86.52088565557001
 30
0.0
 10
145.5712332913297
 20
86.59644336999492
 30
0.0
 10
145.5155041385815
 20
86.68501188661828
 30
0.0
 10
145.4308287561921
 20
86.88712931545633
 30
0.0
 10
145.4015695067264
 20
87.00104314349255
 30
0.0
 10
145.4015695067264
 20
87.12002482783483
 30
0.0
  0
LINE
  5
B9
330
1F
100
AcDbEntity
  8
0
  6
Continuous
 62
     7
370
    15
100
AcDbLine
 10
145.4015695067
 20
87.1200248278
 30
0.0
 11
145.4015695067
 21
124.602703083
 31
0.0
  0
SPLINE
  5
BA
330
1F
100
AcDbEntity
  8
0
  6
Continuous
 62
     7
370
    15
100
AcDbSpline
210
0.0
220
0.0
230
1.0
 70
    24
 71
     3
 72
    14
 73
    10
 74
     0
 42
0.000000001
 43
0.00000001
 40
0.0
 40
0.0
 40
0.0
 40
0.0
 40
0.25
 40
0.25
 40
0.5
 40
0.5
 40
0.75
 40
0.75
 40
1.0
 40
1.0
 40
1.0
 40
1.0
 10
146.0015695067264
 20
124.6027030829596
 30
0.0
 10
145.9130643553567
 20
124.6027030829596
 30
0.0
 10
145.8241238043639
 20
124.6027030829596
 30
0.0
 10
145.6708971733255
 20
124.6027030829596
 30
0.0
 10
145.6054128489993
 20
124.6027030829596
 30
0.0
 10
145.5021242723343
 20
124.6027030829596
 30
0.0
 10
145.4641997588167
 20
124.6027030829596
 30
0.0
 10
145.4136792250058
 20
124.6027030829596
 30
0.0
 10
145.4015695067264
 20
124.6027030829596
 30
0.0
 10
145.4015695067264
 20
124.6027030829596
 30
0.0
  0
SPLINE
  5
BB
330
1F
100
AcDbEntity
  8
0
  6
Continuous
 62
     7
370
    15
100
AcDbSpline
210
0.0
220
0.0
230
1.0
 70
     8
 71
     3
 72
     8
 73
     4
 74
     0
 42
0.000000001
 43
0.00000001
 40
0.0
 40
0.0
 40
0.0
 40
0.0
 40
1.0
 40
1.0
 40
1.0
 40
1.0
 10
151.3915695067264
 20
88.78680189254838
 30
0.0
 10
151.0519339915693
 20
88.15666419062264
 30
0.0
 10
150.710777280342
 20
87.5273339366309
 30
0.0
 10
150.3684349593087
 20
86.89867099718468
 30
0.0
  0
SPLINE
  5
BC
330
1F
100
AcDbEntity
  8
0
  6
Continuous
 62
     7
370
    15
100
AcDbSpline
210
0.0
220
0.0
230
1.0
 70
     8
 71
     3
 72
     8
 73
     4
 74
     0
 42
0.000000001
 43
0.00000001
 40
0.0
 40
0.0
 40
0.0
 40
0.0
 40
0.0011140524372172
 40
0.0011140524372172
 40
0.0011140524372172
 40
0.0011140524372172
 10
149.9385041886969
 20
86.44496802579704
 30
0.0
 10
150.0834547455967
 20
86.5958973958632
 30
0.0
 10
150.2268257903831
 20
86.74712472114649
 30
0.0
 10
150.3684349593087
 20
86.89867099718468
 30
0.0
  0
SPLINE
  5
BD
330
1F
100
AcDbEntity
  8
0
  6
Continuous
 62
     7
370
    15
100
AcDbSpline
210
0.0
220
0.0
230
1.0
 70
    24
 71
     3
 72
     8
 73
     4
 74
     0
 42
0.000000001
 43
0.00000001
 40
0.0
 40
0.0
 40
0.0
 40
0.0
 40
1.0
 40
1.0
 40
1.0
 40
1.0
 10
151.3915695067264
 20
124.6027030829596
 30
0.0
 10
150.9219416723123
 20
124.6027030829596
 30
0.0
 10
150.4358597342936
 20
124.6027030829596
 30
0.0
 10
149.9385041886969
 20
124.6027030829596
 30
0.0
  0
LINE
  5
BE
330
1F
100
AcDbEntity
  8
0
  6
Continuous
 62
     7
370
    15
100
AcDbLine
 10
151.3915695067
 20
88.7868018925
 30
0.0
 11
151.3915695067
 21
124.602703083
 31
0.0
  0
SPLINE
  5
BF
330
1F
100
AcDbEntity
  8
0
  6
Continuous
 62
     7
370
    15
100
AcDbSpline
210
0.0
220
0.0
230
1.0
 70
     8
 71
     3
 72
    14
 73
    10
 74
     0
 42
0.000000001
 43
0.00000001
 40
0.0
 40
0.0
 40
0.0
 40
0.0
 40
0.25
 40
0.25
 40
0.5
 40
0.5
 40
0.75
 40
0.75
 40
1.0
 40
1.0
 40
1.0
 40
1.0
 10
162.2515695067264
 20
88.71826703157
 30
0.0
 10
162.116624911027
 20
88.72468244462742
 30
0.0
 10
161.9818580470939
 20
88.70000822919103
 30
0.0
 10
161.7352616558668
 20
88.59433936228804
 30
0.0
 10
161.623368358912
 20
88.51311779744854
 30
0.0
 10
161.4416694460555
 20
88.31459461220324
 30
0.0
 10
161.3708340860217
 20
88.19714537618951
 30
0.0
 10
161.2755774566679
 20
87.94366028112954
 30
0.0
 10
161.2515695067264
 20
87.81016369813375
 30
0.0
 10
161.2515695067264
 20
87.6744898400362
 30
0.0
  0
SPLINE
  5
C0
330
1F
100
AcDbEntity
  8
0
  6
Continuous
 62
     7
370
    15
100
AcDbSpline
210
0.0
220
0.0
230
1.0
 70
    24
 71
     3
 72
    12
 73
     8
 74
     0
 42
0.000000001
 43
0.00000001
 40
0.0
 40
0.0
 40
0.0
 40
0.0
 40
0.249999999999998
 40
0.249999999999998
 40
0.499999999999996
 40
0.499999999999996
 40
1.0
 40
1.0
 40
1.0
 40
1.0
 10
162.2515695067264
 20
124.6027030829596
 30
0.0
 10
162.0982555206567
 20
124.6027030829596
 30
0.0
 10
161.9476587109565
 20
124.6027030829596
 30
0.0
 10
161.6928583435237
 20
124.6027030829596
 30
0.0
 10
161.5851554578264
 20
124.6027030829596
 30
0.0
 10
161.3309206792978
 20
124.6027030829596
 30
0.0
 10
161.2515695067264
 20
124.6027030829596
 30
0.0
 10
161.2515695067264
 20
124.6027030829596
 30
0.0
  0
SPLINE
  5
C1
330
1F
100
AcDbEntity
  8
0
  6
Continuous
 62
     7
370
    15
100
AcDbSpline
210
0.0
220
0.0
230
1.0
 70
     8
 71
     3
 72
    17
 73
    13
 74
     0
 42
0.000000001
 43
0.00000001
 40
0.0
 40
0.0
 40
0.0
 40
0.0
 40
0.0371982127972968
 40
0.1506649693819761
 40
0.2583186980244789
 40
0.3688838105961098
 40
0.4806524784172605
 40
0.5953706536113724
 40
0.7124110952756004
 40
0.8329179388053807
 40
0.9157855086892657
 40
1.0
 40
1.0
 40
1.0
 40
1.0
 10
169.278331610049
 20
87.26100168090663
 30
0.0
 10
169.2846973001381
 20
87.25872875394808
 30
0.0
 10
169.3104804340645
 20
87.24952265384631
 30
0.0
 10
169.1380280417748
 20
87.31122480753665
 30
0.0
 10
168.7681847633416
 20
87.43934643238792
 30
0.0
 10
168.1996386368591
 20
87.62596158326288
 30
0.0
 10
167.4462018315618
 20
87.85282424915532
 30
0.0
 10
166.5136872527096
 20
88.10054436039943
 30
0.0
 10
165.4093955650294
 20
88.3453466030843
 30
0.0
 10
164.2892552163874
 20
88.53242934931731
 30
0.0
 10
163.2218044890516
 20
88.65895551930458
 30
0.0
 10
162.5767146178463
 20
88.69839055978993
 30
0.0
 10
162.2515695067264
 20
88.71826703157
 30
0.0
  0
LINE
  5
C2
330
1F
100
AcDbEntity
  8
0
  6
Continuous
 62
     7
370
    15
100
AcDbLine
 10
166.6030975135
 20
124.602703083
 30
0.0
 11
162.2515695067
 21
124.602703083
 31
0.0
  0
SPLINE
  5
C3
330
1F
100
AcDbEntity
  8
0
  6
Continuous
 62
     7
370
    15
100
AcDbSpline
210
0.0
220
0.0
230
1.0
 70
     8
 71
     3
 72
    16
 73
    12
 74
     0
 42
0.000000001
 43
0.00000001
 40
0.0
 40
0.0
 40
0.0
 40
0.0
 40
0.2499999999999989
 40
0.2499999999999989
 40
0.3749999999999987
 40
0.3749999999999987
 40
0.4999999999999986
 40
0.4999999999999986
 40
0.749999999999999
 40
0.749999999999999
 40
1.0
 40
1.0
 40
1.0
 40
1.0
 10
162.2515695067264
 20
126.6008485223531
 30
0.0
 10
162.6928107658307
 20
126.5516432816757
 30
0.0
 10
163.1170796637841
 20
126.4711702398854
 30
0.0
 10
163.7301099297431
 20
126.3050274025664
 30
0.0
 10
163.9305274127068
 20
126.2420027652877
 30
0.0
 10
164.3235521515877
 20
126.1001509803946
 30
0.0
 10
164.5162632380504
 20
126.0211362980213
 30
0.0
 10
165.0702033261858
 20
125.7654445821366
 30
0.0
 10
165.4120275395685
 20
125.5687156579512
 30
0.0
 10
166.0466227409002
 20
125.1228409906198
 30
0.0
 10
166.3391003645727
 20
124.8731384133119
 30
0.0
 10
166.603097513468
 20
124.6027030829596
 30
0.0
  0
SPLINE
  5
C4
330
1F
100
AcDbEntity
  8
0
  6
Continuous
 62
     7
370
    15
100
AcDbSpline
210
0.0
220
0.0
230
1.0
 70
     8
 71
     3
 72
    20
 73
    16
 74
     0
 42
0.000000001
 43
0.00000001
 40
0.0
 40
0.0
 40
0.0
 40
0.0
 40
0.1249999999999997
 40
0.1249999999999997
 40
0.2499999999999994
 40
0.2499999999999994
 40
0.4999999999999994
 40
0.4999999999999994
 40
0.6249999999999996
 40
0.6249999999999996
 40
0.7499999999999997
 40
0.7499999999999997
 40
0.8749999999999999
 40
0.8749999999999999
 40
1.0
 40
1.0
 40
1.0
 40
1.0
 10
169.035494630075
 20
132.1588850496825
 30
0.0
 10
168.9328236927332
 20
132.1232170858233
 30
0.0
 10
168.8023213024022
 20
132.0784573705982
 30
0.0
 10
168.4874991631697
 20
131.9739570940434
 30
0.0
 10
168.3020707807306
 20
131.9138596552274
 30
0.0
 10
167.6694446867185
 20
131.7180346636414
 30
0.0
 10
167.1593522352265
 20
131.5703827077
 30
0.0
 10
166.259551703838
 20
131.349990471582
 30
0.0
 10
165.9419631794582
 20
131.2780733880302
 30
0.0
 10
165.2778087063313
 20
131.1431770388505
 30
0.0
 10
164.9303294619051
 20
131.0799561642368
 30
0.0
 10
164.2029684496635
 20
130.9665948736093
 30
0.0
 10
163.8219643224554
 20
130.9165094696643
 30
0.0
 10
163.0491127098896
 20
130.8366053031947
 30
0.0
 10
162.6545857727255
 20
130.8062989665889
 30
0.0
 10
162.2515695067264
 20
130.7871391343493
 30
0.0
  0
SPLINE
  5
C5
330
1F
100
AcDbEntity
  8
0
  6
Continuous
 62
     7
370
    15
100
AcDbSpline
210
0.0
220
0.0
230
1.0
 70
     8
 71
     3
 72
    22
 73
    18
 74
     0
 42
0.000000001
 43
0.00000001
 40
0.0
 40
0.0
 40
0.0
 40
0.0
 40
0.1250000000000001
 40
0.1250000000000001
 40
0.2500000000000002
 40
0.2500000000000002
 40
0.3750000000000001
 40
0.3750000000000001
 40
0.5000000000000001
 40
0.5000000000000001
 40
0.6250000000000001
 40
0.6250000000000001
 40
0.75
 40
0.75
 40
0.875
 40
0.875
 40
1.0
 40
1.0
 40
1.0
 40
1.0
 10
169.035494630075
 20
132.1588850496825
 30
0.0
 10
169.169951794341
 20
132.1267907397259
 30
0.0
 10
169.3359787464621
 20
132.0879292892221
 30
0.0
 10
169.7270464551698
 20
132.0004163329949
 30
0.0
 10
169.9523595187459
 20
131.9517649950913
 30
0.0
 10
170.4436676397123
 20
131.8519287720457
 30
0.0
 10
170.7113367882407
 20
131.8003482733788
 30
0.0
 10
171.2890535323701
 20
131.6977003266811
 30
0.0
 10
171.5955308492573
 20
131.6473253471664
 30
0.0
 10
172.233087460397
 20
131.5531805847329
 30
0.0
 10
172.5654674418721
 20
131.5091677826856
 30
0.0
 10
173.2573181589688
 20
131.4303286654313
 30
0.0
 10
173.6144495910249
 20
131.3958720301818
 30
0.0
 10
174.3357481778539
 20
131.3402629385748
 30
0.0
 10
174.7020585313486
 20
131.3188523419459
 30
0.0
 10
175.4460449608432
 20
131.2903273970888
 30
0.0
 10
175.8261151995162
 20
131.2832938663923
 30
0.0
 10
176.2015695067265
 20
131.2839628268315
 30
0.0
  0
SPLINE
  5
C6
330
1F
100
AcDbEntity
  8
0
  6
Continuous
 62
     7
370
    15
100
AcDbSpline
210
0.0
220
0.0
230
1.0
 70
     8
 71
     3
 72
    10
 73
     6
 74
     0
 42
0.000000001
 43
0.00000001
 40
0.0
 40
0.0
 40
0.0
 40
0.0
 40
0.5
 40
0.5
 40
1.0
 40
1.0
 40
1.0
 40
1.0
 10
155.2115695067264
 20
88.78680189254838
 30
0.0
 10
155.1766880582878
 20
88.9159219088108
 30
0.0
 10
155.1039834315203
 20
89.03246965185632
 30
0.0
 10
154.9005219105811
 20
89.20135277577575
 30
0.0
 10
154.7686981482633
 20
89.25152933607382
 30
0.0
 10
154.6352159302883
 20
89.25152933607382
 30
0.0
  0
SPLINE
  5
C7
330
1F
100
AcDbEntity
  8
0
  6
Continuous
 62
     7
370
    15
100
AcDbSpline
210
0.0
220
0.0
230
1.0
 70
    24
 71
     3
 72
    14
 73
    10
 74
     0
 42
0.000000001
 43
0.00000001
 40
0.0
 40
0.0
 40
0.0
 40
0.0
 40
0.25
 40
0.25
 40
0.5
 40
0.5
 40
0.75
 40
0.75
 40
1.0
 40
1.0
 40
1.0
 40
1.0
 10
155.2115695067265
 20
124.6027030829596
 30
0.0
 10
155.1960288675707
 20
124.6027030829596
 30
0.0
 10
155.1731027060807
 20
124.6027030829596
 30
0.0
 10
155.1100347284456
 20
124.6027030829596
 30
0.0
 10
155.0700082257755
 20
124.6027030829596
 30
0.0
 10
154.9725239091003
 20
124.6027030829596
 30
0.0
 10
154.9145888871333
 20
124.6027030829596
 30
0.0
 10
154.7828394626712
 20
124.6027030829596
 30
0.0
 10
154.7096948681721
 20
124.6027030829596
 30
0.0
 10
154.6352159302883
 20
124.6027030829596
 30
0.0
  0
SPLINE
  5
C8
330
1F
100
AcDbEntity
  8
0
  6
Continuous
 62
     7
370
    15
100
AcDbSpline
210
0.0
220
0.0
230
1.0
 70
     8
 71
     3
 72
    12
 73
     8
 74
     0
 42
0.000000001
 43
0.00000001
 40
0.0
 40
0.0
 40
0.0
 40
0.0
 40
0.2499999999999988
 40
0.2499999999999988
 40
0.4999999999999976
 40
0.4999999999999976
 40
1.0
 40
1.0
 40
1.0
 40
1.0
 10
151.9679230831646
 20
89.25152933607382
 30
0.0
 10
151.9019263232492
 20
89.25152933607382
 30
0.0
 10
151.8352655112969
 20
89.23961321707496
 30
0.0
 10
151.7096600998303
 20
89.19312799007622
 30
0.0
 10
151.652734161292
 20
89.15986858770248
 30
0.0
 10
151.4984617053576
 20
89.0320504883756
 30
0.0
 10
151.4262621164621
 20
88.9152228880562
 30
0.0
 10
151.3915695067264
 20
88.78680189254838
 30
0.0
  0
SPLINE
  5
C9
330
1F
100
AcDbEntity
  8
0
  6
Continuous
 62
     7
370
    15
100
AcDbSpline
210
0.0
220
0.0
230
1.0
 70
    24
 71
     3
 72
    12
 73
     8
 74
     0
 42
0.000000001
 43
0.00000001
 40
0.0
 40
0.0
 40
0.0
 40
0.0
 40
0.2500000000000022
 40
0.2500000000000022
 40
0.5000000000000044
 40
0.5000000000000044
 40
1.0
 40
1.0
 40
1.0
 40
1.0
 10
151.9679230831646
 20
124.6027030829596
 30
0.0
 10
151.8934270765531
 20
124.6027030829596
 30
0.0
 10
151.820081211127
 20
124.6027030829596
 30
0.0
 10
151.6896879756845
 20
124.6027030829596
 30
0.0
 10
151.6313708602422
 20
124.6027030829596
 30
0.0
 10
151.4850181323947
 20
124.6027030829596
 30
0.0
 10
151.4227909602278
 20
124.6027030829596
 30
0.0
 10
151.3915695067264
 20
124.6027030829596
 30
0.0
  0
SPLINE
  5
CA
330
1F
100
AcDbEntity
  8
0
  6
Continuous
 62
     7
370
    15
100
AcDbSpline
210
0.0
220
0.0
230
1.0
 70
     8
 71
     3
 72
    14
 73
    10
 74
     0
 42
0.000000001
 43
0.00000001
 40
0.0
 40
0.0
 40
0.0
 40
0.0
 40
0.25
 40
0.25
 40
0.5
 40
0.5
 40
0.75
 40
0.75
 40
1.0
 40
1.0
 40
1.0
 40
1.0
 10
176.2015695067265
 20
131.2839628268315
 30
0.0
 10
176.3408014682539
 20
131.2842109014236
 30
0.0
 10
176.4777304749554
 20
131.3090816734202
 30
0.0
 10
176.7265290943441
 20
131.4001485867737
 30
0.0
 10
176.8382989057469
 20
131.4665971696778
 30
0.0
 10
177.0180417574968
 20
131.6231874923088
 30
0.0
 10
177.0873167091875
 20
131.7139352938204
 30
0.0
 10
177.1789046827311
 20
131.9034879912783
 30
0.0
 10
177.2015695067265
 20
132.0017641901611
 30
0.0
 10
177.2015695067265
 20
132.0994619885254
 30
0.0
  0
LINE
  5
CB
330
1F
100
AcDbEntity
  8
0
  6
Continuous
 62
     7
370
    15
100
AcDbLine
 10
154.6352159303
 20
89.2515293361
 30
0.0
 11
151.9679230832
 21
89.2515293361
 31
0.0
  0
LINE
  5
CC
330
1F
100
AcDbEntity
  8
0
  6
Continuous
 62
     7
370
    15
100
AcDbLine
 10
154.6352159303
 20
124.602703083
 30
0.0
 11
151.9679230832
 21
124.602703083
 31
0.0
  0
SPLINE
  5
CD
330
1F
100
AcDbEntity
  8
0
  6
Continuous
 62
     7
370
    15
100
AcDbSpline
210
0.0
220
0.0
230
1.0
 70
     8
 71
     3
 72
    14
 73
    10
 74
     0
 42
0.000000001
 43
0.00000001
 40
0.0
 40
0.0
 40
0.0
 40
0.0
 40
0.25
 40
0.25
 40
0.5
 40
0.5
 40
0.75
 40
0.75
 40
1.0
 40
1.0
 40
1.0
 40
1.0
 10
161.2515695067264
 20
127.9660910160159
 30
0.0
 10
161.2515695067264
 20
127.812232402719
 30
0.0
 10
161.2725014115375
 20
127.6596157836198
 30
0.0
 10
161.3576176678272
 20
127.3627069909441
 30
0.0
 10
161.4199542507266
 20
127.2236479541074
 30
0.0
 10
161.5904113540285
 20
126.9673102333433
 30
0.0
 10
161.6969312374047
 20
126.8535065335074
 30
0.0
 10
161.9525795376155
 20
126.6772028886794
 30
0.0
 10
162.0978208771165
 20
126.6179938780223
 30
0.0
 10
162.2515695067262
 20
126.6008485223519
 30
0.0
  0
LINE
  5
CE
330
1F
100
AcDbEntity
  8
0
  6
Continuous
 62
     7
370
    15
100
AcDbLine
 10
142.2015695067
 20
93.877703083
 30
0.0
 11
142.2015695067
 21
125.627703083
 31
0.0
  0
SPLINE
  5
CF
330
1F
100
AcDbEntity
  8
0
  6
Continuous
 62
     7
370
    15
100
AcDbSpline
210
0.0
220
0.0
230
1.0
 70
     8
 71
     3
 72
    14
 73
    10
 74
     0
 42
0.000000001
 43
0.00000001
 40
0.0
 40
0.0
 40
0.0
 40
0.0
 40
0.25
 40
0.25
 40
0.5
 40
0.5
 40
0.75
 40
0.75
 40
1.0
 40
1.0
 40
1.0
 40
1.0
 10
162.2515695067264
 20
130.7871391343493
 30
0.0
 10
162.116624911027
 20
130.7807237212918
 30
0.0
 10
161.9818580470939
 20
130.8053979367282
 30
0.0
 10
161.7352616558668
 20
130.9110668036312
 30
0.0
 10
161.623368358912
 20
130.9922883684707
 30
0.0
 10
161.4416694460555
 20
131.190811553716
 30
0.0
 10
161.3708340860217
 20
131.3082607897298
 30
0.0
 10
161.2755774566679
 20
131.5617458847897
 30
0.0
 10
161.2515695067264
 20
131.6952424677855
 30
0.0
 10
161.2515695067264
 20
131.8309163258831
 30
0.0
  0
SPLINE
  5
D0
330
1F
100
AcDbEntity
  8
0
  6
Continuous
 62
     7
370
    15
100
AcDbSpline
210
0.0
220
0.0
230
1.0
 70
     8
 71
     3
 72
    10
 73
     6
 74
     0
 42
0.000000001
 43
0.00000001
 40
0.0
 40
0.0
 40
0.0
 40
0.0
 40
0.5
 40
0.5
 40
1.0
 40
1.0
 40
1.0
 40
1.0
 10
145.7198080210868
 20
133.0765483388596
 30
0.0
 10
145.6353620289067
 20
132.9969730074284
 30
0.0
 10
145.5617815095345
 20
132.9012860642817
 30
0.0
 10
145.4439234343817
 20
132.6664609651567
 30
0.0
 10
145.4015695067275
 20
132.5302716947723
 30
0.0
 10
145.4015695067264
 20
132.3853813380894
 30
0.0
  0
SPLINE
  5
D1
330
1F
100
AcDbEntity
  8
0
  6
Continuous
 62
     7
370
    15
100
AcDbSpline
210
0.0
220
0.0
230
1.0
 70
     8
 71
     3
 72
     8
 73
     4
 74
     0
 42
0.000000001
 43
0.00000001
 40
0.0
 40
0.0
 40
0.0
 40
0.0
 40
1.0
 40
1.0
 40
1.0
 40
1.0
 10
146.0015695067264
 20
133.1311292848019
 30
0.0
 10
145.9022959055963
 20
133.1311292848019
 30
0.0
 10
145.8054845606019
 20
133.1119537297689
 30
0.0
 10
145.7198080210868
 20
133.0765483388596
 30
0.0
  0
SPLINE
  5
D2
330
1F
100
AcDbEntity
  8
0
  6
Continuous
 62
     7
370
    15
100
AcDbSpline
210
0.0
220
0.0
230
1.0
 70
     8
 71
     3
 72
    12
 73
     8
 74
     0
 42
0.000000001
 43
0.00000001
 40
0.0
 40
0.0
 40
0.0
 40
0.0
 40
0.5000000000000043
 40
0.5000000000000043
 40
0.7500000000000021
 40
0.7500000000000021
 40
1.0
 40
1.0
 40
1.0
 40
1.0
 10
145.4015695067264
 20
129.0819070241465
 30
0.0
 10
145.4015695067264
 20
129.2585031578641
 30
0.0
 10
145.4504060163279
 20
129.4380343003398
 30
0.0
 10
145.6048632655829
 20
129.654844232862
 30
0.0
 10
145.6705809179848
 20
129.7181490886286
 30
0.0
 10
145.8237514426105
 20
129.8074493330192
 30
0.0
 10
145.9125307402974
 20
129.8332440368284
 30
0.0
 10
146.0015695067264
 20
129.8332440368284
 30
0.0
  0
LINE
  5
D3
330
1F
100
AcDbEntity
  8
0
  6
Continuous
 62
     7
370
    15
100
AcDbLine
 10
145.4015695067
 20
129.0819070241
 30
0.0
 11
145.4015695067
 21
132.3853813381
 31
0.0
  0
LINE
  5
D4
330
1F
100
AcDbEntity
  8
0
  6
Continuous
 62
     7
370
    15
100
AcDbLine
 10
146.0015695067
 20
129.8332440368
 30
0.0
 11
149.9385041887
 21
129.8332440368
 31
0.0
  0
SPLINE
  5
D5
330
1F
100
AcDbEntity
  8
0
  6
Continuous
 62
     7
370
    15
100
AcDbSpline
210
0.0
220
0.0
230
1.0
 70
     8
 71
     3
 72
     8
 73
     4
 74
     0
 42
0.000000001
 43
0.00000001
 40
0.0
 40
0.0
 40
0.0
 40
0.0
 40
1.0
 40
1.0
 40
1.0
 40
1.0
 10
149.9385041886969
 20
129.8332440368284
 30
0.0
 10
150.4364085979885
 20
128.7606467641122
 30
0.0
 10
150.9225147576228
 20
127.683490613289
 30
0.0
 10
151.3915695067264
 20
126.6005223105656
 30
0.0
  0
SPLINE
  5
D6
330
1F
100
AcDbEntity
  8
0
  6
Continuous
 62
     7
370
    15
100
AcDbSpline
210
0.0
220
0.0
230
1.0
 70
     8
 71
     3
 72
    12
 73
     8
 74
     0
 42
0.000000001
 43
0.00000001
 40
0.0
 40
0.0
 40
0.0
 40
0.0
 40
0.4999999999999976
 40
0.4999999999999976
 40
0.7499999999999988
 40
0.7499999999999988
 40
1.0
 40
1.0
 40
1.0
 40
1.0
 10
151.3915695067263
 20
126.6005223105655
 30
0.0
 10
151.4225605325886
 20
126.4577628643253
 30
0.0
 10
151.4844333054205
 20
126.3185537971752
 30
0.0
 10
151.6315960321621
 20
126.1524337115865
 30
0.0
 10
151.6895566670969
 20
126.104952373251
 30
0.0
 10
151.8208145380926
 20
126.0376558803417
 30
0.0
 10
151.8945004961796
 20
126.0185607301914
 30
0.0
 10
151.9679230831646
 20
126.0185607301914
 30
0.0
  0
LINE
  5
D7
330
1F
100
AcDbEntity
  8
0
  6
Continuous
 62
     7
370
    15
100
AcDbLine
 10
151.9679230832
 20
126.0185607302
 30
0.0
 11
154.6352159303
 21
126.0185607302
 31
0.0
  0
SPLINE
  5
D8
330
1F
100
AcDbEntity
  8
0
  6
Continuous
 62
     7
370
    15
100
AcDbSpline
210
0.0
220
0.0
230
1.0
 70
     8
 71
     3
 72
    14
 73
    10
 74
     0
 42
0.000000001
 43
0.00000001
 40
0.0
 40
0.0
 40
0.0
 40
0.0
 40
0.25
 40
0.25
 40
0.5
 40
0.5
 40
0.75
 40
0.75
 40
1.0
 40
1.0
 40
1.0
 40
1.0
 10
154.6352159302887
 20
126.0185607301912
 30
0.0
 10
154.7086745203233
 20
126.0185607301913
 30
0.0
 10
154.7825237707824
 20
126.0376711219655
 30
0.0
 10
154.9143456460299
 20
126.105431295471
 30
0.0
 10
154.9724648410134
 20
126.1533647928719
 30
0.0
 10
155.0696433209753
 20
126.2632818071019
 30
0.0
 10
155.1098083873129
 20
126.3263692850772
 30
0.0
 10
155.1728080187095
 20
126.4589641308157
 30
0.0
 10
155.1959059694399
 20
126.5283685871258
 30
0.0
 10
155.2115695067264
 20
126.6005223105656
 30
0.0
  0
SPLINE
  5
D9
330
1F
100
AcDbEntity
  8
0
  6
Continuous
 62
     7
370
    15
100
AcDbSpline
210
0.0
220
0.0
230
1.0
 70
     8
 71
     3
 72
     8
 73
     4
 74
     0
 42
0.000000001
 43
0.00000001
 40
0.0
 40
0.0
 40
0.0
 40
0.0
 40
1.0
 40
1.0
 40
1.0
 40
1.0
 10
155.2115695067264
 20
126.6005223105656
 30
0.0
 10
155.6806242558301
 20
127.683490613289
 30
0.0
 10
156.1667304154644
 20
128.7606467641122
 30
0.0
 10
156.664634824756
 20
129.8332440368284
 30
0.0
  0
LINE
  5
DA
330
1F
100
AcDbEntity
  8
0
  6
Continuous
 62
     7
370
    15
100
AcDbLine
 10
156.6646348248
 20
129.8332440368
 30
0.0
 11
160.6515695067
 21
129.8332440368
 31
0.0
  0
SPLINE
  5
DB
330
1F
100
AcDbEntity
  8
0
  6
Continuous
 62
     7
370
    15
100
AcDbSpline
210
0.0
220
0.0
230
1.0
 70
     8
 71
     3
 72
    12
 73
     8
 74
     0
 42
0.000000001
 43
0.00000001
 40
0.0
 40
0.0
 40
0.0
 40
0.0
 40
0.25
 40
0.25
 40
0.5
 40
0.5
 40
1.0
 40
1.0
 40
1.0
 40
1.0
 10
160.6515695067265
 20
129.8332440368284
 30
0.0
 10
160.7401107807704
 20
129.8332440368284
 30
0.0
 10
160.8294274292281
 20
129.8073730738737
 30
0.0
 10
160.9820225091981
 20
129.7185141910618
 30
0.0
 10
161.0476326109892
 20
129.6556327654407
 30
0.0
 10
161.2030921640382
 20
129.4377575855501
 30
0.0
 10
161.2515695067264
 20
129.258819052471
 30
0.0
 10
161.2515695067264
 20
129.0819070241467
 30
0.0
  0
LINE
  5
DC
330
1F
100
AcDbEntity
  8
0
  6
Continuous
 62
     7
370
    15
100
AcDbLine
 10
161.2515695067
 20
129.0819070241
 30
0.0
 11
161.2515695067
 21
127.966091016
 31
0.0
  0
LINE
  5
DD
330
1F
100
AcDbEntity
  8
0
  6
Continuous
 62
     7
370
    15
100
AcDbLine
 10
145.4015695067
 20
129.0819070241
 30
0.0
 11
145.4015695067
 21
124.602703083
 31
0.0
  0
SPLINE
  5
DE
330
1F
100
AcDbEntity
  8
0
  6
Continuous
 62
     7
370
    15
100
AcDbSpline
210
0.0
220
0.0
230
1.0
 70
     8
 71
     3
 72
     8
 73
     4
 74
     0
 42
0.000000001
 43
0.00000001
 40
0.0
 40
0.0
 40
0.0
 40
0.0
 40
1.0
 40
1.0
 40
1.0
 40
1.0
 10
156.1193458416545
 20
132.3947868532199
 30
0.0
 10
155.8157033458371
 20
131.8366121263932
 30
0.0
 10
155.5130353895267
 20
131.277924515569
 30
0.0
 10
155.2115695067264
 20
130.7186042733709
 30
0.0
  0
SPLINE
  5
DF
330
1F
100
AcDbEntity
  8
0
  6
Continuous
 62
     7
370
    15
100
AcDbSpline
210
0.0
220
0.0
230
1.0
 70
     8
 71
     3
 72
     8
 73
     4
 74
     0
 42
0.000000001
 43
0.00000001
 40
0.0
 40
0.0
 40
0.0
 40
0.0
 40
0.0011754745544621
 40
0.0011754745544621
 40
0.0011754745544621
 40
0.0011754745544621
 10
156.664634824756
 20
133.1311292848019
 30
0.0
 10
156.4822908866962
 20
132.8858973512207
 30
0.0
 10
156.3005034367108
 20
132.6404580155452
 30
0.0
 10
156.1193458416545
 20
132.3947868532199
 30
0.0
  0
LINE
  5
E0
330
1F
100
AcDbEntity
  8
0
  6
Continuous
 62
     7
370
    15
100
AcDbLine
 10
156.6646348248
 20
129.8332440368
 30
0.0
 11
156.6646348248
 21
133.1311292848
 31
0.0
  0
LINE
  5
E1
330
1F
100
AcDbEntity
  8
0
  6
Continuous
 62
     7
370
    15
100
AcDbLine
 10
155.2115695067
 20
126.6005223106
 30
0.0
 11
155.2115695067
 21
130.7186042734
 31
0.0
  0
LINE
  5
E2
330
1F
100
AcDbEntity
  8
0
  6
Continuous
 62
     7
370
    15
100
AcDbLine
 10
154.6352159303
 20
130.2538768298
 30
0.0
 11
151.9679230832
 21
130.2538768298
 31
0.0
  0
LINE
  5
E3
330
1F
100
AcDbEntity
  8
0
  6
Continuous
 62
     7
370
    15
100
AcDbLine
 10
149.9385041887
 20
133.1311292848
 30
0.0
 11
146.0015695067
 21
133.1311292848
 31
0.0
  0
LINE
  5
E4
330
1F
100
AcDbEntity
  8
0
  6
Continuous
 62
     7
370
    15
100
AcDbLine
 10
149.9385041887
 20
129.8332440368
 30
0.0
 11
149.9385041887
 21
133.1311292848
 31
0.0
  0
SPLINE
  5
E5
330
1F
100
AcDbEntity
  8
0
  6
Continuous
 62
     7
370
    15
100
AcDbSpline
210
0.0
220
0.0
230
1.0
 70
     8
 71
     3
 72
    10
 73
     6
 74
     0
 42
0.000000001
 43
0.00000001
 40
0.0
 40
0.0
 40
0.0
 40
0.0
 40
0.5
 40
0.5
 40
1.0
 40
1.0
 40
1.0
 40
1.0
 10
151.9679230831646
 20
130.2538768298455
 30
0.0
 10
151.8356618904479
 20
130.2538768298455
 30
0.0
 10
151.7038229585708
 20
130.3032968367918
 30
0.0
 10
151.4992715090928
 20
130.4725974970951
 30
0.0
 10
151.4261069564641
 20
130.5907576307742
 30
0.0
 10
151.3915695067264
 20
130.718604273371
 30
0.0
  0
LINE
  5
E6
330
1F
100
AcDbEntity
  8
0
  6
Continuous
 62
     7
370
    15
100
AcDbLine
 10
151.3915695067
 20
126.6005223106
 30
0.0
 11
151.3915695067
 21
130.7186042734
 31
0.0
  0
LINE
  5
E7
330
1F
100
AcDbEntity
  8
0
  6
Continuous
 62
     7
370
    15
100
AcDbLine
 10
160.6515695067
 20
133.1311292848
 30
0.0
 11
156.6646348248
 21
133.1311292848
 31
0.0
  0
SPLINE
  5
E8
330
1F
100
AcDbEntity
  8
0
  6
Continuous
 62
     7
370
    15
100
AcDbSpline
210
0.0
220
0.0
230
1.0
 70
     8
 71
     3
 72
     8
 73
     4
 74
     0
 42
0.000000001
 43
0.00000001
 40
0.0
 40
0.0
 40
0.0
 40
0.0
 40
0.0011754745544621
 40
0.0011754745544621
 40
0.0011754745544621
 40
0.0011754745544621
 10
150.4837931717984
 20
132.3947868532199
 30
0.0
 10
150.3026355767421
 20
132.6404580155452
 30
0.0
 10
150.1208481267567
 20
132.8858973512207
 30
0.0
 10
149.9385041886969
 20
133.1311292848019
 30
0.0
  0
SPLINE
  5
E9
330
1F
100
AcDbEntity
  8
0
  6
Continuous
 62
     7
370
    15
100
AcDbSpline
210
0.0
220
0.0
230
1.0
 70
     8
 71
     3
 72
     8
 73
     4
 74
     0
 42
0.000000001
 43
0.00000001
 40
0.0
 40
0.0
 40
0.0
 40
0.0
 40
1.0
 40
1.0
 40
1.0
 40
1.0
 10
151.3915695067263
 20
130.7186042733711
 30
0.0
 10
151.0901036239261
 20
131.2779245155691
 30
0.0
 10
150.7874356676157
 20
131.8366121263932
 30
0.0
 10
150.4837931717984
 20
132.3947868532199
 30
0.0
  0
SPLINE
  5
EA
330
1F
100
AcDbEntity
  8
0
  6
Continuous
 62
     7
370
    15
100
AcDbSpline
210
0.0
220
0.0
230
1.0
 70
     8
 71
     3
 72
    10
 73
     6
 74
     0
 42
0.000000001
 43
0.00000001
 40
0.0
 40
0.0
 40
0.0
 40
0.0
 40
0.5
 40
0.5
 40
1.0
 40
1.0
 40
1.0
 40
1.0
 10
155.2115695067264
 20
130.7186042733709
 30
0.0
 10
155.1768493580679
 20
130.5900813375385
 30
0.0
 10
155.1043353472743
 20
130.4730810620315
 30
0.0
 10
154.899369824704
 20
130.3032452387789
 30
0.0
 10
154.7681262259664
 20
130.2538768298455
 30
0.0
 10
154.6352159302883
 20
130.2538768298455
 30
0.0
  0
SPLINE
  5
EB
330
1F
100
AcDbEntity
  8
0
  6
Continuous
 62
     7
370
    15
100
AcDbSpline
210
0.0
220
0.0
230
1.0
 70
     8
 71
     3
 72
    12
 73
     8
 74
     0
 42
0.000000001
 43
0.00000001
 40
0.0
 40
0.0
 40
0.0
 40
0.0
 40
0.4999999999999958
 40
0.4999999999999958
 40
0.7499999999999979
 40
0.7499999999999979
 40
1.0
 40
1.0
 40
1.0
 40
1.0
 10
161.2515695067264
 20
132.6640606969
 30
0.0
 10
161.2515695067264
 20
132.7818288074219
 30
0.0
 10
161.1950494448278
 20
132.8973177633661
 30
0.0
 10
161.031944470054
 20
133.0306715331234
 30
0.0
 10
160.9661959244987
 20
133.0669295439218
 30
0.0
 10
160.816906758139
 20
133.1175369911724
 30
0.0
 10
160.735112831107
 20
133.1311292848019
 30
0.0
 10
160.6515695067265
 20
133.1311292848019
 30
0.0
  0
LINE
  5
EC
330
1F
100
AcDbEntity
  8
0
  6
Continuous
 62
     7
370
    15
100
AcDbLine
 10
161.2515695067
 20
129.0819070241
 30
0.0
 11
161.2515695067
 21
132.6640606969
 31
0.0
  0
LINE
  5
ED
330
1F
100
AcDbEntity
  8
0
  6
Continuous
 62
     7
370
    15
100
AcDbLine
 10
94.5515695067
 20
101.6914058193
 30
0.0
 11
94.5515695067
 21
117.8140003259
 31
0.0
  0
LWPOLYLINE
  5
EE
330
1F
100
AcDbEntity
  8
0
  6
HIDDEN
 62
     7
370
     0
100
AcDbPolyline
 90
       29
 70
   128
 43
0.0
 10
150.9816495138
 20
114.818623275
 10
150.8325031827
 20
115.325671234
 10
150.8071661471
 20
115.8511931306
 10
150.9069089116
 20
116.3688371027
 10
151.1267299576
 20
116.85264632
 10
151.4556065399
 20
117.278360568
 10
151.8770474135
 20
117.6246327569
 10
152.3699197731
 20
117.8740993531
 10
152.9095089406
 20
118.0142510598
 10
153.4687576619
 20
118.0380600852
 10
154.0196228711
 20
117.9443325454
 10
154.5344818862
 20
117.7377683306
 10
154.9875175264
 20
117.428725433
 10
155.3560126931
 20
117.0327005541
 10
155.6214894997
 20
116.5695520348
 10
155.7706358308
 20
116.0625040758
 10
155.7959728664
 20
115.5369821792
 10
155.6962301019
 20
115.0193382071
 10
155.4764090559
 20
114.5355289898
 10
155.1475324735
 20
114.1098147417
 10
154.7260916
 20
113.7635425529
 10
154.2332192404
 20
113.5140759567
 10
153.6936300729
 20
113.37392425
 10
153.1343813515
 20
113.3501152245
 10
152.5835161424
 20
113.4438427643
 10
152.0686571272
 20
113.6504069792
 10
151.615621487
 20
113.9594498767
 10
151.2471263204
 20
114.3554747557
 10
150.9816495138
 20
114.818623275
  0
LWPOLYLINE
  5
EF
330
1F
100
AcDbEntity
  8
0
  6
HIDDEN
 62
     7
370
     0
100
AcDbPolyline
 90
       25
 70
   128
 43
0.0
 10
151.6776255116
 20
114.8247474815
 10
151.5641699753
 20
115.2405889715
 10
151.5691153459
 20
115.6698545666
 10
151.6921246045
 20
116.083290526
 10
151.9248148734
 20
116.4527218723
 10
152.2513286955
 20
116.7529724697
 10
152.6494146932
 20
116.9635807361
 10
153.0919439637
 20
117.0701940664
 10
153.5487588685
 20
117.0655469382
 10
153.9887282269
 20
116.9499560456
 10
154.381868854
 20
116.7312987169
 10
154.7013888659
 20
116.4244760878
 10
154.9255135018
 20
116.0503976133
 10
155.0389690381
 20
115.6345561233
 10
155.0340236676
 20
115.2052905282
 10
154.911014409
 20
114.7918545688
 10
154.67832414
 20
114.4224232225
 10
154.351810318
 20
114.1221726251
 10
153.9537243203
 20
113.9115643587
 10
153.5111950498
 20
113.8049510284
 10
153.0543801449
 20
113.8095981566
 10
152.6144107866
 20
113.9251890492
 10
152.2212701594
 20
114.1438463779
 10
151.9017501475
 20
114.450669007
 10
151.6776255116
 20
114.8247474815
  0
LWPOLYLINE
  5
F0
330
1F
100
AcDbEntity
  8
0
  6
HIDDEN
 62
     7
370
     0
100
AcDbPolyline
 90
       29
 70
   128
 43
0.0
 10
150.9816495138
 20
116.1843367715
 10
150.8325031827
 20
116.6913847304
 10
150.8071661471
 20
117.216906627
 10
150.9069089116
 20
117.7345505991
 10
151.1267299576
 20
118.2183598164
 10
151.4556065399
 20
118.6440740645
 10
151.8770474135
 20
118.9903462533
 10
152.3699197731
 20
119.2398128495
 10
152.9095089406
 20
119.3799645562
 10
153.4687576619
 20
119.4037735817
 10
154.0196228711
 20
119.3100460419
 10
154.5344818862
 20
119.103481827
 10
154.9875175264
 20
118.7944389295
 10
155.3560126931
 20
118.3984140505
 10
155.6214894997
 20
117.9352655312
 10
155.7706358308
 20
117.4282175722
 10
155.7959728664
 20
116.9026956756
 10
155.6962301019
 20
116.3850517035
 10
155.4764090559
 20
115.9012424862
 10
155.1475324735
 20
115.4755282382
 10
154.7260916
 20
115.1292560493
 10
154.2332192404
 20
114.8797894531
 10
153.6936300729
 20
114.7396377464
 10
153.1343813515
 20
114.715828721
 10
152.5835161424
 20
114.8095562608
 10
152.0686571272
 20
115.0161204756
 10
151.615621487
 20
115.3251633732
 10
151.2471263204
 20
115.7211882521
 10
150.9816495138
 20
116.1843367715
  0
LINE
  5
F1
330
1F
100
AcDbEntity
  8
0
  6
HIDDEN
 62
     7
370
     0
100
AcDbLine
 10
153.5054478561
 20
117.8063636242
 30
0.0
 11
154.6409759392
 21
116.9690825728
 31
0.0
  0
LINE
  5
F2
330
1F
100
AcDbEntity
  8
0
  6
HIDDEN
 62
     7
370
     0
100
AcDbLine
 10
152.1660414237
 20
117.3009140288
 30
0.0
 11
153.5054478561
 21
117.8063636242
 31
0.0
  0
LINE
  5
F3
330
1F
100
AcDbEntity
  8
0
  6
HIDDEN
 62
     7
370
     0
100
AcDbLine
 10
153.5054478561
 20
117.8063636242
 30
0.0
 11
153.5054478561
 21
118.4904039108
 31
0.0
  0
LINE
  5
F4
330
1F
100
AcDbEntity
  8
0
  6
HIDDEN
 62
     7
370
     0
100
AcDbLine
 10
152.1660414237
 20
117.3009140288
 30
0.0
 11
152.1660414237
 21
117.9849543154
 31
0.0
  0
LINE
  5
F5
330
1F
100
AcDbEntity
  8
0
  6
HIDDEN
 62
     7
370
     0
100
AcDbLine
 10
152.1660414237
 20
117.3009140288
 30
0.0
 11
151.9621630743
 21
115.958183382
 31
0.0
  0
LINE
  5
F6
330
1F
100
AcDbEntity
  8
0
  6
HIDDEN
 62
     7
370
     0
100
AcDbLine
 10
154.4370975898
 20
115.626351926
 30
0.0
 11
154.4370975898
 21
116.3103922126
 31
0.0
  0
LINE
  5
F7
330
1F
100
AcDbEntity
  8
0
  6
HIDDEN
 62
     7
370
     0
100
AcDbLine
 10
154.4370975898
 20
116.3103922126
 30
0.0
 11
154.6409759392
 21
117.6531228594
 31
0.0
  0
LINE
  5
F8
330
1F
100
AcDbEntity
  8
0
  6
HIDDEN
 62
     7
370
     0
100
AcDbLine
 10
154.4370975898
 20
115.626351926
 30
0.0
 11
154.6409759392
 21
116.9690825728
 31
0.0
  0
LINE
  5
F9
330
1F
100
AcDbEntity
  8
0
  6
HIDDEN
 62
     7
370
     0
100
AcDbLine
 10
154.6409759392
 20
116.9690825728
 30
0.0
 11
154.6409759392
 21
117.6531228594
 31
0.0
  0
LINE
  5
FA
330
1F
100
AcDbEntity
  8
0
  6
HIDDEN
 62
     7
370
     0
100
AcDbLine
 10
153.0976911573
 20
115.1209023306
 30
0.0
 11
153.0976911573
 21
115.8049426172
 31
0.0
  0
LINE
  5
FB
330
1F
100
AcDbEntity
  8
0
  6
HIDDEN
 62
     7
370
     0
100
AcDbLine
 10
153.0976911573
 20
115.8049426172
 30
0.0
 11
151.9621630743
 21
116.6422236686
 31
0.0
  0
LINE
  5
FC
330
1F
100
AcDbEntity
  8
0
  6
HIDDEN
 62
     7
370
     0
100
AcDbLine
 10
151.9621630743
 20
115.958183382
 30
0.0
 11
151.9621630743
 21
116.6422236686
 31
0.0
  0
LINE
  5
FD
330
1F
100
AcDbEntity
  8
0
  6
HIDDEN
 62
     7
370
     0
100
AcDbLine
 10
153.0976911573
 20
115.1209023306
 30
0.0
 11
151.9621630743
 21
115.958183382
 31
0.0
  0
LINE
  5
FE
330
1F
100
AcDbEntity
  8
0
  6
HIDDEN
 62
     7
370
     0
100
AcDbLine
 10
153.0976911573
 20
115.8049426172
 30
0.0
 11
154.4370975898
 21
116.3103922126
 31
0.0
  0
LINE
  5
FF
330
1F
100
AcDbEntity
  8
0
  6
HIDDEN
 62
     7
370
     0
100
AcDbLine
 10
153.0976911573
 20
115.1209023306
 30
0.0
 11
154.4370975898
 21
115.626351926
 31
0.0
  0
LWPOLYLINE
  5
100
330
1F
100
AcDbEntity
  8
0
  6
HIDDEN
 62
     7
370
     0
100
AcDbPolyline
 90
       27
 70
   128
 43
0.0
 10
151.3945952725
 20
116.4280415438
 10
151.2667366938
 20
116.8777991327
 10
151.2571352019
 20
117.3432408252
 10
151.3663488005
 20
117.7973168419
 10
151.5880303924
 20
118.2136379352
 10
151.9092966491
 20
118.5680090365
 10
152.3114767436
 20
118.8398353853
 10
152.7711974307
 20
119.0133194224
 10
153.2617414149
 20
119.0783788862
 10
153.7546000632
 20
119.031232757
 10
154.2211302221
 20
118.8746209966
 10
154.6342188548
 20
118.6176453111
 10
154.9698587513
 20
118.2752401934
 10
155.208543741
 20
117.8673049843
 10
155.3364023196
 20
117.4175473953
 10
155.3460038116
 20
116.9521057029
 10
155.2367902129
 20
116.4980296862
 10
155.0151086211
 20
116.0817085928
 10
154.6938423643
 20
115.7273374916
 10
154.2916622698
 20
115.4555111427
 10
153.8319415828
 20
115.2820271056
 10
153.3413975985
 20
115.2169676419
 10
152.8485389503
 20
115.264113771
 10
152.3820087913
 20
115.4207255315
 10
151.9689201587
 20
115.677701217
 10
151.6332802621
 20
116.0201063347
 10
151.3945952725
 20
116.4280415438
  0
LINE
  5
101
330
1F
100
AcDbEntity
  8
0
  6
HIDDEN
 62
     7
370
     0
100
AcDbLine
 10
152.1660414237
 20
117.9849543154
 30
0.0
 11
151.9621630743
 21
116.6422236686
 31
0.0
  0
LINE
  5
102
330
1F
100
AcDbEntity
  8
0
  6
HIDDEN
 62
     7
370
     0
100
AcDbLine
 10
152.1660414237
 20
117.9849543154
 30
0.0
 11
153.5054478561
 21
118.4904039108
 31
0.0
  0
LINE
  5
103
330
1F
100
AcDbEntity
  8
0
  6
HIDDEN
 62
     7
370
     0
100
AcDbLine
 10
153.5054478561
 20
118.4904039108
 30
0.0
 11
154.6409759392
 21
117.6531228594
 31
0.0
  0
LWPOLYLINE
  5
104
330
1F
100
AcDbEntity
  8
0
  6
HIDDEN
 62
     7
370
     0
100
AcDbPolyline
 90
       24
 70
   128
 43
0.0
 10
145.9982269776
 20
104.2022390765
 10
145.863830783
 20
103.9196387851
 10
145.7917678344
 20
103.5601010731
 10
145.7873827111
 20
103.150291208
 10
145.8510006375
 20
102.7206029126
 10
145.9779033632
 20
102.3029042021
 10
146.1586790934
 20
101.928173879
 10
146.3799205192
 20
101.6242039771
 10
146.6252191763
 20
101.4135385535
 10
146.8763823854
 20
101.3118016989
 10
147.1147825202
 20
101.3265387704
 10
147.3227385334
 20
101.4566567869
 10
147.4848272789
 20
101.6925054902
 10
147.5890273757
 20
102.016593061
 10
147.6276107796
 20
102.4048834068
 10
147.5977159359
 20
102.8285788089
 10
147.5015600083
 20
103.2562557177
 10
147.3462744423
 20
103.6561952932
 10
147.1433760577
 20
103.9987358469
 10
146.9079128997
 20
104.2584727128
 10
146.6573481934
 20
104.4161423958
 10
146.4102651769
 20
104.4600512569
 10
146.1849888672
 20
104.3869427766
 10
145.9982269776
 20
104.2022390765
  0
LWPOLYLINE
  5
105
330
1F
100
AcDbEntity
  8
0
  6
HIDDEN
 62
     7
370
     0
100
AcDbPolyline
 90
       26
 70
   128
 43
0.0
 10
146.0116380089
 20
104.566156838
 10
145.855322268
 20
104.247098097
 10
145.7639398882
 20
103.8450572324
 10
145.7432327604
 20
103.3852959502
 10
145.7945019898
 20
102.8967027428
 10
145.9145261419
 20
102.4099777182
 10
146.095763658
 20
101.9557035999
 10
146.3268267183
 20
101.5624241013
 10
146.5931967811
 20
101.2548504197
 10
146.8781368355
 20
101.0523085408
 10
147.1637430501
 20
100.9675249157
 10
147.432069736
 20
101.0058268113
 10
147.6662569407
 20
101.1648075787
 10
147.8515898208
 20
101.4344778716
 10
147.9764232299
 20
101.7978933137
 10
148.0329134257
 20
102.2322191763
 10
148.0175109216
 20
102.710165168
 10
147.9311835135
 20
103.2017001844
 10
147.7793554699
 20
103.6759392727
 10
147.5715667052
 20
104.1030842469
 10
147.3208733517
 20
104.4562960173
 10
147.0430273947
 20
104.7133809893
 10
146.7554869177
 20
104.8581855687
 10
146.4763191462
 20
104.8816111512
 10
146.223065218
 20
104.7821858212
 10
146.0116380089
 20
104.566156838
  0
LWPOLYLINE
  5
106
330
1F
100
AcDbEntity
  8
0
  6
HIDDEN
 62
     7
370
     0
100
AcDbPolyline
 90
       26
 70
   128
 43
0.0
 10
147.6702844238
 20
104.9633779116
 10
147.5139686829
 20
104.6443191706
 10
147.4225863031
 20
104.242278306
 10
147.4018791753
 20
103.7825170239
 10
147.4531484046
 20
103.2939238164
 10
147.5731725568
 20
102.8071987919
 10
147.7544100729
 20
102.3529246735
 10
147.9854731332
 20
101.9596451749
 10
148.251843196
 20
101.6520714933
 10
148.5367832504
 20
101.4495296144
 10
148.822389465
 20
101.3647459893
 10
149.0907161509
 20
101.4030478849
 10
149.3249033555
 20
101.5620286523
 10
149.5102362357
 20
101.8316989452
 10
149.6350696447
 20
102.1951143874
 10
149.6915598406
 20
102.6294402499
 10
149.6761573365
 20
103.1073862416
 10
149.5898299283
 20
103.598921258
 10
149.4380018847
 20
104.0731603463
 10
149.2302131201
 20
104.5003053205
 10
148.9795197665
 20
104.8535170909
 10
148.7016738096
 20
105.1106020629
 10
148.4141333325
 20
105.2554066423
 10
148.134965561
 20
105.2788322248
 10
147.8817116329
 20
105.1794068949
 10
147.6702844238
 20
104.9633779116
  0
LINE
  5
107
330
1F
100
AcDbEntity
  8
0
  6
HIDDEN
 62
     7
370
     0
100
AcDbLine
 10
146.5878100572
 20
101.8710094039
 30
0.0
 11
147.2106874862
 21
101.9355690598
 31
0.0
  0
LINE
  5
108
330
1F
100
AcDbEntity
  8
0
  6
HIDDEN
 62
     7
370
     0
100
AcDbLine
 10
147.3271705399
 20
102.946822599
 30
0.0
 11
147.2106874862
 21
101.9355690598
 31
0.0
  0
LINE
  5
109
330
1F
100
AcDbEntity
  8
0
  6
HIDDEN
 62
     7
370
     0
100
AcDbLine
 10
146.8207761645
 20
103.8935164822
 30
0.0
 11
147.3271705399
 21
102.946822599
 31
0.0
  0
LINE
  5
10A
330
1F
100
AcDbEntity
  8
0
  6
HIDDEN
 62
     7
370
     0
100
AcDbLine
 10
146.8207761645
 20
103.8935164822
 30
0.0
 11
146.1978987356
 21
103.8289568262
 31
0.0
  0
LINE
  5
10B
330
1F
100
AcDbEntity
  8
0
  6
HIDDEN
 62
     7
370
     0
100
AcDbLine
 10
146.0814156819
 20
102.8177032871
 30
0.0
 11
146.1978987356
 21
103.8289568262
 31
0.0
  0
LINE
  5
10C
330
1F
100
AcDbEntity
  8
0
  6
HIDDEN
 62
     7
370
     0
100
AcDbLine
 10
146.0814156819
 20
102.8177032871
 30
0.0
 11
146.5878100572
 21
101.8710094039
 31
0.0
  0
LWPOLYLINE
  5
10D
330
1F
100
AcDbEntity
  8
0
  6
HIDDEN
 62
     7
370
     0
100
AcDbPolyline
 90
       21
 70
   128
 43
0.0
 10
148.613561252
 20
104.4956132185
 10
148.4975946358
 20
104.2376768045
 10
148.4466401
 20
103.904671876
 10
148.4656854296
 20
103.5291952754
 10
148.5528663352
 20
103.1480012687
 10
148.6996489421
 20
102.798403781
 10
148.8916651463
 20
102.5146238503
 10
149.1101190636
 20
102.3244398335
 10
149.3336269028
 20
102.2464682671
 10
149.5403101591
 20
102.2883415513
 10
149.7099372355
 20
102.4459608374
 10
149.8259038517
 20
102.7038972514
 10
149.8768583875
 20
103.0369021799
 10
149.8578130579
 20
103.4123787805
 10
149.7706321524
 20
103.7935727872
 10
149.6238495454
 20
104.1431702749
 10
149.4318333413
 20
104.4269502056
 10
149.2133794239
 20
104.6171342224
 10
148.9898715847
 20
104.6951057888
 10
148.7831883284
 20
104.6532325046
 10
148.613561252
 20
104.4956132185
  0
LINE
  5
10E
330
1F
100
AcDbEntity
  8
0
  6
HIDDEN
 62
     7
370
     0
100
AcDbLine
 10
148.5558986063
 20
103.2410846414
 30
0.0
 11
147.3271705399
 21
102.946822599
 31
0.0
  0
LINE
  5
10F
330
1F
100
AcDbEntity
  8
0
  6
HIDDEN
 62
     7
370
     0
100
AcDbLine
 10
148.049504231
 20
104.1877785246
 30
0.0
 11
146.8207761645
 21
103.8935164822
 31
0.0
  0
LINE
  5
110
330
1F
100
AcDbEntity
  8
0
  6
HIDDEN
 62
     7
370
     0
100
AcDbLine
 10
147.8165381237
 20
102.1652714463
 30
0.0
 11
146.5878100572
 21
101.8710094039
 31
0.0
  0
LINE
  5
111
330
1F
100
AcDbEntity
  8
0
  6
HIDDEN
 62
     7
370
     0
100
AcDbLine
 10
147.8165381237
 20
102.1652714463
 30
0.0
 11
148.4394155527
 21
102.2298311023
 31
0.0
  0
LINE
  5
112
330
1F
100
AcDbEntity
  8
0
  6
HIDDEN
 62
     7
370
     0
100
AcDbLine
 10
148.4394155527
 20
102.2298311023
 30
0.0
 11
147.2106874862
 21
101.9355690598
 31
0.0
  0
LINE
  5
113
330
1F
100
AcDbEntity
  8
0
  6
HIDDEN
 62
     7
370
     0
100
AcDbLine
 10
147.3101437484
 20
103.1119653295
 30
0.0
 11
147.8165381237
 21
102.1652714463
 31
0.0
  0
LINE
  5
114
330
1F
100
AcDbEntity
  8
0
  6
HIDDEN
 62
     7
370
     0
100
AcDbLine
 10
147.3101437484
 20
103.1119653295
 30
0.0
 11
147.426626802
 21
104.1232188687
 31
0.0
  0
LINE
  5
115
330
1F
100
AcDbEntity
  8
0
  6
HIDDEN
 62
     7
370
     0
100
AcDbLine
 10
148.049504231
 20
104.1877785246
 30
0.0
 11
147.426626802
 21
104.1232188687
 31
0.0
  0
LINE
  5
116
330
1F
100
AcDbEntity
  8
0
  6
HIDDEN
 62
     7
370
     0
100
AcDbLine
 10
148.049504231
 20
104.1877785246
 30
0.0
 11
148.5558986063
 21
103.2410846414
 31
0.0
  0
LINE
  5
117
330
1F
100
AcDbEntity
  8
0
  6
HIDDEN
 62
     7
370
     0
100
AcDbLine
 10
148.5558986063
 20
103.2410846414
 30
0.0
 11
148.4394155527
 21
102.2298311023
 31
0.0
  0
LINE
  5
118
330
1F
100
AcDbEntity
  8
0
  6
HIDDEN
 62
     7
370
     0
100
AcDbLine
 10
147.3101437484
 20
103.1119653295
 30
0.0
 11
146.0814156819
 21
102.8177032871
 31
0.0
  0
LINE
  5
119
330
1F
100
AcDbEntity
  8
0
  6
HIDDEN
 62
     7
370
     0
100
AcDbLine
 10
147.426626802
 20
104.1232188687
 30
0.0
 11
146.1978987356
 21
103.8289568262
 31
0.0
  0
LWPOLYLINE
  5
11A
330
1F
100
AcDbEntity
  8
0
  6
HIDDEN
 62
     7
370
     0
100
AcDbPolyline
 90
       26
 70
   128
 43
0.0
 10
147.6702844238
 20
114.5420282543
 10
147.5139686829
 20
114.8610869953
 10
147.4225863031
 20
115.2631278599
 10
147.4018791753
 20
115.7228891421
 10
147.4531484046
 20
116.2114823495
 10
147.5731725568
 20
116.6982073741
 10
147.7544100729
 20
117.1524814924
 10
147.9854731332
 20
117.545760991
 10
148.251843196
 20
117.8533346726
 10
148.5367832504
 20
118.0558765515
 10
148.822389465
 20
118.1406601766
 10
149.0907161509
 20
118.102358281
 10
149.3249033555
 20
117.9433775136
 10
149.5102362357
 20
117.6737072207
 10
149.6350696447
 20
117.3102917786
 10
149.6915598406
 20
116.875965916
 10
149.6761573365
 20
116.3980199243
 10
149.5898299283
 20
115.9064849079
 10
149.4380018847
 20
115.4322458196
 10
149.2302131201
 20
115.0051008454
 10
148.9795197665
 20
114.651889075
 10
148.7016738096
 20
114.394804103
 10
148.4141333325
 20
114.2499995236
 10
148.134965561
 20
114.2265739411
 10
147.8817116329
 20
114.3259992711
 10
147.6702844238
 20
114.5420282543
  0
LWPOLYLINE
  5
11B
330
1F
100
AcDbEntity
  8
0
  6
HIDDEN
 62
     7
370
     0
100
AcDbPolyline
 90
       21
 70
   128
 43
0.0
 10
148.613561252
 20
115.0097929474
 10
148.4975946358
 20
115.2677293614
 10
148.4466401
 20
115.60073429
 10
148.4656854296
 20
115.9762108905
 10
148.5528663352
 20
116.3574048973
 10
148.6996489421
 20
116.7070023849
 10
148.8916651463
 20
116.9907823156
 10
149.1101190636
 20
117.1809663325
 10
149.3336269028
 20
117.2589378989
 10
149.5403101591
 20
117.2170646146
 10
149.7099372355
 20
117.0594453285
 10
149.8259038517
 20
116.8015089145
 10
149.8768583875
 20
116.468503986
 10
149.8578130579
 20
116.0930273854
 10
149.7706321524
 20
115.7118333787
 10
149.6238495454
 20
115.362235891
 10
149.4318333413
 20
115.0784559604
 10
149.2133794239
 20
114.8882719435
 10
148.9898715847
 20
114.8103003771
 10
148.7831883284
 20
114.8521736613
 10
148.613561252
 20
115.0097929474
  0
LWPOLYLINE
  5
11C
330
1F
100
AcDbEntity
  8
0
  6
HIDDEN
 62
     7
370
     0
100
AcDbPolyline
 90
       26
 70
   128
 43
0.0
 10
146.0116380089
 20
114.9392493279
 10
145.855322268
 20
115.2583080689
 10
145.7639398882
 20
115.6603489335
 10
145.7432327604
 20
116.1201102157
 10
145.7945019898
 20
116.6087034231
 10
145.9145261419
 20
117.0954284477
 10
146.095763658
 20
117.5497025661
 10
146.3268267183
 20
117.9429820646
 10
146.5931967811
 20
118.2505557462
 10
146.8781368355
 20
118.4530976251
 10
147.1637430501
 20
118.5378812503
 10
147.432069736
 20
118.4995793546
 10
147.6662569407
 20
118.3405985872
 10
147.8515898208
 20
118.0709282943
 10
147.9764232299
 20
117.7075128522
 10
148.0329134257
 20
117.2731869896
 10
148.0175109216
 20
116.795240998
 10
147.9311835135
 20
116.3037059815
 10
147.7793554699
 20
115.8294668932
 10
147.5715667052
 20
115.402321919
 10
147.3208733517
 20
115.0491101486
 10
147.0430273947
 20
114.7920251766
 10
146.7554869177
 20
114.6472205972
 10
146.4763191462
 20
114.6237950148
 10
146.223065218
 20
114.7232203447
 10
146.0116380089
 20
114.9392493279
  0
LINE
  5
11D
330
1F
100
AcDbEntity
  8
0
  6
HIDDEN
 62
     7
370
     0
100
AcDbLine
 10
147.3101437484
 20
116.3934408364
 30
0.0
 11
147.426626802
 21
115.3821872972
 31
0.0
  0
LINE
  5
11E
330
1F
100
AcDbEntity
  8
0
  6
HIDDEN
 62
     7
370
     0
100
AcDbLine
 10
146.0814156819
 20
116.6877028788
 30
0.0
 11
146.1978987356
 21
115.6764493397
 31
0.0
  0
LWPOLYLINE
  5
11F
330
1F
100
AcDbEntity
  8
0
  6
HIDDEN
 62
     7
370
     0
100
AcDbPolyline
 90
       24
 70
   128
 43
0.0
 10
145.9982269776
 20
115.3031670894
 10
145.863830783
 20
115.5857673809
 10
145.7917678344
 20
115.9453050928
 10
145.7873827111
 20
116.355114958
 10
145.8510006375
 20
116.7848032534
 10
145.9779033632
 20
117.2025019639
 10
146.1586790934
 20
117.5772322869
 10
146.3799205192
 20
117.8812021888
 10
146.6252191763
 20
118.0918676124
 10
146.8763823854
 20
118.193604467
 10
147.1147825202
 20
118.1788673955
 10
147.3227385334
 20
118.0487493791
 10
147.4848272789
 20
117.8129006757
 10
147.5890273757
 20
117.4888131049
 10
147.6276107796
 20
117.1005227592
 10
147.5977159359
 20
116.676827357
 10
147.5015600083
 20
116.2491504483
 10
147.3462744423
 20
115.8492108727
 10
147.1433760577
 20
115.506670319
 10
146.9079128997
 20
115.2469334531
 10
146.6573481934
 20
115.0892637701
 10
146.4102651769
 20
115.045354909
 10
146.1849888672
 20
115.1184633893
 10
145.9982269776
 20
115.3031670894
  0
LINE
  5
120
330
1F
100
AcDbEntity
  8
0
  6
HIDDEN
 62
     7
370
     0
100
AcDbLine
 10
146.0814156819
 20
116.6877028788
 30
0.0
 11
146.5878100572
 21
117.634396762
 31
0.0
  0
LINE
  5
121
330
1F
100
AcDbEntity
  8
0
  6
HIDDEN
 62
     7
370
     0
100
AcDbLine
 10
147.3101437484
 20
116.3934408364
 30
0.0
 11
146.0814156819
 21
116.6877028788
 31
0.0
  0
LINE
  5
122
330
1F
100
AcDbEntity
  8
0
  6
HIDDEN
 62
     7
370
     0
100
AcDbLine
 10
147.3101437484
 20
116.3934408364
 30
0.0
 11
147.8165381237
 21
117.3401347196
 31
0.0
  0
LINE
  5
123
330
1F
100
AcDbEntity
  8
0
  6
HIDDEN
 62
     7
370
     0
100
AcDbLine
 10
147.8165381237
 20
117.3401347196
 30
0.0
 11
146.5878100572
 21
117.634396762
 31
0.0
  0
LINE
  5
124
330
1F
100
AcDbEntity
  8
0
  6
HIDDEN
 62
     7
370
     0
100
AcDbLine
 10
146.5878100572
 20
117.634396762
 30
0.0
 11
147.2106874862
 21
117.5698371061
 31
0.0
  0
LINE
  5
125
330
1F
100
AcDbEntity
  8
0
  6
HIDDEN
 62
     7
370
     0
100
AcDbLine
 10
147.8165381237
 20
117.3401347196
 30
0.0
 11
148.4394155527
 21
117.2755750636
 31
0.0
  0
LINE
  5
126
330
1F
100
AcDbEntity
  8
0
  6
HIDDEN
 62
     7
370
     0
100
AcDbLine
 10
148.049504231
 20
115.3176276413
 30
0.0
 11
146.8207761645
 21
115.6118896837
 31
0.0
  0
LINE
  5
127
330
1F
100
AcDbEntity
  8
0
  6
HIDDEN
 62
     7
370
     0
100
AcDbLine
 10
146.8207761645
 20
115.6118896837
 30
0.0
 11
146.1978987356
 21
115.6764493397
 31
0.0
  0
LINE
  5
128
330
1F
100
AcDbEntity
  8
0
  6
HIDDEN
 62
     7
370
     0
100
AcDbLine
 10
147.426626802
 20
115.3821872972
 30
0.0
 11
146.1978987356
 21
115.6764493397
 31
0.0
  0
LINE
  5
129
330
1F
100
AcDbEntity
  8
0
  6
HIDDEN
 62
     7
370
     0
100
AcDbLine
 10
148.049504231
 20
115.3176276413
 30
0.0
 11
147.426626802
 21
115.3821872972
 31
0.0
  0
LINE
  5
12A
330
1F
100
AcDbEntity
  8
0
  6
HIDDEN
 62
     7
370
     0
100
AcDbLine
 10
148.5558986063
 20
116.2643215245
 30
0.0
 11
147.3271705399
 21
116.5585835669
 31
0.0
  0
LINE
  5
12B
330
1F
100
AcDbEntity
  8
0
  6
HIDDEN
 62
     7
370
     0
100
AcDbLine
 10
148.4394155527
 20
117.2755750636
 30
0.0
 11
147.2106874862
 21
117.5698371061
 31
0.0
  0
LINE
  5
12C
330
1F
100
AcDbEntity
  8
0
  6
HIDDEN
 62
     7
370
     0
100
AcDbLine
 10
147.3271705399
 20
116.5585835669
 30
0.0
 11
147.2106874862
 21
117.5698371061
 31
0.0
  0
LINE
  5
12D
330
1F
100
AcDbEntity
  8
0
  6
HIDDEN
 62
     7
370
     0
100
AcDbLine
 10
148.5558986063
 20
116.2643215245
 30
0.0
 11
148.4394155527
 21
117.2755750636
 31
0.0
  0
LINE
  5
12E
330
1F
100
AcDbEntity
  8
0
  6
HIDDEN
 62
     7
370
     0
100
AcDbLine
 10
146.8207761645
 20
115.6118896837
 30
0.0
 11
147.3271705399
 21
116.5585835669
 31
0.0
  0
LINE
  5
12F
330
1F
100
AcDbEntity
  8
0
  6
HIDDEN
 62
     7
370
     0
100
AcDbLine
 10
148.049504231
 20
115.3176276413
 30
0.0
 11
148.5558986063
 21
116.2643215245
 31
0.0
  0
LINE
  5
130
330
1F
100
AcDbEntity
  8
0
  6
HIDDEN
 62
     7
370
     0
100
AcDbLine
 10
170.1515695067
 20
131.552703083
 30
0.0
 11
172.236579433
 21
131.552703083
 31
0.0
  0
LINE
  5
131
330
1F
100
AcDbEntity
  8
0
  6
HIDDEN
 62
     7
370
     0
100
AcDbLine
 10
176.9424355882
 20
131.552703083
 30
0.0
 11
182.1515695067
 21
131.552703083
 31
0.0
  0
LINE
  5
132
330
1F
100
AcDbEntity
  8
0
  6
HIDDEN
 62
     7
370
     0
100
AcDbLine
 10
177.2015695067
 20
132.252703083
 30
0.0
 11
181.4515695067
 21
132.252703083
 31
0.0
  0
LINE
  5
133
330
1F
100
AcDbEntity
  8
0
  6
HIDDEN
 62
     7
370
     0
100
AcDbLine
 10
170.1515695067
 20
124.1498174
 30
0.0
 11
182.1515695067
 21
124.1498174
 31
0.0
  0
LINE
  5
134
330
1F
100
AcDbEntity
  8
0
  6
HIDDEN
 62
     7
370
     0
100
AcDbLine
 10
172.6317676031
 20
115.752703083
 30
0.0
 11
179.6713714103
 21
115.752703083
 31
0.0
  0
SPLINE
  5
135
330
1F
100
AcDbEntity
  8
0
  6
HIDDEN
 62
     7
370
     0
100
AcDbSpline
210
0.0
220
0.0
230
1.0
 70
     8
 71
     3
 72
    11
 73
     7
 74
     0
 42
0.000000001
 43
0.00000001
 40
0.0
 40
0.0
 40
0.0
 40
0.0
 40
0.2164553779443373
 40
0.4403112895790595
 40
0.7519005688038857
 40
1.0
 40
1.0
 40
1.0
 40
1.0
 10
173.0072173825107
 20
132.1168046980974
 30
0.0
 10
173.2011476952904
 20
132.0081465278324
 30
0.0
 10
173.5956387304379
 20
131.7871152024524
 30
0.0
 10
174.3277087296528
 20
131.6028852780349
 30
0.0
 10
175.1129851217931
 20
131.7139611821342
 30
0.0
 10
175.6155148572461
 20
131.9930776439079
 30
0.0
 10
175.8382767947368
 20
132.1168046980974
 30
0.0
  0
SPLINE
  5
136
330
1F
100
AcDbEntity
  8
0
  6
HIDDEN
 62
     7
370
     0
100
AcDbSpline
210
0.0
220
0.0
230
1.0
 70
     8
 71
     3
 72
    11
 73
     7
 74
     0
 42
0.000000001
 43
0.00000001
 40
0.0
 40
0.0
 40
0.0
 40
0.0
 40
0.216455377944356
 40
0.4403112895790561
 40
0.7519005688038883
 40
1.0
 40
1.0
 40
1.0
 40
1.0
 10
175.8382767947368
 20
132.1168046980974
 30
0.0
 10
176.0536679618403
 20
132.0081465278324
 30
0.0
 10
176.4918144447412
 20
131.7871152024524
 30
0.0
 10
177.3048972953394
 20
131.6028852780349
 30
0.0
 10
178.1770745025924
 20
131.7139611821343
 30
0.0
 10
178.7352155413603
 20
131.9930776439079
 30
0.0
 10
178.9826289189526
 20
132.1168046980974
 30
0.0
  0
SPLINE
  5
137
330
1F
100
AcDbEntity
  8
0
  6
HIDDEN
 62
     7
370
     0
100
AcDbSpline
210
0.0
220
0.0
230
1.0
 70
     8
 71
     3
 72
    21
 73
    17
 74
     0
 42
0.000000001
 43
0.00000001
 40
0.0
 40
0.0
 40
0.0
 40
0.0
 40
0.0459884793660911
 40
0.138157675035461
 40
0.1843685985639432
 40
0.2461032364962107
 40
0.308038329658755
 40
0.3918029824329289
 40
0.5197555617867609
 40
0.562749347622282
 40
0.649261098967612
 40
0.7373630866510288
 40
0.8269240350124367
 40
0.8718879817001248
 40
0.9679335170027018
 40
1.0
 40
1.0
 40
1.0
 40
1.0
 10
178.9826289189526
 20
132.1168046980974
 30
0.0
 10
178.9871333071605
 20
132.0923846382605
 30
0.0
 10
179.0006653006257
 20
132.0190223801952
 30
0.0
 10
179.0191610831342
 20
131.9311644151517
 30
0.0
 10
179.0396255875288
 20
131.8470640170774
 30
0.0
 10
179.0572809130661
 20
131.7844536759422
 30
0.0
 10
179.0792048763325
 20
131.7219253188316
 30
0.0
 10
179.1086251990305
 20
131.6637820956426
 30
0.0
 10
179.1364990481886
 20
131.6470886933963
 30
0.0
 10
179.1645548126078
 20
131.6625740342677
 30
0.0
 10
179.1881462818723
 20
131.6958173508281
 30
0.0
 10
179.2162854335492
 20
131.7664428300992
 30
0.0
 10
179.2394477854102
 20
131.8481746468969
 30
0.0
 10
179.2629521929666
 20
131.9472269258086
 30
0.0
 10
179.2802503910021
 20
132.0313670820332
 30
0.0
 10
179.2927843712911
 20
132.099700755679
 30
0.0
 10
179.2959216309422
 20
132.1168046980974
 30
0.0
  0
SPLINE
  5
138
330
1F
100
AcDbEntity
  8
0
  6
HIDDEN
 62
     7
370
     0
100
AcDbSpline
210
0.0
220
0.0
230
1.0
 70
     8
 71
     3
 72
    11
 73
     7
 74
     0
 42
0.000000001
 43
0.00000001
 40
0.0
 40
0.0
 40
0.0
 40
0.0
 40
0.2164553779443407
 40
0.440311289579051
 40
0.7519005688038857
 40
0.9999999999999999
 40
0.9999999999999999
 40
0.9999999999999999
 40
0.9999999999999999
 10
179.2959216309422
 20
132.1168046980974
 30
0.0
 10
179.1019913181624
 20
132.0081465278324
 30
0.0
 10
178.7075002830149
 20
131.7871152024524
 30
0.0
 10
177.9754302838001
 20
131.602885278035
 30
0.0
 10
177.1901538916598
 20
131.7139611821343
 30
0.0
 10
176.6876241562067
 20
131.993077643908
 30
0.0
 10
176.464862218716
 20
132.1168046980974
 30
0.0
  0
SPLINE
  5
139
330
1F
100
AcDbEntity
  8
0
  6
HIDDEN
 62
     7
370
     0
100
AcDbSpline
210
0.0
220
0.0
230
1.0
 70
     8
 71
     3
 72
    11
 73
     7
 74
     0
 42
0.000000001
 43
0.00000001
 40
0.0
 40
0.0
 40
0.0
 40
0.0
 40
0.2164553779443461
 40
0.4403112895790684
 40
0.751900568803894
 40
1.0
 40
1.0
 40
1.0
 40
1.0
 10
176.464862218716
 20
132.1168046980974
 30
0.0
 10
176.2494710516125
 20
132.0081465278325
 30
0.0
 10
175.8113245687117
 20
131.7871152024524
 30
0.0
 10
174.9982417181134
 20
131.602885278035
 30
0.0
 10
174.1260645108604
 20
131.7139611821343
 30
0.0
 10
173.5679234720925
 20
131.993077643908
 30
0.0
 10
173.3205100945003
 20
132.1168046980974
 30
0.0
  0
SPLINE
  5
13A
330
1F
100
AcDbEntity
  8
0
  6
HIDDEN
 62
     7
370
     0
100
AcDbSpline
210
0.0
220
0.0
230
1.0
 70
     8
 71
     3
 72
    21
 73
    17
 74
     0
 42
0.000000001
 43
0.00000001
 40
0.0
 40
0.0
 40
0.0
 40
0.0
 40
0.0320027986439997
 40
0.1281258596102468
 40
0.1857521610573334
 40
0.2433822027624465
 40
0.3019909635887063
 40
0.3608070697855159
 40
0.4204293179417244
 40
0.4803400136413056
 40
0.6453907657235569
 40
0.7016131473446688
 40
0.7585492287763845
 40
0.815651090371345
 40
0.953781717565195
 40
1.0
 40
1.0
 40
1.0
 40
1.0
 10
173.3205100945003
 20
132.1168046980974
 30
0.0
 10
173.3173793996729
 20
132.0997362829315
 30
0.0
 10
173.3048454031807
 20
132.0314014666662
 30
0.0
 10
173.2862838755728
 20
131.9410977719901
 30
0.0
 10
173.2646963463532
 20
131.8513874156141
 30
0.0
 10
173.246633508309
 20
131.7872159922948
 30
0.0
 10
173.2281555676723
 20
131.7335812579904
 30
0.0
 10
173.2092033666615
 20
131.6919108834593
 30
0.0
 10
173.189898710568
 20
131.663949958092
 30
0.0
 10
173.1588984356565
 20
131.6432487518094
 30
0.0
 10
173.1280766797477
 20
131.6696891568223
 30
0.0
 10
173.0983415607095
 20
131.7369297780415
 30
0.0
 10
173.0803794000056
 20
131.7895861011561
 30
0.0
 10
173.0542022456281
 20
131.8831937071223
 30
0.0
 10
173.0297992669064
 20
131.994449435912
 30
0.0
 10
173.0117440278741
 20
132.0922780080056
 30
0.0
 10
173.0072173825107
 20
132.1168046980974
 30
0.0
  0
LINE
  5
13B
330
1F
100
AcDbEntity
  8
0
  6
HIDDEN
 62
     7
370
     0
100
AcDbLine
 10
175.8382767947
 20
125.252703083
 30
0.0
 11
175.8382767947
 21
132.1168046981
 31
0.0
  0
LINE
  5
13C
330
1F
100
AcDbEntity
  8
0
  6
HIDDEN
 62
     7
370
     0
100
AcDbLine
 10
175.8382767947
 20
125.252703083
 30
0.0
 11
174.4227470886
 21
125.252703083
 31
0.0
  0
LINE
  5
13D
330
1F
100
AcDbEntity
  8
0
  6
HIDDEN
 62
     7
370
     0
100
AcDbLine
 10
177.4104528568
 20
125.252703083
 30
0.0
 11
175.8382767947
 21
125.252703083
 31
0.0
  0
LINE
  5
13E
330
1F
100
AcDbEntity
  8
0
  6
HIDDEN
 62
     7
370
     0
100
AcDbLine
 10
173.1515695067
 20
124.252703083
 30
0.0
 11
179.1515695067
 21
124.252703083
 31
0.0
  0
LINE
  5
13F
330
1F
100
AcDbEntity
  8
0
  6
HIDDEN
 62
     7
370
     0
100
AcDbLine
 10
178.982628919
 20
125.252703083
 30
0.0
 11
177.4104528568
 21
125.252703083
 31
0.0
  0
LINE
  5
140
330
1F
100
AcDbEntity
  8
0
  6
HIDDEN
 62
     7
370
     0
100
AcDbLine
 10
174.4227470886
 20
125.252703083
 30
0.0
 11
173.0072173825
 21
125.252703083
 31
0.0
  0
LINE
  5
141
330
1F
100
AcDbEntity
  8
0
  6
HIDDEN
 62
     7
370
     0
100
AcDbLine
 10
179.1392752749
 20
125.252703083
 30
0.0
 11
178.982628919
 21
125.252703083
 31
0.0
  0
LINE
  5
142
330
1F
100
AcDbEntity
  8
0
  6
HIDDEN
 62
     7
370
     0
100
AcDbLine
 10
178.982628919
 20
125.252703083
 30
0.0
 11
178.982628919
 21
132.1168046981
 31
0.0
  0
LINE
  5
143
330
1F
100
AcDbEntity
  8
0
  6
HIDDEN
 62
     7
370
     0
100
AcDbLine
 10
173.3205100945
 20
125.252703083
 30
0.0
 11
173.3205100945
 21
132.1168046981
 31
0.0
  0
LINE
  5
144
330
1F
100
AcDbEntity
  8
0
  6
HIDDEN
 62
     7
370
     0
100
AcDbLine
 10
173.0072173825
 20
125.252703083
 30
0.0
 11
173.0072173825
 21
132.1168046981
 31
0.0
  0
LINE
  5
145
330
1F
100
AcDbEntity
  8
0
  6
HIDDEN
 62
     7
370
     0
100
AcDbLine
 10
179.2959216309
 20
125.252703083
 30
0.0
 11
179.1392752749
 21
125.252703083
 31
0.0
  0
LINE
  5
146
330
1F
100
AcDbEntity
  8
0
  6
HIDDEN
 62
     7
370
     0
100
AcDbLine
 10
176.4648622187
 20
125.252703083
 30
0.0
 11
176.4648622187
 21
132.1168046981
 31
0.0
  0
LINE
  5
147
330
1F
100
AcDbEntity
  8
0
  6
HIDDEN
 62
     7
370
     0
100
AcDbLine
 10
179.2959216309
 20
125.252703083
 30
0.0
 11
179.2959216309
 21
132.1168046981
 31
0.0
  0
CIRCLE
  5
148
330
1F
100
AcDbEntity
  8
0
  6
HIDDEN
 62
     7
370
     0
100
AcDbCircle
 10
176.1515695067
 20
109.752703083
 30
0.0
 40
5.5
  0
LINE
  5
149
330
1F
100
AcDbEntity
  8
0
  6
HIDDEN
 62
     7
370
     0
100
AcDbLine
 10
177.2015695067
 20
102.583820036
 30
0.0
 11
177.2015695067
 21
116.9080587543
 31
0.0
  0
LWPOLYLINE
  5
14A
330
1F
100
AcDbEntity
  8
0
  6
HIDDEN
 62
     7
370
     0
100
AcDbPolyline
 90
       27
 70
   128
 43
0.0
 10
145.5034820104
 20
102.8645421156
 10
145.6166249083
 20
102.383477815
 10
145.7886787769
 20
101.9303712229
 10
146.0096444709
 20
101.5315552475
 10
146.2666802671
 20
101.2102076237
 10
146.5448481795
 20
100.9850039073
 10
146.8279821
 20
100.8690321198
 10
147.0996273144
 20
100.8690321198
 10
147.3439967902
 20
100.9850039073
 10
147.5468886616
 20
101.2102076237
 10
147.6965115907
 20
101.5315552475
 10
147.7841700366
 20
101.9303712229
 10
147.8047696091
 20
102.383477815
 10
147.7571131359
 20
102.8645421156
 10
147.643970238
 20
103.3456064162
 10
147.4719163694
 20
103.7987130083
 10
147.2509506755
 20
104.1975289836
 10
146.9939148792
 20
104.5188766074
 10
146.7157469669
 20
104.7440803238
 10
146.4326130463
 20
104.8600521114
 10
146.1609678319
 20
104.8600521114
 10
145.9165983562
 20
104.7440803238
 10
145.7137064847
 20
104.5188766074
 10
145.5640835556
 20
104.1975289836
 10
145.4764251097
 20
103.7987130083
 10
145.4558255372
 20
103.3456064162
 10
145.5034820104
 20
102.8645421156
  0
LWPOLYLINE
  5
14B
330
1F
100
AcDbEntity
  8
0
  6
HIDDEN
 62
     7
370
     0
100
AcDbPolyline
 90
       24
 70
   128
 43
0.0
 10
145.7233484617
 20
102.8645421156
 10
145.8299347539
 20
102.4280274549
 10
145.9958802951
 20
102.0238870896
 10
146.2088776635
 20
101.6820942619
 10
146.4531298187
 20
101.4279981822
 10
146.7105216958
 20
101.2804439942
 10
146.9619637167
 20
101.2503751172
 10
147.188807577
 20
101.3400216221
 10
147.3742293054
 20
101.5427348377
 10
147.5044770204
 20
101.8434804523
 10
147.5698908449
 20
102.2199535395
 10
147.5656193348
 20
102.6442328125
 10
147.4919792885
 20
103.0848514187
 10
147.3544322513
 20
103.5091306917
 10
147.1631794577
 20
103.8856037788
 10
146.9324052525
 20
104.1863493934
 10
146.6792251027
 20
104.3890626091
 10
146.422416222
 20
104.478709114
 10
146.18102495
 20
104.4486402369
 10
145.9729541732
 20
104.301086049
 10
145.8136355493
 20
104.0469899692
 10
145.7148850117
 20
103.7051971415
 10
145.684026436
 20
103.3010567763
 10
145.7233484617
 20
102.8645421156
  0
SPLINE
  5
14C
330
1F
100
AcDbEntity
  8
0
  6
HIDDEN
 62
     7
370
     0
100
AcDbSpline
210
0.0
220
0.0
230
1.0
 70
     8
 71
     3
 72
    40
 73
    36
 74
     0
 42
0.000000001
 43
0.00000001
 40
0.0
 40
0.0
 40
0.0
 40
0.0
 40
0.0625000000000011
 40
0.0625000000000011
 40
0.1250000000000021
 40
0.1250000000000021
 40
0.1875000000000021
 40
0.1875000000000021
 40
0.250000000000002
 40
0.250000000000002
 40
0.3125000000000019
 40
0.3125000000000019
 40
0.3750000000000019
 40
0.3750000000000019
 40
0.4375000000000019
 40
0.4375000000000019
 40
0.5000000000000018
 40
0.5000000000000018
 40
0.5625000000000018
 40
0.5625000000000018
 40
0.6250000000000017
 40
0.6250000000000017
 40
0.6875000000000017
 40
0.6875000000000017
 40
0.7500000000000016
 40
0.7500000000000016
 40
0.7812500000000013
 40
0.7812500000000013
 40
0.8125000000000011
 40
0.8125000000000011
 40
0.8750000000000008
 40
0.8750000000000008
 40
0.9375000000000003
 40
0.9375000000000003
 40
1.0
 40
1.0
 40
1.0
 40
1.0
 10
151.59088940183
 20
102.4432252624546
 30
0.0
 10
151.6506910063515
 20
102.4169969528914
 30
0.0
 10
151.7095045061439
 20
102.4058553197857
 30
0.0
 10
151.8194256833789
 20
102.4070703384815
 30
0.0
 10
151.8707541651497
 20
102.419425411803
 30
0.0
 10
151.955149074103
 20
102.4694547589489
 30
0.0
 10
151.9883201947912
 20
102.507156887061
 30
0.0
 10
152.0096786321421
 20
102.6175797877509
 30
0.0
 10
151.9959987491238
 20
102.6901845386075
 30
0.0
 10
151.9002544963902
 20
102.8855200848388
 30
0.0
 10
151.8196784006622
 20
103.0061973742023
 30
0.0
 10
151.6438724165044
 20
103.2807554735885
 30
0.0
 10
151.5505355206757
 20
103.4339613403685
 30
0.0
 10
151.3892189758497
 20
103.7612061167711
 30
0.0
 10
151.3204352690294
 20
103.9366880931078
 30
0.0
 10
151.2272057380775
 20
104.2903491380458
 30
0.0
 10
151.2018687237108
 20
104.4719861864924
 30
0.0
 10
151.201275738546
 20
104.8180893295335
 30
0.0
 10
151.2259948183472
 20
104.9855048097053
 30
0.0
 10
151.3183125897864
 20
105.2835380156818
 30
0.0
 10
151.3867396028251
 20
105.4168250084673
 30
0.0
 10
151.5468679100979
 20
105.6307465952599
 30
0.0
 10
151.6405815870374
 20
105.7137621029344
 30
0.0
 10
151.8158663426307
 20
105.8123380115316
 30
0.0
 10
151.8972285926005
 20
105.8271050739963
 30
0.0
 10
151.9698881441481
 20
105.7963690051824
 30
0.0
 10
151.98659538594
 20
105.7774087085637
 30
0.0
 10
152.0036543335977
 20
105.7272465773053
 30
0.0
 10
152.0044606585661
 20
105.696039930221
 30
0.0
 10
151.9891116136893
 20
105.5893064450602
 30
0.0
 10
151.9567235040455
 20
105.50397288679
 30
0.0
 10
151.8726758182965
 20
105.3141808673166
 30
0.0
 10
151.8205643717272
 20
105.2094433036928
 30
0.0
 10
151.7098637463542
 20
104.9847313368416
 30
0.0
 10
151.6507636251187
 20
104.8641356482662
 30
0.0
 10
151.5908894018296
 20
104.7323547365745
 30
0.0
  0
SPLINE
  5
14D
330
1F
100
AcDbEntity
  8
0
  6
HIDDEN
 62
     7
370
     0
100
AcDbSpline
210
0.0
220
0.0
230
1.0
 70
     8
 71
     3
 72
    22
 73
    18
 74
     0
 42
0.000000001
 43
0.00000001
 40
0.0
 40
0.0
 40
0.0
 40
0.0
 40
0.125
 40
0.125
 40
0.25
 40
0.25
 40
0.375
 40
0.375
 40
0.5
 40
0.5
 40
0.625
 40
0.625
 40
0.75
 40
0.75
 40
0.875
 40
0.875
 40
1.0
 40
1.0
 40
1.0
 40
1.0
 10
151.59088940183
 20
104.7323547365743
 30
0.0
 10
151.6542766294428
 20
104.6408712482398
 30
0.0
 10
151.7069642036432
 20
104.5426393404864
 30
0.0
 10
151.7930670407567
 20
104.3333036858667
 30
0.0
 10
151.8261098035406
 20
104.2222902410872
 30
0.0
 10
151.8743997707071
 20
103.999219329801
 30
0.0
 10
151.8903823506393
 20
103.884675108575
 30
0.0
 10
151.9105116246349
 20
103.6592190456595
 30
0.0
 10
151.9148787353583
 20
103.5489691401392
 30
0.0
 10
151.9148947417253
 20
103.3339864050178
 30
0.0
 10
151.9103933255039
 20
103.2294005476976
 30
0.0
 10
151.890309735412
 20
103.0349294216011
 30
0.0
 10
151.8745762646629
 20
102.9432822316086
 30
0.0
 10
151.8258214746656
 20
102.7725374014326
 30
0.0
 10
151.7933938849677
 20
102.6956604701633
 30
0.0
 10
151.7079333573163
 20
102.557149601118
 30
0.0
 10
151.6539049829808
 20
102.4949735493349
 30
0.0
 10
151.59088940183
 20
102.4432252624546
 30
0.0
  0
SPLINE
  5
14E
330
1F
100
AcDbEntity
  8
0
  6
HIDDEN
 62
     7
370
     0
100
AcDbSpline
210
0.0
220
0.0
230
1.0
 70
    11
 71
     3
 72
    62
 73
    58
 74
     0
 42
0.000000001
 43
0.00000001
 40
0.0
 40
0.0
 40
0.0
 40
0.0
 40
0.0312500000000003
 40
0.0312500000000003
 40
0.0625000000000006
 40
0.0625000000000006
 40
0.1250000000000008
 40
0.1250000000000008
 40
0.187500000000001
 40
0.187500000000001
 40
0.2187500000000011
 40
0.2187500000000011
 40
0.2500000000000012
 40
0.2500000000000012
 40
0.2812500000000013
 40
0.2812500000000013
 40
0.3125000000000014
 40
0.3125000000000014
 40
0.3437500000000016
 40
0.3437500000000016
 40
0.3750000000000017
 40
0.3750000000000017
 40
0.4375000000000019
 40
0.4375000000000019
 40
0.4687500000000019
 40
0.4687500000000019
 40
0.5000000000000018
 40
0.5000000000000018
 40
0.5312500000000018
 40
0.5312500000000018
 40
0.5625000000000017
 40
0.5625000000000017
 40
0.5937500000000017
 40
0.5937500000000017
 40
0.6250000000000016
 40
0.6250000000000016
 40
0.6562500000000016
 40
0.6562500000000016
 40
0.6875000000000014
 40
0.6875000000000014
 40
0.7187500000000014
 40
0.7187500000000014
 40
0.7500000000000013
 40
0.7500000000000013
 40
0.7812500000000013
 40
0.7812500000000013
 40
0.8125000000000013
 40
0.8125000000000013
 40
0.8750000000000011
 40
0.8750000000000011
 40
0.9062500000000008
 40
0.9062500000000008
 40
0.9375000000000006
 40
0.9375000000000006
 40
0.9687500000000002
 40
0.9687500000000002
 40
1.0
 40
1.0
 40
1.0
 40
1.0
 10
153.3015695067265
 20
106.5156084477319
 30
0.0
 10
153.1603712827466
 20
106.5156084477319
 30
0.0
 10
153.0220934057328
 20
106.5260763841154
 30
0.0
 10
152.7509273345249
 20
106.5670998650508
 30
0.0
 10
152.6167240070654
 20
106.5982263184665
 30
0.0
 10
152.2376608272752
 20
106.7196003063783
 30
0.0
 10
152.0086539055814
 20
106.8397550803864
 30
0.0
 10
151.6276232865787
 20
107.1485339794093
 30
0.0
 10
151.472000209657
 20
107.3407031475731
 30
0.0
 10
151.3129297330884
 20
107.6706874594113
 30
0.0
 10
151.2712025879451
 20
107.7901868227234
 30
0.0
 10
151.215931886803
 20
108.0367712218791
 30
0.0
 10
151.2018519553132
 20
108.1639431523163
 30
0.0
 10
151.201295388992
 20
108.4264323450124
 30
0.0
 10
151.2152846664126
 20
108.5615747137095
 30
0.0
 10
151.2697661856483
 20
108.8260598070692
 30
0.0
 10
151.3106166438032
 20
108.9582097113152
 30
0.0
 10
151.4172306106626
 20
109.214905462237
 30
0.0
 10
151.4819827529356
 20
109.337643346691
 30
0.0
 10
151.6335412948882
 20
109.5720140954493
 30
0.0
 10
151.7208794180613
 20
109.6838315964628
 30
0.0
 10
152.0066558390228
 20
109.9890150615911
 30
0.0
 10
152.2361921874886
 20
110.159829380771
 30
0.0
 10
152.6125103234829
 20
110.336339743745
 30
0.0
 10
152.7448432318436
 20
110.3828245509388
 30
0.0
 10
153.0188758908344
 20
110.4459282636788
 30
0.0
 10
153.1569010504565
 20
110.4618859534231
 30
0.0
 10
153.4349724316752
 20
110.4627318222848
 30
0.0
 10
153.5766853703456
 20
110.4470071473118
 30
0.0
 10
153.8491076260259
 20
110.3855667048125
 30
0.0
 10
153.980935770523
 20
110.3402450611262
 30
0.0
 10
154.2363346661276
 20
110.2216972581251
 30
0.0
 10
154.3565006693169
 20
110.1500101749088
 30
0.0
 10
154.5816720818732
 20
109.9852816089104
 30
0.0
 10
154.6878231432076
 20
109.8910223358756
 30
0.0
 10
154.8792704319098
 20
109.6874576617318
 30
0.0
 10
154.9652044458293
 20
109.5779903714927
 30
0.0
 10
155.1176167638693
 20
109.3438927690087
 30
0.0
 10
155.1838002541568
 20
109.2189985461108
 30
0.0
 10
155.2899819527079
 20
108.9652667945761
 30
0.0
 10
155.3309620159237
 20
108.8350971097923
 30
0.0
 10
155.3870421567211
 20
108.5680334146635
 30
0.0
 10
155.4012663321623
 20
108.4340801846483
 30
0.0
 10
155.4018630160338
 20
108.1726234421802
 30
0.0
 10
155.3880944485354
 20
108.0425060727928
 30
0.0
 10
155.3332443815933
 20
107.7943152173089
 30
0.0
 10
155.2927478683169
 20
107.6769597262282
 30
0.0
 10
155.1332853971407
 20
107.3432106044885
 30
0.0
 10
154.9786169728265
 20
107.1513710325625
 30
0.0
 10
154.6903089414819
 20
106.9172484645928
 30
0.0
 10
154.5862841261341
 20
106.8490920552295
 30
0.0
 10
154.3618648679553
 20
106.7303811160055
 30
0.0
 10
154.2399340800948
 20
106.6794591796372
 30
0.0
 10
153.9874769286688
 20
106.5985093448155
 30
0.0
 10
153.8565903987516
 20
106.5679740258165
 30
0.0
 10
153.5846494810388
 20
106.5264159970721
 30
0.0
 10
153.4427677307063
 20
106.5156084477319
 30
0.0
 10
153.3015695067264
 20
106.5156084477319
 30
0.0
  0
LWPOLYLINE
  5
14F
330
1F
100
AcDbEntity
  8
0
  6
HIDDEN
 62
     7
370
     0
100
AcDbPolyline
 90
       22
 70
   128
 43
0.0
 10
151.5908894018
 20
102.4432252625
 10
151.9298794597
 20
102.0935704605
 10
152.3476775744
 20
101.8297634332
 10
152.8202798846
 20
101.666960753
 10
153.3205338498
 20
101.6145159635
 10
153.8196982517
 20
101.6754421884
 10
154.2890944712
 20
101.846239018
 10
154.701754168
 20
102.1170936187
 10
155.0339686998
 20
102.4724445121
 10
155.2666512605
 20
102.8918756331
 10
155.3864334801
 20
103.3512892991
 10
155.3864334801
 20
103.8242906999
 10
155.2666512605
 20
104.2837043659
 10
155.0339686998
 20
104.703135487
 10
154.701754168
 20
105.0584863804
 10
154.2890944712
 20
105.329340981
 10
153.8196982517
 20
105.5001378106
 10
153.3205338498
 20
105.5610640356
 10
152.8202798846
 20
105.508619246
 10
152.3476775744
 20
105.3458165658
 10
151.9298794597
 20
105.0820095386
 10
151.5908894018
 20
104.7323547366
  0
LINE
  5
150
330
1F
100
AcDbEntity
  8
0
  6
HIDDEN
 62
     7
370
     0
100
AcDbLine
 10
161.7015695067
 20
109.752703083
 30
0.0
 11
161.7015695067
 21
96.252703083
 31
0.0
  0
LINE
  5
151
330
1F
100
AcDbEntity
  8
0
  6
HIDDEN
 62
     7
370
     0
100
AcDbLine
 10
161.7015695067
 20
123.252703083
 30
0.0
 11
161.7015695067
 21
109.752703083
 31
0.0
  0
LINE
  5
152
330
1F
100
AcDbEntity
  8
0
  6
HIDDEN
 62
     7
370
     0
100
AcDbLine
 10
166.5675949105
 20
109.752703083
 30
0.0
 11
166.5675949105
 21
95.752703083
 31
0.0
  0
LINE
  5
153
330
1F
100
AcDbEntity
  8
0
  6
HIDDEN
 62
     7
370
     0
100
AcDbLine
 10
166.5675949105
 20
123.752703083
 30
0.0
 11
166.5675949105
 21
109.752703083
 31
0.0
  0
SPLINE
  5
154
330
1F
100
AcDbEntity
  8
0
  6
HIDDEN
 62
     7
370
     0
100
AcDbSpline
210
0.0
220
0.0
230
1.0
 70
     8
 71
     3
 72
    40
 73
    36
 74
     0
 42
0.000000001
 43
0.00000001
 40
0.0
 40
0.0
 40
0.0
 40
0.0
 40
0.0388528137285106
 40
0.0545376095896
 40
0.0944781475051134
 40
0.1333072362156069
 40
0.1489676473582278
 40
0.1887607655076967
 40
0.2292146809439527
 40
0.2455276925197868
 40
0.2869785319367348
 40
0.3247292272766636
 40
0.350333197179402
 40
0.3763457732356319
 40
0.3894247655014316
 40
0.4296121112779864
 40
0.4458474503034418
 40
0.4872728326470012
 40
0.5248542894011394
 40
0.5400165318575673
 40
0.5785716420918062
 40
0.6169600632351935
 40
0.6324349506651741
 40
0.6717174617999119
 40
0.7129262666347401
 40
0.7295486131033836
 40
0.7718194511823043
 40
0.8093777481306363
 40
0.8348649781757633
 40
0.8607707424693015
 40
0.8737974550239398
 40
0.9132710542124434
 40
0.9292116707760232
 40
0.9698429869645221
 40
0.9999999999999999
 40
0.9999999999999999
 40
0.9999999999999999
 40
0.9999999999999999
 10
170.6515695067264
 20
123.7527030829596
 30
0.0
 10
170.6604653234299
 20
123.7491930332955
 30
0.0
 10
170.6729523618652
 20
123.7442659842647
 30
0.0
 10
170.7694816974419
 20
123.7067070661491
 30
0.0
 10
170.9179213068797
 20
123.6496772149692
 30
0.0
 10
171.1416933145562
 20
123.5669336329427
 30
0.0
 10
171.4120307479201
 20
123.471104327987
 30
0.0
 10
171.7349810608171
 20
123.3614306787516
 30
0.0
 10
172.1234232308505
 20
123.2408947087928
 30
0.0
 10
172.558882704738
 20
123.1171195355323
 30
0.0
 10
173.0214538645916
 20
122.9977570963809
 30
0.0
 10
173.5792738464979
 20
122.8781196901026
 30
0.0
 10
174.0836627331161
 20
122.7896318738935
 30
0.0
 10
174.4635695320754
 20
122.7356774811755
 30
0.0
 10
174.9396558830042
 20
122.6807923892061
 30
0.0
 10
175.3692521138189
 20
122.6470241650343
 30
0.0
 10
175.9808247957094
 20
122.6241873603393
 30
0.0
 10
176.5812910455262
 20
122.627081099468
 30
0.0
 10
177.1668628902288
 20
122.6639035453312
 30
0.0
 10
177.7215260659145
 20
122.7192541549843
 30
0.0
 10
178.266087200692
 20
122.7940953589575
 30
0.0
 10
178.7806226711315
 20
122.8904181207556
 30
0.0
 10
179.2710006054494
 20
122.9972934280817
 30
0.0
 10
179.7457293060671
 20
123.1156658605326
 30
0.0
 10
180.1730277196801
 20
123.2391026074843
 30
0.0
 10
180.5687237127652
 20
123.362402503585
 30
0.0
 10
180.9051225440341
 20
123.4751683954704
 30
0.0
 10
181.1978068333496
 20
123.5802043485502
 30
0.0
 10
181.3913533402931
 20
123.6523114652091
 30
0.0
 10
181.4985351714884
 20
123.6932260301627
 30
0.0
 10
181.5973204142553
 20
123.7313881723014
 30
0.0
 10
181.6462831858403
 20
123.7506175785053
 30
0.0
 10
181.6562262869053
 20
123.7545555697942
 30
0.0
 10
181.6201210642
 20
123.7401129862235
 30
0.0
 10
181.5158831225997
 20
123.7000960198721
 30
0.0
 10
181.471476014845
 20
123.6830481224414
 30
0.0
  0
LINE
  5
155
330
1F
100
AcDbEntity
  8
0
  6
HIDDEN
 62
     7
370
     0
100
AcDbLine
 10
170.6515695067
 20
130.252703083
 30
0.0
 11
181.6515695067
 21
130.252703083
 31
0.0
  0
SPLINE
  5
156
330
1F
100
AcDbEntity
  8
0
  6
HIDDEN
 62
     7
370
     0
100
AcDbSpline
210
0.0
220
0.0
230
1.0
 70
     8
 71
     3
 72
    15
 73
    11
 74
     0
 42
0.000000001
 43
0.00000001
 40
0.0
 40
0.0
 40
0.0
 40
0.0
 40
0.1023798731756523
 40
0.2351418436404863
 40
0.369539186802287
 40
0.5056915420130278
 40
0.6426152016422723
 40
0.8208712363925907
 40
0.9551407109823445
 40
1.0
 40
1.0
 40
1.0
 40
1.0
 10
169.3015445755508
 20
131.6027572867062
 30
0.0
 10
169.3009535790015
 20
131.6040433508639
 30
0.0
 10
169.2995962026552
 20
131.6069971296457
 30
0.0
 10
169.2869993213098
 20
131.6343596214967
 30
0.0
 10
169.2638092224274
 20
131.6844398290957
 30
0.0
 10
169.2303798982859
 20
131.7559974581417
 30
0.0
 10
169.1832106276376
 20
131.8558002324057
 30
0.0
 10
169.1252998059331
 20
131.9763660059635
 30
0.0
 10
169.0718519738217
 20
132.0856026080842
 30
0.0
 10
169.042776110368
 20
132.144208381936
 30
0.0
 10
169.035494630075
 20
132.1588850496825
 30
0.0
  0
LINE
  5
157
330
1F
100
AcDbEntity
  8
0
  6
HIDDEN
 62
     7
370
     0
100
AcDbLine
 10
145.4015695067
 20
128.552703083
 30
0.0
 11
145.7388278069
 21
128.552703083
 31
0.0
  0
ELLIPSE
  5
158
330
1F
100
AcDbEntity
  8
0
  6
HIDDEN
 62
     7
370
     0
100
AcDbEllipse
 10
145.7388278069
 20
130.152703083
 30
0.0
 11
0.0
 21
1.599999999999994
 31
0.0
210
0.0
220
0.0
230
1.0
 40
0.4142135624
 41
3.141592653589793
 42
4.712388980384695
  0
ELLIPSE
  5
159
330
1F
100
AcDbEntity
  8
0
  6
HIDDEN
 62
     7
370
     0
100
AcDbEllipse
 10
145.7388278069
 20
91.952703083
 30
0.0
 11
0.0
 21
1.600000000000009
 31
0.0
210
0.0
220
0.0
230
1.0
 40
0.4142135624
 41
4.712388980384695
 42
6.283185307179586
  0
LINE
  5
15A
330
1F
100
AcDbEntity
  8
0
  6
HIDDEN
 62
     7
370
     0
100
AcDbLine
 10
145.7388278069
 20
93.552703083
 30
0.0
 11
145.4015695067
 21
93.552703083
 31
0.0
  0
LINE
  5
15B
330
1F
100
AcDbEntity
  8
0
  6
HIDDEN
 62
     7
370
     0
100
AcDbLine
 10
146.4015695067
 20
86.8986709972
 30
0.0
 11
145.6336923666
 21
86.5208856556
 31
0.0
  0
LINE
  5
15C
330
1F
100
AcDbEntity
  8
0
  6
HIDDEN
 62
     7
370
     0
100
AcDbLine
 10
145.7198080211
 20
133.0765483389
 30
0.0
 11
146.4015695067
 21
132.3947868532
 31
0.0
  0
LINE
  5
15D
330
1F
100
AcDbEntity
  8
0
  6
HIDDEN
 62
     7
370
     0
100
AcDbLine
 10
150.3684349593
 20
86.8986709972
 30
0.0
 11
146.4015695067
 21
86.8986709972
 31
0.0
  0
LINE
  5
15E
330
1F
100
AcDbEntity
  8
0
  6
HIDDEN
 62
     7
370
     0
100
AcDbLine
 10
161.2515695067
 20
86.8986709972
 30
0.0
 11
156.2347040541
 21
86.8986709972
 31
0.0
  0
LINE
  5
15F
330
1F
100
AcDbEntity
  8
0
  6
HIDDEN
 62
     7
370
     0
100
AcDbLine
 10
146.4015695067
 20
86.8986709972
 30
0.0
 11
146.4015695067
 21
91.952703083
 31
0.0
  0
LINE
  5
160
330
1F
100
AcDbEntity
  8
0
  6
HIDDEN
 62
     7
370
     0
100
AcDbLine
 10
161.2515695067
 20
93.552703083
 30
0.0
 11
145.7388278069
 21
93.552703083
 31
0.0
  0
LINE
  5
161
330
1F
100
AcDbEntity
  8
0
  6
HIDDEN
 62
     7
370
     0
100
AcDbLine
 10
167.7015695067
 20
93.552703083
 30
0.0
 11
161.2515695067
 21
93.552703083
 31
0.0
  0
LINE
  5
162
330
1F
100
AcDbEntity
  8
0
  6
HIDDEN
 62
     7
370
     0
100
AcDbLine
 10
145.7388278069
 20
128.552703083
 30
0.0
 11
161.2515695067
 21
128.552703083
 31
0.0
  0
LINE
  5
163
330
1F
100
AcDbEntity
  8
0
  6
HIDDEN
 62
     7
370
     0
100
AcDbLine
 10
161.2515695067
 20
128.552703083
 30
0.0
 11
167.7015695067
 21
128.552703083
 31
0.0
  0
LINE
  5
164
330
1F
100
AcDbEntity
  8
0
  6
HIDDEN
 62
     7
370
     0
100
AcDbLine
 10
146.4015695067
 20
132.3947868532
 30
0.0
 11
150.4837931718
 21
132.3947868532
 31
0.0
  0
LINE
  5
165
330
1F
100
AcDbEntity
  8
0
  6
HIDDEN
 62
     7
370
     0
100
AcDbLine
 10
156.1193458417
 20
132.3947868532
 30
0.0
 11
161.2515695067
 21
132.3947868532
 31
0.0
  0
LINE
  5
166
330
1F
100
AcDbEntity
  8
0
  6
HIDDEN
 62
     7
370
     0
100
AcDbLine
 10
146.4015695067
 20
132.3947868532
 30
0.0
 11
146.4015695067
 21
130.152703083
 31
0.0
  0
LINE
  5
167
330
1F
100
AcDbEntity
  8
0
  6
HIDDEN
 62
     7
370
     0
100
AcDbLine
 10
98.5515695067
 20
103.252703083
 30
0.0
 11
98.5515695067
 21
116.252703083
 31
0.0
  0
LINE
  5
168
330
1F
100
AcDbEntity
  8
0
  6
HIDDEN
 62
     7
370
     0
100
AcDbLine
 10
101.4897636942
 20
104.652703083
 30
0.0
 11
101.4897636942
 21
114.852703083
 31
0.0
  0
LINE
  5
169
330
1F
100
AcDbEntity
  8
0
  6
HIDDEN
 62
     7
370
     0
100
AcDbLine
 10
128.5515695067
 20
104.652703083
 30
0.0
 11
128.5515695067
 21
114.852703083
 31
0.0
  0
LINE
  5
16A
330
1F
100
AcDbEntity
  8
0
  6
HIDDEN
 62
     7
370
     0
100
AcDbLine
 10
129.0623010329
 20
105.502703083
 30
0.0
 11
129.0623010329
 21
114.002703083
 31
0.0
  0
SPLINE
  5
16B
330
1F
100
AcDbEntity
  8
0
  6
HIDDEN
 62
     7
370
     0
100
AcDbSpline
210
0.0
220
0.0
230
1.0
 70
    11
 71
     3
 72
    62
 73
    58
 74
     0
 42
0.000000001
 43
0.00000001
 40
0.0
 40
0.0
 40
0.0
 40
0.0
 40
0.0312499999999999
 40
0.0312499999999999
 40
0.0624999999999998
 40
0.0624999999999998
 40
0.125
 40
0.125
 40
0.1875000000000002
 40
0.1875000000000002
 40
0.2187500000000003
 40
0.2187500000000003
 40
0.2500000000000004
 40
0.2500000000000004
 40
0.2812500000000006
 40
0.2812500000000006
 40
0.3125000000000006
 40
0.3125000000000006
 40
0.3437500000000007
 40
0.3437500000000007
 40
0.3750000000000008
 40
0.3750000000000008
 40
0.4375000000000011
 40
0.4375000000000011
 40
0.468750000000001
 40
0.468750000000001
 40
0.500000000000001
 40
0.500000000000001
 40
0.5312500000000009
 40
0.5312500000000009
 40
0.5625000000000009
 40
0.5625000000000009
 40
0.5937500000000008
 40
0.5937500000000008
 40
0.6250000000000007
 40
0.6250000000000007
 40
0.6562500000000007
 40
0.6562500000000007
 40
0.6875000000000006
 40
0.6875000000000006
 40
0.7187500000000004
 40
0.7187500000000004
 40
0.7500000000000003
 40
0.7500000000000003
 40
0.7812500000000003
 40
0.7812500000000003
 40
0.8125000000000002
 40
0.8125000000000002
 40
0.8750000000000003
 40
0.8750000000000003
 40
0.9062500000000002
 40
0.9062500000000002
 40
0.9375000000000001
 40
0.9375000000000001
 40
0.9687500000000001
 40
0.9687500000000001
 40
1.0
 40
1.0
 40
1.0
 40
1.0
 10
153.3015695067265
 20
109.0430887108866
 30
0.0
 10
153.4427677307063
 20
109.0430887108865
 30
0.0
 10
153.5810456077201
 20
109.059100120878
 30
0.0
 10
153.8522116789279
 20
109.120829686501
 30
0.0
 10
153.9864150063874
 20
109.1673674499557
 30
0.0
 10
154.3654781861776
 20
109.3443437786907
 30
0.0
 10
154.5944851078714
 20
109.5147700723998
 30
0.0
 10
154.9755157268742
 20
109.9206563498232
 30
0.0
 10
155.1311388037958
 20
110.1603267911591
 30
0.0
 10
155.2902092803645
 20
110.5408036184758
 30
0.0
 10
155.3319364255078
 20
110.6740723537808
 30
0.0
 10
155.3872071266499
 20
110.9390535894097
 30
0.0
 10
155.4012870581397
 20
111.0710189041275
 30
0.0
 10
155.4018436244609
 20
111.3336962139417
 30
0.0
 10
155.3878543470402
 20
111.4640760778993
 30
0.0
 10
155.3333728278046
 20
111.7104200086225
 30
0.0
 10
155.2925223696497
 20
111.8290742786053
 30
0.0
 10
155.1859084027903
 20
112.0519005453607
 30
0.0
 10
155.1211562605173
 20
112.1545856563451
 30
0.0
 10
154.9695977185647
 20
112.3447089092585
 30
0.0
 10
154.8822595953916
 20
112.4322157004778
 30
0.0
 10
154.5964831744301
 20
112.6644831959264
 30
0.0
 10
154.3669468259643
 20
112.784931938569
 30
0.0
 10
153.99062868997
 20
112.9060285308707
 30
0.0
 10
153.8582957816093
 20
112.9371366643069
 30
0.0
 10
153.5842631226185
 20
112.9790839038625
 30
0.0
 10
153.4462379629963
 20
112.9895141384722
 30
0.0
 10
153.1681665817776
 20
112.990070037339
 30
0.0
 10
153.0264536431073
 20
112.9797915785089
 30
0.0
 10
152.7540313874269
 20
112.9389683938158
 30
0.0
 10
152.6222032429299
 20
112.908675057941
 30
0.0
 10
152.3668043473253
 20
112.8274078676501
 30
0.0
 10
152.246638344136
 20
112.7774600167918
 30
0.0
 10
152.0214669315797
 20
112.6591388055938
 30
0.0
 10
151.9153158702453
 20
112.5898456965113
 30
0.0
 10
151.7238685815431
 20
112.4350310479175
 30
0.0
 10
151.6379345676236
 20
112.3494450600469
 30
0.0
 10
151.4855222495835
 20
112.1597613879698
 30
0.0
 10
151.4193387592961
 20
112.0553401268993
 30
0.0
 10
151.313157060745
 20
111.8353087870919
 30
0.0
 10
151.2721769975292
 20
111.7186603009825
 30
0.0
 10
151.2160968567318
 20
111.4702589199932
 30
0.0
 10
151.2018726812906
 20
111.341148931189
 30
0.0
 10
151.2012759974191
 20
111.0798938653569
 30
0.0
 10
151.2150445649175
 20
110.9450875746842
 30
0.0
 10
151.2698946318596
 20
110.6786324603298
 30
0.0
 10
151.310391145136
 20
110.5478985256312
 30
0.0
 10
151.4698536163122
 20
110.1634830716276
 30
0.0
 10
151.6245220406264
 20
109.9243240397508
 30
0.0
 10
151.9128300719709
 20
109.616664680307
 30
0.0
 10
152.0168548873188
 20
109.5239915635427
 30
0.0
 10
152.2412741454976
 20
109.3588487209031
 30
0.0
 10
152.3632049333581
 20
109.2858078522239
 30
0.0
 10
152.6156620847841
 20
109.1677859359515
 30
0.0
 10
152.7465486147013
 20
109.1221382303338
 30
0.0
 10
153.0184895324141
 20
109.0596177908666
 30
0.0
 10
153.1603712827466
 20
109.0430887108865
 30
0.0
 10
153.3015695067264
 20
109.0430887108865
 30
0.0
  0
SPLINE
  5
16C
330
1F
100
AcDbEntity
  8
0
  6
HIDDEN
 62
     7
370
     0
100
AcDbSpline
210
0.0
220
0.0
230
1.0
 70
    11
 71
     3
 72
    58
 73
    54
 74
     0
 42
0.000000001
 43
0.00000001
 40
0.0
 40
0.0
 40
0.0
 40
0.0
 40
0.0312499999999999
 40
0.0312499999999999
 40
0.0624999999999998
 40
0.0624999999999998
 40
0.1249999999999995
 40
0.1249999999999995
 40
0.1562499999999993
 40
0.1562499999999993
 40
0.1874999999999995
 40
0.1874999999999995
 40
0.2187499999999998
 40
0.2187499999999998
 40
0.2499999999999999
 40
0.2499999999999999
 40
0.3124999999999997
 40
0.3124999999999997
 40
0.3437499999999998
 40
0.3437499999999998
 40
0.3749999999999999
 40
0.3749999999999999
 40
0.4375000000000005
 40
0.4375000000000005
 40
0.4687500000000007
 40
0.4687500000000007
 40
0.500000000000001
 40
0.500000000000001
 40
0.5312500000000012
 40
0.5312500000000012
 40
0.5625000000000016
 40
0.5625000000000016
 40
0.6250000000000012
 40
0.6250000000000012
 40
0.687500000000001
 40
0.687500000000001
 40
0.7500000000000007
 40
0.7500000000000007
 40
0.7812500000000006
 40
0.7812500000000006
 40
0.8125000000000004
 40
0.8125000000000004
 40
0.8437500000000003
 40
0.8437500000000003
 40
0.8750000000000003
 40
0.8750000000000003
 40
0.9062500000000002
 40
0.9062500000000002
 40
0.9375000000000001
 40
0.9375000000000001
 40
0.9687500000000001
 40
0.9687500000000001
 40
1.0
 40
1.0
 40
1.0
 40
1.0
 10
151.2551705103112
 20
114.4300668336479
 30
0.0
 10
151.2833941054782
 20
114.3234345433619
 30
0.0
 10
151.3215399246575
 20
114.2263774371065
 30
0.0
 10
151.4141132833313
 20
114.0509744926054
 30
0.0
 10
151.4692664002428
 20
113.9722692812356
 30
0.0
 10
151.6444677340204
 20
113.777893550068
 30
0.0
 10
151.7811764971177
 20
113.6986248275172
 30
0.0
 10
151.9260289522961
 20
113.6861119384577
 30
0.0
 10
151.9615134046883
 20
113.6994543554779
 30
0.0
 10
152.0018180735192
 20
113.7542142585834
 30
0.0
 10
152.006288241856
 20
113.794987707496
 30
0.0
 10
151.9928949039179
 20
113.891402274071
 30
0.0
 10
151.9751630075124
 20
113.9479231589777
 30
0.0
 10
151.927794822345
 20
114.0692346276296
 30
0.0
 10
151.8980969503305
 20
114.134497898251
 30
0.0
 10
151.7987838784565
 20
114.3429214435266
 30
0.0
 10
151.7187333489681
 20
114.4993968470901
 30
0.0
 10
151.5975487590253
 20
114.7572396594087
 30
0.0
 10
151.5566970915593
 20
114.8473797562441
 30
0.0
 10
151.4758311853939
 20
115.0386557179788
 30
0.0
 10
151.4354793312598
 20
115.1406191060976
 30
0.0
 10
151.3215525692381
 20
115.4631017060689
 30
0.0
 10
151.2527850718097
 20
115.7046412605624
 30
0.0
 10
151.2038656198834
 20
116.0855622688603
 30
0.0
 10
151.197948768363
 20
116.2119850103585
 30
0.0
 10
151.2098369783174
 20
116.4401051295574
 30
0.0
 10
151.2275463649287
 20
116.5423108829814
 30
0.0
 10
151.2771845176036
 20
116.7118297105921
 30
0.0
 10
151.3094341212266
 20
116.7819037541526
 30
0.0
 10
151.3795209536478
 20
116.8952710202738
 30
0.0
 10
151.4178030694076
 20
116.9398375803499
 30
0.0
 10
151.5375554824184
 20
117.0471408952715
 30
0.0
 10
151.6206756648795
 20
117.0819701701731
 30
0.0
 10
151.77915706256
 20
117.1065145544738
 30
0.0
 10
151.8552806071344
 20
117.0952023195433
 30
0.0
 10
151.9708632616889
 20
117.0265870944667
 30
0.0
 10
152.0124729438692
 20
116.9692455295731
 30
0.0
 10
151.994534884027
 20
116.8256841506934
 30
0.0
 10
151.9740792162513
 20
116.7676316886472
 30
0.0
 10
151.9039608042558
 20
116.6312177555558
 30
0.0
 10
151.8533594049838
 20
116.5507633260289
 30
0.0
 10
151.7399868651918
 20
116.3746903716939
 30
0.0
 10
151.6763998251862
 20
116.276956941132
 30
0.0
 10
151.5543045070646
 20
116.0716762032176
 30
0.0
 10
151.4945028605847
 20
115.9621554549673
 30
0.0
 10
151.387397210076
 20
115.7330191566433
 30
0.0
 10
151.3408887668578
 20
115.6155085515654
 30
0.0
 10
151.2656288763152
 20
115.3732656917913
 30
0.0
 10
151.2374043501599
 20
115.2493450611036
 30
0.0
 10
151.2037592808654
 20
115.0060644488574
 30
0.0
 10
151.1979383844911
 20
114.8836986946592
 30
0.0
 10
151.2097303729177
 20
114.6487517995103
 30
0.0
 10
151.2269469151443
 20
114.5366991239339
 30
0.0
 10
151.2551705103112
 20
114.4300668336479
 30
0.0
  0
SPLINE
  5
16D
330
1F
100
AcDbEntity
  8
0
  6
HIDDEN
 62
     7
370
     0
100
AcDbSpline
210
0.0
220
0.0
230
1.0
 70
     8
 71
     3
 72
    12
 73
     8
 74
     0
 42
0.000000001
 43
0.00000001
 40
0.0
 40
0.0
 40
0.0
 40
0.0
 40
0.5
 40
0.5
 40
0.75
 40
0.75
 40
1.0
 40
1.0
 40
1.0
 40
1.0
 10
151.9679230831646
 20
115.7409107236645
 30
0.0
 10
151.8255898791481
 20
115.8538278739794
 30
0.0
 10
151.7046883247174
 20
115.9967912474969
 30
0.0
 10
151.5600915709911
 20
116.2229018008131
 30
0.0
 10
151.5171028266901
 20
116.3017222848618
 30
0.0
 10
151.4438405880745
 20
116.458610977485
 30
0.0
 10
151.4133359782184
 20
116.5366974765485
 30
0.0
 10
151.3915695067262
 20
116.6078335459163
 30
0.0
  0
SPLINE
  5
16E
330
1F
100
AcDbEntity
  8
0
  6
HIDDEN
 62
     7
370
     0
100
AcDbSpline
210
0.0
220
0.0
230
1.0
 70
     8
 71
     3
 72
    14
 73
    10
 74
     0
 42
0.000000001
 43
0.00000001
 40
0.0
 40
0.0
 40
0.0
 40
0.0
 40
0.25
 40
0.25
 40
0.5
 40
0.5
 40
0.75
 40
0.75
 40
1.0
 40
1.0
 40
1.0
 40
1.0
 10
154.6352159302884
 20
115.7409107236646
 30
0.0
 10
154.4474298572445
 20
115.5919344648678
 30
0.0
 10
154.238418464818
 20
115.4770154095217
 30
0.0
 10
153.7809371696461
 20
115.3179899060962
 30
0.0
 10
153.5434740486242
 20
115.2779217571356
 30
0.0
 10
153.0578567452239
 20
115.2781250697537
 30
0.0
 10
152.8197813997119
 20
115.3186149161095
 30
0.0
 10
152.3636910640861
 20
115.4775912750101
 30
0.0
 10
152.1557077170427
 20
115.5919356066006
 30
0.0
 10
151.9679230831646
 20
115.7409107236645
 30
0.0
  0
SPLINE
  5
16F
330
1F
100
AcDbEntity
  8
0
  6
HIDDEN
 62
     7
370
     0
100
AcDbSpline
210
0.0
220
0.0
230
1.0
 70
     8
 71
     3
 72
    12
 73
     8
 74
     0
 42
0.000000001
 43
0.00000001
 40
0.0
 40
0.0
 40
0.0
 40
0.0
 40
0.249999999999999
 40
0.249999999999999
 40
0.499999999999998
 40
0.499999999999998
 40
1.0
 40
1.0
 40
1.0
 40
1.0
 10
155.2115695067264
 20
116.6078335459155
 30
0.0
 10
155.1898392935457
 20
116.536815974108
 30
0.0
 10
155.1592999927486
 20
116.4585804997786
 30
0.0
 10
155.0857514303506
 20
116.3011464530315
 30
0.0
 10
155.0429797882204
 20
116.2227880224716
 30
0.0
 10
154.8984347467109
 20
115.9967823014723
 30
0.0
 10
154.7775934967884
 20
115.8538630680528
 30
0.0
 10
154.6352159302883
 20
115.7409107236645
 30
0.0
  0
SPLINE
  5
170
330
1F
100
AcDbEntity
  8
0
  6
HIDDEN
 62
     7
370
     0
100
AcDbSpline
210
0.0
220
0.0
230
1.0
 70
     8
 71
     3
 72
    16
 73
    12
 74
     0
 42
0.000000001
 43
0.00000001
 40
0.0
 40
0.0
 40
0.0
 40
0.0
 40
0.2499999999999988
 40
0.2499999999999988
 40
0.374999999999999
 40
0.374999999999999
 40
0.4999999999999992
 40
0.4999999999999992
 40
0.7499999999999996
 40
0.7499999999999996
 40
1.0
 40
1.0
 40
1.0
 40
1.0
 10
155.2115695067266
 20
118.2482903488902
 30
0.0
 10
155.2659658529246
 20
118.1702713560232
 30
0.0
 10
155.3135605851173
 20
118.0743297867636
 30
0.0
 10
155.3645380709095
 20
117.8990178680308
 30
0.0
 10
155.3780168838186
 20
117.8358633884613
 30
0.0
 10
155.3966079701817
 20
117.6983008644172
 30
0.0
 10
155.4015360012432
 20
117.6235286898925
 30
0.0
 10
155.4016359872303
 20
117.3946346412363
 30
0.0
 10
155.3818135628358
 20
117.2287498302086
 30
0.0
 10
155.313539269771
 20
116.9084842485143
 30
0.0
 10
155.2660199833434
 20
116.7536615521006
 30
0.0
 10
155.2115695067266
 20
116.6078335459153
 30
0.0
  0
SPLINE
  5
171
330
1F
100
AcDbEntity
  8
0
  6
HIDDEN
 62
     7
370
     0
100
AcDbSpline
210
0.0
220
0.0
230
1.0
 70
     8
 71
     3
 72
    12
 73
     8
 74
     0
 42
0.000000001
 43
0.00000001
 40
0.0
 40
0.0
 40
0.0
 40
0.0
 40
0.4999999999999969
 40
0.4999999999999969
 40
0.7499999999999984
 40
0.7499999999999984
 40
1.0
 40
1.0
 40
1.0
 40
1.0
 10
154.6352159302883
 20
118.7895651062199
 30
0.0
 10
154.7775491343047
 20
118.6825594028575
 30
0.0
 10
154.8984506887352
 20
118.578147608675
 30
0.0
 10
155.0430474424615
 20
118.4337931493706
 30
0.0
 10
155.0860361867626
 20
118.3869844299591
 30
0.0
 10
155.1592984253781
 20
118.304100574383
 30
0.0
 10
155.1898030352342
 20
118.2666677148958
 30
0.0
 10
155.2115695067264
 20
118.2482903488898
 30
0.0
  0
SPLINE
  5
172
330
1F
100
AcDbEntity
  8
0
  6
HIDDEN
 62
     7
370
     0
100
AcDbSpline
210
0.0
220
0.0
230
1.0
 70
     8
 71
     3
 72
    14
 73
    10
 74
     0
 42
0.000000001
 43
0.00000001
 40
0.0
 40
0.0
 40
0.0
 40
0.0
 40
0.25
 40
0.25
 40
0.5
 40
0.5
 40
0.75
 40
0.75
 40
1.0
 40
1.0
 40
1.0
 40
1.0
 10
151.9679230831646
 20
118.7895651062199
 30
0.0
 10
152.1557091562084
 20
118.9307421489668
 30
0.0
 10
152.3647205486349
 20
119.0386108770921
 30
0.0
 10
152.8222018438068
 20
119.1875346565917
 30
0.0
 10
153.0596649648286
 20
119.224826862173
 30
0.0
 10
153.545282268229
 20
119.2246372477765
 30
0.0
 10
153.7833576137409
 20
119.1869508854194
 30
0.0
 10
154.2394479493668
 20
119.0380700439253
 30
0.0
 10
154.4474312964103
 20
118.9307410670059
 30
0.0
 10
154.6352159302884
 20
118.7895651062198
 30
0.0
  0
SPLINE
  5
173
330
1F
100
AcDbEntity
  8
0
  6
HIDDEN
 62
     7
370
     0
100
AcDbSpline
210
0.0
220
0.0
230
1.0
 70
     8
 71
     3
 72
    12
 73
     8
 74
     0
 42
0.000000001
 43
0.00000001
 40
0.0
 40
0.0
 40
0.0
 40
0.0
 40
0.2500000000000006
 40
0.2500000000000006
 40
0.5000000000000012
 40
0.5000000000000012
 40
1.0
 40
1.0
 40
1.0
 40
1.0
 10
151.3915695067262
 20
118.2482903488896
 30
0.0
 10
151.4132997199068
 20
118.2666371021127
 30
0.0
 10
151.443839020704
 20
118.3041026169931
 30
0.0
 10
151.5173875831019
 20
118.3873027532292
 30
0.0
 10
151.5601592252321
 20
118.4338632048151
 30
0.0
 10
151.7047042667418
 20
118.5781584909018
 30
0.0
 10
151.8255455166643
 20
118.6825260512666
 30
0.0
 10
151.9679230831646
 20
118.7895651062199
 30
0.0
  0
SPLINE
  5
174
330
1F
100
AcDbEntity
  8
0
  6
HIDDEN
 62
     7
370
     0
100
AcDbSpline
210
0.0
220
0.0
230
1.0
 70
     8
 71
     3
 72
    16
 73
    12
 74
     0
 42
0.000000001
 43
0.00000001
 40
0.0
 40
0.0
 40
0.0
 40
0.0
 40
0.249999999999999
 40
0.249999999999999
 40
0.3749999999999992
 40
0.3749999999999992
 40
0.4999999999999993
 40
0.4999999999999993
 40
0.7499999999999997
 40
0.7499999999999997
 40
1.0
 40
1.0
 40
1.0
 40
1.0
 10
151.391569506726
 20
116.6078335459162
 30
0.0
 10
151.3371731605281
 20
116.7535165812666
 30
0.0
 10
151.2895784283354
 20
116.9087587632335
 30
0.0
 10
151.2386009425433
 20
117.1476260466476
 30
0.0
 10
151.2251221296342
 20
117.2275936131747
 30
0.0
 10
151.2065310432712
 20
117.3883493192755
 30
0.0
 10
151.2016030122097
 20
117.4692714711069
 30
0.0
 10
151.2015030262225
 20
117.6982902854104
 30
0.0
 10
151.2213254506171
 20
117.8394321190791
 30
0.0
 10
151.2895997436817
 20
118.0745776357757
 30
0.0
 10
151.3371190301092
 20
118.1701937184414
 30
0.0
 10
151.3915695067259
 20
118.2482903488898
 30
0.0
  0
LINE
  5
175
330
1F
100
AcDbEntity
  8
0
  6
HIDDEN
 62
     7
370
     0
100
AcDbLine
 10
161.2515695067
 20
127.966091016
 30
0.0
 11
161.2515695067
 21
124.602703083
 31
0.0
  0
LINE
  5
176
330
1F
100
AcDbEntity
  8
0
  6
HIDDEN
 62
     7
370
     0
100
AcDbLine
 10
151.3915695067
 20
126.6005223106
 30
0.0
 11
151.3915695067
 21
124.602703083
 31
0.0
  0
LINE
  5
177
330
1F
100
AcDbEntity
  8
0
  6
HIDDEN
 62
     7
370
     0
100
AcDbLine
 10
155.2115695067
 20
126.6005223106
 30
0.0
 11
155.2115695067
 21
124.602703083
 31
0.0
  0
LINE
  5
178
330
1F
100
AcDbEntity
  8
0
  6
HIDDEN
 62
     7
370
     0
100
AcDbLine
 10
156.6646348248
 20
129.8332440368
 30
0.0
 11
156.6646348248
 21
124.602703083
 31
0.0
  0
LINE
  5
179
330
1F
100
AcDbEntity
  8
0
  6
HIDDEN
 62
     7
370
     0
100
AcDbLine
 10
149.9385041887
 20
129.8332440368
 30
0.0
 11
149.9385041887
 21
124.602703083
 31
0.0
  0
LWPOLYLINE
  5
17A
330
1F
100
AcDbEntity
  8
0
  6
HIDDEN
 62
     7
370
     0
100
AcDbPolyline
 90
       24
 70
   128
 43
0.0
 10
145.7233484617
 20
115.7548556938
 10
145.8299347539
 20
115.4224663301
 10
145.9958802951
 20
115.1804399516
 10
146.2088776635
 20
115.0467265474
 10
146.4531298187
 20
115.0312430292
 10
146.7105216958
 20
115.1351377386
 10
146.9619637167
 20
115.3507052802
 10
147.188807577
 20
115.6619579958
 10
147.3742293054
 20
116.0458116953
 10
147.5044770204
 20
116.4737977057
 10
147.5698908449
 20
116.9141742626
 10
147.5656193348
 20
117.3342806514
 10
147.4919792885
 20
117.7029595031
 10
147.3544322513
 20
117.9928675938
 10
147.1631794577
 20
118.1825037667
 10
146.9324052525
 20
118.2578035744
 10
146.6792251027
 20
118.2131823745
 10
146.422416222
 20
118.0519495175
 10
146.18102495
 20
117.7860629066
 10
145.9729541732
 20
117.4352421355
 10
145.8136355493
 20
117.0255059759
 10
145.7148850117
 20
116.5872426842
 10
145.684026436
 20
116.152956244
 10
145.7233484617
 20
115.7548556938
  0
LWPOLYLINE
  5
17B
330
1F
100
AcDbEntity
  8
0
  6
HIDDEN
 62
     7
370
     0
100
AcDbPolyline
 90
       27
 70
   128
 43
0.0
 10
145.5034820104
 20
115.5400657891
 10
145.6166249083
 20
115.1695320042
 10
145.7886787769
 20
114.8845066898
 10
146.0096444709
 20
114.701554481
 10
146.2666802671
 20
114.6313078954
 10
146.5448481795
 20
114.677849409
 10
146.8279821
 20
114.8384741982
 10
147.0996273144
 20
115.1038473343
 10
147.3439967902
 20
115.4585462951
 10
147.5468886616
 20
115.8819572663
 10
147.6965115907
 20
116.3494731412
 10
147.7841700366
 20
116.8339235966
 10
147.8047696091
 20
117.307154133
 10
147.7571131359
 20
117.7416623116
 10
147.643970238
 20
118.1121960964
 10
147.4719163694
 20
118.3972214109
 10
147.2509506755
 20
118.5801736197
 10
146.9939148792
 20
118.6504202053
 10
146.7157469669
 20
118.6038786917
 10
146.4326130463
 20
118.4432539024
 10
146.1609678319
 20
118.1778807664
 10
145.9165983562
 20
117.8231818056
 10
145.7137064847
 20
117.3997708344
 10
145.5640835556
 20
116.9322549595
 10
145.4764251097
 20
116.4478045041
 10
145.4558255372
 20
115.9745739677
 10
145.5034820104
 20
115.5400657891
  0
LINE
  5
17C
330
1F
100
AcDbEntity
  8
0
  6
HIDDEN
 62
     7
370
     0
100
AcDbLine
 10
150.8015695067
 20
117.0598011513
 30
0.0
 11
150.8015695067
 21
115.6940876549
 31
0.0
  0
LINE
  5
17D
330
1F
100
AcDbEntity
  8
0
  6
HIDDEN
 62
     7
370
     0
100
AcDbLine
 10
155.8015695067
 20
115.6940876549
 30
0.0
 11
155.8015695067
 21
117.0598011513
 31
0.0
  0
LINE
  5
17E
330
1F
100
AcDbEntity
  8
0
  6
HIDDEN
 62
     7
370
     0
100
AcDbLine
 10
147.3545376755
 20
100.9814332869
 30
0.0
 11
149.0131840904
 21
101.3786543606
 31
0.0
  0
LINE
  5
17F
330
1F
100
AcDbEntity
  8
0
  6
HIDDEN
 62
     7
370
     0
100
AcDbLine
 10
148.0815863307
 20
105.2686576529
 30
0.0
 11
146.4229399158
 21
104.8714365792
 31
0.0
  0
LINE
  5
180
330
1F
100
AcDbEntity
  8
0
  6
HIDDEN
 62
     7
370
     0
100
AcDbLine
 10
149.5761478378
 20
101.9896298498
 30
0.0
 11
149.8047258858
 21
102.6370206799
 31
0.0
  0
LINE
  5
181
330
1F
100
AcDbEntity
  8
0
  6
HIDDEN
 62
     7
370
     0
100
AcDbLine
 10
149.3572853697
 20
104.5053646755
 30
0.0
 11
148.8602430121
 21
104.9789802428
 31
0.0
  0
LINE
  5
182
330
1F
100
AcDbEntity
  8
0
  6
HIDDEN
 62
     7
370
     0
100
AcDbLine
 10
148.8602430121
 20
114.5264259232
 30
0.0
 11
149.3572853697
 21
115.0000414904
 31
0.0
  0
LINE
  5
183
330
1F
100
AcDbEntity
  8
0
  6
HIDDEN
 62
     7
370
     0
100
AcDbLine
 10
149.8047258858
 20
116.868385486
 30
0.0
 11
149.5761478378
 21
117.5157763161
 31
0.0
  0
LINE
  5
184
330
1F
100
AcDbEntity
  8
0
  6
HIDDEN
 62
     7
370
     0
100
AcDbLine
 10
146.4229399158
 20
114.6339695867
 30
0.0
 11
148.0815863307
 21
114.236748513
 31
0.0
  0
LINE
  5
185
330
1F
100
AcDbEntity
  8
0
  6
HIDDEN
 62
     7
370
     0
100
AcDbLine
 10
149.0131840904
 20
118.1267518054
 30
0.0
 11
147.3545376755
 21
118.523972879
 31
0.0
  0
LINE
  5
186
330
1F
100
AcDbEntity
  8
0
  6
HIDDEN
 62
     7
370
     0
100
AcDbLine
 10
182.1515695067
 20
131.552703083
 30
0.0
 11
181.4515695067
 21
132.252703083
 31
0.0
  0
LINE
  5
187
330
1F
100
AcDbEntity
  8
0
  6
HIDDEN
 62
     7
370
     0
100
AcDbLine
 10
170.4512993994
 20
131.8524329757
 30
0.0
 11
170.1515695067
 21
131.552703083
 31
0.0
  0
LINE
  5
188
330
1F
100
AcDbEntity
  8
0
  6
HIDDEN
 62
     7
370
     0
100
AcDbLine
 10
170.1515695067
 20
131.552703083
 30
0.0
 11
170.1515695067
 21
124.1498174
 31
0.0
  0
LINE
  5
189
330
1F
100
AcDbEntity
  8
0
  6
HIDDEN
 62
     7
370
     0
100
AcDbLine
 10
182.1515695067
 20
124.1498174
 30
0.0
 11
182.1515695067
 21
131.552703083
 31
0.0
  0
LINE
  5
18A
330
1F
100
AcDbEntity
  8
0
  6
HIDDEN
 62
     7
370
     0
100
AcDbLine
 10
170.1515695067
 20
124.1498174
 30
0.0
 11
172.3419898552
 21
115.9750573694
 31
0.0
  0
LINE
  5
18B
330
1F
100
AcDbEntity
  8
0
  6
HIDDEN
 62
     7
370
     0
100
AcDbLine
 10
179.9611491582
 20
115.9750573694
 30
0.0
 11
182.1515695067
 21
124.1498174
 31
0.0
  0
ARC
  5
18C
330
1F
100
AcDbEntity
  8
0
  6
HIDDEN
 62
     7
370
     0
100
AcDbCircle
 10
172.6317676031
 20
116.052703083
 30
0.0
 40
0.2999999999999972
100
AcDbArc
 50
195.0
 51
270.0
  0
ARC
  5
18D
330
1F
100
AcDbEntity
  8
0
  6
HIDDEN
 62
     7
370
     0
100
AcDbCircle
 10
179.6713714103
 20
116.052703083
 30
0.0
 40
0.2999999999999972
100
AcDbArc
 50
270.0
 51
345.0
  0
LINE
  5
18E
330
1F
100
AcDbEntity
  8
0
  6
HIDDEN
 62
     7
370
     0
100
AcDbLine
 10
172.5515695067
 20
132.252703083
 30
0.0
 11
173.1515695067
 21
131.652703083
 31
0.0
  0
LINE
  5
18F
330
1F
100
AcDbEntity
  8
0
  6
HIDDEN
 62
     7
370
     0
100
AcDbLine
 10
179.1515695067
 20
131.652703083
 30
0.0
 11
179.7515695067
 21
132.252703083
 31
0.0
  0
LINE
  5
190
330
1F
100
AcDbEntity
  8
0
  6
HIDDEN
 62
     7
370
     0
100
AcDbLine
 10
173.1515695067
 20
125.252703083
 30
0.0
 11
173.1515695067
 21
124.252703083
 31
0.0
  0
LINE
  5
191
330
1F
100
AcDbEntity
  8
0
  6
HIDDEN
 62
     7
370
     0
100
AcDbLine
 10
179.1515695067
 20
124.252703083
 30
0.0
 11
179.1515695067
 21
125.252703083
 31
0.0
  0
LINE
  5
192
330
1F
100
AcDbEntity
  8
0
  6
HIDDEN
 62
     7
370
     0
100
AcDbLine
 10
173.1515695067
 20
124.252703083
 30
0.0
 11
176.1515695067
 21
123.1607923802
 31
0.0
  0
LINE
  5
193
330
1F
100
AcDbEntity
  8
0
  6
HIDDEN
 62
     7
370
     0
100
AcDbLine
 10
176.1515695067
 20
123.1607923802
 30
0.0
 11
179.1515695067
 21
124.252703083
 31
0.0
  0
LINE
  5
194
330
1F
100
AcDbEntity
  8
0
  6
HIDDEN
 62
     7
370
     0
100
AcDbLine
 10
145.4015695067
 20
100.4623127055
 30
0.0
 11
147.107741425
 21
100.8709154283
 31
0.0
  0
LINE
  5
195
330
1F
100
AcDbEntity
  8
0
  6
HIDDEN
 62
     7
370
     0
100
AcDbLine
 10
146.1528537213
 20
104.8581688029
 30
0.0
 11
145.4015695067
 21
104.6782474407
 31
0.0
  0
LINE
  5
196
330
1F
100
AcDbEntity
  8
0
  6
HIDDEN
 62
     7
370
     0
100
AcDbLine
 10
147.014581649
 20
101.2599157575
 30
0.0
 11
151.838922887
 21
102.4152735173
 31
0.0
  0
LINE
  5
197
330
1F
100
AcDbEntity
  8
0
  6
HIDDEN
 62
     7
370
     0
100
AcDbLine
 10
151.8398431444
 20
105.8088072286
 30
0.0
 11
146.2460134973
 21
104.4691684737
 31
0.0
  0
LINE
  5
198
330
1F
100
AcDbEntity
  8
0
  6
HIDDEN
 62
     7
370
     0
100
AcDbLine
 10
155.4015695067
 20
103.5877899995
 30
0.0
 11
155.4015695067
 21
108.299564376
 31
0.0
  0
LINE
  5
199
330
1F
100
AcDbEntity
  8
0
  6
HIDDEN
 62
     7
370
     0
100
AcDbLine
 10
151.2015695067
 20
108.300289259
 30
0.0
 11
151.2015695067
 21
104.6479230336
 31
0.0
  0
ARC
  5
19A
330
1F
100
AcDbEntity
  8
0
  6
HIDDEN
 62
     7
370
     0
100
AcDbCircle
 10
189.2015695067
 20
124.752703083
 30
0.0
 40
1.0
100
AcDbArc
 50
270.0
 51
0.0
  0
ARC
  5
19B
330
1F
100
AcDbEntity
  8
0
  6
HIDDEN
 62
     7
370
     0
100
AcDbCircle
 10
189.2015695067
 20
94.752703083
 30
0.0
 40
1.0
100
AcDbArc
 50
0.0
 51
90.0
  0
LINE
  5
19C
330
1F
100
AcDbEntity
  8
0
  6
HIDDEN
 62
     7
370
     0
100
AcDbLine
 10
164.5699170091
 20
124.252703083
 30
0.0
 11
162.7015695067
 21
124.252703083
 31
0.0
  0
LINE
  5
19D
330
1F
100
AcDbEntity
  8
0
  6
HIDDEN
 62
     7
370
     0
100
AcDbLine
 10
162.7015695067
 20
95.252703083
 30
0.0
 11
164.5699170091
 21
95.252703083
 31
0.0
  0
ARC
  5
19E
330
1F
100
AcDbEntity
  8
0
  6
HIDDEN
 62
     7
370
     0
100
AcDbCircle
 10
164.5699170091
 20
123.252703083
 30
0.0
 40
1.000000000000009
100
AcDbArc
 50
75.0
 51
90.0
  0
ARC
  5
19F
330
1F
100
AcDbEntity
  8
0
  6
HIDDEN
 62
     7
370
     0
100
AcDbCircle
 10
164.5699170091
 20
96.252703083
 30
0.0
 40
1.000000000000014
100
AcDbArc
 50
270.0
 51
285.0
  0
ARC
  5
1A0
330
1F
100
AcDbEntity
  8
0
  6
HIDDEN
 62
     7
370
     0
100
AcDbCircle
 10
162.7015695067
 20
123.252703083
 30
0.0
 40
1.0
100
AcDbArc
 50
90.0
 51
180.0
  0
ARC
  5
1A1
330
1F
100
AcDbEntity
  8
0
  6
HIDDEN
 62
     7
370
     0
100
AcDbCircle
 10
162.7015695067
 20
96.252703083
 30
0.0
 40
1.000000000000014
100
AcDbArc
 50
180.0
 51
270.0
  0
LINE
  5
1A2
330
1F
100
AcDbEntity
  8
0
  6
HIDDEN
 62
     7
370
     0
100
AcDbLine
 10
164.8287360542
 20
95.2867772567
 30
0.0
 11
166.5675949105
 21
95.752703083
 31
0.0
  0
LINE
  5
1A3
330
1F
100
AcDbEntity
  8
0
  6
HIDDEN
 62
     7
370
     0
100
AcDbLine
 10
166.5675949105
 20
123.752703083
 30
0.0
 11
164.8287360542
 21
124.2186289092
 31
0.0
  0
LINE
  5
1A4
330
1F
100
AcDbEntity
  8
0
  6
HIDDEN
 62
     7
370
     0
100
AcDbLine
 10
170.6515695067
 20
123.752703083
 30
0.0
 11
166.5675949105
 21
123.752703083
 31
0.0
  0
LINE
  5
1A5
330
1F
100
AcDbEntity
  8
0
  6
HIDDEN
 62
     7
370
     0
100
AcDbLine
 10
189.2015695067
 20
123.752703083
 30
0.0
 11
181.6504184434
 21
123.752703083
 31
0.0
  0
LINE
  5
1A6
330
1F
100
AcDbEntity
  8
0
  6
HIDDEN
 62
     7
370
     0
100
AcDbLine
 10
166.5675949105
 20
95.752703083
 30
0.0
 11
189.2015695067
 21
95.752703083
 31
0.0
  0
LINE
  5
1A7
330
1F
100
AcDbEntity
  8
0
  6
HIDDEN
 62
     7
370
     0
100
AcDbLine
 10
169.3015299393
 20
131.6027426504
 30
0.0
 11
170.6515695067
 21
130.252703083
 31
0.0
  0
LINE
  5
1A8
330
1F
100
AcDbEntity
  8
0
  6
HIDDEN
 62
     7
370
     0
100
AcDbLine
 10
181.6515695067
 20
130.252703083
 30
0.0
 11
186.1515695067
 21
134.752703083
 31
0.0
  0
LINE
  5
1A9
330
1F
100
AcDbEntity
  8
0
  6
HIDDEN
 62
     7
370
     0
100
AcDbLine
 10
169.3015695067
 20
87.252703083
 30
0.0
 11
169.3015695067
 21
91.952703083
 31
0.0
  0
ARC
  5
1AA
330
1F
100
AcDbEntity
  8
0
  6
HIDDEN
 62
     7
370
     0
100
AcDbCircle
 10
167.7015695067
 20
91.952703083
 30
0.0
 40
1.600000000000023
100
AcDbArc
 50
0.0
 51
90.0
  0
ARC
  5
1AB
330
1F
100
AcDbEntity
  8
0
  6
HIDDEN
 62
     7
370
     0
100
AcDbCircle
 10
167.7015695067
 20
130.152703083
 30
0.0
 40
1.600000000000023
100
AcDbArc
 50
270.0
 51
0.0
  0
LINE
  5
1AC
330
1F
100
AcDbEntity
  8
0
  6
HIDDEN
 62
     7
370
     0
100
AcDbLine
 10
169.3015695067
 20
130.152703083
 30
0.0
 11
169.3015695067
 21
131.6027572836
 31
0.0
  0
ARC
  5
1AD
330
1F
100
AcDbEntity
  8
0
  6
HIDDEN
 62
     7
370
     0
100
AcDbCircle
 10
95.3515695067
 20
102.452703083
 30
0.0
 40
0.8000000000000114
100
AcDbArc
 50
90.0
 51
180.0
  0
ARC
  5
1AE
330
1F
100
AcDbEntity
  8
0
  6
HIDDEN
 62
     7
370
     0
100
AcDbCircle
 10
95.3515695067
 20
117.052703083
 30
0.0
 40
0.8000000000000114
100
AcDbArc
 50
180.0
 51
270.0
  0
ARC
  5
1AF
330
1F
100
AcDbEntity
  8
0
  6
HIDDEN
 62
     7
370
     0
100
AcDbCircle
 10
99.4439419375
 20
103.427703083
 30
0.0
 40
0.4000000000000057
100
AcDbArc
 50
255.0
 51
270.0
  0
ARC
  5
1B0
330
1F
100
AcDbEntity
  8
0
  6
HIDDEN
 62
     7
370
     0
100
AcDbCircle
 10
99.4439419375
 20
116.077703083
 30
0.0
 40
0.4000000000000057
100
AcDbArc
 50
90.0
 51
105.0
  0
LINE
  5
1B1
330
1F
100
AcDbEntity
  8
0
  6
HIDDEN
 62
     7
370
     0
100
AcDbLine
 10
99.4439419375
 20
103.027703083
 30
0.0
 11
100.3206293991
 21
103.027703083
 31
0.0
  0
LINE
  5
1B2
330
1F
100
AcDbEntity
  8
0
  6
HIDDEN
 62
     7
370
     0
100
AcDbLine
 10
100.3206293991
 20
116.477703083
 30
0.0
 11
99.4439419375
 21
116.477703083
 31
0.0
  0
ARC
  5
1B3
330
1F
100
AcDbEntity
  8
0
  6
HIDDEN
 62
     7
370
     0
100
AcDbCircle
 10
100.3206293991
 20
103.427703083
 30
0.0
 40
0.4000000000000057
100
AcDbArc
 50
270.0
 51
330.0
  0
ARC
  5
1B4
330
1F
100
AcDbEntity
  8
0
  6
HIDDEN
 62
     7
370
     0
100
AcDbCircle
 10
100.3206293991
 20
116.077703083
 30
0.0
 40
0.4000000000000057
100
AcDbArc
 50
30.0
 51
90.0
  0
LINE
  5
1B5
330
1F
100
AcDbEntity
  8
0
  6
HIDDEN
 62
     7
370
     0
100
AcDbLine
 10
99.3404143194
 20
116.4640734135
 30
0.0
 11
98.5515695067
 21
116.252703083
 31
0.0
  0
LINE
  5
1B6
330
1F
100
AcDbEntity
  8
0
  6
HIDDEN
 62
     7
370
     0
100
AcDbLine
 10
98.5515695067
 20
103.252703083
 30
0.0
 11
99.3404143194
 21
103.0413327524
 31
0.0
  0
LINE
  5
1B7
330
1F
100
AcDbEntity
  8
0
  6
HIDDEN
 62
     7
370
     0
100
AcDbLine
 10
100.6670395606
 20
103.227703083
 30
0.0
 11
101.4897636942
 21
104.652703083
 31
0.0
  0
LINE
  5
1B8
330
1F
100
AcDbEntity
  8
0
  6
HIDDEN
 62
     7
370
     0
100
AcDbLine
 10
101.4897636942
 20
114.852703083
 30
0.0
 11
100.6670395606
 21
116.277703083
 31
0.0
  0
LINE
  5
1B9
330
1F
100
AcDbEntity
  8
0
  6
HIDDEN
 62
     7
370
     0
100
AcDbLine
 10
95.3515695067
 20
103.252703083
 30
0.0
 11
98.5515695067
 21
103.252703083
 31
0.0
  0
LINE
  5
1BA
330
1F
100
AcDbEntity
  8
0
  6
HIDDEN
 62
     7
370
     0
100
AcDbLine
 10
98.5515695067
 20
116.252703083
 30
0.0
 11
95.3515695067
 21
116.252703083
 31
0.0
  0
LINE
  5
1BB
330
1F
100
AcDbEntity
  8
0
  6
HIDDEN
 62
     7
370
     0
100
AcDbLine
 10
170.6515695067
 20
130.252703083
 30
0.0
 11
170.6515695067
 21
123.752703083
 31
0.0
  0
LINE
  5
1BC
330
1F
100
AcDbEntity
  8
0
  6
HIDDEN
 62
     7
370
     0
100
AcDbLine
 10
181.6515695067
 20
123.752251169
 30
0.0
 11
181.6515695067
 21
130.252703083
 31
0.0
  0
LINE
  5
1BD
330
1F
100
AcDbEntity
  8
0
  6
HIDDEN
 62
     7
370
     0
100
AcDbLine
 10
101.4897636942
 20
104.652703083
 30
0.0
 11
128.5515695067
 21
104.652703083
 31
0.0
  0
LINE
  5
1BE
330
1F
100
AcDbEntity
  8
0
  6
HIDDEN
 62
     7
370
     0
100
AcDbLine
 10
128.5515695067
 20
114.852703083
 30
0.0
 11
101.4897636942
 21
114.852703083
 31
0.0
  0
LINE
  5
1BF
330
1F
100
AcDbEntity
  8
0
  6
HIDDEN
 62
     7
370
     0
100
AcDbLine
 10
128.5515695067
 20
104.652703083
 30
0.0
 11
129.0623010329
 21
105.502703083
 31
0.0
  0
LINE
  5
1C0
330
1F
100
AcDbEntity
  8
0
  6
HIDDEN
 62
     7
370
     0
100
AcDbLine
 10
129.0623010329
 20
114.002703083
 30
0.0
 11
128.5515695067
 21
114.852703083
 31
0.0
  0
LINE
  5
1C1
330
1F
100
AcDbEntity
  8
0
  6
HIDDEN
 62
     7
370
     0
100
AcDbLine
 10
161.7015695067
 20
114.002703083
 30
0.0
 11
129.0623010329
 21
114.002703083
 31
0.0
  0
LINE
  5
1C2
330
1F
100
AcDbEntity
  8
0
  6
HIDDEN
 62
     7
370
     0
100
AcDbLine
 10
129.0623010329
 20
105.502703083
 30
0.0
 11
161.7015695067
 21
105.502703083
 31
0.0
  0
LINE
  5
1C3
330
1F
100
AcDbEntity
  8
0
  6
HIDDEN
 62
     7
370
     0
100
AcDbLine
 10
155.4015695067
 20
111.2051169069
 30
0.0
 11
155.4015695067
 21
117.5455452783
 31
0.0
  0
LINE
  5
1C4
330
1F
100
AcDbEntity
  8
0
  6
HIDDEN
 62
     7
370
     0
100
AcDbLine
 10
151.2015695067
 20
114.8573143142
 30
0.0
 11
151.2015695067
 21
111.2058417899
 31
0.0
  0
LINE
  5
1C5
330
1F
100
AcDbEntity
  8
0
  6
HIDDEN
 62
     7
370
     0
100
AcDbLine
 10
151.2015695067
 20
117.5455452783
 30
0.0
 11
151.2015695067
 21
116.2347451595
 31
0.0
  0
LINE
  5
1C6
330
1F
100
AcDbEntity
  8
0
  6
HIDDEN
 62
     7
370
     0
100
AcDbLine
 10
146.2460134973
 20
115.0362376923
 30
0.0
 11
151.8372408908
 21
113.6972221382
 31
0.0
  0
LINE
  5
1C7
330
1F
100
AcDbEntity
  8
0
  6
HIDDEN
 62
     7
370
     0
100
AcDbLine
 10
151.837710827
 20
117.090422919
 30
0.0
 11
147.014581649
 21
118.2454904084
 31
0.0
  0
LINE
  5
1C8
330
1F
100
AcDbEntity
  8
0
  6
HIDDEN
 62
     7
370
     0
100
AcDbLine
 10
145.4015695067
 20
114.8271587252
 30
0.0
 11
146.1528537213
 21
114.647237363
 31
0.0
  0
LINE
  5
1C9
330
1F
100
AcDbEntity
  8
0
  6
HIDDEN
 62
     7
370
     0
100
AcDbLine
 10
147.107741425
 20
118.6344907377
 30
0.0
 11
145.4015695067
 21
119.0430934604
 31
0.0
  0
DIMENSION
  5
1CA
330
1F
100
AcDbEntity
  8
VERMASSUNG
100
AcDbDimension
  2
_D
 10
87.625896861
 20
134.727703083
 30
0.0
 11
87.625896861
 21
109.752703083
 31
0.0
 70
   160
  1
ISO 30 %%c<> 
 71
     2
 42
-1.0
  3
SLDDIMSTYLE0
100
AcDbAlignedDimension
 13
160.6515695067
 23
84.777703083
 33
0.0
 14
160.6515695067
 24
134.727703083
 34
0.0
 50
90.0
100
AcDbRotatedDimension
  0
DIMENSION
  5
1D8
330
1F
100
AcDbEntity
  8
VERMASSUNG
100
AcDbDimension
  2
_D_1
 10
203.8476457399
 20
84.752703083
 30
0.0
 11
203.8476457399
 21
109.752703083
 31
0.0
 70
   160
  1
WH %%c<>
 71
     2
 42
-1.0
  3
SLDDIMSTYLE0
100
AcDbAlignedDimension
 13
189.7015695067
 23
134.752703083
 33
0.0
 14
189.7015695067
 24
84.752703083
 34
0.0
 50
90.0
100
AcDbRotatedDimension
  0
DIMENSION
  5
1E4
330
1F
100
AcDbEntity
  8
VERMASSUNG
100
AcDbDimension
  2
_D_2
 10
197.8476457399
 20
95.752703083
 30
0.0
 11
197.8476457399
 21
109.752703083
 31
0.0
 70
   160
  1
%%c<>
 71
     2
 42
-1.0
  3
SLDDIMSTYLE0
100
AcDbAlignedDimension
 13
189.2015695067
 23
123.752703083
 33
0.0
 14
189.2015695067
 24
95.752703083
 34
0.0
 50
90.0
100
AcDbRotatedDimension
  0
DIMENSION
  5
1EF
330
1F
100
AcDbEntity
  8
VERMASSUNG
100
AcDbDimension
  2
_D_3
 10
190.2015695067
 20
140.8247563223
 30
0.0
 11
175.7265695067
 21
140.8247563223
 31
0.0
 70
   160
  1
(<>)
 71
     2
 42
-1.0
  3
SLDDIMSTYLE0
100
AcDbAlignedDimension
 13
161.2515695067
 23
132.6640606969
 33
0.0
 14
190.2015695067
 24
134.252703083
 34
0.0
100
AcDbRotatedDimension
  0
DIMENSION
  5
1FB
330
1F
100
AcDbEntity
  8
VERMASSUNG
100
AcDbDimension
  2
_D_4
 10
190.2015695067
 20
146.8247563223
 30
0.0
 11
166.2015695067
 21
146.8247563223
 31
0.0
 70
   160
  1
<>
 71
     2
 42
-1.0
  3
SLDDIMSTYLE0
100
AcDbAlignedDimension
 13
142.2015695067
 23
125.627703083
 33
0.0
 14
190.2015695067
 24
134.252703083
 34
0.0
100
AcDbRotatedDimension
  0
DIMENSION
  5
205
330
1F
100
AcDbEntity
  8
VERMASSUNG
100
AcDbDimension
  2
_D_5
 10
190.2015695067
 20
152.8247563223
 30
0.0
 11
142.3765695067
 21
152.8247563223
 31
0.0
 70
   160
  1
(<>)
 71
     2
 42
-1.0
  3
SLDDIMSTYLE0
100
AcDbAlignedDimension
 13
94.5515695067
 23
117.8140003467
 33
0.0
 14
190.2015695067
 24
134.252703083
 34
0.0
100
AcDbRotatedDimension
  0
LINE
  5
211
330
1F
100
AcDbEntity
  8
VERMASSUNG
  6
CENTERX2
370
     0
100
AcDbLine
 10
92.5515695067
 20
109.752703083
 30
0.0
 11
192.3245515695
 21
109.752703083
 31
0.0
  0
LINE
  5
212
330
1F
100
AcDbEntity
  8
0
  6
Continuous
 62
     7
370
    15
100
AcDbLine
 10
269.2767369883
 20
56.4232920848
 30
0.0
 11
268.7816818137
 21
56.7091742515
 31
0.0
  0
LINE
  5
213
330
1F
100
AcDbEntity
  8
0
  6
Continuous
 62
     7
370
    15
100
AcDbLine
 10
261.2851320278
 20
56.7091742515
 30
0.0
 11
260.7900768533
 21
56.4232920848
 31
0.0
  0
LINE
  5
214
330
1F
100
AcDbEntity
  8
0
  6
Continuous
 62
     7
370
    15
100
AcDbLine
 10
259.0334069208
 20
53.9744657849
 30
0.0
 11
259.0334069208
 21
53.3212331353
 31
0.0
  0
LINE
  5
215
330
1F
100
AcDbEntity
  8
0
  6
Continuous
 62
     7
370
    15
100
AcDbLine
 10
271.0334069208
 20
53.3212331353
 30
0.0
 11
271.0334069208
 21
53.9744657849
 31
0.0
  0
LINE
  5
216
330
1F
100
AcDbEntity
  8
0
  6
Continuous
 62
     7
370
    15
100
AcDbLine
 10
270.9424494045
 20
35.265978839
 30
0.0
 11
276.6064867338
 21
36.4199840278
 31
0.0
  0
LINE
  5
217
330
1F
100
AcDbEntity
  8
0
  6
Continuous
 62
     7
370
    15
100
AcDbLine
 10
274.6175769243
 20
10.2308497166
 30
0.0
 11
274.9710728525
 21
10.4349849169
 31
0.0
  0
LINE
  5
218
330
1F
100
AcDbEntity
  8
0
  6
Continuous
 62
     7
370
    15
100
AcDbLine
 10
292.2923733355
 20
40.43960847
 30
0.0
 11
292.2923733355
 21
40.8478125259
 31
0.0
  0
LINE
  5
219
330
1F
100
AcDbEntity
  8
0
  6
Continuous
 62
     7
370
    15
100
AcDbLine
 10
287.1136879638
 20
52.2939326877
 30
0.0
 11
278.274853199
 21
57.3964833866
 31
0.0
  0
LINE
  5
21A
330
1F
100
AcDbEntity
  8
0
  6
Continuous
 62
     7
370
    15
100
AcDbLine
 10
253.2768848831
 20
14.0940402675
 30
0.0
 11
262.1157196479
 21
8.9914895686
 31
0.0
  0
LINE
  5
21B
330
1F
100
AcDbEntity
  8
0
  6
Continuous
 62
     7
370
    15
100
AcDbLine
 10
243.9555369201
 20
22.3618130593
 30
0.0
 11
249.0777168601
 21
19.4048415209
 31
0.0
  0
LINE
  5
21C
330
1F
100
AcDbEntity
  8
0
  6
Continuous
 62
     7
370
    15
100
AcDbLine
 10
271.6989248481
 20
58.3060128663
 30
0.0
 11
268.5607976217
 21
60.1176151531
 31
0.0
  0
SPLINE
  5
21D
330
1F
100
AcDbEntity
  8
0
  6
Continuous
 62
     7
370
    15
100
AcDbSpline
210
0.0
220
0.0
230
1.0
 70
     8
 71
     3
 72
    30
 73
    26
 74
     0
 42
0.000000001
 43
0.00000001
 40
0.0
 40
0.0
 40
0.0
 40
0.0
 40
0.0006234841300349
 40
0.0491800066531589
 40
0.0977997640047517
 40
0.1452528564281675
 40
0.1914649322046781
 40
0.2368425318356804
 40
0.2817830426567013
 40
0.3265494130511558
 40
0.3712822919887141
 40
0.416043067687696
 40
0.4608721974908572
 40
0.5057799264187897
 40
0.5507603954436961
 40
0.5957996543187035
 40
0.640879950703416
 40
0.6859818711331779
 40
0.7310852996894173
 40
0.7761633116390569
 40
0.8211950478182293
 40
0.8661602282034009
 40
0.9110398617789256
 40
0.9558184896195879
 40
1.0
 40
1.0
 40
1.0
 40
1.0
 10
267.2804380096313
 20
18.71255236851593
 30
0.0
 10
267.2772663938302
 20
18.7139743759529
 30
0.0
 10
267.0270914837077
 20
18.82614136119289
 30
0.0
 10
266.6036337569724
 20
19.17600309781874
 30
0.0
 10
266.0200940860146
 20
19.77589363812643
 30
0.0
 10
265.5385897936241
 20
20.52697335438287
 30
0.0
 10
265.1552289307397
 20
21.39259898855997
 30
0.0
 10
264.8760742062425
 20
22.36632441294971
 30
0.0
 10
264.7023658814071
 20
23.43731444128817
 30
0.0
 10
264.6367246087734
 20
24.59577086115762
 30
0.0
 10
264.6811701868111
 20
25.82941114070222
 30
0.0
 10
264.8367071890141
 20
27.12429904579103
 30
0.0
 10
265.1028845753216
 20
28.46518508640999
 30
0.0
 10
265.4777311014967
 20
29.83603845066592
 30
0.0
 10
265.9576819177097
 20
31.22017398268093
 30
0.0
 10
266.5376224716741
 20
32.60062473086855
 30
0.0
 10
267.210975667199
 20
33.96044573437062
 30
0.0
 10
267.9698085299978
 20
35.28298171371177
 30
0.0
 10
268.8049018905672
 20
36.55200970994257
 30
0.0
 10
269.7058943635478
 20
37.75212644814842
 30
0.0
 10
270.6613771214204
 20
38.86859358643716
 30
0.0
 10
271.6591782841296
 20
39.88899944391007
 30
0.0
 10
272.6860624667459
 20
40.7982014966698
 30
0.0
 10
273.7255764289567
 20
41.59507997556339
 30
0.0
 10
274.4174800605351
 20
42.01855846272254
 30
0.0
 10
274.7611097815779
 20
42.22887647200674
 30
0.0
  0
SPLINE
  5
21E
330
1F
100
AcDbEntity
  8
0
  6
Continuous
 62
     7
370
    15
100
AcDbSpline
210
0.0
220
0.0
230
1.0
 70
     8
 71
     3
 72
    15
 73
    11
 74
     0
 42
0.000000001
 43
0.00000001
 40
0.0
 40
0.0
 40
0.0
 40
0.0
 40
0.0708276645233131
 40
0.2059654109107068
 40
0.3410169884258945
 40
0.4762462663622582
 40
0.612251415315039
 40
0.7499952072828356
 40
0.8907409968427189
 40
1.0
 40
1.0
 40
1.0
 40
1.0
 10
274.7611097815779
 20
42.22887647200674
 30
0.0
 10
274.9417900565094
 20
42.32970766575768
 30
0.0
 10
275.4672046289111
 20
42.62292273070869
 30
0.0
 10
276.3251313611608
 20
43.00644499794619
 30
0.0
 10
277.3129854477111
 20
43.33055513907678
 30
0.0
 10
278.2556609986857
 20
43.51381967965069
 30
0.0
 10
279.1445929089436
 20
43.56171144149418
 30
0.0
 10
279.9712157134703
 20
43.47073614969254
 30
0.0
 10
280.6807817132531
 20
43.27896081249065
 30
0.0
 10
281.0792334036004
 20
43.05620494856647
 30
0.0
 10
281.2533678032675
 20
42.95885448030034
 30
0.0
  0
SPLINE
  5
21F
330
1F
100
AcDbEntity
  8
0
  6
Continuous
 62
     7
370
    15
100
AcDbSpline
210
0.0
220
0.0
230
1.0
 70
     8
 71
     3
 72
    31
 73
    27
 74
     0
 42
0.000000001
 43
0.00000001
 40
0.0
 40
0.0
 40
0.0
 40
0.0
 40
0.0078306669052439
 40
0.0514891768525728
 40
0.0952807325098497
 40
0.1392904892813205
 40
0.1835117076875872
 40
0.2279057484834737
 40
0.2724215771850377
 40
0.3170108413390632
 40
0.3616354330639708
 40
0.4062666514838937
 40
0.450887212279828
 40
0.4954905116777663
 40
0.5400743760941606
 40
0.5846393994992942
 40
0.6291878225047225
 40
0.6737228217615678
 40
0.7182480828357178
 40
0.7627675577410769
 40
0.8072853367933672
 40
0.8518052484886847
 40
0.8963304492334714
 40
0.9408651747671278
 40
0.9854136420492143
 40
0.9999999999999999
 40
0.9999999999999999
 40
0.9999999999999999
 40
0.9999999999999999
 10
254.128245710504
 20
70.97127069996193
 30
0.0
 10
254.0582351985381
 20
70.99211885539286
 30
0.0
 10
253.5978933559118
 20
71.12920224497155
 30
0.0
 10
252.7013965954655
 20
71.2793481025517
 30
0.0
 10
251.4212583483408
 20
71.35929166160632
 30
0.0
 10
250.0873278040608
 20
71.28108153142051
 30
0.0
 10
248.7111658627426
 20
71.05293735690287
 30
0.0
 10
247.3009527136179
 20
70.67362017621026
 30
0.0
 10
245.8667577706558
 20
70.14609626398791
 30
0.0
 10
244.4185538349068
 20
69.47388997204988
 30
0.0
 10
242.9663994518186
 20
68.66191997531551
 30
0.0
 10
241.5201565115582
 20
67.71606167388144
 30
0.0
 10
240.0894300741612
 20
66.64305355770375
 30
0.0
 10
238.683531203197
 20
65.45035018609549
 30
0.0
 10
237.3114992864959
 20
64.14606438058325
 30
0.0
 10
235.9821284847683
 20
62.7389515196607
 30
0.0
 10
234.7039380059179
 20
61.23836812683668
 30
0.0
 10
233.4851354612628
 20
59.65422590009975
 30
0.0
 10
232.3335630671337
 20
57.99693776755714
 30
0.0
 10
231.2566842227374
 20
56.27736288514976
 30
0.0
 10
230.2614137581614
 20
54.50672858500394
 30
0.0
 10
229.354546056537
 20
52.69663318429703
 30
0.0
 10
228.5409544545526
 20
50.85872222780296
 30
0.0
 10
227.8300843974085
 20
49.00548494843257
 30
0.0
 10
227.3502914051109
 20
47.56379898830192
 30
0.0
 10
227.121619840137
 20
46.7458414209964
 30
0.0
 10
227.0652150856334
 20
46.5440817672173
 30
0.0
  0
SPLINE
  5
220
330
1F
100
AcDbEntity
  8
0
  6
Continuous
 62
     7
370
    15
100
AcDbSpline
210
0.0
220
0.0
230
1.0
 70
     8
 71
     3
 72
    11
 73
     7
 74
     0
 42
0.000000001
 43
0.00000001
 40
0.0
 40
0.0
 40
0.0
 40
0.0
 40
0.0465934315921871
 40
0.4076605607305354
 40
0.7705002014506906
 40
0.9999999999999999
 40
0.9999999999999999
 40
0.9999999999999999
 40
0.9999999999999999
 10
244.7277936605504
 20
19.78368244945865
 30
0.0
 10
244.7799313710607
 20
19.77254147937823
 30
0.0
 10
245.2361005686393
 20
19.67506563450349
 30
0.0
 10
246.1542708213438
 20
19.63951709048741
 30
0.0
 10
247.3072177855337
 20
19.65753360454808
 30
0.0
 10
248.052089101069
 20
19.78206907708366
 30
0.0
 10
248.3406868298837
 20
19.8303199007911
 30
0.0
  0
LINE
  5
221
330
1F
100
AcDbEntity
  8
0
  6
Continuous
 62
     7
370
    15
100
AcDbLine
 10
238.7675780888
 20
22.4989515222
 30
0.0
 11
241.5867666386
 21
20.8714686144
 31
0.0
  0
LINE
  5
222
330
1F
100
AcDbEntity
  8
0
  6
Continuous
 62
     7
370
    15
100
AcDbLine
 10
240.4929372137
 20
66.9225906084
 30
0.0
 11
211.9727446707
 21
77.2001374995
 31
0.0
  0
LINE
  5
223
330
1F
100
AcDbEntity
  8
0
  6
Continuous
 62
     7
370
    15
100
AcDbLine
 10
202.9709043358
 20
61.6068031077
 30
0.0
 11
231.8347435441
 21
37.2344158941
 31
0.0
  0
LINE
  5
224
330
1F
100
AcDbEntity
  8
0
  6
Continuous
 62
     7
370
    15
100
AcDbLine
 10
231.2276522942
 20
26.8516580335
 30
0.0
 11
234.0114855049
 21
25.2445853285
 31
0.0
  0
SPLINE
  5
225
330
1F
100
AcDbEntity
  8
0
  6
Continuous
 62
     7
370
    15
100
AcDbSpline
210
0.0
220
0.0
230
1.0
 70
     8
 71
     3
 72
    11
 73
     7
 74
     0
 42
0.000000001
 43
0.00000001
 40
0.0
 40
0.0
 40
0.0
 40
0.0
 40
0.1385060843679954
 40
0.5541438654193995
 40
0.9684770769050356
 40
1.0
 40
1.0
 40
1.0
 40
1.0
 10
227.0584539310475
 20
31.86805619102698
 30
0.0
 10
227.1163727242973
 20
31.7253456539752
 30
0.0
 10
227.348097880043
 20
31.15438034946309
 30
0.0
 10
227.8436232423103
 20
30.2452470402396
 30
0.0
 10
228.3220352058118
 20
29.47300104525131
 30
0.0
 10
228.6215850391123
 20
29.13659547140899
 30
0.0
 10
228.6427638132187
 20
29.11281092251426
 30
0.0
  0
SPLINE
  5
226
330
1F
100
AcDbEntity
  8
0
  6
Continuous
 62
     7
370
    15
100
AcDbSpline
210
0.0
220
0.0
230
1.0
 70
     8
 71
     3
 72
    12
 73
     8
 74
     0
 42
0.000000001
 43
0.00000001
 40
0.0
 40
0.0
 40
0.0
 40
0.0
 40
0.1138798827000332
 40
0.4046962308068607
 40
0.6946062630592026
 40
0.9830421239673441
 40
1.0
 40
1.0
 40
1.0
 40
1.0
 10
270.7712079503757
 20
59.01157889578209
 30
0.0
 10
270.7034768996164
 20
59.17956456790805
 30
0.0
 10
270.4627802963099
 20
59.77653715627995
 30
0.0
 10
269.9666303373872
 20
60.72249740876433
 30
0.0
 10
269.2423488707399
 20
61.79294696674132
 30
0.0
 10
268.6795281317563
 20
62.44877574927231
 30
0.0
 10
268.364608152066
 20
62.74954058093865
 30
0.0
 10
268.3471213036804
 20
62.7662414235344
 30
0.0
  0
SPLINE
  5
227
330
1F
100
AcDbEntity
  8
0
  6
Continuous
 62
     7
370
    15
100
AcDbSpline
210
0.0
220
0.0
230
1.0
 70
     8
 71
     3
 72
    24
 73
    20
 74
     0
 42
0.000000001
 43
0.00000001
 40
0.0
 40
0.0
 40
0.0
 40
0.0
 40
0.0481049874400533
 40
0.1049448581987288
 40
0.1630322688314127
 40
0.2227518257197509
 40
0.2838806176498169
 40
0.3458445545027024
 40
0.408083296471343
 40
0.4702362578089453
 40
0.5322321126033549
 40
0.5940899371608639
 40
0.655867978435047
 40
0.7176398771348269
 40
0.7794719606332506
 40
0.84143416458443
 40
0.9036095167662586
 40
0.9660717301640962
 40
1.0
 40
1.0
 40
1.0
 40
1.0
 10
211.986630585228
 20
77.18426928340139
 30
0.0
 10
211.7755033504851
 20
77.25381497335265
 30
0.0
 10
211.3149124868124
 20
77.40553443028763
 30
0.0
 10
210.542179234377
 20
77.45614514624535
 30
0.0
 10
209.6971011162425
 20
77.37513587597347
 30
0.0
 10
208.819041220605
 20
77.139496791278
 30
0.0
 10
207.922629229088
 20
76.75511733741548
 30
0.0
 10
207.024683230041
 20
76.22595191924644
 30
0.0
 10
206.1446867816278
 20
75.56378229669383
 30
0.0
 10
205.3003114802592
 20
74.78351781880312
 30
0.0
 10
204.5067489691752
 20
73.90159752583776
 30
0.0
 10
203.7770711382198
 20
72.93470904806813
 30
0.0
 10
203.1232320740308
 20
71.90018579343824
 30
0.0
 10
202.5561648234001
 20
70.81598205924792
 30
0.0
 10
202.0859698297195
 20
69.70063237629752
 30
0.0
 10
201.7208451144802
 20
68.57243533184568
 30
0.0
 10
201.4706719258421
 20
67.45076392865113
 30
0.0
 10
201.3549060928131
 20
66.51910200514844
 30
0.0
 10
201.3441784098617
 20
65.9757292941458
 30
0.0
 10
201.340402396819
 20
65.78446875325133
 30
0.0
  0
SPLINE
  5
228
330
1F
100
AcDbEntity
  8
0
  6
Continuous
 62
     7
370
    15
100
AcDbSpline
210
0.0
220
0.0
230
1.0
 70
     8
 71
     3
 72
    13
 73
     9
 74
     0
 42
0.000000001
 43
0.00000001
 40
0.0
 40
0.0
 40
0.0
 40
0.0
 40
0.1109031725440705
 40
0.319831275838526
 40
0.528622317512455
 40
0.7345363154870056
 40
0.935002402714778
 40
1.0
 40
1.0
 40
1.0
 40
1.0
 10
201.340402396819
 20
65.78446875325133
 30
0.0
 10
201.344058503046
 20
65.59929225576711
 30
0.0
 10
201.3546022692193
 20
65.06526573436928
 30
0.0
 10
201.4734034107728
 20
64.23075066837247
 30
0.0
 10
201.7396646069174
 20
63.32034337207447
 30
0.0
 10
202.1480355373795
 20
62.52802693469577
 30
0.0
 10
202.5408535670596
 20
61.97951001786694
 30
0.0
 10
202.8291058817879
 20
61.75034814287582
 30
0.0
 10
202.899683173381
 20
61.69423888148616
 30
0.0
  0
LWPOLYLINE
  5
229
330
1F
100
AcDbEntity
  8
0
  6
Continuous
 62
     7
370
    15
100
AcDbPolyline
 90
       14
 70
   128
 43
0.0
 10
260.7900768533
 20
56.4232920848
 10
260.4306306721
 20
56.1964199267
 10
259.8173418149
 20
55.6862640116
 10
259.3717015819
 20
55.121089493
 10
259.108033217
 20
54.5190615449
 10
259.0348112383
 20
53.899529841
 10
259.1543890605
 20
53.2824066401
 10
259.4629233541
 20
52.6875267894
 10
259.9504975728
 20
52.134010217
 10
260.6014406803
 20
51.6396474009
 10
261.3948308293
 20
51.2203275687
 10
262.3051678078
 20
50.8895280049
 10
263.3031926361
 20
50.6578808796
 10
264.0633847892
 20
50.5563054594
  0
LWPOLYLINE
  5
22A
330
1F
100
AcDbEntity
  8
0
  6
Continuous
 62
     7
370
    15
100
AcDbPolyline
 90
       12
 70
   128
 43
0.0
 10
267.8145342473
 20
50.9053070559
 10
268.4463485645
 20
51.1256910494
 10
269.2726361233
 20
51.5232736236
 10
269.9626713675
 20
51.9996395306
 10
270.4942759966
 20
52.5394779784
 10
270.8503638004
 20
53.125438115
 10
271.0194898238
 20
53.7386866995
 10
270.9962182174
 20
54.3595134177
 10
270.7812969497
 20
54.9679643883
 10
270.381633767
 20
55.5444834962
 10
269.810074173
 20
56.0705409431
 10
269.2767369883
 20
56.4232920848
  0
LWPOLYLINE
  5
22B
330
1F
100
AcDbEntity
  8
0
  6
Continuous
 62
     7
370
    15
100
AcDbPolyline
 90
       34
 70
   128
 43
0.0
 10
261.6400374224
 20
56.8963246032
 10
260.930871671
 20
56.4831181549
 10
260.3699822325
 20
55.9999008124
 10
259.9776411127
 20
55.4641373094
 10
259.7680285419
 20
54.895191535
 10
259.7487204646
 20
54.3136266717
 10
259.9204147248
 20
53.740461989
 10
260.2769058448
 20
53.1964131518
 10
260.8053093066
 20
52.7011435027
 10
261.4865272324
 20
52.2725533772
 10
262.2959386315
 20
51.926133139
 10
263.2042892669
 20
51.6744033183
 10
264.1787489801
 20
51.5264620865
 10
265.184098258
 20
51.4876564253
 10
266.1840011583
 20
51.5593888724
 10
267.1423185851
 20
51.7390668302
 10
268.0244144496
 20
52.0201962692
 10
268.7984075091
 20
52.392616439
 10
269.4363236376
 20
52.8428671043
 10
269.9151068843
 20
53.3546750329
 10
270.2174527752
 20
53.9095421529
 10
270.332433742
 20
54.4874141208
 10
270.255894073
 20
55.067405138
 10
269.9906001113
 20
55.6285528181
 10
269.5461402718
 20
56.1505758218
 10
268.9385784912
 20
56.6146068777
 10
268.1898736353
 20
57.0038746943
 10
267.3270858481
 20
57.3043101186
 10
266.3813985284
 20
57.5050546316
 10
265.3869912799
 20
57.5988528034
 10
264.3798045714
 20
57.5823145239
 10
263.3962407547
 20
57.4560375294
 10
262.4718483888
 20
57.2245857997
 10
261.6400374224
 20
56.8963246032
  0
LWPOLYLINE
  5
22C
330
1F
100
AcDbEntity
  8
0
  6
Continuous
 62
     7
370
    15
100
AcDbPolyline
 90
       28
 70
   128
 43
0.0
 10
262.7284766954
 20
56.1424611268
 10
262.1528671176
 20
55.7925702074
 10
261.7325481861
 20
55.3754787566
 10
261.4901794034
 20
54.9136722824
 10
261.4388269333
 20
54.4320468914
 10
261.5812592008
 20
53.956567133
 10
261.9097976453
 20
53.5128662442
 10
262.4067306745
 20
53.1248642547
 10
263.0452685
 20
52.8134784521
 10
263.7909873823
 20
52.5954957257
 10
264.6036854235
 20
52.4826675807
 10
265.4395498619
 20
52.4810766116
 10
266.2535190293
 20
52.5908085879
 10
267.001711637
 20
52.8059478305
 10
267.643792428
 20
53.1148961269
 10
268.1451466606
 20
53.5009979947
 10
268.4787461984
 20
53.9434385822
 10
268.626606604
 20
54.4183658028
 10
268.5807566846
 20
54.900176207
 10
268.3436682212
 20
55.3628952714
 10
267.9281227143
 20
55.7815776913
 10
267.3565223297
 20
56.1336521892
 10
266.659682192
 20
56.4001383377
 10
265.8751691336
 20
56.5666697996
 10
265.0452764564
 20
56.6242688206
 10
264.2147438894
 20
56.5698302227
 10
263.4283456584
 20
56.4062888047
 10
262.7284766954
 20
56.1424611268
  0
SPLINE
  5
22D
330
1F
100
AcDbEntity
  8
0
  6
Continuous
 62
     7
370
    15
100
AcDbSpline
210
0.0
220
0.0
230
1.0
 70
     8
 71
     3
 72
    11
 73
     7
 74
     0
 42
0.000000001
 43
0.00000001
 40
0.0
 40
0.0
 40
0.0
 40
0.0
 40
0.2164553779443346
 40
0.4403112895790592
 40
0.7519005688038881
 40
1.0
 40
1.0
 40
1.0
 40
1.0
 10
261.7821402601457
 20
55.12523606440615
 30
0.0
 10
261.8225752665492
 20
54.90152858569318
 30
0.0
 10
261.9048277380876
 20
54.44646514778718
 30
0.0
 10
262.0574663569906
 20
53.78648240903102
 30
0.0
 10
262.2211986559264
 20
53.3305950456262
 30
0.0
 10
262.3259774951897
 20
53.20872321187081
 30
0.0
 10
262.3724239750607
 20
53.15469973047739
 30
0.0
  0
LINE
  5
22E
330
1F
100
AcDbEntity
  8
0
  6
Continuous
 62
     7
370
    15
100
AcDbLine
 10
262.3724239751
 20
53.1546997305
 30
0.0
 11
262.6957568432
 21
52.9697152978
 31
0.0
  0
SPLINE
  5
22F
330
1F
100
AcDbEntity
  8
0
  6
Continuous
 62
     7
370
    15
100
AcDbSpline
210
0.0
220
0.0
230
1.0
 70
     8
 71
     3
 72
    12
 73
     8
 74
     0
 42
0.000000001
 43
0.00000001
 40
0.0
 40
0.0
 40
0.0
 40
0.0
 40
0.1436345966335094
 40
0.435660940879696
 40
0.5822723514813294
 40
0.8954426234440318
 40
1.0
 40
1.0
 40
1.0
 40
1.0
 10
267.4865776250949
 20
53.04950910395319
 30
0.0
 10
267.5265246734323
 20
53.07771039114881
 30
0.0
 10
267.6476888572149
 20
53.1632482740936
 30
0.0
 10
267.8049315686492
 20
53.29509366210003
 30
0.0
 10
268.0046787162721
 20
53.47156573634657
 30
0.0
 10
268.1515651794816
 20
53.61112369433673
 30
0.0
 10
268.2580263205522
 20
53.71813461583614
 30
0.0
 10
268.2846735814051
 20
53.74491948692258
 30
0.0
  0
SPLINE
  5
230
330
1F
100
AcDbEntity
  8
0
  6
Continuous
 62
     7
370
    15
100
AcDbSpline
210
0.0
220
0.0
230
1.0
 70
     8
 71
     3
 72
    11
 73
     7
 74
     0
 42
0.000000001
 43
0.00000001
 40
0.0
 40
0.0
 40
0.0
 40
0.0
 40
0.2164553779443397
 40
0.4403112895790501
 40
0.7519005688038887
 40
1.0
 40
1.0
 40
1.0
 40
1.0
 10
268.2846735814051
 20
53.74491948692259
 30
0.0
 10
268.2442385750015
 20
53.7911793045032
 30
0.0
 10
268.1619861034631
 20
53.88528054665321
 30
0.0
 10
268.0093474845602
 20
54.24440078129445
 30
0.0
 10
267.8456151856243
 20
54.88168416252762
 30
0.0
 10
267.740836346361
 20
55.45937596089767
 30
0.0
 10
267.69438986649
 20
55.71545582085137
 30
0.0
  0
SPLINE
  5
231
330
1F
100
AcDbEntity
  8
0
  6
Continuous
 62
     7
370
    15
100
AcDbSpline
210
0.0
220
0.0
230
1.0
 70
     8
 71
     3
 72
    11
 73
     7
 74
     0
 42
0.000000001
 43
0.00000001
 40
0.0
 40
0.0
 40
0.0
 40
0.0
 40
0.216455377944346
 40
0.4403112895790682
 40
0.7519005688038973
 40
1.0
 40
1.0
 40
1.0
 40
1.0
 10
267.69438986649
 20
55.71545582085137
 30
0.0
 10
267.4716749500515
 20
55.67400850176538
 30
0.0
 10
267.0186305720517
 20
55.58969679424551
 30
0.0
 10
266.1779012071307
 20
55.617730245442
 30
0.0
 10
265.2760681540626
 20
55.8998636614156
 30
0.0
 10
264.6989491547941
 20
56.25028080862536
 30
0.0
 10
264.4431232058603
 20
56.40561410959317
 30
0.0
  0
SPLINE
  5
232
330
1F
100
AcDbEntity
  8
0
  6
Continuous
 62
     7
370
    15
100
AcDbSpline
210
0.0
220
0.0
230
1.0
 70
     8
 71
     3
 72
    21
 73
    17
 74
     0
 42
0.000000001
 43
0.00000001
 40
0.0
 40
0.0
 40
0.0
 40
0.0
 40
0.0320027986439999
 40
0.1281258596102472
 40
0.1857521610573336
 40
0.2433822027624466
 40
0.3019909635887063
 40
0.3608070697855161
 40
0.4204293179417243
 40
0.4803400136413059
 40
0.645390765723557
 40
0.7016131473446687
 40
0.7585492287763844
 40
0.8156510903713448
 40
0.953781717565195
 40
1.0
 40
1.0
 40
1.0
 40
1.0
 10
264.4431232058603
 20
56.40561410959317
 30
0.0
 10
264.4165323366022
 20
56.37888239459238
 30
0.0
 10
264.3100735853106
 20
56.27185975568409
 30
0.0
 10
264.1524193963654
 20
56.12226505918706
 30
0.0
 10
263.9690635604487
 20
55.96078805491243
 30
0.0
 10
263.8156450411304
 20
55.83456949030846
 30
0.0
 10
263.6587008064746
 20
55.71525810329043
 30
0.0
 10
263.4977283939563
 20
55.60377787674973
 30
0.0
 10
263.3337623689841
 20
55.50205154646401
 30
0.0
 10
263.0704584372458
 20
55.35845491824902
 30
0.0
 10
262.808670774489
 20
55.25408091868446
 30
0.0
 10
262.5561125705432
 20
55.187462874791
 30
0.0
 10
262.4035491642716
 20
55.1570503855678
 30
0.0
 10
262.1812108885945
 20
55.12650290284576
 30
0.0
 10
261.9739417510817
 20
55.11761660955897
 30
0.0
 10
261.8205877747299
 20
55.1237087087014
 30
0.0
 10
261.7821402601457
 20
55.12523606440615
 30
0.0
  0
LINE
  5
233
330
1F
100
AcDbEntity
  8
0
  6
Continuous
 62
     7
370
    15
100
AcDbLine
 10
267.6943898665
 20
53.2077999569
 30
0.0
 11
267.6943898665
 21
55.7154558209
 31
0.0
  0
LINE
  5
234
330
1F
100
AcDbEntity
  8
0
  6
Continuous
 62
     7
370
    15
100
AcDbLine
 10
264.4431232059
 20
52.4959360385
 30
0.0
 11
264.4431232059
 21
56.4056141096
 31
0.0
  0
LWPOLYLINE
  5
235
330
1F
100
AcDbEntity
  8
0
  6
Continuous
 62
     7
370
    15
100
AcDbPolyline
 90
        7
 70
   128
 43
0.0
 10
271.6417718347
 20
35.657823568
 10
271.2964106835
 20
35.3916485115
 10
270.8167716975
 20
35.2461172886
 10
270.2677584518
 20
35.2744734834
 10
269.676900763
 20
35.4752951978
 10
269.0738267028
 20
35.8385123925
 10
268.6200340234
 20
36.2178052843
  0
LWPOLYLINE
  5
236
330
1F
100
AcDbEntity
  8
0
  6
Continuous
 62
     7
370
    15
100
AcDbPolyline
 90
       73
 70
   128
 43
0.0
 10
274.9682571964
 20
50.4438589914
 10
273.4583609869
 20
49.4960884475
 10
271.9599559992
 20
48.4032789786
 10
270.4844460001
 20
47.1737475245
 10
269.0430605116
 20
45.8168515621
 10
267.6467693476
 20
44.3429178889
 10
266.3061991269
 20
42.7631640301
 10
265.0315523985
 20
41.0896128666
 10
263.8325299935
 20
39.3350011331
 10
262.7182571964
 20
37.5126824845
 10
261.6972142962
 20
35.636525866
 10
260.7771720456
 20
33.7208099624
 10
259.9651325219
 20
31.7801145283
 10
259.2672758361
 20
29.8292094279
 10
258.6889130989
 20
27.8829422269
 10
258.2344460001
 20
25.956125194
 10
257.9073333086
 20
24.0634225703
 10
257.7100645496
 20
22.2192389655
 10
257.6441410574
 20
20.4376097304
 10
257.7100645496
 20
18.7320941392
 10
257.9073333086
 20
17.1156721955
 10
258.2344460001
 20
15.6006458463
 10
258.6889130989
 20
14.1985453568
 10
259.2672758361
 20
12.9200415585
 10
259.9651325219
 20
11.7748646371
 10
260.7771720456
 20
10.7717300806
 10
261.6972142962
 20
9.9182723485
 10
262.7182571964
 20
9.2209867697
 10
263.8325299935
 20
8.6851801084
 10
265.0315523985
 20
8.3149301768
 10
266.3061991269
 20
8.1130548004
 10
267.6467693476
 20
8.0810903728
 10
269.0430605116
 20
8.2192801626
 10
270.4844460001
 20
8.5265724619
 10
271.9599559992
 20
9.000628591
 10
273.4583609869
 20
9.6378406963
 10
274.9682571964
 20
10.433359209
 10
276.478153406
 20
11.3811297529
 10
277.9765583937
 20
12.4739392218
 10
279.4520683928
 20
13.7034706759
 10
280.8934538813
 20
15.0603666383
 10
282.2897450453
 20
16.5343003115
 10
283.630315266
 20
18.1140541703
 10
284.9049619944
 20
19.7876053338
 10
286.1039843994
 20
21.5422170672
 10
287.2182571964
 20
23.3645357158
 10
288.2393000967
 20
25.2406923343
 10
289.1593423473
 20
27.156408238
 10
289.971381871
 20
29.0971036721
 10
290.6692385568
 20
31.0480087725
 10
291.247601294
 20
32.9942759734
 10
291.7020683928
 20
34.9210930063
 10
292.0291810843
 20
36.8137956301
 10
292.2264498433
 20
38.6579792349
 10
292.2923733355
 20
40.43960847
 10
292.2264498433
 20
42.1451240612
 10
292.0291810843
 20
43.7615460048
 10
291.7020683928
 20
45.2765723541
 10
291.247601294
 20
46.6786728436
 10
290.6692385568
 20
47.9571766419
 10
289.971381871
 20
49.1023535633
 10
289.1593423473
 20
50.1054881198
 10
288.2393000967
 20
50.9589458518
 10
287.2182571964
 20
51.6562314306
 10
286.1039843994
 20
52.192038092
 10
284.9049619944
 20
52.5622880236
 10
283.630315266
 20
52.7641633999
 10
282.2897450453
 20
52.7961278275
 10
280.8934538813
 20
52.6579380378
 10
279.4520683928
 20
52.3506457384
 10
277.9765583937
 20
51.8765896094
 10
276.478153406
 20
51.2393775041
 10
274.9682571964
 20
50.4438589914
  0
LWPOLYLINE
  5
237
330
1F
100
AcDbEntity
  8
0
  6
Continuous
 62
     7
370
    15
100
AcDbPolyline
 90
       38
 70
   128
 43
0.0
 10
274.6147038059
 20
51.0562314253
 10
273.0950465026
 20
50.1033846564
 10
271.5866402103
 20
49.0064578694
 10
270.1006526415
 20
47.7735723265
 10
268.6480855281
 20
46.4138558808
 10
267.239693169
 20
44.9373753972
 10
265.8859028083
 20
43.3550622206
 10
264.5967374363
 20
41.6786312442
 10
263.3817415822
 20
39.9204941764
 10
262.2499106505
 20
38.0936676489
 10
261.2096243211
 20
36.2116768462
 10
260.2685845103
 20
34.2884553697
 10
259.4337583475
 20
32.3382420783
 10
258.7113265935
 20
30.3754756691
 10
258.1066378802
 20
28.4146877777
 10
257.6241691114
 20
26.4703953916
 10
257.2674923171
 20
24.5569933715
 10
257.0392482073
 20
22.6886478765
 10
256.9411266217
 20
20.8791914829
 10
256.9738540181
 20
19.1420207728
 10
257.1371880943
 20
17.4899971503
 10
257.4299195821
 20
15.9353516204
 10
257.8498811998
 20
14.4895942347
 10
258.3939636985
 20
13.1634288749
 10
259.0581388819
 20
11.9666740055
 10
259.8374894293
 20
10.9081899808
 10
260.7262453017
 20
9.9958134462
 10
261.7178264618
 20
9.2362993182
 10
262.8048915896
 20
8.6352707739
 10
263.9793924351
 20
8.1971776182
 10
265.232633405
 20
7.9252633397
 10
266.5553359416
 20
7.8215410964
 10
267.9377072183
 20
7.8867788116
 10
269.3695126415
 20
8.1204934881
 10
270.840151625
 20
8.5209547842
 10
272.3387360723
 20
9.0851978245
 10
273.8541709884
 20
9.809045151
 10
274.6175769243
 20
10.2308497166
  0
LWPOLYLINE
  5
238
330
1F
100
AcDbEntity
  8
0
  6
Continuous
 62
     7
370
    15
100
AcDbPolyline
 90
       20
 70
   128
 43
0.0
 10
292.2923733355
 20
40.8478125259
 10
292.28828099
 20
41.2846693569
 10
292.1901594044
 20
42.9808369792
 10
291.9619152946
 20
44.5856574343
 10
291.6052385003
 20
46.0872491933
 10
291.1227697315
 20
47.474494996
 10
290.5180810182
 20
48.7371241598
 10
289.7956492642
 20
49.8657886203
 10
288.9608231014
 20
50.8521321405
 10
288.0197832906
 20
51.6888521783
 10
286.9794969612
 20
52.369753951
 10
285.8476660295
 20
52.8897963004
 10
284.6326701754
 20
53.2451290147
 10
283.3435048034
 20
53.4331213349
 10
281.9897144427
 20
53.4523814315
 10
280.5813220836
 20
53.3027667097
 10
279.1287549702
 20
52.9853848643
 10
277.6427674014
 20
52.5025856797
 10
276.1343611091
 20
51.8579436319
 10
274.6147038059
 20
51.0562314253
  0
SPLINE
  5
239
330
1F
100
AcDbEntity
  8
0
  6
Continuous
 62
     7
370
    15
100
AcDbSpline
210
0.0
220
0.0
230
1.0
 70
     8
 71
     3
 72
    52
 73
    48
 74
     0
 42
0.000000001
 43
0.00000001
 40
0.0
 40
0.0
 40
0.0
 40
0.0
 40
0.0624999999999997
 40
0.0624999999999997
 40
0.0937499999999993
 40
0.0937499999999993
 40
0.1249999999999988
 40
0.1249999999999988
 40
0.1874999999999985
 40
0.1874999999999985
 40
0.2187499999999984
 40
0.2187499999999984
 40
0.2499999999999983
 40
0.2499999999999983
 40
0.3124999999999986
 40
0.3124999999999986
 40
0.3437499999999987
 40
0.3437499999999987
 40
0.3749999999999988
 40
0.3749999999999988
 40
0.4374999999999988
 40
0.4374999999999988
 40
0.4687499999999987
 40
0.4687499999999987
 40
0.4999999999999986
 40
0.4999999999999986
 40
0.5312499999999984
 40
0.5312499999999984
 40
0.5624999999999983
 40
0.5624999999999983
 40
0.5937499999999981
 40
0.5937499999999981
 40
0.624999999999998
 40
0.624999999999998
 40
0.687499999999998
 40
0.687499999999998
 40
0.7187499999999982
 40
0.7187499999999982
 40
0.7499999999999983
 40
0.7499999999999983
 40
0.8124999999999988
 40
0.8124999999999988
 40
0.8749999999999992
 40
0.8749999999999992
 40
0.9374999999999996
 40
0.9374999999999996
 40
1.0
 40
1.0
 40
1.0
 40
1.0
 10
271.7580700359928
 20
58.40785147544575
 30
0.0
 10
272.1189628271209
 20
58.17277039150773
 30
0.0
 10
272.4456282301896
 20
57.93624042985216
 30
0.0
 10
272.88397170116
 20
57.57724320076732
 30
0.0
 10
273.0214341088816
 20
57.45685751606155
 30
0.0
 10
273.2784277654732
 20
57.21404319890804
 30
0.0
 10
273.3976754984248
 20
57.09177375576748
 30
0.0
 10
273.7217704331276
 20
56.72740018494293
 30
0.0
 10
273.8956184088064
 20
56.48561267772978
 30
0.0
 10
274.0913017146527
 20
56.11974772148856
 30
0.0
 10
274.1456173334154
 20
55.99725270529333
 30
0.0
 10
274.2312244598811
 20
55.75019420341477
 30
0.0
 10
274.2625656709151
 20
55.6250094813974
 30
0.0
 10
274.31846184528
 20
55.25062981959513
 30
0.0
 10
274.3060172553038
 20
55.00215477422697
 30
0.0
 10
274.2068465074394
 20
54.6253922070911
 30
0.0
 10
274.160280936506
 20
54.49912971827416
 30
0.0
 10
274.0377342588981
 20
54.24422067249152
 30
0.0
 10
273.9620956460433
 20
54.11657599997772
 30
0.0
 10
273.6939570380198
 20
53.73713518538309
 30
0.0
 10
273.4597775798109
 20
53.48666500983121
 30
0.0
 10
273.0152511819017
 20
53.11150483619545
 30
0.0
 10
272.8530051492892
 20
52.98804059837882
 30
0.0
 10
272.5051344834002
 20
52.74739025276362
 30
0.0
 10
272.3188698176606
 20
52.62965730763884
 30
0.0
 10
271.9215978503394
 20
52.399290086386
 30
0.0
 10
271.7105926266976
 20
52.28665499859331
 30
0.0
 10
271.2630337083536
 20
52.06674547325843
 30
0.0
 10
271.0292470025716
 20
51.96090612341351
 30
0.0
 10
270.5484877013877
 20
51.75995574155643
 30
0.0
 10
270.300604226857
 20
51.66439640972379
 30
0.0
 10
269.7903235096919
 20
51.48319644242086
 30
0.0
 10
269.5268782183402
 20
51.39724883237433
 30
0.0
 10
268.721991362162
 20
51.15717949196919
 30
0.0
 10
268.1749994918268
 20
51.02298763806353
 30
0.0
 10
267.3400056351416
 20
50.86016296130169
 30
0.0
 10
267.0579943344278
 20
50.81219435937759
 30
0.0
 10
266.4957518897199
 20
50.7307436752067
 30
0.0
 10
266.2159583453038
 20
50.69724845407394
 30
0.0
 10
265.3800589387146
 20
50.6183012063306
 30
0.0
 10
264.8274043658107
 20
50.59420322831373
 30
0.0
 10
263.7296105561068
 20
50.60714544817395
 30
0.0
 10
263.1969240658948
 20
50.64412439009435
 30
0.0
 10
262.1629297494724
 20
50.77994284519342
 30
0.0
 10
261.6603442507306
 20
50.87904601631035
 30
0.0
 10
260.68905570284
 20
51.14365026998783
 30
0.0
 10
260.2289811890558
 20
51.30670561426356
 30
0.0
 10
259.7936680460497
 20
51.50094922419976
 30
0.0
  0
ARC
  5
23A
330
1F
100
AcDbEntity
  8
0
  6
Continuous
 62
     7
370
    15
100
AcDbCircle
 10
273.600149705
 20
48.7761155752
 30
0.0
 40
9.806303786787252
100
AcDbArc
 50
61.5296495654
 51
100.827133959
  0
LWPOLYLINE
  5
23B
330
1F
100
AcDbEntity
  8
0
  6
Continuous
 62
     7
370
    15
100
AcDbPolyline
 90
       25
 70
   128
 43
0.0
 10
259.793668046
 20
51.5009492242
 10
258.3938074906
 20
50.032115872
 10
257.0479713048
 20
48.4587265933
 10
255.7660087634
 20
46.7922959717
 10
254.5573016925
 20
45.0450194979
 10
253.4306958104
 20
43.2296843195
 10
252.394435992
 20
41.3595756602
 10
251.4561059296
 20
39.448379594
 10
250.622572633
 20
37.5100828864
 10
249.8999361749
 20
35.5588706342
 10
249.2934850481
 20
33.6090224544
 10
248.8076574625
 20
31.6748079814
 10
248.4460088652
 20
29.7703824368
 10
248.2111859205
 20
27.9096830372
 10
248.1049071402
 20
26.1063269965
 10
248.1279503078
 20
24.3735118711
 10
248.2801467856
 20
22.7239189756
 10
248.5603827495
 20
21.1696205768
 10
248.96660734
 20
19.7219915449
 10
249.495847671
 20
18.3916261081
 10
250.1442305866
 20
17.1882603211
 10
250.9070110061
 20
16.120700813
 10
251.7786066499
 20
15.1967603377
 10
252.7526388926
 20
14.4232005972
 10
253.2768848831
 20
14.0940402675
  0
SPLINE
  5
23C
330
1F
100
AcDbEntity
  8
0
  6
Continuous
 62
     7
370
    15
100
AcDbSpline
210
0.0
220
0.0
230
1.0
 70
     8
 71
     3
 72
    48
 73
    44
 74
     0
 42
0.000000001
 43
0.00000001
 40
0.0
 40
0.0
 40
0.0
 40
0.0
 40
0.0624999999999995
 40
0.0624999999999995
 40
0.0937499999999994
 40
0.0937499999999994
 40
0.1249999999999993
 40
0.1249999999999993
 40
0.1874999999999988
 40
0.1874999999999988
 40
0.2187499999999987
 40
0.2187499999999987
 40
0.2499999999999986
 40
0.2499999999999986
 40
0.3124999999999987
 40
0.3124999999999987
 40
0.3749999999999989
 40
0.3749999999999989
 40
0.4374999999999991
 40
0.4374999999999991
 40
0.4999999999999992
 40
0.4999999999999992
 40
0.5624999999999993
 40
0.5624999999999993
 40
0.5937499999999994
 40
0.5937499999999994
 40
0.6249999999999994
 40
0.6249999999999994
 40
0.6874999999999998
 40
0.6874999999999998
 40
0.7500000000000001
 40
0.7500000000000001
 40
0.7812500000000001
 40
0.7812500000000001
 40
0.8125000000000001
 40
0.8125000000000001
 40
0.8750000000000001
 40
0.8750000000000001
 40
0.90625
 40
0.90625
 40
0.9375
 40
0.9375
 40
1.0
 40
1.0
 40
1.0
 40
1.0
 10
240.33103029191
 20
26.73933082143539
 30
0.0
 10
240.6609981547116
 20
26.57991258124143
 30
0.0
 10
240.9689922788699
 20
26.45537227130536
 30
0.0
 10
241.4023711345078
 20
26.31906643113335
 30
0.0
 10
241.5420437945018
 20
26.28211446495492
 30
0.0
 10
241.8123504223734
 20
26.22564326145153
 30
0.0
 10
241.9436063339576
 20
26.20610558458799
 30
0.0
 10
242.3184854354953
 20
26.17542669593898
 30
0.0
 10
242.5440772496832
 20
26.19141617102375
 30
0.0
 10
242.8520776765026
 20
26.27078005636774
 30
0.0
 10
242.9496427917089
 20
26.30652714696687
 30
0.0
 10
243.1351892641893
 20
26.39750721200559
 30
0.0
 10
243.2229345072307
 20
26.45276586851616
 30
0.0
 10
243.4679920663709
 20
26.64529253091818
 30
0.0
 10
243.6091066222949
 20
26.80987219614144
 30
0.0
 10
243.852549062107
 20
27.2152865372307
 30
0.0
 10
243.955339887008
 20
27.45915457949257
 30
0.0
 10
244.1172153901867
 20
28.01050086478247
 30
0.0
 10
244.1775172560973
 20
28.31879560048524
 30
0.0
 10
244.2589734946285
 20
29.0036699405815
 30
0.0
 10
244.2796807033297
 20
29.38311802148566
 30
0.0
 10
244.2799635923776
 20
30.17945554170062
 30
0.0
 10
244.2602143597203
 20
30.59975301888986
 30
0.0
 10
244.1995909400634
 20
31.26347709550398
 30
0.0
 10
244.1740380353617
 20
31.49090345959385
 30
0.0
 10
244.1132488083371
 20
31.94724394194769
 30
0.0
 10
244.0779375106034
 20
32.17727033746058
 30
0.0
 10
243.9570150397896
 20
32.87252791320576
 30
0.0
 10
243.8563047565949
 20
33.34408347294897
 30
0.0
 10
243.6109212450638
 20
34.29465595398806
 30
0.0
 10
243.4693024768576
 20
34.76212193511238
 30
0.0
 10
243.2254046295255
 20
35.45074015588929
 30
0.0
 10
243.1388235087424
 20
35.67816802250471
 30
0.0
 10
242.9540944747314
 20
36.12846755385708
 30
0.0
 10
242.8554799773803
 20
36.35222718978183
 30
0.0
 10
242.5460054711601
 20
37.00428773081698
 30
0.0
 10
242.3206312587332
 20
37.4165068765109
 30
0.0
 10
241.9493489025579
 20
37.99969875288546
 30
0.0
 10
241.8200243040361
 20
38.1882047351786
 30
0.0
 10
241.549089466379
 20
38.55273981334109
 30
0.0
 10
241.4073790173812
 20
38.72871052250045
 30
0.0
 10
240.9704452252227
 20
39.22726612816267
 30
0.0
 10
240.6609854789439
 20
39.52423351623294
 30
0.0
 10
240.33103029191
 20
39.7838098844185
 30
0.0
  0
LINE
  5
23D
330
1F
100
AcDbEntity
  8
0
  6
Continuous
 62
     7
370
    15
100
AcDbLine
 10
268.782153325
 20
59.9358093068
 30
0.0
 11
265.7051583629
 21
61.7121206886
 31
0.0
  0
SPLINE
  5
23E
330
1F
100
AcDbEntity
  8
0
  6
Continuous
 62
     7
370
    15
100
AcDbSpline
210
0.0
220
0.0
230
1.0
 70
     8
 71
     3
 72
    16
 73
    12
 74
     0
 42
0.000000001
 43
0.00000001
 40
0.0
 40
0.0
 40
0.0
 40
0.0
 40
0.2499999999999989
 40
0.2499999999999989
 40
0.3749999999999987
 40
0.3749999999999987
 40
0.4999999999999986
 40
0.4999999999999986
 40
0.749999999999999
 40
0.749999999999999
 40
1.0
 40
1.0
 40
1.0
 40
1.0
 10
267.1180605528947
 20
60.90225954669297
 30
0.0
 10
267.3952718799937
 20
60.74744975807296
 30
0.0
 10
267.6383722612305
 20
60.61534232541639
 30
0.0
 10
267.9543693924489
 20
60.44570184001293
 30
0.0
 10
268.0515208053192
 20
60.3939313227898
 30
0.0
 10
268.2291269043346
 20
60.2992031338916
 30
0.0
 10
268.3095224026628
 20
60.25626975710961
 30
0.0
 10
268.5204158491591
 20
60.14192183570898
 30
0.0
 10
268.6230137120688
 20
60.08370065233704
 30
0.0
 10
268.7564592814095
 20
59.99263964106917
 30
0.0
 10
268.7867058067596
 20
59.95997126709881
 30
0.0
 10
268.7821533249929
 20
59.9358093068464
 30
0.0
  0
SPLINE
  5
23F
330
1F
100
AcDbEntity
  8
0
  6
Continuous
 62
     7
370
    15
100
AcDbSpline
210
0.0
220
0.0
230
1.0
 70
     8
 71
     3
 72
    40
 73
    36
 74
     0
 42
0.000000001
 43
0.00000001
 40
0.0
 40
0.0
 40
0.0
 40
0.0
 40
0.0287300971548504
 40
0.0445230538283143
 40
0.0762386760258561
 40
0.1084110453186128
 40
0.1410529694978439
 40
0.1574541939872647
 40
0.1731811594126831
 40
0.2047704992706664
 40
0.2368534175761929
 40
0.2694560366732398
 40
0.2858511993434653
 40
0.3306125718947646
 40
0.3610801681619423
 40
0.3921564657500101
 40
0.4078099486380547
 40
0.4462319380710806
 40
0.472399767691966
 40
0.5125057344379236
 40
0.5493255610705733
 40
0.5641914528693933
 40
0.6020549155187825
 40
0.6380662450649164
 40
0.6893597328875638
 40
0.7289137915273253
 40
0.7448459744736248
 40
0.7852113079554156
 40
0.8259287628899635
 40
0.8534319995857959
 40
0.8951987273296702
 40
0.9102953993261776
 40
0.94060405422969
 40
0.9713124145689481
 40
1.0
 40
1.0
 40
1.0
 40
1.0
 10
269.6869249811949
 20
56.40062678658566
 30
0.0
 10
269.5404353305962
 20
56.48355391653315
 30
0.0
 10
269.3134202055257
 20
56.61206615408598
 30
0.0
 10
268.8978447301113
 20
56.82467109926543
 30
0.0
 10
268.4437699130669
 20
57.04012692295183
 30
0.0
 10
267.862529484929
 20
57.28676294448476
 30
0.0
 10
267.3506610369968
 20
57.47977435781063
 30
0.0
 10
266.9308013180305
 20
57.62319028231989
 30
0.0
 10
266.5108725261775
 20
57.75696801455246
 30
0.0
 10
265.9759201967004
 20
57.90927104386854
 30
0.0
 10
265.3128136196249
 20
58.06667240721948
 30
0.0
 10
264.7455673695738
 20
58.17254109627529
 30
0.0
 10
264.0863565081511
 20
58.26828422934035
 30
0.0
 10
263.4391195087163
 20
58.32742078146592
 30
0.0
 10
262.6975295168863
 20
58.33864561807844
 30
0.0
 10
262.1690930352318
 20
58.30964354966549
 30
0.0
 10
261.6006907410606
 20
58.24434463657563
 30
0.0
 10
261.0825527885567
 20
58.14517774969897
 30
0.0
 10
260.4486054789759
 20
57.95529103534187
 30
0.0
 10
259.8740141910465
 20
57.70680439219023
 30
0.0
 10
259.4276412202971
 20
57.42547482653256
 30
0.0
 10
259.0412638859456
 20
57.11650035949756
 30
0.0
 10
258.7088843542568
 20
56.77677455016113
 30
0.0
 10
258.3475626338283
 20
56.24574785233253
 30
0.0
 10
258.1111512557673
 20
55.66032272128934
 30
0.0
 10
258.0235509594979
 20
55.14698357355609
 30
0.0
 10
258.0030530364965
 20
54.68237587335644
 30
0.0
 10
258.0408356148545
 20
54.21028096480475
 30
0.0
 10
258.1724257597905
 20
53.6903748058951
 30
0.0
 10
258.3771171407342
 20
53.17922300791745
 30
0.0
 10
258.5878200742944
 20
52.80250928687095
 30
0.0
 10
258.8475192927689
 20
52.43134879954282
 30
0.0
 10
259.1039267431755
 20
52.12111535533127
 30
0.0
 10
259.4458603839111
 20
51.77730268765176
 30
0.0
 10
259.7065635976519
 20
51.57328665643393
 30
0.0
 10
259.8324803688952
 20
51.47474916790738
 30
0.0
  0
SPLINE
  5
240
330
1F
100
AcDbEntity
  8
0
  6
Continuous
 62
     7
370
    15
100
AcDbSpline
210
0.0
220
0.0
230
1.0
 70
     8
 71
     3
 72
    14
 73
    10
 74
     0
 42
0.000000001
 43
0.00000001
 40
0.0
 40
0.0
 40
0.0
 40
0.0
 40
0.25
 40
0.25
 40
0.5
 40
0.5
 40
0.75
 40
0.75
 40
1.0
 40
1.0
 40
1.0
 40
1.0
 10
270.9174819405165
 20
56.96049243398243
 30
0.0
 10
270.8475938438377
 20
56.84027119155134
 30
0.0
 10
270.7648622377359
 20
56.73138662183062
 30
0.0
 10
270.5725477620817
 20
56.53966512256977
 30
0.0
 10
270.4680198449667
 20
56.46192365559462
 30
0.0
 10
270.2415743852206
 20
56.34999423977086
 30
0.0
 10
270.1250758183745
 20
56.31916157824509
 30
0.0
 10
269.895345403659
 20
56.31574685940174
 30
0.0
 10
269.7850104225881
 20
56.34353713275664
 30
0.0
 10
269.6869249811949
 20
56.40062678658565
 30
0.0
  0
SPLINE
  5
241
330
1F
100
AcDbEntity
  8
0
  6
Continuous
 62
     7
370
    15
100
AcDbSpline
210
0.0
220
0.0
230
1.0
 70
     8
 71
     3
 72
     8
 73
     4
 74
     0
 42
0.000000001
 43
0.00000001
 40
0.0
 40
0.0
 40
0.0
 40
0.0
 40
1.0
 40
1.0
 40
1.0
 40
1.0
 10
270.9174819405165
 20
56.96049243398243
 30
0.0
 10
271.1978778607453
 20
57.44282844690051
 30
0.0
 10
271.4780460370906
 20
57.92529776540102
 30
0.0
 10
271.7580700359928
 20
58.40785147544575
 30
0.0
  0
SPLINE
  5
242
330
1F
100
AcDbEntity
  8
0
  6
Continuous
 62
     7
370
    15
100
AcDbSpline
210
0.0
220
0.0
230
1.0
 70
     8
 71
     3
 72
    12
 73
     8
 74
     0
 42
0.000000001
 43
0.00000001
 40
0.0
 40
0.0
 40
0.0
 40
0.0
 40
0.2499999999999991
 40
0.2499999999999991
 40
0.4999999999999982
 40
0.4999999999999982
 40
1.0
 40
1.0
 40
1.0
 40
1.0
 10
237.5921942993648
 20
40.31288254855534
 30
0.0
 10
237.6595207911445
 20
40.2740157921531
 30
0.0
 10
237.7344263467101
 20
40.2189619715613
 30
0.0
 10
237.8777103630617
 20
40.09712360523511
 30
0.0
 10
237.9451646810827
 20
40.0315452220801
 30
0.0
 10
238.1259061841094
 20
39.83758163894985
 30
0.0
 10
238.2153044098545
 20
39.71603141792527
 30
0.0
 10
238.2742513950136
 20
39.61170379089013
 30
0.0
  0
SPLINE
  5
243
330
1F
100
AcDbEntity
  8
0
  6
Continuous
 62
     7
370
    15
100
AcDbSpline
210
0.0
220
0.0
230
1.0
 70
     8
 71
     3
 72
    14
 73
    10
 74
     0
 42
0.000000001
 43
0.00000001
 40
0.0
 40
0.0
 40
0.0
 40
0.0
 40
0.25
 40
0.25
 40
0.5
 40
0.5
 40
0.75
 40
0.75
 40
1.0
 40
1.0
 40
1.0
 40
1.0
 10
264.9980515817161
 20
64.10103062834924
 30
0.0
 10
264.9980515817161
 20
64.17367289883308
 30
0.0
 10
264.9893495170462
 20
64.25075214592864
 30
0.0
 10
264.9540169154482
 20
64.40950501980794
 30
0.0
 10
264.9270034108486
 20
64.49206123542253
 30
0.0
 10
264.8542505606384
 20
64.6519199482295
 30
0.0
 10
264.8082689327604
 20
64.72988887726562
 30
0.0
 10
264.698481169405
 20
64.86702967389698
 30
0.0
 10
264.6364771059439
 20
64.92326046455136
 30
0.0
 10
264.5737875130042
 20
64.95945039623112
 30
0.0
  0
LINE
  5
244
330
1F
100
AcDbEntity
  8
0
  6
Continuous
 62
     7
370
    15
100
AcDbLine
 10
234.7730057496
 20
41.9403654564
 30
0.0
 11
237.5921942994
 21
40.3128825486
 31
0.0
  0
LWPOLYLINE
  5
245
330
1F
100
AcDbEntity
  8
0
  6
Continuous
 62
     7
370
    15
100
AcDbPolyline
 90
       22
 70
   128
 43
0.0
 10
234.7730057496
 20
41.9403654564
 10
235.3914344662
 20
43.9347657324
 10
236.131577081
 20
45.9306526986
 10
236.987754482
 20
47.9127119209
 10
237.9533972229
 20
49.8657350653
 10
239.0210959302
 20
51.7747365919
 10
240.1826581552
 20
53.6250687383
 10
241.4291712348
 20
55.4025339119
 10
242.7510706784
 20
57.0934936286
 10
244.1382135558
 20
58.6849731599
 10
245.5799563244
 20
60.1647610887
 10
247.0652364967
 20
61.5215030071
 10
248.5826575228
 20
62.744788639
 10
250.1205762364
 20
63.8252317176
 10
251.6671921921
 20
64.7545420069
 10
253.2106382109
 20
65.5255889121
 10
254.7390714367
 20
66.1324561929
 10
256.2407642062
 20
66.5704873586
 10
257.704194036
 20
66.8363213975
 10
259.1181320338
 20
66.9279185659
 10
260.4717290581
 20
66.8445760391
 10
261.7545989632
 20
66.5869333041
  0
LINE
  5
246
330
1F
100
AcDbEntity
  8
0
  6
Continuous
 62
     7
370
    15
100
AcDbLine
 10
264.573787513
 20
64.9594503962
 30
0.0
 11
261.7545989632
 21
66.5869333041
 31
0.0
  0
LINE
  5
247
330
1F
100
AcDbEntity
  8
0
  6
Continuous
 62
     7
370
    15
100
AcDbLine
 10
238.3372748158
 20
39.5001614632
 30
0.0
 11
238.8858615805
 21
39.8168538615
 31
0.0
  0
LINE
  5
248
330
1F
100
AcDbEntity
  8
0
  6
Continuous
 62
     7
370
    15
100
AcDbLine
 10
238.274251395
 20
39.6117037909
 30
0.0
 11
238.3372748158
 21
39.5001614632
 31
0.0
  0
LINE
  5
249
330
1F
100
AcDbEntity
  8
0
  6
Continuous
 62
     7
370
    15
100
AcDbLine
 10
264.9980515817
 20
63.1899213192
 30
0.0
 11
264.9980515817
 21
64.1010306283
 31
0.0
  0
SPLINE
  5
24A
330
1F
100
AcDbEntity
  8
0
  6
Continuous
 62
     7
370
    15
100
AcDbSpline
210
0.0
220
0.0
230
1.0
 70
     8
 71
     3
 72
    14
 73
    10
 74
     0
 42
0.000000001
 43
0.00000001
 40
0.0
 40
0.0
 40
0.0
 40
0.0
 40
0.25
 40
0.25
 40
0.5
 40
0.5
 40
0.75
 40
0.75
 40
1.0
 40
1.0
 40
1.0
 40
1.0
 10
240.33103029191
 20
39.7838098844185
 30
0.0
 10
240.2401464352834
 20
39.85530838590256
 30
0.0
 10
240.1274045668615
 20
39.91104223076297
 30
0.0
 10
239.8783154140613
 20
39.98379551639204
 30
0.0
 10
239.7417625857387
 20
40.00082038663541
 30
0.0
 10
239.4729049618139
 20
39.99913381160335
 30
0.0
 10
239.3397676471558
 20
39.98091331813269
 30
0.0
 10
239.0931700089401
 20
39.91701600991244
 30
0.0
 10
238.9817974856325
 20
39.87223648062329
 30
0.0
 10
238.885861580542
 20
39.81685386146673
 30
0.0
  0
SPLINE
  5
24B
330
1F
100
AcDbEntity
  8
0
  6
Continuous
 62
     7
370
    15
100
AcDbSpline
210
0.0
220
0.0
230
1.0
 70
     8
 71
     3
 72
    12
 73
     8
 74
     0
 42
0.000000001
 43
0.00000001
 40
0.0
 40
0.0
 40
0.0
 40
0.0
 40
0.249999999999998
 40
0.249999999999998
 40
0.499999999999996
 40
0.499999999999996
 40
1.0
 40
1.0
 40
1.0
 40
1.0
 10
265.7051583629026
 20
61.71212068861018
 30
0.0
 10
265.596749003702
 20
61.7747040795518
 30
0.0
 10
265.4902609783379
 20
61.87631750702538
 30
0.0
 10
265.3100899106773
 20
62.11228367026726
 30
0.0
 10
265.2339324698474
 20
62.24782980184332
 30
0.0
 10
265.0541613339364
 20
62.66251773685622
 30
0.0
 10
264.9980515817161
 20
62.94242981299703
 30
0.0
 10
264.9980515817161
 20
63.18992131915505
 30
0.0
  0
SPLINE
  5
24C
330
1F
100
AcDbEntity
  8
0
  6
Continuous
 62
     7
370
    15
100
AcDbSpline
210
0.0
220
0.0
230
1.0
 70
     8
 71
     3
 72
    12
 73
     8
 74
     0
 42
0.000000001
 43
0.00000001
 40
0.0
 40
0.0
 40
0.0
 40
0.0
 40
0.5000000000000022
 40
0.5000000000000022
 40
0.7500000000000011
 40
0.7500000000000011
 40
1.0
 40
1.0
 40
1.0
 40
1.0
 10
238.885861580542
 20
26.67054679010615
 30
0.0
 10
239.0758803380235
 20
26.78024228386595
 30
0.0
 10
239.3375321262693
 20
26.84945934252788
 30
0.0
 10
239.7408282483814
 20
26.86772529476816
 30
0.0
 10
239.8762850883131
 20
26.85995827740873
 30
0.0
 10
240.1275887723122
 20
26.81742871100093
 30
0.0
 10
240.2399649976132
 20
26.78332743624594
 30
0.0
 10
240.33103029191
 20
26.7393308214354
 30
0.0
  0
SPLINE
  5
24D
330
1F
100
AcDbEntity
  8
0
  6
Continuous
 62
     7
370
    15
100
AcDbSpline
210
0.0
220
0.0
230
1.0
 70
     8
 71
     3
 72
     8
 73
     4
 74
     0
 42
0.000000001
 43
0.00000001
 40
0.0
 40
0.0
 40
0.0
 40
0.0
 40
1.0
 40
1.0
 40
1.0
 40
1.0
 10
232.7003121131696
 20
44.29579614402726
 30
0.0
 10
232.0145788951572
 20
44.17721197313718
 30
0.0
 10
231.3283409809976
 20
44.05957836417441
 30
0.0
 10
230.6417365767448
 20
43.9427011264472
 30
0.0
  0
SPLINE
  5
24E
330
1F
100
AcDbEntity
  8
0
  6
Continuous
 62
     7
370
    15
100
AcDbSpline
210
0.0
220
0.0
230
1.0
 70
     8
 71
     3
 72
     8
 73
     4
 74
     0
 42
0.000000001
 43
0.00000001
 40
0.0
 40
0.0
 40
0.0
 40
0.0
 40
0.0011140524372172
 40
0.0011140524372172
 40
0.0011140524372172
 40
0.0011140524372172
 10
230.0169131656917
 20
44.6859992626183
 30
0.0
 10
230.2261318684663
 20
44.4379452825598
 30
0.0
 10
230.4344443736691
 20
44.19016318177037
 30
0.0
 10
230.6417365767448
 20
43.9427011264472
 30
0.0
  0
LWPOLYLINE
  5
24F
330
1F
100
AcDbEntity
  8
0
  6
Continuous
 62
     7
370
    15
100
AcDbPolyline
 90
       22
 70
   128
 43
0.0
 10
230.0169131657
 20
44.6859992626
 10
230.6353418823
 20
46.6803995387
 10
231.3754844971
 20
48.6762865049
 10
232.2316618981
 20
50.6583457271
 10
233.197304639
 20
52.6113688716
 10
234.2650033463
 20
54.5203703982
 10
235.4265655713
 20
56.3707025445
 10
236.6730786509
 20
58.1481677182
 10
237.9949780945
 20
59.8391274348
 10
239.3821209719
 20
61.4306069661
 10
240.8238637405
 20
62.9103948949
 10
242.3091439128
 20
64.2671368133
 10
243.8265649389
 20
65.4904224452
 10
245.3644836525
 20
66.5708655238
 10
246.9110996082
 20
67.5001758132
 10
248.454545627
 20
68.2712227184
 10
249.9829788528
 20
68.8780899991
 10
251.4846716223
 20
69.3161211648
 10
252.9481014521
 20
69.5819552037
 10
254.3620394499
 20
69.6735523721
 10
255.7156364742
 20
69.5902098454
 10
256.9985063793
 20
69.3325671103
  0
LINE
  5
250
330
1F
100
AcDbEntity
  8
0
  6
Continuous
 62
     7
370
    15
100
AcDbLine
 10
257.8092085733
 20
66.7872398162
 30
0.0
 11
256.9985063793
 21
69.3325671103
 31
0.0
  0
LWPOLYLINE
  5
251
330
1F
100
AcDbEntity
  8
0
  6
Continuous
 62
     7
370
    15
100
AcDbPolyline
 90
       21
 70
   128
 43
0.0
 10
232.7003121132
 20
44.295796144
 10
233.2841623825
 20
46.1736334024
 10
233.987800233
 20
48.0523738242
 10
234.8053071606
 20
49.9162147738
 10
235.7298068751
 20
51.7494789391
 10
236.7535231389
 20
53.5367461985
 10
237.8678451746
 20
55.2629833239
 10
239.0634000935
 20
56.9136704293
 10
240.3301317329
 20
58.4749231022
 10
241.6573852423
 20
59.9336091893
 10
243.0339967037
 20
61.2774592547
 10
244.448387035
 20
62.4951697822
 10
245.8886593852
 20
63.5764982519
 10
247.3426992018
 20
64.5123492936
 10
248.7982761301
 20
65.29485119
 10
250.2431468864
 20
65.9174220886
 10
251.6651582398
 20
66.3748253634
 10
253.0523492364
 20
66.6632136614
 10
254.3930518066
 20
66.7801612642
 10
255.6759889086
 20
66.7246844913
 10
256.4097243704
 20
66.6095349972
  0
LINE
  5
252
330
1F
100
AcDbEntity
  8
0
  6
Continuous
 62
     7
370
    15
100
AcDbLine
 10
227.233079955
 20
46.2930719677
 30
0.0
 11
230.0169131657
 21
44.6859992626
 31
0.0
  0
LINE
  5
253
330
1F
100
AcDbEntity
  8
0
  6
Continuous
 62
     7
370
    15
100
AcDbLine
 10
256.9985063793
 20
69.3325671103
 30
0.0
 11
254.2146731686
 21
70.9396398153
 31
0.0
  0
LINE
  5
254
330
1F
100
AcDbEntity
  8
0
  6
Continuous
 62
     7
370
    15
100
AcDbLine
 10
235.1659950729
 20
43.2517949242
 30
0.0
 11
233.4364675622
 21
44.2502299038
 31
0.0
  0
SPLINE
  5
255
330
1F
100
AcDbEntity
  8
0
  6
Continuous
 62
     7
370
    15
100
AcDbSpline
210
0.0
220
0.0
230
1.0
 70
     8
 71
     3
 72
    12
 73
     8
 74
     0
 42
0.000000001
 43
0.00000001
 40
0.0
 40
0.0
 40
0.0
 40
0.0
 40
0.2499999999999988
 40
0.2499999999999988
 40
0.4999999999999976
 40
0.4999999999999976
 40
1.0
 40
1.0
 40
1.0
 40
1.0
 10
233.4364675621504
 20
44.25022990382658
 30
0.0
 10
233.3898008056779
 20
44.27717004890104
 30
0.0
 10
233.3342385249576
 20
44.29951705460425
 30
0.0
 10
233.2125520675199
 20
44.33181423480852
 30
0.0
 10
233.1487814013974
 20
44.34147501086025
 30
0.0
 10
232.9493132568635
 20
44.35227378652397
 30
0.0
 10
232.815650849541
 20
44.33405645125348
 30
0.0
 10
232.7003121131696
 20
44.29579614402726
 30
0.0
  0
SPLINE
  5
256
330
1F
100
AcDbEntity
  8
0
  6
Continuous
 62
     7
370
    15
100
AcDbSpline
210
0.0
220
0.0
230
1.0
 70
     8
 71
     3
 72
    10
 73
     6
 74
     0
 42
0.000000001
 43
0.00000001
 40
0.0
 40
0.0
 40
0.0
 40
0.0
 40
0.5
 40
0.5
 40
1.0
 40
1.0
 40
1.0
 40
1.0
 10
227.0266334054013
 20
46.34823177116497
 30
0.0
 10
227.044696371684
 20
46.35680143806351
 30
0.0
 10
227.0706447745941
 20
46.35783826446509
 30
0.0
 10
227.1402215053048
 20
46.34033987416602
 30
0.0
 10
227.183305217484
 20
46.3218063119865
 30
0.0
 10
227.2330799549819
 20
46.29307196765669
 30
0.0
  0
LINE
  5
257
330
1F
100
AcDbEntity
  8
0
  6
Continuous
 62
     7
370
    15
100
AcDbLine
 10
227.0266334054
 20
46.3482317712
 30
0.0
 11
227.0669695397
 21
46.5436412434
 31
0.0
  0
LINE
  5
258
330
1F
100
AcDbEntity
  8
0
  6
Continuous
 62
     7
370
    15
100
AcDbLine
 10
238.3372748158
 20
39.5001614632
 30
0.0
 11
234.789815234
 21
41.5480662889
 31
0.0
  0
SPLINE
  5
259
330
1F
100
AcDbEntity
  8
0
  6
Continuous
 62
     7
370
    15
100
AcDbSpline
210
0.0
220
0.0
230
1.0
 70
     8
 71
     3
 72
     8
 73
     4
 74
     0
 42
0.000000001
 43
0.00000001
 40
0.0
 40
0.0
 40
0.0
 40
0.0
 40
0.0011140524372172
 40
0.0011140524372172
 40
0.0011140524372172
 40
0.0011140524372172
 10
234.789815233968
 20
41.54806628886792
 30
0.0
 10
234.7827886381432
 20
41.6799174699718
 30
0.0
 10
234.777233408929
 20
41.81065028679705
 30
0.0
 10
234.7730057495957
 20
41.94036545638933
 30
0.0
  0
LINE
  5
25A
330
1F
100
AcDbEntity
  8
0
  6
Continuous
 62
     7
370
    15
100
AcDbLine
 10
231.8347435441
 20
44.1466911083
 30
0.0
 11
231.8347435441
 21
39.6655797411
 31
0.0
  0
LINE
  5
25B
330
1F
100
AcDbEntity
  8
0
  6
Continuous
 62
     7
370
    15
100
AcDbLine
 10
231.8347435441
 20
39.6655797411
 30
0.0
 11
231.8347435441
 21
36.5711716963
 31
0.0
  0
LINE
  5
25C
330
1F
100
AcDbEntity
  8
0
  6
Continuous
 62
     7
370
    15
100
AcDbLine
 10
227.8367391152
 20
45.5619916934
 30
0.0
 11
227.0266334054
 21
46.3482317712
 31
0.0
  0
LINE
  5
25D
330
1F
100
AcDbEntity
  8
0
  6
Continuous
 62
     7
370
    15
100
AcDbLine
 10
230.6417365767
 20
43.9427011264
 30
0.0
 11
227.8367391152
 21
45.5619916934
 31
0.0
  0
ARC
  5
25E
330
1F
100
AcDbEntity
  8
0
  6
Continuous
 62
     7
370
    15
100
AcDbCircle
 10
246.8886547402
 20
42.0947988423
 30
0.0
 40
15.2486506860227
100
AcDbArc
 50
172.3391510336
 51
189.1666831019
  0
LINE
  5
25F
330
1F
100
AcDbEntity
  8
0
  6
Continuous
 62
     7
370
    15
100
AcDbLine
 10
234.789815234
 20
28.4017592175
 30
0.0
 11
238.3372748158
 21
26.3538543918
 31
0.0
  0
LINE
  5
260
330
1F
100
AcDbEntity
  8
0
  6
Continuous
 62
     7
370
    15
100
AcDbLine
 10
238.3372748158
 20
26.3538543918
 30
0.0
 11
238.274251395
 21
26.1695467713
 31
0.0
  0
SPLINE
  5
261
330
1F
100
AcDbEntity
  8
0
  6
Continuous
 62
     7
370
    15
100
AcDbSpline
210
0.0
220
0.0
230
1.0
 70
     8
 71
     3
 72
    14
 73
    10
 74
     0
 42
0.000000001
 43
0.00000001
 40
0.0
 40
0.0
 40
0.0
 40
0.0
 40
0.25
 40
0.25
 40
0.5
 40
0.5
 40
0.75
 40
0.75
 40
1.0
 40
1.0
 40
1.0
 40
1.0
 10
238.2742513950136
 20
26.16954677129891
 30
0.0
 10
238.2447720692711
 20
26.08333652890434
 30
0.0
 10
238.2079763601307
 20
26.00341114918497
 30
0.0
 10
238.1186613673923
 20
25.85706713219705
 30
0.0
 10
238.0657889793426
 20
25.79071637088646
 30
0.0
 10
237.9463190441788
 20
25.68545246692978
 30
0.0
 10
237.8790217777079
 20
25.64575375762816
 30
0.0
 10
237.7344716142696
 20
25.61300078085956
 30
0.0
 10
237.659547596091
 20
25.62168915673486
 30
0.0
 10
237.5921942993648
 20
25.66057138730334
 30
0.0
  0
LINE
  5
262
330
1F
100
AcDbEntity
  8
0
  6
Continuous
 62
     7
370
    15
100
AcDbLine
 10
237.5921942994
 20
25.6605713873
 30
0.0
 11
234.7730057496
 21
27.2880542951
 31
0.0
  0
SPLINE
  5
263
330
1F
100
AcDbEntity
  8
0
  6
Continuous
 62
     7
370
    15
100
AcDbSpline
210
0.0
220
0.0
230
1.0
 70
     8
 71
     3
 72
     8
 73
     4
 74
     0
 42
0.000000001
 43
0.00000001
 40
0.0
 40
0.0
 40
0.0
 40
0.0
 40
0.0011140524372172
 40
0.0011140524372172
 40
0.0011140524372172
 40
0.0011140524372172
 10
234.7730057495957
 20
27.28805429513733
 30
0.0
 10
234.777233408929
 20
27.65932823723012
 30
0.0
 10
234.7827886381432
 20
28.03057355311007
 30
0.0
 10
234.789815233968
 20
28.40175921750735
 30
0.0
  0
LINE
  5
264
330
1F
100
AcDbEntity
  8
0
  6
Continuous
 62
     7
370
    15
100
AcDbLine
 10
229.8018115482
 20
43.5521643963
 30
0.0
 11
229.8258390077
 21
44.4137087674
 31
0.0
  0
ARC
  5
265
330
1F
100
AcDbEntity
  8
0
  6
Continuous
 62
     7
370
    15
100
AcDbCircle
 10
238.794967675
 20
43.0069693077
 30
0.0
 40
9.009666742227273
100
AcDbArc
 50
176.5307847916
 51
219.4185099443
  0
ARC
  5
266
330
1F
100
AcDbEntity
  8
0
  6
Continuous
 62
     7
370
    15
100
AcDbCircle
 10
245.8917212971
 20
28.3298206459
 30
0.0
 40
8.605750338789036
100
AcDbArc
 50
218.1586220648
 51
261.3009444397
  0
LINE
  5
267
330
1F
100
AcDbEntity
  8
0
  6
Continuous
 62
     7
370
    15
100
AcDbLine
 10
238.3372748158
 20
26.3538543918
 30
0.0
 11
238.8858615805
 21
26.6705467901
 31
0.0
  0
SPLINE
  5
268
330
1F
100
AcDbEntity
  8
0
  6
Continuous
 62
     7
370
    15
100
AcDbSpline
210
0.0
220
0.0
230
1.0
 70
     8
 71
     3
 72
     8
 73
     4
 74
     0
 42
0.000000001
 43
0.00000001
 40
0.0
 40
0.0
 40
0.0
 40
0.0
 40
1.0
 40
1.0
 40
1.0
 40
1.0
 10
235.4014600173022
 20
29.59014957908529
 30
0.0
 10
235.1960439510885
 20
29.19428421855788
 30
0.0
 10
234.9922744848413
 20
28.79812750314634
 30
0.0
 10
234.789815233968
 20
28.40175921750736
 30
0.0
  0
SPLINE
  5
269
330
1F
100
AcDbEntity
  8
0
  6
Continuous
 62
     7
370
    15
100
AcDbSpline
210
0.0
220
0.0
230
1.0
 70
     8
 71
     3
 72
    12
 73
     8
 74
     0
 42
0.000000001
 43
0.00000001
 40
0.0
 40
0.0
 40
0.0
 40
0.0
 40
0.2500000000000013
 40
0.2500000000000013
 40
0.5000000000000026
 40
0.5000000000000026
 40
1.0
 40
1.0
 40
1.0
 40
1.0
 10
235.322528421762
 20
30.01512307396676
 30
0.0
 10
235.3691951782344
 20
29.9881829288923
 30
0.0
 10
235.4079055218558
 20
29.95610750697699
 30
0.0
 10
235.4638519408218
 20
29.88585941037103
 30
0.0
 10
235.4805867090309
 20
29.84904538842698
 30
0.0
 10
235.4992927639801
 20
29.73389487963505
 30
0.0
 10
235.4677359944714
 20
29.65673321432
 30
0.0
 10
235.4014600173022
 20
29.59014957908529
 30
0.0
  0
LINE
  5
26A
330
1F
100
AcDbEntity
  8
0
  6
Continuous
 62
     7
370
    15
100
AcDbLine
 10
233.4364675622
 20
31.1039228325
 30
0.0
 11
235.3225284218
 21
30.015123074
 31
0.0
  0
SPLINE
  5
26B
330
1F
100
AcDbEntity
  8
0
  6
Continuous
 62
     7
370
    15
100
AcDbSpline
210
0.0
220
0.0
230
1.0
 70
     8
 71
     3
 72
    10
 73
     6
 74
     0
 42
0.000000001
 43
0.00000001
 40
0.0
 40
0.0
 40
0.0
 40
0.0
 40
0.5
 40
0.5
 40
1.0
 40
1.0
 40
1.0
 40
1.0
 10
232.7003121131696
 20
31.14948907266668
 30
0.0
 10
232.8162786609842
 20
31.18795763827559
 30
0.0
 10
232.9501002950346
 20
31.20585457616408
 30
0.0
 10
233.2133877183526
 20
31.19173953425374
 30
0.0
 10
233.3420813806525
 20
31.15841081523543
 30
0.0
 10
233.4364675621504
 20
31.103922832466
 30
0.0
  0
SPLINE
  5
26C
330
1F
100
AcDbEntity
  8
0
  6
Continuous
 62
     7
370
    15
100
AcDbSpline
210
0.0
220
0.0
230
1.0
 70
     8
 71
     3
 72
     8
 73
     4
 74
     0
 42
0.000000001
 43
0.00000001
 40
0.0
 40
0.0
 40
0.0
 40
0.0
 40
1.0
 40
1.0
 40
1.0
 40
1.0
 10
230.6417365767448
 20
30.79639405508662
 30
0.0
 10
231.3283518133698
 20
30.91327313675444
 30
0.0
 10
232.0146164801513
 20
31.03091140136748
 30
0.0
 10
232.7003121131696
 20
31.14948907266668
 30
0.0
  0
LINE
  5
26D
330
1F
100
AcDbEntity
  8
0
  6
Continuous
 62
     7
370
    15
100
AcDbLine
 10
227.8367391152
 20
32.4156846221
 30
0.0
 11
230.6417365767
 21
30.7963940551
 31
0.0
  0
LINE
  5
26E
330
1F
100
AcDbEntity
  8
0
  6
Continuous
 62
     7
370
    15
100
AcDbLine
 10
227.8367391152
 20
32.4156846221
 30
0.0
 11
231.4104794754
 21
34.4787610182
 31
0.0
  0
ARC
  5
26F
330
1F
100
AcDbEntity
  8
0
  6
Continuous
 62
     7
370
    15
100
AcDbCircle
 10
243.7737269574
 20
30.7350413366
 30
0.0
 40
9.638189763874939
100
AcDbArc
 50
200.9552344837
 51
238.707478147
  0
LINE
  5
270
330
1F
100
AcDbEntity
  8
0
  6
Continuous
 62
     7
370
    15
100
AcDbLine
 10
202.9709043358
 20
61.6068031077
 30
0.0
 11
202.9022292523
 21
61.6665262213
 31
0.0
  0
ELLIPSE
  5
271
330
1F
100
AcDbEntity
  8
0
  6
Continuous
 62
     7
370
    15
100
AcDbEllipse
 10
230.9418503253
 20
36.0557601671
 30
0.0
 11
-0.0001201194076543288
 21
1.706897922965446
 31
0.0
210
0.0
220
0.0
230
1.0
 40
0.7174342186
 41
3.534193645557514
 42
5.104989972352375
  0
SPLINE
  5
272
330
1F
100
AcDbEntity
  8
0
  6
Continuous
 62
     7
370
    15
100
AcDbSpline
210
0.0
220
0.0
230
1.0
 70
     8
 71
     3
 72
    14
 73
    10
 74
     0
 42
0.000000001
 43
0.00000001
 40
0.0
 40
0.0
 40
0.0
 40
0.0
 40
0.25
 40
0.25
 40
0.5
 40
0.5
 40
0.75
 40
0.75
 40
1.0
 40
1.0
 40
1.0
 40
1.0
 10
267.3763259969411
 20
61.81652640148737
 30
0.0
 10
267.267531528135
 20
61.75372069150269
 30
0.0
 10
267.1744163736832
 20
61.68280740275755
 30
0.0
 10
267.0246564349999
 20
61.52741482246149
 30
0.0
 10
266.9704054675516
 20
61.44579879072229
 30
0.0
 10
266.9096787005717
 20
61.2759940329647
 30
0.0
 10
266.90452826456
 20
61.18985730589627
 30
0.0
 10
266.9606334084322
 20
61.02852768097463
 30
0.0
 10
267.0214674515589
 20
60.95620235543799
 30
0.0
 10
267.1180605528937
 20
60.90225954669244
 30
0.0
  0
LINE
  5
273
330
1F
100
AcDbEntity
  8
0
  6
Continuous
 62
     7
370
    15
100
AcDbLine
 10
234.9171271268
 20
28.6562406529
 30
0.0
 11
234.7440203311
 21
28.8674683437
 31
0.0
  0
ARC
  5
274
330
1F
100
AcDbEntity
  8
0
  6
Continuous
 62
     7
370
    15
100
AcDbCircle
 10
238.5028359931
 20
33.0868133261
 30
0.0
 40
9.018451079358101
100
AcDbArc
 50
199.7880748351
 51
257.9363582213
  0
SPLINE
  5
275
330
1F
100
AcDbEntity
  8
0
  6
Continuous
 62
     7
370
    15
100
AcDbSpline
210
0.0
220
0.0
230
1.0
 70
     8
 71
     3
 72
     8
 73
     4
 74
     0
 42
0.000000001
 43
0.00000001
 40
0.0
 40
0.0
 40
0.0
 40
0.0
 40
0.0011140524372172
 40
0.0011140524372172
 40
0.0011140524372172
 40
0.0011140524372172
 10
230.6417365767448
 20
30.79639405508662
 30
0.0
 10
230.4344443736691
 20
30.54081926490864
 30
0.0
 10
230.2261318684663
 20
30.28662323299287
 30
0.0
 10
230.0169131656917
 20
30.03368810136629
 30
0.0
  0
ARC
  5
276
330
1F
100
AcDbEntity
  8
0
  6
Continuous
 62
     7
370
    15
100
AcDbCircle
 10
241.3791564052
 20
34.5848205882
 30
0.0
 40
9.33401525957438
100
AcDbArc
 50
201.5950573204
 51
224.8727659979
  0
LINE
  5
277
330
1F
100
AcDbEntity
  8
0
  6
Continuous
 62
     7
370
    15
100
AcDbLine
 10
227.0266334054
 20
31.947918653
 30
0.0
 11
227.8367391152
 21
32.4156846221
 31
0.0
  0
LINE
  5
278
330
1F
100
AcDbEntity
  8
0
  6
Continuous
 62
     7
370
    15
100
AcDbLine
 10
230.0169131657
 20
30.0336881014
 30
0.0
 11
227.233079955
 21
31.6407608064
 31
0.0
  0
SPLINE
  5
279
330
1F
100
AcDbEntity
  8
0
  6
Continuous
 62
     7
370
    15
100
AcDbSpline
210
0.0
220
0.0
230
1.0
 70
     8
 71
     3
 72
     8
 73
     4
 74
     0
 42
0.000000001
 43
0.00000001
 40
0.0
 40
0.0
 40
0.0
 40
0.0
 40
1.0
 40
1.0
 40
1.0
 40
1.0
 10
227.2330799549819
 20
31.6407608064047
 30
0.0
 10
227.1336974725577
 20
31.69813309230475
 30
0.0
 10
227.0627427899422
 20
31.81556188106536
 30
0.0
 10
227.0266334054001
 20
31.94791865300547
 30
0.0
  0
ARC
  5
27A
330
1F
100
AcDbEntity
  8
0
  6
Continuous
 62
     7
370
    15
100
AcDbCircle
 10
235.6100522845
 20
34.3760188798
 30
0.0
 40
8.707550506314675
100
AcDbArc
 50
218.0308544925
 51
239.7822715257
  0
SPLINE
  5
27B
330
1F
100
AcDbEntity
  8
0
  6
Continuous
 62
     7
370
    15
100
AcDbSpline
210
0.0
220
0.0
230
1.0
 70
     8
 71
     3
 72
    12
 73
     8
 74
     0
 42
0.000000001
 43
0.00000001
 40
0.0
 40
0.0
 40
0.0
 40
0.0
 40
0.2677099914101248
 40
0.5410243514963657
 40
0.7687500903901157
 40
0.8255603024474726
 40
1.0
 40
1.0
 40
1.0
 40
1.0
 10
257.1609449908179
 20
68.82256549133872
 30
0.0
 10
257.2244958557499
 20
68.84357918684391
 30
0.0
 10
257.3529279897384
 20
68.88604648858099
 30
0.0
 10
257.5669428076823
 20
68.89544271346296
 30
0.0
 10
257.7162374015631
 20
68.87604149931573
 30
0.0
 10
257.8288970318462
 20
68.84518268204533
 30
0.0
 10
257.8769649075531
 20
68.8216039399541
 30
0.0
 10
257.9132241463758
 20
68.80381769023838
 30
0.0
  0
LINE
  5
27C
330
1F
100
AcDbEntity
  8
0
  6
Continuous
 62
     7
370
    15
100
AcDbLine
 10
257.9132241464
 20
68.8038176902
 30
0.0
 11
260.6970573571
 21
67.1967449852
 31
0.0
  0
SPLINE
  5
27D
330
1F
100
AcDbEntity
  8
0
  6
Continuous
 62
     7
370
    15
100
AcDbSpline
210
0.0
220
0.0
230
1.0
 70
     8
 71
     3
 72
     9
 73
     5
 74
     0
 42
0.000000001
 43
0.00000001
 40
0.0
 40
0.0
 40
0.0
 40
0.0
 40
0.2986515990359325
 40
1.0
 40
1.0
 40
1.0
 40
1.0
 10
260.6970573570856
 20
67.19674498519996
 30
0.0
 10
260.6724024533331
 20
67.15770840175246
 30
0.0
 10
260.5898483875518
 20
67.0269989611417
 30
0.0
 10
260.5031426698409
 20
66.89718505040022
 30
0.0
 10
260.4423317533698
 20
66.80614027167879
 30
0.0
  0
SPLINE
  5
27E
330
1F
100
AcDbEntity
  8
0
  6
Continuous
 62
     7
370
    15
100
AcDbSpline
210
0.0
220
0.0
230
1.0
 70
     8
 71
     3
 72
     9
 73
     5
 74
     0
 42
0.000000001
 43
0.00000001
 40
0.0
 40
0.0
 40
0.0
 40
0.0
 40
0.5884299960984316
 40
1.0
 40
1.0
 40
1.0
 40
1.0
 10
264.9619129047671
 20
64.34479862790148
 30
0.0
 10
265.0579541111462
 20
64.36613264148988
 30
0.0
 10
265.2211701385681
 20
64.4023884641533
 30
0.0
 10
265.3855118302874
 20
64.43690514747968
 30
0.0
 10
265.4531499409896
 20
64.45111117897099
 30
0.0
  0
LINE
  5
27F
330
1F
100
AcDbEntity
  8
0
  6
Continuous
 62
     7
370
    15
100
AcDbLine
 10
265.453149941
 20
64.451111179
 30
0.0
 11
268.2723384908
 21
62.8236282711
 31
0.0
  0
SPLINE
  5
280
330
1F
100
AcDbEntity
  8
0
  6
Continuous
 62
     7
370
    15
100
AcDbSpline
210
0.0
220
0.0
230
1.0
 70
     8
 71
     3
 72
    12
 73
     8
 74
     0
 42
0.000000001
 43
0.00000001
 40
0.0
 40
0.0
 40
0.0
 40
0.0
 40
0.25
 40
0.25
 40
0.5
 40
0.5
 40
1.0
 40
1.0
 40
1.0
 40
1.0
 10
268.2723384907587
 20
62.82362827113703
 30
0.0
 10
268.3349466260501
 20
62.7874853639567
 30
0.0
 10
268.3798095005063
 20
62.74046531378744
 30
0.0
 10
268.4248777977239
 20
62.64190282686396
 30
0.0
 10
268.4268072631473
 20
62.58945206422412
 30
0.0
 10
268.3826727501556
 20
62.43705531202556
 30
0.0
 10
268.2904227577486
 20
62.34422322915869
 30
0.0
 10
268.165327062847
 20
62.2720070216572
 30
0.0
  0
LINE
  5
281
330
1F
100
AcDbEntity
  8
0
  6
Continuous
 62
     7
370
    15
100
AcDbLine
 10
268.1653270628
 20
62.2720070217
 30
0.0
 11
267.3763259969
 21
61.8165264015
 31
0.0
  0
ELLIPSE
  5
282
330
1F
100
AcDbEntity
  8
0
  6
Continuous
 62
     7
370
    15
100
AcDbEllipse
 10
230.7033726942
 20
35.9180452069
 30
0.0
 11
0.5200151578418684
 21
1.941087241981862
 31
0.0
210
0.0
220
0.0
230
1.0
 40
0.5176380889
 41
3.61917435134773
 42
5.189970678142612
  0
SPLINE
  5
283
330
1F
100
AcDbEntity
  8
0
  6
Continuous
 62
     7
370
    15
100
AcDbSpline
210
0.0
220
0.0
230
1.0
 70
     8
 71
     3
 72
     9
 73
     5
 74
     0
 42
0.000000001
 43
0.00000001
 40
0.0
 40
0.0
 40
0.0
 40
0.0
 40
0.1536966198367106
 40
1.0
 40
1.0
 40
1.0
 40
1.0
 10
270.8071808241463
 20
58.82080573367666
 30
0.0
 10
270.8084417559588
 20
58.83144296959711
 30
0.0
 10
270.8166457868203
 20
58.90065227251963
 30
0.0
 10
270.7908677406945
 20
58.9603743215898
 30
0.0
 10
270.769051693124
 20
59.01091729358816
 30
0.0
  0
LWPOLYLINE
  5
284
330
1F
100
AcDbEntity
  8
0
  6
Continuous
 62
     7
370
    15
100
AcDbPolyline
 90
        3
 70
   128
 43
0.0
 10
260.6970573571
 20
67.1967449852
 10
261.0523827706
 20
66.8264331842
 10
261.1340366214
 20
66.7351523264
  0
LWPOLYLINE
  5
285
330
1F
100
AcDbEntity
  8
0
  6
Continuous
 62
     7
370
     0
100
AcDbPolyline
 90
        8
 70
   128
 43
0.0
 10
271.4439964578
 20
39.6231420614
 10
271.7446364158
 20
38.977156241
 10
271.9945425724
 20
38.1989082552
 10
272.1160161198
 20
37.4464824183
 10
272.1029658669
 20
36.7576085035
 10
271.9560462081
 20
36.1668295254
 10
271.6826243083
 20
35.7037696088
 10
271.6417718347
 20
35.657823568
  0
LWPOLYLINE
  5
286
330
1F
100
AcDbEntity
  8
0
  6
Continuous
 62
     7
370
     0
100
AcDbPolyline
 90
       13
 70
   128
 43
0.0
 10
271.1883354454
 20
39.3587009964
 10
271.2232604706
 20
39.2890170327
 10
271.5282548319
 20
38.5461415276
 10
271.7118321187
 20
37.8074148965
 10
271.7640956321
 20
37.1126620831
 10
271.6822278325
 20
36.4993373916
 10
271.4706422342
 20
36.0005053146
 10
271.1407454715
 20
35.6430580187
 10
270.7103223643
 20
35.44626558
 10
270.2025771338
 20
35.42073713
 10
269.6448824567
 20
35.5678489138
 10
269.0673037975
 20
35.8796700973
 10
268.6268663929
 20
36.2232916487
  0
LWPOLYLINE
  5
287
330
1F
100
AcDbEntity
  8
0
  6
Continuous
 62
     7
370
     0
100
AcDbPolyline
 90
       57
 70
   128
 43
0.0
 10
274.9682571964
 20
42.6867212785
 10
273.7806945919
 20
41.9241424209
 10
272.6080662761
 20
41.0171263178
 10
271.4651187306
 20
39.9770792229
 10
270.3662251838
 20
38.8170803319
 10
269.3252048598
 20
37.5517173038
 10
268.355149193
 20
36.1969028129
 10
267.4682571964
 20
34.7696744375
 10
266.6756820515
 20
33.2879804026
 10
265.9873908504
 20
31.7704538703
 10
265.4120392545
 20
30.2361786173
 10
264.9568626438
 20
28.7044490451
 10
264.6275851284
 20
27.1945275417
 10
264.428347564
 20
25.7254022462
 10
264.3616554786
 20
24.3155482615
 10
264.428347564
 20
22.9826953196
 10
264.6275851284
 20
21.7436048195
 10
264.9568626438
 20
20.6138590431
 10
265.4120392545
 20
19.6076651992
 10
265.9873908504
 20
18.7376767591
 10
266.6756820515
 20
18.0148343323
 10
267.4682571964
 20
17.4482280815
 10
268.355149193
 20
17.0449834093
 10
269.3252048598
 20
16.8101713513
 10
270.3662251838
 20
16.7467448055
 10
271.4651187306
 20
16.8555013973
 10
272.6080662761
 20
17.1350734496
 10
273.7806945919
 20
17.5819451815
 10
274.9682571964
 20
18.1904969219
 10
276.155819801
 20
18.9530757794
 10
277.3284481168
 20
19.8600918825
 10
278.4713956623
 20
20.9001389774
 10
279.5702892091
 20
22.0601378685
 10
280.6113095331
 20
23.3255008966
 10
281.5813651999
 20
24.6803153875
 10
282.4682571964
 20
26.1075437628
 10
283.2608323414
 20
27.5892377977
 10
283.9491235425
 20
29.10676433
 10
284.5244751384
 20
30.6410395831
 10
284.9796517491
 20
32.1727691553
 10
285.3089292645
 20
33.6826906587
 10
285.5081668289
 20
35.1518159542
 10
285.5748589142
 20
36.5616699389
 10
285.5081668289
 20
37.8945228808
 10
285.3089292645
 20
39.1336133809
 10
284.9796517491
 20
40.2633591572
 10
284.5244751384
 20
41.2695530012
 10
283.9491235425
 20
42.1395414412
 10
283.2608323414
 20
42.8623838681
 10
282.4682571964
 20
43.4289901188
 10
281.5813651999
 20
43.832234791
 10
280.6113095331
 20
44.067046849
 10
279.5702892091
 20
44.1304733949
 10
278.4713956623
 20
44.0217168031
 10
277.3284481168
 20
43.7421447508
 10
276.155819801
 20
43.2952730188
 10
274.9682571964
 20
42.6867212785
  0
ARC
  5
288
330
1F
100
AcDbEntity
  8
0
  6
Continuous
 62
     7
370
     0
100
AcDbCircle
 10
248.4550268441
 20
29.7765827633
 30
0.0
 40
8.673189686544204
100
AcDbArc
 50
200.4988496687
 51
238.7494509676
  0
LWPOLYLINE
  5
289
330
1F
100
AcDbEntity
  8
0
  6
Continuous
 62
     7
370
     0
100
AcDbPolyline
 90
       22
 70
   128
 43
0.0
 10
240.3310302919
 20
39.7838098844
 10
240.9117248626
 20
41.6667724935
 10
241.6128961384
 20
43.5512619551
 10
242.4286338551
 20
45.4213936611
 10
243.3520620525
 20
47.2614040265
 10
244.3753970338
 20
49.0557833635
 10
245.4900129745
 20
50.7894066137
 10
246.6865146309
 20
52.4476608402
 10
247.9548165342
 20
54.0165684011
 10
249.2842280016
 20
55.4829047693
 10
250.6635432501
 20
56.8343100038
 10
252.081135851
 20
58.0593929331
 10
253.5250567307
 20
59.1478271729
 10
254.9831348914
 20
60.0904381687
 10
256.4430800015
 20
60.879280529
 10
257.8925859927
 20
61.5077049984
 10
259.3194347894
 20
61.9704145049
 10
260.7115992964
 20
62.2635088096
 10
262.057344777
 20
62.3845173821
 10
263.3453277665
 20
62.3324202254
 10
264.5646916878
 20
62.1076564732
 10
265.7051583629
 20
61.7121206886
  0
LINE
  5
28A
330
1F
100
AcDbEntity
  8
0
  6
Continuous
 62
     7
370
     0
100
AcDbLine
 10
269.6869249812
 20
56.4006267866
 30
0.0
 11
270.5085667353
 21
56.5587046218
 31
0.0
  0
LWPOLYLINE
  5
28B
330
1F
100
AcDbEntity
  8
0
  6
Continuous
 62
     7
370
     0
100
AcDbPolyline
 90
       29
 70
   128
 43
0.0
 10
267.2824118524
 20
18.7102539295
 10
267.8978777279
 20
18.4162823037
 10
268.8212890692
 20
18.1555095037
 10
269.8182652033
 20
18.0663648138
 10
270.8753237382
 20
18.1500537632
 10
271.9781697705
 20
18.4054446022
 10
273.1118891997
 20
18.829083608
 10
274.2611504153
 20
19.4152417897
 10
275.4104116308
 20
20.1559923634
 10
276.54413106
 20
21.0413179485
 10
277.6469770923
 20
22.059246035
 10
278.7040356272
 20
23.196010892
 10
279.7010117613
 20
24.4362397247
 10
280.6244231027
 20
25.7631605658
 10
281.461782097
 20
27.1588290874
 10
282.2017649005
 20
28.6043712667
 10
282.834364515
 20
30.0802386258
 10
283.351026116
 20
31.5664725903
 10
283.7447627418
 20
33.0429743955
 10
284.0102497797
 20
34.4897768875
 10
284.1438969732
 20
35.8873145444
 10
284.1438969732
 20
37.216688067
 10
284.0102497797
 20
38.4599199588
 10
283.7447627418
 20
39.6001976412
 10
283.351026116
 20
40.6221008148
 10
282.834364515
 20
41.5118099922
 10
282.2017649005
 20
42.2572933829
 10
281.461782097
 20
42.8484696031
 10
281.2603264569
 20
42.9716444772
  0
LWPOLYLINE
  5
28C
330
1F
100
AcDbEntity
  8
0
  6
Continuous
 62
     7
370
     0
100
AcDbPolyline
 90
       22
 70
   128
 43
0.0
 10
237.5921942994
 20
40.3128825486
 10
238.210623016
 20
42.3072828246
 10
238.9507656308
 20
44.3031697908
 10
239.8069430318
 20
46.285229013
 10
240.7725857727
 20
48.2382521575
 10
241.8402844799
 20
50.1472536841
 10
243.001846705
 20
51.9975858304
 10
244.2483597846
 20
53.7750510041
 10
245.5702592281
 20
55.4660107207
 10
246.9574021056
 20
57.057490252
 10
248.3991448742
 20
58.5372781808
 10
249.8844250465
 20
59.8940200993
 10
251.4018460726
 20
61.1173057311
 10
252.9397647861
 20
62.1977488098
 10
254.4863807419
 20
63.1270590991
 10
256.0298267607
 20
63.8981060043
 10
257.5582599864
 20
64.5049732851
 10
259.059952756
 20
64.9430044507
 10
260.5233825858
 20
65.2088384896
 10
261.9373205836
 20
65.3004356581
 10
263.2909176078
 20
65.2170931313
 10
264.573787513
 20
64.9594503962
  0
LWPOLYLINE
  5
28D
330
1F
100
AcDbEntity
  8
0
  6
Continuous
 62
     7
370
     0
100
AcDbPolyline
 90
       22
 70
   128
 43
0.0
 10
238.274251395
 20
39.6117037909
 10
238.8600715965
 20
41.599104101
 10
239.5713245934
 20
43.5917745116
 10
240.4023052046
 20
45.5737311948
 10
241.3463478768
 20
47.5290762607
 10
242.3958801504
 20
49.4421252795
 10
243.5424834013
 20
51.297533091
 10
244.7769603689
 20
53.0804168931
 10
246.0894089301
 20
54.7764756215
 10
247.4693015276
 20
56.3721046623
 10
248.9055696144
 20
57.8545049798
 10
250.3866924383
 20
59.2117857807
 10
251.9007894532
 20
60.4330598943
 10
253.4357156171
 20
61.5085311019
 10
254.9791588105
 20
62.429572715
 10
256.5187385964
 20
63.1887967728
 10
258.0421055275
 20
63.7801133034
 10
259.5370402045
 20
64.1987791735
 10
260.9915512923
 20
64.4414361341
 10
262.3939717059
 20
64.5061377583
 10
263.7330521959
 20
64.3923650543
 10
264.9980515817
 20
64.1010306283
  0
LWPOLYLINE
  5
28E
330
1F
100
AcDbEntity
  8
0
  6
Continuous
 62
     7
370
     0
100
AcDbPolyline
 90
       22
 70
   128
 43
0.0
 10
238.8858615805
 20
39.8168538615
 10
239.4657714132
 20
41.7578878524
 10
240.1693178368
 20
43.7030197904
 10
240.9907141587
 20
45.6362509017
 10
241.9232043674
 20
47.5416802968
 10
242.9591187003
 20
49.4036357567
 10
244.0899367282
 20
51.2068026366
 10
245.3063574356
 20
52.93634983
 10
246.5983757224
 20
54.5780517543
 10
247.9553646958
 20
56.1184053576
 10
249.3661630772
 20
57.544741181
 10
250.8191670035
 20
58.8453275655
 10
252.3024254698
 20
60.0094671455
 10
253.8037386267
 20
61.0275848349
 10
255.3107581242
 20
61.8913065823
 10
256.8110886777
 20
62.593528248
 10
258.2923900191
 20
63.1284740358
 10
259.7424783963
 20
63.4917439991
 10
261.149426785
 20
63.6803502305
 10
262.5016629886
 20
63.6927414376
 10
263.7880648199
 20
63.5288157023
 10
264.9980515817
 20
63.1899213192
  0
LINE
  5
28F
330
1F
100
AcDbEntity
  8
0
  6
Continuous
 62
     7
370
     0
100
AcDbLine
 10
238.8858615805
 20
26.6705467901
 30
0.0
 11
241.911015176
 21
28.4169307879
 31
0.0
  0
ARC
  5
290
330
1F
100
AcDbEntity
  8
0
  6
Continuous
 62
     7
370
     0
100
AcDbCircle
 10
244.7467519757
 20
33.052950297
 30
0.0
 40
5.434526666202133
100
AcDbArc
 50
238.5469207269
 51
262.3102243763
  0
LWPOLYLINE
  5
291
330
1F
100
AcDbEntity
  8
0
  6
Continuous
 62
     7
370
     0
100
AcDbPolyline
 90
       22
 70
   128
 43
0.0
 10
227.233079955
 20
46.2930719677
 10
227.8515086716
 20
48.2874722437
 10
228.5916512864
 20
50.2833592099
 10
229.4478286874
 20
52.2654184321
 10
230.4134714283
 20
54.2184415766
 10
231.4811701356
 20
56.1274431032
 10
232.6427323606
 20
57.9777752495
 10
233.8892454402
 20
59.7552404232
 10
235.2111448838
 20
61.4462001398
 10
236.5982877612
 20
63.0376796711
 10
238.0400305298
 20
64.5174675999
 10
239.5253107021
 20
65.8742095184
 10
241.0427317282
 20
67.0974951502
 10
242.5806504418
 20
68.1779382289
 10
244.1272663975
 20
69.1072485182
 10
245.6707124163
 20
69.8782954234
 10
247.199145642
 20
70.4851627042
 10
248.7008384116
 20
70.9231938698
 10
250.1642682414
 20
71.1890279087
 10
251.5782062392
 20
71.2806250772
 10
252.9318032634
 20
71.1972825504
 10
254.2146731686
 20
70.9396398153
  0
LWPOLYLINE
  5
292
330
1F
100
AcDbEntity
  8
0
  6
Continuous
 62
     7
370
     0
100
AcDbPolyline
 90
       19
 70
   128
 43
0.0
 10
233.4364675622
 20
44.2502299038
 10
234.0222386982
 20
46.1019911319
 10
234.7262230301
 20
47.9532743276
 10
235.5424381162
 20
49.7883473317
 10
236.4639477807
 20
51.5916157383
 10
237.4829210568
 20
53.3477554167
 10
238.5906987346
 20
55.0418427346
 10
239.7778669463
 20
56.6594813793
 10
241.0343371654
 20
58.1869246971
 10
242.3494319387
 20
59.6111925119
 10
243.7119756228
 20
60.9201814306
 10
245.1103893548
 20
62.1027676972
 10
246.5327894488
 20
63.1489017225
 10
247.9670883835
 20
64.0496934851
 10
249.4010975217
 20
64.7974880785
 10
250.8226306885
 20
65.3859307625
 10
252.2196077298
 20
65.8100209656
 10
253.5801571688
 20
66.0661547795
 10
254.7949568121
 20
66.1516190679
  0
LWPOLYLINE
  5
293
330
1F
100
AcDbEntity
  8
0
  6
Continuous
 62
     7
370
     0
100
AcDbPolyline
 90
        3
 70
   128
 43
0.0
 10
243.0423860259
 20
30.3765225764
 10
243.8343673615
 20
29.9993343117
 10
244.2788055354
 20
29.8599762388
  0
ARC
  5
294
330
1F
100
AcDbEntity
  8
0
  6
Continuous
 62
     7
370
     0
100
AcDbCircle
 10
240.5860402637
 20
30.48829994
 30
0.0
 40
2.458887692115368
100
AcDbArc
 50
302.60547834
 51
357.3945215143
  0
LINE
  5
295
330
1F
100
AcDbEntity
  8
0
  6
Continuous
 62
     7
370
     0
100
AcDbLine
 10
232.0732211752
 20
36.7088866566
 30
0.0
 11
243.0423860259
 21
30.3765225764
 31
0.0
  0
LINE
  5
296
330
1F
100
AcDbEntity
  8
0
  6
Continuous
 62
     7
370
     0
100
AcDbLine
 10
231.8347435441
 20
36.5711716963
 30
0.0
 11
232.0732211752
 21
36.7088866566
 31
0.0
  0
ARC
  5
297
330
1F
100
AcDbEntity
  8
0
  6
Continuous
 62
     7
370
     0
100
AcDbCircle
 10
247.7849788901
 20
42.4802650966
 30
0.0
 40
16.1443747286955
100
AcDbArc
 50
174.205915913
 51
180.8196484249
  0
ARC
  5
298
330
1F
100
AcDbEntity
  8
0
  6
Continuous
 62
     7
370
     0
100
AcDbCircle
 10
246.999312069
 20
29.3486329384
 30
0.0
 40
8.544016868321656
100
AcDbArc
 50
198.2670132474
 51
267.5888913346
  0
ARC
  5
299
330
1F
100
AcDbEntity
  8
0
  6
Continuous
 62
     7
370
     0
100
AcDbCircle
 10
247.6018092703
 20
29.6876870879
 30
0.0
 40
10.78934904116867
100
AcDbArc
 50
201.9161428427
 51
218.2177422307
  0
ARC
  5
29A
330
1F
100
AcDbEntity
  8
0
  6
Continuous
 62
     7
370
     0
100
AcDbCircle
 10
246.8016261476
 20
28.9659101709
 30
0.0
 40
8.974172297994317
100
AcDbArc
 50
198.1557564047
 51
277.2638607838
  0
LINE
  5
29B
330
1F
100
AcDbEntity
  8
0
  6
Continuous
 62
     7
370
     0
100
AcDbLine
 10
241.911015176
 20
28.4169307879
 30
0.0
 11
231.4104794754
 21
34.4787610182
 31
0.0
  0
LWPOLYLINE
  5
29C
330
1F
100
AcDbEntity
  8
0
  6
Continuous
 62
     7
370
     0
100
AcDbPolyline
 90
       17
 70
   128
 43
0.0
 10
201.538656533
 20
65.439444036
 10
201.6037983222
 20
66.5288092257
 10
201.7978975906
 20
67.6712091904
 10
202.117003037
 20
68.8433879613
 10
202.5546185946
 20
70.0214833588
 10
203.1018356727
 20
71.1815127581
 10
203.7475145096
 20
72.2998613057
 10
204.4785109463
 20
73.3537626504
 10
205.2799440031
 20
74.3217623999
 10
206.1354988144
 20
75.1841548709
 10
207.0277587512
 20
75.9233842395
 10
207.9385599745
 20
76.5244019275
 10
208.8493611977
 20
76.9749729481
 10
209.7416211346
 20
77.2659249746
 10
210.5971759458
 20
77.3913350628
 10
211.3986090027
 20
77.3486502248
 10
211.9727446707
 20
77.2001374995
  0
ARC
  5
29D
330
1F
100
AcDbEntity
  8
0
  6
Continuous
 62
     7
370
     0
100
AcDbCircle
 10
206.5019233137
 20
65.1003577953
 30
0.0
 40
4.974836340465052
100
AcDbArc
 50
176.0916733682
 51
223.6491185193
  0
LINE
  5
29E
330
1F
100
AcDbEntity
  8
0
  6
Continuous
 62
     7
370
     0
100
AcDbLine
 10
267.3763259969
 20
61.8165264015
 30
0.0
 11
266.4503143822
 21
61.2819512751
 31
0.0
  0
LINE
  5
29F
330
1F
100
AcDbEntity
  8
0
  6
Continuous
 62
     7
370
     0
100
AcDbLine
 10
235.4623213597
 20
29.6986901821
 30
0.0
 11
235.3225284218
 21
30.015123074
 31
0.0
  0
ARC
  5
2A0
330
1F
100
AcDbEntity
  8
0
  6
Continuous
 62
     7
370
     0
100
AcDbCircle
 10
242.143351873
 20
34.693979893
 30
0.0
 40
9.417979831146944
100
AcDbArc
 50
202.4075275222
 51
218.218223715
  0
ARC
  5
2A1
330
1F
100
AcDbEntity
  8
0
  6
Continuous
 62
     7
370
     0
100
AcDbCircle
 10
237.2496755183
 20
35.6714912003
 30
0.0
 40
10.79717436124775
100
AcDbArc
 50
201.9201119482
 51
218.0853420614
  0
ARC
  5
2A2
330
1F
100
AcDbEntity
  8
0
  6
Continuous
 62
     7
370
     0
100
AcDbCircle
 10
261.6543359529
 20
55.0762890662
 30
0.0
 40
8.841491356091241
100
AcDbArc
 50
32.1744933364
 51
49.6710720045
  0
ARC
  5
2A3
330
1F
100
AcDbEntity
  8
0
  6
Continuous
 62
     7
370
     0
100
AcDbCircle
 10
261.2928098111
 20
55.0393114191
 30
0.0
 40
9.977142830248697
100
AcDbArc
 50
23.6144708119
 51
46.4627369333
  0
OLE2FRAME
  5
2A4
330
1F
100
AcDbEntity
  8
0
100
AcDbOle2Frame
 70
     2
  3
Paintbrush-Bild
 10
13.8511154363
 20
38.264191557
 30
0.0
 11
51.6290888628
 21
31.9806341108
 31
0.0
 71
     2
 72
     0
 73
     1
 90
    12928
310
80552BED0767C5B32B40DDAF6807D121434000000000000000006FFBDDFB85D0
310
4940DDAF6807D121434000000000000000006FFBDDFB85D04940416F4BD60AFB
310
3F4000000000000000002BED0767C5B32B40416F4BD60AFB3F40000000000000
310
0000000000000100000000010000010000000100000000000100000000320000
310
D0CF11E0A1B11AE1000000000000000000000000000000003E000300FEFF0900
310
0600000000000000000000000100000001000000000000000010000002000000
310
01000000FEFFFFFF0000000000000000FFFFFFFFFFFFFFFFFFFFFFFFFFFFFFFF
310
FFFFFFFFFFFFFFFFFFFFFFFFFFFFFFFFFFFFFFFFFFFFFFFFFFFFFFFFFFFFFFFF
310
FFFFFFFFFFFFFFFFFFFFFFFFFFFFFFFFFFFFFFFFFFFFFFFFFFFFFFFFFFFFFFFF
310
FFFFFFFFFFFFFFFFFFFFFFFFFFFFFFFFFFFFFFFFFFFFFFFFFFFFFFFFFFFFFFFF
310
FFFFFFFFFFFFFFFFFFFFFFFFFFFFFFFFFFFFFFFFFFFFFFFFFFFFFFFFFFFFFFFF
310
FFFFFFFFFFFFFFFFFFFFFFFFFFFFFFFFFFFFFFFFFFFFFFFFFFFFFFFFFFFFFFFF
310
FFFFFFFFFFFFFFFFFFFFFFFFFFFFFFFFFFFFFFFFFFFFFFFFFFFFFFFFFFFFFFFF
310
FFFFFFFFFFFFFFFFFFFFFFFFFFFFFFFFFFFFFFFFFFFFFFFFFFFFFFFFFFFFFFFF
310
FFFFFFFFFFFFFFFFFFFFFFFFFFFFFFFFFFFFFFFFFFFFFFFFFFFFFFFFFFFFFFFF
310
FFFFFFFFFFFFFFFFFFFFFFFFFFFFFFFFFFFFFFFFFFFFFFFFFFFFFFFFFFFFFFFF
310
FFFFFFFFFFFFFFFFFFFFFFFFFFFFFFFFFFFFFFFFFFFFFFFFFFFFFFFFFFFFFFFF
310
FFFFFFFFFFFFFFFFFFFFFFFFFFFFFFFFFFFFFFFFFFFFFFFFFFFFFFFFFFFFFFFF
310
FFFFFFFFFFFFFFFFFFFFFFFFFFFFFFFFFFFFFFFFFFFFFFFFFFFFFFFFFFFFFFFF
310
FFFFFFFFFFFFFFFFFFFFFFFFFFFFFFFFFFFFFFFFFFFFFFFFFFFFFFFFFFFFFFFF
310
FDFFFFFFFEFFFFFFFEFFFFFFFEFFFFFF05000000060000000700000008000000
310
090000000A0000000B0000000C0000000D0000000E0000000F00000010000000
310
11000000120000001300000014000000150000001600000017000000FEFFFFFF
310
FFFFFFFFFFFFFFFFFFFFFFFFFFFFFFFFFFFFFFFFFFFFFFFFFFFFFFFFFFFFFFFF
310
FFFFFFFFFFFFFFFFFFFFFFFFFFFFFFFFFFFFFFFFFFFFFFFFFFFFFFFFFFFFFFFF
310
FFFFFFFFFFFFFFFFFFFFFFFFFFFFFFFFFFFFFFFFFFFFFFFFFFFFFFFFFFFFFFFF
310
FFFFFFFFFFFFFFFFFFFFFFFFFFFFFFFFFFFFFFFFFFFFFFFFFFFFFFFFFFFFFFFF
310
FFFFFFFFFFFFFFFFFFFFFFFFFFFFFFFFFFFFFFFFFFFFFFFFFFFFFFFFFFFFFFFF
310
FFFFFFFFFFFFFFFFFFFFFFFFFFFFFFFFFFFFFFFFFFFFFFFFFFFFFFFFFFFFFFFF
310
FFFFFFFFFFFFFFFFFFFFFFFFFFFFFFFFFFFFFFFFFFFFFFFFFFFFFFFFFFFFFFFF
310
FFFFFFFFFFFFFFFFFFFFFFFFFFFFFFFFFFFFFFFFFFFFFFFFFFFFFFFFFFFFFFFF
310
FFFFFFFFFFFFFFFFFFFFFFFFFFFFFFFFFFFFFFFFFFFFFFFFFFFFFFFFFFFFFFFF
310
FFFFFFFFFFFFFFFFFFFFFFFFFFFFFFFFFFFFFFFFFFFFFFFFFFFFFFFFFFFFFFFF
310
FFFFFFFFFFFFFFFFFFFFFFFFFFFFFFFFFFFFFFFFFFFFFFFFFFFFFFFFFFFFFFFF
310
FFFFFFFFFFFFFFFFFFFFFFFFFFFFFFFFFFFFFFFFFFFFFFFFFFFFFFFFFFFFFFFF
310
FFFFFFFFFFFFFFFFFFFFFFFFFFFFFFFFFFFFFFFFFFFFFFFFFFFFFFFFFFFFFFFF
310
52006F006F007400200045006E00740072007900000000000000000000000000
310
0000000000000000000000000000000000000000000000000000000000000000
310
16000500FFFFFFFFFFFFFFFF020000000A00030000000000C000000000000046
310
000000000000000000000000A018915CA323D20103000000C000000000000000
310
01004F006C006500000000000000000000000000000000000000000000000000
310
0000000000000000000000000000000000000000000000000000000000000000
310
0A000200FFFFFFFFFFFFFFFFFFFFFFFF00000000000000000000000000000000
310
0000000000000000000000000000000000000000000000001400000000000000
310
010043006F006D0070004F0062006A0000000000000000000000000000000000
310
0000000000000000000000000000000000000000000000000000000000000000
310
120002010100000003000000FFFFFFFF00000000000000000000000000000000
310
0000000000000000000000000000000000000000010000004D00000000000000
310
01004F006C006500310030004E00610074006900760065000000000000000000
310
0000000000000000000000000000000000000000000000000000000000000000
310
1A000200FFFFFFFFFFFFFFFFFFFFFFFF00000000000000000000000000000000
310
0000000000000000000000000000000000000000040000002426000000000000
310
FEFFFFFF02000000FEFFFFFFFFFFFFFFFFFFFFFFFFFFFFFFFFFFFFFFFFFFFFFF
310
FFFFFFFFFFFFFFFFFFFFFFFFFFFFFFFFFFFFFFFFFFFFFFFFFFFFFFFFFFFFFFFF
310
FFFFFFFFFFFFFFFFFFFFFFFFFFFFFFFFFFFFFFFFFFFFFFFFFFFFFFFFFFFFFFFF
310
FFFFFFFFFFFFFFFFFFFFFFFFFFFFFFFFFFFFFFFFFFFFFFFFFFFFFFFFFFFFFFFF
310
FFFFFFFFFFFFFFFFFFFFFFFFFFFFFFFFFFFFFFFFFFFFFFFFFFFFFFFFFFFFFFFF
310
FFFFFFFFFFFFFFFFFFFFFFFFFFFFFFFFFFFFFFFFFFFFFFFFFFFFFFFFFFFFFFFF
310
FFFFFFFFFFFFFFFFFFFFFFFFFFFFFFFFFFFFFFFFFFFFFFFFFFFFFFFFFFFFFFFF
310
FFFFFFFFFFFFFFFFFFFFFFFFFFFFFFFFFFFFFFFFFFFFFFFFFFFFFFFFFFFFFFFF
310
FFFFFFFFFFFFFFFFFFFFFFFFFFFFFFFFFFFFFFFFFFFFFFFFFFFFFFFFFFFFFFFF
310
FFFFFFFFFFFFFFFFFFFFFFFFFFFFFFFFFFFFFFFFFFFFFFFFFFFFFFFFFFFFFFFF
310
FFFFFFFFFFFFFFFFFFFFFFFFFFFFFFFFFFFFFFFFFFFFFFFFFFFFFFFFFFFFFFFF
310
FFFFFFFFFFFFFFFFFFFFFFFFFFFFFFFFFFFFFFFFFFFFFFFFFFFFFFFFFFFFFFFF
310
FFFFFFFFFFFFFFFFFFFFFFFFFFFFFFFFFFFFFFFFFFFFFFFFFFFFFFFFFFFFFFFF
310
FFFFFFFFFFFFFFFFFFFFFFFFFFFFFFFFFFFFFFFFFFFFFFFFFFFFFFFFFFFFFFFF
310
FFFFFFFFFFFFFFFFFFFFFFFFFFFFFFFFFFFFFFFFFFFFFFFFFFFFFFFFFFFFFFFF
310
FFFFFFFFFFFFFFFFFFFFFFFFFFFFFFFFFFFFFFFFFFFFFFFFFFFFFFFFFFFFFFFF
310
0100000200000000000000000000000000000000000000000000000000000000
310
0000000000000000000000000000000000000000000000000000000000000000
310
0100FEFF030A0000FFFFFFFF0A00030000000000C00000000000004607000000
310
5042727573680007000000504272757368000700000050427275736800F439B2
310
7100000000000000000000000000000000000000000000000000000000000000
310
0000000000000000000000000000000000000000000000000000000000000000
310
0000000000000000000000000000000000000000000000000000000000000000
310
0000000000000000000000000000000000000000000000000000000000000000
310
0000000000000000000000000000000000000000000000000000000000000000
310
0000000000000000000000000000000000000000000000000000000000000000
310
0000000000000000000000000000000000000000000000000000000000000000
310
0000000000000000000000000000000000000000000000000000000000000000
310
0000000000000000000000000000000000000000000000000000000000000000
310
0000000000000000000000000000000000000000000000000000000000000000
310
0000000000000000000000000000000000000000000000000000000000000000
310
0000000000000000000000000000000000000000000000000000000000000000
310
20260000424D0E260000000000003E00000028000000B40200006E0000000100
310
01000000000000000000130B0000130B00000200000002000000000000FFFFFF
310
FFFFFFFFFFFFFFFFFFFFFFFFFFFFFFFFFFFFFFFFFFFFFFFFFFFFFFFFFFFFFFFF
310
FFFFFFFFFFFFFFFFFFFFFFFFFFFFFFFFFFFFFFFFFFFFFFFFFFFFFFFFFFFFFFFF
310
FFFFFFFFFFFFFFFFFFFFFFFFFFFFFFFFFFFFFFFFFFFFFFFFF000FFFFFFFFFFFF
310
FFFFFFFFFFFFFFFFFFFFFFFFFFFFFFFFFFFFFFFFFFFFFFFFFFFFFFFFFFFFFFFF
310
FFFFFFFFFFFFFFFFFFFFFFFFFFFFFFFFFFFFFFFFFFFFFFFFFFFFFFFFFFFFFFFF
310
FFFFFFFFFFFFFFFFFFFFFFFFFFFFFFFFF000FFFFFFFFFFFFFFFFFFFFFFFFFFFF
310
FFFFFFFFFFFFFFFFFFFFFFFFFFFFFFFFFFFFFFFFFFFFFFFFFFFFFFFFFFFFFFFF
310
FFFFFFFFFFFFFFFFFFFFFFFFFFFFFFFFFFFFFFFFFFFFFFFFFFFFFFFFFFFFFFFF
310
FFFFFFFFFFFFFFFFF000FFFFFFFFFFFFFFFFFFFFFFFFFFFFFFFFFFFFFFFFFFFF
310
FFFFFFFFFFFFFFFFFFFFFFFFFFFFFFFFFFFFFFFFFFFFFFFFFFFFFFFFFFFFFFFF
310
FFFFFFFFFFFFFFFFFFFFFFFFFFFFFFFFFFFFFFFFFFFFFFFFFFFFFFFFFFFFFFFF
310
F000FFFFFFFFFFFFFFFFFFFFFFFFFFFFFFFFFFFFFFFFFFFFFFFFFFFFFFFFFFFF
310
FFFFFFFFFFFFFFFFFFFFFFFFFFFFFFFFFFFFFFFFFFFFFFFFFFFFFFFFFFFFFFFF
310
FFFFFFFFFFFFFFFFFFFFFFFFFFFFFFFFFFFFFFFFFFFFFFFFF000FFFFFFFFFFFF
310
FFFFFFFFFFFFFFFFFFFFFFFFFFFFFFFFFFFFFFFFFFFFFFFFFFFFFFFFFFFFFFFF
310
FFFFFFFFFFFFFFFFFFFFFFFFFFFFFFFFFFFFFFFFFFFFFFFFFFFFFFFFFFFFFFFF
310
FFFFFFFFFFFFFFFFFFFFFFFFFFFFFFFFF000FFFFFFFFFFFFFFFFFFFFFFFFFFFF
310
FFFFFFFFFFFFFFFFFFFFFFFFFFFFFFFFFFFFFFFFFFFFFFFFFFFFFFFFFFFFFFFF
310
FFFFFFFFFFFFFFFFFFFFFFFFFFFFFFFFFFFFFFFFFFFFFFFFFFFFFFFFFFFFFFFF
310
FFFFFFFFFFFFFFFFF000FFFFFFFFFFFFFFFFFFFFFFFFFFFFFFFFFFFFFFFFFFFF
310
FFFFFFFFFFFFFFFFFFFFFFFFFFFFFFFFFFFFFFFFFFFFFFFFFFFFFFFFFFFFFFFF
310
FFFFFFFFFFFFFFFFFFFFFFFFFFFFFFFFFFFFFFFFFFFFFFFFFFFFFFFFFFFFFFFF
310
F000FFFFFFFFFFFFFFFFFFFFFFFFFFFFFFFFFFFFFFFFFFFFFFFFFFFFFFFFFFFF
310
FFFFFFFFFFFFFFFFFFFFFFFFFFFFFFFFFFFFFFFFFFFFFFFFFFFFFFFFFFFFFFFF
310
FFFFFFFFFFFFFFFFFFFFFFFFFFFFFFFFFFFFFFFFFFFFFFFFF000FFFFFFFFFFFF
310
FFFFFFFFFFFFFFFFFFFFFFFFFFFFFFFFFFFFFFFFFFFFFFFFFFFFFFFFFFFFFFFF
310
FFFFFFFFFFFFFFFFFFFFFFFFFFFFFFFFFFFFFFFFFFFFFFFFFFFFFFFFFFFFFFFF
310
FFFFFFFFFFFFFFFFFFFFFFFFFFFFFFFFF000FFFFFFFFFFFFFFFFFFFFFFFFFFFF
310
FFFFFFFFFFFFFFFFFFFFFFFFFFFFFFFFFFFFFFFFFFFFFFFFFFFFFFFFFFFFFFFF
310
FFFFFFFFFFFFFFFFFFFFFFFFFFFFFFFFFFFFFFFFFFFFFFFFFFFFFFFFFFFFFFFF
310
FFFFFFFFFFFFFFFFF000FFFFFFFFFFFFFFFFFFFFFFFFFFFFFFFFFFFFFFFFFFFF
310
FFFFFFFFFFFFFFFFFFFFFFFFFFFFFFFFFFFFFFFFFFFFFFFFFFFFFFFFFFFFFFFF
310
FFFFFFFFFFFFFFFFFFFFFFFFFFFFFFFFFFFFFFFFFFFFFFFFFFFFFFFFFFFFFFFF
310
F000FFFFFFFFFFFFFFFFFFFFFFFFFFFFFFFFFFFFFFFFFFFFFFFFFFFFFFFFFFFF
310
FFFFFFFFFFFFFFFFFFFFFFFFFFFFFFFFFFFFFFFFFFFFFFFFFFFFFFFFFFFFFFFF
310
FFFFFFFFFFFFFFFFFFFFFFFFFFFFFFFFFFFFFFFFFFFFFFFFF000FFFFFFFFFFFF
310
FFFFFFFFFFFFFFFFFFFFFFFFFFFFFFFFFFFFFFFFFFFFFFFFFFFFFFFFFFFFFFFF
310
FFFFFFFFFFFFFFFFFFFFFFFFFFFFFFFFFFFFFFFFFFFFFFFFFFFFFFFFFFFFFFFF
310
FFFFFFFFFFFFFFFFFFFFFFFFFFFFFFFFF000FFFFFFFFFFFFFFFFFFFFFFFFFFFF
310
FFFFFFFFFFFFFFFFFFFFFFFFFFFFFFFFFFFFFFFFFFFFFFFFFFFFFFFFFFFFFFFF
310
FFFFFFFFFFFFFFFFFFFFFFFFFFFFFFFFFFFFFFFFFFFFFFFFFFFFFFFFFFFFFFFF
310
FFFFFFFFFFFFFFFFF000FFFFFFFFFFFFFFFFFFFFFFFFFFFFFFFFFFFFFFFFFFFF
310
FFFFFFFFFFFFFFFFFFFFFFFFFFFFFFFFFFFFFFFFFFFFFFFFFFFFFFFFFFFFFFFF
310
FFFFFFFFFFFFFFFFFFFFFFFFFFFFFFFFFFFFFFFFFFFFFFFFFFFFFFFFFFFFFFFF
310
F000FFFFFFFFFFFFFFFFFFFFFFFFFFFFFFFFFFFFFFFFFFFFFFFFFFFFFFFFFFFF
310
FFFFFFFFFFFFFFFFFFFFFFFFFFFFFFFFFFFFFFFFFFFFFFFFFFFFFFFFFFFFFFFF
310
FFFFFFFFFFFFFFFFFFFFFFFFFFFFFFFFFFFFFFFFFFFFFFFFF000FFFFFFFFFFFF
310
FFFFFFFFFFFFFFFFFFFFFFFFFFFFFFFFFFFFFFFFFFFFFFFFFFFFFFFFFFFFFFFF
310
FFFFFFFFFFFFFFFFFFFFFFFFFFFFFFFFFFFFFFFFFFFFFFFFFFFFFFFFFFFFFFFF
310
FFFFFFFFFFFFFFFFFFFFFFFFFFFFFFFFF000FFFFFFFFFFFFFFFFFFFFFFFFFFFF
310
FFFFFFFFFFFFFFFFFFFFFFFFFFFFFFFFFFFFFFFFFFFFFFFFFFFFFFFFFFFFFFFF
310
FFFFFFFFFFFFFFFFFFFFFFFFFFFFFFFFFFFFFFFFFFFFFFFFFFFFFFFFFFFFFFFF
310
FFFFFFFFFFFFFFFFF000FFFFF80003FFFFFFFFFFFFFFFFFFFFFFFFFFFFFFFFFF
310
FFFFF00007FFFFFFFFFF00007FFFFFF800000000000000007FFFFFFFFFFFFFFF
310
FFFFFFFC001FFFFFFFFFFFFFFC001FFFFFFFFFFFFFFFFFFFFFFFFFFE0007FFFF
310
F000FFFF8000007FFFFFFFF8000FFFFFC0007FFFFF80007FFFFF0000007FFFFF
310
FFF8000007FFFFF800000000000000007FFFFFF0001FFFFFFFFFFFC00001FFFF
310
FFFFFFFFC00001FFFFFFFF000000000003FFFFE000007FFFF000FFFE0000000F
310
FFFFFFF0000FFFFF80007FFFFF80007FFFFC0000001FFFFFFFC0000001FFFFF8
310
00000000000000007FFFFFF0001FFFFFFFFFFE0000003FFFFFFFFFFE0000003F
310
FFFFFF000000000003FFFF0000000FFFF000FFF800000003FFFFFFF00007FFFF
310
80007FFFFF80007FFFF000000007FFFFFF000000003FFFF80000000000000000
310
7FFFFFF0001FFFFFFFFFF80000000FFFFFFFFFF80000000FFFFFFF0000000000
310
03FFFC00000003FFF000FFE000000000FFFFFFF00007FFFF80003FFFFF80007F
310
FFC000000001FFFFFC000000001FFFF800000000000000007FFFFFF0001FFFFF
310
FFFFE000000003FFFFFFFFE000000003FFFFFF000000000003FFF000000000FF
310
F000FF80000000007FFFFFF00007FFFF80003FFFFF80007FFF8000000000FFFF
310
F80000000007FFF800000000000000007FFFFFF0001FFFFFFFFFC000000001FF
310
FFFFFFC000000001FFFFFF000000000003FFC0000000007FF000FF0000000000
310
3FFFFFE00007FFFF00003FFFFF80007FFE00000000003FFFF00000000003FFF8
310
00000000000000007FFFFFF0001FFFFFFFFF8000000000FFFFFFFF8000000000
310
FFFFFF000000000003FF80000000003FF000FE00000000001FFFFFE00003FFFF
310
00003FFFFF80007FFC00000000001FFFE00000000001FFF8000001FFFE000000
310
7FFFFFF0001FFFFFFFFE00000000003FFFFFFE00000000003FFFFF0000000000
310
03FF00000000001FF000FC00000000000FFFFFE00003FFFF00001FFFFF80007F
310
F800000000001FFFC00000000000FFF8000001FFFE0000007FFFFFF0001FFFFF
310
FFFC00000000001FFFFFFC00000000001FFFFF000000000003FE00000000000F
310
F000F8000000000007FFFFE00003FFFF00001FFFFF80007FF800000000000FFF
310
800000000000FFF8000001FFFE0000007FFFFFF0001FFFFFFFF800000000000F
310
FFFFF800000000000FFFFF000000000003FC000000000007F000F80000000000
310
03FFFFC00003FFFE00001FFFFF80007FF0000000000007FF0000000000007FF8
310
000001FFFE0000007FFFFFF0001FFFFFFFF0000000000007FFFFF00000000000
310
07FFFF000000000003F8000000000003F000F0000000000003FFFFC00001FFFE
310
00001FFFFF80007FE0000000000007FE0000000000003FF8000001FFFE000000
310
7FFFFFF0001FFFFFFFF0000000000007FFFFF0000000000007FFFF0000000000
310
03F800001F800003F000E00001FFF00001FFFFC00001FFFE00000FFFFF80007F
310
E00001FFE00003FE00001FFF00003FF8000001FFFE0000007FFFFFF0001FFFFF
310
FFE000003E000003FFFFE000003E000003FFFF000000000003F00001FFF80001
310
F000E00007FFFC0001FFFFC00001FFFE00000FFFFF80007FC0000FFFFC0003FC
310
0000FFFFC0001FF8000001FFFE0000007FFFFFF0001FFFFFFFC00003FFE00001
310
FFFFC00003FFE00001FFFF0001FFFFFFFFF00007FFFE0001F000E0000FFFFF00
310
00FFFF800001FFFC00000FFFFF80007FC0001FFFFE0001FC0001FFFFE0001FF8
310
000001FFFE0000007FFFFFF0001FFFFFFF80000FFFF80000FFFF80000FFFF800
310
00FFFF0003FFFFFFFFE0000FFFFF8000F000C0003FFFFF8000FFFF800000FFFC
310
000007FFFF80007F80003FFFFF0001FC0003FFFFF0001FF8000001FFFE000000
310
7FFFFFF0001FFFFFFF80003FFFFE0000FFFF80003FFFFE0000FFFF0003FFFFFF
310
FFE0003FFFFF8000F000C0003FFFFF8000FFFF800000FFFC000007FFFF80007F
310
80007FFFFF8001F80007FFFFF8000FF8000001FFFE0000007FFFFFF0001FFFFF
310
FF00007FFFFF00007FFF00007FFFFF00007FFF0003FFFFFFFFE0003FFFFFC000
310
F000C0007FFFFFC000FFFF000000FFFC000007FFFF80007F8000FFFFFF8000F8
310
000FFFFFF8000FF8000001FFFE0000007FFFFFF0001FFFFFFF0000FFFFFF8000
310
7FFF0000FFFFFF80007FFF0003FFFFFFFFC0007FFFFFC00070008000FFFFFFC0
310
00FFFF000000FFF8000007FFFF80007F8000FFFFFF8000F8000FFFFFF8000FF8
310
000001FFFE0000007FFFFFF0001FFFFFFE0001FFFFFFC0003FFE0001FFFFFFC0
310
003FFF0003FFFFFFFFC0007FFFFFE00070008000FFFFFFC0007FFF0000007FF8
310
000003FFFF80007F0001FFFFFF8000F8000FFFFFF8000FF8000001FFFE000000
310
7FFFFFF0001FFFFFFE0001FFFFFFC0003FFE0001FFFFFFC0003FFF0003FFFFFF
310
FFC000FFFFFFE00070008000FFFFFFC0007FFF0000007FF8000003FFFF80007F
310
0001FFFFFF8000F8001FFFFFF8000FF8000001FFFE0000007FFFFFF0001FFFFF
310
FE0003FFFFFFE0003FFE0003FFFFFFE0003FFF0003FFFFFFFFC000FFFFFFE000
310
70008000FFFFFFC0007FFE0000007FF8000003FFFF80007F0001FFFFFF8000F0
310
001FFFFFF8000FF8000001FFFE0000007FFFFFF0001FFFFFFC0003FFFFFFE000
310
1FFC0003FFFFFFE0001FFF0003FFFFFFFFC000FFFFFFC00070008000FFFFFF80
310
007FFE0000007FF0000003FFFF80007F0001FFFFFF0000F0001FFFFFF8000FF8
310
000001FFFE0000007FFFFFF0001FFFFFFC0007FFFFFFF0001FFC0007FFFFFFF0
310
001FFF0003FFFFFFFFC000FFFFFFC00070008001FFFFFF0000FFFE0000003FF0
310
000001FFFF80007F0001FFFFFF0000F8001FFFFFF0000FF8000001FFFE000000
310
7FFFFFF0001FFFFFFC0007FFFFFFF0001FFC0007FFFFFFF0001FFF0003FFFFFF
310
FFC001FFFFFF80007000FFFFFFFFFE0000FFFE0008003FF0008001FFFF80007F
310
FFFFFFFFFC0000FFFFFFFFFFE0000FF8000001FFFE0000007FFFFFF0001FFFFF
310
F8000FFFFFFFF8000FF8000FFFFFFFF8000FFF0003FFFFFFFFFFFFFFFFFF0000
310
7000FFFFFFFFFC0000FFFC0008003FF0008001FFFF80007FFFFFFFFFF80001FF
310
FFFFFFFF80000FF8000001FFFE0000007FFFFFF0001FFFFFF8000FFFFFFFF800
310
0FF8000FFFFFFFF8000FFF0003FFFFFFFFFFFFFFFFFE0000F000FFFFFFFFE000
310
00FFFC000C003FE000C001FFFF80007FFFFFFFFFC00001FFFFFFFFFE00001FF8
310
000001FFFE0000007FFFFFF0001FFFFFF8000FFFFFFFF8000FF8000FFFFFFFF8
310
000FFF0003FFFFFFFFFFFFFFFFF00000F000FFFFFFFE000001FFFC000C001FE0
310
00C000FFFF80007FFFFFFFFE000001FFFFFFFFE000001FF80FFFFFFFFFFFFFC0
310
7FFFFFF0001FFFFFF8000FFFFFFFF8000FF8000FFFFFFFF8000FFF0003FFFFFF
310
FFFFFFFFFF800000F000FFFFFFC0000001FFFC001C001FE001C000FFFF80007F
310
FFFFFF80000003FFFFFFF80000001FF80FFFFFFFFFFFFFC07FFFFFF0001FFFFF
310
F8001FFFFFFFFC000FF8001FFFFFFFFC000FFF0003FFFFFFFFFFFFFFF0000001
310
F000FFFFF800000001FFF8001C001FE001C000FFFF80007FFFFFF800000003FF
310
FFFF800000003FF80FFFFFFFFFFFFFC07FFFFFF0001FFFFFF8001FFFFFFFFC00
310
0FF8001FFFFFFFFC000FFF0003FFFFFFFFFFFFFE00000001F000FFFFC0000000
310
03FFF8001E001FC001E000FFFF80007FFFFF8000000007FFFFFC000000003FF8
310
0FFFFFFFFFFFFFC07FFFFFF0001FFFFFF8001FFFFFFFFC000FF8001FFFFFFFFC
310
000FFF0003FFFFFFFFFFFFE000000003F000FFFE0000000007FFF8001E000FC0
310
01E0007FFF80007FFFFE0000000007FFFFE0000000007FF80FFFFFFFFFFFFFC0
310
7FFFFFF0001FFFFFF0001FFFFFFFFC0007F0001FFFFFFFFC0007FF0003FFFFFF
310
FFFFFF0000000003F000FFF80000000007FFF8001E000FC003E0007FFF80007F
310
FFF0000000000FFFFF8000000000FFF80FFFFFFFFFFFFFC07FFFFFF0001FFFFF
310
F0001FFFFFFFFC0007F0001FFFFFFFFC0007FF0003FFFFFFFFFFFC0000000007
310
F000FFE0000000000FFFF0003E000FC003E0007FFF80007FFFC0000000001FFF
310
FE0000000001FFF80FFFFFFFFFFFFFC07FFFFFF0001FFFFFF0001FFFFFFFFC00
310
07F0001FFFFFFFFC0007FF0003FFFFFFFFFFF0000000000FF000FFC000000000
310
1FFFF0003F000F8003F0003FFF80007FFF80000000003FFFF80000000003FFF8
310
0FFFFFFFFFFFFFC07FFFFFF0001FFFFFF0001FFFFFFFFC0007F0001FFFFFFFFC
310
0007FF0003FFFFFFFFFFE0000000001FF000FF00000000007FFFF0003F000780
310
03F0003FFF80007FFF00000000007FFFF00000000007FFF80FFFFFFFFFFFFFC0
310
7FFFFFF0001FFFFFF0001FFFFFFFFC0007F0001FFFFFFFFC0007FF0003FFFFFF
310
FFFF80000000007FF000FE0000000000FFFFE0003F00078007F0003FFF80007F
310
FE0000000001FFFFE0000000001FFFF80FFFFFFFFFFFFFC07FFFFFF0001FFFFF
310
F0001FFFFFFFFC0007F0001FFFFFFFFC0007FF0003FFFFFFFFFF0000000000FF
310
F000FC0000000003FFFFE0007F00078007F0003FFF80007FFC0000000007FFFF
310
C0000000007FFFF80FFFFFFFFFFFFFC07FFFFFF0001FFFFFF8001FFFFFFFFC00
310
0FF8001FFFFFFFFC000FFF0003FFFFFFFFFE0000000003FFF000FC000000000F
310
FFFFE0007F80070007F8001FFF80007FF8000000001FFFFF8000000001FFFFF8
310
0FFFFFFFFFFFFFC07FFFFFF0001FFFFFF8001FFFFFFFFC000FF8001FFFFFFFFC
310
000FFF0003FFFFFFFFFC000000000FFFF000F8000000007FFFFFE0007F800700
310
07F8001FFF80007FF000000000FFFFFF800000000FFFFFF80FFFFFFFFFFFFFC0
310
7FFFFFF0001FFFFFF8000FFFFFFFF8000FF8000FFFFFFFF8000FFF0003FFFFFF
310
FFFC000000007FFFF000F800000007FFFFFFC0007F8003000FF8001FFF80007F
310
F000000007FFFFFF000000007FFFFFF80FFFFFFFFFFFFFC07FFFFFF0001FFFFF
310
F8000FFFFFFFF8000FF8000FFFFFFFF8000FFF0003FFFFFFFFF80000000FFFFF
310
F000F0000000FFFFFFFFC000FF8003000FF8001FFF80007FE0000000FFFFFFFF
310
0000000FFFFFFFF8000001FFFE0000007FFFFFF0001FFFFFF8000FFFFFFFF800
310
0FF8000FFFFFFFF8000FFF0003FFFFFFFFF8000000FFFFFFF000F000000FFFFF
310
FFFFC000FFC002000FF8000FFF80007FE000001FFFFFFFFE000001FFFFFFFFF8
310
000001FFFE0000007FFFFFF0001FFFFFF8000FFFFFFFF8000FF8000FFFFFFFF8
310
000FFF0003FFFFFFFFF000001FFFFFFFF000E00000FFFFFFFFFFC000FFC00200
310
0FFC000FFF80007FE00001FFFFFFFFFE00001FFFFFFFFFF8000001FFFE000000
310
7FFFFFF0001FFFFFFC000FFFFFFFF8001FFC000FFFFFFFF8001FFF0003FFFFFF
310
FFF00001FFFFFFFFF000E00007FFFFFFFFFF8000FFC000001FFC000FFF80007F
310
C0000FFFFFFFFFFE0000FFFFFFFFFFF8000001FFFE0000007FFFFFF0001FFFFF
310
FC0007FFFFFFF0001FFC0007FFFFFFF0001FFF0003FFFFFFFFF00007FFFFFFFF
310
F000E0001FFFFFFFFFFF8000FFC000001FFC000FFF80007FC0003FFFFFFFFFFE
310
0001FFFFFFFFFFF8000001FFFE0000007FFFFFF0001FFFFFFC0007FFFFFFF000
310
1FFC0007FFFFFFF0001FFF0003FFFFFFFFF0001FFFFFFFFFF000E0003FFFFF00
310
03FF8001FFE000001FFC0007FF80007FC0007FFFFF0007FC0003FFFFF0003FF8
310
000001FFFE0000007FFFFFF0001FFFFFFC0003FFFFFFE0001FFC0003FFFFFFE0
310
001FFF0003FFFFFFFFF0003FFFFFFFFFF000E0003FFFFF0001FF8001FFE00000
310
1FFE0007FF80007FC0007FFFFE0003FC0007FFFFE0003FF8000001FFFE000000
310
7FFFFFF0001FFFFFFE0003FFFFFFE0003FFE0003FFFFFFE0003FFF0003FFFFFF
310
FFF0003FFFFF8001F000E0003FFFFF0001FF0001FFE000001FFE0007FF80007F
310
C0007FFFFE0003FC0007FFFFE0003FF8000001FFFE0000007FFFFFF0001FFFFF
310
FE0001FFFFFFC0003FFE0001FFFFFFC0003FFF0003FFFFFFFFF0003FFFFF0001
310
F000E0003FFFFF0003FF0001FFE000003FFE0007FF80007FC0007FFFFE0003FC
310
0007FFFFE0003FF8000001FFFE0000007FFFFFF0001FFFFFFF0001FFFFFFC000
310
7FFF0001FFFFFFC0007FFF0003FFFFFFFFF0003FFFFF0001F000E0003FFFFE00
310
03FF0003FFF000003FFE0003FF80007FC0007FFFFC0003FE0007FFFFE0003FF8
310
000001FFFE0000007FFFFFF0001FFFFFFF0000FFFFFF80007FFF0000FFFFFF80
310
007FFF0003FFFFFFFFF0003FFFFF0001F000E0003FFFFE0003FF0003FFF00000
310
3FFF0003FF80007FC0007FFFFC0007FE0007FFFFC0003FF8000001FFFE000000
310
7FFFFFF0001FFFFFFF80007FFFFF0000FFFF80007FFFFF0000FFFF0003FFFFFF
310
FFF0003FFFFF0003F000E0003FFFFC0003FE0003FFF000003FFF0003FF80007F
310
E0003FFFF80007FE0003FFFFC0007FF8000001FFFE0000007FFFFFF0001FFFFF
310
FF80003FFFFE0000FFFF80003FFFFE0000FFFF0003FFFFFFFFF0001FFFFE0003
310
F000F0001FFFF80003FE0003FFF000007FFF0001FF80007FE0003FFFF00007FE
310
0001FFFF80007FF8000001FFFE0000007FFFFFF0001FFFFFFFC0000FFFF80001
310
FFFFC0000FFFF80001FFFF0003FFFFFFFFF0001FFFFC0003F000F0000FFFF000
310
07FE0007FFF800007FFF0001FF80007FE0001FFFE00007FF0000FFFE00007FF8
310
000001FFFE0000007FFFFFF0001FFFFFFFC00003FFE00001FFFFC00003FFE000
310
01FFFF0003FFFFFFFFF8000FFFF80003F000F00003FFC00007FC0007FFF80000
310
7FFF8001FF80007FF00007FF80000FFF00007FF80000FFF8000001FFFE000000
310
7F80000000000001FFE000003E000003FFFFE000003E000003FFFF0003FFFFFF
310
FFF80003FFE00007F000F800000000000FFC0007FFF800007FFF8001FF80007F
310
F000000000000FFF000000000000FFF8000001FFFE0000007F80000000000001
310
FFF0000000000007FFFFF0000000000007FFFF0003FFFFFFFFFC00007E000007
310
F000F800000000000FFC0007FFF80000FFFF8000FF80007FF800000000001FFF
310
800000000001FFF8000001FFFE0000007F80000000000001FFF800000000000F
310
FFFFF800000000000FFFFF0003FFFFFFFFFC00000000000FF000FC0000000000
310
1FFC0007FFFC0000FFFF8000FF80007FF800000000003FFFC00000000001FFF8
310
000001FFFE0000007F80000000000001FFF800000000000FFFFFF80000000000
310
0FFFFF0003FFFFFFFFFE00000000001FF000FE00000000003FF8000FFFFC0000
310
FFFF8000FF80007FFC00000000003FFFC00000000003FFF8000001FFFE000000
310
7F80000000000001FFFC00000000001FFFFFFC00000000001FFFFF0003FFFFFF
310
FFFF00000000001FF000FF00000000003FF8000FFFFC0000FFFFC000FF80007F
310
FE00000000007FFFE00000000007FFF8000001FFFE0000007F80000000000001
310
FFFE00000000003FFFFFFE00000000003FFFFF0003FFFFFFFFFF80000000003F
310
F000FF80000000007FF8000FFFFC0001FFFFC0007F80007FFF0000000000FFFF
310
F0000000000FFFF800000000000000007F80000000000001FFFF8000000000FF
310
FFFFFF8000000000FFFFFF0003FFFFFFFFFFC0000000007FF000FFC000000000
310
FFF8000FFFFE0001FFFFC0007F80007FFF8000000001FFFFF8000000001FFFF8
310
00000000000000007F80000000000001FFFFC000000001FFFFFFFFC000000001
310
FFFFFF0003FFFFFFFFFFE000000000FFF000FFE000000003FFF0001FFFFE0001
310
FFFFC0007F80007FFFC000000007FFFFFE000000003FFFF80000000000000000
310
7F80000000000001FFFFE000000003FFFFFFFFE000000003FFFFFF0003FFFFFF
310
FFFFF000000003FFF000FFF80000000FFFF0001FFFFE0001FFFFE0007F80007F
310
FFF00000000FFFFFFF00000000FFFFF800000000000000007F80000000000001
310
FFFFF80000000FFFFFFFFFF80000000FFFFFFF0003FFFFFFFFFFFC0000000FFF
310
F000FFFE0000003FFFF0001FFFFE0003FFFFE0003F80007FFFFC0000003FFFFF
310
FFC0000003FFFFF800000000000000007F80000000000001FFFFFE0000003FFF
310
FFFFFFFE0000003FFFFFFF0003FFFFFFFFFFFF0000003FFFF000FFFF800000FF
310
FFF0001FFFFF0003FFFFE0003F80007FFFFF000001FFFFFFFFF800001FFFFFF8
310
00000000000000007F80000000000001FFFFFFC00001FFFFFFFFFFFFC00001FF
310
FFFFFF0003FFFFFFFFFFFFC00000FFFFF000FFFFF8000FFFFFFFFFFFFFFFFFFF
310
FFFFFFFFFFFFFFFFFFFFF0001FFFFFFFFFFF0000FFFFFFF80000000000000000
310
7FFFFFFFFFFFFFFFFFFFFFFC001FFFFFFFFFFFFFFC001FFFFFFFFFFFFFFFFFFF
310
FFFFFFFC001FFFFFF000FFFFFFFFFFFFFFFFFFFFFFFFFFFFFFFFFFFFFFFFFFFF
310
FFFFFFFFFFFFFFFFFFFFFFFFFFFFFFFFFFFFFFFFFFFFFFFFFFFFFFFFFFFFFFFF
310
FFFFFFFFFFFFFFFFFFFFFFFFFFFFFFFFFFFFFFFFFFFFFFFFFFFFFFFFFFFFFFFF
310
F000FFFFFFFFFFFFFFFFFFFFFFFFFFFFFFFFFFFFFFFFFFFFFFFFFFFFFFFFFFFF
310
FFFFFFFFFFFFFFFFFFFFFFFFFFFFFFFFFFFFFFFFFFFFFFFFFFFFFFFFFFFFFFFF
310
FFFFFFFFFFFFFFFFFFFFFFFFFFFFFFFFFFFFFFFFFFFFFFFFF000FFFFFFFFFFFF
310
FFFFFFFFFFFFFFFFFFFFFFFFFFFFFFFFFFFFFFFFFFFFFFFFFFFFFFFFFFFFFFFF
310
FFFFFFFFFFFFFFFFFFFFFFFFFFFFFFFFFFFFFFFFFFFFFFFFFFFFFFFFFFFFFFFF
310
FFFFFFFFFFFFFFFFFFFFFFFFFFFFFFFFF000FFFFFFFFFFFFFFFFFFFFFFFFFFFF
310
FFFFFFFFFFFFFFFFFFFFFFFFFFFFFFFFFFFFFFFFFFFFFFFFFFFFFFFFFFFFFFFF
310
FFFFFFFFFFFFFFFFFFFFFFFFFFFFFFFFFFFFFFFFFFFFFFFFFFFFFFFFFFFFFFFF
310
FFFFFFFFFFFFFFFFF000FFFFFFFFFFFFFFFFFFFFFFFFFFFFFFFFFFFFFFFFFFFF
310
FFFFFFFFFFFFFFFFFFFFFFFFFFFFFFFFFFFFFFFFFFFFFFFFFFFFFFFFFFFFFFFF
310
FFFFFFFFFFFFFFFFFFFFFFFFFFFFFFFFFFFFFFFFFFFFFFFFFFFFFFFFFFFFFFFF
310
F000FFFFFFFFFFFFFFFFFFFFFFFFFFFFFFFFFFFFFFFFFFFFFFFFFFFFFFFFFFFF
310
FFFFFFFFFFFFFFFFFFFFFFFFFFFFFFFFFFFFFFFFFFFFFFFFFFFFFFFFFFFFFFFF
310
FFFFFFFFFFFFFFFFFFFFFFFFFFFFFFFFFFFFFFFFFFFFFFFFF000FFFFFFFFFFFF
310
FFFFFFFFFFFFFFFFFFFFFFFFFFFFFFFFFFFFFFFFFFFFFFFFFFFFFFFFFFFFFFFF
310
FFFFFFFFFFFFFFFFFFFFFFFFFFFFFFFFFFFFFFFFFFFFFFFFFFFFFFFFFFFFFFFF
310
FFFFFFFFFFFFFFFFFFFFFFFFFFFFFFFFF000FFFFFFFFFFFFFFFFFFFFFFFFFFFF
310
FFFFFFFFFFFFFFFFFFFFFFFFFFFFFFFFFFFFFFFFFFFFFFFFFFFFFFFFFFFFFFFF
310
FFFFFFFFFFFFFFFFFFFFFFFFFFFFFFFFFFFFFFFFFFFFFFFFFFFFFFFFFFFFFFFF
310
FFFFFFFFFFFFFFFFF000FFFFFFFFFFFFFFFFFFFFFFFFFFFFFFFFFFFFFFFFFFFF
310
FFFFFFFFFFFFFFFFFFFFFFFFFFFFFFFFFFFFFFFFFFFFFFFFFFFFFFFFFFFFFFFF
310
FFFFFFFFFFFFFFFFFFFFFFFFFFFFFFFFFFFFFFFFFFFFFFFFFFFFFFFFFFFFFFFF
310
F000FFFFFFFFFFFFFFFFFFFFFFFFFFFFFFFFFFFFFFFFFFFFFFFFFFFFFFFFFFFF
310
FFFFFFFFFFFFFFFFFFFFFFFFFFFFFFFFFFFFFFFFFFFFFFFFFFFFFFFFFFFFFFFF
310
FFFFFFFFFFFFFFFFFFFFFFFFFFFFFFFFFFFFFFFFFFFFFFFFF000FFFFFFFFFFFF
310
FFFFFFFFFFFFFFFFFFFFFFFFFFFFFFFFFFFFFFFFFFFFFFFFFFFFFFFFFFFFFFFF
310
FFFFFFFFFFFFFFFFFFFFFFFFFFFFFFFFFFFFFFFFFFFFFFFFFFFFFFFFFFFFFFFF
310
FFFFFFFFFFFFFFFFFFFFFFFFFFFFFFFFF000FFFFFFFFFFFFFFFFFFFFFFFFFFFF
310
FFFFFFFFFFFFFFFFFFFFFFFFFFFFFFFFFFFFFFFFFFFFFFFFFFFFFFFFFFFFFFFF
310
FFFFFFFFFFFFFFFFFFFFFFFFFFFFFFFFFFFFFFFFFFFFFFFFFFFFFFFFFFFFFFFF
310
FFFFFFFFFFFFFFFFF000FFFFFFFFFFFFFFFFFFFFFFFFFFFFFFFFFFFFFFFFFFFF
310
FFFFFFFFFFFFFFFFFFFFFFFFFFFFFFFFFFFFFFFFFFFFFFFFFFFFFFFFFFFFFFFF
310
FFFFFFFFFFFFFFFFFFFFFFFFFFFFFFFFFFFFFFFFFFFFFFFFFFFFFFFFFFFFFFFF
310
F000FFFFFFFFFFFFFFFFFFFFFFFFFFFFFFFFFFFFFFFFFFFFFFFFFFFFFFFFFFFF
310
FFFFFFFFFFFFFFFFFFFFFFFFFFFFFFFFFFFFFFFFFFFFFFFFFFFFFFFFFFFFFFFF
310
FFFFFFFFFFFFFFFFFFFFFFFFFFFFFFFFFFFFFFFFFFFFFFFFF000FFFFFFFFFFFF
310
FFFFFFFFFFFFFFFFFFFFFFFFFFFFFFFFFFFFFFFFFFFFFFFFFFFFFFFFFFFFFFFF
310
FFFFFFFFFFFFFFFFFFFFFFFFFFFFFFFFFFFFFFFFFFFFFFFFFFFFFFFFFFFFFFFF
310
FFFFFFFFFFFFFFFFFFFFFFFFFFFFFFFFF000FFFFFFFFFFFFFFFFFFFFFFFFFFFF
310
FFFFFFFFFFFFFFFFFFFFFFFFFFFFFFFFFFFFFFFFFFFFFFFFFFFFFFFFFFFFFFFF
310
FFFFFFFFFFFFFFFFFFFFFFFFFFFFFFFFFFFFFFFFFFFFFFFFFFFFFFFFFFFFFFFF
310
FFFFFFFFFFFFFFFFF000FFFFFFFFFFFFFFFFFFFFFFFFFFFFFFFFFFFFFFFFFFFF
310
FFFFFFFFFFFFFFFFFFFFFFFFFFFFFFFFFFFFFFFFFFFFFFFFFFFFFFFFFFFFFFFF
310
FFFFFFFFFFFFFFFFFFFFFFFFFFFFFFFFFFFFFFFFFFFFFFFFFFFFFFFFFFFFFFFF
310
F000FFFFFFFFFFFFFFFFFFFFFFFFFFFFFFFFFFFFFFFFFFFFFFFFFFFFFFFFFFFF
310
FFFFFFFFFFFFFFFFFFFFFFFFFFFFFFFFFFFFFFFFFFFFFFFFFFFFFFFFFFFFFFFF
310
FFFFFFFFFFFFFFFFFFFFFFFFFFFFFFFFFFFFFFFFFFFFFFFFF000FFFFFFFFFFFF
310
FFFFFFFFFFFFFFFFFFFFFFFFFFFFFFFFFFFFFFFFFFFFFFFFFFFFFFFFFFFFFFFF
310
FFFFFFFFFFFFFFFFFFFFFFFFFFFFFFFFFFFFFFFFFFFFFFFFFFFFFFFFFFFFFFFF
310
FFFFFFFFFFFFFFFFFFFFFFFFFFFFFFFFF000FFFFFFFFFFFFFFFFFFFFFFFFFFFF
310
FFFFFFFFFFFFFFFFFFFFFFFFFFFFFFFFFFFFFFFFFFFFFFFFFFFFFFFFFFFFFFFF
310
FFFFFFFFFFFFFFFFFFFFFFFFFFFFFFFFFFFFFFFFFFFFFFFFFFFFFFFFFFFFFFFF
310
FFFFFFFFFFFFFFFFF000FFFFFFFFFFFFFFFFFFFFFFFFFFFFFFFFFFFFFFFFFFFF
310
FFFFFFFFFFFFFFFFFFFFFFFFFFFFFFFFFFFFFFFFFFFFFFFFFFFFFFFFFFFFFFFF
310
FFFFFFFFFFFFFFFFFFFFFFFFFFFFFFFFFFFFFFFFFFFFFFFFFFFFFFFFFFFFFFFF
310
F000FFFFFFFFFFFFFFFFFFFFFFFFFFFFFFFFFFFFFFFFFFFFFFFFFFFFFFFFFFFF
310
FFFFFFFFFFFFFFFFFFFFFFFFFFFFFFFFFFFFFFFFFFFFFFFFFFFFFFFFFFFFFFFF
310
FFFFFFFFFFFFFFFFFFFFFFFFFFFFFFFFFFFFFFFFFFFFFFFFF000FFFFFFFFFFFF
310
FFFFFFFFFFFFFFFFFFFFFFFFFFFFFFFFFFFFFFFFFFFFFFFFFFFFFFFFFFFFFFFF
310
FFFFFFFFFFFFFFFFFFFFFFFFFFFFFFFFFFFFFFFFFFFFFFFFFFFFFFFFFFFFFFFF
310
FFFFFFFFFFFFFFFFFFFFFFFFFFFFFFFFF0000000000000000000000000000000
310
0000000000000000000000000000000000000000000000000000000000000000
310
0000000000000000000000000000000000000000000000000000000000000000
310
0000000000000000000000000000000000000000000000000000000000000000
310
0000000000000000000000000000000000000000000000000000000000000000
310
0000000000000000000000000000000000000000000000000000000000000000
310
0000000000000000000000000000000000000000000000000000000000000000
310
0000000000000000000000000000000000000000000000000000000000000000
310
0000000000000000000000000000000000000000000000000000000000000000
310
0000000000000000000000000000000000000000000000000000000000000000
310
0000000000000000000000000000000000000000000000000000000000000000
310
0000000000000000000000000000000000000000000000000000000000000000
310
0000000000000000000000000000000000000000000000000000000000000000
310
0000000000000000000000000000000000000000000000000000000000000000
310
0000000000000000000000000000000000000000000000000000000000000000
310
0000000000000000000000000000000000000000000000000000000000000000
  1
OLE
  0
ENDSEC
  0
SECTION
  2
OBJECTS
  0
DICTIONARY
  5
C
330
0
100
AcDbDictionary
281
     1
  3
ACAD_GROUP
350
D
  3
ACAD_LAYOUT
350
1A
  3
ACAD_MLINESTYLE
350
17
  3
ACAD_PLOTSETTINGS
350
19
  3
ACAD_PLOTSTYLENAME
350
E
  3
ACAD_SCALELIST
350
47
  0
DICTIONARY
  5
D
102
{ACAD_REACTORS
330
C
102
}
330
C
100
AcDbDictionary
281
     1
  0
DICTIONARY
  5
1A
102
{ACAD_REACTORS
330
C
102
}
330
C
100
AcDbDictionary
281
     1
  3
Layout1
350
1E
  3
Layout2
350
26
  3
Model
350
22
  0
DICTIONARY
  5
17
102
{ACAD_REACTORS
330
C
102
}
330
C
100
AcDbDictionary
281
     1
  3
Standard
350
18
  0
DICTIONARY
  5
19
102
{ACAD_REACTORS
330
C
102
}
330
C
100
AcDbDictionary
281
     1
  0
ACDBDICTIONARYWDFLT
  5
E
102
{ACAD_REACTORS
330
C
102
}
330
C
100
AcDbDictionary
281
     1
  3
Normal
350
F
100
AcDbDictionaryWithDefault
340
F
  0
DICTIONARY
  5
47
102
{ACAD_REACTORS
330
C
102
}
330
C
100
AcDbDictionary
281
     1
  3
A0
350
48
  3
A1
350
49
  3
A2
350
4A
  3
A3
350
4B
  3
A4
350
4C
  3
A5
350
4D
  3
A6
350
4E
  3
A7
350
4F
  3
A8
350
50
  3
A9
350
51
  3
B0
350
52
  3
B1
350
53
  3
B2
350
54
  3
B3
350
55
  3
B4
350
56
  3
B5
350
57
  3
B6
350
58
  3
B7
350
59
  3
B8
350
5A
  3
B9
350
5B
  3
C0
350
5C
  3
C1
350
5D
  3
C2
350
5E
  3
C3
350
5F
  3
C4
350
60
  3
C5
350
61
  3
C6
350
62
  3
C7
350
63
  3
C8
350
64
  3
C9
350
65
  3
D0
350
66
  3
D1
350
67
  3
D2
350
68
  0
LAYOUT
  5
1E
102
{ACAD_REACTORS
330
1A
102
}
330
1A
100
AcDbPlotSettings
  1

  2
none_device
  4

  6

 40
0.0
 41
0.0
 42
0.0
 43
0.0
 44
0.0
 45
0.0
 46
0.0
 47
0.0
 48
0.0
 49
0.0
140
0.0
141
0.0
142
1.0
143
1.0
 70
   688
 72
     1
 73
     0
 74
     5
  7

 75
    16
147
1.0
148
0.0
149
0.0
100
AcDbLayout
  1
Layout1
 70
     1
 71
     1
 10
0.0
 20
0.0
 11
420.0
 21
297.0
 12
0.0
 22
0.0
 32
0.0
 14
1.0000000000E+20
 24
1.0000000000E+20
 34
1.0000000000E+20
 15
-1.0000000000E+20
 25
-1.0000000000E+20
 35
-1.0000000000E+20
146
0.0
 13
0.0
 23
0.0
 33
0.0
 16
1.0
 26
0.0
 36
0.0
 17
0.0
 27
1.0
 37
0.0
 76
     0
330
1B
  0
LAYOUT
  5
26
102
{ACAD_REACTORS
330
1A
102
}
330
1A
100
AcDbPlotSettings
  1

  2
none_device
  4

  6

 40
0.0
 41
0.0
 42
0.0
 43
0.0
 44
0.0
 45
0.0
 46
0.0
 47
0.0
 48
0.0
 49
0.0
140
0.0
141
0.0
142
1.0
143
1.0
 70
   688
 72
     1
 73
     0
 74
     5
  7

 75
    16
147
1.0
148
0.0
149
0.0
100
AcDbLayout
  1
Layout2
 70
     1
 71
     2
 10
0.0
 20
0.0
 11
0.0
 21
0.0
 12
0.0
 22
0.0
 32
0.0
 14
0.0
 24
0.0
 34
0.0
 15
0.0
 25
0.0
 35
0.0
146
0.0
 13
0.0
 23
0.0
 33
0.0
 16
1.0
 26
0.0
 36
0.0
 17
0.0
 27
1.0
 37
0.0
 76
     0
330
23
  0
LAYOUT
  5
22
102
{ACAD_REACTORS
330
1A
102
}
330
1A
100
AcDbPlotSettings
  1

  2
none_device
  4
Letter_(8.50_x_11.00_Inches)
  6

 40
6.35
 41
6.35
 42
6.35000508
 43
6.35000508
 44
215.9
 45
279.4
 46
0.0
 47
0.0
 48
0.0
 49
0.0
140
0.0
141
0.0
142
1.0
143
1.0
 70
  1712
 72
     1
 73
     0
 74
     0
  7

 75
     0
147
1.0
148
0.0
149
0.0
100
AcDbLayout
  1
Model
 70
     1
 71
     0
 10
0.0
 20
0.0
 11
297.0
 21
210.0
 12
0.0
 22
0.0
 32
0.0
 14
0.0
 24
0.0
 34
0.0
 15
297.0
 25
210.0
 35
0.0
146
0.0
 13
0.0
 23
0.0
 33
0.0
 16
1.0
 26
0.0
 36
0.0
 17
0.0
 27
1.0
 37
0.0
 76
     0
330
1F
331
29
  0
MLINESTYLE
  5
18
102
{ACAD_REACTORS
330
17
102
}
330
17
100
AcDbMlineStyle
  2
Standard
 70
     0
  3

 62
   256
 51
90.0
 52
90.0
 71
     2
 49
0.5
 62
   256
  6
BYLAYER
 49
-0.5
 62
   256
  6
BYLAYER
  0
ACDBPLACEHOLDER
  5
F
102
{ACAD_REACTORS
330
E
102
}
330
E
  0
SCALE
  5
48
102
{ACAD_REACTORS
330
47
102
}
330
47
100
AcDbScale
 70
     0
300
1:1
140
1.0
141
1.0
290
     1
  0
SCALE
  5
49
102
{ACAD_REACTORS
330
47
102
}
330
47
100
AcDbScale
 70
     0
300
1:2
140
1.0
141
2.0
290
     0
  0
SCALE
  5
4A
102
{ACAD_REACTORS
330
47
102
}
330
47
100
AcDbScale
 70
     0
300
1:4
140
1.0
141
4.0
290
     0
  0
SCALE
  5
4B
102
{ACAD_REACTORS
330
47
102
}
330
47
100
AcDbScale
 70
     0
300
1:5
140
1.0
141
5.0
290
     0
  0
SCALE
  5
4C
102
{ACAD_REACTORS
330
47
102
}
330
47
100
AcDbScale
 70
     0
300
1:8
140
1.0
141
8.0
290
     0
  0
SCALE
  5
4D
102
{ACAD_REACTORS
330
47
102
}
330
47
100
AcDbScale
 70
     0
300
1:10
140
1.0
141
10.0
290
     0
  0
SCALE
  5
4E
102
{ACAD_REACTORS
330
47
102
}
330
47
100
AcDbScale
 70
     0
300
1:16
140
1.0
141
16.0
290
     0
  0
SCALE
  5
4F
102
{ACAD_REACTORS
330
47
102
}
330
47
100
AcDbScale
 70
     0
300
1:20
140
1.0
141
20.0
290
     0
  0
SCALE
  5
50
102
{ACAD_REACTORS
330
47
102
}
330
47
100
AcDbScale
 70
     0
300
1:30
140
1.0
141
30.0
290
     0
  0
SCALE
  5
51
102
{ACAD_REACTORS
330
47
102
}
330
47
100
AcDbScale
 70
     0
300
1:40
140
1.0
141
40.0
290
     0
  0
SCALE
  5
52
102
{ACAD_REACTORS
330
47
102
}
330
47
100
AcDbScale
 70
     0
300
1:50
140
1.0
141
50.0
290
     0
  0
SCALE
  5
53
102
{ACAD_REACTORS
330
47
102
}
330
47
100
AcDbScale
 70
     0
300
1:100
140
1.0
141
100.0
290
     0
  0
SCALE
  5
54
102
{ACAD_REACTORS
330
47
102
}
330
47
100
AcDbScale
 70
     0
300
2:1
140
2.0
141
1.0
290
     0
  0
SCALE
  5
55
102
{ACAD_REACTORS
330
47
102
}
330
47
100
AcDbScale
 70
     0
300
4:1
140
4.0
141
1.0
290
     0
  0
SCALE
  5
56
102
{ACAD_REACTORS
330
47
102
}
330
47
100
AcDbScale
 70
     0
300
8:1
140
8.0
141
1.0
290
     0
  0
SCALE
  5
57
102
{ACAD_REACTORS
330
47
102
}
330
47
100
AcDbScale
 70
     0
300
10:1
140
10.0
141
1.0
290
     0
  0
SCALE
  5
58
102
{ACAD_REACTORS
330
47
102
}
330
47
100
AcDbScale
 70
     0
300
100:1
140
100.0
141
1.0
290
     0
  0
SCALE
  5
59
102
{ACAD_REACTORS
330
47
102
}
330
47
100
AcDbScale
 70
     0
300
1/128" = 1'-0"
140
0.0078125
141
12.0
290
     0
  0
SCALE
  5
5A
102
{ACAD_REACTORS
330
47
102
}
330
47
100
AcDbScale
 70
     0
300
1/64" = 1'-0"
140
0.015625
141
12.0
290
     0
  0
SCALE
  5
5B
102
{ACAD_REACTORS
330
47
102
}
330
47
100
AcDbScale
 70
     0
300
1/32" = 1'-0"
140
0.03125
141
12.0
290
     0
  0
SCALE
  5
5C
102
{ACAD_REACTORS
330
47
102
}
330
47
100
AcDbScale
 70
     0
300
1/16" = 1'-0"
140
0.0625
141
12.0
290
     0
  0
SCALE
  5
5D
102
{ACAD_REACTORS
330
47
102
}
330
47
100
AcDbScale
 70
     0
300
3/32" = 1'-0"
140
0.09375
141
12.0
290
     0
  0
SCALE
  5
5E
102
{ACAD_REACTORS
330
47
102
}
330
47
100
AcDbScale
 70
     0
300
1/8" = 1'-0"
140
0.125
141
12.0
290
     0
  0
SCALE
  5
5F
102
{ACAD_REACTORS
330
47
102
}
330
47
100
AcDbScale
 70
     0
300
3/16" = 1'-0"
140
0.1875
141
12.0
290
     0
  0
SCALE
  5
60
102
{ACAD_REACTORS
330
47
102
}
330
47
100
AcDbScale
 70
     0
300
1/4" = 1'-0"
140
0.25
141
12.0
290
     0
  0
SCALE
  5
61
102
{ACAD_REACTORS
330
47
102
}
330
47
100
AcDbScale
 70
     0
300
3/8" = 1'-0"
140
0.375
141
12.0
290
     0
  0
SCALE
  5
62
102
{ACAD_REACTORS
330
47
102
}
330
47
100
AcDbScale
 70
     0
300
1/2" = 1'-0"
140
0.5
141
12.0
290
     0
  0
SCALE
  5
63
102
{ACAD_REACTORS
330
47
102
}
330
47
100
AcDbScale
 70
     0
300
3/4" = 1'-0"
140
0.75
141
12.0
290
     0
  0
SCALE
  5
64
102
{ACAD_REACTORS
330
47
102
}
330
47
100
AcDbScale
 70
     0
300
1" = 1'-0"
140
1.0
141
12.0
290
     0
  0
SCALE
  5
65
102
{ACAD_REACTORS
330
47
102
}
330
47
100
AcDbScale
 70
     0
300
1-1/2" = 1'-0"
140
1.5
141
12.0
290
     0
  0
SCALE
  5
66
102
{ACAD_REACTORS
330
47
102
}
330
47
100
AcDbScale
 70
     0
300
3" = 1'-0"
140
3.0
141
12.0
290
     0
  0
SCALE
  5
67
102
{ACAD_REACTORS
330
47
102
}
330
47
100
AcDbScale
 70
     0
300
6" = 1'-0"
140
6.0
141
12.0
290
     0
  0
SCALE
  5
68
102
{ACAD_REACTORS
330
47
102
}
330
47
100
AcDbScale
 70
     0
300
1'-0" = 1'-0"
140
12.0
141
12.0
290
     0
  0
ENDSEC
  0
EOF
