  0
SECTION
  2
HEADER
  9
$ACADVER
  1
AC1015
  9
$ACADMAINTVER
 70
     6
  9
$DWGCODEPAGE
  3
ANSI_1252
  9
$INSBASE
 10
0.0
 20
0.0
 30
0.0
  9
$EXTMIN
 10
0.0
 20
0.0
 30
0.0
  9
$EXTMAX
 10
297.0
 20
210.0
 30
0.0
  9
$LIMMIN
 10
0.0
 20
0.0
  9
$LIMMAX
 10
297.0
 20
210.0
  9
$ORTHOMODE
 70
     0
  9
$REGENMODE
 70
     1
  9
$FILLMODE
 70
     1
  9
$QTEXTMODE
 70
     0
  9
$MIRRTEXT
 70
     1
  9
$LTSCALE
 40
1.0
  9
$ATTMODE
 70
     1
  9
$TEXTSIZE
 40
2.0
  9
$TRACEWID
 40
1.0
  9
$TEXTSTYLE
  7
Standard
  9
$CLAYER
  8
0
  9
$CELTYPE
  6
ByLayer
  9
$CECOLOR
 62
   256
  9
$CELTSCALE
 40
1.0
  9
$DISPSILH
 70
     0
  9
$DIMSCALE
 40
1.0
  9
$DIMASZ
 40
3.0
  9
$DIMEXO
 40
0.0
  9
$DIMDLI
 40
3.75
  9
$DIMRND
 40
0.0
  9
$DIMDLE
 40
0.0
  9
$DIMEXE
 40
1.0
  9
$DIMTP
 40
0.0
  9
$DIMTM
 40
0.0
  9
$DIMTXT
 40
2.0
  9
$DIMCEN
 40
2.5
  9
$DIMTSZ
 40
0.0
  9
$DIMTOL
 70
     0
  9
$DIMLIM
 70
     0
  9
$DIMTIH
 70
     1
  9
$DIMTOH
 70
     1
  9
$DIMSE1
 70
     0
  9
$DIMSE2
 70
     0
  9
$DIMTAD
 70
     1
  9
$DIMZIN
 70
     0
  9
$DIMBLK
  1

  9
$DIMASO
 70
     1
  9
$DIMSHO
 70
     1
  9
$DIMPOST
  1

  9
$DIMAPOST
  1

  9
$DIMALT
 70
     0
  9
$DIMALTD
 70
     3
  9
$DIMALTF
 40
0.0393700787
  9
$DIMLFAC
 40
1.0
  9
$DIMTOFL
 70
     1
  9
$DIMTVP
 40
0.0
  9
$DIMTIX
 70
     0
  9
$DIMSOXD
 70
     0
  9
$DIMSAH
 70
     0
  9
$DIMBLK1
  1

  9
$DIMBLK2
  1

  9
$DIMSTYLE
  2
ISO-25
  9
$DIMCLRD
 70
     0
  9
$DIMCLRE
 70
     0
  9
$DIMCLRT
 70
     0
  9
$DIMTFAC
 40
1.0
  9
$DIMGAP
 40
1.524
  9
$DIMJUST
 70
     0
  9
$DIMSD1
 70
     0
  9
$DIMSD2
 70
     0
  9
$DIMTOLJ
 70
     0
  9
$DIMTZIN
 70
     0
  9
$DIMALTZ
 70
     0
  9
$DIMALTTZ
 70
     0
  9
$DIMUPT
 70
     0
  9
$DIMDEC
 70
     2
  9
$DIMTDEC
 70
     3
  9
$DIMALTU
 70
     2
  9
$DIMALTTD
 70
     3
  9
$DIMTXSTY
  7
Standard
  9
$DIMAUNIT
 70
     0
  9
$DIMADEC
 70
     2
  9
$DIMALTRND
 40
0.0
  9
$DIMAZIN
 70
     0
  9
$DIMDSEP
 70
    44
  9
$DIMATFIT
 70
     3
  9
$DIMFRAC
 70
     0
  9
$DIMLDRBLK
  1

  9
$DIMLUNIT
 70
     2
  9
$DIMLWD
 70
    -2
  9
$DIMLWE
 70
    -2
  9
$DIMTMOVE
 70
     0
  9
$LUNITS
 70
     2
  9
$LUPREC
 70
     2
  9
$SKETCHINC
 40
1.0
  9
$FILLETRAD
 40
10.0
  9
$AUNITS
 70
     0
  9
$AUPREC
 70
     2
  9
$MENU
  1
.
  9
$ELEVATION
 40
0.0
  9
$PELEVATION
 40
0.0
  9
$THICKNESS
 40
0.0
  9
$LIMCHECK
 70
     0
  9
$CHAMFERA
 40
0.0
  9
$CHAMFERB
 40
0.0
  9
$CHAMFERC
 40
0.0
  9
$CHAMFERD
 40
0.0
  9
$SKPOLY
 70
     0
  9
$TDCREATE
 40
2458184.372259641
  9
$TDUCREATE
 40
2458184.330592975
  9
$TDUPDATE
 40
2458184.37226081
  9
$TDUUPDATE
 40
2458184.330594143
  9
$TDINDWG
 40
0.0000000116
  9
$TDUSRTIMER
 40
0.0000000116
  9
$USRTIMER
 70
     1
  9
$ANGBASE
 50
0.0
  9
$ANGDIR
 70
     0
  9
$PDMODE
 70
     0
  9
$PDSIZE
 40
-1.0
  9
$PLINEWID
 40
0.0
  9
$SPLFRAME
 70
     0
  9
$SPLINETYPE
 70
     6
  9
$SPLINESEGS
 70
     8
  9
$HANDSEED
  5
18F
  9
$SURFTAB1
 70
     6
  9
$SURFTAB2
 70
     6
  9
$SURFTYPE
 70
     6
  9
$SURFU
 70
     6
  9
$SURFV
 70
     6
  9
$UCSBASE
  2

  9
$UCSNAME
  2

  9
$UCSORG
 10
0.0
 20
0.0
 30
0.0
  9
$UCSXDIR
 10
1.0
 20
0.0
 30
0.0
  9
$UCSYDIR
 10
0.0
 20
1.0
 30
0.0
  9
$UCSORTHOREF
  2

  9
$UCSORTHOVIEW
 70
     0
  9
$UCSORGTOP
 10
0.0
 20
0.0
 30
0.0
  9
$UCSORGBOTTOM
 10
0.0
 20
0.0
 30
0.0
  9
$UCSORGLEFT
 10
0.0
 20
0.0
 30
0.0
  9
$UCSORGRIGHT
 10
0.0
 20
0.0
 30
0.0
  9
$UCSORGFRONT
 10
0.0
 20
0.0
 30
0.0
  9
$UCSORGBACK
 10
0.0
 20
0.0
 30
0.0
  9
$PUCSBASE
  2

  9
$PUCSNAME
  2

  9
$PUCSORG
 10
0.0
 20
0.0
 30
0.0
  9
$PUCSXDIR
 10
1.0
 20
0.0
 30
0.0
  9
$PUCSYDIR
 10
0.0
 20
1.0
 30
0.0
  9
$PUCSORTHOREF
  2

  9
$PUCSORTHOVIEW
 70
     0
  9
$PUCSORGTOP
 10
0.0
 20
0.0
 30
0.0
  9
$PUCSORGBOTTOM
 10
0.0
 20
0.0
 30
0.0
  9
$PUCSORGLEFT
 10
0.0
 20
0.0
 30
0.0
  9
$PUCSORGRIGHT
 10
0.0
 20
0.0
 30
0.0
  9
$PUCSORGFRONT
 10
0.0
 20
0.0
 30
0.0
  9
$PUCSORGBACK
 10
0.0
 20
0.0
 30
0.0
  9
$USERI1
 70
     0
  9
$USERI2
 70
     0
  9
$USERI3
 70
     0
  9
$USERI4
 70
     0
  9
$USERI5
 70
     0
  9
$USERR1
 40
0.0
  9
$USERR2
 40
0.0
  9
$USERR3
 40
0.0
  9
$USERR4
 40
0.0
  9
$USERR5
 40
0.0
  9
$WORLDVIEW
 70
     1
  9
$SHADEDGE
 70
     3
  9
$SHADEDIF
 70
    70
  9
$TILEMODE
 70
     1
  9
$MAXACTVP
 70
    64
  9
$PINSBASE
 10
0.0
 20
0.0
 30
0.0
  9
$PLIMCHECK
 70
     0
  9
$PEXTMIN
 10
1.0000000000E+20
 20
1.0000000000E+20
 30
1.0000000000E+20
  9
$PEXTMAX
 10
-1.0000000000E+20
 20
-1.0000000000E+20
 30
-1.0000000000E+20
  9
$PLIMMIN
 10
0.0
 20
0.0
  9
$PLIMMAX
 10
420.0
 20
297.0
  9
$UNITMODE
 70
     0
  9
$VISRETAIN
 70
     1
  9
$PLINEGEN
 70
     0
  9
$PSLTSCALE
 70
     1
  9
$TREEDEPTH
 70
  3020
  9
$CMLSTYLE
  2
Standard
  9
$CMLJUST
 70
     0
  9
$CMLSCALE
 40
20.0
  9
$PROXYGRAPHICS
 70
     1
  9
$MEASUREMENT
 70
     1
  9
$CELWEIGHT
370
    -1
  9
$ENDCAPS
280
     0
  9
$JOINSTYLE
280
     0
  9
$LWDISPLAY
290
     1
  9
$INSUNITS
 70
     4
  9
$HYPERLINKBASE
  1

  9
$STYLESHEET
  1

  9
$XEDIT
290
     1
  9
$CEPSNTYPE
380
     0
  9
$PSTYLEMODE
290
     1
  9
$FINGERPRINTGUID
  2
{2B8D5B17-6C8A-4491-903F-E97ABC384E69}
  9
$VERSIONGUID
  2
{FAEB1C32-E019-11D5-929B-00C0DF256EC4}
  9
$EXTNAMES
290
     1
  9
$PSVPSCALE
 40
0.0
  9
$OLESTARTUP
290
     0
  0
ENDSEC
  0
SECTION
  2
CLASSES
  0
CLASS
  1
ACDBDICTIONARYWDFLT
  2
AcDbDictionaryWithDefault
  3
ObjectDBX Classes
 90
        0
280
     0
281
     0
  0
CLASS
  1
VISUALSTYLE
  2
AcDbVisualStyle
  3
ObjectDBX Classes
 90
     4095
280
     0
281
     0
  0
CLASS
  1
MATERIAL
  2
AcDbMaterial
  3
ObjectDBX Classes
 90
     1153
280
     0
281
     0
  0
CLASS
  1
SCALE
  2
AcDbScale
  3
ObjectDBX Classes
 90
     1153
280
     0
281
     0
  0
CLASS
  1
TABLESTYLE
  2
AcDbTableStyle
  3
ObjectDBX Classes
 90
     4095
280
     0
281
     0
  0
CLASS
  1
MLEADERSTYLE
  2
AcDbMLeaderStyle
  3
ACDB_MLEADERSTYLE_CLASS
 90
     4095
280
     0
281
     0
  0
CLASS
  1
SUN
  2
AcDbSun
  3
SCENEOE
 90
     1153
280
     0
281
     0
  0
CLASS
  1
ACDBPLACEHOLDER
  2
AcDbPlaceHolder
  3
ObjectDBX Classes
 90
        0
280
     0
281
     0
  0
CLASS
  1
LAYOUT
  2
AcDbLayout
  3
ObjectDBX Classes
 90
        0
280
     0
281
     0
  0
ENDSEC
  0
SECTION
  2
TABLES
  0
TABLE
  2
VPORT
  5
8
330
0
100
AcDbSymbolTable
 70
     1
  0
VPORT
  5
29
330
8
100
AcDbSymbolTableRecord
100
AcDbViewportTableRecord
  2
*Active
 70
     0
 10
0.0
 20
0.0
 11
1.0
 21
1.0
 12
148.5
 22
105.0
 13
0.0
 23
0.0
 14
10.0
 24
10.0
 15
10.0
 25
10.0
 16
0.0
 26
0.0
 36
1.0
 17
0.0
 27
0.0
 37
0.0
 40
210.0
 41
1.4142857143
 42
50.0
 43
0.0
 44
0.0
 50
0.0
 51
0.0
 71
     0
 72
  2000
 73
     1
 74
     3
 75
     0
 76
     0
 77
     0
 78
     0
281
     0
 65
     1
110
0.0
120
0.0
130
0.0
111
1.0
121
0.0
131
0.0
112
0.0
122
1.0
132
0.0
 79
     0
146
0.0
  0
ENDTAB
  0
TABLE
  2
LTYPE
  5
5
330
0
100
AcDbSymbolTable
 70
     6
  0
LTYPE
  5
14
330
5
100
AcDbSymbolTableRecord
100
AcDbLinetypeTableRecord
  2
ByBlock
 70
     0
  3

 72
    65
 73
     0
 40
0.0
  0
LTYPE
  5
15
330
5
100
AcDbSymbolTableRecord
100
AcDbLinetypeTableRecord
  2
ByLayer
 70
     0
  3

 72
    65
 73
     0
 40
0.0
  0
LTYPE
  5
16
330
5
100
AcDbSymbolTableRecord
100
AcDbLinetypeTableRecord
  2
Continuous
 70
     0
  3
Solid line
 72
    65
 73
     0
 40
0.0
  0
LTYPE
  5
6E
330
5
100
AcDbSymbolTableRecord
100
AcDbLinetypeTableRecord
  2
HIDDEN
 70
     0
  3
Hidden __ __ __ __ __ __ __ __ __ __ __ __ __ __
 72
    65
 73
     2
 40
1.905
 49
1.27
 74
     0
 49
-0.635
 74
     0
  0
LTYPE
  5
6F
330
5
100
AcDbSymbolTableRecord
100
AcDbLinetypeTableRecord
  2
PHANTOM
 70
     0
  3
Phantom ______  __  __  ______  __  __  ______
 72
    65
 73
     6
 40
12.7
 49
6.35
 74
     0
 49
-1.27
 74
     0
 49
1.27
 74
     0
 49
-1.27
 74
     0
 49
1.27
 74
     0
 49
-1.27
 74
     0
  0
LTYPE
  5
70
330
5
100
AcDbSymbolTableRecord
100
AcDbLinetypeTableRecord
  2
CENTER
 70
     0
  3
Center ____ _ ____ _ ____ _ ____ _ ____ _ ____
 72
    65
 73
     4
 40
10.16
 49
6.35
 74
     0
 49
-1.27
 74
     0
 49
1.27
 74
     0
 49
-1.27
 74
     0
  0
LTYPE
  5
71
330
5
100
AcDbSymbolTableRecord
100
AcDbLinetypeTableRecord
  2
CENTERX2
 70
     0
  3
Center (2x) ________  __  ________  __  _____
 72
    65
 73
     4
 40
20.32
 49
12.7
 74
     0
 49
-2.54
 74
     0
 49
2.54
 74
     0
 49
-2.54
 74
     0
  0
LTYPE
  5
72
330
5
100
AcDbSymbolTableRecord
100
AcDbLinetypeTableRecord
  2
DOT2
 70
     0
  3
Dot (.5x) ........................................
 72
    65
 73
     2
 40
0.635
 49
0.0
 74
     0
 49
-0.635
 74
     0
  0
ENDTAB
  0
TABLE
  2
LAYER
  5
2
330
0
100
AcDbSymbolTable
 70
     5
  0
LAYER
  5
10
330
2
100
AcDbSymbolTableRecord
100
AcDbLayerTableRecord
  2
0
 70
     0
 62
     7
  6
Continuous
370
    -3
390
F
  0
LAYER
  5
73
330
2
100
AcDbSymbolTableRecord
100
AcDbLayerTableRecord
  2
FORMAT
 70
     0
 62
     7
  6
Continuous
370
    -3
390
F
  0
LAYER
  5
74
330
2
100
AcDbSymbolTableRecord
100
AcDbLayerTableRecord
  2
VERMASSUNG
 70
     0
 62
     7
  6
Continuous
370
    -3
390
F
  0
LAYER
  5
75
330
2
100
AcDbSymbolTableRecord
100
AcDbLayerTableRecord
  2
KOPF_DÜNN
 70
     0
 62
     7
  6
Continuous
370
    -3
390
F
  0
LAYER
  5
76
330
2
100
AcDbSymbolTableRecord
100
AcDbLayerTableRecord
  2
KOPF_DICK
 70
     0
 62
     7
  6
Continuous
370
    25
390
F
  0
ENDTAB
  0
TABLE
  2
STYLE
  5
3
330
0
100
AcDbSymbolTable
 70
     2
  0
STYLE
  5
11
330
3
100
AcDbSymbolTableRecord
100
AcDbTextStyleTableRecord
  2
Standard
 70
     0
 40
0.0
 41
1.0
 50
0.0
 71
     0
 42
2.0
  3
txt
  4

  0
STYLE
  5
77
330
3
100
AcDbSymbolTableRecord
100
AcDbTextStyleTableRecord
  2
SLDTEXTSTYLE0
 70
     0
 40
0.0
 41
0.7
 50
0.0
 71
     0
 42
2.0
  3
TXT
  4

  0
ENDTAB
  0
TABLE
  2
VIEW
  5
6
330
0
100
AcDbSymbolTable
 70
     0
  0
ENDTAB
  0
TABLE
  2
UCS
  5
7
330
0
100
AcDbSymbolTable
 70
     0
  0
ENDTAB
  0
TABLE
  2
APPID
  5
9
330
0
100
AcDbSymbolTable
 70
     1
  0
APPID
  5
12
330
9
100
AcDbSymbolTableRecord
100
AcDbRegAppTableRecord
  2
ACAD
 70
     0
  0
ENDTAB
  0
TABLE
  2
DIMSTYLE
  5
A
330
0
100
AcDbSymbolTable
 70
     4
100
AcDbDimStyleTable
  0
DIMSTYLE
105
27
330
A
100
AcDbSymbolTableRecord
100
AcDbDimStyleTableRecord
  2
ISO-25
 70
     0
 41
2.5
 42
0.625
 43
3.75
 44
1.25
 73
     0
 74
     0
 77
     1
 78
     8
140
2.5
141
2.5
143
0.0393700787
147
0.625
171
     3
172
     1
178
     0
271
     2
272
     2
274
     3
278
    44
283
     0
284
     8
340
11
  0
DIMSTYLE
105
E5
102
{ACAD_REACTORS
330
E4
102
}
330
A
100
AcDbSymbolTableRecord
100
AcDbDimStyleTableRecord
  2
SLDDIMSTYLE0
 70
     0
 41
3.0
 44
0.0
 45
0.000000001
 73
     0
 74
     0
 76
     1
 77
     1
 78
    12
 79
     3
140
2.0
147
0.5
173
     1
178
     0
271
     2
272
     3
276
     2
282
     1
284
    12
340
77
  0
DIMSTYLE
105
F2
102
{ACAD_REACTORS
330
F1
102
}
330
A
100
AcDbSymbolTableRecord
100
AcDbDimStyleTableRecord
  2
SLDDIMSTYLE1
 70
     0
 41
3.0
 44
0.0
 73
     0
 74
     0
 77
     1
 78
    12
 79
     3
140
2.0
147
0.5
173
     1
178
     0
179
     2
272
     3
276
     2
284
    12
340
77
  0
DIMSTYLE
105
FD
102
{ACAD_REACTORS
330
FC
102
}
330
A
100
AcDbSymbolTableRecord
100
AcDbDimStyleTableRecord
  2
SLDDIMSTYLE2
 70
     0
 41
3.0
 44
0.0
 45
0.000000001
 73
     0
 74
     0
 77
     1
 78
    12
 79
     3
140
2.0
147
0.5
173
     1
178
     0
271
     2
272
     3
276
     2
284
    12
340
77
  0
ENDTAB
  0
TABLE
  2
BLOCK_RECORD
  5
1
330
0
100
AcDbSymbolTable
 70
     4
  0
BLOCK_RECORD
  5
1F
330
1
100
AcDbSymbolTableRecord
100
AcDbBlockTableRecord
  2
*Model_Space
340
22
  0
BLOCK_RECORD
  5
1B
330
1
100
AcDbSymbolTableRecord
100
AcDbBlockTableRecord
  2
*Paper_Space
340
1E
  0
BLOCK_RECORD
  5
23
330
1
100
AcDbSymbolTableRecord
100
AcDbBlockTableRecord
  2
*Paper_Space0
340
26
  0
BLOCK_RECORD
  5
E6
330
1
100
AcDbSymbolTableRecord
100
AcDbBlockTableRecord
  2
_D
340
0
  0
BLOCK_RECORD
  5
F3
330
1
100
AcDbSymbolTableRecord
100
AcDbBlockTableRecord
  2
_D_1
340
0
  0
BLOCK_RECORD
  5
FE
330
1
100
AcDbSymbolTableRecord
100
AcDbBlockTableRecord
  2
_D_2
340
0
  0
ENDTAB
  0
ENDSEC
  0
SECTION
  2
BLOCKS
  0
BLOCK
  5
20
330
1F
100
AcDbEntity
  8
0
100
AcDbBlockBegin
  2
*Model_Space
 70
     0
 10
0.0
 20
0.0
 30
0.0
  3
*Model_Space
  1

  0
ENDBLK
  5
21
330
1F
100
AcDbEntity
  8
0
100
AcDbBlockEnd
  0
BLOCK
  5
1C
330
1B
100
AcDbEntity
 67
     1
  8
0
100
AcDbBlockBegin
  2
*Paper_Space
 70
     0
 10
0.0
 20
0.0
 30
0.0
  3
*Paper_Space
  1

  0
ENDBLK
  5
1D
330
1B
100
AcDbEntity
 67
     1
  8
0
100
AcDbBlockEnd
  0
BLOCK
  5
24
330
23
100
AcDbEntity
  8
0
100
AcDbBlockBegin
  2
*Paper_Space0
 70
     0
 10
0.0
 20
0.0
 30
0.0
  3
*Paper_Space0
  1

  0
ENDBLK
  5
25
330
23
100
AcDbEntity
  8
0
100
AcDbBlockEnd
  0
BLOCK
  5
E7
330
E6
100
AcDbEntity
  8
0
100
AcDbBlockBegin
  2
_D
 70
     0
 10
0.0
 20
0.0
 30
0.0
  3
_D
  1

  0
SOLID
  5
E9
330
E6
100
AcDbEntity
  8
VERMASSUNG
100
AcDbTrace
 10
187.4713137224
 20
176.3342610319
 30
0.0
 11
187.0213137224
 21
173.3342610319
 31
0.0
 12
187.9213137224
 22
173.3342610319
 32
0.0
 13
187.9213137224
 23
173.3342610319
 33
0.0
  0
LINE
  5
EA
330
E6
100
AcDbEntity
  8
VERMASSUNG
100
AcDbLine
 10
168.4621147855
 20
176.3342610319
 30
0.0
 11
188.4713137224
 21
176.3342610319
 31
0.0
  0
LINE
  5
EB
330
E6
100
AcDbEntity
  8
VERMASSUNG
100
AcDbLine
 10
187.4713137224
 20
176.3342610319
 30
0.0
 11
187.4713137224
 21
98.5853968387
 31
0.0
  0
MTEXT
  5
EC
330
E6
100
AcDbEntity
  8
VERMASSUNG
100
AcDbMText
 10
184.6931784662
 20
98.5853968387
 30
0.0
 40
2.0
 41
0.0
 71
     1
 72
     1
  1
min.
  7
SLDTEXTSTYLE0
 11
-1.503780079494476E-14
 21
1.0
 31
0.0
 73
     1
 44
1.0
  0
MTEXT
  5
ED
330
E6
100
AcDbEntity
  8
VERMASSUNG
100
AcDbMText
 10
184.8931784175
 20
102.9853968149
 30
0.0
 40
2.0
 41
0.0
 71
     1
 72
     1
  1
%%c
  7
SLDTEXTSTYLE0
 11
-1.503780079494476E-14
 21
1.0
 31
0.0
 73
     1
 44
1.0
  0
MTEXT
  5
EE
330
E6
100
AcDbEntity
  8
VERMASSUNG
100
AcDbMText
 10
184.6931784662
 20
106.5953968292
 30
0.0
 40
2.0
 41
0.0
 71
     1
 72
     1
  1
136 - max.
  7
SLDTEXTSTYLE0
 11
-1.503780079494476E-14
 21
1.0
 31
0.0
 73
     1
 44
1.0
  0
MTEXT
  5
EF
330
E6
100
AcDbEntity
  8
VERMASSUNG
100
AcDbMText
 10
184.8931784175
 20
119.3953974371
 30
0.0
 40
2.0
 41
0.0
 71
     1
 72
     1
  1
%%c
  7
SLDTEXTSTYLE0
 11
-1.503780079494476E-14
 21
1.0
 31
0.0
 73
     1
 44
1.0
  0
MTEXT
  5
F0
330
E6
100
AcDbEntity
  8
VERMASSUNG
100
AcDbMText
 10
184.6931784662
 20
123.0053974514
 30
0.0
 40
2.0
 41
0.0
 71
     1
 72
     1
  1
220
  7
SLDTEXTSTYLE0
 11
-1.503780079494476E-14
 21
1.0
 31
0.0
 73
     1
 44
1.0
  0
ENDBLK
  5
E8
330
E6
100
AcDbEntity
  8
0
100
AcDbBlockEnd
  0
BLOCK
  5
F4
330
F3
100
AcDbEntity
  8
0
100
AcDbBlockBegin
  2
_D_1
 70
     0
 10
0.0
 20
0.0
 30
0.0
  3
_D_1
  1

  0
ARC
  5
F6
330
F3
100
AcDbEntity
  8
VERMASSUNG
100
AcDbCircle
 10
165.4713137224
 20
176.3342610319
 30
0.0
 40
11.65470897007262
100
AcDbArc
 50
270.0
 51
0.0
  0
SOLID
  5
F7
330
F3
100
AcDbEntity
  8
VERMASSUNG
100
AcDbTrace
 10
165.4713137224
 20
164.6795520618
 30
0.0
 11
168.5040791286
 21
164.6100251501
 31
0.0
 12
168.3910068843
 22
165.5028939353
 32
0.0
 13
168.3910068843
 23
165.5028939353
 33
0.0
  0
SOLID
  5
F8
330
F3
100
AcDbEntity
  8
VERMASSUNG
100
AcDbTrace
 10
177.1260226925
 20
176.3342610319
 30
0.0
 11
176.3026808191
 21
173.41456787
 31
0.0
 12
177.1955496043
 22
173.3014956258
 32
0.0
 13
177.1955496043
 23
173.3014956258
 33
0.0
  0
LINE
  5
F9
330
F3
100
AcDbEntity
  8
VERMASSUNG
100
AcDbLine
 10
165.4713137224
 20
167.0746638432
 30
0.0
 11
165.4713137224
 21
163.6795520618
 31
0.0
  0
LINE
  5
FA
330
F3
100
AcDbEntity
  8
VERMASSUNG
100
AcDbLine
 10
168.4621147855
 20
176.3342610319
 30
0.0
 11
178.1260226925
 21
176.3342610319
 31
0.0
  0
MTEXT
  5
FB
330
F3
100
AcDbEntity
  8
VERMASSUNG
100
AcDbMText
 10
170.4752068403
 20
168.5019409842
 30
0.0
 40
2.0
 41
0.0
 71
     1
 72
     1
  1
90°
  7
SLDTEXTSTYLE0
 11
0.7071067811865386
 21
0.7071067811865565
 31
0.0
 73
     1
 44
1.0
  0
ENDBLK
  5
F5
330
F3
100
AcDbEntity
  8
0
100
AcDbBlockEnd
  0
BLOCK
  5
FF
330
FE
100
AcDbEntity
  8
0
100
AcDbBlockBegin
  2
_D_2
 70
     0
 10
0.0
 20
0.0
 30
0.0
  3
_D_2
  1

  0
SOLID
  5
101
330
FE
100
AcDbEntity
  8
VERMASSUNG
100
AcDbTrace
 10
165.4713137224
 20
186.3342610319
 30
0.0
 11
162.4713137224
 21
186.7842610319
 31
0.0
 12
162.4713137224
 22
185.8842610319
 32
0.0
 13
162.4713137224
 23
185.8842610319
 33
0.0
  0
SOLID
  5
102
330
FE
100
AcDbEntity
  8
VERMASSUNG
100
AcDbTrace
 10
126.0706672878
 20
186.3342610319
 30
0.0
 11
129.0706672878
 21
185.8842610319
 31
0.0
 12
129.0706672878
 22
186.7842610319
 32
0.0
 13
129.0706672878
 23
186.7842610319
 33
0.0
  0
LINE
  5
103
330
FE
100
AcDbEntity
  8
VERMASSUNG
100
AcDbLine
 10
165.4713137224
 20
175.9342610319
 30
0.0
 11
165.4713137224
 21
187.3342610319
 31
0.0
  0
LINE
  5
104
330
FE
100
AcDbEntity
  8
VERMASSUNG
100
AcDbLine
 10
126.0706672878
 20
148.5257314719
 30
0.0
 11
126.0706672878
 21
187.3342610319
 31
0.0
  0
LINE
  5
105
330
FE
100
AcDbEntity
  8
VERMASSUNG
100
AcDbLine
 10
165.4713137224
 20
186.3342610319
 30
0.0
 11
126.0706672878
 21
186.3342610319
 31
0.0
  0
MTEXT
  5
106
330
FE
100
AcDbEntity
  8
VERMASSUNG
100
AcDbMText
 10
143.270990561
 20
188.9123966278
 30
0.0
 40
2.0
 41
0.0
 71
     1
 72
     1
  1
39.4
  7
SLDTEXTSTYLE0
 73
     1
 44
1.0
  0
ENDBLK
  5
100
330
FE
100
AcDbEntity
  8
0
100
AcDbBlockEnd
  0
ENDSEC
  0
SECTION
  2
ENTITIES
  0
MTEXT
  5
78
330
1F
100
AcDbEntity
  8
KOPF_DÜNN
100
AcDbMText
 10
13.8892156294
 20
23.8442973028
 30
0.0
 40
3.0
 41
0.0
 71
     1
 72
     1
  1
900.354.136.009
  7
SLDTEXTSTYLE0
 73
     1
 44
1.0
  0
MTEXT
  5
79
330
1F
100
AcDbEntity
  8
VERMASSUNG
100
AcDbMText
 10
13.9329988022
 20
28.8834360957
 30
0.0
 40
3.0
 41
0.0
 71
     1
 72
     1
  1
Plattenhalter_Insert holder
  7
SLDTEXTSTYLE0
 73
     1
 44
1.0
  0
MTEXT
  5
7A
330
1F
100
AcDbEntity
  8
VERMASSUNG
100
AcDbMText
 10
98.8601118557
 20
13.8365368761
 30
0.0
 40
2.0
 41
0.0
 71
     1
 72
     1
  1
Datum: 07.02.2008
  7
SLDTEXTSTYLE0
 73
     1
 44
1.0
  0
MTEXT
  5
7B
330
1F
100
AcDbEntity
  8
VERMASSUNG
100
AcDbMText
 10
13.933048693
 20
18.0482802738
 30
0.0
 40
2.0
 41
0.0
 71
     1
 72
     1
  1
zu Feinbohrkopf ø55 / für CC.. 09T3..
  7
SLDTEXTSTYLE0
 73
     1
 44
1.0
  0
MTEXT
  5
7C
330
1F
100
AcDbEntity
  8
VERMASSUNG
100
AcDbMText
 10
13.9808475933
 20
13.9090974274
 30
0.0
 40
2.0
 41
0.0
 71
     1
 72
     1
  1
Gewicht: g
  7
SLDTEXTSTYLE0
 73
     1
 44
1.0
  0
LINE
  5
7D
330
1F
100
AcDbEntity
  8
0
  6
Continuous
 62
     7
370
    25
100
AcDbLine
 10
165.0713137325
 20
167.0746636335
 30
0.0
 11
165.1407729925
 21
166.6807411928
 31
0.0
  0
LINE
  5
7E
330
1F
100
AcDbEntity
  8
0
  6
Continuous
 62
     7
370
    25
100
AcDbLine
 10
156.4157728255
 20
165.1422875692
 30
0.0
 11
165.1407729925
 21
166.6807411928
 31
0.0
  0
LINE
  5
7F
330
1F
100
AcDbEntity
  8
0
  6
Continuous
 62
     7
370
    25
100
AcDbLine
 10
156.3463138566
 20
165.5362109412
 30
0.0
 11
156.4157728255
 21
165.1422875692
 31
0.0
  0
LINE
  5
80
330
1F
100
AcDbEntity
  8
0
  6
Continuous
 62
     7
370
    25
100
AcDbLine
 10
156.6391337812
 20
165.8851803039
 30
0.0
 11
156.3463138566
 21
165.5362109412
 31
0.0
  0
LINE
  5
81
330
1F
100
AcDbEntity
  8
0
  6
Continuous
 62
     7
370
    25
100
AcDbLine
 10
156.6391337812
 20
165.8851803039
 30
0.0
 11
156.7501446381
 21
165.9047548418
 31
0.0
  0
LINE
  5
82
330
1F
100
AcDbEntity
  8
0
  6
Continuous
 62
     7
370
    25
100
AcDbLine
 10
164.9216713533
 20
167.2002282683
 30
0.0
 11
165.0713137325
 21
167.0746636335
 31
0.0
  0
LINE
  5
83
330
1F
100
AcDbEntity
  8
0
  6
Continuous
 62
     7
370
    25
100
AcDbLine
 10
156.3463138566
 20
165.5362109412
 30
0.0
 11
155.9463136047
 21
165.5362109412
 31
0.0
  0
LINE
  5
84
330
1F
100
AcDbEntity
  8
0
  6
Continuous
 62
     7
370
    25
100
AcDbLine
 10
155.9463136047
 20
174.3958080877
 30
0.0
 11
155.9463136047
 21
165.5362109412
 31
0.0
  0
LINE
  5
85
330
1F
100
AcDbEntity
  8
0
  6
Continuous
 62
     7
370
    25
100
AcDbLine
 10
156.3463138566
 20
174.3958080877
 30
0.0
 11
155.9463136047
 21
174.3958080877
 31
0.0
  0
LINE
  5
86
330
1F
100
AcDbEntity
  8
0
  6
Continuous
 62
     7
370
    25
100
AcDbLine
 10
156.4959559739
 20
174.2702432201
 30
0.0
 11
156.3463138566
 21
174.3958080877
 31
0.0
  0
LINE
  5
87
330
1F
100
AcDbEntity
  8
0
  6
Continuous
 62
     7
370
    25
100
AcDbLine
 10
156.6391337812
 20
165.997903863
 30
0.0
 11
156.6391337812
 21
165.8851803039
 31
0.0
  0
SPLINE
  5
88
330
1F
100
AcDbEntity
  8
0
  6
Continuous
 62
     7
370
    25
100
AcDbSpline
210
0.0
220
0.0
230
1.0
 70
     8
 71
     3
 72
    11
 73
     7
 74
     0
 42
0.000000001
 43
0.00000001
 40
0.0
 40
0.0
 40
0.0
 40
0.0
 40
0.0079771995783184
 40
0.3287729737803238
 40
0.66397047812843
 40
1.0
 40
1.0
 40
1.0
 40
1.0
 10
157.0263879522787
 20
173.8251578752574
 30
0.0
 10
157.0251206520784
 20
173.826221275142
 30
0.0
 10
156.972890035129
 20
173.8700483273486
 30
0.0
 10
156.8586534015885
 20
173.9659043597316
 30
0.0
 10
156.6732639518552
 20
174.1214636045212
 30
0.0
 10
156.5551074533834
 20
174.2206090497526
 30
0.0
 10
156.4959559738741
 20
174.2702432200935
 30
0.0
  0
SPLINE
  5
89
330
1F
100
AcDbEntity
  8
0
  6
Continuous
 62
     7
370
    25
100
AcDbSpline
210
0.0
220
0.0
230
1.0
 70
     8
 71
     3
 72
    11
 73
     7
 74
     0
 42
0.000000001
 43
0.00000001
 40
0.0
 40
0.0
 40
0.0
 40
0.0
 40
0.3360297115957789
 40
0.6712275641212103
 40
0.9920225142402712
 40
0.9999999999999999
 40
0.9999999999999999
 40
0.9999999999999999
 40
0.9999999999999999
 10
164.9216713532912
 20
167.200228268343
 30
0.0
 10
164.8625196673059
 20
167.2498622537962
 30
0.0
 10
164.7443627284181
 20
167.3490073531838
 30
0.0
 10
164.5589747612694
 20
167.5045691924685
 30
0.0
 10
164.4447368441377
 20
167.6004217360642
 30
0.0
 10
164.3925065972305
 20
167.6442503679069
 30
0.0
 10
164.3912392584713
 20
167.6453138460097
 30
0.0
  0
SPLINE
  5
8A
330
1F
100
AcDbEntity
  8
0
  6
Continuous
 62
     7
370
    25
100
AcDbSpline
210
0.0
220
0.0
230
1.0
 70
     8
 71
     3
 72
     9
 73
     5
 74
     0
 42
0.000000001
 43
0.00000001
 40
0.0
 40
0.0
 40
0.0
 40
0.0
 40
0.0433027425186159
 40
1.0
 40
1.0
 40
1.0
 40
1.0
 10
157.1191979721295
 20
166.4572982807335
 30
0.0
 10
157.1182000533202
 20
166.4561092841672
 30
0.0
 10
157.0951548891761
 20
166.4286515182814
 30
0.0
 10
157.0708787181706
 20
166.3997166637146
 30
0.0
 10
157.0476537719475
 20
166.3720347677049
 30
0.0
  0
SPLINE
  5
8B
330
1F
100
AcDbEntity
  8
0
  6
Continuous
 62
     7
370
    25
100
AcDbSpline
210
0.0
220
0.0
230
1.0
 70
     8
 71
     3
 72
    14
 73
    10
 74
     0
 42
0.000000001
 43
0.00000001
 40
0.0
 40
0.0
 40
0.0
 40
0.0
 40
0.1215030875000534
 40
0.2571362787043359
 40
0.3367057659932997
 40
0.4166995342924514
 40
0.5090578962147291
 40
0.659990003818796
 40
1.0
 40
1.0
 40
1.0
 40
1.0
 10
157.0476537719475
 20
166.3720347677049
 30
0.0
 10
157.0211027387111
 20
166.3849136133638
 30
0.0
 10
156.964912941212
 20
166.4121690396652
 30
0.0
 10
156.8837974159353
 20
166.4317260506045
 30
0.0
 10
156.8112850042622
 20
166.4238138771871
 30
0.0
 10
156.7557007235903
 20
166.3947838780452
 30
0.0
 10
156.7031918863342
 20
166.334543823595
 30
0.0
 10
156.6480352708137
 20
166.2013450584291
 30
0.0
 10
156.6427761036062
 20
166.0811481800896
 30
0.0
 10
156.6391337812053
 20
165.9979038630304
 30
0.0
  0
LINE
  5
8C
330
1F
100
AcDbEntity
  8
0
  6
Continuous
 62
     7
370
    25
100
AcDbLine
 10
164.7784933713
 20
175.5852913592
 30
0.0
 11
165.0713137325
 21
175.934261042
 31
0.0
  0
LINE
  5
8D
330
1F
100
AcDbEntity
  8
0
  6
Continuous
 62
     7
370
    25
100
AcDbLine
 10
165.0713137325
 20
175.934261042
 30
0.0
 11
165.4713137224
 21
175.934261042
 31
0.0
  0
LINE
  5
8E
330
1F
100
AcDbEntity
  8
0
  6
Continuous
 62
     7
370
    25
100
AcDbLine
 10
165.4713137224
 20
167.0746636335
 30
0.0
 11
165.4713137224
 21
175.934261042
 31
0.0
  0
LINE
  5
8F
330
1F
100
AcDbEntity
  8
0
  6
Continuous
 62
     7
370
    25
100
AcDbLine
 10
165.0713137325
 20
167.0746636335
 30
0.0
 11
165.4713137224
 21
167.0746636335
 31
0.0
  0
LINE
  5
90
330
1F
100
AcDbEntity
  8
0
  6
Continuous
 62
     7
370
    25
100
AcDbLine
 10
164.7784933713
 20
175.4725682657
 30
0.0
 11
164.7784933713
 21
175.5852913592
 31
0.0
  0
LINE
  5
91
330
1F
100
AcDbEntity
  8
0
  6
Continuous
 62
     7
370
    25
100
AcDbLine
 10
156.3463138566
 20
174.3958080877
 30
0.0
 11
156.2768548876
 21
174.7897312269
 31
0.0
  0
LINE
  5
92
330
1F
100
AcDbEntity
  8
0
  6
Continuous
 62
     7
370
    25
100
AcDbLine
 10
165.0018544435
 20
176.328184133
 30
0.0
 11
156.2768548876
 21
174.7897312269
 31
0.0
  0
LINE
  5
93
330
1F
100
AcDbEntity
  8
0
  6
Continuous
 62
     7
370
    25
100
AcDbLine
 10
165.0713137325
 20
175.934261042
 30
0.0
 11
165.0018544435
 21
176.328184133
 31
0.0
  0
LINE
  5
94
330
1F
100
AcDbEntity
  8
0
  6
Continuous
 62
     7
370
    25
100
AcDbLine
 10
164.7784933713
 20
175.5852913592
 30
0.0
 11
164.6674828054
 21
175.5657172288
 31
0.0
  0
SPLINE
  5
95
330
1F
100
AcDbEntity
  8
0
  6
Continuous
 62
     7
370
    25
100
AcDbSpline
210
0.0
220
0.0
230
1.0
 70
     8
 71
     3
 72
    14
 73
    10
 74
     0
 42
0.000000001
 43
0.00000001
 40
0.0
 40
0.0
 40
0.0
 40
0.0
 40
0.121502513843965
 40
0.2571356283481498
 40
0.3367054914357056
 40
0.4166988585635807
 40
0.5090573828544287
 40
0.659989770017538
 40
1.0
 40
1.0
 40
1.0
 40
1.0
 10
164.3699740208791
 20
175.0984368371469
 30
0.0
 10
164.3965249380601
 20
175.0855581176088
 30
0.0
 10
164.4527146131258
 20
175.0583028984696
 30
0.0
 10
164.5338301438145
 20
175.0387460252534
 30
0.0
 10
164.6063423298025
 20
175.0466585886404
 30
0.0
 10
164.6619271204113
 20
175.0756875644934
 30
0.0
 10
164.7144357387683
 20
175.1359280265341
 30
0.0
 10
164.7695916006768
 20
175.2691270512346
 30
0.0
 10
164.7748509347055
 20
175.3893239584423
 30
0.0
 10
164.778493371337
 20
175.4725682656904
 30
0.0
  0
SPLINE
  5
96
330
1F
100
AcDbEntity
  8
0
  6
Continuous
 62
     7
370
    25
100
AcDbSpline
210
0.0
220
0.0
230
1.0
 70
     8
 71
     3
 72
     9
 73
     5
 74
     0
 42
0.000000001
 43
0.00000001
 40
0.0
 40
0.0
 40
0.0
 40
0.0
 40
0.9566958222924803
 40
1.0
 40
1.0
 40
1.0
 40
1.0
 10
164.3699740208791
 20
175.0984368371469
 30
0.0
 10
164.3467476025801
 20
175.0707564907316
 30
0.0
 10
164.3224698564482
 20
175.0418232124937
 30
0.0
 10
164.2994273099783
 20
175.0143627113696
 30
0.0
 10
164.2984294714512
 20
175.013173556949
 30
0.0
  0
SPLINE
  5
97
330
1F
100
AcDbEntity
  8
0
  6
Continuous
 62
     7
370
    25
100
AcDbSpline
210
0.0
220
0.0
230
1.0
 70
     8
 71
     3
 72
    14
 73
    10
 74
     0
 42
0.000000001
 43
0.00000001
 40
0.0
 40
0.0
 40
0.0
 40
0.0
 40
0.3240428068897975
 40
0.4390837955103178
 40
0.5550341987596188
 40
0.6320189044388707
 40
0.7091783695879764
 40
0.8120431286657069
 40
0.9999999999999999
 40
0.9999999999999999
 40
0.9999999999999999
 40
0.9999999999999999
 10
156.7501446381318
 20
165.9047548417625
 30
0.0
 10
156.8277391936906
 20
165.9218618772471
 30
0.0
 10
156.9328812034539
 20
165.9450422161121
 30
0.0
 10
157.0506218878584
 20
166.012424476516
 30
0.0
 10
157.1060871190919
 20
166.0648427680328
 30
0.0
 10
157.1350372357441
 20
166.1252086059329
 30
0.0
 10
157.1401225212523
 20
166.1887103081093
 30
0.0
 10
157.1155643724645
 20
166.2765299155317
 30
0.0
 10
157.0743138328255
 20
166.3345418703709
 30
0.0
 10
157.0476537719475
 20
166.3720347677049
 30
0.0
  0
SPLINE
  5
98
330
1F
100
AcDbEntity
  8
0
  6
Continuous
 62
     7
370
    25
100
AcDbSpline
210
0.0
220
0.0
230
1.0
 70
     8
 71
     3
 72
    14
 73
    10
 74
     0
 42
0.000000001
 43
0.00000001
 40
0.0
 40
0.0
 40
0.0
 40
0.0
 40
0.3240420653042756
 40
0.4390834215948017
 40
0.5550338258648012
 40
0.6320175639914547
 40
0.7091775713715915
 40
0.8120429406586155
 40
1.0
 40
1.0
 40
1.0
 40
1.0
 10
164.6674828054489
 20
175.5657172287507
 30
0.0
 10
164.5898883288437
 20
175.5486102596684
 30
0.0
 10
164.4847462749789
 20
175.5254299774706
 30
0.0
 10
164.3670060882833
 20
175.4580470697021
 30
0.0
 10
164.3115405862496
 20
175.4056291162082
 30
0.0
 10
164.2825908336677
 20
175.3452633184534
 30
0.0
 10
164.2775041992741
 20
175.2817616602643
 30
0.0
 10
164.3020629150631
 20
175.1939415916523
 30
0.0
 10
164.3433137898823
 20
175.1359296564113
 30
0.0
 10
164.3699740208791
 20
175.0984368371469
 30
0.0
  0
ARC
  5
99
330
1F
100
AcDbEntity
  8
0
  6
Continuous
 62
     7
370
    25
100
AcDbCircle
 10
156.3463137224
 20
165.5362109365
 30
0.0
 40
0.4000000000000246
100
AcDbArc
 50
179.9999999756
 51
280.0
  0
ARC
  5
9A
330
1F
100
AcDbEntity
  8
0
  6
Continuous
 62
     7
370
    25
100
AcDbCircle
 10
158.1463137224
 20
167.6813674032
 30
0.0
 40
1.000000000295358
100
AcDbArc
 50
180.0000000098
 51
280.0
  0
LINE
  5
9B
330
1F
100
AcDbEntity
  8
0
  6
Continuous
 62
     7
370
    25
100
AcDbLine
 10
163.0976656135
 20
174.7739123637
 30
0.0
 11
157.9726657048
 21
173.870236449
 31
0.0
  0
ARC
  5
9C
330
1F
100
AcDbEntity
  8
0
  6
Continuous
 62
     7
370
    25
100
AcDbCircle
 10
163.2713137224
 20
173.7891045652
 30
0.0
 40
1.000000000000028
100
AcDbArc
 50
0.0
 51
100.0
  0
LINE
  5
9D
330
1F
100
AcDbEntity
  8
0
  6
Continuous
 62
     7
370
    25
100
AcDbLine
 10
164.2713136654
 20
168.5850430038
 30
0.0
 11
164.2713136654
 21
173.7891045157
 31
0.0
  0
ARC
  5
9E
330
1F
100
AcDbEntity
  8
0
  6
Continuous
 62
     7
370
    25
100
AcDbCircle
 10
163.2713137224
 20
168.5850431793
 30
0.0
 40
1.000000000000031
100
AcDbArc
 50
280.0
 51
0.0
  0
LINE
  5
9F
330
1F
100
AcDbEntity
  8
0
  6
Continuous
 62
     7
370
    25
100
AcDbLine
 10
158.3199619465
 20
166.6965597068
 30
0.0
 11
163.4449618552
 21
167.6002350394
 31
0.0
  0
LINE
  5
A0
330
1F
100
AcDbEntity
  8
0
  6
Continuous
 62
     7
370
    25
100
AcDbLine
 10
157.1463134289
 20
172.8854287174
 30
0.0
 11
157.1463134289
 21
167.6813672055
 31
0.0
  0
ARC
  5
A1
330
1F
100
AcDbEntity
  8
0
  6
Continuous
 62
     7
370
    25
100
AcDbCircle
 10
158.1463137224
 20
172.8854287891
 30
0.0
 40
1.0
100
AcDbArc
 50
100.0
 51
180.0
  0
CIRCLE
  5
A2
330
1F
100
AcDbEntity
  8
0
  6
Continuous
 62
     7
370
    25
100
AcDbCircle
 10
160.7088137224
 20
170.7352359842
 30
0.0
 40
3.050000000000011
  0
ARC
  5
A3
330
1F
100
AcDbEntity
  8
0
  6
Continuous
 62
     7
370
    25
100
AcDbCircle
 10
165.0713137224
 20
167.0746638432
 30
0.0
 40
0.4000000000000246
100
AcDbArc
 50
280.0
 51
359.9999999756
  0
ARC
  5
A4
330
1F
100
AcDbEntity
  8
0
  6
Continuous
 62
     7
370
    25
100
AcDbCircle
 10
156.3463137224
 20
174.3958081252
 30
0.0
 40
0.4000000000000196
100
AcDbArc
 50
100.0
 51
179.9999999756
  0
ARC
  5
A5
330
1F
100
AcDbEntity
  8
0
  6
Continuous
 62
     7
370
    25
100
AcDbCircle
 10
165.0713137224
 20
175.9342610319
 30
0.0
 40
0.4000000000000057
100
AcDbArc
 50
359.9999999756
 51
100.0
  0
ARC
  5
A6
330
1F
100
AcDbEntity
  8
0
  6
Continuous
 62
     7
370
    25
100
AcDbCircle
 10
160.626807027
 20
170.6375042102
 30
0.0
 40
1.674999999999945
100
AcDbArc
 50
196.2993592188
 51
252.7430773851
  0
SPLINE
  5
A7
330
1F
100
AcDbEntity
  8
0
  6
Continuous
 62
     7
370
    25
100
AcDbSpline
210
0.0
220
0.0
230
1.0
 70
     8
 71
     3
 72
    11
 73
     7
 74
     0
 42
0.000000001
 43
0.00000001
 40
0.0
 40
0.0
 40
0.0
 40
0.0
 40
0.2657599494892757
 40
0.5530028072415284
 40
0.8418204396101501
 40
1.0
 40
1.0
 40
1.0
 40
1.0
 10
159.0191276893126
 20
170.1674052272615
 30
0.0
 10
159.0363700461737
 20
170.1372017582532
 30
0.0
 10
159.0722485589668
 20
170.0743532997776
 30
0.0
 10
159.1613610269392
 20
170.0071435300201
 30
0.0
 10
159.2522103920792
 20
169.9744337387709
 30
0.0
 10
159.3096939640376
 20
169.9723814414253
 30
0.0
 10
159.3300357610093
 20
169.9716551919159
 30
0.0
  0
SPLINE
  5
A8
330
1F
100
AcDbEntity
  8
0
  6
Continuous
 62
     7
370
    25
100
AcDbSpline
210
0.0
220
0.0
230
1.0
 70
     8
 71
     3
 72
    12
 73
     8
 74
     0
 42
0.000000001
 43
0.00000001
 40
0.0
 40
0.0
 40
0.0
 40
0.0
 40
0.2057903032818489
 40
0.4120345292371089
 40
0.6141305018660744
 40
0.8132633132735624
 40
1.0
 40
1.0
 40
1.0
 40
1.0
 10
159.3300357610093
 20
169.9716551919159
 30
0.0
 10
159.3953885550129
 20
169.9665408449541
 30
0.0
 10
159.5262382951717
 20
169.9563008700419
 30
0.0
 10
159.7030621148478
 20
169.8598987428338
 30
0.0
 10
159.8371058861288
 20
169.7164509063935
 30
0.0
 10
159.9183909937159
 20
169.5422879161836
 30
0.0
 10
159.9239144460338
 20
169.4197241491082
 30
0.0
 10
159.92658745126
 20
169.3604109567282
 30
0.0
  0
SPLINE
  5
A9
330
1F
100
AcDbEntity
  8
0
  6
Continuous
 62
     7
370
    25
100
AcDbSpline
210
0.0
220
0.0
230
1.0
 70
     8
 71
     3
 72
    11
 73
     7
 74
     0
 42
0.000000001
 43
0.00000001
 40
0.0
 40
0.0
 40
0.0
 40
0.0
 40
0.2802374342629095
 40
0.5612870463962047
 40
0.8399904552121906
 40
1.0
 40
1.0
 40
1.0
 40
1.0
 10
159.92658745126
 20
169.3604109567282
 30
0.0
 10
159.9286576865969
 20
169.3225848030783
 30
0.0
 10
159.9328041571805
 20
169.2468228688653
 30
0.0
 10
159.9866988208898
 20
169.1440963165494
 30
0.0
 10
160.0571072973264
 20
169.0740441356997
 30
0.0
 10
160.1104510244724
 20
169.0475640158121
 30
0.0
 10
160.1299068108307
 20
169.0379060563323
 30
0.0
  0
ARC
  5
AA
330
1F
100
AcDbEntity
  8
0
  6
Continuous
 62
     7
370
    25
100
AcDbCircle
 10
160.626807027
 20
170.6375042102
 30
0.0
 40
1.674999999999987
100
AcDbArc
 50
255.6497081569
 51
314.2496412841
  0
ARC
  5
AB
330
1F
100
AcDbEntity
  8
0
  6
Continuous
 62
     7
370
    25
100
AcDbCircle
 10
160.626807027
 20
170.6375042102
 30
0.0
 40
1.675000000000002
100
AcDbArc
 50
314.2496412841
 51
14.3564830189
  0
ARC
  5
AC
330
1F
100
AcDbEntity
  8
0
  6
Continuous
 62
     7
370
    25
100
AcDbCircle
 10
160.626807027
 20
170.6375042102
 30
0.0
 40
1.675000000000002
100
AcDbArc
 50
14.3564830189
 51
72.9564161461
  0
LINE
  5
AD
330
1F
100
AcDbEntity
  8
0
  6
Continuous
 62
     7
370
    25
100
AcDbLine
 10
161.0359099843
 20
172.2617764716
 30
0.0
 11
161.1177480929
 21
172.238941839
 31
0.0
  0
ARC
  5
AE
330
1F
100
AcDbEntity
  8
0
  6
Continuous
 62
     7
370
    25
100
AcDbCircle
 10
160.626807027
 20
170.6375042102
 30
0.0
 40
1.675000000000048
100
AcDbArc
 50
75.863046918
 51
132.3067650843
  0
LINE
  5
AF
330
1F
100
AcDbEntity
  8
0
  6
Continuous
 62
     7
370
    25
100
AcDbLine
 10
159.4137011245
 20
171.7924928051
 30
0.0
 11
159.4993646406
 21
171.8762531635
 31
0.0
  0
ARC
  5
B0
330
1F
100
AcDbEntity
  8
0
  6
Continuous
 62
     7
370
    25
100
AcDbCircle
 10
160.626807027
 20
170.6375042102
 30
0.0
 40
1.675000000000002
100
AcDbArc
 50
136.4058569845
 51
192.2002673185
  0
LINE
  5
B1
330
1F
100
AcDbEntity
  8
0
  6
Continuous
 62
     7
370
    25
100
AcDbLine
 10
159.0191276893
 20
170.1674052273
 30
0.0
 11
158.9896368943
 21
170.2835276481
 31
0.0
  0
LINE
  5
B2
330
1F
100
AcDbEntity
  8
0
  6
Continuous
 62
     7
370
    25
100
AcDbLine
 10
160.2116592378
 20
169.0147664156
 30
0.0
 11
160.1299068108
 21
169.0379060563
 31
0.0
  0
CIRCLE
  5
B3
330
1F
100
AcDbEntity
  8
0
  6
Continuous
 62
     7
370
    25
100
AcDbCircle
 10
160.626807027
 20
170.6375042102
 30
0.0
 40
1.799999999999979
  0
SPLINE
  5
B4
330
1F
100
AcDbEntity
  8
0
  6
Continuous
 62
     7
370
    25
100
AcDbSpline
210
0.0
220
0.0
230
1.0
 70
     8
 71
     3
 72
    11
 73
     7
 74
     0
 42
0.000000001
 43
0.00000001
 40
0.0
 40
0.0
 40
0.0
 40
0.0
 40
0.2669002422718137
 40
0.5546138980680909
 40
0.8439067081922907
 40
1.0
 40
1.0
 40
1.0
 40
1.0
 10
159.4137011244999
 20
171.7924928051111
 30
0.0
 10
159.3961807932341
 20
171.7623407778917
 30
0.0
 10
159.3597738603063
 20
171.6996854081981
 30
0.0
 10
159.3464114218443
 20
171.5887720002287
 30
0.0
 10
159.36371690756
 20
171.4940955436837
 30
0.0
 10
159.3905770544269
 20
171.4435764483735
 30
0.0
 10
159.3999906592177
 20
171.4258711543557
 30
0.0
  0
SPLINE
  5
B5
330
1F
100
AcDbEntity
  8
0
  6
Continuous
 62
     7
370
    25
100
AcDbSpline
210
0.0
220
0.0
230
1.0
 70
     8
 71
     3
 72
    12
 73
     8
 74
     0
 42
0.000000001
 43
0.00000001
 40
0.0
 40
0.0
 40
0.0
 40
0.0
 40
0.2058400071450203
 40
0.4120617328569507
 40
0.6141388531247232
 40
0.8132772058082388
 40
1.0
 40
1.0
 40
1.0
 40
1.0
 10
159.3999906592177
 20
171.4258711543557
 30
0.0
 10
159.428244308602
 20
171.3667001435523
 30
0.0
 10
159.484804002154
 20
171.2482483926766
 30
0.0
 10
159.4897136571468
 20
171.0469050924296
 30
0.0
 10
159.4325003102504
 20
170.8591116215888
 30
0.0
 10
159.3223169397564
 20
170.7016498832897
 30
0.0
 10
159.2189393433278
 20
170.6355880591326
 30
0.0
 10
159.1689136959718
 20
170.603619957405
 30
0.0
  0
SPLINE
  5
B6
330
1F
100
AcDbEntity
  8
0
  6
Continuous
 62
     7
370
    25
100
AcDbSpline
210
0.0
220
0.0
230
1.0
 70
     8
 71
     3
 72
    11
 73
     7
 74
     0
 42
0.000000001
 43
0.00000001
 40
0.0
 40
0.0
 40
0.0
 40
0.0
 40
0.2928993121755268
 40
0.5864341313879035
 40
0.8775180904583932
 40
1.0
 40
1.0
 40
1.0
 40
1.0
 10
159.1689136959718
 20
170.603619957405
 30
0.0
 10
159.1371725442651
 20
170.582897383219
 30
0.0
 10
159.0736213717065
 20
170.5414072728371
 30
0.0
 10
159.0115413866208
 20
170.4433102079883
 30
0.0
 10
158.9878349750784
 20
170.3530530481853
 30
0.0
 10
158.9892251726115
 20
170.299413552542
 30
0.0
 10
158.9896368943261
 20
170.2835276481387
 30
0.0
  0
SPLINE
  5
B7
330
1F
100
AcDbEntity
  8
0
  6
Continuous
 62
     7
370
    25
100
AcDbSpline
210
0.0
220
0.0
230
1.0
 70
     8
 71
     3
 72
    11
 73
     7
 74
     0
 42
0.000000001
 43
0.00000001
 40
0.0
 40
0.0
 40
0.0
 40
0.0
 40
0.2431097603370734
 40
0.5182797016884724
 40
0.7947793464462055
 40
1.0
 40
1.0
 40
1.0
 40
1.0
 10
161.0359099842714
 20
172.2617764715729
 30
0.0
 10
161.0028088067801
 20
172.2637240552936
 30
0.0
 10
160.9322412229367
 20
172.2678760609901
 30
0.0
 10
160.8285494194879
 20
172.2315711572282
 30
0.0
 10
160.7447997108401
 20
172.1698438502385
 30
0.0
 10
160.709426362773
 20
172.1155334709605
 30
0.0
 10
160.6943567432569
 20
172.0923963692663
 30
0.0
  0
SPLINE
  5
B8
330
1F
100
AcDbEntity
  8
0
  6
Continuous
 62
     7
370
    25
100
AcDbSpline
210
0.0
220
0.0
230
1.0
 70
     8
 71
     3
 72
    12
 73
     8
 74
     0
 42
0.000000001
 43
0.00000001
 40
0.0
 40
0.0
 40
0.0
 40
0.0
 40
0.2058179655261549
 40
0.4120216291432814
 40
0.6140781907705941
 40
0.8132130815856001
 40
1.0
 40
1.0
 40
1.0
 40
1.0
 10
160.6943567432569
 20
172.0923963692663
 30
0.0
 10
160.6572436815995
 20
172.0383469375897
 30
0.0
 10
160.5829480092685
 20
171.930146786856
 30
0.0
 10
160.4110514823931
 20
171.8252251759724
 30
0.0
 10
160.2198278362429
 20
171.7808666422861
 30
0.0
 10
160.0283603397613
 20
171.7975406768337
 30
0.0
 10
159.9194435605188
 20
171.8540424416571
 30
0.0
 10
159.8667276240991
 20
171.8813894075033
 30
0.0
  0
SPLINE
  5
B9
330
1F
100
AcDbEntity
  8
0
  6
Continuous
 62
     7
370
    25
100
AcDbSpline
210
0.0
220
0.0
230
1.0
 70
     8
 71
     3
 72
    11
 73
     7
 74
     0
 42
0.000000001
 43
0.00000001
 40
0.0
 40
0.0
 40
0.0
 40
0.0
 40
0.2908634488835936
 40
0.5839555344176107
 40
0.874598152102799
 40
1.0
 40
1.0
 40
1.0
 40
1.0
 10
159.8667276240991
 20
171.8813894075033
 30
0.0
 10
159.8331039616444
 20
171.8984403065406
 30
0.0
 10
159.7655990075048
 20
171.9326727510014
 30
0.0
 10
159.6498240834
 20
171.9375888754302
 30
0.0
 10
159.5593452242288
 20
171.9130547042096
 30
0.0
 10
159.5132564629784
 20
171.8847765961975
 30
0.0
 10
159.4993646405743
 20
171.8762531635043
 30
0.0
  0
SPLINE
  5
BA
330
1F
100
AcDbEntity
  8
0
  6
Continuous
 62
     7
370
    25
100
AcDbSpline
210
0.0
220
0.0
230
1.0
 70
     8
 71
     3
 72
    12
 73
     8
 74
     0
 42
0.000000001
 43
0.00000001
 40
0.0
 40
0.0
 40
0.0
 40
0.0
 40
0.2058582953603277
 40
0.4121026328995084
 40
0.6141938801469118
 40
0.8133179863346403
 40
0.9999999999999999
 40
0.9999999999999999
 40
0.9999999999999999
 40
0.9999999999999999
 10
160.5544464811789
 20
169.1839639787254
 30
0.0
 10
160.5915660499338
 20
169.238020932424
 30
0.0
 10
160.6658747970709
 20
169.346236211807
 30
0.0
 10
160.8378036042721
 20
169.4511614683307
 30
0.0
 10
161.0290566823836
 20
169.4955010590934
 30
0.0
 10
161.2205036906422
 20
169.4787973159424
 30
0.0
 10
161.3293884836219
 20
169.4223057892857
 30
0.0
 10
161.3820751346754
 20
169.3949709404883
 30
0.0
  0
SPLINE
  5
BB
330
1F
100
AcDbEntity
  8
0
  6
Continuous
 62
     7
370
    25
100
AcDbSpline
210
0.0
220
0.0
230
1.0
 70
     8
 71
     3
 72
    11
 73
     7
 74
     0
 42
0.000000001
 43
0.00000001
 40
0.0
 40
0.0
 40
0.0
 40
0.0
 40
0.2524787649583728
 40
0.5068903264113663
 40
0.7591786635227731
 40
1.0
 40
1.0
 40
1.0
 40
1.0
 10
161.3820751346754
 20
169.3949709404883
 30
0.0
 10
161.4157082354753
 20
169.377912037727
 30
0.0
 10
161.4832319079929
 20
169.3436636414693
 30
0.0
 10
161.5988360464521
 20
169.3388766798429
 30
0.0
 10
161.7093219120614
 20
169.3681749870296
 30
0.0
 10
161.7672889166197
 20
169.4148811530437
 30
0.0
 10
161.7955984231191
 20
169.4376911726472
 30
0.0
  0
SPLINE
  5
BC
330
1F
100
AcDbEntity
  8
0
  6
Continuous
 62
     7
370
    25
100
AcDbSpline
210
0.0
220
0.0
230
1.0
 70
     8
 71
     3
 72
    11
 73
     7
 74
     0
 42
0.000000001
 43
0.00000001
 40
0.0
 40
0.0
 40
0.0
 40
0.0
 40
0.2423609499151093
 40
0.5166846226611019
 40
0.7923336620656611
 40
1.0
 40
1.0
 40
1.0
 40
1.0
 10
160.211659237753
 20
169.0147664156434
 30
0.0
 10
160.244753007887
 20
169.0126955575192
 30
0.0
 10
160.315304976511
 20
169.0082807351278
 30
0.0
 10
160.4191277379001
 20
169.0441996822275
 30
0.0
 10
160.5034619291365
 20
169.1058626465625
 30
0.0
 10
160.5391236803293
 20
169.1604915520612
 30
0.0
 10
160.5544464811789
 20
169.1839639787254
 30
0.0
  0
SPLINE
  5
BD
330
1F
100
AcDbEntity
  8
0
  6
Continuous
 62
     7
370
    25
100
AcDbSpline
210
0.0
220
0.0
230
1.0
 70
     8
 71
     3
 72
    12
 73
     8
 74
     0
 42
0.000000001
 43
0.00000001
 40
0.0
 40
0.0
 40
0.0
 40
0.0
 40
0.0091728170392391
 40
0.2576773005513212
 40
0.5061892896705903
 40
0.7560354962150931
 40
1.0
 40
1.0
 40
1.0
 40
1.0
 10
162.2494996674465
 20
171.0528275687871
 30
0.0
 10
162.2491542841167
 20
171.0541548425268
 30
0.0
 10
162.239451981794
 20
171.0914398241053
 30
0.0
 10
162.2071211716795
 20
171.1618712587372
 30
0.0
 10
162.1286484482902
 20
171.2431616220185
 30
0.0
 10
162.0284825559502
 20
171.2964002790976
 30
0.0
 10
161.9550474476533
 20
171.3019592448501
 30
0.0
 10
161.9187672305958
 20
171.304705621737
 30
0.0
  0
SPLINE
  5
BE
330
1F
100
AcDbEntity
  8
0
  6
Continuous
 62
     7
370
    25
100
AcDbSpline
210
0.0
220
0.0
230
1.0
 70
     8
 71
     3
 72
    12
 73
     8
 74
     0
 42
0.000000001
 43
0.00000001
 40
0.0
 40
0.0
 40
0.0
 40
0.0
 40
0.2057531924191252
 40
0.411960383509867
 40
0.6140149362664986
 40
0.8131414492692497
 40
1.0
 40
1.0
 40
1.0
 40
1.0
 10
161.9187672305958
 20
171.304705621737
 30
0.0
 10
161.8534235997518
 20
171.3098180940474
 30
0.0
 10
161.7225921559919
 20
171.3200543194441
 30
0.0
 10
161.5457872449556
 20
171.416430865799
 30
0.0
 10
161.4117462213521
 20
171.5598420950895
 30
0.0
 10
161.3304240859641
 20
171.734004064051
 30
0.0
 10
161.3248929675349
 20
171.8566001036771
 30
0.0
 10
161.3222153075145
 20
171.9159498569248
 30
0.0
  0
SPLINE
  5
BF
330
1F
100
AcDbEntity
  8
0
  6
Continuous
 62
     7
370
    25
100
AcDbSpline
210
0.0
220
0.0
230
1.0
 70
     8
 71
     3
 72
    11
 73
     7
 74
     0
 42
0.000000001
 43
0.00000001
 40
0.0
 40
0.0
 40
0.0
 40
0.0
 40
0.2794061148455281
 40
0.5596238358628535
 40
0.8375012968036919
 40
1.0
 40
1.0
 40
1.0
 40
1.0
 10
161.3222153075145
 20
171.9159498569248
 30
0.0
 10
161.3201447261061
 20
171.9537791108979
 30
0.0
 10
161.3159975487586
 20
172.0295475035402
 30
0.0
 10
161.2620937748844
 20
172.1322753266545
 30
0.0
 10
161.1913868056675
 20
172.2026334794264
 30
0.0
 10
161.1375966484879
 20
172.2291552951355
 30
0.0
 10
161.1177480928706
 20
172.2389418390271
 30
0.0
  0
SPLINE
  5
C0
330
1F
100
AcDbEntity
  8
0
  6
Continuous
 62
     7
370
    25
100
AcDbSpline
210
0.0
220
0.0
230
1.0
 70
     8
 71
     3
 72
    12
 73
     8
 74
     0
 42
0.000000001
 43
0.00000001
 40
0.0
 40
0.0
 40
0.0
 40
0.0
 40
0.0091681644262607
 40
0.257326675411096
 40
0.5054940656779502
 40
0.7549924802550586
 40
1.0
 40
1.0
 40
1.0
 40
1.0
 10
161.7955984231191
 20
169.4376911726472
 30
0.0
 10
161.796577874394
 20
169.4386529142668
 30
0.0
 10
161.8240685397645
 20
169.4656465153906
 30
0.0
 10
161.8690154890143
 20
169.5287808945214
 30
0.0
 10
161.9003790351176
 20
169.6373257318718
 30
0.0
 10
161.8966095123655
 20
169.7509146320964
 30
0.0
 10
161.8646479719594
 20
169.8174992375799
 30
0.0
 10
161.8488123323874
 20
169.8504891936359
 30
0.0
  0
SPLINE
  5
C1
330
1F
100
AcDbEntity
  8
0
  6
Continuous
 62
     7
370
    25
100
AcDbSpline
210
0.0
220
0.0
230
1.0
 70
     8
 71
     3
 72
    12
 73
     8
 74
     0
 42
0.000000001
 43
0.00000001
 40
0.0
 40
0.0
 40
0.0
 40
0.0
 40
0.2058435129763208
 40
0.4120691947092607
 40
0.6141399031210575
 40
0.8132603052097342
 40
1.0
 40
1.0
 40
1.0
 40
1.0
 10
161.8488123323874
 20
169.8504891936359
 30
0.0
 10
161.8205584187928
 20
169.9096608763573
 30
0.0
 10
161.7639981354299
 20
170.028114099857
 30
0.0
 10
161.7590898057179
 20
170.2294582132932
 30
0.0
 10
161.8163029086464
 20
170.4172472718222
 30
0.0
 10
161.9264830517781
 20
170.5747072831267
 30
0.0
 10
162.0298595268956
 20
170.6407692427924
 30
0.0
 10
162.0798892956333
 20
170.6727403905866
 30
0.0
  0
SPLINE
  5
C2
330
1F
100
AcDbEntity
  8
0
  6
Continuous
 62
     7
370
    25
100
AcDbSpline
210
0.0
220
0.0
230
1.0
 70
     8
 71
     3
 72
    11
 73
     7
 74
     0
 42
0.000000001
 43
0.00000001
 40
0.0
 40
0.0
 40
0.0
 40
0.0
 40
0.2535083926347527
 40
0.5075673069468027
 40
0.759505785458209
 40
1.0
 40
1.0
 40
1.0
 40
1.0
 10
162.0798892956333
 20
170.6727403905866
 30
0.0
 10
162.1116447535794
 20
170.6934690941121
 30
0.0
 10
162.1752246299813
 20
170.7349715158488
 30
0.0
 10
162.237102713731
 20
170.8329936678705
 30
0.0
 10
162.2667684682553
 20
170.9433811600285
 30
0.0
 10
162.2551660533351
 20
171.0169150816945
 30
0.0
 10
162.2494996674465
 20
171.0528275687871
 30
0.0
  0
CIRCLE
  5
C3
330
1F
100
AcDbEntity
  8
0
  6
Continuous
 62
     7
370
    25
100
AcDbCircle
 10
160.626807027
 20
170.6375042102
 30
0.0
 40
2.624999999999984
  0
ARC
  5
C4
330
1F
100
AcDbEntity
  8
0
  6
Continuous
 62
     7
370
    25
100
AcDbCircle
 10
175.6213137224
 20
117.1342610319
 30
0.0
 40
39.99999999999997
100
AcDbArc
 50
107.3265567112
 51
130.8249361568
  0
SPLINE
  5
C5
330
1F
100
AcDbEntity
  8
0
  6
Continuous
 62
     7
370
    25
100
AcDbSpline
210
0.0
220
0.0
230
1.0
 70
     8
 71
     3
 72
     8
 73
     4
 74
     0
 42
0.000000001
 43
0.00000001
 40
0.0
 40
0.0
 40
0.0
 40
0.0
 40
1.0
 40
1.0
 40
1.0
 40
1.0
 10
149.4713137224423
 20
156.6562649802012
 30
0.0
 10
149.7028253918012
 20
156.6708742884245
 30
0.0
 10
149.8799239110168
 20
156.7019297867933
 30
0.0
 10
149.9440543834736
 20
156.7359600287701
 30
0.0
  0
ELLIPSE
  5
C6
330
1F
100
AcDbEntity
  8
0
  6
Continuous
 62
     7
370
    25
100
AcDbEllipse
 10
151.4528114639
 20
117.1342610319
 30
0.0
 11
-3.979039320256561E-13
 21
39.99999999999997
 31
0.0
210
0.0
220
0.0
230
1.0
 40
0.2679491924
 41
0.0
 42
0.1412380577859606
  0
LINE
  5
C7
330
1F
100
AcDbEntity
  8
0
  6
Continuous
 62
     7
370
    25
100
AcDbLine
 10
151.452811636
 20
157.1342601199
 30
0.0
 11
165.1713137082
 21
157.1342601199
 31
0.0
  0
ELLIPSE
  5
C8
330
1F
100
AcDbEntity
  8
0
  6
Continuous
 62
     7
370
    25
100
AcDbEllipse
 10
165.1713137224
 20
117.1342610319
 30
0.0
 11
-4.263256414560601E-13
 21
40.0
 31
0.0
210
0.0
220
0.0
230
1.0
 40
0.1227845609
 41
0.0
 42
0.3024054626435351
  0
LINE
  5
C9
330
1F
100
AcDbEntity
  8
0
  6
Continuous
 62
     7
370
    25
100
AcDbLine
 10
151.452811636
 20
157.1342601199
 30
0.0
 11
151.452811636
 21
173.4309013226
 31
0.0
  0
ELLIPSE
  5
CA
330
1F
100
AcDbEntity
  8
0
  6
Continuous
 62
     7
370
    25
100
AcDbEllipse
 10
151.5064013024
 20
132.8237938447
 30
0.0
 11
0.5352572967201752
 21
40.66076322939651
 31
0.0
210
0.0
220
0.0
230
1.0
 40
0.263265937
 41
0.0549609884827582
 42
0.1962511498552446
  0
ARC
  5
CB
330
1F
100
AcDbEntity
  8
0
  6
Continuous
 62
     7
370
    25
100
AcDbCircle
 10
156.726807027
 20
165.9896651991
 30
0.0
 40
1.649999999999983
100
AcDbArc
 50
117.2673607373
 51
342.7326392627
  0
LINE
  5
CC
330
1F
100
AcDbEntity
  8
0
  6
Continuous
 62
     7
370
    25
100
AcDbLine
 10
165.1713137082
 20
157.1342601199
 30
0.0
 11
165.1713137082
 21
166.6873656903
 31
0.0
  0
LINE
  5
CD
330
1F
100
AcDbEntity
  8
0
  6
Continuous
 62
     7
370
    25
100
AcDbLine
 10
151.452811636
 20
173.4309013226
 30
0.0
 11
155.9463136047
 21
174.2232270297
 31
0.0
  0
LINE
  5
CE
330
1F
100
AcDbEntity
  8
0
  6
Continuous
 62
     7
370
    25
100
AcDbLine
 10
149.4713129625
 20
156.6562643964
 30
0.0
 11
149.4713129625
 21
156.1284522284
 31
0.0
  0
SPLINE
  5
CF
330
1F
100
AcDbEntity
  8
0
  6
Continuous
 62
     7
370
    25
100
AcDbSpline
210
0.0
220
0.0
230
1.0
 70
     8
 71
     3
 72
     8
 73
     4
 74
     0
 42
0.000000001
 43
0.00000001
 40
0.0
 40
0.0
 40
0.0
 40
0.0
 40
1.0
 40
1.0
 40
1.0
 40
1.0
 10
148.9642584863604
 20
155.2667860657237
 30
0.0
 10
149.1293256973658
 20
155.556545758623
 30
0.0
 10
149.3018734042864
 20
155.8436876005356
 30
0.0
 10
149.4713137224423
 20
156.1284530668212
 30
0.0
  0
SPLINE
  5
D0
330
1F
100
AcDbEntity
  8
0
  6
Continuous
 62
     7
370
    25
100
AcDbSpline
210
0.0
220
0.0
230
1.0
 70
     8
 71
     3
 72
    12
 73
     8
 74
     0
 42
0.000000001
 43
0.00000001
 40
0.0
 40
0.0
 40
0.0
 40
0.0
 40
0.2500000000000019
 40
0.2500000000000019
 40
0.5000000000000038
 40
0.5000000000000038
 40
1.0
 40
1.0
 40
1.0
 40
1.0
 10
148.9642584863602
 20
172.469926085378
 30
0.0
 10
149.0677180361039
 20
172.4836086868867
 30
0.0
 10
149.1741141537282
 20
172.5013027235856
 30
0.0
 10
149.3824105868522
 20
172.5426679520341
 30
0.0
 10
149.4830773114709
 20
172.5661557729365
 30
0.0
 10
149.7524146763018
 20
172.6390250826577
 30
0.0
 10
149.8891639638414
 20
172.6912017363787
 30
0.0
 10
149.9440543834735
 20
172.7315297625585
 30
0.0
  0
LINE
  5
D1
330
1F
100
AcDbEntity
  8
0
  6
Continuous
 62
     7
370
    25
100
AcDbLine
 10
147.6713141576
 20
41.764347883
 30
0.0
 11
147.6713141576
 21
172.2973515969
 31
0.0
  0
LINE
  5
D2
330
1F
100
AcDbEntity
  8
0
  6
Continuous
 62
     7
370
    25
100
AcDbLine
 10
127.219701387
 20
43.6377665718
 30
0.0
 11
127.219701387
 21
149.9826508333
 31
0.0
  0
LINE
  5
D3
330
1F
100
AcDbEntity
  8
0
  6
Continuous
 62
     7
370
    25
100
AcDbLine
 10
128.5713149384
 20
151.3342606594
 30
0.0
 11
127.219701387
 21
149.9826508333
 31
0.0
  0
LINE
  5
D4
330
1F
100
AcDbEntity
  8
0
  6
Continuous
 62
     7
370
    25
100
AcDbLine
 10
128.5713149384
 20
167.2821604405
 30
0.0
 11
128.5713149384
 21
151.3342606594
 31
0.0
  0
LINE
  5
D5
330
1F
100
AcDbEntity
  8
0
  6
Continuous
 62
     7
370
    25
100
AcDbLine
 10
128.5713149384
 20
167.2821604405
 30
0.0
 11
130.5713152662
 21
169.2821603027
 31
0.0
  0
LINE
  5
D6
330
1F
100
AcDbEntity
  8
0
  6
Continuous
 62
     7
370
    25
100
AcDbLine
 10
128.9453266338
 20
41.764347883
 30
0.0
 11
147.6713141576
 21
41.764347883
 31
0.0
  0
LINE
  5
D7
330
1F
100
AcDbEntity
  8
0
  6
Continuous
 62
     7
370
    25
100
AcDbLine
 10
127.2192170993
 20
43.6382881124
 30
0.0
 11
128.9453564361
 21
41.7590132673
 31
0.0
  0
LINE
  5
D8
330
1F
100
AcDbEntity
  8
0
  6
Continuous
 62
     7
370
    25
100
AcDbLine
 10
130.5713152662
 20
169.2821603027
 30
0.0
 11
147.6713141576
 21
172.2973515969
 31
0.0
  0
LINE
  5
D9
330
1F
100
AcDbEntity
  8
0
  6
Continuous
 62
     7
370
    25
100
AcDbLine
 10
126.0706691221
 20
45.3998437841
 30
0.0
 11
126.0706691221
 21
148.5257307757
 31
0.0
  0
LINE
  5
DA
330
1F
100
AcDbEntity
  8
0
  6
Continuous
 62
     7
370
    25
100
AcDbLine
 10
126.0706691221
 20
148.5257307757
 30
0.0
 11
127.219701387
 21
149.9826508333
 31
0.0
  0
SPLINE
  5
DB
330
1F
100
AcDbEntity
  8
0
  6
Continuous
 62
     7
370
    25
100
AcDbSpline
210
0.0
220
0.0
230
1.0
 70
     8
 71
     3
 72
    11
 73
     7
 74
     0
 42
0.000000001
 43
0.00000001
 40
0.0004681206978771
 40
0.0004681206978771
 40
0.0004681206978771
 40
0.0004681206978771
 40
0.0014317779784607
 40
0.0014317779784607
 40
0.0014317779784607
 40
0.0028636779784317
 40
0.0028636779784317
 40
0.0028636779784317
 40
0.0028636779784317
 10
127.2197064675632
 20
43.63971766601678
 30
0.0
 10
127.0643493059262
 20
43.87404699416685
 30
0.0
 10
126.9094900709116
 20
44.10903869927436
 30
0.0
 10
126.7551511669554
 20
44.34470994237845
 30
0.0
 10
126.5258191488751
 20
44.69489359924759
 30
0.0
 10
126.2976314654801
 20
45.0465838498766
 30
0.0
 10
126.0706672878479
 20
45.39983937596968
 30
0.0
  0
SPLINE
  5
DC
330
1F
100
AcDbEntity
  8
0
  6
Continuous
 62
     7
370
    25
100
AcDbSpline
210
0.0
220
0.0
230
1.0
 70
     8
 71
     3
 72
     8
 73
     4
 74
     0
 42
0.000000001
 43
0.00000001
 40
0.0
 40
0.0
 40
0.0
 40
0.0
 40
1.0
 40
1.0
 40
1.0
 40
1.0
 10
148.7641340454699
 20
154.6218256366962
 30
0.0
 10
148.7641340454699
 20
154.852960446327
 30
0.0
 10
148.8515301023987
 20
155.0689021751652
 30
0.0
 10
148.9642584863595
 20
155.2667860657242
 30
0.0
  0
LINE
  5
DD
330
1F
100
AcDbEntity
  8
0
  6
Continuous
 62
     7
370
    25
100
AcDbLine
 10
148.7641336545
 20
154.6218256225
 30
0.0
 11
148.7641336545
 21
41.8087533434
 31
0.0
  0
ELLIPSE
  5
DE
330
1F
100
AcDbEntity
  8
0
  6
Continuous
 62
     7
370
    25
100
AcDbEllipse
 10
125.8388164982
 20
81.3342610319
 30
0.0
 11
149.2820323027527
 21
1.577404873387422E-12
 31
0.0
210
0.0
220
0.0
230
1.0
 40
0.2679491924
 41
4.859165421731895
 42
4.866569617999824
  0
ELLIPSE
  5
DF
330
1F
100
AcDbEntity
  8
0
  6
Continuous
 62
     7
370
    25
100
AcDbEllipse
 10
125.0924063367
 20
128.1662938639
 30
0.0
 11
149.0957597411441
 21
28.31802889254331
 31
0.0
210
0.0
220
0.0
230
1.0
 40
0.263265937
 41
1.360234778308899
 42
1.369002660408417
  0
LINE
  5
E0
330
1F
100
AcDbEntity
  8
0
  6
Continuous
 62
     7
370
    25
100
AcDbLine
 10
149.4713129625
 20
154.6218256225
 30
0.0
 11
149.4713129625
 21
156.1284522284
 31
0.0
  0
LINE
  5
E1
330
1F
100
AcDbEntity
  8
0
  6
Continuous
 62
     7
370
    25
100
AcDbLine
 10
149.4713129625
 20
154.6218256225
 30
0.0
 11
149.4713129625
 21
41.9251612146
 31
0.0
  0
ARC
  5
E2
330
1F
100
AcDbEntity
  8
0
  6
Continuous
 62
     7
370
    25
100
AcDbCircle
 10
142.6213137224
 20
81.3342610319
 30
0.0
 40
39.99999999999999
100
AcDbArc
 50
278.833899818
 51
279.860504645
  0
LINE
  5
E3
330
1F
100
AcDbEntity
  8
VERMASSUNG
100
AcDbLine
 10
165.0713137224
 20
176.3342610319
 30
0.0
 11
168.4621147855
 21
176.3342610319
 31
0.0
  0
DIMENSION
  5
E4
330
1F
100
AcDbEntity
  8
VERMASSUNG
100
AcDbDimension
  2
_D
 10
187.4713137224
 20
41.7643545372
 30
0.0
 11
187.4713137224
 21
112.8953954404
 31
0.0
 70
   160
  1
min.%%c136 - max.%%c220
 71
     2
 42
-1.0
  3
SLDDIMSTYLE0
100
AcDbAlignedDimension
 13
168.4621147855
 23
176.3342610319
 33
0.0
 14
147.6713137224
 24
41.7643545372
 34
0.0
 50
90.0
100
AcDbRotatedDimension
  0
DIMENSION
  5
F1
330
1F
100
AcDbEntity
  8
VERMASSUNG
100
AcDbDimension
  2
_D_1
 10
168.4621147855
 20
176.3342610319
 30
0.0
 11
173.7124374679
 21
168.0931372864
 31
0.0
 70
   162
  1
<>
 71
     1
 42
-1.0
  3
SLDDIMSTYLE1
100
AcDb2LineAngularDimension
 13
165.4713137224
 23
167.0746638432
 33
0.0
 14
165.4713137224
 24
175.9342610319
 34
0.0
 15
165.0713137224
 25
176.3342610319
 35
0.0
 16
173.7124374679
 26
168.0931372864
 36
0.0
  0
DIMENSION
  5
FC
330
1F
100
AcDbEntity
  8
VERMASSUNG
100
AcDbDimension
  2
_D_2
 10
126.0706672878
 20
186.3342610319
 30
0.0
 11
145.7709905051
 21
186.3342610319
 31
0.0
 70
   160
  1
<>
 71
     2
 42
-1.0
  3
SLDDIMSTYLE2
100
AcDbAlignedDimension
 13
165.4713137224
 23
175.9342610319
 33
0.0
 14
126.0706672878
 24
148.5257314719
 34
0.0
 50
0.0
100
AcDbRotatedDimension
  0
LINE
  5
107
330
1F
100
AcDbEntity
  8
VERMASSUNG
  6
CENTERX2
 62
     7
370
    18
100
AcDbLine
 10
122.7868608139
 20
117.1342610319
 30
0.0
 11
154.2957556179
 21
117.1342610319
 31
0.0
  0
LINE
  5
108
330
1F
100
AcDbEntity
  8
0
  6
Continuous
 62
     7
370
    25
100
AcDbLine
 10
221.5224497188
 20
61.9935345589
 30
0.0
 11
221.8903741314
 21
62.2870506758
 31
0.0
  0
LINE
  5
109
330
1F
100
AcDbEntity
  8
0
  6
Continuous
 62
     7
370
    25
100
AcDbLine
 10
218.8896704251
 20
68.5104107964
 30
0.0
 11
217.6469552444
 21
68.0230682534
 31
0.0
  0
LINE
  5
10A
330
1F
100
AcDbEntity
  8
0
  6
Continuous
 62
     7
370
    25
100
AcDbLine
 10
220.3641516196
 20
63.8693891482
 30
0.0
 11
220.5926922574
 21
64.0013228501
 31
0.0
  0
LINE
  5
10B
330
1F
100
AcDbEntity
  8
0
  6
Continuous
 62
     7
370
    25
100
AcDbLine
 10
219.3079289688
 20
66.2906514923
 30
0.0
 11
219.0517583553
 21
66.1427673449
 31
0.0
  0
LINE
  5
10C
330
1F
100
AcDbEntity
  8
0
  6
Continuous
 62
     7
370
    25
100
AcDbLine
 10
219.3425211105
 20
65.4913219636
 30
0.0
 11
219.5677762054
 21
65.6213589619
 31
0.0
  0
LINE
  5
10D
330
1F
100
AcDbEntity
  8
0
  6
Continuous
 62
     7
370
    25
100
AcDbLine
 10
220.1657263868
 20
64.5727273872
 30
0.0
 11
219.935037847
 21
64.4395537278
 31
0.0
  0
LINE
  5
10E
330
1F
100
AcDbEntity
  8
0
  6
Continuous
 62
     7
370
    25
100
AcDbLine
 10
220.9518762358
 20
66.0843732748
 30
0.0
 11
221.0094991941
 21
65.9851957228
 31
0.0
  0
LINE
  5
10F
330
1F
100
AcDbEntity
  8
0
  6
Continuous
 62
     7
370
    25
100
AcDbLine
 10
221.5534246889
 20
62.1090348583
 30
0.0
 11
221.0094991941
 21
65.9851957228
 31
0.0
  0
LINE
  5
110
330
1F
100
AcDbEntity
  8
0
  6
Continuous
 62
     7
370
    25
100
AcDbLine
 10
221.4958014014
 20
62.2082127192
 30
0.0
 11
221.5534246889
 21
62.1090348583
 31
0.0
  0
LINE
  5
111
330
1F
100
AcDbEntity
  8
0
  6
Continuous
 62
     7
370
    25
100
AcDbLine
 10
221.4321937965
 20
62.4334932492
 30
0.0
 11
221.4958014014
 21
62.2082127192
 31
0.0
  0
LINE
  5
112
330
1F
100
AcDbEntity
  8
0
  6
Continuous
 62
     7
370
    25
100
AcDbLine
 10
221.4321937965
 20
62.4334932492
 30
0.0
 11
221.4252731522
 21
62.4828108997
 31
0.0
  0
LINE
  5
113
330
1F
100
AcDbEntity
  8
0
  6
Continuous
 62
     7
370
    25
100
AcDbLine
 10
220.9380280583
 20
66.0665403304
 30
0.0
 11
220.9518762358
 21
66.0843732748
 31
0.0
  0
LINE
  5
114
330
1F
100
AcDbEntity
  8
0
  6
Continuous
 62
     7
370
    25
100
AcDbLine
 10
222.0220111282
 20
66.7021489985
 30
0.0
 11
221.1782744791
 21
66.1047041005
 31
0.0
  0
LINE
  5
115
330
1F
100
AcDbEntity
  8
0
  6
Continuous
 62
     7
370
    25
100
AcDbLine
 10
221.0716596578
 20
66.0292110872
 30
0.0
 11
221.0094991941
 21
65.9851957228
 31
0.0
  0
LINE
  5
116
330
1F
100
AcDbEntity
  8
0
  6
Continuous
 62
     7
370
    25
100
AcDbLine
 10
222.2478885193
 20
66.8267955381
 30
0.0
 11
222.0220111282
 21
66.7021489985
 31
0.0
  0
LINE
  5
117
330
1F
100
AcDbEntity
  8
0
  6
Continuous
 62
     7
370
    25
100
AcDbLine
 10
222.2795480466
 20
66.6011805759
 30
0.0
 11
222.2478885193
 21
66.8267955381
 31
0.0
  0
LINE
  5
118
330
1F
100
AcDbEntity
  8
0
  6
Continuous
 62
     7
370
    25
100
AcDbLine
 10
221.8789083364
 20
62.339507807
 30
0.0
 11
221.5534246889
 21
62.1090348583
 31
0.0
  0
LINE
  5
119
330
1F
100
AcDbEntity
  8
0
  6
Continuous
 62
     7
370
    25
100
AcDbLine
 10
220.9518762358
 20
66.0843732748
 30
0.0
 11
220.8702265795
 21
66.2005460898
 31
0.0
  0
ARC
  5
11A
330
1F
100
AcDbEntity
  8
0
  6
Continuous
 62
     7
370
    25
100
AcDbCircle
 10
220.7002912929
 20
65.937933802
 30
0.0
 40
0.3127990014328136
100
AcDbArc
 50
8.6903064011
 51
57.0932671151
  0
LINE
  5
11B
330
1F
100
AcDbEntity
  8
0
  6
Continuous
 62
     7
370
    25
100
AcDbLine
 10
222.0220111282
 20
66.7021489985
 30
0.0
 11
220.8702265795
 21
66.2005460898
 31
0.0
  0
SPLINE
  5
11C
330
1F
100
AcDbEntity
  8
0
  6
Continuous
 62
     7
370
    25
100
AcDbSpline
210
0.0
220
0.0
230
1.0
 70
     8
 71
     3
 72
    11
 73
     7
 74
     0
 42
0.000000001
 43
0.00000001
 40
0.0
 40
0.0
 40
0.0
 40
0.0
 40
0.3360297115957789
 40
0.6712275641212103
 40
0.9920225142402712
 40
0.9999999999999999
 40
0.9999999999999999
 40
0.9999999999999999
 40
0.9999999999999999
 10
220.9380280583339
 20
66.06654033043165
 30
0.0
 10
220.9293085293709
 20
66.05761756482978
 30
0.0
 10
220.9118910570935
 20
66.03979412239747
 30
0.0
 10
220.8475969498774
 20
65.99049047747849
 30
0.0
 10
220.7928235657751
 20
65.95135791215061
 30
0.0
 10
220.7634802298111
 20
65.93098532604296
 30
0.0
 10
220.7627682295968
 20
65.93049099623354
 30
0.0
  0
LINE
  5
11D
330
1F
100
AcDbEntity
  8
0
  6
Continuous
 62
     7
370
    25
100
AcDbLine
 10
218.0026866437
 20
67.7363652309
 30
0.0
 11
217.8195355327
 21
67.8926350728
 31
0.0
  0
LINE
  5
11E
330
1F
100
AcDbEntity
  8
0
  6
Continuous
 62
     7
370
    25
100
AcDbLine
 10
217.8195355327
 20
67.8926350728
 30
0.0
 11
217.7378858764
 21
68.0088078877
 31
0.0
  0
LINE
  5
11F
330
1F
100
AcDbEntity
  8
0
  6
Continuous
 62
     7
370
    25
100
AcDbLine
 10
220.8702265795
 20
66.2005460898
 30
0.0
 11
217.7378858764
 21
68.0088078877
 31
0.0
  0
LINE
  5
120
330
1F
100
AcDbEntity
  8
0
  6
Continuous
 62
     7
370
    25
100
AcDbLine
 10
218.0425402756
 20
67.713358219
 30
0.0
 11
218.0026866437
 21
67.7363652309
 31
0.0
  0
LINE
  5
121
330
1F
100
AcDbEntity
  8
0
  6
Continuous
 62
     7
370
    25
100
AcDbLine
 10
218.8896704251
 20
68.5104107964
 30
0.0
 11
217.7378858764
 21
68.0088078877
 31
0.0
  0
LINE
  5
122
330
1F
100
AcDbEntity
  8
0
  6
Continuous
 62
     7
370
    25
100
AcDbLine
 10
219.1783417329
 20
68.5988071796
 30
0.0
 11
218.8896704251
 21
68.5104107964
 31
0.0
  0
LINE
  5
123
330
1F
100
AcDbEntity
  8
0
  6
Continuous
 62
     7
370
    25
100
AcDbLine
 10
222.2478885193
 20
66.8267955381
 30
0.0
 11
219.1783417329
 21
68.5988071796
 31
0.0
  0
LINE
  5
124
330
1F
100
AcDbEntity
  8
0
  6
Continuous
 62
     7
370
    25
100
AcDbLine
 10
218.1481310859
 20
66.8028880924
 30
0.0
 11
218.4676287695
 21
64.5260602124
 31
0.0
  0
LWPOLYLINE
  5
125
330
1F
100
AcDbEntity
  8
0
  6
Continuous
 62
     7
370
    25
100
AcDbPolyline
 90
        9
 70
   128
 43
0.0
 10
218.4963132396
 20
67.08105258
 10
218.4197902855
 20
67.1155507379
 10
218.3468950884
 20
67.1290581315
 10
218.2810835665
 20
67.1209343238
 10
218.2254756155
 20
67.0915645681
 10
218.1827075537
 20
67.0423411866
 10
218.154806875
 20
66.9755978025
 10
218.1430963485
 20
66.8944984932
 10
218.1481310859
 20
66.8028880924
  0
LINE
  5
126
330
1F
100
AcDbEntity
  8
0
  6
Continuous
 62
     7
370
    25
100
AcDbLine
 10
220.336226832
 20
66.0188930719
 30
0.0
 11
218.4963132396
 21
67.08105258
 31
0.0
  0
ARC
  5
127
330
1F
100
AcDbEntity
  8
0
  6
Continuous
 62
     7
370
    25
100
AcDbCircle
 10
219.9113862422
 20
65.3623599543
 30
0.0
 40
0.7820008064470015
100
AcDbArc
 50
8.6904194204
 51
57.0932165748
  0
LINE
  5
128
330
1F
100
AcDbEntity
  8
0
  6
Continuous
 62
     7
370
    25
100
AcDbLine
 10
221.0039065048
 20
63.2036890189
 30
0.0
 11
220.6844090269
 21
65.4805167802
 31
0.0
  0
LWPOLYLINE
  5
129
330
1F
100
AcDbEntity
  8
0
  6
Continuous
 62
     7
370
    25
100
AcDbPolyline
 90
        9
 70
   128
 43
0.0
 10
220.6557244746
 20
62.9255242699
 10
220.7322473464
 20
62.8910262071
 10
220.8051426258
 20
62.8775190511
 10
220.8709539419
 20
62.8856425974
 10
220.9265620987
 20
62.9150123294
 10
220.9693299547
 20
62.9642359723
 10
220.9972308391
 20
63.0309792851
 10
221.0089414068
 20
63.112078428
 10
221.0039065048
 20
63.2036890189
  0
LINE
  5
12A
330
1F
100
AcDbEntity
  8
0
  6
Continuous
 62
     7
370
    25
100
AcDbLine
 10
218.8158108821
 20
63.9876837781
 30
0.0
 11
220.6557244746
 21
62.9255242699
 31
0.0
  0
ARC
  5
12B
330
1F
100
AcDbEntity
  8
0
  6
Continuous
 62
     7
370
    25
100
AcDbCircle
 10
219.240651214
 20
64.6442165793
 30
0.0
 40
0.7820004006544354
100
AcDbArc
 50
188.690389947
 51
237.0932198543
  0
LWPOLYLINE
  5
12C
330
1F
100
AcDbEntity
  8
0
  6
Continuous
 62
     7
370
    25
100
AcDbPolyline
 90
       26
 70
   128
 43
0.0
 10
219.5760188571
 20
63.7580637584
 10
219.8441905285
 20
63.6423726107
 10
220.0955120215
 20
63.6121927933
 10
220.3141919328
 20
63.6694204645
 10
220.486489402
 20
63.8104601973
 10
220.6015789451
 20
64.026449682
 10
220.6522289203
 20
64.3038173045
 10
220.6352562527
 20
64.6251356182
 10
220.5517281137
 20
64.9702144336
 10
220.4068924444
 20
65.3173715448
 10
220.2098498361
 20
65.6447936427
 10
219.9729814194
 20
65.9319075654
 10
219.7111703002
 20
66.1606730126
 10
219.4408672495
 20
66.3167156423
 10
219.1790561303
 20
66.3902308791
 10
218.9421877135
 20
66.3765994091
 10
218.7451451875
 20
66.2766778168
 10
218.6003096006
 20
66.0967443623
 10
218.5167812969
 20
65.8481051786
 10
218.4998087939
 20
65.5463829947
 10
218.5504586045
 20
65.2105362506
 10
218.6655480653
 20
64.8616672554
 10
218.8378457814
 20
64.5216969565
 10
219.0565255281
 20
64.2119869289
 10
219.3078470211
 20
63.9519971269
 10
219.5760188571
 20
63.7580637584
  0
LWPOLYLINE
  5
12D
330
1F
100
AcDbEntity
  8
0
  6
Continuous
 62
     7
370
    25
100
AcDbPolyline
 90
        3
 70
   128
 43
0.0
 10
220.3406060296
 20
63.856738504
 10
220.5020984297
 20
63.8469101306
 10
220.5141568736
 20
63.8477204897
  0
ARC
  5
12E
330
1F
100
AcDbEntity
  8
0
  6
Continuous
 62
     7
370
    25
100
AcDbCircle
 10
219.7576414934
 20
65.9343649972
 30
0.0
 40
0.8482278263412305
100
AcDbArc
 50
147.2227492766
 51
174.280498835
  0
SPLINE
  5
12F
330
1F
100
AcDbEntity
  8
0
  6
Continuous
 62
     7
370
    25
100
AcDbSpline
210
0.0
220
0.0
230
1.0
 70
     8
 71
     3
 72
     9
 73
     5
 74
     0
 42
0.000000001
 43
0.00000001
 40
0.0
 40
0.0
 40
0.0
 40
0.0
 40
0.0433027425186159
 40
1.0
 40
1.0
 40
1.0
 40
1.0
 10
221.2105457633051
 20
62.73507544395163
 30
0.0
 10
221.211281979641
 20
62.73460767865761
 30
0.0
 10
221.2282835895415
 20
62.72380546921779
 30
0.0
 10
221.2445258367191
 20
62.71145935174754
 30
0.0
 10
221.2600647500492
 20
62.6996478550232
 30
0.0
  0
SPLINE
  5
130
330
1F
100
AcDbEntity
  8
0
  6
Continuous
 62
     7
370
    25
100
AcDbSpline
210
0.0
220
0.0
230
1.0
 70
     8
 71
     3
 72
    14
 73
    10
 74
     0
 42
0.000000001
 43
0.00000001
 40
0.0
 40
0.0
 40
0.0
 40
0.0
 40
0.3240428068897975
 40
0.4390837955103178
 40
0.5550341987596188
 40
0.6320189044388707
 40
0.7091783695879764
 40
0.8120431286657069
 40
0.9999999999999999
 40
0.9999999999999999
 40
0.9999999999999999
 40
0.9999999999999999
 10
221.4252731522223
 20
62.48281089968071
 30
0.0
 10
221.4192249018237
 20
62.51798204101239
 30
0.0
 10
221.4110294144229
 20
62.56563956619114
 30
0.0
 10
221.3872061877912
 20
62.62746245920565
 30
0.0
 10
221.3686735230964
 20
62.66080595127758
 30
0.0
 10
221.3473309764308
 20
62.68494621708997
 30
0.0
 10
221.3248797343178
 20
62.69998321486155
 30
0.0
 10
221.2938308143531
 20
62.70788100945596
 30
0.0
 10
221.2733204910248
 20
62.7028799925205
 30
0.0
 10
221.2600647500492
 20
62.6996478550232
 30
0.0
  0
SPLINE
  5
131
330
1F
100
AcDbEntity
  8
0
  6
Continuous
 62
     7
370
    25
100
AcDbSpline
210
0.0
220
0.0
230
1.0
 70
     8
 71
     3
 72
    14
 73
    10
 74
     0
 42
0.000000001
 43
0.00000001
 40
0.0
 40
0.0
 40
0.0
 40
0.0
 40
0.121502513843965
 40
0.2571356283481498
 40
0.3367054914357056
 40
0.4166988585635807
 40
0.5090573828544287
 40
0.659989770017538
 40
1.0
 40
1.0
 40
1.0
 40
1.0
 10
218.1748157107178
 20
67.470210874628
 30
0.0
 10
218.179369025677
 20
67.47842225558843
 30
0.0
 10
218.189005200815
 20
67.4957999915386
 30
0.0
 10
218.19591959965
 20
67.52492546469726
 30
0.0
 10
218.1931220860363
 20
67.55614501454
 30
0.0
 10
218.182858793198
 20
67.58476351240718
 30
0.0
 10
218.1615605735926
 20
67.6184964278068
 30
0.0
 10
218.114467606786
 20
67.6682011250014
 30
0.0
 10
218.0719715827039
 20
67.69488078795538
 30
0.0
 10
218.0425402756287
 20
67.71335821896265
 30
0.0
  0
SPLINE
  5
132
330
1F
100
AcDbEntity
  8
0
  6
Continuous
 62
     7
370
    25
100
AcDbSpline
210
0.0
220
0.0
230
1.0
 70
     8
 71
     3
 72
     9
 73
     5
 74
     0
 42
0.000000001
 43
0.00000001
 40
0.0
 40
0.0
 40
0.0
 40
0.0
 40
0.9566958222924803
 40
1.0
 40
1.0
 40
1.0
 40
1.0
 10
218.1748157107178
 20
67.470210874628
 30
0.0
 10
218.1788501899825
 20
67.45175804102887
 30
0.0
 10
218.1830672871735
 20
67.43246995262172
 30
0.0
 10
218.1854824627151
 20
67.41324712604701
 30
0.0
 10
218.185587049906
 20
67.41241469734899
 30
0.0
  0
LWPOLYLINE
  5
133
330
1F
100
AcDbEntity
  8
0
  6
Continuous
 62
     7
370
    25
100
AcDbPolyline
 90
        9
 70
   128
 43
0.0
 10
221.4141517451
 20
61.9977691107
 10
221.4447608939
 20
61.9839699616
 10
221.4739189398
 20
61.9785671373
 10
221.5002435979
 20
61.9818164037
 10
221.5224869265
 20
61.9935644106
 10
221.5395939372
 20
62.0132536396
 10
221.550754291
 20
62.0399511168
 10
221.5554385181
 20
62.0723906219
 10
221.5534246889
 20
62.1090348583
  0
LINE
  5
134
330
1F
100
AcDbEntity
  8
0
  6
Continuous
 62
     7
370
    25
100
AcDbLine
 10
221.4958014014
 20
62.2082127192
 30
0.0
 11
221.4141517451
 21
61.9977691107
 31
0.0
  0
SPLINE
  5
135
330
1F
100
AcDbEntity
  8
0
  6
Continuous
 62
     7
370
    25
100
AcDbSpline
210
0.0
220
0.0
230
1.0
 70
     8
 71
     3
 72
    14
 73
    10
 74
     0
 42
0.000000001
 43
0.00000001
 40
0.0
 40
0.0
 40
0.0
 40
0.0
 40
0.1215030875000534
 40
0.2571362787043359
 40
0.3367057659932997
 40
0.4166995342924514
 40
0.5090578962147291
 40
0.659990003818796
 40
1.0
 40
1.0
 40
1.0
 40
1.0
 10
221.2600647500492
 20
62.6996478550232
 30
0.0
 10
221.2555113904995
 20
62.69143645242231
 30
0.0
 10
221.2458751421186
 20
62.67405870876837
 30
0.0
 10
221.2389606945912
 20
62.64493326592885
 30
0.0
 10
221.2417580703298
 20
62.61371370353916
 30
0.0
 10
221.2520217249554
 20
62.58509520500877
 30
0.0
 10
221.2733198004558
 20
62.55136228342921
 30
0.0
 10
221.320412675503
 20
62.50165733152867
 30
0.0
 10
221.3629086893787
 20
62.47497774257489
 30
0.0
 10
221.3923399999225
 20
62.45650035620214
 30
0.0
  0
LINE
  5
136
330
1F
100
AcDbEntity
  8
0
  6
Continuous
 62
     7
370
    25
100
AcDbLine
 10
218.2818111347
 20
63.8060308552
 30
0.0
 11
221.4141517451
 21
61.9977691107
 31
0.0
  0
LINE
  5
137
330
1F
100
AcDbEntity
  8
0
  6
Continuous
 62
     7
370
    25
100
AcDbLine
 10
218.363460791
 20
64.0164744637
 30
0.0
 11
218.2818111347
 21
63.8060308552
 31
0.0
  0
LINE
  5
138
330
1F
100
AcDbEntity
  8
0
  6
Continuous
 62
     7
370
    25
100
AcDbLine
 10
218.4384003006
 20
64.0695744814
 30
0.0
 11
218.363460791
 21
64.0164744637
 31
0.0
  0
LINE
  5
139
330
1F
100
AcDbEntity
  8
0
  6
Continuous
 62
     7
370
    25
100
AcDbLine
 10
221.3923399999
 20
62.4565003562
 30
0.0
 11
221.4321937965
 21
62.4334932492
 31
0.0
  0
LINE
  5
13A
330
1F
100
AcDbEntity
  8
0
  6
Continuous
 62
     7
370
    25
100
AcDbLine
 10
218.363460791
 20
64.0164744637
 30
0.0
 11
218.1425382732
 21
64.0213815905
 31
0.0
  0
LINE
  5
13B
330
1F
100
AcDbEntity
  8
0
  6
Continuous
 62
     7
370
    25
100
AcDbLine
 10
217.598613032
 20
67.8975420591
 30
0.0
 11
218.1425382732
 21
64.0213815905
 31
0.0
  0
LINE
  5
13C
330
1F
100
AcDbEntity
  8
0
  6
Continuous
 62
     7
370
    25
100
AcDbLine
 10
217.8195355327
 20
67.8926350728
 30
0.0
 11
217.598613032
 21
67.8975420591
 31
0.0
  0
LINE
  5
13D
330
1F
100
AcDbEntity
  8
0
  6
Continuous
 62
     7
370
    25
100
AcDbLine
 10
218.0026866437
 20
67.7363652309
 30
0.0
 11
218.0096071439
 21
67.6870477824
 31
0.0
  0
SPLINE
  5
13E
330
1F
100
AcDbEntity
  8
0
  6
Continuous
 62
     7
370
    25
100
AcDbSpline
210
0.0
220
0.0
230
1.0
 70
     8
 71
     3
 72
    14
 73
    10
 74
     0
 42
0.000000001
 43
0.00000001
 40
0.0
 40
0.0
 40
0.0
 40
0.0
 40
0.3240420653042756
 40
0.4390834215948017
 40
0.5550338258648012
 40
0.6320175639914547
 40
0.7091775713715915
 40
0.8120429406586155
 40
1.0
 40
1.0
 40
1.0
 40
1.0
 10
218.0096071439085
 20
67.68704778242612
 30
0.0
 10
218.0156553708303
 20
67.65187668688172
 30
0.0
 10
218.0238508381963
 20
67.60421915526352
 30
0.0
 10
218.0476742937059
 20
67.54239633332038
 30
0.0
 10
218.0662068388916
 20
67.5090527996799
 30
0.0
 10
218.0875493713637
 20
67.48491269070041
 30
0.0
 10
218.1100005979248
 20
67.46987515119672
 30
0.0
 10
218.1410496809446
 20
67.46197749396245
 30
0.0
 10
218.161559997344
 20
67.46697865174205
 30
0.0
 10
218.1748157107178
 20
67.470210874628
 30
0.0
  0
LWPOLYLINE
  5
13F
330
1F
100
AcDbEntity
  8
0
  6
Continuous
 62
     7
370
    25
100
AcDbPolyline
 90
        9
 70
   128
 43
0.0
 10
217.7378858764
 20
68.0088078877
 10
217.7072766968
 20
68.0226071356
 10
217.6781186303
 20
68.028010081
 10
217.6517940134
 20
68.0247605769
 10
217.6295508366
 20
68.0130126785
 10
217.6124436047
 20
67.9933233277
 10
217.6012833396
 20
67.9666259597
 10
217.5965991256
 20
67.9341862332
 10
217.598613032
 20
67.8975420591
  0
SPLINE
  5
140
330
1F
100
AcDbEntity
  8
0
  6
Continuous
 62
     7
370
    25
100
AcDbSpline
210
0.0
220
0.0
230
1.0
 70
     8
 71
     3
 72
    11
 73
     7
 74
     0
 42
0.000000001
 43
0.00000001
 40
0.0
 40
0.0
 40
0.0
 40
0.0
 40
0.0079771995783184
 40
0.3287729737803238
 40
0.66397047812843
 40
1.0
 40
1.0
 40
1.0
 40
1.0
 10
218.5778634197187
 20
64.18495886256464
 30
0.0
 10
218.5778234551368
 20
64.18485247448137
 30
0.0
 10
218.5761763515015
 20
64.18046778707695
 30
0.0
 10
218.563169704373
 20
64.16544859396741
 30
0.0
 10
218.5174662555313
 20
64.12687544330866
 30
0.0
 10
218.4647773890194
 20
64.08869057938034
 30
0.0
 10
218.4384003005973
 20
64.06957448144723
 30
0.0
  0
ARC
  5
141
330
1F
100
AcDbEntity
  8
0
  6
Continuous
 62
     7
370
    25
100
AcDbCircle
 10
218.4517467823
 20
64.0686436501
 30
0.0
 40
0.3127996234096697
100
AcDbArc
 50
188.6903147106
 51
237.0932620568
  0
LWPOLYLINE
  5
142
330
1F
100
AcDbEntity
  8
0
  6
Continuous
 62
     7
370
    25
100
AcDbPolyline
 90
       24
 70
   128
 43
0.0
 10
220.3555546504
 20
63.8645544592
 10
220.5108975619
 20
64.0051047641
 10
220.6066897753
 20
64.2198928079
 10
220.6358270771
 20
64.4929886028
 10
220.5961481241
 20
64.8041379674
 10
220.4905962811
 20
65.1302641711
 10
220.3269993373
 20
65.4471800953
 10
220.1174908107
 20
65.7313815409
 10
219.8776087297
 20
65.9617905999
 10
219.6251443327
 20
66.1213188691
 10
219.3788215217
 20
66.1981348276
 10
219.1569091447
 20
66.1865412806
 10
218.975865299
 20
66.0873982875
 10
218.8491171308
 20
65.9080587407
 10
218.7860651162
 20
65.6618234954
 10
218.7913854149
 20
65.366954556
 10
218.8646834766
 20
65.0453209448
 10
219.000523181
 20
64.720777017
 10
219.1888297848
 20
64.4173925691
 10
219.4156376171
 20
64.15766834
 10
219.6641252285
 20
63.9608665596
 10
219.9158635802
 20
63.8415835344
 10
220.1521822769
 20
63.8086656884
 10
220.3555546504
 20
63.8645544592
  0
LWPOLYLINE
  5
143
330
1F
100
AcDbEntity
  8
0
  6
Continuous
 62
     7
370
    25
100
AcDbPolyline
 90
       20
 70
   128
 43
0.0
 10
220.0546404445
 20
64.1671012014
 10
220.1785953137
 20
64.29056942
 10
220.2409961925
 20
64.4854820094
 10
220.2350806518
 20
64.7307173336
 10
220.1614901141
 20
64.9996999364
 10
220.0281988947
 20
65.2632819283
 10
219.8496515088
 20
65.4928996824
 10
219.6451959943
 20
65.6636707672
 10
219.436988587
 20
65.7570894009
 10
219.2475916804
 20
65.7630321374
 10
219.097529308
 20
65.6808551743
 10
219.003063074
 20
65.5194635371
 10
218.974429888
 20
65.2963467415
 10
219.0147326473
 20
65.0356825705
 10
219.1196037199
 20
64.7657182936
 10
219.2776789326
 20
64.5157088023
 10
219.4718283903
 20
64.3127461662
 10
219.6810127483
 20
64.1788248952
 10
219.882563917
 20
64.1284570572
 10
220.0546404445
 20
64.1671012014
  0
LINE
  5
144
330
1F
100
AcDbEntity
  8
0
  6
Continuous
 62
     7
370
    25
100
AcDbLine
 10
219.4040593448
 20
66.3318485135
 30
0.0
 11
219.3079289688
 21
66.2906514923
 31
0.0
  0
ARC
  5
145
330
1F
100
AcDbEntity
  8
0
  6
Continuous
 62
     7
370
    25
100
AcDbCircle
 10
219.1445327235
 20
64.6188072365
 30
0.0
 40
1.053512206210951
100
AcDbArc
 50
350.7335102733
 51
32.3260663563
  0
ARC
  5
146
330
1F
100
AcDbEntity
  8
0
  6
Continuous
 62
     7
370
    25
100
AcDbCircle
 10
219.0843592672
 20
64.7023562698
 30
0.0
 40
1.06465562004165
100
AcDbArc
 50
26.7863414223
 51
69.1247198649
  0
ARC
  5
147
330
1F
100
AcDbEntity
  8
0
  6
Continuous
 62
     7
370
    25
100
AcDbCircle
 10
219.3535714857
 20
65.3974235965
 30
0.0
 40
0.3193073623026647
100
AcDbArc
 50
69.8180692265
 51
165.5404076686
  0
LINE
  5
148
330
1F
100
AcDbEntity
  8
0
  6
Continuous
 62
     7
370
    25
100
AcDbLine
 10
219.0363052483
 20
65.4484022546
 30
0.0
 11
219.04437851
 21
65.4771537376
 31
0.0
  0
ARC
  5
149
330
1F
100
AcDbEntity
  8
0
  6
Continuous
 62
     7
370
    25
100
AcDbCircle
 10
220.0633509581
 20
65.2805208404
 30
0.0
 40
1.040676250998802
100
AcDbArc
 50
170.7165046618
 51
211.1377310196
  0
LINE
  5
14A
330
1F
100
AcDbEntity
  8
0
  6
Continuous
 62
     7
370
    25
100
AcDbLine
 10
219.2022220797
 20
64.6903206369
 30
0.0
 11
219.172608321
 21
64.7423901744
 31
0.0
  0
ARC
  5
14B
330
1F
100
AcDbEntity
  8
0
  6
Continuous
 62
     7
370
    25
100
AcDbCircle
 10
220.1451712358
 20
65.1995868367
 30
0.0
 40
1.071683336313231
100
AcDbArc
 50
208.3725112464
 51
247.5385377624
  0
LINE
  5
14C
330
1F
100
AcDbEntity
  8
0
  6
Continuous
 62
     7
370
    25
100
AcDbLine
 10
219.7767773029
 20
64.1975443101
 30
0.0
 11
219.7357218272
 21
64.2092049128
 31
0.0
  0
ARC
  5
14D
330
1F
100
AcDbEntity
  8
0
  6
Continuous
 62
     7
370
    25
100
AcDbCircle
 10
219.8699330049
 20
64.4997960962
 30
0.0
 40
0.3162817209632526
100
AcDbArc
 50
252.8704074009
 51
345.4820370445
  0
LINE
  5
14E
330
1F
100
AcDbEntity
  8
0
  6
Continuous
 62
     7
370
    25
100
AcDbLine
 10
220.1842966628
 20
64.4491637305
 30
0.0
 11
220.1761155644
 21
64.4205094816
 31
0.0
  0
SPLINE
  5
14F
330
1F
100
AcDbEntity
  8
0
  6
Continuous
 62
     7
370
    25
100
AcDbSpline
210
0.0
220
0.0
230
1.0
 70
     8
 71
     3
 72
    12
 73
     8
 74
     0
 42
0.000000001
 43
0.00000001
 40
0.0
 40
0.0
 40
0.0
 40
0.0
 40
0.0091681644262607
 40
0.257326675411096
 40
0.5054940656779502
 40
0.7549924802550586
 40
1.0
 40
1.0
 40
1.0
 40
1.0
 10
220.0347701810231
 20
65.1821590252955
 30
0.0
 10
220.0344304302501
 20
65.18275535914849
 30
0.0
 10
220.0248945043177
 20
65.19949290885725
 30
0.0
 10
220.003259807961
 20
65.23112568334058
 30
0.0
 10
219.9677183577478
 20
65.26772129141686
 30
0.0
 10
219.9319425448002
 20
65.29189681940633
 30
0.0
 10
219.9123428441964
 20
65.29471330803068
 30
0.0
 10
219.9026319920117
 20
65.29610876326053
 30
0.0
  0
SPLINE
  5
150
330
1F
100
AcDbEntity
  8
0
  6
Continuous
 62
     7
370
    25
100
AcDbSpline
210
0.0
220
0.0
230
1.0
 70
     8
 71
     3
 72
    12
 73
     8
 74
     0
 42
0.000000001
 43
0.00000001
 40
0.0
 40
0.0
 40
0.0
 40
0.0
 40
0.2058435129763208
 40
0.4120691947092607
 40
0.6141399031210575
 40
0.8132603052097342
 40
1.0
 40
1.0
 40
1.0
 40
1.0
 10
219.9026319920117
 20
65.29610876326053
 30
0.0
 10
219.8851652595597
 20
65.29864431735488
 30
0.0
 10
219.8501993659465
 20
65.30372013304948
 30
0.0
 10
219.7845681867397
 20
65.34601761773823
 30
0.0
 10
219.7177638281017
 20
65.40746695448793
 30
0.0
 10
219.6562262470163
 20
65.48120117211747
 30
0.0
 10
219.6263709657549
 20
65.53313840044252
 30
0.0
 10
219.6119222934104
 20
65.55827378563558
 30
0.0
  0
SPLINE
  5
151
330
1F
100
AcDbEntity
  8
0
  6
Continuous
 62
     7
370
    25
100
AcDbSpline
210
0.0
220
0.0
230
1.0
 70
     8
 71
     3
 72
    11
 73
     7
 74
     0
 42
0.000000001
 43
0.00000001
 40
0.0
 40
0.0
 40
0.0
 40
0.0
 40
0.2535083926347527
 40
0.5075673069468027
 40
0.759505785458209
 40
1.0
 40
1.0
 40
1.0
 40
1.0
 10
219.6119222934104
 20
65.55827378563558
 30
0.0
 10
219.6025736172634
 20
65.57430326433108
 30
0.0
 10
219.5838559632791
 20
65.60639703151838
 30
0.0
 10
219.5448120521003
 20
65.64913349175895
 30
0.0
 10
219.5029438798882
 20
65.6821357820765
 30
0.0
 10
219.4765993634208
 20
65.69220733886075
 30
0.0
 10
219.4637332318973
 20
65.69712608445222
 30
0.0
  0
SPLINE
  5
152
330
1F
100
AcDbEntity
  8
0
  6
Continuous
 62
     7
370
    25
100
AcDbSpline
210
0.0
220
0.0
230
1.0
 70
     8
 71
     3
 72
    12
 73
     8
 74
     0
 42
0.000000001
 43
0.00000001
 40
0.0
 40
0.0
 40
0.0
 40
0.0
 40
0.2058582953603277
 40
0.4121026328995084
 40
0.6141938801469118
 40
0.8133179863346403
 40
0.9999999999999999
 40
0.9999999999999999
 40
0.9999999999999999
 40
0.9999999999999999
 10
220.1381700935157
 20
64.63155244738161
 30
0.0
 10
220.1225145500625
 20
64.65973578367404
 30
0.0
 10
220.0911741046108
 20
64.71615530793795
 30
0.0
 10
220.0596499960002
 20
64.81098118659246
 30
0.0
 10
220.0435844030767
 20
64.89788928983556
 30
0.0
 10
220.0436420527712
 20
64.96926618237093
 30
0.0
 10
220.0571236586794
 20
64.99844331612584
 30
0.0
 10
220.0636470734436
 20
65.0125614075766
 30
0.0
  0
SPLINE
  5
153
330
1F
100
AcDbEntity
  8
0
  6
Continuous
 62
     7
370
    25
100
AcDbSpline
210
0.0
220
0.0
230
1.0
 70
     8
 71
     3
 72
    11
 73
     7
 74
     0
 42
0.000000001
 43
0.00000001
 40
0.0
 40
0.0
 40
0.0
 40
0.0
 40
0.2524787649583728
 40
0.5068903264113663
 40
0.7591786635227731
 40
1.0
 40
1.0
 40
1.0
 40
1.0
 10
220.0636470734436
 20
65.0125614075766
 30
0.0
 10
220.0676709571159
 20
65.02165223259557
 30
0.0
 10
220.0757495284303
 20
65.03990347547523
 30
0.0
 10
220.0730620492652
 20
65.08359571816281
 30
0.0
 10
220.0598633404108
 20
65.133044062754
 30
0.0
 10
220.0430038815989
 20
65.16604316323482
 30
0.0
 10
220.0347701810231
 20
65.1821590252955
 30
0.0
  0
SPLINE
  5
154
330
1F
100
AcDbEntity
  8
0
  6
Continuous
 62
     7
370
    25
100
AcDbSpline
210
0.0
220
0.0
230
1.0
 70
     8
 71
     3
 72
    11
 73
     7
 74
     0
 42
0.000000001
 43
0.00000001
 40
0.0
 40
0.0
 40
0.0
 40
0.0
 40
0.2423609499151093
 40
0.5166846226611019
 40
0.7923336620656611
 40
1.0
 40
1.0
 40
1.0
 40
1.0
 10
220.1842966628276
 20
64.44916373052016
 30
0.0
 10
220.185379073947
 20
64.46245446744001
 30
0.0
 10
220.187686645282
 20
64.49078873248035
 30
0.0
 10
220.1781943860426
 20
64.54235898869017
 30
0.0
 10
220.1607446820228
 20
64.591887715612
 30
0.0
 10
220.1449546176529
 20
64.61963168390889
 30
0.0
 10
220.1381700935157
 20
64.63155244738161
 30
0.0
  0
SPLINE
  5
155
330
1F
100
AcDbEntity
  8
0
  6
Continuous
 62
     7
370
    25
100
AcDbSpline
210
0.0
220
0.0
230
1.0
 70
     8
 71
     3
 72
    12
 73
     8
 74
     0
 42
0.000000001
 43
0.00000001
 40
0.0
 40
0.0
 40
0.0
 40
0.0
 40
0.0091728170392391
 40
0.2576773005513212
 40
0.5061892896705903
 40
0.7560354962150931
 40
1.0
 40
1.0
 40
1.0
 40
1.0
 10
219.4637332318973
 20
65.69712608445222
 30
0.0
 10
219.4632642455827
 20
65.69725613314728
 30
0.0
 10
219.4500897619964
 20
65.70090938345686
 30
0.0
 10
219.4258751111575
 20
65.70248124738559
 30
0.0
 10
219.3999695164188
 20
65.68867123123303
 30
0.0
 10
219.3855226179882
 20
65.661168680515
 30
0.0
 10
219.3874845967741
 20
65.63458911765146
 30
0.0
 10
219.3884539017546
 20
65.6214576287445
 30
0.0
  0
SPLINE
  5
156
330
1F
100
AcDbEntity
  8
0
  6
Continuous
 62
     7
370
    25
100
AcDbSpline
210
0.0
220
0.0
230
1.0
 70
     8
 71
     3
 72
    11
 73
     7
 74
     0
 42
0.000000001
 43
0.00000001
 40
0.0
 40
0.0
 40
0.0
 40
0.0
 40
0.2802374342629095
 40
0.5612870463962047
 40
0.8399904552121906
 40
1.0
 40
1.0
 40
1.0
 40
1.0
 10
220.0757168861895
 20
64.41118908926596
 30
0.0
 10
220.0870750648946
 20
64.4031504527461
 30
0.0
 10
220.1098243403246
 20
64.38704988230967
 30
0.0
 10
220.1417612019252
 20
64.38555684099993
 30
0.0
 10
220.164085062491
 20
64.39859424429915
 30
0.0
 10
220.172900393537
 20
64.41465259938724
 30
0.0
 10
220.176115564405
 20
64.42050948158453
 30
0.0
  0
SPLINE
  5
157
330
1F
100
AcDbEntity
  8
0
  6
Continuous
 62
     7
370
    25
100
AcDbSpline
210
0.0
220
0.0
230
1.0
 70
     8
 71
     3
 72
    12
 73
     8
 74
     0
 42
0.000000001
 43
0.00000001
 40
0.0
 40
0.0
 40
0.0
 40
0.0
 40
0.2057531924191252
 40
0.411960383509867
 40
0.6140149362664986
 40
0.8131414492692497
 40
1.0
 40
1.0
 40
1.0
 40
1.0
 10
219.3884539017546
 20
65.6214576287445
 30
0.0
 10
219.3900947981826
 20
65.59781395933159
 30
0.0
 10
219.3933802117105
 20
65.55047445026055
 30
0.0
 10
219.364840326102
 20
65.50115580930982
 30
0.0
 10
219.3137067439143
 20
65.47545308297796
 30
0.0
 10
219.2462498189677
 20
65.47440322999977
 30
0.0
 10
219.1963999538183
 20
65.49341152404749
 30
0.0
 10
219.1722672232254
 20
65.5026135958667
 30
0.0
  0
SPLINE
  5
158
330
1F
100
AcDbEntity
  8
0
  6
Continuous
 62
     7
370
    25
100
AcDbSpline
210
0.0
220
0.0
230
1.0
 70
     8
 71
     3
 72
    11
 73
     7
 74
     0
 42
0.000000001
 43
0.00000001
 40
0.0
 40
0.0
 40
0.0
 40
0.0
 40
0.2794061148455281
 40
0.5596238358628535
 40
0.8375012968036919
 40
1.0
 40
1.0
 40
1.0
 40
1.0
 10
219.1722672232254
 20
65.5026135958667
 30
0.0
 10
219.1568729886912
 20
65.50832339122493
 30
0.0
 10
219.1260398031506
 20
65.51975956749519
 30
0.0
 10
219.0853199881923
 20
65.51617911709013
 30
0.0
 10
219.0579734227286
 20
65.50024520118289
 30
0.0
 10
219.0480428785418
 20
65.4833778034847
 30
0.0
 10
219.0443785100229
 20
65.47715373761679
 30
0.0
  0
SPLINE
  5
159
330
1F
100
AcDbEntity
  8
0
  6
Continuous
 62
     7
370
    25
100
AcDbSpline
210
0.0
220
0.0
230
1.0
 70
     8
 71
     3
 72
    11
 73
     7
 74
     0
 42
0.000000001
 43
0.00000001
 40
0.0
 40
0.0
 40
0.0
 40
0.0
 40
0.2657599494892757
 40
0.5530028072415284
 40
0.8418204396101501
 40
1.0
 40
1.0
 40
1.0
 40
1.0
 10
219.7767773028507
 20
64.19754431009035
 30
0.0
 10
219.7879199809197
 20
64.19868720670269
 30
0.0
 10
219.8111060639402
 20
64.20106538684692
 30
0.0
 10
219.8384552330127
 20
64.22580040895002
 30
0.0
 10
219.8543002788364
 20
64.25868639693088
 30
0.0
 10
219.8581633171704
 20
64.28354756665053
 30
0.0
 10
219.8595303362823
 20
64.29234522569791
 30
0.0
  0
SPLINE
  5
15A
330
1F
100
AcDbEntity
  8
0
  6
Continuous
 62
     7
370
    25
100
AcDbSpline
210
0.0
220
0.0
230
1.0
 70
     8
 71
     3
 72
    12
 73
     8
 74
     0
 42
0.000000001
 43
0.00000001
 40
0.0
 40
0.0
 40
0.0
 40
0.0
 40
0.2057903032818489
 40
0.4120345292371089
 40
0.6141305018660744
 40
0.8132633132735624
 40
1.0
 40
1.0
 40
1.0
 40
1.0
 10
219.8595303362823
 20
64.29234522569791
 30
0.0
 10
219.8647927994567
 20
64.31997709558802
 30
0.0
 10
219.8753293335019
 20
64.3753017844608
 30
0.0
 10
219.9149825849
 20
64.43103331255189
 30
0.0
 10
219.9653121977613
 20
64.45625809587914
 30
0.0
 10
220.0210446310449
 20
64.45052400965675
 30
0.0
 10
220.0578873271461
 20
64.4240168806881
 30
0.0
 10
220.0757168861895
 20
64.41118908926596
 30
0.0
  0
LWPOLYLINE
  5
15B
330
1F
100
AcDbEntity
  8
0
  6
Continuous
 62
     7
370
    25
100
AcDbPolyline
 90
        3
 70
   128
 43
0.0
 10
220.1530762202
 20
64.5654245319
 10
220.1413653232
 20
64.5833669351
 10
220.1175268352
 20
64.6334726438
  0
ARC
  5
15C
330
1F
100
AcDbEntity
  8
0
  6
Continuous
 62
     7
370
    25
100
AcDbCircle
 10
219.778682555
 20
64.5499984853
 30
0.0
 40
0.3489747574490954
100
AcDbArc
 50
13.8392265028
 51
82.071836312
  0
ARC
  5
15D
330
1F
100
AcDbEntity
  8
0
  6
Continuous
 62
     7
370
    25
100
AcDbCircle
 10
219.8567594498
 20
65.1001492368
 30
0.0
 40
0.2066918591689403
100
AcDbArc
 50
157.5246107792
 51
261.6705671263
  0
ARC
  5
15E
330
1F
100
AcDbEntity
  8
0
  6
Continuous
 62
     7
370
    25
100
AcDbCircle
 10
219.3532694107
 20
65.3157560498
 30
0.0
 40
0.3410454457216454
100
AcDbArc
 50
336.3900849299
 51
45.7694124027
  0
LWPOLYLINE
  5
15F
330
1F
100
AcDbEntity
  8
0
  6
Continuous
 62
     7
370
    25
100
AcDbPolyline
 90
        3
 70
   128
 43
0.0
 10
219.5911648869
 20
65.5601281808
 10
219.5602809605
 20
65.6063607613
 10
219.5560412509
 20
65.6145845795
  0
SPLINE
  5
160
330
1F
100
AcDbEntity
  8
0
  6
Continuous
 62
     7
370
    25
100
AcDbSpline
210
0.0
220
0.0
230
1.0
 70
     8
 71
     3
 72
    11
 73
     7
 74
     0
 42
0.000000001
 43
0.00000001
 40
0.0
 40
0.0
 40
0.0
 40
0.0
 40
0.2431097603370734
 40
0.5182797016884724
 40
0.7947793464462055
 40
1.0
 40
1.0
 40
1.0
 40
1.0
 10
219.0363052482633
 20
65.4484022546076
 30
0.0
 10
219.0359669280531
 20
65.43548772690997
 30
0.0
 10
219.0352456715417
 20
65.40795556385201
 30
0.0
 10
219.0512883425187
 20
65.36006269702399
 30
0.0
 10
219.077446246683
 20
65.31577346905104
 30
0.0
 10
219.1001443995718
 20
65.29226522552648
 30
0.0
 10
219.1098141805353
 20
65.28225033282438
 30
0.0
  0
SPLINE
  5
161
330
1F
100
AcDbEntity
  8
0
  6
Continuous
 62
     7
370
    25
100
AcDbSpline
210
0.0
220
0.0
230
1.0
 70
     8
 71
     3
 72
    11
 73
     7
 74
     0
 42
0.000000001
 43
0.00000001
 40
0.0
 40
0.0
 40
0.0
 40
0.0
 40
0.2928993121755268
 40
0.5864341313879035
 40
0.8775180904583932
 40
1.0
 40
1.0
 40
1.0
 40
1.0
 10
219.6360622108739
 20
64.35552903242342
 30
0.0
 10
219.641370755531
 20
64.33717557829891
 30
0.0
 10
219.651999362856
 20
64.30042884834747
 30
0.0
 10
219.6822903108366
 20
64.25252639994797
 30
0.0
 10
219.7119100026867
 20
64.22310351911827
 30
0.0
 10
219.7302810477689
 20
64.212380614535
 30
0.0
 10
219.7357218272256
 20
64.20920491284181
 30
0.0
  0
SPLINE
  5
162
330
1F
100
AcDbEntity
  8
0
  6
Continuous
 62
     7
370
    25
100
AcDbSpline
210
0.0
220
0.0
230
1.0
 70
     8
 71
     3
 72
    12
 73
     8
 74
     0
 42
0.000000001
 43
0.00000001
 40
0.0
 40
0.0
 40
0.0
 40
0.0
 40
0.2058179655261549
 40
0.4120216291432814
 40
0.6140781907705941
 40
0.8132130815856001
 40
1.0
 40
1.0
 40
1.0
 40
1.0
 10
219.1098141805353
 20
65.28225033282438
 30
0.0
 10
219.1323719040637
 20
65.25805726745126
 30
0.0
 10
219.177529623771
 20
65.20962579946197
 30
0.0
 10
219.2201544595306
 20
65.12122290145258
 30
0.0
 10
219.2354059734773
 20
65.03384912404013
 30
0.0
 10
219.2236322207681
 20
64.95568817729333
 30
0.0
 10
219.1971532186085
 20
64.91899892661002
 30
0.0
 10
219.1843373292294
 20
64.90124125676556
 30
0.0
  0
SPLINE
  5
163
330
1F
100
AcDbEntity
  8
0
  6
Continuous
 62
     7
370
    25
100
AcDbSpline
210
0.0
220
0.0
230
1.0
 70
     8
 71
     3
 72
    11
 73
     7
 74
     0
 42
0.000000001
 43
0.00000001
 40
0.0
 40
0.0
 40
0.0
 40
0.0
 40
0.2908634488835936
 40
0.5839555344176107
 40
0.874598152102799
 40
1.0
 40
1.0
 40
1.0
 40
1.0
 10
219.1843373292294
 20
64.90124125676556
 30
0.0
 10
219.176299373401
 20
64.88983374345987
 30
0.0
 10
219.1601618737965
 20
64.86693131087726
 30
0.0
 10
219.1540225983708
 20
64.81812648928187
 30
0.0
 10
219.16037879005
 20
64.77484105187017
 30
0.0
 10
219.1697758965312
 20
64.74990597032182
 30
0.0
 10
219.1726083209837
 20
64.74239017438579
 30
0.0
  0
SPLINE
  5
164
330
1F
100
AcDbEntity
  8
0
  6
Continuous
 62
     7
370
    25
100
AcDbSpline
210
0.0
220
0.0
230
1.0
 70
     8
 71
     3
 72
    11
 73
     7
 74
     0
 42
0.000000001
 43
0.00000001
 40
0.0
 40
0.0
 40
0.0
 40
0.0
 40
0.2669002422718137
 40
0.5546138980680909
 40
0.8439067081922907
 40
1.0
 40
1.0
 40
1.0
 40
1.0
 10
219.2022220796909
 20
64.69032063689326
 30
0.0
 10
219.2133482263204
 20
64.67728241206225
 30
0.0
 10
219.2364681586972
 20
64.65018921560853
 30
0.0
 10
219.2792760374235
 20
64.62417088681434
 30
0.0
 10
219.3170191755449
 20
64.61437754078462
 30
0.0
 10
219.3379995691066
 20
64.61683336764088
 30
0.0
 10
219.3453525122727
 20
64.61769405479848
 30
0.0
  0
SPLINE
  5
165
330
1F
100
AcDbEntity
  8
0
  6
Continuous
 62
     7
370
    25
100
AcDbSpline
210
0.0
220
0.0
230
1.0
 70
     8
 71
     3
 72
    12
 73
     8
 74
     0
 42
0.000000001
 43
0.00000001
 40
0.0
 40
0.0
 40
0.0
 40
0.0
 40
0.2058400071450203
 40
0.4120617328569507
 40
0.6141388531247232
 40
0.8132772058082388
 40
1.0
 40
1.0
 40
1.0
 40
1.0
 10
219.3453525122727
 20
64.61769405479848
 30
0.0
 10
219.3697239696805
 20
64.6191446799868
 30
0.0
 10
219.4185120799755
 20
64.62204862046525
 30
0.0
 10
219.4952448807823
 20
64.5861608385304
 30
0.0
 10
219.5612297515081
 20
64.52423652075032
 30
0.0
 10
219.6110411703409
 20
64.4437309111398
 30
0.0
 10
219.6279027109879
 20
64.38429215354098
 30
0.0
 10
219.6360622108739
 20
64.35552903242342
 30
0.0
  0
ARC
  5
166
330
1F
100
AcDbEntity
  8
0
  6
Continuous
 62
     7
370
    25
100
AcDbCircle
 10
262.1340161048
 20
42.9658345679
 30
0.0
 40
9.207245321611326
100
AcDbArc
 50
306.4931377577
 51
350.0104690253
  0
ELLIPSE
  5
167
330
1F
100
AcDbEntity
  8
0
  6
Continuous
 62
     7
370
    25
100
AcDbEllipse
 10
251.2547473083
 20
52.885521067
 30
0.0
 11
20.00000011433764
 21
-11.54763104626866
 31
0.0
210
0.0
220
0.0
230
1.0
 40
0.0000703729
 41
0.0393796434941691
 42
0.0729092430503687
  0
LINE
  5
168
330
1F
100
AcDbEntity
  8
0
  6
Continuous
 62
     7
370
    25
100
AcDbLine
 10
271.2392736051
 20
35.4861042814
 30
0.0
 11
271.2392736051
 21
41.3468974865
 31
0.0
  0
SPLINE
  5
169
330
1F
100
AcDbEntity
  8
0
  6
Continuous
 62
     7
370
    25
100
AcDbSpline
210
0.0
220
0.0
230
1.0
 70
     8
 71
     3
 72
    37
 73
    33
 74
     0
 42
0.000000001
 43
0.00000001
 40
0.0
 40
0.0
 40
0.0
 40
0.0
 40
0.0275003270787734
 40
0.0546390490046813
 40
0.0814161798611151
 40
0.1078317343254169
 40
0.1338857277016148
 40
0.159578175955465
 40
0.184909095751982
 40
0.2098785044956848
 40
0.2344864203738003
 40
0.2587328624026721
 40
0.2826178504776792
 40
0.306141405426983
 40
0.329303549069463
 40
0.3521043042772257
 40
0.3745436950431475
 40
0.3966217465539261
 40
0.4183384852692015
 40
0.43969393900735
 40
0.4606881370386514
 40
0.4813211101865779
 40
0.5015928909381041
 40
0.5611045083856374
 40
0.6195806556332107
 40
0.6770222010231989
 40
0.733430061017998
 40
0.7888052037431873
 40
0.8431486528587114
 40
0.8964614917945982
 40
0.9487448683925285
 40
1.0
 40
1.0
 40
1.0
 40
1.0
 10
267.3130949773918
 20
26.94685658278221
 30
0.0
 10
267.3778373469944
 20
27.01912201342746
 30
0.0
 10
267.5064707808902
 20
27.16270264776173
 30
0.0
 10
267.6927592111759
 20
27.37870537441206
 30
0.0
 10
267.8726744256752
 20
27.5932357626753
 30
0.0
 10
268.0459594380882
 20
27.80633835842276
 30
0.0
 10
268.2128389762077
 20
28.0178722369462
 30
0.0
 10
268.3734140340181
 20
28.22774961209469
 30
0.0
 10
268.527820530002
 20
28.43587313375733
 30
0.0
 10
268.6761873691617
 20
28.64215228653709
 30
0.0
 10
268.8186471637445
 20
28.84649902341691
 30
0.0
 10
268.9553331465422
 20
29.04882884433635
 30
0.0
 10
269.0863797154997
 20
29.24906044319504
 30
0.0
 10
269.2119220355143
 20
29.44711572736098
 30
0.0
 10
269.3320958966839
 20
29.64291973635535
 30
0.0
 10
269.4470375146915
 20
29.83640058602848
 30
0.0
 10
269.5568833550245
 20
30.02748939814722
 30
0.0
 10
269.6617699615085
 20
30.21612025247546
 30
0.0
 10
269.7618337868047
 20
30.40223005591634
 30
0.0
 10
269.8572110520174
 20
30.58575870592145
 30
0.0
 10
269.9480375310397
 20
30.76664817801905
 30
0.0
 10
270.0344486400865
 20
30.94484552258266
 30
0.0
 10
270.1700587070172
 20
31.23453644893144
 30
0.0
 10
270.344447187016
 20
31.63500818375045
 30
0.0
 10
270.5422158975987
 20
32.14555504289333
 30
0.0
 10
270.7135241429832
 20
32.64884349912027
 30
0.0
 10
270.8593619243184
 20
33.14423851832782
 30
0.0
 10
270.9806998837677
 20
33.6311487537675
 30
0.0
 10
271.0787036496944
 20
34.10904404722888
 30
0.0
 10
271.153917356195
 20
34.57737639485341
 30
0.0
 10
271.2092065368907
 20
35.03586440659506
 30
0.0
 10
271.2293156485592
 20
35.33724941056385
 30
0.0
 10
271.2392703522047
 20
35.48644537939403
 30
0.0
  0
LINE
  5
16A
330
1F
100
AcDbEntity
  8
0
  6
Continuous
 62
     7
370
    25
100
AcDbLine
 10
267.313111591
 20
26.9467942077
 30
0.0
 11
267.313111591
 21
34.5920607357
 31
0.0
  0
ELLIPSE
  5
16B
330
1F
100
AcDbEntity
  8
0
  6
Continuous
 62
     7
370
    25
100
AcDbEllipse
 10
251.2547473083
 20
32.5608007164
 30
0.0
 11
13.01649776296148
 21
69.53397910300843
 31
0.0
210
0.0
220
0.0
230
1.0
 40
0.2183760757
 41
4.782437672753478
 42
4.789841869021407
  0
ELLIPSE
  5
16C
330
1F
100
AcDbEntity
  8
0
  6
Continuous
 62
     7
370
    25
100
AcDbEllipse
 10
251.2547473083
 20
39.4125976709
 30
0.0
 11
14.1427102357506
 21
24.49456561252441
 31
0.0
210
0.0
220
0.0
230
1.0
 40
0.5773346305
 41
4.866610250030882
 42
4.884527884378945
  0
LINE
  5
16D
330
1F
100
AcDbEntity
  8
0
  6
Continuous
 62
     7
370
    25
100
AcDbLine
 10
227.7655211309
 20
58.5654891165
 30
0.0
 11
267.6098089409
 21
35.563871367
 31
0.0
  0
LINE
  5
16E
330
1F
100
AcDbEntity
  8
0
  6
Continuous
 62
     7
370
    25
100
AcDbLine
 10
227.5154953242
 20
58.1324319074
 30
0.0
 11
267.4009395317
 21
35.1070550753
 31
0.0
  0
LINE
  5
16F
330
1F
100
AcDbEntity
  8
0
  6
Continuous
 62
     7
370
    25
100
AcDbLine
 10
267.313111591
 20
34.5920607357
 30
0.0
 11
225.4894852857
 21
58.7363262766
 31
0.0
  0
SPLINE
  5
170
330
1F
100
AcDbEntity
  8
0
  6
Continuous
 62
     7
370
    25
100
AcDbSpline
210
0.0
220
0.0
230
1.0
 70
     8
 71
     3
 72
     8
 73
     4
 74
     0
 42
0.000000001
 43
0.00000001
 40
0.0
 40
0.0
 40
0.0
 40
0.0
 40
1.0
 40
1.0
 40
1.0
 40
1.0
 10
227.5154953069629
 20
58.13243206288471
 30
0.0
 10
227.4337768113338
 20
58.1796071462615
 30
0.0
 10
227.3657092891841
 20
58.26414211532479
 30
0.0
 10
227.3064260184059
 20
58.35671928137894
 30
0.0
  0
LINE
  5
171
330
1F
100
AcDbEntity
  8
0
  6
Continuous
 62
     7
370
    25
100
AcDbLine
 10
226.8041683093
 20
58.8409781046
 30
0.0
 11
226.9907780909
 21
58.7332505707
 31
0.0
  0
ARC
  5
172
330
1F
100
AcDbEntity
  8
0
  6
Continuous
 62
     7
370
    25
100
AcDbCircle
 10
238.1295279851
 20
30.8781988361
 30
0.0
 40
30.16920277708639
100
AcDbArc
 50
91.8768348155
 51
112.0487115448
  0
LINE
  5
173
330
1F
100
AcDbEntity
  8
0
  6
Continuous
 62
     7
370
    25
100
AcDbLine
 10
271.201674665
 20
41.368670003
 30
0.0
 11
237.1414537329
 21
61.031217018
 31
0.0
  0
ARC
  5
174
330
1F
100
AcDbEntity
  8
0
  6
Continuous
 62
     7
370
    25
100
AcDbCircle
 10
227.0781397083
 20
57.2638871951
 30
0.0
 40
1.471958145381508
100
AcDbArc
 50
62.1612782374
 51
93.4025391748
  0
LINE
  5
175
330
1F
100
AcDbEntity
  8
0
  6
Continuous
 62
     7
370
    25
100
AcDbLine
 10
266.6505736691
 20
26.6245497684
 30
0.0
 11
267.3149976624
 21
26.9457175692
 31
0.0
  0
LINE
  5
176
330
1F
100
AcDbEntity
  8
0
  6
Continuous
 62
     7
370
    25
100
AcDbLine
 10
266.6507580615
 20
26.6246410413
 30
0.0
 11
229.0521636586
 21
48.3298475817
 31
0.0
  0
LINE
  5
177
330
1F
100
AcDbEntity
  8
0
  6
Continuous
 62
     7
370
    25
100
AcDbLine
 10
228.5742974219
 20
49.1575377015
 30
0.0
 11
229.0521636586
 21
48.3298475817
 31
0.0
  0
LINE
  5
178
330
1F
100
AcDbEntity
  8
0
  6
Continuous
 62
     7
370
    25
100
AcDbLine
 10
222.9358633814
 20
52.4125363885
 30
0.0
 11
228.5742974219
 21
49.1575377015
 31
0.0
  0
LINE
  5
179
330
1F
100
AcDbEntity
  8
0
  6
Continuous
 62
     7
370
    25
100
AcDbLine
 10
222.9358633814
 20
52.4125363885
 30
0.0
 11
222.2287566489
 21
53.637281362
 31
0.0
  0
LINE
  5
17A
330
1F
100
AcDbEntity
  8
0
  6
Continuous
 62
     7
370
    25
100
AcDbLine
 10
222.2287566489
 20
53.637281362
 30
0.0
 11
221.2916188381
 21
60.3155823403
 31
0.0
  0
LINE
  5
17B
330
1F
100
AcDbEntity
  8
0
  6
Continuous
 62
     7
370
    25
100
AcDbLine
 10
266.4340150943
 20
26.7496891852
 30
0.0
 11
229.9735080904
 21
47.7978918549
 31
0.0
  0
LINE
  5
17C
330
1F
100
AcDbEntity
  8
0
  6
Continuous
 62
     7
370
    25
100
AcDbLine
 10
229.9735080904
 20
47.7978918549
 30
0.0
 11
229.0521636586
 21
48.3298475817
 31
0.0
  0
SPLINE
  5
17D
330
1F
100
AcDbEntity
  8
0
  6
Continuous
 62
     7
370
    25
100
AcDbSpline
210
0.0
220
0.0
230
1.0
 70
     8
 71
     3
 72
    11
 73
     7
 74
     0
 42
0.000000001
 43
0.00000001
 40
0.0004681206978771
 40
0.0004681206978771
 40
0.0004681206978771
 40
0.0004681206978771
 40
0.0014317779784607
 40
0.0014317779784607
 40
0.0014317779784607
 40
0.0028636779784317
 40
0.0028636779784317
 40
0.0028636779784317
 40
0.0028636779784317
 10
266.6500669444559
 20
26.62504058667838
 30
0.0
 10
266.6221460672227
 20
26.64114865806319
 30
0.0
 10
266.5938149607247
 20
26.65749358279912
 30
0.0
 10
266.5650596364541
 20
26.67408343776644
 30
0.0
 10
266.5223321298016
 20
26.69873428613838
 30
0.0
 10
266.478667378409
 20
26.72392627030859
 30
0.0
 10
266.434016643958
 20
26.74968753156236
 30
0.0
  0
SPLINE
  5
17E
330
1F
100
AcDbEntity
  8
0
  6
Continuous
 62
     7
370
    25
100
AcDbSpline
210
0.0
220
0.0
230
1.0
 70
     8
 71
     3
 72
     8
 73
     4
 74
     0
 42
0.000000001
 43
0.00000001
 40
0.0
 40
0.0
 40
0.0
 40
0.0
 40
1.0
 40
1.0
 40
1.0
 40
1.0
 10
226.8041681683205
 20
58.84097857178993
 30
0.0
 10
226.7658923405078
 20
58.91936534882426
 30
0.0
 10
226.683644915409
 20
58.95686598568858
 30
0.0
 10
226.5869945823998
 20
58.94114479289519
 30
0.0
  0
ELLIPSE
  5
17F
330
1F
100
AcDbEntity
  8
0
  6
Continuous
 62
     7
370
    25
100
AcDbEllipse
 10
238.5975359251
 20
50.3250894397
 30
0.0
 11
19.94115740178759
 21
-3.732909205824519
 31
0.0
210
0.0
220
0.0
230
1.0
 40
0.4106849769
 41
2.291684181384797
 42
2.432922239170757
  0
LINE
  5
180
330
1F
100
AcDbEntity
  8
0
  6
Continuous
 62
     7
370
    25
100
AcDbLine
 10
224.455400622
 20
58.489170441
 30
0.0
 11
224.455400622
 21
64.090028851
 31
0.0
  0
ELLIPSE
  5
181
330
1F
100
AcDbEntity
  8
0
  6
Continuous
 62
     7
370
    25
100
AcDbEllipse
 10
238.5975359251
 20
55.9259479257
 30
0.0
 11
19.9771458000686
 21
-1.900286507117109
 31
0.0
210
0.0
220
0.0
230
1.0
 40
0.5030021235
 41
2.101599647581064
 42
2.404005110224604
  0
ELLIPSE
  5
182
330
1F
100
AcDbEntity
  8
0
  6
Continuous
 62
     7
370
    25
100
AcDbEllipse
 10
238.5975359251
 20
60.1923736678
 30
0.0
 11
19.9999999874062
 21
-11.54763097298081
 31
0.0
210
0.0
220
0.0
230
1.0
 40
0.0000703729
 41
4.229436911773903
 42
4.639561001886232
  0
LINE
  5
183
330
1F
100
AcDbEntity
  8
0
  6
Continuous
 62
     7
370
    25
100
AcDbLine
 10
224.455400622
 20
64.090028851
 30
0.0
 11
221.0694900829
 21
66.0446733994
 31
0.0
  0
LINE
  5
184
330
1F
100
AcDbEntity
  8
0
  6
Continuous
 62
     7
370
    25
100
AcDbLine
 10
221.4722417916
 20
66.2669247406
 30
0.0
 11
221.0694900829
 21
66.0446733994
 31
0.0
  0
LINE
  5
185
330
1F
100
AcDbEntity
  8
0
  6
Continuous
 62
     7
370
    25
100
AcDbLine
 10
222.3752615639
 20
66.6408093885
 30
0.0
 11
221.4722417916
 21
66.2669247406
 31
0.0
  0
LINE
  5
186
330
1F
100
AcDbEntity
  8
0
  6
Continuous
 62
     7
370
    25
100
AcDbLine
 10
222.2650600674
 20
66.7044273583
 30
0.0
 11
222.3752615639
 21
66.6408093885
 31
0.0
  0
ELLIPSE
  5
187
330
1F
100
AcDbEntity
  8
0
  6
Continuous
 62
     7
370
    25
100
AcDbEllipse
 10
232.1263224908
 20
59.590084973
 30
0.0
 11
20.34432874749174
 21
-2.11417126096282
 31
0.0
210
0.0
220
0.0
230
1.0
 40
0.4916381667
 41
2.096538264056805
 42
2.296878506926449
  0
LINE
  5
188
330
1F
100
AcDbEntity
  8
0
  6
Continuous
 62
     7
370
    25
100
AcDbLine
 10
229.3089034912
 20
65.5537965299
 30
0.0
 11
222.8154588902
 21
69.3023823072
 31
0.0
  0
LWPOLYLINE
  5
189
330
1F
100
AcDbEntity
  8
0
  6
Continuous
 62
     7
370
    25
100
AcDbPolyline
 90
       12
 70
   128
 43
0.0
 10
221.4977023931
 20
62.9931144255
 10
221.6818014737
 20
62.77609407
 10
221.8206654614
 20
62.517758274
 10
221.8967118763
 20
62.2508172692
 10
221.9003114805
 20
62.009069876
 10
221.83100922
 20
61.8231250631
 10
221.6975795416
 20
61.7165275851
 10
221.5169170754
 20
61.7027736313
 10
221.311896365
 20
61.7836052872
 10
221.1084772349
 20
61.9487872571
 10
220.9324153607
 20
62.1774054258
 10
220.8553412871
 20
62.3203636963
  0
LINE
  5
18A
330
1F
100
AcDbEntity
  8
0
  6
Continuous
 62
     7
370
    25
100
AcDbLine
 10
221.0694900829
 20
66.0446733994
 30
0.0
 11
221.4977023931
 21
62.9931144255
 31
0.0
  0
LINE
  5
18B
330
1F
100
AcDbEntity
  8
0
  6
Continuous
 62
     7
370
    25
100
AcDbLine
 10
224.455400622
 20
58.489170441
 30
0.0
 11
218.6936678695
 21
61.8153479594
 31
0.0
  0
LINE
  5
18C
330
1F
100
AcDbEntity
  8
0
  6
Continuous
 62
     7
370
    25
100
AcDbLine
 10
218.6936678695
 20
61.8153479594
 30
0.0
 11
218.4260045945
 21
63.7227899175
 31
0.0
  0
SPLINE
  5
18D
330
1F
100
AcDbEntity
  8
0
  6
Continuous
 62
     7
370
    25
100
AcDbSpline
210
0.0
220
0.0
230
1.0
 70
     8
 71
     3
 72
     8
 73
     4
 74
     0
 42
0.000000001
 43
0.00000001
 40
0.0
 40
0.0
 40
0.0
 40
0.0
 40
1.0
 40
1.0
 40
1.0
 40
1.0
 10
227.3064260184062
 20
58.35671928137926
 30
0.0
 10
227.219618030721
 20
58.49227923590387
 30
0.0
 10
227.1156909066914
 20
58.61994197108874
 30
0.0
 10
226.9907778598915
 20
58.7332510898899
 30
0.0
  0
OLE2FRAME
  5
18E
330
1F
100
AcDbEntity
  8
0
100
AcDbOle2Frame
 70
     2
  3
Paintbrush-Bild
 10
13.8511154363
 20
38.264191557
 30
0.0
 11
51.6290888628
 21
31.9806341108
 31
0.0
 71
     2
 72
     0
 73
     1
 90
    12928
310
80552BED0767C5B32B40DDAF6807D121434000000000000000006FFBDDFB85D0
310
4940DDAF6807D121434000000000000000006FFBDDFB85D04940416F4BD60AFB
310
3F4000000000000000002BED0767C5B32B40416F4BD60AFB3F40000000000000
310
0000000000000100000000010000010000000100000000000100000000320000
310
D0CF11E0A1B11AE1000000000000000000000000000000003E000300FEFF0900
310
0600000000000000000000000100000001000000000000000010000002000000
310
01000000FEFFFFFF0000000000000000FFFFFFFFFFFFFFFFFFFFFFFFFFFFFFFF
310
FFFFFFFFFFFFFFFFFFFFFFFFFFFFFFFFFFFFFFFFFFFFFFFFFFFFFFFFFFFFFFFF
310
FFFFFFFFFFFFFFFFFFFFFFFFFFFFFFFFFFFFFFFFFFFFFFFFFFFFFFFFFFFFFFFF
310
FFFFFFFFFFFFFFFFFFFFFFFFFFFFFFFFFFFFFFFFFFFFFFFFFFFFFFFFFFFFFFFF
310
FFFFFFFFFFFFFFFFFFFFFFFFFFFFFFFFFFFFFFFFFFFFFFFFFFFFFFFFFFFFFFFF
310
FFFFFFFFFFFFFFFFFFFFFFFFFFFFFFFFFFFFFFFFFFFFFFFFFFFFFFFFFFFFFFFF
310
FFFFFFFFFFFFFFFFFFFFFFFFFFFFFFFFFFFFFFFFFFFFFFFFFFFFFFFFFFFFFFFF
310
FFFFFFFFFFFFFFFFFFFFFFFFFFFFFFFFFFFFFFFFFFFFFFFFFFFFFFFFFFFFFFFF
310
FFFFFFFFFFFFFFFFFFFFFFFFFFFFFFFFFFFFFFFFFFFFFFFFFFFFFFFFFFFFFFFF
310
FFFFFFFFFFFFFFFFFFFFFFFFFFFFFFFFFFFFFFFFFFFFFFFFFFFFFFFFFFFFFFFF
310
FFFFFFFFFFFFFFFFFFFFFFFFFFFFFFFFFFFFFFFFFFFFFFFFFFFFFFFFFFFFFFFF
310
FFFFFFFFFFFFFFFFFFFFFFFFFFFFFFFFFFFFFFFFFFFFFFFFFFFFFFFFFFFFFFFF
310
FFFFFFFFFFFFFFFFFFFFFFFFFFFFFFFFFFFFFFFFFFFFFFFFFFFFFFFFFFFFFFFF
310
FFFFFFFFFFFFFFFFFFFFFFFFFFFFFFFFFFFFFFFFFFFFFFFFFFFFFFFFFFFFFFFF
310
FDFFFFFFFEFFFFFFFEFFFFFFFEFFFFFF05000000060000000700000008000000
310
090000000A0000000B0000000C0000000D0000000E0000000F00000010000000
310
11000000120000001300000014000000150000001600000017000000FEFFFFFF
310
FFFFFFFFFFFFFFFFFFFFFFFFFFFFFFFFFFFFFFFFFFFFFFFFFFFFFFFFFFFFFFFF
310
FFFFFFFFFFFFFFFFFFFFFFFFFFFFFFFFFFFFFFFFFFFFFFFFFFFFFFFFFFFFFFFF
310
FFFFFFFFFFFFFFFFFFFFFFFFFFFFFFFFFFFFFFFFFFFFFFFFFFFFFFFFFFFFFFFF
310
FFFFFFFFFFFFFFFFFFFFFFFFFFFFFFFFFFFFFFFFFFFFFFFFFFFFFFFFFFFFFFFF
310
FFFFFFFFFFFFFFFFFFFFFFFFFFFFFFFFFFFFFFFFFFFFFFFFFFFFFFFFFFFFFFFF
310
FFFFFFFFFFFFFFFFFFFFFFFFFFFFFFFFFFFFFFFFFFFFFFFFFFFFFFFFFFFFFFFF
310
FFFFFFFFFFFFFFFFFFFFFFFFFFFFFFFFFFFFFFFFFFFFFFFFFFFFFFFFFFFFFFFF
310
FFFFFFFFFFFFFFFFFFFFFFFFFFFFFFFFFFFFFFFFFFFFFFFFFFFFFFFFFFFFFFFF
310
FFFFFFFFFFFFFFFFFFFFFFFFFFFFFFFFFFFFFFFFFFFFFFFFFFFFFFFFFFFFFFFF
310
FFFFFFFFFFFFFFFFFFFFFFFFFFFFFFFFFFFFFFFFFFFFFFFFFFFFFFFFFFFFFFFF
310
FFFFFFFFFFFFFFFFFFFFFFFFFFFFFFFFFFFFFFFFFFFFFFFFFFFFFFFFFFFFFFFF
310
FFFFFFFFFFFFFFFFFFFFFFFFFFFFFFFFFFFFFFFFFFFFFFFFFFFFFFFFFFFFFFFF
310
FFFFFFFFFFFFFFFFFFFFFFFFFFFFFFFFFFFFFFFFFFFFFFFFFFFFFFFFFFFFFFFF
310
52006F006F007400200045006E00740072007900000000000000000000000000
310
0000000000000000000000000000000000000000000000000000000000000000
310
16000500FFFFFFFFFFFFFFFF020000000A00030000000000C000000000000046
310
0000000000000000000000004014FA9220B5D30103000000C000000000000000
310
01004F006C006500000000000000000000000000000000000000000000000000
310
0000000000000000000000000000000000000000000000000000000000000000
310
0A000200FFFFFFFFFFFFFFFFFFFFFFFF00000000000000000000000000000000
310
0000000000000000000000000000000000000000000000001400000000000000
310
010043006F006D0070004F0062006A0000000000000000000000000000000000
310
0000000000000000000000000000000000000000000000000000000000000000
310
120002010100000003000000FFFFFFFF00000000000000000000000000000000
310
0000000000000000000000000000000000000000010000004D00000000000000
310
01004F006C006500310030004E00610074006900760065000000000000000000
310
0000000000000000000000000000000000000000000000000000000000000000
310
1A000200FFFFFFFFFFFFFFFFFFFFFFFF00000000000000000000000000000000
310
0000000000000000000000000000000000000000040000002426000000000000
310
FEFFFFFF02000000FEFFFFFFFFFFFFFFFFFFFFFFFFFFFFFFFFFFFFFFFFFFFFFF
310
FFFFFFFFFFFFFFFFFFFFFFFFFFFFFFFFFFFFFFFFFFFFFFFFFFFFFFFFFFFFFFFF
310
FFFFFFFFFFFFFFFFFFFFFFFFFFFFFFFFFFFFFFFFFFFFFFFFFFFFFFFFFFFFFFFF
310
FFFFFFFFFFFFFFFFFFFFFFFFFFFFFFFFFFFFFFFFFFFFFFFFFFFFFFFFFFFFFFFF
310
FFFFFFFFFFFFFFFFFFFFFFFFFFFFFFFFFFFFFFFFFFFFFFFFFFFFFFFFFFFFFFFF
310
FFFFFFFFFFFFFFFFFFFFFFFFFFFFFFFFFFFFFFFFFFFFFFFFFFFFFFFFFFFFFFFF
310
FFFFFFFFFFFFFFFFFFFFFFFFFFFFFFFFFFFFFFFFFFFFFFFFFFFFFFFFFFFFFFFF
310
FFFFFFFFFFFFFFFFFFFFFFFFFFFFFFFFFFFFFFFFFFFFFFFFFFFFFFFFFFFFFFFF
310
FFFFFFFFFFFFFFFFFFFFFFFFFFFFFFFFFFFFFFFFFFFFFFFFFFFFFFFFFFFFFFFF
310
FFFFFFFFFFFFFFFFFFFFFFFFFFFFFFFFFFFFFFFFFFFFFFFFFFFFFFFFFFFFFFFF
310
FFFFFFFFFFFFFFFFFFFFFFFFFFFFFFFFFFFFFFFFFFFFFFFFFFFFFFFFFFFFFFFF
310
FFFFFFFFFFFFFFFFFFFFFFFFFFFFFFFFFFFFFFFFFFFFFFFFFFFFFFFFFFFFFFFF
310
FFFFFFFFFFFFFFFFFFFFFFFFFFFFFFFFFFFFFFFFFFFFFFFFFFFFFFFFFFFFFFFF
310
FFFFFFFFFFFFFFFFFFFFFFFFFFFFFFFFFFFFFFFFFFFFFFFFFFFFFFFFFFFFFFFF
310
FFFFFFFFFFFFFFFFFFFFFFFFFFFFFFFFFFFFFFFFFFFFFFFFFFFFFFFFFFFFFFFF
310
FFFFFFFFFFFFFFFFFFFFFFFFFFFFFFFFFFFFFFFFFFFFFFFFFFFFFFFFFFFFFFFF
310
0100000200000000000000000000000000000000000000000000000000000000
310
0000000000000000000000000000000000000000000000000000000000000000
310
0100FEFF030A0000FFFFFFFF0A00030000000000C00000000000004607000000
310
5042727573680007000000504272757368000700000050427275736800F439B2
310
7100000000000000000000000000000000000000000000000000000000000000
310
0000000000000000000000000000000000000000000000000000000000000000
310
0000000000000000000000000000000000000000000000000000000000000000
310
0000000000000000000000000000000000000000000000000000000000000000
310
0000000000000000000000000000000000000000000000000000000000000000
310
0000000000000000000000000000000000000000000000000000000000000000
310
0000000000000000000000000000000000000000000000000000000000000000
310
0000000000000000000000000000000000000000000000000000000000000000
310
0000000000000000000000000000000000000000000000000000000000000000
310
0000000000000000000000000000000000000000000000000000000000000000
310
0000000000000000000000000000000000000000000000000000000000000000
310
0000000000000000000000000000000000000000000000000000000000000000
310
20260000424D0E260000000000003E00000028000000B40200006E0000000100
310
01000000000000000000130B0000130B00000200000002000000000000FFFFFF
310
FFFFFFFFFFFFFFFFFFFFFFFFFFFFFFFFFFFFFFFFFFFFFFFFFFFFFFFFFFFFFFFF
310
FFFFFFFFFFFFFFFFFFFFFFFFFFFFFFFFFFFFFFFFFFFFFFFFFFFFFFFFFFFFFFFF
310
FFFFFFFFFFFFFFFFFFFFFFFFFFFFFFFFFFFFFFFFFFFFFFFFF000FFFFFFFFFFFF
310
FFFFFFFFFFFFFFFFFFFFFFFFFFFFFFFFFFFFFFFFFFFFFFFFFFFFFFFFFFFFFFFF
310
FFFFFFFFFFFFFFFFFFFFFFFFFFFFFFFFFFFFFFFFFFFFFFFFFFFFFFFFFFFFFFFF
310
FFFFFFFFFFFFFFFFFFFFFFFFFFFFFFFFF000FFFFFFFFFFFFFFFFFFFFFFFFFFFF
310
FFFFFFFFFFFFFFFFFFFFFFFFFFFFFFFFFFFFFFFFFFFFFFFFFFFFFFFFFFFFFFFF
310
FFFFFFFFFFFFFFFFFFFFFFFFFFFFFFFFFFFFFFFFFFFFFFFFFFFFFFFFFFFFFFFF
310
FFFFFFFFFFFFFFFFF000FFFFFFFFFFFFFFFFFFFFFFFFFFFFFFFFFFFFFFFFFFFF
310
FFFFFFFFFFFFFFFFFFFFFFFFFFFFFFFFFFFFFFFFFFFFFFFFFFFFFFFFFFFFFFFF
310
FFFFFFFFFFFFFFFFFFFFFFFFFFFFFFFFFFFFFFFFFFFFFFFFFFFFFFFFFFFFFFFF
310
F000FFFFFFFFFFFFFFFFFFFFFFFFFFFFFFFFFFFFFFFFFFFFFFFFFFFFFFFFFFFF
310
FFFFFFFFFFFFFFFFFFFFFFFFFFFFFFFFFFFFFFFFFFFFFFFFFFFFFFFFFFFFFFFF
310
FFFFFFFFFFFFFFFFFFFFFFFFFFFFFFFFFFFFFFFFFFFFFFFFF000FFFFFFFFFFFF
310
FFFFFFFFFFFFFFFFFFFFFFFFFFFFFFFFFFFFFFFFFFFFFFFFFFFFFFFFFFFFFFFF
310
FFFFFFFFFFFFFFFFFFFFFFFFFFFFFFFFFFFFFFFFFFFFFFFFFFFFFFFFFFFFFFFF
310
FFFFFFFFFFFFFFFFFFFFFFFFFFFFFFFFF000FFFFFFFFFFFFFFFFFFFFFFFFFFFF
310
FFFFFFFFFFFFFFFFFFFFFFFFFFFFFFFFFFFFFFFFFFFFFFFFFFFFFFFFFFFFFFFF
310
FFFFFFFFFFFFFFFFFFFFFFFFFFFFFFFFFFFFFFFFFFFFFFFFFFFFFFFFFFFFFFFF
310
FFFFFFFFFFFFFFFFF000FFFFFFFFFFFFFFFFFFFFFFFFFFFFFFFFFFFFFFFFFFFF
310
FFFFFFFFFFFFFFFFFFFFFFFFFFFFFFFFFFFFFFFFFFFFFFFFFFFFFFFFFFFFFFFF
310
FFFFFFFFFFFFFFFFFFFFFFFFFFFFFFFFFFFFFFFFFFFFFFFFFFFFFFFFFFFFFFFF
310
F000FFFFFFFFFFFFFFFFFFFFFFFFFFFFFFFFFFFFFFFFFFFFFFFFFFFFFFFFFFFF
310
FFFFFFFFFFFFFFFFFFFFFFFFFFFFFFFFFFFFFFFFFFFFFFFFFFFFFFFFFFFFFFFF
310
FFFFFFFFFFFFFFFFFFFFFFFFFFFFFFFFFFFFFFFFFFFFFFFFF000FFFFFFFFFFFF
310
FFFFFFFFFFFFFFFFFFFFFFFFFFFFFFFFFFFFFFFFFFFFFFFFFFFFFFFFFFFFFFFF
310
FFFFFFFFFFFFFFFFFFFFFFFFFFFFFFFFFFFFFFFFFFFFFFFFFFFFFFFFFFFFFFFF
310
FFFFFFFFFFFFFFFFFFFFFFFFFFFFFFFFF000FFFFFFFFFFFFFFFFFFFFFFFFFFFF
310
FFFFFFFFFFFFFFFFFFFFFFFFFFFFFFFFFFFFFFFFFFFFFFFFFFFFFFFFFFFFFFFF
310
FFFFFFFFFFFFFFFFFFFFFFFFFFFFFFFFFFFFFFFFFFFFFFFFFFFFFFFFFFFFFFFF
310
FFFFFFFFFFFFFFFFF000FFFFFFFFFFFFFFFFFFFFFFFFFFFFFFFFFFFFFFFFFFFF
310
FFFFFFFFFFFFFFFFFFFFFFFFFFFFFFFFFFFFFFFFFFFFFFFFFFFFFFFFFFFFFFFF
310
FFFFFFFFFFFFFFFFFFFFFFFFFFFFFFFFFFFFFFFFFFFFFFFFFFFFFFFFFFFFFFFF
310
F000FFFFFFFFFFFFFFFFFFFFFFFFFFFFFFFFFFFFFFFFFFFFFFFFFFFFFFFFFFFF
310
FFFFFFFFFFFFFFFFFFFFFFFFFFFFFFFFFFFFFFFFFFFFFFFFFFFFFFFFFFFFFFFF
310
FFFFFFFFFFFFFFFFFFFFFFFFFFFFFFFFFFFFFFFFFFFFFFFFF000FFFFFFFFFFFF
310
FFFFFFFFFFFFFFFFFFFFFFFFFFFFFFFFFFFFFFFFFFFFFFFFFFFFFFFFFFFFFFFF
310
FFFFFFFFFFFFFFFFFFFFFFFFFFFFFFFFFFFFFFFFFFFFFFFFFFFFFFFFFFFFFFFF
310
FFFFFFFFFFFFFFFFFFFFFFFFFFFFFFFFF000FFFFFFFFFFFFFFFFFFFFFFFFFFFF
310
FFFFFFFFFFFFFFFFFFFFFFFFFFFFFFFFFFFFFFFFFFFFFFFFFFFFFFFFFFFFFFFF
310
FFFFFFFFFFFFFFFFFFFFFFFFFFFFFFFFFFFFFFFFFFFFFFFFFFFFFFFFFFFFFFFF
310
FFFFFFFFFFFFFFFFF000FFFFFFFFFFFFFFFFFFFFFFFFFFFFFFFFFFFFFFFFFFFF
310
FFFFFFFFFFFFFFFFFFFFFFFFFFFFFFFFFFFFFFFFFFFFFFFFFFFFFFFFFFFFFFFF
310
FFFFFFFFFFFFFFFFFFFFFFFFFFFFFFFFFFFFFFFFFFFFFFFFFFFFFFFFFFFFFFFF
310
F000FFFFFFFFFFFFFFFFFFFFFFFFFFFFFFFFFFFFFFFFFFFFFFFFFFFFFFFFFFFF
310
FFFFFFFFFFFFFFFFFFFFFFFFFFFFFFFFFFFFFFFFFFFFFFFFFFFFFFFFFFFFFFFF
310
FFFFFFFFFFFFFFFFFFFFFFFFFFFFFFFFFFFFFFFFFFFFFFFFF000FFFFFFFFFFFF
310
FFFFFFFFFFFFFFFFFFFFFFFFFFFFFFFFFFFFFFFFFFFFFFFFFFFFFFFFFFFFFFFF
310
FFFFFFFFFFFFFFFFFFFFFFFFFFFFFFFFFFFFFFFFFFFFFFFFFFFFFFFFFFFFFFFF
310
FFFFFFFFFFFFFFFFFFFFFFFFFFFFFFFFF000FFFFFFFFFFFFFFFFFFFFFFFFFFFF
310
FFFFFFFFFFFFFFFFFFFFFFFFFFFFFFFFFFFFFFFFFFFFFFFFFFFFFFFFFFFFFFFF
310
FFFFFFFFFFFFFFFFFFFFFFFFFFFFFFFFFFFFFFFFFFFFFFFFFFFFFFFFFFFFFFFF
310
FFFFFFFFFFFFFFFFF000FFFFF80003FFFFFFFFFFFFFFFFFFFFFFFFFFFFFFFFFF
310
FFFFF00007FFFFFFFFFF00007FFFFFF800000000000000007FFFFFFFFFFFFFFF
310
FFFFFFFC001FFFFFFFFFFFFFFC001FFFFFFFFFFFFFFFFFFFFFFFFFFE0007FFFF
310
F000FFFF8000007FFFFFFFF8000FFFFFC0007FFFFF80007FFFFF0000007FFFFF
310
FFF8000007FFFFF800000000000000007FFFFFF0001FFFFFFFFFFFC00001FFFF
310
FFFFFFFFC00001FFFFFFFF000000000003FFFFE000007FFFF000FFFE0000000F
310
FFFFFFF0000FFFFF80007FFFFF80007FFFFC0000001FFFFFFFC0000001FFFFF8
310
00000000000000007FFFFFF0001FFFFFFFFFFE0000003FFFFFFFFFFE0000003F
310
FFFFFF000000000003FFFF0000000FFFF000FFF800000003FFFFFFF00007FFFF
310
80007FFFFF80007FFFF000000007FFFFFF000000003FFFF80000000000000000
310
7FFFFFF0001FFFFFFFFFF80000000FFFFFFFFFF80000000FFFFFFF0000000000
310
03FFFC00000003FFF000FFE000000000FFFFFFF00007FFFF80003FFFFF80007F
310
FFC000000001FFFFFC000000001FFFF800000000000000007FFFFFF0001FFFFF
310
FFFFE000000003FFFFFFFFE000000003FFFFFF000000000003FFF000000000FF
310
F000FF80000000007FFFFFF00007FFFF80003FFFFF80007FFF8000000000FFFF
310
F80000000007FFF800000000000000007FFFFFF0001FFFFFFFFFC000000001FF
310
FFFFFFC000000001FFFFFF000000000003FFC0000000007FF000FF0000000000
310
3FFFFFE00007FFFF00003FFFFF80007FFE00000000003FFFF00000000003FFF8
310
00000000000000007FFFFFF0001FFFFFFFFF8000000000FFFFFFFF8000000000
310
FFFFFF000000000003FF80000000003FF000FE00000000001FFFFFE00003FFFF
310
00003FFFFF80007FFC00000000001FFFE00000000001FFF8000001FFFE000000
310
7FFFFFF0001FFFFFFFFE00000000003FFFFFFE00000000003FFFFF0000000000
310
03FF00000000001FF000FC00000000000FFFFFE00003FFFF00001FFFFF80007F
310
F800000000001FFFC00000000000FFF8000001FFFE0000007FFFFFF0001FFFFF
310
FFFC00000000001FFFFFFC00000000001FFFFF000000000003FE00000000000F
310
F000F8000000000007FFFFE00003FFFF00001FFFFF80007FF800000000000FFF
310
800000000000FFF8000001FFFE0000007FFFFFF0001FFFFFFFF800000000000F
310
FFFFF800000000000FFFFF000000000003FC000000000007F000F80000000000
310
03FFFFC00003FFFE00001FFFFF80007FF0000000000007FF0000000000007FF8
310
000001FFFE0000007FFFFFF0001FFFFFFFF0000000000007FFFFF00000000000
310
07FFFF000000000003F8000000000003F000F0000000000003FFFFC00001FFFE
310
00001FFFFF80007FE0000000000007FE0000000000003FF8000001FFFE000000
310
7FFFFFF0001FFFFFFFF0000000000007FFFFF0000000000007FFFF0000000000
310
03F800001F800003F000E00001FFF00001FFFFC00001FFFE00000FFFFF80007F
310
E00001FFE00003FE00001FFF00003FF8000001FFFE0000007FFFFFF0001FFFFF
310
FFE000003E000003FFFFE000003E000003FFFF000000000003F00001FFF80001
310
F000E00007FFFC0001FFFFC00001FFFE00000FFFFF80007FC0000FFFFC0003FC
310
0000FFFFC0001FF8000001FFFE0000007FFFFFF0001FFFFFFFC00003FFE00001
310
FFFFC00003FFE00001FFFF0001FFFFFFFFF00007FFFE0001F000E0000FFFFF00
310
00FFFF800001FFFC00000FFFFF80007FC0001FFFFE0001FC0001FFFFE0001FF8
310
000001FFFE0000007FFFFFF0001FFFFFFF80000FFFF80000FFFF80000FFFF800
310
00FFFF0003FFFFFFFFE0000FFFFF8000F000C0003FFFFF8000FFFF800000FFFC
310
000007FFFF80007F80003FFFFF0001FC0003FFFFF0001FF8000001FFFE000000
310
7FFFFFF0001FFFFFFF80003FFFFE0000FFFF80003FFFFE0000FFFF0003FFFFFF
310
FFE0003FFFFF8000F000C0003FFFFF8000FFFF800000FFFC000007FFFF80007F
310
80007FFFFF8001F80007FFFFF8000FF8000001FFFE0000007FFFFFF0001FFFFF
310
FF00007FFFFF00007FFF00007FFFFF00007FFF0003FFFFFFFFE0003FFFFFC000
310
F000C0007FFFFFC000FFFF000000FFFC000007FFFF80007F8000FFFFFF8000F8
310
000FFFFFF8000FF8000001FFFE0000007FFFFFF0001FFFFFFF0000FFFFFF8000
310
7FFF0000FFFFFF80007FFF0003FFFFFFFFC0007FFFFFC00070008000FFFFFFC0
310
00FFFF000000FFF8000007FFFF80007F8000FFFFFF8000F8000FFFFFF8000FF8
310
000001FFFE0000007FFFFFF0001FFFFFFE0001FFFFFFC0003FFE0001FFFFFFC0
310
003FFF0003FFFFFFFFC0007FFFFFE00070008000FFFFFFC0007FFF0000007FF8
310
000003FFFF80007F0001FFFFFF8000F8000FFFFFF8000FF8000001FFFE000000
310
7FFFFFF0001FFFFFFE0001FFFFFFC0003FFE0001FFFFFFC0003FFF0003FFFFFF
310
FFC000FFFFFFE00070008000FFFFFFC0007FFF0000007FF8000003FFFF80007F
310
0001FFFFFF8000F8001FFFFFF8000FF8000001FFFE0000007FFFFFF0001FFFFF
310
FE0003FFFFFFE0003FFE0003FFFFFFE0003FFF0003FFFFFFFFC000FFFFFFE000
310
70008000FFFFFFC0007FFE0000007FF8000003FFFF80007F0001FFFFFF8000F0
310
001FFFFFF8000FF8000001FFFE0000007FFFFFF0001FFFFFFC0003FFFFFFE000
310
1FFC0003FFFFFFE0001FFF0003FFFFFFFFC000FFFFFFC00070008000FFFFFF80
310
007FFE0000007FF0000003FFFF80007F0001FFFFFF0000F0001FFFFFF8000FF8
310
000001FFFE0000007FFFFFF0001FFFFFFC0007FFFFFFF0001FFC0007FFFFFFF0
310
001FFF0003FFFFFFFFC000FFFFFFC00070008001FFFFFF0000FFFE0000003FF0
310
000001FFFF80007F0001FFFFFF0000F8001FFFFFF0000FF8000001FFFE000000
310
7FFFFFF0001FFFFFFC0007FFFFFFF0001FFC0007FFFFFFF0001FFF0003FFFFFF
310
FFC001FFFFFF80007000FFFFFFFFFE0000FFFE0008003FF0008001FFFF80007F
310
FFFFFFFFFC0000FFFFFFFFFFE0000FF8000001FFFE0000007FFFFFF0001FFFFF
310
F8000FFFFFFFF8000FF8000FFFFFFFF8000FFF0003FFFFFFFFFFFFFFFFFF0000
310
7000FFFFFFFFFC0000FFFC0008003FF0008001FFFF80007FFFFFFFFFF80001FF
310
FFFFFFFF80000FF8000001FFFE0000007FFFFFF0001FFFFFF8000FFFFFFFF800
310
0FF8000FFFFFFFF8000FFF0003FFFFFFFFFFFFFFFFFE0000F000FFFFFFFFE000
310
00FFFC000C003FE000C001FFFF80007FFFFFFFFFC00001FFFFFFFFFE00001FF8
310
000001FFFE0000007FFFFFF0001FFFFFF8000FFFFFFFF8000FF8000FFFFFFFF8
310
000FFF0003FFFFFFFFFFFFFFFFF00000F000FFFFFFFE000001FFFC000C001FE0
310
00C000FFFF80007FFFFFFFFE000001FFFFFFFFE000001FF80FFFFFFFFFFFFFC0
310
7FFFFFF0001FFFFFF8000FFFFFFFF8000FF8000FFFFFFFF8000FFF0003FFFFFF
310
FFFFFFFFFF800000F000FFFFFFC0000001FFFC001C001FE001C000FFFF80007F
310
FFFFFF80000003FFFFFFF80000001FF80FFFFFFFFFFFFFC07FFFFFF0001FFFFF
310
F8001FFFFFFFFC000FF8001FFFFFFFFC000FFF0003FFFFFFFFFFFFFFF0000001
310
F000FFFFF800000001FFF8001C001FE001C000FFFF80007FFFFFF800000003FF
310
FFFF800000003FF80FFFFFFFFFFFFFC07FFFFFF0001FFFFFF8001FFFFFFFFC00
310
0FF8001FFFFFFFFC000FFF0003FFFFFFFFFFFFFE00000001F000FFFFC0000000
310
03FFF8001E001FC001E000FFFF80007FFFFF8000000007FFFFFC000000003FF8
310
0FFFFFFFFFFFFFC07FFFFFF0001FFFFFF8001FFFFFFFFC000FF8001FFFFFFFFC
310
000FFF0003FFFFFFFFFFFFE000000003F000FFFE0000000007FFF8001E000FC0
310
01E0007FFF80007FFFFE0000000007FFFFE0000000007FF80FFFFFFFFFFFFFC0
310
7FFFFFF0001FFFFFF0001FFFFFFFFC0007F0001FFFFFFFFC0007FF0003FFFFFF
310
FFFFFF0000000003F000FFF80000000007FFF8001E000FC003E0007FFF80007F
310
FFF0000000000FFFFF8000000000FFF80FFFFFFFFFFFFFC07FFFFFF0001FFFFF
310
F0001FFFFFFFFC0007F0001FFFFFFFFC0007FF0003FFFFFFFFFFFC0000000007
310
F000FFE0000000000FFFF0003E000FC003E0007FFF80007FFFC0000000001FFF
310
FE0000000001FFF80FFFFFFFFFFFFFC07FFFFFF0001FFFFFF0001FFFFFFFFC00
310
07F0001FFFFFFFFC0007FF0003FFFFFFFFFFF0000000000FF000FFC000000000
310
1FFFF0003F000F8003F0003FFF80007FFF80000000003FFFF80000000003FFF8
310
0FFFFFFFFFFFFFC07FFFFFF0001FFFFFF0001FFFFFFFFC0007F0001FFFFFFFFC
310
0007FF0003FFFFFFFFFFE0000000001FF000FF00000000007FFFF0003F000780
310
03F0003FFF80007FFF00000000007FFFF00000000007FFF80FFFFFFFFFFFFFC0
310
7FFFFFF0001FFFFFF0001FFFFFFFFC0007F0001FFFFFFFFC0007FF0003FFFFFF
310
FFFF80000000007FF000FE0000000000FFFFE0003F00078007F0003FFF80007F
310
FE0000000001FFFFE0000000001FFFF80FFFFFFFFFFFFFC07FFFFFF0001FFFFF
310
F0001FFFFFFFFC0007F0001FFFFFFFFC0007FF0003FFFFFFFFFF0000000000FF
310
F000FC0000000003FFFFE0007F00078007F0003FFF80007FFC0000000007FFFF
310
C0000000007FFFF80FFFFFFFFFFFFFC07FFFFFF0001FFFFFF8001FFFFFFFFC00
310
0FF8001FFFFFFFFC000FFF0003FFFFFFFFFE0000000003FFF000FC000000000F
310
FFFFE0007F80070007F8001FFF80007FF8000000001FFFFF8000000001FFFFF8
310
0FFFFFFFFFFFFFC07FFFFFF0001FFFFFF8001FFFFFFFFC000FF8001FFFFFFFFC
310
000FFF0003FFFFFFFFFC000000000FFFF000F8000000007FFFFFE0007F800700
310
07F8001FFF80007FF000000000FFFFFF800000000FFFFFF80FFFFFFFFFFFFFC0
310
7FFFFFF0001FFFFFF8000FFFFFFFF8000FF8000FFFFFFFF8000FFF0003FFFFFF
310
FFFC000000007FFFF000F800000007FFFFFFC0007F8003000FF8001FFF80007F
310
F000000007FFFFFF000000007FFFFFF80FFFFFFFFFFFFFC07FFFFFF0001FFFFF
310
F8000FFFFFFFF8000FF8000FFFFFFFF8000FFF0003FFFFFFFFF80000000FFFFF
310
F000F0000000FFFFFFFFC000FF8003000FF8001FFF80007FE0000000FFFFFFFF
310
0000000FFFFFFFF8000001FFFE0000007FFFFFF0001FFFFFF8000FFFFFFFF800
310
0FF8000FFFFFFFF8000FFF0003FFFFFFFFF8000000FFFFFFF000F000000FFFFF
310
FFFFC000FFC002000FF8000FFF80007FE000001FFFFFFFFE000001FFFFFFFFF8
310
000001FFFE0000007FFFFFF0001FFFFFF8000FFFFFFFF8000FF8000FFFFFFFF8
310
000FFF0003FFFFFFFFF000001FFFFFFFF000E00000FFFFFFFFFFC000FFC00200
310
0FFC000FFF80007FE00001FFFFFFFFFE00001FFFFFFFFFF8000001FFFE000000
310
7FFFFFF0001FFFFFFC000FFFFFFFF8001FFC000FFFFFFFF8001FFF0003FFFFFF
310
FFF00001FFFFFFFFF000E00007FFFFFFFFFF8000FFC000001FFC000FFF80007F
310
C0000FFFFFFFFFFE0000FFFFFFFFFFF8000001FFFE0000007FFFFFF0001FFFFF
310
FC0007FFFFFFF0001FFC0007FFFFFFF0001FFF0003FFFFFFFFF00007FFFFFFFF
310
F000E0001FFFFFFFFFFF8000FFC000001FFC000FFF80007FC0003FFFFFFFFFFE
310
0001FFFFFFFFFFF8000001FFFE0000007FFFFFF0001FFFFFFC0007FFFFFFF000
310
1FFC0007FFFFFFF0001FFF0003FFFFFFFFF0001FFFFFFFFFF000E0003FFFFF00
310
03FF8001FFE000001FFC0007FF80007FC0007FFFFF0007FC0003FFFFF0003FF8
310
000001FFFE0000007FFFFFF0001FFFFFFC0003FFFFFFE0001FFC0003FFFFFFE0
310
001FFF0003FFFFFFFFF0003FFFFFFFFFF000E0003FFFFF0001FF8001FFE00000
310
1FFE0007FF80007FC0007FFFFE0003FC0007FFFFE0003FF8000001FFFE000000
310
7FFFFFF0001FFFFFFE0003FFFFFFE0003FFE0003FFFFFFE0003FFF0003FFFFFF
310
FFF0003FFFFF8001F000E0003FFFFF0001FF0001FFE000001FFE0007FF80007F
310
C0007FFFFE0003FC0007FFFFE0003FF8000001FFFE0000007FFFFFF0001FFFFF
310
FE0001FFFFFFC0003FFE0001FFFFFFC0003FFF0003FFFFFFFFF0003FFFFF0001
310
F000E0003FFFFF0003FF0001FFE000003FFE0007FF80007FC0007FFFFE0003FC
310
0007FFFFE0003FF8000001FFFE0000007FFFFFF0001FFFFFFF0001FFFFFFC000
310
7FFF0001FFFFFFC0007FFF0003FFFFFFFFF0003FFFFF0001F000E0003FFFFE00
310
03FF0003FFF000003FFE0003FF80007FC0007FFFFC0003FE0007FFFFE0003FF8
310
000001FFFE0000007FFFFFF0001FFFFFFF0000FFFFFF80007FFF0000FFFFFF80
310
007FFF0003FFFFFFFFF0003FFFFF0001F000E0003FFFFE0003FF0003FFF00000
310
3FFF0003FF80007FC0007FFFFC0007FE0007FFFFC0003FF8000001FFFE000000
310
7FFFFFF0001FFFFFFF80007FFFFF0000FFFF80007FFFFF0000FFFF0003FFFFFF
310
FFF0003FFFFF0003F000E0003FFFFC0003FE0003FFF000003FFF0003FF80007F
310
E0003FFFF80007FE0003FFFFC0007FF8000001FFFE0000007FFFFFF0001FFFFF
310
FF80003FFFFE0000FFFF80003FFFFE0000FFFF0003FFFFFFFFF0001FFFFE0003
310
F000F0001FFFF80003FE0003FFF000007FFF0001FF80007FE0003FFFF00007FE
310
0001FFFF80007FF8000001FFFE0000007FFFFFF0001FFFFFFFC0000FFFF80001
310
FFFFC0000FFFF80001FFFF0003FFFFFFFFF0001FFFFC0003F000F0000FFFF000
310
07FE0007FFF800007FFF0001FF80007FE0001FFFE00007FF0000FFFE00007FF8
310
000001FFFE0000007FFFFFF0001FFFFFFFC00003FFE00001FFFFC00003FFE000
310
01FFFF0003FFFFFFFFF8000FFFF80003F000F00003FFC00007FC0007FFF80000
310
7FFF8001FF80007FF00007FF80000FFF00007FF80000FFF8000001FFFE000000
310
7F80000000000001FFE000003E000003FFFFE000003E000003FFFF0003FFFFFF
310
FFF80003FFE00007F000F800000000000FFC0007FFF800007FFF8001FF80007F
310
F000000000000FFF000000000000FFF8000001FFFE0000007F80000000000001
310
FFF0000000000007FFFFF0000000000007FFFF0003FFFFFFFFFC00007E000007
310
F000F800000000000FFC0007FFF80000FFFF8000FF80007FF800000000001FFF
310
800000000001FFF8000001FFFE0000007F80000000000001FFF800000000000F
310
FFFFF800000000000FFFFF0003FFFFFFFFFC00000000000FF000FC0000000000
310
1FFC0007FFFC0000FFFF8000FF80007FF800000000003FFFC00000000001FFF8
310
000001FFFE0000007F80000000000001FFF800000000000FFFFFF80000000000
310
0FFFFF0003FFFFFFFFFE00000000001FF000FE00000000003FF8000FFFFC0000
310
FFFF8000FF80007FFC00000000003FFFC00000000003FFF8000001FFFE000000
310
7F80000000000001FFFC00000000001FFFFFFC00000000001FFFFF0003FFFFFF
310
FFFF00000000001FF000FF00000000003FF8000FFFFC0000FFFFC000FF80007F
310
FE00000000007FFFE00000000007FFF8000001FFFE0000007F80000000000001
310
FFFE00000000003FFFFFFE00000000003FFFFF0003FFFFFFFFFF80000000003F
310
F000FF80000000007FF8000FFFFC0001FFFFC0007F80007FFF0000000000FFFF
310
F0000000000FFFF800000000000000007F80000000000001FFFF8000000000FF
310
FFFFFF8000000000FFFFFF0003FFFFFFFFFFC0000000007FF000FFC000000000
310
FFF8000FFFFE0001FFFFC0007F80007FFF8000000001FFFFF8000000001FFFF8
310
00000000000000007F80000000000001FFFFC000000001FFFFFFFFC000000001
310
FFFFFF0003FFFFFFFFFFE000000000FFF000FFE000000003FFF0001FFFFE0001
310
FFFFC0007F80007FFFC000000007FFFFFE000000003FFFF80000000000000000
310
7F80000000000001FFFFE000000003FFFFFFFFE000000003FFFFFF0003FFFFFF
310
FFFFF000000003FFF000FFF80000000FFFF0001FFFFE0001FFFFE0007F80007F
310
FFF00000000FFFFFFF00000000FFFFF800000000000000007F80000000000001
310
FFFFF80000000FFFFFFFFFF80000000FFFFFFF0003FFFFFFFFFFFC0000000FFF
310
F000FFFE0000003FFFF0001FFFFE0003FFFFE0003F80007FFFFC0000003FFFFF
310
FFC0000003FFFFF800000000000000007F80000000000001FFFFFE0000003FFF
310
FFFFFFFE0000003FFFFFFF0003FFFFFFFFFFFF0000003FFFF000FFFF800000FF
310
FFF0001FFFFF0003FFFFE0003F80007FFFFF000001FFFFFFFFF800001FFFFFF8
310
00000000000000007F80000000000001FFFFFFC00001FFFFFFFFFFFFC00001FF
310
FFFFFF0003FFFFFFFFFFFFC00000FFFFF000FFFFF8000FFFFFFFFFFFFFFFFFFF
310
FFFFFFFFFFFFFFFFFFFFF0001FFFFFFFFFFF0000FFFFFFF80000000000000000
310
7FFFFFFFFFFFFFFFFFFFFFFC001FFFFFFFFFFFFFFC001FFFFFFFFFFFFFFFFFFF
310
FFFFFFFC001FFFFFF000FFFFFFFFFFFFFFFFFFFFFFFFFFFFFFFFFFFFFFFFFFFF
310
FFFFFFFFFFFFFFFFFFFFFFFFFFFFFFFFFFFFFFFFFFFFFFFFFFFFFFFFFFFFFFFF
310
FFFFFFFFFFFFFFFFFFFFFFFFFFFFFFFFFFFFFFFFFFFFFFFFFFFFFFFFFFFFFFFF
310
F000FFFFFFFFFFFFFFFFFFFFFFFFFFFFFFFFFFFFFFFFFFFFFFFFFFFFFFFFFFFF
310
FFFFFFFFFFFFFFFFFFFFFFFFFFFFFFFFFFFFFFFFFFFFFFFFFFFFFFFFFFFFFFFF
310
FFFFFFFFFFFFFFFFFFFFFFFFFFFFFFFFFFFFFFFFFFFFFFFFF000FFFFFFFFFFFF
310
FFFFFFFFFFFFFFFFFFFFFFFFFFFFFFFFFFFFFFFFFFFFFFFFFFFFFFFFFFFFFFFF
310
FFFFFFFFFFFFFFFFFFFFFFFFFFFFFFFFFFFFFFFFFFFFFFFFFFFFFFFFFFFFFFFF
310
FFFFFFFFFFFFFFFFFFFFFFFFFFFFFFFFF000FFFFFFFFFFFFFFFFFFFFFFFFFFFF
310
FFFFFFFFFFFFFFFFFFFFFFFFFFFFFFFFFFFFFFFFFFFFFFFFFFFFFFFFFFFFFFFF
310
FFFFFFFFFFFFFFFFFFFFFFFFFFFFFFFFFFFFFFFFFFFFFFFFFFFFFFFFFFFFFFFF
310
FFFFFFFFFFFFFFFFF000FFFFFFFFFFFFFFFFFFFFFFFFFFFFFFFFFFFFFFFFFFFF
310
FFFFFFFFFFFFFFFFFFFFFFFFFFFFFFFFFFFFFFFFFFFFFFFFFFFFFFFFFFFFFFFF
310
FFFFFFFFFFFFFFFFFFFFFFFFFFFFFFFFFFFFFFFFFFFFFFFFFFFFFFFFFFFFFFFF
310
F000FFFFFFFFFFFFFFFFFFFFFFFFFFFFFFFFFFFFFFFFFFFFFFFFFFFFFFFFFFFF
310
FFFFFFFFFFFFFFFFFFFFFFFFFFFFFFFFFFFFFFFFFFFFFFFFFFFFFFFFFFFFFFFF
310
FFFFFFFFFFFFFFFFFFFFFFFFFFFFFFFFFFFFFFFFFFFFFFFFF000FFFFFFFFFFFF
310
FFFFFFFFFFFFFFFFFFFFFFFFFFFFFFFFFFFFFFFFFFFFFFFFFFFFFFFFFFFFFFFF
310
FFFFFFFFFFFFFFFFFFFFFFFFFFFFFFFFFFFFFFFFFFFFFFFFFFFFFFFFFFFFFFFF
310
FFFFFFFFFFFFFFFFFFFFFFFFFFFFFFFFF000FFFFFFFFFFFFFFFFFFFFFFFFFFFF
310
FFFFFFFFFFFFFFFFFFFFFFFFFFFFFFFFFFFFFFFFFFFFFFFFFFFFFFFFFFFFFFFF
310
FFFFFFFFFFFFFFFFFFFFFFFFFFFFFFFFFFFFFFFFFFFFFFFFFFFFFFFFFFFFFFFF
310
FFFFFFFFFFFFFFFFF000FFFFFFFFFFFFFFFFFFFFFFFFFFFFFFFFFFFFFFFFFFFF
310
FFFFFFFFFFFFFFFFFFFFFFFFFFFFFFFFFFFFFFFFFFFFFFFFFFFFFFFFFFFFFFFF
310
FFFFFFFFFFFFFFFFFFFFFFFFFFFFFFFFFFFFFFFFFFFFFFFFFFFFFFFFFFFFFFFF
310
F000FFFFFFFFFFFFFFFFFFFFFFFFFFFFFFFFFFFFFFFFFFFFFFFFFFFFFFFFFFFF
310
FFFFFFFFFFFFFFFFFFFFFFFFFFFFFFFFFFFFFFFFFFFFFFFFFFFFFFFFFFFFFFFF
310
FFFFFFFFFFFFFFFFFFFFFFFFFFFFFFFFFFFFFFFFFFFFFFFFF000FFFFFFFFFFFF
310
FFFFFFFFFFFFFFFFFFFFFFFFFFFFFFFFFFFFFFFFFFFFFFFFFFFFFFFFFFFFFFFF
310
FFFFFFFFFFFFFFFFFFFFFFFFFFFFFFFFFFFFFFFFFFFFFFFFFFFFFFFFFFFFFFFF
310
FFFFFFFFFFFFFFFFFFFFFFFFFFFFFFFFF000FFFFFFFFFFFFFFFFFFFFFFFFFFFF
310
FFFFFFFFFFFFFFFFFFFFFFFFFFFFFFFFFFFFFFFFFFFFFFFFFFFFFFFFFFFFFFFF
310
FFFFFFFFFFFFFFFFFFFFFFFFFFFFFFFFFFFFFFFFFFFFFFFFFFFFFFFFFFFFFFFF
310
FFFFFFFFFFFFFFFFF000FFFFFFFFFFFFFFFFFFFFFFFFFFFFFFFFFFFFFFFFFFFF
310
FFFFFFFFFFFFFFFFFFFFFFFFFFFFFFFFFFFFFFFFFFFFFFFFFFFFFFFFFFFFFFFF
310
FFFFFFFFFFFFFFFFFFFFFFFFFFFFFFFFFFFFFFFFFFFFFFFFFFFFFFFFFFFFFFFF
310
F000FFFFFFFFFFFFFFFFFFFFFFFFFFFFFFFFFFFFFFFFFFFFFFFFFFFFFFFFFFFF
310
FFFFFFFFFFFFFFFFFFFFFFFFFFFFFFFFFFFFFFFFFFFFFFFFFFFFFFFFFFFFFFFF
310
FFFFFFFFFFFFFFFFFFFFFFFFFFFFFFFFFFFFFFFFFFFFFFFFF000FFFFFFFFFFFF
310
FFFFFFFFFFFFFFFFFFFFFFFFFFFFFFFFFFFFFFFFFFFFFFFFFFFFFFFFFFFFFFFF
310
FFFFFFFFFFFFFFFFFFFFFFFFFFFFFFFFFFFFFFFFFFFFFFFFFFFFFFFFFFFFFFFF
310
FFFFFFFFFFFFFFFFFFFFFFFFFFFFFFFFF000FFFFFFFFFFFFFFFFFFFFFFFFFFFF
310
FFFFFFFFFFFFFFFFFFFFFFFFFFFFFFFFFFFFFFFFFFFFFFFFFFFFFFFFFFFFFFFF
310
FFFFFFFFFFFFFFFFFFFFFFFFFFFFFFFFFFFFFFFFFFFFFFFFFFFFFFFFFFFFFFFF
310
FFFFFFFFFFFFFFFFF000FFFFFFFFFFFFFFFFFFFFFFFFFFFFFFFFFFFFFFFFFFFF
310
FFFFFFFFFFFFFFFFFFFFFFFFFFFFFFFFFFFFFFFFFFFFFFFFFFFFFFFFFFFFFFFF
310
FFFFFFFFFFFFFFFFFFFFFFFFFFFFFFFFFFFFFFFFFFFFFFFFFFFFFFFFFFFFFFFF
310
F000FFFFFFFFFFFFFFFFFFFFFFFFFFFFFFFFFFFFFFFFFFFFFFFFFFFFFFFFFFFF
310
FFFFFFFFFFFFFFFFFFFFFFFFFFFFFFFFFFFFFFFFFFFFFFFFFFFFFFFFFFFFFFFF
310
FFFFFFFFFFFFFFFFFFFFFFFFFFFFFFFFFFFFFFFFFFFFFFFFF000FFFFFFFFFFFF
310
FFFFFFFFFFFFFFFFFFFFFFFFFFFFFFFFFFFFFFFFFFFFFFFFFFFFFFFFFFFFFFFF
310
FFFFFFFFFFFFFFFFFFFFFFFFFFFFFFFFFFFFFFFFFFFFFFFFFFFFFFFFFFFFFFFF
310
FFFFFFFFFFFFFFFFFFFFFFFFFFFFFFFFF000FFFFFFFFFFFFFFFFFFFFFFFFFFFF
310
FFFFFFFFFFFFFFFFFFFFFFFFFFFFFFFFFFFFFFFFFFFFFFFFFFFFFFFFFFFFFFFF
310
FFFFFFFFFFFFFFFFFFFFFFFFFFFFFFFFFFFFFFFFFFFFFFFFFFFFFFFFFFFFFFFF
310
FFFFFFFFFFFFFFFFF000FFFFFFFFFFFFFFFFFFFFFFFFFFFFFFFFFFFFFFFFFFFF
310
FFFFFFFFFFFFFFFFFFFFFFFFFFFFFFFFFFFFFFFFFFFFFFFFFFFFFFFFFFFFFFFF
310
FFFFFFFFFFFFFFFFFFFFFFFFFFFFFFFFFFFFFFFFFFFFFFFFFFFFFFFFFFFFFFFF
310
F000FFFFFFFFFFFFFFFFFFFFFFFFFFFFFFFFFFFFFFFFFFFFFFFFFFFFFFFFFFFF
310
FFFFFFFFFFFFFFFFFFFFFFFFFFFFFFFFFFFFFFFFFFFFFFFFFFFFFFFFFFFFFFFF
310
FFFFFFFFFFFFFFFFFFFFFFFFFFFFFFFFFFFFFFFFFFFFFFFFF000FFFFFFFFFFFF
310
FFFFFFFFFFFFFFFFFFFFFFFFFFFFFFFFFFFFFFFFFFFFFFFFFFFFFFFFFFFFFFFF
310
FFFFFFFFFFFFFFFFFFFFFFFFFFFFFFFFFFFFFFFFFFFFFFFFFFFFFFFFFFFFFFFF
310
FFFFFFFFFFFFFFFFFFFFFFFFFFFFFFFFF0000000000000000000000000000000
310
0000000000000000000000000000000000000000000000000000000000000000
310
0000000000000000000000000000000000000000000000000000000000000000
310
0000000000000000000000000000000000000000000000000000000000000000
310
0000000000000000000000000000000000000000000000000000000000000000
310
0000000000000000000000000000000000000000000000000000000000000000
310
0000000000000000000000000000000000000000000000000000000000000000
310
0000000000000000000000000000000000000000000000000000000000000000
310
0000000000000000000000000000000000000000000000000000000000000000
310
0000000000000000000000000000000000000000000000000000000000000000
310
0000000000000000000000000000000000000000000000000000000000000000
310
0000000000000000000000000000000000000000000000000000000000000000
310
0000000000000000000000000000000000000000000000000000000000000000
310
0000000000000000000000000000000000000000000000000000000000000000
310
0000000000000000000000000000000000000000000000000000000000000000
310
0000000000000000000000000000000000000000000000000000000000000000
  1
OLE
  0
ENDSEC
  0
SECTION
  2
OBJECTS
  0
DICTIONARY
  5
C
330
0
100
AcDbDictionary
281
     1
  3
ACAD_GROUP
350
D
  3
ACAD_LAYOUT
350
1A
  3
ACAD_MLINESTYLE
350
17
  3
ACAD_PLOTSETTINGS
350
19
  3
ACAD_PLOTSTYLENAME
350
E
  3
ACAD_SCALELIST
350
47
  0
DICTIONARY
  5
D
102
{ACAD_REACTORS
330
C
102
}
330
C
100
AcDbDictionary
281
     1
  0
DICTIONARY
  5
1A
102
{ACAD_REACTORS
330
C
102
}
330
C
100
AcDbDictionary
281
     1
  3
Layout1
350
1E
  3
Layout2
350
26
  3
Model
350
22
  0
DICTIONARY
  5
17
102
{ACAD_REACTORS
330
C
102
}
330
C
100
AcDbDictionary
281
     1
  3
Standard
350
18
  0
DICTIONARY
  5
19
102
{ACAD_REACTORS
330
C
102
}
330
C
100
AcDbDictionary
281
     1
  0
ACDBDICTIONARYWDFLT
  5
E
102
{ACAD_REACTORS
330
C
102
}
330
C
100
AcDbDictionary
281
     1
  3
Normal
350
F
100
AcDbDictionaryWithDefault
340
F
  0
DICTIONARY
  5
47
102
{ACAD_REACTORS
330
C
102
}
330
C
100
AcDbDictionary
281
     1
  3
A0
350
48
  3
A1
350
49
  3
A2
350
4A
  3
A3
350
4B
  3
A4
350
4C
  3
A5
350
4D
  3
A6
350
4E
  3
A7
350
4F
  3
A8
350
50
  3
A9
350
51
  3
B0
350
52
  3
B1
350
53
  3
B2
350
54
  3
B3
350
55
  3
B4
350
56
  3
B5
350
57
  3
B6
350
58
  3
B7
350
59
  3
B8
350
5A
  3
B9
350
5B
  3
C0
350
5C
  3
C1
350
5D
  3
C2
350
5E
  3
C3
350
5F
  3
C4
350
60
  3
C5
350
61
  3
C6
350
62
  3
C7
350
63
  3
C8
350
64
  3
C9
350
65
  3
D0
350
66
  3
D1
350
67
  3
D2
350
68
  0
LAYOUT
  5
1E
102
{ACAD_REACTORS
330
1A
102
}
330
1A
100
AcDbPlotSettings
  1

  2
none_device
  4

  6

 40
0.0
 41
0.0
 42
0.0
 43
0.0
 44
0.0
 45
0.0
 46
0.0
 47
0.0
 48
0.0
 49
0.0
140
0.0
141
0.0
142
1.0
143
1.0
 70
   688
 72
     1
 73
     0
 74
     5
  7

 75
    16
147
1.0
148
0.0
149
0.0
100
AcDbLayout
  1
Layout1
 70
     1
 71
     1
 10
0.0
 20
0.0
 11
420.0
 21
297.0
 12
0.0
 22
0.0
 32
0.0
 14
1.0000000000E+20
 24
1.0000000000E+20
 34
1.0000000000E+20
 15
-1.0000000000E+20
 25
-1.0000000000E+20
 35
-1.0000000000E+20
146
0.0
 13
0.0
 23
0.0
 33
0.0
 16
1.0
 26
0.0
 36
0.0
 17
0.0
 27
1.0
 37
0.0
 76
     0
330
1B
  0
LAYOUT
  5
26
102
{ACAD_REACTORS
330
1A
102
}
330
1A
100
AcDbPlotSettings
  1

  2
none_device
  4

  6

 40
0.0
 41
0.0
 42
0.0
 43
0.0
 44
0.0
 45
0.0
 46
0.0
 47
0.0
 48
0.0
 49
0.0
140
0.0
141
0.0
142
1.0
143
1.0
 70
   688
 72
     1
 73
     0
 74
     5
  7

 75
    16
147
1.0
148
0.0
149
0.0
100
AcDbLayout
  1
Layout2
 70
     1
 71
     2
 10
0.0
 20
0.0
 11
0.0
 21
0.0
 12
0.0
 22
0.0
 32
0.0
 14
0.0
 24
0.0
 34
0.0
 15
0.0
 25
0.0
 35
0.0
146
0.0
 13
0.0
 23
0.0
 33
0.0
 16
1.0
 26
0.0
 36
0.0
 17
0.0
 27
1.0
 37
0.0
 76
     0
330
23
  0
LAYOUT
  5
22
102
{ACAD_REACTORS
330
1A
102
}
330
1A
100
AcDbPlotSettings
  1

  2
none_device
  4
Letter_(8.50_x_11.00_Inches)
  6

 40
6.35
 41
6.35
 42
6.35000508
 43
6.35000508
 44
215.9
 45
279.4
 46
0.0
 47
0.0
 48
0.0
 49
0.0
140
0.0
141
0.0
142
1.0
143
1.0
 70
  1712
 72
     1
 73
     0
 74
     0
  7

 75
     0
147
1.0
148
0.0
149
0.0
100
AcDbLayout
  1
Model
 70
     1
 71
     0
 10
0.0
 20
0.0
 11
297.0
 21
210.0
 12
0.0
 22
0.0
 32
0.0
 14
0.0
 24
0.0
 34
0.0
 15
297.0
 25
210.0
 35
0.0
146
0.0
 13
0.0
 23
0.0
 33
0.0
 16
1.0
 26
0.0
 36
0.0
 17
0.0
 27
1.0
 37
0.0
 76
     0
330
1F
331
29
  0
MLINESTYLE
  5
18
102
{ACAD_REACTORS
330
17
102
}
330
17
100
AcDbMlineStyle
  2
Standard
 70
     0
  3

 62
   256
 51
90.0
 52
90.0
 71
     2
 49
0.5
 62
   256
  6
BYLAYER
 49
-0.5
 62
   256
  6
BYLAYER
  0
ACDBPLACEHOLDER
  5
F
102
{ACAD_REACTORS
330
E
102
}
330
E
  0
SCALE
  5
48
102
{ACAD_REACTORS
330
47
102
}
330
47
100
AcDbScale
 70
     0
300
1:1
140
1.0
141
1.0
290
     1
  0
SCALE
  5
49
102
{ACAD_REACTORS
330
47
102
}
330
47
100
AcDbScale
 70
     0
300
1:2
140
1.0
141
2.0
290
     0
  0
SCALE
  5
4A
102
{ACAD_REACTORS
330
47
102
}
330
47
100
AcDbScale
 70
     0
300
1:4
140
1.0
141
4.0
290
     0
  0
SCALE
  5
4B
102
{ACAD_REACTORS
330
47
102
}
330
47
100
AcDbScale
 70
     0
300
1:5
140
1.0
141
5.0
290
     0
  0
SCALE
  5
4C
102
{ACAD_REACTORS
330
47
102
}
330
47
100
AcDbScale
 70
     0
300
1:8
140
1.0
141
8.0
290
     0
  0
SCALE
  5
4D
102
{ACAD_REACTORS
330
47
102
}
330
47
100
AcDbScale
 70
     0
300
1:10
140
1.0
141
10.0
290
     0
  0
SCALE
  5
4E
102
{ACAD_REACTORS
330
47
102
}
330
47
100
AcDbScale
 70
     0
300
1:16
140
1.0
141
16.0
290
     0
  0
SCALE
  5
4F
102
{ACAD_REACTORS
330
47
102
}
330
47
100
AcDbScale
 70
     0
300
1:20
140
1.0
141
20.0
290
     0
  0
SCALE
  5
50
102
{ACAD_REACTORS
330
47
102
}
330
47
100
AcDbScale
 70
     0
300
1:30
140
1.0
141
30.0
290
     0
  0
SCALE
  5
51
102
{ACAD_REACTORS
330
47
102
}
330
47
100
AcDbScale
 70
     0
300
1:40
140
1.0
141
40.0
290
     0
  0
SCALE
  5
52
102
{ACAD_REACTORS
330
47
102
}
330
47
100
AcDbScale
 70
     0
300
1:50
140
1.0
141
50.0
290
     0
  0
SCALE
  5
53
102
{ACAD_REACTORS
330
47
102
}
330
47
100
AcDbScale
 70
     0
300
1:100
140
1.0
141
100.0
290
     0
  0
SCALE
  5
54
102
{ACAD_REACTORS
330
47
102
}
330
47
100
AcDbScale
 70
     0
300
2:1
140
2.0
141
1.0
290
     0
  0
SCALE
  5
55
102
{ACAD_REACTORS
330
47
102
}
330
47
100
AcDbScale
 70
     0
300
4:1
140
4.0
141
1.0
290
     0
  0
SCALE
  5
56
102
{ACAD_REACTORS
330
47
102
}
330
47
100
AcDbScale
 70
     0
300
8:1
140
8.0
141
1.0
290
     0
  0
SCALE
  5
57
102
{ACAD_REACTORS
330
47
102
}
330
47
100
AcDbScale
 70
     0
300
10:1
140
10.0
141
1.0
290
     0
  0
SCALE
  5
58
102
{ACAD_REACTORS
330
47
102
}
330
47
100
AcDbScale
 70
     0
300
100:1
140
100.0
141
1.0
290
     0
  0
SCALE
  5
59
102
{ACAD_REACTORS
330
47
102
}
330
47
100
AcDbScale
 70
     0
300
1/128" = 1'-0"
140
0.0078125
141
12.0
290
     0
  0
SCALE
  5
5A
102
{ACAD_REACTORS
330
47
102
}
330
47
100
AcDbScale
 70
     0
300
1/64" = 1'-0"
140
0.015625
141
12.0
290
     0
  0
SCALE
  5
5B
102
{ACAD_REACTORS
330
47
102
}
330
47
100
AcDbScale
 70
     0
300
1/32" = 1'-0"
140
0.03125
141
12.0
290
     0
  0
SCALE
  5
5C
102
{ACAD_REACTORS
330
47
102
}
330
47
100
AcDbScale
 70
     0
300
1/16" = 1'-0"
140
0.0625
141
12.0
290
     0
  0
SCALE
  5
5D
102
{ACAD_REACTORS
330
47
102
}
330
47
100
AcDbScale
 70
     0
300
3/32" = 1'-0"
140
0.09375
141
12.0
290
     0
  0
SCALE
  5
5E
102
{ACAD_REACTORS
330
47
102
}
330
47
100
AcDbScale
 70
     0
300
1/8" = 1'-0"
140
0.125
141
12.0
290
     0
  0
SCALE
  5
5F
102
{ACAD_REACTORS
330
47
102
}
330
47
100
AcDbScale
 70
     0
300
3/16" = 1'-0"
140
0.1875
141
12.0
290
     0
  0
SCALE
  5
60
102
{ACAD_REACTORS
330
47
102
}
330
47
100
AcDbScale
 70
     0
300
1/4" = 1'-0"
140
0.25
141
12.0
290
     0
  0
SCALE
  5
61
102
{ACAD_REACTORS
330
47
102
}
330
47
100
AcDbScale
 70
     0
300
3/8" = 1'-0"
140
0.375
141
12.0
290
     0
  0
SCALE
  5
62
102
{ACAD_REACTORS
330
47
102
}
330
47
100
AcDbScale
 70
     0
300
1/2" = 1'-0"
140
0.5
141
12.0
290
     0
  0
SCALE
  5
63
102
{ACAD_REACTORS
330
47
102
}
330
47
100
AcDbScale
 70
     0
300
3/4" = 1'-0"
140
0.75
141
12.0
290
     0
  0
SCALE
  5
64
102
{ACAD_REACTORS
330
47
102
}
330
47
100
AcDbScale
 70
     0
300
1" = 1'-0"
140
1.0
141
12.0
290
     0
  0
SCALE
  5
65
102
{ACAD_REACTORS
330
47
102
}
330
47
100
AcDbScale
 70
     0
300
1-1/2" = 1'-0"
140
1.5
141
12.0
290
     0
  0
SCALE
  5
66
102
{ACAD_REACTORS
330
47
102
}
330
47
100
AcDbScale
 70
     0
300
3" = 1'-0"
140
3.0
141
12.0
290
     0
  0
SCALE
  5
67
102
{ACAD_REACTORS
330
47
102
}
330
47
100
AcDbScale
 70
     0
300
6" = 1'-0"
140
6.0
141
12.0
290
     0
  0
SCALE
  5
68
102
{ACAD_REACTORS
330
47
102
}
330
47
100
AcDbScale
 70
     0
300
1'-0" = 1'-0"
140
12.0
141
12.0
290
     0
  0
ENDSEC
  0
EOF
