  0
SECTION
  2
HEADER
  9
$ACADVER
  1
AC1015
  9
$ACADMAINTVER
 70
     6
  9
$DWGCODEPAGE
  3
ANSI_1252
  9
$INSBASE
 10
0.0
 20
0.0
 30
0.0
  9
$EXTMIN
 10
0.0
 20
0.0
 30
0.0
  9
$EXTMAX
 10
297.0
 20
210.0
 30
0.0
  9
$LIMMIN
 10
0.0
 20
0.0
  9
$LIMMAX
 10
297.0
 20
210.0
  9
$ORTHOMODE
 70
     0
  9
$REGENMODE
 70
     1
  9
$FILLMODE
 70
     1
  9
$QTEXTMODE
 70
     0
  9
$MIRRTEXT
 70
     1
  9
$LTSCALE
 40
1.0
  9
$ATTMODE
 70
     1
  9
$TEXTSIZE
 40
2.0
  9
$TRACEWID
 40
1.0
  9
$TEXTSTYLE
  7
Standard
  9
$CLAYER
  8
0
  9
$CELTYPE
  6
ByLayer
  9
$CECOLOR
 62
   256
  9
$CELTSCALE
 40
1.0
  9
$DISPSILH
 70
     0
  9
$DIMSCALE
 40
1.0
  9
$DIMASZ
 40
3.0
  9
$DIMEXO
 40
0.0
  9
$DIMDLI
 40
3.75
  9
$DIMRND
 40
0.0
  9
$DIMDLE
 40
0.0
  9
$DIMEXE
 40
1.0
  9
$DIMTP
 40
0.0
  9
$DIMTM
 40
0.0
  9
$DIMTXT
 40
2.0
  9
$DIMCEN
 40
2.5
  9
$DIMTSZ
 40
0.0
  9
$DIMTOL
 70
     0
  9
$DIMLIM
 70
     0
  9
$DIMTIH
 70
     1
  9
$DIMTOH
 70
     1
  9
$DIMSE1
 70
     0
  9
$DIMSE2
 70
     0
  9
$DIMTAD
 70
     1
  9
$DIMZIN
 70
     0
  9
$DIMBLK
  1

  9
$DIMASO
 70
     1
  9
$DIMSHO
 70
     1
  9
$DIMPOST
  1

  9
$DIMAPOST
  1

  9
$DIMALT
 70
     0
  9
$DIMALTD
 70
     3
  9
$DIMALTF
 40
0.0393700787
  9
$DIMLFAC
 40
1.0
  9
$DIMTOFL
 70
     1
  9
$DIMTVP
 40
0.0
  9
$DIMTIX
 70
     0
  9
$DIMSOXD
 70
     0
  9
$DIMSAH
 70
     0
  9
$DIMBLK1
  1

  9
$DIMBLK2
  1

  9
$DIMSTYLE
  2
ISO-25
  9
$DIMCLRD
 70
     0
  9
$DIMCLRE
 70
     0
  9
$DIMCLRT
 70
     0
  9
$DIMTFAC
 40
1.0
  9
$DIMGAP
 40
1.524
  9
$DIMJUST
 70
     0
  9
$DIMSD1
 70
     0
  9
$DIMSD2
 70
     0
  9
$DIMTOLJ
 70
     0
  9
$DIMTZIN
 70
     0
  9
$DIMALTZ
 70
     0
  9
$DIMALTTZ
 70
     0
  9
$DIMUPT
 70
     0
  9
$DIMDEC
 70
     2
  9
$DIMTDEC
 70
     3
  9
$DIMALTU
 70
     2
  9
$DIMALTTD
 70
     3
  9
$DIMTXSTY
  7
Standard
  9
$DIMAUNIT
 70
     0
  9
$DIMADEC
 70
     2
  9
$DIMALTRND
 40
0.0
  9
$DIMAZIN
 70
     0
  9
$DIMDSEP
 70
    44
  9
$DIMATFIT
 70
     3
  9
$DIMFRAC
 70
     0
  9
$DIMLDRBLK
  1

  9
$DIMLUNIT
 70
     2
  9
$DIMLWD
 70
    -2
  9
$DIMLWE
 70
    -2
  9
$DIMTMOVE
 70
     0
  9
$LUNITS
 70
     2
  9
$LUPREC
 70
     2
  9
$SKETCHINC
 40
1.0
  9
$FILLETRAD
 40
10.0
  9
$AUNITS
 70
     0
  9
$AUPREC
 70
     2
  9
$MENU
  1
.
  9
$ELEVATION
 40
0.0
  9
$PELEVATION
 40
0.0
  9
$THICKNESS
 40
0.0
  9
$LIMCHECK
 70
     0
  9
$CHAMFERA
 40
0.0
  9
$CHAMFERB
 40
0.0
  9
$CHAMFERC
 40
0.0
  9
$CHAMFERD
 40
0.0
  9
$SKPOLY
 70
     0
  9
$TDCREATE
 40
2458176.340244722
  9
$TDUCREATE
 40
2458176.298578056
  9
$TDUPDATE
 40
2458176.340245903
  9
$TDUUPDATE
 40
2458176.298579236
  9
$TDINDWG
 40
0.0000000116
  9
$TDUSRTIMER
 40
0.0000000116
  9
$USRTIMER
 70
     1
  9
$ANGBASE
 50
0.0
  9
$ANGDIR
 70
     0
  9
$PDMODE
 70
     0
  9
$PDSIZE
 40
-1.0
  9
$PLINEWID
 40
0.0
  9
$SPLFRAME
 70
     0
  9
$SPLINETYPE
 70
     6
  9
$SPLINESEGS
 70
     8
  9
$HANDSEED
  5
1F5
  9
$SURFTAB1
 70
     6
  9
$SURFTAB2
 70
     6
  9
$SURFTYPE
 70
     6
  9
$SURFU
 70
     6
  9
$SURFV
 70
     6
  9
$UCSBASE
  2

  9
$UCSNAME
  2

  9
$UCSORG
 10
0.0
 20
0.0
 30
0.0
  9
$UCSXDIR
 10
1.0
 20
0.0
 30
0.0
  9
$UCSYDIR
 10
0.0
 20
1.0
 30
0.0
  9
$UCSORTHOREF
  2

  9
$UCSORTHOVIEW
 70
     0
  9
$UCSORGTOP
 10
0.0
 20
0.0
 30
0.0
  9
$UCSORGBOTTOM
 10
0.0
 20
0.0
 30
0.0
  9
$UCSORGLEFT
 10
0.0
 20
0.0
 30
0.0
  9
$UCSORGRIGHT
 10
0.0
 20
0.0
 30
0.0
  9
$UCSORGFRONT
 10
0.0
 20
0.0
 30
0.0
  9
$UCSORGBACK
 10
0.0
 20
0.0
 30
0.0
  9
$PUCSBASE
  2

  9
$PUCSNAME
  2

  9
$PUCSORG
 10
0.0
 20
0.0
 30
0.0
  9
$PUCSXDIR
 10
1.0
 20
0.0
 30
0.0
  9
$PUCSYDIR
 10
0.0
 20
1.0
 30
0.0
  9
$PUCSORTHOREF
  2

  9
$PUCSORTHOVIEW
 70
     0
  9
$PUCSORGTOP
 10
0.0
 20
0.0
 30
0.0
  9
$PUCSORGBOTTOM
 10
0.0
 20
0.0
 30
0.0
  9
$PUCSORGLEFT
 10
0.0
 20
0.0
 30
0.0
  9
$PUCSORGRIGHT
 10
0.0
 20
0.0
 30
0.0
  9
$PUCSORGFRONT
 10
0.0
 20
0.0
 30
0.0
  9
$PUCSORGBACK
 10
0.0
 20
0.0
 30
0.0
  9
$USERI1
 70
     0
  9
$USERI2
 70
     0
  9
$USERI3
 70
     0
  9
$USERI4
 70
     0
  9
$USERI5
 70
     0
  9
$USERR1
 40
0.0
  9
$USERR2
 40
0.0
  9
$USERR3
 40
0.0
  9
$USERR4
 40
0.0
  9
$USERR5
 40
0.0
  9
$WORLDVIEW
 70
     1
  9
$SHADEDGE
 70
     3
  9
$SHADEDIF
 70
    70
  9
$TILEMODE
 70
     1
  9
$MAXACTVP
 70
    64
  9
$PINSBASE
 10
0.0
 20
0.0
 30
0.0
  9
$PLIMCHECK
 70
     0
  9
$PEXTMIN
 10
1.0000000000E+20
 20
1.0000000000E+20
 30
1.0000000000E+20
  9
$PEXTMAX
 10
-1.0000000000E+20
 20
-1.0000000000E+20
 30
-1.0000000000E+20
  9
$PLIMMIN
 10
0.0
 20
0.0
  9
$PLIMMAX
 10
420.0
 20
297.0
  9
$UNITMODE
 70
     0
  9
$VISRETAIN
 70
     1
  9
$PLINEGEN
 70
     0
  9
$PSLTSCALE
 70
     1
  9
$TREEDEPTH
 70
  3020
  9
$CMLSTYLE
  2
Standard
  9
$CMLJUST
 70
     0
  9
$CMLSCALE
 40
20.0
  9
$PROXYGRAPHICS
 70
     1
  9
$MEASUREMENT
 70
     1
  9
$CELWEIGHT
370
    -1
  9
$ENDCAPS
280
     0
  9
$JOINSTYLE
280
     0
  9
$LWDISPLAY
290
     1
  9
$INSUNITS
 70
     4
  9
$HYPERLINKBASE
  1

  9
$STYLESHEET
  1

  9
$XEDIT
290
     1
  9
$CEPSNTYPE
380
     0
  9
$PSTYLEMODE
290
     1
  9
$FINGERPRINTGUID
  2
{7CD4DB82-6892-4AA1-BF60-5B39E4233BC0}
  9
$VERSIONGUID
  2
{FAEB1C32-E019-11D5-929B-00C0DF256EC4}
  9
$EXTNAMES
290
     1
  9
$PSVPSCALE
 40
0.0
  9
$OLESTARTUP
290
     0
  0
ENDSEC
  0
SECTION
  2
CLASSES
  0
CLASS
  1
ACDBDICTIONARYWDFLT
  2
AcDbDictionaryWithDefault
  3
ObjectDBX Classes
 90
        0
280
     0
281
     0
  0
CLASS
  1
VISUALSTYLE
  2
AcDbVisualStyle
  3
ObjectDBX Classes
 90
     4095
280
     0
281
     0
  0
CLASS
  1
MATERIAL
  2
AcDbMaterial
  3
ObjectDBX Classes
 90
     1153
280
     0
281
     0
  0
CLASS
  1
SCALE
  2
AcDbScale
  3
ObjectDBX Classes
 90
     1153
280
     0
281
     0
  0
CLASS
  1
TABLESTYLE
  2
AcDbTableStyle
  3
ObjectDBX Classes
 90
     4095
280
     0
281
     0
  0
CLASS
  1
MLEADERSTYLE
  2
AcDbMLeaderStyle
  3
ACDB_MLEADERSTYLE_CLASS
 90
     4095
280
     0
281
     0
  0
CLASS
  1
SUN
  2
AcDbSun
  3
SCENEOE
 90
     1153
280
     0
281
     0
  0
CLASS
  1
ACDBPLACEHOLDER
  2
AcDbPlaceHolder
  3
ObjectDBX Classes
 90
        0
280
     0
281
     0
  0
CLASS
  1
LAYOUT
  2
AcDbLayout
  3
ObjectDBX Classes
 90
        0
280
     0
281
     0
  0
ENDSEC
  0
SECTION
  2
TABLES
  0
TABLE
  2
VPORT
  5
8
330
0
100
AcDbSymbolTable
 70
     1
  0
VPORT
  5
29
330
8
100
AcDbSymbolTableRecord
100
AcDbViewportTableRecord
  2
*Active
 70
     0
 10
0.0
 20
0.0
 11
1.0
 21
1.0
 12
148.5
 22
105.0
 13
0.0
 23
0.0
 14
10.0
 24
10.0
 15
10.0
 25
10.0
 16
0.0
 26
0.0
 36
1.0
 17
0.0
 27
0.0
 37
0.0
 40
210.0
 41
1.4142857143
 42
50.0
 43
0.0
 44
0.0
 50
0.0
 51
0.0
 71
     0
 72
  2000
 73
     1
 74
     3
 75
     0
 76
     0
 77
     0
 78
     0
281
     0
 65
     1
110
0.0
120
0.0
130
0.0
111
1.0
121
0.0
131
0.0
112
0.0
122
1.0
132
0.0
 79
     0
146
0.0
  0
ENDTAB
  0
TABLE
  2
LTYPE
  5
5
330
0
100
AcDbSymbolTable
 70
     6
  0
LTYPE
  5
14
330
5
100
AcDbSymbolTableRecord
100
AcDbLinetypeTableRecord
  2
ByBlock
 70
     0
  3

 72
    65
 73
     0
 40
0.0
  0
LTYPE
  5
15
330
5
100
AcDbSymbolTableRecord
100
AcDbLinetypeTableRecord
  2
ByLayer
 70
     0
  3

 72
    65
 73
     0
 40
0.0
  0
LTYPE
  5
16
330
5
100
AcDbSymbolTableRecord
100
AcDbLinetypeTableRecord
  2
Continuous
 70
     0
  3
Solid line
 72
    65
 73
     0
 40
0.0
  0
LTYPE
  5
6E
330
5
100
AcDbSymbolTableRecord
100
AcDbLinetypeTableRecord
  2
HIDDEN
 70
     0
  3
Hidden __ __ __ __ __ __ __ __ __ __ __ __ __ __
 72
    65
 73
     2
 40
1.905
 49
1.27
 74
     0
 49
-0.635
 74
     0
  0
LTYPE
  5
6F
330
5
100
AcDbSymbolTableRecord
100
AcDbLinetypeTableRecord
  2
PHANTOM
 70
     0
  3
Phantom ______  __  __  ______  __  __  ______
 72
    65
 73
     6
 40
12.7
 49
6.35
 74
     0
 49
-1.27
 74
     0
 49
1.27
 74
     0
 49
-1.27
 74
     0
 49
1.27
 74
     0
 49
-1.27
 74
     0
  0
LTYPE
  5
70
330
5
100
AcDbSymbolTableRecord
100
AcDbLinetypeTableRecord
  2
CENTER
 70
     0
  3
Center ____ _ ____ _ ____ _ ____ _ ____ _ ____
 72
    65
 73
     4
 40
10.16
 49
6.35
 74
     0
 49
-1.27
 74
     0
 49
1.27
 74
     0
 49
-1.27
 74
     0
  0
LTYPE
  5
71
330
5
100
AcDbSymbolTableRecord
100
AcDbLinetypeTableRecord
  2
CENTERX2
 70
     0
  3
Center (2x) ________  __  ________  __  _____
 72
    65
 73
     4
 40
20.32
 49
12.7
 74
     0
 49
-2.54
 74
     0
 49
2.54
 74
     0
 49
-2.54
 74
     0
  0
LTYPE
  5
72
330
5
100
AcDbSymbolTableRecord
100
AcDbLinetypeTableRecord
  2
DOT2
 70
     0
  3
Dot (.5x) ........................................
 72
    65
 73
     2
 40
0.635
 49
0.0
 74
     0
 49
-0.635
 74
     0
  0
ENDTAB
  0
TABLE
  2
LAYER
  5
2
330
0
100
AcDbSymbolTable
 70
     5
  0
LAYER
  5
10
330
2
100
AcDbSymbolTableRecord
100
AcDbLayerTableRecord
  2
0
 70
     0
 62
     7
  6
Continuous
370
    -3
390
F
  0
LAYER
  5
73
330
2
100
AcDbSymbolTableRecord
100
AcDbLayerTableRecord
  2
FORMAT
 70
     0
 62
     7
  6
Continuous
370
    -3
390
F
  0
LAYER
  5
74
330
2
100
AcDbSymbolTableRecord
100
AcDbLayerTableRecord
  2
VERMASSUNG
 70
     0
 62
     7
  6
Continuous
370
    -3
390
F
  0
LAYER
  5
75
330
2
100
AcDbSymbolTableRecord
100
AcDbLayerTableRecord
  2
KOPF_DÜNN
 70
     0
 62
     7
  6
Continuous
370
    -3
390
F
  0
LAYER
  5
76
330
2
100
AcDbSymbolTableRecord
100
AcDbLayerTableRecord
  2
KOPF_DICK
 70
     0
 62
     7
  6
Continuous
370
    25
390
F
  0
ENDTAB
  0
TABLE
  2
STYLE
  5
3
330
0
100
AcDbSymbolTable
 70
     2
  0
STYLE
  5
11
330
3
100
AcDbSymbolTableRecord
100
AcDbTextStyleTableRecord
  2
Standard
 70
     0
 40
0.0
 41
1.0
 50
0.0
 71
     0
 42
2.0
  3
txt
  4

  0
STYLE
  5
77
330
3
100
AcDbSymbolTableRecord
100
AcDbTextStyleTableRecord
  2
SLDTEXTSTYLE0
 70
     0
 40
0.0
 41
0.7
 50
0.0
 71
     0
 42
2.0
  3
TXT
  4

  0
ENDTAB
  0
TABLE
  2
VIEW
  5
6
330
0
100
AcDbSymbolTable
 70
     0
  0
ENDTAB
  0
TABLE
  2
UCS
  5
7
330
0
100
AcDbSymbolTable
 70
     0
  0
ENDTAB
  0
TABLE
  2
APPID
  5
9
330
0
100
AcDbSymbolTable
 70
     1
  0
APPID
  5
12
330
9
100
AcDbSymbolTableRecord
100
AcDbRegAppTableRecord
  2
ACAD
 70
     0
  0
ENDTAB
  0
TABLE
  2
DIMSTYLE
  5
A
330
0
100
AcDbSymbolTable
 70
     2
100
AcDbDimStyleTable
  0
DIMSTYLE
105
27
330
A
100
AcDbSymbolTableRecord
100
AcDbDimStyleTableRecord
  2
ISO-25
 70
     0
 41
2.5
 42
0.625
 43
3.75
 44
1.25
 73
     0
 74
     0
 77
     1
 78
     8
140
2.5
141
2.5
143
0.0393700787
147
0.625
171
     3
172
     1
178
     0
271
     2
272
     2
274
     3
278
    44
283
     0
284
     8
340
11
  0
DIMSTYLE
105
107
102
{ACAD_REACTORS
330
106
102
}
330
A
100
AcDbSymbolTableRecord
100
AcDbDimStyleTableRecord
  2
SLDDIMSTYLE0
 70
     0
 41
3.0
 44
0.0
 45
0.000000001
 73
     0
 74
     0
 76
     1
 77
     1
 78
    12
 79
     3
140
2.0
144
0.5
147
0.5
173
     1
178
     0
271
     2
272
     3
276
     2
282
     1
284
    12
340
77
  0
ENDTAB
  0
TABLE
  2
BLOCK_RECORD
  5
1
330
0
100
AcDbSymbolTable
 70
     2
  0
BLOCK_RECORD
  5
1F
330
1
100
AcDbSymbolTableRecord
100
AcDbBlockTableRecord
  2
*Model_Space
340
22
  0
BLOCK_RECORD
  5
1B
330
1
100
AcDbSymbolTableRecord
100
AcDbBlockTableRecord
  2
*Paper_Space
340
1E
  0
BLOCK_RECORD
  5
23
330
1
100
AcDbSymbolTableRecord
100
AcDbBlockTableRecord
  2
*Paper_Space0
340
26
  0
BLOCK_RECORD
  5
108
330
1
100
AcDbSymbolTableRecord
100
AcDbBlockTableRecord
  2
_D
340
0
  0
ENDTAB
  0
ENDSEC
  0
SECTION
  2
BLOCKS
  0
BLOCK
  5
20
330
1F
100
AcDbEntity
  8
0
100
AcDbBlockBegin
  2
*Model_Space
 70
     0
 10
0.0
 20
0.0
 30
0.0
  3
*Model_Space
  1

  0
ENDBLK
  5
21
330
1F
100
AcDbEntity
  8
0
100
AcDbBlockEnd
  0
BLOCK
  5
1C
330
1B
100
AcDbEntity
 67
     1
  8
0
100
AcDbBlockBegin
  2
*Paper_Space
 70
     0
 10
0.0
 20
0.0
 30
0.0
  3
*Paper_Space
  1

  0
ENDBLK
  5
1D
330
1B
100
AcDbEntity
 67
     1
  8
0
100
AcDbBlockEnd
  0
BLOCK
  5
24
330
23
100
AcDbEntity
  8
0
100
AcDbBlockBegin
  2
*Paper_Space0
 70
     0
 10
0.0
 20
0.0
 30
0.0
  3
*Paper_Space0
  1

  0
ENDBLK
  5
25
330
23
100
AcDbEntity
  8
0
100
AcDbBlockEnd
  0
BLOCK
  5
109
330
108
100
AcDbEntity
  8
0
100
AcDbBlockBegin
  2
_D
 70
     0
 10
0.0
 20
0.0
 30
0.0
  3
_D
  1

  0
SOLID
  5
10B
330
108
100
AcDbEntity
  8
VERMASSUNG
100
AcDbTrace
 10
212.3697898751
 20
138.6032540951
 30
0.0
 11
211.9197898751
 21
135.6032540951
 31
0.0
 12
212.8197898751
 22
135.6032540951
 32
0.0
 13
212.8197898751
 23
135.6032540951
 33
0.0
  0
LINE
  5
10C
330
108
100
AcDbEntity
  8
VERMASSUNG
100
AcDbLine
 10
190.3697898751
 20
138.6032540951
 30
0.0
 11
213.3697898751
 21
138.6032540951
 31
0.0
  0
LINE
  5
10D
330
108
100
AcDbEntity
  8
VERMASSUNG
100
AcDbLine
 10
212.3697898751
 20
138.6032540951
 30
0.0
 11
212.3697898751
 21
89.6442785152
 31
0.0
  0
MTEXT
  5
10E
330
108
100
AcDbEntity
  8
VERMASSUNG
100
AcDbMText
 10
201.7942408035
 20
91.8322747558
 30
0.0
 40
2.0
 41
0.0
 71
     1
 72
     1
  1
%%c
  7
SLDTEXTSTYLE0
 11
-1.770233605404514E-14
 21
1.0
 31
0.0
 73
     1
 44
1.0
  0
MTEXT
  5
10F
330
108
100
AcDbEntity
  8
VERMASSUNG
100
AcDbMText
 10
201.7942407453
 20
95.442154455
 30
0.0
 40
2.0
 41
0.0
 71
     1
 72
     1
  1
84.9
  7
SLDTEXTSTYLE0
 11
-1.770233605404514E-14
 21
1.0
 31
0.0
 73
     1
 44
1.0
  0
MTEXT
  5
110
330
108
100
AcDbEntity
  8
VERMASSUNG
100
AcDbMText
 10
201.7942407453
 20
100.4416882896
 30
0.0
 40
2.0
 41
0.0
 71
     1
 72
     1
  1
-105.1
  7
SLDTEXTSTYLE0
 11
-1.770233605404514E-14
 21
1.0
 31
0.0
 73
     1
 44
1.0
  0
MTEXT
  5
111
330
108
100
AcDbEntity
  8
VERMASSUNG
100
AcDbMText
 10
205.7929478033
 20
91.6286535152
 30
0.0
 40
2.0
 41
0.0
 71
     1
 72
     1
  1
%%c
  7
SLDTEXTSTYLE0
 11
-1.770233605404514E-14
 21
1.0
 31
0.0
 73
     1
 44
1.0
  0
MTEXT
  5
112
330
108
100
AcDbEntity
  8
VERMASSUNG
100
AcDbMText
 10
205.592947852
 20
95.2386535295
 30
0.0
 40
2.0
 41
0.0
 71
     1
 72
     1
  1
104.9-134.1
  7
SLDTEXTSTYLE0
 11
-1.770233605404514E-14
 21
1.0
 31
0.0
 73
     1
 44
1.0
  0
MTEXT
  5
113
330
108
100
AcDbEntity
  8
VERMASSUNG
100
AcDbMText
 10
209.7916545702
 20
92.0289843422
 30
0.0
 40
2.0
 41
0.0
 71
     1
 72
     1
  1
%%c
  7
SLDTEXTSTYLE0
 11
-1.770233605404514E-14
 21
1.0
 31
0.0
 73
     1
 44
1.0
  0
MTEXT
  5
114
330
108
100
AcDbEntity
  8
VERMASSUNG
100
AcDbMText
 10
209.5916546189
 20
95.6389843565
 30
0.0
 40
2.0
 41
0.0
 71
     1
 72
     1
  1
133.9-171.1
  7
SLDTEXTSTYLE0
 11
-1.770233605404514E-14
 21
1.0
 31
0.0
 73
     1
 44
1.0
  0
ENDBLK
  5
10A
330
108
100
AcDbEntity
  8
0
100
AcDbBlockEnd
  0
ENDSEC
  0
SECTION
  2
ENTITIES
  0
MTEXT
  5
78
330
1F
100
AcDbEntity
  8
KOPF_DÜNN
100
AcDbMText
 10
13.8892156294
 20
23.8442973028
 30
0.0
 40
3.0
 41
0.0
 71
     1
 72
     1
  1
314.030.085.009
  7
SLDTEXTSTYLE0
 73
     1
 44
1.0
  0
MTEXT
  5
79
330
1F
100
AcDbEntity
  8
VERMASSUNG
100
AcDbMText
 10
13.9329988022
 20
28.8834360957
 30
0.0
 40
3.0
 41
0.0
 71
     1
 72
     1
  1
Wendeplattenhalter_Insert holder 90°
  7
SLDTEXTSTYLE0
 73
     1
 44
1.0
  0
MTEXT
  5
7A
330
1F
100
AcDbEntity
  8
VERMASSUNG
100
AcDbMText
 10
98.8601118557
 20
13.8365368761
 30
0.0
 40
2.0
 41
0.0
 71
     1
 72
     1
  1
Datum: 01.02.2008
  7
SLDTEXTSTYLE0
 73
     1
 44
1.0
  0
MTEXT
  5
7B
330
1F
100
AcDbEntity
  8
VERMASSUNG
100
AcDbMText
 10
13.933048693
 20
18.0482802738
 30
0.0
 40
2.0
 41
0.0
 71
     1
 72
     1
  1
für FBK ø55 / ø72 / ø94 CC..09 T3..
  7
SLDTEXTSTYLE0
 73
     1
 44
1.0
  0
MTEXT
  5
7C
330
1F
100
AcDbEntity
  8
VERMASSUNG
100
AcDbMText
 10
13.9808475933
 20
13.9090974274
 30
0.0
 40
2.0
 41
0.0
 71
     1
 72
     1
  1
Gewicht: g
  7
SLDTEXTSTYLE0
 73
     1
 44
1.0
  0
LINE
  5
7D
330
1F
100
AcDbEntity
  8
0
  6
Continuous
 62
     7
370
    25
100
AcDbLine
 10
178.7410832386
 20
125.1641467304
 30
0.0
 11
178.7410832386
 21
125.2575253357
 31
0.0
  0
LINE
  5
7E
330
1F
100
AcDbEntity
  8
0
  6
Continuous
 62
     7
370
    25
100
AcDbLine
 10
182.6089400966
 20
125.2632918517
 30
0.0
 11
182.6089400966
 21
125.1699358848
 31
0.0
  0
LINE
  5
7F
330
1F
100
AcDbEntity
  8
0
  6
Continuous
 62
     7
370
    25
100
AcDbLine
 10
178.7377388314
 20
128.7489562095
 30
0.0
 11
178.7377388314
 21
128.8423304708
 31
0.0
  0
LINE
  5
80
330
1F
100
AcDbEntity
  8
0
  6
Continuous
 62
     7
370
    25
100
AcDbLine
 10
182.6055956894
 20
128.8480640217
 30
0.0
 11
182.6055956894
 21
128.754745364
 31
0.0
  0
LINE
  5
81
330
1F
100
AcDbEntity
  8
0
  6
Continuous
 62
     7
370
    25
100
AcDbLine
 10
175.4276650966
 20
127.0404404547
 30
0.0
 11
175.4276650966
 21
126.9898669054
 31
0.0
  0
LINE
  5
82
330
1F
100
AcDbEntity
  8
0
  6
Continuous
 62
     7
370
    25
100
AcDbLine
 10
185.9276650966
 20
126.9898669054
 30
0.0
 11
185.9276650966
 21
127.0404404547
 31
0.0
  0
ARC
  5
83
330
1F
100
AcDbEntity
  8
0
  6
Continuous
 62
     7
370
    25
100
AcDbCircle
 10
173.2697898751
 20
99.54994467
 30
0.0
 40
2.799999999999997
100
AcDbArc
 50
90.0
 51
180.0
  0
LINE
  5
84
330
1F
100
AcDbEntity
  8
0
  6
Continuous
 62
     7
370
    25
100
AcDbLine
 10
170.4697898751
 20
84.6648947204
 30
0.0
 11
170.4697898751
 21
99.54994467
 31
0.0
  0
LINE
  5
85
330
1F
100
AcDbEntity
  8
0
  6
Continuous
 62
     7
370
    25
100
AcDbLine
 10
106.5697898751
 20
123.3499446699
 30
0.0
 11
106.5697898751
 21
97.3499446699
 31
0.0
  0
LINE
  5
86
330
1F
100
AcDbEntity
  8
0
  6
Continuous
 62
     7
370
    25
100
AcDbLine
 10
115.5697898751
 20
132.3499446699
 30
0.0
 11
106.5697898751
 21
123.3499446699
 31
0.0
  0
ARC
  5
87
330
1F
100
AcDbEntity
  8
0
  6
Continuous
 62
     7
370
    25
100
AcDbCircle
 10
180.6801234573
 20
127.060027888
 30
0.0
 40
3.347541658843384
100
AcDbArc
 50
301.3764572948
 51
359.9938042734
  0
ARC
  5
88
330
1F
100
AcDbEntity
  8
0
  6
Continuous
 62
     7
370
    25
100
AcDbCircle
 10
180.6800535304
 20
127.0592789124
 30
0.0
 40
3.347611588578227
100
AcDbArc
 50
0.0066234346
 51
60.1304915257
  0
ARC
  5
89
330
1F
100
AcDbEntity
  8
0
  6
Continuous
 62
     7
370
    25
100
AcDbCircle
 10
180.6776628568
 20
127.0558892218
 30
0.0
 40
3.35174163965875
100
AcDbArc
 50
60.1239111325
 51
118.6904281253
  0
LINE
  5
8A
330
1F
100
AcDbEntity
  8
0
  6
Continuous
 62
     7
370
    25
100
AcDbLine
 10
178.9216447695
 20
129.9108024519
 30
0.0
 11
179.0685689396
 21
129.9961254002
 31
0.0
  0
ARC
  5
8B
330
1F
100
AcDbEntity
  8
0
  6
Continuous
 62
     7
370
    25
100
AcDbCircle
 10
180.6752553717
 20
127.0592596292
 30
0.0
 40
3.347603114749397
100
AcDbArc
 50
121.5902293389
 51
178.0499595078
  0
LINE
  5
8C
330
1F
100
AcDbEntity
  8
0
  6
Continuous
 62
     7
370
    25
100
AcDbLine
 10
177.3300370311
 20
126.9337016731
 30
0.0
 11
177.3295909276
 21
127.1731720581
 31
0.0
  0
ARC
  5
8D
330
1F
100
AcDbEntity
  8
0
  6
Continuous
 62
     7
370
    25
100
AcDbCircle
 10
180.6752417105
 20
127.0600699228
 30
0.0
 40
3.347590668176861
100
AcDbArc
 50
182.1633732332
 51
237.9737417271
  0
LINE
  5
8E
330
1F
100
AcDbEntity
  8
0
  6
Continuous
 62
     7
370
    25
100
AcDbLine
 10
179.1075026239
 20
124.1022305412
 30
0.0
 11
178.8999880559
 21
124.2219653187
 31
0.0
  0
ARC
  5
8F
330
1F
100
AcDbEntity
  8
0
  6
Continuous
 62
     7
370
    25
100
AcDbCircle
 10
180.677664142
 20
127.0634647351
 30
0.0
 40
3.35176299042237
100
AcDbArc
 50
242.065725792
 51
298.4770973738
  0
LINE
  5
90
330
1F
100
AcDbEntity
  8
0
  6
Continuous
 62
     7
370
    25
100
AcDbLine
 10
182.4230507006
 20
124.2020146301
 30
0.0
 11
182.2758096592
 21
124.1172390055
 31
0.0
  0
CIRCLE
  5
91
330
1F
100
AcDbEntity
  8
0
  6
Continuous
 62
     7
370
    25
100
AcDbCircle
 10
180.6774089237
 20
127.061249699
 30
0.0
 40
3.599390786591565
  0
CIRCLE
  5
92
330
1F
100
AcDbEntity
  8
0
  6
Continuous
 62
     7
370
    25
100
AcDbCircle
 10
180.6773457232
 20
127.0426388043
 30
0.0
 40
5.249000201196895
  0
SPLINE
  5
93
330
1F
100
AcDbEntity
  8
0
  6
Continuous
 62
     7
370
    25
100
AcDbSpline
210
0.0
220
0.0
230
1.0
 70
     8
 71
     3
 72
    11
 73
     7
 74
     0
 42
0.000000001
 43
0.00000001
 40
0.0
 40
0.0
 40
0.0
 40
0.0
 40
0.2657596322624773
 40
0.5530029385954837
 40
0.8418208483437832
 40
1.0
 40
1.0
 40
1.0
 40
1.0
 10
179.1075026239012
 20
124.1022305412407
 30
0.0
 10
179.1748353222424
 20
124.084699894018
 30
0.0
 10
179.3149438094842
 20
124.0482214441227
 30
0.0
 10
179.5355922347053
 20
124.0813604700657
 30
0.0
 10
179.7092399800709
 20
124.1649662279656
 30
0.0
 10
179.7924025202914
 20
124.2437859733056
 30
0.0
 10
179.8218313044994
 20
124.2716779697596
 30
0.0
  0
SPLINE
  5
94
330
1F
100
AcDbEntity
  8
0
  6
Continuous
 62
     7
370
    25
100
AcDbSpline
210
0.0
220
0.0
230
1.0
 70
     8
 71
     3
 72
    12
 73
     8
 74
     0
 42
0.000000001
 43
0.00000001
 40
0.0
 40
0.0
 40
0.0
 40
0.0
 40
0.2057904614204066
 40
0.4120344203360408
 40
0.6141302471427782
 40
0.8132633242112789
 40
0.9999999999999999
 40
0.9999999999999999
 40
0.9999999999999999
 40
0.9999999999999999
 10
179.8218313044994
 20
124.2716779697596
 30
0.0
 10
179.9203626921753
 20
124.3574313806824
 30
0.0
 10
180.1176425997365
 20
124.5291271760928
 30
0.0
 10
180.5025198478064
 20
124.6467391637797
 30
0.0
 10
180.8950927263014
 20
124.6386613522013
 30
0.0
 10
181.2580403059912
 20
124.5132853972381
 30
0.0
 10
181.4413352890439
 20
124.3515323598996
 30
0.0
 10
181.5300385252281
 20
124.2732540697054
 30
0.0
  0
SPLINE
  5
95
330
1F
100
AcDbEntity
  8
0
  6
Continuous
 62
     7
370
    25
100
AcDbSpline
210
0.0
220
0.0
230
1.0
 70
     8
 71
     3
 72
    11
 73
     7
 74
     0
 42
0.000000001
 43
0.00000001
 40
0.0
 40
0.0
 40
0.0
 40
0.0
 40
0.2802371411012805
 40
0.5612869875923647
 40
0.8399906057824721
 40
1.0
 40
1.0
 40
1.0
 40
1.0
 10
181.5300385252281
 20
124.2732540697054
 30
0.0
 10
181.5871177099551
 20
124.2238589170522
 30
0.0
 10
181.7014416126461
 20
124.1249253626868
 30
0.0
 10
181.9238230301688
 20
124.0596788718208
 30
0.0
 10
182.1224407118661
 20
124.063264821753
 30
0.0
 10
182.2348215951327
 20
124.1028143299817
 30
0.0
 10
182.2758096591849
 20
124.1172390055083
 30
0.0
  0
LINE
  5
96
330
1F
100
AcDbEntity
  8
0
  6
Continuous
 62
     7
370
    25
100
AcDbLine
 10
178.6633441235
 20
124.6349173678
 30
0.0
 11
178.6916128927
 21
124.8273644087
 31
0.0
  0
SPLINE
  5
97
330
1F
100
AcDbEntity
  8
0
  6
Continuous
 62
     7
370
    25
100
AcDbSpline
210
0.0
220
0.0
230
1.0
 70
     8
 71
     3
 72
    11
 73
     7
 74
     0
 42
0.000000001
 43
0.00000001
 40
0.0
 40
0.0
 40
0.0
 40
0.0
 40
0.2928993220618923
 40
0.5864344719079176
 40
0.8775178868033273
 40
0.9999999999999999
 40
0.9999999999999999
 40
0.9999999999999999
 40
0.9999999999999999
 10
178.6916128926544
 20
124.9224158160122
 30
0.0
 10
178.6770034055802
 20
124.8484668458089
 30
0.0
 10
178.6477527170606
 20
124.7004083764889
 30
0.0
 10
178.7016510661026
 20
124.4755750700648
 30
0.0
 10
178.7978699033027
 20
124.3162017368586
 30
0.0
 10
178.8766549672897
 20
124.2434975012241
 30
0.0
 10
178.8999880559299
 20
124.2219653187427
 30
0.0
  0
SPLINE
  5
98
330
1F
100
AcDbEntity
  8
0
  6
Continuous
 62
     7
370
    25
100
AcDbSpline
210
0.0
220
0.0
230
1.0
 70
     8
 71
     3
 72
    11
 73
     7
 74
     0
 42
0.000000001
 43
0.00000001
 40
0.0
 40
0.0
 40
0.0
 40
0.0
 40
0.2669010467949486
 40
0.5546143410793042
 40
0.843907043978595
 40
1.0
 40
1.0
 40
1.0
 40
1.0
 10
177.3300370311141
 20
126.9337016731172
 30
0.0
 10
177.34878253049
 20
126.8664713356689
 30
0.0
 10
177.3877352543907
 20
126.7267682144102
 30
0.0
 10
177.5279826570832
 20
126.5522335125413
 30
0.0
 10
177.6877684817192
 20
126.4441206676035
 30
0.0
 10
177.7976278878684
 20
126.411501550478
 30
0.0
 10
177.8361299795031
 20
126.4000696277994
 30
0.0
  0
SPLINE
  5
99
330
1F
100
AcDbEntity
  8
0
  6
Continuous
 62
     7
370
    25
100
AcDbSpline
210
0.0
220
0.0
230
1.0
 70
     8
 71
     3
 72
    12
 73
     8
 74
     0
 42
0.000000001
 43
0.00000001
 40
0.0
 40
0.0
 40
0.0
 40
0.0
 40
0.2058401281338024
 40
0.4120619935509899
 40
0.61413873309698
 40
0.8132772113524537
 40
1.0
 40
1.0
 40
1.0
 40
1.0
 10
177.8361299795032
 20
126.4000696277994
 30
0.0
 10
177.9603291530155
 20
126.3573128926605
 30
0.0
 10
178.2089578314898
 20
126.271720128612
 30
0.0
 10
178.5042561718693
 20
125.9968362944893
 30
0.0
 10
178.6934468245763
 20
125.6530835085841
 30
0.0
 10
178.7652595330234
 20
125.2768711278478
 30
0.0
 10
178.7156294644239
 20
125.0380056296567
 30
0.0
 10
178.6916128926544
 20
124.9224158160122
 30
0.0
  0
LINE
  5
9A
330
1F
100
AcDbEntity
  8
0
  6
Continuous
 62
     7
370
    25
100
AcDbLine
 10
182.659040789
 20
124.8310612672
 30
0.0
 11
182.6876697561
 21
124.6374186286
 31
0.0
  0
SPLINE
  5
9B
330
1F
100
AcDbEntity
  8
0
  6
Continuous
 62
     7
370
    25
100
AcDbSpline
210
0.0
220
0.0
230
1.0
 70
     8
 71
     3
 72
    11
 73
     7
 74
     0
 42
0.000000001
 43
0.00000001
 40
0.0
 40
0.0
 40
0.0
 40
0.0
 40
0.2423611237744767
 40
0.5166847928456959
 40
0.7923341374632615
 40
1.0
 40
1.0
 40
1.0
 40
1.0
 10
182.4230507005878
 20
124.2020146300791
 30
0.0
 10
182.4722021887479
 20
124.2464388865289
 30
0.0
 10
182.576987255274
 20
124.3411460630911
 30
0.0
 10
182.6704215480435
 20
124.5392570159398
 30
0.0
 10
182.6997769131802
 20
124.7451451015164
 30
0.0
 10
182.671283530135
 20
124.8716997295388
 30
0.0
 10
182.6590407890023
 20
124.9260764087686
 30
0.0
  0
SPLINE
  5
9C
330
1F
100
AcDbEntity
  8
0
  6
Continuous
 62
     7
370
    25
100
AcDbSpline
210
0.0
220
0.0
230
1.0
 70
     8
 71
     3
 72
    12
 73
     8
 74
     0
 42
0.000000001
 43
0.00000001
 40
0.0
 40
0.0
 40
0.0
 40
0.0
 40
0.2058585741213666
 40
0.4121026961456747
 40
0.6141937841967351
 40
0.8133180967416362
 40
1.0
 40
1.0
 40
1.0
 40
1.0
 10
182.6590407890023
 20
124.9260764087686
 30
0.0
 10
182.6334009600382
 20
125.0539342161626
 30
0.0
 10
182.5820732818498
 20
125.3098892929684
 30
0.0
 10
182.6716960717574
 20
125.7012878178289
 30
0.0
 10
182.875081754674
 20
126.0370307457069
 30
0.0
 10
183.1661899125168
 20
126.2889904993684
 30
0.0
 10
183.3990769360194
 20
126.3673770289829
 30
0.0
 10
183.5117650965798
 20
126.4053062948652
 30
0.0
  0
SPLINE
  5
9D
330
1F
100
AcDbEntity
  8
0
  6
Continuous
 62
     7
370
    25
100
AcDbSpline
210
0.0
220
0.0
230
1.0
 70
     8
 71
     3
 72
    11
 73
     7
 74
     0
 42
0.000000001
 43
0.00000001
 40
0.0
 40
0.0
 40
0.0
 40
0.0
 40
0.252478226533562
 40
0.5068902417933556
 40
0.7591786113116988
 40
1.0
 40
1.0
 40
1.0
 40
1.0
 10
183.5117650965798
 20
126.4053062948652
 30
0.0
 10
183.5831412984138
 20
126.4300636927825
 30
0.0
 10
183.7264403888052
 20
126.4797681112141
 30
0.0
 10
183.8946314007985
 20
126.639472273524
 30
0.0
 10
184.0068499650899
 20
126.8390827071977
 30
0.0
 10
184.0208351250051
 20
126.9872869695861
 30
0.0
 10
184.0276650965799
 20
127.0596658987877
 30
0.0
  0
ARC
  5
9E
330
1F
100
AcDbEntity
  8
0
  6
Continuous
 62
     7
370
    25
100
AcDbCircle
 10
177.9886918893
 20
126.9568023412
 30
0.0
 40
0.6696780730645276
100
AcDbArc
 50
103.2752789134
 51
179.9878127923
  0
SPLINE
  5
9F
330
1F
100
AcDbEntity
  8
0
  6
Continuous
 62
     7
370
    25
100
AcDbSpline
210
0.0
220
0.0
230
1.0
 70
     8
 71
     3
 72
    11
 73
     7
 74
     0
 42
0.000000001
 43
0.00000001
 40
0.0
 40
0.0
 40
0.0
 40
0.0
 40
0.2908641666076209
 40
0.583956078989204
 40
0.874598805361719
 40
1.0
 40
1.0
 40
1.0
 40
1.0
 10
177.8349138314323
 20
127.7036298330286
 30
0.0
 10
177.7635620738988
 20
127.6796674432731
 30
0.0
 10
177.6203120715207
 20
127.6315591344084
 30
0.0
 10
177.4516977757638
 20
127.47352421569
 30
0.0
 10
177.3605754493828
 20
127.3102219359415
 30
0.0
 10
177.336767086278
 20
127.2049134441183
 30
0.0
 10
177.3295909276443
 20
127.1731720581413
 30
0.0
  0
LWPOLYLINE
  5
A0
330
1F
100
AcDbEntity
  8
0
  6
Continuous
 62
     7
370
    25
100
AcDbPolyline
 90
        3
 70
   128
 43
0.0
 10
178.6916128927
 20
124.8273644087
 10
178.7365968019
 20
125.0617368847
 10
178.7410832386
 20
125.1641467304
  0
LWPOLYLINE
  5
A1
330
1F
100
AcDbEntity
  8
0
  6
Continuous
 62
     7
370
    25
100
AcDbPolyline
 90
        3
 70
   128
 43
0.0
 10
182.6089400966
 20
125.1699358848
 10
182.613619648
 20
125.0653495035
 10
182.659040789
 20
124.8310612672
  0
SPLINE
  5
A2
330
1F
100
AcDbEntity
  8
0
  6
Continuous
 62
     7
370
    25
100
AcDbSpline
210
0.0
220
0.0
230
1.0
 70
     8
 71
     3
 72
    11
 73
     7
 74
     0
 42
0.000000001
 43
0.00000001
 40
0.0
 40
0.0
 40
0.0
 40
0.0
 40
0.2431090893443978
 40
0.5182793655623014
 40
0.7947794085752149
 40
1.0
 40
1.0
 40
1.0
 40
1.0
 10
178.9216447695014
 20
129.9108024518515
 30
0.0
 10
178.8726597570163
 20
129.8660575375224
 30
0.0
 10
178.768229596625
 20
129.7706667568932
 30
0.0
 10
178.6755299828404
 20
129.5709391735639
 30
0.0
 10
178.6470841795615
 20
129.3640831477925
 30
0.0
 10
178.6755228266233
 20
129.236999418652
 30
0.0
 10
178.68763813901
 20
129.1828597447617
 30
0.0
  0
SPLINE
  5
A3
330
1F
100
AcDbEntity
  8
0
  6
Continuous
 62
     7
370
    25
100
AcDbSpline
210
0.0
220
0.0
230
1.0
 70
     8
 71
     3
 72
    12
 73
     8
 74
     0
 42
0.000000001
 43
0.00000001
 40
0.0
 40
0.0
 40
0.0
 40
0.0
 40
0.2058179564999127
 40
0.4120215045907081
 40
0.6140779969168132
 40
0.8132130006453494
 40
1.0
 40
1.0
 40
1.0
 40
1.0
 10
178.68763813901
 20
129.1828597447617
 30
0.0
 10
178.7132760628278
 20
129.0536588388809
 30
0.0
 10
178.7645999420736
 20
128.7950149744644
 30
0.0
 10
178.6750193564821
 20
128.401475530118
 30
0.0
 10
178.4717005600993
 20
128.0659110208913
 30
0.0
 10
178.1806068472828
 20
127.81619519873
 30
0.0
 10
177.9476603761064
 20
127.7403426257403
 30
0.0
 10
177.8349138314324
 20
127.7036298330287
 30
0.0
  0
ARC
  5
A4
330
1F
100
AcDbEntity
  8
0
  6
Continuous
 62
     7
370
    25
100
AcDbCircle
 10
183.3580449651
 20
126.9618511251
 30
0.0
 40
0.6696201384055221
100
AcDbArc
 50
0.0082298494
 51
76.835535077
  0
SPLINE
  5
A5
330
1F
100
AcDbEntity
  8
0
  6
Continuous
 62
     7
370
    25
100
AcDbSpline
210
0.0
220
0.0
230
1.0
 70
     8
 71
     3
 72
    12
 73
     8
 74
     0
 42
0.000000001
 43
0.00000001
 40
0.0
 40
0.0
 40
0.0
 40
0.0
 40
0.009168177149122
 40
0.257326809700236
 40
0.5054934687429637
 40
0.7549925359452917
 40
1.0
 40
1.0
 40
1.0
 40
1.0
 10
184.0276650965799
 20
127.0596658987877
 30
0.0
 10
184.0276540579775
 20
127.0624095280912
 30
0.0
 10
184.0273442332123
 20
127.1394160435819
 30
0.0
 10
183.9996284001721
 20
127.2916874387011
 30
0.0
 10
183.8878944217239
 20
127.4874222040986
 30
0.0
 10
183.7199054377457
 20
127.6395847655446
 30
0.0
 10
183.579910587148
 20
127.6859128412544
 30
0.0
 10
183.5105489485091
 20
127.7088664801383
 30
0.0
  0
SPLINE
  5
A6
330
1F
100
AcDbEntity
  8
0
  6
Continuous
 62
     7
370
    25
100
AcDbSpline
210
0.0
220
0.0
230
1.0
 70
     8
 71
     3
 72
    12
 73
     8
 74
     0
 42
0.000000001
 43
0.00000001
 40
0.0
 40
0.0
 40
0.0
 40
0.0
 40
0.2058435564095141
 40
0.4120691620553559
 40
0.6141397217727279
 40
0.8132604579561284
 40
1.0
 40
1.0
 40
1.0
 40
1.0
 10
183.5105489485091
 20
127.7088664801383
 30
0.0
 10
183.3863485163582
 20
127.7502605609163
 30
0.0
 10
183.1377171338847
 20
127.8331255506094
 30
0.0
 10
182.8424190961108
 20
128.1058202258671
 30
0.0
 10
182.6532351238398
 20
128.4497291529229
 30
0.0
 10
182.5814200405736
 20
128.8282496261353
 30
0.0
 10
182.6310481805621
 20
129.0696790047143
 30
0.0
 10
182.6550660353579
 20
129.1865202919256
 30
0.0
  0
SPLINE
  5
A7
330
1F
100
AcDbEntity
  8
0
  6
Continuous
 62
     7
370
    25
100
AcDbSpline
210
0.0
220
0.0
230
1.0
 70
     8
 71
     3
 72
    11
 73
     7
 74
     0
 42
0.000000001
 43
0.00000001
 40
0.0
 40
0.0
 40
0.0
 40
0.0
 40
0.2535086227483761
 40
0.5075674742604901
 40
0.7595056251924999
 40
0.9999999999999999
 40
0.9999999999999999
 40
0.9999999999999999
 40
0.9999999999999999
 10
182.6550660353579
 20
129.1865202919256
 30
0.0
 10
182.6696870398275
 20
129.2612954722381
 30
0.0
 10
182.6989607829818
 20
129.4110081289405
 30
0.0
 10
182.6448876848928
 20
129.6371811318834
 30
0.0
 10
182.5281464657831
 20
129.8341755578773
 30
0.0
 10
182.4066088272652
 20
129.9201916176143
 30
0.0
 10
182.3472522314615
 20
129.9622001719411
 30
0.0
  0
ARC
  5
A8
330
1F
100
AcDbEntity
  8
0
  6
Continuous
 62
     7
370
    25
100
AcDbCircle
 10
177.5658736943
 20
128.7491489108
 30
0.0
 40
1.171865153013465
100
AcDbArc
 50
283.2725134102
 51
359.9905782954
  0
ARC
  5
A9
330
1F
100
AcDbEntity
  8
0
  6
Continuous
 62
     7
370
    25
100
AcDbCircle
 10
183.7775666976
 20
128.7550213849
 30
0.0
 40
1.171971040724916
100
AcDbArc
 50
180.0134942174
 51
256.830270709
  0
ARC
  5
AA
330
1F
100
AcDbEntity
  8
0
  6
Continuous
 62
     7
370
    25
100
AcDbCircle
 10
179.3290334916
 20
129.2811321714
 30
0.0
 40
0.6700244066390125
100
AcDbArc
 50
43.302319008
 51
179.9708149073
  0
SPLINE
  5
AB
330
1F
100
AcDbEntity
  8
0
  6
Continuous
 62
     7
370
    25
100
AcDbSpline
210
0.0
220
0.0
230
1.0
 70
     8
 71
     3
 72
    11
 73
     7
 74
     0
 42
0.000000001
 43
0.00000001
 40
0.0
 40
0.0
 40
0.0
 40
0.0
 40
0.2794069064555132
 40
0.5596240257156003
 40
0.8375007392219149
 40
1.0
 40
1.0
 40
1.0
 40
1.0
 10
179.8166404027842
 20
129.8356820838248
 30
0.0
 10
179.759555936385
 20
129.8858778429429
 30
0.0
 10
179.6452214723683
 20
129.9864149168036
 30
0.0
 10
179.4228255298381
 20
130.0533835148024
 30
0.0
 10
179.2233528983339
 20
130.0507679747125
 30
0.0
 10
179.1102894771147
 20
130.0108537841952
 30
0.0
 10
179.0685689395694
 20
129.9961254001953
 30
0.0
  0
SPLINE
  5
AC
330
1F
100
AcDbEntity
  8
0
  6
Continuous
 62
     7
370
    25
100
AcDbSpline
210
0.0
220
0.0
230
1.0
 70
     8
 71
     3
 72
    12
 73
     8
 74
     0
 42
0.000000001
 43
0.00000001
 40
0.0
 40
0.0
 40
0.0
 40
0.0
 40
0.0091735205190253
 40
0.2576775215525241
 40
0.5061895192299262
 40
0.7560357430218566
 40
1.0
 40
1.0
 40
1.0
 40
1.0
 10
182.3472522314615
 20
129.9622001719411
 30
0.0
 10
182.3448685571209
 20
129.9635568731521
 30
0.0
 10
182.2779128780006
 20
130.0016656237462
 30
0.0
 10
182.1318924331447
 20
130.0534740293949
 30
0.0
 10
181.9059204583414
 20
130.0539385888825
 30
0.0
 10
181.6898613671815
 20
129.983916847282
 30
0.0
 10
181.5794136764089
 20
129.8857546385594
 30
0.0
 10
181.524847623513
 20
129.8372581581343
 30
0.0
  0
SPLINE
  5
AD
330
1F
100
AcDbEntity
  8
0
  6
Continuous
 62
     7
370
    25
100
AcDbSpline
210
0.0
220
0.0
230
1.0
 70
     8
 71
     3
 72
    12
 73
     8
 74
     0
 42
0.000000001
 43
0.00000001
 40
0.0
 40
0.0
 40
0.0
 40
0.0
 40
0.2057532787804222
 40
0.4119604088044561
 40
0.6140154573248884
 40
0.8131414684040771
 40
0.9999999999999999
 40
0.9999999999999999
 40
0.9999999999999999
 40
0.9999999999999999
 10
181.524847623513
 20
129.8372581581343
 30
0.0
 10
181.4263315761773
 20
129.7501528651822
 30
0.0
 10
181.229082174492
 20
129.5757501421428
 30
0.0
 10
180.8442679964019
 20
129.45593639249
 30
0.0
 10
180.4517512572017
 20
129.4641285965173
 30
0.0
 10
180.0887541529798
 20
129.5917656377837
 30
0.0
 10
179.9054025403963
 20
129.7561177651022
 30
0.0
 10
179.8166404027842
 20
129.8356820838248
 30
0.0
  0
ARC
  5
AE
330
1F
100
AcDbEntity
  8
0
  6
Continuous
 62
     7
370
    25
100
AcDbCircle
 10
182.0133101299
 20
129.2836329226
 30
0.0
 40
0.6700247617737116
100
AcDbArc
 50
0.0292286552
 51
136.8044317401
  0
ARC
  5
AF
330
1F
100
AcDbEntity
  8
0
  6
Continuous
 62
     7
370
    25
100
AcDbCircle
 10
180.6699948836
 20
130.5454203821
 30
0.0
 40
1.172962901693519
100
AcDbArc
 50
223.3210758224
 51
316.7857008272
  0
ARC
  5
B0
330
1F
100
AcDbEntity
  8
0
  6
Continuous
 62
     7
370
    25
100
AcDbCircle
 10
180.6795450083
 20
126.9911849807
 30
0.0
 40
5.248120253836907
100
AcDbArc
 50
269.9794762692
 51
359.9856100569
  0
ARC
  5
B1
330
1F
100
AcDbEntity
  8
0
  6
Continuous
 62
     7
370
    25
100
AcDbCircle
 10
180.6761068113
 20
126.9915068031
 30
0.0
 40
5.248441970927649
100
AcDbArc
 50
180.0179023073
 51
270.0170113666
  0
LINE
  5
B2
330
1F
100
AcDbEntity
  8
0
  6
Continuous
 62
     7
370
    25
100
AcDbLine
 10
189.5697898751
 20
119.9259122983
 30
0.0
 11
189.7087084172
 21
119.1546654175
 31
0.0
  0
LINE
  5
B3
330
1F
100
AcDbEntity
  8
0
  6
Continuous
 62
     7
370
    25
100
AcDbLine
 10
172.2587084172
 20
116.0796339721
 30
0.0
 11
189.7087084172
 21
119.1546654175
 31
0.0
  0
LINE
  5
B4
330
1F
100
AcDbEntity
  8
0
  6
Continuous
 62
     7
370
    25
100
AcDbLine
 10
172.1197898751
 20
116.8508808528
 30
0.0
 11
172.2587084172
 21
116.0796339721
 31
0.0
  0
LINE
  5
B5
330
1F
100
AcDbEntity
  8
0
  6
Continuous
 62
     7
370
    25
100
AcDbLine
 10
172.7054305212
 20
117.5365948206
 30
0.0
 11
172.1197898751
 21
116.8508808528
 31
0.0
  0
LINE
  5
B6
330
1F
100
AcDbEntity
  8
0
  6
Continuous
 62
     7
370
    25
100
AcDbLine
 10
172.7054305212
 20
117.5365948206
 30
0.0
 11
172.9274516541
 21
117.5757192885
 31
0.0
  0
LINE
  5
B7
330
1F
100
AcDbEntity
  8
0
  6
Continuous
 62
     7
370
    25
100
AcDbLine
 10
189.2705051415
 20
120.1708586684
 30
0.0
 11
189.5697898751
 21
119.9259122983
 31
0.0
  0
LINE
  5
B8
330
1F
100
AcDbEntity
  8
0
  6
Continuous
 62
     7
370
    25
100
AcDbLine
 10
172.1197898751
 20
116.8508808528
 30
0.0
 11
171.3197898751
 21
116.8670002399
 31
0.0
  0
ARC
  5
B9
330
1F
100
AcDbEntity
  8
0
  6
Continuous
 62
     7
370
    25
100
AcDbCircle
 10
172.1196395629
 20
116.8673010765
 30
0.0
 40
0.7998497443891674
100
AcDbArc
 50
180.0215498833
 51
280.0128315546
  0
LINE
  5
BA
330
1F
100
AcDbEntity
  8
0
  6
Continuous
 62
     7
370
    25
100
AcDbLine
 10
171.3197898751
 20
134.5754005628
 30
0.0
 11
171.3197898751
 21
116.8670002399
 31
0.0
  0
LINE
  5
BB
330
1F
100
AcDbEntity
  8
0
  6
Continuous
 62
     7
370
    25
100
AcDbLine
 10
172.1197898751
 20
134.5592811758
 30
0.0
 11
171.3197898751
 21
134.5754005628
 31
0.0
  0
LINE
  5
BC
330
1F
100
AcDbEntity
  8
0
  6
Continuous
 62
     7
370
    25
100
AcDbLine
 10
172.4190746087
 20
134.3022740895
 30
0.0
 11
172.1197898751
 21
134.5592811758
 31
0.0
  0
LINE
  5
BD
330
1F
100
AcDbEntity
  8
0
  6
Continuous
 62
     7
370
    25
100
AcDbLine
 10
172.7054305212
 20
117.7619036517
 30
0.0
 11
172.7054305212
 21
117.5365948206
 31
0.0
  0
SPLINE
  5
BE
330
1F
100
AcDbEntity
  8
0
  6
Continuous
 62
     7
370
    25
100
AcDbSpline
210
0.0
220
0.0
230
1.0
 70
     8
 71
     3
 72
     9
 73
     5
 74
     0
 42
0.000000001
 43
0.00000001
 40
0.0
 40
0.0
 40
0.0
 40
0.0
 40
0.0433040437556215
 40
1.0
 40
1.0
 40
1.0
 40
1.0
 10
173.6655582644519
 20
118.6839582703483
 30
0.0
 10
173.6635626174005
 20
118.6815190456749
 30
0.0
 10
173.6174780747506
 20
118.6251911727588
 30
0.0
 10
173.5689223900319
 20
118.5661730436862
 30
0.0
 10
173.5224693628089
 20
118.5097106382574
 30
0.0
  0
SPLINE
  5
BF
330
1F
100
AcDbEntity
  8
0
  6
Continuous
 62
     7
370
    25
100
AcDbSpline
210
0.0
220
0.0
230
1.0
 70
     8
 71
     3
 72
    14
 73
    10
 74
     0
 42
0.000000001
 43
0.00000001
 40
0.0
 40
0.0
 40
0.0
 40
0.0
 40
0.3240421732223159
 40
0.4390834530314702
 40
0.5550339035678784
 40
0.6320175773806425
 40
0.7091777148392651
 40
0.8120429782633817
 40
1.0
 40
1.0
 40
1.0
 40
1.0
 10
172.9274516540727
 20
117.5757192885455
 30
0.0
 10
173.0826406885094
 20
117.6099123189621
 30
0.0
 10
173.2929248513253
 20
117.656244540832
 30
0.0
 10
173.528405125587
 20
117.7909284806589
 30
0.0
 10
173.6393361481113
 20
117.8957004043693
 30
0.0
 10
173.6972357581407
 20
118.016358471734
 30
0.0
 10
173.7074089199238
 20
118.1432844239336
 30
0.0
 10
173.6582914240751
 20
118.3188175062093
 30
0.0
 10
173.5757897752702
 20
118.4347706731151
 30
0.0
 10
173.5224693628089
 20
118.5097106382574
 30
0.0
  0
SPLINE
  5
C0
330
1F
100
AcDbEntity
  8
0
  6
Continuous
 62
     7
370
    25
100
AcDbSpline
210
0.0
220
0.0
230
1.0
 70
     8
 71
     3
 72
    14
 73
    10
 74
     0
 42
0.000000001
 43
0.00000001
 40
0.0
 40
0.0
 40
0.0
 40
0.0
 40
0.1215026613260214
 40
0.2571357003576282
 40
0.3367055246585102
 40
0.4166989189530987
 40
0.5090573836363348
 40
0.659989833553344
 40
1.0
 40
1.0
 40
1.0
 40
1.0
 10
173.5224693628089
 20
118.5097106382574
 30
0.0
 10
173.4693674684484
 20
118.5354524604275
 30
0.0
 10
173.3569880962791
 20
118.5899297977956
 30
0.0
 10
173.194756994145
 20
118.6290195339896
 30
0.0
 10
173.0497325985025
 20
118.613204297061
 30
0.0
 10
172.9385631330295
 20
118.5551814992686
 30
0.0
 10
172.833545779745
 20
118.4347740713669
 30
0.0
 10
172.7232341680006
 20
118.1685381915324
 30
0.0
 10
172.7127154367986
 20
117.928290816433
 30
0.0
 10
172.7054305211536
 20
117.7619036516744
 30
0.0
  0
ARC
  5
C1
330
1F
100
AcDbEntity
  8
0
  6
Continuous
 62
     7
370
    25
100
AcDbCircle
 10
175.7194140937
 20
121.1554517215
 30
0.0
 40
1.999624360624719
100
AcDbArc
 50
180.0215498687
 51
280.0128315836
  0
SPLINE
  5
C2
330
1F
100
AcDbEntity
  8
0
  6
Continuous
 62
     7
370
    25
100
AcDbSpline
210
0.0
220
0.0
230
1.0
 70
     8
 71
     3
 72
    11
 73
     7
 74
     0
 42
0.000000001
 43
0.00000001
 40
0.0
 40
0.0
 40
0.0
 40
0.0
 40
0.3360297136121972
 40
0.6712269697199674
 40
0.9920227009419658
 40
1.0
 40
1.0
 40
1.0
 40
1.0
 10
189.2705051414572
 20
120.170858668398
 30
0.0
 10
189.1522019368953
 20
120.2683233885176
 30
0.0
 10
188.9158886042062
 20
120.4630113761875
 30
0.0
 10
188.5451102090457
 20
120.7757768689893
 30
0.0
 10
188.3166379446473
 20
120.9714940284989
 30
0.0
 10
188.2121755637331
 20
121.0618288287238
 30
0.0
 10
188.2096409043294
 20
121.0640206986474
 30
0.0
  0
LINE
  5
C3
330
1F
100
AcDbEntity
  8
0
  6
Continuous
 62
     7
370
    25
100
AcDbLine
 10
176.0670862304
 20
119.186283961
 30
0.0
 11
186.3170862304
 21
120.9925345235
 31
0.0
  0
LINE
  5
C4
330
1F
100
AcDbEntity
  8
0
  6
Continuous
 62
     7
370
    25
100
AcDbLine
 10
189.5697898751
 20
119.9259122983
 30
0.0
 11
190.3697898751
 21
119.9420316853
 31
0.0
  0
ARC
  5
C5
330
1F
100
AcDbEntity
  8
0
  6
Continuous
 62
     7
370
    25
100
AcDbCircle
 10
189.5701379714
 20
119.9422195007
 30
0.0
 40
0.7996519257331833
100
AcDbArc
 50
279.9790720631
 51
359.9865428618
  0
LINE
  5
C6
330
1F
100
AcDbEntity
  8
0
  6
Continuous
 62
     7
370
    25
100
AcDbLine
 10
185.6224935198
 20
135.3311482871
 30
0.0
 11
175.3724935198
 21
133.5248977246
 31
0.0
  0
ARC
  5
C7
330
1F
100
AcDbEntity
  8
0
  6
Continuous
 62
     7
370
    25
100
AcDbCircle
 10
185.9701656555
 20
133.3619805261
 30
0.0
 40
1.999624360996022
100
AcDbArc
 50
0.021549884
 51
100.0128315538
  0
LINE
  5
C8
330
1F
100
AcDbEntity
  8
0
  6
Continuous
 62
     7
370
    25
100
AcDbLine
 10
187.9697898751
 20
122.960950193
 30
0.0
 11
187.9697898751
 21
133.3627326177
 31
0.0
  0
ARC
  5
C9
330
1F
100
AcDbEntity
  8
0
  6
Continuous
 62
     7
370
    25
100
AcDbCircle
 10
185.9706601159
 20
122.9614197314
 30
0.0
 40
1.999129814333596
100
AcDbArc
 50
279.9790720631
 51
359.9865428609
  0
LINE
  5
CA
330
1F
100
AcDbEntity
  8
0
  6
Continuous
 62
     7
370
    25
100
AcDbLine
 10
173.7197898751
 20
131.5564820551
 30
0.0
 11
173.7197898745
 21
121.1546996305
 31
0.0
  0
ARC
  5
CB
330
1F
100
AcDbEntity
  8
0
  6
Continuous
 62
     7
370
    25
100
AcDbCircle
 10
175.7189196343
 20
131.5560125168
 30
0.0
 40
1.999129814333662
100
AcDbArc
 50
99.9790720631
 51
179.9865428609
  0
CIRCLE
  5
CC
330
1F
100
AcDbEntity
  8
0
  6
Continuous
 62
     7
370
    25
100
AcDbCircle
 10
180.84232593
 20
127.2583634596
 30
0.0
 40
6.097536065144485
  0
LINE
  5
CD
330
1F
100
AcDbEntity
  8
0
  6
Continuous
 62
     7
370
    25
100
AcDbLine
 10
188.984149229
 20
136.9249982328
 30
0.0
 11
189.5697898751
 21
137.6343126212
 31
0.0
  0
LINE
  5
CE
330
1F
100
AcDbEntity
  8
0
  6
Continuous
 62
     7
370
    25
100
AcDbLine
 10
189.5697898751
 20
137.6343126212
 30
0.0
 11
190.3697898751
 21
137.6504320083
 31
0.0
  0
LINE
  5
CF
330
1F
100
AcDbEntity
  8
0
  6
Continuous
 62
     7
370
    25
100
AcDbLine
 10
190.3697898751
 20
119.9420316853
 30
0.0
 11
190.3697898751
 21
137.6504320083
 31
0.0
  0
LINE
  5
D0
330
1F
100
AcDbEntity
  8
0
  6
Continuous
 62
     7
370
    25
100
AcDbLine
 10
188.984149229
 20
136.6996894018
 30
0.0
 11
188.984149229
 21
136.9249982328
 31
0.0
  0
ARC
  5
D1
330
1F
100
AcDbEntity
  8
0
  6
Continuous
 62
     7
370
    25
100
AcDbCircle
 10
180.8447898751
 20
127.1756145984
 30
0.0
 40
6.100000657712694
100
AcDbArc
 50
0.0266066862
 51
179.9733933138
  0
SPLINE
  5
D2
330
1F
100
AcDbEntity
  8
0
  6
Continuous
 62
     7
370
    25
100
AcDbSpline
210
0.0
220
0.0
230
1.0
 70
     8
 71
     3
 72
    11
 73
     7
 74
     0
 42
0.000000001
 43
0.00000001
 40
0.0
 40
0.0
 40
0.0
 40
0.0
 40
0.0079772990479834
 40
0.3287730302731904
 40
0.6639702863843859
 40
0.9999999999999999
 40
0.9999999999999999
 40
0.9999999999999999
 40
0.9999999999999999
 10
173.4799388458633
 20
133.4161790755292
 30
0.0
 10
173.477404186461
 20
133.418238277933
 30
0.0
 10
173.3729418054706
 20
133.5031053752013
 30
0.0
 10
173.1444695411867
 20
133.690576630649
 30
0.0
 10
172.7736911459814
 20
133.9996721154134
 30
0.0
 10
172.5373778132984
 20
134.201323401985
 30
0.0
 10
172.4190746087395
 20
134.3022740895064
 30
0.0
  0
SPLINE
  5
D3
330
1F
100
AcDbEntity
  8
0
  6
Continuous
 62
     7
370
    25
100
AcDbSpline
210
0.0
220
0.0
230
1.0
 70
     8
 71
     3
 72
    14
 73
    10
 74
     0
 42
0.000000001
 43
0.00000001
 40
0.0
 40
0.0
 40
0.0
 40
0.0
 40
0.1215026613286259
 40
0.2571357003598772
 40
0.3367055246605354
 40
0.4166989189548676
 40
0.5090573836378783
 40
0.6599898335543616
 40
1.0
 40
1.0
 40
1.0
 40
1.0
 10
188.1671103873832
 20
135.9518824151796
 30
0.0
 10
188.2202122817453
 20
135.9261405930096
 30
0.0
 10
188.3325916539165
 20
135.8716632556422
 30
0.0
 10
188.4948227560517
 20
135.8325735194472
 30
0.0
 10
188.6398471516943
 20
135.8483887563757
 30
0.0
 10
188.7510166171673
 20
135.9064115541684
 30
0.0
 10
188.8560339704519
 20
136.0268189820699
 30
0.0
 10
188.9663455821962
 20
136.2930548619046
 30
0.0
 10
188.9768643133981
 20
136.5333022370039
 30
0.0
 10
188.9841492290432
 20
136.6996894017625
 30
0.0
  0
SPLINE
  5
D4
330
1F
100
AcDbEntity
  8
0
  6
Continuous
 62
     7
370
    25
100
AcDbSpline
210
0.0
220
0.0
230
1.0
 70
     8
 71
     3
 72
     9
 73
     5
 74
     0
 42
0.000000001
 43
0.00000001
 40
0.0
 40
0.0
 40
0.0
 40
0.0
 40
0.9566959562428813
 40
1.0
 40
1.0
 40
1.0
 40
1.0
 10
188.1671103873832
 20
135.9518824151796
 30
0.0
 10
188.1206573601617
 20
135.897691144767
 30
0.0
 10
188.0721016754447
 20
135.8410469517411
 30
0.0
 10
188.0260171327962
 20
135.7875988994194
 30
0.0
 10
188.0240214857449
 20
135.785284382623
 30
0.0
  0
LINE
  5
D5
330
1F
100
AcDbEntity
  8
0
  6
Continuous
 62
     7
370
    25
100
AcDbLine
 10
172.1197898751
 20
134.5592811758
 30
0.0
 11
171.980871333
 21
135.3627668306
 31
0.0
  0
LINE
  5
D6
330
1F
100
AcDbEntity
  8
0
  6
Continuous
 62
     7
370
    25
100
AcDbLine
 10
189.430871333
 20
138.4377982761
 30
0.0
 11
171.980871333
 21
135.3627668306
 31
0.0
  0
LINE
  5
D7
330
1F
100
AcDbEntity
  8
0
  6
Continuous
 62
     7
370
    25
100
AcDbLine
 10
189.5697898751
 20
137.6343126212
 30
0.0
 11
189.430871333
 21
138.4377982761
 31
0.0
  0
LINE
  5
D8
330
1F
100
AcDbEntity
  8
0
  6
Continuous
 62
     7
370
    25
100
AcDbLine
 10
188.984149229
 20
136.9249982328
 30
0.0
 11
188.7621280961
 21
136.8858737649
 31
0.0
  0
ARC
  5
D9
330
1F
100
AcDbEntity
  8
0
  6
Continuous
 62
     7
370
    25
100
AcDbCircle
 10
172.1194417788
 20
134.5752127475
 30
0.0
 40
0.7996519257393832
100
AcDbArc
 50
99.9790720634
 51
179.9865428605
  0
SPLINE
  5
DA
330
1F
100
AcDbEntity
  8
0
  6
Continuous
 62
     7
370
    25
100
AcDbSpline
210
0.0
220
0.0
230
1.0
 70
     8
 71
     3
 72
    14
 73
    10
 74
     0
 42
0.000000001
 43
0.00000001
 40
0.0
 40
0.0
 40
0.0
 40
0.0
 40
0.3240421732228789
 40
0.4390834530322209
 40
0.5550339035688716
 40
0.6320175773817766
 40
0.709177714840552
 40
0.812042978264828
 40
1.0
 40
1.0
 40
1.0
 40
1.0
 10
188.7621280961241
 20
136.8858737648914
 30
0.0
 10
188.6069390616874
 20
136.8516807344748
 30
0.0
 10
188.3966548988715
 20
136.8053485126049
 30
0.0
 10
188.1611746246097
 20
136.670664572778
 30
0.0
 10
188.0502436020855
 20
136.5658926490675
 30
0.0
 10
187.992343992056
 20
136.4452345817029
 30
0.0
 10
187.9821708302728
 20
136.3183086295033
 30
0.0
 10
188.0312883261219
 20
136.1427755472287
 30
0.0
 10
188.1137899749239
 20
136.0268223803221
 30
0.0
 10
188.1671103873832
 20
135.9518824151796
 30
0.0
  0
ARC
  5
DB
330
1F
100
AcDbEntity
  8
0
  6
Continuous
 62
     7
370
    25
100
AcDbCircle
 10
189.5699401873
 20
137.6501311717
 30
0.0
 40
0.7998497444076504
100
AcDbArc
 50
0.0215498848
 51
100.012831553
  0
LINE
  5
DC
330
1F
100
AcDbEntity
  8
0
  6
Continuous
 62
     7
370
    25
100
AcDbLine
 10
116.7912774784
 20
123.3499446699
 30
0.0
 11
163.7147478252
 21
123.3499446699
 31
0.0
  0
SPLINE
  5
DD
330
1F
100
AcDbEntity
  8
0
  6
Continuous
 62
     7
370
    25
100
AcDbSpline
210
0.0
220
0.0
230
1.0
 70
     8
 71
     3
 72
    12
 73
     8
 74
     0
 42
0.000000001
 43
0.00000001
 40
0.0
 40
0.0
 40
0.0
 40
0.0
 40
0.5
 40
0.5
 40
0.75
 40
0.75
 40
1.0
 40
1.0
 40
1.0
 40
1.0
 10
163.7147478251817
 20
123.3499446698948
 30
0.0
 10
164.438082317721
 20
121.7791112000753
 30
0.0
 10
165.1832654007623
 20
120.3271678979965
 30
0.0
 10
166.2835493023124
 20
118.3370359198883
 30
0.0
 10
166.6473062912706
 20
117.7050656238128
 30
0.0
 10
167.3585188318864
 20
116.5076029578889
 30
0.0
 10
167.6989996407206
 20
115.9537384473562
 30
0.0
 10
168.0192525603529
 20
115.4442962918154
 30
0.0
  0
ELLIPSE
  5
DE
330
1F
100
AcDbEntity
  8
0
  6
Continuous
 62
     7
370
    25
100
AcDbEllipse
 10
137.3697898751
 20
3493.4578179068
 30
0.0
 11
-31.87503169220783
 21
3398.945731593633
 31
0.0
210
0.0
220
0.0
230
1.0
 40
0.0027319057
 41
3.030528538463293
 42
3.083242833091411
  0
LINE
  5
DF
330
1F
100
AcDbEntity
  8
0
  6
Continuous
 62
     7
370
    25
100
AcDbLine
 10
168.6490688226
 20
100.2915645187
 30
0.0
 11
116.7912774784
 21
100.2915645187
 31
0.0
  0
LINE
  5
E0
330
1F
100
AcDbEntity
  8
0
  6
Continuous
 62
     7
370
    25
100
AcDbLine
 10
122.3697898751
 20
132.3499446699
 30
0.0
 11
156.6638776669
 21
132.3499446699
 31
0.0
  0
SPLINE
  5
E1
330
1F
100
AcDbEntity
  8
0
  6
Continuous
 62
     7
370
    25
100
AcDbSpline
210
0.0
220
0.0
230
1.0
 70
     8
 71
     3
 72
     8
 73
     4
 74
     0
 42
0.000000001
 43
0.00000001
 40
0.0
 40
0.0
 40
0.0
 40
0.0
 40
1.0
 40
1.0
 40
1.0
 40
1.0
 10
163.714747825181
 20
123.3499446698965
 30
0.0
 10
163.6503169898642
 20
123.482272687913
 30
0.0
 10
163.5867174940009
 20
123.6141543267467
 30
0.0
 10
163.5239369476961
 20
123.7455765139282
 30
0.0
  0
SPLINE
  5
E2
330
1F
100
AcDbEntity
  8
0
  6
Continuous
 62
     7
370
    25
100
AcDbSpline
210
0.0
220
0.0
230
1.0
 70
     8
 71
     3
 72
    10
 73
     6
 74
     0
 42
0.000000001
 43
0.00000001
 40
0.0
 40
0.0
 40
0.0
 40
0.0
 40
0.5
 40
0.5
 40
1.0
 40
1.0
 40
1.0
 40
1.0
 10
172.3697898750987
 20
102.2049669068244
 30
0.0
 10
172.1455745608649
 20
102.1299104978041
 30
0.0
 10
171.9399972359415
 20
102.0283100958883
 30
0.0
 10
171.604607118418
 20
101.8244284238803
 30
0.0
 10
171.4737191920305
 20
101.7216829729951
 30
0.0
 10
171.4097515217271
 20
101.6758387321102
 30
0.0
  0
SPLINE
  5
E3
330
1F
100
AcDbEntity
  8
0
  6
Continuous
 62
     7
370
    25
100
AcDbSpline
210
0.0
220
0.0
230
1.0
 70
     8
 71
     3
 72
     8
 73
     4
 74
     0
 42
0.000000001
 43
0.00000001
 40
0.0
 40
0.0
 40
0.0
 40
0.0
 40
1.0
 40
1.0
 40
1.0
 40
1.0
 10
173.2594780708801
 20
102.3499446699526
 30
0.0
 10
172.9548668898893
 20
102.3499446699525
 30
0.0
 10
172.658315398932
 20
102.3015512538914
 30
0.0
 10
172.3697898751001
 20
102.2049669068162
 30
0.0
  0
SPLINE
  5
E4
330
1F
100
AcDbEntity
  8
0
  6
Continuous
 62
     7
370
    25
100
AcDbSpline
210
0.0
220
0.0
230
1.0
 70
     8
 71
     3
 72
    16
 73
    12
 74
     0
 42
0.000000001
 43
0.00000001
 40
0.0
 40
0.0
 40
0.0
 40
0.0
 40
0.4999999999999999
 40
0.4999999999999999
 40
0.7500000000000009
 40
0.7500000000000009
 40
0.8750000000000013
 40
0.8750000000000013
 40
0.9375000000000007
 40
0.9375000000000007
 40
1.0
 40
1.0
 40
1.0
 40
1.0
 10
116.7912774784038
 20
100.2915645186627
 30
0.0
 10
116.3487357181124
 20
100.2915645186627
 30
0.0
 10
115.9241800741442
 20
100.2609316547414
 30
0.0
 10
115.3153091715195
 20
100.1404823489303
 30
0.0
 10
115.1158809235647
 20
100.0883990472061
 30
0.0
 10
114.8309833022505
 20
99.96599376275647
 30
0.0
 10
114.737989766436
 20
99.91821231518767
 30
0.0
 10
114.6096762151375
 20
99.81903375537254
 30
0.0
 10
114.5682255425785
 20
99.78116491371622
 30
0.0
 10
114.4976887210327
 20
99.68439645052256
 30
0.0
 10
114.467585364843
 20
99.62176907819223
 30
0.0
 10
114.467585364843
 20
99.54994466995203
 30
0.0
  0
SPLINE
  5
E5
330
1F
100
AcDbEntity
  8
0
  6
Continuous
 62
     7
370
    25
100
AcDbSpline
210
0.0
220
0.0
230
1.0
 70
     8
 71
     3
 72
    18
 73
    14
 74
     0
 42
0.000000001
 43
0.00000001
 40
0.0
 40
0.0
 40
0.0
 40
0.0
 40
0.1249999999999998
 40
0.1249999999999998
 40
0.2499999999999996
 40
0.2499999999999996
 40
0.3749999999999993
 40
0.3749999999999993
 40
0.4999999999999993
 40
0.4999999999999993
 40
0.7499999999999997
 40
0.7499999999999997
 40
1.0
 40
1.0
 40
1.0
 40
1.0
 10
168.6490688226393
 20
100.2915645187148
 30
0.0
 10
168.7670338347321
 20
100.2057217251747
 30
0.0
 10
168.8855167533669
 20
100.1302118331871
 30
0.0
 10
169.1258526255646
 20
100.0464285799744
 30
0.0
 10
169.2440790720931
 20
100.0449484928102
 30
0.0
 10
169.4766884793394
 20
100.1192769009807
 30
0.0
 10
169.5913369291742
 20
100.1901383247653
 30
0.0
 10
169.8195134995717
 20
100.3546547694786
 30
0.0
 10
169.9330265030659
 20
100.4486173538855
 30
0.0
 10
170.2731767066027
 20
100.7384155572858
 30
0.0
 10
170.4993675217536
 20
100.9420470128709
 30
0.0
 10
170.953170027254
 20
101.3279080796939
 30
0.0
 10
171.1807400076676
 20
101.5117111506907
 30
0.0
 10
171.4097515217271
 20
101.6758387321103
 30
0.0
  0
LINE
  5
E6
330
1F
100
AcDbEntity
  8
0
  6
Continuous
 62
     7
370
    25
100
AcDbLine
 10
114.4675853648
 20
93.5347725387
 30
0.0
 11
170.4697898751
 21
84.6648947204
 31
0.0
  0
LINE
  5
E7
330
1F
100
AcDbEntity
  8
0
  6
Continuous
 62
     7
370
    25
100
AcDbLine
 10
114.4675853648
 20
99.54994467
 30
0.0
 11
114.4675853648
 21
93.5347725387
 31
0.0
  0
LINE
  5
E8
330
1F
100
AcDbEntity
  8
0
  6
Continuous
 62
     7
370
    25
100
AcDbLine
 10
111.5899733613
 20
123.3499446699
 30
0.0
 11
116.7912774784
 21
123.3499446699
 31
0.0
  0
LINE
  5
E9
330
1F
100
AcDbEntity
  8
0
  6
Continuous
 62
     7
370
    25
100
AcDbLine
 10
111.5899733613
 20
93.9905415054
 30
0.0
 11
114.4675853648
 21
93.5347725387
 31
0.0
  0
LINE
  5
EA
330
1F
100
AcDbEntity
  8
0
  6
Continuous
 62
     7
370
    25
100
AcDbLine
 10
119.5090726107
 20
132.3499446699
 30
0.0
 11
122.3697898751
 21
132.3499446699
 31
0.0
  0
LINE
  5
EB
330
1F
100
AcDbEntity
  8
0
  6
Continuous
 62
     7
370
    25
100
AcDbLine
 10
107.7835853223
 20
97.3499446699
 30
0.0
 11
107.7835853223
 21
94.5934141446
 31
0.0
  0
LINE
  5
EC
330
1F
100
AcDbEntity
  8
0
  6
Continuous
 62
     7
370
    25
100
AcDbLine
 10
107.7835853223
 20
97.3499446699
 30
0.0
 11
106.5697898751
 21
97.3499446699
 31
0.0
  0
LINE
  5
ED
330
1F
100
AcDbEntity
  8
0
  6
Continuous
 62
     7
370
    25
100
AcDbLine
 10
106.5697898751
 20
123.3499446699
 30
0.0
 11
111.5899733613
 21
123.3499446699
 31
0.0
  0
LINE
  5
EE
330
1F
100
AcDbEntity
  8
0
  6
Continuous
 62
     7
370
    25
100
AcDbLine
 10
107.7835853223
 20
94.5934141446
 30
0.0
 11
111.5899733613
 21
93.9905415054
 31
0.0
  0
LINE
  5
EF
330
1F
100
AcDbEntity
  8
0
  6
Continuous
 62
     7
370
    25
100
AcDbLine
 10
115.5697898751
 20
132.3499446699
 30
0.0
 11
119.5090726107
 21
132.3499446699
 31
0.0
  0
SPLINE
  5
F0
330
1F
100
AcDbEntity
  8
0
  6
Continuous
 62
     7
370
    25
100
AcDbSpline
210
0.0
220
0.0
230
1.0
 70
     8
 71
     3
 72
     8
 73
     4
 74
     0
 42
0.000000001
 43
0.00000001
 40
0.0
 40
0.0
 40
0.0
 40
0.0
 40
1.0
 40
1.0
 40
1.0
 40
1.0
 10
163.5239369476959
 20
123.7455765139278
 30
0.0
 10
162.1468734797785
 20
126.6282639624027
 30
0.0
 10
161.0713994596834
 20
129.4866524101238
 30
0.0
 10
160.2368804132829
 20
132.3499446698959
 30
0.0
  0
LINE
  5
F1
330
1F
100
AcDbEntity
  8
0
  6
Continuous
 62
     7
370
    25
100
AcDbLine
 10
156.6638776669
 20
132.3499446699
 30
0.0
 11
160.2368804133
 21
132.3499446699
 31
0.0
  0
SPLINE
  5
F2
330
1F
100
AcDbEntity
  8
0
  6
Continuous
 62
     7
370
    25
100
AcDbSpline
210
0.0
220
0.0
230
1.0
 70
     8
 71
     3
 72
     8
 73
     4
 74
     0
 42
0.000000001
 43
0.00000001
 40
0.0
 40
0.0
 40
0.0
 40
0.0
 40
1.0
 40
1.0
 40
1.0
 40
1.0
 10
171.328164822839
 20
110.5393831063399
 30
0.0
 10
171.3541793448667
 20
110.5040826613246
 30
0.0
 10
171.3820456174751
 20
110.485826288246
 30
0.0
 10
171.4097515217272
 20
110.4923164495878
 30
0.0
  0
ELLIPSE
  5
F3
330
1F
100
AcDbEntity
  8
0
  6
Continuous
 62
     7
370
    25
100
AcDbEllipse
 10
218.0030576132
 20
142.63084428
 30
0.0
 11
-43.78043270361211
 21
46.24396316840611
 31
0.0
210
0.0
220
0.0
230
1.0
 40
0.8872016155
 41
1.33912508621026
 42
1.432407087713966
  0
SPLINE
  5
F4
330
1F
100
AcDbEntity
  8
0
  6
Continuous
 62
     7
370
    25
100
AcDbSpline
210
0.0
220
0.0
230
1.0
 70
     8
 71
     3
 72
    10
 73
     6
 74
     0
 42
0.000000001
 43
0.00000001
 40
0.0
 40
0.0
 40
0.0
 40
0.0
 40
0.5
 40
0.5
 40
1.0
 40
1.0
 40
1.0
 40
1.0
 10
171.4097515217272
 20
110.4923164495878
 30
0.0
 10
171.4718916743968
 20
110.5068728998285
 30
0.0
 10
171.6045567265733
 20
110.5473663387719
 30
0.0
 10
171.9508886502493
 20
110.6615025490422
 30
0.0
 10
172.1614301889964
 20
110.7341296645273
 30
0.0
 10
172.3697898750985
 20
110.8085522631695
 30
0.0
  0
SPLINE
  5
F5
330
1F
100
AcDbEntity
  8
0
  6
Continuous
 62
     7
370
    25
100
AcDbSpline
210
0.0
220
0.0
230
1.0
 70
     8
 71
     3
 72
     8
 73
     4
 74
     0
 42
0.000000001
 43
0.00000001
 40
0.0
 40
0.0
 40
0.0
 40
0.0
 40
1.0
 40
1.0
 40
1.0
 40
1.0
 10
160.3697898750983
 20
132.3499446698959
 30
0.0
 10
160.4387750397682
 20
132.3499446698959
 30
0.0
 10
160.5177065612555
 20
132.356830538721
 30
0.0
 10
160.6054679407162
 20
132.3781134863117
 30
0.0
  0
SPLINE
  5
F6
330
1F
100
AcDbEntity
  8
0
  6
Continuous
 62
     7
370
    25
100
AcDbSpline
210
0.0
220
0.0
230
1.0
 70
    24
 71
     3
 72
     8
 73
     4
 74
     0
 42
0.000000001
 43
0.00000001
 40
0.0
 40
0.0
 40
0.0
 40
0.0
 40
1.0
 40
1.0
 40
1.0
 40
1.0
 10
160.6054679407162
 20
132.3781134863117
 30
0.0
 10
160.7609342103777
 20
132.4158154970329
 30
0.0
 10
160.9417138216174
 20
132.459656227604
 30
0.0
 10
161.1271656296898
 20
132.5046300091929
 30
0.0
  0
ARC
  5
F7
330
1F
100
AcDbEntity
  8
0
  6
Continuous
 62
     7
370
    25
100
AcDbCircle
 10
217.9521240501
 20
148.2251235285
 30
0.0
 40
59.95005091897298
100
AcDbArc
 50
195.3554708772
 51
218.9483074123
  0
LINE
  5
F8
330
1F
100
AcDbEntity
  8
0
  6
Continuous
 62
     7
370
    25
100
AcDbLine
 10
160.2368804133
 20
132.3499446699
 30
0.0
 11
160.3697898751
 21
132.3499446699
 31
0.0
  0
LINE
  5
F9
330
1F
100
AcDbEntity
  8
0
  6
Continuous
 62
     7
370
    25
100
AcDbLine
 10
190.1191740856
 20
119.2628788052
 30
0.0
 11
189.9342019982
 21
119.230283104
 31
0.0
  0
LINE
  5
FA
330
1F
100
AcDbEntity
  8
0
  6
Continuous
 62
     7
370
    25
100
AcDbLine
 10
190.1191740856
 20
119.2628788052
 30
0.0
 11
190.1191740856
 21
114.4506050228
 31
0.0
  0
LINE
  5
FB
330
1F
100
AcDbEntity
  8
0
  6
Continuous
 62
     7
370
    25
100
AcDbLine
 10
190.1191740856
 20
114.4506050228
 30
0.0
 11
177.9202086055
 21
102.34994467
 31
0.0
  0
LINE
  5
FC
330
1F
100
AcDbEntity
  8
0
  6
Continuous
 62
     7
370
    25
100
AcDbLine
 10
177.9202086055
 20
102.34994467
 30
0.0
 11
173.2594780709
 21
102.34994467
 31
0.0
  0
LINE
  5
FD
330
1F
100
AcDbEntity
  8
0
  6
Continuous
 62
     7
370
    25
100
AcDbLine
 10
171.3431540814
 20
134.9821018555
 30
0.0
 11
161.1271656297
 21
132.5046300092
 31
0.0
  0
LINE
  5
FE
330
1F
100
AcDbEntity
  8
0
  6
Continuous
 62
     7
370
    25
100
AcDbLine
 10
171.3431540814
 20
134.9821018555
 30
0.0
 11
171.3689036995
 21
134.986639442
 31
0.0
  0
LINE
  5
FF
330
1F
100
AcDbEntity
  8
0
  6
Continuous
 62
     7
370
    25
100
AcDbLine
 10
171.3689036995
 20
134.8512214796
 30
0.0
 11
171.3689036995
 21
134.986639442
 31
0.0
  0
ARC
  5
100
330
1F
100
AcDbEntity
  8
0
  6
Continuous
 62
     7
370
    25
100
AcDbCircle
 10
173.3129802682
 20
118.2734576089
 30
0.0
 40
3.299095732050235
100
AcDbArc
 50
127.1686102616
 51
333.9280286209
  0
ARC
  5
101
330
1F
100
AcDbEntity
  8
0
  6
Continuous
 62
     7
370
    25
100
AcDbCircle
 10
173.3098004294
 20
118.0009844489
 30
0.0
 40
3.297380550455136
100
AcDbArc
 50
127.1218821192
 51
177.6289207361
  0
LINE
  5
102
330
1F
100
AcDbEntity
  8
0
  6
Continuous
 62
     7
370
    25
100
AcDbLine
 10
190.1191740856
 20
119.2628788052
 30
0.0
 11
190.0489615041
 21
119.3018014926
 31
0.0
  0
LINE
  5
103
330
1F
100
AcDbEntity
  8
0
  6
Continuous
 62
     7
370
    25
100
AcDbLine
 10
171.4087779192
 20
134.9418677882
 30
0.0
 11
171.3689036995
 21
134.986639442
 31
0.0
  0
POINT
  5
104
330
1F
100
AcDbEntity
  8
VERMASSUNG
100
AcDbPoint
 10
190.3697898751
 20
138.6032540951
 30
0.0
  0
POINT
  5
105
330
1F
100
AcDbEntity
  8
0
  6
Continuous
 62
     7
370
    18
100
AcDbPoint
 10
190.3697898751
 20
-31.1967459049
 30
0.0
  0
DIMENSION
  5
106
330
1F
100
AcDbEntity
  8
VERMASSUNG
100
AcDbDimension
  2
_D
 10
212.3697898751
 20
-31.1967459049
 30
0.0
 11
212.3697898751
 21
99.5363424249
 31
0.0
 70
   160
  1
%%c<>-105.1\P%%c104.9-134.1\P%%c133.9-171.1
 71
     2
 42
-1.0
  3
SLDDIMSTYLE0
100
AcDbAlignedDimension
 13
190.3697898751
 23
138.6032540951
 33
0.0
 14
190.3697898751
 24
-31.1967459049
 34
0.0
 50
90.0
100
AcDbRotatedDimension
  0
LINE
  5
115
330
1F
100
AcDbEntity
  8
0
  6
Continuous
 62
     7
370
    25
100
AcDbLine
 10
251.2901124779
 20
59.0027626745
 30
0.0
 11
251.7244363759
 21
59.2365720416
 31
0.0
  0
LINE
  5
116
330
1F
100
AcDbEntity
  8
0
  6
Continuous
 62
     7
370
    25
100
AcDbLine
 10
249.331471141
 20
63.9107566526
 30
0.0
 11
248.8015616009
 21
63.6254907146
 31
0.0
  0
LINE
  5
117
330
1F
100
AcDbEntity
  8
0
  6
Continuous
 62
     7
370
    25
100
AcDbLine
 10
249.5667627535
 20
62.3642369968
 30
0.0
 11
249.8896109894
 21
62.5380357264
 31
0.0
  0
LINE
  5
118
330
1F
100
AcDbEntity
  8
0
  6
Continuous
 62
     7
370
    25
100
AcDbLine
 10
250.7852958728
 20
60.3986814681
 30
0.0
 11
250.2354848134
 21
60.1027019551
 31
0.0
  0
LINE
  5
119
330
1F
100
AcDbEntity
  8
0
  6
Continuous
 62
     7
370
    25
100
AcDbLine
 10
253.5273088567
 20
55.2164449622
 30
0.0
 11
254.107113368
 21
55.649123626
 31
0.0
  0
LINE
  5
11A
330
1F
100
AcDbEntity
  8
0
  6
Continuous
 62
     7
370
    25
100
AcDbLine
 10
248.6133081474
 20
68.3557581025
 30
0.0
 11
246.0579351081
 21
67.4328607015
 31
0.0
  0
LINE
  5
11B
330
1F
100
AcDbEntity
  8
0
  6
Continuous
 62
     7
370
    25
100
AcDbLine
 10
272.7053891924
 20
49.5991297182
 30
0.0
 11
267.9855040471
 21
52.323861415
 31
0.0
  0
LINE
  5
11C
330
1F
100
AcDbEntity
  8
0
  6
Continuous
 62
     7
370
    25
100
AcDbLine
 10
239.5586332707
 20
39.746030183
 30
0.0
 11
239.5586332707
 21
36.0721936798
 31
0.0
  0
LINE
  5
11D
330
1F
100
AcDbEntity
  8
0
  6
Continuous
 62
     7
370
    25
100
AcDbLine
 10
242.6347408301
 20
28.7333139079
 30
0.0
 11
250.8727219096
 21
23.9776286583
 31
0.0
  0
LINE
  5
11E
330
1F
100
AcDbEntity
  8
0
  6
Continuous
 62
     7
370
    25
100
AcDbLine
 10
251.8360827346
 20
60.2058477436
 30
0.0
 11
251.8135705805
 21
60.5586321355
 31
0.0
  0
LWPOLYLINE
  5
11F
330
1F
100
AcDbEntity
  8
0
  6
Continuous
 62
     7
370
    25
100
AcDbPolyline
 90
       31
 70
   128
 43
0.0
 10
251.3101367113
 20
62.0489767127
 10
251.0842814247
 20
62.417239918
 10
250.7895319782
 20
62.8034540557
 10
250.4679034588
 20
63.1358400222
 10
250.1310203594
 20
63.4023845226
 10
249.7910585129
 20
63.5934539441
 10
249.4603050261
 20
63.7021425402
 10
249.1507141918
 20
63.7245220216
 10
248.8734754296
 20
63.6597835357
 10
248.6386088704
 20
63.5102669001
 10
248.4546032038
 20
63.2813760354
 10
248.3281088739
 20
62.9813836539
 10
248.2636977154
 20
62.6211322619
 10
248.2636977154
 20
62.2136422833
 10
248.3281088739
 20
61.7736414677
 10
248.4546032038
 20
61.317032591
 10
248.6386088704
 20
60.8603186875
 10
248.8734754296
 20
60.4200065879
 10
249.1507141918
 20
60.0120103184
 10
249.4603050261
 20
59.6510759275
 10
249.7910585129
 20
59.3502485243
 10
250.1310203594
 20
59.120400795
 10
250.4679034588
 20
58.9698400354
 10
250.7895319782
 20
58.9040079037
 10
251.0842814247
 20
58.9252837446
 10
251.3414987856
 20
59.0328985937
 10
251.5518875551
 20
59.2229629701
 10
251.707843735
 20
59.488607452
 10
251.8037306627
 20
59.8202309556
 10
251.8360827346
 20
60.2058477436
 10
251.8360827346
 20
60.2058477436
  0
LWPOLYLINE
  5
120
330
1F
100
AcDbEntity
  8
0
  6
Continuous
 62
     7
370
    25
100
AcDbPolyline
 90
       28
 70
   128
 43
0.0
 10
251.071989926
 20
60.4457206505
 10
251.0388998887
 20
60.8051586302
 10
250.9414136693
 20
61.1861890018
 10
250.784786775
 20
61.5682703193
 10
250.5774630024
 20
61.93080448
 10
250.3306192295
 20
62.2542471733
 10
250.0575628682
 20
62.5211615201
 10
249.7730144576
 20
62.7171580987
 10
249.4923140761
 20
62.8316706829
 10
249.2305943539
 20
62.8585258697
 10
249.001964669
 20
62.7962758889
 10
248.8187505069
 20
62.6482766532
 10
248.6908289905
 20
62.4225068396
 10
248.6250964019
 20
62.1311377572
 10
248.6250964019
 20
61.7898771887
 10
248.6908289905
 20
61.4171225797
 10
248.8187505069
 20
61.0329692276
 10
249.001964669
 20
60.6581269391
 10
249.2305943539
 20
60.3128035589
 10
249.4923140761
 20
60.0156155599
 10
249.7730144576
 20
59.7825844241
 10
250.0575628682
 20
59.6262729202
 10
250.3306192295
 20
59.5551078419
 10
250.5774630024
 20
59.572925717
 10
250.784786775
 20
59.6787659793
 10
250.9414136693
 20
59.8669227527
 10
251.0388998887
 20
60.127252457
 10
251.071989926
 20
60.4457206505
  0
LWPOLYLINE
  5
121
330
1F
100
AcDbEntity
  8
0
  6
Continuous
 62
     7
370
    25
100
AcDbPolyline
 90
        3
 70
   128
 43
0.0
 10
249.469132685
 20
63.9693405866
 10
249.4033849697
 20
63.9450494738
 10
249.331471141
 20
63.9107566526
  0
ARC
  5
122
330
1F
100
AcDbEntity
  8
0
  6
Continuous
 62
     7
370
    25
100
AcDbCircle
 10
248.3615988001
 20
60.4177593015
 30
0.0
 40
2.616375091796347
100
AcDbArc
 50
20.0475555216
 51
55.4770674151
  0
ARC
  5
123
330
1F
100
AcDbEntity
  8
0
  6
Continuous
 62
     7
370
    25
100
AcDbCircle
 10
249.3844287304
 20
62.0588648672
 30
0.0
 40
0.6901465975961893
100
AcDbArc
 50
48.204562342
 51
140.2224042297
  0
ARC
  5
124
330
1F
100
AcDbEntity
  8
0
  6
Continuous
 62
     7
370
    25
100
AcDbCircle
 10
250.2545205266
 20
61.8224890126
 30
0.0
 40
1.555949846845849
100
AcDbArc
 50
154.1697191524
 51
204.8340355825
  0
LINE
  5
125
330
1F
100
AcDbEntity
  8
0
  6
Continuous
 62
     7
370
    25
100
AcDbLine
 10
248.8715650307
 20
61.0909961707
 30
0.0
 11
248.8424522406
 21
61.1690036788
 31
0.0
  0
ARC
  5
126
330
1F
100
AcDbEntity
  8
0
  6
Continuous
 62
     7
370
    25
100
AcDbCircle
 10
251.3559393911
 20
62.0110593477
 30
0.0
 40
2.649270128202046
100
AcDbArc
 50
200.3216061455
 51
234.1849403601
  0
LINE
  5
127
330
1F
100
AcDbEntity
  8
0
  6
Continuous
 62
     7
370
    25
100
AcDbLine
 10
249.8873727578
 20
59.8123385391
 30
0.0
 11
249.8056637779
 21
59.8627396007
 31
0.0
  0
ARC
  5
128
330
1F
100
AcDbEntity
  8
0
  6
Continuous
 62
     7
370
    25
100
AcDbCircle
 10
250.3133491472
 20
60.3439696664
 30
0.0
 40
0.6812397080817232
100
AcDbArc
 50
231.2960917247
 51
317.1308748471
  0
LINE
  5
129
330
1F
100
AcDbEntity
  8
0
  6
Continuous
 62
     7
370
    25
100
AcDbLine
 10
250.8534906249
 20
59.9399351112
 30
0.0
 11
250.8126362766
 21
59.8805045628
 31
0.0
  0
ARC
  5
12A
330
1F
100
AcDbEntity
  8
0
  6
Continuous
 62
     7
370
    25
100
AcDbCircle
 10
249.3938280027
 20
60.582528747
 30
0.0
 40
1.594848441579472
100
AcDbArc
 50
336.2392567615
 51
24.213293014
  0
LINE
  5
12B
330
1F
100
AcDbEntity
  8
0
  6
Continuous
 62
     7
370
    25
100
AcDbLine
 10
250.8194435919
 20
61.3146526063
 30
0.0
 11
250.8483696313
 21
61.2366313399
 31
0.0
  0
SPLINE
  5
12C
330
1F
100
AcDbEntity
  8
0
  6
Continuous
 62
     7
370
    25
100
AcDbSpline
210
0.0
220
0.0
230
1.0
 70
     8
 71
     3
 72
    12
 73
     8
 74
     0
 42
0.000000001
 43
0.00000001
 40
0.0
 40
0.0
 40
0.0
 40
0.0
 40
0.205858574121368
 40
0.4121026961456774
 40
0.6141937841967343
 40
0.8133180967416351
 40
1.0
 40
1.0
 40
1.0
 40
1.0
 10
250.5997929192671
 20
61.57976369606487
 30
0.0
 10
250.5630840988101
 20
61.60029623726855
 30
0.0
 10
250.4895977067701
 20
61.64139977461151
 30
0.0
 10
250.3672017413269
 20
61.76710288589539
 30
0.0
 10
250.2518650443613
 20
61.92060840821528
 30
0.0
 10
250.1541914717675
 20
62.08592449410817
 30
0.0
 10
250.1144551782914
 20
62.19006379910232
 30
0.0
 10
250.0952277874649
 20
62.24045418387058
 30
0.0
  0
SPLINE
  5
12D
330
1F
100
AcDbEntity
  8
0
  6
Continuous
 62
     7
370
    25
100
AcDbSpline
210
0.0
220
0.0
230
1.0
 70
     8
 71
     3
 72
    11
 73
     7
 74
     0
 42
0.000000001
 43
0.00000001
 40
0.0
 40
0.0
 40
0.0
 40
0.0
 40
0.2524782265335597
 40
0.5068902417933541
 40
0.7591786113116981
 40
0.9999999999999999
 40
0.9999999999999999
 40
0.9999999999999999
 40
0.9999999999999999
 10
250.0952277874649
 20
62.24045418387058
 30
0.0
 10
250.0827632400326
 20
62.27250541494227
 30
0.0
 10
250.0577386763364
 20
62.336853364826
 30
0.0
 10
249.9944813388618
 20
62.4341949807459
 30
0.0
 10
249.9206889935263
 20
62.5188928739632
 30
0.0
 10
249.8694275648796
 20
62.55550758902749
 30
0.0
 10
249.8443928779211
 20
62.57338921960053
 30
0.0
  0
SPLINE
  5
12E
330
1F
100
AcDbEntity
  8
0
  6
Continuous
 62
     7
370
    25
100
AcDbSpline
210
0.0
220
0.0
230
1.0
 70
     8
 71
     3
 72
    11
 73
     7
 74
     0
 42
0.000000001
 43
0.00000001
 40
0.0
 40
0.0
 40
0.0
 40
0.0
 40
0.2423611237744767
 40
0.5166847928456959
 40
0.7923341374632615
 40
1.0
 40
1.0
 40
1.0
 40
1.0
 10
250.819443591916
 20
61.31465260634944
 30
0.0
 10
250.8049866537769
 20
61.34450805329483
 30
0.0
 10
250.7741661988653
 20
61.40815627863746
 30
0.0
 10
250.712987281918
 20
61.49185459275635
 30
0.0
 10
250.6514449875492
 20
61.55235626088081
 30
0.0
 10
250.6153163131517
 20
61.57152672848778
 30
0.0
 10
250.5997929192671
 20
61.57976369606487
 30
0.0
  0
SPLINE
  5
12F
330
1F
100
AcDbEntity
  8
0
  6
Continuous
 62
     7
370
    25
100
AcDbSpline
210
0.0
220
0.0
230
1.0
 70
     8
 71
     3
 72
    11
 73
     7
 74
     0
 42
0.000000001
 43
0.00000001
 40
0.0
 40
0.0
 40
0.0
 40
0.0
 40
0.2657596322624778
 40
0.5530029385954842
 40
0.8418208483437835
 40
1.0
 40
1.0
 40
1.0
 40
1.0
 10
250.8534906249226
 20
59.93993511116597
 30
0.0
 10
250.86040105074
 20
59.96425828186148
 30
0.0
 10
250.8747805324972
 20
60.01487087774775
 30
0.0
 10
250.870651484147
 20
60.11609893580713
 30
0.0
 10
250.8506905853859
 20
60.2095991991939
 30
0.0
 10
250.8300754612305
 20
60.26382568512463
 30
0.0
 10
250.822780373339
 20
60.28301484828126
 30
0.0
  0
SPLINE
  5
130
330
1F
100
AcDbEntity
  8
0
  6
Continuous
 62
     7
370
    25
100
AcDbSpline
210
0.0
220
0.0
230
1.0
 70
     8
 71
     3
 72
    12
 73
     8
 74
     0
 42
0.000000001
 43
0.00000001
 40
0.0
 40
0.0
 40
0.0
 40
0.0
 40
0.2057904614204067
 40
0.412034420336041
 40
0.6141302471427786
 40
0.8132633242112788
 40
0.9999999999999999
 40
0.9999999999999999
 40
0.9999999999999999
 40
0.9999999999999999
 10
250.822780373339
 20
60.28301484828126
 30
0.0
 10
250.8004334518649
 20
60.34534658490285
 30
0.0
 10
250.7556903633255
 20
60.47014741770214
 30
0.0
 10
250.7267070531764
 20
60.65855938960275
 30
0.0
 10
250.7286890504662
 20
60.81668206529965
 30
0.0
 10
250.7597741487034
 20
60.93162889290716
 30
0.0
 10
250.8019772180124
 20
60.96479787747219
 30
0.0
 10
250.8224008475208
 20
60.98084957852183
 30
0.0
  0
SPLINE
  5
131
330
1F
100
AcDbEntity
  8
0
  6
Continuous
 62
     7
370
    25
100
AcDbSpline
210
0.0
220
0.0
230
1.0
 70
     8
 71
     3
 72
    11
 73
     7
 74
     0
 42
0.000000001
 43
0.00000001
 40
0.0
 40
0.0
 40
0.0
 40
0.0
 40
0.2802371411012798
 40
0.5612869875923645
 40
0.8399906057824712
 40
1.0
 40
1.0
 40
1.0
 40
1.0
 10
250.8224008475208
 20
60.98084957852183
 30
0.0
 10
250.8352215905248
 20
60.99139127618191
 30
0.0
 10
250.8609002574966
 20
61.01250524309039
 30
0.0
 10
250.8743925718834
 20
61.08445205979414
 30
0.0
 10
250.8682793918499
 20
61.16347651691962
 30
0.0
 10
250.8536905424738
 20
61.21708061194109
 30
0.0
 10
250.8483696313429
 20
61.2366313399327
 30
0.0
  0
SPLINE
  5
132
330
1F
100
AcDbEntity
  8
0
  6
Continuous
 62
     7
370
    25
100
AcDbSpline
210
0.0
220
0.0
230
1.0
 70
     8
 71
     3
 72
    12
 73
     8
 74
     0
 42
0.000000001
 43
0.00000001
 40
0.0
 40
0.0
 40
0.0
 40
0.0
 40
0.0091681771491221
 40
0.2573268097002366
 40
0.5054934687429649
 40
0.7549925359452884
 40
1.0
 40
1.0
 40
1.0
 40
1.0
 10
249.8443928779211
 20
62.57338921960053
 30
0.0
 10
249.8434572851172
 20
62.57396456724619
 30
0.0
 10
249.817197636388
 20
62.5901130743834
 30
0.0
 10
249.7666157438155
 20
62.61175501602782
 30
0.0
 10
249.7055030532083
 20
62.61075745906733
 30
0.0
 10
249.6623572687964
 20
62.57937837195543
 30
0.0
 10
249.6544376497156
 20
62.53656202709959
 30
0.0
 10
249.6505138071279
 20
62.51534830511588
 30
0.0
  0
ARC
  5
133
330
1F
100
AcDbEntity
  8
0
  6
Continuous
 62
     7
370
    25
100
AcDbCircle
 10
251.2130409541
 20
60.8418674407
 30
0.0
 40
0.5758038982874932
100
AcDbArc
 50
190.9133201199
 51
217.4852126135
  0
ARC
  5
134
330
1F
100
AcDbEntity
  8
0
  6
Continuous
 62
     7
370
    25
100
AcDbCircle
 10
249.8048372248
 20
60.6120265045
 30
0.0
 40
0.8514304083588463
100
AcDbArc
 50
8.1584602082
 51
66.6043528689
  0
LWPOLYLINE
  5
135
330
1F
100
AcDbEntity
  8
0
  6
Continuous
 62
     7
370
    25
100
AcDbPolyline
 90
        9
 70
   128
 43
0.0
 10
250.1429216497
 20
61.3934563873
 10
250.0673645132
 20
61.4287786521
 10
249.9928613586
 20
61.4938186754
 10
249.927691127
 20
61.5813490786
 10
249.8790956661
 20
61.6816433065
 10
249.8524750018
 20
61.7835564618
 10
249.8507872759
 20
61.8757637488
 10
249.8742200321
 20
61.9480189076
 10
249.9201693751
 20
61.992292799
  0
ARC
  5
136
330
1F
100
AcDbEntity
  8
0
  6
Continuous
 62
     7
370
    25
100
AcDbCircle
 10
249.6861194693
 20
62.2716735415
 30
0.0
 40
0.3644625600635463
100
AcDbArc
 50
309.954433786
 51
16.1298173987
  0
SPLINE
  5
137
330
1F
100
AcDbEntity
  8
0
  6
Continuous
 62
     7
370
    25
100
AcDbSpline
210
0.0
220
0.0
230
1.0
 70
     8
 71
     3
 72
    12
 73
     8
 74
     0
 42
0.000000001
 43
0.00000001
 40
0.0
 40
0.0
 40
0.0
 40
0.0
 40
0.2058435564095125
 40
0.4120691620553565
 40
0.6141397217727284
 40
0.8132604579561249
 40
1.0
 40
1.0
 40
1.0
 40
1.0
 10
249.6505138071279
 20
62.51534830511588
 30
0.0
 10
249.6433012978607
 20
62.47737448295442
 30
0.0
 10
249.6288628927832
 20
62.40135635855425
 30
0.0
 10
249.5469337650489
 20
62.34481330256085
 30
0.0
 10
249.4287672983273
 20
62.33974405507324
 30
0.0
 10
249.2878722196692
 20
62.38360067668353
 30
0.0
 10
249.1924891683916
 20
62.44735136565112
 30
0.0
 10
249.1463279325262
 20
62.47820391807626
 30
0.0
  0
SPLINE
  5
138
330
1F
100
AcDbEntity
  8
0
  6
Continuous
 62
     7
370
    25
100
AcDbSpline
210
0.0
220
0.0
230
1.0
 70
     8
 71
     3
 72
    11
 73
     7
 74
     0
 42
0.000000001
 43
0.00000001
 40
0.0
 40
0.0
 40
0.0
 40
0.0
 40
0.2535086227483757
 40
0.5075674742604892
 40
0.7595056251925052
 40
1.0
 40
1.0
 40
1.0
 40
1.0
 10
249.1463279325262
 20
62.47820391807626
 30
0.0
 10
249.1167717084428
 20
62.49763432841242
 30
0.0
 10
249.057595109856
 20
62.53653732189348
 30
0.0
 10
248.9716422429055
 20
62.55716607941603
 30
0.0
 10
248.898742288398
 20
62.54783377023371
 30
0.0
 10
248.8686998862904
 20
62.51598254409853
 30
0.0
 10
248.8540277670965
 20
62.50042703077265
 30
0.0
  0
SPLINE
  5
139
330
1F
100
AcDbEntity
  8
0
  6
Continuous
 62
     7
370
    25
100
AcDbSpline
210
0.0
220
0.0
230
1.0
 70
     8
 71
     3
 72
    11
 73
     7
 74
     0
 42
0.000000001
 43
0.00000001
 40
0.0
 40
0.0
 40
0.0
 40
0.0
 40
0.2928993220618933
 40
0.5864344719079154
 40
0.8775178868033301
 40
1.0
 40
1.0
 40
1.0
 40
1.0
 10
250.6006743208092
 20
59.95899485174328
 30
0.0
 10
250.6218677841601
 20
59.93507868692641
 30
0.0
 10
250.6643007177722
 20
59.88719443992403
 30
0.0
 10
250.7322268909645
 20
59.85663461829364
 30
0.0
 10
250.7820213123288
 20
59.85960678858179
 30
0.0
 10
250.8056410298585
 20
59.87572960746287
 30
0.0
 10
250.8126362766081
 20
59.88050456280394
 30
0.0
  0
SPLINE
  5
13A
330
1F
100
AcDbEntity
  8
0
  6
Continuous
 62
     7
370
    25
100
AcDbSpline
210
0.0
220
0.0
230
1.0
 70
     8
 71
     3
 72
    11
 73
     7
 74
     0
 42
0.000000001
 43
0.00000001
 40
0.0
 40
0.0
 40
0.0
 40
0.0
 40
0.2669010467949573
 40
0.554614341079299
 40
0.8439070439785947
 40
0.9999999999999999
 40
0.9999999999999999
 40
0.9999999999999999
 40
0.9999999999999999
 10
249.8873727577695
 20
59.81233853914343
 30
0.0
 10
249.9112443769808
 20
59.80632886779476
 30
0.0
 10
249.9608490620066
 20
59.79384090660027
 30
0.0
 10
250.0275940673117
 20
59.81838506883555
 30
0.0
 10
250.0730280299908
 20
59.86571725888983
 30
0.0
 10
250.0904001071947
 20
59.90728303402734
 30
0.0
 10
250.0964884462076
 20
59.92185046470361
 30
0.0
  0
SPLINE
  5
13B
330
1F
100
AcDbEntity
  8
0
  6
Continuous
 62
     7
370
    25
100
AcDbSpline
210
0.0
220
0.0
230
1.0
 70
     8
 71
     3
 72
    12
 73
     8
 74
     0
 42
0.000000001
 43
0.00000001
 40
0.0
 40
0.0
 40
0.0
 40
0.0
 40
0.2058401281338024
 40
0.4120619935509899
 40
0.61413873309698
 40
0.8132772113524537
 40
1.0
 40
1.0
 40
1.0
 40
1.0
 10
250.0964884462076
 20
59.92185046470362
 30
0.0
 10
250.1179842444248
 20
59.96751309916235
 30
0.0
 10
250.1610157055237
 20
60.0589230509363
 30
0.0
 10
250.2659091450573
 20
60.12782962196501
 30
0.0
 10
250.382379219306
 20
60.13198602779845
 30
0.0
 10
250.4990189740232
 20
60.0750683088663
 30
0.0
 10
250.5675239568603
 20
59.99684704024185
 30
0.0
 10
250.6006743208092
 20
59.95899485174328
 30
0.0
  0
SPLINE
  5
13C
330
1F
100
AcDbEntity
  8
0
  6
Continuous
 62
     7
370
    25
100
AcDbSpline
210
0.0
220
0.0
230
1.0
 70
     8
 71
     3
 72
    12
 73
     8
 74
     0
 42
0.000000001
 43
0.00000001
 40
0.0
 40
0.0
 40
0.0
 40
0.0
 40
0.0091735205190253
 40
0.2576775215525272
 40
0.5061895192299297
 40
0.7560357430218606
 40
0.9999999999999999
 40
0.9999999999999999
 40
0.9999999999999999
 40
0.9999999999999999
 10
248.8540277670965
 20
62.50042703077266
 30
0.0
 10
248.8535654030225
 20
62.49974074092055
 30
0.0
 10
248.8405779323577
 20
62.48046335795829
 30
0.0
 10
248.8242746274817
 20
62.43258423540583
 30
0.0
 10
248.8297893468249
 20
62.34369978030063
 30
0.0
 10
248.8624382017936
 20
62.24575387130894
 30
0.0
 10
248.903791372376
 20
62.18446381325693
 30
0.0
 10
248.9242216708967
 20
62.15418380897373
 30
0.0
  0
SPLINE
  5
13D
330
1F
100
AcDbEntity
  8
0
  6
Continuous
 62
     7
370
    25
100
AcDbSpline
210
0.0
220
0.0
230
1.0
 70
     8
 71
     3
 72
    12
 73
     8
 74
     0
 42
0.000000001
 43
0.00000001
 40
0.0
 40
0.0
 40
0.0
 40
0.0
 40
0.2057532787804239
 40
0.4119604088044573
 40
0.6140154573248893
 40
0.8131414684040776
 40
1.0
 40
1.0
 40
1.0
 40
1.0
 10
248.9242216708967
 20
62.15418380897373
 30
0.0
 10
248.9608436689132
 20
62.09954731790867
 30
0.0
 10
249.0341684458673
 20
61.99015381843098
 30
0.0
 10
249.0861252387683
 20
61.81413113726847
 30
0.0
 10
249.0824693798335
 20
61.65511177728646
 30
0.0
 10
249.0271487705193
 20
61.527076852137
 30
0.0
 10
248.9580515188681
 20
61.4794200254892
 30
0.0
 10
248.9246009280974
 20
61.45634893412835
 30
0.0
  0
SPLINE
  5
13E
330
1F
100
AcDbEntity
  8
0
  6
Continuous
 62
     7
370
    25
100
AcDbSpline
210
0.0
220
0.0
230
1.0
 70
     8
 71
     3
 72
    11
 73
     7
 74
     0
 42
0.000000001
 43
0.00000001
 40
0.0
 40
0.0
 40
0.0
 40
0.0
 40
0.279406906455516
 40
0.559624025715601
 40
0.8375007392219137
 40
1.0
 40
1.0
 40
1.0
 40
1.0
 10
248.9246009280974
 20
61.45634893412835
 30
0.0
 10
248.9034321765355
 20
61.4413126881632
 30
0.0
 10
248.8610332891252
 20
61.41119659473723
 30
0.0
 10
248.8293776469105
 20
61.32946135305345
 30
0.0
 10
248.8253246626245
 20
61.24461516871603
 30
0.0
 10
248.8378356655506
 20
61.18938403363506
 30
0.0
 10
248.8424522405814
 20
61.16900367878675
 30
0.0
  0
LINE
  5
13F
330
1F
100
AcDbEntity
  8
0
  6
Continuous
 62
     7
370
    25
100
AcDbLine
 10
249.9201693751
 20
61.992292799
 30
0.0
 11
248.9246009281
 21
61.4563489341
 31
0.0
  0
SPLINE
  5
140
330
1F
100
AcDbEntity
  8
0
  6
Continuous
 62
     7
370
    25
100
AcDbSpline
210
0.0
220
0.0
230
1.0
 70
     8
 71
     3
 72
    11
 73
     7
 74
     0
 42
0.000000001
 43
0.00000001
 40
0.0
 40
0.0
 40
0.0
 40
0.0
 40
0.2431090893443932
 40
0.5182793655622985
 40
0.7947794085752138
 40
1.0
 40
1.0
 40
1.0
 40
1.0
 10
248.8715650307297
 20
61.09099617067113
 30
0.0
 10
248.8875332484631
 20
61.0619502401096
 30
0.0
 10
248.9215755698684
 20
61.00002780642274
 30
0.0
 10
248.9961418263038
 20
60.92369787145608
 30
0.0
 10
249.0753958408758
 20
60.87339719184043
 30
0.0
 10
249.1257550420318
 20
60.86220350416306
 30
0.0
 10
249.1472088563509
 20
60.85743481658534
 30
0.0
  0
SPLINE
  5
141
330
1F
100
AcDbEntity
  8
0
  6
Continuous
 62
     7
370
    25
100
AcDbSpline
210
0.0
220
0.0
230
1.0
 70
     8
 71
     3
 72
    12
 73
     8
 74
     0
 42
0.000000001
 43
0.00000001
 40
0.0
 40
0.0
 40
0.0
 40
0.0
 40
0.2058179564999088
 40
0.4120215045907075
 40
0.6140779969168123
 40
0.8132130006453483
 40
1.0
 40
1.0
 40
1.0
 40
1.0
 10
249.1472088563509
 20
60.85743481658534
 30
0.0
 10
249.1981940438359
 20
60.84459481057551
 30
0.0
 10
249.300259937486
 20
60.81889074332555
 30
0.0
 10
249.4456040112235
 20
60.70557859173131
 30
0.0
 10
249.5592372478532
 20
60.55118982170087
 30
0.0
 10
249.6326777070662
 20
60.37280613664397
 30
0.0
 10
249.6455459851666
 20
60.25416635717121
 30
0.0
 10
249.6517742567708
 20
60.1967444733844
 30
0.0
  0
SPLINE
  5
142
330
1F
100
AcDbEntity
  8
0
  6
Continuous
 62
     7
370
    25
100
AcDbSpline
210
0.0
220
0.0
230
1.0
 70
     8
 71
     3
 72
    11
 73
     7
 74
     0
 42
0.000000001
 43
0.00000001
 40
0.0
 40
0.0
 40
0.0
 40
0.0
 40
0.2908641666076228
 40
0.583956078989202
 40
0.8745988053617267
 40
1.0
 40
1.0
 40
1.0
 40
1.0
 10
249.6517742567709
 20
60.19674447338437
 30
0.0
 10
249.6559288397506
 20
60.16023050738693
 30
0.0
 10
249.6642698259056
 20
60.08692291277706
 30
0.0
 10
249.7093847324927
 20
59.97961647220877
 30
0.0
 10
249.7604659143731
 20
59.90524180871216
 30
0.0
 10
249.795195743552
 20
59.87258330878623
 30
0.0
 10
249.8056637779317
 20
59.86273960070883
 30
0.0
  0
LINE
  5
143
330
1F
100
AcDbEntity
  8
0
  6
Continuous
 62
     7
370
    25
100
AcDbLine
 10
252.4418786404
 20
63.4235442121
 30
0.0
 11
252.541634647
 21
63.2230223537
 31
0.0
  0
LINE
  5
144
330
1F
100
AcDbEntity
  8
0
  6
Continuous
 62
     7
370
    25
100
AcDbLine
 10
253.5908570062
 20
55.4491666371
 30
0.0
 11
252.541634647
 21
63.2230223537
 31
0.0
  0
LINE
  5
145
330
1F
100
AcDbEntity
  8
0
  6
Continuous
 62
     7
370
    25
100
AcDbLine
 10
253.4911009998
 20
55.6496884957
 30
0.0
 11
253.5908570062
 21
55.4491666371
 31
0.0
  0
LINE
  5
146
330
1F
100
AcDbEntity
  8
0
  6
Continuous
 62
     7
370
    25
100
AcDbLine
 10
253.3767468339
 20
56.102684208
 30
0.0
 11
253.4911009998
 21
55.6496884957
 31
0.0
  0
LINE
  5
147
330
1F
100
AcDbEntity
  8
0
  6
Continuous
 62
     7
370
    25
100
AcDbLine
 10
253.3767468339
 20
56.102684208
 30
0.0
 11
253.3633972902
 21
56.201593105
 31
0.0
  0
LINE
  5
148
330
1F
100
AcDbEntity
  8
0
  6
Continuous
 62
     7
370
    25
100
AcDbLine
 10
252.4194296942
 20
63.3883837134
 30
0.0
 11
252.4418786404
 21
63.4235442121
 31
0.0
  0
LINE
  5
149
330
1F
100
AcDbEntity
  8
0
  6
Continuous
 62
     7
370
    25
100
AcDbLine
 10
254.6555389009
 20
64.6152228346
 30
0.0
 11
253.7676866027
 21
64.0304903926
 31
0.0
  0
LINE
  5
14A
330
1F
100
AcDbEntity
  8
0
  6
Continuous
 62
     7
370
    25
100
AcDbLine
 10
252.6714120498
 20
63.308492716
 30
0.0
 11
252.541634647
 21
63.2230223537
 31
0.0
  0
LINE
  5
14B
330
1F
100
AcDbEntity
  8
0
  6
Continuous
 62
     7
370
    25
100
AcDbLine
 10
255.126406703
 20
64.8552189292
 30
0.0
 11
254.6555389009
 21
64.6152228346
 31
0.0
  0
LINE
  5
14C
330
1F
100
AcDbEntity
  8
0
  6
Continuous
 62
     7
370
    25
100
AcDbLine
 10
255.1658133413
 20
64.5632488645
 30
0.0
 11
255.126406703
 21
64.8552189292
 31
0.0
  0
LINE
  5
14D
330
1F
100
AcDbEntity
  8
0
  6
Continuous
 62
     7
370
    25
100
AcDbLine
 10
254.1079363149
 20
55.7897109455
 30
0.0
 11
253.5908570062
 21
55.4491666371
 31
0.0
  0
LINE
  5
14E
330
1F
100
AcDbEntity
  8
0
  6
Continuous
 62
     7
370
    25
100
AcDbLine
 10
252.4418786404
 20
63.4235442121
 30
0.0
 11
252.2729797378
 21
63.659237275
 31
0.0
  0
ARC
  5
14F
330
1F
100
AcDbEntity
  8
0
  6
Continuous
 62
     7
370
    25
100
AcDbCircle
 10
251.9041875941
 20
63.1312698271
 30
0.0
 40
0.6440165147786856
100
AcDbArc
 50
8.1907543077
 51
55.0651988794
  0
LINE
  5
150
330
1F
100
AcDbEntity
  8
0
  6
Continuous
 62
     7
370
    25
100
AcDbLine
 10
254.6555389009
 20
64.6152228346
 30
0.0
 11
252.2729797378
 21
63.659237275
 31
0.0
  0
SPLINE
  5
151
330
1F
100
AcDbEntity
  8
0
  6
Continuous
 62
     7
370
    25
100
AcDbSpline
210
0.0
220
0.0
230
1.0
 70
     8
 71
     3
 72
    11
 73
     7
 74
     0
 42
0.000000001
 43
0.00000001
 40
0.0
 40
0.0
 40
0.0
 40
0.0
 40
0.3360297136121982
 40
0.6712269697199678
 40
0.9920227009419657
 40
0.9999999999999999
 40
0.9999999999999999
 40
0.9999999999999999
 40
0.9999999999999999
 10
252.4194296942309
 20
63.38838371340305
 30
0.0
 10
252.4038423072712
 20
63.37087110315798
 30
0.0
 10
252.3727061485003
 20
63.33588926723541
 30
0.0
 10
252.2473873107118
 20
63.23983853889098
 30
0.0
 10
252.1388137363885
 20
63.16377442276763
 30
0.0
 10
252.080278387055
 20
63.12420881805492
 30
0.0
 10
252.0788580941962
 20
63.12324880420908
 30
0.0
  0
LINE
  5
152
330
1F
100
AcDbEntity
  8
0
  6
Continuous
 62
     7
370
    25
100
AcDbLine
 10
246.761287209
 20
66.8442046623
 30
0.0
 11
246.3996478869
 21
67.1640794801
 31
0.0
  0
LINE
  5
153
330
1F
100
AcDbEntity
  8
0
  6
Continuous
 62
     7
370
    25
100
AcDbLine
 10
246.3996478869
 20
67.1640794801
 30
0.0
 11
246.2307489843
 21
67.399772543
 31
0.0
  0
LINE
  5
154
330
1F
100
AcDbEntity
  8
0
  6
Continuous
 62
     7
370
    25
100
AcDbLine
 10
252.2729797378
 20
63.659237275
 30
0.0
 11
246.2307489843
 21
67.399772543
 31
0.0
  0
LINE
  5
155
330
1F
100
AcDbEntity
  8
0
  6
Continuous
 62
     7
370
    25
100
AcDbLine
 10
246.838164167
 20
66.7966128069
 30
0.0
 11
246.761287209
 21
66.8442046623
 31
0.0
  0
LINE
  5
156
330
1F
100
AcDbEntity
  8
0
  6
Continuous
 62
     7
370
    25
100
AcDbLine
 10
248.6133081474
 20
68.3557581025
 30
0.0
 11
246.2307489843
 21
67.399772543
 31
0.0
  0
LINE
  5
157
330
1F
100
AcDbEntity
  8
0
  6
Continuous
 62
     7
370
    25
100
AcDbLine
 10
249.2053040914
 20
68.5207679702
 30
0.0
 11
248.6133081474
 21
68.3557581025
 31
0.0
  0
LINE
  5
158
330
1F
100
AcDbEntity
  8
0
  6
Continuous
 62
     7
370
    25
100
AcDbLine
 10
255.126406703
 20
64.8552189292
 30
0.0
 11
249.2053040914
 21
68.5207679702
 31
0.0
  0
LINE
  5
159
330
1F
100
AcDbEntity
  8
0
  6
Continuous
 62
     7
370
    25
100
AcDbLine
 10
247.0221049041
 20
64.9716909594
 30
0.0
 11
247.6384103015
 21
60.4053860257
 31
0.0
  0
LWPOLYLINE
  5
15A
330
1F
100
AcDbEntity
  8
0
  6
Continuous
 62
     7
370
    25
100
AcDbPolyline
 90
        9
 70
   128
 43
0.0
 10
247.6937421767
 20
65.5142352797
 10
247.5461307149
 20
65.5862611329
 10
247.4055172152
 20
65.6161618303
 10
247.2785678804
 20
65.60251984
 10
247.1713011227
 20
65.5459819014
 10
247.0888022431
 20
65.4492283642
 10
247.0349823472
 20
65.3168461188
 10
247.0123929279
 20
65.1551111407
 10
247.0221049041
 20
64.9716909594
  0
LINE
  5
15B
330
1F
100
AcDbEntity
  8
0
  6
Continuous
 62
     7
370
    25
100
AcDbLine
 10
251.2429035075
 20
63.3170727298
 30
0.0
 11
247.6937421767
 21
65.5142352797
 31
0.0
  0
ARC
  5
15C
330
1F
100
AcDbEntity
  8
0
  6
Continuous
 62
     7
370
    25
100
AcDbCircle
 10
250.3209231457
 20
61.9971541089
 30
0.0
 40
1.610041289320857
100
AcDbArc
 50
8.1907543289
 51
55.0651988266
  0
LINE
  5
15D
330
1F
100
AcDbEntity
  8
0
  6
Continuous
 62
     7
370
    25
100
AcDbLine
 10
252.5308461774
 20
57.6602304925
 30
0.0
 11
251.9145407801
 21
62.2265354263
 31
0.0
  0
LWPOLYLINE
  5
15E
330
1F
100
AcDbEntity
  8
0
  6
Continuous
 62
     7
370
    25
100
AcDbPolyline
 90
        9
 70
   128
 43
0.0
 10
251.859208905
 20
57.1176861721
 10
252.0068203668
 20
57.0456603189
 10
252.1474338665
 20
57.0157596215
 10
252.2743832014
 20
57.0294016117
 10
252.3816499591
 20
57.0859395504
 10
252.4641488387
 20
57.1826930876
 10
252.5179687346
 20
57.3150753331
 10
252.5405581538
 20
57.4768103112
 10
252.5308461774
 20
57.6602304925
  0
LINE
  5
15F
330
1F
100
AcDbEntity
  8
0
  6
Continuous
 62
     7
370
    25
100
AcDbLine
 10
248.310047574
 20
59.3148487222
 30
0.0
 11
251.859208905
 21
57.1176861721
 31
0.0
  0
ARC
  5
160
330
1F
100
AcDbEntity
  8
0
  6
Continuous
 62
     7
370
    25
100
AcDbCircle
 10
249.2320279359
 20
60.6347673431
 30
0.0
 40
1.610041289320952
100
AcDbArc
 50
188.1907543289
 51
235.0651988266
  0
LWPOLYLINE
  5
161
330
1F
100
AcDbEntity
  8
0
  6
Continuous
 62
     7
370
    25
100
AcDbPolyline
 90
       36
 70
   128
 43
0.0
 10
249.7764755409
 20
58.8255112498
 10
250.1478908447
 20
58.6356034788
 10
250.507368555
 20
58.5318445951
 10
250.8433547624
 20
58.5175694946
 10
251.1450505939
 20
58.5932369908
 10
251.402759297
 20
58.7564150682
 10
251.6081979022
 20
59.0018590489
 10
251.7547634435
 20
59.3216801617
 10
251.8377451838
 20
59.7055990927
 10
251.8544760218
 20
60.1412763716
 10
251.8044182146
 20
60.6147089721
 10
251.6891806613
 20
61.1106803811
 10
251.5124671916
 20
61.6132496692
 10
251.2799575219
 20
62.1062638461
 10
250.9991247042
 20
62.5738770304
 10
250.6789949364
 20
63.0010597497
 10
250.3298574527
 20
63.3740819999
 10
249.962933819
 20
63.6809545389
 10
249.5900172628
 20
63.9118142309
 10
249.2230936291
 20
64.0592410553
 10
248.8739561454
 20
64.1184965928
 10
248.5538263776
 20
64.0876763215
 10
248.2729935599
 20
63.9677708305
 10
248.0404838902
 20
63.7626339808
 10
247.8637704205
 20
63.4788590395
 10
247.7485328672
 20
63.1255667668
 10
247.69847506
 20
62.7141122671
 10
247.715205898
 20
62.2577200263
 10
247.7981876384
 20
61.7710588668
 10
247.9447531797
 20
61.2697704786
 10
248.1501917848
 20
60.769966683
 10
248.407900488
 20
60.2877115851
 10
248.7095963194
 20
59.8385052607
 10
249.0455825268
 20
59.4367855706
 10
249.4050602371
 20
59.0954641162
 10
249.7764755409
 20
58.8255112498
  0
SPLINE
  5
162
330
1F
100
AcDbEntity
  8
0
  6
Continuous
 62
     7
370
    25
100
AcDbSpline
210
0.0
220
0.0
230
1.0
 70
     8
 71
     3
 72
     9
 73
     5
 74
     0
 42
0.000000001
 43
0.00000001
 40
0.0
 40
0.0
 40
0.0
 40
0.0
 40
0.0433040437556217
 40
1.0
 40
1.0
 40
1.0
 40
1.0
 10
252.9464871590515
 20
56.71465074199503
 30
0.0
 10
252.9479515084982
 20
56.71368562790006
 30
0.0
 10
252.9817670444095
 20
56.69139870013862
 30
0.0
 10
253.013936491727
 20
56.66605443800898
 30
0.0
 10
253.0447128718904
 20
56.64180768491554
 30
0.0
  0
SPLINE
  5
163
330
1F
100
AcDbEntity
  8
0
  6
Continuous
 62
     7
370
    25
100
AcDbSpline
210
0.0
220
0.0
230
1.0
 70
     8
 71
     3
 72
    14
 73
    10
 74
     0
 42
0.000000001
 43
0.00000001
 40
0.0
 40
0.0
 40
0.0
 40
0.0
 40
0.3240421732223164
 40
0.4390834530314696
 40
0.5550339035678796
 40
0.6320175773806417
 40
0.7091777148392667
 40
0.8120429782633835
 40
1.0
 40
1.0
 40
1.0
 40
1.0
 10
253.3633972902356
 20
56.20159310503185
 30
0.0
 10
253.3517303877389
 20
56.27217476936977
 30
0.0
 10
253.3359215077297
 20
56.36781429860148
 30
0.0
 10
253.2899664000754
 20
56.49240313731296
 30
0.0
 10
253.2542174827253
 20
56.55982390440828
 30
0.0
 10
253.2130481014151
 20
56.60894913623103
 30
0.0
 10
253.16974007371
 20
56.63991303338141
 30
0.0
 10
253.1098469513137
 20
56.65693756594613
 30
0.0
 10
253.070282915135
 20
56.64774730539781
 30
0.0
 10
253.0447128718904
 20
56.64180768491554
 30
0.0
  0
SPLINE
  5
164
330
1F
100
AcDbEntity
  8
0
  6
Continuous
 62
     7
370
    25
100
AcDbSpline
210
0.0
220
0.0
230
1.0
 70
     8
 71
     3
 72
    14
 73
    10
 74
     0
 42
0.000000001
 43
0.00000001
 40
0.0
 40
0.0
 40
0.0
 40
0.0
 40
0.121502661328624
 40
0.2571357003598755
 40
0.3367055246605339
 40
0.4166989189548662
 40
0.5090573836378735
 40
0.6599898335543612
 40
0.9999999999999999
 40
0.9999999999999999
 40
0.9999999999999999
 40
0.9999999999999999
 10
247.0933211709728
 20
66.30508118540077
 30
0.0
 10
247.1021044617688
 20
66.32132368700013
 30
0.0
 10
247.1206925124796
 20
66.35569764209443
 30
0.0
 10
247.1340302054319
 20
66.41367489740941
 30
0.0
 10
247.1286339353453
 20
66.47622470973738
 30
0.0
 10
247.1088361485981
 20
66.5338680349131
 30
0.0
 10
247.0677522872358
 20
66.6021771044714
 30
0.0
 10
246.9769107322964
 20
66.70345092354286
 30
0.0
 10
246.8949366379795
 20
66.75849272577977
 30
0.0
 10
246.8381641669737
 20
66.79661280685711
 30
0.0
  0
SPLINE
  5
165
330
1F
100
AcDbEntity
  8
0
  6
Continuous
 62
     7
370
    25
100
AcDbSpline
210
0.0
220
0.0
230
1.0
 70
     8
 71
     3
 72
     9
 73
     5
 74
     0
 42
0.000000001
 43
0.00000001
 40
0.0
 40
0.0
 40
0.0
 40
0.0
 40
0.9566959562428804
 40
1.0
 40
1.0
 40
1.0
 40
1.0
 10
247.0933211709728
 20
66.30508118540077
 30
0.0
 10
247.1003006033597
 20
66.26802383329662
 30
0.0
 10
247.1075959539266
 20
66.229289111087
 30
0.0
 10
247.1112367358857
 20
66.19075822310134
 30
0.0
 10
247.1113943964669
 20
66.189089679842
 30
0.0
  0
LWPOLYLINE
  5
166
330
1F
100
AcDbEntity
  8
0
  6
Continuous
 62
     7
370
    25
100
AcDbPolyline
 90
        9
 70
   128
 43
0.0
 10
253.3222020972
 20
55.232148909
 10
253.3812466819
 20
55.2033385678
 10
253.4374920818
 20
55.1913782888
 10
253.4882718158
 20
55.1968350849
 10
253.5311785189
 20
55.2194502604
 10
253.5641780707
 20
55.2581516753
 10
253.5857060291
 20
55.3111045735
 10
253.5947417969
 20
55.3757985647
 10
253.5908570062
 20
55.4491666371
  0
LINE
  5
167
330
1F
100
AcDbEntity
  8
0
  6
Continuous
 62
     7
370
    25
100
AcDbLine
 10
253.4911009998
 20
55.6496884957
 30
0.0
 11
253.3222020972
 21
55.232148909
 31
0.0
  0
SPLINE
  5
168
330
1F
100
AcDbEntity
  8
0
  6
Continuous
 62
     7
370
    25
100
AcDbSpline
210
0.0
220
0.0
230
1.0
 70
     8
 71
     3
 72
    14
 73
    10
 74
     0
 42
0.000000001
 43
0.00000001
 40
0.0
 40
0.0
 40
0.0
 40
0.0
 40
0.1215026613260214
 40
0.2571357003576288
 40
0.3367055246585109
 40
0.4166989189531005
 40
0.5090573836363348
 40
0.6599898335533462
 40
1.0
 40
1.0
 40
1.0
 40
1.0
 10
253.0447128718904
 20
56.64180768491554
 30
0.0
 10
253.0359295810945
 20
56.62556518331684
 30
0.0
 10
253.0173415303834
 20
56.59119122822347
 30
0.0
 10
253.0040038374314
 20
56.53321397290878
 30
0.0
 10
253.009400107518
 20
56.47066416058084
 30
0.0
 10
253.0291978942651
 20
56.4130208354051
 30
0.0
 10
253.0702817556275
 20
56.34471176584682
 30
0.0
 10
253.1611233105668
 20
56.24343794677536
 30
0.0
 10
253.2430974048838
 20
56.18839614453841
 30
0.0
 10
253.2998698758896
 20
56.15027606346107
 30
0.0
  0
LINE
  5
169
330
1F
100
AcDbEntity
  8
0
  6
Continuous
 62
     7
370
    25
100
AcDbLine
 10
247.2799713437
 20
58.972684177
 30
0.0
 11
253.3222020972
 21
55.232148909
 31
0.0
  0
LINE
  5
16A
330
1F
100
AcDbEntity
  8
0
  6
Continuous
 62
     7
370
    25
100
AcDbLine
 10
247.4488702463
 20
59.3902237636
 30
0.0
 11
247.2799713437
 21
58.972684177
 31
0.0
  0
LINE
  5
16B
330
1F
100
AcDbEntity
  8
0
  6
Continuous
 62
     7
370
    25
100
AcDbLine
 10
247.5976913502
 20
59.4934141229
 30
0.0
 11
247.4488702463
 21
59.3902237636
 31
0.0
  0
LINE
  5
16C
330
1F
100
AcDbEntity
  8
0
  6
Continuous
 62
     7
370
    25
100
AcDbLine
 10
253.2998698759
 20
56.1502760635
 30
0.0
 11
253.3767468339
 21
56.102684208
 31
0.0
  0
LINE
  5
16D
330
1F
100
AcDbEntity
  8
0
  6
Continuous
 62
     7
370
    25
100
AcDbLine
 10
247.4488702463
 20
59.3902237636
 30
0.0
 11
247.0113164347
 21
59.4088990984
 31
0.0
  0
LINE
  5
16E
330
1F
100
AcDbEntity
  8
0
  6
Continuous
 62
     7
370
    25
100
AcDbLine
 10
245.9620940753
 20
67.1827548148
 30
0.0
 11
247.0113164347
 21
59.4088990984
 31
0.0
  0
LINE
  5
16F
330
1F
100
AcDbEntity
  8
0
  6
Continuous
 62
     7
370
    25
100
AcDbLine
 10
246.3996478869
 20
67.1640794801
 30
0.0
 11
245.9620940753
 21
67.1827548148
 31
0.0
  0
LINE
  5
170
330
1F
100
AcDbEntity
  8
0
  6
Continuous
 62
     7
370
    25
100
AcDbLine
 10
246.761287209
 20
66.8442046623
 30
0.0
 11
246.7746367526
 21
66.7452957653
 31
0.0
  0
SPLINE
  5
171
330
1F
100
AcDbEntity
  8
0
  6
Continuous
 62
     7
370
    25
100
AcDbSpline
210
0.0
220
0.0
230
1.0
 70
     8
 71
     3
 72
    14
 73
    10
 74
     0
 42
0.000000001
 43
0.00000001
 40
0.0
 40
0.0
 40
0.0
 40
0.0
 40
0.3240421732228776
 40
0.4390834530322191
 40
0.5550339035688693
 40
0.632017577381774
 40
0.7091777148405491
 40
0.8120429782648245
 40
1.0
 40
1.0
 40
1.0
 40
1.0
 10
246.7746367526277
 20
66.74529576528637
 30
0.0
 10
246.7863036551244
 20
66.67471410094844
 30
0.0
 10
246.8021125351336
 20
66.57907457171675
 30
0.0
 10
246.8480676427878
 20
66.45448573300524
 30
0.0
 10
246.8838165601379
 20
66.38706496590994
 30
0.0
 10
246.9249859414482
 20
66.33793973408717
 30
0.0
 10
246.9682939691533
 20
66.30697583693674
 30
0.0
 10
247.0281870915491
 20
66.28995130437244
 30
0.0
 10
247.0677511277282
 20
66.29914156491938
 30
0.0
 10
247.0933211709728
 20
66.30508118540077
 30
0.0
  0
LWPOLYLINE
  5
172
330
1F
100
AcDbEntity
  8
0
  6
Continuous
 62
     7
370
    25
100
AcDbPolyline
 90
        9
 70
   128
 43
0.0
 10
246.2307489843
 20
67.399772543
 10
246.1717043996
 20
67.4285828842
 10
246.1154589998
 20
67.4405431632
 10
246.0646792659
 20
67.4350863671
 10
246.0217725628
 20
67.4124711917
 10
245.988773011
 20
67.3737697768
 10
245.9672450526
 20
67.3208168786
 10
245.958209285
 20
67.2561228874
 10
245.9620940753
 20
67.1827548148
  0
SPLINE
  5
173
330
1F
100
AcDbEntity
  8
0
  6
Continuous
 62
     7
370
    25
100
AcDbSpline
210
0.0
220
0.0
230
1.0
 70
     8
 71
     3
 72
    11
 73
     7
 74
     0
 42
0.000000001
 43
0.00000001
 40
0.0
 40
0.0
 40
0.0
 40
0.0
 40
0.0079772990479782
 40
0.3287730302731887
 40
0.6639702863843853
 40
1.0
 40
1.0
 40
1.0
 40
1.0
 10
247.8642147692284
 20
59.71868671175697
 30
0.0
 10
247.8641845663056
 20
59.71847502433082
 30
0.0
 10
247.8629397958156
 20
59.7097506282481
 30
0.0
 10
247.8407667875598
 20
59.68019848579686
 30
0.0
 10
247.7539022855453
 20
59.60484886078684
 30
0.0
 10
247.6498046960403
 20
59.53058973430196
 30
0.0
 10
247.5976913502317
 20
59.49341412287471
 30
0.0
  0
ARC
  5
174
330
1F
100
AcDbEntity
  8
0
  6
Continuous
 62
     7
370
    25
100
AcDbCircle
 10
247.6487634889
 20
59.5006516256
 30
0.0
 40
0.6440165162321158
100
AcDbArc
 50
188.1907543483
 51
235.0651988072
  0
ELLIPSE
  5
175
330
1F
100
AcDbEntity
  8
0
  6
Continuous
 62
     7
370
    25
100
AcDbEllipse
 10
263.1203239332
 20
36.0226938407
 30
0.0
 11
9.968188909591049
 21
13.32390553892026
 31
0.0
210
0.0
220
0.0
230
1.0
 40
0.4807028563
 41
4.790870688667253
 42
9.460724361446323
  0
LINE
  5
176
330
1F
100
AcDbEntity
  8
0
  6
Continuous
 62
     7
370
    25
100
AcDbLine
 10
251.262071341
 20
23.7628958039
 30
0.0
 11
253.388755843
 21
22.5351869734
 31
0.0
  0
ELLIPSE
  5
177
330
1F
100
AcDbEntity
  8
0
  6
Continuous
 62
     7
370
    25
100
AcDbEllipse
 10
266.3244350937
 20
35.0609741008
 30
0.0
 11
6.023074869843526
 21
8.050698210827951
 31
0.0
210
0.0
220
0.0
230
1.0
 40
0.4807028563
 41
4.479349670269505
 42
4.727830022166321
  0
ELLIPSE
  5
178
330
1F
100
AcDbEntity
  8
0
  6
Continuous
 62
     7
370
    25
100
AcDbEllipse
 10
263.736294848
 20
40.1580758659
 30
0.0
 11
12.58822647797303
 21
16.82595926063041
 31
0.0
210
0.0
220
0.0
230
1.0
 40
0.4807028563
 41
4.225782200580759
 42
4.479349670269507
  0
LINE
  5
179
330
1F
100
AcDbEntity
  8
0
  6
Continuous
 62
     7
370
    25
100
AcDbLine
 10
265.089778418
 20
27.549684103
 30
0.0
 11
264.9991086133
 21
26.9409633473
 31
0.0
  0
SPLINE
  5
17A
330
1F
100
AcDbEntity
  8
0
  6
Continuous
 62
     7
370
    25
100
AcDbSpline
210
0.0
220
0.0
230
1.0
 70
     8
 71
     3
 72
    12
 73
     8
 74
     0
 42
0.000000001
 43
0.00000001
 40
0.0
 40
0.0
 40
0.0
 40
0.0
 40
0.5000000000000003
 40
0.5000000000000003
 40
0.7500000000000001
 40
0.7500000000000001
 40
1.0
 40
1.0
 40
1.0
 40
1.0
 10
267.2650220650562
 20
29.64506326929182
 30
0.0
 10
266.9191303839405
 20
29.25624057288632
 30
0.0
 10
266.5629414765505
 20
28.88565344593536
 30
0.0
 10
266.017819111502
 20
28.35820619760922
 30
0.0
 10
265.8339945461126
 20
28.18691709719349
 30
0.0
 10
265.4640267985994
 20
27.85691973839116
 30
0.0
 10
265.277513511847
 20
27.6964240845946
 30
0.0
 10
265.0897784179951
 20
27.549684102962
 30
0.0
  0
ELLIPSE
  5
17B
330
1F
100
AcDbEntity
  8
0
  6
Continuous
 62
     7
370
    25
100
AcDbEllipse
 10
263.1203239332
 20
36.0226938407
 30
0.0
 11
9.034612304765348
 21
12.07604731624192
 31
0.0
210
0.0
220
0.0
230
1.0
 40
0.4807028563
 41
4.537527216729274
 42
9.714067833384298
  0
SPLINE
  5
17C
330
1F
100
AcDbEntity
  8
0
  6
Continuous
 62
     7
370
    25
100
AcDbSpline
210
0.0
220
0.0
230
1.0
 70
     8
 71
     3
 72
    12
 73
     8
 74
     0
 42
0.000000001
 43
0.00000001
 40
0.0
 40
0.0
 40
0.0
 40
0.0
 40
0.2499999999999998
 40
0.2499999999999998
 40
0.4999999999999997
 40
0.4999999999999997
 40
1.0
 40
1.0
 40
1.0
 40
1.0
 10
258.0187106061293
 20
23.46764354385379
 30
0.0
 10
257.8433474556136
 20
23.40480018135321
 30
0.0
 10
257.674032264146
 20
23.35990685550869
 30
0.0
 10
257.3424616370091
 20
23.28475093953147
 30
0.0
 10
257.1803378924145
 20
23.25611165729636
 30
0.0
 10
256.7037393198719
 20
23.19405097420412
 30
0.0
 10
256.401388248837
 20
23.18446733875393
 30
0.0
 10
256.1171289786125
 20
23.20952157484457
 30
0.0
  0
LINE
  5
17D
330
1F
100
AcDbEntity
  8
0
  6
Continuous
 62
     7
370
    25
100
AcDbLine
 10
257.9280408014
 20
22.8589227882
 30
0.0
 11
258.0187106061
 21
23.4676435439
 31
0.0
  0
ELLIPSE
  5
17E
330
1F
100
AcDbEntity
  8
0
  6
Continuous
 62
     7
370
    25
100
AcDbEllipse
 10
263.736294848
 20
40.1580758659
 30
0.0
 11
12.58822647797303
 21
16.82595926063041
 31
0.0
210
0.0
220
0.0
230
1.0
 40
0.4807028563
 41
3.489060072664485
 42
3.742627542353234
  0
ELLIPSE
  5
17F
330
1F
100
AcDbEntity
  8
0
  6
Continuous
 62
     7
370
    25
100
AcDbEllipse
 10
258.9998924036
 20
30.8326056091
 30
0.0
 11
6.023074869843526
 21
8.050698210827946
 31
0.0
210
0.0
220
0.0
230
1.0
 40
0.4807028563
 41
3.240579720767671
 42
3.48906007266448
  0
ARC
  5
180
330
1F
100
AcDbEntity
  8
0
  6
Continuous
 62
     7
370
    25
100
AcDbCircle
 10
265.77671453
 20
44.6726749824
 30
0.0
 40
6.242846386649535
100
AcDbArc
 50
25.6575913675
 51
41.3036433328
  0
ARC
  5
181
330
1F
100
AcDbEntity
  8
0
  6
Continuous
 62
     7
370
    25
100
AcDbCircle
 10
256.7947511027
 20
28.4158307852
 30
0.0
 40
5.250221646477455
100
AcDbArc
 50
241.9260054911
 51
262.584409454
  0
SPLINE
  5
182
330
1F
100
AcDbEntity
  8
0
  6
Continuous
 62
     7
370
    25
100
AcDbSpline
210
0.0
220
0.0
230
1.0
 70
     8
 71
     3
 72
    10
 73
     6
 74
     0
 42
0.000000001
 43
0.00000001
 40
0.0
 40
0.0
 40
0.0
 40
0.0
 40
0.5
 40
0.5
 40
1.0
 40
1.0
 40
1.0
 40
1.0
 10
258.466498564164
 20
52.64547049849052
 30
0.0
 10
258.4921083388788
 20
52.53807589879765
 30
0.0
 10
258.5008896318436
 20
52.41774039727908
 30
0.0
 10
258.4820477019875
 20
52.18670799783094
 30
0.0
 10
258.4542656602048
 20
52.07529098987617
 30
0.0
 10
258.3922806819589
 20
51.99467791180955
 30
0.0
  0
SPLINE
  5
183
330
1F
100
AcDbEntity
  8
0
  6
Continuous
 62
     7
370
    25
100
AcDbSpline
210
0.0
220
0.0
230
1.0
 70
     8
 71
     3
 72
     8
 73
     4
 74
     0
 42
0.000000001
 43
0.00000001
 40
0.0
 40
0.0
 40
0.0
 40
0.0
 40
1.0
 40
1.0
 40
1.0
 40
1.0
 10
258.4170311315912
 20
53.03932742929796
 30
0.0
 10
258.4170311315912
 20
52.91496369878013
 30
0.0
 10
258.4335433055571
 20
52.78366838759882
 30
0.0
 10
258.4664985641668
 20
52.64547049848936
 30
0.0
  0
SPLINE
  5
184
330
1F
100
AcDbEntity
  8
0
  6
Continuous
 62
     7
370
    25
100
AcDbSpline
210
0.0
220
0.0
230
1.0
 70
     8
 71
     3
 72
    11
 73
     7
 74
     0
 42
0.000000001
 43
0.00000001
 40
0.0
 40
0.0
 40
0.0
 40
0.0
 40
0.0066952767297733
 40
0.3634709177859425
 40
0.7212032999949486
 40
1.0
 40
1.0
 40
1.0
 40
1.0
 10
269.3803720211951
 20
51.51862127358576
 30
0.0
 10
269.3783893032626
 20
51.52301543247363
 30
0.0
 10
269.2707521829834
 20
51.761564043432
 30
0.0
 10
269.0852718863248
 20
52.2230700473345
 30
0.0
 10
268.8436709270828
 20
52.85206642860128
 30
0.0
 10
268.7252487013466
 20
53.23603096594709
 30
0.0
 10
268.6733803316757
 20
53.40420560073146
 30
0.0
  0
SPLINE
  5
185
330
1F
100
AcDbEntity
  8
0
  6
Continuous
 62
     7
370
    25
100
AcDbSpline
210
0.0
220
0.0
230
1.0
 70
     8
 71
     3
 72
    16
 73
    12
 74
     0
 42
0.000000001
 43
0.00000001
 40
0.0
 40
0.0
 40
0.0
 40
0.0
 40
0.4999999999999999
 40
0.4999999999999999
 40
0.7500000000000009
 40
0.7500000000000009
 40
0.8750000000000013
 40
0.8750000000000013
 40
0.9375000000000007
 40
0.9375000000000007
 40
1.0
 40
1.0
 40
1.0
 40
1.0
 10
250.2378069999871
 20
24.42302753861176
 30
0.0
 10
250.3613913783482
 20
24.31369457752449
 30
0.0
 10
250.5015318925777
 20
24.20875800994943
 30
0.0
 10
250.7456787412271
 20
24.05194911987396
 30
0.0
 10
250.8329773865495
 20
23.99966428834223
 30
0.0
 10
250.978710575162
 20
23.91751266628786
 30
0.0
 10
251.0297672921756
 20
23.88951599232725
 30
0.0
 10
251.1128332824607
 20
23.84459725175848
 30
0.0
 10
251.1418882499861
 20
23.82898902981691
 30
0.0
 10
251.2029545646983
 20
23.79594248699619
 30
0.0
 10
251.2366775779033
 20
23.77755531128586
 30
0.0
 10
251.262071340964
 20
23.76289580390731
 30
0.0
  0
LWPOLYLINE
  5
186
330
1F
100
AcDbEntity
  8
0
  6
Continuous
 62
     7
370
    25
100
AcDbPolyline
 90
       26
 70
   128
 43
0.0
 10
255.5144046426
 20
48.6411440427
 10
254.6871632748
 20
47.782298793
 10
253.88734094
 20
46.8679443245
 10
253.1195431032
 20
45.903345591
 10
252.3881908292
 20
44.8940568583
 10
251.697495325
 20
43.8458897223
 10
251.0514336913
 20
42.7648796449
 10
250.4537260224
 20
41.6572512012
 10
249.9078139848
 20
40.529382238
 10
249.4168410003
 20
39.3877671491
 10
248.9836341454
 20
38.23897948
 10
248.6106878729
 20
37.0896340767
 10
248.3001496487
 20
35.9463489969
 10
248.053807586
 20
34.8157074019
 10
247.8730801496
 20
33.7042196509
 10
247.7590079879
 20
32.6182858127
 10
247.7122479412
 20
31.5641588141
 10
247.7330692588
 20
30.5479084347
 10
247.8213520494
 20
29.575386356
 10
247.9765879708
 20
28.6521924675
 10
248.1978831576
 20
27.7836426213
 10
248.4839633677
 20
26.9747380233
 10
248.8331813196
 20
26.2301364352
 10
249.2435261779
 20
25.554125355
 10
249.7126351318
 20
24.9505973292
 10
250.237807
 20
24.4230275386
  0
SPLINE
  5
187
330
1F
100
AcDbEntity
  8
0
  6
Continuous
 62
     7
370
    25
100
AcDbSpline
210
0.0
220
0.0
230
1.0
 70
     8
 71
     3
 72
    18
 73
    14
 74
     0
 42
0.000000001
 43
0.00000001
 40
0.0
 40
0.0
 40
0.0
 40
0.0
 40
0.1249999999999998
 40
0.1249999999999998
 40
0.2499999999999996
 40
0.2499999999999996
 40
0.3749999999999993
 40
0.3749999999999993
 40
0.4999999999999993
 40
0.4999999999999993
 40
0.7499999999999997
 40
0.7499999999999997
 40
1.0
 40
1.0
 40
1.0
 40
1.0
 10
255.5144046426269
 20
48.6411440427602
 30
0.0
 10
255.6868501220344
 20
48.75381494590721
 30
0.0
 10
255.8563984432897
 20
48.86924273349014
 30
0.0
 10
256.1766431822723
 20
49.11803744649079
 30
0.0
 10
256.3206207741095
 20
49.24881812280789
 30
0.0
 10
256.5775403242583
 20
49.52244331691055
 30
0.0
 10
256.6924924399648
 20
49.6645372505375
 30
0.0
 10
256.9132597708046
 20
49.95229753888014
 30
0.0
 10
257.0189516979416
 20
50.09801209775814
 30
0.0
 10
257.33285654515
 20
50.53639557251898
 30
0.0
 10
257.5378677648151
 20
50.83021623247453
 30
0.0
 10
257.9569169535145
 20
51.41491236550402
 30
0.0
 10
258.1703674303167
 20
51.70607395025447
 30
0.0
 10
258.3922806819589
 20
51.99467791180955
 30
0.0
  0
SPLINE
  5
188
330
1F
100
AcDbEntity
  8
0
  6
Continuous
 62
     7
370
    25
100
AcDbSpline
210
0.0
220
0.0
230
1.0
 70
     8
 71
     3
 72
    10
 73
     6
 74
     0
 42
0.000000001
 43
0.00000001
 40
0.0
 40
0.0
 40
0.0
 40
0.0
 40
0.5
 40
0.5
 40
1.0
 40
1.0
 40
1.0
 40
1.0
 10
265.0897784179948
 20
27.5496841029673
 30
0.0
 10
265.0882575847404
 20
27.55770279628808
 30
0.0
 10
265.0870998823735
 20
27.56568889923769
 30
0.0
 10
265.0855654902997
 20
27.58127794416196
 30
0.0
 10
265.08518807153
 20
27.58883852471524
 30
0.0
 10
265.0851880715298
 20
27.59617258085355
 30
0.0
  0
ARC
  5
189
330
1F
100
AcDbEntity
  8
0
  6
Continuous
 62
     7
370
    25
100
AcDbCircle
 10
247.5552368067
 20
44.9979015252
 30
0.0
 40
24.70436687796544
100
AcDbArc
 50
316.7343058616
 51
345.083466573
  0
SPLINE
  5
18A
330
1F
100
AcDbEntity
  8
0
  6
Continuous
 62
     7
370
    25
100
AcDbSpline
210
0.0
220
0.0
230
1.0
 70
     8
 71
     3
 72
    10
 73
     6
 74
     0
 42
0.000000001
 43
0.00000001
 40
0.0
 40
0.0
 40
0.0
 40
0.0
 40
0.5
 40
0.5
 40
1.0
 40
1.0
 40
1.0
 40
1.0
 10
258.0141202596643
 20
23.51413202174432
 30
0.0
 10
258.0141202596643
 20
23.50677883626131
 30
0.0
 10
258.0144997069808
 20
23.4992281825516
 30
0.0
 10
258.0160230067704
 20
23.4837290709465
 30
0.0
 10
258.0171765420207
 20
23.47573199772327
 30
0.0
 10
258.0187106061293
 20
23.46764354385369
 30
0.0
  0
LWPOLYLINE
  5
18B
330
1F
100
AcDbEntity
  8
0
  6
Continuous
 62
     7
370
    25
100
AcDbPolyline
 90
       22
 70
   128
 43
0.0
 10
242.0854385159
 20
29.1292896889
 10
241.5630150672
 20
29.6537349975
 10
241.0960217885
 20
30.2533202508
 10
240.6871180803
 20
30.9246309726
 10
240.3386325389
 20
31.6638442298
 10
240.0525496951
 20
32.4667504025
 10
239.8304987136
 20
33.3287771569
 10
239.6737441147
 20
34.2450154837
 10
239.5831785735
 20
35.210247653
 10
239.5593178363
 20
36.2189769283
 10
239.6022977835
 20
37.2654588691
 10
239.711873656
 20
38.3437340432
 10
239.8874214487
 20
39.4476619649
 10
240.1279414644
 20
40.5709560628
 10
240.4320640066
 20
41.7072194806
 10
240.7980571795
 20
42.849981505
 10
241.223836751
 20
43.992734415
 10
241.7069780213
 20
45.1289705415
 10
242.2447296315
 20
46.2522193267
 10
242.8340292314
 20
47.3560841722
 10
243.471520919
 20
48.4342788659
 10
244.1535743513
 20
49.4806633802
  0
SPLINE
  5
18C
330
1F
100
AcDbEntity
  8
0
  6
Continuous
 62
     7
370
    25
100
AcDbSpline
210
0.0
220
0.0
230
1.0
 70
     8
 71
     3
 72
    12
 73
     8
 74
     0
 42
0.000000001
 43
0.00000001
 40
0.0
 40
0.0
 40
0.0
 40
0.0
 40
0.5
 40
0.5
 40
0.75
 40
0.75
 40
1.0
 40
1.0
 40
1.0
 40
1.0
 10
244.1535743512687
 20
49.48066338024312
 30
0.0
 10
245.0424235048625
 20
49.64788054787036
 30
0.0
 10
245.9357504956601
 20
49.87513429748528
 30
0.0
 10
247.294525838825
 20
50.29637201645478
 30
0.0
 10
247.7506105374437
 20
50.45020248411051
 30
0.0
 10
248.6717070711356
 20
50.7834981102918
 30
0.0
 10
249.1278213239742
 20
50.9597257621763
 30
0.0
 10
249.5798784618972
 20
51.14348622841851
 30
0.0
  0
ELLIPSE
  5
18D
330
1F
100
AcDbEntity
  8
0
  6
Continuous
 62
     7
370
    25
100
AcDbEllipse
 10
-940.2164594096
 20
730.694232365
 30
0.0
 11
1198.45697105896
 21
-682.5745369340609
 31
0.0
210
0.0
220
0.0
230
1.0
 40
0.0105314273
 41
6.168741593943557
 42
6.22145588857167
  0
LINE
  5
18E
330
1F
100
AcDbEntity
  8
0
  6
Continuous
 62
     7
370
    25
100
AcDbLine
 10
265.0851880715
 20
27.5961725809
 30
0.0
 11
265.0851880715
 21
37.0995124376
 31
0.0
  0
LWPOLYLINE
  5
18F
330
1F
100
AcDbEntity
  8
0
  6
Continuous
 62
     7
370
    25
100
AcDbPolyline
 90
       31
 70
   128
 43
0.0
 10
265.0851880715
 20
37.0995124376
 10
265.2692303743
 20
37.7652547439
 10
265.387212079
 20
38.4161524565
 10
265.4370378013
 20
39.0406454702
 10
265.417822624
 20
39.6276426337
 10
265.3299078134
 20
40.1667187316
 10
265.1748547583
 20
40.6482996383
 10
264.9554172396
 20
41.0638323574
 10
264.6754925222
 20
41.4059369243
 10
264.3400521386
 20
41.668537477
 10
263.9550535934
 20
41.8469701643
 10
263.5273345565
 20
41.9380659774
 10
263.0644914242
 20
41.940207032
 10
262.5747444057
 20
41.8533553024
 10
262.0667915297
 20
41.679053297
 10
261.5496541656
 20
41.4203966626
 10
261.0325168015
 20
41.0819792055
 10
260.5245639255
 20
40.6698113037
 10
260.034816907
 20
40.1912131616
 10
259.5719737747
 20
39.6546848013
 10
259.1442547378
 20
39.0697550996
 10
258.7592561926
 20
38.4468125537
 10
258.423815809
 20
37.7969207778
 10
258.1438910916
 20
37.1316220115
 10
257.9244535729
 20
36.4627321263
 10
257.7694005178
 20
35.8021307727
 10
257.6814857072
 20
35.161550395
 10
257.6622705299
 20
34.55236786
 10
257.7120962522
 20
33.9854024009
 10
257.8300779569
 20
33.4707234651
 10
258.0141202597
 20
33.0174718785
  0
LINE
  5
190
330
1F
100
AcDbEntity
  8
0
  6
Continuous
 62
     7
370
    25
100
AcDbLine
 10
258.0141202597
 20
33.0174718785
 30
0.0
 11
258.0141202597
 21
23.5141320217
 31
0.0
  0
LINE
  5
191
330
1F
100
AcDbEntity
  8
0
  6
Continuous
 62
     7
370
    25
100
AcDbLine
 10
252.6462190368
 20
63.4951517656
 30
0.0
 11
253.4785503118
 21
57.3282766676
 31
0.0
  0
LINE
  5
192
330
1F
100
AcDbEntity
  8
0
  6
Continuous
 62
     7
370
    25
100
AcDbLine
 10
252.6462190368
 20
63.4951517656
 30
0.0
 11
254.2882007015
 21
62.478657928
 31
0.0
  0
LINE
  5
193
330
1F
100
AcDbEntity
  8
0
  6
Continuous
 62
     7
370
    25
100
AcDbLine
 10
254.2882007015
 20
62.478657928
 30
0.0
 11
258.4170311316
 21
54.9421657767
 31
0.0
  0
LINE
  5
194
330
1F
100
AcDbEntity
  8
0
  6
Continuous
 62
     7
370
    25
100
AcDbLine
 10
258.4170311316
 20
54.9421657767
 30
0.0
 11
258.4170311316
 21
53.0393274293
 31
0.0
  0
LINE
  5
195
330
1F
100
AcDbEntity
  8
0
  6
Continuous
 62
     7
370
    25
100
AcDbLine
 10
247.3189541694
 20
58.9485512631
 30
0.0
 11
248.1280403816
 21
54.4556202344
 31
0.0
  0
LWPOLYLINE
  5
196
330
1F
100
AcDbEntity
  8
0
  6
Continuous
 62
     7
370
    25
100
AcDbPolyline
 90
       17
 70
   128
 43
0.0
 10
252.2140990705
 20
55.9181370187
 10
252.2595401667
 20
55.8416866085
 10
252.486863203
 20
55.5233034345
 10
252.7431059015
 20
55.2573646759
 10
253.0133559632
 20
55.0593469036
 10
253.2818859165
 20
54.9407739591
 10
253.5330683933
 20
54.9085463132
 10
253.7522855789
 20
54.9645394857
 10
253.9267799111
 20
55.1054948982
 10
254.0463965181
 20
55.3232095101
 10
254.1041741925
 20
55.6050132026
 10
254.0967505049
 20
55.934506129
 10
254.0245574842
 20
56.2925131203
 10
253.8917964752
 20
56.658199603
 10
253.706193637
 20
57.0102840879
 10
253.4785503118
 20
57.3282766676
 10
253.4785503118
 20
57.3282766676
  0
LINE
  5
197
330
1F
100
AcDbEntity
  8
0
  6
Continuous
 62
     7
370
    25
100
AcDbLine
 10
258.4170311316
 20
54.9421657767
 30
0.0
 11
267.0376521856
 21
59.0472219669
 31
0.0
  0
LINE
  5
198
330
1F
100
AcDbEntity
  8
0
  6
Continuous
 62
     7
370
    25
100
AcDbLine
 10
258.6571539421
 20
64.2316705176
 30
0.0
 11
254.2882007015
 21
62.478657928
 31
0.0
  0
LINE
  5
199
330
1F
100
AcDbEntity
  8
0
  6
Continuous
 62
     7
370
    25
100
AcDbLine
 10
263.2322910347
 20
63.7498456801
 30
0.0
 11
258.6571539421
 21
64.2316705176
 31
0.0
  0
LINE
  5
19A
330
1F
100
AcDbEntity
  8
0
  6
Continuous
 62
     7
370
    25
100
AcDbLine
 10
263.2322910347
 20
63.7498456801
 30
0.0
 11
267.0376521856
 21
59.0472219669
 31
0.0
  0
ELLIPSE
  5
19B
330
1F
100
AcDbEntity
  8
0
  6
Continuous
 62
     7
370
    25
100
AcDbEllipse
 10
300.9610065692
 20
112.3097476524
 30
0.0
 11
76.604447942832
 21
63.85741966061559
 31
0.0
210
0.0
220
0.0
230
1.0
 40
0.2295839768
 41
3.804102383893569
 42
3.89738438539727
  0
SPLINE
  5
19C
330
1F
100
AcDbEntity
  8
0
  6
Continuous
 62
     7
370
    25
100
AcDbSpline
210
0.0
220
0.0
230
1.0
 70
     8
 71
     3
 72
     8
 73
     4
 74
     0
 42
0.000000001
 43
0.00000001
 40
0.0
 40
0.0
 40
0.0
 40
0.0
 40
1.0
 40
1.0
 40
1.0
 40
1.0
 10
255.2689682344119
 20
53.77645334347308
 30
0.0
 10
255.3125826694514
 20
53.7978425955289
 30
0.0
 10
255.3526287214974
 20
53.8248853381856
 30
0.0
 10
255.3840364684408
 20
53.85697745551958
 30
0.0
  0
SPLINE
  5
19D
330
1F
100
AcDbEntity
  8
0
  6
Continuous
 62
     7
370
    25
100
AcDbSpline
210
0.0
220
0.0
230
1.0
 70
     8
 71
     3
 72
     8
 73
     4
 74
     0
 42
0.000000001
 43
0.00000001
 40
0.0
 40
0.0
 40
0.0
 40
0.0
 40
1.0
 40
1.0
 40
1.0
 40
1.0
 10
244.153574351268
 20
49.48066338024312
 30
0.0
 10
244.153965774979
 20
49.50860097471674
 30
0.0
 10
244.1547555549321
 20
49.53692573285718
 30
0.0
 10
244.1559506783946
 20
49.56563129366552
 30
0.0
  0
SPLINE
  5
19E
330
1F
100
AcDbEntity
  8
0
  6
Continuous
 62
     7
370
    25
100
AcDbSpline
210
0.0
220
0.0
230
1.0
 70
     8
 71
     3
 72
     8
 73
     4
 74
     0
 42
0.000000001
 43
0.00000001
 40
0.0
 40
0.0
 40
0.0
 40
0.0
 40
1.0
 40
1.0
 40
1.0
 40
1.0
 10
244.1559506783948
 20
49.56563129366543
 30
0.0
 10
244.1821651820379
 20
50.19527505183352
 30
0.0
 10
244.2633408179791
 20
50.96985829194771
 30
0.0
 10
244.3717928997413
 20
51.86056442995674
 30
0.0
  0
ELLIPSE
  5
19F
330
1F
100
AcDbEntity
  8
0
  6
Continuous
 62
     7
370
    25
100
AcDbEllipse
 10
408.6842504021
 20
170.3003477038
 30
0.0
 11
607.7442550233245
 21
351.2710690111695
 31
0.0
210
0.0
220
0.0
230
1.0
 40
0.0302179159
 41
4.421196290289875
 42
4.427095774263615
  0
LINE
  5
1A0
330
1F
100
AcDbEntity
  8
0
  6
Continuous
 62
     7
370
    25
100
AcDbLine
 10
258.6571539421
 20
64.2316705176
 30
0.0
 11
251.0191010014
 21
68.5771746051
 31
0.0
  0
LINE
  5
1A1
330
1F
100
AcDbEntity
  8
0
  6
Continuous
 62
     7
370
    25
100
AcDbLine
 10
252.6462190368
 20
63.4951517656
 30
0.0
 11
253.4858013649
 21
63.9230775634
 31
0.0
  0
LINE
  5
1A2
330
1F
100
AcDbEntity
  8
0
  6
Continuous
 62
     7
370
    25
100
AcDbLine
 10
253.4858013649
 20
63.9230775634
 30
0.0
 11
255.3510991739
 21
64.6338523329
 31
0.0
  0
LINE
  5
1A3
330
1F
100
AcDbEntity
  8
0
  6
Continuous
 62
     7
370
    25
100
AcDbLine
 10
255.1385224834
 20
64.7654511812
 30
0.0
 11
255.3510991739
 21
64.6338523329
 31
0.0
  0
LINE
  5
1A4
330
1F
100
AcDbEntity
  8
0
  6
Continuous
 62
     7
370
    25
100
AcDbLine
 10
249.5913905647
 20
68.2817552398
 30
0.0
 11
251.0191010014
 21
68.5771746051
 31
0.0
  0
LINE
  5
1A5
330
1F
100
AcDbEntity
  8
0
  6
Continuous
 62
     7
370
    25
100
AcDbLine
 10
268.6733803317
 20
53.4042056007
 30
0.0
 11
267.0376521856
 21
59.0472219669
 31
0.0
  0
ARC
  5
1A6
330
1F
100
AcDbEntity
  8
0
  6
Continuous
 62
     7
370
    25
100
AcDbCircle
 10
257.7130557387
 20
38.9880311426
 30
0.0
 40
18.17023989090428
100
AcDbArc
 50
144.3389164511
 51
177.6091260928
  0
SPLINE
  5
1A7
330
1F
100
AcDbEntity
  8
0
  6
Continuous
 62
     7
370
    25
100
AcDbSpline
210
0.0
220
0.0
230
1.0
 70
     8
 71
     3
 72
    10
 73
     6
 74
     0
 42
0.000000001
 43
0.00000001
 40
0.0
 40
0.0
 40
0.0
 40
0.0
 40
0.5
 40
0.5
 40
1.0
 40
1.0
 40
1.0
 40
1.0
 10
255.3840364684408
 20
53.85697745551958
 30
0.0
 10
255.4544792943563
 20
53.92895522070891
 30
0.0
 10
255.5063358210291
 20
54.02958415706959
 30
0.0
 10
255.5574053469705
 20
54.24705390588642
 30
0.0
 10
255.5562882359335
 20
54.36201357401401
 30
0.0
 10
255.530894721778
 20
54.46280091056961
 30
0.0
  0
SPLINE
  5
1A8
330
1F
100
AcDbEntity
  8
0
  6
Continuous
 62
     7
370
    25
100
AcDbSpline
210
0.0
220
0.0
230
1.0
 70
     8
 71
     3
 72
     8
 73
     4
 74
     0
 42
0.000000001
 43
0.00000001
 40
0.0
 40
0.0
 40
0.0
 40
0.0
 40
1.0
 40
1.0
 40
1.0
 40
1.0
 10
256.5128886990969
 20
67.62887408104015
 30
0.0
 10
255.1976003559992
 20
67.97108289541562
 30
0.0
 10
253.8821169832627
 20
68.31409512167983
 30
0.0
 10
252.5664641386278
 20
68.65780547638714
 30
0.0
  0
LINE
  5
1A9
330
1F
100
AcDbEntity
  8
0
  6
Continuous
 62
     7
370
    25
100
AcDbLine
 10
256.5128886991
 20
67.628874081
 30
0.0
 11
263.2322910347
 21
63.7498456801
 31
0.0
  0
LINE
  5
1AA
330
1F
100
AcDbEntity
  8
0
  6
Continuous
 62
     7
370
    25
100
AcDbLine
 10
251.0191010014
 20
68.5771746051
 30
0.0
 11
252.5664641386
 21
68.6578054764
 31
0.0
  0
LINE
  5
1AB
330
1F
100
AcDbEntity
  8
0
  6
Continuous
 62
     7
370
    25
100
AcDbLine
 10
265.0851880715
 20
37.0995124376
 30
0.0
 11
264.0245278998
 21
37.7118185214
 31
0.0
  0
LWPOLYLINE
  5
1AC
330
1F
100
AcDbEntity
  8
0
  6
Continuous
 62
     7
370
    25
100
AcDbPolyline
 90
       15
 70
   128
 43
0.0
 10
258.0141202597
 20
32.6487248142
 10
258.2798764306
 20
32.5703240708
 10
258.7281535958
 20
32.5209284059
 10
259.2081172901
 20
32.5618826224
 10
259.7111305106
 20
32.6924497442
 10
260.2281414756
 20
32.9102802009
 10
260.7498465121
 20
33.2114541078
 10
261.266857477
 20
33.5905518053
 10
261.7698706975
 20
34.0407513858
 10
262.2498343918
 20
34.5539514553
 10
262.6981115571
 20
35.1209169185
 10
263.1066353933
 20
35.7314451654
 10
263.4680544661
 20
36.3745496689
 10
263.7758649971
 20
37.0386576881
 10
264.0245278998
 20
37.7118185214
  0
LWPOLYLINE
  5
1AD
330
1F
100
AcDbEntity
  8
0
  6
Continuous
 62
     7
370
    25
100
AcDbPolyline
 90
        3
 70
   128
 43
0.0
 10
262.6103143374
 20
40.8073607284
 10
262.5770426564
 20
41.3743431922
 10
262.4938131115
 20
41.8310939635
  0
ARC
  5
1AE
330
1F
100
AcDbEntity
  8
0
  6
Continuous
 62
     7
370
    25
100
AcDbCircle
 10
254.6660120856
 20
40.9722320832
 30
0.0
 40
7.946012888934354
100
AcDbArc
 50
293.049370284
 51
358.8110879173
  0
SPLINE
  5
1AF
330
1F
100
AcDbEntity
  8
0
  6
Continuous
 62
     7
370
    25
100
AcDbSpline
210
0.0
220
0.0
230
1.0
 70
     8
 71
     3
 72
     8
 73
     4
 74
     0
 42
0.000000001
 43
0.00000001
 40
0.0
 40
0.0
 40
0.0
 40
0.0
 40
1.0
 40
1.0
 40
1.0
 40
1.0
 10
247.8270512104434
 20
53.81658744505217
 30
0.0
 10
247.9088317398326
 20
53.86289389557281
 30
0.0
 10
247.9880411468278
 20
53.94187002493327
 30
0.0
 10
248.0507523901297
 20
54.03864553694747
 30
0.0
  0
SPLINE
  5
1B0
330
1F
100
AcDbEntity
  8
0
  6
Continuous
 62
     7
370
    25
100
AcDbSpline
210
0.0
220
0.0
230
1.0
 70
     8
 71
     3
 72
     8
 73
     4
 74
     0
 42
0.000000001
 43
0.00000001
 40
0.0
 40
0.0
 40
0.0
 40
0.0
 40
1.0
 40
1.0
 40
1.0
 40
1.0
 10
248.0507523901297
 20
54.03864553694747
 30
0.0
 10
248.0799111699622
 20
54.08364314342802
 30
0.0
 10
248.1023965352794
 20
54.13165991242955
 30
0.0
 10
248.115638970058
 20
54.18382276685215
 30
0.0
  0
SPLINE
  5
1B1
330
1F
100
AcDbEntity
  8
0
  6
Continuous
 62
     7
370
    25
100
AcDbSpline
210
0.0
220
0.0
230
1.0
 70
     8
 71
     3
 72
     8
 73
     4
 74
     0
 42
0.000000001
 43
0.00000001
 40
0.0
 40
0.0
 40
0.0
 40
0.0
 40
1.0
 40
1.0
 40
1.0
 40
1.0
 10
248.115638970058
 20
54.18382276685215
 30
0.0
 10
248.1390974884739
 20
54.27622747199484
 30
0.0
 10
248.1433857522741
 20
54.37040596329317
 30
0.0
 10
248.1280403816442
 20
54.45562023440998
 30
0.0
  0
ARC
  5
1B2
330
1F
100
AcDbEntity
  8
0
  6
Continuous
 62
     7
370
    25
100
AcDbCircle
 10
218.5803978638
 20
66.3633461346
 30
0.0
 40
29.58930102371311
100
AcDbArc
 50
325.4466671861
 51
330.6504790196
  0
ARC
  5
1B3
330
1F
100
AcDbEntity
  8
0
  6
Continuous
 62
     7
370
    25
100
AcDbCircle
 10
244.319715803
 20
31.6497184792
 30
0.0
 40
3.368168090014147
100
AcDbArc
 50
228.4440660868
 51
239.9824983464
  0
LINE
  5
1B4
330
1F
100
AcDbEntity
  8
0
  6
Continuous
 62
     7
370
    25
100
AcDbLine
 10
264.0245278998
 20
27.5035768176
 30
0.0
 11
264.0245278998
 21
37.7118185214
 31
0.0
  0
ARC
  5
1B5
330
1F
100
AcDbEntity
  8
0
  6
Continuous
 62
     7
370
    25
100
AcDbCircle
 10
250.1651761362
 20
43.1582763336
 30
0.0
 40
20.9081622396845
100
AcDbArc
 50
292.0490966191
 51
311.5189715897
  0
LINE
  5
1B6
330
1F
100
AcDbEntity
  8
0
  6
Continuous
 62
     7
370
    25
100
AcDbLine
 10
264.9991086133
 20
26.9409633473
 30
0.0
 11
264.0245278998
 21
27.5035768176
 31
0.0
  0
LINE
  5
1B7
330
1F
100
AcDbEntity
  8
0
  6
Continuous
 62
     7
370
    18
100
AcDbLine
 10
249.79701254
 20
62.5942128948
 30
0.0
 11
249.6505138071
 21
62.5153483051
 31
0.0
  0
LINE
  5
1B8
330
1F
100
AcDbEntity
  8
0
  6
Continuous
 62
     7
370
    18
100
AcDbLine
 10
250.8678621507
 20
60.1028299428
 30
0.0
 11
250.6006743208
 21
59.9589948517
 31
0.0
  0
LINE
  5
1B9
330
1F
100
AcDbEntity
  8
0
  6
Continuous
 62
     7
370
    18
100
AcDbLine
 10
249.3371470317
 20
62.3764737122
 30
0.0
 11
248.9242216709
 21
62.154183809
 31
0.0
  0
LINE
  5
1BA
330
1F
100
AcDbEntity
  8
0
  6
Continuous
 62
     7
370
    18
100
AcDbLine
 10
250.6476506275
 20
60.7328541026
 30
0.0
 11
249.6517742568
 21
60.1967444734
 31
0.0
  0
LINE
  5
1BB
330
1F
100
AcDbEntity
  8
0
  6
Continuous
 62
     7
370
    18
100
AcDbLine
 10
250.1429216497
 20
61.3934563873
 30
0.0
 11
249.1472088564
 21
60.8574348166
 31
0.0
  0
SPLINE
  5
1BC
330
1F
100
AcDbEntity
  8
0
  6
Continuous
 62
     7
370
    18
100
AcDbSpline
210
0.0
220
0.0
230
1.0
 70
     8
 71
     3
 72
    10
 73
     6
 74
     0
 42
0.000000001
 43
0.00000001
 40
0.0
 40
0.0
 40
0.0
 40
0.0
 40
0.2564799691322777
 40
0.5197311081742688
 40
1.0
 40
1.0
 40
1.0
 40
1.0
 10
253.2744634004492
 20
57.4567608641748
 30
0.0
 10
253.2908518401218
 20
57.32653851429622
 30
0.0
 10
253.3240613805825
 20
57.0626558943769
 30
0.0
 10
253.3613562871363
 20
56.61678907347402
 30
0.0
 10
253.3625963103619
 20
56.36453436390136
 30
0.0
 10
253.3633972902356
 20
56.20159310503185
 30
0.0
  0
LINE
  5
1BD
330
1F
100
AcDbEntity
  8
0
  6
Continuous
 62
     7
370
    18
100
AcDbLine
 10
252.6581580031
 20
62.0230657979
 30
0.0
 11
253.2744634004
 21
57.4567608642
 31
0.0
  0
SPLINE
  5
1BE
330
1F
100
AcDbEntity
  8
0
  6
Continuous
 62
     7
370
    18
100
AcDbSpline
210
0.0
220
0.0
230
1.0
 70
     8
 71
     3
 72
    10
 73
     6
 74
     0
 42
0.000000001
 43
0.00000001
 40
0.0
 40
0.0
 40
0.0
 40
0.0
 40
0.3574566180854129
 40
0.6747591751716788
 40
0.9999999999999999
 40
0.9999999999999999
 40
0.9999999999999999
 40
0.9999999999999999
 10
252.4194296942312
 20
63.38838371340323
 30
0.0
 10
252.4531963704361
 20
63.22045019179141
 30
0.0
 10
252.5169366215086
 20
62.90344757163182
 30
0.0
 10
252.5980817755276
 20
62.44079780887234
 30
0.0
 10
252.6379683351221
 20
62.16345195307242
 30
0.0
 10
252.6581580030998
 20
62.02306579792396
 30
0.0
  0
SPLINE
  5
1BF
330
1F
100
AcDbEntity
  8
0
  6
Continuous
 62
     7
370
    18
100
AcDbSpline
210
0.0
220
0.0
230
1.0
 70
     8
 71
     3
 72
     9
 73
     5
 74
     0
 42
0.000000001
 43
0.00000001
 40
0.0
 40
0.0
 40
0.0
 40
0.0
 40
0.7645159280667371
 40
0.9999999999999999
 40
0.9999999999999999
 40
0.9999999999999999
 40
0.9999999999999999
 10
252.1880119123279
 20
62.21486334205362
 30
0.0
 10
252.1605829728645
 20
62.43982374029765
 30
0.0
 10
252.1247054476796
 20
62.73407581534979
 30
0.0
 10
252.0875966297538
 20
63.04907217807143
 30
0.0
 10
252.078858094204
 20
63.12324880420929
 30
0.0
  0
SPLINE
  5
1C0
330
1F
100
AcDbEntity
  8
0
  6
Continuous
 62
     7
370
    18
100
AcDbSpline
210
0.0
220
0.0
230
1.0
 70
     8
 71
     3
 72
    10
 73
     6
 74
     0
 42
0.000000001
 43
0.00000001
 40
0.0
 40
0.0
 40
0.0
 40
0.0
 40
0.2765306019330342
 40
0.5626682704062667
 40
1.0
 40
1.0
 40
1.0
 40
1.0
 10
252.1880119123279
 20
62.21486334205362
 30
0.0
 10
252.2499105964872
 20
62.20935529372962
 30
0.0
 10
252.3758584131586
 20
62.19814783964637
 30
0.0
 10
252.5598886520816
 20
62.13847203011334
 30
0.0
 10
252.6211350331674
 20
62.06654508643136
 30
0.0
 10
252.6581580030998
 20
62.02306579792396
 30
0.0
  0
SPLINE
  5
1C1
330
1F
100
AcDbEntity
  8
0
  6
Continuous
 62
     7
370
    18
100
AcDbSpline
210
0.0
220
0.0
230
1.0
 70
     8
 71
     3
 72
    10
 73
     6
 74
     0
 42
0.000000001
 43
0.00000001
 40
0.0
 40
0.0
 40
0.0
 40
0.0
 40
0.3170865684458007
 40
0.6425443443519704
 40
1.0
 40
1.0
 40
1.0
 40
1.0
 10
251.348465321664
 20
64.14961353974806
 30
0.0
 10
251.4549930312814
 20
64.08153001829608
 30
0.0
 10
251.6708608230548
 20
63.94356554421898
 30
0.0
 10
252.0337428712412
 20
63.685429577456
 30
0.0
 10
252.2869133229908
 20
63.49044434303811
 30
0.0
 10
252.4194296942312
 20
63.38838371340324
 30
0.0
  0
LINE
  5
1C2
330
1F
100
AcDbEntity
  8
0
  6
Continuous
 62
     7
370
    18
100
AcDbLine
 10
247.7993039908
 20
66.3467760897
 30
0.0
 11
251.3484653217
 21
64.1496135397
 31
0.0
  0
SPLINE
  5
1C3
330
1F
100
AcDbEntity
  8
0
  6
Continuous
 62
     7
370
    18
100
AcDbSpline
210
0.0
220
0.0
230
1.0
 70
     8
 71
     3
 72
    10
 73
     6
 74
     0
 42
0.000000001
 43
0.00000001
 40
0.0
 40
0.0
 40
0.0
 40
0.0
 40
0.4802699377738774
 40
0.7369244803007473
 40
0.9999999999999999
 40
0.9999999999999999
 40
0.9999999999999999
 40
0.9999999999999999
 10
246.8381641669737
 20
66.79661280685711
 30
0.0
 10
246.9610018259552
 20
66.75879941772735
 30
0.0
 10
247.1494834919657
 20
66.70077868825587
 30
0.0
 10
247.4912040402189
 20
66.53082443738842
 30
0.0
 10
247.6957616087745
 20
66.40862875890487
 30
0.0
 10
247.7993039908058
 20
66.34677608968582
 30
0.0
  0
SPLINE
  5
1C4
330
1F
100
AcDbEntity
  8
0
  6
Continuous
 62
     7
370
    18
100
AcDbSpline
210
0.0
220
0.0
230
1.0
 70
     8
 71
     3
 72
     9
 73
     5
 74
     0
 42
0.000000001
 43
0.00000001
 40
0.0
 40
0.0
 40
0.0
 40
0.0
 40
0.2354840719332281
 40
1.0
 40
1.0
 40
1.0
 40
1.0
 10
252.078858094204
 20
63.12324880420929
 30
0.0
 10
252.0180396933587
 20
63.16201176162092
 30
0.0
 10
251.7597699923722
 20
63.32662144028578
 30
0.0
 10
251.5266722548194
 20
63.4691044449123
 30
0.0
 10
251.348465321664
 20
63.57803497142808
 30
0.0
  0
SPLINE
  5
1C5
330
1F
100
AcDbEntity
  8
0
  6
Continuous
 62
     7
370
    18
100
AcDbSpline
210
0.0
220
0.0
230
1.0
 70
     8
 71
     3
 72
    10
 73
     6
 74
     0
 42
0.000000001
 43
0.00000001
 40
0.0
 40
0.0
 40
0.0
 40
0.0
 40
0.276530601933014
 40
0.562668270406245
 40
1.0
 40
1.0
 40
1.0
 40
1.0
 10
251.348465321664
 20
64.14961353974806
 30
0.0
 10
251.3693298190015
 20
64.11095833609538
 30
0.0
 10
251.4117836759986
 20
64.03230499201914
 30
0.0
 10
251.428057771048
 20
63.83711683561135
 30
0.0
 10
251.3784517704383
 20
63.67564404249949
 30
0.0
 10
251.348465321664
 20
63.57803497142805
 30
0.0
  0
LINE
  5
1C6
330
1F
100
AcDbEntity
  8
0
  6
Continuous
 62
     7
370
    18
100
AcDbLine
 10
252.8043173097
 20
57.6485584083
 30
0.0
 11
252.1880119123
 21
62.2148633421
 31
0.0
  0
ARC
  5
1C7
330
1F
100
AcDbEntity
  8
0
  6
Continuous
 62
     7
370
    18
100
AcDbCircle
 10
252.8551225878
 20
57.1009710037
 30
0.0
 40
0.5499392166078917
100
AcDbArc
 50
40.312950992
 51
95.300739717
  0
LINE
  5
1C8
330
1F
100
AcDbEntity
  8
0
  6
Continuous
 62
     7
370
    18
100
AcDbLine
 10
251.3484653217
 20
63.5780349714
 30
0.0
 11
251.2429035075
 21
63.3170727298
 31
0.0
  0
LINE
  5
1C9
330
1F
100
AcDbEntity
  8
0
  6
Continuous
 62
     7
370
    18
100
AcDbLine
 10
252.1880119123
 20
62.2148633421
 30
0.0
 11
251.9145407801
 21
62.2265354263
 31
0.0
  0
LINE
  5
1CA
330
1F
100
AcDbEntity
  8
0
  6
Continuous
 62
     7
370
    18
100
AcDbLine
 10
252.8043173097
 20
57.6485584083
 30
0.0
 11
252.5308461774
 21
57.6602304925
 31
0.0
  0
LINE
  5
1CB
330
1F
100
AcDbEntity
  8
0
  6
Continuous
 62
     7
370
    18
100
AcDbLine
 10
251.3484653217
 20
63.5780349714
 30
0.0
 11
247.7993039908
 21
65.7751975214
 31
0.0
  0
ARC
  5
1CC
330
1F
100
AcDbEntity
  8
0
  6
Continuous
 62
     7
370
    18
100
AcDbCircle
 10
247.2478777162
 20
66.0609868055
 30
0.0
 40
0.6210848985564816
100
AcDbArc
 50
332.6035174885
 51
27.3964825115
  0
LWPOLYLINE
  5
1CD
330
1F
100
AcDbEntity
  8
0
  6
Continuous
 62
     7
370
    18
100
AcDbPolyline
 90
        3
 70
   128
 43
0.0
 10
251.2805890177
 20
58.9977169376
 10
251.3484253117
 20
58.9846102589
 10
251.5844026289
 20
58.9651139835
  0
ARC
  5
1CE
330
1F
100
AcDbEntity
  8
0
  6
Continuous
 62
     7
370
    18
100
AcDbCircle
 10
250.2243696645
 20
63.2249745463
 30
0.0
 40
1.673877263459037
100
AcDbArc
 50
147.693587791
 51
172.8365247972
  0
LINE
  5
1CF
330
1F
100
AcDbEntity
  8
0
  6
Continuous
 62
     7
370
    18
100
AcDbLine
 10
247.7993039908
 20
65.7751975214
 30
0.0
 11
247.6937421767
 21
65.5142352797
 31
0.0
  0
LINE
  5
1D0
330
1F
100
AcDbEntity
  8
0
  6
Continuous
 62
     7
370
    18
100
AcDbLine
 10
251.542832821
 20
59.1388094906
 30
0.0
 11
251.679481473
 21
59.1323317894
 31
0.0
  0
LWPOLYLINE
  5
1D1
330
1F
100
AcDbEntity
  8
0
  6
Continuous
 62
     7
370
    18
100
AcDbPolyline
 90
        3
 70
   128
 43
0.0
 10
249.0015434467
 20
64.1068650884
 10
248.9006637595
 20
63.9258329473
 10
248.7982580694
 20
63.6237024829
  0
SPLINE
  5
1D2
330
1F
100
AcDbEntity
  8
0
  6
Continuous
 62
     7
370
    18
100
AcDbSpline
210
0.0
220
0.0
230
1.0
 70
     8
 71
     3
 72
     9
 73
     5
 74
     0
 42
0.000000001
 43
0.00000001
 40
0.0
 40
0.0
 40
0.0
 40
0.0
 40
0.4216612443319852
 40
1.0
 40
1.0
 40
1.0
 40
1.0
 10
252.9464871590515
 20
56.71465074199503
 30
0.0
 10
252.9295055150009
 20
56.82500663206595
 30
0.0
 10
252.8892323234782
 20
57.08672357085118
 30
0.0
 10
252.8354320771776
 20
57.44268950999805
 30
0.0
 10
252.8043173096774
 20
57.64855840830445
 30
0.0
  0
LINE
  5
1D3
330
1F
100
AcDbEntity
  8
0
  6
Continuous
 62
     7
370
    18
100
AcDbLine
 10
251.964770719
 20
56.970378008
 30
0.0
 11
251.859208905
 21
57.1176861721
 31
0.0
  0
SPLINE
  5
1D4
330
1F
100
AcDbEntity
  8
0
  6
Continuous
 62
     7
370
    18
100
AcDbSpline
210
0.0
220
0.0
230
1.0
 70
     8
 71
     3
 72
     9
 73
     5
 74
     0
 42
0.000000001
 43
0.00000001
 40
0.0
 40
0.0
 40
0.0
 40
0.0
 40
0.5783387556679211
 40
1.0
 40
1.0
 40
1.0
 40
1.0
 10
251.9647707190135
 20
56.97037800796446
 30
0.0
 10
252.1436685651295
 20
56.88388734135332
 30
0.0
 10
252.4529991164074
 20
56.73433715858668
 30
0.0
 10
252.8001198138391
 20
56.7204896849567
 30
0.0
 10
252.9464871590515
 20
56.71465074199503
 30
0.0
  0
SPLINE
  5
1D5
330
1F
100
AcDbEntity
  8
0
  6
Continuous
 62
     7
370
    18
100
AcDbSpline
210
0.0
220
0.0
230
1.0
 70
     8
 71
     3
 72
     9
 73
     5
 74
     0
 42
0.000000001
 43
0.00000001
 40
0.0
 40
0.0
 40
0.0
 40
0.0
 40
0.5783387556679667
 40
1.0
 40
1.0
 40
1.0
 40
1.0
 10
247.7993039908058
 20
65.77519752136581
 30
0.0
 10
247.6429025434916
 20
65.87379866310847
 30
0.0
 10
247.3724702997914
 20
66.04428895236597
 30
0.0
 10
247.1888288701855
 20
66.14614213859674
 30
0.0
 10
247.1113943964669
 20
66.189089679842
 30
0.0
  0
SPLINE
  5
1D6
330
1F
100
AcDbEntity
  8
0
  6
Continuous
 62
     7
370
    18
100
AcDbSpline
210
0.0
220
0.0
230
1.0
 70
     8
 71
     3
 72
    10
 73
     6
 74
     0
 42
0.000000001
 43
0.00000001
 40
0.0
 40
0.0
 40
0.0
 40
0.0
 40
0.2765306019330275
 40
0.5626682704062587
 40
1.0
 40
1.0
 40
1.0
 40
1.0
 10
251.9647707190135
 20
56.97037800796446
 30
0.0
 10
251.985635216351
 20
56.93172280431179
 30
0.0
 10
252.0280890733481
 20
56.85306946023554
 30
0.0
 10
252.0443631683975
 20
56.65788130382774
 30
0.0
 10
251.9947571677878
 20
56.4964085107159
 30
0.0
 10
251.9647707190135
 20
56.39879943964446
 30
0.0
  0
SPLINE
  5
1D7
330
1F
100
AcDbEntity
  8
0
  6
Continuous
 62
     7
370
    18
100
AcDbSpline
210
0.0
220
0.0
230
1.0
 70
     8
 71
     3
 72
    10
 73
     6
 74
     0
 42
0.000000001
 43
0.00000001
 40
0.0
 40
0.0
 40
0.0
 40
0.0
 40
0.4802699377738798
 40
0.7369244803007414
 40
1.0
 40
1.0
 40
1.0
 40
1.0
 10
253.2998698758896
 20
56.15027606346107
 30
0.0
 10
253.0785494960619
 20
56.13507329866384
 30
0.0
 10
252.7389562942879
 20
56.11174623055862
 30
0.0
 10
252.2900927414042
 20
56.22402224125464
 30
0.0
 10
252.0741008797662
 20
56.34006250245388
 30
0.0
 10
251.9647707190135
 20
56.39879943964446
 30
0.0
  0
SPLINE
  5
1D8
330
1F
100
AcDbEntity
  8
0
  6
Continuous
 62
     7
370
    18
100
AcDbSpline
210
0.0
220
0.0
230
1.0
 70
     8
 71
     3
 72
    10
 73
     6
 74
     0
 42
0.000000001
 43
0.00000001
 40
0.0
 40
0.0
 40
0.0
 40
0.0
 40
0.3170865684458063
 40
0.6425443443519839
 40
1.0
 40
1.0
 40
1.0
 40
1.0
 10
248.4156093881552
 20
58.59596198958219
 30
0.0
 10
248.314583757052
 20
58.66700744221272
 30
0.0
 10
248.1098653792974
 20
58.81097397477013
 30
0.0
 10
247.8332485563237
 20
59.1155490571377
 30
0.0
 10
247.6786253731493
 20
59.36358519342941
 30
0.0
 10
247.5976913502319
 20
59.49341412287479
 30
0.0
  0
LINE
  5
1D9
330
1F
100
AcDbEntity
  8
0
  6
Continuous
 62
     7
370
    18
100
AcDbLine
 10
251.964770719
 20
56.3987994396
 30
0.0
 11
248.4156093882
 21
58.5959619896
 31
0.0
  0
SPLINE
  5
1DA
330
1F
100
AcDbEntity
  8
0
  6
Continuous
 62
     7
370
    18
100
AcDbSpline
210
0.0
220
0.0
230
1.0
 70
     8
 71
     3
 72
    10
 73
     6
 74
     0
 42
0.000000001
 43
0.00000001
 40
0.0
 40
0.0
 40
0.0
 40
0.0
 40
0.25647996913227
 40
0.5197311081742556
 40
0.9999999999999999
 40
0.9999999999999999
 40
0.9999999999999999
 40
0.9999999999999999
 10
246.48961130937
 20
65.28881466515548
 30
0.0
 10
246.4787407847699
 20
65.42200747149916
 30
0.0
 10
246.456712749536
 20
65.69190942554273
 30
0.0
 10
246.5257540503113
 20
66.19502016382866
 30
0.0
 10
246.6769641741139
 20
66.52934328491159
 30
0.0
 10
246.7746367526277
 20
66.74529576528637
 30
0.0
  0
LINE
  5
1DB
330
1F
100
AcDbEntity
  8
0
  6
Continuous
 62
     7
370
    18
100
AcDbLine
 10
247.1059167067
 20
60.7225097314
 30
0.0
 11
246.4896113094
 21
65.2888146652
 31
0.0
  0
SPLINE
  5
1DC
330
1F
100
AcDbEntity
  8
0
  6
Continuous
 62
     7
370
    18
100
AcDbSpline
210
0.0
220
0.0
230
1.0
 70
     8
 71
     3
 72
    10
 73
     6
 74
     0
 42
0.000000001
 43
0.00000001
 40
0.0
 40
0.0
 40
0.0
 40
0.0
 40
0.3574566180854065
 40
0.6747591751716714
 40
1.0
 40
1.0
 40
1.0
 40
1.0
 10
247.5976913502319
 20
59.49341412287479
 30
0.0
 10
247.5123385350705
 20
59.63357730406622
 30
0.0
 10
247.3512208154843
 20
59.89815876023491
 30
0.0
 10
247.1831669564198
 20
60.31402300321277
 30
0.0
 10
247.1318780054839
 20
60.58523061537667
 30
0.0
 10
247.1059167067195
 20
60.72250973140628
 30
0.0
  0
LINE
  5
1DD
330
1F
100
AcDbEntity
  8
0
  6
Continuous
 62
     7
370
    18
100
AcDbLine
 10
246.9597574001
 20
65.097017121
 30
0.0
 11
247.0221049041
 21
64.9716909594
 31
0.0
  0
SPLINE
  5
1DE
330
1F
100
AcDbEntity
  8
0
  6
Continuous
 62
     7
370
    18
100
AcDbSpline
210
0.0
220
0.0
230
1.0
 70
     8
 71
     3
 72
     9
 73
     5
 74
     0
 42
0.000000001
 43
0.00000001
 40
0.0
 40
0.0
 40
0.0
 40
0.0
 40
0.4216612443320084
 40
1.0
 40
1.0
 40
1.0
 40
1.0
 10
247.1113943964669
 20
66.189089679842
 30
0.0
 10
247.0594431690236
 20
66.04162519148748
 30
0.0
 10
246.9362370927205
 20
65.69190254010148
 30
0.0
 10
246.9511390314436
 20
65.31499649446371
 30
0.0
 10
246.9597574001418
 20
65.09701712102583
 30
0.0
  0
SPLINE
  5
1DF
330
1F
100
AcDbEntity
  8
0
  6
Continuous
 62
     7
370
    18
100
AcDbSpline
210
0.0
220
0.0
230
1.0
 70
     8
 71
     3
 72
    10
 73
     6
 74
     0
 42
0.000000001
 43
0.00000001
 40
0.0
 40
0.0
 40
0.0
 40
0.0
 40
0.27653060193303
 40
0.5626682704062621
 40
1.0
 40
1.0
 40
1.0
 40
1.0
 10
246.48961130937
 20
65.28881466515548
 30
0.0
 10
246.5515099935293
 20
65.28330661683148
 30
0.0
 10
246.6774578102007
 20
65.27209916274825
 30
0.0
 10
246.8614880491236
 20
65.2124233532152
 30
0.0
 10
246.9227344302095
 20
65.14049640953323
 30
0.0
 10
246.9597574001418
 20
65.09701712102583
 30
0.0
  0
LINE
  5
1E0
330
1F
100
AcDbEntity
  8
0
  6
Continuous
 62
     7
370
    18
100
AcDbLine
 10
248.4156093882
 20
59.1675405579
 30
0.0
 11
251.964770719
 21
56.970378008
 31
0.0
  0
LINE
  5
1E1
330
1F
100
AcDbEntity
  8
0
  6
Continuous
 62
     7
370
    18
100
AcDbLine
 10
248.4156093882
 20
59.1675405579
 30
0.0
 11
248.310047574
 21
59.3148487222
 31
0.0
  0
ARC
  5
1E2
330
1F
100
AcDbEntity
  8
0
  6
Continuous
 62
     7
370
    18
100
AcDbCircle
 10
247.8641831136
 20
58.8817512737
 30
0.0
 40
0.6210848985563302
100
AcDbArc
 50
332.6035174885
 51
27.3964825115
  0
LINE
  5
1E3
330
1F
100
AcDbEntity
  8
0
  6
Continuous
 62
     7
370
    18
100
AcDbLine
 10
247.5760627975
 20
60.5307121873
 30
0.0
 11
247.6384103015
 21
60.4053860257
 31
0.0
  0
LINE
  5
1E4
330
1F
100
AcDbEntity
  8
0
  6
Continuous
 62
     7
370
    18
100
AcDbLine
 10
246.9597574001
 20
65.097017121
 30
0.0
 11
247.5760627975
 21
60.5307121873
 31
0.0
  0
ARC
  5
1E5
330
1F
100
AcDbEntity
  8
0
  6
Continuous
 62
     7
370
    18
100
AcDbCircle
 10
247.1567219848
 20
60.1749223268
 30
0.0
 40
0.5499392166078778
100
AcDbArc
 50
40.312950992
 51
95.300739717
  0
SPLINE
  5
1E6
330
1F
100
AcDbEntity
  8
0
  6
Continuous
 62
     7
370
    18
100
AcDbSpline
210
0.0
220
0.0
230
1.0
 70
     8
 71
     3
 72
     9
 73
     5
 74
     0
 42
0.000000001
 43
0.00000001
 40
0.0
 40
0.0
 40
0.0
 40
0.0
 40
0.2354840719332323
 40
1.0
 40
1.0
 40
1.0
 40
1.0
 10
247.8642147692284
 20
59.71868671175697
 30
0.0
 10
247.9003318670611
 20
59.66662631423134
 30
0.0
 10
248.0537057132672
 20
59.44554810245153
 30
0.0
 10
248.2588065395797
 20
59.28799353457982
 30
0.0
 10
248.4156093881552
 20
59.1675405579022
 30
0.0
  0
SPLINE
  5
1E7
330
1F
100
AcDbEntity
  8
0
  6
Continuous
 62
     7
370
    18
100
AcDbSpline
210
0.0
220
0.0
230
1.0
 70
     8
 71
     3
 72
     9
 73
     5
 74
     0
 42
0.000000001
 43
0.00000001
 40
0.0
 40
0.0
 40
0.0
 40
0.0
 40
0.7645159280667364
 40
0.9999999999999999
 40
0.9999999999999999
 40
0.9999999999999999
 40
0.9999999999999999
 10
247.5760627974913
 20
60.53071218727664
 30
0.0
 10
247.6248958215346
 20
60.31727423919445
 30
0.0
 10
247.6887702579598
 20
60.03809372738755
 30
0.0
 10
247.830774930666
 20
59.77956589778083
 30
0.0
 10
247.8642147692284
 20
59.71868671175697
 30
0.0
  0
LWPOLYLINE
  5
1E8
330
1F
100
AcDbEntity
  8
0
  6
Continuous
 62
     7
370
    18
100
AcDbPolyline
 90
       43
 70
   128
 43
0.0
 10
251.262071341
 20
23.7628958039
 10
250.676723685
 20
24.1856752621
 10
250.1426054792
 20
24.6867357784
 10
249.6627454163
 20
25.2632361121
 10
249.2398645206
 20
25.9119072445
 10
248.876360719
 20
26.6290709157
 10
248.574295243
 20
27.4106604821
 10
248.3353809411
 20
28.2522439759
 10
248.1609725658
 20
29.1490492366
 10
248.0520590918
 20
30.095990971
 10
248.009258108
 20
31.0876995896
 10
248.0328123154
 20
32.1185516542
 10
248.1225881509
 20
33.1827017655
 10
248.2780765448
 20
34.2741157091
 10
248.4983958073
 20
35.3866046724
 10
248.7822966281
 20
36.5138603377
 10
249.1281691607
 20
37.6494906536
 10
249.5340521507
 20
38.7870560805
 10
249.9976440572
 20
39.9201061059
 10
250.5163161037
 20
41.0422158217
 10
251.0871271842
 20
42.1470223561
 10
251.7068405405
 20
43.2282609545
 10
252.3719421166
 20
44.2798005031
 10
253.0786604845
 20
45.295678295
 10
253.8229882302
 20
46.270133842
 10
254.6007046773
 20
47.1976415386
 10
255.4073998204
 20
48.072941995
 10
256.2384993318
 20
48.8910718601
 10
257.0892904999
 20
49.6473919661
 10
257.9549489523
 20
50.3376136346
 10
258.8305660126
 20
50.9578229952
 10
259.7111765345
 20
51.5045031793
 10
260.5917870563
 20
51.974554262
 10
261.4674041167
 20
52.3653108402
 10
262.3330625691
 20
52.6745571467
 10
263.1838537371
 20
52.9005396144
 10
264.0149532486
 20
53.0419768202
 10
264.8216483917
 20
53.0980667509
 10
265.5993648388
 20
53.0684913511
 10
266.3436925845
 20
52.9534183268
 10
267.0504109524
 20
52.7535001942
 10
267.7155125285
 20
52.46987058
 10
267.9855040471
 20
52.323861415
  0
LWPOLYLINE
  5
1E9
330
1F
100
AcDbEntity
  8
0
  6
Continuous
 62
     7
370
    18
100
AcDbPolyline
 90
       19
 70
   128
 43
0.0
 10
267.2650220651
 20
29.6450632693
 10
267.9652526159
 20
30.5943879553
 10
268.6257109534
 20
31.5833531063
 10
269.2422104105
 20
32.60568964
 10
269.8108429771
 20
33.6549169318
 10
270.3280040728
 20
34.7243838955
 10
270.7904153965
 20
35.8073111453
 10
271.1951457077
 20
36.8968339699
 10
271.5396294078
 20
37.9860458485
 10
271.8216828034
 20
39.0680422316
 10
272.0395179487
 20
40.1359643087
 10
272.1917539797
 20
41.1830424869
 10
272.2774258673
 20
42.2026393035
 10
272.2959905344
 20
43.188291501
 10
272.2473302992
 20
44.1337509979
 10
272.1317536203
 20
45.0330244956
 10
271.9499931423
 20
45.8804114701
 10
271.7032010505
 20
46.6705403077
 10
271.4040022541
 20
47.3757776215
  0
LWPOLYLINE
  5
1EA
330
1F
100
AcDbEntity
  8
0
  6
Continuous
 62
     7
370
    18
100
AcDbPolyline
 90
       13
 70
   128
 43
0.0
 10
258.4170311316
 20
53.0393274293
 10
259.3952839996
 20
53.587587811
 10
260.3695319619
 20
54.0465751638
 10
261.3339865298
 20
54.4135624169
 10
262.282917402
 20
54.6863691177
 10
263.2106865108
 20
54.8633743866
 10
264.1117815215
 20
54.9435265478
 10
264.980848583
 20
54.9263493777
 10
265.8127241384
 20
54.8119449344
 10
266.6024656036
 20
54.6009929513
 10
267.3453807342
 20
54.2947467982
 10
268.0370555042
 20
53.8950260352
 10
268.6733803317
 20
53.4042056007
  0
LINE
  5
1EB
330
1F
100
AcDbEntity
  8
0
  6
Continuous
 62
     7
370
    18
100
AcDbLine
 10
265.0851880715
 20
27.5961725809
 30
0.0
 11
265.5445432429
 21
28.0659613886
 31
0.0
  0
LWPOLYLINE
  5
1EC
330
1F
100
AcDbEntity
  8
0
  6
Continuous
 62
     7
370
    18
100
AcDbPolyline
 90
       14
 70
   128
 43
0.0
 10
271.4271119805
 20
38.6387098684
 10
271.6434250052
 20
39.5654828825
 10
271.8318014609
 20
40.6148881147
 10
271.9545492719
 20
41.640769843
 10
272.0108849665
 20
42.6365800939
 10
272.0004489666
 20
43.5959628333
 10
271.9233078827
 20
44.5127945362
 10
271.7799540893
 20
45.3812232709
 10
271.5713025814
 20
46.1957060512
 10
271.2986851349
 20
46.9510442159
 10
270.963841806
 20
47.6424166104
 10
270.5689098247
 20
48.2654103597
 10
270.1164099534
 20
48.8160490339
 10
270.0955082966
 20
48.8382556623
  0
ARC
  5
1ED
330
1F
100
AcDbEntity
  8
0
  6
Continuous
 62
     7
370
    18
100
AcDbCircle
 10
256.9121369443
 20
28.9943629193
 30
0.0
 40
5.589928256994082
100
AcDbArc
 50
230.497534557
 51
281.3696053259
  0
LINE
  5
1EE
330
1F
100
AcDbEntity
  8
0
  6
Continuous
 62
     7
370
    18
100
AcDbLine
 10
242.0854385159
 20
29.1292896889
 30
0.0
 11
250.237807
 21
24.4230275386
 31
0.0
  0
LINE
  5
1EF
330
1F
100
AcDbEntity
  8
0
  6
Continuous
 62
     7
370
    18
100
AcDbLine
 10
255.5308947218
 20
54.4628009106
 30
0.0
 11
258.4664985642
 21
52.6454704985
 31
0.0
  0
ARC
  5
1F0
330
1F
100
AcDbEntity
  8
0
  6
Continuous
 62
     7
370
    18
100
AcDbCircle
 10
251.818464302
 20
65.8029131927
 30
0.0
 40
11.93232107311901
100
AcDbArc
 50
251.9841766053
 51
288.1269757395
  0
LINE
  5
1F1
330
1F
100
AcDbEntity
  8
0
  6
Continuous
 62
     7
370
    18
100
AcDbLine
 10
258.392280682
 20
51.9946779118
 30
0.0
 11
255.3840364684
 21
53.8569774555
 31
0.0
  0
ARC
  5
1F2
330
1F
100
AcDbEntity
  8
0
  6
Continuous
 62
     7
370
    18
100
AcDbCircle
 10
251.6107024723
 20
65.4214035742
 30
0.0
 40
12.20605481978464
100
AcDbArc
 50
251.9418840076
 51
287.4401321221
  0
LINE
  5
1F3
330
1F
100
AcDbEntity
  8
0
  6
Continuous
 62
     7
370
    18
100
AcDbLine
 10
244.1559506784
 20
49.5656312937
 30
0.0
 11
242.9501048192
 21
49.5810900889
 31
0.0
  0
OLE2FRAME
  5
1F4
330
1F
100
AcDbEntity
  8
0
100
AcDbOle2Frame
 70
     2
  3
Paintbrush-Bild
 10
13.8511154363
 20
38.264191557
 30
0.0
 11
51.6290888628
 21
31.9806341108
 31
0.0
 71
     2
 72
     0
 73
     1
 90
    12928
310
80552BED0767C5B32B40DDAF6807D121434000000000000000006FFBDDFB85D0
310
4940DDAF6807D121434000000000000000006FFBDDFB85D04940416F4BD60AFB
310
3F4000000000000000002BED0767C5B32B40416F4BD60AFB3F40000000000000
310
0000000000000100000000010000010000000100000000000100000000320000
310
D0CF11E0A1B11AE1000000000000000000000000000000003E000300FEFF0900
310
0600000000000000000000000100000001000000000000000010000002000000
310
01000000FEFFFFFF0000000000000000FFFFFFFFFFFFFFFFFFFFFFFFFFFFFFFF
310
FFFFFFFFFFFFFFFFFFFFFFFFFFFFFFFFFFFFFFFFFFFFFFFFFFFFFFFFFFFFFFFF
310
FFFFFFFFFFFFFFFFFFFFFFFFFFFFFFFFFFFFFFFFFFFFFFFFFFFFFFFFFFFFFFFF
310
FFFFFFFFFFFFFFFFFFFFFFFFFFFFFFFFFFFFFFFFFFFFFFFFFFFFFFFFFFFFFFFF
310
FFFFFFFFFFFFFFFFFFFFFFFFFFFFFFFFFFFFFFFFFFFFFFFFFFFFFFFFFFFFFFFF
310
FFFFFFFFFFFFFFFFFFFFFFFFFFFFFFFFFFFFFFFFFFFFFFFFFFFFFFFFFFFFFFFF
310
FFFFFFFFFFFFFFFFFFFFFFFFFFFFFFFFFFFFFFFFFFFFFFFFFFFFFFFFFFFFFFFF
310
FFFFFFFFFFFFFFFFFFFFFFFFFFFFFFFFFFFFFFFFFFFFFFFFFFFFFFFFFFFFFFFF
310
FFFFFFFFFFFFFFFFFFFFFFFFFFFFFFFFFFFFFFFFFFFFFFFFFFFFFFFFFFFFFFFF
310
FFFFFFFFFFFFFFFFFFFFFFFFFFFFFFFFFFFFFFFFFFFFFFFFFFFFFFFFFFFFFFFF
310
FFFFFFFFFFFFFFFFFFFFFFFFFFFFFFFFFFFFFFFFFFFFFFFFFFFFFFFFFFFFFFFF
310
FFFFFFFFFFFFFFFFFFFFFFFFFFFFFFFFFFFFFFFFFFFFFFFFFFFFFFFFFFFFFFFF
310
FFFFFFFFFFFFFFFFFFFFFFFFFFFFFFFFFFFFFFFFFFFFFFFFFFFFFFFFFFFFFFFF
310
FFFFFFFFFFFFFFFFFFFFFFFFFFFFFFFFFFFFFFFFFFFFFFFFFFFFFFFFFFFFFFFF
310
FDFFFFFFFEFFFFFFFEFFFFFFFEFFFFFF05000000060000000700000008000000
310
090000000A0000000B0000000C0000000D0000000E0000000F00000010000000
310
11000000120000001300000014000000150000001600000017000000FEFFFFFF
310
FFFFFFFFFFFFFFFFFFFFFFFFFFFFFFFFFFFFFFFFFFFFFFFFFFFFFFFFFFFFFFFF
310
FFFFFFFFFFFFFFFFFFFFFFFFFFFFFFFFFFFFFFFFFFFFFFFFFFFFFFFFFFFFFFFF
310
FFFFFFFFFFFFFFFFFFFFFFFFFFFFFFFFFFFFFFFFFFFFFFFFFFFFFFFFFFFFFFFF
310
FFFFFFFFFFFFFFFFFFFFFFFFFFFFFFFFFFFFFFFFFFFFFFFFFFFFFFFFFFFFFFFF
310
FFFFFFFFFFFFFFFFFFFFFFFFFFFFFFFFFFFFFFFFFFFFFFFFFFFFFFFFFFFFFFFF
310
FFFFFFFFFFFFFFFFFFFFFFFFFFFFFFFFFFFFFFFFFFFFFFFFFFFFFFFFFFFFFFFF
310
FFFFFFFFFFFFFFFFFFFFFFFFFFFFFFFFFFFFFFFFFFFFFFFFFFFFFFFFFFFFFFFF
310
FFFFFFFFFFFFFFFFFFFFFFFFFFFFFFFFFFFFFFFFFFFFFFFFFFFFFFFFFFFFFFFF
310
FFFFFFFFFFFFFFFFFFFFFFFFFFFFFFFFFFFFFFFFFFFFFFFFFFFFFFFFFFFFFFFF
310
FFFFFFFFFFFFFFFFFFFFFFFFFFFFFFFFFFFFFFFFFFFFFFFFFFFFFFFFFFFFFFFF
310
FFFFFFFFFFFFFFFFFFFFFFFFFFFFFFFFFFFFFFFFFFFFFFFFFFFFFFFFFFFFFFFF
310
FFFFFFFFFFFFFFFFFFFFFFFFFFFFFFFFFFFFFFFFFFFFFFFFFFFFFFFFFFFFFFFF
310
FFFFFFFFFFFFFFFFFFFFFFFFFFFFFFFFFFFFFFFFFFFFFFFFFFFFFFFFFFFFFFFF
310
52006F006F007400200045006E00740072007900000000000000000000000000
310
0000000000000000000000000000000000000000000000000000000000000000
310
16000500FFFFFFFFFFFFFFFF020000000A00030000000000C000000000000046
310
000000000000000000000000D0B2F4CED0AED30103000000C000000000000000
310
01004F006C006500000000000000000000000000000000000000000000000000
310
0000000000000000000000000000000000000000000000000000000000000000
310
0A000200FFFFFFFFFFFFFFFFFFFFFFFF00000000000000000000000000000000
310
0000000000000000000000000000000000000000000000001400000000000000
310
010043006F006D0070004F0062006A0000000000000000000000000000000000
310
0000000000000000000000000000000000000000000000000000000000000000
310
120002010100000003000000FFFFFFFF00000000000000000000000000000000
310
0000000000000000000000000000000000000000010000004D00000000000000
310
01004F006C006500310030004E00610074006900760065000000000000000000
310
0000000000000000000000000000000000000000000000000000000000000000
310
1A000200FFFFFFFFFFFFFFFFFFFFFFFF00000000000000000000000000000000
310
0000000000000000000000000000000000000000040000002426000000000000
310
FEFFFFFF02000000FEFFFFFFFFFFFFFFFFFFFFFFFFFFFFFFFFFFFFFFFFFFFFFF
310
FFFFFFFFFFFFFFFFFFFFFFFFFFFFFFFFFFFFFFFFFFFFFFFFFFFFFFFFFFFFFFFF
310
FFFFFFFFFFFFFFFFFFFFFFFFFFFFFFFFFFFFFFFFFFFFFFFFFFFFFFFFFFFFFFFF
310
FFFFFFFFFFFFFFFFFFFFFFFFFFFFFFFFFFFFFFFFFFFFFFFFFFFFFFFFFFFFFFFF
310
FFFFFFFFFFFFFFFFFFFFFFFFFFFFFFFFFFFFFFFFFFFFFFFFFFFFFFFFFFFFFFFF
310
FFFFFFFFFFFFFFFFFFFFFFFFFFFFFFFFFFFFFFFFFFFFFFFFFFFFFFFFFFFFFFFF
310
FFFFFFFFFFFFFFFFFFFFFFFFFFFFFFFFFFFFFFFFFFFFFFFFFFFFFFFFFFFFFFFF
310
FFFFFFFFFFFFFFFFFFFFFFFFFFFFFFFFFFFFFFFFFFFFFFFFFFFFFFFFFFFFFFFF
310
FFFFFFFFFFFFFFFFFFFFFFFFFFFFFFFFFFFFFFFFFFFFFFFFFFFFFFFFFFFFFFFF
310
FFFFFFFFFFFFFFFFFFFFFFFFFFFFFFFFFFFFFFFFFFFFFFFFFFFFFFFFFFFFFFFF
310
FFFFFFFFFFFFFFFFFFFFFFFFFFFFFFFFFFFFFFFFFFFFFFFFFFFFFFFFFFFFFFFF
310
FFFFFFFFFFFFFFFFFFFFFFFFFFFFFFFFFFFFFFFFFFFFFFFFFFFFFFFFFFFFFFFF
310
FFFFFFFFFFFFFFFFFFFFFFFFFFFFFFFFFFFFFFFFFFFFFFFFFFFFFFFFFFFFFFFF
310
FFFFFFFFFFFFFFFFFFFFFFFFFFFFFFFFFFFFFFFFFFFFFFFFFFFFFFFFFFFFFFFF
310
FFFFFFFFFFFFFFFFFFFFFFFFFFFFFFFFFFFFFFFFFFFFFFFFFFFFFFFFFFFFFFFF
310
FFFFFFFFFFFFFFFFFFFFFFFFFFFFFFFFFFFFFFFFFFFFFFFFFFFFFFFFFFFFFFFF
310
0100000200000000000000000000000000000000000000000000000000000000
310
0000000000000000000000000000000000000000000000000000000000000000
310
0100FEFF030A0000FFFFFFFF0A00030000000000C00000000000004607000000
310
5042727573680007000000504272757368000700000050427275736800F439B2
310
7100000000000000000000000000000000000000000000000000000000000000
310
0000000000000000000000000000000000000000000000000000000000000000
310
0000000000000000000000000000000000000000000000000000000000000000
310
0000000000000000000000000000000000000000000000000000000000000000
310
0000000000000000000000000000000000000000000000000000000000000000
310
0000000000000000000000000000000000000000000000000000000000000000
310
0000000000000000000000000000000000000000000000000000000000000000
310
0000000000000000000000000000000000000000000000000000000000000000
310
0000000000000000000000000000000000000000000000000000000000000000
310
0000000000000000000000000000000000000000000000000000000000000000
310
0000000000000000000000000000000000000000000000000000000000000000
310
0000000000000000000000000000000000000000000000000000000000000000
310
20260000424D0E260000000000003E00000028000000B40200006E0000000100
310
01000000000000000000130B0000130B00000200000002000000000000FFFFFF
310
FFFFFFFFFFFFFFFFFFFFFFFFFFFFFFFFFFFFFFFFFFFFFFFFFFFFFFFFFFFFFFFF
310
FFFFFFFFFFFFFFFFFFFFFFFFFFFFFFFFFFFFFFFFFFFFFFFFFFFFFFFFFFFFFFFF
310
FFFFFFFFFFFFFFFFFFFFFFFFFFFFFFFFFFFFFFFFFFFFFFFFF000FFFFFFFFFFFF
310
FFFFFFFFFFFFFFFFFFFFFFFFFFFFFFFFFFFFFFFFFFFFFFFFFFFFFFFFFFFFFFFF
310
FFFFFFFFFFFFFFFFFFFFFFFFFFFFFFFFFFFFFFFFFFFFFFFFFFFFFFFFFFFFFFFF
310
FFFFFFFFFFFFFFFFFFFFFFFFFFFFFFFFF000FFFFFFFFFFFFFFFFFFFFFFFFFFFF
310
FFFFFFFFFFFFFFFFFFFFFFFFFFFFFFFFFFFFFFFFFFFFFFFFFFFFFFFFFFFFFFFF
310
FFFFFFFFFFFFFFFFFFFFFFFFFFFFFFFFFFFFFFFFFFFFFFFFFFFFFFFFFFFFFFFF
310
FFFFFFFFFFFFFFFFF000FFFFFFFFFFFFFFFFFFFFFFFFFFFFFFFFFFFFFFFFFFFF
310
FFFFFFFFFFFFFFFFFFFFFFFFFFFFFFFFFFFFFFFFFFFFFFFFFFFFFFFFFFFFFFFF
310
FFFFFFFFFFFFFFFFFFFFFFFFFFFFFFFFFFFFFFFFFFFFFFFFFFFFFFFFFFFFFFFF
310
F000FFFFFFFFFFFFFFFFFFFFFFFFFFFFFFFFFFFFFFFFFFFFFFFFFFFFFFFFFFFF
310
FFFFFFFFFFFFFFFFFFFFFFFFFFFFFFFFFFFFFFFFFFFFFFFFFFFFFFFFFFFFFFFF
310
FFFFFFFFFFFFFFFFFFFFFFFFFFFFFFFFFFFFFFFFFFFFFFFFF000FFFFFFFFFFFF
310
FFFFFFFFFFFFFFFFFFFFFFFFFFFFFFFFFFFFFFFFFFFFFFFFFFFFFFFFFFFFFFFF
310
FFFFFFFFFFFFFFFFFFFFFFFFFFFFFFFFFFFFFFFFFFFFFFFFFFFFFFFFFFFFFFFF
310
FFFFFFFFFFFFFFFFFFFFFFFFFFFFFFFFF000FFFFFFFFFFFFFFFFFFFFFFFFFFFF
310
FFFFFFFFFFFFFFFFFFFFFFFFFFFFFFFFFFFFFFFFFFFFFFFFFFFFFFFFFFFFFFFF
310
FFFFFFFFFFFFFFFFFFFFFFFFFFFFFFFFFFFFFFFFFFFFFFFFFFFFFFFFFFFFFFFF
310
FFFFFFFFFFFFFFFFF000FFFFFFFFFFFFFFFFFFFFFFFFFFFFFFFFFFFFFFFFFFFF
310
FFFFFFFFFFFFFFFFFFFFFFFFFFFFFFFFFFFFFFFFFFFFFFFFFFFFFFFFFFFFFFFF
310
FFFFFFFFFFFFFFFFFFFFFFFFFFFFFFFFFFFFFFFFFFFFFFFFFFFFFFFFFFFFFFFF
310
F000FFFFFFFFFFFFFFFFFFFFFFFFFFFFFFFFFFFFFFFFFFFFFFFFFFFFFFFFFFFF
310
FFFFFFFFFFFFFFFFFFFFFFFFFFFFFFFFFFFFFFFFFFFFFFFFFFFFFFFFFFFFFFFF
310
FFFFFFFFFFFFFFFFFFFFFFFFFFFFFFFFFFFFFFFFFFFFFFFFF000FFFFFFFFFFFF
310
FFFFFFFFFFFFFFFFFFFFFFFFFFFFFFFFFFFFFFFFFFFFFFFFFFFFFFFFFFFFFFFF
310
FFFFFFFFFFFFFFFFFFFFFFFFFFFFFFFFFFFFFFFFFFFFFFFFFFFFFFFFFFFFFFFF
310
FFFFFFFFFFFFFFFFFFFFFFFFFFFFFFFFF000FFFFFFFFFFFFFFFFFFFFFFFFFFFF
310
FFFFFFFFFFFFFFFFFFFFFFFFFFFFFFFFFFFFFFFFFFFFFFFFFFFFFFFFFFFFFFFF
310
FFFFFFFFFFFFFFFFFFFFFFFFFFFFFFFFFFFFFFFFFFFFFFFFFFFFFFFFFFFFFFFF
310
FFFFFFFFFFFFFFFFF000FFFFFFFFFFFFFFFFFFFFFFFFFFFFFFFFFFFFFFFFFFFF
310
FFFFFFFFFFFFFFFFFFFFFFFFFFFFFFFFFFFFFFFFFFFFFFFFFFFFFFFFFFFFFFFF
310
FFFFFFFFFFFFFFFFFFFFFFFFFFFFFFFFFFFFFFFFFFFFFFFFFFFFFFFFFFFFFFFF
310
F000FFFFFFFFFFFFFFFFFFFFFFFFFFFFFFFFFFFFFFFFFFFFFFFFFFFFFFFFFFFF
310
FFFFFFFFFFFFFFFFFFFFFFFFFFFFFFFFFFFFFFFFFFFFFFFFFFFFFFFFFFFFFFFF
310
FFFFFFFFFFFFFFFFFFFFFFFFFFFFFFFFFFFFFFFFFFFFFFFFF000FFFFFFFFFFFF
310
FFFFFFFFFFFFFFFFFFFFFFFFFFFFFFFFFFFFFFFFFFFFFFFFFFFFFFFFFFFFFFFF
310
FFFFFFFFFFFFFFFFFFFFFFFFFFFFFFFFFFFFFFFFFFFFFFFFFFFFFFFFFFFFFFFF
310
FFFFFFFFFFFFFFFFFFFFFFFFFFFFFFFFF000FFFFFFFFFFFFFFFFFFFFFFFFFFFF
310
FFFFFFFFFFFFFFFFFFFFFFFFFFFFFFFFFFFFFFFFFFFFFFFFFFFFFFFFFFFFFFFF
310
FFFFFFFFFFFFFFFFFFFFFFFFFFFFFFFFFFFFFFFFFFFFFFFFFFFFFFFFFFFFFFFF
310
FFFFFFFFFFFFFFFFF000FFFFFFFFFFFFFFFFFFFFFFFFFFFFFFFFFFFFFFFFFFFF
310
FFFFFFFFFFFFFFFFFFFFFFFFFFFFFFFFFFFFFFFFFFFFFFFFFFFFFFFFFFFFFFFF
310
FFFFFFFFFFFFFFFFFFFFFFFFFFFFFFFFFFFFFFFFFFFFFFFFFFFFFFFFFFFFFFFF
310
F000FFFFFFFFFFFFFFFFFFFFFFFFFFFFFFFFFFFFFFFFFFFFFFFFFFFFFFFFFFFF
310
FFFFFFFFFFFFFFFFFFFFFFFFFFFFFFFFFFFFFFFFFFFFFFFFFFFFFFFFFFFFFFFF
310
FFFFFFFFFFFFFFFFFFFFFFFFFFFFFFFFFFFFFFFFFFFFFFFFF000FFFFFFFFFFFF
310
FFFFFFFFFFFFFFFFFFFFFFFFFFFFFFFFFFFFFFFFFFFFFFFFFFFFFFFFFFFFFFFF
310
FFFFFFFFFFFFFFFFFFFFFFFFFFFFFFFFFFFFFFFFFFFFFFFFFFFFFFFFFFFFFFFF
310
FFFFFFFFFFFFFFFFFFFFFFFFFFFFFFFFF000FFFFFFFFFFFFFFFFFFFFFFFFFFFF
310
FFFFFFFFFFFFFFFFFFFFFFFFFFFFFFFFFFFFFFFFFFFFFFFFFFFFFFFFFFFFFFFF
310
FFFFFFFFFFFFFFFFFFFFFFFFFFFFFFFFFFFFFFFFFFFFFFFFFFFFFFFFFFFFFFFF
310
FFFFFFFFFFFFFFFFF000FFFFF80003FFFFFFFFFFFFFFFFFFFFFFFFFFFFFFFFFF
310
FFFFF00007FFFFFFFFFF00007FFFFFF800000000000000007FFFFFFFFFFFFFFF
310
FFFFFFFC001FFFFFFFFFFFFFFC001FFFFFFFFFFFFFFFFFFFFFFFFFFE0007FFFF
310
F000FFFF8000007FFFFFFFF8000FFFFFC0007FFFFF80007FFFFF0000007FFFFF
310
FFF8000007FFFFF800000000000000007FFFFFF0001FFFFFFFFFFFC00001FFFF
310
FFFFFFFFC00001FFFFFFFF000000000003FFFFE000007FFFF000FFFE0000000F
310
FFFFFFF0000FFFFF80007FFFFF80007FFFFC0000001FFFFFFFC0000001FFFFF8
310
00000000000000007FFFFFF0001FFFFFFFFFFE0000003FFFFFFFFFFE0000003F
310
FFFFFF000000000003FFFF0000000FFFF000FFF800000003FFFFFFF00007FFFF
310
80007FFFFF80007FFFF000000007FFFFFF000000003FFFF80000000000000000
310
7FFFFFF0001FFFFFFFFFF80000000FFFFFFFFFF80000000FFFFFFF0000000000
310
03FFFC00000003FFF000FFE000000000FFFFFFF00007FFFF80003FFFFF80007F
310
FFC000000001FFFFFC000000001FFFF800000000000000007FFFFFF0001FFFFF
310
FFFFE000000003FFFFFFFFE000000003FFFFFF000000000003FFF000000000FF
310
F000FF80000000007FFFFFF00007FFFF80003FFFFF80007FFF8000000000FFFF
310
F80000000007FFF800000000000000007FFFFFF0001FFFFFFFFFC000000001FF
310
FFFFFFC000000001FFFFFF000000000003FFC0000000007FF000FF0000000000
310
3FFFFFE00007FFFF00003FFFFF80007FFE00000000003FFFF00000000003FFF8
310
00000000000000007FFFFFF0001FFFFFFFFF8000000000FFFFFFFF8000000000
310
FFFFFF000000000003FF80000000003FF000FE00000000001FFFFFE00003FFFF
310
00003FFFFF80007FFC00000000001FFFE00000000001FFF8000001FFFE000000
310
7FFFFFF0001FFFFFFFFE00000000003FFFFFFE00000000003FFFFF0000000000
310
03FF00000000001FF000FC00000000000FFFFFE00003FFFF00001FFFFF80007F
310
F800000000001FFFC00000000000FFF8000001FFFE0000007FFFFFF0001FFFFF
310
FFFC00000000001FFFFFFC00000000001FFFFF000000000003FE00000000000F
310
F000F8000000000007FFFFE00003FFFF00001FFFFF80007FF800000000000FFF
310
800000000000FFF8000001FFFE0000007FFFFFF0001FFFFFFFF800000000000F
310
FFFFF800000000000FFFFF000000000003FC000000000007F000F80000000000
310
03FFFFC00003FFFE00001FFFFF80007FF0000000000007FF0000000000007FF8
310
000001FFFE0000007FFFFFF0001FFFFFFFF0000000000007FFFFF00000000000
310
07FFFF000000000003F8000000000003F000F0000000000003FFFFC00001FFFE
310
00001FFFFF80007FE0000000000007FE0000000000003FF8000001FFFE000000
310
7FFFFFF0001FFFFFFFF0000000000007FFFFF0000000000007FFFF0000000000
310
03F800001F800003F000E00001FFF00001FFFFC00001FFFE00000FFFFF80007F
310
E00001FFE00003FE00001FFF00003FF8000001FFFE0000007FFFFFF0001FFFFF
310
FFE000003E000003FFFFE000003E000003FFFF000000000003F00001FFF80001
310
F000E00007FFFC0001FFFFC00001FFFE00000FFFFF80007FC0000FFFFC0003FC
310
0000FFFFC0001FF8000001FFFE0000007FFFFFF0001FFFFFFFC00003FFE00001
310
FFFFC00003FFE00001FFFF0001FFFFFFFFF00007FFFE0001F000E0000FFFFF00
310
00FFFF800001FFFC00000FFFFF80007FC0001FFFFE0001FC0001FFFFE0001FF8
310
000001FFFE0000007FFFFFF0001FFFFFFF80000FFFF80000FFFF80000FFFF800
310
00FFFF0003FFFFFFFFE0000FFFFF8000F000C0003FFFFF8000FFFF800000FFFC
310
000007FFFF80007F80003FFFFF0001FC0003FFFFF0001FF8000001FFFE000000
310
7FFFFFF0001FFFFFFF80003FFFFE0000FFFF80003FFFFE0000FFFF0003FFFFFF
310
FFE0003FFFFF8000F000C0003FFFFF8000FFFF800000FFFC000007FFFF80007F
310
80007FFFFF8001F80007FFFFF8000FF8000001FFFE0000007FFFFFF0001FFFFF
310
FF00007FFFFF00007FFF00007FFFFF00007FFF0003FFFFFFFFE0003FFFFFC000
310
F000C0007FFFFFC000FFFF000000FFFC000007FFFF80007F8000FFFFFF8000F8
310
000FFFFFF8000FF8000001FFFE0000007FFFFFF0001FFFFFFF0000FFFFFF8000
310
7FFF0000FFFFFF80007FFF0003FFFFFFFFC0007FFFFFC00070008000FFFFFFC0
310
00FFFF000000FFF8000007FFFF80007F8000FFFFFF8000F8000FFFFFF8000FF8
310
000001FFFE0000007FFFFFF0001FFFFFFE0001FFFFFFC0003FFE0001FFFFFFC0
310
003FFF0003FFFFFFFFC0007FFFFFE00070008000FFFFFFC0007FFF0000007FF8
310
000003FFFF80007F0001FFFFFF8000F8000FFFFFF8000FF8000001FFFE000000
310
7FFFFFF0001FFFFFFE0001FFFFFFC0003FFE0001FFFFFFC0003FFF0003FFFFFF
310
FFC000FFFFFFE00070008000FFFFFFC0007FFF0000007FF8000003FFFF80007F
310
0001FFFFFF8000F8001FFFFFF8000FF8000001FFFE0000007FFFFFF0001FFFFF
310
FE0003FFFFFFE0003FFE0003FFFFFFE0003FFF0003FFFFFFFFC000FFFFFFE000
310
70008000FFFFFFC0007FFE0000007FF8000003FFFF80007F0001FFFFFF8000F0
310
001FFFFFF8000FF8000001FFFE0000007FFFFFF0001FFFFFFC0003FFFFFFE000
310
1FFC0003FFFFFFE0001FFF0003FFFFFFFFC000FFFFFFC00070008000FFFFFF80
310
007FFE0000007FF0000003FFFF80007F0001FFFFFF0000F0001FFFFFF8000FF8
310
000001FFFE0000007FFFFFF0001FFFFFFC0007FFFFFFF0001FFC0007FFFFFFF0
310
001FFF0003FFFFFFFFC000FFFFFFC00070008001FFFFFF0000FFFE0000003FF0
310
000001FFFF80007F0001FFFFFF0000F8001FFFFFF0000FF8000001FFFE000000
310
7FFFFFF0001FFFFFFC0007FFFFFFF0001FFC0007FFFFFFF0001FFF0003FFFFFF
310
FFC001FFFFFF80007000FFFFFFFFFE0000FFFE0008003FF0008001FFFF80007F
310
FFFFFFFFFC0000FFFFFFFFFFE0000FF8000001FFFE0000007FFFFFF0001FFFFF
310
F8000FFFFFFFF8000FF8000FFFFFFFF8000FFF0003FFFFFFFFFFFFFFFFFF0000
310
7000FFFFFFFFFC0000FFFC0008003FF0008001FFFF80007FFFFFFFFFF80001FF
310
FFFFFFFF80000FF8000001FFFE0000007FFFFFF0001FFFFFF8000FFFFFFFF800
310
0FF8000FFFFFFFF8000FFF0003FFFFFFFFFFFFFFFFFE0000F000FFFFFFFFE000
310
00FFFC000C003FE000C001FFFF80007FFFFFFFFFC00001FFFFFFFFFE00001FF8
310
000001FFFE0000007FFFFFF0001FFFFFF8000FFFFFFFF8000FF8000FFFFFFFF8
310
000FFF0003FFFFFFFFFFFFFFFFF00000F000FFFFFFFE000001FFFC000C001FE0
310
00C000FFFF80007FFFFFFFFE000001FFFFFFFFE000001FF80FFFFFFFFFFFFFC0
310
7FFFFFF0001FFFFFF8000FFFFFFFF8000FF8000FFFFFFFF8000FFF0003FFFFFF
310
FFFFFFFFFF800000F000FFFFFFC0000001FFFC001C001FE001C000FFFF80007F
310
FFFFFF80000003FFFFFFF80000001FF80FFFFFFFFFFFFFC07FFFFFF0001FFFFF
310
F8001FFFFFFFFC000FF8001FFFFFFFFC000FFF0003FFFFFFFFFFFFFFF0000001
310
F000FFFFF800000001FFF8001C001FE001C000FFFF80007FFFFFF800000003FF
310
FFFF800000003FF80FFFFFFFFFFFFFC07FFFFFF0001FFFFFF8001FFFFFFFFC00
310
0FF8001FFFFFFFFC000FFF0003FFFFFFFFFFFFFE00000001F000FFFFC0000000
310
03FFF8001E001FC001E000FFFF80007FFFFF8000000007FFFFFC000000003FF8
310
0FFFFFFFFFFFFFC07FFFFFF0001FFFFFF8001FFFFFFFFC000FF8001FFFFFFFFC
310
000FFF0003FFFFFFFFFFFFE000000003F000FFFE0000000007FFF8001E000FC0
310
01E0007FFF80007FFFFE0000000007FFFFE0000000007FF80FFFFFFFFFFFFFC0
310
7FFFFFF0001FFFFFF0001FFFFFFFFC0007F0001FFFFFFFFC0007FF0003FFFFFF
310
FFFFFF0000000003F000FFF80000000007FFF8001E000FC003E0007FFF80007F
310
FFF0000000000FFFFF8000000000FFF80FFFFFFFFFFFFFC07FFFFFF0001FFFFF
310
F0001FFFFFFFFC0007F0001FFFFFFFFC0007FF0003FFFFFFFFFFFC0000000007
310
F000FFE0000000000FFFF0003E000FC003E0007FFF80007FFFC0000000001FFF
310
FE0000000001FFF80FFFFFFFFFFFFFC07FFFFFF0001FFFFFF0001FFFFFFFFC00
310
07F0001FFFFFFFFC0007FF0003FFFFFFFFFFF0000000000FF000FFC000000000
310
1FFFF0003F000F8003F0003FFF80007FFF80000000003FFFF80000000003FFF8
310
0FFFFFFFFFFFFFC07FFFFFF0001FFFFFF0001FFFFFFFFC0007F0001FFFFFFFFC
310
0007FF0003FFFFFFFFFFE0000000001FF000FF00000000007FFFF0003F000780
310
03F0003FFF80007FFF00000000007FFFF00000000007FFF80FFFFFFFFFFFFFC0
310
7FFFFFF0001FFFFFF0001FFFFFFFFC0007F0001FFFFFFFFC0007FF0003FFFFFF
310
FFFF80000000007FF000FE0000000000FFFFE0003F00078007F0003FFF80007F
310
FE0000000001FFFFE0000000001FFFF80FFFFFFFFFFFFFC07FFFFFF0001FFFFF
310
F0001FFFFFFFFC0007F0001FFFFFFFFC0007FF0003FFFFFFFFFF0000000000FF
310
F000FC0000000003FFFFE0007F00078007F0003FFF80007FFC0000000007FFFF
310
C0000000007FFFF80FFFFFFFFFFFFFC07FFFFFF0001FFFFFF8001FFFFFFFFC00
310
0FF8001FFFFFFFFC000FFF0003FFFFFFFFFE0000000003FFF000FC000000000F
310
FFFFE0007F80070007F8001FFF80007FF8000000001FFFFF8000000001FFFFF8
310
0FFFFFFFFFFFFFC07FFFFFF0001FFFFFF8001FFFFFFFFC000FF8001FFFFFFFFC
310
000FFF0003FFFFFFFFFC000000000FFFF000F8000000007FFFFFE0007F800700
310
07F8001FFF80007FF000000000FFFFFF800000000FFFFFF80FFFFFFFFFFFFFC0
310
7FFFFFF0001FFFFFF8000FFFFFFFF8000FF8000FFFFFFFF8000FFF0003FFFFFF
310
FFFC000000007FFFF000F800000007FFFFFFC0007F8003000FF8001FFF80007F
310
F000000007FFFFFF000000007FFFFFF80FFFFFFFFFFFFFC07FFFFFF0001FFFFF
310
F8000FFFFFFFF8000FF8000FFFFFFFF8000FFF0003FFFFFFFFF80000000FFFFF
310
F000F0000000FFFFFFFFC000FF8003000FF8001FFF80007FE0000000FFFFFFFF
310
0000000FFFFFFFF8000001FFFE0000007FFFFFF0001FFFFFF8000FFFFFFFF800
310
0FF8000FFFFFFFF8000FFF0003FFFFFFFFF8000000FFFFFFF000F000000FFFFF
310
FFFFC000FFC002000FF8000FFF80007FE000001FFFFFFFFE000001FFFFFFFFF8
310
000001FFFE0000007FFFFFF0001FFFFFF8000FFFFFFFF8000FF8000FFFFFFFF8
310
000FFF0003FFFFFFFFF000001FFFFFFFF000E00000FFFFFFFFFFC000FFC00200
310
0FFC000FFF80007FE00001FFFFFFFFFE00001FFFFFFFFFF8000001FFFE000000
310
7FFFFFF0001FFFFFFC000FFFFFFFF8001FFC000FFFFFFFF8001FFF0003FFFFFF
310
FFF00001FFFFFFFFF000E00007FFFFFFFFFF8000FFC000001FFC000FFF80007F
310
C0000FFFFFFFFFFE0000FFFFFFFFFFF8000001FFFE0000007FFFFFF0001FFFFF
310
FC0007FFFFFFF0001FFC0007FFFFFFF0001FFF0003FFFFFFFFF00007FFFFFFFF
310
F000E0001FFFFFFFFFFF8000FFC000001FFC000FFF80007FC0003FFFFFFFFFFE
310
0001FFFFFFFFFFF8000001FFFE0000007FFFFFF0001FFFFFFC0007FFFFFFF000
310
1FFC0007FFFFFFF0001FFF0003FFFFFFFFF0001FFFFFFFFFF000E0003FFFFF00
310
03FF8001FFE000001FFC0007FF80007FC0007FFFFF0007FC0003FFFFF0003FF8
310
000001FFFE0000007FFFFFF0001FFFFFFC0003FFFFFFE0001FFC0003FFFFFFE0
310
001FFF0003FFFFFFFFF0003FFFFFFFFFF000E0003FFFFF0001FF8001FFE00000
310
1FFE0007FF80007FC0007FFFFE0003FC0007FFFFE0003FF8000001FFFE000000
310
7FFFFFF0001FFFFFFE0003FFFFFFE0003FFE0003FFFFFFE0003FFF0003FFFFFF
310
FFF0003FFFFF8001F000E0003FFFFF0001FF0001FFE000001FFE0007FF80007F
310
C0007FFFFE0003FC0007FFFFE0003FF8000001FFFE0000007FFFFFF0001FFFFF
310
FE0001FFFFFFC0003FFE0001FFFFFFC0003FFF0003FFFFFFFFF0003FFFFF0001
310
F000E0003FFFFF0003FF0001FFE000003FFE0007FF80007FC0007FFFFE0003FC
310
0007FFFFE0003FF8000001FFFE0000007FFFFFF0001FFFFFFF0001FFFFFFC000
310
7FFF0001FFFFFFC0007FFF0003FFFFFFFFF0003FFFFF0001F000E0003FFFFE00
310
03FF0003FFF000003FFE0003FF80007FC0007FFFFC0003FE0007FFFFE0003FF8
310
000001FFFE0000007FFFFFF0001FFFFFFF0000FFFFFF80007FFF0000FFFFFF80
310
007FFF0003FFFFFFFFF0003FFFFF0001F000E0003FFFFE0003FF0003FFF00000
310
3FFF0003FF80007FC0007FFFFC0007FE0007FFFFC0003FF8000001FFFE000000
310
7FFFFFF0001FFFFFFF80007FFFFF0000FFFF80007FFFFF0000FFFF0003FFFFFF
310
FFF0003FFFFF0003F000E0003FFFFC0003FE0003FFF000003FFF0003FF80007F
310
E0003FFFF80007FE0003FFFFC0007FF8000001FFFE0000007FFFFFF0001FFFFF
310
FF80003FFFFE0000FFFF80003FFFFE0000FFFF0003FFFFFFFFF0001FFFFE0003
310
F000F0001FFFF80003FE0003FFF000007FFF0001FF80007FE0003FFFF00007FE
310
0001FFFF80007FF8000001FFFE0000007FFFFFF0001FFFFFFFC0000FFFF80001
310
FFFFC0000FFFF80001FFFF0003FFFFFFFFF0001FFFFC0003F000F0000FFFF000
310
07FE0007FFF800007FFF0001FF80007FE0001FFFE00007FF0000FFFE00007FF8
310
000001FFFE0000007FFFFFF0001FFFFFFFC00003FFE00001FFFFC00003FFE000
310
01FFFF0003FFFFFFFFF8000FFFF80003F000F00003FFC00007FC0007FFF80000
310
7FFF8001FF80007FF00007FF80000FFF00007FF80000FFF8000001FFFE000000
310
7F80000000000001FFE000003E000003FFFFE000003E000003FFFF0003FFFFFF
310
FFF80003FFE00007F000F800000000000FFC0007FFF800007FFF8001FF80007F
310
F000000000000FFF000000000000FFF8000001FFFE0000007F80000000000001
310
FFF0000000000007FFFFF0000000000007FFFF0003FFFFFFFFFC00007E000007
310
F000F800000000000FFC0007FFF80000FFFF8000FF80007FF800000000001FFF
310
800000000001FFF8000001FFFE0000007F80000000000001FFF800000000000F
310
FFFFF800000000000FFFFF0003FFFFFFFFFC00000000000FF000FC0000000000
310
1FFC0007FFFC0000FFFF8000FF80007FF800000000003FFFC00000000001FFF8
310
000001FFFE0000007F80000000000001FFF800000000000FFFFFF80000000000
310
0FFFFF0003FFFFFFFFFE00000000001FF000FE00000000003FF8000FFFFC0000
310
FFFF8000FF80007FFC00000000003FFFC00000000003FFF8000001FFFE000000
310
7F80000000000001FFFC00000000001FFFFFFC00000000001FFFFF0003FFFFFF
310
FFFF00000000001FF000FF00000000003FF8000FFFFC0000FFFFC000FF80007F
310
FE00000000007FFFE00000000007FFF8000001FFFE0000007F80000000000001
310
FFFE00000000003FFFFFFE00000000003FFFFF0003FFFFFFFFFF80000000003F
310
F000FF80000000007FF8000FFFFC0001FFFFC0007F80007FFF0000000000FFFF
310
F0000000000FFFF800000000000000007F80000000000001FFFF8000000000FF
310
FFFFFF8000000000FFFFFF0003FFFFFFFFFFC0000000007FF000FFC000000000
310
FFF8000FFFFE0001FFFFC0007F80007FFF8000000001FFFFF8000000001FFFF8
310
00000000000000007F80000000000001FFFFC000000001FFFFFFFFC000000001
310
FFFFFF0003FFFFFFFFFFE000000000FFF000FFE000000003FFF0001FFFFE0001
310
FFFFC0007F80007FFFC000000007FFFFFE000000003FFFF80000000000000000
310
7F80000000000001FFFFE000000003FFFFFFFFE000000003FFFFFF0003FFFFFF
310
FFFFF000000003FFF000FFF80000000FFFF0001FFFFE0001FFFFE0007F80007F
310
FFF00000000FFFFFFF00000000FFFFF800000000000000007F80000000000001
310
FFFFF80000000FFFFFFFFFF80000000FFFFFFF0003FFFFFFFFFFFC0000000FFF
310
F000FFFE0000003FFFF0001FFFFE0003FFFFE0003F80007FFFFC0000003FFFFF
310
FFC0000003FFFFF800000000000000007F80000000000001FFFFFE0000003FFF
310
FFFFFFFE0000003FFFFFFF0003FFFFFFFFFFFF0000003FFFF000FFFF800000FF
310
FFF0001FFFFF0003FFFFE0003F80007FFFFF000001FFFFFFFFF800001FFFFFF8
310
00000000000000007F80000000000001FFFFFFC00001FFFFFFFFFFFFC00001FF
310
FFFFFF0003FFFFFFFFFFFFC00000FFFFF000FFFFF8000FFFFFFFFFFFFFFFFFFF
310
FFFFFFFFFFFFFFFFFFFFF0001FFFFFFFFFFF0000FFFFFFF80000000000000000
310
7FFFFFFFFFFFFFFFFFFFFFFC001FFFFFFFFFFFFFFC001FFFFFFFFFFFFFFFFFFF
310
FFFFFFFC001FFFFFF000FFFFFFFFFFFFFFFFFFFFFFFFFFFFFFFFFFFFFFFFFFFF
310
FFFFFFFFFFFFFFFFFFFFFFFFFFFFFFFFFFFFFFFFFFFFFFFFFFFFFFFFFFFFFFFF
310
FFFFFFFFFFFFFFFFFFFFFFFFFFFFFFFFFFFFFFFFFFFFFFFFFFFFFFFFFFFFFFFF
310
F000FFFFFFFFFFFFFFFFFFFFFFFFFFFFFFFFFFFFFFFFFFFFFFFFFFFFFFFFFFFF
310
FFFFFFFFFFFFFFFFFFFFFFFFFFFFFFFFFFFFFFFFFFFFFFFFFFFFFFFFFFFFFFFF
310
FFFFFFFFFFFFFFFFFFFFFFFFFFFFFFFFFFFFFFFFFFFFFFFFF000FFFFFFFFFFFF
310
FFFFFFFFFFFFFFFFFFFFFFFFFFFFFFFFFFFFFFFFFFFFFFFFFFFFFFFFFFFFFFFF
310
FFFFFFFFFFFFFFFFFFFFFFFFFFFFFFFFFFFFFFFFFFFFFFFFFFFFFFFFFFFFFFFF
310
FFFFFFFFFFFFFFFFFFFFFFFFFFFFFFFFF000FFFFFFFFFFFFFFFFFFFFFFFFFFFF
310
FFFFFFFFFFFFFFFFFFFFFFFFFFFFFFFFFFFFFFFFFFFFFFFFFFFFFFFFFFFFFFFF
310
FFFFFFFFFFFFFFFFFFFFFFFFFFFFFFFFFFFFFFFFFFFFFFFFFFFFFFFFFFFFFFFF
310
FFFFFFFFFFFFFFFFF000FFFFFFFFFFFFFFFFFFFFFFFFFFFFFFFFFFFFFFFFFFFF
310
FFFFFFFFFFFFFFFFFFFFFFFFFFFFFFFFFFFFFFFFFFFFFFFFFFFFFFFFFFFFFFFF
310
FFFFFFFFFFFFFFFFFFFFFFFFFFFFFFFFFFFFFFFFFFFFFFFFFFFFFFFFFFFFFFFF
310
F000FFFFFFFFFFFFFFFFFFFFFFFFFFFFFFFFFFFFFFFFFFFFFFFFFFFFFFFFFFFF
310
FFFFFFFFFFFFFFFFFFFFFFFFFFFFFFFFFFFFFFFFFFFFFFFFFFFFFFFFFFFFFFFF
310
FFFFFFFFFFFFFFFFFFFFFFFFFFFFFFFFFFFFFFFFFFFFFFFFF000FFFFFFFFFFFF
310
FFFFFFFFFFFFFFFFFFFFFFFFFFFFFFFFFFFFFFFFFFFFFFFFFFFFFFFFFFFFFFFF
310
FFFFFFFFFFFFFFFFFFFFFFFFFFFFFFFFFFFFFFFFFFFFFFFFFFFFFFFFFFFFFFFF
310
FFFFFFFFFFFFFFFFFFFFFFFFFFFFFFFFF000FFFFFFFFFFFFFFFFFFFFFFFFFFFF
310
FFFFFFFFFFFFFFFFFFFFFFFFFFFFFFFFFFFFFFFFFFFFFFFFFFFFFFFFFFFFFFFF
310
FFFFFFFFFFFFFFFFFFFFFFFFFFFFFFFFFFFFFFFFFFFFFFFFFFFFFFFFFFFFFFFF
310
FFFFFFFFFFFFFFFFF000FFFFFFFFFFFFFFFFFFFFFFFFFFFFFFFFFFFFFFFFFFFF
310
FFFFFFFFFFFFFFFFFFFFFFFFFFFFFFFFFFFFFFFFFFFFFFFFFFFFFFFFFFFFFFFF
310
FFFFFFFFFFFFFFFFFFFFFFFFFFFFFFFFFFFFFFFFFFFFFFFFFFFFFFFFFFFFFFFF
310
F000FFFFFFFFFFFFFFFFFFFFFFFFFFFFFFFFFFFFFFFFFFFFFFFFFFFFFFFFFFFF
310
FFFFFFFFFFFFFFFFFFFFFFFFFFFFFFFFFFFFFFFFFFFFFFFFFFFFFFFFFFFFFFFF
310
FFFFFFFFFFFFFFFFFFFFFFFFFFFFFFFFFFFFFFFFFFFFFFFFF000FFFFFFFFFFFF
310
FFFFFFFFFFFFFFFFFFFFFFFFFFFFFFFFFFFFFFFFFFFFFFFFFFFFFFFFFFFFFFFF
310
FFFFFFFFFFFFFFFFFFFFFFFFFFFFFFFFFFFFFFFFFFFFFFFFFFFFFFFFFFFFFFFF
310
FFFFFFFFFFFFFFFFFFFFFFFFFFFFFFFFF000FFFFFFFFFFFFFFFFFFFFFFFFFFFF
310
FFFFFFFFFFFFFFFFFFFFFFFFFFFFFFFFFFFFFFFFFFFFFFFFFFFFFFFFFFFFFFFF
310
FFFFFFFFFFFFFFFFFFFFFFFFFFFFFFFFFFFFFFFFFFFFFFFFFFFFFFFFFFFFFFFF
310
FFFFFFFFFFFFFFFFF000FFFFFFFFFFFFFFFFFFFFFFFFFFFFFFFFFFFFFFFFFFFF
310
FFFFFFFFFFFFFFFFFFFFFFFFFFFFFFFFFFFFFFFFFFFFFFFFFFFFFFFFFFFFFFFF
310
FFFFFFFFFFFFFFFFFFFFFFFFFFFFFFFFFFFFFFFFFFFFFFFFFFFFFFFFFFFFFFFF
310
F000FFFFFFFFFFFFFFFFFFFFFFFFFFFFFFFFFFFFFFFFFFFFFFFFFFFFFFFFFFFF
310
FFFFFFFFFFFFFFFFFFFFFFFFFFFFFFFFFFFFFFFFFFFFFFFFFFFFFFFFFFFFFFFF
310
FFFFFFFFFFFFFFFFFFFFFFFFFFFFFFFFFFFFFFFFFFFFFFFFF000FFFFFFFFFFFF
310
FFFFFFFFFFFFFFFFFFFFFFFFFFFFFFFFFFFFFFFFFFFFFFFFFFFFFFFFFFFFFFFF
310
FFFFFFFFFFFFFFFFFFFFFFFFFFFFFFFFFFFFFFFFFFFFFFFFFFFFFFFFFFFFFFFF
310
FFFFFFFFFFFFFFFFFFFFFFFFFFFFFFFFF000FFFFFFFFFFFFFFFFFFFFFFFFFFFF
310
FFFFFFFFFFFFFFFFFFFFFFFFFFFFFFFFFFFFFFFFFFFFFFFFFFFFFFFFFFFFFFFF
310
FFFFFFFFFFFFFFFFFFFFFFFFFFFFFFFFFFFFFFFFFFFFFFFFFFFFFFFFFFFFFFFF
310
FFFFFFFFFFFFFFFFF000FFFFFFFFFFFFFFFFFFFFFFFFFFFFFFFFFFFFFFFFFFFF
310
FFFFFFFFFFFFFFFFFFFFFFFFFFFFFFFFFFFFFFFFFFFFFFFFFFFFFFFFFFFFFFFF
310
FFFFFFFFFFFFFFFFFFFFFFFFFFFFFFFFFFFFFFFFFFFFFFFFFFFFFFFFFFFFFFFF
310
F000FFFFFFFFFFFFFFFFFFFFFFFFFFFFFFFFFFFFFFFFFFFFFFFFFFFFFFFFFFFF
310
FFFFFFFFFFFFFFFFFFFFFFFFFFFFFFFFFFFFFFFFFFFFFFFFFFFFFFFFFFFFFFFF
310
FFFFFFFFFFFFFFFFFFFFFFFFFFFFFFFFFFFFFFFFFFFFFFFFF000FFFFFFFFFFFF
310
FFFFFFFFFFFFFFFFFFFFFFFFFFFFFFFFFFFFFFFFFFFFFFFFFFFFFFFFFFFFFFFF
310
FFFFFFFFFFFFFFFFFFFFFFFFFFFFFFFFFFFFFFFFFFFFFFFFFFFFFFFFFFFFFFFF
310
FFFFFFFFFFFFFFFFFFFFFFFFFFFFFFFFF000FFFFFFFFFFFFFFFFFFFFFFFFFFFF
310
FFFFFFFFFFFFFFFFFFFFFFFFFFFFFFFFFFFFFFFFFFFFFFFFFFFFFFFFFFFFFFFF
310
FFFFFFFFFFFFFFFFFFFFFFFFFFFFFFFFFFFFFFFFFFFFFFFFFFFFFFFFFFFFFFFF
310
FFFFFFFFFFFFFFFFF000FFFFFFFFFFFFFFFFFFFFFFFFFFFFFFFFFFFFFFFFFFFF
310
FFFFFFFFFFFFFFFFFFFFFFFFFFFFFFFFFFFFFFFFFFFFFFFFFFFFFFFFFFFFFFFF
310
FFFFFFFFFFFFFFFFFFFFFFFFFFFFFFFFFFFFFFFFFFFFFFFFFFFFFFFFFFFFFFFF
310
F000FFFFFFFFFFFFFFFFFFFFFFFFFFFFFFFFFFFFFFFFFFFFFFFFFFFFFFFFFFFF
310
FFFFFFFFFFFFFFFFFFFFFFFFFFFFFFFFFFFFFFFFFFFFFFFFFFFFFFFFFFFFFFFF
310
FFFFFFFFFFFFFFFFFFFFFFFFFFFFFFFFFFFFFFFFFFFFFFFFF000FFFFFFFFFFFF
310
FFFFFFFFFFFFFFFFFFFFFFFFFFFFFFFFFFFFFFFFFFFFFFFFFFFFFFFFFFFFFFFF
310
FFFFFFFFFFFFFFFFFFFFFFFFFFFFFFFFFFFFFFFFFFFFFFFFFFFFFFFFFFFFFFFF
310
FFFFFFFFFFFFFFFFFFFFFFFFFFFFFFFFF0000000000000000000000000000000
310
0000000000000000000000000000000000000000000000000000000000000000
310
0000000000000000000000000000000000000000000000000000000000000000
310
0000000000000000000000000000000000000000000000000000000000000000
310
0000000000000000000000000000000000000000000000000000000000000000
310
0000000000000000000000000000000000000000000000000000000000000000
310
0000000000000000000000000000000000000000000000000000000000000000
310
0000000000000000000000000000000000000000000000000000000000000000
310
0000000000000000000000000000000000000000000000000000000000000000
310
0000000000000000000000000000000000000000000000000000000000000000
310
0000000000000000000000000000000000000000000000000000000000000000
310
0000000000000000000000000000000000000000000000000000000000000000
310
0000000000000000000000000000000000000000000000000000000000000000
310
0000000000000000000000000000000000000000000000000000000000000000
310
0000000000000000000000000000000000000000000000000000000000000000
310
0000000000000000000000000000000000000000000000000000000000000000
  1
OLE
  0
ENDSEC
  0
SECTION
  2
OBJECTS
  0
DICTIONARY
  5
C
330
0
100
AcDbDictionary
281
     1
  3
ACAD_GROUP
350
D
  3
ACAD_LAYOUT
350
1A
  3
ACAD_MLINESTYLE
350
17
  3
ACAD_PLOTSETTINGS
350
19
  3
ACAD_PLOTSTYLENAME
350
E
  3
ACAD_SCALELIST
350
47
  0
DICTIONARY
  5
D
102
{ACAD_REACTORS
330
C
102
}
330
C
100
AcDbDictionary
281
     1
  0
DICTIONARY
  5
1A
102
{ACAD_REACTORS
330
C
102
}
330
C
100
AcDbDictionary
281
     1
  3
Layout1
350
1E
  3
Layout2
350
26
  3
Model
350
22
  0
DICTIONARY
  5
17
102
{ACAD_REACTORS
330
C
102
}
330
C
100
AcDbDictionary
281
     1
  3
Standard
350
18
  0
DICTIONARY
  5
19
102
{ACAD_REACTORS
330
C
102
}
330
C
100
AcDbDictionary
281
     1
  0
ACDBDICTIONARYWDFLT
  5
E
102
{ACAD_REACTORS
330
C
102
}
330
C
100
AcDbDictionary
281
     1
  3
Normal
350
F
100
AcDbDictionaryWithDefault
340
F
  0
DICTIONARY
  5
47
102
{ACAD_REACTORS
330
C
102
}
330
C
100
AcDbDictionary
281
     1
  3
A0
350
48
  3
A1
350
49
  3
A2
350
4A
  3
A3
350
4B
  3
A4
350
4C
  3
A5
350
4D
  3
A6
350
4E
  3
A7
350
4F
  3
A8
350
50
  3
A9
350
51
  3
B0
350
52
  3
B1
350
53
  3
B2
350
54
  3
B3
350
55
  3
B4
350
56
  3
B5
350
57
  3
B6
350
58
  3
B7
350
59
  3
B8
350
5A
  3
B9
350
5B
  3
C0
350
5C
  3
C1
350
5D
  3
C2
350
5E
  3
C3
350
5F
  3
C4
350
60
  3
C5
350
61
  3
C6
350
62
  3
C7
350
63
  3
C8
350
64
  3
C9
350
65
  3
D0
350
66
  3
D1
350
67
  3
D2
350
68
  0
LAYOUT
  5
1E
102
{ACAD_REACTORS
330
1A
102
}
330
1A
100
AcDbPlotSettings
  1

  2
none_device
  4

  6

 40
0.0
 41
0.0
 42
0.0
 43
0.0
 44
0.0
 45
0.0
 46
0.0
 47
0.0
 48
0.0
 49
0.0
140
0.0
141
0.0
142
1.0
143
1.0
 70
   688
 72
     1
 73
     0
 74
     5
  7

 75
    16
147
1.0
148
0.0
149
0.0
100
AcDbLayout
  1
Layout1
 70
     1
 71
     1
 10
0.0
 20
0.0
 11
420.0
 21
297.0
 12
0.0
 22
0.0
 32
0.0
 14
1.0000000000E+20
 24
1.0000000000E+20
 34
1.0000000000E+20
 15
-1.0000000000E+20
 25
-1.0000000000E+20
 35
-1.0000000000E+20
146
0.0
 13
0.0
 23
0.0
 33
0.0
 16
1.0
 26
0.0
 36
0.0
 17
0.0
 27
1.0
 37
0.0
 76
     0
330
1B
  0
LAYOUT
  5
26
102
{ACAD_REACTORS
330
1A
102
}
330
1A
100
AcDbPlotSettings
  1

  2
none_device
  4

  6

 40
0.0
 41
0.0
 42
0.0
 43
0.0
 44
0.0
 45
0.0
 46
0.0
 47
0.0
 48
0.0
 49
0.0
140
0.0
141
0.0
142
1.0
143
1.0
 70
   688
 72
     1
 73
     0
 74
     5
  7

 75
    16
147
1.0
148
0.0
149
0.0
100
AcDbLayout
  1
Layout2
 70
     1
 71
     2
 10
0.0
 20
0.0
 11
0.0
 21
0.0
 12
0.0
 22
0.0
 32
0.0
 14
0.0
 24
0.0
 34
0.0
 15
0.0
 25
0.0
 35
0.0
146
0.0
 13
0.0
 23
0.0
 33
0.0
 16
1.0
 26
0.0
 36
0.0
 17
0.0
 27
1.0
 37
0.0
 76
     0
330
23
  0
LAYOUT
  5
22
102
{ACAD_REACTORS
330
1A
102
}
330
1A
100
AcDbPlotSettings
  1

  2
none_device
  4
Letter_(8.50_x_11.00_Inches)
  6

 40
6.35
 41
6.35
 42
6.35000508
 43
6.35000508
 44
215.9
 45
279.4
 46
0.0
 47
0.0
 48
0.0
 49
0.0
140
0.0
141
0.0
142
1.0
143
1.0
 70
  1712
 72
     1
 73
     0
 74
     0
  7

 75
     0
147
1.0
148
0.0
149
0.0
100
AcDbLayout
  1
Model
 70
     1
 71
     0
 10
0.0
 20
0.0
 11
297.0
 21
210.0
 12
0.0
 22
0.0
 32
0.0
 14
0.0
 24
0.0
 34
0.0
 15
297.0
 25
210.0
 35
0.0
146
0.0
 13
0.0
 23
0.0
 33
0.0
 16
1.0
 26
0.0
 36
0.0
 17
0.0
 27
1.0
 37
0.0
 76
     0
330
1F
331
29
  0
MLINESTYLE
  5
18
102
{ACAD_REACTORS
330
17
102
}
330
17
100
AcDbMlineStyle
  2
Standard
 70
     0
  3

 62
   256
 51
90.0
 52
90.0
 71
     2
 49
0.5
 62
   256
  6
BYLAYER
 49
-0.5
 62
   256
  6
BYLAYER
  0
ACDBPLACEHOLDER
  5
F
102
{ACAD_REACTORS
330
E
102
}
330
E
  0
SCALE
  5
48
102
{ACAD_REACTORS
330
47
102
}
330
47
100
AcDbScale
 70
     0
300
1:1
140
1.0
141
1.0
290
     1
  0
SCALE
  5
49
102
{ACAD_REACTORS
330
47
102
}
330
47
100
AcDbScale
 70
     0
300
1:2
140
1.0
141
2.0
290
     0
  0
SCALE
  5
4A
102
{ACAD_REACTORS
330
47
102
}
330
47
100
AcDbScale
 70
     0
300
1:4
140
1.0
141
4.0
290
     0
  0
SCALE
  5
4B
102
{ACAD_REACTORS
330
47
102
}
330
47
100
AcDbScale
 70
     0
300
1:5
140
1.0
141
5.0
290
     0
  0
SCALE
  5
4C
102
{ACAD_REACTORS
330
47
102
}
330
47
100
AcDbScale
 70
     0
300
1:8
140
1.0
141
8.0
290
     0
  0
SCALE
  5
4D
102
{ACAD_REACTORS
330
47
102
}
330
47
100
AcDbScale
 70
     0
300
1:10
140
1.0
141
10.0
290
     0
  0
SCALE
  5
4E
102
{ACAD_REACTORS
330
47
102
}
330
47
100
AcDbScale
 70
     0
300
1:16
140
1.0
141
16.0
290
     0
  0
SCALE
  5
4F
102
{ACAD_REACTORS
330
47
102
}
330
47
100
AcDbScale
 70
     0
300
1:20
140
1.0
141
20.0
290
     0
  0
SCALE
  5
50
102
{ACAD_REACTORS
330
47
102
}
330
47
100
AcDbScale
 70
     0
300
1:30
140
1.0
141
30.0
290
     0
  0
SCALE
  5
51
102
{ACAD_REACTORS
330
47
102
}
330
47
100
AcDbScale
 70
     0
300
1:40
140
1.0
141
40.0
290
     0
  0
SCALE
  5
52
102
{ACAD_REACTORS
330
47
102
}
330
47
100
AcDbScale
 70
     0
300
1:50
140
1.0
141
50.0
290
     0
  0
SCALE
  5
53
102
{ACAD_REACTORS
330
47
102
}
330
47
100
AcDbScale
 70
     0
300
1:100
140
1.0
141
100.0
290
     0
  0
SCALE
  5
54
102
{ACAD_REACTORS
330
47
102
}
330
47
100
AcDbScale
 70
     0
300
2:1
140
2.0
141
1.0
290
     0
  0
SCALE
  5
55
102
{ACAD_REACTORS
330
47
102
}
330
47
100
AcDbScale
 70
     0
300
4:1
140
4.0
141
1.0
290
     0
  0
SCALE
  5
56
102
{ACAD_REACTORS
330
47
102
}
330
47
100
AcDbScale
 70
     0
300
8:1
140
8.0
141
1.0
290
     0
  0
SCALE
  5
57
102
{ACAD_REACTORS
330
47
102
}
330
47
100
AcDbScale
 70
     0
300
10:1
140
10.0
141
1.0
290
     0
  0
SCALE
  5
58
102
{ACAD_REACTORS
330
47
102
}
330
47
100
AcDbScale
 70
     0
300
100:1
140
100.0
141
1.0
290
     0
  0
SCALE
  5
59
102
{ACAD_REACTORS
330
47
102
}
330
47
100
AcDbScale
 70
     0
300
1/128" = 1'-0"
140
0.0078125
141
12.0
290
     0
  0
SCALE
  5
5A
102
{ACAD_REACTORS
330
47
102
}
330
47
100
AcDbScale
 70
     0
300
1/64" = 1'-0"
140
0.015625
141
12.0
290
     0
  0
SCALE
  5
5B
102
{ACAD_REACTORS
330
47
102
}
330
47
100
AcDbScale
 70
     0
300
1/32" = 1'-0"
140
0.03125
141
12.0
290
     0
  0
SCALE
  5
5C
102
{ACAD_REACTORS
330
47
102
}
330
47
100
AcDbScale
 70
     0
300
1/16" = 1'-0"
140
0.0625
141
12.0
290
     0
  0
SCALE
  5
5D
102
{ACAD_REACTORS
330
47
102
}
330
47
100
AcDbScale
 70
     0
300
3/32" = 1'-0"
140
0.09375
141
12.0
290
     0
  0
SCALE
  5
5E
102
{ACAD_REACTORS
330
47
102
}
330
47
100
AcDbScale
 70
     0
300
1/8" = 1'-0"
140
0.125
141
12.0
290
     0
  0
SCALE
  5
5F
102
{ACAD_REACTORS
330
47
102
}
330
47
100
AcDbScale
 70
     0
300
3/16" = 1'-0"
140
0.1875
141
12.0
290
     0
  0
SCALE
  5
60
102
{ACAD_REACTORS
330
47
102
}
330
47
100
AcDbScale
 70
     0
300
1/4" = 1'-0"
140
0.25
141
12.0
290
     0
  0
SCALE
  5
61
102
{ACAD_REACTORS
330
47
102
}
330
47
100
AcDbScale
 70
     0
300
3/8" = 1'-0"
140
0.375
141
12.0
290
     0
  0
SCALE
  5
62
102
{ACAD_REACTORS
330
47
102
}
330
47
100
AcDbScale
 70
     0
300
1/2" = 1'-0"
140
0.5
141
12.0
290
     0
  0
SCALE
  5
63
102
{ACAD_REACTORS
330
47
102
}
330
47
100
AcDbScale
 70
     0
300
3/4" = 1'-0"
140
0.75
141
12.0
290
     0
  0
SCALE
  5
64
102
{ACAD_REACTORS
330
47
102
}
330
47
100
AcDbScale
 70
     0
300
1" = 1'-0"
140
1.0
141
12.0
290
     0
  0
SCALE
  5
65
102
{ACAD_REACTORS
330
47
102
}
330
47
100
AcDbScale
 70
     0
300
1-1/2" = 1'-0"
140
1.5
141
12.0
290
     0
  0
SCALE
  5
66
102
{ACAD_REACTORS
330
47
102
}
330
47
100
AcDbScale
 70
     0
300
3" = 1'-0"
140
3.0
141
12.0
290
     0
  0
SCALE
  5
67
102
{ACAD_REACTORS
330
47
102
}
330
47
100
AcDbScale
 70
     0
300
6" = 1'-0"
140
6.0
141
12.0
290
     0
  0
SCALE
  5
68
102
{ACAD_REACTORS
330
47
102
}
330
47
100
AcDbScale
 70
     0
300
1'-0" = 1'-0"
140
12.0
141
12.0
290
     0
  0
ENDSEC
  0
EOF
