  0
SECTION
  2
HEADER
  9
$ACADVER
  1
AC1015
  9
$ACADMAINTVER
 70
     6
  9
$DWGCODEPAGE
  3
ANSI_1252
  9
$INSBASE
 10
0.0
 20
0.0
 30
0.0
  9
$EXTMIN
 10
0.0
 20
0.0
 30
0.0
  9
$EXTMAX
 10
297.0
 20
210.0
 30
0.0
  9
$LIMMIN
 10
0.0
 20
0.0
  9
$LIMMAX
 10
297.0
 20
210.0
  9
$ORTHOMODE
 70
     0
  9
$REGENMODE
 70
     1
  9
$FILLMODE
 70
     1
  9
$QTEXTMODE
 70
     0
  9
$MIRRTEXT
 70
     1
  9
$LTSCALE
 40
1.0
  9
$ATTMODE
 70
     1
  9
$TEXTSIZE
 40
2.0
  9
$TRACEWID
 40
1.0
  9
$TEXTSTYLE
  7
Standard
  9
$CLAYER
  8
0
  9
$CELTYPE
  6
ByLayer
  9
$CECOLOR
 62
   256
  9
$CELTSCALE
 40
1.0
  9
$DISPSILH
 70
     0
  9
$DIMSCALE
 40
1.0
  9
$DIMASZ
 40
3.0
  9
$DIMEXO
 40
0.0
  9
$DIMDLI
 40
3.75
  9
$DIMRND
 40
0.0
  9
$DIMDLE
 40
0.0
  9
$DIMEXE
 40
1.0
  9
$DIMTP
 40
0.0
  9
$DIMTM
 40
0.0
  9
$DIMTXT
 40
2.0
  9
$DIMCEN
 40
2.5
  9
$DIMTSZ
 40
0.0
  9
$DIMTOL
 70
     0
  9
$DIMLIM
 70
     0
  9
$DIMTIH
 70
     1
  9
$DIMTOH
 70
     1
  9
$DIMSE1
 70
     0
  9
$DIMSE2
 70
     0
  9
$DIMTAD
 70
     1
  9
$DIMZIN
 70
     0
  9
$DIMBLK
  1

  9
$DIMASO
 70
     1
  9
$DIMSHO
 70
     1
  9
$DIMPOST
  1

  9
$DIMAPOST
  1

  9
$DIMALT
 70
     0
  9
$DIMALTD
 70
     3
  9
$DIMALTF
 40
0.0393700787
  9
$DIMLFAC
 40
1.0
  9
$DIMTOFL
 70
     1
  9
$DIMTVP
 40
0.0
  9
$DIMTIX
 70
     0
  9
$DIMSOXD
 70
     0
  9
$DIMSAH
 70
     0
  9
$DIMBLK1
  1

  9
$DIMBLK2
  1

  9
$DIMSTYLE
  2
ISO-25
  9
$DIMCLRD
 70
     0
  9
$DIMCLRE
 70
     0
  9
$DIMCLRT
 70
     0
  9
$DIMTFAC
 40
1.0
  9
$DIMGAP
 40
1.524
  9
$DIMJUST
 70
     0
  9
$DIMSD1
 70
     0
  9
$DIMSD2
 70
     0
  9
$DIMTOLJ
 70
     0
  9
$DIMTZIN
 70
     0
  9
$DIMALTZ
 70
     0
  9
$DIMALTTZ
 70
     0
  9
$DIMUPT
 70
     0
  9
$DIMDEC
 70
     2
  9
$DIMTDEC
 70
     3
  9
$DIMALTU
 70
     2
  9
$DIMALTTD
 70
     3
  9
$DIMTXSTY
  7
Standard
  9
$DIMAUNIT
 70
     0
  9
$DIMADEC
 70
     2
  9
$DIMALTRND
 40
0.0
  9
$DIMAZIN
 70
     0
  9
$DIMDSEP
 70
    44
  9
$DIMATFIT
 70
     3
  9
$DIMFRAC
 70
     0
  9
$DIMLDRBLK
  1

  9
$DIMLUNIT
 70
     2
  9
$DIMLWD
 70
    -2
  9
$DIMLWE
 70
    -2
  9
$DIMTMOVE
 70
     0
  9
$LUNITS
 70
     2
  9
$LUPREC
 70
     2
  9
$SKETCHINC
 40
1.0
  9
$FILLETRAD
 40
10.0
  9
$AUNITS
 70
     0
  9
$AUPREC
 70
     2
  9
$MENU
  1
.
  9
$ELEVATION
 40
0.0
  9
$PELEVATION
 40
0.0
  9
$THICKNESS
 40
0.0
  9
$LIMCHECK
 70
     0
  9
$CHAMFERA
 40
10.0
  9
$CHAMFERB
 40
10.0
  9
$CHAMFERC
 40
20.0
  9
$CHAMFERD
 40
0.0
  9
$SKPOLY
 70
     0
  9
$TDCREATE
 40
2455988.728160451
  9
$TDUCREATE
 40
2455988.686493785
  9
$TDUPDATE
 40
2455988.728160463
  9
$TDUUPDATE
 40
2455988.686493796
  9
$TDINDWG
 40
0.0000000116
  9
$TDUSRTIMER
 40
0.0000000116
  9
$USRTIMER
 70
     1
  9
$ANGBASE
 50
0.0
  9
$ANGDIR
 70
     0
  9
$PDMODE
 70
     0
  9
$PDSIZE
 40
-1.0
  9
$PLINEWID
 40
0.0
  9
$SPLFRAME
 70
     0
  9
$SPLINETYPE
 70
     6
  9
$SPLINESEGS
 70
     8
  9
$HANDSEED
  5
164
  9
$SURFTAB1
 70
     6
  9
$SURFTAB2
 70
     6
  9
$SURFTYPE
 70
     6
  9
$SURFU
 70
     6
  9
$SURFV
 70
     6
  9
$UCSBASE
  2

  9
$UCSNAME
  2

  9
$UCSORG
 10
0.0
 20
0.0
 30
0.0
  9
$UCSXDIR
 10
1.0
 20
0.0
 30
0.0
  9
$UCSYDIR
 10
0.0
 20
1.0
 30
0.0
  9
$UCSORTHOREF
  2

  9
$UCSORTHOVIEW
 70
     0
  9
$UCSORGTOP
 10
0.0
 20
0.0
 30
0.0
  9
$UCSORGBOTTOM
 10
0.0
 20
0.0
 30
0.0
  9
$UCSORGLEFT
 10
0.0
 20
0.0
 30
0.0
  9
$UCSORGRIGHT
 10
0.0
 20
0.0
 30
0.0
  9
$UCSORGFRONT
 10
0.0
 20
0.0
 30
0.0
  9
$UCSORGBACK
 10
0.0
 20
0.0
 30
0.0
  9
$PUCSBASE
  2

  9
$PUCSNAME
  2

  9
$PUCSORG
 10
0.0
 20
0.0
 30
0.0
  9
$PUCSXDIR
 10
1.0
 20
0.0
 30
0.0
  9
$PUCSYDIR
 10
0.0
 20
1.0
 30
0.0
  9
$PUCSORTHOREF
  2

  9
$PUCSORTHOVIEW
 70
     0
  9
$PUCSORGTOP
 10
0.0
 20
0.0
 30
0.0
  9
$PUCSORGBOTTOM
 10
0.0
 20
0.0
 30
0.0
  9
$PUCSORGLEFT
 10
0.0
 20
0.0
 30
0.0
  9
$PUCSORGRIGHT
 10
0.0
 20
0.0
 30
0.0
  9
$PUCSORGFRONT
 10
0.0
 20
0.0
 30
0.0
  9
$PUCSORGBACK
 10
0.0
 20
0.0
 30
0.0
  9
$USERI1
 70
     0
  9
$USERI2
 70
     0
  9
$USERI3
 70
     0
  9
$USERI4
 70
     0
  9
$USERI5
 70
     0
  9
$USERR1
 40
0.0
  9
$USERR2
 40
0.0
  9
$USERR3
 40
0.0
  9
$USERR4
 40
0.0
  9
$USERR5
 40
0.0
  9
$WORLDVIEW
 70
     1
  9
$SHADEDGE
 70
     3
  9
$SHADEDIF
 70
    70
  9
$TILEMODE
 70
     1
  9
$MAXACTVP
 70
    64
  9
$PINSBASE
 10
0.0
 20
0.0
 30
0.0
  9
$PLIMCHECK
 70
     0
  9
$PEXTMIN
 10
1.0000000000E+20
 20
1.0000000000E+20
 30
1.0000000000E+20
  9
$PEXTMAX
 10
-1.0000000000E+20
 20
-1.0000000000E+20
 30
-1.0000000000E+20
  9
$PLIMMIN
 10
0.0
 20
0.0
  9
$PLIMMAX
 10
420.0
 20
297.0
  9
$UNITMODE
 70
     0
  9
$VISRETAIN
 70
     1
  9
$PLINEGEN
 70
     0
  9
$PSLTSCALE
 70
     1
  9
$TREEDEPTH
 70
  3020
  9
$CMLSTYLE
  2
Standard
  9
$CMLJUST
 70
     0
  9
$CMLSCALE
 40
20.0
  9
$PROXYGRAPHICS
 70
     1
  9
$MEASUREMENT
 70
     1
  9
$CELWEIGHT
370
    -1
  9
$ENDCAPS
280
     0
  9
$JOINSTYLE
280
     0
  9
$LWDISPLAY
290
     1
  9
$INSUNITS
 70
     4
  9
$HYPERLINKBASE
  1

  9
$STYLESHEET
  1

  9
$XEDIT
290
     1
  9
$CEPSNTYPE
380
     0
  9
$PSTYLEMODE
290
     1
  9
$FINGERPRINTGUID
  2
{C0E79E19-0268-48D2-A4F6-86172EFE56EA}
  9
$VERSIONGUID
  2
{FAEB1C32-E019-11D5-929B-00C0DF256EC4}
  9
$EXTNAMES
290
     1
  9
$PSVPSCALE
 40
0.0
  9
$OLESTARTUP
290
     0
  0
ENDSEC
  0
SECTION
  2
CLASSES
  0
CLASS
  1
ACDBDICTIONARYWDFLT
  2
AcDbDictionaryWithDefault
  3
ObjectDBX Classes
 90
        0
280
     0
281
     0
  0
CLASS
  1
VISUALSTYLE
  2
AcDbVisualStyle
  3
ObjectDBX Classes
 90
     4095
280
     0
281
     0
  0
CLASS
  1
MATERIAL
  2
AcDbMaterial
  3
ObjectDBX Classes
 90
     1153
280
     0
281
     0
  0
CLASS
  1
ACDBPLACEHOLDER
  2
AcDbPlaceHolder
  3
ObjectDBX Classes
 90
        0
280
     0
281
     0
  0
CLASS
  1
LAYOUT
  2
AcDbLayout
  3
ObjectDBX Classes
 90
        0
280
     0
281
     0
  0
ENDSEC
  0
SECTION
  2
TABLES
  0
TABLE
  2
VPORT
  5
8
330
0
100
AcDbSymbolTable
 70
     1
  0
VPORT
  5
29
330
8
100
AcDbSymbolTableRecord
100
AcDbViewportTableRecord
  2
*Active
 70
     0
 10
0.0
 20
0.0
 11
1.0
 21
1.0
 12
148.5
 22
105.0
 13
0.0
 23
0.0
 14
10.0
 24
10.0
 15
10.0
 25
10.0
 16
0.0
 26
0.0
 36
1.0
 17
0.0
 27
0.0
 37
0.0
 40
210.0
 41
1.4142857143
 42
50.0
 43
0.0
 44
0.0
 50
0.0
 51
0.0
 71
     0
 72
  2000
 73
     1
 74
     3
 75
     0
 76
     0
 77
     0
 78
     0
281
     0
 65
     1
110
0.0
120
0.0
130
0.0
111
1.0
121
0.0
131
0.0
112
0.0
122
1.0
132
0.0
 79
     0
146
0.0
  0
ENDTAB
  0
TABLE
  2
LTYPE
  5
5
330
0
100
AcDbSymbolTable
 70
     6
  0
LTYPE
  5
14
330
5
100
AcDbSymbolTableRecord
100
AcDbLinetypeTableRecord
  2
ByBlock
 70
     0
  3

 72
    65
 73
     0
 40
0.0
  0
LTYPE
  5
15
330
5
100
AcDbSymbolTableRecord
100
AcDbLinetypeTableRecord
  2
ByLayer
 70
     0
  3

 72
    65
 73
     0
 40
0.0
  0
LTYPE
  5
16
330
5
100
AcDbSymbolTableRecord
100
AcDbLinetypeTableRecord
  2
Continuous
 70
     0
  3
Solid line
 72
    65
 73
     0
 40
0.0
  0
LTYPE
  5
3F
330
5
100
AcDbSymbolTableRecord
100
AcDbLinetypeTableRecord
  2
HIDDEN
 70
     0
  3
Hidden __ __ __ __ __ __ __ __ __ __ __ __ __ __
 72
    65
 73
     2
 40
1.905
 49
1.27
 74
     0
 49
-0.635
 74
     0
  0
LTYPE
  5
40
330
5
100
AcDbSymbolTableRecord
100
AcDbLinetypeTableRecord
  2
PHANTOM
 70
     0
  3
Phantom ______  __  __  ______  __  __  ______
 72
    65
 73
     6
 40
12.7
 49
6.35
 74
     0
 49
-1.27
 74
     0
 49
1.27
 74
     0
 49
-1.27
 74
     0
 49
1.27
 74
     0
 49
-1.27
 74
     0
  0
LTYPE
  5
41
330
5
100
AcDbSymbolTableRecord
100
AcDbLinetypeTableRecord
  2
CENTER
 70
     0
  3
Center ____ _ ____ _ ____ _ ____ _ ____ _ ____
 72
    65
 73
     4
 40
10.16
 49
6.35
 74
     0
 49
-1.27
 74
     0
 49
1.27
 74
     0
 49
-1.27
 74
     0
  0
LTYPE
  5
42
330
5
100
AcDbSymbolTableRecord
100
AcDbLinetypeTableRecord
  2
CENTERX2
 70
     0
  3
Center (2x) ________  __  ________  __  _____
 72
    65
 73
     4
 40
20.32
 49
12.7
 74
     0
 49
-2.54
 74
     0
 49
2.54
 74
     0
 49
-2.54
 74
     0
  0
LTYPE
  5
43
330
5
100
AcDbSymbolTableRecord
100
AcDbLinetypeTableRecord
  2
DOT2
 70
     0
  3
Dot (.5x) ........................................
 72
    65
 73
     2
 40
0.635
 49
0.0
 74
     0
 49
-0.635
 74
     0
  0
ENDTAB
  0
TABLE
  2
LAYER
  5
2
330
0
100
AcDbSymbolTable
 70
     5
  0
LAYER
  5
10
330
2
100
AcDbSymbolTableRecord
100
AcDbLayerTableRecord
  2
0
 70
     0
 62
     7
  6
Continuous
370
    -3
390
F
  0
LAYER
  5
44
330
2
100
AcDbSymbolTableRecord
100
AcDbLayerTableRecord
  2
FORMAT
 70
     0
 62
     7
  6
Continuous
370
    -3
390
F
  0
LAYER
  5
45
330
2
100
AcDbSymbolTableRecord
100
AcDbLayerTableRecord
  2
VERMASSUNG
 70
     0
 62
     7
  6
Continuous
370
    -3
390
F
  0
LAYER
  5
46
330
2
100
AcDbSymbolTableRecord
100
AcDbLayerTableRecord
  2
KOPF_DÜNN
 70
     0
 62
     7
  6
Continuous
370
    -3
390
F
  0
LAYER
  5
47
330
2
100
AcDbSymbolTableRecord
100
AcDbLayerTableRecord
  2
KOPF_DICK
 70
     0
 62
     7
  6
Continuous
370
    15
390
F
  0
ENDTAB
  0
TABLE
  2
STYLE
  5
3
330
0
100
AcDbSymbolTable
 70
     2
  0
STYLE
  5
11
330
3
100
AcDbSymbolTableRecord
100
AcDbTextStyleTableRecord
  2
Standard
 70
     0
 40
0.0
 41
1.0
 50
0.0
 71
     0
 42
2.5
  3
txt
  4

  0
STYLE
  5
48
330
3
100
AcDbSymbolTableRecord
100
AcDbTextStyleTableRecord
  2
SLDTEXTSTYLE0
 70
     0
 40
0.0
 41
0.7
 50
0.0
 71
     0
 42
0.2
  3
TXT
  4

  0
ENDTAB
  0
TABLE
  2
VIEW
  5
6
330
0
100
AcDbSymbolTable
 70
     0
  0
ENDTAB
  0
TABLE
  2
UCS
  5
7
330
0
100
AcDbSymbolTable
 70
     0
  0
ENDTAB
  0
TABLE
  2
APPID
  5
9
330
0
100
AcDbSymbolTable
 70
     1
  0
APPID
  5
12
330
9
100
AcDbSymbolTableRecord
100
AcDbRegAppTableRecord
  2
ACAD
 70
     0
  0
ENDTAB
  0
TABLE
  2
DIMSTYLE
  5
A
330
0
100
AcDbSymbolTable
 70
     3
100
AcDbDimStyleTable
  0
DIMSTYLE
105
27
330
A
100
AcDbSymbolTableRecord
100
AcDbDimStyleTableRecord
  2
ISO-25
 70
     0
 41
2.5
 42
0.625
 43
3.75
 44
1.25
 73
     0
 74
     0
 77
     1
 78
     8
140
2.5
141
2.5
143
0.0393700787
147
0.625
171
     3
172
     1
178
     0
271
     2
272
     2
274
     3
278
    44
283
     0
284
     8
340
11
  0
DIMSTYLE
105
141
102
{ACAD_REACTORS
330
140
102
}
330
A
100
AcDbSymbolTableRecord
100
AcDbDimStyleTableRecord
  2
SLDDIMSTYLE0
 70
     0
 41
3.0
 44
0.0
 45
0.000000001
 73
     0
 74
     0
 77
     1
 78
    12
 79
     3
140
2.0
147
0.5
173
     1
178
     0
271
     2
272
     3
276
     2
284
    12
340
48
  0
DIMSTYLE
105
14C
102
{ACAD_REACTORS
330
14B
330
156
102
}
330
A
100
AcDbSymbolTableRecord
100
AcDbDimStyleTableRecord
  2
SLDDIMSTYLE1
 70
     0
 41
3.0
 44
0.0
 45
0.000000001
 73
     0
 74
     0
 77
     1
 78
    12
 79
     3
140
2.0
147
0.5
173
     1
178
     0
271
     2
272
     3
276
     2
284
    12
340
48
  0
ENDTAB
  0
TABLE
  2
BLOCK_RECORD
  5
1
330
0
100
AcDbSymbolTable
 70
     4
  0
BLOCK_RECORD
  5
1F
330
1
100
AcDbSymbolTableRecord
100
AcDbBlockTableRecord
  2
*Model_Space
340
22
  0
BLOCK_RECORD
  5
1B
330
1
100
AcDbSymbolTableRecord
100
AcDbBlockTableRecord
  2
*Paper_Space
340
1E
  0
BLOCK_RECORD
  5
23
330
1
100
AcDbSymbolTableRecord
100
AcDbBlockTableRecord
  2
*Paper_Space0
340
26
  0
BLOCK_RECORD
  5
142
330
1
100
AcDbSymbolTableRecord
100
AcDbBlockTableRecord
  2
*D1
340
0
  0
BLOCK_RECORD
  5
14D
330
1
100
AcDbSymbolTableRecord
100
AcDbBlockTableRecord
  2
*D2
340
0
  0
BLOCK_RECORD
  5
157
330
1
100
AcDbSymbolTableRecord
100
AcDbBlockTableRecord
  2
*D3
340
0
  0
ENDTAB
  0
ENDSEC
  0
SECTION
  2
BLOCKS
  0
BLOCK
  5
20
330
1F
100
AcDbEntity
  8
0
100
AcDbBlockBegin
  2
*Model_Space
 70
     0
 10
0.0
 20
0.0
 30
0.0
  3
*Model_Space
  1

  0
ENDBLK
  5
21
330
1F
100
AcDbEntity
  8
0
100
AcDbBlockEnd
  0
BLOCK
  5
1C
330
1B
100
AcDbEntity
 67
     1
  8
0
100
AcDbBlockBegin
  2
*Paper_Space
 70
     0
 10
0.0
 20
0.0
 30
0.0
  3
*Paper_Space
  1

  0
ENDBLK
  5
1D
330
1B
100
AcDbEntity
 67
     1
  8
0
100
AcDbBlockEnd
  0
BLOCK
  5
24
330
23
100
AcDbEntity
  8
0
100
AcDbBlockBegin
  2
*Paper_Space0
 70
     0
 10
0.0
 20
0.0
 30
0.0
  3
*Paper_Space0
  1

  0
ENDBLK
  5
25
330
23
100
AcDbEntity
  8
0
100
AcDbBlockEnd
  0
BLOCK
  5
143
330
142
100
AcDbEntity
  8
0
100
AcDbBlockBegin
  2
*D1
 70
     1
 10
0.0
 20
0.0
 30
0.0
  3
*D1
  1

  0
SOLID
  5
145
330
142
100
AcDbEntity
  8
VERMASSUNG
100
AcDbTrace
 10
215.0784300378
 20
134.9499075975
 30
0.0
 11
214.6284300378
 21
131.9499075975
 31
0.0
 12
215.5284300378
 22
131.9499075975
 32
0.0
 13
215.5284300378
 23
131.9499075975
 33
0.0
  0
LINE
  5
146
330
142
100
AcDbEntity
  8
VERMASSUNG
100
AcDbLine
 10
208.0717639371
 20
134.9499075975
 30
0.0
 11
216.0784300378
 21
134.9499075975
 31
0.0
  0
LINE
  5
147
330
142
100
AcDbEntity
  8
VERMASSUNG
100
AcDbLine
 10
215.0784300378
 20
134.9499075975
 30
0.0
 11
215.0784300378
 21
105.5256012409
 31
0.0
  0
MTEXT
  5
148
330
142
100
AcDbEntity
  8
VERMASSUNG
100
AcDbMText
 10
212.5002945583
 20
107.1131012409
 30
0.0
 40
2.0
 41
0.0
 71
     1
 72
     1
  1
%%c
  7
SLDTEXTSTYLE0
 11
-7.044195017643634E-15
 21
1.0
 31
0.0
 73
     1
 44
1.0
  0
MTEXT
  5
149
330
142
100
AcDbEntity
  8
VERMASSUNG
100
AcDbMText
 10
212.5002946747
 20
110.7214368113
 30
0.0
 40
2.0
 41
0.0
 71
     1
 72
     1
  1
38.75
  7
SLDTEXTSTYLE0
 11
-7.044195017643634E-15
 21
1.0
 31
0.0
 73
     1
 44
1.0
  0
MTEXT
  5
14A
330
142
100
AcDbEntity
  8
VERMASSUNG
100
AcDbMText
 10
212.5002946747
 20
116.9198193617
 30
0.0
 40
2.0
 41
0.0
 71
     1
 72
     1
  1
-44.1
  7
SLDTEXTSTYLE0
 11
-7.044195017643634E-15
 21
1.0
 31
0.0
 73
     1
 44
1.0
  0
ENDBLK
  5
144
330
142
100
AcDbEntity
  8
0
100
AcDbBlockEnd
  0
BLOCK
  5
14E
330
14D
100
AcDbEntity
  8
0
100
AcDbBlockBegin
  2
*D2
 70
     1
 10
0.0
 20
0.0
 30
0.0
  3
*D2
  1

  0
SOLID
  5
150
330
14D
100
AcDbEntity
  8
VERMASSUNG
100
AcDbTrace
 10
208.0717639371
 20
143.0139686211
 30
0.0
 11
205.0717639371
 21
143.4639686211
 31
0.0
 12
205.0717639371
 22
142.5639686211
 32
0.0
 13
205.0717639371
 23
142.5639686211
 33
0.0
  0
SOLID
  5
151
330
14D
100
AcDbEntity
  8
VERMASSUNG
100
AcDbTrace
 10
93.0717639371
 20
143.0139686211
 30
0.0
 11
96.0717639371
 21
142.5639686211
 31
0.0
 12
96.0717639371
 22
143.4639686211
 32
0.0
 13
96.0717639371
 23
143.4639686211
 33
0.0
  0
LINE
  5
152
330
14D
100
AcDbEntity
  8
VERMASSUNG
100
AcDbLine
 10
208.0717639371
 20
134.9499075975
 30
0.0
 11
208.0717639371
 21
144.0139686211
 31
0.0
  0
LINE
  5
153
330
14D
100
AcDbEntity
  8
VERMASSUNG
100
AcDbLine
 10
93.0717639371
 20
121.7749075975
 30
0.0
 11
93.0717639371
 21
144.0139686211
 31
0.0
  0
LINE
  5
154
330
14D
100
AcDbEntity
  8
VERMASSUNG
100
AcDbLine
 10
208.0717639371
 20
143.0139686211
 30
0.0
 11
93.0717639371
 21
143.0139686211
 31
0.0
  0
MTEXT
  5
155
330
14D
100
AcDbEntity
  8
VERMASSUNG
100
AcDbMText
 10
145.5113671378
 20
145.5921039842
 30
0.0
 40
2.0
 41
0.0
 71
     1
 72
     1
  1
115
  7
SLDTEXTSTYLE0
 73
     1
 44
1.0
  0
ENDBLK
  5
14F
330
14D
100
AcDbEntity
  8
0
100
AcDbBlockEnd
  0
BLOCK
  5
158
330
157
100
AcDbEntity
  8
0
100
AcDbBlockBegin
  2
*D3
 70
     1
 10
0.0
 20
0.0
 30
0.0
  3
*D3
  1

  0
SOLID
  5
15A
330
157
100
AcDbEntity
  8
VERMASSUNG
100
AcDbTrace
 10
86.7637069585
 20
123.5749075975
 30
0.0
 11
86.3137069585
 21
120.5749075975
 31
0.0
 12
87.2137069585
 22
120.5749075975
 32
0.0
 13
87.2137069585
 23
120.5749075975
 33
0.0
  0
SOLID
  5
15B
330
157
100
AcDbEntity
  8
VERMASSUNG
100
AcDbTrace
 10
86.7637069585
 20
107.5749075975
 30
0.0
 11
87.2137069585
 21
110.5749075975
 31
0.0
 12
86.3137069585
 22
110.5749075975
 32
0.0
 13
86.3137069585
 23
110.5749075975
 33
0.0
  0
LINE
  5
15C
330
157
100
AcDbEntity
  8
VERMASSUNG
100
AcDbLine
 10
104.3717639371
 20
123.5749075975
 30
0.0
 11
85.7637069585
 21
123.5749075975
 31
0.0
  0
LINE
  5
15D
330
157
100
AcDbEntity
  8
VERMASSUNG
100
AcDbLine
 10
94.4467639371
 20
107.5749075975
 30
0.0
 11
85.7637069585
 21
107.5749075975
 31
0.0
  0
LINE
  5
15E
330
157
100
AcDbEntity
  8
VERMASSUNG
100
AcDbLine
 10
86.7637069585
 20
123.5749075975
 30
0.0
 11
86.7637069585
 21
107.5749075975
 31
0.0
  0
MTEXT
  5
15F
330
157
100
AcDbEntity
  8
VERMASSUNG
100
AcDbMText
 10
84.1855714789
 20
112.0568386207
 30
0.0
 40
2.0
 41
0.0
 71
     1
 72
     1
  1
%%c
  7
SLDTEXTSTYLE0
 11
-7.044195017643634E-15
 21
1.0
 31
0.0
 73
     1
 44
1.0
  0
MTEXT
  5
160
330
157
100
AcDbEntity
  8
VERMASSUNG
100
AcDbMText
 10
84.1855715953
 20
115.6651741912
 30
0.0
 40
2.0
 41
0.0
 71
     1
 72
     1
  1
16
  7
SLDTEXTSTYLE0
 11
-7.044195017643634E-15
 21
1.0
 31
0.0
 73
     1
 44
1.0
  0
ENDBLK
  5
159
330
157
100
AcDbEntity
  8
0
100
AcDbBlockEnd
  0
ENDSEC
  0
SECTION
  2
ENTITIES
  0
MTEXT
  5
49
330
1F
100
AcDbEntity
  8
KOPF_DÜNN
100
AcDbMText
 10
13.8892156294
 20
23.8442973028
 30
0.0
 40
3.0
 41
0.0
 71
     1
 72
     1
  1
272.039.009
  7
SLDTEXTSTYLE0
 73
     1
 44
1.0
  0
MTEXT
  5
4A
330
1F
100
AcDbEntity
  8
VERMASSUNG
100
AcDbMText
 10
13.9329988022
 20
28.8834360957
 30
0.0
 40
3.0
 41
0.0
 71
     1
 72
     1
  1
Ausdrehstahl_Boring bar ø38.75-44.1
  7
SLDTEXTSTYLE0
 73
     1
 44
1.0
  0
MTEXT
  5
4B
330
1F
100
AcDbEntity
  8
VERMASSUNG
100
AcDbMText
 10
98.8601118557
 20
13.8365368179
 30
0.0
 40
2.0
 41
0.0
 71
     1
 72
     1
  1
Datum: 04.08.2006
  7
SLDTEXTSTYLE0
 73
     1
 44
1.0
  0
MTEXT
  5
4C
330
1F
100
AcDbEntity
  8
VERMASSUNG
100
AcDbMText
 10
13.933048693
 20
18.0482802738
 30
0.0
 40
2.0
 41
0.0
 71
     1
 72
     1
  1
mit Innenkühlung_with spindel coolant feed
  7
SLDTEXTSTYLE0
 73
     1
 44
1.0
  0
MTEXT
  5
4D
330
1F
100
AcDbEntity
  8
VERMASSUNG
100
AcDbMText
 10
13.9808475933
 20
13.9090973692
 30
0.0
 40
2.0
 41
0.0
 71
     1
 72
     1
  1
Gewicht: 189g
  7
SLDTEXTSTYLE0
 73
     1
 44
1.0
  0
LINE
  5
4E
330
1F
100
AcDbEntity
  8
0
  6
Continuous
 62
     7
370
    15
100
AcDbLine
 10
186.5717639371
 20
105.0749075975
 30
0.0
 11
186.7611585812
 21
105.0749075975
 31
0.0
  0
LINE
  5
4F
330
1F
100
AcDbEntity
  8
0
  6
Continuous
 62
     7
370
    15
100
AcDbLine
 10
191.9245796923
 20
131.4277233527
 30
0.0
 11
186.0717639371
 21
125.5749075975
 31
0.0
  0
LINE
  5
50
330
1F
100
AcDbEntity
  8
0
  6
Continuous
 62
     7
370
    15
100
AcDbLine
 10
186.0717639371
 20
105.5749075975
 30
0.0
 11
186.5717639371
 21
105.0749075975
 31
0.0
  0
LINE
  5
51
330
1F
100
AcDbEntity
  8
0
  6
Continuous
 62
     7
370
    15
100
AcDbLine
 10
180.0717639371
 20
125.5749075975
 30
0.0
 11
178.0717639371
 21
123.5749075975
 31
0.0
  0
LINE
  5
52
330
1F
100
AcDbEntity
  8
0
  6
Continuous
 62
     7
370
    15
100
AcDbLine
 10
178.0717639371
 20
107.5749075975
 30
0.0
 11
180.0717639371
 21
105.5749075975
 31
0.0
  0
LINE
  5
53
330
1F
100
AcDbEntity
  8
0
  6
Continuous
 62
     7
370
    15
100
AcDbLine
 10
180.0717639371
 20
105.5749075975
 30
0.0
 11
186.0717639371
 21
105.5749075975
 31
0.0
  0
LINE
  5
54
330
1F
100
AcDbEntity
  8
0
  6
Continuous
 62
     7
370
    15
100
AcDbLine
 10
186.0717639371
 20
125.5749075975
 30
0.0
 11
180.0717639371
 21
125.5749075975
 31
0.0
  0
LINE
  5
55
330
1F
100
AcDbEntity
  8
0
  6
Continuous
 62
     7
370
    15
100
AcDbLine
 10
94.4467639371
 20
107.5749075975
 30
0.0
 11
178.0717639371
 21
107.5749075975
 31
0.0
  0
LINE
  5
56
330
1F
100
AcDbEntity
  8
0
  6
Continuous
 62
     7
370
    15
100
AcDbLine
 10
107.2717639371
 20
123.5749075975
 30
0.0
 11
104.3717639371
 21
123.5749075975
 31
0.0
  0
LINE
  5
57
330
1F
100
AcDbEntity
  8
0
  6
Continuous
 62
     7
370
    15
100
AcDbLine
 10
121.7717639371
 20
123.5749075975
 30
0.0
 11
118.8717639371
 21
123.5749075975
 31
0.0
  0
LINE
  5
58
330
1F
100
AcDbEntity
  8
0
  6
Continuous
 62
     7
370
    15
100
AcDbLine
 10
136.2717639371
 20
123.5749075975
 30
0.0
 11
133.3717639371
 21
123.5749075975
 31
0.0
  0
LINE
  5
59
330
1F
100
AcDbEntity
  8
0
  6
Continuous
 62
     7
370
    15
100
AcDbLine
 10
150.7717639371
 20
123.5749075975
 30
0.0
 11
147.8717639371
 21
123.5749075975
 31
0.0
  0
LINE
  5
5A
330
1F
100
AcDbEntity
  8
0
  6
Continuous
 62
     7
370
    15
100
AcDbLine
 10
178.0717639371
 20
123.5749075975
 30
0.0
 11
162.3717639371
 21
123.5749075975
 31
0.0
  0
LINE
  5
5B
330
1F
100
AcDbEntity
  8
0
  6
Continuous
 62
     7
370
    15
100
AcDbLine
 10
93.0717639371
 20
108.9499075975
 30
0.0
 11
94.4467639371
 21
107.5749075975
 31
0.0
  0
LINE
  5
5C
330
1F
100
AcDbEntity
  8
0
  6
Continuous
 62
     7
370
    15
100
AcDbLine
 10
198.5467639371
 20
132.5953931063
 30
0.0
 11
191.9245796923
 21
131.4277233527
 31
0.0
  0
LINE
  5
5D
330
1F
100
AcDbEntity
  8
0
  6
Continuous
 62
     7
370
    15
100
AcDbLine
 10
204.0136334856
 20
128.1225874695
 30
0.0
 11
204.0136334856
 21
128.0047822319
 31
0.0
  0
LINE
  5
5E
330
1F
100
AcDbEntity
  8
0
  6
Continuous
 62
     7
370
    15
100
AcDbLine
 10
202.1263957401
 20
128.5393137046
 30
0.0
 11
202.1263957401
 21
128.6551214742
 31
0.0
  0
LINE
  5
5F
330
1F
100
AcDbEntity
  8
0
  6
Continuous
 62
     7
370
    15
100
AcDbLine
 10
200.6022572417
 20
129.250822466
 30
0.0
 11
200.6022572417
 21
129.1876729128
 31
0.0
  0
LINE
  5
60
330
1F
100
AcDbEntity
  8
0
  6
Continuous
 62
     7
370
    15
100
AcDbLine
 10
205.8522572417
 20
129.1876729128
 30
0.0
 11
205.8522572417
 21
129.250822466
 31
0.0
  0
LINE
  5
61
330
1F
100
AcDbEntity
  8
0
  6
Continuous
 62
     7
370
    15
100
AcDbLine
 10
204.3234242226
 20
129.8803324508
 30
0.0
 11
204.3234242226
 21
129.7646004233
 31
0.0
  0
LINE
  5
62
330
1F
100
AcDbEntity
  8
0
  6
Continuous
 62
     7
370
    15
100
AcDbLine
 10
202.4361864771
 20
130.299131896
 30
0.0
 11
202.4361864771
 21
130.4169566131
 31
0.0
  0
LINE
  5
63
330
1F
100
AcDbEntity
  8
0
  6
Continuous
 62
     7
370
    15
100
AcDbLine
 10
186.5717639371
 20
105.0749075975
 30
0.0
 11
186.5717639371
 21
122.6902164901
 31
0.0
  0
SPLINE
  5
64
330
1F
100
AcDbEntity
  8
0
  6
Continuous
 62
     7
370
    15
100
AcDbSpline
210
0.0
220
0.0
230
1.0
 70
     8
 71
     3
 72
    24
 73
    20
 74
     0
 42
0.00000001
 43
0.00000001
 40
0.0
 40
0.0
 40
0.0
 40
0.0
 40
0.0625
 40
0.0625
 40
0.125
 40
0.125
 40
0.1875
 40
0.1875
 40
0.25
 40
0.25
 40
0.375
 40
0.375
 40
0.5
 40
0.5
 40
0.625
 40
0.625
 40
0.75
 40
0.75
 40
1.0
 40
1.0
 40
1.0
 40
1.0
 10
186.5717639371391
 20
122.6902164900703
 30
0.0
 10
186.6976459649226
 20
122.4442047778909
 30
0.0
 10
186.8494059865018
 20
122.1920856762308
 30
0.0
 10
187.1849206377496
 20
121.6863646277792
 30
0.0
 10
187.3676251686337
 20
121.433997431136
 30
0.0
 10
187.7544838449609
 20
120.9282074500042
 30
0.0
 10
187.9587201859534
 20
120.6748046657099
 30
0.0
 10
188.3839112576676
 20
120.1657448362757
 30
0.0
 10
188.6056810562293
 20
119.9092227014434
 30
0.0
 10
189.2857808432244
 20
119.1416385690973
 30
0.0
 10
189.7559613797746
 20
118.6350356929661
 30
0.0
 10
190.717942764063
 20
117.6248864513403
 30
0.0
 10
191.209943264328
 20
117.1214567703567
 30
0.0
 10
192.2121406064953
 20
116.115829112016
 30
0.0
 10
192.7248614814778
 20
115.6113439451304
 30
0.0
 10
193.7493376055614
 20
114.6239346814479
 30
0.0
 10
194.2627561622694
 20
114.1393063129102
 30
0.0
 10
195.8114945126175
 20
112.7164031960853
 30
0.0
 10
196.8544254139402
 20
111.8082778802165
 30
0.0
 10
197.9325238431878
 20
110.964133802459
 30
0.0
  0
ELLIPSE
  5
65
330
1F
100
AcDbEntity
  8
0
  6
Continuous
 62
     7
370
    15
100
AcDbEllipse
 10
205.1032157818
 20
115.5749075975
 30
0.0
 11
18.36681480757684
 21
10.49143687586546
 31
0.0
210
0.0
220
0.0
230
1.0
 40
0.0230835902
 41
3.181981922108574
 42
4.298157836045434
  0
LINE
  5
66
330
1F
100
AcDbEntity
  8
0
  6
Continuous
 62
     7
370
    15
100
AcDbLine
 10
191.9245796923
 20
131.4273068214
 30
0.0
 11
191.9245796923
 21
131.4277233527
 31
0.0
  0
SPLINE
  5
67
330
1F
100
AcDbEntity
  8
0
  6
Continuous
 62
     7
370
    15
100
AcDbSpline
210
0.0
220
0.0
230
1.0
 70
     8
 71
     3
 72
    24
 73
    20
 74
     0
 42
0.00000001
 43
0.00000001
 40
0.0
 40
0.0
 40
0.0
 40
0.0
 40
0.0625000000000001
 40
0.0625000000000001
 40
0.1250000000000001
 40
0.1250000000000001
 40
0.2500000000000001
 40
0.2500000000000001
 40
0.3750000000000001
 40
0.3750000000000001
 40
0.5
 40
0.5
 40
0.625
 40
0.625
 40
0.75
 40
0.75
 40
0.875
 40
0.875
 40
1.0
 40
1.0
 40
1.0
 40
1.0
 10
186.5717639371391
 20
122.6902164900703
 30
0.0
 10
186.523540799521
 20
122.8594937596872
 30
0.0
 10
186.4854830471762
 20
123.0297279583737
 30
0.0
 10
186.4318972584647
 20
123.3728195671474
 30
0.0
 10
186.4163718489964
 20
123.5464278057918
 30
0.0
 10
186.4072116780017
 20
124.0672773863533
 30
0.0
 10
186.4507335019282
 20
124.41106039558
 30
0.0
 10
186.6369844347136
 20
125.1008530464887
 30
0.0
 10
186.7796673041738
 20
125.4468775829781
 30
0.0
 10
187.1613137983603
 20
126.1543082578409
 30
0.0
 10
187.3954047760907
 20
126.5070285406593
 30
0.0
 10
187.9300724301411
 20
127.2192659334171
 30
0.0
 10
188.2320546056049
 20
127.5807295677757
 30
0.0
 10
188.8882241455549
 20
128.3205614219612
 30
0.0
 10
189.2366321713806
 20
128.6927039648979
 30
0.0
 10
189.9634529120946
 20
129.4502772498676
 30
0.0
 10
190.3419288227622
 20
129.8356446617849
 30
0.0
 10
191.1240371977124
 20
130.6255417947247
 30
0.0
 10
191.5218958288237
 20
131.0242097949411
 30
0.0
 10
191.924579692304
 20
131.4273068213793
 30
0.0
  0
LINE
  5
68
330
1F
100
AcDbEntity
  8
0
  6
Continuous
 62
     7
370
    15
100
AcDbLine
 10
186.0717639371
 20
105.5749075975
 30
0.0
 11
186.0717639371
 21
125.5749075975
 31
0.0
  0
SPLINE
  5
69
330
1F
100
AcDbEntity
  8
0
  6
Continuous
 62
     7
370
    15
100
AcDbSpline
210
0.0
220
0.0
230
1.0
 70
     8
 71
     3
 72
    52
 73
    48
 74
     0
 42
0.00000001
 43
0.00000001
 40
-0.0625000000000036
 40
-0.0625000000000036
 40
0.0
 40
0.0
 40
0.0624999999999984
 40
0.0624999999999984
 40
0.1249999999999968
 40
0.1249999999999968
 40
0.1562499999999962
 40
0.1562499999999962
 40
0.1874999999999956
 40
0.1874999999999956
 40
0.2187499999999949
 40
0.2187499999999949
 40
0.2499999999999943
 40
0.2499999999999943
 40
0.312499999999993
 40
0.312499999999993
 40
0.3437499999999924
 40
0.3437499999999924
 40
0.3749999999999918
 40
0.3749999999999918
 40
0.4374999999999905
 40
0.4374999999999905
 40
0.4999999999999892
 40
0.4999999999999892
 40
0.562499999999988
 40
0.562499999999988
 40
0.6249999999999865
 40
0.6249999999999865
 40
0.6562499999999856
 40
0.6562499999999856
 40
0.6874999999999847
 40
0.6874999999999847
 40
0.7031249999999845
 40
0.7031249999999845
 40
0.7187499999999841
 40
0.7187499999999841
 40
0.7499999999999859
 40
0.7499999999999859
 40
0.7812499999999877
 40
0.7812499999999877
 40
0.8124999999999895
 40
0.8124999999999895
 40
0.8749999999999929
 40
0.8749999999999929
 40
0.9374999999999964
 40
0.9374999999999964
 40
1.0
 40
1.0
 40
1.062499999999998
 40
1.062499999999998
 10
192.3773029455252
 20
124.5915781316267
 30
0.0
 10
192.0072532927957
 20
124.3024636568553
 30
0.0
 10
191.8471535431904
 20
124.1426669869324
 30
0.0
 10
191.5963339991282
 20
123.7748274447698
 30
0.0
 10
191.5069923840206
 20
123.5652827339447
 30
0.0
 10
191.4749081742411
 20
123.2234025209071
 30
0.0
 10
191.4811534088677
 20
123.1067807998324
 30
0.0
 10
191.534674648248
 20
122.8681690591153
 30
0.0
 10
191.5804241338266
 20
122.7524616980202
 30
0.0
 10
191.7124589733035
 20
122.5278832561761
 30
0.0
 10
191.7966472427824
 20
122.4235592863099
 30
0.0
 10
191.9931309729416
 20
122.2385053152787
 30
0.0
 10
192.1028052559705
 20
122.1599762198687
 30
0.0
 10
192.4539360841553
 20
121.9673856666068
 30
0.0
 10
192.7064174073542
 20
121.9025620193653
 30
0.0
 10
193.0707572743356
 20
121.8807110383454
 30
0.0
 10
193.1922679767546
 20
121.8858441759559
 30
0.0
 10
193.4273621449888
 20
121.9171515141263
 30
0.0
 10
193.5411575007014
 20
121.9430746090089
 30
0.0
 10
193.8739379783905
 20
122.0471273249896
 30
0.0
 10
194.0852480291991
 20
122.1525848073616
 30
0.0
 10
194.4727043968847
 20
122.4098503009804
 30
0.0
 10
194.6524555593107
 20
122.5630855491031
 30
0.0
 10
194.9846354553013
 20
122.9116988181997
 30
0.0
 10
195.13342855974
 20
123.1027601108456
 30
0.0
 10
195.3937387274052
 20
123.5194049469444
 30
0.0
 10
195.5072409801035
 20
123.7468128744263
 30
0.0
 10
195.6201550920901
 20
124.1128661168793
 30
0.0
 10
195.6479147052706
 20
124.2385925032311
 30
0.0
 10
195.6681488025108
 20
124.4958709920447
 30
0.0
 10
195.6604830709301
 20
124.6295089568192
 30
0.0
 10
195.5972935548306
 20
124.8186410658502
 30
0.0
 10
195.5682009238458
 20
124.8778058214126
 30
0.0
 10
195.4912972650528
 20
124.9870353704922
 30
0.0
 10
195.443742489559
 20
125.0359752313187
 30
0.0
 10
195.28436103537
 20
125.1588918732645
 30
0.0
 10
195.1565825717661
 20
125.2101454386453
 30
0.0
 10
194.895940907357
 20
125.272723443234
 30
0.0
 10
194.7645207046487
 20
125.284826273493
 30
0.0
 10
194.500814690758
 20
125.2887265843169
 30
0.0
 10
194.3692409429614
 20
125.2799429135145
 30
0.0
 10
193.9835830819769
 20
125.2334253434387
 30
0.0
 10
193.7343586639365
 20
125.176041838359
 30
0.0
 10
193.2490588109347
 20
125.0254221490076
 30
0.0
 10
193.0187191670205
 20
124.9333844757375
 30
0.0
 10
192.5832364090692
 20
124.7167936036317
 30
0.0
 10
192.3773029455252
 20
124.5915781316267
 30
0.0
 10
192.0072532927957
 20
124.3024636568553
 30
0.0
  0
SPLINE
  5
6A
330
1F
100
AcDbEntity
  8
0
  6
Continuous
 62
     7
370
    15
100
AcDbSpline
210
0.0
220
0.0
230
1.0
 70
     8
 71
     3
 72
     8
 73
     4
 74
     0
 42
0.00000001
 43
0.00000001
 40
0.0
 40
0.0
 40
0.0
 40
0.0
 40
1.0
 40
1.0
 40
1.0
 40
1.0
 10
191.924579692304
 20
131.4273068213793
 30
0.0
 10
192.0939654110385
 20
131.4572301988979
 30
0.0
 10
192.2630368558695
 20
131.4870745618871
 30
0.0
 10
192.4317991070935
 20
131.5168487536542
 30
0.0
  0
SPLINE
  5
6B
330
1F
100
AcDbEntity
  8
0
  6
Continuous
 62
     7
370
    15
100
AcDbSpline
210
0.0
220
0.0
230
1.0
 70
     8
 71
     3
 72
    30
 73
    26
 74
     0
 42
0.00000001
 43
0.00000001
 40
0.0
 40
0.0
 40
0.0
 40
0.0
 40
0.125000000000006
 40
0.125000000000006
 40
0.250000000000012
 40
0.250000000000012
 40
0.312500000000011
 40
0.312500000000011
 40
0.37500000000001
 40
0.37500000000001
 40
0.437500000000009
 40
0.437500000000009
 40
0.500000000000008
 40
0.500000000000008
 40
0.625000000000006
 40
0.625000000000006
 40
0.750000000000004
 40
0.750000000000004
 40
0.812500000000003
 40
0.812500000000003
 40
0.875000000000002
 40
0.875000000000002
 40
0.937500000000001
 40
0.937500000000001
 40
1.0
 40
1.0
 40
1.0
 40
1.0
 10
200.4888152179144
 20
123.4598326428332
 30
0.0
 10
200.3360907133107
 20
123.3090283134153
 30
0.0
 10
200.1515626893157
 20
123.1879159116961
 30
0.0
 10
199.7544104598077
 20
123.0275805122269
 30
0.0
 10
199.5379457815764
 20
122.9863165388907
 30
0.0
 10
199.2121103055025
 20
122.9895568639432
 30
0.0
 10
199.1052956343695
 20
123.0011971746168
 30
0.0
 10
198.8950733909141
 20
123.0447407716813
 30
0.0
 10
198.7905602289986
 20
123.0771717504867
 30
0.0
 10
198.5914200442361
 20
123.1610008062572
 30
0.0
 10
198.4969241323767
 20
123.2120293670319
 30
0.0
 10
198.3180176813423
 20
123.3321954709097
 30
0.0
 10
198.2333294686872
 20
123.401932204898
 30
0.0
 10
198.0057622453674
 20
123.6298234764292
 30
0.0
 10
197.8833687914159
 20
123.8128490021841
 30
0.0
 10
197.7198970424973
 20
124.2063438101182
 30
0.0
 10
197.6771065506614
 20
124.4207305996958
 30
0.0
 10
197.677333200049
 20
124.739634864638
 30
0.0
 10
197.688127885906
 20
124.8475774096317
 30
0.0
 10
197.7302235896896
 20
125.0564821178113
 30
0.0
 10
197.761321048931
 20
125.1581648419365
 30
0.0
 10
197.8438738268357
 20
125.3560223941153
 30
0.0
 10
197.8954314626369
 20
125.45170524397
 30
0.0
 10
198.0147004782667
 20
125.6291451139509
 30
0.0
 10
198.0828263571943
 20
125.7120287050465
 30
0.0
 10
198.1598226382137
 20
125.7888252225338
 30
0.0
  0
SPLINE
  5
6C
330
1F
100
AcDbEntity
  8
0
  6
Continuous
 62
     7
370
    15
100
AcDbSpline
210
0.0
220
0.0
230
1.0
 70
     8
 71
     3
 72
     8
 73
     4
 74
     0
 42
0.00000001
 43
0.00000001
 40
0.0
 40
0.0
 40
0.0
 40
0.0
 40
1.0
 40
1.0
 40
1.0
 40
1.0
 10
206.7561026538635
 20
116.4444238693758
 30
0.0
 10
206.9112796383715
 20
116.5340908874648
 30
0.0
 10
207.0519234967104
 20
116.642809676679
 30
0.0
 10
207.1780831885991
 20
116.7705646721486
 30
0.0
  0
ELLIPSE
  5
6D
330
1F
100
AcDbEntity
  8
0
  6
Continuous
 62
     7
370
    15
100
AcDbEllipse
 10
208.3066596184
 20
116.6878571554
 30
0.0
 11
10.80355341949928
 21
6.165720034875122
 31
0.0
210
0.0
220
0.0
230
1.0
 40
0.0451040694
 41
1.689032767139105
 42
2.831827881228452
  0
LINE
  5
6E
330
1F
100
AcDbEntity
  8
0
  6
Continuous
 62
     7
370
    15
100
AcDbLine
 10
180.0717639371
 20
105.5749075975
 30
0.0
 11
180.0717639371
 21
125.5749075975
 31
0.0
  0
LINE
  5
6F
330
1F
100
AcDbEntity
  8
0
  6
Continuous
 62
     7
370
    15
100
AcDbLine
 10
178.0717639371
 20
107.5749075975
 30
0.0
 11
178.0717639371
 21
123.5749075975
 31
0.0
  0
LINE
  5
70
330
1F
100
AcDbEntity
  8
0
  6
Continuous
 62
     7
370
    15
100
AcDbLine
 10
94.4467639371
 20
107.5749075975
 30
0.0
 11
94.4467639371
 21
121.7749075975
 31
0.0
  0
LINE
  5
71
330
1F
100
AcDbEntity
  8
0
  6
Continuous
 62
     7
370
    15
100
AcDbLine
 10
102.5717639371
 20
121.7749075975
 30
0.0
 11
94.4467639371
 21
121.7749075975
 31
0.0
  0
LINE
  5
72
330
1F
100
AcDbEntity
  8
0
  6
Continuous
 62
     7
370
    15
100
AcDbLine
 10
104.3717639371
 20
123.5749075975
 30
0.0
 11
102.5717639371
 21
121.7749075975
 31
0.0
  0
LINE
  5
73
330
1F
100
AcDbEntity
  8
0
  6
Continuous
 62
     7
370
    15
100
AcDbLine
 10
109.0717639371
 20
121.7749075975
 30
0.0
 11
107.2717639371
 21
123.5749075975
 31
0.0
  0
LINE
  5
74
330
1F
100
AcDbEntity
  8
0
  6
Continuous
 62
     7
370
    15
100
AcDbLine
 10
117.0717639371
 20
121.7749075975
 30
0.0
 11
109.0717639371
 21
121.7749075975
 31
0.0
  0
LINE
  5
75
330
1F
100
AcDbEntity
  8
0
  6
Continuous
 62
     7
370
    15
100
AcDbLine
 10
118.8717639371
 20
123.5749075975
 30
0.0
 11
117.0717639371
 21
121.7749075975
 31
0.0
  0
LINE
  5
76
330
1F
100
AcDbEntity
  8
0
  6
Continuous
 62
     7
370
    15
100
AcDbLine
 10
123.5717639371
 20
121.7749075975
 30
0.0
 11
121.7717639371
 21
123.5749075975
 31
0.0
  0
LINE
  5
77
330
1F
100
AcDbEntity
  8
0
  6
Continuous
 62
     7
370
    15
100
AcDbLine
 10
131.5717639371
 20
121.7749075975
 30
0.0
 11
123.5717639371
 21
121.7749075975
 31
0.0
  0
LINE
  5
78
330
1F
100
AcDbEntity
  8
0
  6
Continuous
 62
     7
370
    15
100
AcDbLine
 10
133.3717639371
 20
123.5749075975
 30
0.0
 11
131.5717639371
 21
121.7749075975
 31
0.0
  0
LINE
  5
79
330
1F
100
AcDbEntity
  8
0
  6
Continuous
 62
     7
370
    15
100
AcDbLine
 10
138.0717639371
 20
121.7749075975
 30
0.0
 11
136.2717639371
 21
123.5749075975
 31
0.0
  0
LINE
  5
7A
330
1F
100
AcDbEntity
  8
0
  6
Continuous
 62
     7
370
    15
100
AcDbLine
 10
146.0717639371
 20
121.7749075975
 30
0.0
 11
138.0717639371
 21
121.7749075975
 31
0.0
  0
LINE
  5
7B
330
1F
100
AcDbEntity
  8
0
  6
Continuous
 62
     7
370
    15
100
AcDbLine
 10
147.8717639371
 20
123.5749075975
 30
0.0
 11
146.0717639371
 21
121.7749075975
 31
0.0
  0
LINE
  5
7C
330
1F
100
AcDbEntity
  8
0
  6
Continuous
 62
     7
370
    15
100
AcDbLine
 10
152.5717639371
 20
121.7749075975
 30
0.0
 11
150.7717639371
 21
123.5749075975
 31
0.0
  0
LINE
  5
7D
330
1F
100
AcDbEntity
  8
0
  6
Continuous
 62
     7
370
    15
100
AcDbLine
 10
160.5717639371
 20
121.7749075975
 30
0.0
 11
152.5717639371
 21
121.7749075975
 31
0.0
  0
LINE
  5
7E
330
1F
100
AcDbEntity
  8
0
  6
Continuous
 62
     7
370
    15
100
AcDbLine
 10
162.3717639371
 20
123.5749075975
 30
0.0
 11
160.5717639371
 21
121.7749075975
 31
0.0
  0
LINE
  5
7F
330
1F
100
AcDbEntity
  8
0
  6
Continuous
 62
     7
370
    15
100
AcDbLine
 10
93.0717639371
 20
108.9499075975
 30
0.0
 11
93.0717639371
 21
121.7749075975
 31
0.0
  0
SPLINE
  5
80
330
1F
100
AcDbEntity
  8
0
  6
Continuous
 62
     7
370
    15
100
AcDbSpline
210
0.0
220
0.0
230
1.0
 70
    24
 71
     3
 72
    10
 73
     6
 74
     0
 42
0.00000001
 43
0.00000001
 40
0.0
 40
0.0
 40
0.0
 40
0.0
 40
0.5
 40
0.5
 40
1.0
 40
1.0
 40
1.0
 40
1.0
 10
94.4467639371391
 20
121.7749075975359
 30
0.0
 10
94.17452374982189
 20
121.7749075975359
 30
0.0
 10
93.91615964163388
 20
121.7749075975359
 30
0.0
 10
93.4500936238185
 20
121.7749075975359
 30
0.0
 10
93.24150312069082
 20
121.7749075975359
 30
0.0
 10
93.07176393713908
 20
121.7749075975359
 30
0.0
  0
ARC
  5
81
330
1F
100
AcDbEntity
  8
0
  6
Continuous
 62
     7
370
    15
100
AcDbCircle
 10
199.3349148525
 20
124.6289136616
 30
0.0
 40
1.642630963282947
100
AcDbArc
 50
314.6255781504
 51
342.6598501942
  0
LINE
  5
82
330
1F
100
AcDbEntity
  8
0
  6
Continuous
 62
     7
370
    15
100
AcDbLine
 10
207.747207025
 20
118.1568282154
 30
0.0
 11
207.747207025
 21
125.3342197711
 31
0.0
  0
ELLIPSE
  5
83
330
1F
100
AcDbEntity
  8
0
  6
Continuous
 62
     7
370
    15
100
AcDbEllipse
 10
205.732187374
 20
118.1740410275
 30
0.0
 11
1.868639352156777
 21
-0.7633212359937717
 31
0.0
210
0.0
220
0.0
230
1.0
 40
0.9877670049
 41
5.8961947424008
 42
6.66669955084343
  0
ARC
  5
84
330
1F
100
AcDbEntity
  8
0
  6
Continuous
 62
     7
370
    15
100
AcDbCircle
 10
199.3199664346
 20
124.2860944225
 30
0.0
 40
1.64277851892198
100
AcDbArc
 50
118.0776356668
 51
176.2838196982
  0
ARC
  5
85
330
1F
100
AcDbEntity
  8
0
  6
Continuous
 62
     7
370
    15
100
AcDbCircle
 10
199.3247262943
 20
124.6206852379
 30
0.0
 40
1.649712566376715
100
AcDbArc
 50
117.173654865
 51
134.9205210534
  0
LINE
  5
86
330
1F
100
AcDbEntity
  8
0
  6
Continuous
 62
     7
370
    15
100
AcDbLine
 10
192.4317991071
 20
131.5168487537
 30
0.0
 11
198.5467639371
 21
132.5953911738
 31
0.0
  0
CIRCLE
  5
87
330
1F
100
AcDbEntity
  8
0
  6
Continuous
 62
     7
370
    15
100
AcDbCircle
 10
203.2237093764
 20
129.2576773775
 30
0.0
 40
2.62144866422369
  0
CIRCLE
  5
88
330
1F
100
AcDbEntity
  8
0
  6
Continuous
 62
     7
370
    15
100
AcDbCircle
 10
203.224611218
 20
129.2793825017
 30
0.0
 40
1.797383558940037
  0
ARC
  5
89
330
1F
100
AcDbEntity
  8
0
  6
Continuous
 62
     7
370
    15
100
AcDbCircle
 10
203.2325024042
 20
129.2775738428
 30
0.0
 40
1.670120931668374
100
AcDbArc
 50
291.2724522123
 51
349.9134005164
  0
ARC
  5
8A
330
1F
100
AcDbEntity
  8
0
  6
Continuous
 62
     7
370
    15
100
AcDbCircle
 10
203.2368964343
 20
129.2745699356
 30
0.0
 40
1.665270158637462
100
AcDbArc
 50
349.9886789141
 51
50.2590927083
  0
ARC
  5
8B
330
1F
100
AcDbEntity
  8
0
  6
Continuous
 62
     7
370
    15
100
AcDbCircle
 10
203.227210308
 20
129.2636284026
 30
0.0
 40
1.679876143223337
100
AcDbArc
 50
50.2436430564
 51
108.648779539
  0
LINE
  5
8C
330
1F
100
AcDbEntity
  8
0
  6
Continuous
 62
     7
370
    15
100
AcDbLine
 10
202.6102842498
 20
130.8261342221
 30
0.0
 11
202.6900428835
 21
130.855305196
 31
0.0
  0
ARC
  5
8D
330
1F
100
AcDbEntity
  8
0
  6
Continuous
 62
     7
370
    15
100
AcDbCircle
 10
203.22217333
 20
129.2718773637
 30
0.0
 40
1.670366016288868
100
AcDbArc
 50
111.4888625167
 51
167.9662589118
  0
LINE
  5
8E
330
1F
100
AcDbEntity
  8
0
  6
Continuous
 62
     7
370
    15
100
AcDbLine
 10
201.5679288096
 20
129.5025504715
 30
0.0
 11
201.588513618
 21
129.6201280976
 31
0.0
  0
ARC
  5
8F
330
1F
100
AcDbEntity
  8
0
  6
Continuous
 62
     7
370
    15
100
AcDbCircle
 10
203.2174947639
 20
129.2751220378
 30
0.0
 40
1.665170120418946
100
AcDbArc
 50
172.1500238474
 51
228.097747775
  0
LINE
  5
90
330
1F
100
AcDbEntity
  8
0
  6
Continuous
 62
     7
370
    15
100
AcDbLine
 10
202.1971700064
 20
127.9590423862
 30
0.0
 11
202.1053912284
 21
128.0357604052
 31
0.0
  0
ARC
  5
91
330
1F
100
AcDbEntity
  8
0
  6
Continuous
 62
     7
370
    15
100
AcDbCircle
 10
203.2273032538
 20
129.2861900285
 30
0.0
 40
1.680028384157468
100
AcDbArc
 50
232.1813519841
 51
288.4344342728
  0
LINE
  5
92
330
1F
100
AcDbEntity
  8
0
  6
Continuous
 62
     7
370
    15
100
AcDbLine
 10
203.8384276756
 20
127.7212453132
 30
0.0
 11
203.7585605631
 21
127.6923703891
 31
0.0
  0
SPLINE
  5
93
330
1F
100
AcDbEntity
  8
0
  6
Continuous
 62
     7
370
    15
100
AcDbSpline
210
0.0
220
0.0
230
1.0
 70
     8
 71
     3
 72
    11
 73
     7
 74
     0
 42
0.00000001
 43
0.00000001
 40
0.0
 40
0.0
 40
0.0
 40
0.0
 40
0.2657596322624827
 40
0.5530029385954418
 40
0.8418208483438572
 40
1.0
 40
1.0
 40
1.0
 40
1.0
 10
202.197170006441
 20
127.9590423862393
 30
0.0
 10
202.2288098385108
 20
127.9445445382897
 30
0.0
 10
202.2946472268391
 20
127.9143768546153
 30
0.0
 10
202.4062359070039
 20
127.9110211036336
 30
0.0
 10
202.4990775627784
 20
127.9363974073031
 30
0.0
 10
202.5469285555358
 20
127.9674219937612
 30
0.0
 10
202.5638616186224
 20
127.9784006850998
 30
0.0
  0
SPLINE
  5
94
330
1F
100
AcDbEntity
  8
0
  6
Continuous
 62
     7
370
    15
100
AcDbSpline
210
0.0
220
0.0
230
1.0
 70
     8
 71
     3
 72
    12
 73
     8
 74
     0
 42
0.00000001
 43
0.00000001
 40
0.0
 40
0.0
 40
0.0
 40
0.0
 40
0.2057904614204077
 40
0.4120344203360248
 40
0.6141302471427844
 40
0.8132633242113027
 40
1.0
 40
1.0
 40
1.0
 40
1.0
 10
202.5638616186224
 20
127.9784006850998
 30
0.0
 10
202.6198881014226
 20
128.0114518082279
 30
0.0
 10
202.7320645317814
 20
128.0776268887712
 30
0.0
 10
202.931892891409
 20
128.1012314798749
 30
0.0
 10
203.1244888871282
 20
128.0633694558196
 30
0.0
 10
203.2922131704677
 20
127.9713128685722
 30
0.0
 10
203.3683043951509
 20
127.8770369186851
 30
0.0
 10
203.4051277591197
 20
127.8314132921676
 30
0.0
  0
SPLINE
  5
95
330
1F
100
AcDbEntity
  8
0
  6
Continuous
 62
     7
370
    15
100
AcDbSpline
210
0.0
220
0.0
230
1.0
 70
     8
 71
     3
 72
    11
 73
     7
 74
     0
 42
0.00000001
 43
0.00000001
 40
0.0
 40
0.0
 40
0.0
 40
0.0
 40
0.2802371411013574
 40
0.5612869875923854
 40
0.8399906057825174
 40
1.0
 40
1.0
 40
1.0
 40
1.0
 10
203.4051277591197
 20
127.8314132921676
 30
0.0
 10
203.4289079010176
 20
127.802533251703
 30
0.0
 10
203.4765371487252
 20
127.7446894168345
 30
0.0
 10
203.5802950355107
 20
127.6940856215602
 30
0.0
 10
203.6783647821441
 20
127.6790320871091
 30
0.0
 10
203.7371281293295
 20
127.6888057093924
 30
0.0
 10
203.758560563106
 20
127.6923703891184
 30
0.0
  0
SPLINE
  5
96
330
1F
100
AcDbEntity
  8
0
  6
Continuous
 62
     7
370
    15
100
AcDbSpline
210
0.0
220
0.0
230
1.0
 70
     8
 71
     3
 72
    12
 73
     8
 74
     0
 42
0.00000001
 43
0.00000001
 40
0.0
 40
0.0
 40
0.0
 40
0.0
 40
0.2058585741213936
 40
0.4121026961457047
 40
0.6141937841967297
 40
0.8133180967416271
 40
1.0
 40
1.0
 40
1.0
 40
1.0
 10
204.0177693013761
 20
128.0541754937441
 30
0.0
 10
204.0163113377661
 20
128.1186323785447
 30
0.0
 10
204.0133926799587
 20
128.2476668679988
 30
0.0
 10
204.0916224009805
 20
128.4311911253102
 30
0.0
 10
204.2209319669435
 20
128.5784501828174
 30
0.0
 10
204.3860639615933
 20
128.6778152889846
 30
0.0
 10
204.5074370896702
 20
128.697117588643
 30
0.0
 10
204.5661664870352
 20
128.706457484917
 30
0.0
  0
SPLINE
  5
97
330
1F
100
AcDbEntity
  8
0
  6
Continuous
 62
     7
370
    15
100
AcDbSpline
210
0.0
220
0.0
230
1.0
 70
     8
 71
     3
 72
    11
 73
     7
 74
     0
 42
0.00000001
 43
0.00000001
 40
0.0
 40
0.0
 40
0.0
 40
0.0
 40
0.2524782265335491
 40
0.5068902417933072
 40
0.7591786113117203
 40
1.0
 40
1.0
 40
1.0
 40
1.0
 10
204.5661664870352
 20
128.706457484917
 30
0.0
 10
204.6034288254272
 20
128.712735872275
 30
0.0
 10
204.6782389030193
 20
128.7253407346018
 30
0.0
 10
204.7748563082916
 20
128.7898360206606
 30
0.0
 10
204.8474060090639
 20
128.8785293700548
 30
0.0
 10
204.8671619593766
 20
128.9501145275469
 30
0.0
 10
204.8768102279618
 20
128.985074770677
 30
0.0
  0
SPLINE
  5
98
330
1F
100
AcDbEntity
  8
0
  6
Continuous
 62
     7
370
    15
100
AcDbSpline
210
0.0
220
0.0
230
1.0
 70
     8
 71
     3
 72
    11
 73
     7
 74
     0
 42
0.00000001
 43
0.00000001
 40
0.0
 40
0.0
 40
0.0
 40
0.0
 40
0.2423611237745314
 40
0.5166847928457978
 40
0.7923341374633304
 40
1.0
 40
1.0
 40
1.0
 40
1.0
 10
203.8384276756235
 20
127.7212453132358
 30
0.0
 10
203.8664955128903
 20
127.7387463360942
 30
0.0
 10
203.926332769204
 20
127.7760564138382
 30
0.0
 10
203.9896064694597
 20
127.864733750925
 30
0.0
 10
204.0220227397786
 20
127.9625995339792
 30
0.0
 10
204.0190476199775
 20
128.0266534652741
 30
0.0
 10
204.0177693013761
 20
128.0541754937441
 30
0.0
  0
SPLINE
  5
99
330
1F
100
AcDbEntity
  8
0
  6
Continuous
 62
     7
370
    15
100
AcDbSpline
210
0.0
220
0.0
230
1.0
 70
     8
 71
     3
 72
    11
 73
     7
 74
     0
 42
0.00000001
 43
0.00000001
 40
0.0
 40
0.0
 40
0.0
 40
0.0
 40
0.2928993220619791
 40
0.5864344719079793
 40
0.8775178868033291
 40
1.0
 40
1.0
 40
1.0
 40
1.0
 10
202.0638712534342
 20
128.3955637579614
 30
0.0
 10
202.0502184084403
 20
128.3608329966952
 30
0.0
 10
202.0228830807664
 20
128.2912960803966
 30
0.0
 10
202.0298146691092
 20
128.1769365176255
 30
0.0
 10
202.0633080240017
 20
128.0907318911784
 30
0.0
 10
202.0957755909227
 20
128.048320900279
 30
0.0
 10
202.1053912284377
 20
128.0357604051813
 30
0.0
  0
SPLINE
  5
9A
330
1F
100
AcDbEntity
  8
0
  6
Continuous
 62
     7
370
    15
100
AcDbSpline
210
0.0
220
0.0
230
1.0
 70
     8
 71
     3
 72
    11
 73
     7
 74
     0
 42
0.00000001
 43
0.00000001
 40
0.0
 40
0.0
 40
0.0
 40
0.0
 40
0.2669010467950083
 40
0.5546143410792191
 40
0.8439070439786047
 40
1.0
 40
1.0
 40
1.0
 40
1.0
 10
201.5679288095901
 20
129.5025504715239
 30
0.0
 10
201.5713263843224
 20
129.4678608068546
 30
0.0
 10
201.5783864678033
 20
129.3957764679439
 30
0.0
 10
201.6323434225672
 20
129.2974415129493
 30
0.0
 10
201.701703296583
 20
129.2299172707704
 30
0.0
 10
201.753018141213
 20
129.2039380370373
 30
0.0
 10
201.7710022985958
 20
129.1948331740779
 30
0.0
  0
SPLINE
  5
9B
330
1F
100
AcDbEntity
  8
0
  6
Continuous
 62
     7
370
    15
100
AcDbSpline
210
0.0
220
0.0
230
1.0
 70
     8
 71
     3
 72
    12
 73
     8
 74
     0
 42
0.00000001
 43
0.00000001
 40
0.0
 40
0.0
 40
0.0
 40
0.0
 40
0.2058401281338013
 40
0.4120619935509953
 40
0.6141387330969573
 40
0.8132772113524612
 40
1.0
 40
1.0
 40
1.0
 40
1.0
 10
201.7710022985958
 20
129.1948331740779
 30
0.0
 10
201.8285030710427
 20
129.1625881092692
 30
0.0
 10
201.943611253009
 20
129.0980381801193
 30
0.0
 10
202.0652313563407
 20
128.9367458070352
 30
0.0
 10
202.1285183176505
 20
128.7517194904423
 30
0.0
 10
202.1310944641322
 20
128.5617288391233
 30
0.0
 10
202.0857931096957
 20
128.4497510987188
 30
0.0
 10
202.0638712534342
 20
128.3955637579614
 30
0.0
  0
ARC
  5
9C
330
1F
100
AcDbEntity
  8
0
  6
Continuous
 62
     7
370
    15
100
AcDbCircle
 10
201.5442444373
 20
128.5393415932
 30
0.0
 40
0.5821513035206017
100
AcDbArc
 50
333.2014884131
 51
359.9972551827
  0
ARC
  5
9D
330
1F
100
AcDbEntity
  8
0
  6
Continuous
 62
     7
370
    15
100
AcDbCircle
 10
204.5479877967
 20
128.9204675096
 30
0.0
 40
0.3339916086661309
100
AcDbArc
 50
11.7180099882
 51
66.9386819082
  0
SPLINE
  5
9E
330
1F
100
AcDbEntity
  8
0
  6
Continuous
 62
     7
370
    15
100
AcDbSpline
210
0.0
220
0.0
230
1.0
 70
     8
 71
     3
 72
    12
 73
     8
 74
     0
 42
0.00000001
 43
0.00000001
 40
0.0
 40
0.0
 40
0.0
 40
0.0
 40
0.0091681771491566
 40
0.2573268097002658
 40
0.505493468742968
 40
0.7549925359452556
 40
1.0
 40
1.0
 40
1.0
 40
1.0
 10
204.8768102279618
 20
128.985074770677
 30
0.0
 10
204.8770431555649
 20
128.9864223373042
 30
0.0
 10
204.8835808255968
 20
129.0242450162718
 30
0.0
 10
204.8831741031312
 20
129.1012787624539
 30
0.0
 10
204.8452093341363
 20
129.206591222902
 30
0.0
 10
204.7757855258781
 20
129.2951511377457
 30
0.0
 10
204.7109439660516
 20
129.3294092743422
 30
0.0
 10
204.6788176641035
 20
129.3463827593018
 30
0.0
  0
ARC
  5
9F
330
1F
100
AcDbEntity
  8
0
  6
Continuous
 62
     7
370
    15
100
AcDbCircle
 10
201.902262278
 20
129.3821551603
 30
0.0
 40
0.3344423974056056
100
AcDbArc
 50
93.189657674
 51
170.1893639457
  0
SPLINE
  5
A0
330
1F
100
AcDbEntity
  8
0
  6
Continuous
 62
     7
370
    15
100
AcDbSpline
210
0.0
220
0.0
230
1.0
 70
     8
 71
     3
 72
    11
 73
     7
 74
     0
 42
0.00000001
 43
0.00000001
 40
0.0
 40
0.0
 40
0.0
 40
0.0
 40
0.2908641666076828
 40
0.5839560789892158
 40
0.874598805361766
 40
0.9999999999999999
 40
0.9999999999999999
 40
0.9999999999999999
 40
0.9999999999999999
 10
201.8836534756641
 20
129.8347584733812
 30
0.0
 10
201.8464033462583
 20
129.8294691677984
 30
0.0
 10
201.7716177865128
 20
129.8188500455299
 30
0.0
 10
201.6747863658725
 20
129.7565244530459
 30
0.0
 10
201.6156904091588
 20
129.6845992389352
 30
0.0
 10
201.5948078886215
 20
129.6350599123338
 30
0.0
 10
201.5885136180165
 20
129.6201280976295
 30
0.0
  0
SPLINE
  5
A1
330
1F
100
AcDbEntity
  8
0
  6
Continuous
 62
     7
370
    15
100
AcDbSpline
210
0.0
220
0.0
230
1.0
 70
     8
 71
     3
 72
    12
 73
     8
 74
     0
 42
0.00000001
 43
0.00000001
 40
0.0
 40
0.0
 40
0.0
 40
0.0
 40
0.2058435564095138
 40
0.4120691620553247
 40
0.6141397217727161
 40
0.8132604579561359
 40
1.0
 40
1.0
 40
1.0
 40
1.0
 10
204.6788176641035
 20
129.3463827593018
 30
0.0
 10
204.6213163181744
 20
129.3769260269277
 30
0.0
 10
204.5062069028138
 20
129.4380692510178
 30
0.0
 10
204.3845871739747
 20
129.5966260991821
 30
0.0
 10
204.3213029849457
 20
129.781851317884
 30
0.0
 10
204.3187250594254
 20
129.9747295331514
 30
0.0
 10
204.3640253464886
 20
130.0899099016489
 30
0.0
 10
204.3859487092652
 20
130.1456521754183
 30
0.0
  0
SPLINE
  5
A2
330
1F
100
AcDbEntity
  8
0
  6
Continuous
 62
     7
370
    15
100
AcDbSpline
210
0.0
220
0.0
230
1.0
 70
     8
 71
     3
 72
    11
 73
     7
 74
     0
 42
0.00000001
 43
0.00000001
 40
0.0
 40
0.0
 40
0.0
 40
0.0
 40
0.2535086227484026
 40
0.5075674742604602
 40
0.759505625192447
 40
1.0
 40
1.0
 40
1.0
 40
1.0
 10
204.3859487092652
 20
130.1456521754183
 30
0.0
 10
204.3996097474743
 20
130.1813916025609
 30
0.0
 10
204.4269614745452
 20
130.2529480276229
 30
0.0
 10
204.419909648453
 20
130.3692937897642
 30
0.0
 10
204.3794913915895
 20
130.476506720159
 30
0.0
 10
204.3271126651534
 20
130.5292899659655
 30
0.0
 10
204.3015319238151
 20
130.55506826662
 30
0.0
  0
SPLINE
  5
A3
330
1F
100
AcDbEntity
  8
0
  6
Continuous
 62
     7
370
    15
100
AcDbSpline
210
0.0
220
0.0
230
1.0
 70
     8
 71
     3
 72
    11
 73
     7
 74
     0
 42
0.00000001
 43
0.00000001
 40
0.0
 40
0.0
 40
0.0
 40
0.0
 40
0.2431090893442565
 40
0.5182793655622038
 40
0.7947794085751947
 40
0.9999999999999999
 40
0.9999999999999999
 40
0.9999999999999999
 40
0.9999999999999999
 10
202.6102842498147
 20
130.8261342220636
 30
0.0
 10
202.5822825426855
 20
130.8083566065033
 30
0.0
 10
202.5225862678787
 20
130.7704568663554
 30
0.0
 10
202.4596438865863
 20
130.6799628801724
 30
0.0
 10
202.4277403634301
 20
130.5802438745533
 30
0.0
 10
202.4307629792777
 20
130.5148845851618
 30
0.0
 10
202.4320506613232
 20
130.4870404965654
 30
0.0
  0
SPLINE
  5
A4
330
1F
100
AcDbEntity
  8
0
  6
Continuous
 62
     7
370
    15
100
AcDbSpline
210
0.0
220
0.0
230
1.0
 70
     8
 71
     3
 72
    12
 73
     8
 74
     0
 42
0.00000001
 43
0.00000001
 40
0.0
 40
0.0
 40
0.0
 40
0.0
 40
0.2058179564998936
 40
0.4120215045907162
 40
0.6140779969167761
 40
0.8132130006453734
 40
1.0
 40
1.0
 40
1.0
 40
1.0
 10
202.4320506613232
 20
130.4870404965654
 30
0.0
 10
202.4335094299273
 20
130.4208914877331
 30
0.0
 10
202.4364297000792
 20
130.2884695425842
 30
0.0
 10
202.3582251792029
 20
130.1022297942647
 30
0.0
 10
202.2289499712105
 20
129.9551753259889
 30
0.0
 10
202.0638189082942
 20
129.8586648130806
 30
0.0
 10
201.9424137892005
 20
129.8425554408446
 30
0.0
 10
201.8836534756641
 20
129.8347584733812
 30
0.0
  0
ARC
  5
A5
330
1F
100
AcDbEntity
  8
0
  6
Continuous
 62
     7
370
    15
100
AcDbCircle
 10
203.2311895353
 20
129.1928246383
 30
0.0
 40
2.621072769268954
100
AcDbArc
 50
259.8975618057
 51
359.8873849191
  0
ARC
  5
A6
330
1F
100
AcDbEntity
  8
0
  6
Continuous
 62
     7
370
    15
100
AcDbCircle
 10
203.2205032831
 20
129.1918399723
 30
0.0
 40
2.618249357501087
100
AcDbArc
 50
180.0911888029
 51
260.1240068937
  0
ARC
  5
A7
330
1F
100
AcDbEntity
  8
0
  6
Continuous
 62
     7
370
    15
100
AcDbCircle
 10
204.9073840498
 20
129.76513881
 30
0.0
 40
0.5839600754730252
100
AcDbArc
 50
180.0528243197
 51
246.9578899869
  0
ARC
  5
A8
330
1F
100
AcDbEntity
  8
0
  6
Continuous
 62
     7
370
    15
100
AcDbCircle
 10
201.8512924282
 20
130.3000783404
 30
0.0
 40
0.5848948146325749
100
AcDbArc
 50
273.1716792205
 51
359.9072870941
  0
SPLINE
  5
A9
330
1F
100
AcDbEntity
  8
0
  6
Continuous
 62
     7
370
    15
100
AcDbSpline
210
0.0
220
0.0
230
1.0
 70
     8
 71
     3
 72
    12
 73
     8
 74
     0
 42
0.00000001
 43
0.00000001
 40
0.0
 40
0.0
 40
0.0
 40
0.0
 40
0.0091735205190071
 40
0.2576775215524712
 40
0.5061895192299416
 40
0.7560357430219007
 40
1.0
 40
1.0
 40
1.0
 40
1.0
 10
204.3015319238151
 20
130.55506826662
 30
0.0
 10
204.3004760642071
 20
130.5559403066401
 30
0.0
 10
204.270817735504
 20
130.5804352767648
 30
0.0
 10
204.2034294384547
 20
130.6183914711794
 30
0.0
 10
204.0922489438425
 20
130.6377405046024
 30
0.0
 10
203.9798523812031
 20
130.6214048640634
 30
0.0
 10
203.9170068306002
 20
130.5821894334544
 30
0.0
 10
203.885958344077
 20
130.5628152731983
 30
0.0
  0
SPLINE
  5
AA
330
1F
100
AcDbEntity
  8
0
  6
Continuous
 62
     7
370
    15
100
AcDbSpline
210
0.0
220
0.0
230
1.0
 70
     8
 71
     3
 72
    12
 73
     8
 74
     0
 42
0.00000001
 43
0.00000001
 40
0.0
 40
0.0
 40
0.0
 40
0.0
 40
0.2057532787803913
 40
0.411960408804441
 40
0.6140154573248969
 40
0.8131414684041052
 40
1.0
 40
1.0
 40
1.0
 40
1.0
 10
203.885958344077
 20
130.5628152731983
 30
0.0
 10
203.8299403581816
 20
130.5280665437321
 30
0.0
 10
203.7177808217374
 20
130.4584924359405
 30
0.0
 10
203.5179826903251
 20
130.4321403408275
 30
0.0
 10
203.3254102646318
 20
130.4701758781712
 30
0.0
 10
203.1576569341416
 20
130.5651007533702
 30
0.0
 10
203.0815407309041
 20
130.6626016510601
 30
0.0
 10
203.0446922035796
 20
130.7098026981419
 30
0.0
  0
SPLINE
  5
AB
330
1F
100
AcDbEntity
  8
0
  6
Continuous
 62
     7
370
    15
100
AcDbSpline
210
0.0
220
0.0
230
1.0
 70
     8
 71
     3
 72
    11
 73
     7
 74
     0
 42
0.00000001
 43
0.00000001
 40
0.0
 40
0.0
 40
0.0
 40
0.0
 40
0.2794069064555902
 40
0.5596240257155484
 40
0.8375007392219264
 40
0.9999999999999999
 40
0.9999999999999999
 40
0.9999999999999999
 40
0.9999999999999999
 10
203.0446922035796
 20
130.7098026981419
 30
0.0
 10
203.020909810163
 20
130.7396798407161
 30
0.0
 10
202.9732760601108
 20
130.7995207623899
 30
0.0
 10
202.8695100004727
 20
130.8522850569306
 30
0.0
 10
202.7710192885634
 20
130.8686241248303
 30
0.0
 10
202.7118692999846
 20
130.8588951860445
 30
0.0
 10
202.6900428835125
 20
130.855305196006
 30
0.0
  0
ARC
  5
AC
330
1F
100
AcDbEntity
  8
0
  6
Continuous
 62
     7
370
    15
100
AcDbCircle
 10
204.086730682
 20
130.1758793941
 30
0.0
 40
0.3351140664298257
100
AcDbArc
 50
10.9507075896
 51
126.8066416649
  0
ARC
  5
AD
330
1F
100
AcDbEntity
  8
0
  6
Continuous
 62
     7
370
    15
100
AcDbCircle
 10
202.7647563074
 20
130.4063298457
 30
0.0
 40
0.3354495906337174
100
AcDbArc
 50
33.4351934584
 51
161.6143327599
  0
ARC
  5
AE
330
1F
100
AcDbEntity
  8
0
  6
Continuous
 62
     7
370
    15
100
AcDbCircle
 10
203.534779086
 20
130.9152403814
 30
0.0
 40
0.5875483023102346
100
AcDbArc
 50
213.4754893771
 51
306.705548474
  0
LINE
  5
AF
330
1F
100
AcDbEntity
  8
0
  6
Continuous
 62
     7
370
    15
100
AcDbLine
 10
207.6717639371
 20
125.7054182151
 30
0.0
 11
207.7412232082
 21
125.3331218668
 31
0.0
  0
LINE
  5
B0
330
1F
100
AcDbEntity
  8
0
  6
Continuous
 62
     7
370
    15
100
AcDbLine
 10
199.0162232082
 20
123.8005232379
 30
0.0
 11
207.7412232082
 21
125.3331218668
 31
0.0
  0
LINE
  5
B1
330
1F
100
AcDbEntity
  8
0
  6
Continuous
 62
     7
370
    15
100
AcDbLine
 10
198.9467639371
 20
124.1728195862
 30
0.0
 11
199.0162232082
 21
123.8005232379
 31
0.0
  0
LINE
  5
B2
330
1F
100
AcDbEntity
  8
0
  6
Continuous
 62
     7
370
    15
100
AcDbLine
 10
199.2395842602
 20
124.5057267827
 30
0.0
 11
198.9467639371
 21
124.1728195862
 31
0.0
  0
LINE
  5
B3
330
1F
100
AcDbEntity
  8
0
  6
Continuous
 62
     7
370
    15
100
AcDbLine
 10
199.2395842602
 20
124.5057267827
 30
0.0
 11
199.3505948266
 21
124.5252264551
 31
0.0
  0
LINE
  5
B4
330
1F
100
AcDbEntity
  8
0
  6
Continuous
 62
     7
370
    15
100
AcDbLine
 10
207.5221215703
 20
125.8229753449
 30
0.0
 11
207.6717639371
 21
125.7054182151
 31
0.0
  0
LINE
  5
B5
330
1F
100
AcDbEntity
  8
0
  6
Continuous
 62
     7
370
    15
100
AcDbLine
 10
198.9467639371
 20
124.1728195862
 30
0.0
 11
198.5467639371
 21
124.1929473428
 31
0.0
  0
ARC
  5
B6
330
1F
100
AcDbEntity
  8
0
  6
Continuous
 62
     7
370
    15
100
AcDbCircle
 10
198.9462952124
 20
124.1938884639
 30
0.0
 40
0.3995323837042629
100
AcDbArc
 50
180.1349635748
 51
280.0800897005
  0
LINE
  5
B7
330
1F
100
AcDbEntity
  8
0
  6
Continuous
 62
     7
370
    15
100
AcDbLine
 10
198.5467639371
 20
133.0188310894
 30
0.0
 11
198.5467639371
 21
124.1929473428
 31
0.0
  0
LINE
  5
B8
330
1F
100
AcDbEntity
  8
0
  6
Continuous
 62
     7
370
    15
100
AcDbLine
 10
198.9467639371
 20
132.9987033328
 30
0.0
 11
198.5467639371
 21
133.0188310894
 31
0.0
  0
LINE
  5
B9
330
1F
100
AcDbEntity
  8
0
  6
Continuous
 62
     7
370
    15
100
AcDbLine
 10
199.096406304
 20
132.8660863773
 30
0.0
 11
198.9467639371
 21
132.9987033328
 31
0.0
  0
LINE
  5
BA
330
1F
100
AcDbEntity
  8
0
  6
Continuous
 62
     7
370
    15
100
AcDbLine
 10
199.2395842602
 20
124.6180209207
 30
0.0
 11
199.2395842602
 21
124.5057267827
 31
0.0
  0
SPLINE
  5
BB
330
1F
100
AcDbEntity
  8
0
  6
Continuous
 62
     7
370
    15
100
AcDbSpline
210
0.0
220
0.0
230
1.0
 70
     8
 71
     3
 72
     9
 73
     5
 74
     0
 42
0.00000001
 43
0.00000001
 40
0.0
 40
0.0
 40
0.0
 40
0.0
 40
0.0433040437558678
 40
1.0
 40
1.0
 40
1.0
 40
1.0
 10
199.7196481318158
 20
125.0804434488947
 30
0.0
 10
199.7186503082901
 20
125.0791809548914
 30
0.0
 10
199.695608036965
 20
125.050026772191
 30
0.0
 10
199.6713301946057
 20
125.0197215373898
 30
0.0
 10
199.6481036809943
 20
124.9907286418024
 30
0.0
  0
SPLINE
  5
BC
330
1F
100
AcDbEntity
  8
0
  6
Continuous
 62
     7
370
    15
100
AcDbSpline
210
0.0
220
0.0
230
1.0
 70
     8
 71
     3
 72
    14
 73
    10
 74
     0
 42
0.00000001
 43
0.00000001
 40
0.0
 40
0.0
 40
0.0
 40
0.0
 40
0.3240421732223113
 40
0.4390834530314383
 40
0.5550339035678953
 40
0.6320175773806515
 40
0.7091777148392728
 40
0.8120429782633918
 40
1.0
 40
1.0
 40
1.0
 40
1.0
 10
199.3505948266261
 20
124.5252264551244
 30
0.0
 10
199.4281893438445
 20
124.5422682943588
 30
0.0
 10
199.5333314252525
 20
124.5653603182846
 30
0.0
 10
199.6510715623834
 20
124.6324869233855
 30
0.0
 10
199.7065370736455
 20
124.6847053508953
 30
0.0
 10
199.7354868786603
 20
124.744841447676
 30
0.0
 10
199.7405734595518
 20
124.8081014642846
 30
0.0
 10
199.7160147116274
 20
124.8955873212563
 30
0.0
 10
199.6747638872249
 20
124.9533784911248
 30
0.0
 10
199.6481036809943
 20
124.9907286418024
 30
0.0
  0
SPLINE
  5
BD
330
1F
100
AcDbEntity
  8
0
  6
Continuous
 62
     7
370
    15
100
AcDbSpline
210
0.0
220
0.0
230
1.0
 70
     8
 71
     3
 72
    14
 73
    10
 74
     0
 42
0.00000001
 43
0.00000001
 40
0.0
 40
0.0
 40
0.0
 40
0.0
 40
0.1215026613259763
 40
0.2571357003576122
 40
0.3367055246585141
 40
0.4166989189530636
 40
0.5090573836363413
 40
0.6599898335533494
 40
1.0
 40
1.0
 40
1.0
 40
1.0
 10
199.6481036809943
 20
124.9907286418024
 30
0.0
 10
199.621552733814
 20
125.0035583907213
 30
0.0
 10
199.5653630477294
 20
125.0307099480426
 30
0.0
 10
199.4842474966624
 20
125.0501923101443
 30
0.0
 10
199.4117352988411
 20
125.0423099808536
 30
0.0
 10
199.3561505661046
 20
125.0133913626481
 30
0.0
 10
199.3036418894623
 20
124.9533801848168
 30
0.0
 10
199.2484860835901
 20
124.820687966336
 30
0.0
 10
199.2432267179892
 20
124.7009484436017
 30
0.0
 10
199.2395842601666
 20
124.6180209207139
 30
0.0
  0
ARC
  5
BE
330
1F
100
AcDbEntity
  8
0
  6
Continuous
 62
     7
370
    15
100
AcDbCircle
 10
200.7455921249
 20
126.3322936441
 30
0.0
 40
0.9988309590977956
100
AcDbArc
 50
180.1349635615
 51
280.0800897288
  0
LINE
  5
BF
330
1F
100
AcDbEntity
  8
0
  6
Continuous
 62
     7
370
    15
100
AcDbLine
 10
200.9204121148
 20
125.3488805793
 30
0.0
 11
206.0454121148
 21
126.2491175963
 31
0.0
  0
SPLINE
  5
C0
330
1F
100
AcDbEntity
  8
0
  6
Continuous
 62
     7
370
    15
100
AcDbSpline
210
0.0
220
0.0
230
1.0
 70
     8
 71
     3
 72
    11
 73
     7
 74
     0
 42
0.00000001
 43
0.00000001
 40
0.0
 40
0.0
 40
0.0
 40
0.0
 40
0.3360297136122402
 40
0.6712269697200686
 40
0.9920227009422977
 40
1.0
 40
1.0
 40
1.0
 40
1.0
 10
207.5221215703185
 20
125.8229753448644
 30
0.0
 10
207.4629699680404
 20
125.870244152532
 30
0.0
 10
207.3448133017016
 20
125.9646646672893
 30
0.0
 10
207.1594241040788
 20
126.1219240318675
 30
0.0
 10
207.0451879719853
 20
126.2225629659377
 30
0.0
 10
206.9929567814529
 20
126.2696370347045
 30
0.0
 10
206.9916894517493
 20
126.270779232786
 30
0.0
  0
LINE
  5
C1
330
1F
100
AcDbEntity
  8
0
  6
Continuous
 62
     7
370
    15
100
AcDbLine
 10
207.6717639371
 20
125.7054182151
 30
0.0
 11
208.0717639371
 21
125.7255459717
 31
0.0
  0
ARC
  5
C2
330
1F
100
AcDbEntity
  8
0
  6
Continuous
 62
     7
370
    15
100
AcDbCircle
 10
207.6728494204
 20
125.7261335232
 30
0.0
 40
0.3989149494387999
100
AcDbArc
 50
279.8691938001
 51
359.9156105054
  0
LINE
  5
C3
330
1F
100
AcDbEntity
  8
0
  6
Continuous
 62
     7
370
    15
100
AcDbLine
 10
205.6981157595
 20
133.3954964818
 30
0.0
 11
200.5731157595
 21
132.4952594649
 31
0.0
  0
ARC
  5
C4
330
1F
100
AcDbEntity
  8
0
  6
Continuous
 62
     7
370
    15
100
AcDbCircle
 10
205.8729357489
 20
132.4120834168
 30
0.0
 40
0.998830959289715
100
AcDbArc
 50
0.1349635767
 51
100.0800896985
  0
LINE
  5
C5
330
1F
100
AcDbEntity
  8
0
  6
Continuous
 62
     7
370
    15
100
AcDbLine
 10
206.8717639371
 20
127.2301778584
 30
0.0
 11
206.8717639371
 21
132.4144362196
 31
0.0
  0
ARC
  5
C6
330
1F
100
AcDbEntity
  8
0
  6
Continuous
 62
     7
370
    15
100
AcDbCircle
 10
205.8744776453
 20
127.2316467371
 30
0.0
 40
0.9972873735972329
100
AcDbArc
 50
279.8691938001
 51
359.9156105033
  0
LINE
  5
C7
330
1F
100
AcDbEntity
  8
0
  6
Continuous
 62
     7
370
    15
100
AcDbLine
 10
199.7467639371
 20
131.5141992027
 30
0.0
 11
199.7467639368
 21
126.3299408415
 31
0.0
  0
ARC
  5
C8
330
1F
100
AcDbEntity
  8
0
  6
Continuous
 62
     7
370
    15
100
AcDbCircle
 10
200.744050229
 20
131.512730324
 30
0.0
 40
0.9972873735971282
100
AcDbArc
 50
99.8691938001
 51
179.9156105033
  0
CIRCLE
  5
C9
330
1F
100
AcDbEntity
  8
0
  6
Continuous
 62
     7
370
    15
100
AcDbCircle
 10
203.3012508209
 20
129.3706657303
 30
0.0
 40
3.041987264912676
  0
LINE
  5
CA
330
1F
100
AcDbEntity
  8
0
  6
Continuous
 62
     7
370
    15
100
AcDbLine
 10
207.3789436141
 20
134.1689256842
 30
0.0
 11
207.6717639371
 21
134.5313019617
 31
0.0
  0
LINE
  5
CB
330
1F
100
AcDbEntity
  8
0
  6
Continuous
 62
     7
370
    15
100
AcDbLine
 10
207.6717639371
 20
134.5313019617
 30
0.0
 11
208.0717639371
 21
134.5514297183
 31
0.0
  0
LINE
  5
CC
330
1F
100
AcDbEntity
  8
0
  6
Continuous
 62
     7
370
    15
100
AcDbLine
 10
208.0717639371
 20
125.7255459717
 30
0.0
 11
208.0717639371
 21
134.5514297183
 31
0.0
  0
LINE
  5
CD
330
1F
100
AcDbEntity
  8
0
  6
Continuous
 62
     7
370
    15
100
AcDbLine
 10
207.3789436141
 20
134.0566315462
 30
0.0
 11
207.3789436141
 21
134.1689256842
 31
0.0
  0
ARC
  5
CE
330
1F
100
AcDbEntity
  8
0
  6
Continuous
 62
     7
370
    15
100
AcDbCircle
 10
203.3092639371
 20
129.2627541173
 30
0.0
 40
3.050013891397083
100
AcDbArc
 50
0.1729258221
 51
179.8270741779
  0
SPLINE
  5
CF
330
1F
100
AcDbEntity
  8
0
  6
Continuous
 62
     7
370
    15
100
AcDbSpline
210
0.0
220
0.0
230
1.0
 70
     8
 71
     3
 72
    11
 73
     7
 74
     0
 42
0.00000001
 43
0.00000001
 40
0.0
 40
0.0
 40
0.0
 40
0.0
 40
0.0079772990479755
 40
0.3287730302733493
 40
0.6639702863844444
 40
1.0
 40
1.0
 40
1.0
 40
1.0
 10
199.6268384225216
 20
132.4271068437542
 30
0.0
 10
199.6255710928204
 20
132.4280833842058
 30
0.0
 10
199.5733399023251
 20
132.4683301095072
 30
0.0
 10
199.4591037701833
 20
132.5586726499921
 30
0.0
 10
199.2737145725805
 20
132.7113493944674
 30
0.0
 10
199.1555579062391
 20
132.8144647550574
 30
0.0
 10
199.0964063039596
 20
132.866086377327
 30
0.0
  0
SPLINE
  5
D0
330
1F
100
AcDbEntity
  8
0
  6
Continuous
 62
     7
370
    15
100
AcDbSpline
210
0.0
220
0.0
230
1.0
 70
     8
 71
     3
 72
    14
 73
    10
 74
     0
 42
0.00000001
 43
0.00000001
 40
0.0
 40
0.0
 40
0.0
 40
0.0
 40
0.1215026613286251
 40
0.2571357003598497
 40
0.3367055246605103
 40
0.4166989189548131
 40
0.5090573836378128
 40
0.6599898335543506
 40
0.9999999999999999
 40
0.9999999999999999
 40
0.9999999999999999
 40
0.9999999999999999
 10
206.9704241932815
 20
133.6839238251133
 30
0.0
 10
206.9969751404625
 20
133.6710940761944
 30
0.0
 10
207.0531648265482
 20
133.6439425188736
 30
0.0
 10
207.1342803776157
 20
133.6244601567714
 30
0.0
 10
207.206792575437
 20
133.6323424860621
 30
0.0
 10
207.2623773081735
 20
133.6612611042676
 30
0.0
 10
207.3148859848158
 20
133.7212722820989
 30
0.0
 10
207.370041790688
 20
133.8539645005797
 30
0.0
 10
207.3753011562889
 20
133.9737040233139
 30
0.0
 10
207.3789436141115
 20
134.0566315462018
 30
0.0
  0
SPLINE
  5
D1
330
1F
100
AcDbEntity
  8
0
  6
Continuous
 62
     7
370
    15
100
AcDbSpline
210
0.0
220
0.0
230
1.0
 70
     8
 71
     3
 72
     9
 73
     5
 74
     0
 42
0.00000001
 43
0.00000001
 40
0.0
 40
0.0
 40
0.0
 40
0.0
 40
0.9566959562428038
 40
1.0
 40
1.0
 40
1.0
 40
1.0
 10
206.9704241932815
 20
133.6839238251133
 30
0.0
 10
206.9471976796708
 20
133.6577668222739
 30
0.0
 10
206.9229198373123
 20
133.6304258445384
 30
0.0
 10
206.899877565988
 20
133.6048676005567
 30
0.0
 10
206.8988797424624
 20
133.603760825241
 30
0.0
  0
LINE
  5
D2
330
1F
100
AcDbEntity
  8
0
  6
Continuous
 62
     7
370
    15
100
AcDbLine
 10
198.9467639371
 20
132.9987033328
 30
0.0
 11
198.8773046661
 21
133.4112551943
 31
0.0
  0
LINE
  5
D3
330
1F
100
AcDbEntity
  8
0
  6
Continuous
 62
     7
370
    15
100
AcDbLine
 10
207.6023046661
 20
134.9438538232
 30
0.0
 11
198.8773046661
 21
133.4112551943
 31
0.0
  0
LINE
  5
D4
330
1F
100
AcDbEntity
  8
0
  6
Continuous
 62
     7
370
    15
100
AcDbLine
 10
207.6717639371
 20
134.5313019617
 30
0.0
 11
207.6023046661
 21
134.9438538232
 31
0.0
  0
LINE
  5
D5
330
1F
100
AcDbEntity
  8
0
  6
Continuous
 62
     7
370
    15
100
AcDbLine
 10
207.3789436141
 20
134.1689256842
 30
0.0
 11
207.2679330477
 21
134.1494260118
 31
0.0
  0
ARC
  5
D6
330
1F
100
AcDbEntity
  8
0
  6
Continuous
 62
     7
370
    15
100
AcDbCircle
 10
198.9456784539
 20
133.0182435379
 30
0.0
 40
0.3989149494461895
100
AcDbArc
 50
99.8691938009
 51
179.9156105024
  0
SPLINE
  5
D7
330
1F
100
AcDbEntity
  8
0
  6
Continuous
 62
     7
370
    15
100
AcDbSpline
210
0.0
220
0.0
230
1.0
 70
     8
 71
     3
 72
    14
 73
    10
 74
     0
 42
0.00000001
 43
0.00000001
 40
0.0
 40
0.0
 40
0.0
 40
0.0
 40
0.3240421732228593
 40
0.439083453032201
 40
0.5550339035688586
 40
0.6320175773817427
 40
0.7091777148405011
 40
0.8120429782647924
 40
0.9999999999999999
 40
0.9999999999999999
 40
0.9999999999999999
 40
0.9999999999999999
 10
207.267933047652
 20
134.1494260117913
 30
0.0
 10
207.1903385304336
 20
134.1323841725569
 30
0.0
 10
207.0851964490257
 20
134.1092921486311
 30
0.0
 10
206.9674563118947
 20
134.0421655435301
 30
0.0
 10
206.9119908006326
 20
133.9899471160203
 30
0.0
 10
206.8830409956179
 20
133.9298110192397
 30
0.0
 10
206.8779544147263
 20
133.866551002631
 30
0.0
 10
206.9025131626509
 20
133.77906514566
 30
0.0
 10
206.9437639870518
 20
133.7212739757911
 30
0.0
 10
206.9704241932815
 20
133.6839238251133
 30
0.0
  0
ARC
  5
D8
330
1F
100
AcDbEntity
  8
0
  6
Continuous
 62
     7
370
    15
100
AcDbCircle
 10
207.6722326618
 20
134.5504885972
 30
0.0
 40
0.39953238372752
100
AcDbArc
 50
0.1349635787
 51
100.0800896965
  0
ELLIPSE
  5
D9
330
1F
100
AcDbEntity
  8
0
  6
HIDDEN
 62
     7
370
     0
100
AcDbEllipse
 10
205.1032157818
 20
115.5749075975
 30
0.0
 11
18.36681480757684
 21
10.49143687586546
 31
0.0
210
0.0
220
0.0
230
1.0
 40
0.0230835902
 41
1.698452057912776
 42
3.181981922108574
  0
LINE
  5
DA
330
1F
100
AcDbEntity
  8
0
  6
HIDDEN
 62
     7
370
     0
100
AcDbLine
 10
191.9245796923
 20
131.4273068214
 30
0.0
 11
191.9245796923
 21
126.4915196237
 31
0.0
  0
SPLINE
  5
DB
330
1F
100
AcDbEntity
  8
0
  6
HIDDEN
 62
     7
370
     0
100
AcDbSpline
210
0.0
220
0.0
230
1.0
 70
     8
 71
     3
 72
    18
 73
    14
 74
     0
 42
0.00000001
 43
0.00000001
 40
0.0
 40
0.0
 40
0.0
 40
0.0
 40
0.25
 40
0.25
 40
0.3124999999999998
 40
0.3124999999999998
 40
0.3749999999999996
 40
0.3749999999999996
 40
0.4999999999999991
 40
0.4999999999999991
 40
0.7499999999999996
 40
0.7499999999999996
 40
1.0
 40
1.0
 40
1.0
 40
1.0
 10
186.5717639371391
 20
114.6597722986855
 30
0.0
 10
186.5717639371391
 20
115.7761409015732
 30
0.0
 10
186.7534374514487
 20
116.8610706959008
 30
0.0
 10
187.1500437978123
 20
118.1878982695754
 30
0.0
 10
187.238057243378
 20
118.4525985121278
 30
0.0
 10
187.4271672143308
 20
118.973964644221
 30
0.0
 10
187.5283003548058
 20
119.2309681614191
 30
0.0
 10
187.8485280737047
 20
119.992565656829
 30
0.0
 10
188.0843236768911
 20
120.4878177699668
 30
0.0
 10
188.8408252721138
 20
121.946101322091
 30
0.0
 10
189.4095795586056
 20
122.8822565250245
 30
0.0
 10
190.6194127122173
 20
124.7141115406761
 30
0.0
 10
191.2618651257166
 20
125.6103236697942
 30
0.0
 10
191.924579692304
 20
126.491519623659
 30
0.0
  0
ARC
  5
DC
330
1F
100
AcDbEntity
  8
0
  6
HIDDEN
 62
     7
370
     0
100
AcDbCircle
 10
178.4141441381
 20
111.7399261838
 30
0.0
 40
6.494786596443239
100
AcDbArc
 50
29.2471815979
 51
49.9105356
  0
SPLINE
  5
DD
330
1F
100
AcDbEntity
  8
0
  6
HIDDEN
 62
     7
370
     0
100
AcDbSpline
210
0.0
220
0.0
230
1.0
 70
     8
 71
     3
 72
    26
 73
    22
 74
     0
 42
0.00000001
 43
0.00000001
 40
0.0
 40
0.0
 40
0.0
 40
0.0
 40
0.1249999999999933
 40
0.1249999999999933
 40
0.2499999999999866
 40
0.2499999999999866
 40
0.3124999999999877
 40
0.3124999999999877
 40
0.3749999999999888
 40
0.3749999999999888
 40
0.499999999999991
 40
0.499999999999991
 40
0.6249999999999932
 40
0.6249999999999932
 40
0.7499999999999953
 40
0.7499999999999953
 40
0.8749999999999976
 40
0.8749999999999976
 40
0.9374999999999988
 40
0.9374999999999988
 40
1.0
 40
1.0
 40
1.0
 40
1.0
 10
185.0717639371391
 20
116.1183064821314
 30
0.0
 10
184.8885574281019
 20
116.082099351678
 30
0.0
 10
184.7020082383268
 20
116.0540015689949
 30
0.0
 10
184.3274460408599
 20
116.0361680369446
 30
0.0
 10
184.1376705904286
 20
116.0472550638926
 30
0.0
 10
183.867857302946
 20
116.1221527023401
 30
0.0
 10
183.7802891416297
 20
116.1572494934385
 30
0.0
 10
183.6199752188633
 20
116.2425465835636
 30
0.0
 10
183.5456160261981
 20
116.2931297780232
 30
0.0
 10
183.3389571137104
 20
116.4593901331907
 30
0.0
 10
183.228805842437
 20
116.583037730209
 30
0.0
 10
183.0467590383138
 20
116.8008996542624
 30
0.0
 10
182.9738719919385
 20
116.8969763920771
 30
0.0
 10
182.8579429365652
 20
117.0306818409495
 30
0.0
 10
182.813764166164
 20
117.0699652713461
 30
0.0
 10
182.7450377759147
 20
117.0789489767526
 30
0.0
 10
182.7200119442003
 20
117.0489745894709
 30
0.0
 10
182.6819008344278
 20
116.9548440212404
 30
0.0
 10
182.6687456021177
 20
116.9147498346397
 30
0.0
 10
182.6378915891828
 20
116.821461979776
 30
0.0
 10
182.6201405256223
 20
116.7680888584217
 30
0.0
 10
182.5966760638403
 20
116.7086966176165
 30
0.0
  0
SPLINE
  5
DE
330
1F
100
AcDbEntity
  8
0
  6
HIDDEN
 62
     7
370
     0
100
AcDbSpline
210
0.0
220
0.0
230
1.0
 70
     8
 71
     3
 72
    26
 73
    22
 74
     0
 42
0.00000001
 43
0.00000001
 40
0.0
 40
0.0
 40
0.0
 40
0.0
 40
0.1250000000000036
 40
0.1250000000000036
 40
0.2500000000000071
 40
0.2500000000000071
 40
0.3750000000000107
 40
0.3750000000000107
 40
0.4375000000000095
 40
0.4375000000000095
 40
0.5000000000000084
 40
0.5000000000000084
 40
0.5625000000000073
 40
0.5625000000000073
 40
0.6250000000000063
 40
0.6250000000000063
 40
0.7500000000000042
 40
0.7500000000000042
 40
0.8750000000000021
 40
0.8750000000000021
 40
1.0
 40
1.0
 40
1.0
 40
1.0
 10
185.0717639371391
 20
116.232511664648
 30
0.0
 10
185.1343776897337
 20
116.1069742633864
 30
0.0
 10
185.2002777623591
 20
115.9966672944411
 30
0.0
 10
185.3432913350053
 20
115.8199036086089
 30
0.0
 10
185.4182521751208
 20
115.7572657825923
 30
0.0
 10
185.5716432821473
 20
115.6854769296459
 30
0.0
 10
185.6498949051106
 20
115.6766419889355
 30
0.0
 10
185.7609583969061
 20
115.6888369349195
 30
0.0
 10
185.7972741523372
 20
115.6972645040116
 30
0.0
 10
185.8597644272803
 20
115.7145451900473
 30
0.0
 10
185.887306762695
 20
115.7238833980587
 30
0.0
 10
185.8866428437662
 20
115.7112692806682
 30
0.0
 10
185.8585308421489
 20
115.6906013577033
 30
0.0
 10
185.795356159534
 20
115.6560163099044
 30
0.0
 10
185.7588780926716
 20
115.6409474905275
 30
0.0
 10
185.6466630496396
 20
115.6131300289277
 30
0.0
 10
185.570261860728
 20
115.6177480210596
 30
0.0
 10
185.4174212595252
 20
115.6832593915477
 30
0.0
 10
185.3449158812183
 20
115.7416757500269
 30
0.0
 10
185.2026024661483
 20
115.9039694520448
 30
0.0
 10
185.1363704816452
 20
116.0034158700079
 30
0.0
 10
185.0717639371391
 20
116.1183064821314
 30
0.0
  0
SPLINE
  5
DF
330
1F
100
AcDbEntity
  8
0
  6
HIDDEN
 62
     7
370
     0
100
AcDbSpline
210
0.0
220
0.0
230
1.0
 70
     8
 71
     3
 72
    14
 73
    10
 74
     0
 42
0.00000001
 43
0.00000001
 40
0.0
 40
0.0
 40
0.0
 40
0.0
 40
0.2499999999999999
 40
0.2499999999999999
 40
0.4999999999999999
 40
0.4999999999999999
 40
0.7499999999999999
 40
0.7499999999999999
 40
1.0
 40
1.0
 40
1.0
 40
1.0
 10
184.0809756087172
 20
114.9131381239924
 30
0.0
 10
184.1061285592636
 20
115.041565199927
 30
0.0
 10
184.1388407074644
 20
115.1806601741066
 30
0.0
 10
184.2405325586834
 20
115.4498622763215
 30
0.0
 10
184.3122272798646
 20
115.5817558685568
 30
0.0
 10
184.4915810317733
 20
115.8112639734362
 30
0.0
 10
184.5995295361576
 20
115.9118925778803
 30
0.0
 10
184.8268197971828
 20
116.0864753082316
 30
0.0
 10
184.9475671479229
 20
116.162577373897
 30
0.0
 10
185.0717639371391
 20
116.2325116646481
 30
0.0
  0
LINE
  5
E0
330
1F
100
AcDbEntity
  8
0
  6
HIDDEN
 62
     7
370
     0
100
AcDbLine
 10
94.3708020428
 20
114.0749075975
 30
0.0
 11
94.3708020428
 21
117.0749075975
 31
0.0
  0
LINE
  5
E1
330
1F
100
AcDbEntity
  8
0
  6
HIDDEN
 62
     7
370
     0
100
AcDbLine
 10
185.0717639371
 20
116.2325116646
 30
0.0
 11
185.0717639371
 21
116.1183064821
 31
0.0
  0
LINE
  5
E2
330
1F
100
AcDbEntity
  8
0
  6
HIDDEN
 62
     7
370
     0
100
AcDbLine
 10
185.0717639371
 20
114.0749075975
 30
0.0
 11
185.0717639371
 21
116.1183064821
 31
0.0
  0
ELLIPSE
  5
E3
330
1F
100
AcDbEntity
  8
0
  6
HIDDEN
 62
     7
370
     0
100
AcDbEllipse
 10
183.2627320876
 20
115.5749075975
 30
0.0
 11
-1.201736920371246
 21
1.490897806883112
 31
0.0
210
0.0
220
0.0
230
1.0
 40
0.1372980616
 41
4.145255772486967
 42
5.459134152594845
  0
LINE
  5
E4
330
1F
100
AcDbEntity
  8
0
  6
HIDDEN
 62
     7
370
     0
100
AcDbLine
 10
207.747207025
 20
125.3415826657
 30
0.0
 11
200.9028918207
 21
124.1393376115
 31
0.0
  0
LINE
  5
E5
330
1F
100
AcDbEntity
  8
0
  6
HIDDEN
 62
     7
370
     0
100
AcDbLine
 10
207.747207025
 20
125.3342197711
 30
0.0
 11
207.747207025
 21
125.3415826657
 31
0.0
  0
ARC
  5
E6
330
1F
100
AcDbEntity
  8
0
  6
HIDDEN
 62
     7
370
     0
100
AcDbCircle
 10
199.3290120211
 20
124.2885287828
 30
0.0
 40
1.644913440889236
100
AcDbArc
 50
269.9388773477
 51
118.3955425609
  0
ARC
  5
E7
330
1F
100
AcDbEntity
  8
0
  6
HIDDEN
 62
     7
370
     0
100
AcDbCircle
 10
199.3238573222
 20
124.2900245558
 30
0.0
 40
1.646411788385633
100
AcDbArc
 50
176.4290785799
 51
270.1183186231
  0
LINE
  5
E8
330
1F
100
AcDbEntity
  8
0
  6
HIDDEN
 62
     7
370
     0
100
AcDbLine
 10
200.9451376321
 20
123.9759206153
 30
0.0
 11
200.9451376321
 21
124.1938099722
 31
0.0
  0
ELLIPSE
  5
E9
330
1F
100
AcDbEntity
  8
0
  6
HIDDEN
 62
     7
370
     0
100
AcDbEllipse
 10
199.3272572417
 20
124.0906611959
 30
0.0
 11
1.648717266309234
 21
0.2225504848545228
 31
0.0
210
0.0
220
0.0
230
1.0
 40
0.2922888529
 41
5.942379137759792
 42
6.04611582699372
  0
ELLIPSE
  5
EA
330
1F
100
AcDbEntity
  8
0
  6
HIDDEN
 62
     7
370
     0
100
AcDbEllipse
 10
199.3272572417
 20
124.0906611959
 30
0.0
 11
-1.35062579857464
 21
1.902895578164816
 31
0.0
210
0.0
220
0.0
230
0.9999999999999998
 40
0.4980789051
 41
5.696452293122171
 42
5.800188982356101
  0
LINE
  5
EB
330
1F
100
AcDbEntity
  8
0
  6
HIDDEN
 62
     7
370
     0
100
AcDbLine
 10
198.7272572417
 20
126.0477508369
 30
0.0
 11
198.7272572417
 21
125.82986148
 31
0.0
  0
ARC
  5
EC
330
1F
100
AcDbEntity
  8
0
  6
HIDDEN
 62
     7
370
     0
100
AcDbCircle
 10
199.3285559309
 20
124.2955965202
 30
0.0
 40
1.647886246312083
100
AcDbArc
 50
348.8141848495
 51
111.4008684257
  0
LINE
  5
ED
330
1F
100
AcDbEntity
  8
0
  6
HIDDEN
 62
     7
370
     0
100
AcDbLine
 10
200.9451376321
 20
124.1938099722
 30
0.0
 11
207.5912706326
 21
125.3612431325
 31
0.0
  0
LINE
  5
EE
330
1F
100
AcDbEntity
  8
0
  6
HIDDEN
 62
     7
370
     0
100
AcDbLine
 10
207.5912706326
 20
125.3612431325
 30
0.0
 11
207.747207025
 21
125.3415826657
 31
0.0
  0
LINE
  5
EF
330
1F
100
AcDbEntity
  8
0
  6
HIDDEN
 62
     7
370
     0
100
AcDbLine
 10
198.5467639371
 20
132.5953911738
 30
0.0
 11
198.5713208493
 21
132.5997224615
 31
0.0
  0
LINE
  5
F0
330
1F
100
AcDbEntity
  8
0
  6
HIDDEN
 62
     7
370
     0
100
AcDbLine
 10
198.5713208493
 20
126.0883131836
 30
0.0
 11
198.5713208493
 21
132.5997224615
 31
0.0
  0
ELLIPSE
  5
F1
330
1F
100
AcDbEntity
  8
0
  6
HIDDEN
 62
     7
370
     0
100
AcDbEllipse
 10
198.7994674138
 20
115.5427068501
 30
0.0
 11
-0.1854372240680107
 21
17.06105931715193
 31
0.0
210
0.0
220
0.0
230
1.0
 40
0.1223313345
 41
6.229038225572209
 42
6.30366884265027
  0
LINE
  5
F2
330
1F
100
AcDbEntity
  8
0
  6
HIDDEN
 62
     7
370
     0
100
AcDbLine
 10
198.7272572417
 20
132.5799892772
 30
0.0
 11
198.7272572417
 21
126.0477508369
 31
0.0
  0
SPLINE
  5
F3
330
1F
100
AcDbEntity
  8
0
  6
HIDDEN
 62
     7
370
     0
100
AcDbSpline
210
0.0
220
0.0
230
1.0
 70
     8
 71
     3
 72
    26
 73
    22
 74
     0
 42
0.00000001
 43
0.00000001
 40
0.0
 40
0.0
 40
0.0
 40
0.0
 40
0.1250000000000022
 40
0.1250000000000022
 40
0.2500000000000044
 40
0.2500000000000044
 40
0.3750000000000067
 40
0.3750000000000067
 40
0.4375000000000081
 40
0.4375000000000081
 40
0.5000000000000095
 40
0.5000000000000095
 40
0.562500000000011
 40
0.562500000000011
 40
0.6250000000000124
 40
0.6250000000000124
 40
0.7500000000000083
 40
0.7500000000000083
 40
0.8750000000000042
 40
0.8750000000000042
 40
1.0
 40
1.0
 40
1.0
 40
1.0
 10
204.4625236622454
 20
129.30225568947
 30
0.0
 10
204.3858519870996
 20
129.401096559358
 30
0.0
 10
204.298935789992
 20
129.49345196824
 30
0.0
 10
204.0985399253199
 20
129.6632436302901
 30
0.0
 10
203.9854605991058
 20
129.7403204475351
 30
0.0
 10
203.7274918411466
 20
129.8682027093803
 30
0.0
 10
203.5835099206348
 20
129.9191299738483
 30
0.0
 10
203.3358330407335
 20
129.9592951028445
 30
0.0
 10
203.2477423221808
 20
129.9662779424579
 30
0.0
 10
203.0667450495674
 20
129.9628826331984
 30
0.0
 10
202.9723019282847
 20
129.9522181513388
 30
0.0
 10
202.7896468597836
 20
129.9129348773353
 30
0.0
 10
202.6988448053888
 20
129.8837517728041
 30
0.0
 10
202.5315159811637
 20
129.8125622105348
 30
0.0
 10
202.4529306348807
 20
129.7699205540764
 30
0.0
 10
202.2404445745265
 20
129.6321207275808
 30
0.0
 10
202.1239060762595
 20
129.5245145411272
 30
0.0
 10
201.9322212942654
 20
129.300921502418
 30
0.0
 10
201.8551573280349
 20
129.1828803066103
 30
0.0
 10
201.7301040585925
 20
128.9395183078595
 30
0.0
 10
201.6830427888751
 20
128.8159644251535
 30
0.0
 10
201.6485132125066
 20
128.6903465406149
 30
0.0
  0
SPLINE
  5
F4
330
1F
100
AcDbEntity
  8
0
  6
HIDDEN
 62
     7
370
     0
100
AcDbSpline
210
0.0
220
0.0
230
1.0
 70
     8
 71
     3
 72
     8
 73
     4
 74
     0
 42
0.00000001
 43
0.00000001
 40
0.0
 40
0.0
 40
0.0
 40
0.0
 40
1.0
 40
1.0
 40
1.0
 40
1.0
 10
204.4625236622454
 20
129.30225568947
 30
0.0
 10
205.0666221104641
 20
129.4326637259726
 30
0.0
 10
205.6708462919641
 20
129.5625106711531
 30
0.0
 10
206.275186817842
 20
129.6918384234827
 30
0.0
  0
LINE
  5
F5
330
1F
100
AcDbEntity
  8
0
  6
HIDDEN
 62
     7
370
     0
100
AcDbLine
 10
207.2843092304
 20
133.7263946741
 30
0.0
 11
198.7272572417
 21
132.210783997
 31
0.0
  0
SPLINE
  5
F6
330
1F
100
AcDbEntity
  8
0
  6
HIDDEN
 62
     7
370
     0
100
AcDbSpline
210
0.0
220
0.0
230
1.0
 70
     8
 71
     3
 72
     8
 73
     4
 74
     0
 42
0.00000001
 43
0.00000001
 40
0.0
 40
0.0
 40
0.0
 40
0.0
 40
1.0
 40
1.0
 40
1.0
 40
1.0
 10
191.924579692304
 20
126.491519623659
 30
0.0
 10
195.1601407199389
 20
127.2501222545354
 30
0.0
 10
198.4023371295301
 20
127.9791141475421
 30
0.0
 10
201.6485132125066
 20
128.6903465406149
 30
0.0
  0
ELLIPSE
  5
F7
330
1F
100
AcDbEntity
  8
0
  6
HIDDEN
 62
     7
370
     0
100
AcDbEllipse
 10
207.6139205748
 20
115.610041079
 30
0.0
 11
0.2023262130229853
 21
18.61492232289844
 31
0.0
210
0.0
220
0.0
230
1.0
 40
0.1223313345
 41
0.233297592247429
 42
0.714214433911286
  0
LINE
  5
F8
330
1F
100
AcDbEntity
  8
0
  6
HIDDEN
 62
     7
370
     0
100
AcDbLine
 10
207.2843092304
 20
125.0894341626
 30
0.0
 11
207.5912706326
 21
125.3612431325
 31
0.0
  0
CIRCLE
  5
F9
330
1F
100
AcDbEntity
  8
0
  6
HIDDEN
 62
     7
370
     0
100
AcDbCircle
 10
203.2260614238
 20
128.9347144326
 30
0.0
 40
2.097903282601868
  0
LINE
  5
FA
330
1F
100
AcDbEntity
  8
0
  6
HIDDEN
 62
     7
370
     0
100
AcDbLine
 10
200.9451376321
 20
123.9759206153
 30
0.0
 11
207.2843092304
 21
125.0894341626
 31
0.0
  0
LINE
  5
FB
330
1F
100
AcDbEntity
  8
0
  6
HIDDEN
 62
     7
370
     0
100
AcDbLine
 10
207.2843092304
 20
125.0894341626
 30
0.0
 11
207.2843092304
 21
133.7263946741
 31
0.0
  0
ARC
  5
FC
330
1F
100
AcDbEntity
  8
0
  6
HIDDEN
 62
     7
370
     0
100
AcDbCircle
 10
203.2329297633
 20
128.8890786942
 30
0.0
 40
1.643209464593492
100
AcDbArc
 50
269.8022089063
 51
75.7489917882
  0
ARC
  5
FD
330
1F
100
AcDbEntity
  8
0
  6
HIDDEN
 62
     7
370
     0
100
AcDbCircle
 10
203.2229041681
 20
128.8896766062
 30
0.0
 40
1.643803349325024
100
AcDbArc
 50
87.9310217827
 51
270.1517292419
  0
ARC
  5
FE
330
1F
100
AcDbEntity
  8
0
  6
HIDDEN
 62
     7
370
     0
100
AcDbCircle
 10
203.2258954905
 20
128.2127815211
 30
0.0
 40
1.648090773801955
100
AcDbArc
 50
163.1558947495
 51
41.3801753182
  0
LINE
  5
FF
330
1F
100
AcDbEntity
  8
0
  6
HIDDEN
 62
     7
370
     0
100
AcDbLine
 10
206.2751868178
 20
129.6918384235
 30
0.0
 11
206.2751868178
 21
117.9585864185
 31
0.0
  0
ELLIPSE
  5
100
330
1F
100
AcDbEntity
  8
0
  6
HIDDEN
 62
     7
370
     0
100
AcDbEllipse
 10
204.2601671669
 20
117.9757992306
 30
0.0
 11
1.868639352156748
 21
-0.7633212359937859
 31
0.0
210
0.0
220
0.0
230
1.0
 40
0.9877670049
 41
5.628098322764199
 42
6.666699550843431
  0
LINE
  5
101
330
1F
100
AcDbEntity
  8
0
  6
HIDDEN
 62
     7
370
     0
100
AcDbLine
 10
205.2826406662
 20
116.2459879032
 30
0.0
 11
202.5247400029
 21
114.6597722987
 31
0.0
  0
ARC
  5
102
330
1F
100
AcDbEntity
  8
0
  6
HIDDEN
 62
     7
370
     0
100
AcDbCircle
 10
203.6849469514
 20
127.8970225873
 30
0.0
 40
0.3350429540927646
100
AcDbArc
 50
213.3660306246
 51
6.6002915771
  0
ARC
  5
103
330
1F
100
AcDbEntity
  8
0
  6
HIDDEN
 62
     7
370
     0
100
AcDbCircle
 10
202.3630785299
 20
128.1272832196
 30
0.0
 40
0.3345191134088247
100
AcDbArc
 50
153.4365901724
 51
306.8852330013
  0
ARC
  5
104
330
1F
100
AcDbEntity
  8
0
  6
HIDDEN
 62
     7
370
     0
100
AcDbCircle
 10
204.5984308427
 20
128.0040370911
 30
0.0
 40
0.5846884757510491
100
AcDbArc
 50
93.1633099742
 51
186.7284064418
  0
ARC
  5
105
330
1F
100
AcDbEntity
  8
0
  6
HIDDEN
 62
     7
370
     0
100
AcDbCircle
 10
201.5424359129
 20
128.5387753178
 30
0.0
 40
0.5839600754734029
100
AcDbArc
 50
0.0528243197
 51
66.9578899869
  0
ARC
  5
106
330
1F
100
AcDbEntity
  8
0
  6
HIDDEN
 62
     7
370
     0
100
AcDbCircle
 10
204.5479013312
 20
128.9212525233
 30
0.0
 40
0.3339177653227264
100
AcDbArc
 50
273.1356190823
 51
11.5831061761
  0
ARC
  5
107
330
1F
100
AcDbEntity
  8
0
  6
HIDDEN
 62
     7
370
     0
100
AcDbCircle
 10
201.9014563808
 20
129.383065713
 30
0.0
 40
0.3334939999157961
100
AcDbArc
 50
170.3199214539
 51
246.9724497616
  0
ARC
  5
108
330
1F
100
AcDbEntity
  8
0
  6
HIDDEN
 62
     7
370
     0
100
AcDbCircle
 10
203.2272572417
 20
129.1801040427
 30
0.0
 40
2.625010911938142
100
AcDbArc
 50
0.1652049941
 51
179.8347950059
  0
ARC
  5
109
330
1F
100
AcDbEntity
  8
0
  6
HIDDEN
 62
     7
370
     0
100
AcDbCircle
 10
204.9055755254
 20
129.7645725347
 30
0.0
 40
0.5821513035191034
100
AcDbArc
 50
153.201488413
 51
179.9972551827
  0
LINE
  5
10A
330
1F
100
AcDbEntity
  8
0
  6
HIDDEN
 62
     7
370
     0
100
AcDbLine
 10
202.4361864771
 20
130.299131896
 30
0.0
 11
202.4320506613
 21
130.3683809644
 31
0.0
  0
LWPOLYLINE
  5
10B
330
1F
100
AcDbEntity
  8
0
  6
HIDDEN
 62
     7
370
     0
100
AcDbPolyline
 90
        3
 70
   128
 43
0.0
 10
204.4157426483
 20
130.2395391422
 10
204.4188004433
 20
130.1333624946
 10
204.3859487093
 20
130.0270379841
  0
LWPOLYLINE
  5
10C
330
1F
100
AcDbEntity
  8
0
  6
HIDDEN
 62
     7
370
     0
100
AcDbPolyline
 90
        3
 70
   128
 43
0.0
 10
202.4320506613
 20
130.3683809644
 10
202.4374761784
 20
130.4794967928
 10
202.4464297603
 20
130.5121345587
  0
ARC
  5
10D
330
1F
100
AcDbEntity
  8
0
  6
HIDDEN
 62
     7
370
     0
100
AcDbCircle
 10
202.9150408767
 20
127.3886737464
 30
0.0
 40
0.5875483023101168
100
AcDbArc
 50
33.4754893771
 51
126.705548474
  0
CIRCLE
  5
10E
330
1F
100
AcDbEntity
  8
0
  6
HIDDEN
 62
     7
370
     0
100
AcDbCircle
 10
203.2244087591
 20
128.9488531091
 30
0.0
 40
1.997262732681846
  0
CIRCLE
  5
10F
330
1F
100
AcDbEntity
  8
0
  6
HIDDEN
 62
     7
370
     0
100
AcDbCircle
 10
203.2244087591
 20
128.5043588211
 30
0.0
 40
1.997262732681879
  0
CIRCLE
  5
110
330
1F
100
AcDbEntity
  8
0
  6
HIDDEN
 62
     7
370
     0
100
AcDbCircle
 10
203.2244642167
 20
128.4952338085
 30
0.0
 40
1.897238201103449
  0
LINE
  5
111
330
1F
100
AcDbEntity
  8
0
  6
HIDDEN
 62
     7
370
     0
100
AcDbLine
 10
198.9467639371
 20
123.9090167179
 30
0.0
 11
199.0162232082
 21
123.8005232379
 31
0.0
  0
LINE
  5
112
330
1F
100
AcDbEntity
  8
0
  6
HIDDEN
 62
     7
370
     0
100
AcDbLine
 10
199.0342186439
 20
123.9507668995
 30
0.0
 11
198.9467639371
 21
123.9090167179
 31
0.0
  0
LINE
  5
113
330
1F
100
AcDbEntity
  8
0
  6
HIDDEN
 62
     7
370
     0
100
AcDbLine
 10
198.9467639371
 20
123.9090167179
 30
0.0
 11
198.5467639371
 21
124.1929473428
 31
0.0
  0
LINE
  5
114
330
1F
100
AcDbEntity
  8
0
  6
HIDDEN
 62
     7
370
     0
100
AcDbLine
 10
207.6717639371
 20
125.4416153468
 30
0.0
 11
207.7412232082
 21
125.3331218668
 31
0.0
  0
LINE
  5
115
330
1F
100
AcDbEntity
  8
0
  6
HIDDEN
 62
     7
370
     0
100
AcDbLine
 10
207.6717639371
 20
125.4416153468
 30
0.0
 11
208.0717639371
 21
125.7255459717
 31
0.0
  0
LINE
  5
116
330
1F
100
AcDbEntity
  8
0
  6
HIDDEN
 62
     7
370
     0
100
AcDbLine
 10
207.5843092304
 20
125.4526416399
 30
0.0
 11
207.6717639371
 21
125.4416153468
 31
0.0
  0
ARC
  5
117
330
1F
100
AcDbEntity
  8
0
  6
HIDDEN
 62
     7
370
     0
100
AcDbCircle
 10
203.3092639371
 20
129.2811647355
 30
0.0
 40
3.050013891397083
100
AcDbArc
 50
180.1729258221
 51
359.8270741779
  0
LINE
  5
118
330
1F
100
AcDbEntity
  8
0
  6
HIDDEN
 62
     7
370
     0
100
AcDbLine
 10
207.5843092304
 20
134.1015935641
 30
0.0
 11
207.6717639371
 21
134.2674990934
 31
0.0
  0
LINE
  5
119
330
1F
100
AcDbEntity
  8
0
  6
HIDDEN
 62
     7
370
     0
100
AcDbLine
 10
199.0342186439
 20
132.5997188238
 30
0.0
 11
198.9467639371
 21
132.7349004645
 31
0.0
  0
LINE
  5
11A
330
1F
100
AcDbEntity
  8
0
  6
HIDDEN
 62
     7
370
     0
100
AcDbLine
 10
198.9467639371
 20
132.7349004645
 30
0.0
 11
198.8773046661
 21
133.4112551943
 31
0.0
  0
LINE
  5
11B
330
1F
100
AcDbEntity
  8
0
  6
HIDDEN
 62
     7
370
     0
100
AcDbLine
 10
198.9467639371
 20
132.7349004645
 30
0.0
 11
198.5467639371
 21
133.0188310894
 31
0.0
  0
LINE
  5
11C
330
1F
100
AcDbEntity
  8
0
  6
HIDDEN
 62
     7
370
     0
100
AcDbLine
 10
207.6717639371
 20
134.2674990934
 30
0.0
 11
207.6023046661
 21
134.9438538232
 31
0.0
  0
LINE
  5
11D
330
1F
100
AcDbEntity
  8
0
  6
HIDDEN
 62
     7
370
     0
100
AcDbLine
 10
207.6717639371
 20
134.2674990934
 30
0.0
 11
208.0717639371
 21
134.5514297183
 31
0.0
  0
CIRCLE
  5
11E
330
1F
100
AcDbEntity
  8
0
  6
HIDDEN
 62
     7
370
     0
100
AcDbCircle
 10
203.3031126878
 20
129.1475221056
 30
0.0
 40
2.193849111121987
  0
CIRCLE
  5
11F
330
1F
100
AcDbEntity
  8
0
  6
HIDDEN
 62
     7
370
     0
100
AcDbCircle
 10
203.3031126878
 20
129.0249226849
 30
0.0
 40
2.193849111121987
  0
LINE
  5
120
330
1F
100
AcDbEntity
  8
0
  6
HIDDEN
 62
     7
370
     0
100
AcDbLine
 10
207.5843092304
 20
134.1015935641
 30
0.0
 11
199.0342186439
 21
132.5997188238
 31
0.0
  0
LINE
  5
121
330
1F
100
AcDbEntity
  8
0
  6
HIDDEN
 62
     7
370
     0
100
AcDbLine
 10
207.5843092304
 20
125.4526416399
 30
0.0
 11
207.5843092304
 21
134.1015935641
 31
0.0
  0
LINE
  5
122
330
1F
100
AcDbEntity
  8
0
  6
HIDDEN
 62
     7
370
     0
100
AcDbLine
 10
199.0342186439
 20
132.5997188238
 30
0.0
 11
199.0342186439
 21
123.9507668995
 31
0.0
  0
LINE
  5
123
330
1F
100
AcDbEntity
  8
0
  6
HIDDEN
 62
     7
370
     0
100
AcDbLine
 10
199.0342186439
 20
123.9507668995
 30
0.0
 11
207.5843092304
 21
125.4526416399
 31
0.0
  0
LINE
  5
124
330
1F
100
AcDbEntity
  8
0
  6
HIDDEN
 62
     7
370
     0
100
AcDbLine
 10
192.1922781192
 20
124.4470208942
 30
0.0
 11
182.7403252558
 21
117.0623459796
 31
0.0
  0
LINE
  5
125
330
1F
100
AcDbEntity
  8
0
  6
HIDDEN
 62
     7
370
     0
100
AcDbLine
 10
185.8722515321
 20
115.7022203174
 30
0.0
 11
194.4770784127
 21
122.4250478778
 31
0.0
  0
LINE
  5
126
330
1F
100
AcDbEntity
  8
0
  6
HIDDEN
 62
     7
370
     0
100
AcDbLine
 10
93.0717639371
 20
113.3249075975
 30
0.0
 11
94.3708020428
 21
114.0749075975
 31
0.0
  0
LINE
  5
127
330
1F
100
AcDbEntity
  8
0
  6
HIDDEN
 62
     7
370
     0
100
AcDbLine
 10
94.3708020428
 20
117.0749075975
 30
0.0
 11
93.0717639371
 21
117.8249075975
 31
0.0
  0
LINE
  5
128
330
1F
100
AcDbEntity
  8
0
  6
HIDDEN
 62
     7
370
     0
100
AcDbLine
 10
185.0717639371
 20
114.0749075975
 30
0.0
 11
185.9730548657
 21
115.5749075975
 31
0.0
  0
LINE
  5
129
330
1F
100
AcDbEntity
  8
0
  6
HIDDEN
 62
     7
370
     0
100
AcDbLine
 10
185.9730548657
 20
115.5749075975
 30
0.0
 11
185.8867396118
 21
115.7185603036
 31
0.0
  0
LINE
  5
12A
330
1F
100
AcDbEntity
  8
0
  6
HIDDEN
 62
     7
370
     0
100
AcDbLine
 10
94.3708020428
 20
114.0749075975
 30
0.0
 11
185.0717639371
 21
114.0749075975
 31
0.0
  0
LINE
  5
12B
330
1F
100
AcDbEntity
  8
0
  6
HIDDEN
 62
     7
370
     0
100
AcDbLine
 10
182.7775872337
 20
117.0749075975
 30
0.0
 11
94.3708020428
 21
117.0749075975
 31
0.0
  0
LINE
  5
12C
330
1F
100
AcDbEntity
  8
0
  6
HIDDEN
 62
     7
370
     0
100
AcDbLine
 10
197.6772572417
 20
124.6321629323
 30
0.0
 11
197.6772572417
 21
124.2873375298
 31
0.0
  0
LINE
  5
12D
330
1F
100
AcDbEntity
  8
0
  6
HIDDEN
 62
     7
370
     0
100
AcDbLine
 10
200.9772572417
 20
124.2873375298
 30
0.0
 11
200.9772572417
 21
124.2986677763
 31
0.0
  0
LINE
  5
12E
330
1F
100
AcDbEntity
  8
0
  6
HIDDEN
 62
     7
370
     0
100
AcDbLine
 10
198.5719130356
 20
132.5998275709
 30
0.0
 11
198.5467639371
 21
132.5953931063
 31
0.0
  0
LINE
  5
12F
330
1F
100
AcDbEntity
  8
0
  6
HIDDEN
 62
     7
370
     0
100
AcDbLine
 10
201.5772572417
 20
128.8896002726
 30
0.0
 11
201.5772572417
 21
128.212518464
 31
0.0
  0
LINE
  5
130
330
1F
100
AcDbEntity
  8
0
  6
HIDDEN
 62
     7
370
     0
100
AcDbLine
 10
204.8772572417
 20
128.212518464
 30
0.0
 11
204.8772572417
 21
128.8896002726
 31
0.0
  0
LINE
  5
131
330
1F
100
AcDbEntity
  8
0
  6
HIDDEN
 62
     7
370
     0
100
AcDbLine
 10
204.0201326247
 20
127.8959622672
 30
0.0
 11
204.0201326247
 21
128.0151198492
 31
0.0
  0
LINE
  5
132
330
1F
100
AcDbEntity
  8
0
  6
HIDDEN
 62
     7
370
     0
100
AcDbLine
 10
202.0281429753
 20
128.2474338347
 30
0.0
 11
202.0281429753
 21
128.1269118233
 31
0.0
  0
LINE
  5
133
330
1F
100
AcDbEntity
  8
0
  6
HIDDEN
 62
     7
370
     0
100
AcDbLine
 10
204.8818996307
 20
128.9210075078
 30
0.0
 11
204.8818996307
 21
129.0430255476
 31
0.0
  0
LINE
  5
134
330
1F
100
AcDbEntity
  8
0
  6
HIDDEN
 62
     7
370
     0
100
AcDbLine
 10
201.567920332
 20
129.5049342856
 30
0.0
 11
201.567920332
 21
129.38290662
 31
0.0
  0
LINE
  5
135
330
1F
100
AcDbEntity
  8
0
  6
HIDDEN
 62
     7
370
     0
100
AcDbLine
 10
204.4216769874
 20
130.1770023045
 30
0.0
 11
204.4216769874
 21
130.2990203444
 31
0.0
  0
LINE
  5
136
330
1F
100
AcDbEntity
  8
0
  6
HIDDEN
 62
     7
370
     0
100
AcDbLine
 10
202.429687338
 20
130.5271261575
 30
0.0
 11
202.429687338
 21
130.4079518607
 31
0.0
  0
SPLINE
  5
137
330
1F
100
AcDbEntity
  8
0
  6
HIDDEN
 62
     7
370
     0
100
AcDbSpline
210
0.0
220
0.0
230
1.0
 70
    11
 71
     3
 72
    34
 73
    30
 74
     0
 42
0.00000001
 43
0.00000001
 40
0.0
 40
0.0
 40
0.0
 40
0.0
 40
0.0141603295079137
 40
0.0529721388039906
 40
0.0919081712836814
 40
0.1309414919242592
 40
0.1700960980455858
 40
0.2093684862748868
 40
0.2487257585124176
 40
0.2881084106139018
 40
0.327435848478041
 40
0.3666600907115317
 40
0.4057604087584488
 40
0.4447462308552046
 40
0.4836524081631895
 40
0.5225300698137226
 40
0.5614210272326354
 40
0.600375235331117
 40
0.6394338047509165
 40
0.6786154274877048
 40
0.7179100761499039
 40
0.7572790103335265
 40
0.7966547336380606
 40
0.8359629460767976
 40
0.8751608844228445
 40
0.9142344488617329
 40
0.9531992187400115
 40
0.9900822017753688
 40
1.0
 40
1.0
 40
1.0
 40
1.0
 10
202.9117466870197
 20
127.2502934378654
 30
0.0
 10
202.8590716415229
 20
127.2610313132807
 30
0.0
 10
202.662020448611
 20
127.3012004510571
 30
0.0
 10
202.3360074130449
 20
127.4356674523783
 30
0.0
 10
201.9755920597832
 20
127.696407216835
 30
0.0
 10
201.6897685576288
 20
128.0374479310558
 30
0.0
 10
201.4957079122134
 20
128.4371275659896
 30
0.0
 10
201.4052613586594
 20
128.8722827628582
 30
0.0
 10
201.4243233661427
 20
129.3168757360727
 30
0.0
 10
201.5522249776488
 20
129.7439917996015
 30
0.0
 10
201.7814501943198
 20
130.1274660853362
 30
0.0
 10
202.0980153673324
 20
130.4438029322302
 30
0.0
 10
202.4825069911612
 20
130.6738260883199
 30
0.0
 10
202.9114356936691
 20
130.803839470941
 30
0.0
 10
203.3588308486127
 20
130.8263640631161
 30
0.0
 10
203.7978223042174
 20
130.7404232673978
 30
0.0
 10
204.2022707946877
 20
130.5514760793636
 30
0.0
 10
204.5482587734221
 20
130.2709530996166
 30
0.0
 10
204.8153682369416
 20
129.9154598058153
 30
0.0
 10
204.9876548181386
 20
129.5058902842456
 30
0.0
 10
205.0545137791258
 20
129.0664219006254
 30
0.0
 10
205.011431820823
 20
128.6233404122524
 30
0.0
 10
204.8605718246924
 20
128.2035796571486
 30
0.0
 10
204.610908368625
 20
127.8328531069176
 30
0.0
 10
204.2777347053562
 20
127.5339179986289
 30
0.0
 10
203.8813844568118
 20
127.3245528400277
 30
0.0
 10
203.4538707430229
 20
127.2200547598548
 30
0.0
 10
203.1245049171484
 20
127.2171537000264
 30
0.0
 10
202.9489495439357
 20
127.2444986306595
 30
0.0
 10
202.9117466870197
 20
127.2502934378654
 30
0.0
  0
LINE
  5
138
330
1F
100
AcDbEntity
  8
0
  6
HIDDEN
 62
     7
370
     0
100
AcDbLine
 10
201.2272572417
 20
128.9436368331
 30
0.0
 11
201.2272572417
 21
128.499142545
 31
0.0
  0
LINE
  5
139
330
1F
100
AcDbEntity
  8
0
  6
HIDDEN
 62
     7
370
     0
100
AcDbLine
 10
205.2272572417
 20
128.499142545
 30
0.0
 11
205.2272572417
 21
128.9436368331
 31
0.0
  0
LINE
  5
13A
330
1F
100
AcDbEntity
  8
0
  6
HIDDEN
 62
     7
370
     0
100
AcDbLine
 10
200.2592639371
 20
129.3721885305
 30
0.0
 11
200.2592639371
 21
129.2719594264
 31
0.0
  0
LINE
  5
13B
330
1F
100
AcDbEntity
  8
0
  6
HIDDEN
 62
     7
370
     0
100
AcDbLine
 10
206.3592639371
 20
129.2719594264
 30
0.0
 11
206.3592639371
 21
129.3721885305
 31
0.0
  0
LINE
  5
13C
330
1F
100
AcDbEntity
  8
0
  6
HIDDEN
 62
     7
370
     0
100
AcDbLine
 10
201.1092639371
 20
129.1487796526
 30
0.0
 11
201.1092639371
 21
129.0261802318
 31
0.0
  0
LINE
  5
13D
330
1F
100
AcDbEntity
  8
0
  6
HIDDEN
 62
     7
370
     0
100
AcDbLine
 10
205.5092639371
 20
129.0261802318
 30
0.0
 11
205.5092639371
 21
129.1487796526
 31
0.0
  0
LINE
  5
13E
330
1F
100
AcDbEntity
  8
VERMASSUNG
100
AcDbLine
 10
167.3684832121
 20
115.5749075975
 30
0.0
 11
208.0717639371
 21
115.5749075975
 31
0.0
  0
POINT
  5
13F
330
1F
100
AcDbEntity
  8
VERMASSUNG
100
AcDbPoint
 10
208.0717639371
 20
134.9499075975
 30
0.0
  0
DIMENSION
  5
140
330
1F
100
AcDbEntity
  8
VERMASSUNG
100
AcDbDimension
  2
*D1
 10
215.0784300378
 20
96.1999075975
 30
0.0
 11
215.0784300378
 21
115.1156515764
 31
0.0
 70
   160
  1
%%c<>-44.1
 71
     2
 42
-1.0
  3
SLDDIMSTYLE0
100
AcDbAlignedDimension
 13
208.0717639371
 23
134.9499075975
 33
0.0
 14
208.0717639371
 24
96.1999075975
 34
0.0
 50
90.0
100
AcDbRotatedDimension
  0
DIMENSION
  5
14B
330
1F
100
AcDbEntity
  8
VERMASSUNG
100
AcDbDimension
  2
*D2
 10
93.0717639371
 20
143.0139686211
 30
0.0
 11
147.2113100908
 21
143.0139686211
 31
0.0
 70
   160
 71
     2
 42
-1.0
  3
SLDDIMSTYLE1
100
AcDbAlignedDimension
 13
208.0717639371
 23
134.9499075975
 33
0.0
 14
93.0717639371
 24
121.7749075975
 34
0.0
100
AcDbRotatedDimension
  0
DIMENSION
  5
156
330
1F
100
AcDbEntity
  8
VERMASSUNG
100
AcDbDimension
  2
*D3
 10
86.7637069585
 20
107.5749075975
 30
0.0
 11
86.7637069585
 21
115.0601909697
 31
0.0
 70
   160
  1
%%c<>
 71
     2
 42
-1.0
  3
SLDDIMSTYLE1
100
AcDbAlignedDimension
 13
104.3717639371
 23
123.5749075975
 33
0.0
 14
94.4467639371
 24
107.5749075975
 34
0.0
 50
90.0
100
AcDbRotatedDimension
  0
LINE
  5
161
330
1F
100
AcDbEntity
  8
VERMASSUNG
  6
CENTERX2
 62
     7
370
     0
100
AcDbLine
 10
91.0717639371
 20
115.5749075975
 30
0.0
 11
168.8050736822
 21
115.5749075975
 31
0.0
  0
LINE
  5
162
330
1F
100
AcDbEntity
  8
VERMASSUNG
  6
CENTERX2
 62
     7
370
     0
100
AcDbLine
 10
197.5933782267
 20
126.7632954529
 30
0.0
 11
180.7245720952
 21
113.5839396861
 31
0.0
  0
OLE2FRAME
  5
163
330
1F
100
AcDbEntity
  8
0
100
AcDbOle2Frame
 70
     2
  3
Paintbrush-Bild
 10
13.8511154363
 20
38.264191557
 30
0.0
 11
51.6290888628
 21
31.9806341108
 31
0.0
 71
     2
 72
     0
 73
     1
 90
    12928
310
80552BED0767C5B32B40DDAF6807D121434000000000000000006FFBDDFB85D0
310
4940DDAF6807D121434000000000000000006FFBDDFB85D04940416F4BD60AFB
310
3F4000000000000000002BED0767C5B32B40416F4BD60AFB3F40000000000000
310
0000000000000100000000010000010000000100000000000100000000320000
310
D0CF11E0A1B11AE1000000000000000000000000000000003E000300FEFF0900
310
0600000000000000000000000100000001000000000000000010000002000000
310
01000000FEFFFFFF0000000000000000FFFFFFFFFFFFFFFFFFFFFFFFFFFFFFFF
310
FFFFFFFFFFFFFFFFFFFFFFFFFFFFFFFFFFFFFFFFFFFFFFFFFFFFFFFFFFFFFFFF
310
FFFFFFFFFFFFFFFFFFFFFFFFFFFFFFFFFFFFFFFFFFFFFFFFFFFFFFFFFFFFFFFF
310
FFFFFFFFFFFFFFFFFFFFFFFFFFFFFFFFFFFFFFFFFFFFFFFFFFFFFFFFFFFFFFFF
310
FFFFFFFFFFFFFFFFFFFFFFFFFFFFFFFFFFFFFFFFFFFFFFFFFFFFFFFFFFFFFFFF
310
FFFFFFFFFFFFFFFFFFFFFFFFFFFFFFFFFFFFFFFFFFFFFFFFFFFFFFFFFFFFFFFF
310
FFFFFFFFFFFFFFFFFFFFFFFFFFFFFFFFFFFFFFFFFFFFFFFFFFFFFFFFFFFFFFFF
310
FFFFFFFFFFFFFFFFFFFFFFFFFFFFFFFFFFFFFFFFFFFFFFFFFFFFFFFFFFFFFFFF
310
FFFFFFFFFFFFFFFFFFFFFFFFFFFFFFFFFFFFFFFFFFFFFFFFFFFFFFFFFFFFFFFF
310
FFFFFFFFFFFFFFFFFFFFFFFFFFFFFFFFFFFFFFFFFFFFFFFFFFFFFFFFFFFFFFFF
310
FFFFFFFFFFFFFFFFFFFFFFFFFFFFFFFFFFFFFFFFFFFFFFFFFFFFFFFFFFFFFFFF
310
FFFFFFFFFFFFFFFFFFFFFFFFFFFFFFFFFFFFFFFFFFFFFFFFFFFFFFFFFFFFFFFF
310
FFFFFFFFFFFFFFFFFFFFFFFFFFFFFFFFFFFFFFFFFFFFFFFFFFFFFFFFFFFFFFFF
310
FFFFFFFFFFFFFFFFFFFFFFFFFFFFFFFFFFFFFFFFFFFFFFFFFFFFFFFFFFFFFFFF
310
FDFFFFFFFEFFFFFFFEFFFFFFFEFFFFFF05000000060000000700000008000000
310
090000000A0000000B0000000C0000000D0000000E0000000F00000010000000
310
11000000120000001300000014000000150000001600000017000000FEFFFFFF
310
FFFFFFFFFFFFFFFFFFFFFFFFFFFFFFFFFFFFFFFFFFFFFFFFFFFFFFFFFFFFFFFF
310
FFFFFFFFFFFFFFFFFFFFFFFFFFFFFFFFFFFFFFFFFFFFFFFFFFFFFFFFFFFFFFFF
310
FFFFFFFFFFFFFFFFFFFFFFFFFFFFFFFFFFFFFFFFFFFFFFFFFFFFFFFFFFFFFFFF
310
FFFFFFFFFFFFFFFFFFFFFFFFFFFFFFFFFFFFFFFFFFFFFFFFFFFFFFFFFFFFFFFF
310
FFFFFFFFFFFFFFFFFFFFFFFFFFFFFFFFFFFFFFFFFFFFFFFFFFFFFFFFFFFFFFFF
310
FFFFFFFFFFFFFFFFFFFFFFFFFFFFFFFFFFFFFFFFFFFFFFFFFFFFFFFFFFFFFFFF
310
FFFFFFFFFFFFFFFFFFFFFFFFFFFFFFFFFFFFFFFFFFFFFFFFFFFFFFFFFFFFFFFF
310
FFFFFFFFFFFFFFFFFFFFFFFFFFFFFFFFFFFFFFFFFFFFFFFFFFFFFFFFFFFFFFFF
310
FFFFFFFFFFFFFFFFFFFFFFFFFFFFFFFFFFFFFFFFFFFFFFFFFFFFFFFFFFFFFFFF
310
FFFFFFFFFFFFFFFFFFFFFFFFFFFFFFFFFFFFFFFFFFFFFFFFFFFFFFFFFFFFFFFF
310
FFFFFFFFFFFFFFFFFFFFFFFFFFFFFFFFFFFFFFFFFFFFFFFFFFFFFFFFFFFFFFFF
310
FFFFFFFFFFFFFFFFFFFFFFFFFFFFFFFFFFFFFFFFFFFFFFFFFFFFFFFFFFFFFFFF
310
FFFFFFFFFFFFFFFFFFFFFFFFFFFFFFFFFFFFFFFFFFFFFFFFFFFFFFFFFFFFFFFF
310
52006F006F007400200045006E00740072007900000000000000000000000000
310
0000000000000000000000000000000000000000000000000000000000000000
310
16000500FFFFFFFFFFFFFFFF020000000A00030000000000C000000000000046
310
00000000000000000000000050212558C8F7CC0103000000C000000000000000
310
01004F006C006500000000000000000000000000000000000000000000000000
310
0000000000000000000000000000000000000000000000000000000000000000
310
0A000200FFFFFFFFFFFFFFFFFFFFFFFF00000000000000000000000000000000
310
0000000000000000000000000000000000000000000000001400000000000000
310
010043006F006D0070004F0062006A0000000000000000000000000000000000
310
0000000000000000000000000000000000000000000000000000000000000000
310
120002010100000003000000FFFFFFFF00000000000000000000000000000000
310
0000000000000000000000000000000000000000010000004D00000000000000
310
01004F006C006500310030004E00610074006900760065000000000000000000
310
0000000000000000000000000000000000000000000000000000000000000000
310
1A000200FFFFFFFFFFFFFFFFFFFFFFFF00000000000000000000000000000000
310
0000000000000000000000000000000000000000040000002426000000000000
310
FEFFFFFF02000000FEFFFFFFFFFFFFFFFFFFFFFFFFFFFFFFFFFFFFFFFFFFFFFF
310
FFFFFFFFFFFFFFFFFFFFFFFFFFFFFFFFFFFFFFFFFFFFFFFFFFFFFFFFFFFFFFFF
310
FFFFFFFFFFFFFFFFFFFFFFFFFFFFFFFFFFFFFFFFFFFFFFFFFFFFFFFFFFFFFFFF
310
FFFFFFFFFFFFFFFFFFFFFFFFFFFFFFFFFFFFFFFFFFFFFFFFFFFFFFFFFFFFFFFF
310
FFFFFFFFFFFFFFFFFFFFFFFFFFFFFFFFFFFFFFFFFFFFFFFFFFFFFFFFFFFFFFFF
310
FFFFFFFFFFFFFFFFFFFFFFFFFFFFFFFFFFFFFFFFFFFFFFFFFFFFFFFFFFFFFFFF
310
FFFFFFFFFFFFFFFFFFFFFFFFFFFFFFFFFFFFFFFFFFFFFFFFFFFFFFFFFFFFFFFF
310
FFFFFFFFFFFFFFFFFFFFFFFFFFFFFFFFFFFFFFFFFFFFFFFFFFFFFFFFFFFFFFFF
310
FFFFFFFFFFFFFFFFFFFFFFFFFFFFFFFFFFFFFFFFFFFFFFFFFFFFFFFFFFFFFFFF
310
FFFFFFFFFFFFFFFFFFFFFFFFFFFFFFFFFFFFFFFFFFFFFFFFFFFFFFFFFFFFFFFF
310
FFFFFFFFFFFFFFFFFFFFFFFFFFFFFFFFFFFFFFFFFFFFFFFFFFFFFFFFFFFFFFFF
310
FFFFFFFFFFFFFFFFFFFFFFFFFFFFFFFFFFFFFFFFFFFFFFFFFFFFFFFFFFFFFFFF
310
FFFFFFFFFFFFFFFFFFFFFFFFFFFFFFFFFFFFFFFFFFFFFFFFFFFFFFFFFFFFFFFF
310
FFFFFFFFFFFFFFFFFFFFFFFFFFFFFFFFFFFFFFFFFFFFFFFFFFFFFFFFFFFFFFFF
310
FFFFFFFFFFFFFFFFFFFFFFFFFFFFFFFFFFFFFFFFFFFFFFFFFFFFFFFFFFFFFFFF
310
FFFFFFFFFFFFFFFFFFFFFFFFFFFFFFFFFFFFFFFFFFFFFFFFFFFFFFFFFFFFFFFF
310
0100000200000000000000000000000000000000000000000000000000000000
310
0000000000000000000000000000000000000000000000000000000000000000
310
0100FEFF030A0000FFFFFFFF0A00030000000000C00000000000004607000000
310
5042727573680007000000504272757368000700000050427275736800F439B2
310
7100000000000000000000000000000000000000000000000000000000000000
310
0000000000000000000000000000000000000000000000000000000000000000
310
0000000000000000000000000000000000000000000000000000000000000000
310
0000000000000000000000000000000000000000000000000000000000000000
310
0000000000000000000000000000000000000000000000000000000000000000
310
0000000000000000000000000000000000000000000000000000000000000000
310
0000000000000000000000000000000000000000000000000000000000000000
310
0000000000000000000000000000000000000000000000000000000000000000
310
0000000000000000000000000000000000000000000000000000000000000000
310
0000000000000000000000000000000000000000000000000000000000000000
310
0000000000000000000000000000000000000000000000000000000000000000
310
0000000000000000000000000000000000000000000000000000000000000000
310
20260000424D0E260000000000003E00000028000000B40200006E0000000100
310
01000000000000000000130B0000130B00000200000002000000000000FFFFFF
310
FFFFFFFFFFFFFFFFFFFFFFFFFFFFFFFFFFFFFFFFFFFFFFFFFFFFFFFFFFFFFFFF
310
FFFFFFFFFFFFFFFFFFFFFFFFFFFFFFFFFFFFFFFFFFFFFFFFFFFFFFFFFFFFFFFF
310
FFFFFFFFFFFFFFFFFFFFFFFFFFFFFFFFFFFFFFFFFFFFFFFFF000FFFFFFFFFFFF
310
FFFFFFFFFFFFFFFFFFFFFFFFFFFFFFFFFFFFFFFFFFFFFFFFFFFFFFFFFFFFFFFF
310
FFFFFFFFFFFFFFFFFFFFFFFFFFFFFFFFFFFFFFFFFFFFFFFFFFFFFFFFFFFFFFFF
310
FFFFFFFFFFFFFFFFFFFFFFFFFFFFFFFFF000FFFFFFFFFFFFFFFFFFFFFFFFFFFF
310
FFFFFFFFFFFFFFFFFFFFFFFFFFFFFFFFFFFFFFFFFFFFFFFFFFFFFFFFFFFFFFFF
310
FFFFFFFFFFFFFFFFFFFFFFFFFFFFFFFFFFFFFFFFFFFFFFFFFFFFFFFFFFFFFFFF
310
FFFFFFFFFFFFFFFFF000FFFFFFFFFFFFFFFFFFFFFFFFFFFFFFFFFFFFFFFFFFFF
310
FFFFFFFFFFFFFFFFFFFFFFFFFFFFFFFFFFFFFFFFFFFFFFFFFFFFFFFFFFFFFFFF
310
FFFFFFFFFFFFFFFFFFFFFFFFFFFFFFFFFFFFFFFFFFFFFFFFFFFFFFFFFFFFFFFF
310
F000FFFFFFFFFFFFFFFFFFFFFFFFFFFFFFFFFFFFFFFFFFFFFFFFFFFFFFFFFFFF
310
FFFFFFFFFFFFFFFFFFFFFFFFFFFFFFFFFFFFFFFFFFFFFFFFFFFFFFFFFFFFFFFF
310
FFFFFFFFFFFFFFFFFFFFFFFFFFFFFFFFFFFFFFFFFFFFFFFFF000FFFFFFFFFFFF
310
FFFFFFFFFFFFFFFFFFFFFFFFFFFFFFFFFFFFFFFFFFFFFFFFFFFFFFFFFFFFFFFF
310
FFFFFFFFFFFFFFFFFFFFFFFFFFFFFFFFFFFFFFFFFFFFFFFFFFFFFFFFFFFFFFFF
310
FFFFFFFFFFFFFFFFFFFFFFFFFFFFFFFFF000FFFFFFFFFFFFFFFFFFFFFFFFFFFF
310
FFFFFFFFFFFFFFFFFFFFFFFFFFFFFFFFFFFFFFFFFFFFFFFFFFFFFFFFFFFFFFFF
310
FFFFFFFFFFFFFFFFFFFFFFFFFFFFFFFFFFFFFFFFFFFFFFFFFFFFFFFFFFFFFFFF
310
FFFFFFFFFFFFFFFFF000FFFFFFFFFFFFFFFFFFFFFFFFFFFFFFFFFFFFFFFFFFFF
310
FFFFFFFFFFFFFFFFFFFFFFFFFFFFFFFFFFFFFFFFFFFFFFFFFFFFFFFFFFFFFFFF
310
FFFFFFFFFFFFFFFFFFFFFFFFFFFFFFFFFFFFFFFFFFFFFFFFFFFFFFFFFFFFFFFF
310
F000FFFFFFFFFFFFFFFFFFFFFFFFFFFFFFFFFFFFFFFFFFFFFFFFFFFFFFFFFFFF
310
FFFFFFFFFFFFFFFFFFFFFFFFFFFFFFFFFFFFFFFFFFFFFFFFFFFFFFFFFFFFFFFF
310
FFFFFFFFFFFFFFFFFFFFFFFFFFFFFFFFFFFFFFFFFFFFFFFFF000FFFFFFFFFFFF
310
FFFFFFFFFFFFFFFFFFFFFFFFFFFFFFFFFFFFFFFFFFFFFFFFFFFFFFFFFFFFFFFF
310
FFFFFFFFFFFFFFFFFFFFFFFFFFFFFFFFFFFFFFFFFFFFFFFFFFFFFFFFFFFFFFFF
310
FFFFFFFFFFFFFFFFFFFFFFFFFFFFFFFFF000FFFFFFFFFFFFFFFFFFFFFFFFFFFF
310
FFFFFFFFFFFFFFFFFFFFFFFFFFFFFFFFFFFFFFFFFFFFFFFFFFFFFFFFFFFFFFFF
310
FFFFFFFFFFFFFFFFFFFFFFFFFFFFFFFFFFFFFFFFFFFFFFFFFFFFFFFFFFFFFFFF
310
FFFFFFFFFFFFFFFFF000FFFFFFFFFFFFFFFFFFFFFFFFFFFFFFFFFFFFFFFFFFFF
310
FFFFFFFFFFFFFFFFFFFFFFFFFFFFFFFFFFFFFFFFFFFFFFFFFFFFFFFFFFFFFFFF
310
FFFFFFFFFFFFFFFFFFFFFFFFFFFFFFFFFFFFFFFFFFFFFFFFFFFFFFFFFFFFFFFF
310
F000FFFFFFFFFFFFFFFFFFFFFFFFFFFFFFFFFFFFFFFFFFFFFFFFFFFFFFFFFFFF
310
FFFFFFFFFFFFFFFFFFFFFFFFFFFFFFFFFFFFFFFFFFFFFFFFFFFFFFFFFFFFFFFF
310
FFFFFFFFFFFFFFFFFFFFFFFFFFFFFFFFFFFFFFFFFFFFFFFFF000FFFFFFFFFFFF
310
FFFFFFFFFFFFFFFFFFFFFFFFFFFFFFFFFFFFFFFFFFFFFFFFFFFFFFFFFFFFFFFF
310
FFFFFFFFFFFFFFFFFFFFFFFFFFFFFFFFFFFFFFFFFFFFFFFFFFFFFFFFFFFFFFFF
310
FFFFFFFFFFFFFFFFFFFFFFFFFFFFFFFFF000FFFFFFFFFFFFFFFFFFFFFFFFFFFF
310
FFFFFFFFFFFFFFFFFFFFFFFFFFFFFFFFFFFFFFFFFFFFFFFFFFFFFFFFFFFFFFFF
310
FFFFFFFFFFFFFFFFFFFFFFFFFFFFFFFFFFFFFFFFFFFFFFFFFFFFFFFFFFFFFFFF
310
FFFFFFFFFFFFFFFFF000FFFFFFFFFFFFFFFFFFFFFFFFFFFFFFFFFFFFFFFFFFFF
310
FFFFFFFFFFFFFFFFFFFFFFFFFFFFFFFFFFFFFFFFFFFFFFFFFFFFFFFFFFFFFFFF
310
FFFFFFFFFFFFFFFFFFFFFFFFFFFFFFFFFFFFFFFFFFFFFFFFFFFFFFFFFFFFFFFF
310
F000FFFFFFFFFFFFFFFFFFFFFFFFFFFFFFFFFFFFFFFFFFFFFFFFFFFFFFFFFFFF
310
FFFFFFFFFFFFFFFFFFFFFFFFFFFFFFFFFFFFFFFFFFFFFFFFFFFFFFFFFFFFFFFF
310
FFFFFFFFFFFFFFFFFFFFFFFFFFFFFFFFFFFFFFFFFFFFFFFFF000FFFFFFFFFFFF
310
FFFFFFFFFFFFFFFFFFFFFFFFFFFFFFFFFFFFFFFFFFFFFFFFFFFFFFFFFFFFFFFF
310
FFFFFFFFFFFFFFFFFFFFFFFFFFFFFFFFFFFFFFFFFFFFFFFFFFFFFFFFFFFFFFFF
310
FFFFFFFFFFFFFFFFFFFFFFFFFFFFFFFFF000FFFFFFFFFFFFFFFFFFFFFFFFFFFF
310
FFFFFFFFFFFFFFFFFFFFFFFFFFFFFFFFFFFFFFFFFFFFFFFFFFFFFFFFFFFFFFFF
310
FFFFFFFFFFFFFFFFFFFFFFFFFFFFFFFFFFFFFFFFFFFFFFFFFFFFFFFFFFFFFFFF
310
FFFFFFFFFFFFFFFFF000FFFFF80003FFFFFFFFFFFFFFFFFFFFFFFFFFFFFFFFFF
310
FFFFF00007FFFFFFFFFF00007FFFFFF800000000000000007FFFFFFFFFFFFFFF
310
FFFFFFFC001FFFFFFFFFFFFFFC001FFFFFFFFFFFFFFFFFFFFFFFFFFE0007FFFF
310
F000FFFF8000007FFFFFFFF8000FFFFFC0007FFFFF80007FFFFF0000007FFFFF
310
FFF8000007FFFFF800000000000000007FFFFFF0001FFFFFFFFFFFC00001FFFF
310
FFFFFFFFC00001FFFFFFFF000000000003FFFFE000007FFFF000FFFE0000000F
310
FFFFFFF0000FFFFF80007FFFFF80007FFFFC0000001FFFFFFFC0000001FFFFF8
310
00000000000000007FFFFFF0001FFFFFFFFFFE0000003FFFFFFFFFFE0000003F
310
FFFFFF000000000003FFFF0000000FFFF000FFF800000003FFFFFFF00007FFFF
310
80007FFFFF80007FFFF000000007FFFFFF000000003FFFF80000000000000000
310
7FFFFFF0001FFFFFFFFFF80000000FFFFFFFFFF80000000FFFFFFF0000000000
310
03FFFC00000003FFF000FFE000000000FFFFFFF00007FFFF80003FFFFF80007F
310
FFC000000001FFFFFC000000001FFFF800000000000000007FFFFFF0001FFFFF
310
FFFFE000000003FFFFFFFFE000000003FFFFFF000000000003FFF000000000FF
310
F000FF80000000007FFFFFF00007FFFF80003FFFFF80007FFF8000000000FFFF
310
F80000000007FFF800000000000000007FFFFFF0001FFFFFFFFFC000000001FF
310
FFFFFFC000000001FFFFFF000000000003FFC0000000007FF000FF0000000000
310
3FFFFFE00007FFFF00003FFFFF80007FFE00000000003FFFF00000000003FFF8
310
00000000000000007FFFFFF0001FFFFFFFFF8000000000FFFFFFFF8000000000
310
FFFFFF000000000003FF80000000003FF000FE00000000001FFFFFE00003FFFF
310
00003FFFFF80007FFC00000000001FFFE00000000001FFF8000001FFFE000000
310
7FFFFFF0001FFFFFFFFE00000000003FFFFFFE00000000003FFFFF0000000000
310
03FF00000000001FF000FC00000000000FFFFFE00003FFFF00001FFFFF80007F
310
F800000000001FFFC00000000000FFF8000001FFFE0000007FFFFFF0001FFFFF
310
FFFC00000000001FFFFFFC00000000001FFFFF000000000003FE00000000000F
310
F000F8000000000007FFFFE00003FFFF00001FFFFF80007FF800000000000FFF
310
800000000000FFF8000001FFFE0000007FFFFFF0001FFFFFFFF800000000000F
310
FFFFF800000000000FFFFF000000000003FC000000000007F000F80000000000
310
03FFFFC00003FFFE00001FFFFF80007FF0000000000007FF0000000000007FF8
310
000001FFFE0000007FFFFFF0001FFFFFFFF0000000000007FFFFF00000000000
310
07FFFF000000000003F8000000000003F000F0000000000003FFFFC00001FFFE
310
00001FFFFF80007FE0000000000007FE0000000000003FF8000001FFFE000000
310
7FFFFFF0001FFFFFFFF0000000000007FFFFF0000000000007FFFF0000000000
310
03F800001F800003F000E00001FFF00001FFFFC00001FFFE00000FFFFF80007F
310
E00001FFE00003FE00001FFF00003FF8000001FFFE0000007FFFFFF0001FFFFF
310
FFE000003E000003FFFFE000003E000003FFFF000000000003F00001FFF80001
310
F000E00007FFFC0001FFFFC00001FFFE00000FFFFF80007FC0000FFFFC0003FC
310
0000FFFFC0001FF8000001FFFE0000007FFFFFF0001FFFFFFFC00003FFE00001
310
FFFFC00003FFE00001FFFF0001FFFFFFFFF00007FFFE0001F000E0000FFFFF00
310
00FFFF800001FFFC00000FFFFF80007FC0001FFFFE0001FC0001FFFFE0001FF8
310
000001FFFE0000007FFFFFF0001FFFFFFF80000FFFF80000FFFF80000FFFF800
310
00FFFF0003FFFFFFFFE0000FFFFF8000F000C0003FFFFF8000FFFF800000FFFC
310
000007FFFF80007F80003FFFFF0001FC0003FFFFF0001FF8000001FFFE000000
310
7FFFFFF0001FFFFFFF80003FFFFE0000FFFF80003FFFFE0000FFFF0003FFFFFF
310
FFE0003FFFFF8000F000C0003FFFFF8000FFFF800000FFFC000007FFFF80007F
310
80007FFFFF8001F80007FFFFF8000FF8000001FFFE0000007FFFFFF0001FFFFF
310
FF00007FFFFF00007FFF00007FFFFF00007FFF0003FFFFFFFFE0003FFFFFC000
310
F000C0007FFFFFC000FFFF000000FFFC000007FFFF80007F8000FFFFFF8000F8
310
000FFFFFF8000FF8000001FFFE0000007FFFFFF0001FFFFFFF0000FFFFFF8000
310
7FFF0000FFFFFF80007FFF0003FFFFFFFFC0007FFFFFC00070008000FFFFFFC0
310
00FFFF000000FFF8000007FFFF80007F8000FFFFFF8000F8000FFFFFF8000FF8
310
000001FFFE0000007FFFFFF0001FFFFFFE0001FFFFFFC0003FFE0001FFFFFFC0
310
003FFF0003FFFFFFFFC0007FFFFFE00070008000FFFFFFC0007FFF0000007FF8
310
000003FFFF80007F0001FFFFFF8000F8000FFFFFF8000FF8000001FFFE000000
310
7FFFFFF0001FFFFFFE0001FFFFFFC0003FFE0001FFFFFFC0003FFF0003FFFFFF
310
FFC000FFFFFFE00070008000FFFFFFC0007FFF0000007FF8000003FFFF80007F
310
0001FFFFFF8000F8001FFFFFF8000FF8000001FFFE0000007FFFFFF0001FFFFF
310
FE0003FFFFFFE0003FFE0003FFFFFFE0003FFF0003FFFFFFFFC000FFFFFFE000
310
70008000FFFFFFC0007FFE0000007FF8000003FFFF80007F0001FFFFFF8000F0
310
001FFFFFF8000FF8000001FFFE0000007FFFFFF0001FFFFFFC0003FFFFFFE000
310
1FFC0003FFFFFFE0001FFF0003FFFFFFFFC000FFFFFFC00070008000FFFFFF80
310
007FFE0000007FF0000003FFFF80007F0001FFFFFF0000F0001FFFFFF8000FF8
310
000001FFFE0000007FFFFFF0001FFFFFFC0007FFFFFFF0001FFC0007FFFFFFF0
310
001FFF0003FFFFFFFFC000FFFFFFC00070008001FFFFFF0000FFFE0000003FF0
310
000001FFFF80007F0001FFFFFF0000F8001FFFFFF0000FF8000001FFFE000000
310
7FFFFFF0001FFFFFFC0007FFFFFFF0001FFC0007FFFFFFF0001FFF0003FFFFFF
310
FFC001FFFFFF80007000FFFFFFFFFE0000FFFE0008003FF0008001FFFF80007F
310
FFFFFFFFFC0000FFFFFFFFFFE0000FF8000001FFFE0000007FFFFFF0001FFFFF
310
F8000FFFFFFFF8000FF8000FFFFFFFF8000FFF0003FFFFFFFFFFFFFFFFFF0000
310
7000FFFFFFFFFC0000FFFC0008003FF0008001FFFF80007FFFFFFFFFF80001FF
310
FFFFFFFF80000FF8000001FFFE0000007FFFFFF0001FFFFFF8000FFFFFFFF800
310
0FF8000FFFFFFFF8000FFF0003FFFFFFFFFFFFFFFFFE0000F000FFFFFFFFE000
310
00FFFC000C003FE000C001FFFF80007FFFFFFFFFC00001FFFFFFFFFE00001FF8
310
000001FFFE0000007FFFFFF0001FFFFFF8000FFFFFFFF8000FF8000FFFFFFFF8
310
000FFF0003FFFFFFFFFFFFFFFFF00000F000FFFFFFFE000001FFFC000C001FE0
310
00C000FFFF80007FFFFFFFFE000001FFFFFFFFE000001FF80FFFFFFFFFFFFFC0
310
7FFFFFF0001FFFFFF8000FFFFFFFF8000FF8000FFFFFFFF8000FFF0003FFFFFF
310
FFFFFFFFFF800000F000FFFFFFC0000001FFFC001C001FE001C000FFFF80007F
310
FFFFFF80000003FFFFFFF80000001FF80FFFFFFFFFFFFFC07FFFFFF0001FFFFF
310
F8001FFFFFFFFC000FF8001FFFFFFFFC000FFF0003FFFFFFFFFFFFFFF0000001
310
F000FFFFF800000001FFF8001C001FE001C000FFFF80007FFFFFF800000003FF
310
FFFF800000003FF80FFFFFFFFFFFFFC07FFFFFF0001FFFFFF8001FFFFFFFFC00
310
0FF8001FFFFFFFFC000FFF0003FFFFFFFFFFFFFE00000001F000FFFFC0000000
310
03FFF8001E001FC001E000FFFF80007FFFFF8000000007FFFFFC000000003FF8
310
0FFFFFFFFFFFFFC07FFFFFF0001FFFFFF8001FFFFFFFFC000FF8001FFFFFFFFC
310
000FFF0003FFFFFFFFFFFFE000000003F000FFFE0000000007FFF8001E000FC0
310
01E0007FFF80007FFFFE0000000007FFFFE0000000007FF80FFFFFFFFFFFFFC0
310
7FFFFFF0001FFFFFF0001FFFFFFFFC0007F0001FFFFFFFFC0007FF0003FFFFFF
310
FFFFFF0000000003F000FFF80000000007FFF8001E000FC003E0007FFF80007F
310
FFF0000000000FFFFF8000000000FFF80FFFFFFFFFFFFFC07FFFFFF0001FFFFF
310
F0001FFFFFFFFC0007F0001FFFFFFFFC0007FF0003FFFFFFFFFFFC0000000007
310
F000FFE0000000000FFFF0003E000FC003E0007FFF80007FFFC0000000001FFF
310
FE0000000001FFF80FFFFFFFFFFFFFC07FFFFFF0001FFFFFF0001FFFFFFFFC00
310
07F0001FFFFFFFFC0007FF0003FFFFFFFFFFF0000000000FF000FFC000000000
310
1FFFF0003F000F8003F0003FFF80007FFF80000000003FFFF80000000003FFF8
310
0FFFFFFFFFFFFFC07FFFFFF0001FFFFFF0001FFFFFFFFC0007F0001FFFFFFFFC
310
0007FF0003FFFFFFFFFFE0000000001FF000FF00000000007FFFF0003F000780
310
03F0003FFF80007FFF00000000007FFFF00000000007FFF80FFFFFFFFFFFFFC0
310
7FFFFFF0001FFFFFF0001FFFFFFFFC0007F0001FFFFFFFFC0007FF0003FFFFFF
310
FFFF80000000007FF000FE0000000000FFFFE0003F00078007F0003FFF80007F
310
FE0000000001FFFFE0000000001FFFF80FFFFFFFFFFFFFC07FFFFFF0001FFFFF
310
F0001FFFFFFFFC0007F0001FFFFFFFFC0007FF0003FFFFFFFFFF0000000000FF
310
F000FC0000000003FFFFE0007F00078007F0003FFF80007FFC0000000007FFFF
310
C0000000007FFFF80FFFFFFFFFFFFFC07FFFFFF0001FFFFFF8001FFFFFFFFC00
310
0FF8001FFFFFFFFC000FFF0003FFFFFFFFFE0000000003FFF000FC000000000F
310
FFFFE0007F80070007F8001FFF80007FF8000000001FFFFF8000000001FFFFF8
310
0FFFFFFFFFFFFFC07FFFFFF0001FFFFFF8001FFFFFFFFC000FF8001FFFFFFFFC
310
000FFF0003FFFFFFFFFC000000000FFFF000F8000000007FFFFFE0007F800700
310
07F8001FFF80007FF000000000FFFFFF800000000FFFFFF80FFFFFFFFFFFFFC0
310
7FFFFFF0001FFFFFF8000FFFFFFFF8000FF8000FFFFFFFF8000FFF0003FFFFFF
310
FFFC000000007FFFF000F800000007FFFFFFC0007F8003000FF8001FFF80007F
310
F000000007FFFFFF000000007FFFFFF80FFFFFFFFFFFFFC07FFFFFF0001FFFFF
310
F8000FFFFFFFF8000FF8000FFFFFFFF8000FFF0003FFFFFFFFF80000000FFFFF
310
F000F0000000FFFFFFFFC000FF8003000FF8001FFF80007FE0000000FFFFFFFF
310
0000000FFFFFFFF8000001FFFE0000007FFFFFF0001FFFFFF8000FFFFFFFF800
310
0FF8000FFFFFFFF8000FFF0003FFFFFFFFF8000000FFFFFFF000F000000FFFFF
310
FFFFC000FFC002000FF8000FFF80007FE000001FFFFFFFFE000001FFFFFFFFF8
310
000001FFFE0000007FFFFFF0001FFFFFF8000FFFFFFFF8000FF8000FFFFFFFF8
310
000FFF0003FFFFFFFFF000001FFFFFFFF000E00000FFFFFFFFFFC000FFC00200
310
0FFC000FFF80007FE00001FFFFFFFFFE00001FFFFFFFFFF8000001FFFE000000
310
7FFFFFF0001FFFFFFC000FFFFFFFF8001FFC000FFFFFFFF8001FFF0003FFFFFF
310
FFF00001FFFFFFFFF000E00007FFFFFFFFFF8000FFC000001FFC000FFF80007F
310
C0000FFFFFFFFFFE0000FFFFFFFFFFF8000001FFFE0000007FFFFFF0001FFFFF
310
FC0007FFFFFFF0001FFC0007FFFFFFF0001FFF0003FFFFFFFFF00007FFFFFFFF
310
F000E0001FFFFFFFFFFF8000FFC000001FFC000FFF80007FC0003FFFFFFFFFFE
310
0001FFFFFFFFFFF8000001FFFE0000007FFFFFF0001FFFFFFC0007FFFFFFF000
310
1FFC0007FFFFFFF0001FFF0003FFFFFFFFF0001FFFFFFFFFF000E0003FFFFF00
310
03FF8001FFE000001FFC0007FF80007FC0007FFFFF0007FC0003FFFFF0003FF8
310
000001FFFE0000007FFFFFF0001FFFFFFC0003FFFFFFE0001FFC0003FFFFFFE0
310
001FFF0003FFFFFFFFF0003FFFFFFFFFF000E0003FFFFF0001FF8001FFE00000
310
1FFE0007FF80007FC0007FFFFE0003FC0007FFFFE0003FF8000001FFFE000000
310
7FFFFFF0001FFFFFFE0003FFFFFFE0003FFE0003FFFFFFE0003FFF0003FFFFFF
310
FFF0003FFFFF8001F000E0003FFFFF0001FF0001FFE000001FFE0007FF80007F
310
C0007FFFFE0003FC0007FFFFE0003FF8000001FFFE0000007FFFFFF0001FFFFF
310
FE0001FFFFFFC0003FFE0001FFFFFFC0003FFF0003FFFFFFFFF0003FFFFF0001
310
F000E0003FFFFF0003FF0001FFE000003FFE0007FF80007FC0007FFFFE0003FC
310
0007FFFFE0003FF8000001FFFE0000007FFFFFF0001FFFFFFF0001FFFFFFC000
310
7FFF0001FFFFFFC0007FFF0003FFFFFFFFF0003FFFFF0001F000E0003FFFFE00
310
03FF0003FFF000003FFE0003FF80007FC0007FFFFC0003FE0007FFFFE0003FF8
310
000001FFFE0000007FFFFFF0001FFFFFFF0000FFFFFF80007FFF0000FFFFFF80
310
007FFF0003FFFFFFFFF0003FFFFF0001F000E0003FFFFE0003FF0003FFF00000
310
3FFF0003FF80007FC0007FFFFC0007FE0007FFFFC0003FF8000001FFFE000000
310
7FFFFFF0001FFFFFFF80007FFFFF0000FFFF80007FFFFF0000FFFF0003FFFFFF
310
FFF0003FFFFF0003F000E0003FFFFC0003FE0003FFF000003FFF0003FF80007F
310
E0003FFFF80007FE0003FFFFC0007FF8000001FFFE0000007FFFFFF0001FFFFF
310
FF80003FFFFE0000FFFF80003FFFFE0000FFFF0003FFFFFFFFF0001FFFFE0003
310
F000F0001FFFF80003FE0003FFF000007FFF0001FF80007FE0003FFFF00007FE
310
0001FFFF80007FF8000001FFFE0000007FFFFFF0001FFFFFFFC0000FFFF80001
310
FFFFC0000FFFF80001FFFF0003FFFFFFFFF0001FFFFC0003F000F0000FFFF000
310
07FE0007FFF800007FFF0001FF80007FE0001FFFE00007FF0000FFFE00007FF8
310
000001FFFE0000007FFFFFF0001FFFFFFFC00003FFE00001FFFFC00003FFE000
310
01FFFF0003FFFFFFFFF8000FFFF80003F000F00003FFC00007FC0007FFF80000
310
7FFF8001FF80007FF00007FF80000FFF00007FF80000FFF8000001FFFE000000
310
7F80000000000001FFE000003E000003FFFFE000003E000003FFFF0003FFFFFF
310
FFF80003FFE00007F000F800000000000FFC0007FFF800007FFF8001FF80007F
310
F000000000000FFF000000000000FFF8000001FFFE0000007F80000000000001
310
FFF0000000000007FFFFF0000000000007FFFF0003FFFFFFFFFC00007E000007
310
F000F800000000000FFC0007FFF80000FFFF8000FF80007FF800000000001FFF
310
800000000001FFF8000001FFFE0000007F80000000000001FFF800000000000F
310
FFFFF800000000000FFFFF0003FFFFFFFFFC00000000000FF000FC0000000000
310
1FFC0007FFFC0000FFFF8000FF80007FF800000000003FFFC00000000001FFF8
310
000001FFFE0000007F80000000000001FFF800000000000FFFFFF80000000000
310
0FFFFF0003FFFFFFFFFE00000000001FF000FE00000000003FF8000FFFFC0000
310
FFFF8000FF80007FFC00000000003FFFC00000000003FFF8000001FFFE000000
310
7F80000000000001FFFC00000000001FFFFFFC00000000001FFFFF0003FFFFFF
310
FFFF00000000001FF000FF00000000003FF8000FFFFC0000FFFFC000FF80007F
310
FE00000000007FFFE00000000007FFF8000001FFFE0000007F80000000000001
310
FFFE00000000003FFFFFFE00000000003FFFFF0003FFFFFFFFFF80000000003F
310
F000FF80000000007FF8000FFFFC0001FFFFC0007F80007FFF0000000000FFFF
310
F0000000000FFFF800000000000000007F80000000000001FFFF8000000000FF
310
FFFFFF8000000000FFFFFF0003FFFFFFFFFFC0000000007FF000FFC000000000
310
FFF8000FFFFE0001FFFFC0007F80007FFF8000000001FFFFF8000000001FFFF8
310
00000000000000007F80000000000001FFFFC000000001FFFFFFFFC000000001
310
FFFFFF0003FFFFFFFFFFE000000000FFF000FFE000000003FFF0001FFFFE0001
310
FFFFC0007F80007FFFC000000007FFFFFE000000003FFFF80000000000000000
310
7F80000000000001FFFFE000000003FFFFFFFFE000000003FFFFFF0003FFFFFF
310
FFFFF000000003FFF000FFF80000000FFFF0001FFFFE0001FFFFE0007F80007F
310
FFF00000000FFFFFFF00000000FFFFF800000000000000007F80000000000001
310
FFFFF80000000FFFFFFFFFF80000000FFFFFFF0003FFFFFFFFFFFC0000000FFF
310
F000FFFE0000003FFFF0001FFFFE0003FFFFE0003F80007FFFFC0000003FFFFF
310
FFC0000003FFFFF800000000000000007F80000000000001FFFFFE0000003FFF
310
FFFFFFFE0000003FFFFFFF0003FFFFFFFFFFFF0000003FFFF000FFFF800000FF
310
FFF0001FFFFF0003FFFFE0003F80007FFFFF000001FFFFFFFFF800001FFFFFF8
310
00000000000000007F80000000000001FFFFFFC00001FFFFFFFFFFFFC00001FF
310
FFFFFF0003FFFFFFFFFFFFC00000FFFFF000FFFFF8000FFFFFFFFFFFFFFFFFFF
310
FFFFFFFFFFFFFFFFFFFFF0001FFFFFFFFFFF0000FFFFFFF80000000000000000
310
7FFFFFFFFFFFFFFFFFFFFFFC001FFFFFFFFFFFFFFC001FFFFFFFFFFFFFFFFFFF
310
FFFFFFFC001FFFFFF000FFFFFFFFFFFFFFFFFFFFFFFFFFFFFFFFFFFFFFFFFFFF
310
FFFFFFFFFFFFFFFFFFFFFFFFFFFFFFFFFFFFFFFFFFFFFFFFFFFFFFFFFFFFFFFF
310
FFFFFFFFFFFFFFFFFFFFFFFFFFFFFFFFFFFFFFFFFFFFFFFFFFFFFFFFFFFFFFFF
310
F000FFFFFFFFFFFFFFFFFFFFFFFFFFFFFFFFFFFFFFFFFFFFFFFFFFFFFFFFFFFF
310
FFFFFFFFFFFFFFFFFFFFFFFFFFFFFFFFFFFFFFFFFFFFFFFFFFFFFFFFFFFFFFFF
310
FFFFFFFFFFFFFFFFFFFFFFFFFFFFFFFFFFFFFFFFFFFFFFFFF000FFFFFFFFFFFF
310
FFFFFFFFFFFFFFFFFFFFFFFFFFFFFFFFFFFFFFFFFFFFFFFFFFFFFFFFFFFFFFFF
310
FFFFFFFFFFFFFFFFFFFFFFFFFFFFFFFFFFFFFFFFFFFFFFFFFFFFFFFFFFFFFFFF
310
FFFFFFFFFFFFFFFFFFFFFFFFFFFFFFFFF000FFFFFFFFFFFFFFFFFFFFFFFFFFFF
310
FFFFFFFFFFFFFFFFFFFFFFFFFFFFFFFFFFFFFFFFFFFFFFFFFFFFFFFFFFFFFFFF
310
FFFFFFFFFFFFFFFFFFFFFFFFFFFFFFFFFFFFFFFFFFFFFFFFFFFFFFFFFFFFFFFF
310
FFFFFFFFFFFFFFFFF000FFFFFFFFFFFFFFFFFFFFFFFFFFFFFFFFFFFFFFFFFFFF
310
FFFFFFFFFFFFFFFFFFFFFFFFFFFFFFFFFFFFFFFFFFFFFFFFFFFFFFFFFFFFFFFF
310
FFFFFFFFFFFFFFFFFFFFFFFFFFFFFFFFFFFFFFFFFFFFFFFFFFFFFFFFFFFFFFFF
310
F000FFFFFFFFFFFFFFFFFFFFFFFFFFFFFFFFFFFFFFFFFFFFFFFFFFFFFFFFFFFF
310
FFFFFFFFFFFFFFFFFFFFFFFFFFFFFFFFFFFFFFFFFFFFFFFFFFFFFFFFFFFFFFFF
310
FFFFFFFFFFFFFFFFFFFFFFFFFFFFFFFFFFFFFFFFFFFFFFFFF000FFFFFFFFFFFF
310
FFFFFFFFFFFFFFFFFFFFFFFFFFFFFFFFFFFFFFFFFFFFFFFFFFFFFFFFFFFFFFFF
310
FFFFFFFFFFFFFFFFFFFFFFFFFFFFFFFFFFFFFFFFFFFFFFFFFFFFFFFFFFFFFFFF
310
FFFFFFFFFFFFFFFFFFFFFFFFFFFFFFFFF000FFFFFFFFFFFFFFFFFFFFFFFFFFFF
310
FFFFFFFFFFFFFFFFFFFFFFFFFFFFFFFFFFFFFFFFFFFFFFFFFFFFFFFFFFFFFFFF
310
FFFFFFFFFFFFFFFFFFFFFFFFFFFFFFFFFFFFFFFFFFFFFFFFFFFFFFFFFFFFFFFF
310
FFFFFFFFFFFFFFFFF000FFFFFFFFFFFFFFFFFFFFFFFFFFFFFFFFFFFFFFFFFFFF
310
FFFFFFFFFFFFFFFFFFFFFFFFFFFFFFFFFFFFFFFFFFFFFFFFFFFFFFFFFFFFFFFF
310
FFFFFFFFFFFFFFFFFFFFFFFFFFFFFFFFFFFFFFFFFFFFFFFFFFFFFFFFFFFFFFFF
310
F000FFFFFFFFFFFFFFFFFFFFFFFFFFFFFFFFFFFFFFFFFFFFFFFFFFFFFFFFFFFF
310
FFFFFFFFFFFFFFFFFFFFFFFFFFFFFFFFFFFFFFFFFFFFFFFFFFFFFFFFFFFFFFFF
310
FFFFFFFFFFFFFFFFFFFFFFFFFFFFFFFFFFFFFFFFFFFFFFFFF000FFFFFFFFFFFF
310
FFFFFFFFFFFFFFFFFFFFFFFFFFFFFFFFFFFFFFFFFFFFFFFFFFFFFFFFFFFFFFFF
310
FFFFFFFFFFFFFFFFFFFFFFFFFFFFFFFFFFFFFFFFFFFFFFFFFFFFFFFFFFFFFFFF
310
FFFFFFFFFFFFFFFFFFFFFFFFFFFFFFFFF000FFFFFFFFFFFFFFFFFFFFFFFFFFFF
310
FFFFFFFFFFFFFFFFFFFFFFFFFFFFFFFFFFFFFFFFFFFFFFFFFFFFFFFFFFFFFFFF
310
FFFFFFFFFFFFFFFFFFFFFFFFFFFFFFFFFFFFFFFFFFFFFFFFFFFFFFFFFFFFFFFF
310
FFFFFFFFFFFFFFFFF000FFFFFFFFFFFFFFFFFFFFFFFFFFFFFFFFFFFFFFFFFFFF
310
FFFFFFFFFFFFFFFFFFFFFFFFFFFFFFFFFFFFFFFFFFFFFFFFFFFFFFFFFFFFFFFF
310
FFFFFFFFFFFFFFFFFFFFFFFFFFFFFFFFFFFFFFFFFFFFFFFFFFFFFFFFFFFFFFFF
310
F000FFFFFFFFFFFFFFFFFFFFFFFFFFFFFFFFFFFFFFFFFFFFFFFFFFFFFFFFFFFF
310
FFFFFFFFFFFFFFFFFFFFFFFFFFFFFFFFFFFFFFFFFFFFFFFFFFFFFFFFFFFFFFFF
310
FFFFFFFFFFFFFFFFFFFFFFFFFFFFFFFFFFFFFFFFFFFFFFFFF000FFFFFFFFFFFF
310
FFFFFFFFFFFFFFFFFFFFFFFFFFFFFFFFFFFFFFFFFFFFFFFFFFFFFFFFFFFFFFFF
310
FFFFFFFFFFFFFFFFFFFFFFFFFFFFFFFFFFFFFFFFFFFFFFFFFFFFFFFFFFFFFFFF
310
FFFFFFFFFFFFFFFFFFFFFFFFFFFFFFFFF000FFFFFFFFFFFFFFFFFFFFFFFFFFFF
310
FFFFFFFFFFFFFFFFFFFFFFFFFFFFFFFFFFFFFFFFFFFFFFFFFFFFFFFFFFFFFFFF
310
FFFFFFFFFFFFFFFFFFFFFFFFFFFFFFFFFFFFFFFFFFFFFFFFFFFFFFFFFFFFFFFF
310
FFFFFFFFFFFFFFFFF000FFFFFFFFFFFFFFFFFFFFFFFFFFFFFFFFFFFFFFFFFFFF
310
FFFFFFFFFFFFFFFFFFFFFFFFFFFFFFFFFFFFFFFFFFFFFFFFFFFFFFFFFFFFFFFF
310
FFFFFFFFFFFFFFFFFFFFFFFFFFFFFFFFFFFFFFFFFFFFFFFFFFFFFFFFFFFFFFFF
310
F000FFFFFFFFFFFFFFFFFFFFFFFFFFFFFFFFFFFFFFFFFFFFFFFFFFFFFFFFFFFF
310
FFFFFFFFFFFFFFFFFFFFFFFFFFFFFFFFFFFFFFFFFFFFFFFFFFFFFFFFFFFFFFFF
310
FFFFFFFFFFFFFFFFFFFFFFFFFFFFFFFFFFFFFFFFFFFFFFFFF000FFFFFFFFFFFF
310
FFFFFFFFFFFFFFFFFFFFFFFFFFFFFFFFFFFFFFFFFFFFFFFFFFFFFFFFFFFFFFFF
310
FFFFFFFFFFFFFFFFFFFFFFFFFFFFFFFFFFFFFFFFFFFFFFFFFFFFFFFFFFFFFFFF
310
FFFFFFFFFFFFFFFFFFFFFFFFFFFFFFFFF000FFFFFFFFFFFFFFFFFFFFFFFFFFFF
310
FFFFFFFFFFFFFFFFFFFFFFFFFFFFFFFFFFFFFFFFFFFFFFFFFFFFFFFFFFFFFFFF
310
FFFFFFFFFFFFFFFFFFFFFFFFFFFFFFFFFFFFFFFFFFFFFFFFFFFFFFFFFFFFFFFF
310
FFFFFFFFFFFFFFFFF000FFFFFFFFFFFFFFFFFFFFFFFFFFFFFFFFFFFFFFFFFFFF
310
FFFFFFFFFFFFFFFFFFFFFFFFFFFFFFFFFFFFFFFFFFFFFFFFFFFFFFFFFFFFFFFF
310
FFFFFFFFFFFFFFFFFFFFFFFFFFFFFFFFFFFFFFFFFFFFFFFFFFFFFFFFFFFFFFFF
310
F000FFFFFFFFFFFFFFFFFFFFFFFFFFFFFFFFFFFFFFFFFFFFFFFFFFFFFFFFFFFF
310
FFFFFFFFFFFFFFFFFFFFFFFFFFFFFFFFFFFFFFFFFFFFFFFFFFFFFFFFFFFFFFFF
310
FFFFFFFFFFFFFFFFFFFFFFFFFFFFFFFFFFFFFFFFFFFFFFFFF000FFFFFFFFFFFF
310
FFFFFFFFFFFFFFFFFFFFFFFFFFFFFFFFFFFFFFFFFFFFFFFFFFFFFFFFFFFFFFFF
310
FFFFFFFFFFFFFFFFFFFFFFFFFFFFFFFFFFFFFFFFFFFFFFFFFFFFFFFFFFFFFFFF
310
FFFFFFFFFFFFFFFFFFFFFFFFFFFFFFFFF0000000000000000000000000000000
310
0000000000000000000000000000000000000000000000000000000000000000
310
0000000000000000000000000000000000000000000000000000000000000000
310
0000000000000000000000000000000000000000000000000000000000000000
310
0000000000000000000000000000000000000000000000000000000000000000
310
0000000000000000000000000000000000000000000000000000000000000000
310
0000000000000000000000000000000000000000000000000000000000000000
310
0000000000000000000000000000000000000000000000000000000000000000
310
0000000000000000000000000000000000000000000000000000000000000000
310
0000000000000000000000000000000000000000000000000000000000000000
310
0000000000000000000000000000000000000000000000000000000000000000
310
0000000000000000000000000000000000000000000000000000000000000000
310
0000000000000000000000000000000000000000000000000000000000000000
310
0000000000000000000000000000000000000000000000000000000000000000
310
0000000000000000000000000000000000000000000000000000000000000000
310
0000000000000000000000000000000000000000000000000000000000000000
  1
OLE
  0
ENDSEC
  0
SECTION
  2
OBJECTS
  0
DICTIONARY
  5
C
330
0
100
AcDbDictionary
281
     1
  3
ACAD_GROUP
350
D
  3
ACAD_LAYOUT
350
1A
  3
ACAD_MLINESTYLE
350
17
  3
ACAD_PLOTSETTINGS
350
19
  3
ACAD_PLOTSTYLENAME
350
E
  0
DICTIONARY
  5
D
102
{ACAD_REACTORS
330
C
102
}
330
C
100
AcDbDictionary
281
     1
  0
DICTIONARY
  5
1A
102
{ACAD_REACTORS
330
C
102
}
330
C
100
AcDbDictionary
281
     1
  3
Layout1
350
1E
  3
Layout2
350
26
  3
Model
350
22
  0
DICTIONARY
  5
17
102
{ACAD_REACTORS
330
C
102
}
330
C
100
AcDbDictionary
281
     1
  3
Standard
350
18
  0
DICTIONARY
  5
19
102
{ACAD_REACTORS
330
C
102
}
330
C
100
AcDbDictionary
281
     1
  0
ACDBDICTIONARYWDFLT
  5
E
102
{ACAD_REACTORS
330
C
102
}
330
C
100
AcDbDictionary
281
     1
  3
Normal
350
F
100
AcDbDictionaryWithDefault
340
F
  0
LAYOUT
  5
1E
102
{ACAD_REACTORS
330
1A
102
}
330
1A
100
AcDbPlotSettings
  1

  2
none_device
  4

  6

 40
0.0
 41
0.0
 42
0.0
 43
0.0
 44
0.0
 45
0.0
 46
0.0
 47
0.0
 48
0.0
 49
0.0
140
0.0
141
0.0
142
1.0
143
1.0
 70
   688
 72
     0
 73
     0
 74
     5
  7

 75
    16
147
1.0
148
0.0
149
0.0
100
AcDbLayout
  1
Layout1
 70
     1
 71
     1
 10
0.0
 20
0.0
 11
420.0
 21
297.0
 12
0.0
 22
0.0
 32
0.0
 14
1.0000000000E+20
 24
1.0000000000E+20
 34
1.0000000000E+20
 15
-1.0000000000E+20
 25
-1.0000000000E+20
 35
-1.0000000000E+20
146
0.0
 13
0.0
 23
0.0
 33
0.0
 16
1.0
 26
0.0
 36
0.0
 17
0.0
 27
1.0
 37
0.0
 76
     0
330
1B
  0
LAYOUT
  5
26
102
{ACAD_REACTORS
330
1A
102
}
330
1A
100
AcDbPlotSettings
  1

  2
none_device
  4

  6

 40
0.0
 41
0.0
 42
0.0
 43
0.0
 44
0.0
 45
0.0
 46
0.0
 47
0.0
 48
0.0
 49
0.0
140
0.0
141
0.0
142
1.0
143
1.0
 70
   688
 72
     0
 73
     0
 74
     5
  7

 75
    16
147
1.0
148
0.0
149
0.0
100
AcDbLayout
  1
Layout2
 70
     1
 71
     2
 10
0.0
 20
0.0
 11
0.0
 21
0.0
 12
0.0
 22
0.0
 32
0.0
 14
0.0
 24
0.0
 34
0.0
 15
0.0
 25
0.0
 35
0.0
146
0.0
 13
0.0
 23
0.0
 33
0.0
 16
1.0
 26
0.0
 36
0.0
 17
0.0
 27
1.0
 37
0.0
 76
     0
330
23
  0
LAYOUT
  5
22
102
{ACAD_REACTORS
330
1A
102
}
330
1A
100
AcDbPlotSettings
  1

  2
none_device
  4

  6

 40
0.0
 41
0.0
 42
0.0
 43
0.0
 44
0.0
 45
0.0
 46
0.0
 47
0.0
 48
0.0
 49
0.0
140
0.0
141
0.0
142
1.0
143
1.0
 70
  1712
 72
     0
 73
     0
 74
     0
  7

 75
     0
147
1.0
148
0.0
149
0.0
100
AcDbLayout
  1
Model
 70
     1
 71
     0
 10
0.0
 20
0.0
 11
297.0
 21
210.0
 12
0.0
 22
0.0
 32
0.0
 14
0.0
 24
0.0
 34
0.0
 15
297.0
 25
210.0
 35
0.0
146
0.0
 13
0.0
 23
0.0
 33
0.0
 16
1.0
 26
0.0
 36
0.0
 17
0.0
 27
1.0
 37
0.0
 76
     0
330
1F
331
29
  0
MLINESTYLE
  5
18
102
{ACAD_REACTORS
330
17
102
}
330
17
100
AcDbMlineStyle
  2
Standard
 70
     0
  3

 62
   256
 51
90.0
 52
90.0
 71
     2
 49
0.5
 62
   256
  6
BYLAYER
 49
-0.5
 62
   256
  6
BYLAYER
  0
ACDBPLACEHOLDER
  5
F
102
{ACAD_REACTORS
330
E
102
}
330
E
  0
ENDSEC
  0
EOF
