  0
SECTION
  2
HEADER
  9
$ACADVER
  1
AC1015
  9
$ACADMAINTVER
 70
     6
  9
$DWGCODEPAGE
  3
ANSI_1252
  9
$INSBASE
 10
0.0
 20
0.0
 30
0.0
  9
$EXTMIN
 10
0.0
 20
0.0
 30
0.0
  9
$EXTMAX
 10
297.0
 20
210.0
 30
0.0
  9
$LIMMIN
 10
0.0
 20
0.0
  9
$LIMMAX
 10
297.0
 20
210.0
  9
$ORTHOMODE
 70
     0
  9
$REGENMODE
 70
     1
  9
$FILLMODE
 70
     1
  9
$QTEXTMODE
 70
     0
  9
$MIRRTEXT
 70
     1
  9
$LTSCALE
 40
1.0
  9
$ATTMODE
 70
     1
  9
$TEXTSIZE
 40
2.0
  9
$TRACEWID
 40
1.0
  9
$TEXTSTYLE
  7
Standard
  9
$CLAYER
  8
0
  9
$CELTYPE
  6
ByLayer
  9
$CECOLOR
 62
   256
  9
$CELTSCALE
 40
1.0
  9
$DISPSILH
 70
     0
  9
$DIMSCALE
 40
1.0
  9
$DIMASZ
 40
3.0
  9
$DIMEXO
 40
0.0
  9
$DIMDLI
 40
3.75
  9
$DIMRND
 40
0.0
  9
$DIMDLE
 40
0.0
  9
$DIMEXE
 40
1.0
  9
$DIMTP
 40
0.0
  9
$DIMTM
 40
0.0
  9
$DIMTXT
 40
2.0
  9
$DIMCEN
 40
2.5
  9
$DIMTSZ
 40
0.0
  9
$DIMTOL
 70
     0
  9
$DIMLIM
 70
     0
  9
$DIMTIH
 70
     1
  9
$DIMTOH
 70
     1
  9
$DIMSE1
 70
     0
  9
$DIMSE2
 70
     0
  9
$DIMTAD
 70
     1
  9
$DIMZIN
 70
     0
  9
$DIMBLK
  1

  9
$DIMASO
 70
     1
  9
$DIMSHO
 70
     1
  9
$DIMPOST
  1

  9
$DIMAPOST
  1

  9
$DIMALT
 70
     0
  9
$DIMALTD
 70
     3
  9
$DIMALTF
 40
0.0393700787
  9
$DIMLFAC
 40
1.0
  9
$DIMTOFL
 70
     1
  9
$DIMTVP
 40
0.0
  9
$DIMTIX
 70
     0
  9
$DIMSOXD
 70
     0
  9
$DIMSAH
 70
     0
  9
$DIMBLK1
  1

  9
$DIMBLK2
  1

  9
$DIMSTYLE
  2
ISO-25
  9
$DIMCLRD
 70
     0
  9
$DIMCLRE
 70
     0
  9
$DIMCLRT
 70
     0
  9
$DIMTFAC
 40
1.0
  9
$DIMGAP
 40
1.524
  9
$DIMJUST
 70
     0
  9
$DIMSD1
 70
     0
  9
$DIMSD2
 70
     0
  9
$DIMTOLJ
 70
     0
  9
$DIMTZIN
 70
     0
  9
$DIMALTZ
 70
     0
  9
$DIMALTTZ
 70
     0
  9
$DIMUPT
 70
     0
  9
$DIMDEC
 70
     2
  9
$DIMTDEC
 70
     3
  9
$DIMALTU
 70
     2
  9
$DIMALTTD
 70
     3
  9
$DIMTXSTY
  7
Standard
  9
$DIMAUNIT
 70
     0
  9
$DIMADEC
 70
     2
  9
$DIMALTRND
 40
0.0
  9
$DIMAZIN
 70
     0
  9
$DIMDSEP
 70
    44
  9
$DIMATFIT
 70
     3
  9
$DIMFRAC
 70
     0
  9
$DIMLDRBLK
  1

  9
$DIMLUNIT
 70
     2
  9
$DIMLWD
 70
    -2
  9
$DIMLWE
 70
    -2
  9
$DIMTMOVE
 70
     0
  9
$LUNITS
 70
     2
  9
$LUPREC
 70
     2
  9
$SKETCHINC
 40
1.0
  9
$FILLETRAD
 40
10.0
  9
$AUNITS
 70
     0
  9
$AUPREC
 70
     2
  9
$MENU
  1
.
  9
$ELEVATION
 40
0.0
  9
$PELEVATION
 40
0.0
  9
$THICKNESS
 40
0.0
  9
$LIMCHECK
 70
     0
  9
$CHAMFERA
 40
10.0
  9
$CHAMFERB
 40
10.0
  9
$CHAMFERC
 40
20.0
  9
$CHAMFERD
 40
0.0
  9
$SKPOLY
 70
     0
  9
$TDCREATE
 40
2455988.709916447
  9
$TDUCREATE
 40
2455988.66824978
  9
$TDUPDATE
 40
2455988.709916458
  9
$TDUUPDATE
 40
2455988.668249791
  9
$TDINDWG
 40
0.0000000116
  9
$TDUSRTIMER
 40
0.0000000116
  9
$USRTIMER
 70
     1
  9
$ANGBASE
 50
0.0
  9
$ANGDIR
 70
     0
  9
$PDMODE
 70
     0
  9
$PDSIZE
 40
-1.0
  9
$PLINEWID
 40
0.0
  9
$SPLFRAME
 70
     0
  9
$SPLINETYPE
 70
     6
  9
$SPLINESEGS
 70
     8
  9
$HANDSEED
  5
177
  9
$SURFTAB1
 70
     6
  9
$SURFTAB2
 70
     6
  9
$SURFTYPE
 70
     6
  9
$SURFU
 70
     6
  9
$SURFV
 70
     6
  9
$UCSBASE
  2

  9
$UCSNAME
  2

  9
$UCSORG
 10
0.0
 20
0.0
 30
0.0
  9
$UCSXDIR
 10
1.0
 20
0.0
 30
0.0
  9
$UCSYDIR
 10
0.0
 20
1.0
 30
0.0
  9
$UCSORTHOREF
  2

  9
$UCSORTHOVIEW
 70
     0
  9
$UCSORGTOP
 10
0.0
 20
0.0
 30
0.0
  9
$UCSORGBOTTOM
 10
0.0
 20
0.0
 30
0.0
  9
$UCSORGLEFT
 10
0.0
 20
0.0
 30
0.0
  9
$UCSORGRIGHT
 10
0.0
 20
0.0
 30
0.0
  9
$UCSORGFRONT
 10
0.0
 20
0.0
 30
0.0
  9
$UCSORGBACK
 10
0.0
 20
0.0
 30
0.0
  9
$PUCSBASE
  2

  9
$PUCSNAME
  2

  9
$PUCSORG
 10
0.0
 20
0.0
 30
0.0
  9
$PUCSXDIR
 10
1.0
 20
0.0
 30
0.0
  9
$PUCSYDIR
 10
0.0
 20
1.0
 30
0.0
  9
$PUCSORTHOREF
  2

  9
$PUCSORTHOVIEW
 70
     0
  9
$PUCSORGTOP
 10
0.0
 20
0.0
 30
0.0
  9
$PUCSORGBOTTOM
 10
0.0
 20
0.0
 30
0.0
  9
$PUCSORGLEFT
 10
0.0
 20
0.0
 30
0.0
  9
$PUCSORGRIGHT
 10
0.0
 20
0.0
 30
0.0
  9
$PUCSORGFRONT
 10
0.0
 20
0.0
 30
0.0
  9
$PUCSORGBACK
 10
0.0
 20
0.0
 30
0.0
  9
$USERI1
 70
     0
  9
$USERI2
 70
     0
  9
$USERI3
 70
     0
  9
$USERI4
 70
     0
  9
$USERI5
 70
     0
  9
$USERR1
 40
0.0
  9
$USERR2
 40
0.0
  9
$USERR3
 40
0.0
  9
$USERR4
 40
0.0
  9
$USERR5
 40
0.0
  9
$WORLDVIEW
 70
     1
  9
$SHADEDGE
 70
     3
  9
$SHADEDIF
 70
    70
  9
$TILEMODE
 70
     1
  9
$MAXACTVP
 70
    64
  9
$PINSBASE
 10
0.0
 20
0.0
 30
0.0
  9
$PLIMCHECK
 70
     0
  9
$PEXTMIN
 10
1.0000000000E+20
 20
1.0000000000E+20
 30
1.0000000000E+20
  9
$PEXTMAX
 10
-1.0000000000E+20
 20
-1.0000000000E+20
 30
-1.0000000000E+20
  9
$PLIMMIN
 10
0.0
 20
0.0
  9
$PLIMMAX
 10
420.0
 20
297.0
  9
$UNITMODE
 70
     0
  9
$VISRETAIN
 70
     1
  9
$PLINEGEN
 70
     0
  9
$PSLTSCALE
 70
     1
  9
$TREEDEPTH
 70
  3020
  9
$CMLSTYLE
  2
Standard
  9
$CMLJUST
 70
     0
  9
$CMLSCALE
 40
20.0
  9
$PROXYGRAPHICS
 70
     1
  9
$MEASUREMENT
 70
     1
  9
$CELWEIGHT
370
    -1
  9
$ENDCAPS
280
     0
  9
$JOINSTYLE
280
     0
  9
$LWDISPLAY
290
     1
  9
$INSUNITS
 70
     4
  9
$HYPERLINKBASE
  1

  9
$STYLESHEET
  1

  9
$XEDIT
290
     1
  9
$CEPSNTYPE
380
     0
  9
$PSTYLEMODE
290
     1
  9
$FINGERPRINTGUID
  2
{EDFFAED3-C21A-4386-9C11-0107EE516BF6}
  9
$VERSIONGUID
  2
{FAEB1C32-E019-11D5-929B-00C0DF256EC4}
  9
$EXTNAMES
290
     1
  9
$PSVPSCALE
 40
0.0
  9
$OLESTARTUP
290
     0
  0
ENDSEC
  0
SECTION
  2
CLASSES
  0
CLASS
  1
ACDBDICTIONARYWDFLT
  2
AcDbDictionaryWithDefault
  3
ObjectDBX Classes
 90
        0
280
     0
281
     0
  0
CLASS
  1
VISUALSTYLE
  2
AcDbVisualStyle
  3
ObjectDBX Classes
 90
     4095
280
     0
281
     0
  0
CLASS
  1
MATERIAL
  2
AcDbMaterial
  3
ObjectDBX Classes
 90
     1153
280
     0
281
     0
  0
CLASS
  1
ACDBPLACEHOLDER
  2
AcDbPlaceHolder
  3
ObjectDBX Classes
 90
        0
280
     0
281
     0
  0
CLASS
  1
LAYOUT
  2
AcDbLayout
  3
ObjectDBX Classes
 90
        0
280
     0
281
     0
  0
ENDSEC
  0
SECTION
  2
TABLES
  0
TABLE
  2
VPORT
  5
8
330
0
100
AcDbSymbolTable
 70
     1
  0
VPORT
  5
29
330
8
100
AcDbSymbolTableRecord
100
AcDbViewportTableRecord
  2
*Active
 70
     0
 10
0.0
 20
0.0
 11
1.0
 21
1.0
 12
148.5
 22
105.0
 13
0.0
 23
0.0
 14
10.0
 24
10.0
 15
10.0
 25
10.0
 16
0.0
 26
0.0
 36
1.0
 17
0.0
 27
0.0
 37
0.0
 40
210.0
 41
1.4142857143
 42
50.0
 43
0.0
 44
0.0
 50
0.0
 51
0.0
 71
     0
 72
  2000
 73
     1
 74
     3
 75
     0
 76
     0
 77
     0
 78
     0
281
     0
 65
     1
110
0.0
120
0.0
130
0.0
111
1.0
121
0.0
131
0.0
112
0.0
122
1.0
132
0.0
 79
     0
146
0.0
  0
ENDTAB
  0
TABLE
  2
LTYPE
  5
5
330
0
100
AcDbSymbolTable
 70
     6
  0
LTYPE
  5
14
330
5
100
AcDbSymbolTableRecord
100
AcDbLinetypeTableRecord
  2
ByBlock
 70
     0
  3

 72
    65
 73
     0
 40
0.0
  0
LTYPE
  5
15
330
5
100
AcDbSymbolTableRecord
100
AcDbLinetypeTableRecord
  2
ByLayer
 70
     0
  3

 72
    65
 73
     0
 40
0.0
  0
LTYPE
  5
16
330
5
100
AcDbSymbolTableRecord
100
AcDbLinetypeTableRecord
  2
Continuous
 70
     0
  3
Solid line
 72
    65
 73
     0
 40
0.0
  0
LTYPE
  5
3F
330
5
100
AcDbSymbolTableRecord
100
AcDbLinetypeTableRecord
  2
HIDDEN
 70
     0
  3
Hidden __ __ __ __ __ __ __ __ __ __ __ __ __ __
 72
    65
 73
     2
 40
1.905
 49
1.27
 74
     0
 49
-0.635
 74
     0
  0
LTYPE
  5
40
330
5
100
AcDbSymbolTableRecord
100
AcDbLinetypeTableRecord
  2
PHANTOM
 70
     0
  3
Phantom ______  __  __  ______  __  __  ______
 72
    65
 73
     6
 40
12.7
 49
6.35
 74
     0
 49
-1.27
 74
     0
 49
1.27
 74
     0
 49
-1.27
 74
     0
 49
1.27
 74
     0
 49
-1.27
 74
     0
  0
LTYPE
  5
41
330
5
100
AcDbSymbolTableRecord
100
AcDbLinetypeTableRecord
  2
CENTER
 70
     0
  3
Center ____ _ ____ _ ____ _ ____ _ ____ _ ____
 72
    65
 73
     4
 40
10.16
 49
6.35
 74
     0
 49
-1.27
 74
     0
 49
1.27
 74
     0
 49
-1.27
 74
     0
  0
LTYPE
  5
42
330
5
100
AcDbSymbolTableRecord
100
AcDbLinetypeTableRecord
  2
CENTERX2
 70
     0
  3
Center (2x) ________  __  ________  __  _____
 72
    65
 73
     4
 40
20.32
 49
12.7
 74
     0
 49
-2.54
 74
     0
 49
2.54
 74
     0
 49
-2.54
 74
     0
  0
LTYPE
  5
43
330
5
100
AcDbSymbolTableRecord
100
AcDbLinetypeTableRecord
  2
DOT2
 70
     0
  3
Dot (.5x) ........................................
 72
    65
 73
     2
 40
0.635
 49
0.0
 74
     0
 49
-0.635
 74
     0
  0
ENDTAB
  0
TABLE
  2
LAYER
  5
2
330
0
100
AcDbSymbolTable
 70
     5
  0
LAYER
  5
10
330
2
100
AcDbSymbolTableRecord
100
AcDbLayerTableRecord
  2
0
 70
     0
 62
     7
  6
Continuous
370
    -3
390
F
  0
LAYER
  5
44
330
2
100
AcDbSymbolTableRecord
100
AcDbLayerTableRecord
  2
FORMAT
 70
     0
 62
     7
  6
Continuous
370
    -3
390
F
  0
LAYER
  5
45
330
2
100
AcDbSymbolTableRecord
100
AcDbLayerTableRecord
  2
VERMASSUNG
 70
     0
 62
     7
  6
Continuous
370
    -3
390
F
  0
LAYER
  5
46
330
2
100
AcDbSymbolTableRecord
100
AcDbLayerTableRecord
  2
KOPF_DÜNN
 70
     0
 62
     7
  6
Continuous
370
    -3
390
F
  0
LAYER
  5
47
330
2
100
AcDbSymbolTableRecord
100
AcDbLayerTableRecord
  2
KOPF_DICK
 70
     0
 62
     7
  6
Continuous
370
    15
390
F
  0
ENDTAB
  0
TABLE
  2
STYLE
  5
3
330
0
100
AcDbSymbolTable
 70
     2
  0
STYLE
  5
11
330
3
100
AcDbSymbolTableRecord
100
AcDbTextStyleTableRecord
  2
Standard
 70
     0
 40
0.0
 41
1.0
 50
0.0
 71
     0
 42
2.5
  3
txt
  4

  0
STYLE
  5
48
330
3
100
AcDbSymbolTableRecord
100
AcDbTextStyleTableRecord
  2
SLDTEXTSTYLE0
 70
     0
 40
0.0
 41
0.7
 50
0.0
 71
     0
 42
0.2
  3
TXT
  4

  0
ENDTAB
  0
TABLE
  2
VIEW
  5
6
330
0
100
AcDbSymbolTable
 70
     0
  0
ENDTAB
  0
TABLE
  2
UCS
  5
7
330
0
100
AcDbSymbolTable
 70
     0
  0
ENDTAB
  0
TABLE
  2
APPID
  5
9
330
0
100
AcDbSymbolTable
 70
     1
  0
APPID
  5
12
330
9
100
AcDbSymbolTableRecord
100
AcDbRegAppTableRecord
  2
ACAD
 70
     0
  0
ENDTAB
  0
TABLE
  2
DIMSTYLE
  5
A
330
0
100
AcDbSymbolTable
 70
     3
100
AcDbDimStyleTable
  0
DIMSTYLE
105
27
330
A
100
AcDbSymbolTableRecord
100
AcDbDimStyleTableRecord
  2
ISO-25
 70
     0
 41
2.5
 42
0.625
 43
3.75
 44
1.25
 73
     0
 74
     0
 77
     1
 78
     8
140
2.5
141
2.5
143
0.0393700787
147
0.625
171
     3
172
     1
178
     0
271
     2
272
     2
274
     3
278
    44
283
     0
284
     8
340
11
  0
DIMSTYLE
105
154
102
{ACAD_REACTORS
330
153
102
}
330
A
100
AcDbSymbolTableRecord
100
AcDbDimStyleTableRecord
  2
SLDDIMSTYLE0
 70
     0
 41
3.0
 44
0.0
 45
0.000000001
 73
     0
 74
     0
 77
     1
 78
    12
 79
     3
140
2.0
147
0.5
173
     1
178
     0
271
     2
272
     3
276
     2
284
    12
340
48
  0
DIMSTYLE
105
15F
102
{ACAD_REACTORS
330
15E
330
169
102
}
330
A
100
AcDbSymbolTableRecord
100
AcDbDimStyleTableRecord
  2
SLDDIMSTYLE1
 70
     0
 41
3.0
 44
0.0
 45
0.000000001
 73
     0
 74
     0
 77
     1
 78
    12
 79
     3
140
2.0
147
0.5
173
     1
178
     0
271
     2
272
     3
276
     2
284
    12
340
48
  0
ENDTAB
  0
TABLE
  2
BLOCK_RECORD
  5
1
330
0
100
AcDbSymbolTable
 70
     4
  0
BLOCK_RECORD
  5
1F
330
1
100
AcDbSymbolTableRecord
100
AcDbBlockTableRecord
  2
*Model_Space
340
22
  0
BLOCK_RECORD
  5
1B
330
1
100
AcDbSymbolTableRecord
100
AcDbBlockTableRecord
  2
*Paper_Space
340
1E
  0
BLOCK_RECORD
  5
23
330
1
100
AcDbSymbolTableRecord
100
AcDbBlockTableRecord
  2
*Paper_Space0
340
26
  0
BLOCK_RECORD
  5
155
330
1
100
AcDbSymbolTableRecord
100
AcDbBlockTableRecord
  2
*D1
340
0
  0
BLOCK_RECORD
  5
160
330
1
100
AcDbSymbolTableRecord
100
AcDbBlockTableRecord
  2
*D2
340
0
  0
BLOCK_RECORD
  5
16A
330
1
100
AcDbSymbolTableRecord
100
AcDbBlockTableRecord
  2
*D3
340
0
  0
ENDTAB
  0
ENDSEC
  0
SECTION
  2
BLOCKS
  0
BLOCK
  5
20
330
1F
100
AcDbEntity
  8
0
100
AcDbBlockBegin
  2
*Model_Space
 70
     0
 10
0.0
 20
0.0
 30
0.0
  3
*Model_Space
  1

  0
ENDBLK
  5
21
330
1F
100
AcDbEntity
  8
0
100
AcDbBlockEnd
  0
BLOCK
  5
1C
330
1B
100
AcDbEntity
 67
     1
  8
0
100
AcDbBlockBegin
  2
*Paper_Space
 70
     0
 10
0.0
 20
0.0
 30
0.0
  3
*Paper_Space
  1

  0
ENDBLK
  5
1D
330
1B
100
AcDbEntity
 67
     1
  8
0
100
AcDbBlockEnd
  0
BLOCK
  5
24
330
23
100
AcDbEntity
  8
0
100
AcDbBlockBegin
  2
*Paper_Space0
 70
     0
 10
0.0
 20
0.0
 30
0.0
  3
*Paper_Space0
  1

  0
ENDBLK
  5
25
330
23
100
AcDbEntity
  8
0
100
AcDbBlockEnd
  0
BLOCK
  5
156
330
155
100
AcDbEntity
  8
0
100
AcDbBlockBegin
  2
*D1
 70
     1
 10
0.0
 20
0.0
 30
0.0
  3
*D1
  1

  0
SOLID
  5
158
330
155
100
AcDbEntity
  8
VERMASSUNG
100
AcDbTrace
 10
204.045552985
 20
125.4499075975
 30
0.0
 11
203.595552985
 21
122.4499075975
 31
0.0
 12
204.495552985
 22
122.4499075975
 32
0.0
 13
204.495552985
 23
122.4499075975
 33
0.0
  0
LINE
  5
159
330
155
100
AcDbEntity
  8
VERMASSUNG
100
AcDbLine
 10
198.0717639371
 20
125.4499075975
 30
0.0
 11
205.045552985
 21
125.4499075975
 31
0.0
  0
LINE
  5
15A
330
155
100
AcDbEntity
  8
VERMASSUNG
100
AcDbLine
 10
204.045552985
 20
125.4499075975
 30
0.0
 11
204.045552985
 21
104.1112252958
 31
0.0
  0
MTEXT
  5
15B
330
155
100
AcDbEntity
  8
VERMASSUNG
100
AcDbMText
 10
201.4674175055
 20
105.6987252958
 30
0.0
 40
2.0
 41
0.0
 71
     1
 72
     1
  1
%%c
  7
SLDTEXTSTYLE0
 11
-7.044195017643634E-15
 21
1.0
 31
0.0
 73
     1
 44
1.0
  0
MTEXT
  5
15C
330
155
100
AcDbEntity
  8
VERMASSUNG
100
AcDbMText
 10
201.4674176219
 20
109.3060340206
 30
0.0
 40
2.0
 41
0.0
 71
     1
 72
     1
  1
19.75
  7
SLDTEXTSTYLE0
 11
-7.044195017643634E-15
 21
1.0
 31
0.0
 73
     1
 44
1.0
  0
MTEXT
  5
15D
330
155
100
AcDbEntity
  8
VERMASSUNG
100
AcDbMText
 10
201.4674176219
 20
115.1036044904
 30
0.0
 40
2.0
 41
0.0
 71
     1
 72
     1
  1
-25.1
  7
SLDTEXTSTYLE0
 11
-7.044195017643634E-15
 21
1.0
 31
0.0
 73
     1
 44
1.0
  0
ENDBLK
  5
157
330
155
100
AcDbEntity
  8
0
100
AcDbBlockEnd
  0
BLOCK
  5
161
330
160
100
AcDbEntity
  8
0
100
AcDbBlockBegin
  2
*D2
 70
     1
 10
0.0
 20
0.0
 30
0.0
  3
*D2
  1

  0
SOLID
  5
163
330
160
100
AcDbEntity
  8
VERMASSUNG
100
AcDbTrace
 10
198.0717639371
 20
132.7214155253
 30
0.0
 11
195.0717639371
 21
133.1714155253
 31
0.0
 12
195.0717639371
 22
132.2714155253
 32
0.0
 13
195.0717639371
 23
132.2714155253
 33
0.0
  0
SOLID
  5
164
330
160
100
AcDbEntity
  8
VERMASSUNG
100
AcDbTrace
 10
93.0717639371
 20
132.7214155253
 30
0.0
 11
96.0717639371
 21
132.2714155253
 31
0.0
 12
96.0717639371
 22
133.1714155253
 32
0.0
 13
96.0717639371
 23
133.1714155253
 33
0.0
  0
LINE
  5
165
330
160
100
AcDbEntity
  8
VERMASSUNG
100
AcDbLine
 10
198.0717639371
 20
125.4499075975
 30
0.0
 11
198.0717639371
 21
133.7214155253
 31
0.0
  0
LINE
  5
166
330
160
100
AcDbEntity
  8
VERMASSUNG
100
AcDbLine
 10
93.0717639371
 20
121.7749075975
 30
0.0
 11
93.0717639371
 21
133.7214155253
 31
0.0
  0
LINE
  5
167
330
160
100
AcDbEntity
  8
VERMASSUNG
100
AcDbLine
 10
198.0717639371
 20
132.7214155253
 30
0.0
 11
93.0717639371
 21
132.7214155253
 31
0.0
  0
MTEXT
  5
168
330
160
100
AcDbEntity
  8
VERMASSUNG
100
AcDbMText
 10
140.1527094356
 20
135.2995508884
 30
0.0
 40
2.0
 41
0.0
 71
     1
 72
     1
  1
105
  7
SLDTEXTSTYLE0
 73
     1
 44
1.0
  0
ENDBLK
  5
162
330
160
100
AcDbEntity
  8
0
100
AcDbBlockEnd
  0
BLOCK
  5
16B
330
16A
100
AcDbEntity
  8
0
100
AcDbBlockBegin
  2
*D3
 70
     1
 10
0.0
 20
0.0
 30
0.0
  3
*D3
  1

  0
SOLID
  5
16D
330
16A
100
AcDbEntity
  8
VERMASSUNG
100
AcDbTrace
 10
86.7637069585
 20
123.5749075975
 30
0.0
 11
86.3137069585
 21
120.5749075975
 31
0.0
 12
87.2137069585
 22
120.5749075975
 32
0.0
 13
87.2137069585
 23
120.5749075975
 33
0.0
  0
SOLID
  5
16E
330
16A
100
AcDbEntity
  8
VERMASSUNG
100
AcDbTrace
 10
86.7637069585
 20
107.5749075975
 30
0.0
 11
87.2137069585
 21
110.5749075975
 31
0.0
 12
86.3137069585
 22
110.5749075975
 32
0.0
 13
86.3137069585
 23
110.5749075975
 33
0.0
  0
LINE
  5
16F
330
16A
100
AcDbEntity
  8
VERMASSUNG
100
AcDbLine
 10
104.3717639371
 20
123.5749075975
 30
0.0
 11
85.7637069585
 21
123.5749075975
 31
0.0
  0
LINE
  5
170
330
16A
100
AcDbEntity
  8
VERMASSUNG
100
AcDbLine
 10
94.4467639371
 20
107.5749075975
 30
0.0
 11
85.7637069585
 21
107.5749075975
 31
0.0
  0
LINE
  5
171
330
16A
100
AcDbEntity
  8
VERMASSUNG
100
AcDbLine
 10
86.7637069585
 20
123.5749075975
 30
0.0
 11
86.7637069585
 21
107.5749075975
 31
0.0
  0
MTEXT
  5
172
330
16A
100
AcDbEntity
  8
VERMASSUNG
100
AcDbMText
 10
84.1855714789
 20
112.0566674798
 30
0.0
 40
2.0
 41
0.0
 71
     1
 72
     1
  1
%%c
  7
SLDTEXTSTYLE0
 11
-7.044195017643634E-15
 21
1.0
 31
0.0
 73
     1
 44
1.0
  0
MTEXT
  5
173
330
16A
100
AcDbEntity
  8
VERMASSUNG
100
AcDbMText
 10
84.1855715953
 20
115.6639762046
 30
0.0
 40
2.0
 41
0.0
 71
     1
 72
     1
  1
16
  7
SLDTEXTSTYLE0
 11
-7.044195017643634E-15
 21
1.0
 31
0.0
 73
     1
 44
1.0
  0
ENDBLK
  5
16C
330
16A
100
AcDbEntity
  8
0
100
AcDbBlockEnd
  0
ENDSEC
  0
SECTION
  2
ENTITIES
  0
MTEXT
  5
49
330
1F
100
AcDbEntity
  8
KOPF_DÜNN
100
AcDbMText
 10
13.8892156294
 20
23.8442973028
 30
0.0
 40
3.0
 41
0.0
 71
     1
 72
     1
  1
272.020.009
  7
SLDTEXTSTYLE0
 73
     1
 44
1.0
  0
MTEXT
  5
4A
330
1F
100
AcDbEntity
  8
VERMASSUNG
100
AcDbMText
 10
13.9329988022
 20
28.8834360957
 30
0.0
 40
3.0
 41
0.0
 71
     1
 72
     1
  1
Ausdrehstahl_Boring bar ø19.75-25.1
  7
SLDTEXTSTYLE0
 73
     1
 44
1.0
  0
MTEXT
  5
4B
330
1F
100
AcDbEntity
  8
VERMASSUNG
100
AcDbMText
 10
98.8601118557
 20
13.8365368179
 30
0.0
 40
2.0
 41
0.0
 71
     1
 72
     1
  1
Datum: 04.08.2006
  7
SLDTEXTSTYLE0
 73
     1
 44
1.0
  0
MTEXT
  5
4C
330
1F
100
AcDbEntity
  8
VERMASSUNG
100
AcDbMText
 10
13.933048693
 20
18.0482802738
 30
0.0
 40
2.0
 41
0.0
 71
     1
 72
     1
  1
mit Innenkühlung_with spindel coolant feed
  7
SLDTEXTSTYLE0
 73
     1
 44
1.0
  0
MTEXT
  5
4D
330
1F
100
AcDbEntity
  8
VERMASSUNG
100
AcDbMText
 10
13.9808475933
 20
13.9090973692
 30
0.0
 40
2.0
 41
0.0
 71
     1
 72
     1
  1
Gewicht: 145g
  7
SLDTEXTSTYLE0
 73
     1
 44
1.0
  0
LINE
  5
4E
330
1F
100
AcDbEntity
  8
0
  6
Continuous
 62
     7
370
    15
100
AcDbLine
 10
194.0136334856
 20
118.660665628
 30
0.0
 11
194.0136334856
 21
118.5006596536
 31
0.0
  0
LINE
  5
4F
330
1F
100
AcDbEntity
  8
0
  6
Continuous
 62
     7
370
    15
100
AcDbLine
 10
190.6022572417
 20
119.7702573641
 30
0.0
 11
190.6022572417
 21
119.6694181207
 31
0.0
  0
LINE
  5
50
330
1F
100
AcDbEntity
  8
0
  6
Continuous
 62
     7
370
    15
100
AcDbLine
 10
195.8522572417
 20
119.6694181207
 30
0.0
 11
195.8522572417
 21
119.7702573641
 31
0.0
  0
LINE
  5
51
330
1F
100
AcDbEntity
  8
0
  6
Continuous
 62
     7
370
    15
100
AcDbLine
 10
192.1263957401
 20
119.0039018269
 30
0.0
 11
192.1263957401
 21
119.1888274084
 31
0.0
  0
LINE
  5
52
330
1F
100
AcDbEntity
  8
0
  6
Continuous
 62
     7
370
    15
100
AcDbLine
 10
194.3234242226
 20
120.4067036205
 30
0.0
 11
194.3234242226
 21
120.2218989864
 31
0.0
  0
LINE
  5
53
330
1F
100
AcDbEntity
  8
0
  6
Continuous
 62
     7
370
    15
100
AcDbLine
 10
192.4361864771
 20
120.753250388
 30
0.0
 11
192.4361864771
 21
120.9413966963
 31
0.0
  0
LINE
  5
54
330
1F
100
AcDbEntity
  8
0
  6
Continuous
 62
     7
370
    15
100
AcDbLine
 10
188.752147395
 20
114.4108813147
 30
0.0
 11
188.9467639371
 21
114.3035538043
 31
0.0
  0
LINE
  5
55
330
1F
100
AcDbEntity
  8
0
  6
Continuous
 62
     7
370
    15
100
AcDbLine
 10
197.747207025
 20
115.8686400943
 30
0.0
 11
197.8663804793
 21
115.9343621034
 31
0.0
  0
LINE
  5
56
330
1F
100
AcDbEntity
  8
0
  6
Continuous
 62
     7
370
    15
100
AcDbLine
 10
173.3217639371
 20
107.3249075975
 30
0.0
 11
186.8490201865
 21
107.3249075975
 31
0.0
  0
LINE
  5
57
330
1F
100
AcDbEntity
  8
0
  6
Continuous
 62
     7
370
    15
100
AcDbLine
 10
182.4925282513
 20
123.8249075975
 30
0.0
 11
173.3217639371
 21
123.8249075975
 31
0.0
  0
LINE
  5
58
330
1F
100
AcDbEntity
  8
0
  6
Continuous
 62
     7
370
    15
100
AcDbLine
 10
173.3217639371
 20
123.8249075975
 30
0.0
 11
173.0717639371
 21
123.5749075975
 31
0.0
  0
LINE
  5
59
330
1F
100
AcDbEntity
  8
0
  6
Continuous
 62
     7
370
    15
100
AcDbLine
 10
173.0717639371
 20
107.5749075975
 30
0.0
 11
173.3217639371
 21
107.3249075975
 31
0.0
  0
LINE
  5
5A
330
1F
100
AcDbEntity
  8
0
  6
Continuous
 62
     7
370
    15
100
AcDbLine
 10
93.0717639371
 20
108.9499075975
 30
0.0
 11
94.4467639371
 21
107.5749075975
 31
0.0
  0
LINE
  5
5B
330
1F
100
AcDbEntity
  8
0
  6
Continuous
 62
     7
370
    15
100
AcDbLine
 10
94.4467639371
 20
107.5749075975
 30
0.0
 11
173.0717639371
 21
107.5749075975
 31
0.0
  0
LINE
  5
5C
330
1F
100
AcDbEntity
  8
0
  6
Continuous
 62
     7
370
    15
100
AcDbLine
 10
107.2717639371
 20
123.5749075975
 30
0.0
 11
104.3717639371
 21
123.5749075975
 31
0.0
  0
LINE
  5
5D
330
1F
100
AcDbEntity
  8
0
  6
Continuous
 62
     7
370
    15
100
AcDbLine
 10
121.7717639371
 20
123.5749075975
 30
0.0
 11
118.8717639371
 21
123.5749075975
 31
0.0
  0
LINE
  5
5E
330
1F
100
AcDbEntity
  8
0
  6
Continuous
 62
     7
370
    15
100
AcDbLine
 10
136.2717639371
 20
123.5749075975
 30
0.0
 11
133.3717639371
 21
123.5749075975
 31
0.0
  0
LINE
  5
5F
330
1F
100
AcDbEntity
  8
0
  6
Continuous
 62
     7
370
    15
100
AcDbLine
 10
150.7717639371
 20
123.5749075975
 30
0.0
 11
147.8717639371
 21
123.5749075975
 31
0.0
  0
LINE
  5
60
330
1F
100
AcDbEntity
  8
0
  6
Continuous
 62
     7
370
    15
100
AcDbLine
 10
173.0717639371
 20
123.5749075975
 30
0.0
 11
162.3717639371
 21
123.5749075975
 31
0.0
  0
CIRCLE
  5
61
330
1F
100
AcDbEntity
  8
0
  6
Continuous
 62
     7
370
    15
100
AcDbCircle
 10
193.2186278977
 20
119.7889518726
 30
0.0
 40
2.617146416866719
  0
CIRCLE
  5
62
330
1F
100
AcDbEntity
  8
0
  6
Continuous
 62
     7
370
    15
100
AcDbCircle
 10
193.2207202992
 20
119.8206336236
 30
0.0
 40
1.793743596811948
  0
ARC
  5
63
330
1F
100
AcDbEntity
  8
0
  6
Continuous
 62
     7
370
    15
100
AcDbCircle
 10
193.2406317413
 20
119.8156329947
 30
0.0
 40
1.662572533022592
100
AcDbArc
 50
291.073226601
 51
349.7770426809
  0
ARC
  5
64
330
1F
100
AcDbEntity
  8
0
  6
Continuous
 62
     7
370
    15
100
AcDbCircle
 10
193.251835961
 20
119.8079275706
 30
0.0
 40
1.650188117180652
100
AcDbArc
 50
349.9712911947
 51
50.4978742147
  0
ARC
  5
65
330
1F
100
AcDbEntity
  8
0
  6
Continuous
 62
     7
370
    15
100
AcDbCircle
 10
193.2271375668
 20
119.7798610732
 30
0.0
 40
1.687555501373199
100
AcDbArc
 50
50.4569956012
 51
108.5582048832
  0
LINE
  5
66
330
1F
100
AcDbEntity
  8
0
  6
Continuous
 62
     7
370
    15
100
AcDbLine
 10
192.6102842498
 20
121.3506676555
 30
0.0
 11
192.6900428835
 21
121.3796650835
 31
0.0
  0
ARC
  5
67
330
1F
100
AcDbEntity
  8
0
  6
Continuous
 62
     7
370
    15
100
AcDbCircle
 10
193.2142939114
 20
119.8010207629
 30
0.0
 40
1.663199676244858
100
AcDbArc
 50
111.2944661806
 51
167.8232505698
  0
LINE
  5
68
330
1F
100
AcDbEntity
  8
0
  6
Continuous
 62
     7
370
    15
100
AcDbLine
 10
191.5679288096
 20
120.0349582596
 30
0.0
 11
191.588513618
 21
120.1518363848
 31
0.0
  0
ARC
  5
69
330
1F
100
AcDbEntity
  8
0
  6
Continuous
 62
     7
370
    15
100
AcDbCircle
 10
193.2023641607
 20
119.8093437866
 30
0.0
 40
1.649933576689114
100
AcDbArc
 50
172.1406626963
 51
228.3285027131
  0
LINE
  5
6A
330
1F
100
AcDbEntity
  8
0
  6
Continuous
 62
     7
370
    15
100
AcDbLine
 10
192.1971700064
 20
118.5006329177
 30
0.0
 11
192.1053912284
 21
118.5768945206
 31
0.0
  0
ARC
  5
6B
330
1F
100
AcDbEntity
  8
0
  6
Continuous
 62
     7
370
    15
100
AcDbCircle
 10
193.2273745667
 20
119.8377346648
 30
0.0
 40
1.687946242632261
100
AcDbArc
 50
232.3866179207
 51
288.3423218761
  0
LINE
  5
6C
330
1F
100
AcDbEntity
  8
0
  6
Continuous
 62
     7
370
    15
100
AcDbLine
 10
193.8384276756
 20
118.2642505633
 30
0.0
 11
193.7585605631
 21
118.2355474238
 31
0.0
  0
SPLINE
  5
6D
330
1F
100
AcDbEntity
  8
0
  6
Continuous
 62
     7
370
    15
100
AcDbSpline
210
0.0
220
0.0
230
1.0
 70
     8
 71
     3
 72
    11
 73
     7
 74
     0
 42
0.00000001
 43
0.00000001
 40
0.0
 40
0.0
 40
0.0
 40
0.0
 40
0.2657596322624909
 40
0.5530029385954249
 40
0.8418208483438514
 40
1.0
 40
1.0
 40
1.0
 40
1.0
 10
192.197170006441
 20
118.5006329177125
 30
0.0
 10
192.2288098385108
 20
118.4861523529941
 30
0.0
 10
192.2946472268391
 20
118.4560206329371
 30
0.0
 10
192.4062359070038
 20
118.4521518512807
 30
0.0
 10
192.4990775627784
 20
118.4767411465462
 30
0.0
 10
192.5469285555358
 20
118.5071149533541
 30
0.0
 10
192.5638616186223
 20
118.5178633528589
 30
0.0
  0
SPLINE
  5
6E
330
1F
100
AcDbEntity
  8
0
  6
Continuous
 62
     7
370
    15
100
AcDbSpline
210
0.0
220
0.0
230
1.0
 70
     8
 71
     3
 72
    12
 73
     8
 74
     0
 42
0.00000001
 43
0.00000001
 40
0.0
 40
0.0
 40
0.0
 40
0.0
 40
0.2057904614204192
 40
0.4120344203360229
 40
0.614130247142798
 40
0.8132633242113029
 40
0.9999999999999999
 40
0.9999999999999999
 40
0.9999999999999999
 40
0.9999999999999999
 10
192.5638616186223
 20
118.5178633528589
 30
0.0
 10
192.6198881014226
 20
118.5502045630129
 30
0.0
 10
192.7320645317814
 20
118.6149582531829
 30
0.0
 10
192.931892891409
 20
118.6375947509942
 30
0.0
 10
193.1244888871281
 20
118.6000154645797
 30
0.0
 10
193.2922131704677
 20
118.5093748502359
 30
0.0
 10
193.3683043951509
 20
118.4166241693018
 30
0.0
 10
193.4051277591197
 20
118.3717386769653
 30
0.0
  0
SPLINE
  5
6F
330
1F
100
AcDbEntity
  8
0
  6
Continuous
 62
     7
370
    15
100
AcDbSpline
210
0.0
220
0.0
230
1.0
 70
     8
 71
     3
 72
    11
 73
     7
 74
     0
 42
0.00000001
 43
0.00000001
 40
0.0
 40
0.0
 40
0.0
 40
0.0
 40
0.2802371411013398
 40
0.5612869875923796
 40
0.8399906057824602
 40
0.9999999999999999
 40
0.9999999999999999
 40
0.9999999999999999
 40
0.9999999999999999
 10
193.4051277591197
 20
118.3717386769653
 30
0.0
 10
193.4289079010176
 20
118.3433299257544
 30
0.0
 10
193.4765371487252
 20
118.2864300361618
 30
0.0
 10
193.5802950355107
 20
118.2367785020405
 30
0.0
 10
193.6783647821442
 20
118.2221775882552
 30
0.0
 10
193.7371281293295
 20
118.2319743166931
 30
0.0
 10
193.758560563106
 20
118.2355474238003
 30
0.0
  0
LINE
  5
70
330
1F
100
AcDbEntity
  8
0
  6
Continuous
 62
     7
370
    15
100
AcDbLine
 10
194.0177693014
 20
118.5931652375
 30
0.0
 11
194.0211212019
 21
118.6603062123
 31
0.0
  0
SPLINE
  5
71
330
1F
100
AcDbEntity
  8
0
  6
Continuous
 62
     7
370
    15
100
AcDbSpline
210
0.0
220
0.0
230
1.0
 70
     8
 71
     3
 72
    12
 73
     8
 74
     0
 42
0.00000001
 43
0.00000001
 40
0.0
 40
0.0
 40
0.0
 40
0.0
 40
0.0691664444109849
 40
0.3109104753445459
 40
0.5477866285250366
 40
0.7811853479600775
 40
1.0
 40
1.0
 40
1.0
 40
1.0
 10
194.0245120425789
 20
118.7282271872156
 30
0.0
 10
194.0248022200859
 20
118.7463777570976
 30
0.0
 10
194.0261065986383
 20
118.8279664863986
 30
0.0
 10
194.0938722467988
 20
118.9653492582205
 30
0.0
 10
194.2203456471919
 20
119.1120658791944
 30
0.0
 10
194.3861990609963
 20
119.2116386551556
 30
0.0
 10
194.5074811440581
 20
119.2317995228763
 30
0.0
 10
194.5661664870352
 20
119.2415548585947
 30
0.0
  0
SPLINE
  5
72
330
1F
100
AcDbEntity
  8
0
  6
Continuous
 62
     7
370
    15
100
AcDbSpline
210
0.0
220
0.0
230
1.0
 70
     8
 71
     3
 72
    11
 73
     7
 74
     0
 42
0.00000001
 43
0.00000001
 40
0.0
 40
0.0
 40
0.0
 40
0.0
 40
0.2524782265335535
 40
0.5068902417933159
 40
0.7591786113117066
 40
1.0
 40
1.0
 40
1.0
 40
1.0
 10
194.5661664870352
 20
119.2415548585947
 30
0.0
 10
194.6034288254272
 20
119.2480941742206
 30
0.0
 10
194.6782389030192
 20
119.2612228915928
 30
0.0
 10
194.7748563082917
 20
119.3259853053214
 30
0.0
 10
194.8474060090638
 20
119.414573030459
 30
0.0
 10
194.8671619593766
 20
119.4857837718904
 30
0.0
 10
194.8768102279618
 20
119.5205611604041
 30
0.0
  0
SPLINE
  5
73
330
1F
100
AcDbEntity
  8
0
  6
Continuous
 62
     7
370
    15
100
AcDbSpline
210
0.0
220
0.0
230
1.0
 70
     8
 71
     3
 72
    11
 73
     7
 74
     0
 42
0.00000001
 43
0.00000001
 40
0.0
 40
0.0
 40
0.0
 40
0.0
 40
0.2423611237745264
 40
0.5166847928458101
 40
0.7923341374633334
 40
1.0
 40
1.0
 40
1.0
 40
1.0
 10
193.8384276756235
 20
118.2642505632524
 30
0.0
 10
193.8664955128902
 20
118.2815954225542
 30
0.0
 10
193.926332769204
 20
118.3185725783608
 30
0.0
 10
193.9896064694597
 20
118.4062458078231
 30
0.0
 10
194.0220227397785
 20
118.5028827649262
 30
0.0
 10
194.0190476199775
 20
118.5660319507243
 30
0.0
 10
194.0177693013761
 20
118.5931652375383
 30
0.0
  0
SPLINE
  5
74
330
1F
100
AcDbEntity
  8
0
  6
Continuous
 62
     7
370
    15
100
AcDbSpline
210
0.0
220
0.0
230
1.0
 70
     8
 71
     3
 72
    11
 73
     7
 74
     0
 42
0.00000001
 43
0.00000001
 40
0.0
 40
0.0
 40
0.0
 40
0.0
 40
0.2928993220619745
 40
0.5864344719079683
 40
0.8775178868033121
 40
0.9999999999999999
 40
0.9999999999999999
 40
0.9999999999999999
 40
0.9999999999999999
 10
192.0638712534341
 20
118.9325497877302
 30
0.0
 10
192.0502184084403
 20
118.8983255104407
 30
0.0
 10
192.0228830807663
 20
118.8298026615743
 30
0.0
 10
192.0298146691092
 20
118.7167760178188
 30
0.0
 10
192.0633080240017
 20
118.6314246809301
 30
0.0
 10
192.0957755909227
 20
118.5893541767051
 30
0.0
 10
192.1053912284377
 20
118.5768945205909
 30
0.0
  0
SPLINE
  5
75
330
1F
100
AcDbEntity
  8
0
  6
Continuous
 62
     7
370
    15
100
AcDbSpline
210
0.0
220
0.0
230
1.0
 70
     8
 71
     3
 72
    11
 73
     7
 74
     0
 42
0.00000001
 43
0.00000001
 40
0.0
 40
0.0
 40
0.0
 40
0.0
 40
0.2669010467950267
 40
0.5546143410792445
 40
0.8439070439786351
 40
1.0
 40
1.0
 40
1.0
 40
1.0
 10
191.56792880959
 20
120.0349582595655
 30
0.0
 10
191.5713263843224
 20
120.0004057589233
 30
0.0
 10
191.5783864678032
 20
119.9286064437598
 30
0.0
 10
191.6323434225672
 20
119.8303224517848
 30
0.0
 10
191.701703296583
 20
119.7625654414179
 30
0.0
 10
191.753018141213
 20
119.7362772708932
 30
0.0
 10
191.7710022985958
 20
119.7270641357969
 30
0.0
  0
SPLINE
  5
76
330
1F
100
AcDbEntity
  8
0
  6
Continuous
 62
     7
370
    15
100
AcDbSpline
210
0.0
220
0.0
230
1.0
 70
     8
 71
     3
 72
    12
 73
     8
 74
     0
 42
0.00000001
 43
0.00000001
 40
0.0
 40
0.0
 40
0.0
 40
0.0
 40
0.205840128133815
 40
0.412061993551005
 40
0.6141387330969522
 40
0.8132772113524638
 40
1.0
 40
1.0
 40
1.0
 40
1.0
 10
191.7710022985958
 20
119.7270641357969
 30
0.0
 10
191.8285030710427
 20
119.6944980566258
 30
0.0
 10
191.9436112530089
 20
119.6293055034194
 30
0.0
 10
192.0652313563407
 20
119.4681484234624
 30
0.0
 10
192.1285183176504
 20
119.2842838233922
 30
0.0
 10
192.1310944641322
 20
119.0962941938943
 30
0.0
 10
192.0857931096956
 20
118.9859477331463
 30
0.0
 10
192.0638712534341
 20
118.9325497877302
 30
0.0
  0
ARC
  5
77
330
1F
100
AcDbEntity
  8
0
  6
Continuous
 62
     7
370
    15
100
AcDbCircle
 10
193.2367748356
 20
119.6832458591
 30
0.0
 40
2.615518958563715
100
AcDbArc
 50
259.7515729036
 51
359.6970869832
  0
ARC
  5
78
330
1F
100
AcDbEntity
  8
0
  6
Continuous
 62
     7
370
    15
100
AcDbCircle
 10
193.2104206906
 20
119.6804335731
 30
0.0
 40
2.608186710491142
100
AcDbArc
 50
180.2419845203
 51
260.3102926574
  0
ARC
  5
79
330
1F
100
AcDbEntity
  8
0
  6
Continuous
 62
     7
370
    15
100
AcDbCircle
 10
191.5505968983
 20
119.0039733648
 30
0.0
 40
0.575798846266331
100
AcDbArc
 50
333.0512956478
 51
359.9928814986
  0
ARC
  5
7A
330
1F
100
AcDbEntity
  8
0
  6
Continuous
 62
     7
370
    15
100
AcDbCircle
 10
194.5493480837
 20
119.3815092195
 30
0.0
 40
0.3329548891235629
100
AcDbArc
 50
22.1135357288
 51
67.1170246392
  0
SPLINE
  5
7B
330
1F
100
AcDbEntity
  8
0
  6
Continuous
 62
     7
370
    15
100
AcDbSpline
210
0.0
220
0.0
230
1.0
 70
     8
 71
     3
 72
    12
 73
     8
 74
     0
 42
0.00000001
 43
0.00000001
 40
0.0
 40
0.0
 40
0.0
 40
0.0
 40
0.0091681771491573
 40
0.2573268097002668
 40
0.5054934687429588
 40
0.7549925359452857
 40
0.9999999999999999
 40
0.9999999999999999
 40
0.9999999999999999
 40
0.9999999999999999
 10
194.8768102279618
 20
119.5205611604041
 30
0.0
 10
194.8770431555649
 20
119.5219006689488
 30
0.0
 10
194.8835808255967
 20
119.5594971785671
 30
0.0
 10
194.8831741031312
 20
119.6359705952721
 30
0.0
 10
194.8452093341362
 20
119.7402352650446
 30
0.0
 10
194.7757855258781
 20
119.8276168919294
 30
0.0
 10
194.7109439660515
 20
119.8610855318386
 30
0.0
 10
194.6788176641035
 20
119.8776678539541
 30
0.0
  0
ARC
  5
7C
330
1F
100
AcDbEntity
  8
0
  6
Continuous
 62
     7
370
    15
100
AcDbCircle
 10
191.9015855704
 20
119.8399997012
 30
0.0
 40
0.3341484840831514
100
AcDbArc
 50
93.0762585812
 51
164.1544392798
  0
SPLINE
  5
7D
330
1F
100
AcDbEntity
  8
0
  6
Continuous
 62
     7
370
    15
100
AcDbSpline
210
0.0
220
0.0
230
1.0
 70
     8
 71
     3
 72
    11
 73
     7
 74
     0
 42
0.00000001
 43
0.00000001
 40
0.0
 40
0.0
 40
0.0
 40
0.0
 40
0.2908641666076782
 40
0.5839560789892073
 40
0.874598805361769
 40
1.0
 40
1.0
 40
1.0
 40
1.0
 10
191.8836534756641
 20
120.3631771709469
 30
0.0
 10
191.8464033462582
 20
120.3582179399315
 30
0.0
 10
191.7716177865127
 20
120.3482614948585
 30
0.0
 10
191.6747863658726
 20
120.2869606820059
 30
0.0
 10
191.6156904091587
 20
120.2158078019001
 30
0.0
 10
191.5948078886215
 20
120.1666524611035
 30
0.0
 10
191.5885136180165
 20
120.1518363848495
 30
0.0
  0
SPLINE
  5
7E
330
1F
100
AcDbEntity
  8
0
  6
Continuous
 62
     7
370
    15
100
AcDbSpline
210
0.0
220
0.0
230
1.0
 70
     8
 71
     3
 72
    12
 73
     8
 74
     0
 42
0.00000001
 43
0.00000001
 40
0.0
 40
0.0
 40
0.0
 40
0.0
 40
0.2058435564095163
 40
0.4120691620553177
 40
0.6141397217727101
 40
0.8132604579561334
 40
1.0
 40
1.0
 40
1.0
 40
1.0
 10
194.6788176641035
 20
119.8776678539541
 30
0.0
 10
194.6213163181744
 20
119.9075162252805
 30
0.0
 10
194.5062069028138
 20
119.9672683670319
 30
0.0
 10
194.3845871739747
 20
120.1240565204388
 30
0.0
 10
194.3213029849458
 20
120.3082408434234
 30
0.0
 10
194.3187250594254
 20
120.5008433805952
 30
0.0
 10
194.3640253464886
 20
120.6163042015139
 30
0.0
 10
194.3859487092652
 20
120.6721822020207
 30
0.0
  0
SPLINE
  5
7F
330
1F
100
AcDbEntity
  8
0
  6
Continuous
 62
     7
370
    15
100
AcDbSpline
210
0.0
220
0.0
230
1.0
 70
     8
 71
     3
 72
    11
 73
     7
 74
     0
 42
0.00000001
 43
0.00000001
 40
0.0
 40
0.0
 40
0.0
 40
0.0
 40
0.2535086227483997
 40
0.5075674742604583
 40
0.7595056251924451
 40
1.0
 40
1.0
 40
1.0
 40
1.0
 10
194.3859487092652
 20
120.6721822020207
 30
0.0
 10
194.3996097474742
 20
120.708009161216
 30
0.0
 10
194.4269614745452
 20
120.7797408403678
 30
0.0
 10
194.419909648453
 20
120.8960464379142
 30
0.0
 10
194.3794913915894
 20
121.0030435816476
 30
0.0
 10
194.3271126651534
 20
121.0555642709113
 30
0.0
 10
194.3015319238151
 20
121.0812143441065
 30
0.0
  0
SPLINE
  5
80
330
1F
100
AcDbEntity
  8
0
  6
Continuous
 62
     7
370
    15
100
AcDbSpline
210
0.0
220
0.0
230
1.0
 70
     8
 71
     3
 72
    11
 73
     7
 74
     0
 42
0.00000001
 43
0.00000001
 40
0.0
 40
0.0
 40
0.0
 40
0.0
 40
0.2431090893442795
 40
0.5182793655622118
 40
0.7947794085752011
 40
1.0
 40
1.0
 40
1.0
 40
1.0
 10
192.6102842498147
 20
121.3506676555052
 30
0.0
 10
192.5822825426855
 20
121.3329437579045
 30
0.0
 10
192.5225862678787
 20
121.2951585379914
 30
0.0
 10
192.4596438865863
 20
121.2047263923449
 30
0.0
 10
192.42774036343
 20
121.1049566359382
 30
0.0
 10
192.4307629792777
 20
121.0394666223058
 30
0.0
 10
192.4320506613232
 20
121.01156684312
 30
0.0
  0
SPLINE
  5
81
330
1F
100
AcDbEntity
  8
0
  6
Continuous
 62
     7
370
    15
100
AcDbSpline
210
0.0
220
0.0
230
1.0
 70
     8
 71
     3
 72
    12
 73
     8
 74
     0
 42
0.00000001
 43
0.00000001
 40
0.0
 40
0.0
 40
0.0
 40
0.0
 40
0.2058179564998881
 40
0.4120215045907235
 40
0.6140779969167756
 40
0.8132130006453858
 40
1.0
 40
1.0
 40
1.0
 40
1.0
 10
192.4320506613232
 20
121.01156684312
 30
0.0
 10
192.4335094299273
 20
120.9452989668497
 30
0.0
 10
192.4364297000791
 20
120.8126390641315
 30
0.0
 10
192.3582251792029
 20
120.6266856630999
 30
0.0
 10
192.2289499712105
 20
120.4805701950092
 30
0.0
 10
192.0638189082941
 20
120.3855073707385
 30
0.0
 10
191.9424137892005
 20
120.3704600859986
 30
0.0
 10
191.8836534756641
 20
120.363177170947
 30
0.0
  0
ARC
  5
82
330
1F
100
AcDbEntity
  8
0
  6
Continuous
 62
     7
370
    15
100
AcDbCircle
 10
194.9038345724
 20
120.2232800205
 30
0.0
 40
0.5804119929061939
100
AcDbArc
 50
180.1363298892
 51
247.1894825062
  0
ARC
  5
83
330
1F
100
AcDbEntity
  8
0
  6
Continuous
 62
     7
370
    15
100
AcDbCircle
 10
191.8533939805
 20
120.7556781448
 30
0.0
 40
0.5827975532177505
100
AcDbArc
 50
272.9761986277
 51
359.7613225698
  0
ARC
  5
84
330
1F
100
AcDbEntity
  8
0
  6
Continuous
 62
     7
370
    15
100
AcDbCircle
 10
194.0865895678
 20
120.6279328841
 30
0.0
 40
0.3359929494423609
100
AcDbArc
 50
18.4775709931
 51
126.6645720552
  0
SPLINE
  5
85
330
1F
100
AcDbEntity
  8
0
  6
Continuous
 62
     7
370
    15
100
AcDbSpline
210
0.0
220
0.0
230
1.0
 70
     8
 71
     3
 72
    12
 73
     8
 74
     0
 42
0.00000001
 43
0.00000001
 40
0.0
 40
0.0
 40
0.0
 40
0.0
 40
0.0091735205189792
 40
0.257677521552479
 40
0.5061895192299273
 40
0.7560357430218946
 40
1.0
 40
1.0
 40
1.0
 40
1.0
 10
194.3015319238151
 20
121.0812143441065
 30
0.0
 10
194.300476064207
 20
121.0820811551455
 30
0.0
 10
194.2708177355042
 20
121.1064292469944
 30
0.0
 10
194.2034294384546
 20
121.1440576015198
 30
0.0
 10
194.0922489438425
 20
121.1628702754641
 30
0.0
 10
193.9798523812031
 20
121.1459816021973
 30
0.0
 10
193.9170068306002
 20
121.1064158910466
 30
0.0
 10
193.885958344077
 20
121.0868686766827
 30
0.0
  0
SPLINE
  5
86
330
1F
100
AcDbEntity
  8
0
  6
Continuous
 62
     7
370
    15
100
AcDbSpline
210
0.0
220
0.0
230
1.0
 70
     8
 71
     3
 72
    12
 73
     8
 74
     0
 42
0.00000001
 43
0.00000001
 40
0.0
 40
0.0
 40
0.0
 40
0.0
 40
0.2057532787804067
 40
0.4119604088044412
 40
0.6140154573248972
 40
0.8131414684041051
 40
1.0
 40
1.0
 40
1.0
 40
1.0
 10
193.885958344077
 20
121.0868686766827
 30
0.0
 10
193.8299403581815
 20
121.0518142614622
 30
0.0
 10
193.7177808217374
 20
120.9816281078793
 30
0.0
 10
193.5179826903251
 20
120.9546104140386
 30
0.0
 10
193.3254102646318
 20
120.9924835703514
 30
0.0
 10
193.1576569341416
 20
121.0877176508228
 30
0.0
 10
193.0815407309041
 20
121.1856051832936
 30
0.0
 10
193.0446922035796
 20
121.232993403693
 30
0.0
  0
SPLINE
  5
87
330
1F
100
AcDbEntity
  8
0
  6
Continuous
 62
     7
370
    15
100
AcDbSpline
210
0.0
220
0.0
230
1.0
 70
     8
 71
     3
 72
    11
 73
     7
 74
     0
 42
0.00000001
 43
0.00000001
 40
0.0
 40
0.0
 40
0.0
 40
0.0
 40
0.2794069064555912
 40
0.5596240257155486
 40
0.8375007392219601
 40
1.0
 40
1.0
 40
1.0
 40
1.0
 10
193.0446922035796
 20
121.232993403693
 30
0.0
 10
193.020909810163
 20
121.2629928951385
 30
0.0
 10
192.9732760601108
 20
121.3230788693369
 30
0.0
 10
192.8695100004727
 20
121.3761830770503
 30
0.0
 10
192.7710192885634
 20
121.3927921455747
 30
0.0
 10
192.7118692999846
 20
121.3832033576908
 30
0.0
 10
192.6900428835125
 20
121.3796650835026
 30
0.0
  0
ARC
  5
88
330
1F
100
AcDbEntity
  8
0
  6
Continuous
 62
     7
370
    15
100
AcDbCircle
 10
192.7648184779
 20
120.8571560798
 30
0.0
 40
0.3362570872799084
100
AcDbArc
 50
33.6621293545
 51
158.108129679
  0
ARC
  5
89
330
1F
100
AcDbEntity
  8
0
  6
Continuous
 62
     7
370
    15
100
AcDbCircle
 10
193.5349005461
 20
121.3711374801
 30
0.0
 40
0.5895959146238222
100
AcDbArc
 50
213.753978084
 51
306.5426511313
  0
LINE
  5
8A
330
1F
100
AcDbEntity
  8
0
  6
Continuous
 62
     7
370
    15
100
AcDbLine
 10
197.6717639371
 20
116.2482835213
 30
0.0
 11
197.7412232082
 21
115.8903347035
 31
0.0
  0
LINE
  5
8B
330
1F
100
AcDbEntity
  8
0
  6
Continuous
 62
     7
370
    15
100
AcDbLine
 10
189.0162232082
 20
114.3668539148
 30
0.0
 11
197.7412232082
 21
115.8903347035
 31
0.0
  0
LINE
  5
8C
330
1F
100
AcDbEntity
  8
0
  6
Continuous
 62
     7
370
    15
100
AcDbLine
 10
188.9467639371
 20
114.7248027325
 30
0.0
 11
189.0162232082
 21
114.3668539148
 31
0.0
  0
LINE
  5
8D
330
1F
100
AcDbEntity
  8
0
  6
Continuous
 62
     7
370
    15
100
AcDbLine
 10
189.2395842602
 20
115.0468476661
 30
0.0
 11
188.9467639371
 21
114.7248027325
 31
0.0
  0
LINE
  5
8E
330
1F
100
AcDbEntity
  8
0
  6
Continuous
 62
     7
370
    15
100
AcDbLine
 10
189.2395842602
 20
115.0468476661
 30
0.0
 11
189.3505948266
 21
115.0662313298
 31
0.0
  0
LINE
  5
8F
330
1F
100
AcDbEntity
  8
0
  6
Continuous
 62
     7
370
    15
100
AcDbLine
 10
197.5221215703
 20
116.3606023798
 30
0.0
 11
197.6717639371
 21
116.2482835213
 31
0.0
  0
ARC
  5
90
330
1F
100
AcDbEntity
  8
0
  6
Continuous
 62
     7
370
    15
100
AcDbCircle
 10
188.9455687485
 20
114.7593574852
 30
0.0
 40
0.3988121179908257
100
AcDbArc
 50
180.3468266876
 51
280.2045134256
  0
LINE
  5
91
330
1F
100
AcDbEntity
  8
0
  6
Continuous
 62
     7
370
    15
100
AcDbLine
 10
188.9467639371
 20
114.7248027325
 30
0.0
 11
188.5467639371
 21
114.7569433834
 31
0.0
  0
LINE
  5
92
330
1F
100
AcDbEntity
  8
0
  6
Continuous
 62
     7
370
    15
100
AcDbLine
 10
188.9467639371
 20
114.3035538043
 30
0.0
 11
189.0162232082
 21
114.3668539148
 31
0.0
  0
LINE
  5
93
330
1F
100
AcDbEntity
  8
0
  6
Continuous
 62
     7
370
    15
100
AcDbLine
 10
197.7369589452
 20
115.8864485654
 30
0.0
 11
197.7412232082
 21
115.8903347035
 31
0.0
  0
LINE
  5
94
330
1F
100
AcDbEntity
  8
0
  6
Continuous
 62
     7
370
    15
100
AcDbLine
 10
189.0342186439
 20
114.3076363283
 30
0.0
 11
190.8691728947
 21
114.6280394858
 31
0.0
  0
LINE
  5
95
330
1F
100
AcDbEntity
  8
0
  6
Continuous
 62
     7
370
    15
100
AcDbLine
 10
189.0342186439
 20
114.3076363283
 30
0.0
 11
188.9467639371
 21
114.3035538043
 31
0.0
  0
LINE
  5
96
330
1F
100
AcDbEntity
  8
0
  6
Continuous
 62
     7
370
    15
100
AcDbLine
 10
188.5467639371
 20
123.5303195813
 30
0.0
 11
188.5467639371
 21
114.7569433834
 31
0.0
  0
LINE
  5
97
330
1F
100
AcDbEntity
  8
0
  6
Continuous
 62
     7
370
    15
100
AcDbLine
 10
188.9467639371
 20
123.4981789304
 30
0.0
 11
188.5467639371
 21
123.5303195813
 31
0.0
  0
LINE
  5
98
330
1F
100
AcDbEntity
  8
0
  6
Continuous
 62
     7
370
    15
100
AcDbLine
 10
189.096406304
 20
123.3618120564
 30
0.0
 11
188.9467639371
 21
123.4981789304
 31
0.0
  0
LINE
  5
99
330
1F
100
AcDbEntity
  8
0
  6
Continuous
 62
     7
370
    15
100
AcDbLine
 10
189.2395842602
 20
115.1584737362
 30
0.0
 11
189.2395842602
 21
115.0468476661
 31
0.0
  0
SPLINE
  5
9A
330
1F
100
AcDbEntity
  8
0
  6
Continuous
 62
     7
370
    15
100
AcDbSpline
210
0.0
220
0.0
230
1.0
 70
     8
 71
     3
 72
     9
 73
     5
 74
     0
 42
0.00000001
 43
0.00000001
 40
0.0
 40
0.0
 40
0.0
 40
0.0
 40
0.0433040437557981
 40
1.0
 40
1.0
 40
1.0
 40
1.0
 10
189.7196481318158
 20
115.6210240152408
 30
0.0
 10
189.7186503082901
 20
115.6197220999791
 30
0.0
 10
189.6956080369651
 20
115.5896575806247
 30
0.0
 10
189.6713301946058
 20
115.5586392401006
 30
0.0
 10
189.6481036809942
 20
115.5289641191517
 30
0.0
  0
SPLINE
  5
9B
330
1F
100
AcDbEntity
  8
0
  6
Continuous
 62
     7
370
    15
100
AcDbSpline
210
0.0
220
0.0
230
1.0
 70
     8
 71
     3
 72
    14
 73
    10
 74
     0
 42
0.00000001
 43
0.00000001
 40
0.0
 40
0.0
 40
0.0
 40
0.0
 40
0.3240421732223008
 40
0.4390834530314487
 40
0.5550339035678944
 40
0.632017577380653
 40
0.7091777148392747
 40
0.8120429782633984
 40
1.0
 40
1.0
 40
1.0
 40
1.0
 10
189.3505948266261
 20
115.0662313297888
 30
0.0
 10
189.4281893438445
 20
115.0831717825524
 30
0.0
 10
189.5333314252524
 20
115.1061264258367
 30
0.0
 10
189.6510715623834
 20
115.1728536767665
 30
0.0
 10
189.7065370736455
 20
115.2247614428506
 30
0.0
 10
189.7354868786602
 20
115.2845397738684
 30
0.0
 10
189.7405734595517
 20
115.3474234396775
 30
0.0
 10
189.7160147116273
 20
115.43438881983
 30
0.0
 10
189.6747638872249
 20
115.4918361745345
 30
0.0
 10
189.6481036809943
 20
115.5289641191517
 30
0.0
  0
SPLINE
  5
9C
330
1F
100
AcDbEntity
  8
0
  6
Continuous
 62
     7
370
    15
100
AcDbSpline
210
0.0
220
0.0
230
1.0
 70
     8
 71
     3
 72
    14
 73
    10
 74
     0
 42
0.00000001
 43
0.00000001
 40
0.0
 40
0.0
 40
0.0
 40
0.0
 40
0.1215026613259932
 40
0.2571357003576276
 40
0.3367055246585098
 40
0.4166989189530753
 40
0.5090573836363396
 40
0.6599898335533531
 40
0.9999999999999999
 40
0.9999999999999999
 40
0.9999999999999999
 40
0.9999999999999999
 10
189.6481036809942
 20
115.5289641191517
 30
0.0
 10
189.621552733814
 20
115.5417175404545
 30
0.0
 10
189.5653630477294
 20
115.5687075658817
 30
0.0
 10
189.4842474966623
 20
115.5880740221878
 30
0.0
 10
189.4117352988411
 20
115.5802385869874
 30
0.0
 10
189.3561505661046
 20
115.551492013395
 30
0.0
 10
189.3036418894623
 20
115.4918378581503
 30
0.0
 10
189.2484860835901
 20
115.3599350612535
 30
0.0
 10
189.2432267179892
 20
115.2409079010436
 30
0.0
 10
189.2395842601666
 20
115.1584737362232
 30
0.0
  0
ARC
  5
9D
330
1F
100
AcDbEntity
  8
0
  6
Continuous
 62
     7
370
    15
100
AcDbCircle
 10
190.7437759651
 20
116.8872585889
 30
0.0
 40
0.9970302948263229
100
AcDbArc
 50
180.3468266756
 51
280.2045134532
  0
LINE
  5
9E
330
1F
100
AcDbEntity
  8
0
  6
Continuous
 62
     7
370
    15
100
AcDbLine
 10
190.9204121148
 20
115.9059996632
 30
0.0
 11
196.0454121148
 21
116.8008809288
 31
0.0
  0
SPLINE
  5
9F
330
1F
100
AcDbEntity
  8
0
  6
Continuous
 62
     7
370
    15
100
AcDbSpline
210
0.0
220
0.0
230
1.0
 70
     8
 71
     3
 72
    11
 73
     7
 74
     0
 42
0.00000001
 43
0.00000001
 40
0.0
 40
0.0
 40
0.0
 40
0.0
 40
0.3360297136122416
 40
0.6712269697200561
 40
0.9920227009422985
 40
0.9999999999999999
 40
0.9999999999999999
 40
0.9999999999999999
 40
0.9999999999999999
 10
197.5221215703184
 20
116.3606023798412
 30
0.0
 10
197.4629699680404
 20
116.406278074597
 30
0.0
 10
197.3448133017017
 20
116.497516310202
 30
0.0
 10
197.1594241040787
 20
116.655221256021
 30
0.0
 10
197.0451879719854
 20
116.7583646999579
 30
0.0
 10
196.9929567814529
 20
116.8072164107182
 30
0.0
 10
196.9916894517493
 20
116.808401741236
 30
0.0
  0
ARC
  5
A0
330
1F
100
AcDbEntity
  8
0
  6
Continuous
 62
     7
370
    15
100
AcDbCircle
 10
197.6745317818
 20
116.2819313204
 30
0.0
 40
0.3972350144356895
100
AcDbArc
 50
279.6651090934
 51
359.7826137323
  0
LINE
  5
A1
330
1F
100
AcDbEntity
  8
0
  6
Continuous
 62
     7
370
    15
100
AcDbLine
 10
197.6717639371
 20
116.2482835213
 30
0.0
 11
198.0717639371
 21
116.2804241722
 31
0.0
  0
LINE
  5
A2
330
1F
100
AcDbEntity
  8
0
  6
Continuous
 62
     7
370
    15
100
AcDbLine
 10
195.6981157595
 20
123.9047440903
 30
0.0
 11
190.5731157595
 21
123.0098628247
 31
0.0
  0
ARC
  5
A3
330
1F
100
AcDbEntity
  8
0
  6
Continuous
 62
     7
370
    15
100
AcDbCircle
 10
195.8747519087
 20
122.9234851643
 30
0.0
 40
0.9970302950234999
100
AcDbArc
 50
0.3468266908
 51
100.2045134225
  0
LINE
  5
A4
330
1F
100
AcDbEntity
  8
0
  6
Continuous
 62
     7
370
    15
100
AcDbLine
 10
196.8717639371
 20
117.7761046004
 30
0.0
 11
196.8717639371
 21
122.9295204187
 31
0.0
  0
ARC
  5
A5
330
1F
100
AcDbEntity
  8
0
  6
Continuous
 62
     7
370
    15
100
AcDbCircle
 10
195.8786835489
 20
117.7798724709
 30
0.0
 40
0.9930875360895637
100
AcDbArc
 50
279.6651090934
 51
359.7826137289
  0
LINE
  5
A6
330
1F
100
AcDbEntity
  8
0
  6
Continuous
 62
     7
370
    15
100
AcDbLine
 10
189.7467639371
 20
122.0346391531
 30
0.0
 11
189.7467639368
 21
116.8812233348
 31
0.0
  0
ARC
  5
A7
330
1F
100
AcDbEntity
  8
0
  6
Continuous
 62
     7
370
    15
100
AcDbCircle
 10
190.7398443254
 20
122.0308712826
 30
0.0
 40
0.9930875360895781
100
AcDbArc
 50
99.6651090934
 51
179.7826137289
  0
CIRCLE
  5
A8
330
1F
100
AcDbEntity
  8
0
  6
Continuous
 62
     7
370
    15
100
AcDbCircle
 10
193.2888657617
 20
119.9016937762
 30
0.0
 40
3.029604057292
  0
LINE
  5
A9
330
1F
100
AcDbEntity
  8
0
  6
Continuous
 62
     7
370
    15
100
AcDbLine
 10
197.3789436141
 20
124.6525576066
 30
0.0
 11
197.6717639371
 21
125.0216597191
 31
0.0
  0
LINE
  5
AA
330
1F
100
AcDbEntity
  8
0
  6
Continuous
 62
     7
370
    15
100
AcDbLine
 10
197.6717639371
 20
125.0216597191
 30
0.0
 11
198.0717639371
 21
125.0538003701
 31
0.0
  0
LINE
  5
AB
330
1F
100
AcDbEntity
  8
0
  6
Continuous
 62
     7
370
    15
100
AcDbLine
 10
198.0717639371
 20
116.2804241722
 30
0.0
 11
198.0717639371
 21
125.0538003701
 31
0.0
  0
LINE
  5
AC
330
1F
100
AcDbEntity
  8
0
  6
Continuous
 62
     7
370
    15
100
AcDbLine
 10
197.3789436141
 20
124.5409315365
 30
0.0
 11
197.3789436141
 21
124.6525576066
 31
0.0
  0
ARC
  5
AD
330
1F
100
AcDbEntity
  8
0
  6
Continuous
 62
     7
370
    15
100
AcDbCircle
 10
193.3092639371
 20
119.7215935329
 30
0.0
 40
3.050694091328009
100
AcDbArc
 50
1.9489998048
 51
178.0510001997
  0
SPLINE
  5
AE
330
1F
100
AcDbEntity
  8
0
  6
Continuous
 62
     7
370
    15
100
AcDbSpline
210
0.0
220
0.0
230
1.0
 70
     8
 71
     3
 72
    11
 73
     7
 74
     0
 42
0.00000001
 43
0.00000001
 40
0.0
 40
0.0
 40
0.0
 40
0.0
 40
0.0079772990479748
 40
0.328773030273359
 40
0.6639702863844636
 40
1.0
 40
1.0
 40
1.0
 40
1.0
 10
189.6268384225215
 20
122.9281037086644
 30
0.0
 10
189.6255710928204
 20
122.929024511736
 30
0.0
 10
189.5733399023248
 20
122.9669741002285
 30
0.0
 10
189.4591037701834
 20
123.0536759308501
 30
0.0
 10
189.2737145725805
 20
123.2040632010745
 30
0.0
 10
189.1555579062391
 20
123.3091856469327
 30
0.0
 10
189.0964063039597
 20
123.3618120564328
 30
0.0
  0
SPLINE
  5
AF
330
1F
100
AcDbEntity
  8
0
  6
Continuous
 62
     7
370
    15
100
AcDbSpline
210
0.0
220
0.0
230
1.0
 70
     8
 71
     3
 72
    14
 73
    10
 74
     0
 42
0.00000001
 43
0.00000001
 40
0.0
 40
0.0
 40
0.0
 40
0.0
 40
0.1215026613286273
 40
0.2571357003598535
 40
0.3367055246604956
 40
0.4166989189548187
 40
0.5090573836378051
 40
0.6599898335543568
 40
1.0
 40
1.0
 40
1.0
 40
1.0
 10
196.9704241932815
 20
124.1704411535718
 30
0.0
 10
196.9969751404625
 20
124.157687732269
 30
0.0
 10
197.0531648265481
 20
124.1306977068423
 30
0.0
 10
197.1342803776158
 20
124.1113312505357
 30
0.0
 10
197.206792575437
 20
124.1191666857361
 30
0.0
 10
197.2623773081735
 20
124.1479132593285
 30
0.0
 10
197.3148859848158
 20
124.2075674145732
 30
0.0
 10
197.370041790688
 20
124.33947021147
 30
0.0
 10
197.3753011562889
 20
124.4584973716799
 30
0.0
 10
197.3789436141115
 20
124.5409315365003
 30
0.0
  0
SPLINE
  5
B0
330
1F
100
AcDbEntity
  8
0
  6
Continuous
 62
     7
370
    15
100
AcDbSpline
210
0.0
220
0.0
230
1.0
 70
     8
 71
     3
 72
     9
 73
     5
 74
     0
 42
0.00000001
 43
0.00000001
 40
0.0
 40
0.0
 40
0.0
 40
0.0
 40
0.9566959562428143
 40
1.0
 40
1.0
 40
1.0
 40
1.0
 10
196.9704241932815
 20
124.1704411535718
 30
0.0
 10
196.9471976796708
 20
124.145294477626
 30
0.0
 10
196.9229198373123
 20
124.1190095583873
 30
0.0
 10
196.899877565988
 20
124.094687149955
 30
0.0
 10
196.8988797424623
 20
124.0936338913159
 30
0.0
  0
LINE
  5
B1
330
1F
100
AcDbEntity
  8
0
  6
Continuous
 62
     7
370
    15
100
AcDbLine
 10
188.9467639371
 20
123.4981789304
 30
0.0
 11
188.8773046661
 21
123.92040905
 31
0.0
  0
LINE
  5
B2
330
1F
100
AcDbEntity
  8
0
  6
Continuous
 62
     7
370
    15
100
AcDbLine
 10
197.6023046661
 20
125.4438898387
 30
0.0
 11
188.8773046661
 21
123.92040905
 31
0.0
  0
LINE
  5
B3
330
1F
100
AcDbEntity
  8
0
  6
Continuous
 62
     7
370
    15
100
AcDbLine
 10
197.6717639371
 20
125.0216597191
 30
0.0
 11
197.6023046661
 21
125.4438898387
 31
0.0
  0
LINE
  5
B4
330
1F
100
AcDbEntity
  8
0
  6
Continuous
 62
     7
370
    15
100
AcDbLine
 10
197.3789436141
 20
124.6525576066
 30
0.0
 11
197.2679330477
 21
124.6331739429
 31
0.0
  0
ARC
  5
B5
330
1F
100
AcDbEntity
  8
0
  6
Continuous
 62
     7
370
    15
100
AcDbCircle
 10
188.9439960924
 20
123.5288124331
 30
0.0
 40
0.3972350144474807
100
AcDbArc
 50
99.6651090948
 51
179.7826137275
  0
SPLINE
  5
B6
330
1F
100
AcDbEntity
  8
0
  6
Continuous
 62
     7
370
    15
100
AcDbSpline
210
0.0
220
0.0
230
1.0
 70
     8
 71
     3
 72
    14
 73
    10
 74
     0
 42
0.00000001
 43
0.00000001
 40
0.0
 40
0.0
 40
0.0
 40
0.0
 40
0.3240421732228617
 40
0.4390834530321926
 40
0.5550339035688542
 40
0.6320175773817428
 40
0.709177714840497
 40
0.8120429782647952
 40
1.0
 40
1.0
 40
1.0
 40
1.0
 10
197.267933047652
 20
124.6331739429347
 30
0.0
 10
197.1903385304336
 20
124.6162334901711
 30
0.0
 10
197.0851964490257
 20
124.5932788468868
 30
0.0
 10
196.9674563118948
 20
124.526551595957
 30
0.0
 10
196.9119908006326
 20
124.4746438298729
 30
0.0
 10
196.8830409956179
 20
124.4148654988551
 30
0.0
 10
196.8779544147263
 20
124.351981833046
 30
0.0
 10
196.9025131626509
 20
124.265016452894
 30
0.0
 10
196.9437639870518
 20
124.2075690981891
 30
0.0
 10
196.9704241932815
 20
124.1704411535718
 30
0.0
  0
ARC
  5
B7
330
1F
100
AcDbEntity
  8
0
  6
Continuous
 62
     7
370
    15
100
AcDbCircle
 10
197.6729591257
 20
125.0513862683
 30
0.0
 40
0.3988121180280137
100
AcDbArc
 50
0.346826694
 51
100.2045134193
  0
SPLINE
  5
B8
330
1F
100
AcDbEntity
  8
0
  6
Continuous
 62
     7
370
    15
100
AcDbSpline
210
0.0
220
0.0
230
1.0
 70
     8
 71
     3
 72
    24
 73
    20
 74
     0
 42
0.00000001
 43
0.00000001
 40
0.0
 40
0.0
 40
0.0
 40
0.0
 40
0.0625000000000003
 40
0.0625000000000003
 40
0.1250000000000005
 40
0.1250000000000005
 40
0.1875000000000008
 40
0.1875000000000008
 40
0.2500000000000011
 40
0.2500000000000011
 40
0.3750000000000015
 40
0.3750000000000015
 40
0.500000000000002
 40
0.500000000000002
 40
0.6250000000000024
 40
0.6250000000000024
 40
0.7500000000000029
 40
0.7500000000000029
 40
1.0
 40
1.0
 40
1.0
 40
1.0
 10
173.3217639371391
 20
122.8077584637331
 30
0.0
 10
173.3885306957909
 20
122.9122276167749
 30
0.0
 10
173.4795905248206
 20
123.0059850975971
 30
0.0
 10
173.7035895265353
 20
123.1716206781451
 30
0.0
 10
173.8337168147708
 20
123.241995341849
 30
0.0
 10
174.1233369075375
 20
123.3646755251698
 30
0.0
 10
174.2841913956037
 20
123.4172414268483
 30
0.0
 10
174.6235893857217
 20
123.5069434282743
 30
0.0
 10
174.8017236850269
 20
123.5441927814427
 30
0.0
 10
175.3560886930805
 20
123.6400805383074
 30
0.0
 10
175.7547781986476
 20
123.6833843706601
 30
0.0
 10
176.5761702529437
 20
123.7472082251816
 30
0.0
 10
176.996659519586
 20
123.7675592770677
 30
0.0
 10
177.8522261429364
 20
123.7967933493098
 30
0.0
 10
178.2873743219262
 20
123.8055162841189
 30
0.0
 10
179.1700058874503
 20
123.8172483616401
 30
0.0
 10
179.6186114870046
 20
123.8202028180444
 30
0.0
 10
180.9660986100995
 20
123.8254808027721
 30
0.0
 10
181.8706450110705
 20
123.8248652956865
 30
0.0
 10
182.7807851528803
 20
123.8248652956865
 30
0.0
  0
LINE
  5
B9
330
1F
100
AcDbEntity
  8
0
  6
Continuous
 62
     7
370
    15
100
AcDbLine
 10
173.3217639371
 20
122.8077584637
 30
0.0
 11
173.3217639371
 21
123.8249075975
 31
0.0
  0
LINE
  5
BA
330
1F
100
AcDbEntity
  8
0
  6
Continuous
 62
     7
370
    15
100
AcDbLine
 10
173.3217639371
 20
107.3249075975
 30
0.0
 11
173.3217639371
 21
121.6805816221
 31
0.0
  0
SPLINE
  5
BB
330
1F
100
AcDbEntity
  8
0
  6
Continuous
 62
     7
370
    15
100
AcDbSpline
210
0.0
220
0.0
230
1.0
 70
     8
 71
     3
 72
    34
 73
    30
 74
     0
 42
0.00000001
 43
0.00000001
 40
0.0
 40
0.0
 40
0.0
 40
0.0
 40
0.0624999999999991
 40
0.0624999999999991
 40
0.1249999999999982
 40
0.1249999999999982
 40
0.2499999999999979
 40
0.2499999999999979
 40
0.3749999999999977
 40
0.3749999999999977
 40
0.4374999999999976
 40
0.4374999999999976
 40
0.4999999999999974
 40
0.4999999999999974
 40
0.6249999999999971
 40
0.6249999999999971
 40
0.6874999999999977
 40
0.6874999999999977
 40
0.7499999999999982
 40
0.7499999999999982
 40
0.8124999999999988
 40
0.8124999999999988
 40
0.8749999999999992
 40
0.8749999999999992
 40
0.9374999999999997
 40
0.9374999999999997
 40
0.9687499999999999
 40
0.9687499999999999
 40
1.0
 40
1.0
 40
1.0
 40
1.0
 10
187.7427727167399
 20
109.153984068177
 30
0.0
 10
187.37741821141
 20
109.2911907925285
 30
0.0
 10
187.0161724357129
 20
109.4405992067221
 30
0.0
 10
186.3002901209306
 20
109.7651368644664
 30
0.0
 10
185.9450207801873
 20
109.9406948472681
 30
0.0
 10
184.8999165602631
 20
110.4993287776773
 30
0.0
 10
184.2264696757759
 20
110.9162226724463
 30
0.0
 10
182.9068649380794
 20
111.8282018114369
 30
0.0
 10
182.2606214274429
 20
112.323109446993
 30
0.0
 10
181.2978971645441
 20
113.1142866829071
 30
0.0
 10
180.9781123001456
 20
113.3861487465378
 30
0.0
 10
180.338774303406
 20
113.9448132436208
 30
0.0
 10
180.0205695668147
 20
114.2304706924453
 30
0.0
 10
179.0787252051399
 20
115.0940624313084
 30
0.0
 10
178.4631742068907
 20
115.6819926422737
 30
0.0
 10
177.5536871373461
 20
116.5772104899997
 30
0.0
 10
177.2529123153769
 20
116.8779205821704
 30
0.0
 10
176.656623644972
 20
117.4844186016403
 30
0.0
 10
176.3609205867732
 20
117.790437206134
 30
0.0
 10
175.7868221804924
 20
118.3982161971377
 30
0.0
 10
175.5071148099223
 20
118.7012260372948
 30
0.0
 10
174.9670057271609
 20
119.3072929413837
 30
0.0
 10
174.7050679653281
 20
119.6120590156725
 30
0.0
 10
174.2173407801186
 20
120.2163919707898
 30
0.0
 10
173.9921285828044
 20
120.5146745490609
 30
0.0
 10
173.697565137526
 20
120.9587168563471
 30
0.0
 10
173.6062395528011
 20
121.1070588829015
 30
0.0
 10
173.4459784256774
 20
121.3980667657224
 30
0.0
 10
173.3769042317215
 20
121.5407341105637
 30
0.0
 10
173.3217639371391
 20
121.6805816221226
 30
0.0
  0
ELLIPSE
  5
BC
330
1F
100
AcDbEntity
  8
0
  6
Continuous
 62
     7
370
    15
100
AcDbEllipse
 10
201.2813327875
 20
115.5749075975
 30
0.0
 11
14.43232259612301
 21
8.249996543800533
 31
0.0
210
0.0
220
0.0
230
1.0
 40
0.0005232068
 41
3.142507937255696
 42
3.495067020207321
  0
LINE
  5
BD
330
1F
100
AcDbEntity
  8
0
  6
Continuous
 62
     7
370
    15
100
AcDbLine
 10
182.7807851529
 20
123.8248652957
 30
0.0
 11
185.9925178522
 21
123.8248652957
 31
0.0
  0
SPLINE
  5
BE
330
1F
100
AcDbEntity
  8
0
  6
Continuous
 62
     7
370
    15
100
AcDbSpline
210
0.0
220
0.0
230
1.0
 70
     8
 71
     3
 72
     8
 73
     4
 74
     0
 42
0.00000001
 43
0.00000001
 40
0.0
 40
0.0
 40
0.0
 40
0.0
 40
1.0
 40
1.0
 40
1.0
 40
1.0
 10
173.3217639371391
 20
121.6805816221226
 30
0.0
 10
173.2453813494334
 20
122.0560670364044
 30
0.0
 10
173.2417195627708
 20
122.4287909598845
 30
0.0
 10
173.3217639371391
 20
122.8077584637331
 30
0.0
  0
LINE
  5
BF
330
1F
100
AcDbEntity
  8
0
  6
Continuous
 62
     7
370
    15
100
AcDbLine
 10
173.0717639371
 20
107.5749075975
 30
0.0
 11
173.0717639371
 21
123.5749075975
 31
0.0
  0
ELLIPSE
  5
C0
330
1F
100
AcDbEntity
  8
0
  6
Continuous
 62
     7
370
    15
100
AcDbEllipse
 10
192.81353859
 20
115.1838428682
 30
0.0
 11
12.02739279990752
 21
2.11418945211048
 31
0.0
210
0.0
220
0.0
230
1.0
 40
0.0126200975
 41
4.550547092808754
 42
4.622665613796391
  0
ELLIPSE
  5
C1
330
1F
100
AcDbEntity
  8
0
  6
Continuous
 62
     7
370
    15
100
AcDbEllipse
 10
195.6536837341
 20
112.3436977241
 30
0.0
 11
8.998575878111609
 21
5.143559196212024
 31
0.0
210
0.0
220
0.0
230
1.0
 40
0.0010222726
 41
1.669644772240013
 42
2.389445550880824
  0
SPLINE
  5
C2
330
1F
100
AcDbEntity
  8
0
  6
Continuous
 62
     7
370
    15
100
AcDbSpline
210
0.0
220
0.0
230
1.0
 70
     8
 71
     3
 72
     9
 73
     5
 74
     0
 42
0.00000001
 43
0.00000001
 40
0.0
 40
0.0
 40
0.0
 40
0.0
 40
0.5
 40
1.0
 40
1.0
 40
1.0
 40
1.0
 10
188.8559309802604
 20
108.6616975334647
 30
0.0
 10
188.8930384937125
 20
108.6501957713204
 30
0.0
 10
188.9673431569878
 20
108.62741811099
 30
0.0
 10
189.0418294375571
 20
108.6050881453483
 30
0.0
 10
189.0791185559864
 20
108.5940340613276
 30
0.0
  0
SPLINE
  5
C3
330
1F
100
AcDbEntity
  8
0
  6
Continuous
 62
     7
370
    15
100
AcDbSpline
210
0.0
220
0.0
230
1.0
 70
     8
 71
     3
 72
     8
 73
     4
 74
     0
 42
0.00000001
 43
0.00000001
 40
0.0
 40
0.0
 40
0.0
 40
0.0
 40
1.0
 40
1.0
 40
1.0
 40
1.0
 10
188.8559309802604
 20
108.6616975334647
 30
0.0
 10
188.6577095514132
 20
108.7498516969821
 30
0.0
 10
188.4603147242324
 20
108.8404407988683
 30
0.0
 10
188.2637172497407
 20
108.933587092038
 30
0.0
  0
SPLINE
  5
C4
330
1F
100
AcDbEntity
  8
0
  6
Continuous
 62
     7
370
    15
100
AcDbSpline
210
0.0
220
0.0
230
1.0
 70
     8
 71
     3
 72
     8
 73
     4
 74
     0
 42
0.00000001
 43
0.00000001
 40
0.0
 40
0.0
 40
0.0
 40
0.0
 40
1.0
 40
1.0
 40
1.0
 40
1.0
 10
188.2637172497407
 20
108.9335870920381
 30
0.0
 10
188.0895653201087
 20
109.0160988676116
 30
0.0
 10
187.9157134368556
 20
109.0890372032338
 30
0.0
 10
187.7427727167399
 20
109.1539840681771
 30
0.0
  0
SPLINE
  5
C5
330
1F
100
AcDbEntity
  8
0
  6
Continuous
 62
     7
370
    15
100
AcDbSpline
210
0.0
220
0.0
230
1.0
 70
     8
 71
     3
 72
    54
 73
    50
 74
     0
 42
0.00000001
 43
0.00000001
 40
0.0
 40
0.0
 40
0.0
 40
0.0
 40
0.0312499999999981
 40
0.0312499999999981
 40
0.0624999999999962
 40
0.0624999999999962
 40
0.1249999999999954
 40
0.1249999999999954
 40
0.1874999999999946
 40
0.1874999999999946
 40
0.2499999999999937
 40
0.2499999999999937
 40
0.3124999999999929
 40
0.3124999999999929
 40
0.3437499999999925
 40
0.3437499999999925
 40
0.3749999999999921
 40
0.3749999999999921
 40
0.4062499999999917
 40
0.4062499999999917
 40
0.4374999999999913
 40
0.4374999999999913
 40
0.4687499999999909
 40
0.4687499999999909
 40
0.4999999999999906
 40
0.4999999999999906
 40
0.5312499999999902
 40
0.5312499999999902
 40
0.5624999999999899
 40
0.5624999999999899
 40
0.5937499999999896
 40
0.5937499999999896
 40
0.6249999999999892
 40
0.6249999999999892
 40
0.6562499999999889
 40
0.6562499999999889
 40
0.6874999999999886
 40
0.6874999999999886
 40
0.7499999999999905
 40
0.7499999999999905
 40
0.8124999999999925
 40
0.8124999999999925
 40
0.8749999999999944
 40
0.8749999999999944
 40
0.9374999999999963
 40
0.9374999999999963
 40
0.9687499999999982
 40
0.9687499999999982
 40
1.0
 40
1.0
 40
1.0
 40
1.0
 10
186.2710883705729
 20
120.3345620779939
 30
0.0
 10
186.1224349616826
 20
120.3537941024269
 30
0.0
 10
185.9744670046636
 20
120.3606252472601
 30
0.0
 10
185.6792429516594
 20
120.3640181280698
 30
0.0
 10
185.532010894455
 20
120.3600659320027
 30
0.0
 10
185.091180458233
 20
120.3377474094216
 30
0.0
 10
184.7984362459298
 20
120.3091228249555
 30
0.0
 10
184.2150186032274
 20
120.2327072705257
 30
0.0
 10
183.9266082169221
 20
120.1848353046855
 30
0.0
 10
183.3615387594405
 20
120.0693574650101
 30
0.0
 10
183.0841813772983
 20
120.0017277903892
 30
0.0
 10
182.5431778889521
 20
119.8384532050512
 30
0.0
 10
182.2784823575168
 20
119.7423941496301
 30
0.0
 10
181.9126556390321
 20
119.568724944605
 30
0.0
 10
181.7954309558883
 20
119.5056991244798
 30
0.0
 10
181.5735058249786
 20
119.3649292482824
 30
0.0
 10
181.4682936101978
 20
119.2866495100397
 30
0.0
 10
181.2830574301026
 20
119.1135294560649
 30
0.0
 10
181.2012410641345
 20
119.0167897604326
 30
0.0
 10
181.0783842112467
 20
118.8054392681408
 30
0.0
 10
181.0361028498422
 20
118.6884692422397
 30
0.0
 10
181.0101763071817
 20
118.437899274211
 30
0.0
 10
181.0277996318765
 20
118.3044332586811
 30
0.0
 10
181.1236068879822
 20
118.047208402742
 30
0.0
 10
181.2018606179169
 20
117.9218566638159
 30
0.0
 10
181.3962945604532
 20
117.6980093173725
 30
0.0
 10
181.5105338405368
 20
117.6001530380011
 30
0.0
 10
181.7576761065086
 20
117.4321499102283
 30
0.0
 10
181.8893945209227
 20
117.3629056937982
 30
0.0
 10
182.157942573377
 20
117.2515661086019
 30
0.0
 10
182.2974528026268
 20
117.2085951301319
 30
0.0
 10
182.5740375350815
 20
117.1475193250472
 30
0.0
 10
182.7120412003167
 20
117.1288790203095
 30
0.0
 10
182.9882769722395
 20
117.1119953235685
 30
0.0
 10
183.1273475286688
 20
117.1139463548571
 30
0.0
 10
183.39959309094
 20
117.1360239250159
 30
0.0
 10
183.5333937340439
 20
117.1560076711404
 30
0.0
 10
183.9296847798181
 20
117.2393690180295
 30
0.0
 10
184.1894868319674
 20
117.3270937299619
 30
0.0
 10
184.6889628535447
 20
117.5500105356698
 30
0.0
 10
184.9279373522258
 20
117.6842330727748
 30
0.0
 10
185.3903185202792
 20
117.9908005945727
 30
0.0
 10
185.6150179744886
 20
118.1642671072579
 30
0.0
 10
186.0432917438623
 20
118.54361757359
 30
0.0
 10
186.2466067008194
 20
118.7477625190898
 30
0.0
 10
186.526755788201
 20
119.0837357959198
 30
0.0
 10
186.6158467038884
 20
119.2006942966948
 30
0.0
 10
186.7740138600203
 20
119.4457240974646
 30
0.0
 10
186.846094022114
 20
119.5728070528524
 30
0.0
 10
186.8883211460404
 20
119.7173293025264
 30
0.0
  0
SPLINE
  5
C6
330
1F
100
AcDbEntity
  8
0
  6
Continuous
 62
     7
370
    15
100
AcDbSpline
210
0.0
220
0.0
230
1.0
 70
     8
 71
     3
 72
    36
 73
    32
 74
     0
 42
0.00000001
 43
0.00000001
 40
0.0
 40
0.0
 40
0.0
 40
0.0
 40
0.0625000000000042
 40
0.0625000000000042
 40
0.1250000000000084
 40
0.1250000000000084
 40
0.1875000000000125
 40
0.1875000000000125
 40
0.2500000000000167
 40
0.2500000000000167
 40
0.3750000000000191
 40
0.3750000000000191
 40
0.4375000000000173
 40
0.4375000000000173
 40
0.5000000000000153
 40
0.5000000000000153
 40
0.5625000000000135
 40
0.5625000000000135
 40
0.6250000000000115
 40
0.6250000000000115
 40
0.6875000000000097
 40
0.6875000000000097
 40
0.7500000000000077
 40
0.7500000000000077
 40
0.8125000000000058
 40
0.8125000000000058
 40
0.8750000000000039
 40
0.8750000000000039
 40
0.9375000000000019
 40
0.9375000000000019
 40
1.0
 40
1.0
 40
1.0
 40
1.0
 10
190.9018216620862
 20
114.6933668646517
 30
0.0
 10
190.860715951299
 20
114.5646343345817
 30
0.0
 10
190.8041827632291
 20
114.44381367453
 30
0.0
 10
190.6622618408321
 20
114.2190654696102
 30
0.0
 10
190.5760348689551
 20
114.1149115117067
 30
0.0
 10
190.3835632978667
 20
113.9345602430358
 30
0.0
 10
190.2748365739936
 20
113.8558784875811
 30
0.0
 10
190.0428098235292
 20
113.7288306519209
 30
0.0
 10
189.9202993455345
 20
113.6802829429938
 30
0.0
 10
189.5328172865514
 20
113.5794318161226
 30
0.0
 10
189.2566454947268
 20
113.5764014329193
 30
0.0
 10
188.8622040998644
 20
113.6663174799479
 30
0.0
 10
188.7314698045756
 20
113.7127650893196
 30
0.0
 10
188.4878360889132
 20
113.833312698906
 30
0.0
 10
188.3726166578521
 20
113.9081245132701
 30
0.0
 10
188.1621878832747
 20
114.0839362430753
 30
0.0
 10
188.0696379465151
 20
114.1823439081478
 30
0.0
 10
187.9095549107915
 20
114.3999276140946
 30
0.0
 10
187.843475568566
 20
114.5179051856102
 30
0.0
 10
187.7437586854571
 20
114.7620683567234
 30
0.0
 10
187.7091917646656
 20
114.8910205685944
 30
0.0
 10
187.6739399674439
 20
115.147767244503
 30
0.0
 10
187.6726050743938
 20
115.2781648544003
 30
0.0
 10
187.7027099498343
 20
115.534822641396
 30
0.0
 10
187.7335593334053
 20
115.6592180112098
 30
0.0
 10
187.8268478528144
 20
115.9007440144473
 30
0.0
 10
187.8891530605403
 20
116.0163146998396
 30
0.0
 10
188.0399753632061
 20
116.2283628560026
 30
0.0
 10
188.1305968551866
 20
116.3274296324383
 30
0.0
 10
188.3323925913353
 20
116.4996162845934
 30
0.0
 10
188.4434429450329
 20
116.573468044183
 30
0.0
 10
188.5651148386736
 20
116.6343763135859
 30
0.0
  0
LINE
  5
C7
330
1F
100
AcDbEntity
  8
0
  6
Continuous
 62
     7
370
    15
100
AcDbLine
 10
93.0717639371
 20
108.9499075975
 30
0.0
 11
93.0717639371
 21
121.7749075975
 31
0.0
  0
SPLINE
  5
C8
330
1F
100
AcDbEntity
  8
0
  6
Continuous
 62
     7
370
    15
100
AcDbSpline
210
0.0
220
0.0
230
1.0
 70
    24
 71
     3
 72
    10
 73
     6
 74
     0
 42
0.00000001
 43
0.00000001
 40
0.0
 40
0.0
 40
0.0
 40
0.0
 40
0.5
 40
0.5
 40
1.0
 40
1.0
 40
1.0
 40
1.0
 10
94.4467639371391
 20
121.7749075975359
 30
0.0
 10
94.17452374982189
 20
121.7749075975359
 30
0.0
 10
93.91615964163388
 20
121.7749075975359
 30
0.0
 10
93.4500936238185
 20
121.7749075975359
 30
0.0
 10
93.24150312069082
 20
121.7749075975359
 30
0.0
 10
93.07176393713908
 20
121.7749075975359
 30
0.0
  0
LINE
  5
C9
330
1F
100
AcDbEntity
  8
0
  6
Continuous
 62
     7
370
    15
100
AcDbLine
 10
94.4467639371
 20
107.5749075975
 30
0.0
 11
94.4467639371
 21
121.7749075975
 31
0.0
  0
LINE
  5
CA
330
1F
100
AcDbEntity
  8
0
  6
Continuous
 62
     7
370
    15
100
AcDbLine
 10
102.5717639371
 20
121.7749075975
 30
0.0
 11
94.4467639371
 21
121.7749075975
 31
0.0
  0
LINE
  5
CB
330
1F
100
AcDbEntity
  8
0
  6
Continuous
 62
     7
370
    15
100
AcDbLine
 10
104.3717639371
 20
123.5749075975
 30
0.0
 11
102.5717639371
 21
121.7749075975
 31
0.0
  0
LINE
  5
CC
330
1F
100
AcDbEntity
  8
0
  6
Continuous
 62
     7
370
    15
100
AcDbLine
 10
109.0717639371
 20
121.7749075975
 30
0.0
 11
107.2717639371
 21
123.5749075975
 31
0.0
  0
LINE
  5
CD
330
1F
100
AcDbEntity
  8
0
  6
Continuous
 62
     7
370
    15
100
AcDbLine
 10
117.0717639371
 20
121.7749075975
 30
0.0
 11
109.0717639371
 21
121.7749075975
 31
0.0
  0
LINE
  5
CE
330
1F
100
AcDbEntity
  8
0
  6
Continuous
 62
     7
370
    15
100
AcDbLine
 10
118.8717639371
 20
123.5749075975
 30
0.0
 11
117.0717639371
 21
121.7749075975
 31
0.0
  0
LINE
  5
CF
330
1F
100
AcDbEntity
  8
0
  6
Continuous
 62
     7
370
    15
100
AcDbLine
 10
123.5717639371
 20
121.7749075975
 30
0.0
 11
121.7717639371
 21
123.5749075975
 31
0.0
  0
LINE
  5
D0
330
1F
100
AcDbEntity
  8
0
  6
Continuous
 62
     7
370
    15
100
AcDbLine
 10
131.5717639371
 20
121.7749075975
 30
0.0
 11
123.5717639371
 21
121.7749075975
 31
0.0
  0
LINE
  5
D1
330
1F
100
AcDbEntity
  8
0
  6
Continuous
 62
     7
370
    15
100
AcDbLine
 10
133.3717639371
 20
123.5749075975
 30
0.0
 11
131.5717639371
 21
121.7749075975
 31
0.0
  0
LINE
  5
D2
330
1F
100
AcDbEntity
  8
0
  6
Continuous
 62
     7
370
    15
100
AcDbLine
 10
138.0717639371
 20
121.7749075975
 30
0.0
 11
136.2717639371
 21
123.5749075975
 31
0.0
  0
LINE
  5
D3
330
1F
100
AcDbEntity
  8
0
  6
Continuous
 62
     7
370
    15
100
AcDbLine
 10
146.0717639371
 20
121.7749075975
 30
0.0
 11
138.0717639371
 21
121.7749075975
 31
0.0
  0
LINE
  5
D4
330
1F
100
AcDbEntity
  8
0
  6
Continuous
 62
     7
370
    15
100
AcDbLine
 10
147.8717639371
 20
123.5749075975
 30
0.0
 11
146.0717639371
 21
121.7749075975
 31
0.0
  0
LINE
  5
D5
330
1F
100
AcDbEntity
  8
0
  6
Continuous
 62
     7
370
    15
100
AcDbLine
 10
152.5717639371
 20
121.7749075975
 30
0.0
 11
150.7717639371
 21
123.5749075975
 31
0.0
  0
LINE
  5
D6
330
1F
100
AcDbEntity
  8
0
  6
Continuous
 62
     7
370
    15
100
AcDbLine
 10
160.5717639371
 20
121.7749075975
 30
0.0
 11
152.5717639371
 21
121.7749075975
 31
0.0
  0
LINE
  5
D7
330
1F
100
AcDbEntity
  8
0
  6
Continuous
 62
     7
370
    15
100
AcDbLine
 10
162.3717639371
 20
123.5749075975
 30
0.0
 11
160.5717639371
 21
121.7749075975
 31
0.0
  0
SPLINE
  5
D8
330
1F
100
AcDbEntity
  8
0
  6
Continuous
 62
     7
370
    15
100
AcDbSpline
210
0.0
220
0.0
230
1.0
 70
     8
 71
     3
 72
     8
 73
     4
 74
     0
 42
0.00000001
 43
0.00000001
 40
0.0000003858788753
 40
0.0000003858788753
 40
0.0000003858788753
 40
0.0000003858788753
 40
0.0010071622594938
 40
0.0010071622594938
 40
0.0010071622594938
 40
0.0010071622594938
 10
187.7427727167399
 20
107.8323474925821
 30
0.0
 10
187.9167090264962
 20
107.9314483092747
 30
0.0
 10
188.0905910429835
 20
108.0305180317352
 30
0.0
 10
188.2637172497407
 20
108.1291549265159
 30
0.0
  0
LINE
  5
D9
330
1F
100
AcDbEntity
  8
0
  6
Continuous
 62
     7
370
    15
100
AcDbLine
 10
188.8559309803
 20
108.4666906359
 30
0.0
 11
188.8559309803
 21
108.6616975335
 31
0.0
  0
ELLIPSE
  5
DA
330
1F
100
AcDbEntity
  8
0
  6
Continuous
 62
     7
370
    15
100
AcDbEllipse
 10
207.59730663
 20
119.1853274104
 30
0.0
 11
20.47572251187304
 21
11.70460492357134
 31
0.0
210
0.0
220
0.0
230
1.0
 40
0.0004976935
 41
3.476886250270804
 42
3.555858892698294
  0
ELLIPSE
  5
DB
330
1F
100
AcDbEntity
  8
0
  6
Continuous
 62
     7
370
    15
100
AcDbEllipse
 10
201.2813327875
 20
115.5749075975
 30
0.0
 11
14.69472846154554
 21
8.399996480982523
 31
0.0
210
0.0
220
0.0
230
0.9999999999999999
 40
0.0005232068
 41
3.704460532344618
 42
3.732299956745002
  0
ELLIPSE
  5
DC
330
1F
100
AcDbEntity
  8
0
  6
Continuous
 62
     7
370
    15
100
AcDbEllipse
 10
180.8979103128
 20
117.4416081325
 30
0.0
 11
5.985185524255939
 21
2.573606531792734
 31
0.0
210
0.0
220
0.0
230
0.9999999999999999
 40
0.2283468585
 41
6.096771659035153
 42
6.651139212513558
  0
ARC
  5
DD
330
1F
100
AcDbEntity
  8
0
  6
Continuous
 62
     7
370
    15
100
AcDbCircle
 10
189.3113331734
 20
114.6300928269
 30
0.0
 40
1.634686176481504
100
AcDbArc
 50
117.8861531462
 51
171.3753448345
  0
LINE
  5
DE
330
1F
100
AcDbEntity
  8
0
  6
Continuous
 62
     7
370
    15
100
AcDbLine
 10
197.747207025
 20
115.8882379926
 30
0.0
 11
191.7624216818
 21
114.8432287668
 31
0.0
  0
LINE
  5
DF
330
1F
100
AcDbEntity
  8
0
  6
Continuous
 62
     7
370
    15
100
AcDbLine
 10
197.747207025
 20
114.6878359853
 30
0.0
 11
197.747207025
 21
115.8882379926
 31
0.0
  0
ELLIPSE
  5
E0
330
1F
100
AcDbEntity
  8
0
  6
Continuous
 62
     7
370
    15
100
AcDbEllipse
 10
195.732187374
 20
114.7049463938
 30
0.0
 11
1.947284583039647
 21
-0.5269891811421417
 31
0.0
210
0.0
220
0.0
230
0.9999999999999999
 40
0.9830576678
 41
5.504603794413031
 42
6.543205022492263
  0
LINE
  5
E1
330
1F
100
AcDbEntity
  8
0
  6
Continuous
 62
     7
370
    15
100
AcDbLine
 10
194.7604038832
 20
111.8452465654
 30
0.0
 11
196.7546608733
 21
112.9854261777
 31
0.0
  0
SPLINE
  5
E2
330
1F
100
AcDbEntity
  8
0
  6
Continuous
 62
     7
370
    15
100
AcDbSpline
210
0.0
220
0.0
230
1.0
 70
     8
 71
     3
 72
    14
 73
    10
 74
     0
 42
0.00000001
 43
0.00000001
 40
0.0
 40
0.0
 40
0.0
 40
0.0
 40
0.2499999999999998
 40
0.2499999999999998
 40
0.4999999999999996
 40
0.4999999999999996
 40
0.7499999999999998
 40
0.7499999999999998
 40
1.0
 40
1.0
 40
1.0
 40
1.0
 10
187.8001864667818
 20
123.2295407403262
 30
0.0
 10
187.6356544026926
 20
123.2008116355957
 30
0.0
 10
187.4709980994115
 20
123.1927250860589
 30
0.0
 10
187.141445056459
 20
123.216500906393
 30
0.0
 10
186.976227263656
 20
123.2491710261654
 30
0.0
 10
186.66363478338
 20
123.3520652916639
 30
0.0
 10
186.5119533922814
 20
123.423599947198
 30
0.0
 10
186.2331505371831
 20
123.6003610373399
 30
0.0
 10
186.1063888473488
 20
123.7045513396424
 30
0.0
 10
185.992517852249
 20
123.8248652956865
 30
0.0
  0
LINE
  5
E3
330
1F
100
AcDbEntity
  8
0
  6
Continuous
 62
     7
370
    15
100
AcDbLine
 10
188.5467639371
 20
123.3599013631
 30
0.0
 11
187.8001864668
 21
123.2295407403
 31
0.0
  0
ARC
  5
E4
330
1F
100
AcDbEntity
  8
0
  6
HIDDEN
 62
     7
370
     0
100
AcDbCircle
 10
193.6846591815
 20
118.3670977227
 30
0.0
 40
0.3351164801281983
100
AcDbArc
 50
213.4744228104
 51
6.2727952465
  0
ARC
  5
E5
330
1F
100
AcDbEntity
  8
0
  6
HIDDEN
 62
     7
370
     0
100
AcDbCircle
 10
192.3629786476
 20
118.5949061162
 30
0.0
 40
0.3337732884171967
100
AcDbArc
 50
153.655159155
 51
307.0028355104
  0
ARC
  5
E6
330
1F
100
AcDbEntity
  8
0
  6
HIDDEN
 62
     7
370
     0
100
AcDbCircle
 10
194.5961794303
 20
118.4706390393
 30
0.0
 40
0.5822691188320455
100
AcDbArc
 50
92.9546086181
 51
186.6001335262
  0
ARC
  5
E7
330
1F
100
AcDbEntity
  8
0
  6
HIDDEN
 62
     7
370
     0
100
AcDbCircle
 10
193.2272572417
 20
119.6494211471
 30
0.0
 40
2.625076166315092
100
AcDbArc
 50
0.4364647737
 51
179.5635352263
  0
ARC
  5
E8
330
1F
100
AcDbEntity
  8
0
  6
HIDDEN
 62
     7
370
     0
100
AcDbCircle
 10
191.5459853903
 20
119.0025207927
 30
0.0
 40
0.5804119929064868
100
AcDbArc
 50
0.1363298892
 51
67.1894825062
  0
ARC
  5
E9
330
1F
100
AcDbEntity
  8
0
  6
HIDDEN
 62
     7
370
     0
100
AcDbCircle
 10
194.5496149327
 20
119.383634189
 30
0.0
 40
0.3319129971290505
100
AcDbArc
 50
272.8583625827
 51
21.791039483
  0
ARC
  5
EA
330
1F
100
AcDbEntity
  8
0
  6
HIDDEN
 62
     7
370
     0
100
AcDbCircle
 10
191.898699575
 20
119.8425646334
 30
0.0
 40
0.3306760753473322
100
AcDbArc
 50
164.4454382536
 51
247.2835873848
  0
ARC
  5
EB
330
1F
100
AcDbEntity
  8
0
  6
HIDDEN
 62
     7
370
     0
100
AcDbCircle
 10
194.8992230644
 20
120.2218274484
 30
0.0
 40
0.5757988462647766
100
AcDbArc
 50
153.0512956478
 51
179.9928814987
  0
LINE
  5
EC
330
1F
100
AcDbEntity
  8
0
  6
HIDDEN
 62
     7
370
     0
100
AcDbLine
 10
192.4361864771
 20
120.753250388
 30
0.0
 11
192.4320506613
 21
120.8220874752
 31
0.0
  0
ARC
  5
ED
330
1F
100
AcDbEntity
  8
0
  6
HIDDEN
 62
     7
370
     0
100
AcDbCircle
 10
194.0928560842
 20
120.6318323805
 30
0.0
 40
0.3288180641059237
100
AcDbArc
 50
333.0436279491
 51
18.179187875
  0
LWPOLYLINE
  5
EE
330
1F
100
AcDbEntity
  8
0
  6
HIDDEN
 62
     7
370
     0
100
AcDbPolyline
 90
        3
 70
   128
 43
0.0
 10
192.4320506613
 20
120.8220874752
 10
192.4374761784
 20
120.9325422457
 10
192.4528091691
 20
120.9825315955
  0
ARC
  5
EF
330
1F
100
AcDbEntity
  8
0
  6
HIDDEN
 62
     7
370
     0
100
AcDbCircle
 10
192.9149194166
 20
117.8546633331
 30
0.0
 40
0.5895959146237694
100
AcDbArc
 50
33.753978084
 51
126.5426511313
  0
ARC
  5
F0
330
1F
100
AcDbEntity
  8
0
  6
HIDDEN
 62
     7
370
     0
100
AcDbCircle
 10
193.2272865357
 20
119.3164121086
 30
0.0
 40
2.017251819091076
100
AcDbArc
 50
260.0855443872
 51
295.4172716861
  0
ARC
  5
F1
330
1F
100
AcDbEntity
  8
0
  6
HIDDEN
 62
     7
370
     0
100
AcDbCircle
 10
193.2329089021
 20
119.290471521
 30
0.0
 40
1.992691792053607
100
AcDbArc
 50
306.4403177507
 51
259.7978758745
  0
ARC
  5
F2
330
1F
100
AcDbEntity
  8
0
  6
HIDDEN
 62
     7
370
     0
100
AcDbCircle
 10
193.2395904709
 20
118.5701588135
 30
0.0
 40
1.983529795384809
100
AcDbArc
 50
259.5540505434
 51
34.156979091
  0
ARC
  5
F3
330
1F
100
AcDbEntity
  8
0
  6
HIDDEN
 62
     7
370
     0
100
AcDbCircle
 10
193.2260492915
 20
118.5772677585
 30
0.0
 40
1.988119447610443
100
AcDbArc
 50
39.81933564
 51
259.9749760837
  0
CIRCLE
  5
F4
330
1F
100
AcDbEntity
  8
0
  6
HIDDEN
 62
     7
370
     0
100
AcDbCircle
 10
193.220731951
 20
118.569670884
 30
0.0
 40
1.894372545902153
  0
LINE
  5
F5
330
1F
100
AcDbEntity
  8
0
  6
HIDDEN
 62
     7
370
     0
100
AcDbLine
 10
188.9467639371
 20
114.3035538043
 30
0.0
 11
188.5467639371
 21
114.7569433834
 31
0.0
  0
LINE
  5
F6
330
1F
100
AcDbEntity
  8
0
  6
HIDDEN
 62
     7
370
     0
100
AcDbLine
 10
197.6717639371
 20
115.8270345931
 30
0.0
 11
197.7369589452
 21
115.8864485654
 31
0.0
  0
LINE
  5
F7
330
1F
100
AcDbEntity
  8
0
  6
HIDDEN
 62
     7
370
     0
100
AcDbLine
 10
197.5843092304
 20
115.8005760132
 30
0.0
 11
197.6717639371
 21
115.8270345931
 31
0.0
  0
LINE
  5
F8
330
1F
100
AcDbEntity
  8
0
  6
HIDDEN
 62
     7
370
     0
100
AcDbLine
 10
190.8691728947
 20
114.6280394858
 30
0.0
 11
197.5843092304
 21
115.8005760132
 31
0.0
  0
LINE
  5
F9
330
1F
100
AcDbEntity
  8
0
  6
HIDDEN
 62
     7
370
     0
100
AcDbLine
 10
197.6717639371
 20
115.8270345931
 30
0.0
 11
198.0717639371
 21
116.2804241722
 31
0.0
  0
ARC
  5
FA
330
1F
100
AcDbEntity
  8
0
  6
HIDDEN
 62
     7
370
     0
100
AcDbCircle
 10
193.3092639371
 20
119.7659856394
 30
0.0
 40
3.049507074490093
100
AcDbArc
 50
178.8846098806
 51
1.1153901239
  0
LINE
  5
FB
330
1F
100
AcDbEntity
  8
0
  6
HIDDEN
 62
     7
370
     0
100
AcDbLine
 10
197.5843092304
 20
124.3980730035
 30
0.0
 11
197.6717639371
 21
124.600410791
 31
0.0
  0
LINE
  5
FC
330
1F
100
AcDbEntity
  8
0
  6
HIDDEN
 62
     7
370
     0
100
AcDbLine
 10
189.0342186439
 20
122.9051333186
 30
0.0
 11
188.9467639371
 21
123.0769300022
 31
0.0
  0
LINE
  5
FD
330
1F
100
AcDbEntity
  8
0
  6
HIDDEN
 62
     7
370
     0
100
AcDbLine
 10
188.9467639371
 20
123.0769300022
 30
0.0
 11
188.8773046661
 21
123.92040905
 31
0.0
  0
LINE
  5
FE
330
1F
100
AcDbEntity
  8
0
  6
HIDDEN
 62
     7
370
     0
100
AcDbLine
 10
188.9467639371
 20
123.0769300022
 30
0.0
 11
188.5467639371
 21
123.5303195813
 31
0.0
  0
LINE
  5
FF
330
1F
100
AcDbEntity
  8
0
  6
HIDDEN
 62
     7
370
     0
100
AcDbLine
 10
197.6717639371
 20
124.600410791
 30
0.0
 11
197.6023046661
 21
125.4438898387
 31
0.0
  0
LINE
  5
100
330
1F
100
AcDbEntity
  8
0
  6
HIDDEN
 62
     7
370
     0
100
AcDbLine
 10
197.6717639371
 20
124.600410791
 30
0.0
 11
198.0717639371
 21
125.0538003701
 31
0.0
  0
LWPOLYLINE
  5
101
330
1F
100
AcDbEntity
  8
0
  6
HIDDEN
 62
     7
370
     0
100
AcDbPolyline
 90
        3
 70
   128
 43
0.0
 10
191.1092639371
 20
119.548625375
 10
191.1644225303
 20
119.0638435489
 10
191.2261805315
 20
118.8478656728
  0
LINE
  5
102
330
1F
100
AcDbEntity
  8
0
  6
HIDDEN
 62
     7
370
     0
100
AcDbLine
 10
195.5092639371
 20
119.548625375
 30
0.0
 11
195.5085259873
 21
119.6050483671
 31
0.0
  0
CIRCLE
  5
103
330
1F
100
AcDbEntity
  8
0
  6
HIDDEN
 62
     7
370
     0
100
AcDbCircle
 10
193.2952379548
 20
119.3496629066
 30
0.0
 40
2.185976347863183
  0
LINE
  5
104
330
1F
100
AcDbEntity
  8
0
  6
HIDDEN
 62
     7
370
     0
100
AcDbLine
 10
197.5843092304
 20
124.3980730035
 30
0.0
 11
189.0342186439
 21
122.9051333186
 31
0.0
  0
LINE
  5
105
330
1F
100
AcDbEntity
  8
0
  6
HIDDEN
 62
     7
370
     0
100
AcDbLine
 10
197.5843092304
 20
115.8005760132
 30
0.0
 11
197.5843092304
 21
124.3980730035
 31
0.0
  0
LINE
  5
106
330
1F
100
AcDbEntity
  8
0
  6
HIDDEN
 62
     7
370
     0
100
AcDbLine
 10
189.0342186439
 20
122.9051333186
 30
0.0
 11
189.0342186439
 21
114.3076363283
 31
0.0
  0
LINE
  5
107
330
1F
100
AcDbEntity
  8
0
  6
HIDDEN
 62
     7
370
     0
100
AcDbLine
 10
173.3217639371
 20
121.717981721
 30
0.0
 11
173.3217639371
 21
121.6805816221
 31
0.0
  0
ELLIPSE
  5
108
330
1F
100
AcDbEntity
  8
0
  6
HIDDEN
 62
     7
370
     0
100
AcDbEllipse
 10
201.2813327875
 20
115.5749075975
 30
0.0
 11
14.43232259612301
 21
8.249996543800533
 31
0.0
210
0.0
220
0.0
230
1.0
 40
0.0005232068
 41
2.787520122154603
 42
3.142507937255696
  0
SPLINE
  5
109
330
1F
100
AcDbEntity
  8
0
  6
HIDDEN
 62
     7
370
     0
100
AcDbSpline
210
0.0
220
0.0
230
1.0
 70
     8
 71
     3
 72
    24
 73
    20
 74
     0
 42
0.00000001
 43
0.00000001
 40
0.0
 40
0.0
 40
0.0
 40
0.0
 40
0.2500000000000009
 40
0.2500000000000009
 40
0.3750000000000016
 40
0.3750000000000016
 40
0.5000000000000021
 40
0.5000000000000021
 40
0.6250000000000027
 40
0.6250000000000027
 40
0.7500000000000033
 40
0.7500000000000033
 40
0.8750000000000039
 40
0.8750000000000039
 40
0.9375000000000031
 40
0.9375000000000031
 40
0.9687500000000016
 40
0.9687500000000016
 40
1.0
 40
1.0
 40
1.0
 40
1.0
 10
185.992517852249
 20
123.8248652956865
 30
0.0
 10
185.9576460199648
 20
123.8272343323799
 30
0.0
 10
185.956742889932
 20
123.7318237996458
 30
0.0
 10
186.006498937385
 20
123.4421678600547
 30
0.0
 10
186.0318904491436
 20
123.3212294053599
 30
0.0
 10
186.1006339218656
 20
123.0378391570138
 30
0.0
 10
186.1440531321892
 20
122.8747467492188
 30
0.0
 10
186.2527747630674
 20
122.5065540957457
 30
0.0
 10
186.3187402444329
 20
122.2994238283365
 30
0.0
 10
186.4756552750766
 20
121.8562844108604
 30
0.0
 10
186.5663752067652
 20
121.6198404428115
 30
0.0
 10
186.7845177033453
 20
121.1226306880803
 30
0.0
 10
186.9106651608139
 20
120.860617705512
 30
0.0
 10
187.1554784040347
 20
120.4606538853342
 30
0.0
 10
187.245145838147
 20
120.3279528665165
 30
0.0
 10
187.4051535823143
 20
120.1371931514051
 30
0.0
 10
187.4625598481873
 20
120.0753843493112
 30
0.0
 10
187.5899820002935
 20
119.9611922917638
 30
0.0
 10
187.660763826644
 20
119.9074190557389
 30
0.0
 10
187.7427727167399
 20
119.8676610748591
 30
0.0
  0
ELLIPSE
  5
10A
330
1F
100
AcDbEntity
  8
0
  6
HIDDEN
 62
     7
370
     0
100
AcDbEllipse
 10
187.3434752403
 20
120.6539062179
 30
0.0
 11
-0.2262950409302391
 21
14.31519830507868
 31
0.0
210
0.0
220
0.0
230
1.0
 40
0.0843028544
 41
4.426441974764167
 42
4.527026800873181
  0
SPLINE
  5
10B
330
1F
100
AcDbEntity
  8
0
  6
HIDDEN
 62
     7
370
     0
100
AcDbSpline
210
0.0
220
0.0
230
1.0
 70
     8
 71
     3
 72
    20
 73
    16
 74
     0
 42
0.00000001
 43
0.00000001
 40
0.0
 40
0.0
 40
0.0
 40
0.0
 40
0.1249999999999995
 40
0.1249999999999995
 40
0.2499999999999991
 40
0.2499999999999991
 40
0.4999999999999993
 40
0.4999999999999993
 40
0.6249999999999994
 40
0.6249999999999994
 40
0.7499999999999997
 40
0.7499999999999997
 40
0.8749999999999998
 40
0.8749999999999998
 40
1.0
 40
1.0
 40
1.0
 40
1.0
 10
177.0717639371391
 20
116.8531789088636
 30
0.0
 10
177.0855422489408
 20
116.7725002252871
 30
0.0
 10
177.0987559208172
 20
116.683599110792
 30
0.0
 10
177.1232767501484
 20
116.4905291056262
 30
0.0
 10
177.1346690361273
 20
116.3851359211536
 30
0.0
 10
177.163034499305
 20
116.0585687777296
 30
0.0
 10
177.1745200247724
 20
115.8202907240029
 30
0.0
 10
177.1745129462624
 20
115.4657295091377
 30
0.0
 10
177.1717042154393
 20
115.3462029447613
 30
0.0
 10
177.1608050112033
 20
115.1125135833808
 30
0.0
 10
177.1528238011549
 20
114.9992829684089
 30
0.0
 10
177.1331042871313
 20
114.7802131767347
 30
0.0
 10
177.121227072543
 20
114.6734919499968
 30
0.0
 10
177.096671689561
 20
114.4783592677185
 30
0.0
 10
177.0839280339888
 20
114.3887765549716
 30
0.0
 10
177.0717639371391
 20
114.3085891471939
 30
0.0
  0
SPLINE
  5
10C
330
1F
100
AcDbEntity
  8
0
  6
HIDDEN
 62
     7
370
     0
100
AcDbSpline
210
0.0
220
0.0
230
1.0
 70
     8
 71
     3
 72
    14
 73
    10
 74
     0
 42
0.00000001
 43
0.00000001
 40
0.0
 40
0.0
 40
0.0
 40
0.0
 40
0.1349177425849012
 40
0.2728134821666178
 40
0.426778190862105
 40
0.5844320596500118
 40
0.7668919155809082
 40
0.9505313251683861
 40
1.0
 40
1.0
 40
1.0
 40
1.0
 10
175.7014840334125
 20
115.1571535290763
 30
0.0
 10
175.8004095406249
 20
115.233244315619
 30
0.0
 10
176.0004441067292
 20
115.3871054167595
 30
0.0
 10
176.1882553076082
 20
115.7502685252689
 30
0.0
 10
176.2753913478058
 20
116.1514265784646
 30
0.0
 10
176.3297259854004
 20
116.5505737984535
 30
0.0
 10
176.3945371108213
 20
116.8662351441974
 30
0.0
 10
176.4581187339558
 20
117.0389613808813
 30
0.0
 10
176.5256438571997
 20
117.0447981883777
 30
0.0
 10
176.5399735977277
 20
117.046036837534
 30
0.0
  0
SPLINE
  5
10D
330
1F
100
AcDbEntity
  8
0
  6
HIDDEN
 62
     7
370
     0
100
AcDbSpline
210
0.0
220
0.0
230
1.0
 70
     8
 71
     3
 72
    10
 73
     6
 74
     0
 42
0.00000001
 43
0.00000001
 40
0.0
 40
0.0
 40
0.0
 40
0.0
 40
0.1672028909203902
 40
0.7026006398075825
 40
1.0
 40
1.0
 40
1.0
 40
1.0
 10
176.603503042817
 20
117.0579867950977
 30
0.0
 10
176.6189060060394
 20
117.0627452061561
 30
0.0
 10
176.6836305556896
 20
117.0827404504709
 30
0.0
 10
176.8287674879118
 20
116.9808543312528
 30
0.0
 10
177.0078219673188
 20
116.886775358652
 30
0.0
 10
177.0717639371391
 20
116.8531789088636
 30
0.0
  0
LWPOLYLINE
  5
10E
330
1F
100
AcDbEntity
  8
0
  6
HIDDEN
 62
     7
370
     0
100
AcDbPolyline
 90
       13
 70
   128
 43
0.0
 10
175.7014840334
 20
115.1571535291
 10
175.881984018
 20
114.779746005
 10
176.0708993018
 20
114.4314564109
 10
176.2534899157
 20
114.1394597736
 10
176.4155093679
 20
113.9265389056
 10
176.5443162155
 20
113.8093067932
 10
176.6298604037
 20
113.7969103816
 10
176.6654674132
 20
113.8903168912
 10
176.6483590345
 20
114.0822383513
 10
176.5798701356
 20
114.3577002379
 10
176.4653445102
 20
114.6952098498
 10
176.3137179317
 20
115.06843326
 10
176.136820947
 20
115.4482499998
  0
SPLINE
  5
10F
330
1F
100
AcDbEntity
  8
0
  6
HIDDEN
 62
     7
370
     0
100
AcDbSpline
210
0.0
220
0.0
230
1.0
 70
     8
 71
     3
 72
    14
 73
    10
 74
     0
 42
0.00000001
 43
0.00000001
 40
0.0
 40
0.0
 40
0.0
 40
0.0
 40
0.25
 40
0.25
 40
0.5
 40
0.5
 40
0.75
 40
0.75
 40
1.0
 40
1.0
 40
1.0
 40
1.0
 10
177.0717639371391
 20
114.3085891471939
 30
0.0
 10
177.0369032731444
 20
114.3835050815697
 30
0.0
 10
176.9952268818873
 20
114.4757507506452
 30
0.0
 10
176.8961863161124
 20
114.6776589423272
 30
0.0
 10
176.8375057793953
 20
114.7904101229895
 30
0.0
 10
176.6955946821041
 20
115.0146922141719
 30
0.0
 10
176.6112039811678
 20
115.1281649844324
 30
0.0
 10
176.4004901099967
 20
115.3230639205761
 30
0.0
 10
176.2735788749231
 20
115.4003121721844
 30
0.0
 10
176.1368209469971
 20
115.4482499997801
 30
0.0
  0
LINE
  5
110
330
1F
100
AcDbEntity
  8
0
  6
HIDDEN
 62
     7
370
     0
100
AcDbLine
 10
94.3708020428
 20
114.0749075975
 30
0.0
 11
94.3708020428
 21
117.0749075975
 31
0.0
  0
LINE
  5
111
330
1F
100
AcDbEntity
  8
0
  6
HIDDEN
 62
     7
370
     0
100
AcDbLine
 10
188.7272572417
 20
116.5234844237
 30
0.0
 11
188.7272572417
 21
116.1755516713
 31
0.0
  0
ARC
  5
112
330
1F
100
AcDbEntity
  8
0
  6
HIDDEN
 62
     7
370
     0
100
AcDbCircle
 10
189.3305687347
 20
114.6455892662
 30
0.0
 40
1.644618411308823
100
AcDbArc
 50
349.0304888872
 51
111.520851226
  0
LINE
  5
113
330
1F
100
AcDbEntity
  8
0
  6
HIDDEN
 62
     7
370
     0
100
AcDbLine
 10
190.9451376321
 20
114.3326403979
 30
0.0
 11
190.9451376321
 21
114.6805731503
 31
0.0
  0
ELLIPSE
  5
114
330
1F
100
AcDbEntity
  8
0
  6
HIDDEN
 62
     7
370
     0
100
AcDbEllipse
 10
189.3272572417
 20
114.3213158333
 30
0.0
 11
1.649515915895847
 21
0.3297021919773755
 31
0.0
210
0.0
220
0.0
230
0.9999999999999999
 40
0.1212170443
 41
0.1734117093055458
 42
0.2793257923131605
  0
ELLIPSE
  5
115
330
1F
100
AcDbEntity
  8
0
  6
HIDDEN
 62
     7
370
     0
100
AcDbEllipse
 10
189.3272572417
 20
114.3213158333
 30
0.0
 11
-1.430047854952761
 21
2.435993301043893
 31
0.0
210
0.0
220
0.0
230
0.9999999999999999
 40
0.3378833126
 41
5.606814197878265
 42
5.714786945143604
  0
ARC
  5
116
330
1F
100
AcDbEntity
  8
0
  6
HIDDEN
 62
     7
370
     0
100
AcDbCircle
 10
189.332503784
 20
114.6386267319
 30
0.0
 40
1.637202505450539
100
AcDbArc
 50
269.8163909184
 51
118.6807205434
  0
ARC
  5
117
330
1F
100
AcDbEntity
  8
0
  6
HIDDEN
 62
     7
370
     0
100
AcDbCircle
 10
189.3185430144
 20
114.6415524381
 30
0.0
 40
1.640142955049552
100
AcDbArc
 50
171.808915118
 51
270.3044190718
  0
SPLINE
  5
118
330
1F
100
AcDbEntity
  8
0
  6
HIDDEN
 62
     7
370
     0
100
AcDbSpline
210
0.0
220
0.0
230
1.0
 70
     8
 71
     3
 72
    14
 73
    10
 74
     0
 42
0.00000001
 43
0.00000001
 40
0.0
 40
0.0
 40
0.0
 40
0.0
 40
0.25
 40
0.25
 40
0.5
 40
0.5
 40
0.75
 40
0.75
 40
1.0
 40
1.0
 40
1.0
 40
1.0
 10
196.5726977092656
 20
114.028064289876
 30
0.0
 10
196.5736841249258
 20
113.8547581738822
 30
0.0
 10
196.5525500929879
 20
113.6861851003691
 30
0.0
 10
196.46771148033
 20
113.357950677473
 30
0.0
 10
196.4033222133654
 20
113.1988691578477
 30
0.0
 10
196.2376750248328
 20
112.9073115285155
 30
0.0
 10
196.1339061419364
 20
112.7706636925782
 30
0.0
 10
195.8961779348252
 20
112.5323675425106
 30
0.0
 10
195.7624425464989
 20
112.4295817662688
 30
0.0
 10
195.6124858345991
 20
112.3438180169432
 30
0.0
  0
ELLIPSE
  5
119
330
1F
100
AcDbEntity
  8
0
  6
HIDDEN
 62
     7
370
     0
100
AcDbEllipse
 10
175.7869688163
 20
115.5749075975
 30
0.0
 11
-0.719674585742041
 21
1.495634464669336
 31
0.0
210
0.0
220
0.0
230
0.9999999999999999
 40
0.158901134
 41
1.77671899724051
 42
4.551537801781422
  0
LINE
  5
11A
330
1F
100
AcDbEntity
  8
0
  6
HIDDEN
 62
     7
370
     0
100
AcDbLine
 10
177.0717639371
 20
116.8531789089
 30
0.0
 11
177.0717639371
 21
114.3085891472
 31
0.0
  0
LINE
  5
11B
330
1F
100
AcDbEntity
  8
0
  6
HIDDEN
 62
     7
370
     0
100
AcDbLine
 10
197.5912706326
 20
115.8410609378
 30
0.0
 11
197.747207025
 21
115.8882379926
 31
0.0
  0
LINE
  5
11C
330
1F
100
AcDbEntity
  8
0
  6
HIDDEN
 62
     7
370
     0
100
AcDbLine
 10
188.5713208493
 20
118.0343295992
 30
0.0
 11
188.5713208493
 21
123.3641892695
 31
0.0
  0
ELLIPSE
  5
11D
330
1F
100
AcDbEntity
  8
0
  6
HIDDEN
 62
     7
370
     0
100
AcDbEllipse
 10
188.7188435034
 20
113.7467672282
 30
0.0
 11
-0.1376434252666456
 21
9.617913683558015
 31
0.0
210
0.0
220
0.0
230
1.0
 40
0.1204319171
 41
6.157694912778771
 42
6.29171878564231
  0
LINE
  5
11E
330
1F
100
AcDbEntity
  8
0
  6
HIDDEN
 62
     7
370
     0
100
AcDbLine
 10
188.7272572417
 20
123.2911243202
 30
0.0
 11
188.7272572417
 21
116.5234844237
 31
0.0
  0
LINE
  5
11F
330
1F
100
AcDbEntity
  8
0
  6
HIDDEN
 62
     7
370
     0
100
AcDbLine
 10
188.5713208493
 20
123.3641892695
 30
0.0
 11
188.5467639371
 21
123.3599013631
 31
0.0
  0
ELLIPSE
  5
120
330
1F
100
AcDbEntity
  8
0
  6
HIDDEN
 62
     7
370
     0
100
AcDbEllipse
 10
197.5996843708
 20
115.2974595433
 30
0.0
 11
0.1866264135346682
 21
9.673737592706473
 31
0.0
210
0.0
220
0.0
230
1.0
 40
0.1190260649
 41
0.4344636901884741
 42
1.239404853075754
  0
LINE
  5
121
330
1F
100
AcDbEntity
  8
0
  6
HIDDEN
 62
     7
370
     0
100
AcDbLine
 10
197.2843092304
 20
115.4395293545
 30
0.0
 11
197.5912706326
 21
115.8410609378
 31
0.0
  0
LINE
  5
122
330
1F
100
AcDbEntity
  8
0
  6
HIDDEN
 62
     7
370
     0
100
AcDbLine
 10
190.9451376321
 20
114.6805731503
 30
0.0
 11
197.5912706326
 21
115.8410609378
 31
0.0
  0
CIRCLE
  5
123
330
1F
100
AcDbEntity
  8
0
  6
HIDDEN
 62
     7
370
     0
100
AcDbCircle
 10
193.2242166584
 20
119.2703258732
 30
0.0
 40
2.093817014419916
  0
LINE
  5
124
330
1F
100
AcDbEntity
  8
0
  6
HIDDEN
 62
     7
370
     0
100
AcDbLine
 10
190.9451376321
 20
114.3326403979
 30
0.0
 11
197.2843092304
 21
115.4395293545
 31
0.0
  0
LINE
  5
125
330
1F
100
AcDbEntity
  8
0
  6
HIDDEN
 62
     7
370
     0
100
AcDbLine
 10
188.7272572417
 20
122.5876623631
 30
0.0
 11
197.2843092304
 21
124.0818175852
 31
0.0
  0
LINE
  5
126
330
1F
100
AcDbEntity
  8
0
  6
HIDDEN
 62
     7
370
     0
100
AcDbLine
 10
197.2843092304
 20
115.4395293545
 30
0.0
 11
197.2843092304
 21
124.0818175852
 31
0.0
  0
CIRCLE
  5
127
330
1F
100
AcDbEntity
  8
0
  6
HIDDEN
 62
     7
370
     0
100
AcDbCircle
 10
193.2245000337
 20
119.2040205622
 30
0.0
 40
1.644519071545558
  0
SPLINE
  5
128
330
1F
100
AcDbEntity
  8
0
  6
HIDDEN
 62
     7
370
     0
100
AcDbSpline
210
0.0
220
0.0
230
1.0
 70
     8
 71
     3
 72
     8
 73
     4
 74
     0
 42
0.00000001
 43
0.00000001
 40
0.0
 40
0.0
 40
0.0
 40
0.0
 40
1.0
 40
1.0
 40
1.0
 40
1.0
 10
188.2357764513272
 20
119.7094733180594
 30
0.0
 10
188.2451441005152
 20
119.7081628878123
 30
0.0
 10
188.2544572224118
 20
119.7066057892749
 30
0.0
 10
188.2637172497407
 20
119.7048071151512
 30
0.0
  0
SPLINE
  5
129
330
1F
100
AcDbEntity
  8
0
  6
HIDDEN
 62
     7
370
     0
100
AcDbSpline
210
0.0
220
0.0
230
1.0
 70
     8
 71
     3
 72
     8
 73
     4
 74
     0
 42
0.00000001
 43
0.00000001
 40
0.0
 40
0.0
 40
0.0
 40
0.0
 40
1.0
 40
1.0
 40
1.0
 40
1.0
 10
187.7427727167399
 20
119.8676610748591
 30
0.0
 10
187.8997862835008
 20
119.7915407618315
 30
0.0
 10
188.0623796722455
 20
119.7337296047223
 30
0.0
 10
188.235776451327
 20
119.7094733180592
 30
0.0
  0
SPLINE
  5
12A
330
1F
100
AcDbEntity
  8
0
  6
HIDDEN
 62
     7
370
     0
100
AcDbSpline
210
0.0
220
0.0
230
1.0
 70
     8
 71
     3
 72
     8
 73
     4
 74
     0
 42
0.00000001
 43
0.00000001
 40
0.0000003876847295
 40
0.0000003876847295
 40
0.0000003876847295
 40
0.0000003876847295
 40
0.001007164065348
 40
0.001007164065348
 40
0.001007164065348
 40
0.001007164065348
 10
188.2637172497407
 20
108.1380599838253
 30
0.0
 10
188.0905910429835
 20
108.0387675322895
 30
0.0
 10
187.9167090264962
 20
107.9390438166903
 30
0.0
 10
187.7427727167399
 20
107.8392891236619
 30
0.0
  0
SPLINE
  5
12B
330
1F
100
AcDbEntity
  8
0
  6
HIDDEN
 62
     7
370
     0
100
AcDbSpline
210
0.0
220
0.0
230
1.0
 70
     8
 71
     3
 72
    10
 73
     6
 74
     0
 42
0.00000001
 43
0.00000001
 40
0.0
 40
0.0
 40
0.0
 40
0.0
 40
0.5
 40
0.5
 40
1.0
 40
1.0
 40
1.0
 40
1.0
 10
191.5772588015134
 20
118.5174026344523
 30
0.0
 10
191.5775039883935
 20
118.3279811217585
 30
0.0
 10
191.6071049525295
 20
118.1361129094191
 30
0.0
 10
191.7246949190565
 20
117.7713626835532
 30
0.0
 10
191.8123115126131
 20
117.597952924433
 30
0.0
 10
191.9280785358152
 20
117.4409958835797
 30
0.0
  0
ARC
  5
12C
330
1F
100
AcDbEntity
  8
0
  6
HIDDEN
 62
     7
370
     0
100
AcDbCircle
 10
193.2257815223
 20
118.4669597448
 30
0.0
 40
1.65427775346374
100
AcDbArc
 50
218.3298932224
 51
349.5075811446
  0
SPLINE
  5
12D
330
1F
100
AcDbEntity
  8
0
  6
HIDDEN
 62
     7
370
     0
100
AcDbSpline
210
0.0
220
0.0
230
1.0
 70
     8
 71
     3
 72
    34
 73
    30
 74
     0
 42
0.00000001
 43
0.00000001
 40
0.0
 40
0.0
 40
0.0
 40
0.0
 40
0.1249999999999966
 40
0.1249999999999966
 40
0.2499999999999931
 40
0.2499999999999931
 40
0.3124999999999936
 40
0.3124999999999936
 40
0.3749999999999941
 40
0.3749999999999941
 40
0.4374999999999946
 40
0.4374999999999946
 40
0.4999999999999951
 40
0.4999999999999951
 40
0.5624999999999957
 40
0.5624999999999957
 40
0.6249999999999963
 40
0.6249999999999963
 40
0.6874999999999969
 40
0.6874999999999969
 40
0.7499999999999976
 40
0.7499999999999976
 40
0.8124999999999981
 40
0.8124999999999981
 40
0.8749999999999988
 40
0.8749999999999988
 40
0.9374999999999993
 40
0.9374999999999993
 40
1.0
 40
1.0
 40
1.0
 40
1.0
 10
191.5772588015134
 20
118.5174026344523
 30
0.0
 10
191.5769619543252
 20
118.7512762762666
 30
0.0
 10
191.6179147933541
 20
118.9791013150895
 30
0.0
 10
191.7802567853719
 20
119.4144373872717
 30
0.0
 10
191.8983566265381
 20
119.61499704996
 30
0.0
 10
192.1419762124197
 20
119.8812297871002
 30
0.0
 10
192.234688571018
 20
119.9636475551449
 30
0.0
 10
192.4391232375069
 20
120.1058794896291
 30
0.0
 10
192.5537214566264
 20
120.1672208571746
 30
0.0
 10
192.7930936248611
 20
120.2575265703101
 30
0.0
 10
192.9216557677842
 20
120.2879175049291
 30
0.0
 10
193.1795014919219
 20
120.3130052829919
 30
0.0
 10
193.3087328941818
 20
120.3080328692582
 30
0.0
 10
193.5574154416546
 20
120.2670467966657
 30
0.0
 10
193.6760587362493
 20
120.2314154456265
 30
0.0
 10
193.8984795294785
 20
120.1366564417294
 30
0.0
 10
194.0005891398484
 20
120.0785134201091
 30
0.0
 10
194.190453029028
 20
119.9439206881797
 30
0.0
 10
194.2784952991711
 20
119.866796273857
 30
0.0
 10
194.4357128271216
 20
119.7007076178802
 30
0.0
 10
194.5057861592408
 20
119.611212951274
 30
0.0
 10
194.6299444274185
 20
119.4194540927209
 30
0.0
 10
194.6842197515568
 20
119.3163657423023
 30
0.0
 10
194.7728751729503
 20
119.1035832408576
 30
0.0
 10
194.8077878460314
 20
118.9933072816514
 30
0.0
 10
194.8578526397304
 20
118.764574985295
 30
0.0
 10
194.8729253956894
 20
118.6448637140864
 30
0.0
 10
194.8799530867076
 20
118.4058489045663
 30
0.0
 10
194.8722812512459
 20
118.2859121000507
 30
0.0
 10
194.8523981166365
 20
118.1657067937621
 30
0.0
  0
SPLINE
  5
12E
330
1F
100
AcDbEntity
  8
0
  6
HIDDEN
 62
     7
370
     0
100
AcDbSpline
210
0.0
220
0.0
230
1.0
 70
     8
 71
     3
 72
    12
 73
     8
 74
     0
 42
0.00000001
 43
0.00000001
 40
0.0
 40
0.0
 40
0.0
 40
0.0
 40
0.4999999999999953
 40
0.4999999999999953
 40
0.7499999999999977
 40
0.7499999999999977
 40
1.0
 40
1.0
 40
1.0
 40
1.0
 10
188.2637172497407
 20
119.7048071151512
 30
0.0
 10
188.8499768233984
 20
119.5909316494027
 30
0.0
 10
189.4219412998861
 20
119.4448682376281
 30
0.0
 10
190.2524632461159
 20
119.1564349627512
 30
0.0
 10
190.5247235227125
 20
119.048654445811
 30
0.0
 10
191.0590505355526
 20
118.8052084839082
 30
0.0
 10
191.3222282875647
 20
118.668867244554
 30
0.0
 10
191.5772588015134
 20
118.5174026344523
 30
0.0
  0
ELLIPSE
  5
12F
330
1F
100
AcDbEntity
  8
0
  6
HIDDEN
 62
     7
370
     0
100
AcDbEllipse
 10
207.59730663
 20
119.1853274104
 30
0.0
 11
20.47572251187304
 21
11.70460492357134
 31
0.0
210
0.0
220
0.0
230
1.0
 40
0.0004976935
 41
2.726757418107582
 42
2.805730060537272
  0
LINE
  5
130
330
1F
100
AcDbEntity
  8
0
  6
HIDDEN
 62
     7
370
     0
100
AcDbLine
 10
188.8559309803
 20
114.4058535495
 30
0.0
 11
188.8559309803
 21
108.6616975335
 31
0.0
  0
ELLIPSE
  5
131
330
1F
100
AcDbEntity
  8
0
  6
HIDDEN
 62
     7
370
     0
100
AcDbEllipse
 10
197.6030168947
 20
115.5749075975
 30
0.0
 11
0.145694788022638
 21
8.399981331264499
 31
0.0
210
0.0
220
0.0
230
1.0
 40
0.1215536026
 41
1.71253096927437
 42
1.758109610011968
  0
ELLIPSE
  5
132
330
1F
100
AcDbEntity
  8
0
  6
HIDDEN
 62
     7
370
     0
100
AcDbEllipse
 10
201.2813327875
 20
115.5749075975
 30
0.0
 11
14.69472846154554
 21
8.399996480982523
 31
0.0
210
0.0
220
0.0
230
0.9999999999999999
 40
0.0005232068
 41
1.966544045467748
 42
2.578126610015951
  0
SPLINE
  5
133
330
1F
100
AcDbEntity
  8
0
  6
HIDDEN
 62
     7
370
     0
100
AcDbSpline
210
0.0
220
0.0
230
1.0
 70
     8
 71
     3
 72
    18
 73
    14
 74
     0
 42
0.00000001
 43
0.00000001
 40
0.0
 40
0.0
 40
0.0
 40
0.0
 40
0.1249999999999982
 40
0.1249999999999982
 40
0.2499999999999964
 40
0.2499999999999964
 40
0.3749999999999947
 40
0.3749999999999947
 40
0.4999999999999929
 40
0.4999999999999929
 40
0.7499999999999964
 40
0.7499999999999964
 40
1.0
 40
1.0
 40
1.0
 40
1.0
 10
188.8559309802604
 20
114.4058535494714
 30
0.0
 10
188.8559309802604
 20
114.5961861581737
 30
0.0
 10
188.8934448783856
 20
114.7805236807644
 30
0.0
 10
189.0280836310219
 20
115.1354785749036
 30
0.0
 10
189.1213547034312
 20
115.2982509191454
 30
0.0
 10
189.340672496217
 20
115.605223824424
 30
0.0
 10
189.466320720684
 20
115.7480803221071
 30
0.0
 10
189.7317691863386
 20
116.0135558455404
 30
0.0
 10
189.8727315647465
 20
116.1374685415437
 30
0.0
 10
190.3124275189254
 20
116.4912002796547
 30
0.0
 10
190.6273883793368
 20
116.7028994803883
 30
0.0
 10
191.267540391313
 20
117.0924222390586
 30
0.0
 10
191.5954087380987
 20
117.2715313384727
 30
0.0
 10
191.9280785358153
 20
117.44099588358
 30
0.0
  0
LINE
  5
134
330
1F
100
AcDbEntity
  8
0
  6
HIDDEN
 62
     7
370
     0
100
AcDbLine
 10
194.8523981166
 20
118.1657067938
 30
0.0
 11
196.5716265832
 21
118.4659029588
 31
0.0
  0
LINE
  5
135
330
1F
100
AcDbEntity
  8
0
  6
HIDDEN
 62
     7
370
     0
100
AcDbLine
 10
196.5716265832
 20
118.4659029588
 30
0.0
 11
196.5716265832
 21
114.4058535495
 31
0.0
  0
LINE
  5
136
330
1F
100
AcDbEntity
  8
0
  6
HIDDEN
 62
     7
370
     0
100
AcDbLine
 10
194.0201326247
 20
118.3643778596
 30
0.0
 11
194.0201326247
 21
118.5546525296
 31
0.0
  0
LINE
  5
137
330
1F
100
AcDbEntity
  8
0
  6
HIDDEN
 62
     7
370
     0
100
AcDbLine
 10
192.0281429753
 20
118.7864068699
 30
0.0
 11
192.0281429753
 21
118.5939534349
 31
0.0
  0
LINE
  5
138
330
1F
100
AcDbEntity
  8
0
  6
HIDDEN
 62
     7
370
     0
100
AcDbLine
 10
194.0136334856
 20
118.5006596536
 30
0.0
 11
194.0136334856
 21
118.4725504252
 31
0.0
  0
LINE
  5
139
330
1F
100
AcDbEntity
  8
0
  6
HIDDEN
 62
     7
370
     0
100
AcDbLine
 10
194.8818996307
 20
119.3833248313
 30
0.0
 11
194.8818996307
 21
119.5781671727
 31
0.0
  0
LINE
  5
13A
330
1F
100
AcDbEntity
  8
0
  6
HIDDEN
 62
     7
370
     0
100
AcDbLine
 10
191.567920332
 20
120.037333694
 30
0.0
 11
191.567920332
 21
119.8424759819
 31
0.0
  0
LINE
  5
13B
330
1F
100
AcDbEntity
  8
0
  6
HIDDEN
 62
     7
370
     0
100
AcDbLine
 10
194.4216769874
 20
120.6318473783
 30
0.0
 11
194.4216769874
 21
120.8266897196
 31
0.0
  0
LINE
  5
13C
330
1F
100
AcDbEntity
  8
0
  6
HIDDEN
 62
     7
370
     0
100
AcDbLine
 10
192.429687338
 20
121.0517243144
 30
0.0
 11
192.429687338
 21
120.8614229536
 31
0.0
  0
SPLINE
  5
13D
330
1F
100
AcDbEntity
  8
0
  6
HIDDEN
 62
     7
370
     0
100
AcDbSpline
210
0.0
220
0.0
230
1.0
 70
     8
 71
     3
 72
    23
 73
    19
 74
     0
 42
0.00000001
 43
0.00000001
 40
0.0
 40
0.0
 40
0.0
 40
0.0
 40
0.0243712037372401
 40
0.0903679435968904
 40
0.1566388358302832
 40
0.2232718631945549
 40
0.2903809795464074
 40
0.3579930502760708
 40
0.4260211920300021
 40
0.4942656592804765
 40
0.5623860619902061
 40
0.6301329160832547
 40
0.6973821018433082
 40
0.7641320651977423
 40
0.8304802703657586
 40
0.8965869184917484
 40
0.9626399859693092
 40
1.0
 40
1.0
 40
1.0
 40
1.0
 10
192.9097492369459
 20
117.6532798365048
 30
0.0
 10
192.8596773135968
 20
117.6633483433565
 30
0.0
 10
192.6740116077177
 20
117.7006821685172
 30
0.0
 10
192.3665180109719
 20
117.8220636682066
 30
0.0
 10
192.0227265543454
 20
118.054533871385
 30
0.0
 10
191.7420924924507
 20
118.3585817972226
 30
0.0
 10
191.5391369661196
 20
118.7174559830958
 30
0.0
 10
191.4248215751344
 20
119.1134127717201
 30
0.0
 10
191.4060348857449
 20
119.526016355706
 30
0.0
 10
191.4848712256308
 20
119.9331951389547
 30
0.0
 10
191.6577935532999
 20
120.3123885647005
 30
0.0
 10
191.9154165281165
 20
120.6423092033895
 30
0.0
 10
192.2433816448883
 20
120.9048936897018
 30
0.0
 10
192.6232207714011
 20
121.0858176942252
 30
0.0
 10
193.0348626546422
 20
121.1772462048864
 30
0.0
 10
193.4535765635158
 20
121.1701767399344
 30
0.0
 10
193.8071693413743
 20
121.0962363632595
 30
0.0
 10
193.9966489143638
 20
120.9934716031249
 30
0.0
 10
194.0651021448659
 20
120.9563458079693
 30
0.0
  0
SPLINE
  5
13E
330
1F
100
AcDbEntity
  8
0
  6
HIDDEN
 62
     7
370
     0
100
AcDbSpline
210
0.0
220
0.0
230
1.0
 70
     8
 71
     3
 72
    19
 73
    15
 74
     0
 42
0.00000001
 43
0.00000001
 40
0.0
 40
0.0
 40
0.0
 40
0.0
 40
0.0394010894714368
 40
0.1276342658228674
 40
0.2165270296169242
 40
0.3060561614319081
 40
0.3960426076244379
 40
0.4861485366345376
 40
0.5759287095287544
 40
0.6651285663625737
 40
0.7536518362082063
 40
0.841555517536115
 40
0.9290080391501901
 40
0.9999999999999999
 40
0.9999999999999999
 40
0.9999999999999999
 40
0.9999999999999999
 10
194.4004625147073
 20
120.7325319564592
 30
0.0
 10
194.4493041122287
 20
120.6947266963024
 30
0.0
 10
194.6075195708589
 20
120.5722618942095
 30
0.0
 10
194.8034417679594
 20
120.2940297930772
 30
0.0
 10
194.9740738676932
 20
119.920800783826
 30
0.0
 10
195.0490184025569
 20
119.5145902019642
 30
0.0
 10
195.0279442309683
 20
119.1017071403745
 30
0.0
 10
194.9097193855758
 20
118.703250261103
 30
0.0
 10
194.7006318057834
 20
118.3418090450443
 30
0.0
 10
194.4122047095262
 20
118.037620331748
 30
0.0
 10
194.0604851086496
 20
117.8066891141568
 30
0.0
 10
193.6653838661535
 20
117.6631116301412
 30
0.0
 10
193.2726000816368
 20
117.6098766592339
 30
0.0
 10
193.0220221286826
 20
117.6398500752294
 30
0.0
 10
192.9097492369459
 20
117.6532798365048
 30
0.0
  0
LINE
  5
13F
330
1F
100
AcDbEntity
  8
0
  6
HIDDEN
 62
     7
370
     0
100
AcDbLine
 10
191.2272572417
 20
119.279733438
 30
0.0
 11
191.2272572417
 21
118.5699506231
 31
0.0
  0
LINE
  5
140
330
1F
100
AcDbEntity
  8
0
  6
HIDDEN
 62
     7
370
     0
100
AcDbLine
 10
195.2272572417
 20
118.5699506231
 30
0.0
 11
195.2272572417
 21
119.279733438
 31
0.0
  0
LINE
  5
141
330
1F
100
AcDbEntity
  8
0
  6
HIDDEN
 62
     7
370
     0
100
AcDbLine
 10
197.6717639371
 20
115.8270345931
 30
0.0
 11
197.747207025
 21
115.8686400943
 31
0.0
  0
LINE
  5
142
330
1F
100
AcDbEntity
  8
0
  6
HIDDEN
 62
     7
370
     0
100
AcDbLine
 10
190.2592639371
 20
119.9053718767
 30
0.0
 11
190.2592639371
 21
119.7453228106
 31
0.0
  0
LINE
  5
143
330
1F
100
AcDbEntity
  8
0
  6
HIDDEN
 62
     7
370
     0
100
AcDbLine
 10
196.3592639371
 20
119.7453228106
 30
0.0
 11
196.3592639371
 21
119.9053718767
 31
0.0
  0
SPLINE
  5
144
330
1F
100
AcDbEntity
  8
0
  6
HIDDEN
 62
     7
370
     0
100
AcDbSpline
210
0.0
220
0.0
230
1.0
 70
     8
 71
     3
 72
    21
 73
    17
 74
     0
 42
0.00000001
 43
0.00000001
 40
0.0
 40
0.0
 40
0.0
 40
0.0
 40
0.0441272924685404
 40
0.1187547623858582
 40
0.1933267349482874
 40
0.267745308144101
 40
0.3419485969038906
 40
0.4159181950977286
 40
0.4896765181550947
 40
0.5632775535370776
 40
0.6367958426702888
 40
0.7103015408572488
 40
0.7838677137559568
 40
0.8575745784276064
 40
0.931484541122226
 40
0.9999999999999999
 40
0.9999999999999999
 40
0.9999999999999999
 40
0.9999999999999999
 10
195.496731751897
 20
119.6051192101049
 30
0.0
 10
195.5004310589073
 20
119.5151310180409
 30
0.0
 10
195.5103865830381
 20
119.2729560336203
 30
0.0
 10
195.4176598092846
 20
118.8843824689612
 30
0.0
 10
195.2328986921376
 20
118.4640338098582
 30
0.0
 10
194.9584252000598
 20
118.0916980371037
 30
0.0
 10
194.6121031700424
 20
117.7841679501011
 30
0.0
 10
194.2081132861943
 20
117.5550354938872
 30
0.0
 10
193.7649723448357
 20
117.4142421607512
 30
0.0
 10
193.3022851358301
 20
117.3676876629499
 30
0.0
 10
192.8404156372763
 20
117.4170634118818
 30
0.0
 10
192.3997375983994
 20
117.5599567866297
 30
0.0
 10
191.9986595361946
 20
117.7896578562516
 30
0.0
 10
191.6571133126742
 20
118.0969833845243
 30
0.0
 10
191.3869916066339
 20
118.4560052956972
 30
0.0
 10
191.2794829006197
 20
118.7274853837878
 30
0.0
 10
191.2277645469396
 20
118.8580841393074
 30
0.0
  0
LINE
  5
145
330
1F
100
AcDbEntity
  8
0
  6
HIDDEN
 62
     7
370
     0
100
AcDbLine
 10
191.1092639371
 20
119.548625375
 30
0.0
 11
191.1092639371
 21
119.3528546659
 31
0.0
  0
LINE
  5
146
330
1F
100
AcDbEntity
  8
0
  6
HIDDEN
 62
     7
370
     0
100
AcDbLine
 10
195.5092639371
 20
119.3528546659
 30
0.0
 11
195.5092639371
 21
119.548625375
 31
0.0
  0
LINE
  5
147
330
1F
100
AcDbEntity
  8
0
  6
HIDDEN
 62
     7
370
     0
100
AcDbLine
 10
182.0643761088
 20
119.6406069446
 30
0.0
 11
176.5330915146
 21
117.0613265788
 31
0.0
  0
LINE
  5
148
330
1F
100
AcDbEntity
  8
0
  6
HIDDEN
 62
     7
370
     0
100
AcDbLine
 10
176.6237663612
 20
113.7934751973
 30
0.0
 11
184.51343224
 21
117.4724868169
 31
0.0
  0
LINE
  5
149
330
1F
100
AcDbEntity
  8
0
  6
HIDDEN
 62
     7
370
     0
100
AcDbLine
 10
93.0717639371
 20
113.3249075975
 30
0.0
 11
94.3708020428
 21
114.0749075975
 31
0.0
  0
LINE
  5
14A
330
1F
100
AcDbEntity
  8
0
  6
HIDDEN
 62
     7
370
     0
100
AcDbLine
 10
94.3708020428
 20
117.0749075975
 30
0.0
 11
93.0717639371
 21
117.8249075975
 31
0.0
  0
LINE
  5
14B
330
1F
100
AcDbEntity
  8
0
  6
HIDDEN
 62
     7
370
     0
100
AcDbLine
 10
187.6772572417
 20
115.2281918233
 30
0.0
 11
187.6772572417
 21
114.6353749464
 31
0.0
  0
LINE
  5
14C
330
1F
100
AcDbEntity
  8
0
  6
HIDDEN
 62
     7
370
     0
100
AcDbLine
 10
190.9772572417
 20
114.6353749464
 30
0.0
 11
190.9772572417
 21
114.6534674495
 31
0.0
  0
LINE
  5
14D
330
1F
100
AcDbEntity
  8
0
  6
HIDDEN
 62
     7
370
     0
100
AcDbLine
 10
94.3708020428
 20
114.0749075975
 30
0.0
 11
176.4864303035
 21
114.0749075975
 31
0.0
  0
LINE
  5
14E
330
1F
100
AcDbEntity
  8
0
  6
HIDDEN
 62
     7
370
     0
100
AcDbLine
 10
176.6035030428
 20
117.0749075975
 30
0.0
 11
94.3708020428
 21
117.0749075975
 31
0.0
  0
LINE
  5
14F
330
1F
100
AcDbEntity
  8
0
  6
HIDDEN
 62
     7
370
     0
100
AcDbLine
 10
191.5772572417
 20
119.1934461154
 30
0.0
 11
191.5772572417
 21
118.51980811
 31
0.0
  0
LINE
  5
150
330
1F
100
AcDbEntity
  8
0
  6
HIDDEN
 62
     7
370
     0
100
AcDbLine
 10
194.8772572417
 20
118.4706380938
 30
0.0
 11
194.8772572417
 21
119.1934461154
 31
0.0
  0
LINE
  5
151
330
1F
100
AcDbEntity
  8
VERMASSUNG
100
AcDbLine
 10
167.3684832121
 20
115.5749075975
 30
0.0
 11
167.9042726228
 21
115.5749075975
 31
0.0
  0
POINT
  5
152
330
1F
100
AcDbEntity
  8
VERMASSUNG
100
AcDbPoint
 10
198.0717639371
 20
125.4499075975
 30
0.0
  0
DIMENSION
  5
153
330
1F
100
AcDbEntity
  8
VERMASSUNG
100
AcDbDimension
  2
*D1
 10
204.045552985
 20
105.6999075975
 30
0.0
 11
204.045552985
 21
113.299950128
 31
0.0
 70
   160
  1
%%c<>-25.1
 71
     2
 42
-1.0
  3
SLDDIMSTYLE0
100
AcDbAlignedDimension
 13
198.0717639371
 23
125.4499075975
 33
0.0
 14
198.0717639371
 24
105.6999075975
 34
0.0
 50
90.0
100
AcDbRotatedDimension
  0
DIMENSION
  5
15E
330
1F
100
AcDbEntity
  8
VERMASSUNG
100
AcDbDimension
  2
*D2
 10
93.0717639371
 20
132.7214155253
 30
0.0
 11
142.0518604423
 21
132.7214155253
 31
0.0
 70
   160
 71
     2
 42
-1.0
  3
SLDDIMSTYLE1
100
AcDbAlignedDimension
 13
198.0717639371
 23
125.4499075975
 33
0.0
 14
93.0717639371
 24
121.7749075975
 34
0.0
100
AcDbRotatedDimension
  0
DIMENSION
  5
169
330
1F
100
AcDbEntity
  8
VERMASSUNG
100
AcDbDimension
  2
*D3
 10
86.7637069585
 20
107.5749075975
 30
0.0
 11
86.7637069585
 21
115.0601909697
 31
0.0
 70
   160
  1
%%c<>
 71
     2
 42
-1.0
  3
SLDDIMSTYLE1
100
AcDbAlignedDimension
 13
104.3717639371
 23
123.5749075975
 33
0.0
 14
94.4467639371
 24
107.5749075975
 34
0.0
 50
90.0
100
AcDbRotatedDimension
  0
LINE
  5
174
330
1F
100
AcDbEntity
  8
VERMASSUNG
  6
CENTERX2
 62
     7
370
     0
100
AcDbLine
 10
91.0717639371
 20
115.5749075975
 30
0.0
 11
199.0320388959
 21
115.5749075975
 31
0.0
  0
LINE
  5
175
330
1F
100
AcDbEntity
  8
VERMASSUNG
  6
CENTERX2
 62
     7
370
     0
100
AcDbLine
 10
189.2632060053
 20
121.3424095766
 30
0.0
 11
173.138668115
 21
113.8234140742
 31
0.0
  0
OLE2FRAME
  5
176
330
1F
100
AcDbEntity
  8
0
100
AcDbOle2Frame
 70
     2
  3
Paintbrush-Bild
 10
13.8511154363
 20
38.264191557
 30
0.0
 11
51.6290888628
 21
31.9806341108
 31
0.0
 71
     2
 72
     0
 73
     1
 90
    12928
310
80552BED0767C5B32B40DDAF6807D121434000000000000000006FFBDDFB85D0
310
4940DDAF6807D121434000000000000000006FFBDDFB85D04940416F4BD60AFB
310
3F4000000000000000002BED0767C5B32B40416F4BD60AFB3F40000000000000
310
0000000000000100000000010000010000000100000000000100000000320000
310
D0CF11E0A1B11AE1000000000000000000000000000000003E000300FEFF0900
310
0600000000000000000000000100000001000000000000000010000002000000
310
01000000FEFFFFFF0000000000000000FFFFFFFFFFFFFFFFFFFFFFFFFFFFFFFF
310
FFFFFFFFFFFFFFFFFFFFFFFFFFFFFFFFFFFFFFFFFFFFFFFFFFFFFFFFFFFFFFFF
310
FFFFFFFFFFFFFFFFFFFFFFFFFFFFFFFFFFFFFFFFFFFFFFFFFFFFFFFFFFFFFFFF
310
FFFFFFFFFFFFFFFFFFFFFFFFFFFFFFFFFFFFFFFFFFFFFFFFFFFFFFFFFFFFFFFF
310
FFFFFFFFFFFFFFFFFFFFFFFFFFFFFFFFFFFFFFFFFFFFFFFFFFFFFFFFFFFFFFFF
310
FFFFFFFFFFFFFFFFFFFFFFFFFFFFFFFFFFFFFFFFFFFFFFFFFFFFFFFFFFFFFFFF
310
FFFFFFFFFFFFFFFFFFFFFFFFFFFFFFFFFFFFFFFFFFFFFFFFFFFFFFFFFFFFFFFF
310
FFFFFFFFFFFFFFFFFFFFFFFFFFFFFFFFFFFFFFFFFFFFFFFFFFFFFFFFFFFFFFFF
310
FFFFFFFFFFFFFFFFFFFFFFFFFFFFFFFFFFFFFFFFFFFFFFFFFFFFFFFFFFFFFFFF
310
FFFFFFFFFFFFFFFFFFFFFFFFFFFFFFFFFFFFFFFFFFFFFFFFFFFFFFFFFFFFFFFF
310
FFFFFFFFFFFFFFFFFFFFFFFFFFFFFFFFFFFFFFFFFFFFFFFFFFFFFFFFFFFFFFFF
310
FFFFFFFFFFFFFFFFFFFFFFFFFFFFFFFFFFFFFFFFFFFFFFFFFFFFFFFFFFFFFFFF
310
FFFFFFFFFFFFFFFFFFFFFFFFFFFFFFFFFFFFFFFFFFFFFFFFFFFFFFFFFFFFFFFF
310
FFFFFFFFFFFFFFFFFFFFFFFFFFFFFFFFFFFFFFFFFFFFFFFFFFFFFFFFFFFFFFFF
310
FDFFFFFFFEFFFFFFFEFFFFFFFEFFFFFF05000000060000000700000008000000
310
090000000A0000000B0000000C0000000D0000000E0000000F00000010000000
310
11000000120000001300000014000000150000001600000017000000FEFFFFFF
310
FFFFFFFFFFFFFFFFFFFFFFFFFFFFFFFFFFFFFFFFFFFFFFFFFFFFFFFFFFFFFFFF
310
FFFFFFFFFFFFFFFFFFFFFFFFFFFFFFFFFFFFFFFFFFFFFFFFFFFFFFFFFFFFFFFF
310
FFFFFFFFFFFFFFFFFFFFFFFFFFFFFFFFFFFFFFFFFFFFFFFFFFFFFFFFFFFFFFFF
310
FFFFFFFFFFFFFFFFFFFFFFFFFFFFFFFFFFFFFFFFFFFFFFFFFFFFFFFFFFFFFFFF
310
FFFFFFFFFFFFFFFFFFFFFFFFFFFFFFFFFFFFFFFFFFFFFFFFFFFFFFFFFFFFFFFF
310
FFFFFFFFFFFFFFFFFFFFFFFFFFFFFFFFFFFFFFFFFFFFFFFFFFFFFFFFFFFFFFFF
310
FFFFFFFFFFFFFFFFFFFFFFFFFFFFFFFFFFFFFFFFFFFFFFFFFFFFFFFFFFFFFFFF
310
FFFFFFFFFFFFFFFFFFFFFFFFFFFFFFFFFFFFFFFFFFFFFFFFFFFFFFFFFFFFFFFF
310
FFFFFFFFFFFFFFFFFFFFFFFFFFFFFFFFFFFFFFFFFFFFFFFFFFFFFFFFFFFFFFFF
310
FFFFFFFFFFFFFFFFFFFFFFFFFFFFFFFFFFFFFFFFFFFFFFFFFFFFFFFFFFFFFFFF
310
FFFFFFFFFFFFFFFFFFFFFFFFFFFFFFFFFFFFFFFFFFFFFFFFFFFFFFFFFFFFFFFF
310
FFFFFFFFFFFFFFFFFFFFFFFFFFFFFFFFFFFFFFFFFFFFFFFFFFFFFFFFFFFFFFFF
310
FFFFFFFFFFFFFFFFFFFFFFFFFFFFFFFFFFFFFFFFFFFFFFFFFFFFFFFFFFFFFFFF
310
52006F006F007400200045006E00740072007900000000000000000000000000
310
0000000000000000000000000000000000000000000000000000000000000000
310
16000500FFFFFFFFFFFFFFFF020000000A00030000000000C000000000000046
310
000000000000000000000000B0959BACC4F7CC0103000000C000000000000000
310
01004F006C006500000000000000000000000000000000000000000000000000
310
0000000000000000000000000000000000000000000000000000000000000000
310
0A000200FFFFFFFFFFFFFFFFFFFFFFFF00000000000000000000000000000000
310
0000000000000000000000000000000000000000000000001400000000000000
310
010043006F006D0070004F0062006A0000000000000000000000000000000000
310
0000000000000000000000000000000000000000000000000000000000000000
310
120002010100000003000000FFFFFFFF00000000000000000000000000000000
310
0000000000000000000000000000000000000000010000004D00000000000000
310
01004F006C006500310030004E00610074006900760065000000000000000000
310
0000000000000000000000000000000000000000000000000000000000000000
310
1A000200FFFFFFFFFFFFFFFFFFFFFFFF00000000000000000000000000000000
310
0000000000000000000000000000000000000000040000002426000000000000
310
FEFFFFFF02000000FEFFFFFFFFFFFFFFFFFFFFFFFFFFFFFFFFFFFFFFFFFFFFFF
310
FFFFFFFFFFFFFFFFFFFFFFFFFFFFFFFFFFFFFFFFFFFFFFFFFFFFFFFFFFFFFFFF
310
FFFFFFFFFFFFFFFFFFFFFFFFFFFFFFFFFFFFFFFFFFFFFFFFFFFFFFFFFFFFFFFF
310
FFFFFFFFFFFFFFFFFFFFFFFFFFFFFFFFFFFFFFFFFFFFFFFFFFFFFFFFFFFFFFFF
310
FFFFFFFFFFFFFFFFFFFFFFFFFFFFFFFFFFFFFFFFFFFFFFFFFFFFFFFFFFFFFFFF
310
FFFFFFFFFFFFFFFFFFFFFFFFFFFFFFFFFFFFFFFFFFFFFFFFFFFFFFFFFFFFFFFF
310
FFFFFFFFFFFFFFFFFFFFFFFFFFFFFFFFFFFFFFFFFFFFFFFFFFFFFFFFFFFFFFFF
310
FFFFFFFFFFFFFFFFFFFFFFFFFFFFFFFFFFFFFFFFFFFFFFFFFFFFFFFFFFFFFFFF
310
FFFFFFFFFFFFFFFFFFFFFFFFFFFFFFFFFFFFFFFFFFFFFFFFFFFFFFFFFFFFFFFF
310
FFFFFFFFFFFFFFFFFFFFFFFFFFFFFFFFFFFFFFFFFFFFFFFFFFFFFFFFFFFFFFFF
310
FFFFFFFFFFFFFFFFFFFFFFFFFFFFFFFFFFFFFFFFFFFFFFFFFFFFFFFFFFFFFFFF
310
FFFFFFFFFFFFFFFFFFFFFFFFFFFFFFFFFFFFFFFFFFFFFFFFFFFFFFFFFFFFFFFF
310
FFFFFFFFFFFFFFFFFFFFFFFFFFFFFFFFFFFFFFFFFFFFFFFFFFFFFFFFFFFFFFFF
310
FFFFFFFFFFFFFFFFFFFFFFFFFFFFFFFFFFFFFFFFFFFFFFFFFFFFFFFFFFFFFFFF
310
FFFFFFFFFFFFFFFFFFFFFFFFFFFFFFFFFFFFFFFFFFFFFFFFFFFFFFFFFFFFFFFF
310
FFFFFFFFFFFFFFFFFFFFFFFFFFFFFFFFFFFFFFFFFFFFFFFFFFFFFFFFFFFFFFFF
310
0100000200000000000000000000000000000000000000000000000000000000
310
0000000000000000000000000000000000000000000000000000000000000000
310
0100FEFF030A0000FFFFFFFF0A00030000000000C00000000000004607000000
310
5042727573680007000000504272757368000700000050427275736800F439B2
310
7100000000000000000000000000000000000000000000000000000000000000
310
0000000000000000000000000000000000000000000000000000000000000000
310
0000000000000000000000000000000000000000000000000000000000000000
310
0000000000000000000000000000000000000000000000000000000000000000
310
0000000000000000000000000000000000000000000000000000000000000000
310
0000000000000000000000000000000000000000000000000000000000000000
310
0000000000000000000000000000000000000000000000000000000000000000
310
0000000000000000000000000000000000000000000000000000000000000000
310
0000000000000000000000000000000000000000000000000000000000000000
310
0000000000000000000000000000000000000000000000000000000000000000
310
0000000000000000000000000000000000000000000000000000000000000000
310
0000000000000000000000000000000000000000000000000000000000000000
310
20260000424D0E260000000000003E00000028000000B40200006E0000000100
310
01000000000000000000130B0000130B00000200000002000000000000FFFFFF
310
FFFFFFFFFFFFFFFFFFFFFFFFFFFFFFFFFFFFFFFFFFFFFFFFFFFFFFFFFFFFFFFF
310
FFFFFFFFFFFFFFFFFFFFFFFFFFFFFFFFFFFFFFFFFFFFFFFFFFFFFFFFFFFFFFFF
310
FFFFFFFFFFFFFFFFFFFFFFFFFFFFFFFFFFFFFFFFFFFFFFFFF000FFFFFFFFFFFF
310
FFFFFFFFFFFFFFFFFFFFFFFFFFFFFFFFFFFFFFFFFFFFFFFFFFFFFFFFFFFFFFFF
310
FFFFFFFFFFFFFFFFFFFFFFFFFFFFFFFFFFFFFFFFFFFFFFFFFFFFFFFFFFFFFFFF
310
FFFFFFFFFFFFFFFFFFFFFFFFFFFFFFFFF000FFFFFFFFFFFFFFFFFFFFFFFFFFFF
310
FFFFFFFFFFFFFFFFFFFFFFFFFFFFFFFFFFFFFFFFFFFFFFFFFFFFFFFFFFFFFFFF
310
FFFFFFFFFFFFFFFFFFFFFFFFFFFFFFFFFFFFFFFFFFFFFFFFFFFFFFFFFFFFFFFF
310
FFFFFFFFFFFFFFFFF000FFFFFFFFFFFFFFFFFFFFFFFFFFFFFFFFFFFFFFFFFFFF
310
FFFFFFFFFFFFFFFFFFFFFFFFFFFFFFFFFFFFFFFFFFFFFFFFFFFFFFFFFFFFFFFF
310
FFFFFFFFFFFFFFFFFFFFFFFFFFFFFFFFFFFFFFFFFFFFFFFFFFFFFFFFFFFFFFFF
310
F000FFFFFFFFFFFFFFFFFFFFFFFFFFFFFFFFFFFFFFFFFFFFFFFFFFFFFFFFFFFF
310
FFFFFFFFFFFFFFFFFFFFFFFFFFFFFFFFFFFFFFFFFFFFFFFFFFFFFFFFFFFFFFFF
310
FFFFFFFFFFFFFFFFFFFFFFFFFFFFFFFFFFFFFFFFFFFFFFFFF000FFFFFFFFFFFF
310
FFFFFFFFFFFFFFFFFFFFFFFFFFFFFFFFFFFFFFFFFFFFFFFFFFFFFFFFFFFFFFFF
310
FFFFFFFFFFFFFFFFFFFFFFFFFFFFFFFFFFFFFFFFFFFFFFFFFFFFFFFFFFFFFFFF
310
FFFFFFFFFFFFFFFFFFFFFFFFFFFFFFFFF000FFFFFFFFFFFFFFFFFFFFFFFFFFFF
310
FFFFFFFFFFFFFFFFFFFFFFFFFFFFFFFFFFFFFFFFFFFFFFFFFFFFFFFFFFFFFFFF
310
FFFFFFFFFFFFFFFFFFFFFFFFFFFFFFFFFFFFFFFFFFFFFFFFFFFFFFFFFFFFFFFF
310
FFFFFFFFFFFFFFFFF000FFFFFFFFFFFFFFFFFFFFFFFFFFFFFFFFFFFFFFFFFFFF
310
FFFFFFFFFFFFFFFFFFFFFFFFFFFFFFFFFFFFFFFFFFFFFFFFFFFFFFFFFFFFFFFF
310
FFFFFFFFFFFFFFFFFFFFFFFFFFFFFFFFFFFFFFFFFFFFFFFFFFFFFFFFFFFFFFFF
310
F000FFFFFFFFFFFFFFFFFFFFFFFFFFFFFFFFFFFFFFFFFFFFFFFFFFFFFFFFFFFF
310
FFFFFFFFFFFFFFFFFFFFFFFFFFFFFFFFFFFFFFFFFFFFFFFFFFFFFFFFFFFFFFFF
310
FFFFFFFFFFFFFFFFFFFFFFFFFFFFFFFFFFFFFFFFFFFFFFFFF000FFFFFFFFFFFF
310
FFFFFFFFFFFFFFFFFFFFFFFFFFFFFFFFFFFFFFFFFFFFFFFFFFFFFFFFFFFFFFFF
310
FFFFFFFFFFFFFFFFFFFFFFFFFFFFFFFFFFFFFFFFFFFFFFFFFFFFFFFFFFFFFFFF
310
FFFFFFFFFFFFFFFFFFFFFFFFFFFFFFFFF000FFFFFFFFFFFFFFFFFFFFFFFFFFFF
310
FFFFFFFFFFFFFFFFFFFFFFFFFFFFFFFFFFFFFFFFFFFFFFFFFFFFFFFFFFFFFFFF
310
FFFFFFFFFFFFFFFFFFFFFFFFFFFFFFFFFFFFFFFFFFFFFFFFFFFFFFFFFFFFFFFF
310
FFFFFFFFFFFFFFFFF000FFFFFFFFFFFFFFFFFFFFFFFFFFFFFFFFFFFFFFFFFFFF
310
FFFFFFFFFFFFFFFFFFFFFFFFFFFFFFFFFFFFFFFFFFFFFFFFFFFFFFFFFFFFFFFF
310
FFFFFFFFFFFFFFFFFFFFFFFFFFFFFFFFFFFFFFFFFFFFFFFFFFFFFFFFFFFFFFFF
310
F000FFFFFFFFFFFFFFFFFFFFFFFFFFFFFFFFFFFFFFFFFFFFFFFFFFFFFFFFFFFF
310
FFFFFFFFFFFFFFFFFFFFFFFFFFFFFFFFFFFFFFFFFFFFFFFFFFFFFFFFFFFFFFFF
310
FFFFFFFFFFFFFFFFFFFFFFFFFFFFFFFFFFFFFFFFFFFFFFFFF000FFFFFFFFFFFF
310
FFFFFFFFFFFFFFFFFFFFFFFFFFFFFFFFFFFFFFFFFFFFFFFFFFFFFFFFFFFFFFFF
310
FFFFFFFFFFFFFFFFFFFFFFFFFFFFFFFFFFFFFFFFFFFFFFFFFFFFFFFFFFFFFFFF
310
FFFFFFFFFFFFFFFFFFFFFFFFFFFFFFFFF000FFFFFFFFFFFFFFFFFFFFFFFFFFFF
310
FFFFFFFFFFFFFFFFFFFFFFFFFFFFFFFFFFFFFFFFFFFFFFFFFFFFFFFFFFFFFFFF
310
FFFFFFFFFFFFFFFFFFFFFFFFFFFFFFFFFFFFFFFFFFFFFFFFFFFFFFFFFFFFFFFF
310
FFFFFFFFFFFFFFFFF000FFFFFFFFFFFFFFFFFFFFFFFFFFFFFFFFFFFFFFFFFFFF
310
FFFFFFFFFFFFFFFFFFFFFFFFFFFFFFFFFFFFFFFFFFFFFFFFFFFFFFFFFFFFFFFF
310
FFFFFFFFFFFFFFFFFFFFFFFFFFFFFFFFFFFFFFFFFFFFFFFFFFFFFFFFFFFFFFFF
310
F000FFFFFFFFFFFFFFFFFFFFFFFFFFFFFFFFFFFFFFFFFFFFFFFFFFFFFFFFFFFF
310
FFFFFFFFFFFFFFFFFFFFFFFFFFFFFFFFFFFFFFFFFFFFFFFFFFFFFFFFFFFFFFFF
310
FFFFFFFFFFFFFFFFFFFFFFFFFFFFFFFFFFFFFFFFFFFFFFFFF000FFFFFFFFFFFF
310
FFFFFFFFFFFFFFFFFFFFFFFFFFFFFFFFFFFFFFFFFFFFFFFFFFFFFFFFFFFFFFFF
310
FFFFFFFFFFFFFFFFFFFFFFFFFFFFFFFFFFFFFFFFFFFFFFFFFFFFFFFFFFFFFFFF
310
FFFFFFFFFFFFFFFFFFFFFFFFFFFFFFFFF000FFFFFFFFFFFFFFFFFFFFFFFFFFFF
310
FFFFFFFFFFFFFFFFFFFFFFFFFFFFFFFFFFFFFFFFFFFFFFFFFFFFFFFFFFFFFFFF
310
FFFFFFFFFFFFFFFFFFFFFFFFFFFFFFFFFFFFFFFFFFFFFFFFFFFFFFFFFFFFFFFF
310
FFFFFFFFFFFFFFFFF000FFFFF80003FFFFFFFFFFFFFFFFFFFFFFFFFFFFFFFFFF
310
FFFFF00007FFFFFFFFFF00007FFFFFF800000000000000007FFFFFFFFFFFFFFF
310
FFFFFFFC001FFFFFFFFFFFFFFC001FFFFFFFFFFFFFFFFFFFFFFFFFFE0007FFFF
310
F000FFFF8000007FFFFFFFF8000FFFFFC0007FFFFF80007FFFFF0000007FFFFF
310
FFF8000007FFFFF800000000000000007FFFFFF0001FFFFFFFFFFFC00001FFFF
310
FFFFFFFFC00001FFFFFFFF000000000003FFFFE000007FFFF000FFFE0000000F
310
FFFFFFF0000FFFFF80007FFFFF80007FFFFC0000001FFFFFFFC0000001FFFFF8
310
00000000000000007FFFFFF0001FFFFFFFFFFE0000003FFFFFFFFFFE0000003F
310
FFFFFF000000000003FFFF0000000FFFF000FFF800000003FFFFFFF00007FFFF
310
80007FFFFF80007FFFF000000007FFFFFF000000003FFFF80000000000000000
310
7FFFFFF0001FFFFFFFFFF80000000FFFFFFFFFF80000000FFFFFFF0000000000
310
03FFFC00000003FFF000FFE000000000FFFFFFF00007FFFF80003FFFFF80007F
310
FFC000000001FFFFFC000000001FFFF800000000000000007FFFFFF0001FFFFF
310
FFFFE000000003FFFFFFFFE000000003FFFFFF000000000003FFF000000000FF
310
F000FF80000000007FFFFFF00007FFFF80003FFFFF80007FFF8000000000FFFF
310
F80000000007FFF800000000000000007FFFFFF0001FFFFFFFFFC000000001FF
310
FFFFFFC000000001FFFFFF000000000003FFC0000000007FF000FF0000000000
310
3FFFFFE00007FFFF00003FFFFF80007FFE00000000003FFFF00000000003FFF8
310
00000000000000007FFFFFF0001FFFFFFFFF8000000000FFFFFFFF8000000000
310
FFFFFF000000000003FF80000000003FF000FE00000000001FFFFFE00003FFFF
310
00003FFFFF80007FFC00000000001FFFE00000000001FFF8000001FFFE000000
310
7FFFFFF0001FFFFFFFFE00000000003FFFFFFE00000000003FFFFF0000000000
310
03FF00000000001FF000FC00000000000FFFFFE00003FFFF00001FFFFF80007F
310
F800000000001FFFC00000000000FFF8000001FFFE0000007FFFFFF0001FFFFF
310
FFFC00000000001FFFFFFC00000000001FFFFF000000000003FE00000000000F
310
F000F8000000000007FFFFE00003FFFF00001FFFFF80007FF800000000000FFF
310
800000000000FFF8000001FFFE0000007FFFFFF0001FFFFFFFF800000000000F
310
FFFFF800000000000FFFFF000000000003FC000000000007F000F80000000000
310
03FFFFC00003FFFE00001FFFFF80007FF0000000000007FF0000000000007FF8
310
000001FFFE0000007FFFFFF0001FFFFFFFF0000000000007FFFFF00000000000
310
07FFFF000000000003F8000000000003F000F0000000000003FFFFC00001FFFE
310
00001FFFFF80007FE0000000000007FE0000000000003FF8000001FFFE000000
310
7FFFFFF0001FFFFFFFF0000000000007FFFFF0000000000007FFFF0000000000
310
03F800001F800003F000E00001FFF00001FFFFC00001FFFE00000FFFFF80007F
310
E00001FFE00003FE00001FFF00003FF8000001FFFE0000007FFFFFF0001FFFFF
310
FFE000003E000003FFFFE000003E000003FFFF000000000003F00001FFF80001
310
F000E00007FFFC0001FFFFC00001FFFE00000FFFFF80007FC0000FFFFC0003FC
310
0000FFFFC0001FF8000001FFFE0000007FFFFFF0001FFFFFFFC00003FFE00001
310
FFFFC00003FFE00001FFFF0001FFFFFFFFF00007FFFE0001F000E0000FFFFF00
310
00FFFF800001FFFC00000FFFFF80007FC0001FFFFE0001FC0001FFFFE0001FF8
310
000001FFFE0000007FFFFFF0001FFFFFFF80000FFFF80000FFFF80000FFFF800
310
00FFFF0003FFFFFFFFE0000FFFFF8000F000C0003FFFFF8000FFFF800000FFFC
310
000007FFFF80007F80003FFFFF0001FC0003FFFFF0001FF8000001FFFE000000
310
7FFFFFF0001FFFFFFF80003FFFFE0000FFFF80003FFFFE0000FFFF0003FFFFFF
310
FFE0003FFFFF8000F000C0003FFFFF8000FFFF800000FFFC000007FFFF80007F
310
80007FFFFF8001F80007FFFFF8000FF8000001FFFE0000007FFFFFF0001FFFFF
310
FF00007FFFFF00007FFF00007FFFFF00007FFF0003FFFFFFFFE0003FFFFFC000
310
F000C0007FFFFFC000FFFF000000FFFC000007FFFF80007F8000FFFFFF8000F8
310
000FFFFFF8000FF8000001FFFE0000007FFFFFF0001FFFFFFF0000FFFFFF8000
310
7FFF0000FFFFFF80007FFF0003FFFFFFFFC0007FFFFFC00070008000FFFFFFC0
310
00FFFF000000FFF8000007FFFF80007F8000FFFFFF8000F8000FFFFFF8000FF8
310
000001FFFE0000007FFFFFF0001FFFFFFE0001FFFFFFC0003FFE0001FFFFFFC0
310
003FFF0003FFFFFFFFC0007FFFFFE00070008000FFFFFFC0007FFF0000007FF8
310
000003FFFF80007F0001FFFFFF8000F8000FFFFFF8000FF8000001FFFE000000
310
7FFFFFF0001FFFFFFE0001FFFFFFC0003FFE0001FFFFFFC0003FFF0003FFFFFF
310
FFC000FFFFFFE00070008000FFFFFFC0007FFF0000007FF8000003FFFF80007F
310
0001FFFFFF8000F8001FFFFFF8000FF8000001FFFE0000007FFFFFF0001FFFFF
310
FE0003FFFFFFE0003FFE0003FFFFFFE0003FFF0003FFFFFFFFC000FFFFFFE000
310
70008000FFFFFFC0007FFE0000007FF8000003FFFF80007F0001FFFFFF8000F0
310
001FFFFFF8000FF8000001FFFE0000007FFFFFF0001FFFFFFC0003FFFFFFE000
310
1FFC0003FFFFFFE0001FFF0003FFFFFFFFC000FFFFFFC00070008000FFFFFF80
310
007FFE0000007FF0000003FFFF80007F0001FFFFFF0000F0001FFFFFF8000FF8
310
000001FFFE0000007FFFFFF0001FFFFFFC0007FFFFFFF0001FFC0007FFFFFFF0
310
001FFF0003FFFFFFFFC000FFFFFFC00070008001FFFFFF0000FFFE0000003FF0
310
000001FFFF80007F0001FFFFFF0000F8001FFFFFF0000FF8000001FFFE000000
310
7FFFFFF0001FFFFFFC0007FFFFFFF0001FFC0007FFFFFFF0001FFF0003FFFFFF
310
FFC001FFFFFF80007000FFFFFFFFFE0000FFFE0008003FF0008001FFFF80007F
310
FFFFFFFFFC0000FFFFFFFFFFE0000FF8000001FFFE0000007FFFFFF0001FFFFF
310
F8000FFFFFFFF8000FF8000FFFFFFFF8000FFF0003FFFFFFFFFFFFFFFFFF0000
310
7000FFFFFFFFFC0000FFFC0008003FF0008001FFFF80007FFFFFFFFFF80001FF
310
FFFFFFFF80000FF8000001FFFE0000007FFFFFF0001FFFFFF8000FFFFFFFF800
310
0FF8000FFFFFFFF8000FFF0003FFFFFFFFFFFFFFFFFE0000F000FFFFFFFFE000
310
00FFFC000C003FE000C001FFFF80007FFFFFFFFFC00001FFFFFFFFFE00001FF8
310
000001FFFE0000007FFFFFF0001FFFFFF8000FFFFFFFF8000FF8000FFFFFFFF8
310
000FFF0003FFFFFFFFFFFFFFFFF00000F000FFFFFFFE000001FFFC000C001FE0
310
00C000FFFF80007FFFFFFFFE000001FFFFFFFFE000001FF80FFFFFFFFFFFFFC0
310
7FFFFFF0001FFFFFF8000FFFFFFFF8000FF8000FFFFFFFF8000FFF0003FFFFFF
310
FFFFFFFFFF800000F000FFFFFFC0000001FFFC001C001FE001C000FFFF80007F
310
FFFFFF80000003FFFFFFF80000001FF80FFFFFFFFFFFFFC07FFFFFF0001FFFFF
310
F8001FFFFFFFFC000FF8001FFFFFFFFC000FFF0003FFFFFFFFFFFFFFF0000001
310
F000FFFFF800000001FFF8001C001FE001C000FFFF80007FFFFFF800000003FF
310
FFFF800000003FF80FFFFFFFFFFFFFC07FFFFFF0001FFFFFF8001FFFFFFFFC00
310
0FF8001FFFFFFFFC000FFF0003FFFFFFFFFFFFFE00000001F000FFFFC0000000
310
03FFF8001E001FC001E000FFFF80007FFFFF8000000007FFFFFC000000003FF8
310
0FFFFFFFFFFFFFC07FFFFFF0001FFFFFF8001FFFFFFFFC000FF8001FFFFFFFFC
310
000FFF0003FFFFFFFFFFFFE000000003F000FFFE0000000007FFF8001E000FC0
310
01E0007FFF80007FFFFE0000000007FFFFE0000000007FF80FFFFFFFFFFFFFC0
310
7FFFFFF0001FFFFFF0001FFFFFFFFC0007F0001FFFFFFFFC0007FF0003FFFFFF
310
FFFFFF0000000003F000FFF80000000007FFF8001E000FC003E0007FFF80007F
310
FFF0000000000FFFFF8000000000FFF80FFFFFFFFFFFFFC07FFFFFF0001FFFFF
310
F0001FFFFFFFFC0007F0001FFFFFFFFC0007FF0003FFFFFFFFFFFC0000000007
310
F000FFE0000000000FFFF0003E000FC003E0007FFF80007FFFC0000000001FFF
310
FE0000000001FFF80FFFFFFFFFFFFFC07FFFFFF0001FFFFFF0001FFFFFFFFC00
310
07F0001FFFFFFFFC0007FF0003FFFFFFFFFFF0000000000FF000FFC000000000
310
1FFFF0003F000F8003F0003FFF80007FFF80000000003FFFF80000000003FFF8
310
0FFFFFFFFFFFFFC07FFFFFF0001FFFFFF0001FFFFFFFFC0007F0001FFFFFFFFC
310
0007FF0003FFFFFFFFFFE0000000001FF000FF00000000007FFFF0003F000780
310
03F0003FFF80007FFF00000000007FFFF00000000007FFF80FFFFFFFFFFFFFC0
310
7FFFFFF0001FFFFFF0001FFFFFFFFC0007F0001FFFFFFFFC0007FF0003FFFFFF
310
FFFF80000000007FF000FE0000000000FFFFE0003F00078007F0003FFF80007F
310
FE0000000001FFFFE0000000001FFFF80FFFFFFFFFFFFFC07FFFFFF0001FFFFF
310
F0001FFFFFFFFC0007F0001FFFFFFFFC0007FF0003FFFFFFFFFF0000000000FF
310
F000FC0000000003FFFFE0007F00078007F0003FFF80007FFC0000000007FFFF
310
C0000000007FFFF80FFFFFFFFFFFFFC07FFFFFF0001FFFFFF8001FFFFFFFFC00
310
0FF8001FFFFFFFFC000FFF0003FFFFFFFFFE0000000003FFF000FC000000000F
310
FFFFE0007F80070007F8001FFF80007FF8000000001FFFFF8000000001FFFFF8
310
0FFFFFFFFFFFFFC07FFFFFF0001FFFFFF8001FFFFFFFFC000FF8001FFFFFFFFC
310
000FFF0003FFFFFFFFFC000000000FFFF000F8000000007FFFFFE0007F800700
310
07F8001FFF80007FF000000000FFFFFF800000000FFFFFF80FFFFFFFFFFFFFC0
310
7FFFFFF0001FFFFFF8000FFFFFFFF8000FF8000FFFFFFFF8000FFF0003FFFFFF
310
FFFC000000007FFFF000F800000007FFFFFFC0007F8003000FF8001FFF80007F
310
F000000007FFFFFF000000007FFFFFF80FFFFFFFFFFFFFC07FFFFFF0001FFFFF
310
F8000FFFFFFFF8000FF8000FFFFFFFF8000FFF0003FFFFFFFFF80000000FFFFF
310
F000F0000000FFFFFFFFC000FF8003000FF8001FFF80007FE0000000FFFFFFFF
310
0000000FFFFFFFF8000001FFFE0000007FFFFFF0001FFFFFF8000FFFFFFFF800
310
0FF8000FFFFFFFF8000FFF0003FFFFFFFFF8000000FFFFFFF000F000000FFFFF
310
FFFFC000FFC002000FF8000FFF80007FE000001FFFFFFFFE000001FFFFFFFFF8
310
000001FFFE0000007FFFFFF0001FFFFFF8000FFFFFFFF8000FF8000FFFFFFFF8
310
000FFF0003FFFFFFFFF000001FFFFFFFF000E00000FFFFFFFFFFC000FFC00200
310
0FFC000FFF80007FE00001FFFFFFFFFE00001FFFFFFFFFF8000001FFFE000000
310
7FFFFFF0001FFFFFFC000FFFFFFFF8001FFC000FFFFFFFF8001FFF0003FFFFFF
310
FFF00001FFFFFFFFF000E00007FFFFFFFFFF8000FFC000001FFC000FFF80007F
310
C0000FFFFFFFFFFE0000FFFFFFFFFFF8000001FFFE0000007FFFFFF0001FFFFF
310
FC0007FFFFFFF0001FFC0007FFFFFFF0001FFF0003FFFFFFFFF00007FFFFFFFF
310
F000E0001FFFFFFFFFFF8000FFC000001FFC000FFF80007FC0003FFFFFFFFFFE
310
0001FFFFFFFFFFF8000001FFFE0000007FFFFFF0001FFFFFFC0007FFFFFFF000
310
1FFC0007FFFFFFF0001FFF0003FFFFFFFFF0001FFFFFFFFFF000E0003FFFFF00
310
03FF8001FFE000001FFC0007FF80007FC0007FFFFF0007FC0003FFFFF0003FF8
310
000001FFFE0000007FFFFFF0001FFFFFFC0003FFFFFFE0001FFC0003FFFFFFE0
310
001FFF0003FFFFFFFFF0003FFFFFFFFFF000E0003FFFFF0001FF8001FFE00000
310
1FFE0007FF80007FC0007FFFFE0003FC0007FFFFE0003FF8000001FFFE000000
310
7FFFFFF0001FFFFFFE0003FFFFFFE0003FFE0003FFFFFFE0003FFF0003FFFFFF
310
FFF0003FFFFF8001F000E0003FFFFF0001FF0001FFE000001FFE0007FF80007F
310
C0007FFFFE0003FC0007FFFFE0003FF8000001FFFE0000007FFFFFF0001FFFFF
310
FE0001FFFFFFC0003FFE0001FFFFFFC0003FFF0003FFFFFFFFF0003FFFFF0001
310
F000E0003FFFFF0003FF0001FFE000003FFE0007FF80007FC0007FFFFE0003FC
310
0007FFFFE0003FF8000001FFFE0000007FFFFFF0001FFFFFFF0001FFFFFFC000
310
7FFF0001FFFFFFC0007FFF0003FFFFFFFFF0003FFFFF0001F000E0003FFFFE00
310
03FF0003FFF000003FFE0003FF80007FC0007FFFFC0003FE0007FFFFE0003FF8
310
000001FFFE0000007FFFFFF0001FFFFFFF0000FFFFFF80007FFF0000FFFFFF80
310
007FFF0003FFFFFFFFF0003FFFFF0001F000E0003FFFFE0003FF0003FFF00000
310
3FFF0003FF80007FC0007FFFFC0007FE0007FFFFC0003FF8000001FFFE000000
310
7FFFFFF0001FFFFFFF80007FFFFF0000FFFF80007FFFFF0000FFFF0003FFFFFF
310
FFF0003FFFFF0003F000E0003FFFFC0003FE0003FFF000003FFF0003FF80007F
310
E0003FFFF80007FE0003FFFFC0007FF8000001FFFE0000007FFFFFF0001FFFFF
310
FF80003FFFFE0000FFFF80003FFFFE0000FFFF0003FFFFFFFFF0001FFFFE0003
310
F000F0001FFFF80003FE0003FFF000007FFF0001FF80007FE0003FFFF00007FE
310
0001FFFF80007FF8000001FFFE0000007FFFFFF0001FFFFFFFC0000FFFF80001
310
FFFFC0000FFFF80001FFFF0003FFFFFFFFF0001FFFFC0003F000F0000FFFF000
310
07FE0007FFF800007FFF0001FF80007FE0001FFFE00007FF0000FFFE00007FF8
310
000001FFFE0000007FFFFFF0001FFFFFFFC00003FFE00001FFFFC00003FFE000
310
01FFFF0003FFFFFFFFF8000FFFF80003F000F00003FFC00007FC0007FFF80000
310
7FFF8001FF80007FF00007FF80000FFF00007FF80000FFF8000001FFFE000000
310
7F80000000000001FFE000003E000003FFFFE000003E000003FFFF0003FFFFFF
310
FFF80003FFE00007F000F800000000000FFC0007FFF800007FFF8001FF80007F
310
F000000000000FFF000000000000FFF8000001FFFE0000007F80000000000001
310
FFF0000000000007FFFFF0000000000007FFFF0003FFFFFFFFFC00007E000007
310
F000F800000000000FFC0007FFF80000FFFF8000FF80007FF800000000001FFF
310
800000000001FFF8000001FFFE0000007F80000000000001FFF800000000000F
310
FFFFF800000000000FFFFF0003FFFFFFFFFC00000000000FF000FC0000000000
310
1FFC0007FFFC0000FFFF8000FF80007FF800000000003FFFC00000000001FFF8
310
000001FFFE0000007F80000000000001FFF800000000000FFFFFF80000000000
310
0FFFFF0003FFFFFFFFFE00000000001FF000FE00000000003FF8000FFFFC0000
310
FFFF8000FF80007FFC00000000003FFFC00000000003FFF8000001FFFE000000
310
7F80000000000001FFFC00000000001FFFFFFC00000000001FFFFF0003FFFFFF
310
FFFF00000000001FF000FF00000000003FF8000FFFFC0000FFFFC000FF80007F
310
FE00000000007FFFE00000000007FFF8000001FFFE0000007F80000000000001
310
FFFE00000000003FFFFFFE00000000003FFFFF0003FFFFFFFFFF80000000003F
310
F000FF80000000007FF8000FFFFC0001FFFFC0007F80007FFF0000000000FFFF
310
F0000000000FFFF800000000000000007F80000000000001FFFF8000000000FF
310
FFFFFF8000000000FFFFFF0003FFFFFFFFFFC0000000007FF000FFC000000000
310
FFF8000FFFFE0001FFFFC0007F80007FFF8000000001FFFFF8000000001FFFF8
310
00000000000000007F80000000000001FFFFC000000001FFFFFFFFC000000001
310
FFFFFF0003FFFFFFFFFFE000000000FFF000FFE000000003FFF0001FFFFE0001
310
FFFFC0007F80007FFFC000000007FFFFFE000000003FFFF80000000000000000
310
7F80000000000001FFFFE000000003FFFFFFFFE000000003FFFFFF0003FFFFFF
310
FFFFF000000003FFF000FFF80000000FFFF0001FFFFE0001FFFFE0007F80007F
310
FFF00000000FFFFFFF00000000FFFFF800000000000000007F80000000000001
310
FFFFF80000000FFFFFFFFFF80000000FFFFFFF0003FFFFFFFFFFFC0000000FFF
310
F000FFFE0000003FFFF0001FFFFE0003FFFFE0003F80007FFFFC0000003FFFFF
310
FFC0000003FFFFF800000000000000007F80000000000001FFFFFE0000003FFF
310
FFFFFFFE0000003FFFFFFF0003FFFFFFFFFFFF0000003FFFF000FFFF800000FF
310
FFF0001FFFFF0003FFFFE0003F80007FFFFF000001FFFFFFFFF800001FFFFFF8
310
00000000000000007F80000000000001FFFFFFC00001FFFFFFFFFFFFC00001FF
310
FFFFFF0003FFFFFFFFFFFFC00000FFFFF000FFFFF8000FFFFFFFFFFFFFFFFFFF
310
FFFFFFFFFFFFFFFFFFFFF0001FFFFFFFFFFF0000FFFFFFF80000000000000000
310
7FFFFFFFFFFFFFFFFFFFFFFC001FFFFFFFFFFFFFFC001FFFFFFFFFFFFFFFFFFF
310
FFFFFFFC001FFFFFF000FFFFFFFFFFFFFFFFFFFFFFFFFFFFFFFFFFFFFFFFFFFF
310
FFFFFFFFFFFFFFFFFFFFFFFFFFFFFFFFFFFFFFFFFFFFFFFFFFFFFFFFFFFFFFFF
310
FFFFFFFFFFFFFFFFFFFFFFFFFFFFFFFFFFFFFFFFFFFFFFFFFFFFFFFFFFFFFFFF
310
F000FFFFFFFFFFFFFFFFFFFFFFFFFFFFFFFFFFFFFFFFFFFFFFFFFFFFFFFFFFFF
310
FFFFFFFFFFFFFFFFFFFFFFFFFFFFFFFFFFFFFFFFFFFFFFFFFFFFFFFFFFFFFFFF
310
FFFFFFFFFFFFFFFFFFFFFFFFFFFFFFFFFFFFFFFFFFFFFFFFF000FFFFFFFFFFFF
310
FFFFFFFFFFFFFFFFFFFFFFFFFFFFFFFFFFFFFFFFFFFFFFFFFFFFFFFFFFFFFFFF
310
FFFFFFFFFFFFFFFFFFFFFFFFFFFFFFFFFFFFFFFFFFFFFFFFFFFFFFFFFFFFFFFF
310
FFFFFFFFFFFFFFFFFFFFFFFFFFFFFFFFF000FFFFFFFFFFFFFFFFFFFFFFFFFFFF
310
FFFFFFFFFFFFFFFFFFFFFFFFFFFFFFFFFFFFFFFFFFFFFFFFFFFFFFFFFFFFFFFF
310
FFFFFFFFFFFFFFFFFFFFFFFFFFFFFFFFFFFFFFFFFFFFFFFFFFFFFFFFFFFFFFFF
310
FFFFFFFFFFFFFFFFF000FFFFFFFFFFFFFFFFFFFFFFFFFFFFFFFFFFFFFFFFFFFF
310
FFFFFFFFFFFFFFFFFFFFFFFFFFFFFFFFFFFFFFFFFFFFFFFFFFFFFFFFFFFFFFFF
310
FFFFFFFFFFFFFFFFFFFFFFFFFFFFFFFFFFFFFFFFFFFFFFFFFFFFFFFFFFFFFFFF
310
F000FFFFFFFFFFFFFFFFFFFFFFFFFFFFFFFFFFFFFFFFFFFFFFFFFFFFFFFFFFFF
310
FFFFFFFFFFFFFFFFFFFFFFFFFFFFFFFFFFFFFFFFFFFFFFFFFFFFFFFFFFFFFFFF
310
FFFFFFFFFFFFFFFFFFFFFFFFFFFFFFFFFFFFFFFFFFFFFFFFF000FFFFFFFFFFFF
310
FFFFFFFFFFFFFFFFFFFFFFFFFFFFFFFFFFFFFFFFFFFFFFFFFFFFFFFFFFFFFFFF
310
FFFFFFFFFFFFFFFFFFFFFFFFFFFFFFFFFFFFFFFFFFFFFFFFFFFFFFFFFFFFFFFF
310
FFFFFFFFFFFFFFFFFFFFFFFFFFFFFFFFF000FFFFFFFFFFFFFFFFFFFFFFFFFFFF
310
FFFFFFFFFFFFFFFFFFFFFFFFFFFFFFFFFFFFFFFFFFFFFFFFFFFFFFFFFFFFFFFF
310
FFFFFFFFFFFFFFFFFFFFFFFFFFFFFFFFFFFFFFFFFFFFFFFFFFFFFFFFFFFFFFFF
310
FFFFFFFFFFFFFFFFF000FFFFFFFFFFFFFFFFFFFFFFFFFFFFFFFFFFFFFFFFFFFF
310
FFFFFFFFFFFFFFFFFFFFFFFFFFFFFFFFFFFFFFFFFFFFFFFFFFFFFFFFFFFFFFFF
310
FFFFFFFFFFFFFFFFFFFFFFFFFFFFFFFFFFFFFFFFFFFFFFFFFFFFFFFFFFFFFFFF
310
F000FFFFFFFFFFFFFFFFFFFFFFFFFFFFFFFFFFFFFFFFFFFFFFFFFFFFFFFFFFFF
310
FFFFFFFFFFFFFFFFFFFFFFFFFFFFFFFFFFFFFFFFFFFFFFFFFFFFFFFFFFFFFFFF
310
FFFFFFFFFFFFFFFFFFFFFFFFFFFFFFFFFFFFFFFFFFFFFFFFF000FFFFFFFFFFFF
310
FFFFFFFFFFFFFFFFFFFFFFFFFFFFFFFFFFFFFFFFFFFFFFFFFFFFFFFFFFFFFFFF
310
FFFFFFFFFFFFFFFFFFFFFFFFFFFFFFFFFFFFFFFFFFFFFFFFFFFFFFFFFFFFFFFF
310
FFFFFFFFFFFFFFFFFFFFFFFFFFFFFFFFF000FFFFFFFFFFFFFFFFFFFFFFFFFFFF
310
FFFFFFFFFFFFFFFFFFFFFFFFFFFFFFFFFFFFFFFFFFFFFFFFFFFFFFFFFFFFFFFF
310
FFFFFFFFFFFFFFFFFFFFFFFFFFFFFFFFFFFFFFFFFFFFFFFFFFFFFFFFFFFFFFFF
310
FFFFFFFFFFFFFFFFF000FFFFFFFFFFFFFFFFFFFFFFFFFFFFFFFFFFFFFFFFFFFF
310
FFFFFFFFFFFFFFFFFFFFFFFFFFFFFFFFFFFFFFFFFFFFFFFFFFFFFFFFFFFFFFFF
310
FFFFFFFFFFFFFFFFFFFFFFFFFFFFFFFFFFFFFFFFFFFFFFFFFFFFFFFFFFFFFFFF
310
F000FFFFFFFFFFFFFFFFFFFFFFFFFFFFFFFFFFFFFFFFFFFFFFFFFFFFFFFFFFFF
310
FFFFFFFFFFFFFFFFFFFFFFFFFFFFFFFFFFFFFFFFFFFFFFFFFFFFFFFFFFFFFFFF
310
FFFFFFFFFFFFFFFFFFFFFFFFFFFFFFFFFFFFFFFFFFFFFFFFF000FFFFFFFFFFFF
310
FFFFFFFFFFFFFFFFFFFFFFFFFFFFFFFFFFFFFFFFFFFFFFFFFFFFFFFFFFFFFFFF
310
FFFFFFFFFFFFFFFFFFFFFFFFFFFFFFFFFFFFFFFFFFFFFFFFFFFFFFFFFFFFFFFF
310
FFFFFFFFFFFFFFFFFFFFFFFFFFFFFFFFF000FFFFFFFFFFFFFFFFFFFFFFFFFFFF
310
FFFFFFFFFFFFFFFFFFFFFFFFFFFFFFFFFFFFFFFFFFFFFFFFFFFFFFFFFFFFFFFF
310
FFFFFFFFFFFFFFFFFFFFFFFFFFFFFFFFFFFFFFFFFFFFFFFFFFFFFFFFFFFFFFFF
310
FFFFFFFFFFFFFFFFF000FFFFFFFFFFFFFFFFFFFFFFFFFFFFFFFFFFFFFFFFFFFF
310
FFFFFFFFFFFFFFFFFFFFFFFFFFFFFFFFFFFFFFFFFFFFFFFFFFFFFFFFFFFFFFFF
310
FFFFFFFFFFFFFFFFFFFFFFFFFFFFFFFFFFFFFFFFFFFFFFFFFFFFFFFFFFFFFFFF
310
F000FFFFFFFFFFFFFFFFFFFFFFFFFFFFFFFFFFFFFFFFFFFFFFFFFFFFFFFFFFFF
310
FFFFFFFFFFFFFFFFFFFFFFFFFFFFFFFFFFFFFFFFFFFFFFFFFFFFFFFFFFFFFFFF
310
FFFFFFFFFFFFFFFFFFFFFFFFFFFFFFFFFFFFFFFFFFFFFFFFF000FFFFFFFFFFFF
310
FFFFFFFFFFFFFFFFFFFFFFFFFFFFFFFFFFFFFFFFFFFFFFFFFFFFFFFFFFFFFFFF
310
FFFFFFFFFFFFFFFFFFFFFFFFFFFFFFFFFFFFFFFFFFFFFFFFFFFFFFFFFFFFFFFF
310
FFFFFFFFFFFFFFFFFFFFFFFFFFFFFFFFF000FFFFFFFFFFFFFFFFFFFFFFFFFFFF
310
FFFFFFFFFFFFFFFFFFFFFFFFFFFFFFFFFFFFFFFFFFFFFFFFFFFFFFFFFFFFFFFF
310
FFFFFFFFFFFFFFFFFFFFFFFFFFFFFFFFFFFFFFFFFFFFFFFFFFFFFFFFFFFFFFFF
310
FFFFFFFFFFFFFFFFF000FFFFFFFFFFFFFFFFFFFFFFFFFFFFFFFFFFFFFFFFFFFF
310
FFFFFFFFFFFFFFFFFFFFFFFFFFFFFFFFFFFFFFFFFFFFFFFFFFFFFFFFFFFFFFFF
310
FFFFFFFFFFFFFFFFFFFFFFFFFFFFFFFFFFFFFFFFFFFFFFFFFFFFFFFFFFFFFFFF
310
F000FFFFFFFFFFFFFFFFFFFFFFFFFFFFFFFFFFFFFFFFFFFFFFFFFFFFFFFFFFFF
310
FFFFFFFFFFFFFFFFFFFFFFFFFFFFFFFFFFFFFFFFFFFFFFFFFFFFFFFFFFFFFFFF
310
FFFFFFFFFFFFFFFFFFFFFFFFFFFFFFFFFFFFFFFFFFFFFFFFF000FFFFFFFFFFFF
310
FFFFFFFFFFFFFFFFFFFFFFFFFFFFFFFFFFFFFFFFFFFFFFFFFFFFFFFFFFFFFFFF
310
FFFFFFFFFFFFFFFFFFFFFFFFFFFFFFFFFFFFFFFFFFFFFFFFFFFFFFFFFFFFFFFF
310
FFFFFFFFFFFFFFFFFFFFFFFFFFFFFFFFF0000000000000000000000000000000
310
0000000000000000000000000000000000000000000000000000000000000000
310
0000000000000000000000000000000000000000000000000000000000000000
310
0000000000000000000000000000000000000000000000000000000000000000
310
0000000000000000000000000000000000000000000000000000000000000000
310
0000000000000000000000000000000000000000000000000000000000000000
310
0000000000000000000000000000000000000000000000000000000000000000
310
0000000000000000000000000000000000000000000000000000000000000000
310
0000000000000000000000000000000000000000000000000000000000000000
310
0000000000000000000000000000000000000000000000000000000000000000
310
0000000000000000000000000000000000000000000000000000000000000000
310
0000000000000000000000000000000000000000000000000000000000000000
310
0000000000000000000000000000000000000000000000000000000000000000
310
0000000000000000000000000000000000000000000000000000000000000000
310
0000000000000000000000000000000000000000000000000000000000000000
310
0000000000000000000000000000000000000000000000000000000000000000
  1
OLE
  0
ENDSEC
  0
SECTION
  2
OBJECTS
  0
DICTIONARY
  5
C
330
0
100
AcDbDictionary
281
     1
  3
ACAD_GROUP
350
D
  3
ACAD_LAYOUT
350
1A
  3
ACAD_MLINESTYLE
350
17
  3
ACAD_PLOTSETTINGS
350
19
  3
ACAD_PLOTSTYLENAME
350
E
  0
DICTIONARY
  5
D
102
{ACAD_REACTORS
330
C
102
}
330
C
100
AcDbDictionary
281
     1
  0
DICTIONARY
  5
1A
102
{ACAD_REACTORS
330
C
102
}
330
C
100
AcDbDictionary
281
     1
  3
Layout1
350
1E
  3
Layout2
350
26
  3
Model
350
22
  0
DICTIONARY
  5
17
102
{ACAD_REACTORS
330
C
102
}
330
C
100
AcDbDictionary
281
     1
  3
Standard
350
18
  0
DICTIONARY
  5
19
102
{ACAD_REACTORS
330
C
102
}
330
C
100
AcDbDictionary
281
     1
  0
ACDBDICTIONARYWDFLT
  5
E
102
{ACAD_REACTORS
330
C
102
}
330
C
100
AcDbDictionary
281
     1
  3
Normal
350
F
100
AcDbDictionaryWithDefault
340
F
  0
LAYOUT
  5
1E
102
{ACAD_REACTORS
330
1A
102
}
330
1A
100
AcDbPlotSettings
  1

  2
none_device
  4

  6

 40
0.0
 41
0.0
 42
0.0
 43
0.0
 44
0.0
 45
0.0
 46
0.0
 47
0.0
 48
0.0
 49
0.0
140
0.0
141
0.0
142
1.0
143
1.0
 70
   688
 72
     0
 73
     0
 74
     5
  7

 75
    16
147
1.0
148
0.0
149
0.0
100
AcDbLayout
  1
Layout1
 70
     1
 71
     1
 10
0.0
 20
0.0
 11
420.0
 21
297.0
 12
0.0
 22
0.0
 32
0.0
 14
1.0000000000E+20
 24
1.0000000000E+20
 34
1.0000000000E+20
 15
-1.0000000000E+20
 25
-1.0000000000E+20
 35
-1.0000000000E+20
146
0.0
 13
0.0
 23
0.0
 33
0.0
 16
1.0
 26
0.0
 36
0.0
 17
0.0
 27
1.0
 37
0.0
 76
     0
330
1B
  0
LAYOUT
  5
26
102
{ACAD_REACTORS
330
1A
102
}
330
1A
100
AcDbPlotSettings
  1

  2
none_device
  4

  6

 40
0.0
 41
0.0
 42
0.0
 43
0.0
 44
0.0
 45
0.0
 46
0.0
 47
0.0
 48
0.0
 49
0.0
140
0.0
141
0.0
142
1.0
143
1.0
 70
   688
 72
     0
 73
     0
 74
     5
  7

 75
    16
147
1.0
148
0.0
149
0.0
100
AcDbLayout
  1
Layout2
 70
     1
 71
     2
 10
0.0
 20
0.0
 11
0.0
 21
0.0
 12
0.0
 22
0.0
 32
0.0
 14
0.0
 24
0.0
 34
0.0
 15
0.0
 25
0.0
 35
0.0
146
0.0
 13
0.0
 23
0.0
 33
0.0
 16
1.0
 26
0.0
 36
0.0
 17
0.0
 27
1.0
 37
0.0
 76
     0
330
23
  0
LAYOUT
  5
22
102
{ACAD_REACTORS
330
1A
102
}
330
1A
100
AcDbPlotSettings
  1

  2
none_device
  4

  6

 40
0.0
 41
0.0
 42
0.0
 43
0.0
 44
0.0
 45
0.0
 46
0.0
 47
0.0
 48
0.0
 49
0.0
140
0.0
141
0.0
142
1.0
143
1.0
 70
  1712
 72
     0
 73
     0
 74
     0
  7

 75
     0
147
1.0
148
0.0
149
0.0
100
AcDbLayout
  1
Model
 70
     1
 71
     0
 10
0.0
 20
0.0
 11
297.0
 21
210.0
 12
0.0
 22
0.0
 32
0.0
 14
0.0
 24
0.0
 34
0.0
 15
297.0
 25
210.0
 35
0.0
146
0.0
 13
0.0
 23
0.0
 33
0.0
 16
1.0
 26
0.0
 36
0.0
 17
0.0
 27
1.0
 37
0.0
 76
     0
330
1F
331
29
  0
MLINESTYLE
  5
18
102
{ACAD_REACTORS
330
17
102
}
330
17
100
AcDbMlineStyle
  2
Standard
 70
     0
  3

 62
   256
 51
90.0
 52
90.0
 71
     2
 49
0.5
 62
   256
  6
BYLAYER
 49
-0.5
 62
   256
  6
BYLAYER
  0
ACDBPLACEHOLDER
  5
F
102
{ACAD_REACTORS
330
E
102
}
330
E
  0
ENDSEC
  0
EOF
