  0
SECTION
  2
HEADER
  9
$ACADVER
  1
AC1015
  9
$ACADMAINTVER
 70
     6
  9
$DWGCODEPAGE
  3
ANSI_1252
  9
$INSBASE
 10
0.0
 20
0.0
 30
0.0
  9
$EXTMIN
 10
0.0
 20
0.0
 30
0.0
  9
$EXTMAX
 10
297.0
 20
210.0
 30
0.0
  9
$LIMMIN
 10
0.0
 20
0.0
  9
$LIMMAX
 10
297.0
 20
210.0
  9
$ORTHOMODE
 70
     0
  9
$REGENMODE
 70
     1
  9
$FILLMODE
 70
     1
  9
$QTEXTMODE
 70
     0
  9
$MIRRTEXT
 70
     1
  9
$LTSCALE
 40
1.0
  9
$ATTMODE
 70
     1
  9
$TEXTSIZE
 40
2.0
  9
$TRACEWID
 40
1.0
  9
$TEXTSTYLE
  7
Standard
  9
$CLAYER
  8
0
  9
$CELTYPE
  6
ByLayer
  9
$CECOLOR
 62
   256
  9
$CELTSCALE
 40
1.0
  9
$DISPSILH
 70
     0
  9
$DIMSCALE
 40
1.0
  9
$DIMASZ
 40
3.0
  9
$DIMEXO
 40
0.0
  9
$DIMDLI
 40
3.75
  9
$DIMRND
 40
0.0
  9
$DIMDLE
 40
0.0
  9
$DIMEXE
 40
1.0
  9
$DIMTP
 40
0.0
  9
$DIMTM
 40
0.0
  9
$DIMTXT
 40
2.0
  9
$DIMCEN
 40
2.5
  9
$DIMTSZ
 40
0.0
  9
$DIMTOL
 70
     0
  9
$DIMLIM
 70
     0
  9
$DIMTIH
 70
     1
  9
$DIMTOH
 70
     1
  9
$DIMSE1
 70
     0
  9
$DIMSE2
 70
     0
  9
$DIMTAD
 70
     1
  9
$DIMZIN
 70
     0
  9
$DIMBLK
  1

  9
$DIMASO
 70
     1
  9
$DIMSHO
 70
     1
  9
$DIMPOST
  1

  9
$DIMAPOST
  1

  9
$DIMALT
 70
     0
  9
$DIMALTD
 70
     3
  9
$DIMALTF
 40
0.0393700787
  9
$DIMLFAC
 40
1.0
  9
$DIMTOFL
 70
     1
  9
$DIMTVP
 40
0.0
  9
$DIMTIX
 70
     0
  9
$DIMSOXD
 70
     0
  9
$DIMSAH
 70
     0
  9
$DIMBLK1
  1

  9
$DIMBLK2
  1

  9
$DIMSTYLE
  2
ISO-25
  9
$DIMCLRD
 70
     0
  9
$DIMCLRE
 70
     0
  9
$DIMCLRT
 70
     0
  9
$DIMTFAC
 40
1.0
  9
$DIMGAP
 40
1.524
  9
$DIMJUST
 70
     0
  9
$DIMSD1
 70
     0
  9
$DIMSD2
 70
     0
  9
$DIMTOLJ
 70
     0
  9
$DIMTZIN
 70
     0
  9
$DIMALTZ
 70
     0
  9
$DIMALTTZ
 70
     0
  9
$DIMUPT
 70
     0
  9
$DIMDEC
 70
     2
  9
$DIMTDEC
 70
     3
  9
$DIMALTU
 70
     2
  9
$DIMALTTD
 70
     3
  9
$DIMTXSTY
  7
Standard
  9
$DIMAUNIT
 70
     0
  9
$DIMADEC
 70
     2
  9
$DIMALTRND
 40
0.0
  9
$DIMAZIN
 70
     0
  9
$DIMDSEP
 70
    44
  9
$DIMATFIT
 70
     3
  9
$DIMFRAC
 70
     0
  9
$DIMLDRBLK
  1

  9
$DIMLUNIT
 70
     2
  9
$DIMLWD
 70
    -2
  9
$DIMLWE
 70
    -2
  9
$DIMTMOVE
 70
     0
  9
$LUNITS
 70
     2
  9
$LUPREC
 70
     2
  9
$SKETCHINC
 40
1.0
  9
$FILLETRAD
 40
10.0
  9
$AUNITS
 70
     0
  9
$AUPREC
 70
     2
  9
$MENU
  1
.
  9
$ELEVATION
 40
0.0
  9
$PELEVATION
 40
0.0
  9
$THICKNESS
 40
0.0
  9
$LIMCHECK
 70
     0
  9
$CHAMFERA
 40
10.0
  9
$CHAMFERB
 40
10.0
  9
$CHAMFERC
 40
20.0
  9
$CHAMFERD
 40
0.0
  9
$SKPOLY
 70
     0
  9
$TDCREATE
 40
2455988.696954688
  9
$TDUCREATE
 40
2455988.655288021
  9
$TDUPDATE
 40
2455988.696954699
  9
$TDUUPDATE
 40
2455988.655288032
  9
$TDINDWG
 40
0.0000000116
  9
$TDUSRTIMER
 40
0.0000000116
  9
$USRTIMER
 70
     1
  9
$ANGBASE
 50
0.0
  9
$ANGDIR
 70
     0
  9
$PDMODE
 70
     0
  9
$PDSIZE
 40
-1.0
  9
$PLINEWID
 40
0.0
  9
$SPLFRAME
 70
     0
  9
$SPLINETYPE
 70
     6
  9
$SPLINESEGS
 70
     8
  9
$HANDSEED
  5
12A
  9
$SURFTAB1
 70
     6
  9
$SURFTAB2
 70
     6
  9
$SURFTYPE
 70
     6
  9
$SURFU
 70
     6
  9
$SURFV
 70
     6
  9
$UCSBASE
  2

  9
$UCSNAME
  2

  9
$UCSORG
 10
0.0
 20
0.0
 30
0.0
  9
$UCSXDIR
 10
1.0
 20
0.0
 30
0.0
  9
$UCSYDIR
 10
0.0
 20
1.0
 30
0.0
  9
$UCSORTHOREF
  2

  9
$UCSORTHOVIEW
 70
     0
  9
$UCSORGTOP
 10
0.0
 20
0.0
 30
0.0
  9
$UCSORGBOTTOM
 10
0.0
 20
0.0
 30
0.0
  9
$UCSORGLEFT
 10
0.0
 20
0.0
 30
0.0
  9
$UCSORGRIGHT
 10
0.0
 20
0.0
 30
0.0
  9
$UCSORGFRONT
 10
0.0
 20
0.0
 30
0.0
  9
$UCSORGBACK
 10
0.0
 20
0.0
 30
0.0
  9
$PUCSBASE
  2

  9
$PUCSNAME
  2

  9
$PUCSORG
 10
0.0
 20
0.0
 30
0.0
  9
$PUCSXDIR
 10
1.0
 20
0.0
 30
0.0
  9
$PUCSYDIR
 10
0.0
 20
1.0
 30
0.0
  9
$PUCSORTHOREF
  2

  9
$PUCSORTHOVIEW
 70
     0
  9
$PUCSORGTOP
 10
0.0
 20
0.0
 30
0.0
  9
$PUCSORGBOTTOM
 10
0.0
 20
0.0
 30
0.0
  9
$PUCSORGLEFT
 10
0.0
 20
0.0
 30
0.0
  9
$PUCSORGRIGHT
 10
0.0
 20
0.0
 30
0.0
  9
$PUCSORGFRONT
 10
0.0
 20
0.0
 30
0.0
  9
$PUCSORGBACK
 10
0.0
 20
0.0
 30
0.0
  9
$USERI1
 70
     0
  9
$USERI2
 70
     0
  9
$USERI3
 70
     0
  9
$USERI4
 70
     0
  9
$USERI5
 70
     0
  9
$USERR1
 40
0.0
  9
$USERR2
 40
0.0
  9
$USERR3
 40
0.0
  9
$USERR4
 40
0.0
  9
$USERR5
 40
0.0
  9
$WORLDVIEW
 70
     1
  9
$SHADEDGE
 70
     3
  9
$SHADEDIF
 70
    70
  9
$TILEMODE
 70
     1
  9
$MAXACTVP
 70
    64
  9
$PINSBASE
 10
0.0
 20
0.0
 30
0.0
  9
$PLIMCHECK
 70
     0
  9
$PEXTMIN
 10
1.0000000000E+20
 20
1.0000000000E+20
 30
1.0000000000E+20
  9
$PEXTMAX
 10
-1.0000000000E+20
 20
-1.0000000000E+20
 30
-1.0000000000E+20
  9
$PLIMMIN
 10
0.0
 20
0.0
  9
$PLIMMAX
 10
420.0
 20
297.0
  9
$UNITMODE
 70
     0
  9
$VISRETAIN
 70
     1
  9
$PLINEGEN
 70
     0
  9
$PSLTSCALE
 70
     1
  9
$TREEDEPTH
 70
  3020
  9
$CMLSTYLE
  2
Standard
  9
$CMLJUST
 70
     0
  9
$CMLSCALE
 40
20.0
  9
$PROXYGRAPHICS
 70
     1
  9
$MEASUREMENT
 70
     1
  9
$CELWEIGHT
370
    -1
  9
$ENDCAPS
280
     0
  9
$JOINSTYLE
280
     0
  9
$LWDISPLAY
290
     1
  9
$INSUNITS
 70
     4
  9
$HYPERLINKBASE
  1

  9
$STYLESHEET
  1

  9
$XEDIT
290
     1
  9
$CEPSNTYPE
380
     0
  9
$PSTYLEMODE
290
     1
  9
$FINGERPRINTGUID
  2
{B6640826-6C30-4BFA-AF11-C9A816505F85}
  9
$VERSIONGUID
  2
{FAEB1C32-E019-11D5-929B-00C0DF256EC4}
  9
$EXTNAMES
290
     1
  9
$PSVPSCALE
 40
0.0
  9
$OLESTARTUP
290
     0
  0
ENDSEC
  0
SECTION
  2
CLASSES
  0
CLASS
  1
ACDBDICTIONARYWDFLT
  2
AcDbDictionaryWithDefault
  3
ObjectDBX Classes
 90
        0
280
     0
281
     0
  0
CLASS
  1
VISUALSTYLE
  2
AcDbVisualStyle
  3
ObjectDBX Classes
 90
     4095
280
     0
281
     0
  0
CLASS
  1
MATERIAL
  2
AcDbMaterial
  3
ObjectDBX Classes
 90
     1153
280
     0
281
     0
  0
CLASS
  1
ACDBPLACEHOLDER
  2
AcDbPlaceHolder
  3
ObjectDBX Classes
 90
        0
280
     0
281
     0
  0
CLASS
  1
LAYOUT
  2
AcDbLayout
  3
ObjectDBX Classes
 90
        0
280
     0
281
     0
  0
ENDSEC
  0
SECTION
  2
TABLES
  0
TABLE
  2
VPORT
  5
8
330
0
100
AcDbSymbolTable
 70
     1
  0
VPORT
  5
29
330
8
100
AcDbSymbolTableRecord
100
AcDbViewportTableRecord
  2
*Active
 70
     0
 10
0.0
 20
0.0
 11
1.0
 21
1.0
 12
148.5
 22
105.0
 13
0.0
 23
0.0
 14
10.0
 24
10.0
 15
10.0
 25
10.0
 16
0.0
 26
0.0
 36
1.0
 17
0.0
 27
0.0
 37
0.0
 40
210.0
 41
1.4142857143
 42
50.0
 43
0.0
 44
0.0
 50
0.0
 51
0.0
 71
     0
 72
  2000
 73
     1
 74
     3
 75
     0
 76
     0
 77
     0
 78
     0
281
     0
 65
     1
110
0.0
120
0.0
130
0.0
111
1.0
121
0.0
131
0.0
112
0.0
122
1.0
132
0.0
 79
     0
146
0.0
  0
ENDTAB
  0
TABLE
  2
LTYPE
  5
5
330
0
100
AcDbSymbolTable
 70
     6
  0
LTYPE
  5
14
330
5
100
AcDbSymbolTableRecord
100
AcDbLinetypeTableRecord
  2
ByBlock
 70
     0
  3

 72
    65
 73
     0
 40
0.0
  0
LTYPE
  5
15
330
5
100
AcDbSymbolTableRecord
100
AcDbLinetypeTableRecord
  2
ByLayer
 70
     0
  3

 72
    65
 73
     0
 40
0.0
  0
LTYPE
  5
16
330
5
100
AcDbSymbolTableRecord
100
AcDbLinetypeTableRecord
  2
Continuous
 70
     0
  3
Solid line
 72
    65
 73
     0
 40
0.0
  0
LTYPE
  5
3F
330
5
100
AcDbSymbolTableRecord
100
AcDbLinetypeTableRecord
  2
HIDDEN
 70
     0
  3
Hidden __ __ __ __ __ __ __ __ __ __ __ __ __ __
 72
    65
 73
     2
 40
1.905
 49
1.27
 74
     0
 49
-0.635
 74
     0
  0
LTYPE
  5
40
330
5
100
AcDbSymbolTableRecord
100
AcDbLinetypeTableRecord
  2
PHANTOM
 70
     0
  3
Phantom ______  __  __  ______  __  __  ______
 72
    65
 73
     6
 40
12.7
 49
6.35
 74
     0
 49
-1.27
 74
     0
 49
1.27
 74
     0
 49
-1.27
 74
     0
 49
1.27
 74
     0
 49
-1.27
 74
     0
  0
LTYPE
  5
41
330
5
100
AcDbSymbolTableRecord
100
AcDbLinetypeTableRecord
  2
CENTER
 70
     0
  3
Center ____ _ ____ _ ____ _ ____ _ ____ _ ____
 72
    65
 73
     4
 40
10.16
 49
6.35
 74
     0
 49
-1.27
 74
     0
 49
1.27
 74
     0
 49
-1.27
 74
     0
  0
LTYPE
  5
42
330
5
100
AcDbSymbolTableRecord
100
AcDbLinetypeTableRecord
  2
CENTERX2
 70
     0
  3
Center (2x) ________  __  ________  __  _____
 72
    65
 73
     4
 40
20.32
 49
12.7
 74
     0
 49
-2.54
 74
     0
 49
2.54
 74
     0
 49
-2.54
 74
     0
  0
LTYPE
  5
43
330
5
100
AcDbSymbolTableRecord
100
AcDbLinetypeTableRecord
  2
DOT2
 70
     0
  3
Dot (.5x) ........................................
 72
    65
 73
     2
 40
0.635
 49
0.0
 74
     0
 49
-0.635
 74
     0
  0
ENDTAB
  0
TABLE
  2
LAYER
  5
2
330
0
100
AcDbSymbolTable
 70
     5
  0
LAYER
  5
10
330
2
100
AcDbSymbolTableRecord
100
AcDbLayerTableRecord
  2
0
 70
     0
 62
     7
  6
Continuous
370
    -3
390
F
  0
LAYER
  5
44
330
2
100
AcDbSymbolTableRecord
100
AcDbLayerTableRecord
  2
FORMAT
 70
     0
 62
     7
  6
Continuous
370
    -3
390
F
  0
LAYER
  5
45
330
2
100
AcDbSymbolTableRecord
100
AcDbLayerTableRecord
  2
VERMASSUNG
 70
     0
 62
     7
  6
Continuous
370
    -3
390
F
  0
LAYER
  5
46
330
2
100
AcDbSymbolTableRecord
100
AcDbLayerTableRecord
  2
KOPF_DÜNN
 70
     0
 62
     7
  6
Continuous
370
    -3
390
F
  0
LAYER
  5
47
330
2
100
AcDbSymbolTableRecord
100
AcDbLayerTableRecord
  2
KOPF_DICK
 70
     0
 62
     7
  6
Continuous
370
    15
390
F
  0
ENDTAB
  0
TABLE
  2
STYLE
  5
3
330
0
100
AcDbSymbolTable
 70
     2
  0
STYLE
  5
11
330
3
100
AcDbSymbolTableRecord
100
AcDbTextStyleTableRecord
  2
Standard
 70
     0
 40
0.0
 41
1.0
 50
0.0
 71
     0
 42
2.5
  3
txt
  4

  0
STYLE
  5
48
330
3
100
AcDbSymbolTableRecord
100
AcDbTextStyleTableRecord
  2
SLDTEXTSTYLE0
 70
     0
 40
0.0
 41
0.7
 50
0.0
 71
     0
 42
0.2
  3
TXT
  4

  0
ENDTAB
  0
TABLE
  2
VIEW
  5
6
330
0
100
AcDbSymbolTable
 70
     0
  0
ENDTAB
  0
TABLE
  2
UCS
  5
7
330
0
100
AcDbSymbolTable
 70
     0
  0
ENDTAB
  0
TABLE
  2
APPID
  5
9
330
0
100
AcDbSymbolTable
 70
     1
  0
APPID
  5
12
330
9
100
AcDbSymbolTableRecord
100
AcDbRegAppTableRecord
  2
ACAD
 70
     0
  0
ENDTAB
  0
TABLE
  2
DIMSTYLE
  5
A
330
0
100
AcDbSymbolTable
 70
     4
100
AcDbDimStyleTable
  0
DIMSTYLE
105
27
330
A
100
AcDbSymbolTableRecord
100
AcDbDimStyleTableRecord
  2
ISO-25
 70
     0
 41
2.5
 42
0.625
 43
3.75
 44
1.25
 73
     0
 74
     0
 77
     1
 78
     8
140
2.5
141
2.5
143
0.0393700787
147
0.625
171
     3
172
     1
178
     0
271
     2
272
     2
274
     3
278
    44
283
     0
284
     8
340
11
  0
DIMSTYLE
105
FE
102
{ACAD_REACTORS
330
FD
102
}
330
A
100
AcDbSymbolTableRecord
100
AcDbDimStyleTableRecord
  2
SLDDIMSTYLE0
 70
     0
 41
3.0
 44
0.0
 45
0.000000001
 73
     0
 74
     0
 77
     1
 78
    12
 79
     3
140
2.0
147
0.5
173
     1
178
     0
271
     2
272
     3
276
     2
284
    12
340
48
  0
DIMSTYLE
105
109
102
{ACAD_REACTORS
330
108
330
11E
102
}
330
A
100
AcDbSymbolTableRecord
100
AcDbDimStyleTableRecord
  2
SLDDIMSTYLE1
 70
     0
 41
3.0
 44
0.0
 45
0.000000001
 73
     0
 74
     0
 77
     1
 78
    12
 79
     3
140
2.0
147
0.5
173
     1
178
     0
271
     2
272
     3
276
     2
284
    12
340
48
  0
DIMSTYLE
105
114
102
{ACAD_REACTORS
330
113
102
}
330
A
100
AcDbSymbolTableRecord
100
AcDbDimStyleTableRecord
  2
SLDDIMSTYLE2
 70
     0
 41
3.0
 44
0.0
 45
0.000000001
 73
     0
 74
     0
 77
     1
 78
    12
 79
     3
140
2.0
147
0.5
173
     1
178
     0
271
     0
272
     3
276
     2
284
    12
340
48
  0
ENDTAB
  0
TABLE
  2
BLOCK_RECORD
  5
1
330
0
100
AcDbSymbolTable
 70
     5
  0
BLOCK_RECORD
  5
1F
330
1
100
AcDbSymbolTableRecord
100
AcDbBlockTableRecord
  2
*Model_Space
340
22
  0
BLOCK_RECORD
  5
1B
330
1
100
AcDbSymbolTableRecord
100
AcDbBlockTableRecord
  2
*Paper_Space
340
1E
  0
BLOCK_RECORD
  5
23
330
1
100
AcDbSymbolTableRecord
100
AcDbBlockTableRecord
  2
*Paper_Space0
340
26
  0
BLOCK_RECORD
  5
FF
330
1
100
AcDbSymbolTableRecord
100
AcDbBlockTableRecord
  2
*D1
340
0
  0
BLOCK_RECORD
  5
10A
330
1
100
AcDbSymbolTableRecord
100
AcDbBlockTableRecord
  2
*D2
340
0
  0
BLOCK_RECORD
  5
115
330
1
100
AcDbSymbolTableRecord
100
AcDbBlockTableRecord
  2
*D3
340
0
  0
BLOCK_RECORD
  5
11F
330
1
100
AcDbSymbolTableRecord
100
AcDbBlockTableRecord
  2
*D4
340
0
  0
ENDTAB
  0
ENDSEC
  0
SECTION
  2
BLOCKS
  0
BLOCK
  5
20
330
1F
100
AcDbEntity
  8
0
100
AcDbBlockBegin
  2
*Model_Space
 70
     0
 10
0.0
 20
0.0
 30
0.0
  3
*Model_Space
  1

  0
ENDBLK
  5
21
330
1F
100
AcDbEntity
  8
0
100
AcDbBlockEnd
  0
BLOCK
  5
1C
330
1B
100
AcDbEntity
 67
     1
  8
0
100
AcDbBlockBegin
  2
*Paper_Space
 70
     0
 10
0.0
 20
0.0
 30
0.0
  3
*Paper_Space
  1

  0
ENDBLK
  5
1D
330
1B
100
AcDbEntity
 67
     1
  8
0
100
AcDbBlockEnd
  0
BLOCK
  5
24
330
23
100
AcDbEntity
  8
0
100
AcDbBlockBegin
  2
*Paper_Space0
 70
     0
 10
0.0
 20
0.0
 30
0.0
  3
*Paper_Space0
  1

  0
ENDBLK
  5
25
330
23
100
AcDbEntity
  8
0
100
AcDbBlockEnd
  0
BLOCK
  5
100
330
FF
100
AcDbEntity
  8
0
100
AcDbBlockBegin
  2
*D1
 70
     1
 10
0.0
 20
0.0
 30
0.0
  3
*D1
  1

  0
SOLID
  5
102
330
FF
100
AcDbEntity
  8
VERMASSUNG
100
AcDbTrace
 10
193.1506164774
 20
114.8799582144
 30
0.0
 11
192.7006164774
 21
111.8799582144
 31
0.0
 12
193.6006164774
 22
111.8799582144
 32
0.0
 13
193.6006164774
 23
111.8799582144
 33
0.0
  0
LINE
  5
103
330
FF
100
AcDbEntity
  8
VERMASSUNG
100
AcDbLine
 10
186.5303136728
 20
114.8799582144
 30
0.0
 11
194.1506164774
 21
114.8799582144
 31
0.0
  0
LINE
  5
104
330
FF
100
AcDbEntity
  8
VERMASSUNG
100
AcDbLine
 10
193.1506164774
 20
114.8799582144
 30
0.0
 11
193.1506164774
 21
94.402999211
 31
0.0
  0
MTEXT
  5
105
330
FF
100
AcDbEntity
  8
VERMASSUNG
100
AcDbMText
 10
190.5724809978
 20
95.990499211
 30
0.0
 40
2.0
 41
0.0
 71
     1
 72
     1
  1
%%c
  7
SLDTEXTSTYLE0
 11
-7.044195017643634E-15
 21
1.0
 31
0.0
 73
     1
 44
1.0
  0
MTEXT
  5
106
330
FF
100
AcDbEntity
  8
VERMASSUNG
100
AcDbMText
 10
190.5724811142
 20
99.5984846296
 30
0.0
 40
2.0
 41
0.0
 71
     1
 72
     1
  1
14.75
  7
SLDTEXTSTYLE0
 11
-7.044195017643634E-15
 21
1.0
 31
0.0
 73
     1
 44
1.0
  0
MTEXT
  5
107
330
FF
100
AcDbEntity
  8
VERMASSUNG
100
AcDbMText
 10
190.5724811142
 20
105.5958643651
 30
0.0
 40
2.0
 41
0.0
 71
     1
 72
     1
  1
-20.1
  7
SLDTEXTSTYLE0
 11
-7.044195017643634E-15
 21
1.0
 31
0.0
 73
     1
 44
1.0
  0
ENDBLK
  5
101
330
FF
100
AcDbEntity
  8
0
100
AcDbBlockEnd
  0
BLOCK
  5
10B
330
10A
100
AcDbEntity
  8
0
100
AcDbBlockBegin
  2
*D2
 70
     1
 10
0.0
 20
0.0
 30
0.0
  3
*D2
  1

  0
SOLID
  5
10D
330
10A
100
AcDbEntity
  8
VERMASSUNG
100
AcDbTrace
 10
186.5303136728
 20
128.1781895044
 30
0.0
 11
183.5303136728
 21
128.6281895044
 31
0.0
 12
183.5303136728
 22
127.7281895044
 32
0.0
 13
183.5303136728
 23
127.7281895044
 33
0.0
  0
SOLID
  5
10E
330
10A
100
AcDbEntity
  8
VERMASSUNG
100
AcDbTrace
 10
96.5303136728
 20
128.1781895044
 30
0.0
 11
99.5303136728
 21
127.7281895044
 31
0.0
 12
99.5303136728
 22
128.6281895044
 32
0.0
 13
99.5303136728
 23
128.6281895044
 33
0.0
  0
LINE
  5
10F
330
10A
100
AcDbEntity
  8
VERMASSUNG
100
AcDbLine
 10
186.5303136728
 20
114.8799582144
 30
0.0
 11
186.5303136728
 21
129.1781895044
 31
0.0
  0
LINE
  5
110
330
10A
100
AcDbEntity
  8
VERMASSUNG
100
AcDbLine
 10
96.5303136728
 20
113.7049582144
 30
0.0
 11
96.5303136728
 21
129.1781895044
 31
0.0
  0
LINE
  5
111
330
10A
100
AcDbEntity
  8
VERMASSUNG
100
AcDbLine
 10
186.5303136728
 20
128.1781895044
 30
0.0
 11
96.5303136728
 21
128.1781895044
 31
0.0
  0
MTEXT
  5
112
330
10A
100
AcDbEntity
  8
VERMASSUNG
100
AcDbMText
 10
137.3430561584
 20
130.7563248676
 30
0.0
 40
2.0
 41
0.0
 71
     1
 72
     1
  1
90
  7
SLDTEXTSTYLE0
 73
     1
 44
1.0
  0
ENDBLK
  5
10C
330
10A
100
AcDbEntity
  8
0
100
AcDbBlockEnd
  0
BLOCK
  5
116
330
115
100
AcDbEntity
  8
0
100
AcDbBlockBegin
  2
*D3
 70
     1
 10
0.0
 20
0.0
 30
0.0
  3
*D3
  1

  0
SOLID
  5
118
330
115
100
AcDbEntity
  8
VERMASSUNG
100
AcDbTrace
 10
186.5303136728
 20
121.2116561895
 30
0.0
 11
183.5303136728
 21
121.6616561895
 31
0.0
 12
183.5303136728
 22
120.7616561895
 32
0.0
 13
183.5303136728
 23
120.7616561895
 33
0.0
  0
SOLID
  5
119
330
115
100
AcDbEntity
  8
VERMASSUNG
100
AcDbTrace
 10
135.6321397028
 20
121.2116561895
 30
0.0
 11
138.6321397028
 21
120.7616561895
 31
0.0
 12
138.6321397028
 22
121.6616561895
 32
0.0
 13
138.6321397028
 23
121.6616561895
 33
0.0
  0
LINE
  5
11A
330
115
100
AcDbEntity
  8
VERMASSUNG
100
AcDbLine
 10
186.5303136728
 20
114.8799582144
 30
0.0
 11
186.5303136728
 21
122.2116561895
 31
0.0
  0
LINE
  5
11B
330
115
100
AcDbEntity
  8
VERMASSUNG
100
AcDbLine
 10
135.6321397028
 20
114.8799582144
 30
0.0
 11
135.6321397028
 21
122.2116561895
 31
0.0
  0
LINE
  5
11C
330
115
100
AcDbEntity
  8
VERMASSUNG
100
AcDbLine
 10
186.5303136728
 20
121.2116561895
 30
0.0
 11
135.6321397028
 21
121.2116561895
 31
0.0
  0
MTEXT
  5
11D
330
115
100
AcDbEntity
  8
VERMASSUNG
100
AcDbMText
 10
160.6819354957
 20
123.7897915526
 30
0.0
 40
2.0
 41
0.0
 71
     1
 72
     1
  1
51
  7
SLDTEXTSTYLE0
 73
     1
 44
1.0
  0
ENDBLK
  5
117
330
115
100
AcDbEntity
  8
0
100
AcDbBlockEnd
  0
BLOCK
  5
120
330
11F
100
AcDbEntity
  8
0
100
AcDbBlockBegin
  2
*D4
 70
     1
 10
0.0
 20
0.0
 30
0.0
  3
*D4
  1

  0
SOLID
  5
122
330
11F
100
AcDbEntity
  8
VERMASSUNG
100
AcDbTrace
 10
90.2222566941
 20
115.5049582144
 30
0.0
 11
89.7722566941
 21
112.5049582144
 31
0.0
 12
90.6722566941
 22
112.5049582144
 32
0.0
 13
90.6722566941
 23
112.5049582144
 33
0.0
  0
SOLID
  5
123
330
11F
100
AcDbEntity
  8
VERMASSUNG
100
AcDbTrace
 10
90.2222566941
 20
99.5049582144
 30
0.0
 11
90.6722566941
 21
102.5049582144
 31
0.0
 12
89.7722566941
 22
102.5049582144
 32
0.0
 13
89.7722566941
 23
102.5049582144
 33
0.0
  0
LINE
  5
124
330
11F
100
AcDbEntity
  8
VERMASSUNG
100
AcDbLine
 10
107.8303136728
 20
115.5049582144
 30
0.0
 11
89.2222566941
 21
115.5049582144
 31
0.0
  0
LINE
  5
125
330
11F
100
AcDbEntity
  8
VERMASSUNG
100
AcDbLine
 10
97.9053136728
 20
99.5049582144
 30
0.0
 11
89.2222566941
 21
99.5049582144
 31
0.0
  0
LINE
  5
126
330
11F
100
AcDbEntity
  8
VERMASSUNG
100
AcDbLine
 10
90.2222566941
 20
115.5049582144
 30
0.0
 11
90.2222566941
 21
99.5049582144
 31
0.0
  0
MTEXT
  5
127
330
11F
100
AcDbEntity
  8
VERMASSUNG
100
AcDbMText
 10
87.6441212146
 20
103.9875693949
 30
0.0
 40
2.0
 41
0.0
 71
     1
 72
     1
  1
%%c
  7
SLDTEXTSTYLE0
 11
-7.044195017643634E-15
 21
1.0
 31
0.0
 73
     1
 44
1.0
  0
MTEXT
  5
128
330
11F
100
AcDbEntity
  8
VERMASSUNG
100
AcDbMText
 10
87.644121331
 20
107.5955548135
 30
0.0
 40
2.0
 41
0.0
 71
     1
 72
     1
  1
16
  7
SLDTEXTSTYLE0
 11
-7.044195017643634E-15
 21
1.0
 31
0.0
 73
     1
 44
1.0
  0
ENDBLK
  5
121
330
11F
100
AcDbEntity
  8
0
100
AcDbBlockEnd
  0
ENDSEC
  0
SECTION
  2
ENTITIES
  0
MTEXT
  5
49
330
1F
100
AcDbEntity
  8
KOPF_DÜNN
100
AcDbMText
 10
13.8892156294
 20
23.8442973028
 30
0.0
 40
3.0
 41
0.0
 71
     1
 72
     1
  1
272.015.006
  7
SLDTEXTSTYLE0
 73
     1
 44
1.0
  0
MTEXT
  5
4A
330
1F
100
AcDbEntity
  8
VERMASSUNG
100
AcDbMText
 10
13.9329988022
 20
28.8834360957
 30
0.0
 40
3.0
 41
0.0
 71
     1
 72
     1
  1
Ausdrehstahl_Boring bar ø14.75-20.1
  7
SLDTEXTSTYLE0
 73
     1
 44
1.0
  0
MTEXT
  5
4B
330
1F
100
AcDbEntity
  8
VERMASSUNG
100
AcDbMText
 10
98.8601118557
 20
13.8365368179
 30
0.0
 40
2.0
 41
0.0
 71
     1
 72
     1
  1
Datum: 04.08.2006
  7
SLDTEXTSTYLE0
 73
     1
 44
1.0
  0
MTEXT
  5
4C
330
1F
100
AcDbEntity
  8
VERMASSUNG
100
AcDbMText
 10
13.933048693
 20
18.0482802738
 30
0.0
 40
2.0
 41
0.0
 71
     1
 72
     1
  1
mit Innenkühlung_with spindel coolant feed
  7
SLDTEXTSTYLE0
 73
     1
 44
1.0
  0
MTEXT
  5
4D
330
1F
100
AcDbEntity
  8
VERMASSUNG
100
AcDbMText
 10
13.9808475933
 20
13.9090973692
 30
0.0
 40
2.0
 41
0.0
 71
     1
 72
     1
  1
Gewicht: 96g
  7
SLDTEXTSTYLE0
 73
     1
 44
1.0
  0
LINE
  5
4E
330
1F
100
AcDbEntity
  8
0
  6
Continuous
 62
     7
370
    15
100
AcDbLine
 10
183.7719267916
 20
110.4469168353
 30
0.0
 11
183.7719267916
 21
110.3463380255
 31
0.0
  0
LINE
  5
4F
330
1F
100
AcDbEntity
  8
0
  6
Continuous
 62
     7
370
    15
100
AcDbLine
 10
181.5883640864
 20
111.1115147112
 30
0.0
 11
181.5883640864
 21
110.9943028002
 31
0.0
  0
LINE
  5
50
330
1F
100
AcDbEntity
  8
0
  6
Continuous
 62
     7
370
    15
100
AcDbLine
 10
184.9883640864
 20
110.9943028002
 30
0.0
 11
184.9883640864
 21
111.1115147112
 31
0.0
  0
LINE
  5
51
330
1F
100
AcDbEntity
  8
0
  6
Continuous
 62
     7
370
    15
100
AcDbLine
 10
182.6131252141
 20
110.6233695008
 30
0.0
 11
182.6131252141
 21
110.7713452533
 31
0.0
  0
LINE
  5
52
330
1F
100
AcDbEntity
  8
0
  6
Continuous
 62
     7
370
    15
100
AcDbLine
 10
183.9636029587
 20
111.513211852
 30
0.0
 11
183.9636029587
 21
111.3652360995
 31
0.0
  0
LINE
  5
53
330
1F
100
AcDbEntity
  8
0
  6
Continuous
 62
     7
370
    15
100
AcDbLine
 10
182.8048013811
 20
111.692185242
 30
0.0
 11
182.8048013811
 21
111.842681719
 31
0.0
  0
LINE
  5
54
330
1F
100
AcDbEntity
  8
0
  6
Continuous
 62
     7
370
    15
100
AcDbLine
 10
180.2932311174
 20
107.6979810112
 30
0.0
 11
180.5029644852
 21
107.4850980949
 31
0.0
  0
LINE
  5
55
330
1F
100
AcDbEntity
  8
0
  6
Continuous
 62
     7
370
    15
100
AcDbLine
 10
186.3057567606
 20
108.5484124491
 30
0.0
 11
186.4173962282
 21
108.6617283972
 31
0.0
  0
LINE
  5
56
330
1F
100
AcDbEntity
  8
0
  6
Continuous
 62
     7
370
    15
100
AcDbLine
 10
97.9053136728
 20
99.5049582144
 30
0.0
 11
133.8252039115
 21
99.5049582144
 31
0.0
  0
LINE
  5
57
330
1F
100
AcDbEntity
  8
0
  6
Continuous
 62
     7
370
    15
100
AcDbLine
 10
110.7303136728
 20
115.5049582144
 30
0.0
 11
107.8303136728
 21
115.5049582144
 31
0.0
  0
LINE
  5
58
330
1F
100
AcDbEntity
  8
0
  6
Continuous
 62
     7
370
    15
100
AcDbLine
 10
133.8252039115
 20
115.5049582144
 30
0.0
 11
122.3303136728
 21
115.5049582144
 31
0.0
  0
LINE
  5
59
330
1F
100
AcDbEntity
  8
0
  6
Continuous
 62
     7
370
    15
100
AcDbLine
 10
96.5303136728
 20
100.8799582144
 30
0.0
 11
97.9053136728
 21
99.5049582144
 31
0.0
  0
ARC
  5
5A
330
1F
100
AcDbEntity
  8
0
  6
Continuous
 62
     7
370
    15
100
AcDbCircle
 10
144.5303136728
 20
71.4799582144
 30
0.0
 40
30.00000000000002
100
AcDbArc
 50
90.0
 51
110.9060714544
  0
ARC
  5
5B
330
1F
100
AcDbEntity
  8
0
  6
Continuous
 62
     7
370
    15
100
AcDbCircle
 10
144.5303136728
 20
143.5299582144
 30
0.0
 40
30.00000000000001
100
AcDbArc
 50
249.0939285456
 51
270.0
  0
LINE
  5
5C
330
1F
100
AcDbEntity
  8
0
  6
Continuous
 62
     7
370
    15
100
AcDbLine
 10
144.5303136728
 20
101.4799582144
 30
0.0
 11
175.8924068246
 21
101.4799582144
 31
0.0
  0
LINE
  5
5D
330
1F
100
AcDbEntity
  8
0
  6
Continuous
 62
     7
370
    15
100
AcDbLine
 10
173.7548272384
 20
113.5299582144
 30
0.0
 11
144.5303136728
 21
113.5299582144
 31
0.0
  0
LINE
  5
5E
330
1F
100
AcDbEntity
  8
0
  6
Continuous
 62
     7
370
    15
100
AcDbLine
 10
177.0824125681
 20
113.5299582144
 30
0.0
 11
173.7548272384
 21
113.5299582144
 31
0.0
  0
LINE
  5
5F
330
1F
100
AcDbEntity
  8
0
  6
Continuous
 62
     7
370
    15
100
AcDbLine
 10
185.0663028969
 20
106.5401918368
 30
0.0
 11
185.9602549623
 21
107.2961819732
 31
0.0
  0
CIRCLE
  5
60
330
1F
100
AcDbEntity
  8
0
  6
Continuous
 62
     7
370
    15
100
AcDbCircle
 10
183.2792748995
 20
111.1306160369
 30
0.0
 40
1.692202981191693
  0
CIRCLE
  5
61
330
1F
100
AcDbEntity
  8
0
  6
Continuous
 62
     7
370
    15
100
AcDbCircle
 10
183.2817177615
 20
111.1620695154
 30
0.0
 40
1.093961970066239
  0
CIRCLE
  5
62
330
1F
100
AcDbEntity
  8
0
  6
Continuous
 62
     7
370
    15
100
AcDbCircle
 10
183.2820198672
 20
111.1615475447
 30
0.0
 40
1.04423642597231
  0
SPLINE
  5
63
330
1F
100
AcDbEntity
  8
0
  6
Continuous
 62
     7
370
    15
100
AcDbSpline
210
0.0
220
0.0
230
1.0
 70
     8
 71
     3
 72
    16
 73
    12
 74
     0
 42
0.00000001
 43
0.00000001
 40
0.0
 40
0.0
 40
0.0
 40
0.0
 40
0.1242194589697553
 40
0.2489993218719354
 40
0.3727377574600647
 40
0.4952944629268531
 40
0.6171957750165845
 40
0.739103118177349
 40
0.8616668233223113
 40
0.9853929371716323
 40
1.0
 40
1.0
 40
1.0
 40
1.0
 10
183.1787215847006
 20
112.0197291117154
 30
0.0
 10
183.1641299515369
 20
112.0381516266489
 30
0.0
 10
183.1348808564843
 20
112.0750797678892
 30
0.0
 10
183.0710495911299
 20
112.1080961202438
 30
0.0
 10
183.0013208407324
 20
112.1190822258418
 30
0.0
 10
182.9322245821192
 20
112.1059263612783
 30
0.0
 10
182.8718718749468
 20
112.0708217398443
 30
0.0
 10
182.8265121405161
 20
112.0176772570583
 30
0.0
 10
182.8011166874174
 20
111.9523045023426
 30
0.0
 10
182.7990629337108
 20
111.9023703866339
 30
0.0
 10
182.8030362637323
 20
111.8767525100971
 30
0.0
 10
182.8034558209395
 20
111.8740474328257
 30
0.0
  0
SPLINE
  5
64
330
1F
100
AcDbEntity
  8
0
  6
Continuous
 62
     7
370
    15
100
AcDbSpline
210
0.0
220
0.0
230
1.0
 70
     8
 71
     3
 72
    12
 73
     8
 74
     0
 42
0.00000001
 43
0.00000001
 40
0.0
 40
0.0
 40
0.0
 40
0.0
 40
0.2093653562126917
 40
0.4192620302417419
 40
0.6249526976742424
 40
0.828170787802679
 40
1.0
 40
1.0
 40
1.0
 40
1.0
 10
182.8034558209395
 20
111.8740474328257
 30
0.0
 10
182.8030564891539
 20
111.8334286771654
 30
0.0
 10
182.8022568121769
 20
111.7520880854262
 30
0.0
 10
182.7507232872678
 20
111.639950863073
 30
0.0
 10
182.6686065057061
 20
111.5533406700325
 30
0.0
 10
182.5686722676907
 20
111.5006140852007
 30
0.0
 10
182.4975978212817
 20
111.4928281084507
 30
0.0
 10
182.4650348190735
 20
111.4892609364091
 30
0.0
  0
SPLINE
  5
65
330
1F
100
AcDbEntity
  8
0
  6
Continuous
 62
     7
370
    15
100
AcDbSpline
210
0.0
220
0.0
230
1.0
 70
     8
 71
     3
 72
    16
 73
    12
 74
     0
 42
0.00000001
 43
0.00000001
 40
0.0
 40
0.0
 40
0.0
 40
0.0
 40
0.1231896672979253
 40
0.2479795154960857
 40
0.371727474539169
 40
0.4942903479747676
 40
0.6161927293767406
 40
0.7380955470920646
 40
0.8606497678263622
 40
0.9843631542991849
 40
1.0
 40
1.0
 40
1.0
 40
1.0
 10
182.4650348190735
 20
111.4892609364091
 30
0.0
 10
182.4422641142993
 20
111.48637372221
 30
0.0
 10
182.3964269230702
 20
111.4805617901386
 30
0.0
 10
182.3367029582186
 20
111.4435726981097
 30
0.0
 10
182.2927540896112
 20
111.3901339603136
 30
0.0
 10
182.2698206829684
 20
111.3248216545086
 30
0.0
 10
182.2700526480114
 20
111.255644935079
 30
0.0
 10
182.2931740690767
 20
111.1898995182007
 30
0.0
 10
182.3366258650754
 20
111.1347691902208
 30
0.0
 10
182.3784996515286
 20
111.1071979492489
 30
0.0
 10
182.4025541240584
 20
111.0973280476568
 30
0.0
 10
182.4052533378989
 20
111.0962205207739
 30
0.0
  0
SPLINE
  5
66
330
1F
100
AcDbEntity
  8
0
  6
Continuous
 62
     7
370
    15
100
AcDbSpline
210
0.0
220
0.0
230
1.0
 70
     8
 71
     3
 72
    12
 73
     8
 74
     0
 42
0.00000001
 43
0.00000001
 40
0.0
 40
0.0
 40
0.0
 40
0.0
 40
0.2093652529605559
 40
0.4192619297278756
 40
0.6249525996332908
 40
0.8281706892237557
 40
1.0
 40
1.0
 40
1.0
 40
1.0
 10
182.4052533378989
 20
111.0962205207739
 30
0.0
 10
182.4398813934718
 20
111.0750635209539
 30
0.0
 10
182.5092253996854
 20
111.0326958193111
 30
0.0
 10
182.5807320510477
 20
110.9319149219831
 30
0.0
 10
182.6160920896409
 20
110.8187198187345
 30
0.0
 10
182.6141081799369
 20
110.7080446819667
 30
0.0
 10
182.5870665434367
 20
110.6444719429353
 30
0.0
 10
182.5746773207477
 20
110.6153458646816
 30
0.0
  0
SPLINE
  5
67
330
1F
100
AcDbEntity
  8
0
  6
Continuous
 62
     7
370
    15
100
AcDbSpline
210
0.0
220
0.0
230
1.0
 70
     8
 71
     3
 72
    16
 73
    12
 74
     0
 42
0.00000001
 43
0.00000001
 40
0.0
 40
0.0
 40
0.0
 40
0.0
 40
0.1243654221088639
 40
0.2491438717989496
 40
0.3728809614208901
 40
0.4954367981749454
 40
0.617337965070481
 40
0.739245956109893
 40
0.861811011360642
 40
0.985538933565005
 40
1.0
 40
1.0
 40
1.0
 40
1.0
 10
182.5746773207477
 20
110.6153458646816
 30
0.0
 10
182.5662992541988
 20
110.5945753174734
 30
0.0
 10
182.5495152968673
 20
110.5529652423972
 30
0.0
 10
182.5535981188163
 20
110.4839879477062
 30
0.0
 10
182.5795607374604
 20
110.4202870842891
 30
0.0
 10
182.6259300419033
 20
110.3683476246174
 30
0.0
 10
182.6867207799904
 20
110.3339904351907
 30
0.0
 10
182.7553883522714
 20
110.3206206926193
 30
0.0
 10
182.8243815486702
 20
110.3296457172579
 30
0.0
 10
182.8681900812361
 20
110.3509989668371
 30
0.0
 10
182.8880801652333
 20
110.3661112428989
 30
0.0
 10
182.8901616033343
 20
110.3676926976173
 30
0.0
  0
SPLINE
  5
68
330
1F
100
AcDbEntity
  8
0
  6
Continuous
 62
     7
370
    15
100
AcDbSpline
210
0.0
220
0.0
230
1.0
 70
     8
 71
     3
 72
    12
 73
     8
 74
     0
 42
0.00000001
 43
0.00000001
 40
0.0
 40
0.0
 40
0.0
 40
0.0
 40
0.209237839681341
 40
0.4191378956982305
 40
0.6248316181529322
 40
0.8280490456279074
 40
1.0
 40
1.0
 40
1.0
 40
1.0
 10
182.8901616033343
 20
110.3676926976173
 30
0.0
 10
182.9251661008615
 20
110.3861307534525
 30
0.0
 10
182.995285881566
 20
110.4230652196814
 30
0.0
 10
183.1182989749542
 20
110.4329217024577
 30
0.0
 10
183.2357824497858
 20
110.4066478477475
 30
0.0
 10
183.3337663288694
 20
110.3505432517375
 30
0.0
 10
183.377816890585
 20
110.2966156227534
 30
0.0
 10
183.3980065880492
 20
110.2718989682604
 30
0.0
  0
SPLINE
  5
69
330
1F
100
AcDbEntity
  8
0
  6
Continuous
 62
     7
370
    15
100
AcDbSpline
210
0.0
220
0.0
230
1.0
 70
     8
 71
     3
 72
    16
 73
    12
 74
     0
 42
0.00000001
 43
0.00000001
 40
0.0
 40
0.0
 40
0.0
 40
0.0
 40
0.1242194589696828
 40
0.2489993218720573
 40
0.3727377574600779
 40
0.4952944629268567
 40
0.6171957750166784
 40
0.739103118177383
 40
0.8616668233223527
 40
0.9853929371716739
 40
1.0
 40
1.0
 40
1.0
 40
1.0
 10
183.3980065880492
 20
110.2718989682604
 30
0.0
 10
183.412598221213
 20
110.2546914810952
 30
0.0
 10
183.4418473162654
 20
110.2201988768703
 30
0.0
 10
183.5056785816199
 20
110.1898449534622
 30
0.0
 10
183.5754073320175
 20
110.1805274728166
 30
0.0
 10
183.6445035906306
 20
110.1942099975146
 30
0.0
 10
183.7048562978031
 20
110.2287020079344
 30
0.0
 10
183.7502160322336
 20
110.2801371582691
 30
0.0
 10
183.7756114853325
 20
110.3428060606414
 30
0.0
 10
183.7776652390392
 20
110.3902490004045
 30
0.0
 10
183.7736919090175
 20
110.4144376283777
 30
0.0
 10
183.7732723518104
 20
110.4169917865125
 30
0.0
  0
SPLINE
  5
6A
330
1F
100
AcDbEntity
  8
0
  6
Continuous
 62
     7
370
    15
100
AcDbSpline
210
0.0
220
0.0
230
1.0
 70
     8
 71
     3
 72
    12
 73
     8
 74
     0
 42
0.00000001
 43
0.00000001
 40
0.0
 40
0.0
 40
0.0
 40
0.0
 40
0.2093653562126587
 40
0.4192620302416558
 40
0.6249526976741494
 40
0.8281707878026676
 40
1.0
 40
1.0
 40
1.0
 40
1.0
 10
183.7732723518104
 20
110.4169917865125
 30
0.0
 10
183.7736716835959
 20
110.4555823155415
 30
0.0
 10
183.7744713605729
 20
110.5328613068773
 30
0.0
 10
183.826004885482
 20
110.6419545620598
 30
0.0
 10
183.9081216670437
 20
110.7291439894711
 30
0.0
 10
184.0080559050593
 20
110.7855463479953
 30
0.0
 10
184.0791303514682
 20
110.7970820307947
 30
0.0
 10
184.1116933536764
 20
110.8023671435666
 30
0.0
  0
SPLINE
  5
6B
330
1F
100
AcDbEntity
  8
0
  6
Continuous
 62
     7
370
    15
100
AcDbSpline
210
0.0
220
0.0
230
1.0
 70
     8
 71
     3
 72
    16
 73
    12
 74
     0
 42
0.00000001
 43
0.00000001
 40
0.0
 40
0.0
 40
0.0
 40
0.0
 40
0.1231896672979481
 40
0.2479795154960539
 40
0.3717274745391491
 40
0.4942903479747799
 40
0.6161927293767753
 40
0.7380955470920734
 40
0.8606497678264353
 40
0.9843631542992386
 40
0.9999999999999999
 40
0.9999999999999999
 40
0.9999999999999999
 40
0.9999999999999999
 10
184.1116933536764
 20
110.8023671435666
 30
0.0
 10
184.1344640584506
 20
110.8064596454036
 30
0.0
 10
184.1803012496797
 20
110.8146978089196
 30
0.0
 10
184.2400252145312
 20
110.8543501949743
 30
0.0
 10
184.2839740831387
 20
110.9094666005549
 30
0.0
 10
184.3069074897814
 20
110.9753150471805
 30
0.0
 10
184.3066755247384
 20
111.043888436399
 30
0.0
 10
184.2835541036732
 20
111.1079332568472
 30
0.0
 10
184.2401023076745
 20
111.1603672534017
 30
0.0
 10
184.1982285212214
 20
111.1854420607242
 30
0.0
 10
184.1741740486915
 20
111.1938726775082
 30
0.0
 10
184.171474834851
 20
111.1948186985644
 30
0.0
  0
SPLINE
  5
6C
330
1F
100
AcDbEntity
  8
0
  6
Continuous
 62
     7
370
    15
100
AcDbSpline
210
0.0
220
0.0
230
1.0
 70
     8
 71
     3
 72
    12
 73
     8
 74
     0
 42
0.00000001
 43
0.00000001
 40
0.0
 40
0.0
 40
0.0
 40
0.0
 40
0.2093652529606141
 40
0.4192619297278535
 40
0.624952599633255
 40
0.8281706892236916
 40
1.0
 40
1.0
 40
1.0
 40
1.0
 10
184.171474834851
 20
111.1948186985644
 30
0.0
 10
184.1368467792781
 20
111.2139474727057
 30
0.0
 10
184.0675027730645
 20
111.2522535748235
 30
0.0
 10
183.9959961217022
 20
111.3499905037884
 30
0.0
 10
183.9606360831091
 20
111.4637648395973
 30
0.0
 10
183.962619992813
 20
111.5781157493704
 30
0.0
 10
183.9896616293131
 20
111.6454381953581
 30
0.0
 10
184.0020508520021
 20
111.6762822152941
 30
0.0
  0
SPLINE
  5
6D
330
1F
100
AcDbEntity
  8
0
  6
Continuous
 62
     7
370
    15
100
AcDbSpline
210
0.0
220
0.0
230
1.0
 70
     8
 71
     3
 72
    16
 73
    12
 74
     0
 42
0.00000001
 43
0.00000001
 40
0.0
 40
0.0
 40
0.0
 40
0.0
 40
0.1243654221088771
 40
0.2491438717989843
 40
0.3728809614209085
 40
0.4954367981749149
 40
0.6173379650704309
 40
0.7392459561098448
 40
0.8618110113604998
 40
0.9855389335649677
 40
1.0
 40
1.0
 40
1.0
 40
1.0
 10
184.0020508520021
 20
111.6762822152941
 30
0.0
 10
184.0104289185511
 20
111.6982691704337
 30
0.0
 10
184.0272128758826
 20
111.7423161011612
 30
0.0
 10
184.0231300539336
 20
111.8139556975068
 30
0.0
 10
183.9971674352894
 20
111.8793239034971
 30
0.0
 10
183.9507981308466
 20
111.9317886792591
 30
0.0
 10
183.8900073927595
 20
111.9655319422723
 30
0.0
 10
183.8213398204785
 20
111.9771911144562
 30
0.0
 10
183.7523466240797
 20
111.9654611723125
 30
0.0
 10
183.7085380915141
 20
111.9416174955578
 30
0.0
 10
183.6886480075165
 20
111.9250773941164
 30
0.0
 10
183.6865665694156
 20
111.9233465217209
 30
0.0
  0
SPLINE
  5
6E
330
1F
100
AcDbEntity
  8
0
  6
Continuous
 62
     7
370
    15
100
AcDbSpline
210
0.0
220
0.0
230
1.0
 70
     8
 71
     3
 72
    12
 73
     8
 74
     0
 42
0.00000001
 43
0.00000001
 40
0.0
 40
0.0
 40
0.0
 40
0.0
 40
0.209237839681332
 40
0.4191378956981225
 40
0.6248316181529104
 40
0.8280490456278146
 40
1.0
 40
1.0
 40
1.0
 40
1.0
 10
183.6865665694156
 20
111.9233465217209
 30
0.0
 10
183.6515620718884
 20
111.9028814158657
 30
0.0
 10
183.5814422911839
 20
111.861886434191
 30
0.0
 10
183.4584291977956
 20
111.8489845122529
 30
0.0
 10
183.3409457229641
 20
111.8758353651885
 30
0.0
 10
183.2429618438805
 20
111.9356148856109
 30
0.0
 10
183.1989112821648
 20
111.9932933407648
 30
0.0
 10
183.1787215847006
 20
112.0197291117154
 30
0.0
  0
LINE
  5
6F
330
1F
100
AcDbEntity
  8
0
  6
Continuous
 62
     7
370
    15
100
AcDbLine
 10
183.7732723518
 20
110.3795998495
 30
0.0
 11
183.7732723518
 21
110.4169917865
 31
0.0
  0
ARC
  5
70
330
1F
100
AcDbEntity
  8
0
  6
Continuous
 62
     7
370
    15
100
AcDbCircle
 10
183.3096805886
 20
111.0019453107
 30
0.0
 40
1.678700894593349
100
AcDbArc
 50
280.1295804518
 51
359.7391523942
  0
ARC
  5
71
330
1F
100
AcDbEntity
  8
0
  6
Continuous
 62
     7
370
    15
100
AcDbCircle
 10
183.2517584852
 20
110.9971025539
 30
0.0
 40
1.66339675499826
100
AcDbArc
 50
180.096437694
 51
228.4637256822
  0
ARC
  5
72
330
1F
100
AcDbEntity
  8
0
  6
Continuous
 62
     7
370
    15
100
AcDbCircle
 10
182.2626188597
 20
110.6234410986
 30
0.0
 40
0.350506361667796
100
AcDbArc
 50
332.9119192746
 51
359.9882962075
  0
ARC
  5
73
330
1F
100
AcDbEntity
  8
0
  6
Continuous
 62
     7
370
    15
100
AcDbCircle
 10
184.1019222518
 20
110.8514036153
 30
0.0
 40
0.204396032900442
100
AcDbArc
 50
23.9500492262
 51
70.1058569277
  0
LINE
  5
74
330
1F
100
AcDbEntity
  8
0
  6
Continuous
 62
     7
370
    15
100
AcDbLine
 10
184.1714748349
 20
111.0436018891
 30
0.0
 11
184.1714748349
 21
111.1948186986
 31
0.0
  0
ARC
  5
75
330
1F
100
AcDbEntity
  8
0
  6
Continuous
 62
     7
370
    15
100
AcDbCircle
 10
182.4757407528
 20
111.1324752256
 30
0.0
 40
0.2055534612848952
100
AcDbArc
 50
92.9855127743
 51
156.2031764264
  0
ARC
  5
76
330
1F
100
AcDbEntity
  8
0
  6
Continuous
 62
     7
370
    15
100
AcDbCircle
 10
184.3182665083
 20
111.3664640048
 30
0.0
 40
0.354665675251066
100
AcDbArc
 50
180.1983669011
 51
245.5507262934
  0
ARC
  5
77
330
1F
100
AcDbEntity
  8
0
  6
Continuous
 62
     7
370
    15
100
AcDbCircle
 10
182.4475519143
 20
111.6945791522
 30
0.0
 40
0.35725748751297
100
AcDbArc
 50
272.8049710124
 51
359.6160696823
  0
ARC
  5
78
330
1F
100
AcDbEntity
  8
0
  6
Continuous
 62
     7
370
    15
100
AcDbCircle
 10
183.8179271273
 20
111.6119599364
 30
0.0
 40
0.2071471777900432
100
AcDbArc
 50
22.5046363735
 51
129.356317221
  0
LINE
  5
79
330
1F
100
AcDbEntity
  8
0
  6
Continuous
 62
     7
370
    15
100
AcDbLine
 10
183.6865665694
 20
111.7721297122
 30
0.0
 11
183.6865665694
 21
111.9233465217
 31
0.0
  0
ARC
  5
7A
330
1F
100
AcDbEntity
  8
0
  6
Continuous
 62
     7
370
    15
100
AcDbCircle
 10
183.0068001099
 20
111.7530906754
 30
0.0
 40
0.2069088322879851
100
AcDbArc
 50
33.8082380497
 51
167.492916535
  0
ARC
  5
7B
330
1F
100
AcDbEntity
  8
0
  6
Continuous
 62
     7
370
    15
100
AcDbCircle
 10
183.4802280425
 20
112.0716644885
 30
0.0
 40
0.3637260918306673
100
AcDbArc
 50
214.0101788575
 51
304.5615319776
  0
LINE
  5
7C
330
1F
100
AcDbEntity
  8
0
  6
Continuous
 62
     7
370
    15
100
AcDbLine
 10
180.6497729438
 20
107.584349203
 30
0.0
 11
186.1997729438
 21
108.548096589
 31
0.0
  0
LINE
  5
7D
330
1F
100
AcDbEntity
  8
0
  6
Continuous
 62
     7
370
    15
100
AcDbLine
 10
180.5803136728
 20
107.9321853983
 30
0.0
 11
180.6497729438
 21
107.584349203
 31
0.0
  0
LINE
  5
7E
330
1F
100
AcDbEntity
  8
0
  6
Continuous
 62
     7
370
    15
100
AcDbLine
 10
180.6674543964
 20
108.0257215849
 30
0.0
 11
180.5803136728
 21
107.9321853983
 31
0.0
  0
SPLINE
  5
7F
330
1F
100
AcDbEntity
  8
0
  6
Continuous
 62
     7
370
    15
100
AcDbSpline
210
0.0
220
0.0
230
1.0
 70
     8
 71
     3
 72
    11
 73
     7
 74
     0
 42
0.00000001
 43
0.00000001
 40
0.0
 40
0.0
 40
0.0
 40
0.0
 40
0.0074552814711517
 40
0.3066092506034598
 40
0.6526506519390397
 40
1.0
 40
1.0
 40
1.0
 40
1.0
 10
181.1097093010463
 20
108.5580792765707
 30
0.0
 10
181.108722887478
 20
108.5567683631864
 30
0.0
 10
181.0681552005146
 20
108.5028551511995
 30
0.0
 10
180.9759793514378
 20
108.3840937199601
 30
0.0
 10
180.8228682466695
 20
108.1974408014194
 30
0.0
 10
180.7193241184564
 20
108.0830332596048
 30
0.0
 10
180.667454396425
 20
108.0257215849147
 30
0.0
  0
LINE
  5
80
330
1F
100
AcDbEntity
  8
0
  6
Continuous
 62
     7
370
    15
100
AcDbLine
 10
180.5803136728
 20
107.9321853983
 30
0.0
 11
180.1803136728
 21
107.9722877271
 31
0.0
  0
LINE
  5
81
330
1F
100
AcDbEntity
  8
0
  6
Continuous
 62
     7
370
    15
100
AcDbLine
 10
180.1803136728
 20
113.5222877271
 30
0.0
 11
180.1803136728
 21
107.9722877271
 31
0.0
  0
ARC
  5
82
330
1F
100
AcDbEntity
  8
0
  6
Continuous
 62
     7
370
    15
100
AcDbCircle
 10
180.5784530158
 20
107.9760668128
 30
0.0
 40
0.3981572779548044
100
AcDbArc
 50
180.5438275858
 51
280.3187985039
  0
ARC
  5
83
330
1F
100
AcDbEntity
  8
0
  6
Continuous
 62
     7
370
    15
100
AcDbCircle
 10
180.5802564407
 20
107.5615992888
 30
0.0
 40
0.108749616372634
100
AcDbArc
 50
224.7054036286
 51
279.9398730722
  0
LINE
  5
84
330
1F
100
AcDbEntity
  8
0
  6
Continuous
 62
     7
370
    15
100
AcDbLine
 10
180.5990282136
 20
107.4544820651
 30
0.0
 11
181.6176209153
 21
107.6313588316
 31
0.0
  0
SPLINE
  5
85
330
1F
100
AcDbEntity
  8
0
  6
Continuous
 62
     7
370
    15
100
AcDbSpline
210
0.0
220
0.0
230
1.0
 70
     8
 71
     3
 72
    12
 73
     8
 74
     0
 42
0.00000001
 43
0.00000001
 40
0.0
 40
0.0
 40
0.0
 40
0.0
 40
0.048190627012564
 40
0.4227687915308491
 40
0.5661203835287629
 40
0.9912408780624055
 40
1.0
 40
1.0
 40
1.0
 40
1.0
 10
186.1543024987631
 20
108.8792491042309
 30
0.0
 10
186.1467212549984
 20
108.8849896443904
 30
0.0
 10
186.080212195802
 20
108.935350500358
 30
0.0
 10
185.9850462091618
 20
109.0121114298308
 30
0.0
 10
185.8311782341235
 20
109.1436919413892
 30
0.0
 10
185.7398667277562
 20
109.2268535641329
 30
0.0
 10
185.6779833496506
 20
109.2860497671719
 30
0.0
 10
185.6767340536842
 20
109.2872448146943
 30
0.0
  0
SPLINE
  5
86
330
1F
100
AcDbEntity
  8
0
  6
Continuous
 62
     7
370
    15
100
AcDbSpline
210
0.0
220
0.0
230
1.0
 70
     8
 71
     3
 72
    10
 73
     6
 74
     0
 42
0.00000001
 43
0.00000001
 40
0.0
 40
0.0
 40
0.0
 40
0.0
 40
0.3658097627759493
 40
0.9379269162050677
 40
1.0
 40
1.0
 40
1.0
 40
1.0
 10
186.1543024987622
 20
108.8792491042315
 30
0.0
 10
186.1554692352368
 20
108.8701005030432
 30
0.0
 10
186.1584607178461
 20
108.8466437225706
 30
0.0
 10
186.1529676860252
 20
108.8222912514686
 30
0.0
 10
186.1487145510906
 20
108.8073340297992
 30
0.0
 10
186.1482982640119
 20
108.8058700512963
 30
0.0
  0
ARC
  5
87
330
1F
100
AcDbEntity
  8
0
  6
Continuous
 62
     7
370
    15
100
AcDbCircle
 10
181.97566203
 20
109.6248428899
 30
0.0
 40
0.99539319474513
100
AcDbArc
 50
180.5438275747
 51
280.3187985309
  0
SPLINE
  5
88
330
1F
100
AcDbEntity
  8
0
  6
Continuous
 62
     7
370
    15
100
AcDbSpline
210
0.0
220
0.0
230
1.0
 70
     8
 71
     3
 72
    10
 73
     6
 74
     0
 42
0.00000001
 43
0.00000001
 40
0.0
 40
0.0
 40
0.0
 40
0.0
 40
0.062073083795391
 40
0.6341902372121166
 40
1.0
 40
1.0
 40
1.0
 40
1.0
 10
186.2338828059157
 20
108.9063161929382
 30
0.0
 10
186.2323366375595
 20
108.9054769391961
 30
0.0
 10
186.2165396960079
 20
108.896902425135
 30
0.0
 10
186.1906506371633
 20
108.8844233627164
 30
0.0
 10
186.1645012636672
 20
108.8807009267497
 30
0.0
 10
186.1543024987631
 20
108.8792491042309
 30
0.0
  0
LINE
  5
89
330
1F
100
AcDbEntity
  8
0
  6
Continuous
 62
     7
370
    15
100
AcDbLine
 10
186.1303136728
 20
114.4459327843
 30
0.0
 11
186.5303136728
 21
114.4860351132
 31
0.0
  0
LINE
  5
8A
330
1F
100
AcDbEntity
  8
0
  6
Continuous
 62
     7
370
    15
100
AcDbLine
 10
186.5303136728
 20
108.9360351132
 30
0.0
 11
186.5303136728
 21
114.4860351132
 31
0.0
  0
LINE
  5
8B
330
1F
100
AcDbEntity
  8
0
  6
Continuous
 62
     7
370
    15
100
AcDbLine
 10
186.0431729491
 20
114.334923868
 30
0.0
 11
186.1303136728
 21
114.4459327843
 31
0.0
  0
ARC
  5
8C
330
1F
100
AcDbEntity
  8
0
  6
Continuous
 62
     7
370
    15
100
AcDbCircle
 10
186.1346226239
 20
108.9383944347
 30
0.0
 40
0.3956980825405654
100
AcDbArc
 50
279.4767018403
 51
359.6583759916
  0
LINE
  5
8D
330
1F
100
AcDbEntity
  8
0
  6
Continuous
 62
     7
370
    15
100
AcDbLine
 10
182.1539618504
 20
108.6455488655
 30
0.0
 11
184.9039618504
 21
109.1230813541
 31
0.0
  0
LINE
  5
8E
330
1F
100
AcDbEntity
  8
0
  6
Continuous
 62
     7
370
    15
100
AcDbLine
 10
184.5566654951
 20
113.8127739749
 30
0.0
 11
181.8066654951
 21
113.3352414863
 31
0.0
  0
ARC
  5
8F
330
1F
100
AcDbEntity
  8
0
  6
Continuous
 62
     7
370
    15
100
AcDbCircle
 10
184.734965315
 20
112.8334799502
 30
0.0
 40
0.9953931949452223
100
AcDbArc
 50
0.5438275897
 51
100.3187985
  0
LINE
  5
90
330
1F
100
AcDbEntity
  8
0
  6
Continuous
 62
     7
370
    15
100
AcDbLine
 10
185.7303136728
 20
110.0929276645
 30
0.0
 11
185.7303136728
 21
112.8429276645
 31
0.0
  0
ARC
  5
91
330
1F
100
AcDbEntity
  8
0
  6
Continuous
 62
     7
370
    15
100
AcDbCircle
 10
184.7410860507
 20
110.0988259683
 30
0.0
 40
0.9892452063524213
100
AcDbArc
 50
279.4767018403
 51
359.6583759873
  0
LINE
  5
92
330
1F
100
AcDbEntity
  8
0
  6
Continuous
 62
     7
370
    15
100
AcDbLine
 10
180.9803136728
 20
112.3653951759
 30
0.0
 11
180.9803136725
 21
109.6153951759
 31
0.0
  0
ARC
  5
93
330
1F
100
AcDbEntity
  8
0
  6
Continuous
 62
     7
370
    15
100
AcDbCircle
 10
181.9695412949
 20
112.3594968721
 30
0.0
 40
0.9892452063524017
100
AcDbArc
 50
99.4767018403
 51
179.6583759873
  0
CIRCLE
  5
94
330
1F
100
AcDbEntity
  8
0
  6
Continuous
 62
     7
370
    15
100
AcDbCircle
 10
183.3362076104
 20
111.2247895289
 30
0.0
 40
1.905898951910274
  0
ARC
  5
95
330
1F
100
AcDbEntity
  8
0
  6
Continuous
 62
     7
370
    15
100
AcDbCircle
 10
183.3553136728
 20
111.0758396696
 30
0.0
 40
1.9258849107011
100
AcDbArc
 50
2.6250100346
 51
177.3749899649
  0
SPLINE
  5
96
330
1F
100
AcDbEntity
  8
0
  6
Continuous
 62
     7
370
    15
100
AcDbSpline
210
0.0
220
0.0
230
1.0
 70
     8
 71
     3
 72
    12
 73
     8
 74
     0
 42
0.00000001
 43
0.00000001
 40
0.0
 40
0.0
 40
0.0
 40
0.0
 40
0.0087591219375924
 40
0.4338796164712502
 40
0.5772312084691692
 40
0.9518093729874668
 40
1.0
 40
1.0
 40
1.0
 40
1.0
 10
181.0338932918766
 20
113.1238647390163
 30
0.0
 10
181.0326439959102
 20
113.1247344074908
 30
0.0
 10
180.970760617805
 20
113.1678130889904
 30
0.0
 10
180.8794491114371
 20
113.2355623256209
 30
0.0
 10
180.7255811363991
 20
113.3582799772052
 30
0.0
 10
180.6304151497587
 20
113.4388002207013
 30
0.0
 10
180.5639060905624
 20
113.4983591292707
 30
0.0
 10
180.5563248467977
 20
113.5051481383122
 30
0.0
  0
SPLINE
  5
97
330
1F
100
AcDbEntity
  8
0
  6
Continuous
 62
     7
370
    15
100
AcDbSpline
210
0.0
220
0.0
230
1.0
 70
     8
 71
     3
 72
    10
 73
     6
 74
     0
 42
0.00000001
 43
0.00000001
 40
0.0
 40
0.0
 40
0.0
 40
0.0
 40
0.0620730837952842
 40
0.6341902372119123
 40
1.0
 40
1.0
 40
1.0
 40
1.0
 10
180.476744539645
 20
113.4925688068867
 30
0.0
 10
180.4782907080013
 20
113.4930991059368
 30
0.0
 10
180.494087649553
 20
113.498517081971
 30
0.0
 10
180.5199767083974
 20
113.5060152589732
 30
0.0
 10
180.5461260818936
 20
113.5053914398994
 30
0.0
 10
180.5563248467977
 20
113.5051481383122
 30
0.0
  0
SPLINE
  5
98
330
1F
100
AcDbEntity
  8
0
  6
Continuous
 62
     7
370
    15
100
AcDbSpline
210
0.0
220
0.0
230
1.0
 70
     8
 71
     3
 72
    11
 73
     7
 74
     0
 42
0.00000001
 43
0.00000001
 40
0.0
 40
0.0
 40
0.0
 40
0.0
 40
0.3473493480609739
 40
0.6933907493965109
 40
0.9925447185288416
 40
1.0
 40
1.0
 40
1.0
 40
1.0
 10
186.043172949136
 20
114.3349238679543
 30
0.0
 10
185.9913032271045
 20
114.2704819331678
 30
0.0
 10
185.8877590988912
 20
114.1418407202113
 30
0.0
 10
185.734647994123
 20
113.9690965005687
 30
0.0
 10
185.6424721450462
 20
113.8714938972197
 30
0.0
 10
185.6019044580827
 20
113.8301827254533
 30
0.0
 10
185.6009180445145
 20
113.829178233864
 30
0.0
  0
SPLINE
  5
99
330
1F
100
AcDbEntity
  8
0
  6
Continuous
 62
     7
370
    15
100
AcDbSpline
210
0.0
220
0.0
230
1.0
 70
     8
 71
     3
 72
    10
 73
     6
 74
     0
 42
0.00000001
 43
0.00000001
 40
0.0
 40
0.0
 40
0.0
 40
0.0
 40
0.3658097627759543
 40
0.9379269162051319
 40
1.0
 40
1.0
 40
1.0
 40
1.0
 10
180.5563248467986
 20
113.5051481383114
 30
0.0
 10
180.555158110324
 20
113.5159918636058
 30
0.0
 10
180.5521666277147
 20
113.5437948991189
 30
0.0
 10
180.5576596595358
 20
113.5731282556375
 30
0.0
 10
180.5619127944703
 20
113.5912420153337
 30
0.0
 10
180.5623290815489
 20
113.5930149485286
 30
0.0
  0
LINE
  5
9A
330
1F
100
AcDbEntity
  8
0
  6
Continuous
 62
     7
370
    15
100
AcDbLine
 10
186.0608544017
 20
114.8739736374
 30
0.0
 11
180.5108544017
 21
113.9102262513
 31
0.0
  0
LINE
  5
9B
330
1F
100
AcDbEntity
  8
0
  6
Continuous
 62
     7
370
    15
100
AcDbLine
 10
186.1303136728
 20
114.4459327843
 30
0.0
 11
186.0608544017
 21
114.8739736374
 31
0.0
  0
ARC
  5
9C
330
1F
100
AcDbEntity
  8
0
  6
Continuous
 62
     7
370
    15
100
AcDbCircle
 10
180.5760047216
 20
113.5199284056
 30
0.0
 40
0.3956980825555425
100
AcDbArc
 50
99.4767018421
 51
179.6583759855
  0
ARC
  5
9D
330
1F
100
AcDbEntity
  8
0
  6
Continuous
 62
     7
370
    15
100
AcDbCircle
 10
186.1321743297
 20
114.4822560275
 30
0.0
 40
0.3981572780013745
100
AcDbArc
 50
0.5438275937
 51
100.318798496
  0
LINE
  5
9E
330
1F
100
AcDbEntity
  8
0
  6
Continuous
 62
     7
370
    15
100
AcDbLine
 10
133.8252039115
 20
99.5049582144
 30
0.0
 11
133.8252039115
 21
115.5049582144
 31
0.0
  0
LINE
  5
9F
330
1F
100
AcDbEntity
  8
0
  6
Continuous
 62
     7
370
    15
100
AcDbLine
 10
97.9053136728
 20
99.5049582144
 30
0.0
 11
97.9053136728
 21
113.7049582144
 31
0.0
  0
LINE
  5
A0
330
1F
100
AcDbEntity
  8
0
  6
Continuous
 62
     7
370
    15
100
AcDbLine
 10
106.0303136728
 20
113.7049582144
 30
0.0
 11
97.9053136728
 21
113.7049582144
 31
0.0
  0
LINE
  5
A1
330
1F
100
AcDbEntity
  8
0
  6
Continuous
 62
     7
370
    15
100
AcDbLine
 10
107.8303136728
 20
115.5049582144
 30
0.0
 11
106.0303136728
 21
113.7049582144
 31
0.0
  0
LINE
  5
A2
330
1F
100
AcDbEntity
  8
0
  6
Continuous
 62
     7
370
    15
100
AcDbLine
 10
112.5303136728
 20
113.7049582144
 30
0.0
 11
110.7303136728
 21
115.5049582144
 31
0.0
  0
LINE
  5
A3
330
1F
100
AcDbEntity
  8
0
  6
Continuous
 62
     7
370
    15
100
AcDbLine
 10
120.5303136728
 20
113.7049582144
 30
0.0
 11
112.5303136728
 21
113.7049582144
 31
0.0
  0
LINE
  5
A4
330
1F
100
AcDbEntity
  8
0
  6
Continuous
 62
     7
370
    15
100
AcDbLine
 10
122.3303136728
 20
115.5049582144
 30
0.0
 11
120.5303136728
 21
113.7049582144
 31
0.0
  0
LINE
  5
A5
330
1F
100
AcDbEntity
  8
0
  6
Continuous
 62
     7
370
    15
100
AcDbLine
 10
96.5303136728
 20
100.8799582144
 30
0.0
 11
96.5303136728
 21
113.7049582144
 31
0.0
  0
SPLINE
  5
A6
330
1F
100
AcDbEntity
  8
0
  6
Continuous
 62
     7
370
    15
100
AcDbSpline
210
0.0
220
0.0
230
1.0
 70
    24
 71
     3
 72
    10
 73
     6
 74
     0
 42
0.00000001
 43
0.00000001
 40
0.0
 40
0.0
 40
0.0
 40
0.0
 40
0.5
 40
0.5
 40
1.0
 40
1.0
 40
1.0
 40
1.0
 10
97.90531367278042
 20
113.7049582143728
 30
0.0
 10
97.63307348546321
 20
113.7049582143728
 30
0.0
 10
97.37470937727521
 20
113.7049582143728
 30
0.0
 10
96.90864335945984
 20
113.7049582143728
 30
0.0
 10
96.70005285633215
 20
113.7049582143728
 30
0.0
 10
96.53031367278041
 20
113.7049582143728
 30
0.0
  0
SPLINE
  5
A7
330
1F
100
AcDbEntity
  8
0
  6
Continuous
 62
     7
370
    15
100
AcDbSpline
210
0.0
220
0.0
230
1.0
 70
     8
 71
     3
 72
    52
 73
    48
 74
     0
 42
0.00000001
 43
0.00000001
 40
0.0
 40
0.0
 40
0.0
 40
0.0
 40
0.0624999999999989
 40
0.0624999999999989
 40
0.1249999999999979
 40
0.1249999999999979
 40
0.2499999999999971
 40
0.2499999999999971
 40
0.3124999999999974
 40
0.3124999999999974
 40
0.3749999999999977
 40
0.3749999999999977
 40
0.4374999999999979
 40
0.4374999999999979
 40
0.4999999999999982
 40
0.4999999999999982
 40
0.5312499999999978
 40
0.5312499999999978
 40
0.5624999999999973
 40
0.5624999999999973
 40
0.593749999999997
 40
0.593749999999997
 40
0.6249999999999966
 40
0.6249999999999966
 40
0.6406249999999966
 40
0.6406249999999966
 40
0.6562499999999964
 40
0.6562499999999964
 40
0.6718749999999964
 40
0.6718749999999964
 40
0.6874999999999963
 40
0.6874999999999963
 40
0.7031249999999963
 40
0.7031249999999963
 40
0.7187499999999963
 40
0.7187499999999963
 40
0.7499999999999962
 40
0.7499999999999962
 40
0.7812499999999961
 40
0.7812499999999961
 40
0.812499999999996
 40
0.812499999999996
 40
0.8749999999999973
 40
0.8749999999999973
 40
0.9374999999999986
 40
0.9374999999999986
 40
1.0
 40
1.0
 40
1.0
 40
1.0
 10
177.7609249527761
 20
102.7946251004211
 30
0.0
 10
177.2964592640207
 20
102.9407524515846
 30
0.0
 10
176.8410601200546
 20
103.1085175979562
 30
0.0
 10
175.9444489336184
 20
103.4914331843847
 30
0.0
 10
175.501712750245
 20
103.7074453765761
 30
0.0
 10
174.197631674574
 20
104.4236004698701
 30
0.0
 10
173.3725113216029
 20
104.9843095177927
 30
0.0
 10
172.1620096089449
 20
105.923438333804
 30
0.0
 10
171.7630590932882
 20
106.2527340969845
 30
0.0
 10
170.9687561793534
 20
106.9403903957069
 30
0.0
 10
170.5807677494442
 20
107.2922400211556
 30
0.0
 10
169.8198855669507
 20
108.0078850151092
 30
0.0
 10
169.4468862554619
 20
108.371643943885
 30
0.0
 10
168.716887813044
 20
109.1115470164314
 30
0.0
 10
168.3595924855947
 20
109.4879266390442
 30
0.0
 10
167.8594386309502
 20
110.0487003978047
 30
0.0
 10
167.6981056278968
 20
110.235690585038
 30
0.0
 10
167.3898517297523
 20
110.611086952768
 30
0.0
 10
167.2432500602225
 20
110.7991762628775
 30
0.0
 10
166.977552527838
 20
111.1698909162354
 30
0.0
 10
166.8574434033592
 20
111.3534582840726
 30
0.0
 10
166.6559069866073
 20
111.7187748806579
 30
0.0
 10
166.5769072910684
 20
111.8963351743076
 30
0.0
 10
166.5079609379943
 20
112.1516496857597
 30
0.0
 10
166.4933499419082
 20
112.2355680756146
 30
0.0
 10
166.4848560566403
 20
112.3946483550406
 30
0.0
 10
166.4907142895684
 20
112.470400941967
 30
0.0
 10
166.5248679395957
 20
112.6144125458218
 30
0.0
 10
166.5535970290022
 20
112.6828533223571
 30
0.0
 10
166.632009513563
 20
112.8072433368314
 30
0.0
 10
166.6817496591613
 20
112.863983589585
 30
0.0
 10
166.8012591042591
 20
112.9679877846945
 30
0.0
 10
166.8712406366285
 20
113.0151513130552
 30
0.0
 10
167.0242605298452
 20
113.0986137037891
 30
0.0
 10
167.1078314957156
 20
113.1354372898297
 30
0.0
 10
167.3765783898914
 20
113.2344120887324
 30
0.0
 10
167.5803329287672
 20
113.2850376648345
 30
0.0
 10
168.0063511095318
 20
113.3646002091778
 30
0.0
 10
168.2309033991939
 20
113.3942458983901
 30
0.0
 10
168.6972151406794
 20
113.441452433276
 30
0.0
 10
168.9390226967229
 20
113.4588584275896
 30
0.0
 10
169.6703255662769
 20
113.499135310032
 30
0.0
 10
170.1710797327226
 20
113.5111139301699
 30
0.0
 10
171.1914019062372
 20
113.5256207452118
 30
0.0
 10
171.7131131072288
 20
113.527746981144
 30
0.0
 10
172.7586977767598
 20
113.5298977308191
 30
0.0
 10
173.2836367261384
 20
113.5298567047452
 30
0.0
 10
173.8105642064909
 20
113.5298567047452
 30
0.0
  0
ELLIPSE
  5
A8
330
1F
100
AcDbEntity
  8
0
  6
Continuous
 62
     7
370
    15
100
AcDbEllipse
 10
186.4263944834
 20
107.5049582144
 30
0.0
 11
10.53960674015207
 21
6.023057069971713
 31
0.0
210
0.0
220
0.0
230
0.9999999999999998
 40
0.0145165255
 41
2.527683933663392
 42
3.738910269478548
  0
LINE
  5
A9
330
1F
100
AcDbEntity
  8
0
  6
Continuous
 62
     7
370
    15
100
AcDbLine
 10
173.8105642065
 20
113.5298567047
 30
0.0
 11
177.0838894783
 21
113.5298567047
 31
0.0
  0
ELLIPSE
  5
AA
330
1F
100
AcDbEntity
  8
0
  6
Continuous
 62
     7
370
    15
100
AcDbEllipse
 10
182.913217943
 20
105.8163883895
 30
0.0
 11
7.192518147133939
 21
4.120855117251608
 31
0.0
210
0.0
220
0.0
230
1.0
 40
0.0283540513
 41
3.924205283829931
 42
4.59698870082178
  0
SPLINE
  5
AB
330
1F
100
AcDbEntity
  8
0
  6
Continuous
 62
     7
370
    15
100
AcDbSpline
210
0.0
220
0.0
230
1.0
 70
     8
 71
     3
 72
     8
 73
     4
 74
     0
 42
0.00000001
 43
0.00000001
 40
0.0
 40
0.0
 40
0.0
 40
0.0
 40
1.0
 40
1.0
 40
1.0
 40
1.0
 10
177.8955824250922
 20
102.7505953767704
 30
0.0
 10
177.8506703368444
 20
102.7658444335514
 30
0.0
 10
177.8057805643369
 20
102.7805129025541
 30
0.0
 10
177.7609249527761
 20
102.7946251004212
 30
0.0
  0
SPLINE
  5
AC
330
1F
100
AcDbEntity
  8
0
  6
Continuous
 62
     7
370
    15
100
AcDbSpline
210
0.0
220
0.0
230
1.0
 70
     8
 71
     3
 72
    38
 73
    34
 74
     0
 42
0.00000001
 43
0.00000001
 40
0.0
 40
0.0
 40
0.0
 40
0.0
 40
0.1250000000000009
 40
0.1250000000000009
 40
0.2500000000000019
 40
0.2500000000000019
 40
0.3125000000000039
 40
0.3125000000000039
 40
0.3750000000000059
 40
0.3750000000000059
 40
0.4062500000000069
 40
0.4062500000000069
 40
0.437500000000008
 40
0.437500000000008
 40
0.468750000000009
 40
0.468750000000009
 40
0.50000000000001
 40
0.50000000000001
 40
0.531250000000011
 40
0.531250000000011
 40
0.562500000000012
 40
0.562500000000012
 40
0.6250000000000108
 40
0.6250000000000108
 40
0.6875000000000094
 40
0.6875000000000094
 40
0.7500000000000081
 40
0.7500000000000081
 40
0.8125000000000068
 40
0.8125000000000068
 40
0.8750000000000054
 40
0.8750000000000054
 40
1.0
 40
1.0
 40
1.0
 40
1.0
 10
176.3165155558231
 20
111.0239053554131
 30
0.0
 10
175.8615931412255
 20
110.9481006412153
 30
0.0
 10
175.4139137475311
 20
110.8595710682793
 30
0.0
 10
174.5411670500108
 20
110.6329389327145
 30
0.0
 10
174.1100534696818
 20
110.4950656606007
 30
0.0
 10
173.532414793593
 20
110.2071405898002
 30
0.0
 10
173.35308646168
 20
110.0979593176623
 30
0.0
 10
173.0464191764491
 20
109.8372919397996
 30
0.0
 10
172.9177650122266
 20
109.6831602445751
 30
0.0
 10
172.812828291437
 20
109.4146636931682
 30
0.0
 10
172.793218572825
 20
109.3213905516415
 30
0.0
 10
172.7894365212627
 20
109.1245256628424
 30
0.0
 10
172.8060339378367
 20
109.0228598099677
 30
0.0
 10
172.8740002103295
 20
108.8240510637436
 30
0.0
 10
172.925940235429
 20
108.7253594342927
 30
0.0
 10
173.054908366207
 20
108.5418766885305
 30
0.0
 10
173.1328657108858
 20
108.4553848910636
 30
0.0
 10
173.3036011816097
 20
108.2998235706712
 30
0.0
 10
173.3980234139651
 20
108.2292252537657
 30
0.0
 10
173.5931418251071
 20
108.1068373606542
 30
0.0
 10
173.6948261718273
 20
108.0540891389786
 30
0.0
 10
174.0112309272437
 20
107.9186896158466
 30
0.0
 10
174.2266372988573
 20
107.8629007581645
 30
0.0
 10
174.6631401091797
 20
107.8072779796731
 30
0.0
 10
174.8798221541655
 20
107.8086009810008
 30
0.0
 10
175.3036595669633
 20
107.8581101812549
 30
0.0
 10
175.5144959807705
 20
107.9071211787501
 30
0.0
 10
175.9206750356537
 20
108.0418624396634
 30
0.0
 10
176.1169425507764
 20
108.1273221231772
 30
0.0
 10
176.5003870127733
 20
108.3278545047955
 30
0.0
 10
176.6886194085532
 20
108.4437988775931
 30
0.0
 10
177.2348410475884
 20
108.8237669604188
 30
0.0
 10
177.5743460052166
 20
109.1177466567814
 30
0.0
 10
177.9004264837364
 20
109.4399944274998
 30
0.0
  0
SPLINE
  5
AD
330
1F
100
AcDbEntity
  8
0
  6
Continuous
 62
     7
370
    15
100
AcDbSpline
210
0.0
220
0.0
230
1.0
 70
     8
 71
     3
 72
     8
 73
     4
 74
     0
 42
0.00000001
 43
0.00000001
 40
0.0000002833943178
 40
0.0000002833943178
 40
0.0000002833943178
 40
0.0000002833943178
 40
0.0001926167415636
 40
0.0001926167415636
 40
0.0001926167415636
 40
0.0001926167415636
 10
177.7609249527761
 20
102.6698331499642
 30
0.0
 10
177.8061646709268
 20
102.6969371342196
 30
0.0
 10
177.8510398386865
 20
102.7238527624285
 30
0.0
 10
177.8955824250923
 20
102.7505953767703
 30
0.0
  0
ELLIPSE
  5
AE
330
1F
100
AcDbEntity
  8
0
  6
Continuous
 62
     7
370
    15
100
AcDbEllipse
 10
186.4263944834
 20
107.5049582144
 30
0.0
 11
10.84573639650517
 21
6.198000636319506
 31
0.0
210
0.0
220
0.0
230
1.0
 40
0.0145165255
 41
3.95189856929298
 42
4.563252722147158
  0
ELLIPSE
  5
AF
330
1F
100
AcDbEntity
  8
0
  6
Continuous
 62
     7
370
    15
100
AcDbEllipse
 10
190.9030509005
 20
110.0625128506
 30
0.0
 11
14.51239774809977
 21
8.293162806518479
 31
0.0
210
0.0
220
0.0
230
1.0
 40
0.0138087437
 41
3.649993772353168
 42
3.744692495467206
  0
SPLINE
  5
B0
330
1F
100
AcDbEntity
  8
0
  6
Continuous
 62
     7
370
    15
100
AcDbSpline
210
0.0
220
0.0
230
1.0
 70
     8
 71
     3
 72
     8
 73
     4
 74
     0
 42
0.00000001
 43
0.00000001
 40
0.0
 40
0.0
 40
0.0
 40
0.0
 40
1.0
 40
1.0
 40
1.0
 40
1.0
 10
178.2818694857769
 20
102.7206867185876
 30
0.0
 10
178.112746568287
 20
102.629522538411
 30
0.0
 10
177.9397405744207
 20
102.5359458592639
 30
0.0
 10
177.7609249527761
 20
102.4387597427339
 30
0.0
  0
LINE
  5
B1
330
1F
100
AcDbEntity
  8
0
  6
Continuous
 62
     7
370
    15
100
AcDbLine
 10
182.2011061576
 20
105.1393147537
 30
0.0
 11
185.8094836848
 21
107.1909625166
 31
0.0
  0
LINE
  5
B2
330
1F
100
AcDbEntity
  8
0
  6
Continuous
 62
     7
370
    15
100
AcDbLine
 10
184.9155316194
 20
106.4349723802
 30
0.0
 11
184.9038659282
 21
106.4283395128
 31
0.0
  0
ELLIPSE
  5
B3
330
1F
100
AcDbEntity
  8
0
  6
Continuous
 62
     7
370
    15
100
AcDbEllipse
 10
174.060246994
 20
108.7979003136
 30
0.0
 11
4.413933828997841
 21
1.872387294109572
 31
0.0
210
0.0
220
0.0
230
1.0
 40
0.3088275464
 41
5.622596320643231
 42
7.192205304272322
  0
SPLINE
  5
B4
330
1F
100
AcDbEntity
  8
0
  6
Continuous
 62
     7
370
    15
100
AcDbSpline
210
0.0
220
0.0
230
1.0
 70
     8
 71
     3
 72
    12
 73
     8
 74
     0
 42
0.00000001
 43
0.00000001
 40
0.0
 40
0.0
 40
0.0
 40
0.0
 40
0.25
 40
0.25
 40
0.5
 40
0.5
 40
1.0
 40
1.0
 40
1.0
 40
1.0
 10
178.7194774747911
 20
113.0994494957133
 30
0.0
 10
178.5746343180796
 20
113.0742977455028
 30
0.0
 10
178.4296933613425
 20
113.0650753387472
 30
0.0
 10
178.1396231998033
 20
113.0772917451198
 30
0.0
 10
177.9929521229163
 20
113.0993659651505
 30
0.0
 10
177.5716922422861
 20
113.2102073363299
 30
0.0
 10
177.3060851125921
 20
113.3462089544976
 30
0.0
 10
177.0838894783035
 20
113.5298567047446
 30
0.0
  0
LINE
  5
B5
330
1F
100
AcDbEntity
  8
0
  6
Continuous
 62
     7
370
    15
100
AcDbLine
 10
180.1803136728
 20
113.3531210394
 30
0.0
 11
178.7194774748
 21
113.0994494957
 31
0.0
  0
ARC
  5
B6
330
1F
100
AcDbEntity
  8
0
  6
Continuous
 62
     7
370
    15
100
AcDbCircle
 10
180.790734647
 20
108.1791796526
 30
0.0
 40
0.993925203072033
100
AcDbArc
 50
127.8903159727
 51
334.7190941439
  0
LINE
  5
B7
330
1F
100
AcDbEntity
  8
0
  6
Continuous
 62
     7
370
    15
100
AcDbLine
 10
186.3057567606
 20
108.5563277623
 30
0.0
 11
181.6894665831
 21
107.7547173854
 31
0.0
  0
LINE
  5
B8
330
1F
100
AcDbEntity
  8
0
  6
Continuous
 62
     7
370
    15
100
AcDbLine
 10
186.3057567606
 20
108.0374738958
 30
0.0
 11
186.3057567606
 21
108.5563277623
 31
0.0
  0
ELLIPSE
  5
B9
330
1F
100
AcDbEntity
  8
0
  6
Continuous
 62
     7
370
    15
100
AcDbEllipse
 10
185.2982469351
 20
108.0459819269
 30
0.0
 11
0.9881030613275072
 21
-0.2011806586970408
 31
0.0
210
0.0
220
0.0
230
0.9999999999999999
 40
0.9782018681
 41
5.441176382158675
 42
6.479777610237937
  0
ELLIPSE
  5
BA
330
1F
100
AcDbEntity
  8
0
  6
Continuous
 62
     7
370
    15
100
AcDbEllipse
 10
184.4042948698
 20
107.2899917904
 30
0.0
 11
0.9881030613275356
 21
-0.2011806586970408
 31
0.0
210
0.0
220
0.0
230
1.0
 40
0.9782018681
 41
5.441176382158666
 42
5.625911276795486
  0
ARC
  5
BB
330
1F
100
AcDbEntity
  8
0
  6
Continuous
 62
     7
370
    15
100
AcDbCircle
 10
180.7699269565
 20
107.7788423019
 30
0.0
 40
0.9820403185437337
100
AcDbArc
 50
126.8982792529
 51
168.0584053712
  0
LINE
  5
BC
330
1F
100
AcDbEntity
  8
0
  6
HIDDEN
 62
     7
370
     0
100
AcDbLine
 10
133.8252039115
 20
115.5049582144
 30
0.0
 11
133.8252039115
 21
99.5049582144
 31
0.0
  0
LINE
  5
BD
330
1F
100
AcDbEntity
  8
0
  6
HIDDEN
 62
     7
370
     0
100
AcDbLine
 10
97.9053136728
 20
113.7049582144
 30
0.0
 11
106.0303136728
 21
113.7049582144
 31
0.0
  0
LINE
  5
BE
330
1F
100
AcDbEntity
  8
0
  6
HIDDEN
 62
     7
370
     0
100
AcDbLine
 10
97.9053136728
 20
113.7049582144
 30
0.0
 11
97.9053136728
 21
99.5049582144
 31
0.0
  0
LINE
  5
BF
330
1F
100
AcDbEntity
  8
0
  6
HIDDEN
 62
     7
370
     0
100
AcDbLine
 10
106.0303136728
 20
113.7049582144
 30
0.0
 11
107.8303136728
 21
115.5049582144
 31
0.0
  0
LINE
  5
C0
330
1F
100
AcDbEntity
  8
0
  6
HIDDEN
 62
     7
370
     0
100
AcDbLine
 10
110.7303136728
 20
115.5049582144
 30
0.0
 11
112.5303136728
 21
113.7049582144
 31
0.0
  0
LINE
  5
C1
330
1F
100
AcDbEntity
  8
0
  6
HIDDEN
 62
     7
370
     0
100
AcDbLine
 10
120.5303136728
 20
113.7049582144
 30
0.0
 11
122.3303136728
 21
115.5049582144
 31
0.0
  0
LINE
  5
C2
330
1F
100
AcDbEntity
  8
0
  6
HIDDEN
 62
     7
370
     0
100
AcDbLine
 10
112.5303136728
 20
113.7049582144
 30
0.0
 11
120.5303136728
 21
113.7049582144
 31
0.0
  0
SPLINE
  5
C3
330
1F
100
AcDbEntity
  8
0
  6
HIDDEN
 62
     7
370
     0
100
AcDbSpline
210
0.0
220
0.0
230
1.0
 70
    24
 71
     3
 72
    10
 73
     6
 74
     0
 42
0.00000001
 43
0.00000001
 40
0.0
 40
0.0
 40
0.0
 40
0.0
 40
0.4999999999999998
 40
0.4999999999999998
 40
1.0
 40
1.0
 40
1.0
 40
1.0
 10
96.53031367278041
 20
113.7049582143728
 30
0.0
 10
96.70174519506162
 20
113.7049582143728
 30
0.0
 10
96.91186083885327
 20
113.7049582143728
 30
0.0
 10
97.37784703135502
 20
113.7049582143728
 30
0.0
 10
97.6341967060303
 20
113.7049582143728
 30
0.0
 10
97.90531367278041
 20
113.7049582143728
 30
0.0
  0
LINE
  5
C4
330
1F
100
AcDbEntity
  8
0
  6
HIDDEN
 62
     7
370
     0
100
AcDbLine
 10
96.5303136728
 20
113.7049582144
 30
0.0
 11
96.5303136728
 21
100.8799582144
 31
0.0
  0
SPLINE
  5
C5
330
1F
100
AcDbEntity
  8
0
  6
HIDDEN
 62
     7
370
     0
100
AcDbSpline
210
0.0
220
0.0
230
1.0
 70
     8
 71
     3
 72
    18
 73
    14
 74
     0
 42
0.00000001
 43
0.00000001
 40
0.0
 40
0.0
 40
0.0
 40
0.0
 40
0.2499999999999998
 40
0.2499999999999998
 40
0.3749999999999998
 40
0.3749999999999998
 40
0.4999999999999998
 40
0.4999999999999998
 40
0.6249999999999998
 40
0.6249999999999998
 40
0.7499999999999998
 40
0.7499999999999998
 40
1.0
 40
1.0
 40
1.0
 40
1.0
 10
177.0838894783025
 20
113.5298567047455
 30
0.0
 10
177.0523713915821
 20
113.5324368854988
 30
0.0
 10
177.0415150894753
 20
113.4863909746841
 30
0.0
 10
177.0546212919394
 20
113.3445579833425
 30
0.0
 10
177.0641247516491
 20
113.2845347419792
 30
0.0
 10
177.0933166347312
 20
113.1427183057072
 30
0.0
 10
177.1129673283218
 20
113.0608284303738
 30
0.0
 10
177.1631630605442
 20
112.8758185448712
 30
0.0
 10
177.1936949805981
 20
112.7726945891812
 30
0.0
 10
177.2675556355955
 20
112.5452661368621
 30
0.0
 10
177.3110211968248
 20
112.4206899465487
 30
0.0
 10
177.4610946197726
 20
112.0266382277735
 30
0.0
 10
177.5855183875093
 20
111.7332696811453
 30
0.0
 10
177.7609249527761
 20
111.4189904170081
 30
0.0
  0
SPLINE
  5
C6
330
1F
100
AcDbEntity
  8
0
  6
HIDDEN
 62
     7
370
     0
100
AcDbSpline
210
0.0
220
0.0
230
1.0
 70
     8
 71
     3
 72
    14
 73
    10
 74
     0
 42
0.00000001
 43
0.00000001
 40
0.0
 40
0.0
 40
0.0
 40
0.0
 40
0.2500000000000001
 40
0.2500000000000001
 40
0.5000000000000001
 40
0.5000000000000001
 40
0.7500000000000002
 40
0.7500000000000002
 40
1.0
 40
1.0
 40
1.0
 40
1.0
 10
171.5303136727804
 20
108.832413716603
 30
0.0
 10
171.5536646551027
 20
108.7044724975057
 30
0.0
 10
171.574844702603
 20
108.550357291906
 30
0.0
 10
171.6065328050089
 20
108.1997518426399
 30
0.0
 10
171.6163166164684
 20
108.0087597613802
 30
0.0
 10
171.6182942109658
 20
107.6091279277664
 30
0.0
 10
171.6102538537593
 20
107.4046192964935
 30
0.0
 10
171.5783770040151
 20
106.9982404728661
 30
0.0
 10
171.5553116790396
 20
106.8029922890379
 30
0.0
 10
171.5303136727804
 20
106.6169228663982
 30
0.0
  0
SPLINE
  5
C7
330
1F
100
AcDbEntity
  8
0
  6
HIDDEN
 62
     7
370
     0
100
AcDbSpline
210
0.0
220
0.0
230
1.0
 70
     8
 71
     3
 72
    24
 73
    20
 74
     0
 42
0.00000001
 43
0.00000001
 40
0.0
 40
0.0
 40
0.0
 40
0.0
 40
0.0625000000000016
 40
0.0625000000000016
 40
0.1250000000000032
 40
0.1250000000000032
 40
0.2500000000000033
 40
0.2500000000000033
 40
0.3750000000000033
 40
0.3750000000000033
 40
0.5000000000000032
 40
0.5000000000000032
 40
0.7500000000000033
 40
0.7500000000000033
 40
0.8750000000000017
 40
0.8750000000000017
 40
0.9375000000000008
 40
0.9375000000000008
 40
1.0
 40
1.0
 40
1.0
 40
1.0
 10
170.4798725270913
 20
107.0148126723147
 30
0.0
 10
170.5346318078646
 20
107.0690958728258
 30
0.0
 10
170.5834926652069
 20
107.1316348812177
 30
0.0
 10
170.6617804457949
 20
107.2665973919575
 30
0.0
 10
170.6919927434053
 20
107.3393239911619
 30
0.0
 10
170.7628024600318
 20
107.5690315038631
 30
0.0
 10
170.7828707101953
 20
107.7277012731319
 30
0.0
 10
170.8125092853545
 20
108.0345784049631
 30
0.0
 10
170.8211629354711
 20
108.1823778027784
 30
0.0
 10
170.8428395798455
 20
108.4482814537937
 30
0.0
 10
170.8556559629956
 20
108.5680256516875
 30
0.0
 10
170.9109540693827
 20
108.8665527129785
 30
0.0
 10
170.9695985304831
 20
108.9825697155114
 30
0.0
 10
171.1172326342987
 20
109.0115655017185
 30
0.0
 10
171.175055738701
 20
108.9978931332046
 30
0.0
 10
171.2865669330353
 20
108.9497458883856
 30
0.0
 10
171.3272487666819
 20
108.9294479074419
 30
0.0
 10
171.4195231340005
 20
108.8835166894344
 30
0.0
 10
171.4719406998415
 20
108.8575068854386
 30
0.0
 10
171.5303136727803
 20
108.8324137166028
 30
0.0
  0
LWPOLYLINE
  5
C8
330
1F
100
AcDbEntity
  8
0
  6
HIDDEN
 62
     7
370
     0
100
AcDbPolyline
 90
       13
 70
   128
 43
0.0
 10
170.4798725271
 20
107.0148126723
 10
170.6609994229
 20
106.6758950545
 10
170.8508762106
 20
106.3723749599
 10
171.0367662281
 20
106.12461208
 10
171.2062002405
 20
105.9492259924
 10
171.3478128579
 20
105.8579813437
 10
171.4521049095
 20
105.8569986938
 10
171.5120806344
 20
105.9463439574
 10
171.5237169473
 20
106.1200239827
 10
171.486233301
 20
106.3663885633
 10
171.4021440447
 20
106.6689119174
 10
171.2770897647
 20
107.0073012135
 10
171.1194589223
 20
107.3588577842
  0
SPLINE
  5
C9
330
1F
100
AcDbEntity
  8
0
  6
HIDDEN
 62
     7
370
     0
100
AcDbSpline
210
0.0
220
0.0
230
1.0
 70
     8
 71
     3
 72
    10
 73
     6
 74
     0
 42
0.00000001
 43
0.00000001
 40
0.0
 40
0.0
 40
0.0
 40
0.0
 40
0.5000000000000001
 40
0.5000000000000001
 40
1.0
 40
1.0
 40
1.0
 40
1.0
 10
171.5303136727806
 20
106.6169228663983
 30
0.0
 10
171.4857027968431
 20
106.7331631638754
 30
0.0
 10
171.4319586358993
 20
106.8614719941228
 30
0.0
 10
171.3005940762069
 20
107.1161526504739
 30
0.0
 10
171.221040655092
 20
107.2469302941295
 30
0.0
 10
171.1194589223052
 20
107.3588577842108
 30
0.0
  0
LINE
  5
CA
330
1F
100
AcDbEntity
  8
0
  6
HIDDEN
 62
     7
370
     0
100
AcDbLine
 10
97.8293517785
 20
109.0049582144
 30
0.0
 11
97.8293517785
 21
106.0049582144
 31
0.0
  0
LINE
  5
CB
330
1F
100
AcDbEntity
  8
0
  6
HIDDEN
 62
     7
370
     0
100
AcDbLine
 10
96.5303136728
 20
105.2549582144
 30
0.0
 11
96.5303136728
 21
109.7549582144
 31
0.0
  0
LINE
  5
CC
330
1F
100
AcDbEntity
  8
0
  6
HIDDEN
 62
     7
370
     0
100
AcDbLine
 10
180.204870585
 20
113.3573853024
 30
0.0
 11
180.1803136728
 21
113.3531210394
 31
0.0
  0
LINE
  5
CD
330
1F
100
AcDbEntity
  8
0
  6
HIDDEN
 62
     7
370
     0
100
AcDbLine
 10
180.204870585
 20
108.9815159939
 30
0.0
 11
180.204870585
 21
113.3573853024
 31
0.0
  0
LINE
  5
CE
330
1F
100
AcDbEntity
  8
0
  6
HIDDEN
 62
     7
370
     0
100
AcDbLine
 10
180.1803136728
 20
108.9635733953
 30
0.0
 11
180.204870585
 21
108.9815159939
 31
0.0
  0
ELLIPSE
  5
CF
330
1F
100
AcDbEntity
  8
0
  6
HIDDEN
 62
     7
370
     0
100
AcDbEllipse
 10
170.6340752072
 20
107.5049582144
 30
0.0
 11
-0.7743478721600353
 21
1.49017827067091
 31
0.0
210
0.0
220
0.0
230
1.0
 40
0.2213127385
 41
1.789174874832992
 42
4.500335315684501
  0
LINE
  5
D0
330
1F
100
AcDbEntity
  8
0
  6
HIDDEN
 62
     7
370
     0
100
AcDbLine
 10
171.5303136728
 20
108.8324137166
 30
0.0
 11
171.5303136728
 21
106.6169228664
 31
0.0
  0
ELLIPSE
  5
D1
330
1F
100
AcDbEntity
  8
0
  6
HIDDEN
 62
     7
370
     0
100
AcDbEllipse
 10
184.4042948698
 20
107.2899917904
 30
0.0
 11
0.9881030613275356
 21
-0.2011806586970408
 31
0.0
210
0.0
220
0.0
230
1.0
 40
0.9782018681
 41
5.625911276795486
 42
6.479777610237948
  0
LINE
  5
D2
330
1F
100
AcDbEntity
  8
0
  6
HIDDEN
 62
     7
370
     0
100
AcDbLine
 10
181.7280567072
 20
107.4663589642
 30
0.0
 11
181.7280567072
 21
107.7268312307
 31
0.0
  0
ELLIPSE
  5
D3
330
1F
100
AcDbEntity
  8
0
  6
HIDDEN
 62
     7
370
     0
100
AcDbEllipse
 10
180.7883640864
 20
107.3565298618
 30
0.0
 11
0.9939277096388822
 21
0.2889804660132143
 31
0.0
210
0.0
220
0.0
230
1.0
 40
0.3807697882
 41
0.2388075556227158
 42
0.3382325741834046
  0
ELLIPSE
  5
D4
330
1F
100
AcDbEntity
  8
0
  6
HIDDEN
 62
     7
370
     0
100
AcDbEllipse
 10
180.7883640864
 20
107.3565298618
 30
0.0
 11
-0.8913500669656004
 21
1.707021392749383
 31
0.0
210
0.0
220
0.0
230
0.9999999999999999
 40
0.2655594297
 41
5.706469373208566
 42
5.805894391769242
  0
LINE
  5
D5
330
1F
100
AcDbEntity
  8
0
  6
HIDDEN
 62
     7
370
     0
100
AcDbLine
 10
180.2883640864
 20
108.9165238515
 30
0.0
 11
180.2883640864
 21
108.656051585
 31
0.0
  0
ARC
  5
D6
330
1F
100
AcDbEntity
  8
0
  6
HIDDEN
 62
     7
370
     0
100
AcDbCircle
 10
180.7901987089
 20
107.7973809785
 30
0.0
 40
0.9945618124722259
100
AcDbArc
 50
340.5592421615
 51
120.3033839282
  0
ARC
  5
D7
330
1F
100
AcDbEntity
  8
0
  6
HIDDEN
 62
     7
370
     0
100
AcDbCircle
 10
180.7895460782
 20
107.7859073917
 30
0.0
 40
0.9883705797591268
100
AcDbArc
 50
269.9314799913
 51
128.0537747874
  0
ARC
  5
D8
330
1F
100
AcDbEntity
  8
0
  6
HIDDEN
 62
     7
370
     0
100
AcDbCircle
 10
180.7783673257
 20
107.7862860243
 30
0.0
 40
0.9887990405255573
100
AcDbArc
 50
168.5816003226
 51
270.5792703392
  0
LINE
  5
D9
330
1F
100
AcDbEntity
  8
0
  6
HIDDEN
 62
     7
370
     0
100
AcDbLine
 10
186.2222632592
 20
108.5072420085
 30
0.0
 11
186.3057567606
 21
108.5563277623
 31
0.0
  0
ELLIPSE
  5
DA
330
1F
100
AcDbEntity
  8
0
  6
HIDDEN
 62
     7
370
     0
100
AcDbEllipse
 10
180.3408272978
 20
106.2768479528
 30
0.0
 11
-0.1313207608529297
 21
7.080728918366077
 31
0.0
210
0.0
220
0.0
230
0.9999999999999999
 40
0.1199594733
 41
6.19087345217156
 42
6.288645549473815
  0
LINE
  5
DB
330
1F
100
AcDbEntity
  8
0
  6
HIDDEN
 62
     7
370
     0
100
AcDbLine
 10
180.2883640864
 20
113.3288812888
 30
0.0
 11
180.2883640864
 21
108.9165238515
 31
0.0
  0
LINE
  5
DC
330
1F
100
AcDbEntity
  8
0
  6
HIDDEN
 62
     7
370
     0
100
AcDbLine
 10
186.0380864178
 20
108.2147877692
 30
0.0
 11
186.2222632592
 21
108.5072420085
 31
0.0
  0
LINE
  5
DD
330
1F
100
AcDbEntity
  8
0
  6
HIDDEN
 62
     7
370
     0
100
AcDbLine
 10
181.7280567072
 20
107.7268312307
 30
0.0
 11
186.2222632592
 21
108.5072420085
 31
0.0
  0
LINE
  5
DE
330
1F
100
AcDbEntity
  8
0
  6
HIDDEN
 62
     7
370
     0
100
AcDbLine
 10
180.2883640864
 20
112.9987782744
 30
0.0
 11
180.2883640864
 21
113.3288812888
 31
0.0
  0
ELLIPSE
  5
DF
330
1F
100
AcDbEntity
  8
0
  6
HIDDEN
 62
     7
370
     0
100
AcDbEllipse
 10
186.1698000478
 20
107.2890384485
 30
0.0
 11
0.1668098351824483
 21
7.131777698326046
 31
0.0
210
0.0
220
0.0
230
1.0
 40
0.1182242913
 41
0.3491712664783206
 42
1.27521972895862
  0
CIRCLE
  5
E0
330
1F
100
AcDbEntity
  8
0
  6
HIDDEN
 62
     7
370
     0
100
AcDbCircle
 10
183.2781325653
 20
110.7509450181
 30
0.0
 40
1.341383676926435
  0
LINE
  5
E1
330
1F
100
AcDbEntity
  8
0
  6
HIDDEN
 62
     7
370
     0
100
AcDbLine
 10
186.0380864178
 20
113.9972070794
 30
0.0
 11
180.2883640864
 21
112.9987782744
 31
0.0
  0
LINE
  5
E2
330
1F
100
AcDbEntity
  8
0
  6
HIDDEN
 62
     7
370
     0
100
AcDbLine
 10
180.2883640864
 20
112.9987782744
 30
0.0
 11
180.2883640864
 21
108.656051585
 31
0.0
  0
LINE
  5
E3
330
1F
100
AcDbEntity
  8
0
  6
HIDDEN
 62
     7
370
     0
100
AcDbLine
 10
181.7280567072
 20
107.4663589642
 30
0.0
 11
186.0380864178
 21
108.2147877692
 31
0.0
  0
LINE
  5
E4
330
1F
100
AcDbEntity
  8
0
  6
HIDDEN
 62
     7
370
     0
100
AcDbLine
 10
186.0380864178
 20
113.9972070794
 30
0.0
 11
186.0380864178
 21
108.2147877692
 31
0.0
  0
CIRCLE
  5
E5
330
1F
100
AcDbEntity
  8
0
  6
HIDDEN
 62
     7
370
     0
100
AcDbCircle
 10
183.2851804355
 20
110.6910732732
 30
0.0
 40
1.019638350764337
  0
ARC
  5
E6
330
1F
100
AcDbEntity
  8
0
  6
HIDDEN
 62
     7
370
     0
100
AcDbCircle
 10
183.2881082569
 20
109.8782351457
 30
0.0
 40
1.036273873594397
100
AcDbArc
 50
244.86169155
 51
314.8404606832
  0
SPLINE
  5
E7
330
1F
100
AcDbEntity
  8
0
  6
HIDDEN
 62
     7
370
     0
100
AcDbSpline
210
0.0
220
0.0
230
1.0
 70
     8
 71
     3
 72
    34
 73
    30
 74
     0
 42
0.00000001
 43
0.00000001
 40
0.0
 40
0.0
 40
0.0
 40
0.0
 40
0.0624999999999989
 40
0.0624999999999989
 40
0.1249999999999978
 40
0.1249999999999978
 40
0.2499999999999983
 40
0.2499999999999983
 40
0.3749999999999989
 40
0.3749999999999989
 40
0.437499999999999
 40
0.437499999999999
 40
0.4999999999999991
 40
0.4999999999999991
 40
0.5624999999999992
 40
0.5624999999999992
 40
0.6249999999999993
 40
0.6249999999999993
 40
0.6874999999999994
 40
0.6874999999999994
 40
0.7499999999999994
 40
0.7499999999999994
 40
0.8124999999999996
 40
0.8124999999999996
 40
0.8749999999999997
 40
0.8749999999999997
 40
0.9374999999999998
 40
0.9374999999999998
 40
1.0
 40
1.0
 40
1.0
 40
1.0
 10
182.8478941423908
 20
108.9401119798104
 30
0.0
 10
182.7403951909125
 20
108.9969038229726
 30
0.0
 10
182.6439308115142
 20
109.0734349164056
 30
0.0
 10
182.4848158987286
 20
109.2485612739148
 30
0.0
 10
182.4204882623146
 20
109.3486631819293
 30
0.0
 10
182.2779767879283
 20
109.6617712599162
 30
0.0
 10
182.246858935676
 20
109.891932903006
 30
0.0
 10
182.2960644829223
 20
110.328494968726
 30
0.0
 10
182.3744253887598
 20
110.5399566797082
 30
0.0
 10
182.5823267858982
 20
110.8113054817404
 30
0.0
 10
182.6670010374959
 20
110.8936895117724
 30
0.0
 10
182.8707702067072
 20
111.0268913714952
 30
0.0
 10
182.9895388052439
 20
111.0755730910547
 30
0.0
 10
183.2351481028905
 20
111.1176444415322
 30
0.0
 10
183.3616573167779
 20
111.1111104308716
 30
0.0
 10
183.5940807506674
 20
111.052680344996
 30
0.0
 10
183.6976018117166
 20
111.0032807202629
 30
0.0
 10
183.8832353165463
 20
110.8773471855994
 30
0.0
 10
183.9624025870291
 20
110.8028904041479
 30
0.0
 10
184.0998256490654
 20
110.6344240947492
 30
0.0
 10
184.1569868879327
 20
110.5409671050837
 30
0.0
 10
184.2460209484803
 20
110.3423627651152
 30
0.0
 10
184.2785898612051
 20
110.2350428510393
 30
0.0
 10
184.3146051755001
 20
110.0158833088143
 30
0.0
 10
184.3187897422553
 20
109.9032246094509
 30
0.0
 10
184.2934301275726
 20
109.6711509929151
 30
0.0
 10
184.2644991759388
 20
109.5573767233101
 30
0.0
 10
184.1683203379121
 20
109.3364727512489
 30
0.0
 10
184.1025772616587
 20
109.2336589394449
 30
0.0
 10
184.018821352208
 20
109.1434413559758
 30
0.0
  0
SPLINE
  5
E8
330
1F
100
AcDbEntity
  8
0
  6
HIDDEN
 62
     7
370
     0
100
AcDbSpline
210
0.0
220
0.0
230
1.0
 70
     8
 71
     3
 72
     8
 73
     4
 74
     0
 42
0.00000001
 43
0.00000001
 40
0.0
 40
0.0
 40
0.0
 40
0.0
 40
1.0
 40
1.0
 40
1.0
 40
1.0
 10
177.7609249527761
 20
111.418990417008
 30
0.0
 10
177.9209681567502
 20
111.1322379781889
 30
0.0
 10
178.099476591679
 20
110.8389133663985
 30
0.0
 10
178.2818694857769
 20
110.5386873283363
 30
0.0
  0
SPLINE
  5
E9
330
1F
100
AcDbEntity
  8
0
  6
HIDDEN
 62
     7
370
     0
100
AcDbSpline
210
0.0
220
0.0
230
1.0
 70
     8
 71
     3
 72
    12
 73
     8
 74
     0
 42
0.00000001
 43
0.00000001
 40
0.0
 40
0.0
 40
0.0
 40
0.0
 40
0.5000000000000001
 40
0.5000000000000001
 40
0.75
 40
0.75
 40
1.0
 40
1.0
 40
1.0
 40
1.0
 10
179.136137594915
 20
109.6508043949524
 30
0.0
 10
179.5205896056476
 20
109.5406830741849
 30
0.0
 10
179.8961778717099
 20
109.409053570728
 30
0.0
 10
180.4435546832931
 20
109.1688040149507
 30
0.0
 10
180.6233446740802
 20
109.081556784656
 30
0.0
 10
180.9771537591916
 20
108.8905860080143
 30
0.0
 10
181.1518138097785
 20
108.78635940044
 30
0.0
 10
181.3203409717642
 20
108.6748551554417
 30
0.0
  0
SPLINE
  5
EA
330
1F
100
AcDbEntity
  8
0
  6
HIDDEN
 62
     7
370
     0
100
AcDbSpline
210
0.0
220
0.0
230
1.0
 70
     8
 71
     3
 72
    14
 73
    10
 74
     0
 42
0.00000001
 43
0.00000001
 40
0.0
 40
0.0
 40
0.0
 40
0.0
 40
0.5000000000000113
 40
0.5000000000000113
 40
0.7500000000000162
 40
0.7500000000000162
 40
0.8750000000000081
 40
0.8750000000000081
 40
1.0
 40
1.0
 40
1.0
 40
1.0
 10
178.2818694857769
 20
110.5386873283363
 30
0.0
 10
178.3848834733739
 20
110.3691221623566
 30
0.0
 10
178.4979854253543
 20
110.2004248401268
 30
0.0
 10
178.6990411390435
 20
109.9622150524254
 30
0.0
 10
178.7717934956885
 20
109.8847046363776
 30
0.0
 10
178.8951621446183
 20
109.7803916215825
 30
0.0
 10
178.938357510324
 20
109.7479345637435
 30
0.0
 10
179.0314931037178
 20
109.6910639318251
 30
0.0
 10
179.081827566369
 20
109.6663608022735
 30
0.0
 10
179.1361375949149
 20
109.6508043949524
 30
0.0
  0
LINE
  5
EB
330
1F
100
AcDbEntity
  8
0
  6
HIDDEN
 62
     7
370
     0
100
AcDbLine
 10
179.0158652618
 20
106.4283395128
 30
0.0
 11
179.0158652618
 21
103.1187532629
 31
0.0
  0
SPLINE
  5
EC
330
1F
100
AcDbEntity
  8
0
  6
HIDDEN
 62
     7
370
     0
100
AcDbSpline
210
0.0
220
0.0
230
1.0
 70
     8
 71
     3
 72
    18
 73
    14
 74
     0
 42
0.00000001
 43
0.00000001
 40
0.0
 40
0.0
 40
0.0
 40
0.0
 40
0.1250000000000024
 40
0.1250000000000024
 40
0.2500000000000048
 40
0.2500000000000048
 40
0.3750000000000072
 40
0.3750000000000072
 40
0.5000000000000095
 40
0.5000000000000095
 40
0.7500000000000048
 40
0.7500000000000048
 40
1.0
 40
1.0
 40
1.0
 40
1.0
 10
179.015865261787
 20
106.4283395128379
 30
0.0
 10
179.015865261787
 20
106.5698376593187
 30
0.0
 10
179.0443297598282
 20
106.7069777961269
 30
0.0
 10
179.1459946699761
 20
106.9702882615616
 30
0.0
 10
179.2163386382371
 20
107.090949887455
 30
0.0
 10
179.3815814424198
 20
107.3184378944766
 30
0.0
 10
179.475983370636
 20
107.4240371306268
 30
0.0
 10
179.6753765201345
 20
107.6203812846024
 30
0.0
 10
179.7812084177707
 20
107.7120177725167
 30
0.0
 10
180.1112119624838
 20
107.9736033768487
 30
0.0
 10
180.3471470008914
 20
108.1299285647347
 30
0.0
 10
180.8263071103671
 20
108.4175276036034
 30
0.0
 10
181.0715741776902
 20
108.5497527517139
 30
0.0
 10
181.3203409717642
 20
108.6748551554417
 30
0.0
  0
LINE
  5
ED
330
1F
100
AcDbEntity
  8
0
  6
HIDDEN
 62
     7
370
     0
100
AcDbLine
 10
184.0188213522
 20
109.143441356
 30
0.0
 11
185.4118046952
 21
109.385330375
 31
0.0
  0
LINE
  5
EE
330
1F
100
AcDbEntity
  8
0
  6
HIDDEN
 62
     7
370
     0
100
AcDbLine
 10
181.3203409718
 20
108.6748551554
 30
0.0
 11
182.8478941424
 21
108.9401119798
 31
0.0
  0
LINE
  5
EF
330
1F
100
AcDbEntity
  8
0
  6
HIDDEN
 62
     7
370
     0
100
AcDbLine
 10
185.4118046952
 20
109.385330375
 30
0.0
 11
185.4118046952
 21
107.2814837594
 31
0.0
  0
LINE
  5
F0
330
1F
100
AcDbEntity
  8
0
  6
HIDDEN
 62
     7
370
     0
100
AcDbLine
 10
173.7654568155
 20
110.3230244474
 30
0.0
 11
171.0312141527
 21
108.9894451957
 31
0.0
  0
LINE
  5
F1
330
1F
100
AcDbEntity
  8
0
  6
HIDDEN
 62
     7
370
     0
100
AcDbLine
 10
171.4489985906
 20
105.8554064596
 30
0.0
 11
176.2010052001
 21
108.1731149442
 31
0.0
  0
LINE
  5
F2
330
1F
100
AcDbEntity
  8
0
  6
HIDDEN
 62
     7
370
     0
100
AcDbLine
 10
96.5303136728
 20
105.2549582144
 30
0.0
 11
97.8293517785
 21
106.0049582144
 31
0.0
  0
LINE
  5
F3
330
1F
100
AcDbEntity
  8
0
  6
HIDDEN
 62
     7
370
     0
100
AcDbLine
 10
97.8293517785
 20
109.0049582144
 30
0.0
 11
96.5303136728
 21
109.7549582144
 31
0.0
  0
LINE
  5
F4
330
1F
100
AcDbEntity
  8
0
  6
HIDDEN
 62
     7
370
     0
100
AcDbLine
 10
97.8293517785
 20
106.0049582144
 30
0.0
 11
171.3656740901
 21
106.0049582144
 31
0.0
  0
LINE
  5
F5
330
1F
100
AcDbEntity
  8
0
  6
HIDDEN
 62
     7
370
     0
100
AcDbLine
 10
171.1101947972
 20
109.0049582144
 30
0.0
 11
97.8293517785
 21
109.0049582144
 31
0.0
  0
LINE
  5
F6
330
1F
100
AcDbEntity
  8
0
  6
HIDDEN
 62
     7
370
     0
100
AcDbLine
 10
179.7883640864
 20
108.1817360804
 30
0.0
 11
179.7883640864
 21
107.7823452717
 31
0.0
  0
LINE
  5
F7
330
1F
100
AcDbEntity
  8
0
  6
HIDDEN
 62
     7
370
     0
100
AcDbLine
 10
181.7883640864
 20
107.7823452717
 30
0.0
 11
181.7883640864
 21
107.803183053
 31
0.0
  0
LINE
  5
F8
330
1F
100
AcDbEntity
  8
0
  6
HIDDEN
 62
     7
370
     0
100
AcDbLine
 10
182.2633640864
 20
110.6808678395
 30
0.0
 11
182.2633640864
 21
109.9663086886
 31
0.0
  0
LINE
  5
F9
330
1F
100
AcDbEntity
  8
0
  6
HIDDEN
 62
     7
370
     0
100
AcDbLine
 10
184.3133640864
 20
109.9219472139
 30
0.0
 11
184.3133640864
 21
110.6808678395
 31
0.0
  0
LINE
  5
FA
330
1F
100
AcDbEntity
  8
VERMASSUNG
100
AcDbLine
 10
188.2975148357
 20
107.5049582144
 30
0.0
 11
171.3628223584
 21
107.5049582144
 31
0.0
  0
LINE
  5
FB
330
1F
100
AcDbEntity
  8
VERMASSUNG
100
AcDbLine
 10
135.6321397028
 20
114.8799582144
 30
0.0
 11
135.6321397028
 21
100.1299582144
 31
0.0
  0
POINT
  5
FC
330
1F
100
AcDbEntity
  8
VERMASSUNG
100
AcDbPoint
 10
186.5303136728
 20
114.8799582144
 30
0.0
  0
DIMENSION
  5
FD
330
1F
100
AcDbEntity
  8
VERMASSUNG
100
AcDbDimension
  2
*D1
 10
193.1506164774
 20
100.1299582144
 30
0.0
 11
193.1506164774
 21
103.6923135593
 31
0.0
 70
   160
  1
%%c<>-20.1
 71
     2
 42
-1.0
  3
SLDDIMSTYLE0
100
AcDbAlignedDimension
 13
186.5303136728
 23
114.8799582144
 33
0.0
 14
186.5303136728
 24
100.1299582144
 34
0.0
 50
90.0
100
AcDbRotatedDimension
  0
DIMENSION
  5
108
330
1F
100
AcDbEntity
  8
VERMASSUNG
100
AcDbDimension
  2
*D2
 10
96.5303136728
 20
128.1781895044
 30
0.0
 11
138.7428429957
 21
128.1781895044
 31
0.0
 70
   160
 71
     2
 42
-1.0
  3
SLDDIMSTYLE1
100
AcDbAlignedDimension
 13
186.5303136728
 23
114.8799582144
 33
0.0
 14
96.5303136728
 24
113.7049582144
 34
0.0
100
AcDbRotatedDimension
  0
DIMENSION
  5
113
330
1F
100
AcDbEntity
  8
VERMASSUNG
100
AcDbDimension
  2
*D3
 10
135.6321397028
 20
121.2116561895
 30
0.0
 11
161.8806149781
 21
121.2116561895
 31
0.0
 70
   160
 71
     2
 42
-1.0
  3
SLDDIMSTYLE2
100
AcDbAlignedDimension
 13
186.5303136728
 23
114.8799582144
 33
0.0
 14
135.6321397028
 24
114.8799582144
 34
0.0
100
AcDbRotatedDimension
  0
DIMENSION
  5
11E
330
1F
100
AcDbEntity
  8
VERMASSUNG
100
AcDbDimension
  2
*D4
 10
90.2222566941
 20
99.5049582144
 30
0.0
 11
90.2222566941
 21
106.9902415865
 31
0.0
 70
   160
  1
%%c<>
 71
     2
 42
-1.0
  3
SLDDIMSTYLE1
100
AcDbAlignedDimension
 13
107.8303136728
 23
115.5049582144
 33
0.0
 14
97.9053136728
 24
99.5049582144
 34
0.0
 50
90.0
100
AcDbRotatedDimension
  0
OLE2FRAME
  5
129
330
1F
100
AcDbEntity
  8
0
100
AcDbOle2Frame
 70
     2
  3
Paintbrush-Bild
 10
13.8511154363
 20
38.264191557
 30
0.0
 11
51.6290888628
 21
31.9806341108
 31
0.0
 71
     2
 72
     0
 73
     1
 90
    12928
310
80552BED0767C5B32B40DDAF6807D121434000000000000000006FFBDDFB85D0
310
4940DDAF6807D121434000000000000000006FFBDDFB85D04940416F4BD60AFB
310
3F4000000000000000002BED0767C5B32B40416F4BD60AFB3F40000000000000
310
0000000000000100000000010000010000000100000000000100000000320000
310
D0CF11E0A1B11AE1000000000000000000000000000000003E000300FEFF0900
310
0600000000000000000000000100000001000000000000000010000002000000
310
01000000FEFFFFFF0000000000000000FFFFFFFFFFFFFFFFFFFFFFFFFFFFFFFF
310
FFFFFFFFFFFFFFFFFFFFFFFFFFFFFFFFFFFFFFFFFFFFFFFFFFFFFFFFFFFFFFFF
310
FFFFFFFFFFFFFFFFFFFFFFFFFFFFFFFFFFFFFFFFFFFFFFFFFFFFFFFFFFFFFFFF
310
FFFFFFFFFFFFFFFFFFFFFFFFFFFFFFFFFFFFFFFFFFFFFFFFFFFFFFFFFFFFFFFF
310
FFFFFFFFFFFFFFFFFFFFFFFFFFFFFFFFFFFFFFFFFFFFFFFFFFFFFFFFFFFFFFFF
310
FFFFFFFFFFFFFFFFFFFFFFFFFFFFFFFFFFFFFFFFFFFFFFFFFFFFFFFFFFFFFFFF
310
FFFFFFFFFFFFFFFFFFFFFFFFFFFFFFFFFFFFFFFFFFFFFFFFFFFFFFFFFFFFFFFF
310
FFFFFFFFFFFFFFFFFFFFFFFFFFFFFFFFFFFFFFFFFFFFFFFFFFFFFFFFFFFFFFFF
310
FFFFFFFFFFFFFFFFFFFFFFFFFFFFFFFFFFFFFFFFFFFFFFFFFFFFFFFFFFFFFFFF
310
FFFFFFFFFFFFFFFFFFFFFFFFFFFFFFFFFFFFFFFFFFFFFFFFFFFFFFFFFFFFFFFF
310
FFFFFFFFFFFFFFFFFFFFFFFFFFFFFFFFFFFFFFFFFFFFFFFFFFFFFFFFFFFFFFFF
310
FFFFFFFFFFFFFFFFFFFFFFFFFFFFFFFFFFFFFFFFFFFFFFFFFFFFFFFFFFFFFFFF
310
FFFFFFFFFFFFFFFFFFFFFFFFFFFFFFFFFFFFFFFFFFFFFFFFFFFFFFFFFFFFFFFF
310
FFFFFFFFFFFFFFFFFFFFFFFFFFFFFFFFFFFFFFFFFFFFFFFFFFFFFFFFFFFFFFFF
310
FDFFFFFFFEFFFFFFFEFFFFFFFEFFFFFF05000000060000000700000008000000
310
090000000A0000000B0000000C0000000D0000000E0000000F00000010000000
310
11000000120000001300000014000000150000001600000017000000FEFFFFFF
310
FFFFFFFFFFFFFFFFFFFFFFFFFFFFFFFFFFFFFFFFFFFFFFFFFFFFFFFFFFFFFFFF
310
FFFFFFFFFFFFFFFFFFFFFFFFFFFFFFFFFFFFFFFFFFFFFFFFFFFFFFFFFFFFFFFF
310
FFFFFFFFFFFFFFFFFFFFFFFFFFFFFFFFFFFFFFFFFFFFFFFFFFFFFFFFFFFFFFFF
310
FFFFFFFFFFFFFFFFFFFFFFFFFFFFFFFFFFFFFFFFFFFFFFFFFFFFFFFFFFFFFFFF
310
FFFFFFFFFFFFFFFFFFFFFFFFFFFFFFFFFFFFFFFFFFFFFFFFFFFFFFFFFFFFFFFF
310
FFFFFFFFFFFFFFFFFFFFFFFFFFFFFFFFFFFFFFFFFFFFFFFFFFFFFFFFFFFFFFFF
310
FFFFFFFFFFFFFFFFFFFFFFFFFFFFFFFFFFFFFFFFFFFFFFFFFFFFFFFFFFFFFFFF
310
FFFFFFFFFFFFFFFFFFFFFFFFFFFFFFFFFFFFFFFFFFFFFFFFFFFFFFFFFFFFFFFF
310
FFFFFFFFFFFFFFFFFFFFFFFFFFFFFFFFFFFFFFFFFFFFFFFFFFFFFFFFFFFFFFFF
310
FFFFFFFFFFFFFFFFFFFFFFFFFFFFFFFFFFFFFFFFFFFFFFFFFFFFFFFFFFFFFFFF
310
FFFFFFFFFFFFFFFFFFFFFFFFFFFFFFFFFFFFFFFFFFFFFFFFFFFFFFFFFFFFFFFF
310
FFFFFFFFFFFFFFFFFFFFFFFFFFFFFFFFFFFFFFFFFFFFFFFFFFFFFFFFFFFFFFFF
310
FFFFFFFFFFFFFFFFFFFFFFFFFFFFFFFFFFFFFFFFFFFFFFFFFFFFFFFFFFFFFFFF
310
52006F006F007400200045006E00740072007900000000000000000000000000
310
0000000000000000000000000000000000000000000000000000000000000000
310
16000500FFFFFFFFFFFFFFFF020000000A00030000000000C000000000000046
310
000000000000000000000000103E2C11C2F7CC0103000000C000000000000000
310
01004F006C006500000000000000000000000000000000000000000000000000
310
0000000000000000000000000000000000000000000000000000000000000000
310
0A000200FFFFFFFFFFFFFFFFFFFFFFFF00000000000000000000000000000000
310
0000000000000000000000000000000000000000000000001400000000000000
310
010043006F006D0070004F0062006A0000000000000000000000000000000000
310
0000000000000000000000000000000000000000000000000000000000000000
310
120002010100000003000000FFFFFFFF00000000000000000000000000000000
310
0000000000000000000000000000000000000000010000004D00000000000000
310
01004F006C006500310030004E00610074006900760065000000000000000000
310
0000000000000000000000000000000000000000000000000000000000000000
310
1A000200FFFFFFFFFFFFFFFFFFFFFFFF00000000000000000000000000000000
310
0000000000000000000000000000000000000000040000002426000000000000
310
FEFFFFFF02000000FEFFFFFFFFFFFFFFFFFFFFFFFFFFFFFFFFFFFFFFFFFFFFFF
310
FFFFFFFFFFFFFFFFFFFFFFFFFFFFFFFFFFFFFFFFFFFFFFFFFFFFFFFFFFFFFFFF
310
FFFFFFFFFFFFFFFFFFFFFFFFFFFFFFFFFFFFFFFFFFFFFFFFFFFFFFFFFFFFFFFF
310
FFFFFFFFFFFFFFFFFFFFFFFFFFFFFFFFFFFFFFFFFFFFFFFFFFFFFFFFFFFFFFFF
310
FFFFFFFFFFFFFFFFFFFFFFFFFFFFFFFFFFFFFFFFFFFFFFFFFFFFFFFFFFFFFFFF
310
FFFFFFFFFFFFFFFFFFFFFFFFFFFFFFFFFFFFFFFFFFFFFFFFFFFFFFFFFFFFFFFF
310
FFFFFFFFFFFFFFFFFFFFFFFFFFFFFFFFFFFFFFFFFFFFFFFFFFFFFFFFFFFFFFFF
310
FFFFFFFFFFFFFFFFFFFFFFFFFFFFFFFFFFFFFFFFFFFFFFFFFFFFFFFFFFFFFFFF
310
FFFFFFFFFFFFFFFFFFFFFFFFFFFFFFFFFFFFFFFFFFFFFFFFFFFFFFFFFFFFFFFF
310
FFFFFFFFFFFFFFFFFFFFFFFFFFFFFFFFFFFFFFFFFFFFFFFFFFFFFFFFFFFFFFFF
310
FFFFFFFFFFFFFFFFFFFFFFFFFFFFFFFFFFFFFFFFFFFFFFFFFFFFFFFFFFFFFFFF
310
FFFFFFFFFFFFFFFFFFFFFFFFFFFFFFFFFFFFFFFFFFFFFFFFFFFFFFFFFFFFFFFF
310
FFFFFFFFFFFFFFFFFFFFFFFFFFFFFFFFFFFFFFFFFFFFFFFFFFFFFFFFFFFFFFFF
310
FFFFFFFFFFFFFFFFFFFFFFFFFFFFFFFFFFFFFFFFFFFFFFFFFFFFFFFFFFFFFFFF
310
FFFFFFFFFFFFFFFFFFFFFFFFFFFFFFFFFFFFFFFFFFFFFFFFFFFFFFFFFFFFFFFF
310
FFFFFFFFFFFFFFFFFFFFFFFFFFFFFFFFFFFFFFFFFFFFFFFFFFFFFFFFFFFFFFFF
310
0100000200000000000000000000000000000000000000000000000000000000
310
0000000000000000000000000000000000000000000000000000000000000000
310
0100FEFF030A0000FFFFFFFF0A00030000000000C00000000000004607000000
310
5042727573680007000000504272757368000700000050427275736800F439B2
310
7100000000000000000000000000000000000000000000000000000000000000
310
0000000000000000000000000000000000000000000000000000000000000000
310
0000000000000000000000000000000000000000000000000000000000000000
310
0000000000000000000000000000000000000000000000000000000000000000
310
0000000000000000000000000000000000000000000000000000000000000000
310
0000000000000000000000000000000000000000000000000000000000000000
310
0000000000000000000000000000000000000000000000000000000000000000
310
0000000000000000000000000000000000000000000000000000000000000000
310
0000000000000000000000000000000000000000000000000000000000000000
310
0000000000000000000000000000000000000000000000000000000000000000
310
0000000000000000000000000000000000000000000000000000000000000000
310
0000000000000000000000000000000000000000000000000000000000000000
310
20260000424D0E260000000000003E00000028000000B40200006E0000000100
310
01000000000000000000130B0000130B00000200000002000000000000FFFFFF
310
FFFFFFFFFFFFFFFFFFFFFFFFFFFFFFFFFFFFFFFFFFFFFFFFFFFFFFFFFFFFFFFF
310
FFFFFFFFFFFFFFFFFFFFFFFFFFFFFFFFFFFFFFFFFFFFFFFFFFFFFFFFFFFFFFFF
310
FFFFFFFFFFFFFFFFFFFFFFFFFFFFFFFFFFFFFFFFFFFFFFFFF000FFFFFFFFFFFF
310
FFFFFFFFFFFFFFFFFFFFFFFFFFFFFFFFFFFFFFFFFFFFFFFFFFFFFFFFFFFFFFFF
310
FFFFFFFFFFFFFFFFFFFFFFFFFFFFFFFFFFFFFFFFFFFFFFFFFFFFFFFFFFFFFFFF
310
FFFFFFFFFFFFFFFFFFFFFFFFFFFFFFFFF000FFFFFFFFFFFFFFFFFFFFFFFFFFFF
310
FFFFFFFFFFFFFFFFFFFFFFFFFFFFFFFFFFFFFFFFFFFFFFFFFFFFFFFFFFFFFFFF
310
FFFFFFFFFFFFFFFFFFFFFFFFFFFFFFFFFFFFFFFFFFFFFFFFFFFFFFFFFFFFFFFF
310
FFFFFFFFFFFFFFFFF000FFFFFFFFFFFFFFFFFFFFFFFFFFFFFFFFFFFFFFFFFFFF
310
FFFFFFFFFFFFFFFFFFFFFFFFFFFFFFFFFFFFFFFFFFFFFFFFFFFFFFFFFFFFFFFF
310
FFFFFFFFFFFFFFFFFFFFFFFFFFFFFFFFFFFFFFFFFFFFFFFFFFFFFFFFFFFFFFFF
310
F000FFFFFFFFFFFFFFFFFFFFFFFFFFFFFFFFFFFFFFFFFFFFFFFFFFFFFFFFFFFF
310
FFFFFFFFFFFFFFFFFFFFFFFFFFFFFFFFFFFFFFFFFFFFFFFFFFFFFFFFFFFFFFFF
310
FFFFFFFFFFFFFFFFFFFFFFFFFFFFFFFFFFFFFFFFFFFFFFFFF000FFFFFFFFFFFF
310
FFFFFFFFFFFFFFFFFFFFFFFFFFFFFFFFFFFFFFFFFFFFFFFFFFFFFFFFFFFFFFFF
310
FFFFFFFFFFFFFFFFFFFFFFFFFFFFFFFFFFFFFFFFFFFFFFFFFFFFFFFFFFFFFFFF
310
FFFFFFFFFFFFFFFFFFFFFFFFFFFFFFFFF000FFFFFFFFFFFFFFFFFFFFFFFFFFFF
310
FFFFFFFFFFFFFFFFFFFFFFFFFFFFFFFFFFFFFFFFFFFFFFFFFFFFFFFFFFFFFFFF
310
FFFFFFFFFFFFFFFFFFFFFFFFFFFFFFFFFFFFFFFFFFFFFFFFFFFFFFFFFFFFFFFF
310
FFFFFFFFFFFFFFFFF000FFFFFFFFFFFFFFFFFFFFFFFFFFFFFFFFFFFFFFFFFFFF
310
FFFFFFFFFFFFFFFFFFFFFFFFFFFFFFFFFFFFFFFFFFFFFFFFFFFFFFFFFFFFFFFF
310
FFFFFFFFFFFFFFFFFFFFFFFFFFFFFFFFFFFFFFFFFFFFFFFFFFFFFFFFFFFFFFFF
310
F000FFFFFFFFFFFFFFFFFFFFFFFFFFFFFFFFFFFFFFFFFFFFFFFFFFFFFFFFFFFF
310
FFFFFFFFFFFFFFFFFFFFFFFFFFFFFFFFFFFFFFFFFFFFFFFFFFFFFFFFFFFFFFFF
310
FFFFFFFFFFFFFFFFFFFFFFFFFFFFFFFFFFFFFFFFFFFFFFFFF000FFFFFFFFFFFF
310
FFFFFFFFFFFFFFFFFFFFFFFFFFFFFFFFFFFFFFFFFFFFFFFFFFFFFFFFFFFFFFFF
310
FFFFFFFFFFFFFFFFFFFFFFFFFFFFFFFFFFFFFFFFFFFFFFFFFFFFFFFFFFFFFFFF
310
FFFFFFFFFFFFFFFFFFFFFFFFFFFFFFFFF000FFFFFFFFFFFFFFFFFFFFFFFFFFFF
310
FFFFFFFFFFFFFFFFFFFFFFFFFFFFFFFFFFFFFFFFFFFFFFFFFFFFFFFFFFFFFFFF
310
FFFFFFFFFFFFFFFFFFFFFFFFFFFFFFFFFFFFFFFFFFFFFFFFFFFFFFFFFFFFFFFF
310
FFFFFFFFFFFFFFFFF000FFFFFFFFFFFFFFFFFFFFFFFFFFFFFFFFFFFFFFFFFFFF
310
FFFFFFFFFFFFFFFFFFFFFFFFFFFFFFFFFFFFFFFFFFFFFFFFFFFFFFFFFFFFFFFF
310
FFFFFFFFFFFFFFFFFFFFFFFFFFFFFFFFFFFFFFFFFFFFFFFFFFFFFFFFFFFFFFFF
310
F000FFFFFFFFFFFFFFFFFFFFFFFFFFFFFFFFFFFFFFFFFFFFFFFFFFFFFFFFFFFF
310
FFFFFFFFFFFFFFFFFFFFFFFFFFFFFFFFFFFFFFFFFFFFFFFFFFFFFFFFFFFFFFFF
310
FFFFFFFFFFFFFFFFFFFFFFFFFFFFFFFFFFFFFFFFFFFFFFFFF000FFFFFFFFFFFF
310
FFFFFFFFFFFFFFFFFFFFFFFFFFFFFFFFFFFFFFFFFFFFFFFFFFFFFFFFFFFFFFFF
310
FFFFFFFFFFFFFFFFFFFFFFFFFFFFFFFFFFFFFFFFFFFFFFFFFFFFFFFFFFFFFFFF
310
FFFFFFFFFFFFFFFFFFFFFFFFFFFFFFFFF000FFFFFFFFFFFFFFFFFFFFFFFFFFFF
310
FFFFFFFFFFFFFFFFFFFFFFFFFFFFFFFFFFFFFFFFFFFFFFFFFFFFFFFFFFFFFFFF
310
FFFFFFFFFFFFFFFFFFFFFFFFFFFFFFFFFFFFFFFFFFFFFFFFFFFFFFFFFFFFFFFF
310
FFFFFFFFFFFFFFFFF000FFFFFFFFFFFFFFFFFFFFFFFFFFFFFFFFFFFFFFFFFFFF
310
FFFFFFFFFFFFFFFFFFFFFFFFFFFFFFFFFFFFFFFFFFFFFFFFFFFFFFFFFFFFFFFF
310
FFFFFFFFFFFFFFFFFFFFFFFFFFFFFFFFFFFFFFFFFFFFFFFFFFFFFFFFFFFFFFFF
310
F000FFFFFFFFFFFFFFFFFFFFFFFFFFFFFFFFFFFFFFFFFFFFFFFFFFFFFFFFFFFF
310
FFFFFFFFFFFFFFFFFFFFFFFFFFFFFFFFFFFFFFFFFFFFFFFFFFFFFFFFFFFFFFFF
310
FFFFFFFFFFFFFFFFFFFFFFFFFFFFFFFFFFFFFFFFFFFFFFFFF000FFFFFFFFFFFF
310
FFFFFFFFFFFFFFFFFFFFFFFFFFFFFFFFFFFFFFFFFFFFFFFFFFFFFFFFFFFFFFFF
310
FFFFFFFFFFFFFFFFFFFFFFFFFFFFFFFFFFFFFFFFFFFFFFFFFFFFFFFFFFFFFFFF
310
FFFFFFFFFFFFFFFFFFFFFFFFFFFFFFFFF000FFFFFFFFFFFFFFFFFFFFFFFFFFFF
310
FFFFFFFFFFFFFFFFFFFFFFFFFFFFFFFFFFFFFFFFFFFFFFFFFFFFFFFFFFFFFFFF
310
FFFFFFFFFFFFFFFFFFFFFFFFFFFFFFFFFFFFFFFFFFFFFFFFFFFFFFFFFFFFFFFF
310
FFFFFFFFFFFFFFFFF000FFFFF80003FFFFFFFFFFFFFFFFFFFFFFFFFFFFFFFFFF
310
FFFFF00007FFFFFFFFFF00007FFFFFF800000000000000007FFFFFFFFFFFFFFF
310
FFFFFFFC001FFFFFFFFFFFFFFC001FFFFFFFFFFFFFFFFFFFFFFFFFFE0007FFFF
310
F000FFFF8000007FFFFFFFF8000FFFFFC0007FFFFF80007FFFFF0000007FFFFF
310
FFF8000007FFFFF800000000000000007FFFFFF0001FFFFFFFFFFFC00001FFFF
310
FFFFFFFFC00001FFFFFFFF000000000003FFFFE000007FFFF000FFFE0000000F
310
FFFFFFF0000FFFFF80007FFFFF80007FFFFC0000001FFFFFFFC0000001FFFFF8
310
00000000000000007FFFFFF0001FFFFFFFFFFE0000003FFFFFFFFFFE0000003F
310
FFFFFF000000000003FFFF0000000FFFF000FFF800000003FFFFFFF00007FFFF
310
80007FFFFF80007FFFF000000007FFFFFF000000003FFFF80000000000000000
310
7FFFFFF0001FFFFFFFFFF80000000FFFFFFFFFF80000000FFFFFFF0000000000
310
03FFFC00000003FFF000FFE000000000FFFFFFF00007FFFF80003FFFFF80007F
310
FFC000000001FFFFFC000000001FFFF800000000000000007FFFFFF0001FFFFF
310
FFFFE000000003FFFFFFFFE000000003FFFFFF000000000003FFF000000000FF
310
F000FF80000000007FFFFFF00007FFFF80003FFFFF80007FFF8000000000FFFF
310
F80000000007FFF800000000000000007FFFFFF0001FFFFFFFFFC000000001FF
310
FFFFFFC000000001FFFFFF000000000003FFC0000000007FF000FF0000000000
310
3FFFFFE00007FFFF00003FFFFF80007FFE00000000003FFFF00000000003FFF8
310
00000000000000007FFFFFF0001FFFFFFFFF8000000000FFFFFFFF8000000000
310
FFFFFF000000000003FF80000000003FF000FE00000000001FFFFFE00003FFFF
310
00003FFFFF80007FFC00000000001FFFE00000000001FFF8000001FFFE000000
310
7FFFFFF0001FFFFFFFFE00000000003FFFFFFE00000000003FFFFF0000000000
310
03FF00000000001FF000FC00000000000FFFFFE00003FFFF00001FFFFF80007F
310
F800000000001FFFC00000000000FFF8000001FFFE0000007FFFFFF0001FFFFF
310
FFFC00000000001FFFFFFC00000000001FFFFF000000000003FE00000000000F
310
F000F8000000000007FFFFE00003FFFF00001FFFFF80007FF800000000000FFF
310
800000000000FFF8000001FFFE0000007FFFFFF0001FFFFFFFF800000000000F
310
FFFFF800000000000FFFFF000000000003FC000000000007F000F80000000000
310
03FFFFC00003FFFE00001FFFFF80007FF0000000000007FF0000000000007FF8
310
000001FFFE0000007FFFFFF0001FFFFFFFF0000000000007FFFFF00000000000
310
07FFFF000000000003F8000000000003F000F0000000000003FFFFC00001FFFE
310
00001FFFFF80007FE0000000000007FE0000000000003FF8000001FFFE000000
310
7FFFFFF0001FFFFFFFF0000000000007FFFFF0000000000007FFFF0000000000
310
03F800001F800003F000E00001FFF00001FFFFC00001FFFE00000FFFFF80007F
310
E00001FFE00003FE00001FFF00003FF8000001FFFE0000007FFFFFF0001FFFFF
310
FFE000003E000003FFFFE000003E000003FFFF000000000003F00001FFF80001
310
F000E00007FFFC0001FFFFC00001FFFE00000FFFFF80007FC0000FFFFC0003FC
310
0000FFFFC0001FF8000001FFFE0000007FFFFFF0001FFFFFFFC00003FFE00001
310
FFFFC00003FFE00001FFFF0001FFFFFFFFF00007FFFE0001F000E0000FFFFF00
310
00FFFF800001FFFC00000FFFFF80007FC0001FFFFE0001FC0001FFFFE0001FF8
310
000001FFFE0000007FFFFFF0001FFFFFFF80000FFFF80000FFFF80000FFFF800
310
00FFFF0003FFFFFFFFE0000FFFFF8000F000C0003FFFFF8000FFFF800000FFFC
310
000007FFFF80007F80003FFFFF0001FC0003FFFFF0001FF8000001FFFE000000
310
7FFFFFF0001FFFFFFF80003FFFFE0000FFFF80003FFFFE0000FFFF0003FFFFFF
310
FFE0003FFFFF8000F000C0003FFFFF8000FFFF800000FFFC000007FFFF80007F
310
80007FFFFF8001F80007FFFFF8000FF8000001FFFE0000007FFFFFF0001FFFFF
310
FF00007FFFFF00007FFF00007FFFFF00007FFF0003FFFFFFFFE0003FFFFFC000
310
F000C0007FFFFFC000FFFF000000FFFC000007FFFF80007F8000FFFFFF8000F8
310
000FFFFFF8000FF8000001FFFE0000007FFFFFF0001FFFFFFF0000FFFFFF8000
310
7FFF0000FFFFFF80007FFF0003FFFFFFFFC0007FFFFFC00070008000FFFFFFC0
310
00FFFF000000FFF8000007FFFF80007F8000FFFFFF8000F8000FFFFFF8000FF8
310
000001FFFE0000007FFFFFF0001FFFFFFE0001FFFFFFC0003FFE0001FFFFFFC0
310
003FFF0003FFFFFFFFC0007FFFFFE00070008000FFFFFFC0007FFF0000007FF8
310
000003FFFF80007F0001FFFFFF8000F8000FFFFFF8000FF8000001FFFE000000
310
7FFFFFF0001FFFFFFE0001FFFFFFC0003FFE0001FFFFFFC0003FFF0003FFFFFF
310
FFC000FFFFFFE00070008000FFFFFFC0007FFF0000007FF8000003FFFF80007F
310
0001FFFFFF8000F8001FFFFFF8000FF8000001FFFE0000007FFFFFF0001FFFFF
310
FE0003FFFFFFE0003FFE0003FFFFFFE0003FFF0003FFFFFFFFC000FFFFFFE000
310
70008000FFFFFFC0007FFE0000007FF8000003FFFF80007F0001FFFFFF8000F0
310
001FFFFFF8000FF8000001FFFE0000007FFFFFF0001FFFFFFC0003FFFFFFE000
310
1FFC0003FFFFFFE0001FFF0003FFFFFFFFC000FFFFFFC00070008000FFFFFF80
310
007FFE0000007FF0000003FFFF80007F0001FFFFFF0000F0001FFFFFF8000FF8
310
000001FFFE0000007FFFFFF0001FFFFFFC0007FFFFFFF0001FFC0007FFFFFFF0
310
001FFF0003FFFFFFFFC000FFFFFFC00070008001FFFFFF0000FFFE0000003FF0
310
000001FFFF80007F0001FFFFFF0000F8001FFFFFF0000FF8000001FFFE000000
310
7FFFFFF0001FFFFFFC0007FFFFFFF0001FFC0007FFFFFFF0001FFF0003FFFFFF
310
FFC001FFFFFF80007000FFFFFFFFFE0000FFFE0008003FF0008001FFFF80007F
310
FFFFFFFFFC0000FFFFFFFFFFE0000FF8000001FFFE0000007FFFFFF0001FFFFF
310
F8000FFFFFFFF8000FF8000FFFFFFFF8000FFF0003FFFFFFFFFFFFFFFFFF0000
310
7000FFFFFFFFFC0000FFFC0008003FF0008001FFFF80007FFFFFFFFFF80001FF
310
FFFFFFFF80000FF8000001FFFE0000007FFFFFF0001FFFFFF8000FFFFFFFF800
310
0FF8000FFFFFFFF8000FFF0003FFFFFFFFFFFFFFFFFE0000F000FFFFFFFFE000
310
00FFFC000C003FE000C001FFFF80007FFFFFFFFFC00001FFFFFFFFFE00001FF8
310
000001FFFE0000007FFFFFF0001FFFFFF8000FFFFFFFF8000FF8000FFFFFFFF8
310
000FFF0003FFFFFFFFFFFFFFFFF00000F000FFFFFFFE000001FFFC000C001FE0
310
00C000FFFF80007FFFFFFFFE000001FFFFFFFFE000001FF80FFFFFFFFFFFFFC0
310
7FFFFFF0001FFFFFF8000FFFFFFFF8000FF8000FFFFFFFF8000FFF0003FFFFFF
310
FFFFFFFFFF800000F000FFFFFFC0000001FFFC001C001FE001C000FFFF80007F
310
FFFFFF80000003FFFFFFF80000001FF80FFFFFFFFFFFFFC07FFFFFF0001FFFFF
310
F8001FFFFFFFFC000FF8001FFFFFFFFC000FFF0003FFFFFFFFFFFFFFF0000001
310
F000FFFFF800000001FFF8001C001FE001C000FFFF80007FFFFFF800000003FF
310
FFFF800000003FF80FFFFFFFFFFFFFC07FFFFFF0001FFFFFF8001FFFFFFFFC00
310
0FF8001FFFFFFFFC000FFF0003FFFFFFFFFFFFFE00000001F000FFFFC0000000
310
03FFF8001E001FC001E000FFFF80007FFFFF8000000007FFFFFC000000003FF8
310
0FFFFFFFFFFFFFC07FFFFFF0001FFFFFF8001FFFFFFFFC000FF8001FFFFFFFFC
310
000FFF0003FFFFFFFFFFFFE000000003F000FFFE0000000007FFF8001E000FC0
310
01E0007FFF80007FFFFE0000000007FFFFE0000000007FF80FFFFFFFFFFFFFC0
310
7FFFFFF0001FFFFFF0001FFFFFFFFC0007F0001FFFFFFFFC0007FF0003FFFFFF
310
FFFFFF0000000003F000FFF80000000007FFF8001E000FC003E0007FFF80007F
310
FFF0000000000FFFFF8000000000FFF80FFFFFFFFFFFFFC07FFFFFF0001FFFFF
310
F0001FFFFFFFFC0007F0001FFFFFFFFC0007FF0003FFFFFFFFFFFC0000000007
310
F000FFE0000000000FFFF0003E000FC003E0007FFF80007FFFC0000000001FFF
310
FE0000000001FFF80FFFFFFFFFFFFFC07FFFFFF0001FFFFFF0001FFFFFFFFC00
310
07F0001FFFFFFFFC0007FF0003FFFFFFFFFFF0000000000FF000FFC000000000
310
1FFFF0003F000F8003F0003FFF80007FFF80000000003FFFF80000000003FFF8
310
0FFFFFFFFFFFFFC07FFFFFF0001FFFFFF0001FFFFFFFFC0007F0001FFFFFFFFC
310
0007FF0003FFFFFFFFFFE0000000001FF000FF00000000007FFFF0003F000780
310
03F0003FFF80007FFF00000000007FFFF00000000007FFF80FFFFFFFFFFFFFC0
310
7FFFFFF0001FFFFFF0001FFFFFFFFC0007F0001FFFFFFFFC0007FF0003FFFFFF
310
FFFF80000000007FF000FE0000000000FFFFE0003F00078007F0003FFF80007F
310
FE0000000001FFFFE0000000001FFFF80FFFFFFFFFFFFFC07FFFFFF0001FFFFF
310
F0001FFFFFFFFC0007F0001FFFFFFFFC0007FF0003FFFFFFFFFF0000000000FF
310
F000FC0000000003FFFFE0007F00078007F0003FFF80007FFC0000000007FFFF
310
C0000000007FFFF80FFFFFFFFFFFFFC07FFFFFF0001FFFFFF8001FFFFFFFFC00
310
0FF8001FFFFFFFFC000FFF0003FFFFFFFFFE0000000003FFF000FC000000000F
310
FFFFE0007F80070007F8001FFF80007FF8000000001FFFFF8000000001FFFFF8
310
0FFFFFFFFFFFFFC07FFFFFF0001FFFFFF8001FFFFFFFFC000FF8001FFFFFFFFC
310
000FFF0003FFFFFFFFFC000000000FFFF000F8000000007FFFFFE0007F800700
310
07F8001FFF80007FF000000000FFFFFF800000000FFFFFF80FFFFFFFFFFFFFC0
310
7FFFFFF0001FFFFFF8000FFFFFFFF8000FF8000FFFFFFFF8000FFF0003FFFFFF
310
FFFC000000007FFFF000F800000007FFFFFFC0007F8003000FF8001FFF80007F
310
F000000007FFFFFF000000007FFFFFF80FFFFFFFFFFFFFC07FFFFFF0001FFFFF
310
F8000FFFFFFFF8000FF8000FFFFFFFF8000FFF0003FFFFFFFFF80000000FFFFF
310
F000F0000000FFFFFFFFC000FF8003000FF8001FFF80007FE0000000FFFFFFFF
310
0000000FFFFFFFF8000001FFFE0000007FFFFFF0001FFFFFF8000FFFFFFFF800
310
0FF8000FFFFFFFF8000FFF0003FFFFFFFFF8000000FFFFFFF000F000000FFFFF
310
FFFFC000FFC002000FF8000FFF80007FE000001FFFFFFFFE000001FFFFFFFFF8
310
000001FFFE0000007FFFFFF0001FFFFFF8000FFFFFFFF8000FF8000FFFFFFFF8
310
000FFF0003FFFFFFFFF000001FFFFFFFF000E00000FFFFFFFFFFC000FFC00200
310
0FFC000FFF80007FE00001FFFFFFFFFE00001FFFFFFFFFF8000001FFFE000000
310
7FFFFFF0001FFFFFFC000FFFFFFFF8001FFC000FFFFFFFF8001FFF0003FFFFFF
310
FFF00001FFFFFFFFF000E00007FFFFFFFFFF8000FFC000001FFC000FFF80007F
310
C0000FFFFFFFFFFE0000FFFFFFFFFFF8000001FFFE0000007FFFFFF0001FFFFF
310
FC0007FFFFFFF0001FFC0007FFFFFFF0001FFF0003FFFFFFFFF00007FFFFFFFF
310
F000E0001FFFFFFFFFFF8000FFC000001FFC000FFF80007FC0003FFFFFFFFFFE
310
0001FFFFFFFFFFF8000001FFFE0000007FFFFFF0001FFFFFFC0007FFFFFFF000
310
1FFC0007FFFFFFF0001FFF0003FFFFFFFFF0001FFFFFFFFFF000E0003FFFFF00
310
03FF8001FFE000001FFC0007FF80007FC0007FFFFF0007FC0003FFFFF0003FF8
310
000001FFFE0000007FFFFFF0001FFFFFFC0003FFFFFFE0001FFC0003FFFFFFE0
310
001FFF0003FFFFFFFFF0003FFFFFFFFFF000E0003FFFFF0001FF8001FFE00000
310
1FFE0007FF80007FC0007FFFFE0003FC0007FFFFE0003FF8000001FFFE000000
310
7FFFFFF0001FFFFFFE0003FFFFFFE0003FFE0003FFFFFFE0003FFF0003FFFFFF
310
FFF0003FFFFF8001F000E0003FFFFF0001FF0001FFE000001FFE0007FF80007F
310
C0007FFFFE0003FC0007FFFFE0003FF8000001FFFE0000007FFFFFF0001FFFFF
310
FE0001FFFFFFC0003FFE0001FFFFFFC0003FFF0003FFFFFFFFF0003FFFFF0001
310
F000E0003FFFFF0003FF0001FFE000003FFE0007FF80007FC0007FFFFE0003FC
310
0007FFFFE0003FF8000001FFFE0000007FFFFFF0001FFFFFFF0001FFFFFFC000
310
7FFF0001FFFFFFC0007FFF0003FFFFFFFFF0003FFFFF0001F000E0003FFFFE00
310
03FF0003FFF000003FFE0003FF80007FC0007FFFFC0003FE0007FFFFE0003FF8
310
000001FFFE0000007FFFFFF0001FFFFFFF0000FFFFFF80007FFF0000FFFFFF80
310
007FFF0003FFFFFFFFF0003FFFFF0001F000E0003FFFFE0003FF0003FFF00000
310
3FFF0003FF80007FC0007FFFFC0007FE0007FFFFC0003FF8000001FFFE000000
310
7FFFFFF0001FFFFFFF80007FFFFF0000FFFF80007FFFFF0000FFFF0003FFFFFF
310
FFF0003FFFFF0003F000E0003FFFFC0003FE0003FFF000003FFF0003FF80007F
310
E0003FFFF80007FE0003FFFFC0007FF8000001FFFE0000007FFFFFF0001FFFFF
310
FF80003FFFFE0000FFFF80003FFFFE0000FFFF0003FFFFFFFFF0001FFFFE0003
310
F000F0001FFFF80003FE0003FFF000007FFF0001FF80007FE0003FFFF00007FE
310
0001FFFF80007FF8000001FFFE0000007FFFFFF0001FFFFFFFC0000FFFF80001
310
FFFFC0000FFFF80001FFFF0003FFFFFFFFF0001FFFFC0003F000F0000FFFF000
310
07FE0007FFF800007FFF0001FF80007FE0001FFFE00007FF0000FFFE00007FF8
310
000001FFFE0000007FFFFFF0001FFFFFFFC00003FFE00001FFFFC00003FFE000
310
01FFFF0003FFFFFFFFF8000FFFF80003F000F00003FFC00007FC0007FFF80000
310
7FFF8001FF80007FF00007FF80000FFF00007FF80000FFF8000001FFFE000000
310
7F80000000000001FFE000003E000003FFFFE000003E000003FFFF0003FFFFFF
310
FFF80003FFE00007F000F800000000000FFC0007FFF800007FFF8001FF80007F
310
F000000000000FFF000000000000FFF8000001FFFE0000007F80000000000001
310
FFF0000000000007FFFFF0000000000007FFFF0003FFFFFFFFFC00007E000007
310
F000F800000000000FFC0007FFF80000FFFF8000FF80007FF800000000001FFF
310
800000000001FFF8000001FFFE0000007F80000000000001FFF800000000000F
310
FFFFF800000000000FFFFF0003FFFFFFFFFC00000000000FF000FC0000000000
310
1FFC0007FFFC0000FFFF8000FF80007FF800000000003FFFC00000000001FFF8
310
000001FFFE0000007F80000000000001FFF800000000000FFFFFF80000000000
310
0FFFFF0003FFFFFFFFFE00000000001FF000FE00000000003FF8000FFFFC0000
310
FFFF8000FF80007FFC00000000003FFFC00000000003FFF8000001FFFE000000
310
7F80000000000001FFFC00000000001FFFFFFC00000000001FFFFF0003FFFFFF
310
FFFF00000000001FF000FF00000000003FF8000FFFFC0000FFFFC000FF80007F
310
FE00000000007FFFE00000000007FFF8000001FFFE0000007F80000000000001
310
FFFE00000000003FFFFFFE00000000003FFFFF0003FFFFFFFFFF80000000003F
310
F000FF80000000007FF8000FFFFC0001FFFFC0007F80007FFF0000000000FFFF
310
F0000000000FFFF800000000000000007F80000000000001FFFF8000000000FF
310
FFFFFF8000000000FFFFFF0003FFFFFFFFFFC0000000007FF000FFC000000000
310
FFF8000FFFFE0001FFFFC0007F80007FFF8000000001FFFFF8000000001FFFF8
310
00000000000000007F80000000000001FFFFC000000001FFFFFFFFC000000001
310
FFFFFF0003FFFFFFFFFFE000000000FFF000FFE000000003FFF0001FFFFE0001
310
FFFFC0007F80007FFFC000000007FFFFFE000000003FFFF80000000000000000
310
7F80000000000001FFFFE000000003FFFFFFFFE000000003FFFFFF0003FFFFFF
310
FFFFF000000003FFF000FFF80000000FFFF0001FFFFE0001FFFFE0007F80007F
310
FFF00000000FFFFFFF00000000FFFFF800000000000000007F80000000000001
310
FFFFF80000000FFFFFFFFFF80000000FFFFFFF0003FFFFFFFFFFFC0000000FFF
310
F000FFFE0000003FFFF0001FFFFE0003FFFFE0003F80007FFFFC0000003FFFFF
310
FFC0000003FFFFF800000000000000007F80000000000001FFFFFE0000003FFF
310
FFFFFFFE0000003FFFFFFF0003FFFFFFFFFFFF0000003FFFF000FFFF800000FF
310
FFF0001FFFFF0003FFFFE0003F80007FFFFF000001FFFFFFFFF800001FFFFFF8
310
00000000000000007F80000000000001FFFFFFC00001FFFFFFFFFFFFC00001FF
310
FFFFFF0003FFFFFFFFFFFFC00000FFFFF000FFFFF8000FFFFFFFFFFFFFFFFFFF
310
FFFFFFFFFFFFFFFFFFFFF0001FFFFFFFFFFF0000FFFFFFF80000000000000000
310
7FFFFFFFFFFFFFFFFFFFFFFC001FFFFFFFFFFFFFFC001FFFFFFFFFFFFFFFFFFF
310
FFFFFFFC001FFFFFF000FFFFFFFFFFFFFFFFFFFFFFFFFFFFFFFFFFFFFFFFFFFF
310
FFFFFFFFFFFFFFFFFFFFFFFFFFFFFFFFFFFFFFFFFFFFFFFFFFFFFFFFFFFFFFFF
310
FFFFFFFFFFFFFFFFFFFFFFFFFFFFFFFFFFFFFFFFFFFFFFFFFFFFFFFFFFFFFFFF
310
F000FFFFFFFFFFFFFFFFFFFFFFFFFFFFFFFFFFFFFFFFFFFFFFFFFFFFFFFFFFFF
310
FFFFFFFFFFFFFFFFFFFFFFFFFFFFFFFFFFFFFFFFFFFFFFFFFFFFFFFFFFFFFFFF
310
FFFFFFFFFFFFFFFFFFFFFFFFFFFFFFFFFFFFFFFFFFFFFFFFF000FFFFFFFFFFFF
310
FFFFFFFFFFFFFFFFFFFFFFFFFFFFFFFFFFFFFFFFFFFFFFFFFFFFFFFFFFFFFFFF
310
FFFFFFFFFFFFFFFFFFFFFFFFFFFFFFFFFFFFFFFFFFFFFFFFFFFFFFFFFFFFFFFF
310
FFFFFFFFFFFFFFFFFFFFFFFFFFFFFFFFF000FFFFFFFFFFFFFFFFFFFFFFFFFFFF
310
FFFFFFFFFFFFFFFFFFFFFFFFFFFFFFFFFFFFFFFFFFFFFFFFFFFFFFFFFFFFFFFF
310
FFFFFFFFFFFFFFFFFFFFFFFFFFFFFFFFFFFFFFFFFFFFFFFFFFFFFFFFFFFFFFFF
310
FFFFFFFFFFFFFFFFF000FFFFFFFFFFFFFFFFFFFFFFFFFFFFFFFFFFFFFFFFFFFF
310
FFFFFFFFFFFFFFFFFFFFFFFFFFFFFFFFFFFFFFFFFFFFFFFFFFFFFFFFFFFFFFFF
310
FFFFFFFFFFFFFFFFFFFFFFFFFFFFFFFFFFFFFFFFFFFFFFFFFFFFFFFFFFFFFFFF
310
F000FFFFFFFFFFFFFFFFFFFFFFFFFFFFFFFFFFFFFFFFFFFFFFFFFFFFFFFFFFFF
310
FFFFFFFFFFFFFFFFFFFFFFFFFFFFFFFFFFFFFFFFFFFFFFFFFFFFFFFFFFFFFFFF
310
FFFFFFFFFFFFFFFFFFFFFFFFFFFFFFFFFFFFFFFFFFFFFFFFF000FFFFFFFFFFFF
310
FFFFFFFFFFFFFFFFFFFFFFFFFFFFFFFFFFFFFFFFFFFFFFFFFFFFFFFFFFFFFFFF
310
FFFFFFFFFFFFFFFFFFFFFFFFFFFFFFFFFFFFFFFFFFFFFFFFFFFFFFFFFFFFFFFF
310
FFFFFFFFFFFFFFFFFFFFFFFFFFFFFFFFF000FFFFFFFFFFFFFFFFFFFFFFFFFFFF
310
FFFFFFFFFFFFFFFFFFFFFFFFFFFFFFFFFFFFFFFFFFFFFFFFFFFFFFFFFFFFFFFF
310
FFFFFFFFFFFFFFFFFFFFFFFFFFFFFFFFFFFFFFFFFFFFFFFFFFFFFFFFFFFFFFFF
310
FFFFFFFFFFFFFFFFF000FFFFFFFFFFFFFFFFFFFFFFFFFFFFFFFFFFFFFFFFFFFF
310
FFFFFFFFFFFFFFFFFFFFFFFFFFFFFFFFFFFFFFFFFFFFFFFFFFFFFFFFFFFFFFFF
310
FFFFFFFFFFFFFFFFFFFFFFFFFFFFFFFFFFFFFFFFFFFFFFFFFFFFFFFFFFFFFFFF
310
F000FFFFFFFFFFFFFFFFFFFFFFFFFFFFFFFFFFFFFFFFFFFFFFFFFFFFFFFFFFFF
310
FFFFFFFFFFFFFFFFFFFFFFFFFFFFFFFFFFFFFFFFFFFFFFFFFFFFFFFFFFFFFFFF
310
FFFFFFFFFFFFFFFFFFFFFFFFFFFFFFFFFFFFFFFFFFFFFFFFF000FFFFFFFFFFFF
310
FFFFFFFFFFFFFFFFFFFFFFFFFFFFFFFFFFFFFFFFFFFFFFFFFFFFFFFFFFFFFFFF
310
FFFFFFFFFFFFFFFFFFFFFFFFFFFFFFFFFFFFFFFFFFFFFFFFFFFFFFFFFFFFFFFF
310
FFFFFFFFFFFFFFFFFFFFFFFFFFFFFFFFF000FFFFFFFFFFFFFFFFFFFFFFFFFFFF
310
FFFFFFFFFFFFFFFFFFFFFFFFFFFFFFFFFFFFFFFFFFFFFFFFFFFFFFFFFFFFFFFF
310
FFFFFFFFFFFFFFFFFFFFFFFFFFFFFFFFFFFFFFFFFFFFFFFFFFFFFFFFFFFFFFFF
310
FFFFFFFFFFFFFFFFF000FFFFFFFFFFFFFFFFFFFFFFFFFFFFFFFFFFFFFFFFFFFF
310
FFFFFFFFFFFFFFFFFFFFFFFFFFFFFFFFFFFFFFFFFFFFFFFFFFFFFFFFFFFFFFFF
310
FFFFFFFFFFFFFFFFFFFFFFFFFFFFFFFFFFFFFFFFFFFFFFFFFFFFFFFFFFFFFFFF
310
F000FFFFFFFFFFFFFFFFFFFFFFFFFFFFFFFFFFFFFFFFFFFFFFFFFFFFFFFFFFFF
310
FFFFFFFFFFFFFFFFFFFFFFFFFFFFFFFFFFFFFFFFFFFFFFFFFFFFFFFFFFFFFFFF
310
FFFFFFFFFFFFFFFFFFFFFFFFFFFFFFFFFFFFFFFFFFFFFFFFF000FFFFFFFFFFFF
310
FFFFFFFFFFFFFFFFFFFFFFFFFFFFFFFFFFFFFFFFFFFFFFFFFFFFFFFFFFFFFFFF
310
FFFFFFFFFFFFFFFFFFFFFFFFFFFFFFFFFFFFFFFFFFFFFFFFFFFFFFFFFFFFFFFF
310
FFFFFFFFFFFFFFFFFFFFFFFFFFFFFFFFF000FFFFFFFFFFFFFFFFFFFFFFFFFFFF
310
FFFFFFFFFFFFFFFFFFFFFFFFFFFFFFFFFFFFFFFFFFFFFFFFFFFFFFFFFFFFFFFF
310
FFFFFFFFFFFFFFFFFFFFFFFFFFFFFFFFFFFFFFFFFFFFFFFFFFFFFFFFFFFFFFFF
310
FFFFFFFFFFFFFFFFF000FFFFFFFFFFFFFFFFFFFFFFFFFFFFFFFFFFFFFFFFFFFF
310
FFFFFFFFFFFFFFFFFFFFFFFFFFFFFFFFFFFFFFFFFFFFFFFFFFFFFFFFFFFFFFFF
310
FFFFFFFFFFFFFFFFFFFFFFFFFFFFFFFFFFFFFFFFFFFFFFFFFFFFFFFFFFFFFFFF
310
F000FFFFFFFFFFFFFFFFFFFFFFFFFFFFFFFFFFFFFFFFFFFFFFFFFFFFFFFFFFFF
310
FFFFFFFFFFFFFFFFFFFFFFFFFFFFFFFFFFFFFFFFFFFFFFFFFFFFFFFFFFFFFFFF
310
FFFFFFFFFFFFFFFFFFFFFFFFFFFFFFFFFFFFFFFFFFFFFFFFF000FFFFFFFFFFFF
310
FFFFFFFFFFFFFFFFFFFFFFFFFFFFFFFFFFFFFFFFFFFFFFFFFFFFFFFFFFFFFFFF
310
FFFFFFFFFFFFFFFFFFFFFFFFFFFFFFFFFFFFFFFFFFFFFFFFFFFFFFFFFFFFFFFF
310
FFFFFFFFFFFFFFFFFFFFFFFFFFFFFFFFF000FFFFFFFFFFFFFFFFFFFFFFFFFFFF
310
FFFFFFFFFFFFFFFFFFFFFFFFFFFFFFFFFFFFFFFFFFFFFFFFFFFFFFFFFFFFFFFF
310
FFFFFFFFFFFFFFFFFFFFFFFFFFFFFFFFFFFFFFFFFFFFFFFFFFFFFFFFFFFFFFFF
310
FFFFFFFFFFFFFFFFF000FFFFFFFFFFFFFFFFFFFFFFFFFFFFFFFFFFFFFFFFFFFF
310
FFFFFFFFFFFFFFFFFFFFFFFFFFFFFFFFFFFFFFFFFFFFFFFFFFFFFFFFFFFFFFFF
310
FFFFFFFFFFFFFFFFFFFFFFFFFFFFFFFFFFFFFFFFFFFFFFFFFFFFFFFFFFFFFFFF
310
F000FFFFFFFFFFFFFFFFFFFFFFFFFFFFFFFFFFFFFFFFFFFFFFFFFFFFFFFFFFFF
310
FFFFFFFFFFFFFFFFFFFFFFFFFFFFFFFFFFFFFFFFFFFFFFFFFFFFFFFFFFFFFFFF
310
FFFFFFFFFFFFFFFFFFFFFFFFFFFFFFFFFFFFFFFFFFFFFFFFF000FFFFFFFFFFFF
310
FFFFFFFFFFFFFFFFFFFFFFFFFFFFFFFFFFFFFFFFFFFFFFFFFFFFFFFFFFFFFFFF
310
FFFFFFFFFFFFFFFFFFFFFFFFFFFFFFFFFFFFFFFFFFFFFFFFFFFFFFFFFFFFFFFF
310
FFFFFFFFFFFFFFFFFFFFFFFFFFFFFFFFF0000000000000000000000000000000
310
0000000000000000000000000000000000000000000000000000000000000000
310
0000000000000000000000000000000000000000000000000000000000000000
310
0000000000000000000000000000000000000000000000000000000000000000
310
0000000000000000000000000000000000000000000000000000000000000000
310
0000000000000000000000000000000000000000000000000000000000000000
310
0000000000000000000000000000000000000000000000000000000000000000
310
0000000000000000000000000000000000000000000000000000000000000000
310
0000000000000000000000000000000000000000000000000000000000000000
310
0000000000000000000000000000000000000000000000000000000000000000
310
0000000000000000000000000000000000000000000000000000000000000000
310
0000000000000000000000000000000000000000000000000000000000000000
310
0000000000000000000000000000000000000000000000000000000000000000
310
0000000000000000000000000000000000000000000000000000000000000000
310
0000000000000000000000000000000000000000000000000000000000000000
310
0000000000000000000000000000000000000000000000000000000000000000
  1
OLE
  0
ENDSEC
  0
SECTION
  2
OBJECTS
  0
DICTIONARY
  5
C
330
0
100
AcDbDictionary
281
     1
  3
ACAD_GROUP
350
D
  3
ACAD_LAYOUT
350
1A
  3
ACAD_MLINESTYLE
350
17
  3
ACAD_PLOTSETTINGS
350
19
  3
ACAD_PLOTSTYLENAME
350
E
  0
DICTIONARY
  5
D
102
{ACAD_REACTORS
330
C
102
}
330
C
100
AcDbDictionary
281
     1
  0
DICTIONARY
  5
1A
102
{ACAD_REACTORS
330
C
102
}
330
C
100
AcDbDictionary
281
     1
  3
Layout1
350
1E
  3
Layout2
350
26
  3
Model
350
22
  0
DICTIONARY
  5
17
102
{ACAD_REACTORS
330
C
102
}
330
C
100
AcDbDictionary
281
     1
  3
Standard
350
18
  0
DICTIONARY
  5
19
102
{ACAD_REACTORS
330
C
102
}
330
C
100
AcDbDictionary
281
     1
  0
ACDBDICTIONARYWDFLT
  5
E
102
{ACAD_REACTORS
330
C
102
}
330
C
100
AcDbDictionary
281
     1
  3
Normal
350
F
100
AcDbDictionaryWithDefault
340
F
  0
LAYOUT
  5
1E
102
{ACAD_REACTORS
330
1A
102
}
330
1A
100
AcDbPlotSettings
  1

  2
none_device
  4

  6

 40
0.0
 41
0.0
 42
0.0
 43
0.0
 44
0.0
 45
0.0
 46
0.0
 47
0.0
 48
0.0
 49
0.0
140
0.0
141
0.0
142
1.0
143
1.0
 70
   688
 72
     0
 73
     0
 74
     5
  7

 75
    16
147
1.0
148
0.0
149
0.0
100
AcDbLayout
  1
Layout1
 70
     1
 71
     1
 10
0.0
 20
0.0
 11
420.0
 21
297.0
 12
0.0
 22
0.0
 32
0.0
 14
1.0000000000E+20
 24
1.0000000000E+20
 34
1.0000000000E+20
 15
-1.0000000000E+20
 25
-1.0000000000E+20
 35
-1.0000000000E+20
146
0.0
 13
0.0
 23
0.0
 33
0.0
 16
1.0
 26
0.0
 36
0.0
 17
0.0
 27
1.0
 37
0.0
 76
     0
330
1B
  0
LAYOUT
  5
26
102
{ACAD_REACTORS
330
1A
102
}
330
1A
100
AcDbPlotSettings
  1

  2
none_device
  4

  6

 40
0.0
 41
0.0
 42
0.0
 43
0.0
 44
0.0
 45
0.0
 46
0.0
 47
0.0
 48
0.0
 49
0.0
140
0.0
141
0.0
142
1.0
143
1.0
 70
   688
 72
     0
 73
     0
 74
     5
  7

 75
    16
147
1.0
148
0.0
149
0.0
100
AcDbLayout
  1
Layout2
 70
     1
 71
     2
 10
0.0
 20
0.0
 11
0.0
 21
0.0
 12
0.0
 22
0.0
 32
0.0
 14
0.0
 24
0.0
 34
0.0
 15
0.0
 25
0.0
 35
0.0
146
0.0
 13
0.0
 23
0.0
 33
0.0
 16
1.0
 26
0.0
 36
0.0
 17
0.0
 27
1.0
 37
0.0
 76
     0
330
23
  0
LAYOUT
  5
22
102
{ACAD_REACTORS
330
1A
102
}
330
1A
100
AcDbPlotSettings
  1

  2
none_device
  4

  6

 40
0.0
 41
0.0
 42
0.0
 43
0.0
 44
0.0
 45
0.0
 46
0.0
 47
0.0
 48
0.0
 49
0.0
140
0.0
141
0.0
142
1.0
143
1.0
 70
  1712
 72
     0
 73
     0
 74
     0
  7

 75
     0
147
1.0
148
0.0
149
0.0
100
AcDbLayout
  1
Model
 70
     1
 71
     0
 10
0.0
 20
0.0
 11
297.0
 21
210.0
 12
0.0
 22
0.0
 32
0.0
 14
0.0
 24
0.0
 34
0.0
 15
297.0
 25
210.0
 35
0.0
146
0.0
 13
0.0
 23
0.0
 33
0.0
 16
1.0
 26
0.0
 36
0.0
 17
0.0
 27
1.0
 37
0.0
 76
     0
330
1F
331
29
  0
MLINESTYLE
  5
18
102
{ACAD_REACTORS
330
17
102
}
330
17
100
AcDbMlineStyle
  2
Standard
 70
     0
  3

 62
   256
 51
90.0
 52
90.0
 71
     2
 49
0.5
 62
   256
  6
BYLAYER
 49
-0.5
 62
   256
  6
BYLAYER
  0
ACDBPLACEHOLDER
  5
F
102
{ACAD_REACTORS
330
E
102
}
330
E
  0
ENDSEC
  0
EOF
