  0
SECTION
  2
HEADER
  9
$ACADVER
  1
AC1015
  9
$ACADMAINTVER
 70
     6
  9
$DWGCODEPAGE
  3
ANSI_1252
  9
$INSBASE
 10
0.0
 20
0.0
 30
0.0
  9
$EXTMIN
 10
0.0
 20
0.0
 30
0.0
  9
$EXTMAX
 10
297.0
 20
210.0
 30
0.0
  9
$LIMMIN
 10
0.0
 20
0.0
  9
$LIMMAX
 10
297.0
 20
210.0
  9
$ORTHOMODE
 70
     0
  9
$REGENMODE
 70
     1
  9
$FILLMODE
 70
     1
  9
$QTEXTMODE
 70
     0
  9
$MIRRTEXT
 70
     1
  9
$LTSCALE
 40
1.0
  9
$ATTMODE
 70
     1
  9
$TEXTSIZE
 40
2.0
  9
$TRACEWID
 40
1.0
  9
$TEXTSTYLE
  7
Standard
  9
$CLAYER
  8
0
  9
$CELTYPE
  6
ByLayer
  9
$CECOLOR
 62
   256
  9
$CELTSCALE
 40
1.0
  9
$DISPSILH
 70
     0
  9
$DIMSCALE
 40
1.0
  9
$DIMASZ
 40
3.0
  9
$DIMEXO
 40
0.0
  9
$DIMDLI
 40
3.75
  9
$DIMRND
 40
0.0
  9
$DIMDLE
 40
0.0
  9
$DIMEXE
 40
1.0
  9
$DIMTP
 40
0.0
  9
$DIMTM
 40
0.0
  9
$DIMTXT
 40
2.0
  9
$DIMCEN
 40
2.5
  9
$DIMTSZ
 40
0.0
  9
$DIMTOL
 70
     0
  9
$DIMLIM
 70
     0
  9
$DIMTIH
 70
     1
  9
$DIMTOH
 70
     1
  9
$DIMSE1
 70
     0
  9
$DIMSE2
 70
     0
  9
$DIMTAD
 70
     1
  9
$DIMZIN
 70
     0
  9
$DIMBLK
  1

  9
$DIMASO
 70
     1
  9
$DIMSHO
 70
     1
  9
$DIMPOST
  1

  9
$DIMAPOST
  1

  9
$DIMALT
 70
     0
  9
$DIMALTD
 70
     3
  9
$DIMALTF
 40
0.0393700787
  9
$DIMLFAC
 40
2.0
  9
$DIMTOFL
 70
     1
  9
$DIMTVP
 40
0.0
  9
$DIMTIX
 70
     0
  9
$DIMSOXD
 70
     0
  9
$DIMSAH
 70
     0
  9
$DIMBLK1
  1

  9
$DIMBLK2
  1

  9
$DIMSTYLE
  2
ISO-25
  9
$DIMCLRD
 70
     0
  9
$DIMCLRE
 70
     0
  9
$DIMCLRT
 70
     0
  9
$DIMTFAC
 40
1.0
  9
$DIMGAP
 40
1.524
  9
$DIMJUST
 70
     0
  9
$DIMSD1
 70
     0
  9
$DIMSD2
 70
     0
  9
$DIMTOLJ
 70
     0
  9
$DIMTZIN
 70
     0
  9
$DIMALTZ
 70
     0
  9
$DIMALTTZ
 70
     0
  9
$DIMUPT
 70
     0
  9
$DIMDEC
 70
     2
  9
$DIMTDEC
 70
     3
  9
$DIMALTU
 70
     2
  9
$DIMALTTD
 70
     3
  9
$DIMTXSTY
  7
Standard
  9
$DIMAUNIT
 70
     0
  9
$DIMADEC
 70
     2
  9
$DIMALTRND
 40
0.0
  9
$DIMAZIN
 70
     0
  9
$DIMDSEP
 70
    44
  9
$DIMATFIT
 70
     3
  9
$DIMFRAC
 70
     0
  9
$DIMLDRBLK
  1

  9
$DIMLUNIT
 70
     2
  9
$DIMLWD
 70
    -2
  9
$DIMLWE
 70
    -2
  9
$DIMTMOVE
 70
     0
  9
$LUNITS
 70
     2
  9
$LUPREC
 70
     2
  9
$SKETCHINC
 40
1.0
  9
$FILLETRAD
 40
10.0
  9
$AUNITS
 70
     0
  9
$AUPREC
 70
     2
  9
$MENU
  1
.
  9
$ELEVATION
 40
0.0
  9
$PELEVATION
 40
0.0
  9
$THICKNESS
 40
0.0
  9
$LIMCHECK
 70
     0
  9
$CHAMFERA
 40
0.0
  9
$CHAMFERB
 40
0.0
  9
$CHAMFERC
 40
0.0
  9
$CHAMFERD
 40
0.0
  9
$SKPOLY
 70
     0
  9
$TDCREATE
 40
2457800.397504653
  9
$TDUCREATE
 40
2457800.355837986
  9
$TDUPDATE
 40
2457800.397506181
  9
$TDUUPDATE
 40
2457800.355839514
  9
$TDINDWG
 40
0.0000000116
  9
$TDUSRTIMER
 40
0.0000000116
  9
$USRTIMER
 70
     1
  9
$ANGBASE
 50
0.0
  9
$ANGDIR
 70
     0
  9
$PDMODE
 70
     0
  9
$PDSIZE
 40
-1.0
  9
$PLINEWID
 40
0.0
  9
$SPLFRAME
 70
     0
  9
$SPLINETYPE
 70
     6
  9
$SPLINESEGS
 70
     8
  9
$HANDSEED
  5
268
  9
$SURFTAB1
 70
     6
  9
$SURFTAB2
 70
     6
  9
$SURFTYPE
 70
     6
  9
$SURFU
 70
     6
  9
$SURFV
 70
     6
  9
$UCSBASE
  2

  9
$UCSNAME
  2

  9
$UCSORG
 10
0.0
 20
0.0
 30
0.0
  9
$UCSXDIR
 10
1.0
 20
0.0
 30
0.0
  9
$UCSYDIR
 10
0.0
 20
1.0
 30
0.0
  9
$UCSORTHOREF
  2

  9
$UCSORTHOVIEW
 70
     0
  9
$UCSORGTOP
 10
0.0
 20
0.0
 30
0.0
  9
$UCSORGBOTTOM
 10
0.0
 20
0.0
 30
0.0
  9
$UCSORGLEFT
 10
0.0
 20
0.0
 30
0.0
  9
$UCSORGRIGHT
 10
0.0
 20
0.0
 30
0.0
  9
$UCSORGFRONT
 10
0.0
 20
0.0
 30
0.0
  9
$UCSORGBACK
 10
0.0
 20
0.0
 30
0.0
  9
$PUCSBASE
  2

  9
$PUCSNAME
  2

  9
$PUCSORG
 10
0.0
 20
0.0
 30
0.0
  9
$PUCSXDIR
 10
1.0
 20
0.0
 30
0.0
  9
$PUCSYDIR
 10
0.0
 20
1.0
 30
0.0
  9
$PUCSORTHOREF
  2

  9
$PUCSORTHOVIEW
 70
     0
  9
$PUCSORGTOP
 10
0.0
 20
0.0
 30
0.0
  9
$PUCSORGBOTTOM
 10
0.0
 20
0.0
 30
0.0
  9
$PUCSORGLEFT
 10
0.0
 20
0.0
 30
0.0
  9
$PUCSORGRIGHT
 10
0.0
 20
0.0
 30
0.0
  9
$PUCSORGFRONT
 10
0.0
 20
0.0
 30
0.0
  9
$PUCSORGBACK
 10
0.0
 20
0.0
 30
0.0
  9
$USERI1
 70
     0
  9
$USERI2
 70
     0
  9
$USERI3
 70
     0
  9
$USERI4
 70
     0
  9
$USERI5
 70
     0
  9
$USERR1
 40
0.0
  9
$USERR2
 40
0.0
  9
$USERR3
 40
0.0
  9
$USERR4
 40
0.0
  9
$USERR5
 40
0.0
  9
$WORLDVIEW
 70
     1
  9
$SHADEDGE
 70
     3
  9
$SHADEDIF
 70
    70
  9
$TILEMODE
 70
     1
  9
$MAXACTVP
 70
    64
  9
$PINSBASE
 10
0.0
 20
0.0
 30
0.0
  9
$PLIMCHECK
 70
     0
  9
$PEXTMIN
 10
1.0000000000E+20
 20
1.0000000000E+20
 30
1.0000000000E+20
  9
$PEXTMAX
 10
-1.0000000000E+20
 20
-1.0000000000E+20
 30
-1.0000000000E+20
  9
$PLIMMIN
 10
0.0
 20
0.0
  9
$PLIMMAX
 10
420.0
 20
297.0
  9
$UNITMODE
 70
     0
  9
$VISRETAIN
 70
     1
  9
$PLINEGEN
 70
     0
  9
$PSLTSCALE
 70
     1
  9
$TREEDEPTH
 70
  3020
  9
$CMLSTYLE
  2
Standard
  9
$CMLJUST
 70
     0
  9
$CMLSCALE
 40
20.0
  9
$PROXYGRAPHICS
 70
     1
  9
$MEASUREMENT
 70
     1
  9
$CELWEIGHT
370
    -1
  9
$ENDCAPS
280
     0
  9
$JOINSTYLE
280
     0
  9
$LWDISPLAY
290
     1
  9
$INSUNITS
 70
     4
  9
$HYPERLINKBASE
  1

  9
$STYLESHEET
  1

  9
$XEDIT
290
     1
  9
$CEPSNTYPE
380
     0
  9
$PSTYLEMODE
290
     1
  9
$FINGERPRINTGUID
  2
{5826AC8C-4BBB-4595-8A74-64C0030A3B28}
  9
$VERSIONGUID
  2
{FAEB1C32-E019-11D5-929B-00C0DF256EC4}
  9
$EXTNAMES
290
     1
  9
$PSVPSCALE
 40
0.0
  9
$OLESTARTUP
290
     0
  0
ENDSEC
  0
SECTION
  2
CLASSES
  0
CLASS
  1
ACDBDICTIONARYWDFLT
  2
AcDbDictionaryWithDefault
  3
ObjectDBX Classes
 90
        0
280
     0
281
     0
  0
CLASS
  1
VISUALSTYLE
  2
AcDbVisualStyle
  3
ObjectDBX Classes
 90
     4095
280
     0
281
     0
  0
CLASS
  1
MATERIAL
  2
AcDbMaterial
  3
ObjectDBX Classes
 90
     1153
280
     0
281
     0
  0
CLASS
  1
SCALE
  2
AcDbScale
  3
ObjectDBX Classes
 90
     1153
280
     0
281
     0
  0
CLASS
  1
TABLESTYLE
  2
AcDbTableStyle
  3
ObjectDBX Classes
 90
     4095
280
     0
281
     0
  0
CLASS
  1
MLEADERSTYLE
  2
AcDbMLeaderStyle
  3
ACDB_MLEADERSTYLE_CLASS
 90
     4095
280
     0
281
     0
  0
CLASS
  1
SUN
  2
AcDbSun
  3
SCENEOE
 90
     1153
280
     0
281
     0
  0
CLASS
  1
ACDBPLACEHOLDER
  2
AcDbPlaceHolder
  3
ObjectDBX Classes
 90
        0
280
     0
281
     0
  0
CLASS
  1
LAYOUT
  2
AcDbLayout
  3
ObjectDBX Classes
 90
        0
280
     0
281
     0
  0
ENDSEC
  0
SECTION
  2
TABLES
  0
TABLE
  2
VPORT
  5
8
330
0
100
AcDbSymbolTable
 70
     1
  0
VPORT
  5
29
330
8
100
AcDbSymbolTableRecord
100
AcDbViewportTableRecord
  2
*Active
 70
     0
 10
0.0
 20
0.0
 11
1.0
 21
1.0
 12
148.5
 22
105.0
 13
0.0
 23
0.0
 14
10.0
 24
10.0
 15
10.0
 25
10.0
 16
0.0
 26
0.0
 36
1.0
 17
0.0
 27
0.0
 37
0.0
 40
210.0
 41
1.4142857143
 42
50.0
 43
0.0
 44
0.0
 50
0.0
 51
0.0
 71
     0
 72
  2000
 73
     1
 74
     3
 75
     0
 76
     0
 77
     0
 78
     0
281
     0
 65
     1
110
0.0
120
0.0
130
0.0
111
1.0
121
0.0
131
0.0
112
0.0
122
1.0
132
0.0
 79
     0
146
0.0
  0
ENDTAB
  0
TABLE
  2
LTYPE
  5
5
330
0
100
AcDbSymbolTable
 70
     6
  0
LTYPE
  5
14
330
5
100
AcDbSymbolTableRecord
100
AcDbLinetypeTableRecord
  2
ByBlock
 70
     0
  3

 72
    65
 73
     0
 40
0.0
  0
LTYPE
  5
15
330
5
100
AcDbSymbolTableRecord
100
AcDbLinetypeTableRecord
  2
ByLayer
 70
     0
  3

 72
    65
 73
     0
 40
0.0
  0
LTYPE
  5
16
330
5
100
AcDbSymbolTableRecord
100
AcDbLinetypeTableRecord
  2
Continuous
 70
     0
  3
Solid line
 72
    65
 73
     0
 40
0.0
  0
LTYPE
  5
6E
330
5
100
AcDbSymbolTableRecord
100
AcDbLinetypeTableRecord
  2
HIDDEN
 70
     0
  3
Hidden __ __ __ __ __ __ __ __ __ __ __ __ __ __
 72
    65
 73
     2
 40
1.905
 49
1.27
 74
     0
 49
-0.635
 74
     0
  0
LTYPE
  5
6F
330
5
100
AcDbSymbolTableRecord
100
AcDbLinetypeTableRecord
  2
PHANTOM
 70
     0
  3
Phantom ______  __  __  ______  __  __  ______
 72
    65
 73
     6
 40
12.7
 49
6.35
 74
     0
 49
-1.27
 74
     0
 49
1.27
 74
     0
 49
-1.27
 74
     0
 49
1.27
 74
     0
 49
-1.27
 74
     0
  0
LTYPE
  5
70
330
5
100
AcDbSymbolTableRecord
100
AcDbLinetypeTableRecord
  2
CENTER
 70
     0
  3
Center ____ _ ____ _ ____ _ ____ _ ____ _ ____
 72
    65
 73
     4
 40
10.16
 49
6.35
 74
     0
 49
-1.27
 74
     0
 49
1.27
 74
     0
 49
-1.27
 74
     0
  0
LTYPE
  5
71
330
5
100
AcDbSymbolTableRecord
100
AcDbLinetypeTableRecord
  2
CENTERX2
 70
     0
  3
Center (2x) ________  __  ________  __  _____
 72
    65
 73
     4
 40
20.32
 49
12.7
 74
     0
 49
-2.54
 74
     0
 49
2.54
 74
     0
 49
-2.54
 74
     0
  0
LTYPE
  5
72
330
5
100
AcDbSymbolTableRecord
100
AcDbLinetypeTableRecord
  2
DOT2
 70
     0
  3
Dot (.5x) ........................................
 72
    65
 73
     2
 40
0.635
 49
0.0
 74
     0
 49
-0.635
 74
     0
  0
ENDTAB
  0
TABLE
  2
LAYER
  5
2
330
0
100
AcDbSymbolTable
 70
     5
  0
LAYER
  5
10
330
2
100
AcDbSymbolTableRecord
100
AcDbLayerTableRecord
  2
0
 70
     0
 62
     7
  6
Continuous
370
    -3
390
F
  0
LAYER
  5
73
330
2
100
AcDbSymbolTableRecord
100
AcDbLayerTableRecord
  2
FORMAT
 70
     0
 62
     7
  6
Continuous
370
    -3
390
F
  0
LAYER
  5
74
330
2
100
AcDbSymbolTableRecord
100
AcDbLayerTableRecord
  2
VERMASSUNG
 70
     0
 62
     7
  6
Continuous
370
    -3
390
F
  0
LAYER
  5
75
330
2
100
AcDbSymbolTableRecord
100
AcDbLayerTableRecord
  2
KOPF_DÜNN
 70
     0
 62
     7
  6
Continuous
370
    -3
390
F
  0
LAYER
  5
76
330
2
100
AcDbSymbolTableRecord
100
AcDbLayerTableRecord
  2
KOPF_DICK
 70
     0
 62
     7
  6
Continuous
370
    15
390
F
  0
ENDTAB
  0
TABLE
  2
STYLE
  5
3
330
0
100
AcDbSymbolTable
 70
     2
  0
STYLE
  5
11
330
3
100
AcDbSymbolTableRecord
100
AcDbTextStyleTableRecord
  2
Standard
 70
     0
 40
0.0
 41
1.0
 50
0.0
 71
     0
 42
2.0
  3
txt
  4

  0
STYLE
  5
77
330
3
100
AcDbSymbolTableRecord
100
AcDbTextStyleTableRecord
  2
SLDTEXTSTYLE0
 70
     0
 40
0.0
 41
0.7
 50
0.0
 71
     0
 42
2.0
  3
TXT
  4

  0
ENDTAB
  0
TABLE
  2
VIEW
  5
6
330
0
100
AcDbSymbolTable
 70
     0
  0
ENDTAB
  0
TABLE
  2
UCS
  5
7
330
0
100
AcDbSymbolTable
 70
     0
  0
ENDTAB
  0
TABLE
  2
APPID
  5
9
330
0
100
AcDbSymbolTable
 70
     1
  0
APPID
  5
12
330
9
100
AcDbSymbolTableRecord
100
AcDbRegAppTableRecord
  2
ACAD
 70
     0
  0
ENDTAB
  0
TABLE
  2
DIMSTYLE
  5
A
330
0
100
AcDbSymbolTable
 70
     4
100
AcDbDimStyleTable
  0
DIMSTYLE
105
27
330
A
100
AcDbSymbolTableRecord
100
AcDbDimStyleTableRecord
  2
ISO-25
 70
     0
 41
2.5
 42
0.625
 43
3.75
 44
1.25
 73
     0
 74
     0
 77
     1
 78
     8
140
2.5
141
2.5
143
0.0393700787
147
0.625
171
     3
172
     1
178
     0
271
     2
272
     2
274
     3
278
    44
283
     0
284
     8
340
11
  0
DIMSTYLE
105
17D
102
{ACAD_REACTORS
330
17C
330
187
330
1AB
102
}
330
A
100
AcDbSymbolTableRecord
100
AcDbDimStyleTableRecord
  2
SLDDIMSTYLE0
 70
     0
 41
3.0
 44
0.0
 45
0.000000001
 73
     0
 74
     0
 77
     1
 78
    12
 79
     3
140
2.0
147
0.5
173
     1
178
     0
271
     2
272
     3
276
     2
284
    12
340
77
  0
DIMSTYLE
105
194
102
{ACAD_REACTORS
330
193
330
1B7
102
}
330
A
100
AcDbSymbolTableRecord
100
AcDbDimStyleTableRecord
  2
SLDDIMSTYLE1
 70
     0
 41
3.0
 44
0.0
 45
0.000000001
 73
     0
 74
     0
 77
     1
 78
    12
 79
     3
140
2.0
147
0.5
173
     1
178
     0
271
     1
272
     3
276
     2
284
    12
340
77
  0
DIMSTYLE
105
19F
102
{ACAD_REACTORS
330
19E
102
}
330
A
100
AcDbSymbolTableRecord
100
AcDbDimStyleTableRecord
  2
SLDDIMSTYLE2
 70
     0
 41
3.0
 44
0.0
 45
0.000000001
 73
     0
 74
     0
 77
     1
 78
    12
 79
     3
140
2.0
147
0.5
173
     1
178
     0
271
     0
272
     3
276
     2
284
    12
340
77
  0
ENDTAB
  0
TABLE
  2
BLOCK_RECORD
  5
1
330
0
100
AcDbSymbolTable
 70
     8
  0
BLOCK_RECORD
  5
1F
330
1
100
AcDbSymbolTableRecord
100
AcDbBlockTableRecord
  2
*Model_Space
340
22
  0
BLOCK_RECORD
  5
1B
330
1
100
AcDbSymbolTableRecord
100
AcDbBlockTableRecord
  2
*Paper_Space
340
1E
  0
BLOCK_RECORD
  5
23
330
1
100
AcDbSymbolTableRecord
100
AcDbBlockTableRecord
  2
*Paper_Space0
340
26
  0
BLOCK_RECORD
  5
17E
330
1
100
AcDbSymbolTableRecord
100
AcDbBlockTableRecord
  2
_D
340
0
  0
BLOCK_RECORD
  5
188
330
1
100
AcDbSymbolTableRecord
100
AcDbBlockTableRecord
  2
_D_1
340
0
  0
BLOCK_RECORD
  5
195
330
1
100
AcDbSymbolTableRecord
100
AcDbBlockTableRecord
  2
_D_2
340
0
  0
BLOCK_RECORD
  5
1A0
330
1
100
AcDbSymbolTableRecord
100
AcDbBlockTableRecord
  2
_D_3
340
0
  0
BLOCK_RECORD
  5
1AC
330
1
100
AcDbSymbolTableRecord
100
AcDbBlockTableRecord
  2
_D_4
340
0
  0
BLOCK_RECORD
  5
1B8
330
1
100
AcDbSymbolTableRecord
100
AcDbBlockTableRecord
  2
_D_5
340
0
  0
BLOCK_RECORD
  5
1EE
330
1
100
AcDbSymbolTableRecord
100
AcDbBlockTableRecord
  2
SW_CENTERMARKSYMBOL_0
340
0
102
{BLKREFS
331
1F9
102
}
  0
ENDTAB
  0
ENDSEC
  0
SECTION
  2
BLOCKS
  0
BLOCK
  5
20
330
1F
100
AcDbEntity
  8
0
100
AcDbBlockBegin
  2
*Model_Space
 70
     0
 10
0.0
 20
0.0
 30
0.0
  3
*Model_Space
  1

  0
ENDBLK
  5
21
330
1F
100
AcDbEntity
  8
0
100
AcDbBlockEnd
  0
BLOCK
  5
1C
330
1B
100
AcDbEntity
 67
     1
  8
0
100
AcDbBlockBegin
  2
*Paper_Space
 70
     0
 10
0.0
 20
0.0
 30
0.0
  3
*Paper_Space
  1

  0
ENDBLK
  5
1D
330
1B
100
AcDbEntity
 67
     1
  8
0
100
AcDbBlockEnd
  0
BLOCK
  5
24
330
23
100
AcDbEntity
  8
0
100
AcDbBlockBegin
  2
*Paper_Space0
 70
     0
 10
0.0
 20
0.0
 30
0.0
  3
*Paper_Space0
  1

  0
ENDBLK
  5
25
330
23
100
AcDbEntity
  8
0
100
AcDbBlockEnd
  0
BLOCK
  5
17F
330
17E
100
AcDbEntity
  8
0
100
AcDbBlockBegin
  2
_D
 70
     0
 10
0.0
 20
0.0
 30
0.0
  3
_D
  1

  0
SOLID
  5
181
330
17E
100
AcDbEntity
  8
VERMASSUNG
100
AcDbTrace
 10
160.9859391951
 20
181.9401425132
 30
0.0
 11
163.9859391951
 21
181.4901425132
 31
0.0
 12
163.9859391951
 22
182.3901425132
 32
0.0
 13
163.9859391951
 23
182.3901425132
 33
0.0
  0
SOLID
  5
182
330
17E
100
AcDbEntity
  8
VERMASSUNG
100
AcDbTrace
 10
251.9859391951
 20
181.9401425132
 30
0.0
 11
248.9859391951
 21
182.3901425132
 31
0.0
 12
248.9859391951
 22
181.4901425132
 32
0.0
 13
248.9859391951
 23
181.4901425132
 33
0.0
  0
LINE
  5
183
330
17E
100
AcDbEntity
  8
VERMASSUNG
100
AcDbLine
 10
160.9859391951
 20
174.8758546995
 30
0.0
 11
160.9859391951
 21
182.9401425132
 31
0.0
  0
LINE
  5
184
330
17E
100
AcDbEntity
  8
VERMASSUNG
100
AcDbLine
 10
251.9859391951
 20
159.1877725994
 30
0.0
 11
251.9859391951
 21
182.9401425132
 31
0.0
  0
LINE
  5
185
330
17E
100
AcDbEntity
  8
VERMASSUNG
100
AcDbLine
 10
160.9859391951
 20
181.9401425132
 30
0.0
 11
251.9859391951
 21
181.9401425132
 31
0.0
  0
MTEXT
  5
186
330
17E
100
AcDbEntity
  8
VERMASSUNG
100
AcDbMText
 10
205.2859391381
 20
184.5182781091
 30
0.0
 40
2.0
 41
0.0
 71
     1
 72
     1
  1
91
  7
SLDTEXTSTYLE0
 73
     1
 44
1.0
  0
ENDBLK
  5
180
330
17E
100
AcDbEntity
  8
0
100
AcDbBlockEnd
  0
BLOCK
  5
189
330
188
100
AcDbEntity
  8
0
100
AcDbBlockBegin
  2
_D_1
 70
     0
 10
0.0
 20
0.0
 30
0.0
  3
_D_1
  1

  0
ARC
  5
18B
330
188
100
AcDbEntity
  8
VERMASSUNG
100
AcDbCircle
 10
188.5859391494
 20
191.5037832174
 30
0.0
 40
4.24852922888762
100
AcDbArc
 50
153.4349488229
 51
206.5650511771
  0
ARC
  5
18C
330
188
100
AcDbEntity
  8
VERMASSUNG
100
AcDbCircle
 10
184.3859392991
 20
191.5037832174
 30
0.0
 40
4.24852922888762
100
AcDbArc
 50
333.4349488229
 51
26.5650511771
  0
SOLID
  5
18D
330
188
100
AcDbEntity
  8
VERMASSUNG
100
AcDbTrace
 10
120.9859391951
 20
189.6037829525
 30
0.0
 11
123.9859391951
 21
189.1537829525
 31
0.0
 12
123.9859391951
 22
190.0537829525
 32
0.0
 13
123.9859391951
 23
190.0537829525
 33
0.0
  0
SOLID
  5
18E
330
188
100
AcDbEntity
  8
VERMASSUNG
100
AcDbTrace
 10
251.9859391951
 20
189.6037829525
 30
0.0
 11
248.9859391951
 21
190.0537829525
 31
0.0
 12
248.9859391951
 22
189.1537829525
 32
0.0
 13
248.9859391951
 23
189.1537829525
 33
0.0
  0
LINE
  5
18F
330
188
100
AcDbEntity
  8
VERMASSUNG
100
AcDbLine
 10
120.9859391951
 20
159.3758546995
 30
0.0
 11
120.9859391951
 21
190.6037829525
 31
0.0
  0
LINE
  5
190
330
188
100
AcDbEntity
  8
VERMASSUNG
100
AcDbLine
 10
251.9859391951
 20
159.1877725994
 30
0.0
 11
251.9859391951
 21
190.6037829525
 31
0.0
  0
LINE
  5
191
330
188
100
AcDbEntity
  8
VERMASSUNG
100
AcDbLine
 10
120.9859391951
 20
189.6037829525
 30
0.0
 11
251.9859391951
 21
189.6037829525
 31
0.0
  0
MTEXT
  5
192
330
188
100
AcDbEntity
  8
VERMASSUNG
100
AcDbMText
 10
184.7859390853
 20
192.1819187813
 30
0.0
 40
2.0
 41
0.0
 71
     1
 72
     1
  1
131
  7
SLDTEXTSTYLE0
 73
     1
 44
1.0
  0
ENDBLK
  5
18A
330
188
100
AcDbEntity
  8
0
100
AcDbBlockEnd
  0
BLOCK
  5
196
330
195
100
AcDbEntity
  8
0
100
AcDbBlockBegin
  2
_D_2
 70
     0
 10
0.0
 20
0.0
 30
0.0
  3
_D_2
  1

  0
SOLID
  5
198
330
195
100
AcDbEntity
  8
VERMASSUNG
100
AcDbTrace
 10
179.4119752465
 20
172.2510281419
 30
0.0
 11
182.4119752465
 21
171.8010281419
 31
0.0
 12
182.4119752465
 22
172.7010281419
 32
0.0
 13
182.4119752465
 23
172.7010281419
 33
0.0
  0
SOLID
  5
199
330
195
100
AcDbEntity
  8
VERMASSUNG
100
AcDbTrace
 10
251.9859391951
 20
172.2510281419
 30
0.0
 11
248.9859391951
 21
172.7010281419
 31
0.0
 12
248.9859391951
 22
171.8010281419
 32
0.0
 13
248.9859391951
 23
171.8010281419
 33
0.0
  0
LINE
  5
19A
330
195
100
AcDbEntity
  8
VERMASSUNG
100
AcDbLine
 10
179.4119752465
 20
162.3589521565
 30
0.0
 11
179.4119752465
 21
173.2510281419
 31
0.0
  0
LINE
  5
19B
330
195
100
AcDbEntity
  8
VERMASSUNG
100
AcDbLine
 10
251.9859391951
 20
159.1877725994
 30
0.0
 11
251.9859391951
 21
173.2510281419
 31
0.0
  0
LINE
  5
19C
330
195
100
AcDbEntity
  8
VERMASSUNG
100
AcDbLine
 10
179.4119752465
 20
172.2510281419
 30
0.0
 11
251.9859391951
 21
172.2510281419
 31
0.0
  0
MTEXT
  5
19D
330
195
100
AcDbEntity
  8
VERMASSUNG
100
AcDbMText
 10
213.2989573396
 20
174.8291637378
 30
0.0
 40
2.0
 41
0.0
 71
     1
 72
     1
  1
72.6
  7
SLDTEXTSTYLE0
 73
     1
 44
1.0
  0
ENDBLK
  5
197
330
195
100
AcDbEntity
  8
0
100
AcDbBlockEnd
  0
BLOCK
  5
1A1
330
1A0
100
AcDbEntity
  8
0
100
AcDbBlockBegin
  2
_D_3
 70
     0
 10
0.0
 20
0.0
 30
0.0
  3
_D_3
  1

  0
SOLID
  5
1A3
330
1A0
100
AcDbEntity
  8
VERMASSUNG
100
AcDbTrace
 10
262.0476071118
 20
159.4877725994
 30
0.0
 11
261.5976071118
 21
156.4877725994
 31
0.0
 12
262.4976071118
 22
156.4877725994
 32
0.0
 13
262.4976071118
 23
156.4877725994
 33
0.0
  0
SOLID
  5
1A4
330
1A0
100
AcDbEntity
  8
VERMASSUNG
100
AcDbTrace
 10
262.0476071118
 20
127.4639367996
 30
0.0
 11
262.4976071118
 21
130.4639367996
 31
0.0
 12
261.5976071118
 22
130.4639367996
 32
0.0
 13
261.5976071118
 23
130.4639367996
 33
0.0
  0
LINE
  5
1A5
330
1A0
100
AcDbEntity
  8
VERMASSUNG
100
AcDbLine
 10
251.6859391951
 20
159.4877725994
 30
0.0
 11
263.0476071118
 21
159.4877725994
 31
0.0
  0
LINE
  5
1A6
330
1A0
100
AcDbEntity
  8
VERMASSUNG
100
AcDbLine
 10
251.6859391951
 20
127.4639367996
 30
0.0
 11
263.0476071118
 21
127.4639367996
 31
0.0
  0
LINE
  5
1A7
330
1A0
100
AcDbEntity
  8
VERMASSUNG
100
AcDbLine
 10
262.0476071118
 20
159.4877725994
 30
0.0
 11
262.0476071118
 21
127.4639367996
 31
0.0
  0
MTEXT
  5
1A8
330
1A0
100
AcDbEntity
  8
VERMASSUNG
100
AcDbMText
 10
259.2694718556
 20
137.3708554776
 30
0.0
 40
2.0
 41
0.0
 71
     1
 72
     1
  1
ST3
  7
SLDTEXTSTYLE0
 11
-7.044195017643634E-15
 21
1.0
 31
0.0
 73
     1
 44
1.0
  0
MTEXT
  5
1A9
330
1A0
100
AcDbEntity
  8
VERMASSUNG
100
AcDbMText
 10
259.4694718069
 20
143.1708554039
 30
0.0
 40
2.0
 41
0.0
 71
     1
 72
     1
  1
%%c
  7
SLDTEXTSTYLE0
 11
-7.044195017643634E-15
 21
1.0
 31
0.0
 73
     1
 44
1.0
  0
MTEXT
  5
1AA
330
1A0
100
AcDbEntity
  8
VERMASSUNG
100
AcDbMText
 10
259.2694718556
 20
146.7808549525
 30
0.0
 40
2.0
 41
0.0
 71
     1
 72
     1
  1
32
  7
SLDTEXTSTYLE0
 11
-7.044195017643634E-15
 21
1.0
 31
0.0
 73
     1
 44
1.0
  0
ENDBLK
  5
1A2
330
1A0
100
AcDbEntity
  8
0
100
AcDbBlockEnd
  0
BLOCK
  5
1AD
330
1AC
100
AcDbEntity
  8
0
100
AcDbBlockBegin
  2
_D_4
 70
     0
 10
0.0
 20
0.0
 30
0.0
  3
_D_4
  1

  0
SOLID
  5
1AF
330
1AC
100
AcDbEntity
  8
VERMASSUNG
100
AcDbTrace
 10
110.9859391951
 20
175.4758546995
 30
0.0
 11
110.5359391951
 21
172.4758546995
 31
0.0
 12
111.4359391951
 22
172.4758546995
 32
0.0
 13
111.4359391951
 23
172.4758546995
 33
0.0
  0
SOLID
  5
1B0
330
1AC
100
AcDbEntity
  8
VERMASSUNG
100
AcDbTrace
 10
110.9859391951
 20
111.4758546995
 30
0.0
 11
111.4359391951
 21
114.4758546995
 31
0.0
 12
110.5359391951
 22
114.4758546995
 32
0.0
 13
110.5359391951
 23
114.4758546995
 33
0.0
  0
LINE
  5
1B1
330
1AC
100
AcDbEntity
  8
VERMASSUNG
100
AcDbLine
 10
161.5859391951
 20
175.4758546995
 30
0.0
 11
109.9859391951
 21
175.4758546995
 31
0.0
  0
LINE
  5
1B2
330
1AC
100
AcDbEntity
  8
VERMASSUNG
100
AcDbLine
 10
161.5859391951
 20
111.4758546995
 30
0.0
 11
109.9859391951
 21
111.4758546995
 31
0.0
  0
LINE
  5
1B3
330
1AC
100
AcDbEntity
  8
VERMASSUNG
100
AcDbLine
 10
110.9859391951
 20
175.4758546995
 30
0.0
 11
110.9859391951
 21
111.4758546995
 31
0.0
  0
MTEXT
  5
1B4
330
1AC
100
AcDbEntity
  8
VERMASSUNG
100
AcDbMText
 10
108.2078039389
 20
136.5708545083
 30
0.0
 40
2.0
 41
0.0
 71
     1
 72
     1
  1
ST6+
  7
SLDTEXTSTYLE0
 11
-7.044195017643634E-15
 21
1.0
 31
0.0
 73
     1
 44
1.0
  0
MTEXT
  5
1B5
330
1AC
100
AcDbEntity
  8
VERMASSUNG
100
AcDbMText
 10
108.4078038902
 20
143.7708543846
 30
0.0
 40
2.0
 41
0.0
 71
     1
 72
     1
  1
%%c
  7
SLDTEXTSTYLE0
 11
-7.044195017643634E-15
 21
1.0
 31
0.0
 73
     1
 44
1.0
  0
MTEXT
  5
1B6
330
1AC
100
AcDbEntity
  8
VERMASSUNG
100
AcDbMText
 10
108.2078039389
 20
147.3808543989
 30
0.0
 40
2.0
 41
0.0
 71
     1
 72
     1
  1
64
  7
SLDTEXTSTYLE0
 11
-7.044195017643634E-15
 21
1.0
 31
0.0
 73
     1
 44
1.0
  0
ENDBLK
  5
1AE
330
1AC
100
AcDbEntity
  8
0
100
AcDbBlockEnd
  0
BLOCK
  5
1B9
330
1B8
100
AcDbEntity
  8
0
100
AcDbBlockBegin
  2
_D_5
 70
     0
 10
0.0
 20
0.0
 30
0.0
  3
_D_5
  1

  0
SOLID
  5
1BB
330
1B8
100
AcDbEntity
  8
VERMASSUNG
100
AcDbTrace
 10
268.0476071118
 20
162.3589521565
 30
0.0
 11
267.5976071118
 21
159.3589521565
 31
0.0
 12
268.4976071118
 22
159.3589521565
 32
0.0
 13
268.4976071118
 23
159.3589521565
 33
0.0
  0
SOLID
  5
1BC
330
1B8
100
AcDbEntity
  8
VERMASSUNG
100
AcDbTrace
 10
268.0476071118
 20
124.5927572425
 30
0.0
 11
268.4976071118
 21
127.5927572425
 31
0.0
 12
267.5976071118
 22
127.5927572425
 32
0.0
 13
267.5976071118
 23
127.5927572425
 33
0.0
  0
LINE
  5
1BD
330
1B8
100
AcDbEntity
  8
VERMASSUNG
100
AcDbLine
 10
179.4119752465
 20
162.3589521565
 30
0.0
 11
269.0476071118
 21
162.3589521565
 31
0.0
  0
LINE
  5
1BE
330
1B8
100
AcDbEntity
  8
VERMASSUNG
100
AcDbLine
 10
179.4119752465
 20
124.5927572425
 30
0.0
 11
269.0476071118
 21
124.5927572425
 31
0.0
  0
LINE
  5
1BF
330
1B8
100
AcDbEntity
  8
VERMASSUNG
100
AcDbLine
 10
268.0476071118
 20
162.3589521565
 30
0.0
 11
268.0476071118
 21
124.5927572425
 31
0.0
  0
MTEXT
  5
1C0
330
1B8
100
AcDbEntity
  8
VERMASSUNG
100
AcDbMText
 10
265.4694715158
 20
141.0758548183
 30
0.0
 40
2.0
 41
0.0
 71
     1
 72
     1
  1
37.8
  7
SLDTEXTSTYLE0
 11
-7.044195017643634E-15
 21
1.0
 31
0.0
 73
     1
 44
1.0
  0
ENDBLK
  5
1BA
330
1B8
100
AcDbEntity
  8
0
100
AcDbBlockEnd
  0
BLOCK
  5
1EF
330
1EE
100
AcDbEntity
  8
0
100
AcDbBlockBegin
  2
SW_CENTERMARKSYMBOL_0
 70
     0
 10
0.0
 20
0.0
 30
0.0
  3
SW_CENTERMARKSYMBOL_0
  1

  0
LINE
  5
1F1
330
1EE
100
AcDbEntity
  8
VERMASSUNG
 62
     0
100
AcDbLine
 10
0.0
 20
0.0
 30
0.0
 11
0.0
 21
2.5
 31
0.0
  0
LINE
  5
1F2
330
1EE
100
AcDbEntity
  8
VERMASSUNG
 62
     0
100
AcDbLine
 10
0.0
 20
0.0
 30
0.0
 11
-2.5
 21
0.0
 31
0.0
  0
LINE
  5
1F3
330
1EE
100
AcDbEntity
  8
VERMASSUNG
 62
     0
100
AcDbLine
 10
0.0
 20
0.0
 30
0.0
 11
0.0
 21
-2.5
 31
0.0
  0
LINE
  5
1F4
330
1EE
100
AcDbEntity
  8
VERMASSUNG
 62
     0
100
AcDbLine
 10
0.0
 20
0.0
 30
0.0
 11
2.5
 21
0.0
 31
0.0
  0
LINE
  5
1F5
330
1EE
100
AcDbEntity
  8
VERMASSUNG
 62
     0
100
AcDbLine
 10
0.0
 20
5.0
 30
0.0
 11
0.0
 21
34.5
 31
0.0
  0
LINE
  5
1F6
330
1EE
100
AcDbEntity
  8
VERMASSUNG
 62
     0
100
AcDbLine
 10
-5.0
 20
0.0
 30
0.0
 11
-34.5
 21
0.0
 31
0.0
  0
LINE
  5
1F7
330
1EE
100
AcDbEntity
  8
VERMASSUNG
 62
     0
100
AcDbLine
 10
0.0
 20
-5.0
 30
0.0
 11
0.0
 21
-34.5
 31
0.0
  0
LINE
  5
1F8
330
1EE
100
AcDbEntity
  8
VERMASSUNG
 62
     0
100
AcDbLine
 10
5.0
 20
0.0
 30
0.0
 11
34.5
 21
0.0
 31
0.0
  0
ENDBLK
  5
1F0
330
1EE
100
AcDbEntity
  8
0
100
AcDbBlockEnd
  0
ENDSEC
  0
SECTION
  2
ENTITIES
  0
MTEXT
  5
78
330
1F
100
AcDbEntity
  8
KOPF_DÜNN
100
AcDbMText
 10
13.8892156294
 20
23.8442973028
 30
0.0
 40
3.0
 41
0.0
 71
     1
 72
     1
  1
184.064.032.091
  7
SLDTEXTSTYLE0
 73
     1
 44
1.0
  0
MTEXT
  5
79
330
1F
100
AcDbEntity
  8
VERMASSUNG
100
AcDbMText
 10
13.9329988022
 20
28.8834360957
 30
0.0
 40
3.0
 41
0.0
 71
     1
 72
     1
  1
Adapter
  7
SLDTEXTSTYLE0
 73
     1
 44
1.0
  0
MTEXT
  5
7A
330
1F
100
AcDbEntity
  8
VERMASSUNG
100
AcDbMText
 10
98.8601118557
 20
13.8365368761
 30
0.0
 40
2.0
 41
0.0
 71
     1
 72
     1
  1
Datum: 15.02.2017
  7
SLDTEXTSTYLE0
 73
     1
 44
1.0
  0
MTEXT
  5
7B
330
1F
100
AcDbEntity
  8
VERMASSUNG
100
AcDbMText
 10
13.933048693
 20
18.0482802738
 30
0.0
 40
2.0
 41
0.0
 71
     1
 72
     1
  1
ST6+ / ST3
  7
SLDTEXTSTYLE0
 73
     1
 44
1.0
  0
MTEXT
  5
7C
330
1F
100
AcDbEntity
  8
VERMASSUNG
100
AcDbMText
 10
13.9808475933
 20
13.9090974274
 30
0.0
 40
2.0
 41
0.0
 71
     1
 72
     1
  1
Gewicht: 1097g
  7
SLDTEXTSTYLE0
 73
     1
 44
1.0
  0
LINE
  5
7D
330
1F
100
AcDbEntity
  8
0
  6
Continuous
 62
     7
370
    15
100
AcDbLine
 10
156.2859391951
 20
148.9508546995
 30
0.0
 11
155.9859391951
 21
148.6508546995
 31
0.0
  0
LINE
  5
7E
330
1F
100
AcDbEntity
  8
0
  6
Continuous
 62
     7
370
    15
100
AcDbLine
 10
155.9859391951
 20
138.3008546995
 30
0.0
 11
156.2859391951
 21
138.0008546995
 31
0.0
  0
LINE
  5
7F
330
1F
100
AcDbEntity
  8
0
  6
Continuous
 62
     7
370
    15
100
AcDbLine
 10
156.2859391951
 20
138.0008546995
 30
0.0
 11
160.9859391951
 21
138.0008546995
 31
0.0
  0
LINE
  5
80
330
1F
100
AcDbEntity
  8
0
  6
Continuous
 62
     7
370
    15
100
AcDbLine
 10
160.9859391951
 20
148.9508546995
 30
0.0
 11
156.2859391951
 21
148.9508546995
 31
0.0
  0
LINE
  5
81
330
1F
100
AcDbEntity
  8
0
  6
Continuous
 62
     7
370
    15
100
AcDbLine
 10
161.5859391951
 20
175.4758546995
 30
0.0
 11
160.9859391951
 21
174.8758546995
 31
0.0
  0
LINE
  5
82
330
1F
100
AcDbEntity
  8
0
  6
Continuous
 62
     7
370
    15
100
AcDbLine
 10
160.9859391951
 20
112.0758546995
 30
0.0
 11
161.5859391951
 21
111.4758546995
 31
0.0
  0
LINE
  5
83
330
1F
100
AcDbEntity
  8
0
  6
Continuous
 62
     7
370
    15
100
AcDbLine
 10
161.5859391951
 20
111.4758546995
 30
0.0
 11
172.2186122072
 21
111.4758546995
 31
0.0
  0
LINE
  5
84
330
1F
100
AcDbEntity
  8
0
  6
Continuous
 62
     7
370
    15
100
AcDbLine
 10
172.2186122072
 20
175.4758546995
 30
0.0
 11
161.5859391951
 21
175.4758546995
 31
0.0
  0
ARC
  5
85
330
1F
100
AcDbEntity
  8
0
  6
Continuous
 62
     7
370
    15
100
AcDbCircle
 10
172.2186122072
 20
112.4758546995
 30
0.0
 40
1.0
100
AcDbArc
 50
270.0
 51
345.0
  0
ARC
  5
86
330
1F
100
AcDbEntity
  8
0
  6
Continuous
 62
     7
370
    15
100
AcDbCircle
 10
172.2186122072
 20
174.4758546995
 30
0.0
 40
1.0
100
AcDbArc
 50
15.0
 51
90.0
  0
LINE
  5
87
330
1F
100
AcDbEntity
  8
0
  6
Continuous
 62
     7
370
    15
100
AcDbLine
 10
173.1845380335
 20
112.2170356544
 30
0.0
 11
175.7070520307
 21
121.6311860549
 31
0.0
  0
LINE
  5
88
330
1F
100
AcDbEntity
  8
0
  6
Continuous
 62
     7
370
    15
100
AcDbLine
 10
175.7070520307
 20
165.3205233441
 30
0.0
 11
173.1845380335
 21
174.7346737446
 31
0.0
  0
ARC
  5
89
330
1F
100
AcDbEntity
  8
0
  6
Continuous
 62
     7
370
    15
100
AcDbCircle
 10
179.5707553358
 20
166.3557995245
 30
0.0
 40
4.000000000000025
100
AcDbArc
 50
195.0
 51
267.7250450458
  0
ARC
  5
8A
330
1F
100
AcDbEntity
  8
0
  6
Continuous
 62
     7
370
    15
100
AcDbCircle
 10
179.5707553358
 20
120.5959098744
 30
0.0
 40
4.000000000000021
100
AcDbArc
 50
92.2749549542
 51
165.0
  0
LINE
  5
8B
330
1F
100
AcDbEntity
  8
0
  6
Continuous
 62
     7
370
    15
100
AcDbLine
 10
179.4119752465
 20
124.5927572425
 30
0.0
 11
251.6859391951
 21
127.4639367996
 31
0.0
  0
LINE
  5
8C
330
1F
100
AcDbEntity
  8
0
  6
Continuous
 62
     7
370
    15
100
AcDbLine
 10
240.228421821
 20
159.9429377496
 30
0.0
 11
179.4119752465
 21
162.3589521565
 31
0.0
  0
LINE
  5
8D
330
1F
100
AcDbEntity
  8
0
  6
Continuous
 62
     7
370
    15
100
AcDbLine
 10
251.6859391951
 20
159.4877725994
 30
0.0
 11
247.3662172725
 21
159.6593793108
 31
0.0
  0
ARC
  5
8E
330
1F
100
AcDbEntity
  8
0
  6
Continuous
 62
     7
370
    15
100
AcDbCircle
 10
160.5859391951
 20
125.2258546995
 30
0.0
 40
0.6000000000000054
100
AcDbArc
 50
48.1896851042
 51
90.0
  0
ARC
  5
8F
330
1F
100
AcDbEntity
  8
0
  6
Continuous
 62
     7
370
    15
100
AcDbCircle
 10
160.5859391951
 20
161.7258546995
 30
0.0
 40
0.6000000000000054
100
AcDbArc
 50
270.0
 51
311.8103148958
  0
LINE
  5
90
330
1F
100
AcDbEntity
  8
0
  6
Continuous
 62
     7
370
    15
100
AcDbLine
 10
158.4859391951
 20
125.4758546995
 30
0.0
 11
159.7158570493
 21
125.8054101953
 31
0.0
  0
LINE
  5
91
330
1F
100
AcDbEntity
  8
0
  6
Continuous
 62
     7
370
    15
100
AcDbLine
 10
159.7158570493
 20
161.1462992037
 30
0.0
 11
158.4859391951
 21
161.4758546995
 31
0.0
  0
LINE
  5
92
330
1F
100
AcDbEntity
  8
0
  6
Continuous
 62
     7
370
    15
100
AcDbLine
 10
125.7859391951
 20
161.4758546995
 30
0.0
 11
124.4404975433
 21
161.2109268576
 31
0.0
  0
LINE
  5
93
330
1F
100
AcDbEntity
  8
0
  6
Continuous
 62
     7
370
    15
100
AcDbLine
 10
124.4404975433
 20
125.7407825414
 30
0.0
 11
125.7859391951
 21
125.4758546995
 31
0.0
  0
LINE
  5
94
330
1F
100
AcDbEntity
  8
0
  6
Continuous
 62
     7
370
    15
100
AcDbLine
 10
125.7859391951
 20
125.4758546995
 30
0.0
 11
158.4859391951
 21
125.4758546995
 31
0.0
  0
LINE
  5
95
330
1F
100
AcDbEntity
  8
0
  6
Continuous
 62
     7
370
    15
100
AcDbLine
 10
138.5025909985
 20
161.4758546995
 30
0.0
 11
125.7859391951
 21
161.4758546995
 31
0.0
  0
LINE
  5
96
330
1F
100
AcDbEntity
  8
0
  6
Continuous
 62
     7
370
    15
100
AcDbLine
 10
158.4859391951
 20
161.4758546995
 30
0.0
 11
152.4672403803
 21
161.4758546995
 31
0.0
  0
LINE
  5
97
330
1F
100
AcDbEntity
  8
0
  6
Continuous
 62
     7
370
    15
100
AcDbLine
 10
123.2344673326
 20
125.5758546995
 30
0.0
 11
123.3202689495
 21
125.5758546995
 31
0.0
  0
LINE
  5
98
330
1F
100
AcDbEntity
  8
0
  6
Continuous
 62
     7
370
    15
100
AcDbLine
 10
123.3202689495
 20
161.3758546995
 30
0.0
 11
123.2344673326
 21
161.3758546995
 31
0.0
  0
ARC
  5
99
330
1F
100
AcDbEntity
  8
0
  6
Continuous
 62
     7
370
    15
100
AcDbCircle
 10
123.2344673326
 20
126.1758546995
 30
0.0
 40
0.5999999999999801
100
AcDbArc
 50
225.0
 51
270.0
  0
ARC
  5
9A
330
1F
100
AcDbEntity
  8
0
  6
Continuous
 62
     7
370
    15
100
AcDbCircle
 10
123.2344673326
 20
160.7758546995
 30
0.0
 40
0.5999999999999659
100
AcDbArc
 50
90.0
 51
135.0
  0
ARC
  5
9B
330
1F
100
AcDbEntity
  8
0
  6
Continuous
 62
     7
370
    15
100
AcDbCircle
 10
123.3202689495
 20
126.1758546995
 30
0.0
 40
0.5999999999999943
100
AcDbArc
 50
270.0
 51
282.4923677447
  0
ARC
  5
9C
330
1F
100
AcDbEntity
  8
0
  6
Continuous
 62
     7
370
    15
100
AcDbCircle
 10
123.3202689495
 20
160.7758546995
 30
0.0
 40
0.5999999999999804
100
AcDbArc
 50
77.5076322553
 51
90.0
  0
LINE
  5
9D
330
1F
100
AcDbEntity
  8
0
  6
Continuous
 62
     7
370
    15
100
AcDbLine
 10
123.4500546865
 20
125.5900598015
 30
0.0
 11
124.1128915459
 21
125.7369145634
 31
0.0
  0
LINE
  5
9E
330
1F
100
AcDbEntity
  8
0
  6
Continuous
 62
     7
370
    15
100
AcDbLine
 10
124.1128915459
 20
161.2147948355
 30
0.0
 11
123.4500546865
 21
161.3616495975
 31
0.0
  0
ARC
  5
9F
330
1F
100
AcDbEntity
  8
0
  6
Continuous
 62
     7
370
    15
100
AcDbCircle
 10
124.2859391951
 20
124.9558546995
 30
0.0
 40
0.8000000000000175
100
AcDbArc
 50
78.8605288287
 51
102.4923677447
  0
ARC
  5
A0
330
1F
100
AcDbEntity
  8
0
  6
Continuous
 62
     7
370
    15
100
AcDbCircle
 10
124.2859391951
 20
161.9958546995
 30
0.0
 40
0.8000000000000315
100
AcDbArc
 50
257.5076322553
 51
281.1394711713
  0
LINE
  5
A1
330
1F
100
AcDbEntity
  8
0
  6
Continuous
 62
     7
370
    15
100
AcDbLine
 10
122.8102032639
 20
161.2001187682
 30
0.0
 11
120.9859391951
 21
159.3758546995
 31
0.0
  0
LINE
  5
A2
330
1F
100
AcDbEntity
  8
0
  6
Continuous
 62
     7
370
    15
100
AcDbLine
 10
120.9859391951
 20
127.5758546995
 30
0.0
 11
122.8102032639
 21
125.7515906308
 31
0.0
  0
ARC
  5
A3
330
1F
100
AcDbEntity
  8
0
  6
Continuous
 62
     7
370
    15
100
AcDbCircle
 10
159.8711484763
 20
125.2258546995
 30
0.0
 40
0.5999999999999943
100
AcDbArc
 50
90.0
 51
105.0
  0
ARC
  5
A4
330
1F
100
AcDbEntity
  8
0
  6
Continuous
 62
     7
370
    15
100
AcDbCircle
 10
159.8711484763
 20
161.7258546995
 30
0.0
 40
0.5999999999999943
100
AcDbArc
 50
255.0
 51
270.0
  0
LINE
  5
A5
330
1F
100
AcDbEntity
  8
0
  6
Continuous
 62
     7
370
    15
100
AcDbLine
 10
159.8711484763
 20
125.8258546995
 30
0.0
 11
160.5859391951
 21
125.8258546995
 31
0.0
  0
LINE
  5
A6
330
1F
100
AcDbEntity
  8
0
  6
Continuous
 62
     7
370
    15
100
AcDbLine
 10
160.5859391951
 20
161.1258546995
 30
0.0
 11
159.8711484763
 21
161.1258546995
 31
0.0
  0
LINE
  5
A7
330
1F
100
AcDbEntity
  8
0
  6
Continuous
 62
     7
370
    15
100
AcDbLine
 10
251.6859391951
 20
127.4639367996
 30
0.0
 11
251.9859391951
 21
127.7639367996
 31
0.0
  0
LINE
  5
A8
330
1F
100
AcDbEntity
  8
0
  6
Continuous
 62
     7
370
    15
100
AcDbLine
 10
251.9859391951
 20
159.1877725994
 30
0.0
 11
251.6859391951
 21
159.4877725994
 31
0.0
  0
LINE
  5
A9
330
1F
100
AcDbEntity
  8
0
  6
Continuous
 62
     7
370
    15
100
AcDbLine
 10
155.9859391951
 20
138.3008546995
 30
0.0
 11
155.9859391951
 21
148.6508546995
 31
0.0
  0
LINE
  5
AA
330
1F
100
AcDbEntity
  8
0
  6
Continuous
 62
     7
370
    15
100
AcDbLine
 10
156.2859391951
 20
148.9508546995
 30
0.0
 11
156.2859391951
 21
138.0008546995
 31
0.0
  0
LINE
  5
AB
330
1F
100
AcDbEntity
  8
0
  6
Continuous
 62
     7
370
    15
100
AcDbLine
 10
161.5859391951
 20
143.4758546995
 30
0.0
 11
161.5859391951
 21
175.4758546995
 31
0.0
  0
LINE
  5
AC
330
1F
100
AcDbEntity
  8
0
  6
Continuous
 62
     7
370
    15
100
AcDbLine
 10
161.5859391951
 20
111.4758546995
 30
0.0
 11
161.5859391951
 21
143.4758546995
 31
0.0
  0
LINE
  5
AD
330
1F
100
AcDbEntity
  8
0
  6
Continuous
 62
     7
370
    15
100
AcDbLine
 10
160.9859391951
 20
143.4758546995
 30
0.0
 11
160.9859391951
 21
174.8758546995
 31
0.0
  0
LINE
  5
AE
330
1F
100
AcDbEntity
  8
0
  6
Continuous
 62
     7
370
    15
100
AcDbLine
 10
160.9859391951
 20
112.0758546995
 30
0.0
 11
160.9859391951
 21
143.4758546995
 31
0.0
  0
SPLINE
  5
AF
330
1F
100
AcDbEntity
  8
0
  6
Continuous
 62
     7
370
    15
100
AcDbSpline
210
0.0
220
0.0
230
1.0
 70
     8
 71
     3
 72
    37
 73
    33
 74
     0
 42
0.000000001
 43
0.00000001
 40
0.0
 40
0.0
 40
0.0
 40
0.0
 40
0.0126538910668356
 40
0.0581842339361241
 40
0.1050249006560162
 40
0.1509053774034786
 40
0.1979543730962526
 40
0.2470816955363575
 40
0.2974159484565276
 40
0.3240899815651714
 40
0.3782443223017006
 40
0.4057712137514564
 40
0.4342066616851986
 40
0.4628288009562627
 40
0.4920317959518078
 40
0.5214325524359511
 40
0.5508544851797117
 40
0.580476664233189
 40
0.610731560076512
 40
0.6412064122171072
 40
0.670834164772346
 40
0.7006767512561426
 40
0.7312210967957947
 40
0.7620204540383924
 40
0.7903612334297339
 40
0.8189302892810948
 40
0.8482699582314152
 40
0.8778997163460617
 40
0.903235617624687
 40
0.9549670364078033
 40
0.98146455937732
 40
1.0
 40
1.0
 40
1.0
 40
1.0
 10
247.3661945806099
 20
159.6588081056125
 30
0.0
 10
247.3667164381482
 20
159.6588824351897
 30
0.0
 10
247.3691160068607
 20
159.6592242122355
 30
0.0
 10
247.314015539943
 20
159.6513759976562
 30
0.0
 10
247.1713635114405
 20
159.631785766924
 30
0.0
 10
246.9485876671114
 20
159.6032248911809
 30
0.0
 10
246.6543556809307
 20
159.5692855403428
 30
0.0
 10
246.2878296022394
 20
159.5331067334212
 30
0.0
 10
245.9259128142882
 20
159.5048310333256
 30
0.0
 10
245.5208969262945
 20
159.4806362021059
 30
0.0
 10
245.1637508787254
 20
159.4662672769105
 30
0.0
 10
244.7863423659617
 20
159.4593914003416
 30
0.0
 10
244.4902678911627
 20
159.4584831426358
 30
0.0
 10
244.1840702441725
 20
159.4623718483918
 30
0.0
 10
243.8721074788457
 20
159.4713629232056
 30
0.0
 10
243.5570354088452
 20
159.4856000145982
 30
0.0
 10
243.2423412704787
 20
159.5049528311816
 30
0.0
 10
242.9286442261709
 20
159.5293021668305
 30
0.0
 10
242.6175641993399
 20
159.5584160336479
 30
0.0
 10
242.3151167990383
 20
159.5914606935851
 30
0.0
 10
242.0248169492155
 20
159.6274879380203
 30
0.0
 10
241.7471202288999
 20
159.6658290986842
 30
0.0
 10
241.4813144645572
 20
159.7060731109986
 30
0.0
 10
241.2378207050077
 20
159.7459956964694
 30
0.0
 10
241.0190442696918
 20
159.7842718533811
 30
0.0
 10
240.8243933901711
 20
159.8201954971609
 30
0.0
 10
240.6502615975747
 20
159.8538415741675
 30
0.0
 10
240.5080898647628
 20
159.8823821131259
 30
0.0
 10
240.3600536608206
 20
159.9129541424093
 30
0.0
 10
240.2675768161979
 20
159.9327169742067
 30
0.0
 10
240.2192140841587
 20
159.9431684124652
 30
0.0
 10
240.2256879184428
 20
159.9417693859179
 30
0.0
 10
240.2283525303493
 20
159.9411935505424
 30
0.0
  0
LINE
  5
B0
330
1F
100
AcDbEntity
  8
0
  6
Continuous
 62
     7
370
    15
100
AcDbLine
 10
251.6859391951
 20
159.4877725994
 30
0.0
 11
251.6859391951
 21
127.4639367996
 31
0.0
  0
LINE
  5
B1
330
1F
100
AcDbEntity
  8
0
  6
Continuous
 62
     7
370
    15
100
AcDbLine
 10
158.4859391951
 20
148.9508546995
 30
0.0
 11
158.4859391951
 21
161.4758546995
 31
0.0
  0
LINE
  5
B2
330
1F
100
AcDbEntity
  8
0
  6
Continuous
 62
     7
370
    15
100
AcDbLine
 10
158.4859391951
 20
125.4758546995
 30
0.0
 11
158.4859391951
 21
138.0008546995
 31
0.0
  0
LINE
  5
B3
330
1F
100
AcDbEntity
  8
0
  6
Continuous
 62
     7
370
    15
100
AcDbLine
 10
125.7859391951
 20
143.4758546995
 30
0.0
 11
125.7859391951
 21
161.4758546995
 31
0.0
  0
LINE
  5
B4
330
1F
100
AcDbEntity
  8
0
  6
Continuous
 62
     7
370
    15
100
AcDbLine
 10
125.7859391951
 20
125.4758546995
 30
0.0
 11
125.7859391951
 21
143.4758546995
 31
0.0
  0
SPLINE
  5
B5
330
1F
100
AcDbEntity
  8
0
  6
Continuous
 62
     7
370
    15
100
AcDbSpline
210
0.0
220
0.0
230
1.0
 70
     8
 71
     3
 72
    40
 73
    36
 74
     0
 42
0.000000001
 43
0.00000001
 40
0.0
 40
0.0
 40
0.0
 40
0.0
 40
0.0182020467012635
 40
0.0400570645193734
 40
0.0795984947614527
 40
0.1201712765590943
 40
0.1621583306339495
 40
0.2050677342676237
 40
0.2535875097337377
 40
0.3031579048158827
 40
0.3312256191900712
 40
0.3594629803708516
 40
0.3882209345658558
 40
0.4171543848407339
 40
0.4475574870212013
 40
0.478166430655053
 40
0.5094237747487791
 40
0.5409050092617833
 40
0.5716877774770892
 40
0.6026843234637688
 40
0.6343578852574995
 40
0.6662677459827983
 40
0.696922110654638
 40
0.7278033516936067
 40
0.7594411392639244
 40
0.7913632224472382
 40
0.8150342631678831
 40
0.8388470908558551
 40
0.863141079622919
 40
0.8876192251592993
 40
0.9112975299140098
 40
0.9351791195241429
 40
0.9597505443704848
 40
0.9845803260160844
 40
1.0
 40
1.0
 40
1.0
 40
1.0
 10
152.4672403802789
 20
161.4706254668237
 30
0.0
 10
152.4722515484158
 20
161.4720252163392
 30
0.0
 10
152.4832795766738
 20
161.4751056312822
 30
0.0
 10
152.4072083880566
 20
161.4538576366672
 30
0.0
 10
152.2451835826794
 20
161.4090715387182
 30
0.0
 10
151.9204236232254
 20
161.3221140528925
 30
0.0
 10
151.4753743600804
 20
161.2089959774674
 30
0.0
 10
150.8960139064326
 20
161.0722550195861
 30
0.0
 10
150.1840778156316
 20
160.9211663545581
 30
0.0
 10
149.4702798860867
 20
160.7915274010803
 30
0.0
 10
148.8321854041135
 20
160.6936022155643
 30
0.0
 10
148.2997067139573
 20
160.6232051004903
 30
0.0
 10
147.7450446160052
 20
160.5624597881123
 30
0.0
 10
147.1625115521916
 20
160.5126300993546
 30
0.0
 10
146.5568550807029
 20
160.4762686235848
 30
0.0
 10
145.9282744290317
 20
160.4554355330418
 30
0.0
 10
145.2892235010473
 20
160.4519229746422
 30
0.0
 10
144.6503599921648
 20
160.4663681427074
 30
0.0
 10
144.0191801876893
 20
160.4980743896585
 30
0.0
 10
143.396897632748
 20
160.5460376272716
 30
0.0
 10
142.782026116778
 20
160.609643905724
 30
0.0
 10
142.1890303844216
 20
160.6861570646057
 30
0.0
 10
141.6247768803034
 20
160.7723607725499
 30
0.0
 10
141.0898680178678
 20
160.8657786107393
 30
0.0
 10
140.5811184568112
 20
160.9650707145236
 30
0.0
 10
140.1476909577225
 20
161.0578720222036
 30
0.0
 10
139.7869161649495
 20
161.1403609903303
 30
0.0
 10
139.4895978805137
 20
161.2117160828638
 30
0.0
 10
139.2216191405607
 20
161.2787665804391
 30
0.0
 10
138.9904508731206
 20
161.3386765533613
 30
0.0
 10
138.7999983586565
 20
161.3894292233425
 30
0.0
 10
138.6497839869762
 20
161.4303444326011
 30
0.0
 10
138.5476326539723
 20
161.4586038010873
 30
0.0
 10
138.4855102613611
 20
161.4759714946328
 30
0.0
 10
138.4978598413791
 20
161.472520308445
 30
0.0
 10
138.5025909984777
 20
161.4711981497962
 30
0.0
  0
LINE
  5
B6
330
1F
100
AcDbEntity
  8
0
  6
Continuous
 62
     7
370
    15
100
AcDbLine
 10
120.9859391951
 20
143.4758546995
 30
0.0
 11
120.9859391951
 21
159.3758546995
 31
0.0
  0
LINE
  5
B7
330
1F
100
AcDbEntity
  8
0
  6
Continuous
 62
     7
370
    15
100
AcDbLine
 10
120.9859391951
 20
127.5758546995
 30
0.0
 11
120.9859391951
 21
143.4758546995
 31
0.0
  0
LINE
  5
B8
330
1F
100
AcDbEntity
  8
0
  6
Continuous
 62
     7
370
    15
100
AcDbLine
 10
251.9859391951
 20
159.1877725994
 30
0.0
 11
251.9859391951
 21
127.7639367996
 31
0.0
  0
LINE
  5
B9
330
1F
100
AcDbEntity
  8
0
  6
Continuous
 62
     7
370
     0
100
AcDbLine
 10
172.2186122072
 20
143.4758546995
 30
0.0
 11
172.2186122072
 21
175.4758546995
 31
0.0
  0
LINE
  5
BA
330
1F
100
AcDbEntity
  8
0
  6
Continuous
 62
     7
370
     0
100
AcDbLine
 10
172.2186122072
 20
111.4758546995
 30
0.0
 11
172.2186122072
 21
143.4758546995
 31
0.0
  0
LINE
  5
BB
330
1F
100
AcDbEntity
  8
0
  6
Continuous
 62
     7
370
     0
100
AcDbLine
 10
173.1845380335
 20
143.4758546995
 30
0.0
 11
173.1845380335
 21
174.7346737446
 31
0.0
  0
LINE
  5
BC
330
1F
100
AcDbEntity
  8
0
  6
Continuous
 62
     7
370
     0
100
AcDbLine
 10
173.1845380335
 20
112.2170356544
 30
0.0
 11
173.1845380335
 21
143.4758546995
 31
0.0
  0
LINE
  5
BD
330
1F
100
AcDbEntity
  8
0
  6
Continuous
 62
     7
370
     0
100
AcDbLine
 10
175.7070520307
 20
121.6311860549
 30
0.0
 11
175.7070520307
 21
165.3205233441
 31
0.0
  0
LINE
  5
BE
330
1F
100
AcDbEntity
  8
0
  6
Continuous
 62
     7
370
     0
100
AcDbLine
 10
179.4119752465
 20
162.3589521565
 30
0.0
 11
179.4119752465
 21
124.5927572425
 31
0.0
  0
LINE
  5
BF
330
1F
100
AcDbEntity
  8
0
  6
Continuous
 62
     7
370
     0
100
AcDbLine
 10
160.5859391951
 20
148.9508546995
 30
0.0
 11
160.5859391951
 21
161.1258546995
 31
0.0
  0
LINE
  5
C0
330
1F
100
AcDbEntity
  8
0
  6
Continuous
 62
     7
370
     0
100
AcDbLine
 10
160.5859391951
 20
125.8258546995
 30
0.0
 11
160.5859391951
 21
138.0008546995
 31
0.0
  0
LINE
  5
C1
330
1F
100
AcDbEntity
  8
0
  6
Continuous
 62
     7
370
     0
100
AcDbLine
 10
159.7158570493
 20
148.9508546995
 30
0.0
 11
159.7158570493
 21
161.1462992037
 31
0.0
  0
LINE
  5
C2
330
1F
100
AcDbEntity
  8
0
  6
Continuous
 62
     7
370
     0
100
AcDbLine
 10
159.7158570493
 20
125.8054101953
 30
0.0
 11
159.7158570493
 21
138.0008546995
 31
0.0
  0
LINE
  5
C3
330
1F
100
AcDbEntity
  8
0
  6
Continuous
 62
     7
370
     0
100
AcDbLine
 10
124.4404975433
 20
143.4758546995
 30
0.0
 11
124.4404975433
 21
161.2109268576
 31
0.0
  0
LINE
  5
C4
330
1F
100
AcDbEntity
  8
0
  6
Continuous
 62
     7
370
     0
100
AcDbLine
 10
124.4404975433
 20
125.7407825414
 30
0.0
 11
124.4404975433
 21
143.4758546995
 31
0.0
  0
LINE
  5
C5
330
1F
100
AcDbEntity
  8
0
  6
Continuous
 62
     7
370
     0
100
AcDbLine
 10
123.3202689495
 20
143.4758546995
 30
0.0
 11
123.3202689495
 21
161.3758546995
 31
0.0
  0
LINE
  5
C6
330
1F
100
AcDbEntity
  8
0
  6
Continuous
 62
     7
370
     0
100
AcDbLine
 10
123.3202689495
 20
125.5758546995
 30
0.0
 11
123.3202689495
 21
143.4758546995
 31
0.0
  0
LINE
  5
C7
330
1F
100
AcDbEntity
  8
0
  6
Continuous
 62
     7
370
     0
100
AcDbLine
 10
123.2344673326
 20
143.4758546995
 30
0.0
 11
123.2344673326
 21
161.3758546995
 31
0.0
  0
LINE
  5
C8
330
1F
100
AcDbEntity
  8
0
  6
Continuous
 62
     7
370
     0
100
AcDbLine
 10
123.2344673326
 20
125.5758546995
 30
0.0
 11
123.2344673326
 21
143.4758546995
 31
0.0
  0
LINE
  5
C9
330
1F
100
AcDbEntity
  8
0
  6
Continuous
 62
     7
370
     0
100
AcDbLine
 10
122.8102032639
 20
143.4758546995
 30
0.0
 11
122.8102032639
 21
161.2001187682
 31
0.0
  0
LINE
  5
CA
330
1F
100
AcDbEntity
  8
0
  6
Continuous
 62
     7
370
     0
100
AcDbLine
 10
122.8102032639
 20
125.7515906308
 30
0.0
 11
122.8102032639
 21
143.4758546995
 31
0.0
  0
LINE
  5
CB
330
1F
100
AcDbEntity
  8
0
  6
Continuous
 62
     7
370
     0
100
AcDbLine
 10
123.4500546865
 20
143.4758546995
 30
0.0
 11
123.4500546865
 21
161.3616495975
 31
0.0
  0
LINE
  5
CC
330
1F
100
AcDbEntity
  8
0
  6
Continuous
 62
     7
370
     0
100
AcDbLine
 10
123.4500546865
 20
125.5900598015
 30
0.0
 11
123.4500546865
 21
143.4758546995
 31
0.0
  0
LINE
  5
CD
330
1F
100
AcDbEntity
  8
0
  6
Continuous
 62
     7
370
     0
100
AcDbLine
 10
124.1128915459
 20
143.4758546995
 30
0.0
 11
124.1128915459
 21
161.2147948355
 31
0.0
  0
LINE
  5
CE
330
1F
100
AcDbEntity
  8
0
  6
Continuous
 62
     7
370
     0
100
AcDbLine
 10
124.1128915459
 20
125.7369145634
 30
0.0
 11
124.1128915459
 21
143.4758546995
 31
0.0
  0
LINE
  5
CF
330
1F
100
AcDbEntity
  8
0
  6
Continuous
 62
     7
370
     0
100
AcDbLine
 10
159.8711484763
 20
148.9508546995
 30
0.0
 11
159.8711484763
 21
161.1258546995
 31
0.0
  0
LINE
  5
D0
330
1F
100
AcDbEntity
  8
0
  6
Continuous
 62
     7
370
     0
100
AcDbLine
 10
159.8711484763
 20
125.8258546995
 30
0.0
 11
159.8711484763
 21
138.0008546995
 31
0.0
  0
LINE
  5
D1
330
1F
100
AcDbEntity
  8
0
  6
HIDDEN
 62
     7
370
     0
100
AcDbLine
 10
167.4859391951
 20
145.9758546995
 30
0.0
 11
167.4859391951
 21
140.9758546995
 31
0.0
  0
LINE
  5
D2
330
1F
100
AcDbEntity
  8
0
  6
HIDDEN
 62
     7
370
     0
100
AcDbLine
 10
167.9859391951
 20
145.8418801033
 30
0.0
 11
167.9859391951
 21
141.1098292957
 31
0.0
  0
LINE
  5
D3
330
1F
100
AcDbEntity
  8
0
  6
HIDDEN
 62
     7
370
     0
100
AcDbLine
 10
246.5359391951
 20
159.4877725994
 30
0.0
 11
245.6595253771
 21
159.4877725994
 31
0.0
  0
LINE
  5
D4
330
1F
100
AcDbEntity
  8
0
  6
HIDDEN
 62
     7
370
     0
100
AcDbLine
 10
243.5278448351
 20
159.4877725994
 30
0.0
 11
241.3359391951
 21
159.4877725994
 31
0.0
  0
LINE
  5
D5
330
1F
100
AcDbEntity
  8
0
  6
HIDDEN
 62
     7
370
     0
100
AcDbLine
 10
246.9359391951
 20
159.0877725994
 30
0.0
 11
240.9359391951
 21
159.0877725994
 31
0.0
  0
LINE
  5
D6
330
1F
100
AcDbEntity
  8
0
  6
HIDDEN
 62
     7
370
     0
100
AcDbLine
 10
246.9359391951
 20
154.3466183262
 30
0.0
 11
240.9359391951
 21
154.3466183262
 31
0.0
  0
LINE
  5
D7
330
1F
100
AcDbEntity
  8
0
  6
HIDDEN
 62
     7
370
     0
100
AcDbLine
 10
246.0895290336
 20
151.1877725994
 30
0.0
 11
241.7823493567
 21
151.1877725994
 31
0.0
  0
LINE
  5
D8
330
1F
100
AcDbEntity
  8
0
  6
HIDDEN
 62
     7
370
     0
100
AcDbLine
 10
245.8895290336
 20
150.9877725994
 30
0.0
 11
241.9823493567
 21
150.9877725994
 31
0.0
  0
SPLINE
  5
D9
330
1F
100
AcDbEntity
  8
0
  6
HIDDEN
 62
     7
370
     0
100
AcDbSpline
210
0.0
220
0.0
230
1.0
 70
     8
 71
     3
 72
    14
 73
    10
 74
     0
 42
0.000000001
 43
0.00000001
 40
0.0
 40
0.0
 40
0.0
 40
0.0
 40
0.117980469686138
 40
0.294114240933027
 40
0.4755700099650184
 40
0.6420447306966541
 40
0.8146342629477287
 40
0.9071144418940865
 40
0.9999999999999999
 40
0.9999999999999999
 40
0.9999999999999999
 40
0.9999999999999999
 10
242.2672377607048
 20
159.3198234069511
 30
0.0
 10
242.2832703680241
 20
159.2892663705961
 30
0.0
 10
242.3232381537472
 20
159.2130905461006
 30
0.0
 10
242.3914542521946
 20
159.1224620260109
 30
0.0
 10
242.4700576285233
 20
159.0773772099926
 30
0.0
 10
242.5487063229196
 20
159.1004366421268
 30
0.0
 10
242.611675334934
 20
159.1687083134635
 30
0.0
 10
242.6618914737708
 20
159.2470706216619
 30
0.0
 10
242.6870271725049
 20
159.2955371477928
 30
0.0
 10
242.6996225066935
 20
159.3198234069511
 30
0.0
  0
SPLINE
  5
DA
330
1F
100
AcDbEntity
  8
0
  6
HIDDEN
 62
     7
370
     0
100
AcDbSpline
210
0.0
220
0.0
230
1.0
 70
     8
 71
     3
 72
    10
 73
     6
 74
     0
 42
0.000000001
 43
0.00000001
 40
0.0
 40
0.0
 40
0.0
 40
0.0
 40
0.4391165375904051
 40
0.7513669429073442
 40
1.0
 40
1.0
 40
1.0
 40
1.0
 10
243.5035544491545
 20
159.3198234069511
 30
0.0
 10
243.3265661841702
 20
159.2170888672898
 30
0.0
 10
243.0237237261717
 20
159.0413010515545
 30
0.0
 10
242.5834887253865
 20
159.1194374803061
 30
0.0
 10
242.3643703605505
 20
159.2582773305712
 30
0.0
 10
242.2672377607048
 20
159.3198234069511
 30
0.0
  0
SPLINE
  5
DB
330
1F
100
AcDbEntity
  8
0
  6
HIDDEN
 62
     7
370
     0
100
AcDbSpline
210
0.0
220
0.0
230
1.0
 70
     8
 71
     3
 72
    10
 73
     6
 74
     0
 42
0.000000001
 43
0.00000001
 40
0.0
 40
0.0
 40
0.0
 40
0.0
 40
0.4391165375904263
 40
0.751366942907349
 40
1.0
 40
1.0
 40
1.0
 40
1.0
 10
245.172255883593
 20
159.3198234069511
 30
0.0
 10
244.933368408873
 20
159.2170888672898
 30
0.0
 10
244.5246109693008
 20
159.0413010515545
 30
0.0
 10
243.930409836077
 20
159.1194374803061
 30
0.0
 10
243.6346578389312
 20
159.2582773305712
 30
0.0
 10
243.5035544491545
 20
159.3198234069511
 30
0.0
  0
SPLINE
  5
DC
330
1F
100
AcDbEntity
  8
0
  6
HIDDEN
 62
     7
370
     0
100
AcDbSpline
210
0.0
220
0.0
230
1.0
 70
     8
 71
     3
 72
    14
 73
    10
 74
     0
 42
0.000000001
 43
0.00000001
 40
0.0
 40
0.0
 40
0.0
 40
0.0
 40
0.0925053921640178
 40
0.1853653023511322
 40
0.3522026247278507
 40
0.5244226719967899
 40
0.7000477838115027
 40
0.8820197739616582
 40
1.0
 40
1.0
 40
1.0
 40
1.0
 10
245.6046406295818
 20
159.3198234069511
 30
0.0
 10
245.5920973437428
 20
159.2956337060384
 30
0.0
 10
245.5669627011277
 20
159.2471615995098
 30
0.0
 10
245.5175531537871
 20
159.1700318266787
 30
0.0
 10
245.4546036749032
 20
159.1010992984198
 30
0.0
 10
245.3768146396168
 20
159.0771527582098
 30
0.0
 10
245.2973491743342
 20
159.1215410276561
 30
0.0
 10
245.2290480252296
 20
159.2115864910059
 30
0.0
 10
245.1882880194851
 20
159.2892686700638
 30
0.0
 10
245.172255883593
 20
159.3198234069511
 30
0.0
  0
SPLINE
  5
DD
330
1F
100
AcDbEntity
  8
0
  6
HIDDEN
 62
     7
370
     0
100
AcDbSpline
210
0.0
220
0.0
230
1.0
 70
     8
 71
     3
 72
    10
 73
     6
 74
     0
 42
0.000000001
 43
0.00000001
 40
0.0
 40
0.0
 40
0.0
 40
0.0
 40
0.4391165375903822
 40
0.7513669429073377
 40
1.0
 40
1.0
 40
1.0
 40
1.0
 10
244.368323941132
 20
159.3198234069511
 30
0.0
 10
244.5453122061163
 20
159.2170888672898
 30
0.0
 10
244.8481546641148
 20
159.0413010515545
 30
0.0
 10
245.2883896649
 20
159.1194374803061
 30
0.0
 10
245.507508029736
 20
159.2582773305712
 30
0.0
 10
245.6046406295818
 20
159.3198234069511
 30
0.0
  0
SPLINE
  5
DE
330
1F
100
AcDbEntity
  8
0
  6
HIDDEN
 62
     7
370
     0
100
AcDbSpline
210
0.0
220
0.0
230
1.0
 70
     8
 71
     3
 72
    10
 73
     6
 74
     0
 42
0.000000001
 43
0.00000001
 40
0.0
 40
0.0
 40
0.0
 40
0.0
 40
0.4391165375904422
 40
0.7513669429073556
 40
1.0
 40
1.0
 40
1.0
 40
1.0
 10
242.6996225066935
 20
159.3198234069511
 30
0.0
 10
242.9385099814135
 20
159.2170888672898
 30
0.0
 10
243.3472674209857
 20
159.0413010515545
 30
0.0
 10
243.9414685542096
 20
159.1194374803061
 30
0.0
 10
244.2372205513553
 20
159.2582773305712
 30
0.0
 10
244.368323941132
 20
159.3198234069511
 30
0.0
  0
LINE
  5
DF
330
1F
100
AcDbEntity
  8
0
  6
HIDDEN
 62
     7
370
     0
100
AcDbLine
 10
243.5035544492
 20
155.4877725994
 30
0.0
 11
244.3379051664
 21
155.4877725994
 31
0.0
  0
LINE
  5
E0
330
1F
100
AcDbEntity
  8
0
  6
HIDDEN
 62
     7
370
     0
100
AcDbLine
 10
242.8853961049
 20
155.4877725994
 30
0.0
 11
243.5035544492
 21
155.4877725994
 31
0.0
  0
LINE
  5
E1
330
1F
100
AcDbEntity
  8
0
  6
HIDDEN
 62
     7
370
     0
100
AcDbLine
 10
243.5035544492
 20
155.4877725994
 30
0.0
 11
243.5035544492
 21
159.319823407
 31
0.0
  0
LINE
  5
E2
330
1F
100
AcDbEntity
  8
0
  6
HIDDEN
 62
     7
370
     0
100
AcDbLine
 10
245.4359391951
 20
154.4877725994
 30
0.0
 11
242.4359391951
 21
154.4877725994
 31
0.0
  0
LINE
  5
E3
330
1F
100
AcDbEntity
  8
0
  6
HIDDEN
 62
     7
370
     0
100
AcDbLine
 10
244.3379051664
 20
155.4877725994
 30
0.0
 11
245.1722558836
 21
155.4877725994
 31
0.0
  0
LINE
  5
E4
330
1F
100
AcDbEntity
  8
0
  6
HIDDEN
 62
     7
370
     0
100
AcDbLine
 10
245.1722558836
 20
155.4877725994
 30
0.0
 11
245.3884482566
 21
155.4877725994
 31
0.0
  0
LINE
  5
E5
330
1F
100
AcDbEntity
  8
0
  6
HIDDEN
 62
     7
370
     0
100
AcDbLine
 10
245.1722558836
 20
155.4877725994
 30
0.0
 11
245.1722558836
 21
159.319823407
 31
0.0
  0
LINE
  5
E6
330
1F
100
AcDbEntity
  8
0
  6
HIDDEN
 62
     7
370
     0
100
AcDbLine
 10
242.2672377607
 20
155.4877725994
 30
0.0
 11
242.8853961049
 21
155.4877725994
 31
0.0
  0
LINE
  5
E7
330
1F
100
AcDbEntity
  8
0
  6
HIDDEN
 62
     7
370
     0
100
AcDbLine
 10
242.6996225067
 20
155.4877725994
 30
0.0
 11
242.6996225067
 21
159.319823407
 31
0.0
  0
LINE
  5
E8
330
1F
100
AcDbEntity
  8
0
  6
HIDDEN
 62
     7
370
     0
100
AcDbLine
 10
242.2672377607
 20
155.4877725994
 30
0.0
 11
242.2672377607
 21
159.319823407
 31
0.0
  0
LINE
  5
E9
330
1F
100
AcDbEntity
  8
0
  6
HIDDEN
 62
     7
370
     0
100
AcDbLine
 10
245.3884482566
 20
155.4877725994
 30
0.0
 11
245.6046406296
 21
155.4877725994
 31
0.0
  0
LINE
  5
EA
330
1F
100
AcDbEntity
  8
0
  6
HIDDEN
 62
     7
370
     0
100
AcDbLine
 10
244.3683239411
 20
155.4877725994
 30
0.0
 11
244.3683239411
 21
159.319823407
 31
0.0
  0
LINE
  5
EB
330
1F
100
AcDbEntity
  8
0
  6
HIDDEN
 62
     7
370
     0
100
AcDbLine
 10
245.6046406296
 20
155.4877725994
 30
0.0
 11
245.6046406296
 21
159.319823407
 31
0.0
  0
LINE
  5
EC
330
1F
100
AcDbEntity
  8
0
  6
HIDDEN
 62
     7
370
     0
100
AcDbLine
 10
161.4859391951
 20
143.4758546995
 30
0.0
 11
161.4859391951
 21
145.9758546995
 31
0.0
  0
LINE
  5
ED
330
1F
100
AcDbEntity
  8
0
  6
HIDDEN
 62
     7
370
     0
100
AcDbLine
 10
161.4859391951
 20
140.9758546995
 30
0.0
 11
161.4859391951
 21
143.4758546995
 31
0.0
  0
LINE
  5
EE
330
1F
100
AcDbEntity
  8
0
  6
HIDDEN
 62
     7
370
     0
100
AcDbLine
 10
168.9859391951
 20
143.4758546995
 30
0.0
 11
168.9859391951
 21
145.9758546995
 31
0.0
  0
LINE
  5
EF
330
1F
100
AcDbEntity
  8
0
  6
HIDDEN
 62
     7
370
     0
100
AcDbLine
 10
168.9859391951
 20
140.9758546995
 30
0.0
 11
168.9859391951
 21
143.4758546995
 31
0.0
  0
SPLINE
  5
F0
330
1F
100
AcDbEntity
  8
0
  6
HIDDEN
 62
     7
370
     0
100
AcDbSpline
210
0.0
220
0.0
230
1.0
 70
     8
 71
     3
 72
     9
 73
     5
 74
     0
 42
0.000000001
 43
0.00000001
 40
0.0
 40
0.0
 40
0.0
 40
0.0
 40
0.5551960107922167
 40
1.0
 40
1.0
 40
1.0
 40
1.0
 10
240.2283525303493
 20
159.9411935505424
 30
0.0
 10
240.2253429679229
 20
159.9418328383811
 30
0.0
 10
240.2199222473704
 20
159.9429843016955
 30
0.0
 10
240.2583219605927
 20
159.9347739309618
 30
0.0
 10
240.2754023062184
 20
159.9311219253066
 30
0.0
  0
LINE
  5
F1
330
1F
100
AcDbEntity
  8
0
  6
HIDDEN
 62
     7
370
     0
100
AcDbLine
 10
158.4859391951
 20
143.4758546995
 30
0.0
 11
158.4859391951
 21
148.9508546995
 31
0.0
  0
LINE
  5
F2
330
1F
100
AcDbEntity
  8
0
  6
HIDDEN
 62
     7
370
     0
100
AcDbLine
 10
158.4859391951
 20
138.0008546995
 30
0.0
 11
158.4859391951
 21
143.4758546995
 31
0.0
  0
LINE
  5
F3
330
1F
100
AcDbEntity
  8
0
  6
HIDDEN
 62
     7
370
     0
100
AcDbLine
 10
140.8304664099
 20
160.9168225592
 30
0.0
 11
140.9699641198
 21
160.8909640482
 31
0.0
  0
SPLINE
  5
F4
330
1F
100
AcDbEntity
  8
0
  6
HIDDEN
 62
     7
370
     0
100
AcDbSpline
210
0.0
220
0.0
230
1.0
 70
     8
 71
     3
 72
    12
 73
     8
 74
     0
 42
0.000000001
 43
0.00000001
 40
0.0
 40
0.0
 40
0.0
 40
0.0
 40
0.1703473801411681
 40
0.450959309051509
 40
0.713338226227747
 40
0.9820432954237098
 40
1.0
 40
1.0
 40
1.0
 40
1.0
 10
138.5025909984777
 20
161.4711981497962
 30
0.0
 10
138.5015499655726
 20
161.47149576004
 30
0.0
 10
138.4987940471711
 20
161.4722836213491
 30
0.0
 10
138.6538690737263
 20
161.4287643868204
 30
0.0
 10
138.9492552989105
 20
161.3498863975623
 30
0.0
 10
139.2020373221366
 20
161.2820831725905
 30
0.0
 10
139.3811637021221
 20
161.2391788293258
 30
0.0
 10
139.392384310454
 20
161.2364912696735
 30
0.0
  0
LINE
  5
F5
330
1F
100
AcDbEntity
  8
0
  6
HIDDEN
 62
     7
370
     0
100
AcDbLine
 10
140.6206302013
 20
160.9588662695
 30
0.0
 11
140.8304664099
 21
160.9168225592
 31
0.0
  0
SPLINE
  5
F6
330
1F
100
AcDbEntity
  8
0
  6
HIDDEN
 62
     7
370
     0
100
AcDbSpline
210
0.0
220
0.0
230
1.0
 70
     8
 71
     3
 72
    22
 73
    18
 74
     0
 42
0.000000001
 43
0.00000001
 40
0.0
 40
0.0
 40
0.0
 40
0.0
 40
0.125
 40
0.125
 40
0.25
 40
0.25
 40
0.375
 40
0.375
 40
0.5
 40
0.5
 40
0.625
 40
0.625
 40
0.75
 40
0.75
 40
0.875
 40
0.875
 40
1.0
 40
1.0
 40
1.0
 40
1.0
 10
251.5859391951432
 20
141.3107911900291
 30
0.0
 10
251.5859391951432
 20
141.4209039430715
 30
0.0
 10
251.5857566733789
 20
141.5533524297052
 30
0.0
 10
251.5825093153879
 20
141.8615954840701
 30
0.0
 10
251.5795201726385
 20
142.0374615629611
 30
0.0
 10
251.5711882432342
 20
142.413441511182
 30
0.0
 10
251.5658307715304
 20
142.618893446854
 30
0.0
 10
251.5554655906593
 20
143.0388827088507
 30
0.0
 10
251.5504685356769
 20
143.2566966563562
 30
0.0
 10
251.5440195958068
 20
143.6947063256341
 30
0.0
 10
251.5427280073042
 20
143.909936421373
 30
0.0
 10
251.5455838917187
 20
144.3328660364658
 30
0.0
 10
251.5496937932237
 20
144.5361191567529
 30
0.0
 10
251.5612317848972
 20
144.9127157980154
 30
0.0
 10
251.5686303088046
 20
145.0892005362427
 30
0.0
 10
251.5811232291547
 20
145.3963298372035
 30
0.0
 10
251.585939201071
 20
145.530795290114
 30
0.0
 10
251.5859391998432
 20
145.6409182089513
 30
0.0
  0
LINE
  5
F7
330
1F
100
AcDbEntity
  8
0
  6
HIDDEN
 62
     7
370
     0
100
AcDbLine
 10
243.0859391951
 20
141.31079119
 30
0.0
 11
243.0859391951
 21
145.640918209
 31
0.0
  0
LINE
  5
F8
330
1F
100
AcDbEntity
  8
0
  6
HIDDEN
 62
     7
370
     0
100
AcDbLine
 10
251.5859391951
 20
139.075409759
 30
0.0
 11
251.5859391951
 21
141.31079119
 31
0.0
  0
LINE
  5
F9
330
1F
100
AcDbEntity
  8
0
  6
HIDDEN
 62
     7
370
     0
100
AcDbLine
 10
243.0859391951
 20
139.0090781083
 30
0.0
 11
243.0859391951
 21
141.31079119
 31
0.0
  0
LINE
  5
FA
330
1F
100
AcDbEntity
  8
0
  6
HIDDEN
 62
     7
370
     0
100
AcDbLine
 10
243.0859391951
 20
145.640918209
 30
0.0
 11
243.0859391951
 21
147.9426312907
 31
0.0
  0
LINE
  5
FB
330
1F
100
AcDbEntity
  8
0
  6
HIDDEN
 62
     7
370
     0
100
AcDbLine
 10
251.5859391998
 20
145.640918209
 30
0.0
 11
251.5859391952
 21
147.8762996399
 31
0.0
  0
LINE
  5
FC
330
1F
100
AcDbEntity
  8
0
  6
HIDDEN
 62
     7
370
     0
100
AcDbLine
 10
231.4859391951
 20
152.1758546995
 30
0.0
 11
231.4859391951
 21
134.7758546995
 31
0.0
  0
LINE
  5
FD
330
1F
100
AcDbEntity
  8
0
  6
HIDDEN
 62
     7
370
     0
100
AcDbLine
 10
123.9859391951
 20
143.4758546995
 30
0.0
 11
123.9859391951
 21
152.9758546995
 31
0.0
  0
LINE
  5
FE
330
1F
100
AcDbEntity
  8
0
  6
HIDDEN
 62
     7
370
     0
100
AcDbLine
 10
123.9859391951
 20
133.9758546995
 30
0.0
 11
123.9859391951
 21
143.4758546995
 31
0.0
  0
LINE
  5
FF
330
1F
100
AcDbEntity
  8
0
  6
HIDDEN
 62
     7
370
     0
100
AcDbLine
 10
124.8872301237
 20
143.4758546995
 30
0.0
 11
124.8872301237
 21
151.4758546995
 31
0.0
  0
LINE
  5
100
330
1F
100
AcDbEntity
  8
0
  6
HIDDEN
 62
     7
370
     0
100
AcDbLine
 10
124.8872301237
 20
135.4758546995
 30
0.0
 11
124.8872301237
 21
143.4758546995
 31
0.0
  0
LINE
  5
101
330
1F
100
AcDbEntity
  8
0
  6
HIDDEN
 62
     7
370
     0
100
AcDbLine
 10
234.8519645989
 20
152.4758546995
 30
0.0
 11
234.8519645989
 21
134.4758546995
 31
0.0
  0
SPLINE
  5
102
330
1F
100
AcDbEntity
  8
0
  6
HIDDEN
 62
     7
370
     0
100
AcDbSpline
210
0.0
220
0.0
230
1.0
 70
     8
 71
     3
 72
    41
 73
    37
 74
     0
 42
0.000000001
 43
0.00000001
 40
0.0
 40
0.0
 40
0.0
 40
0.0
 40
0.0244880294483678
 40
0.049335545408994
 40
0.0743650514558842
 40
0.0997661412844173
 40
0.1242530940306559
 40
0.1490769161129293
 40
0.1740697892222026
 40
0.1994070252508797
 40
0.2244988798953945
 40
0.2499341451830758
 40
0.2755434023554615
 40
0.3015108215571045
 40
0.3486623613086427
 40
0.4056690920451951
 40
0.4305544106555623
 40
0.4558181561262094
 40
0.4812758379939882
 40
0.5071327098641938
 40
0.5555816451588896
 40
0.5801665462269323
 40
0.6050979993428134
 40
0.6542156142413946
 40
0.6791209285109099
 40
0.704359940463316
 40
0.7297169405599032
 40
0.7554293796496478
 40
0.7813229852890102
 40
0.8075910671260289
 40
0.854547259716731
 40
0.911338863332265
 40
0.9359474793258928
 40
0.9609224522725577
 40
0.9860841589723713
 40
1.0
 40
1.0
 40
1.0
 40
1.0
 10
241.3109391951434
 20
152.4758546994902
 30
0.0
 10
241.3125959669785
 20
152.4753707557123
 30
0.0
 10
241.315933832211
 20
152.4743957638176
 30
0.0
 10
241.3430929504973
 20
152.4665083000583
 30
0.0
 10
241.3869442255846
 20
152.4539342314
 30
0.0
 10
241.4482855373035
 20
152.436675259962
 30
0.0
 10
241.5259668476586
 20
152.4153812824215
 30
0.0
 10
241.6189767867267
 20
152.3907027748731
 30
0.0
 10
241.7284168095962
 20
152.3628245288527
 30
0.0
 10
241.8530566741368
 20
152.3326194196671
 30
0.0
 10
241.9924933395588
 20
152.3007972052098
 30
0.0
 10
242.1456754396705
 20
152.2682494831853
 30
0.0
 10
242.3131771978844
 20
152.2355906267164
 30
0.0
 10
242.5427716577305
 20
152.1952359057681
 30
0.0
 10
242.8707204534259
 20
152.1469963644576
 30
0.0
 10
243.2241134382274
 20
152.1114883596406
 30
0.0
 10
243.5275791120071
 20
152.0933264684396
 30
0.0
 10
243.7448297345234
 20
152.0857214267499
 30
0.0
 10
243.9663520778416
 20
152.0836293874626
 30
0.0
 10
244.2545576144375
 20
152.088362011464
 30
0.0
 10
244.5370710181233
 20
152.1036418186023
 30
0.0
 10
244.8070884006542
 20
152.1277256821391
 30
0.0
 10
245.0708314480727
 20
152.1573291174475
 30
0.0
 10
245.3210529381142
 20
152.1939079779867
 30
0.0
 10
245.5521801638631
 20
152.2344127257627
 30
0.0
 10
245.7170294681208
 20
152.2663894027872
 30
0.0
 10
245.8713560344831
 20
152.2990192616843
 30
0.0
 10
246.0135405151673
 20
152.3313614259876
 30
0.0
 10
246.1426706615181
 20
152.3626085299829
 30
0.0
 10
246.2868570722964
 20
152.3993605801403
 30
0.0
 10
246.4370064959407
 20
152.4401218520883
 30
0.0
 10
246.5256984792879
 20
152.4656077620857
 30
0.0
 10
246.5584631884301
 20
152.4751281965906
 30
0.0
 10
246.563008396307
 20
152.4764641824569
 30
0.0
 10
246.5543226403187
 20
152.4739091192843
 30
0.0
 10
246.5368578081209
 20
152.4688704738367
 30
0.0
 10
246.5306384355509
 20
152.4670761701222
 30
0.0
  0
LINE
  5
103
330
1F
100
AcDbEntity
  8
0
  6
HIDDEN
 62
     7
370
     0
100
AcDbLine
 10
243.0859391951
 20
147.9426312907
 30
0.0
 11
251.2859391951
 21
147.9426312907
 31
0.0
  0
LINE
  5
104
330
1F
100
AcDbEntity
  8
0
  6
HIDDEN
 62
     7
370
     0
100
AcDbLine
 10
243.0859391951
 20
139.0090781083
 30
0.0
 11
251.2859391951
 21
139.0090781083
 31
0.0
  0
SPLINE
  5
105
330
1F
100
AcDbEntity
  8
0
  6
HIDDEN
 62
     7
370
     0
100
AcDbSpline
210
0.0
220
0.0
230
1.0
 70
     8
 71
     3
 72
    10
 73
     6
 74
     0
 42
0.000000001
 43
0.00000001
 40
0.0
 40
0.0
 40
0.0
 40
0.0
 40
0.5
 40
0.5
 40
1.0
 40
1.0
 40
1.0
 40
1.0
 10
251.5859391951758
 20
147.876299639929
 30
0.0
 10
251.5447431332586
 20
147.8952876765998
 30
0.0
 10
251.4993056689048
 20
147.9117280296904
 30
0.0
 10
251.3976327376143
 20
147.935672084768
 30
0.0
 10
251.3424714496028
 20
147.9426312906918
 30
0.0
 10
251.2859391951434
 20
147.9426312906918
 30
0.0
  0
SPLINE
  5
106
330
1F
100
AcDbEntity
  8
0
  6
HIDDEN
 62
     7
370
     0
100
AcDbSpline
210
0.0
220
0.0
230
1.0
 70
     8
 71
     3
 72
    16
 73
    12
 74
     0
 42
0.000000001
 43
0.00000001
 40
0.0
 40
0.0
 40
0.0
 40
0.0
 40
0.2500000000000001
 40
0.2500000000000001
 40
0.3750000000000002
 40
0.3750000000000002
 40
0.5000000000000002
 40
0.5000000000000002
 40
0.7500000000000001
 40
0.7500000000000001
 40
1.0
 40
1.0
 40
1.0
 40
1.0
 10
251.5859391951574
 20
147.8762996399253
 30
0.0
 10
251.639193821802
 20
147.9422458882437
 30
0.0
 10
251.6987306263439
 20
148.0091327125695
 30
0.0
 10
251.7888254403127
 20
148.0826722409281
 30
0.0
 10
251.8184746969146
 20
148.1016925983614
 30
0.0
 10
251.8692585181253
 20
148.1227124998689
 30
0.0
 10
251.8902548524094
 20
148.125073969059
 30
0.0
 10
251.9410607303549
 20
148.1156944052803
 30
0.0
 10
251.9590514674298
 20
148.0899074383215
 30
0.0
 10
251.981716614002
 20
148.0266219907901
 30
0.0
 10
251.9859391951432
 20
147.9881705162897
 30
0.0
 10
251.9859391951432
 20
147.945673712792
 30
0.0
  0
SPLINE
  5
107
330
1F
100
AcDbEntity
  8
0
  6
HIDDEN
 62
     7
370
     0
100
AcDbSpline
210
0.0
220
0.0
230
1.0
 70
     8
 71
     3
 72
    16
 73
    12
 74
     0
 42
0.000000001
 43
0.00000001
 40
0.0
 40
0.0
 40
0.0
 40
0.0
 40
0.2499999999999786
 40
0.2499999999999786
 40
0.3749999999999822
 40
0.3749999999999822
 40
0.4999999999999859
 40
0.4999999999999859
 40
0.749999999999993
 40
0.749999999999993
 40
1.0
 40
1.0
 40
1.0
 40
1.0
 10
251.5859391951454
 20
139.0754097590329
 30
0.0
 10
251.6390810647814
 20
139.0096043837528
 30
0.0
 10
251.6987722838665
 20
138.9425593485776
 30
0.0
 10
251.7887754264284
 20
138.869162289032
 30
0.0
 10
251.8181662521198
 20
138.8502841225053
 30
0.0
 10
251.8693338417993
 20
138.8291451460816
 30
0.0
 10
251.890417542127
 20
138.8269099520605
 30
0.0
 10
251.9406938918962
 20
138.8363003048511
 30
0.0
 10
251.9589611741193
 20
138.8620787960992
 30
0.0
 10
251.98168376901
 20
138.9254223818418
 30
0.0
 10
251.9859391951484
 20
138.964520207639
 30
0.0
 10
251.9859391951481
 20
139.0066225932794
 30
0.0
  0
SPLINE
  5
108
330
1F
100
AcDbEntity
  8
0
  6
HIDDEN
 62
     7
370
     0
100
AcDbSpline
210
0.0
220
0.0
230
1.0
 70
     8
 71
     3
 72
     8
 73
     4
 74
     0
 42
0.000000001
 43
0.00000001
 40
0.0
 40
0.0
 40
0.0
 40
0.0
 40
1.0
 40
1.0
 40
1.0
 40
1.0
 10
251.2859391951432
 20
139.0090781082892
 30
0.0
 10
251.3991732943606
 20
139.0090781082892
 30
0.0
 10
251.5039104957438
 20
139.037601194831
 30
0.0
 10
251.585939195134
 20
139.0754097590321
 30
0.0
  0
SPLINE
  5
109
330
1F
100
AcDbEntity
  8
0
  6
HIDDEN
 62
     7
370
     0
100
AcDbSpline
210
0.0
220
0.0
230
1.0
 70
     8
 71
     3
 72
    16
 73
    12
 74
     0
 42
0.000000001
 43
0.00000001
 40
0.0
 40
0.0
 40
0.0
 40
0.0
 40
0.2499999999999998
 40
0.2499999999999998
 40
0.4999999999999997
 40
0.4999999999999997
 40
0.6249999999999996
 40
0.6249999999999996
 40
0.7499999999999996
 40
0.7499999999999996
 40
1.0
 40
1.0
 40
1.0
 40
1.0
 10
251.9859391951432
 20
139.0066225932834
 30
0.0
 10
251.9859391951432
 20
138.9648873944523
 30
0.0
 10
251.9819170791121
 20
138.9263854909518
 30
0.0
 10
251.959099855796
 20
138.8621577275537
 30
0.0
 10
251.9408312247142
 20
138.8363677381642
 30
0.0
 10
251.8904793374067
 20
138.826900683423
 30
0.0
 10
251.8694388037065
 20
138.8291318425933
 30
0.0
 10
251.8184241843759
 20
138.8501477157604
 30
0.0
 10
251.7887517838806
 20
138.8691640293097
 30
0.0
 10
251.6983244294687
 20
138.9429597959909
 30
0.0
 10
251.6394650861872
 20
139.0091288515054
 30
0.0
 10
251.5859391951426
 20
139.075409759037
 30
0.0
  0
SPLINE
  5
10A
330
1F
100
AcDbEntity
  8
0
  6
HIDDEN
 62
     7
370
     0
100
AcDbSpline
210
0.0
220
0.0
230
1.0
 70
     8
 71
     3
 72
    27
 73
    23
 74
     0
 42
0.000000001
 43
0.00000001
 40
0.0
 40
0.0
 40
0.0
 40
0.0
 40
0.0481348998360624
 40
0.0977740592726225
 40
0.1458835385034528
 40
0.1952324411833301
 40
0.246561408651966
 40
0.2991434197718498
 40
0.3548863554068533
 40
0.4124437995998178
 40
0.4644877758139458
 40
0.5185668005002131
 40
0.5635853234614471
 40
0.6098665928776618
 40
0.6560518243256397
 40
0.7032647876633261
 40
0.7561118287670597
 40
0.8103191096556634
 40
0.866012510894652
 40
0.9236366881964059
 40
0.9743013931608185
 40
1.0
 40
1.0
 40
1.0
 40
1.0
 10
141.2359391951433
 20
151.4758546994902
 30
0.0
 10
141.2457366917812
 20
151.4706279186336
 30
0.0
 10
141.2656378657791
 20
151.460011015243
 30
0.0
 10
141.4245675310061
 20
151.3766205733399
 30
0.0
 10
141.6724161391911
 20
151.2514346218664
 30
0.0
 10
142.0118321764754
 20
151.089542232113
 30
0.0
 10
142.4430408769585
 20
150.9010857215937
 30
0.0
 10
142.9707336713047
 20
150.6986032154521
 30
0.0
 10
143.5941526223801
 20
150.5026685259789
 30
0.0
 10
144.2824274937439
 20
150.3476497786883
 30
0.0
 10
145.0092849922921
 20
150.2575814061626
 30
0.0
 10
145.699496907549
 20
150.2456242474151
 30
0.0
 10
146.3538692016546
 20
150.3000765702366
 30
0.0
 10
146.9482884409645
 20
150.4017515768115
 30
0.0
 10
147.5135010667619
 20
150.543954859382
 30
0.0
 10
148.0549831167145
 20
150.7185160192107
 30
0.0
 10
148.5615865781027
 20
150.914385066467
 30
0.0
 10
149.0127775983715
 20
151.1133893339878
 30
0.0
 10
149.3798684920342
 20
151.2910032850431
 30
0.0
 10
149.6180145363742
 20
151.4133624277341
 30
0.0
 10
149.7328704451927
 20
151.4742177867605
 30
0.0
 10
149.7239466442529
 20
151.4694895524164
 30
0.0
 10
149.7209435103336
 20
151.4678983559036
 30
0.0
  0
LINE
  5
10B
330
1F
100
AcDbEntity
  8
0
  6
HIDDEN
 62
     7
370
     0
100
AcDbLine
 10
175.9859391951
 20
151.4758546995
 30
0.0
 11
175.9859391951
 21
135.4758546995
 31
0.0
  0
LINE
  5
10C
330
1F
100
AcDbEntity
  8
0
  6
HIDDEN
 62
     7
370
     0
100
AcDbLine
 10
178.7498980427
 20
146.8758546995
 30
0.0
 11
178.7498980427
 21
140.0758546995
 31
0.0
  0
LINE
  5
10D
330
1F
100
AcDbEntity
  8
0
  6
HIDDEN
 62
     7
370
     0
100
AcDbLine
 10
139.9405195652
 20
160.0212743295
 30
0.0
 11
151.0313588251
 21
160.0212743295
 31
0.0
  0
LINE
  5
10E
330
1F
100
AcDbEntity
  8
0
  6
HIDDEN
 62
     7
370
     0
100
AcDbLine
 10
141.2359391951
 20
155.1867024533
 30
0.0
 11
149.7359391951
 21
155.1867024533
 31
0.0
  0
LINE
  5
10F
330
1F
100
AcDbEntity
  8
0
  6
HIDDEN
 62
     7
370
     0
100
AcDbLine
 10
243.9359391951
 20
158.8508546995
 30
0.0
 11
246.5609391951
 21
158.8508546995
 31
0.0
  0
LINE
  5
110
330
1F
100
AcDbEntity
  8
0
  6
HIDDEN
 62
     7
370
     0
100
AcDbLine
 10
241.3109391951
 20
158.8508546995
 30
0.0
 11
243.9359391951
 21
158.8508546995
 31
0.0
  0
ARC
  5
111
330
1F
100
AcDbEntity
  8
0
  6
HIDDEN
 62
     7
370
     0
100
AcDbCircle
 10
161.3859391951
 20
146.3758546995
 30
0.0
 40
0.4000000000000057
100
AcDbArc
 50
180.0
 51
270.0
  0
ARC
  5
112
330
1F
100
AcDbEntity
  8
0
  6
HIDDEN
 62
     7
370
     0
100
AcDbCircle
 10
161.3859391951
 20
140.5758546995
 30
0.0
 40
0.4000000000000341
100
AcDbArc
 50
90.0
 51
180.0
  0
LINE
  5
113
330
1F
100
AcDbEntity
  8
0
  6
HIDDEN
 62
     7
370
     0
100
AcDbLine
 10
167.4859391951
 20
145.9758546995
 30
0.0
 11
161.3859391951
 21
145.9758546995
 31
0.0
  0
LINE
  5
114
330
1F
100
AcDbEntity
  8
0
  6
HIDDEN
 62
     7
370
     0
100
AcDbLine
 10
161.3859391951
 20
140.9758546995
 30
0.0
 11
167.4859391951
 21
140.9758546995
 31
0.0
  0
LINE
  5
115
330
1F
100
AcDbEntity
  8
0
  6
HIDDEN
 62
     7
370
     0
100
AcDbLine
 10
167.4859391951
 20
140.9758546995
 30
0.0
 11
167.9859391951
 21
141.1098292957
 31
0.0
  0
LINE
  5
116
330
1F
100
AcDbEntity
  8
0
  6
HIDDEN
 62
     7
370
     0
100
AcDbLine
 10
167.9859391951
 20
145.8418801033
 30
0.0
 11
167.4859391951
 21
145.9758546995
 31
0.0
  0
LINE
  5
117
330
1F
100
AcDbEntity
  8
0
  6
HIDDEN
 62
     7
370
     0
100
AcDbLine
 10
246.9359391951
 20
159.0877725994
 30
0.0
 11
246.5359391951
 21
159.4877725994
 31
0.0
  0
LINE
  5
118
330
1F
100
AcDbEntity
  8
0
  6
HIDDEN
 62
     7
370
     0
100
AcDbLine
 10
241.3359391951
 20
159.4877725994
 30
0.0
 11
240.9359391951
 21
159.0877725994
 31
0.0
  0
LINE
  5
119
330
1F
100
AcDbEntity
  8
0
  6
HIDDEN
 62
     7
370
     0
100
AcDbLine
 10
246.9359391951
 20
154.3466183262
 30
0.0
 11
246.9359391951
 21
159.0877725994
 31
0.0
  0
LINE
  5
11A
330
1F
100
AcDbEntity
  8
0
  6
HIDDEN
 62
     7
370
     0
100
AcDbLine
 10
240.9359391951
 20
159.0877725994
 30
0.0
 11
240.9359391951
 21
154.3466183262
 31
0.0
  0
LINE
  5
11B
330
1F
100
AcDbEntity
  8
0
  6
HIDDEN
 62
     7
370
     0
100
AcDbLine
 10
240.9359391951
 20
154.3466183262
 30
0.0
 11
241.7823493567
 21
151.1877725994
 31
0.0
  0
LINE
  5
11C
330
1F
100
AcDbEntity
  8
0
  6
HIDDEN
 62
     7
370
     0
100
AcDbLine
 10
246.0895290336
 20
151.1877725994
 30
0.0
 11
246.9359391951
 21
154.3466183262
 31
0.0
  0
LINE
  5
11D
330
1F
100
AcDbEntity
  8
0
  6
HIDDEN
 62
     7
370
     0
100
AcDbLine
 10
241.7823493567
 20
151.1877725994
 30
0.0
 11
241.9823493567
 21
150.9877725994
 31
0.0
  0
LINE
  5
11E
330
1F
100
AcDbEntity
  8
0
  6
HIDDEN
 62
     7
370
     0
100
AcDbLine
 10
245.8895290336
 20
150.9877725994
 30
0.0
 11
246.0895290336
 21
151.1877725994
 31
0.0
  0
LINE
  5
11F
330
1F
100
AcDbEntity
  8
0
  6
HIDDEN
 62
     7
370
     0
100
AcDbLine
 10
242.0359391951
 20
159.4877725994
 30
0.0
 11
242.4359391951
 21
159.0877725994
 31
0.0
  0
LINE
  5
120
330
1F
100
AcDbEntity
  8
0
  6
HIDDEN
 62
     7
370
     0
100
AcDbLine
 10
245.4359391951
 20
159.0877725994
 30
0.0
 11
245.8359391951
 21
159.4877725994
 31
0.0
  0
LINE
  5
121
330
1F
100
AcDbEntity
  8
0
  6
HIDDEN
 62
     7
370
     0
100
AcDbLine
 10
245.4359391951
 20
154.4877725994
 30
0.0
 11
245.4359391951
 21
155.4877725994
 31
0.0
  0
LINE
  5
122
330
1F
100
AcDbEntity
  8
0
  6
HIDDEN
 62
     7
370
     0
100
AcDbLine
 10
242.4359391951
 20
155.4877725994
 30
0.0
 11
242.4359391951
 21
154.4877725994
 31
0.0
  0
LINE
  5
123
330
1F
100
AcDbEntity
  8
0
  6
HIDDEN
 62
     7
370
     0
100
AcDbLine
 10
242.4359391951
 20
154.4877725994
 30
0.0
 11
243.9359391951
 21
153.941817248
 31
0.0
  0
LINE
  5
124
330
1F
100
AcDbEntity
  8
0
  6
HIDDEN
 62
     7
370
     0
100
AcDbLine
 10
243.9359391951
 20
153.941817248
 30
0.0
 11
245.4359391951
 21
154.4877725994
 31
0.0
  0
LINE
  5
125
330
1F
100
AcDbEntity
  8
0
  6
HIDDEN
 62
     7
370
     0
100
AcDbLine
 10
160.9859391951
 20
140.4758546995
 30
0.0
 11
161.4859391951
 21
140.9758546995
 31
0.0
  0
LINE
  5
126
330
1F
100
AcDbEntity
  8
0
  6
HIDDEN
 62
     7
370
     0
100
AcDbLine
 10
161.4859391951
 20
145.9758546995
 30
0.0
 11
160.9859391951
 21
146.4758546995
 31
0.0
  0
LINE
  5
127
330
1F
100
AcDbEntity
  8
0
  6
HIDDEN
 62
     7
370
     0
100
AcDbLine
 10
168.9859391951
 20
140.9758546995
 30
0.0
 11
170.4880907427
 21
143.4758546995
 31
0.0
  0
LINE
  5
128
330
1F
100
AcDbEntity
  8
0
  6
HIDDEN
 62
     7
370
     0
100
AcDbLine
 10
170.4880907427
 20
143.4758546995
 30
0.0
 11
168.9859391951
 21
145.9758546995
 31
0.0
  0
LINE
  5
129
330
1F
100
AcDbEntity
  8
0
  6
HIDDEN
 62
     7
370
     0
100
AcDbLine
 10
161.4859391951
 20
140.9758546995
 30
0.0
 11
168.9859391951
 21
140.9758546995
 31
0.0
  0
LINE
  5
12A
330
1F
100
AcDbEntity
  8
0
  6
HIDDEN
 62
     7
370
     0
100
AcDbLine
 10
168.9859391951
 20
145.9758546995
 30
0.0
 11
161.4859391951
 21
145.9758546995
 31
0.0
  0
LINE
  5
12B
330
1F
100
AcDbEntity
  8
0
  6
HIDDEN
 62
     7
370
     0
100
AcDbLine
 10
160.9859391951
 20
123.7608246678
 30
0.0
 11
161.1801000364
 21
125.1423508389
 31
0.0
  0
LINE
  5
12C
330
1F
100
AcDbEntity
  8
0
  6
HIDDEN
 62
     7
370
     0
100
AcDbLine
 10
161.1801000364
 20
161.8093585601
 30
0.0
 11
160.9859391951
 21
163.1908847311
 31
0.0
  0
ARC
  5
12D
330
1F
100
AcDbEntity
  8
0
  6
HIDDEN
 62
     7
370
     0
100
AcDbCircle
 10
160.5859391951
 20
125.2258546995
 30
0.0
 40
0.6000000000000227
100
AcDbArc
 50
352.0
 51
0.0
  0
ARC
  5
12E
330
1F
100
AcDbEntity
  8
0
  6
HIDDEN
 62
     7
370
     0
100
AcDbCircle
 10
160.5859391951
 20
125.2258546995
 30
0.0
 40
0.6000000000000227
100
AcDbArc
 50
0.0
 51
48.1896851042
  0
ARC
  5
12F
330
1F
100
AcDbEntity
  8
0
  6
HIDDEN
 62
     7
370
     0
100
AcDbCircle
 10
160.5859391951
 20
161.7258546995
 30
0.0
 40
0.599999999999998
100
AcDbArc
 50
348.75
 51
8.0
  0
ARC
  5
130
330
1F
100
AcDbEntity
  8
0
  6
HIDDEN
 62
     7
370
     0
100
AcDbCircle
 10
160.5859391951
 20
161.7258546995
 30
0.0
 40
0.6000000000000054
100
AcDbArc
 50
311.8103148958
 51
348.75
  0
LINE
  5
131
330
1F
100
AcDbEntity
  8
0
  6
HIDDEN
 62
     7
370
     0
100
AcDbLine
 10
161.1859391951
 20
125.2258546995
 30
0.0
 11
161.1859391951
 21
161.7258546995
 31
0.0
  0
ARC
  5
132
330
1F
100
AcDbEntity
  8
0
  6
HIDDEN
 62
     7
370
     0
100
AcDbCircle
 10
121.9859391951
 20
132.9758546995
 30
0.0
 40
1.0
100
AcDbArc
 50
90.0
 51
180.0
  0
ARC
  5
133
330
1F
100
AcDbEntity
  8
0
  6
HIDDEN
 62
     7
370
     0
100
AcDbCircle
 10
121.9859391951
 20
153.9758546995
 30
0.0
 40
1.0
100
AcDbArc
 50
180.0
 51
270.0
  0
LINE
  5
134
330
1F
100
AcDbEntity
  8
0
  6
HIDDEN
 62
     7
370
     0
100
AcDbLine
 10
232.8806171971
 20
152.9758546995
 30
0.0
 11
232.2859391951
 21
152.9758546995
 31
0.0
  0
LINE
  5
135
330
1F
100
AcDbEntity
  8
0
  6
HIDDEN
 62
     7
370
     0
100
AcDbLine
 10
232.2859391951
 20
133.9758546995
 30
0.0
 11
232.8806171971
 21
133.9758546995
 31
0.0
  0
ARC
  5
136
330
1F
100
AcDbEntity
  8
0
  6
HIDDEN
 62
     7
370
     0
100
AcDbCircle
 10
232.2859391951
 20
152.1758546995
 30
0.0
 40
0.8000000000000114
100
AcDbArc
 50
90.0
 51
180.0
  0
ARC
  5
137
330
1F
100
AcDbEntity
  8
0
  6
HIDDEN
 62
     7
370
     0
100
AcDbCircle
 10
232.2859391951
 20
134.7758546995
 30
0.0
 40
0.8000000000000398
100
AcDbArc
 50
180.0
 51
270.0
  0
LINE
  5
138
330
1F
100
AcDbEntity
  8
0
  6
HIDDEN
 62
     7
370
     0
100
AcDbLine
 10
121.9859391951
 20
133.9758546995
 30
0.0
 11
123.9859391951
 21
133.9758546995
 31
0.0
  0
LINE
  5
139
330
1F
100
AcDbEntity
  8
0
  6
HIDDEN
 62
     7
370
     0
100
AcDbLine
 10
123.9859391951
 20
152.9758546995
 30
0.0
 11
121.9859391951
 21
152.9758546995
 31
0.0
  0
LINE
  5
13A
330
1F
100
AcDbEntity
  8
0
  6
HIDDEN
 62
     7
370
     0
100
AcDbLine
 10
123.9859391951
 20
133.9758546995
 30
0.0
 11
124.8872301237
 21
135.4758546995
 31
0.0
  0
LINE
  5
13B
330
1F
100
AcDbEntity
  8
0
  6
HIDDEN
 62
     7
370
     0
100
AcDbLine
 10
124.8872301237
 20
151.4758546995
 30
0.0
 11
123.9859391951
 21
152.9758546995
 31
0.0
  0
ARC
  5
13C
330
1F
100
AcDbEntity
  8
0
  6
HIDDEN
 62
     7
370
     0
100
AcDbCircle
 10
232.8806171971
 20
152.1758546995
 30
0.0
 40
0.799999999999983
100
AcDbArc
 50
75.0
 51
90.0
  0
ARC
  5
13D
330
1F
100
AcDbEntity
  8
0
  6
HIDDEN
 62
     7
370
     0
100
AcDbCircle
 10
232.8806171971
 20
134.7758546995
 30
0.0
 40
0.8000000000000247
100
AcDbArc
 50
270.0
 51
285.0
  0
LINE
  5
13E
330
1F
100
AcDbEntity
  8
0
  6
HIDDEN
 62
     7
370
     0
100
AcDbLine
 10
233.0876724332
 20
134.0031140385
 30
0.0
 11
234.8519645989
 21
134.4758546995
 31
0.0
  0
LINE
  5
13F
330
1F
100
AcDbEntity
  8
0
  6
HIDDEN
 62
     7
370
     0
100
AcDbLine
 10
234.8519645989
 20
152.4758546995
 30
0.0
 11
233.0876724332
 21
152.9485953605
 31
0.0
  0
LINE
  5
140
330
1F
100
AcDbEntity
  8
0
  6
HIDDEN
 62
     7
370
     0
100
AcDbLine
 10
241.3109391951
 20
152.4758546995
 30
0.0
 11
234.8519645989
 21
152.4758546995
 31
0.0
  0
LINE
  5
141
330
1F
100
AcDbEntity
  8
0
  6
HIDDEN
 62
     7
370
     0
100
AcDbLine
 10
251.2859391951
 20
152.4758546995
 30
0.0
 11
246.559468078
 21
152.4758546995
 31
0.0
  0
LINE
  5
142
330
1F
100
AcDbEntity
  8
0
  6
HIDDEN
 62
     7
370
     0
100
AcDbLine
 10
234.8519645989
 20
134.4758546995
 30
0.0
 11
251.2859391951
 21
134.4758546995
 31
0.0
  0
ARC
  5
143
330
1F
100
AcDbEntity
  8
0
  6
HIDDEN
 62
     7
370
     0
100
AcDbCircle
 10
251.2859391951
 20
153.1758546995
 30
0.0
 40
0.700000000000017
100
AcDbArc
 50
270.0
 51
0.0
  0
ARC
  5
144
330
1F
100
AcDbEntity
  8
0
  6
HIDDEN
 62
     7
370
     0
100
AcDbCircle
 10
251.2859391951
 20
133.7758546995
 30
0.0
 40
0.6999999999999886
100
AcDbArc
 50
0.0
 51
90.0
  0
LINE
  5
145
330
1F
100
AcDbEntity
  8
0
  6
HIDDEN
 62
     7
370
     0
100
AcDbLine
 10
124.8872301237
 20
135.4758546995
 30
0.0
 11
175.9859391951
 21
135.4758546995
 31
0.0
  0
LINE
  5
146
330
1F
100
AcDbEntity
  8
0
  6
HIDDEN
 62
     7
370
     0
100
AcDbLine
 10
141.2359391951
 20
151.4758546995
 30
0.0
 11
124.8872301237
 21
151.4758546995
 31
0.0
  0
LINE
  5
147
330
1F
100
AcDbEntity
  8
0
  6
HIDDEN
 62
     7
370
     0
100
AcDbLine
 10
175.9859391951
 20
151.4758546995
 30
0.0
 11
149.7209435103
 21
151.4758546995
 31
0.0
  0
LINE
  5
148
330
1F
100
AcDbEntity
  8
0
  6
HIDDEN
 62
     7
370
     0
100
AcDbLine
 10
175.9859391951
 20
135.4758546995
 30
0.0
 11
178.7498980427
 21
140.0758546995
 31
0.0
  0
LINE
  5
149
330
1F
100
AcDbEntity
  8
0
  6
HIDDEN
 62
     7
370
     0
100
AcDbLine
 10
178.7498980427
 20
146.8758546995
 30
0.0
 11
175.9859391951
 21
151.4758546995
 31
0.0
  0
LINE
  5
14A
330
1F
100
AcDbEntity
  8
0
  6
HIDDEN
 62
     7
370
     0
100
AcDbLine
 10
138.4859391951
 20
161.4758546995
 30
0.0
 11
139.9405195652
 21
160.0212743295
 31
0.0
  0
LINE
  5
14B
330
1F
100
AcDbEntity
  8
0
  6
HIDDEN
 62
     7
370
     0
100
AcDbLine
 10
151.0313588251
 20
160.0212743295
 30
0.0
 11
152.4859391951
 21
161.4758546995
 31
0.0
  0
LINE
  5
14C
330
1F
100
AcDbEntity
  8
0
  6
HIDDEN
 62
     7
370
     0
100
AcDbLine
 10
139.9405195652
 20
160.0212743295
 30
0.0
 11
141.2359391951
 21
155.1867024533
 31
0.0
  0
LINE
  5
14D
330
1F
100
AcDbEntity
  8
0
  6
HIDDEN
 62
     7
370
     0
100
AcDbLine
 10
149.7359391951
 20
155.1867024533
 30
0.0
 11
151.0313588251
 21
160.0212743295
 31
0.0
  0
LINE
  5
14E
330
1F
100
AcDbEntity
  8
0
  6
HIDDEN
 62
     7
370
     0
100
AcDbLine
 10
141.2359391951
 20
155.1867024533
 30
0.0
 11
141.2359391951
 21
151.4758546995
 31
0.0
  0
LINE
  5
14F
330
1F
100
AcDbEntity
  8
0
  6
HIDDEN
 62
     7
370
     0
100
AcDbLine
 10
149.7359391951
 20
151.4678983719
 30
0.0
 11
149.7359391951
 21
155.1867024533
 31
0.0
  0
LINE
  5
150
330
1F
100
AcDbEntity
  8
0
  6
HIDDEN
 62
     7
370
     0
100
AcDbLine
 10
240.2244760386
 20
159.937317856
 30
0.0
 11
241.3109391951
 21
158.8508546995
 31
0.0
  0
LINE
  5
151
330
1F
100
AcDbEntity
  8
0
  6
HIDDEN
 62
     7
370
     0
100
AcDbLine
 10
246.5609391951
 20
158.8508546995
 30
0.0
 11
247.3675435909
 21
159.6574590953
 31
0.0
  0
LINE
  5
152
330
1F
100
AcDbEntity
  8
0
  6
HIDDEN
 62
     7
370
     0
100
AcDbLine
 10
231.4859391951
 20
146.8758546995
 30
0.0
 11
178.7498980427
 21
146.8758546995
 31
0.0
  0
LINE
  5
153
330
1F
100
AcDbEntity
  8
0
  6
HIDDEN
 62
     7
370
     0
100
AcDbLine
 10
178.7498980427
 20
140.0758546995
 30
0.0
 11
231.4859391951
 21
140.0758546995
 31
0.0
  0
LINE
  5
154
330
1F
100
AcDbEntity
  8
0
  6
HIDDEN
 62
     7
370
     0
100
AcDbLine
 10
241.3109391951
 20
158.8508546995
 30
0.0
 11
241.3109391951
 21
152.4758546995
 31
0.0
  0
LINE
  5
155
330
1F
100
AcDbEntity
  8
0
  6
HIDDEN
 62
     7
370
     0
100
AcDbLine
 10
246.5609391951
 20
152.4754261901
 30
0.0
 11
246.5609391951
 21
158.8508546995
 31
0.0
  0
LINE
  5
156
330
1F
100
AcDbEntity
  8
0
  6
HIDDEN
 62
     7
370
     0
100
AcDbLine
 10
156.2859391951
 20
148.7144365298
 30
0.0
 11
155.9859391951
 21
148.4273909501
 31
0.0
  0
LINE
  5
157
330
1F
100
AcDbEntity
  8
0
  6
HIDDEN
 62
     7
370
     0
100
AcDbLine
 10
155.9859391951
 20
138.5243184489
 30
0.0
 11
156.2859391951
 21
138.2372728692
 31
0.0
  0
LINE
  5
158
330
1F
100
AcDbEntity
  8
0
  6
HIDDEN
 62
     7
370
     0
100
AcDbLine
 10
160.9859391951
 20
138.2372728692
 30
0.0
 11
156.2859391951
 21
138.2372728692
 31
0.0
  0
LINE
  5
159
330
1F
100
AcDbEntity
  8
0
  6
HIDDEN
 62
     7
370
     0
100
AcDbLine
 10
160.9859391951
 20
148.7144365298
 30
0.0
 11
156.2859391951
 21
148.7144365298
 31
0.0
  0
LINE
  5
15A
330
1F
100
AcDbEntity
  8
0
  6
HIDDEN
 62
     7
370
     0
100
AcDbLine
 10
161.3859391951
 20
145.9758546995
 30
0.0
 11
161.3859391951
 21
140.9758546995
 31
0.0
  0
LINE
  5
15B
330
1F
100
AcDbEntity
  8
0
  6
HIDDEN
 62
     7
370
     0
100
AcDbLine
 10
155.9859391951
 20
138.7670047836
 30
0.0
 11
156.2859391951
 21
138.843988706
 31
0.0
  0
LINE
  5
15C
330
1F
100
AcDbEntity
  8
0
  6
HIDDEN
 62
     7
370
     0
100
AcDbLine
 10
156.2859391951
 20
148.107720693
 30
0.0
 11
155.9859391951
 21
148.1847046153
 31
0.0
  0
LINE
  5
15D
330
1F
100
AcDbEntity
  8
0
  6
HIDDEN
 62
     7
370
     0
100
AcDbLine
 10
160.9859391951
 20
148.107720693
 30
0.0
 11
156.2859391951
 21
148.107720693
 31
0.0
  0
LINE
  5
15E
330
1F
100
AcDbEntity
  8
0
  6
HIDDEN
 62
     7
370
     0
100
AcDbLine
 10
160.9859391951
 20
138.843988706
 30
0.0
 11
156.2859391951
 21
138.843988706
 31
0.0
  0
LINE
  5
15F
330
1F
100
AcDbEntity
  8
0
  6
HIDDEN
 62
     7
370
     0
100
AcDbLine
 10
161.3859391951
 20
140.9758546995
 30
0.0
 11
161.3859391951
 21
145.9758546995
 31
0.0
  0
LINE
  5
160
330
1F
100
AcDbEntity
  8
0
  6
HIDDEN
 62
     7
370
     0
100
AcDbLine
 10
172.2186122072
 20
175.4758546995
 30
0.0
 11
172.2186122072
 21
111.4758546995
 31
0.0
  0
LINE
  5
161
330
1F
100
AcDbEntity
  8
0
  6
HIDDEN
 62
     7
370
     0
100
AcDbLine
 10
173.1845380335
 20
174.7346737446
 30
0.0
 11
173.1845380335
 21
112.2170356544
 31
0.0
  0
LINE
  5
162
330
1F
100
AcDbEntity
  8
0
  6
HIDDEN
 62
     7
370
     0
100
AcDbLine
 10
161.1801000364
 20
125.1423508389
 30
0.0
 11
161.1801000364
 21
161.8043202402
 31
0.0
  0
LINE
  5
163
330
1F
100
AcDbEntity
  8
0
  6
HIDDEN
 62
     7
370
     0
100
AcDbLine
 10
160.5859391951
 20
143.4758546995
 30
0.0
 11
160.5859391951
 21
148.9508546995
 31
0.0
  0
LINE
  5
164
330
1F
100
AcDbEntity
  8
0
  6
HIDDEN
 62
     7
370
     0
100
AcDbLine
 10
160.5859391951
 20
161.1258546995
 30
0.0
 11
160.5859391951
 21
125.8258546995
 31
0.0
  0
LINE
  5
165
330
1F
100
AcDbEntity
  8
0
  6
HIDDEN
 62
     7
370
     0
100
AcDbLine
 10
160.5859391951
 20
138.0008546995
 30
0.0
 11
160.5859391951
 21
143.4758546995
 31
0.0
  0
LINE
  5
166
330
1F
100
AcDbEntity
  8
0
  6
HIDDEN
 62
     7
370
     0
100
AcDbLine
 10
159.7158570493
 20
143.4758546995
 30
0.0
 11
159.7158570493
 21
148.9508546995
 31
0.0
  0
LINE
  5
167
330
1F
100
AcDbEntity
  8
0
  6
HIDDEN
 62
     7
370
     0
100
AcDbLine
 10
159.7158570493
 20
161.1462992037
 30
0.0
 11
159.7158570493
 21
125.8054101953
 31
0.0
  0
LINE
  5
168
330
1F
100
AcDbEntity
  8
0
  6
HIDDEN
 62
     7
370
     0
100
AcDbLine
 10
159.7158570493
 20
138.0008546995
 30
0.0
 11
159.7158570493
 21
143.4758546995
 31
0.0
  0
LINE
  5
169
330
1F
100
AcDbEntity
  8
0
  6
HIDDEN
 62
     7
370
     0
100
AcDbLine
 10
124.4404975433
 20
161.2109268576
 30
0.0
 11
124.4404975433
 21
125.7407825414
 31
0.0
  0
LINE
  5
16A
330
1F
100
AcDbEntity
  8
0
  6
HIDDEN
 62
     7
370
     0
100
AcDbLine
 10
123.3202689495
 20
161.3758546995
 30
0.0
 11
123.3202689495
 21
125.5758546995
 31
0.0
  0
LINE
  5
16B
330
1F
100
AcDbEntity
  8
0
  6
HIDDEN
 62
     7
370
     0
100
AcDbLine
 10
123.2344673326
 20
161.3758546995
 30
0.0
 11
123.2344673326
 21
125.5758546995
 31
0.0
  0
LINE
  5
16C
330
1F
100
AcDbEntity
  8
0
  6
HIDDEN
 62
     7
370
     0
100
AcDbLine
 10
122.8102032639
 20
161.2001187682
 30
0.0
 11
122.8102032639
 21
125.7515906308
 31
0.0
  0
LINE
  5
16D
330
1F
100
AcDbEntity
  8
0
  6
HIDDEN
 62
     7
370
     0
100
AcDbLine
 10
123.4500546865
 20
161.3616495975
 30
0.0
 11
123.4500546865
 21
125.5900598015
 31
0.0
  0
LINE
  5
16E
330
1F
100
AcDbEntity
  8
0
  6
HIDDEN
 62
     7
370
     0
100
AcDbLine
 10
124.1128915459
 20
161.2147948355
 30
0.0
 11
124.1128915459
 21
125.7369145634
 31
0.0
  0
LINE
  5
16F
330
1F
100
AcDbEntity
  8
0
  6
HIDDEN
 62
     7
370
     0
100
AcDbLine
 10
159.8711484763
 20
143.4758546995
 30
0.0
 11
159.8711484763
 21
148.9508546995
 31
0.0
  0
LINE
  5
170
330
1F
100
AcDbEntity
  8
0
  6
HIDDEN
 62
     7
370
     0
100
AcDbLine
 10
159.8711484763
 20
161.1258546995
 30
0.0
 11
159.8711484763
 21
125.8258546995
 31
0.0
  0
LINE
  5
171
330
1F
100
AcDbEntity
  8
0
  6
HIDDEN
 62
     7
370
     0
100
AcDbLine
 10
159.8711484763
 20
138.0008546995
 30
0.0
 11
159.8711484763
 21
143.4758546995
 31
0.0
  0
LINE
  5
172
330
1F
100
AcDbEntity
  8
0
  6
HIDDEN
 62
     7
370
     0
100
AcDbLine
 10
251.5859391951
 20
141.31079119
 30
0.0
 11
251.9859391951
 21
140.9643810285
 31
0.0
  0
LINE
  5
173
330
1F
100
AcDbEntity
  8
0
  6
HIDDEN
 62
     7
370
     0
100
AcDbLine
 10
243.0859391951
 20
141.31079119
 30
0.0
 11
251.5859391951
 21
141.31079119
 31
0.0
  0
LINE
  5
174
330
1F
100
AcDbEntity
  8
0
  6
HIDDEN
 62
     7
370
     0
100
AcDbLine
 10
243.0859391951
 20
145.640918209
 30
0.0
 11
251.5859391998
 21
145.640918209
 31
0.0
  0
LINE
  5
175
330
1F
100
AcDbEntity
  8
0
  6
HIDDEN
 62
     7
370
     0
100
AcDbLine
 10
121.9859391951
 20
133.9758546995
 30
0.0
 11
121.9859391951
 21
152.9758546995
 31
0.0
  0
LINE
  5
176
330
1F
100
AcDbEntity
  8
0
  6
HIDDEN
 62
     7
370
     0
100
AcDbLine
 10
232.2859391951
 20
133.9758546995
 30
0.0
 11
232.2859391951
 21
152.9758546995
 31
0.0
  0
LINE
  5
177
330
1F
100
AcDbEntity
  8
0
  6
HIDDEN
 62
     7
370
     0
100
AcDbLine
 10
232.8806171971
 20
133.9758546995
 30
0.0
 11
232.8806171971
 21
152.9758546995
 31
0.0
  0
LINE
  5
178
330
1F
100
AcDbEntity
  8
0
  6
HIDDEN
 62
     7
370
     0
100
AcDbLine
 10
233.0876724332
 20
134.0031140385
 30
0.0
 11
233.0876724332
 21
152.9485953605
 31
0.0
  0
LINE
  5
179
330
1F
100
AcDbEntity
  8
0
  6
HIDDEN
 62
     7
370
     0
100
AcDbLine
 10
251.2859391951
 20
139.0090781083
 30
0.0
 11
251.2859391951
 21
134.4979567952
 31
0.0
  0
LINE
  5
17A
330
1F
100
AcDbEntity
  8
0
  6
HIDDEN
 62
     7
370
     0
100
AcDbLine
 10
251.2859391951
 20
147.9426312907
 30
0.0
 11
251.2859391951
 21
152.4758546995
 31
0.0
  0
LINE
  5
17B
330
1F
100
AcDbEntity
  8
0
  6
HIDDEN
 62
     7
370
     0
100
AcDbLine
 10
243.0859391951
 20
145.640918209
 30
0.0
 11
251.5859391834
 21
145.640918209
 31
0.0
  0
DIMENSION
  5
17C
330
1F
100
AcDbEntity
  8
VERMASSUNG
100
AcDbDimension
  2
_D
 10
251.9859391951
 20
181.9401425132
 30
0.0
 11
206.4859391951
 21
181.9401425132
 31
0.0
 70
   160
  1
<>
 71
     2
 42
-1.0
  3
SLDDIMSTYLE0
100
AcDbAlignedDimension
 13
160.9859391951
 23
174.8758546995
 33
0.0
 14
251.9859391951
 24
159.1877725994
 34
0.0
100
AcDbRotatedDimension
  0
DIMENSION
  5
187
330
1F
100
AcDbEntity
  8
VERMASSUNG
100
AcDbDimension
  2
_D_1
 10
251.9859391951
 20
189.6037829525
 30
0.0
 11
186.4859391951
 21
189.6037829525
 31
0.0
 70
   160
  1
(<>)
 71
     2
 42
-1.0
  3
SLDDIMSTYLE0
100
AcDbAlignedDimension
 13
120.9859391951
 23
159.3758546995
 33
0.0
 14
251.9859391951
 24
159.1877725994
 34
0.0
100
AcDbRotatedDimension
  0
DIMENSION
  5
193
330
1F
100
AcDbEntity
  8
VERMASSUNG
100
AcDbDimension
  2
_D_2
 10
251.9859391951
 20
172.2510281419
 30
0.0
 11
215.6989572208
 21
172.2510281419
 31
0.0
 70
   160
  1
<>
 71
     2
 42
-1.0
  3
SLDDIMSTYLE1
100
AcDbAlignedDimension
 13
179.4119752465
 23
162.3589521565
 33
0.0
 14
251.9859391951
 24
159.1877725994
 34
0.0
100
AcDbRotatedDimension
  0
DIMENSION
  5
19E
330
1F
100
AcDbEntity
  8
VERMASSUNG
100
AcDbDimension
  2
_D_3
 10
262.0476071118
 20
127.4639367996
 30
0.0
 11
262.0476071118
 21
143.4758546995
 31
0.0
 70
   160
  1
ST3 %%c<>
 71
     2
 42
-1.0
  3
SLDDIMSTYLE2
100
AcDbAlignedDimension
 13
251.6859391951
 23
159.4877725994
 33
0.0
 14
251.6859391951
 24
127.4639367996
 34
0.0
 50
90.0
100
AcDbRotatedDimension
  0
DIMENSION
  5
1AB
330
1F
100
AcDbEntity
  8
VERMASSUNG
100
AcDbDimension
  2
_D_4
 10
110.9859391951
 20
111.4758546995
 30
0.0
 11
110.9859391951
 21
143.4758546995
 31
0.0
 70
   160
  1
ST6+ %%c<>
 71
     2
 42
-1.0
  3
SLDDIMSTYLE0
100
AcDbAlignedDimension
 13
161.5859391951
 23
175.4758546995
 33
0.0
 14
161.5859391951
 24
111.4758546995
 34
0.0
 50
90.0
100
AcDbRotatedDimension
  0
DIMENSION
  5
1B7
330
1F
100
AcDbEntity
  8
VERMASSUNG
100
AcDbDimension
  2
_D_5
 10
268.0476071118
 20
124.5927572425
 30
0.0
 11
268.0476071118
 21
143.4758546995
 31
0.0
 70
   160
  1
<>
 71
     2
 42
-1.0
  3
SLDDIMSTYLE1
100
AcDbAlignedDimension
 13
179.4119752465
 23
162.3589521565
 33
0.0
 14
179.4119752465
 24
124.5927572425
 34
0.0
 50
90.0
100
AcDbRotatedDimension
  0
LINE
  5
1C1
330
1F
100
AcDbEntity
  8
VERMASSUNG
  6
CENTERX2
370
     0
100
AcDbLine
 10
117.4401305058
 20
143.4758546995
 30
0.0
 11
251.6859391951
 21
143.4758546995
 31
0.0
  0
LINE
  5
1C2
330
1F
100
AcDbEntity
  8
VERMASSUNG
  6
CENTERX2
370
     0
100
AcDbLine
 10
251.6859391951
 20
143.4758546995
 30
0.0
 11
253.9859391951
 21
143.4758546995
 31
0.0
  0
LINE
  5
1C3
330
1F
100
AcDbEntity
  8
VERMASSUNG
  6
CENTERX2
370
     0
100
AcDbLine
 10
145.4859391951
 20
162.9199380481
 30
0.0
 11
145.4859391951
 21
141.7991803586
 31
0.0
  0
LINE
  5
1C4
330
1F
100
AcDbEntity
  8
VERMASSUNG
  6
CENTERX2
370
     0
100
AcDbLine
 10
243.9359391951
 20
161.543185034
 30
0.0
 11
243.9359391951
 21
148.7644503513
 31
0.0
  0
LINE
  5
1C5
330
1F
100
AcDbEntity
  8
0
  6
Continuous
 62
     7
370
    15
100
AcDbLine
 10
57.1467530815
 20
152.1470096114
 30
0.0
 11
57.4037798642
 21
151.1877725994
 31
0.0
  0
LINE
  5
1C6
330
1F
100
AcDbEntity
  8
0
  6
Continuous
 62
     7
370
    15
100
AcDbLine
 10
61.7109595412
 20
151.1877725994
 30
0.0
 11
61.9679863239
 21
152.1470096114
 31
0.0
  0
LINE
  5
1C7
330
1F
100
AcDbEntity
  8
0
  6
Continuous
 62
     7
370
    15
100
AcDbLine
 10
57.4037798642
 20
151.1877725994
 30
0.0
 11
57.6037798642
 21
150.9877725994
 31
0.0
  0
LINE
  5
1C8
330
1F
100
AcDbEntity
  8
0
  6
Continuous
 62
     7
370
    15
100
AcDbLine
 10
61.5109595412
 20
150.9877725994
 30
0.0
 11
61.7109595412
 21
151.1877725994
 31
0.0
  0
LINE
  5
1C9
330
1F
100
AcDbEntity
  8
0
  6
Continuous
 62
     7
370
    15
100
AcDbLine
 10
61.7109595412
 20
151.1877725994
 30
0.0
 11
57.4037798642
 21
151.1877725994
 31
0.0
  0
LINE
  5
1CA
330
1F
100
AcDbEntity
  8
0
  6
Continuous
 62
     7
370
    15
100
AcDbLine
 10
61.5109595412
 20
150.9877725994
 30
0.0
 11
57.6037798642
 21
150.9877725994
 31
0.0
  0
SPLINE
  5
1CB
330
1F
100
AcDbEntity
  8
0
  6
Continuous
 62
     7
370
    15
100
AcDbSpline
210
0.0
220
0.0
230
1.0
 70
     8
 71
     3
 72
    16
 73
    12
 74
     0
 42
0.000000001
 43
0.00000001
 40
0.0
 40
0.0
 40
0.0
 40
0.0
 40
0.2499999999999946
 40
0.2499999999999946
 40
0.4999999999999892
 40
0.4999999999999892
 40
0.6249999999999921
 40
0.6249999999999921
 40
0.7499999999999949
 40
0.7499999999999949
 40
1.0
 40
1.0
 40
1.0
 40
1.0
 10
68.16613295948734
 20
147.9456640005678
 30
0.0
 10
68.09260714896632
 20
147.988094256638
 30
0.0
 10
68.0176596370859
 20
148.0264724375239
 30
0.0
 10
67.86300188249398
 20
148.0896525155716
 30
0.0
 10
67.7820576283784
 20
148.1153810568626
 30
0.0
 10
67.66558462986035
 20
148.1250271178792
 30
0.0
 10
67.6271598498243
 20
148.1229729246139
 30
0.0
 10
67.56093885584595
 20
148.1020530183725
 30
0.0
 10
67.53449921750891
 20
148.0831523125838
 30
0.0
 10
67.48104247441124
 20
148.0094255624837
 30
0.0
 10
67.47781994951511
 20
147.9426232820225
 30
0.0
 10
67.4855754898573
 20
147.8762996399645
 30
0.0
  0
SPLINE
  5
1CC
330
1F
100
AcDbEntity
  8
0
  6
Continuous
 62
     7
370
    15
100
AcDbSpline
210
0.0
220
0.0
230
1.0
 70
    24
 71
     3
 72
    10
 73
     6
 74
     0
 42
0.000000001
 43
0.00000001
 40
0.0
 40
0.0
 40
0.0
 40
0.0
 40
0.5
 40
0.5
 40
1.0
 40
1.0
 40
1.0
 40
1.0
 10
67.48557548986535
 20
147.8762996399585
 30
0.0
 10
67.452687245629
 20
147.8952876766215
 30
0.0
 10
67.4242117187933
 20
147.9117280297054
 30
0.0
 10
67.38273939887951
 20
147.9356720847715
 30
0.0
 10
67.3706857006452
 20
147.9426312906918
 30
0.0
 10
67.37068570064518
 20
147.9426312906918
 30
0.0
  0
ARC
  5
1CD
330
1F
100
AcDbEntity
  8
0
  6
Continuous
 62
     7
370
    15
100
AcDbCircle
 10
59.5573697027
 20
143.4758546995
 30
0.0
 40
9.000000000000009
100
AcDbArc
 50
29.756072044
 51
150.243927956
  0
SPLINE
  5
1CE
330
1F
100
AcDbEntity
  8
0
  6
Continuous
 62
     7
370
    15
100
AcDbSpline
210
0.0
220
0.0
230
1.0
 70
    24
 71
     3
 72
    10
 73
     6
 74
     0
 42
0.000000001
 43
0.00000001
 40
0.0
 40
0.0
 40
0.0
 40
0.0
 40
0.5
 40
0.5
 40
1.0
 40
1.0
 40
1.0
 40
1.0
 10
51.62916391541533
 20
147.876299639929
 30
0.0
 10
51.66205215966515
 20
147.8952876765998
 30
0.0
 10
51.69052768651239
 20
147.9117280296904
 30
0.0
 10
51.73200000644604
 20
147.935672084768
 30
0.0
 10
51.74405370468651
 20
147.9426312906918
 30
0.0
 10
51.74405370468653
 20
147.9426312906918
 30
0.0
  0
SPLINE
  5
1CF
330
1F
100
AcDbEntity
  8
0
  6
Continuous
 62
     7
370
    15
100
AcDbSpline
210
0.0
220
0.0
230
1.0
 70
     8
 71
     3
 72
    16
 73
    12
 74
     0
 42
0.000000001
 43
0.00000001
 40
0.0
 40
0.0
 40
0.0
 40
0.0
 40
0.2500000000000001
 40
0.2500000000000001
 40
0.3750000000000002
 40
0.3750000000000002
 40
0.5000000000000002
 40
0.5000000000000002
 40
0.7500000000000001
 40
0.7500000000000001
 40
1.0
 40
1.0
 40
1.0
 40
1.0
 10
51.62916391542322
 20
147.8762996399253
 30
0.0
 10
51.63687544769075
 20
147.9422458882437
 30
0.0
 10
51.63364000643517
 20
148.0091327125695
 30
0.0
 10
51.58073944645788
 20
148.0826722409281
 30
0.0
 10
51.55434561158358
 20
148.1016925983614
 30
0.0
 10
51.48909534358187
 20
148.1227124998689
 30
0.0
 10
51.45114353209676
 20
148.125073969059
 30
0.0
 10
51.33314417192177
 20
148.1156944052803
 30
0.0
 10
51.25241647305808
 20
148.0899074383215
 30
0.0
 10
51.09734465725581
 20
148.0266219907901
 30
0.0
 10
51.02225213478283
 20
147.9881705162897
 30
0.0
 10
50.94861148859537
 20
147.945673712792
 30
0.0
  0
LINE
  5
1D0
330
1F
100
AcDbEntity
  8
0
  6
Continuous
 62
     7
370
    15
100
AcDbLine
 10
67.4855754899
 20
139.075409759
 30
0.0
 11
71.3573697027
 21
141.31079119
 31
0.0
  0
LINE
  5
1D1
330
1F
100
AcDbEntity
  8
0
  6
Continuous
 62
     7
370
    15
100
AcDbLine
 10
68.1664326238
 20
139.0066225933
 30
0.0
 11
71.5573697027
 21
140.9643810285
 31
0.0
  0
SPLINE
  5
1D2
330
1F
100
AcDbEntity
  8
0
  6
Continuous
 62
     7
370
    15
100
AcDbSpline
210
0.0
220
0.0
230
1.0
 70
     8
 71
     3
 72
    16
 73
    12
 74
     0
 42
0.000000001
 43
0.00000001
 40
0.0
 40
0.0
 40
0.0
 40
0.0
 40
0.2499999999999786
 40
0.2499999999999786
 40
0.3749999999999822
 40
0.3749999999999822
 40
0.4999999999999859
 40
0.4999999999999859
 40
0.749999999999993
 40
0.749999999999993
 40
1.0
 40
1.0
 40
1.0
 40
1.0
 10
67.48557548988899
 20
139.0754097590329
 30
0.0
 10
67.47788097575797
 20
139.0096043837528
 30
0.0
 10
67.48113800660168
 20
138.9425593485776
 30
0.0
 10
67.53401685545495
 20
138.869162289032
 30
0.0
 10
67.5601005632562
 20
138.8502841225053
 30
0.0
 10
67.62582196142249
 20
138.8291451460816
 30
0.0
 10
67.66411789246592
 20
138.8269099520605
 30
0.0
 10
67.7809351601322
 20
138.8363003048511
 30
0.0
 10
67.86211938116028
 20
138.8620787960992
 30
0.0
 10
68.0172788797784
 20
138.9254223818418
 30
0.0
 10
68.09350915280102
 20
138.964520207639
 30
0.0
 10
68.16643262384962
 20
139.0066225932794
 30
0.0
  0
SPLINE
  5
1D3
330
1F
100
AcDbEntity
  8
0
  6
Continuous
 62
     7
370
    15
100
AcDbSpline
210
0.0
220
0.0
230
1.0
 70
    24
 71
     3
 72
     8
 73
     4
 74
     0
 42
0.000000001
 43
0.00000001
 40
0.0
 40
0.0
 40
0.0
 40
0.0
 40
1.0
 40
1.0
 40
1.0
 40
1.0
 10
51.74405370468529
 20
139.0090781082892
 30
0.0
 10
51.74405370468529
 20
139.0090781082892
 30
0.0
 10
51.69465026960605
 20
139.037601194831
 30
0.0
 10
51.62916391544866
 20
139.0754097590321
 30
0.0
  0
ARC
  5
1D4
330
1F
100
AcDbEntity
  8
0
  6
Continuous
 62
     7
370
    15
100
AcDbCircle
 10
59.5573697027
 20
143.4758546995
 30
0.0
 40
8.999999999999995
100
AcDbArc
 50
209.756072044
 51
330.243927956
  0
SPLINE
  5
1D5
330
1F
100
AcDbEntity
  8
0
  6
Continuous
 62
     7
370
    15
100
AcDbSpline
210
0.0
220
0.0
230
1.0
 70
    24
 71
     3
 72
     8
 73
     4
 74
     0
 42
0.000000001
 43
0.00000001
 40
0.0
 40
0.0
 40
0.0
 40
0.0
 40
1.0
 40
1.0
 40
1.0
 40
1.0
 10
67.37068570064642
 20
139.0090781082892
 30
0.0
 10
67.37068570064642
 20
139.0090781082892
 30
0.0
 10
67.4200891357275
 20
139.0376011948321
 30
0.0
 10
67.48557548988664
 20
139.0754097590342
 30
0.0
  0
SPLINE
  5
1D6
330
1F
100
AcDbEntity
  8
0
  6
Continuous
 62
     7
370
    15
100
AcDbSpline
210
0.0
220
0.0
230
1.0
 70
     8
 71
     3
 72
    16
 73
    12
 74
     0
 42
0.000000001
 43
0.00000001
 40
0.0
 40
0.0
 40
0.0
 40
0.0
 40
0.2499999999999998
 40
0.2499999999999998
 40
0.4999999999999997
 40
0.4999999999999997
 40
0.6249999999999996
 40
0.6249999999999996
 40
0.7499999999999996
 40
0.7499999999999996
 40
1.0
 40
1.0
 40
1.0
 40
1.0
 10
50.94830678148497
 20
139.0066225932834
 30
0.0
 10
51.02059426632448
 20
138.9648873944523
 30
0.0
 10
51.09532575143729
 20
138.9263854909518
 30
0.0
 10
51.25220594752859
 20
138.8621577275537
 30
0.0
 10
51.33341278163914
 20
138.8363677381642
 30
0.0
 10
51.45051397605735
 20
138.826900683423
 30
0.0
 10
51.48873056241241
 20
138.8291318425933
 30
0.0
 10
51.55435924097624
 20
138.8501477157604
 30
0.0
 10
51.58076682072294
 20
138.8691640293097
 30
0.0
 10
51.63380351225995
 20
138.9429597959909
 30
0.0
 10
51.6369140327755
 20
139.0091288515054
 30
0.0
 10
51.62916391544126
 20
139.075409759037
 30
0.0
  0
LINE
  5
1D7
330
1F
100
AcDbEntity
  8
0
  6
Continuous
 62
     7
370
    15
100
AcDbLine
 10
50.9483067815
 20
139.0066225933
 30
0.0
 11
47.5573697027
 21
140.9643810285
 31
0.0
  0
LINE
  5
1D8
330
1F
100
AcDbEntity
  8
0
  6
Continuous
 62
     7
370
    15
100
AcDbLine
 10
51.6291639154
 20
139.075409759
 30
0.0
 11
47.7573697027
 21
141.31079119
 31
0.0
  0
CIRCLE
  5
1D9
330
1F
100
AcDbEntity
  8
0
  6
Continuous
 62
     7
370
    15
100
AcDbCircle
 10
59.5573697027
 20
143.4758546995
 30
0.0
 40
15.71191789989206
  0
SPLINE
  5
1DA
330
1F
100
AcDbEntity
  8
0
  6
Continuous
 62
     7
370
    15
100
AcDbSpline
210
0.0
220
0.0
230
1.0
 70
     8
 71
     3
 72
    22
 73
    18
 74
     0
 42
0.000000001
 43
0.00000001
 40
0.0
 40
0.0
 40
0.0
 40
0.0
 40
0.0416666666666666
 40
0.0833333333333333
 40
0.1250000000000034
 40
0.1666666666666681
 40
0.2083333333333338
 40
0.2499999999998967
 40
0.2968749999997767
 40
0.34375
 40
0.3906250000000002
 40
0.4374999999999999
 40
0.4847037825276523
 40
0.4847037825276523
 40
0.53125
 40
0.624999999999985
 40
0.8414337678080955
 40
0.8414337678080955
 40
0.8414337678080955
 40
0.8414337678080955
 10
71.5573697026531
 20
140.9643810285374
 30
0.0
 10
71.68600466705416
 20
141.0386484598615
 30
0.0
 10
71.93849951596893
 20
141.2110486555552
 30
0.0
 10
72.29061807239687
 20
141.5418087570135
 30
0.0
 10
72.60073148375638
 20
141.9476123460489
 30
0.0
 10
72.84682047084989
 20
142.4207720583306
 30
0.0
 10
73.00712329401891
 20
142.9455486050938
 30
0.0
 10
73.06728236629336
 20
143.5230279997155
 30
0.0
 10
73.00156801249045
 20
144.1250194307052
 30
0.0
 10
72.79485206605807
 20
144.7136533059338
 30
0.0
 10
72.46996036527133
 20
145.2320571345211
 30
0.0
 10
72.04766601253954
 20
145.6651788154083
 30
0.0
 10
71.73392731689292
 20
145.8852248998261
 30
0.0
 10
71.42143764356038
 20
146.0669408812126
 30
0.0
 10
71.00216951212074
 20
146.3068142800256
 30
0.0
 10
70.20711167208945
 20
146.7677041016366
 30
0.0
 10
69.02766273709229
 20
147.4484926152159
 30
0.0
 10
68.16613295948414
 20
147.9456640005696
 30
0.0
  0
SPLINE
  5
1DB
330
1F
100
AcDbEntity
  8
0
  6
Continuous
 62
     7
370
    15
100
AcDbSpline
210
0.0
220
0.0
230
1.0
 70
     8
 71
     3
 72
    22
 73
    18
 74
     0
 42
0.000000001
 43
0.00000001
 40
0.0
 40
0.0
 40
0.0
 40
0.0
 40
0.0416666666666666
 40
0.0833333333333333
 40
0.1250000000000034
 40
0.1666666666666681
 40
0.2083333333333338
 40
0.2499999999998967
 40
0.2968749999997767
 40
0.34375
 40
0.3906250000000002
 40
0.4374999999999999
 40
0.4847037825276523
 40
0.4847037825276523
 40
0.53125
 40
0.624999999999985
 40
0.8393173095870872
 40
0.8393173095870872
 40
0.8393173095870872
 40
0.8393173095870872
 10
47.55736970267861
 20
140.9643810285374
 30
0.0
 10
47.43101634833698
 20
141.0373311716795
 30
0.0
 10
47.17518099098757
 20
141.2116600112919
 30
0.0
 10
46.82440506215897
 20
141.5416449442082
 30
0.0
 10
46.51393190305404
 20
141.9476562415335
 30
0.0
 10
46.26793927934283
 20
142.4207602891972
 30
0.0
 10
46.10761075038998
 20
142.9455517861429
 30
0.0
 10
46.047458407025
 20
143.5230268723147
 30
0.0
 10
46.11317217009727
 20
144.1250204184191
 30
0.0
 10
46.31988283954252
 20
144.7136505638297
 30
0.0
 10
46.64479626172885
 20
145.2320671152235
 30
0.0
 10
47.06700881504778
 20
145.6651415244388
 30
0.0
 10
47.3809522715375
 20
145.885305825452
 30
0.0
 10
47.69352322594825
 20
146.0670687374503
 30
0.0
 10
48.11273183744762
 20
146.3069077843411
 30
0.0
 10
48.89874358407761
 20
146.7625637785529
 30
0.0
 10
50.09217980901965
 20
147.451441102401
 30
0.0
 10
50.94861148859567
 20
147.9456737127922
 30
0.0
  0
SPLINE
  5
1DC
330
1F
100
AcDbEntity
  8
0
  6
Continuous
 62
     7
370
    15
100
AcDbSpline
210
0.0
220
0.0
230
1.0
 70
     8
 71
     3
 72
    22
 73
    18
 74
     0
 42
0.000000001
 43
0.00000001
 40
0.0
 40
0.0
 40
0.0
 40
0.0
 40
0.125
 40
0.125
 40
0.2500000000000001
 40
0.2500000000000001
 40
0.3750000000000001
 40
0.3750000000000001
 40
0.5
 40
0.5
 40
0.625
 40
0.625
 40
0.7499999999999999
 40
0.7499999999999999
 40
0.875
 40
0.875
 40
1.0
 40
1.0
 40
1.0
 40
1.0
 10
71.35736970266586
 20
141.3107911900291
 30
0.0
 10
71.5480887276341
 20
141.420902870434
 30
0.0
 10
71.72029152027457
 20
141.5533506792084
 30
0.0
 10
72.02874493111868
 20
141.8615883865153
 30
0.0
 10
72.16361281529721
 20
142.0374544747806
 30
0.0
 10
72.38078057372667
 20
142.4134357820988
 30
0.0
 10
72.46594310466895
 20
142.6188863465821
 30
0.0
 10
72.57846527727499
 20
143.038876540231
 30
0.0
 10
72.60735566064973
 20
143.2566873121667
 30
0.0
 10
72.60738373441212
 20
143.6947016205435
 30
0.0
 10
72.5791075766387
 20
143.9099323141493
 30
0.0
 10
72.46606710080971
 20
144.3328599953719
 30
0.0
 10
72.38181085244227
 20
144.5361170676463
 30
0.0
 10
72.16471612946987
 20
144.9127139525978
 30
0.0
 10
72.02940989608312
 20
145.0891992254816
 30
0.0
 10
71.72257640868382
 20
145.396330255568
 30
0.0
 10
71.54810870519663
 20
145.5307949944952
 30
0.0
 10
71.35736970266595
 20
145.6409182089513
 30
0.0
  0
LINE
  5
1DD
330
1F
100
AcDbEntity
  8
0
  6
Continuous
 62
     7
370
    15
100
AcDbLine
 10
71.3573697027
 20
145.640918209
 30
0.0
 11
67.4855754899
 21
147.87629964
 31
0.0
  0
CIRCLE
  5
1DE
330
1F
100
AcDbEntity
  8
0
  6
Continuous
 62
     7
370
    15
100
AcDbCircle
 10
59.5573697027
 20
143.4758546995
 30
0.0
 40
16.01191789989204
  0
LINE
  5
1DF
330
1F
100
AcDbEntity
  8
0
  6
Continuous
 62
     7
370
    15
100
AcDbLine
 10
47.7573697027
 20
145.640918209
 30
0.0
 11
51.6291639154
 21
147.8762996399
 31
0.0
  0
SPLINE
  5
1E0
330
1F
100
AcDbEntity
  8
0
  6
Continuous
 62
     7
370
    15
100
AcDbSpline
210
0.0
220
0.0
230
1.0
 70
     8
 71
     3
 72
    22
 73
    18
 74
     0
 42
0.000000001
 43
0.00000001
 40
0.0
 40
0.0
 40
0.0
 40
0.0
 40
0.125
 40
0.125
 40
0.25
 40
0.25
 40
0.375
 40
0.375
 40
0.5
 40
0.5
 40
0.625
 40
0.625
 40
0.75
 40
0.75
 40
0.875
 40
0.875
 40
1.0
 40
1.0
 40
1.0
 40
1.0
 10
47.75736970266584
 20
141.3107911900291
 30
0.0
 10
47.56664881983507
 20
141.4209039430715
 30
0.0
 10
47.39444536112811
 20
141.5533524297052
 30
0.0
 10
47.08598814392106
 20
141.8615954840701
 30
0.0
 10
46.95112175371593
 20
142.0374615629611
 30
0.0
 10
46.7339562646648
 20
142.413441511182
 30
0.0
 10
46.64879378005057
 20
142.618893446854
 30
0.0
 10
46.53627309373756
 20
143.0388827088507
 30
0.0
 10
46.50738312872087
 20
143.2566966563562
 30
0.0
 10
46.50735628599993
 20
143.6947063256341
 30
0.0
 10
46.53563245047359
 20
143.909936421373
 30
0.0
 10
46.6486743952039
 20
144.3328660364658
 30
0.0
 10
46.73292952932136
 20
144.5361191567529
 30
0.0
 10
46.95002456754564
 20
144.9127157980154
 30
0.0
 10
47.08533074133068
 20
145.0892005362427
 30
0.0
 10
47.39216265609809
 20
145.3963298372035
 30
0.0
 10
47.56663121216172
 20
145.530795290114
 30
0.0
 10
47.75736970266576
 20
145.6409182089513
 30
0.0
  0
SPLINE
  5
1E1
330
1F
100
AcDbEntity
  8
0
  6
Continuous
 62
     7
370
    15
100
AcDbSpline
210
0.0
220
0.0
230
1.0
 70
    11
 71
     3
 72
    66
 73
    62
 74
     0
 42
0.000000001
 43
0.00000001
 40
0.0
 40
0.0
 40
0.0
 40
0.0
 40
0.03125
 40
0.03125
 40
0.0625000000000001
 40
0.0625000000000001
 40
0.0937500000000001
 40
0.0937500000000001
 40
0.1250000000000001
 40
0.1250000000000001
 40
0.1562500000000002
 40
0.1562500000000002
 40
0.1875000000000002
 40
0.1875000000000002
 40
0.2187500000000002
 40
0.2187500000000002
 40
0.2500000000000003
 40
0.2500000000000003
 40
0.2812500000000003
 40
0.2812500000000003
 40
0.3125000000000003
 40
0.3125000000000003
 40
0.3437500000000004
 40
0.3437500000000004
 40
0.3750000000000004
 40
0.3750000000000004
 40
0.4062500000000004
 40
0.4062500000000004
 40
0.4375000000000005
 40
0.4375000000000005
 40
0.4687500000000005
 40
0.4687500000000005
 40
0.5000000000000006
 40
0.5000000000000006
 40
0.562500000000002
 40
0.562500000000002
 40
0.5937500000000018
 40
0.5937500000000018
 40
0.6250000000000016
 40
0.6250000000000016
 40
0.6562500000000014
 40
0.6562500000000014
 40
0.6875000000000012
 40
0.6875000000000012
 40
0.718750000000001
 40
0.718750000000001
 40
0.7500000000000009
 40
0.7500000000000009
 40
0.7812500000000007
 40
0.7812500000000007
 40
0.8125000000000004
 40
0.8125000000000004
 40
0.8437500000000002
 40
0.8437500000000002
 40
0.8750000000000001
 40
0.8750000000000001
 40
0.9062499999999999
 40
0.9062499999999999
 40
0.9374999999999997
 40
0.9374999999999997
 40
1.0
 40
1.0
 40
1.0
 40
1.0
 10
61.79218925437574
 20
159.7512487213976
 30
0.0
 10
61.94660311319188
 20
159.7235335589898
 30
0.0
 10
62.08309068221532
 20
159.6955498711102
 30
0.0
 10
62.32324841240259
 20
159.6412818214661
 30
0.0
 10
62.42740454077322
 20
159.6148104163408
 30
0.0
 10
62.59699867072298
 20
159.5671195344002
 30
0.0
 10
62.66334923535849
 20
159.5457241877426
 30
0.0
 10
62.75973974077126
 20
159.5091544084047
 30
0.0
 10
62.78939537312131
 20
159.4940275199265
 30
0.0
 10
62.80978544904301
 20
159.4718717163415
 30
0.0
 10
62.80112776773274
 20
159.4646380238906
 30
0.0
 10
62.74517228587617
 20
159.4578901803519
 30
0.0
 10
62.69742954890484
 20
159.4584780478723
 30
0.0
 10
62.56593425554026
 20
159.4665630565622
 30
0.0
 10
62.48200943163815
 20
159.4740097917729
 30
0.0
 10
62.27574515779399
 20
159.4943204424919
 30
0.0
 10
62.15370965345393
 20
159.5071561824278
 30
0.0
 10
61.8797846361374
 20
159.5351097192195
 30
0.0
 10
61.72692807405608
 20
159.5503367017246
 30
0.0
 10
61.38631219586674
 20
159.5809409405913
 30
0.0
 10
61.20200092471679
 20
159.595955963
 30
0.0
 10
60.81326357965942
 20
159.6223775083936
 30
0.0
 10
60.60573198799241
 20
159.6339831826145
 30
0.0
 10
60.17379485986842
 20
159.6512006507399
 30
0.0
 10
59.95439074582203
 20
159.6566484984004
 30
0.0
 10
59.50871305732193
 20
159.6603968292295
 30
0.0
 10
59.28052373951591
 20
159.6585674392601
 30
0.0
 10
58.84031040265591
 20
159.6480317245768
 30
0.0
 10
58.62471834325625
 20
159.6393583641645
 30
0.0
 10
58.20798318258084
 20
159.6167821627096
 30
0.0
 10
58.01245329358227
 20
159.6032316958143
 30
0.0
 10
57.64503764148795
 20
159.5739745788713
 30
0.0
 10
57.47271126161257
 20
159.5581854986852
 30
0.0
 10
57.01050076538753
 20
159.5131841046929
 30
0.0
 10
56.76473772898948
 20
159.4856801782068
 30
0.0
 10
56.5113160110167
 20
159.46377573187
 30
0.0
 10
56.44454382791236
 20
159.4595134622876
 30
0.0
 10
56.35035154901529
 20
159.4586603936843
 30
0.0
 10
56.32274611594293
 20
159.461996346435
 30
0.0
 10
56.30531010557483
 20
159.4765333267315
 30
0.0
 10
56.31593267790976
 20
159.4879091571397
 30
0.0
 10
56.37506883317766
 20
159.5176872693515
 30
0.0
 10
56.42316380153208
 20
159.536040678324
 30
0.0
 10
56.55660259960045
 20
159.5786465846546
 30
0.0
 10
56.64303518930784
 20
159.6031481408285
 30
0.0
 10
56.84857684123053
 20
159.6547725261981
 30
0.0
 10
56.96788968580213
 20
159.6820225286752
 30
0.0
 10
57.24133129917634
 20
159.7373587054911
 30
0.0
 10
57.39698094582042
 20
159.7656282947842
 30
0.0
 10
57.73203483134635
 20
159.8181222890239
 30
0.0
 10
57.91264345308001
 20
159.8426569777716
 30
0.0
 10
58.30249399311774
 20
159.8857749934245
 30
0.0
 10
58.51174357760166
 20
159.9041674013389
 30
0.0
 10
58.93783416188202
 20
159.9307531207442
 30
0.0
 10
59.15804714135209
 20
159.9392995635928
 30
0.0
 10
59.60971521613735
 20
159.9451287353495
 30
0.0
 10
59.83274961587888
 20
159.9423287533209
 30
0.0
 10
60.27346187329731
 20
159.9260381222697
 30
0.0
 10
60.49239328828929
 20
159.9123089197633
 30
0.0
 10
61.10983716641761
 20
159.8591336963265
 30
0.0
 10
61.48336153674345
 20
159.8066790462131
 30
0.0
 10
61.79218925437574
 20
159.7512487213976
 30
0.0
  0
ARC
  5
1E2
330
1F
100
AcDbEntity
  8
0
  6
Continuous
 62
     7
370
    15
100
AcDbCircle
 10
59.5573697027
 20
143.4758546995
 30
0.0
 40
9.000000000000009
100
AcDbArc
 50
330.243927956
 51
29.756072044
  0
ARC
  5
1E3
330
1F
100
AcDbEntity
  8
0
  6
Continuous
 62
     7
370
    15
100
AcDbCircle
 10
59.5573697027
 20
143.4758546995
 30
0.0
 40
9.000000000000004
100
AcDbArc
 50
150.243927956
 51
209.756072044
  0
CIRCLE
  5
1E4
330
1F
100
AcDbEntity
  8
0
  6
Continuous
 62
     7
370
    15
100
AcDbCircle
 10
59.5573697027
 20
143.4758546995
 30
0.0
 40
3.400000000000006
  0
CIRCLE
  5
1E5
330
1F
100
AcDbEntity
  8
0
  6
Continuous
 62
     7
370
    15
100
AcDbCircle
 10
59.5573697027
 20
143.4758546995
 30
0.0
 40
32.0
  0
ARC
  5
1E6
330
1F
100
AcDbEntity
  8
0
  6
Continuous
 62
     7
370
     0
100
AcDbCircle
 10
59.5573697027
 20
143.4758546995
 30
0.0
 40
9.699999999999932
100
AcDbArc
 50
27.43907022
 51
152.5608651401
  0
LINE
  5
1E7
330
1F
100
AcDbEntity
  8
0
  6
Continuous
 62
     7
370
     0
100
AcDbLine
 10
71.5573697027
 20
140.9643810285
 30
0.0
 11
71.3573697027
 21
141.31079119
 31
0.0
  0
ARC
  5
1E8
330
1F
100
AcDbEntity
  8
0
  6
Continuous
 62
     7
370
     0
100
AcDbCircle
 10
59.5573697027
 20
143.4758546995
 30
0.0
 40
9.700000000000001
100
AcDbArc
 50
207.435228756
 51
332.564771244
  0
LINE
  5
1E9
330
1F
100
AcDbEntity
  8
0
  6
Continuous
 62
     7
370
     0
100
AcDbLine
 10
47.7573697027
 20
141.31079119
 30
0.0
 11
47.5573697027
 21
140.9643810285
 31
0.0
  0
CIRCLE
  5
1EA
330
1F
100
AcDbEntity
  8
0
  6
Continuous
 62
     7
370
     0
100
AcDbCircle
 10
59.5573697027
 20
143.4758546995
 30
0.0
 40
18.88309745702659
  0
ARC
  5
1EB
330
1F
100
AcDbEntity
  8
0
  6
Continuous
 62
     7
370
     0
100
AcDbCircle
 10
59.5573697027
 20
143.4758546995
 30
0.0
 40
8.70000000000002
100
AcDbArc
 50
105.5546371915
 51
74.4453628085
  0
CIRCLE
  5
1EC
330
1F
100
AcDbEntity
  8
0
  6
Continuous
 62
     7
370
     0
100
AcDbCircle
 10
59.5573697027
 20
143.4758546995
 30
0.0
 40
21.84466864463226
  0
CIRCLE
  5
1ED
330
1F
100
AcDbEntity
  8
0
  6
Continuous
 62
     7
370
     0
100
AcDbCircle
 10
59.5573697027
 20
143.4758546995
 30
0.0
 40
31.25881904510252
  0
INSERT
  5
1F9
330
1F
100
AcDbEntity
  8
VERMASSUNG
100
AcDbBlockReference
  2
SW_CENTERMARKSYMBOL_0
 10
59.5573697027
 20
143.4758546995
 30
0.0
  0
LINE
  5
1FA
330
1F
100
AcDbEntity
  8
0
  6
Continuous
 62
     7
370
    15
100
AcDbLine
 10
242.3310725066
 20
47.8405092333
 30
0.0
 11
242.0970111627
 21
47.9756738929
 31
0.0
  0
LINE
  5
1FB
330
1F
100
AcDbEntity
  8
0
  6
Continuous
 62
     7
370
    15
100
AcDbLine
 10
238.4194584376
 20
47.9756738929
 30
0.0
 11
238.1853970937
 21
47.8405092333
 31
0.0
  0
LINE
  5
1FC
330
1F
100
AcDbEntity
  8
0
  6
Continuous
 62
     7
370
    15
100
AcDbLine
 10
185.4611104415
 20
43.6787114079
 30
0.0
 11
237.9610936403
 21
16.6850705078
 31
0.0
  0
LINE
  5
1FD
330
1F
100
AcDbEntity
  8
0
  6
Continuous
 62
     7
370
    15
100
AcDbLine
 10
253.9653911052
 20
44.4083307295
 30
0.0
 11
204.3352210041
 21
76.3731723629
 31
0.0
  0
LINE
  5
1FE
330
1F
100
AcDbEntity
  8
0
  6
Continuous
 62
     7
370
    15
100
AcDbLine
 10
245.7401525198
 20
17.6032279902
 30
0.0
 11
245.9522500768
 21
17.7257091103
 31
0.0
  0
LINE
  5
1FF
330
1F
100
AcDbEntity
  8
0
  6
Continuous
 62
     7
370
    15
100
AcDbLine
 10
257.0604480812
 20
36.9677573505
 30
0.0
 11
257.0604480812
 21
37.2126797841
 31
0.0
  0
SPLINE
  5
200
330
1F
100
AcDbEntity
  8
0
  6
Continuous
 62
     7
370
    15
100
AcDbSpline
210
0.0
220
0.0
230
1.0
 70
     8
 71
     3
 72
    20
 73
    16
 74
     0
 42
0.000000001
 43
0.00000001
 40
0.0
 40
0.0
 40
0.0
 40
0.0
 40
0.0121224260280737
 40
0.0967609988374562
 40
0.1815249451307887
 40
0.2662993274376788
 40
0.3509723112487821
 40
0.4354546583791992
 40
0.5196655075838094
 40
0.6035492740506687
 40
0.6871258900874941
 40
0.7705840807703657
 40
0.8543007648099161
 40
0.9393009468929205
 40
1.0
 40
1.0
 40
1.0
 40
1.0
 10
240.1695366449438
 20
31.11220804651871
 30
0.0
 10
240.192162681211
 20
31.17317493279227
 30
0.0
 10
240.3727633187303
 20
31.65981158441439
 30
0.0
 10
240.7990753800138
 20
32.56713035926997
 30
0.0
 10
241.4895074379353
 20
33.79410068118002
 30
0.0
 10
242.2855517214743
 20
34.94766912485613
 30
0.0
 10
243.1588986446534
 20
35.9987527835593
 30
0.0
 10
244.0884147533185
 20
36.92129727928294
 30
0.0
 10
245.0482878648026
 20
37.69317737561956
 30
0.0
 10
246.0120893856247
 20
38.29726860567313
 30
0.0
 10
246.9523769498292
 20
38.72162285125948
 30
0.0
 10
247.8440347880406
 20
38.96348589364471
 30
0.0
 10
248.6606398576962
 20
39.0178250421706
 30
0.0
 10
249.3275999548766
 20
38.93061075932971
 30
0.0
 10
249.6771721161418
 20
38.75496192150395
 30
0.0
 10
249.8228056821225
 20
38.68178570941559
 30
0.0
  0
SPLINE
  5
201
330
1F
100
AcDbEntity
  8
0
  6
Continuous
 62
     7
370
    15
100
AcDbSpline
210
0.0
220
0.0
230
1.0
 70
     8
 71
     3
 72
    10
 73
     6
 74
     0
 42
0.000000001
 43
0.00000001
 40
0.0
 40
0.0
 40
0.0
 40
0.0
 40
0.1590861355478007
 40
0.695468562042733
 40
1.0
 40
1.0
 40
1.0
 40
1.0
 10
241.088177804788
 20
22.99783828909414
 30
0.0
 10
241.0200278568469
 20
23.02585971462345
 30
0.0
 10
240.7221002836194
 20
23.14835951922397
 30
0.0
 10
240.3722755538651
 20
23.46051502434323
 30
0.0
 10
240.129109985206
 20
23.81708648245723
 30
0.0
 10
240.0410491701621
 20
23.94621649620093
 30
0.0
  0
SPLINE
  5
202
330
1F
100
AcDbEntity
  8
0
  6
Continuous
 62
     7
370
    15
100
AcDbSpline
210
0.0
220
0.0
230
1.0
 70
     8
 71
     3
 72
    17
 73
    13
 74
     0
 42
0.000000001
 43
0.00000001
 40
0.0
 40
0.0
 40
0.0
 40
0.0
 40
0.0975076428670437
 40
0.2015233269883198
 40
0.306204758892044
 40
0.4115387589062401
 40
0.517409665578918
 40
0.6236595108035689
 40
0.7301366378190796
 40
0.8367211541231488
 40
0.9433220195291694
 40
1.0
 40
1.0
 40
1.0
 40
1.0
 10
176.5951954258619
 20
34.19027890048462
 30
0.0
 10
177.0931659329737
 20
34.08460504391092
 30
0.0
 10
178.1223434454693
 20
33.8662042444838
 30
0.0
 10
179.7760874442587
 20
33.78513918167672
 30
0.0
 10
181.5227046299871
 20
33.88707370107669
 30
0.0
 10
183.3275280245577
 20
34.19517275024066
 30
0.0
 10
185.1758440227262
 20
34.70229857066698
 30
0.0
 10
187.0547114841017
 20
35.40752586383622
 30
0.0
 10
188.9506313797149
 20
36.30253707895795
 30
0.0
 10
190.8480185292583
 20
37.39080105003296
 30
0.0
 10
192.445075147797
 20
38.43304651535099
 30
0.0
 10
193.3943916546564
 20
39.17330392197479
 30
0.0
 10
193.7239220487957
 20
39.43026491781411
 30
0.0
  0
SPLINE
  5
203
330
1F
100
AcDbEntity
  8
0
  6
Continuous
 62
     7
370
    15
100
AcDbSpline
210
0.0
220
0.0
230
1.0
 70
     8
 71
     3
 72
    17
 73
    13
 74
     0
 42
0.000000001
 43
0.00000001
 40
0.0
 40
0.0
 40
0.0
 40
0.0
 40
0.0672509053066172
 40
0.1743802073347223
 40
0.2815902378538634
 40
0.3888602808069509
 40
0.4961322511504588
 40
0.6033088945212941
 40
0.7102576214197608
 40
0.816808974396909
 40
0.9227851476933929
 40
1.0
 40
1.0
 40
1.0
 40
1.0
 10
212.1474046568478
 20
71.34165196388577
 30
0.0
 10
212.2130087143177
 20
71.82974984197496
 30
0.0
 10
212.3831186792534
 20
73.0953775505206
 30
0.0
 10
212.4808614912601
 20
75.06889943026418
 30
0.0
 10
212.4579218604794
 20
77.25143326298287
 30
0.0
 10
212.2685683755538
 20
79.33791594294401
 30
0.0
 10
211.9212300203326
 20
81.31672970106821
 30
0.0
 10
211.4145132860185
 20
83.1718947860407
 30
0.0
 10
210.7534303254225
 20
84.89138153187739
 30
0.0
 10
209.9363885892169
 20
86.4536538597469
 30
0.0
 10
209.0759340729023
 20
87.74910164261212
 30
0.0
 10
208.4277818817499
 20
88.44284964037054
 30
0.0
 10
208.1545863169165
 20
88.73526379662394
 30
0.0
  0
LINE
  5
204
330
1F
100
AcDbEntity
  8
0
  6
Continuous
 62
     7
370
    15
100
AcDbLine
 10
166.0292916473
 20
39.7421717958
 30
0.0
 11
173.5477268362
 21
35.4018715472
 31
0.0
  0
LINE
  5
205
330
1F
100
AcDbEntity
  8
0
  6
Continuous
 62
     7
370
    15
100
AcDbLine
 10
205.5451262806
 20
90.8289987395
 30
0.0
 11
198.0266910916
 21
95.1692989882
 31
0.0
  0
LINE
  5
206
330
1F
100
AcDbEntity
  8
0
  6
Continuous
 62
     7
370
    15
100
AcDbLine
 10
182.0243137778
 20
93.5829179988
 30
0.0
 11
181.6001186639
 21
93.3379557585
 31
0.0
  0
LINE
  5
207
330
1F
100
AcDbEntity
  8
0
  6
Continuous
 62
     7
370
    15
100
AcDbLine
 10
159.4005743715
 20
54.8830504699
 30
0.0
 11
159.4005743715
 21
54.3932056029
 31
0.0
  0
LINE
  5
208
330
1F
100
AcDbEntity
  8
0
  6
Continuous
 62
     7
370
    15
100
AcDbLine
 10
147.7143000092
 20
66.4805610708
 30
0.0
 11
159.7391216815
 21
59.5387792794
 31
0.0
  0
LINE
  5
209
330
1F
100
AcDbEntity
  8
0
  6
Continuous
 62
     7
370
    15
100
AcDbLine
 10
177.737658869
 20
90.7165383251
 30
0.0
 11
165.7128371967
 21
97.6583201165
 31
0.0
  0
LINE
  5
20A
330
1F
100
AcDbEntity
  8
0
  6
Continuous
 62
     7
370
    15
100
AcDbLine
 10
164.3718478944
 20
98.2299745753
 30
0.0
 11
163.3077607895
 21
98.5413351262
 31
0.0
  0
LINE
  5
20B
330
1F
100
AcDbEntity
  8
0
  6
Continuous
 62
     7
370
    15
100
AcDbLine
 10
145.7468943627
 20
68.1217262221
 30
0.0
 11
146.548655924
 21
67.3559552653
 31
0.0
  0
LINE
  5
20C
330
1F
100
AcDbEntity
  8
0
  6
Continuous
 62
     7
370
    15
100
AcDbLine
 10
145.9601328898
 20
67.6086871199
 30
0.0
 11
146.020803795
 21
67.5736625518
 31
0.0
  0
LINE
  5
20D
330
1F
100
AcDbEntity
  8
0
  6
Continuous
 62
     7
370
    15
100
AcDbLine
 10
163.9193491092
 20
98.5782118251
 30
0.0
 11
163.858678204
 21
98.6132363931
 31
0.0
  0
SPLINE
  5
20E
330
1F
100
AcDbEntity
  8
0
  6
Continuous
 62
     7
370
    15
100
AcDbSpline
210
0.0
220
0.0
230
1.0
 70
     8
 71
     3
 72
    12
 73
     8
 74
     0
 42
0.000000001
 43
0.00000001
 40
0.0
 40
0.0
 40
0.0
 40
0.0
 40
0.124535895308868
 40
0.3609183745578158
 40
0.5974317361757339
 40
0.833480309742651
 40
0.9999999999999999
 40
0.9999999999999999
 40
0.9999999999999999
 40
0.9999999999999999
 10
142.0764582323985
 20
76.04903158922579
 30
0.0
 10
142.080943019173
 20
75.76286440072401
 30
0.0
 10
142.093940412004
 20
74.93352121200166
 30
0.0
 10
142.2368249715207
 20
73.6298767371156
 30
0.0
 10
142.5641501783324
 20
72.19741167356447
 30
0.0
 10
142.9858823010172
 20
71.00494834951745
 30
0.0
 10
143.3639154355554
 20
70.3627253230058
 30
0.0
 10
143.5202863324371
 20
70.0970740308872
 30
0.0
  0
LINE
  5
20F
330
1F
100
AcDbEntity
  8
0
  6
Continuous
 62
     7
370
    15
100
AcDbLine
 10
154.6073685905
 20
97.7555569418
 30
0.0
 11
153.3176287499
 21
97.0107639198
 31
0.0
  0
LINE
  5
210
330
1F
100
AcDbEntity
  8
0
  6
Continuous
 62
     7
370
    15
100
AcDbLine
 10
142.0764582324
 20
77.538375573
 30
0.0
 11
142.0764582324
 21
76.0490315892
 31
0.0
  0
LWPOLYLINE
  5
211
330
1F
100
AcDbEntity
  8
0
  6
Continuous
 62
     7
370
    15
100
AcDbPolyline
 90
       21
 70
   128
 43
0.0
 10
238.936917388
 20
48.2071918362
 10
239.6935452714
 20
48.3796358466
 10
240.5054489004
 20
48.4086637016
 10
241.2931534908
 20
48.2914339526
 10
241.979553029
 20
48.0394218642
 10
242.4974579459
 20
47.6772961354
 10
242.7961720996
 20
47.2405041556
 10
242.8464552677
 20
46.7718021672
 10
242.6433853832
 20
46.3170699865
 10
242.2068403413
 20
45.9208199674
 10
241.5795522123
 20
45.6218398229
 10
240.8229243289
 20
45.4493958125
 10
240.0110206999
 20
45.4203679575
 10
239.2233161095
 20
45.5375977065
 10
238.5369165713
 20
45.7896097949
 10
238.0190116544
 20
46.1517355237
 10
237.7202975007
 20
46.5885275035
 10
237.6700143326
 20
47.0572294919
 10
237.8730842171
 20
47.5119616726
 10
238.309629259
 20
47.9082116916
 10
238.936917388
 20
48.2071918362
  0
LWPOLYLINE
  5
212
330
1F
100
AcDbEntity
  8
0
  6
Continuous
 62
     7
370
    15
100
AcDbPolyline
 90
       18
 70
   128
 43
0.0
 10
239.2926566913
 20
47.8591636805
 10
239.9489797707
 20
47.9967357381
 10
240.6470694555
 20
47.9881480002
 10
241.2926448655
 20
47.8345602884
 10
241.7985174643
 20
47.5567154744
 10
242.0963663543
 20
47.1921380397
 10
242.1459653925
 20
46.7900661872
 10
241.9406159539
 20
46.4048019485
 10
241.5080516181
 20
46.0883773939
 10
240.9066925956
 20
45.8835274128
 10
240.2177557545
 20
45.8179181303
 10
239.5342858329
 20
45.9004104435
 10
238.9485892309
 20
46.1198633084
 10
238.5397675199
 20
46.4466383997
 10
238.3630343376
 20
46.8366029305
 10
238.4422584793
 20
47.23709003
 10
238.7667402859
 20
47.5940116963
 10
239.2926566913
 20
47.8591636805
  0
SPLINE
  5
213
330
1F
100
AcDbEntity
  8
0
  6
Continuous
 62
     7
370
    15
100
AcDbSpline
210
0.0
220
0.0
230
1.0
 70
     8
 71
     3
 72
    14
 73
    10
 74
     0
 42
0.000000001
 43
0.00000001
 40
0.0
 40
0.0
 40
0.0
 40
0.0
 40
0.117980469686138
 40
0.294114240933027
 40
0.4755700099650184
 40
0.6420447306966541
 40
0.8146342629477287
 40
0.9071144418940865
 40
0.9999999999999999
 40
0.9999999999999999
 40
0.9999999999999999
 40
0.9999999999999999
 10
238.7500808589244
 20
47.2690811086834
 30
0.0
 10
238.8053927421697
 20
47.26297176126989
 30
0.0
 10
238.9432800772391
 20
47.24774173140224
 30
0.0
 10
239.1786230128969
 20
47.25390825478014
 30
0.0
 10
239.4498016607338
 20
47.30947032962965
 30
0.0
 10
239.7211366541757
 20
47.42072822254954
 30
0.0
 10
239.9383773419327
 20
47.55047679589674
 30
0.0
 10
240.1116211040392
 20
47.6734774506231
 30
0.0
 10
240.1983383051763
 20
47.74259213351939
 30
0.0
 10
240.2417917273303
 20
47.77722504894499
 30
0.0
  0
SPLINE
  5
214
330
1F
100
AcDbEntity
  8
0
  6
Continuous
 62
     7
370
    15
100
AcDbSpline
210
0.0
220
0.0
230
1.0
 70
     8
 71
     3
 72
    10
 73
     6
 74
     0
 42
0.000000001
 43
0.00000001
 40
0.0
 40
0.0
 40
0.0
 40
0.0
 40
0.4391165375904051
 40
0.7513669429073442
 40
1.0
 40
1.0
 40
1.0
 40
1.0
 10
238.7665239317446
 20
46.26923451933931
 30
0.0
 10
238.7641699791072
 20
46.32848332221375
 30
0.0
 10
238.7601421595069
 20
46.42986322498622
 30
0.0
 10
238.7542870123237
 20
46.84969612918493
 30
0.0
 10
238.7513727272842
 20
47.14027216280104
 30
0.0
 10
238.7500808589244
 20
47.2690811086834
 30
0.0
  0
SPLINE
  5
215
330
1F
100
AcDbEntity
  8
0
  6
Continuous
 62
     7
370
    15
100
AcDbSpline
210
0.0
220
0.0
230
1.0
 70
     8
 71
     3
 72
     9
 73
     5
 74
     0
 42
0.000000001
 43
0.00000001
 40
0.0
 40
0.0
 40
0.0
 40
0.0
 40
0.0674463020446233
 40
1.0
 40
1.0
 40
1.0
 40
1.0
 10
239.1566846418029
 20
46.00358918649938
 30
0.0
 10
239.1473217303046
 20
46.00753851869176
 30
0.0
 10
239.0085014953266
 20
46.06609372591082
 30
0.0
 10
238.8832901939082
 20
46.17120893882491
 30
0.0
 10
238.7665239317446
 20
46.26923451933931
 30
0.0
  0
SPLINE
  5
216
330
1F
100
AcDbEntity
  8
0
  6
Continuous
 62
     7
370
    15
100
AcDbSpline
210
0.0
220
0.0
230
1.0
 70
     8
 71
     3
 72
    10
 73
     6
 74
     0
 42
0.000000001
 43
0.00000001
 40
0.0
 40
0.0
 40
0.0
 40
0.0
 40
0.3265889987657648
 40
0.6544296184749039
 40
1.0
 40
1.0
 40
1.0
 40
1.0
 10
241.7663887413767
 20
46.28567581051831
 30
0.0
 10
241.723076675535
 20
46.25131186862703
 30
0.0
 10
241.6362865545228
 20
46.18245228834053
 30
0.0
 10
241.4997852940882
 20
46.08312593760621
 30
0.0
 10
241.4032806682607
 20
46.02870160307286
 30
0.0
 10
241.3537579543386
 20
46.00077298590674
 30
0.0
  0
SPLINE
  5
217
330
1F
100
AcDbEntity
  8
0
  6
Continuous
 62
     7
370
    15
100
AcDbSpline
210
0.0
220
0.0
230
1.0
 70
     8
 71
     3
 72
    10
 73
     6
 74
     0
 42
0.000000001
 43
0.00000001
 40
0.0
 40
0.0
 40
0.0
 40
0.0
 40
0.4391165375903822
 40
0.7513669429073377
 40
1.0
 40
1.0
 40
1.0
 40
1.0
 10
241.7499456685565
 20
47.2855223998624
 30
0.0
 10
241.7522996211939
 20
47.05849970814057
 30
0.0
 10
241.7563274407941
 20
46.67004395380786
 30
0.0
 10
241.7621825879774
 20
46.37781421555058
 30
0.0
 10
241.7650968730169
 20
46.31397499004945
 30
0.0
 10
241.7663887413767
 20
46.28567581051831
 30
0.0
  0
SPLINE
  5
218
330
1F
100
AcDbEntity
  8
0
  6
Continuous
 62
     7
370
    15
100
AcDbSpline
210
0.0
220
0.0
230
1.0
 70
     8
 71
     3
 72
    10
 73
     6
 74
     0
 42
0.000000001
 43
0.00000001
 40
0.0
 40
0.0
 40
0.0
 40
0.0
 40
0.4391165375904422
 40
0.7513669429073556
 40
1.0
 40
1.0
 40
1.0
 40
1.0
 10
240.2417917273303
 20
47.77722504894499
 30
0.0
 10
240.4576955907017
 20
47.62294707966306
 30
0.0
 10
240.8271260536794
 20
47.35896393119548
 30
0.0
 10
241.3641584804862
 20
47.2476771099351
 30
0.0
 10
241.6314558716885
 20
47.2738986838486
 30
0.0
 10
241.7499456685565
 20
47.2855223998624
 30
0.0
  0
LINE
  5
219
330
1F
100
AcDbEntity
  8
0
  6
Continuous
 62
     7
370
    15
100
AcDbLine
 10
241.7499456686
 20
46.272814016
 30
0.0
 11
241.7499456686
 21
47.2855223999
 31
0.0
  0
LINE
  5
21A
330
1F
100
AcDbEntity
  8
0
  6
Continuous
 62
     7
370
    15
100
AcDbLine
 10
240.2417917273
 20
45.8177102521
 30
0.0
 11
240.2417917273
 21
47.7772250489
 31
0.0
  0
SPLINE
  5
21B
330
1F
100
AcDbEntity
  8
0
  6
Continuous
 62
     7
370
    15
100
AcDbSpline
210
0.0
220
0.0
230
1.0
 70
    11
 71
     3
 72
    66
 73
    62
 74
     0
 42
0.000000001
 43
0.00000001
 40
0.0
 40
0.0
 40
0.0
 40
0.0
 40
0.03125
 40
0.03125
 40
0.0625000000000001
 40
0.0625000000000001
 40
0.0937500000000001
 40
0.0937500000000001
 40
0.1250000000000001
 40
0.1250000000000001
 40
0.1562500000000002
 40
0.1562500000000002
 40
0.1875000000000002
 40
0.1875000000000002
 40
0.2187500000000002
 40
0.2187500000000002
 40
0.2500000000000003
 40
0.2500000000000003
 40
0.2812500000000003
 40
0.2812500000000003
 40
0.3125000000000003
 40
0.3125000000000003
 40
0.3437500000000004
 40
0.3437500000000004
 40
0.3750000000000004
 40
0.3750000000000004
 40
0.4062500000000004
 40
0.4062500000000004
 40
0.4375000000000005
 40
0.4375000000000005
 40
0.4687500000000005
 40
0.4687500000000005
 40
0.5000000000000006
 40
0.5000000000000006
 40
0.562500000000002
 40
0.562500000000002
 40
0.5937500000000018
 40
0.5937500000000018
 40
0.6250000000000016
 40
0.6250000000000016
 40
0.6562500000000014
 40
0.6562500000000014
 40
0.6875000000000012
 40
0.6875000000000012
 40
0.718750000000001
 40
0.718750000000001
 40
0.7500000000000009
 40
0.7500000000000009
 40
0.7812500000000007
 40
0.7812500000000007
 40
0.8125000000000004
 40
0.8125000000000004
 40
0.8437500000000002
 40
0.8437500000000002
 40
0.8750000000000001
 40
0.8750000000000001
 40
0.9062499999999999
 40
0.9062499999999999
 40
0.9374999999999997
 40
0.9374999999999997
 40
1.0
 40
1.0
 40
1.0
 40
1.0
 10
239.9105405777285
 20
49.15489924877043
 30
0.0
 10
240.1345630890288
 20
49.12900797146757
 30
0.0
 10
240.3548043705989
 20
49.09044512121611
 30
0.0
 10
240.7885973816407
 20
48.99177638807902
 30
0.0
 10
241.0037660367055
 20
48.9309810929493
 30
0.0
 10
241.4142161197215
 20
48.79354977554878
 30
0.0
 10
241.6107485637063
 20
48.71679297607231
 30
0.0
 10
241.9868019968772
 20
48.54853522322573
 30
0.0
 10
242.1665354739901
 20
48.45663667245059
 30
0.0
 10
242.4954172044662
 20
48.26533279625325
 30
0.0
 10
242.6464567055467
 20
48.16516474188175
 30
0.0
 10
242.9210642911796
 20
47.95544475812021
 30
0.0
 10
243.044007498732
 20
47.8459736151942
 30
0.0
 10
243.2517060405635
 20
47.62531971456725
 30
0.0
 10
243.337967628758
 20
47.5130856158755
 30
0.0
 10
243.473355806338
 20
47.28311633347931
 30
0.0
 10
243.5215346893167
 20
47.16615338618851
 30
0.0
 10
243.5747359344363
 20
46.93463155857186
 30
0.0
 10
243.5805546866236
 20
46.81891257986322
 30
0.0
 10
243.5467078679144
 20
46.58535997647924
 30
0.0
 10
243.5070446283541
 20
46.47004423901979
 30
0.0
 10
243.3832612152172
 20
46.24570883063743
 30
0.0
 10
243.2981068497937
 20
46.13491343118123
 30
0.0
 10
243.0819540795634
 20
45.92111755957238
 30
0.0
 10
242.9537741926095
 20
45.82043932472435
 30
0.0
 10
242.6572980752171
 20
45.63079712917033
 30
0.0
 10
242.4870064805127
 20
45.54131499260561
 30
0.0
 10
242.1225843379751
 20
45.38369483733806
 30
0.0
 10
241.9260755346966
 20
45.3140436958962
 30
0.0
 10
241.5095515039667
 20
45.19583754510249
 30
0.0
 10
241.2953221187268
 20
45.14881284004674
 30
0.0
 10
240.8557033964076
 20
45.07874857764183
 30
0.0
 10
240.6291700701834
 20
45.05594240048358
 30
0.0
 10
239.9603265895603
 20
45.02795964988158
 30
0.0
 10
239.5136709818639
 20
45.06270742877427
 30
0.0
 10
238.8966173068295
 20
45.19414351240812
 30
0.0
 10
238.696359178827
 20
45.25175639995344
 30
0.0
 10
238.3194830139523
 20
45.39172647302092
 30
0.0
 10
238.143555715588
 20
45.47347378266386
 30
0.0
 10
237.8159568687344
 20
45.66022770883716
 30
0.0
 10
237.6631403219117
 20
45.76640800754127
 30
0.0
 10
237.3920865956559
 20
45.99547827380839
 30
0.0
 10
237.2729086553604
 20
46.11852966405833
 30
0.0
 10
237.0673585732199
 20
46.38092117921736
 30
0.0
 10
236.9806737832243
 20
46.52153403124024
 30
0.0
 10
236.8480995237423
 20
46.8080268116679
 30
0.0
 10
236.8011474000591
 20
46.95479040902599
 30
0.0
 10
236.7477156223205
 20
47.25406011576188
 30
0.0
 10
236.7417668966542
 20
47.40765114950727
 30
0.0
 10
236.7742646517775
 20
47.70529479352091
 30
0.0
 10
236.8121070761457
 20
47.85093274545546
 30
0.0
 10
236.9347653117208
 20
48.13360841606526
 30
0.0
 10
237.0202832389963
 20
48.27009117734529
 30
0.0
 10
237.2325302982991
 20
48.51713569236901
 30
0.0
 10
237.3603990431421
 20
48.63008081936169
 30
0.0
 10
237.6607246778048
 20
48.83021175759151
 30
0.0
 10
237.827479230504
 20
48.91374719694948
 30
0.0
 10
238.1927700507856
 20
49.04936839189475
 30
0.0
 10
238.3930239002278
 20
49.1012912342851
 30
0.0
 10
239.0120326843012
 20
49.20461152014836
 30
0.0
 10
239.4624955551279
 20
49.20668180337614
 30
0.0
 10
239.9105405777285
 20
49.15489924877042
 30
0.0
  0
LWPOLYLINE
  5
21C
330
1F
100
AcDbEntity
  8
0
  6
Continuous
 62
     7
370
    15
100
AcDbPolyline
 90
       27
 70
   128
 43
0.0
 10
245.7383123543
 20
43.7509343962
 10
244.3469544482
 20
42.8486234035
 10
242.9766881096
 20
41.7617961848
 10
241.6482851796
 20
40.5069279329
 10
240.3818828924
 20
39.1030411714
 10
239.1966786157
 20
37.5714173925
 10
238.1106388384
 20
35.9352744515
 10
237.1402268164
 20
34.2194146076
 10
236.3001530067
 20
32.449848547
 10
235.603152072
 20
30.6534010873
 10
235.0597898359
 20
28.8573045408
 10
234.6783031162
 20
27.0887859003
 10
234.4644748625
 20
25.3746541058
 10
234.4215464933
 20
23.7408936478
 10
234.5501687589
 20
22.2122706696
 10
234.8483918768
 20
20.8119575374
 10
235.3116950886
 20
19.5611815708
 10
235.9330551898
 20
18.4789032586
 10
236.7030529947
 20
17.5815288366
 10
237.6100161215
 20
16.8826615865
 10
238.6401959336
 20
16.3928956233
 10
239.7779759553
 20
16.1196552998
 10
241.0061086011
 20
16.0670826608
 10
242.3059766321
 20
16.2359746538
 10
243.6578753739
 20
16.6237710486
 10
245.0413114196
 20
17.2245932469
 10
245.7401525198
 20
17.6032279902
  0
LWPOLYLINE
  5
21D
330
1F
100
AcDbEntity
  8
0
  6
Continuous
 62
     7
370
    15
100
AcDbPolyline
 90
       14
 70
   128
 43
0.0
 10
257.0604480812
 20
37.2126797841
 10
257.0121498462
 20
38.3911498099
 10
256.7983215925
 20
39.8584007578
 10
256.4168348728
 20
41.186464207
 10
255.8734726367
 20
42.3552080693
 10
255.176471702
 20
43.3469153792
 10
254.3363978923
 20
44.1465528647
 10
253.3659858703
 20
44.7419988366
 10
252.279946093
 20
45.124226941
 10
251.0947418163
 20
45.2874429895
 10
249.8283395291
 20
45.229172793
 10
248.499936599
 20
44.9502996685
 10
247.1296702605
 20
44.4550510481
 10
245.7383123543
 20
43.7509343962
  0
LWPOLYLINE
  5
21E
330
1F
100
AcDbEntity
  8
0
  6
Continuous
 62
     7
370
    15
100
AcDbPolyline
 90
       51
 70
   128
 43
0.0
 10
245.9504443887
 20
43.3835109359
 10
244.557991701
 20
42.4785012836
 10
243.187498824
 20
41.3854365222
 10
241.8605792491
 20
40.1215549359
 10
240.5981592906
 20
38.7067886923
 10
239.4201480654
 20
37.1634495003
 10
238.3451235142
 20
35.5158767408
 10
237.3900394164
 20
33.7900536204
 10
236.5699580187
 20
32.0131974008
 10
235.8978124948
 20
30.2133301659
 10
235.3842029809
 20
28.4188368973
 10
235.0372294061
 20
26.6580178257
 10
234.8623637507
 20
24.9586421198
 10
234.8623637507
 20
23.3475099496
 10
235.0372294061
 20
21.8500298319
 10
235.3842029809
 20
20.4898179227
 10
235.8978124948
 20
19.2883255764
 10
236.5699580187
 20
18.2645010449
 10
237.3900394164
 20
17.4344906528
 10
238.3451235142
 20
16.8113841598
 10
239.4201480654
 20
16.4050083275
 10
240.5981592906
 20
16.2217719455
 10
241.8605792491
 20
16.264564761
 10
243.187498824
 20
16.5327119057
 10
244.557991701
 20
17.0219845391
 10
245.9504443887
 20
17.7246665394
 10
247.3428970764
 20
18.6296761916
 10
248.7133899534
 20
19.722740953
 10
250.0403095283
 20
20.9866225393
 10
251.3027294868
 20
22.4013887829
 10
252.480740712
 20
23.944727975
 10
253.5557652632
 20
25.5923007345
 10
254.510849361
 20
27.3181238548
 10
255.3309307587
 20
29.0949800745
 10
256.0030762826
 20
30.8948473094
 10
256.5166857965
 20
32.689340578
 10
256.8636593714
 20
34.4501596496
 10
257.0385250267
 20
36.1495353555
 10
257.0385250267
 20
37.7606675257
 10
256.8636593714
 20
39.2581476434
 10
256.5166857965
 20
40.6183595525
 10
256.0030762826
 20
41.8198518989
 10
255.3309307587
 20
42.8436764303
 10
254.510849361
 20
43.6736868224
 10
253.5557652632
 20
44.2967933154
 10
252.480740712
 20
44.7031691478
 10
251.3027294868
 20
44.8864055298
 10
250.0403095283
 20
44.8436127143
 10
248.7133899534
 20
44.5754655695
 10
247.3428970764
 20
44.0861929362
 10
245.9504443887
 20
43.3835109359
  0
LINE
  5
21F
330
1F
100
AcDbEntity
  8
0
  6
Continuous
 62
     7
370
    15
100
AcDbLine
 10
252.0379711599
 20
30.4190327271
 30
0.0
 11
254.4357257629
 21
33.4018166583
 31
0.0
  0
SPLINE
  5
220
330
1F
100
AcDbEntity
  8
0
  6
Continuous
 62
     7
370
    15
100
AcDbSpline
210
0.0
220
0.0
230
1.0
 70
     8
 71
     3
 72
    22
 73
    18
 74
     0
 42
0.000000001
 43
0.00000001
 40
0.0
 40
0.0
 40
0.0
 40
0.0
 40
0.0416666666666666
 40
0.0833333333333333
 40
0.1250000000000034
 40
0.1666666666666681
 40
0.2083333333333338
 40
0.2499999999998967
 40
0.2968749999997767
 40
0.34375
 40
0.3906250000000002
 40
0.4374999999999999
 40
0.4847037825276523
 40
0.4847037825276523
 40
0.53125
 40
0.624999999999985
 40
0.8414337678080955
 40
0.8414337678080955
 40
0.8414337678080955
 40
0.8414337678080955
 10
254.4357257629318
 20
33.40181665825351
 30
0.0
 10
254.5266844185575
 20
33.51496836112411
 30
0.0
 10
254.7052252384397
 20
33.75880957830883
 30
0.0
 10
254.9542106574716
 20
34.17262492298855
 30
0.0
 10
255.1734939535808
 20
34.63056966735508
 30
0.0
 10
255.3475051451299
 20
35.11737840561996
 30
0.0
 10
255.4608563584361
 20
35.61131613576418
 30
0.0
 10
255.5033952463912
 20
36.10740880679818
 30
0.0
 10
255.4569281811959
 20
36.57213451285283
 30
0.0
 10
255.3107579336942
 20
36.96839580748016
 30
0.0
 10
255.0810248089166
 20
37.25907158056646
 30
0.0
 10
254.7824176084432
 20
37.44035084194982
 30
0.0
 10
254.5605708492309
 20
37.4919580423133
 30
0.0
 10
254.3396072821667
 20
37.51277700520253
 30
0.0
 10
254.0431399432902
 20
37.5374964732511
 30
0.0
 10
253.4809491531687
 20
37.58928598739433
 30
0.0
 10
252.6469528131688
 20
37.66372175398864
 30
0.0
 10
252.037759265228
 20
37.71800253112373
 30
0.0
  0
SPLINE
  5
221
330
1F
100
AcDbEntity
  8
0
  6
Continuous
 62
     7
370
    15
100
AcDbSpline
210
0.0
220
0.0
230
1.0
 70
     8
 71
     3
 72
    22
 73
    18
 74
     0
 42
0.000000001
 43
0.00000001
 40
0.0
 40
0.0
 40
0.0
 40
0.0
 40
0.0416666666666666
 40
0.0833333333333333
 40
0.1250000000000034
 40
0.1666666666666681
 40
0.2083333333333338
 40
0.2499999999998967
 40
0.2968749999997767
 40
0.34375
 40
0.3906250000000002
 40
0.4374999999999999
 40
0.4847037825276523
 40
0.4847037825276523
 40
0.53125
 40
0.624999999999985
 40
0.8393173095870872
 40
0.8393173095870872
 40
0.8393173095870872
 40
0.8393173095870872
 10
237.4651630144726
 20
23.60491931639143
 30
0.0
 10
237.375817700792
 20
23.61290813377965
 30
0.0
 10
237.194914784743
 20
23.65082171549627
 30
0.0
 10
236.9468787467913
 20
23.77707972366589
 30
0.0
 10
236.7273410706117
 20
23.9818681152205
 30
0.0
 10
236.5533980182637
 20
24.26776169168298
 30
0.0
 10
236.4400286282234
 20
24.63082861087289
 30
0.0
 10
236.3974944983258
 20
25.07780615604532
 30
0.0
 10
236.4439611458115
 20
25.59618307954663
 30
0.0
 10
236.5901276619198
 20
26.16120375004835
 30
0.0
 10
236.8198761460463
 20
26.71714299857498
 30
0.0
 10
237.1184255056002
 20
27.243114805004
 30
0.0
 10
237.3404170525933
 20
27.55104093436751
 30
0.0
 10
237.5614380940591
 20
27.82705050145186
 30
0.0
 10
237.8578633459821
 20
28.19401152700905
 30
0.0
 10
238.4136575821164
 20
28.88692642543171
 30
0.0
 10
239.2575444296866
 20
29.93658838222915
 30
0.0
 10
239.8631330779378
 20
30.68974836439229
 30
0.0
  0
LINE
  5
222
330
1F
100
AcDbEntity
  8
0
  6
Continuous
 62
     7
370
    15
100
AcDbLine
 10
239.8629176175
 20
23.3905239231
 30
0.0
 11
237.4651630145
 21
23.6049193164
 31
0.0
  0
SPLINE
  5
223
330
1F
100
AcDbEntity
  8
0
  6
Continuous
 62
     7
370
    15
100
AcDbSpline
210
0.0
220
0.0
230
1.0
 70
     8
 71
     3
 72
    11
 73
     7
 74
     0
 42
0.000000001
 43
0.00000001
 40
0.0
 40
0.0
 40
0.0
 40
0.0
 40
0.3179722721925473
 40
0.6359487115030146
 40
0.9539732892838593
 40
1.0
 40
1.0
 40
1.0
 40
1.0
 10
237.3237416582263
 20
24.13269978444294
 30
0.0
 10
237.1602043266678
 20
24.17290544810605
 30
0.0
 10
236.8331275203472
 20
24.25331730233905
 30
0.0
 10
236.5312850928281
 20
24.700085016302
 30
0.0
 10
236.3877120578892
 20
25.12363841573591
 30
0.0
 10
236.4213813430034
 20
25.40289013196821
 30
0.0
 10
236.4256381235587
 20
25.43819570117268
 30
0.0
  0
SPLINE
  5
224
330
1F
100
AcDbEntity
  8
0
  6
Continuous
 62
     7
370
    15
100
AcDbSpline
210
0.0
220
0.0
230
1.0
 70
     8
 71
     3
 72
    11
 73
     7
 74
     0
 42
0.000000001
 43
0.00000001
 40
0.0
 40
0.0
 40
0.0
 40
0.0
 40
0.0217542819763297
 40
0.1886295421794826
 40
0.4535351484276536
 40
1.0
 40
1.0
 40
1.0
 40
1.0
 10
240.1656413453174
 20
31.11362757374956
 30
0.0
 10
240.1654444455191
 20
31.1123849036352
 30
0.0
 10
240.1637371439929
 20
31.1016098159993
 30
0.0
 10
240.1297238880613
 20
31.04481731128969
 30
0.0
 10
240.0364381655487
 20
30.90833952051279
 30
0.0
 10
239.932880224976
 20
30.77772102415294
 30
0.0
 10
239.8631330779376
 20
30.68974836439204
 30
0.0
  0
SPLINE
  5
225
330
1F
100
AcDbEntity
  8
0
  6
Continuous
 62
     7
370
    15
100
AcDbSpline
210
0.0
220
0.0
230
1.0
 70
     8
 71
     3
 72
    16
 73
    12
 74
     0
 42
0.000000001
 43
0.00000001
 40
0.0
 40
0.0
 40
0.0
 40
0.0
 40
0.2499999999999946
 40
0.2499999999999946
 40
0.4999999999999892
 40
0.4999999999999892
 40
0.6249999999999921
 40
0.6249999999999921
 40
0.7499999999999949
 40
0.7499999999999949
 40
1.0
 40
1.0
 40
1.0
 40
1.0
 10
252.0377592652303
 20
37.71800253112353
 30
0.0
 10
251.9857686660187
 20
37.72263503279473
 30
0.0
 10
251.9297936252127
 20
37.72509833035468
 30
0.0
 10
251.8044900985426
 20
37.72275978340127
 30
0.0
 10
251.7344210284928
 20
37.71813465486728
 30
0.0
 10
251.6168395100091
 20
37.69879992235184
 30
0.0
 10
251.5748435003277
 20
37.68999606794446
 30
0.0
 10
251.4918261065897
 20
37.66677567535493
 30
0.0
 10
251.4522214235774
 20
37.65262023933706
 30
0.0
 10
251.3504009996525
 20
37.60755649982726
 30
0.0
 10
251.3060781236933
 20
37.57596586769342
 30
0.0
 10
251.2736897509646
 20
37.5468390027978
 30
0.0
  0
SPLINE
  5
226
330
1F
100
AcDbEntity
  8
0
  6
Continuous
 62
     7
370
    15
100
AcDbSpline
210
0.0
220
0.0
230
1.0
 70
     8
 71
     3
 72
    10
 73
     6
 74
     0
 42
0.000000001
 43
0.00000001
 40
0.0
 40
0.0
 40
0.0
 40
0.0
 40
0.5
 40
0.5
 40
1.0
 40
1.0
 40
1.0
 40
1.0
 10
251.2736897509766
 20
37.54683900279252
 30
0.0
 10
251.2213042357205
 20
37.56573479453589
 30
0.0
 10
251.1690398584373
 20
37.58608294547903
 30
0.0
 10
251.0678208806324
 20
37.63020837736554
 30
0.0
 10
251.0202927080699
 20
37.65348754599999
 30
0.0
 10
250.9803183675963
 20
37.67656424155416
 30
0.0
  0
LINE
  5
227
330
1F
100
AcDbEntity
  8
0
  6
Continuous
 62
     7
370
    15
100
AcDbLine
 10
249.9551039387
 20
38.6342713382
 30
0.0
 11
249.8119186982
 21
38.7118303336
 31
0.0
  0
LINE
  5
228
330
1F
100
AcDbEntity
  8
0
  6
Continuous
 62
     7
370
    15
100
AcDbLine
 10
248.7211820611
 20
38.9807358712
 30
0.0
 11
250.9803183676
 21
37.6765642416
 31
0.0
  0
ARC
  5
229
330
1F
100
AcDbEntity
  8
0
  6
Continuous
 62
     7
370
    15
100
AcDbCircle
 10
234.7689383227
 20
37.976390418
 30
0.0
 40
11.24593897553386
100
AcDbArc
 50
337.811064108
 51
1.487583977
  0
LINE
  5
22A
330
1F
100
AcDbEntity
  8
0
  6
Continuous
 62
     7
370
    15
100
AcDbLine
 10
245.1820427619
 20
33.7292267314
 30
0.0
 11
250.9803183676
 21
30.381953473
 31
0.0
  0
LINE
  5
22B
330
1F
100
AcDbEntity
  8
0
  6
Continuous
 62
     7
370
    15
100
AcDbLine
 10
240.955835345
 20
23.0453918153
 30
0.0
 11
241.0990820861
 21
22.9678016329
 31
0.0
  0
LINE
  5
22C
330
1F
100
AcDbEntity
  8
0
  6
Continuous
 62
     7
370
    15
100
AcDbLine
 10
236.5664028038
 20
25.945220689
 30
0.0
 11
239.9306209161
 21
24.003098912
 31
0.0
  0
LINE
  5
22D
330
1F
100
AcDbEntity
  8
0
  6
Continuous
 62
     7
370
    15
100
AcDbLine
 10
240.0615136014
 20
23.8879017172
 30
0.0
 11
237.3237416582
 21
24.1326997844
 31
0.0
  0
SPLINE
  5
22E
330
1F
100
AcDbEntity
  8
0
  6
Continuous
 62
     7
370
    15
100
AcDbSpline
210
0.0
220
0.0
230
1.0
 70
     8
 71
     3
 72
    16
 73
    12
 74
     0
 42
0.000000001
 43
0.00000001
 40
0.0
 40
0.0
 40
0.0
 40
0.0
 40
0.2499999999999998
 40
0.2499999999999998
 40
0.4999999999999997
 40
0.4999999999999997
 40
0.6249999999999996
 40
0.6249999999999996
 40
0.7499999999999996
 40
0.7499999999999996
 40
1.0
 40
1.0
 40
1.0
 40
1.0
 10
239.8629176174736
 20
23.39052392310193
 30
0.0
 10
239.9140325881985
 20
23.38595347446728
 30
0.0
 10
239.9640316625695
 20
23.38666263832839
 30
0.0
 10
240.0588284997249
 20
23.40757126369667
 30
0.0
 10
240.1033325298823
 20
23.42711897317717
 30
0.0
 10
240.1505314175797
 20
23.48774376374791
 30
0.0
 10
240.162676720886
 20
23.51375459301649
 30
0.0
 10
240.1730104212705
 20
23.57852917845025
 30
0.0
 10
240.1707018443798
 20
23.61694884994505
 30
0.0
 10
240.1442626531079
 20
23.73576871061848
 30
0.0
 10
240.1048422824869
 20
23.81509479467622
 30
0.0
 10
240.0615136014382
 20
23.88790171721566
 30
0.0
  0
SPLINE
  5
22F
330
1F
100
AcDbEntity
  8
0
  6
Continuous
 62
     7
370
    15
100
AcDbSpline
210
0.0
220
0.0
230
1.0
 70
     8
 71
     3
 72
     8
 73
     4
 74
     0
 42
0.000000001
 43
0.00000001
 40
0.0
 40
0.0
 40
0.0
 40
0.0
 40
1.0
 40
1.0
 40
1.0
 40
1.0
 10
239.9306209161463
 20
24.00309891198564
 30
0.0
 10
240.0106895155644
 20
23.95687629341765
 30
0.0
 10
240.0498163969465
 20
23.91724572467529
 30
0.0
 10
240.0615136014374
 20
23.88790171721811
 30
0.0
  0
SPLINE
  5
230
330
1F
100
AcDbEntity
  8
0
  6
Continuous
 62
     7
370
    15
100
AcDbSpline
210
0.0
220
0.0
230
1.0
 70
     8
 71
     3
 72
     8
 73
     4
 74
     0
 42
0.000000001
 43
0.00000001
 40
0.0
 40
0.0
 40
0.0
 40
0.0
 40
1.0
 40
1.0
 40
1.0
 40
1.0
 10
250.9803183675971
 20
30.38195347297109
 30
0.0
 10
251.0603869670166
 20
30.33573085440225
 30
0.0
 10
251.1693808563182
 20
30.33643365081143
 30
0.0
 10
251.2736897510106
 20
30.36055323410329
 30
0.0
  0
SPLINE
  5
231
330
1F
100
AcDbEntity
  8
0
  6
Continuous
 62
     7
370
    15
100
AcDbSpline
210
0.0
220
0.0
230
1.0
 70
     8
 71
     3
 72
    16
 73
    12
 74
     0
 42
0.000000001
 43
0.00000001
 40
0.0
 40
0.0
 40
0.0
 40
0.0
 40
0.2499999999999786
 40
0.2499999999999786
 40
0.3749999999999822
 40
0.3749999999999822
 40
0.4999999999999859
 40
0.4999999999999859
 40
0.749999999999993
 40
0.749999999999993
 40
1.0
 40
1.0
 40
1.0
 40
1.0
 10
251.2736897510171
 20
30.36055323410037
 30
0.0
 10
251.3058258842816
 20
30.28198680094213
 30
0.0
 10
251.3503370186701
 20
30.20420512895499
 30
0.0
 10
251.4513698437092
 20
30.12911914709892
 30
0.0
 10
251.4905962625251
 20
30.11235437474016
 30
0.0
 10
251.5732492584768
 20
30.10103446142203
 30
0.0
 10
251.6152369984837
 20
30.10623543667073
 30
0.0
 10
251.7333900284653
 20
30.14106531553193
 30
0.0
 10
251.8037128608134
 20
30.18779745531055
 30
0.0
 10
251.9294944953851
 20
30.29358135949443
 30
0.0
 10
251.9864064790505
 20
30.35488675433555
 30
0.0
 10
252.0379711599364
 20
30.41903272714204
 30
0.0
  0
SPLINE
  5
232
330
1F
100
AcDbEntity
  8
0
  6
Continuous
 62
     7
370
    15
100
AcDbSpline
210
0.0
220
0.0
230
1.0
 70
     8
 71
     3
 72
    22
 73
    18
 74
     0
 42
0.000000001
 43
0.00000001
 40
0.0
 40
0.0
 40
0.0
 40
0.0
 40
0.125
 40
0.125
 40
0.2500000000000001
 40
0.2500000000000001
 40
0.3750000000000001
 40
0.3750000000000001
 40
0.5
 40
0.5
 40
0.625
 40
0.625
 40
0.7499999999999999
 40
0.7499999999999999
 40
0.875
 40
0.875
 40
1.0
 40
1.0
 40
1.0
 40
1.0
 10
254.0114616942288
 20
33.7663155039509
 30
0.0
 10
254.1463204100852
 20
33.93407846439839
 30
0.0
 10
254.2681859185348
 20
34.11246380194269
 30
0.0
 10
254.4837804576655
 20
34.49151625822049
 30
0.0
 10
254.5769965171304
 20
34.69141284568532
 30
0.0
 10
254.7247423256165
 20
35.09042260747382
 30
0.0
 10
254.7811117510272
 20
35.29516738265718
 30
0.0
 10
254.8533564521715
 20
35.68826455260481
 30
0.0
 10
254.870256430606
 20
35.87994613061474
 30
0.0
 10
254.8657114133365
 20
36.24024939186256
 30
0.0
 10
254.8448051082255
 20
36.40497810563048
 30
0.0
 10
254.7668959385736
 20
36.70300466269271
 30
0.0
 10
254.7102196185866
 20
36.83290341596486
 30
0.0
 10
254.5648652676119
 20
37.04708353000411
 30
0.0
 10
254.4744420617278
 20
37.13292605713767
 30
0.0
 10
254.2662967669053
 20
37.25336945073755
 30
0.0
 10
254.1463345259166
 20
37.28998127709026
 30
0.0
 10
254.0114616859606
 20
37.30204094032333
 30
0.0
  0
LINE
  5
233
330
1F
100
AcDbEntity
  8
0
  6
Continuous
 62
     7
370
    15
100
AcDbLine
 10
254.011461686
 20
37.3020409403
 30
0.0
 11
251.273689751
 21
37.5468390028
 31
0.0
  0
ARC
  5
234
330
1F
100
AcDbEntity
  8
0
  6
Continuous
 62
     7
370
    15
100
AcDbCircle
 10
244.777255014
 20
39.8405010379
 30
0.0
 40
4.14439930130314
100
AcDbArc
 50
321.0658596266
 51
347.226892773
  0
LINE
  5
235
330
1F
100
AcDbEntity
  8
0
  6
Continuous
 62
     7
370
    15
100
AcDbLine
 10
251.273689751
 20
30.3605532341
 30
0.0
 11
254.0114616942
 21
33.766315504
 31
0.0
  0
LINE
  5
236
330
1F
100
AcDbEntity
  8
0
  6
Continuous
 62
     7
370
    15
100
AcDbLine
 10
245.1820427619
 20
33.7292267314
 30
0.0
 11
248.0010540541
 21
37.2360499792
 31
0.0
  0
ARC
  5
237
330
1F
100
AcDbEntity
  8
0
  6
Continuous
 62
     7
370
    15
100
AcDbCircle
 10
200.1232091473
 20
81.4362279715
 30
0.0
 40
10.84421084260616
100
AcDbArc
 50
43.2700133926
 51
76.4022253585
  0
ARC
  5
238
330
1F
100
AcDbEntity
  8
0
  6
Continuous
 62
     7
370
    15
100
AcDbCircle
 10
178.9676755105
 20
44.7900457781
 30
0.0
 40
10.83928237460119
100
AcDbArc
 50
223.8225738793
 51
256.4099833987
  0
LWPOLYLINE
  5
239
330
1F
100
AcDbEntity
  8
0
  6
Continuous
 62
     7
370
    15
100
AcDbPolyline
 90
       28
 70
   128
 43
0.0
 10
159.4005743715
 20
54.3932056029
 10
159.4866785246
 20
56.7202315426
 10
159.7443356792
 20
59.1289611489
 10
160.1715849089
 20
61.601062535
 10
160.765174589
 20
64.1177215167
 10
161.5205871437
 20
66.6597847996
 10
162.4320734272
 20
69.2079057471
 10
163.4926964786
 20
71.7426916202
 10
164.694384316
 20
74.2448511678
 10
166.0279913694
 20
76.695341445
 10
167.4833680839
 20
79.0755127412
 10
169.0494381639
 20
81.3672505155
 10
170.7142828705
 20
83.5531132597
 10
172.4652317301
 20
85.6164652384
 10
174.2889589647
 20
87.5416030973
 10
176.1715849089
 20
89.3138753748
 10
178.0987816424
 20
90.9197940087
 10
180.0558820345
 20
92.3471369885
 10
182.0279913694
 20
93.5850413724
 10
184.0001007044
 20
94.6240859604
 10
185.9572010964
 20
95.4563629959
 10
187.88439783
 20
96.0755383481
 10
189.7670237742
 20
96.4768997187
 10
191.5907510088
 20
96.6573925053
 10
193.3416998684
 20
96.6156430488
 10
195.006544575
 20
96.3519690879
 10
196.5726146549
 20
95.8683773405
 10
198.0266910916
 20
95.1692989882
  0
LWPOLYLINE
  5
23A
330
1F
100
AcDbEntity
  8
0
  6
Continuous
 62
     7
370
    15
100
AcDbPolyline
 90
       11
 70
   128
 43
0.0
 10
166.0292916473
 20
39.7421717958
 10
166.0279913694
 20
39.7429225523
 10
164.694384316
 20
40.6536629001
 10
163.4926964786
 20
41.7683832031
 10
162.4320734272
 20
43.0785997667
 10
161.5205871437
 20
44.5743410518
 10
160.765174589
 20
46.2442235639
 10
160.1715849089
 20
48.075538489
 10
159.7443356792
 20
50.0543484145
 10
159.4866785246
 20
52.1655934022
 10
159.4005743715
 20
54.3932056029
  0
LWPOLYLINE
  5
23B
330
1F
100
AcDbEntity
  8
0
  6
Continuous
 62
     7
370
    15
100
AcDbPolyline
 90
       19
 70
   128
 43
0.0
 10
159.4005743715
 20
54.8830504699
 10
159.4874592594
 20
57.1992192663
 10
159.7474339311
 20
59.5975760577
 10
160.1784637322
 20
62.0593504506
 10
160.7771752702
 20
64.5652757224
 10
161.5388828156
 20
67.0957396103
 10
162.4576249739
 20
69.6309378034
 10
163.5262113423
 20
72.1510289384
 10
164.7362787833
 20
74.6362898856
 10
166.0783568788
 20
77.0672701081
 10
167.5419420479
 20
79.4249438898
 10
169.1155797523
 20
81.6908592367
 10
170.7869541433
 20
83.847282289
 10
172.5429844502
 20
85.8773361124
 10
174.3699273549
 20
87.7651327833
 10
176.2534845521
 20
89.4958977333
 10
178.1789146529
 20
91.05608538
 10
180.1311485563
 20
92.4334851395
 10
181.6001186639
 20
93.3379557585
  0
LWPOLYLINE
  5
23C
330
1F
100
AcDbEntity
  8
0
  6
Continuous
 62
     7
370
    15
100
AcDbPolyline
 90
       22
 70
   128
 43
0.0
 10
143.9856465416
 20
74.7217675872
 10
144.0717081973
 20
76.4777527659
 10
144.328729328
 20
78.30935593
 10
144.753234164
 20
80.1918077888
 10
145.3394820054
 20
82.0996514102
 10
146.0795448561
 20
84.0070864822
 10
146.9634146354
 20
85.8883182175
 10
147.9791385209
 20
87.7179061842
 10
149.1129805895
 20
89.4711083437
 10
150.3496075723
 20
91.1242156442
 10
151.6722962107
 20
92.6548726455
 10
153.0631594101
 20
94.0423798375
 10
154.5033881315
 20
95.2679735655
 10
155.9735057523
 20
96.315079777
 10
157.4536314536
 20
97.1695381567
 10
158.9237490744
 20
97.8197936208
 10
160.3639777959
 20
98.2570525797
 10
161.7548409952
 20
98.4754018561
 10
163.0775296336
 20
98.4718886506
 10
164.3141566164
 20
98.2465604732
 10
165.447998685
 20
97.8024645011
 10
165.7128371967
 20
97.6583201165
  0
LWPOLYLINE
  5
23D
330
1F
100
AcDbEntity
  8
0
  6
Continuous
 62
     7
370
    15
100
AcDbPolyline
 90
        8
 70
   128
 43
0.0
 10
147.7143000092
 20
66.4805610708
 10
146.9634146354
 20
66.9932748169
 10
146.0795448561
 20
67.8540122269
 10
145.3394820054
 20
68.9069889192
 10
144.753234164
 20
70.1379651904
 10
144.328729328
 20
71.5302941981
 10
144.0717081973
 20
73.0651470812
 10
143.9856465416
 20
74.7217675872
  0
SPLINE
  5
23E
330
1F
100
AcDbEntity
  8
0
  6
Continuous
 62
     7
370
    15
100
AcDbSpline
210
0.0
220
0.0
230
1.0
 70
     8
 71
     3
 72
    19
 73
    15
 74
     0
 42
0.000000001
 43
0.00000001
 40
0.0
 40
0.0
 40
0.0
 40
0.0
 40
0.082992923483513
 40
0.1665818862265621
 40
0.2519748940437923
 40
0.337964509589665
 40
0.4215896335584023
 40
0.5057578332511985
 40
0.5916284546665309
 40
0.6780850662297445
 40
0.7646259800658773
 40
0.8517669316627147
 40
0.9408004375850585
 40
0.9999999999999999
 40
0.9999999999999999
 40
0.9999999999999999
 40
0.9999999999999999
 10
170.4990865236462
 20
91.98643869360322
 30
0.0
 10
170.6961144744655
 20
91.94324638299481
 30
0.0
 10
171.0915853930597
 20
91.85655156288693
 30
0.0
 10
171.6776007743447
 20
91.69325043590572
 30
0.0
 10
172.2569326349754
 20
91.50839334543201
 30
0.0
 10
172.8184534407785
 20
91.30438573595673
 30
0.0
 10
173.3565282945371
 20
91.08632710737203
 30
0.0
 10
173.8707080946817
 20
90.85601922166964
 30
0.0
 10
174.3633193283646
 20
90.61304330032068
 30
0.0
 10
174.8291786775254
 20
90.35977395754503
 30
0.0
 10
175.2632074512406
 20
90.09916655980918
 30
0.0
 10
175.6615758293815
 20
89.83133652538804
 30
0.0
 10
175.9873835789664
 20
89.58866930804643
 30
0.0
 10
176.1593402156327
 20
89.43414630632603
 30
0.0
 10
176.2280142150255
 20
89.37243474501585
 30
0.0
  0
SPLINE
  5
23F
330
1F
100
AcDbEntity
  8
0
  6
Continuous
 62
     7
370
    15
100
AcDbSpline
210
0.0
220
0.0
230
1.0
 70
     8
 71
     3
 72
    40
 73
    36
 74
     0
 42
0.000000001
 43
0.00000001
 40
0.0
 40
0.0
 40
0.0
 40
0.0
 40
0.0320451474280348
 40
0.0799289870716057
 40
0.1070417412069725
 40
0.1343183701807268
 40
0.1620978798027257
 40
0.1900469145239867
 40
0.2194155985351614
 40
0.2489831205650673
 40
0.2791769822397144
 40
0.3095871168110509
 40
0.3393225493119278
 40
0.3692644861286741
 40
0.399860404344747
 40
0.4306845817895069
 40
0.4602959794773706
 40
0.4901265344175522
 40
0.5206878955724108
 40
0.5515238796251
 40
0.5743895500758902
 40
0.5973921834134152
 40
0.6208596070741924
 40
0.6445049218572133
 40
0.6673776091946308
 40
0.690446664937079
 40
0.7141820853469132
 40
0.7381670723685522
 40
0.7780194569324669
 40
0.8191314927053602
 40
0.8575722370845812
 40
0.8969398165743037
 40
0.9393845426014394
 40
0.982740481314378
 40
0.9999999999999999
 40
0.9999999999999999
 40
0.9999999999999999
 40
0.9999999999999999
 10
171.5012744443763
 20
84.6191216221451
 30
0.0
 10
171.2769217759007
 20
84.59397320630337
 30
0.0
 10
170.7173274854287
 20
84.5312464733652
 30
0.0
 10
169.9809431908701
 20
84.53246215846083
 30
0.0
 10
169.2968504411315
 20
84.57724911299074
 30
0.0
 10
168.7612677336365
 20
84.64557762341593
 30
0.0
 10
168.2373707158093
 20
84.74629243333332
 30
0.0
 10
167.7209111446205
 20
84.88306410033105
 30
0.0
 10
167.218219041149
 20
85.05763252097421
 30
0.0
 10
166.7317707946868
 20
85.27298080576905
 30
0.0
 10
166.2728642245798
 20
85.5269174552601
 30
0.0
 10
165.850112769857
 20
85.81623677461296
 30
0.0
 10
165.4682512031484
 20
86.13698251014392
 30
0.0
 10
165.1278955645263
 20
86.48769985714934
 30
0.0
 10
164.8296335446803
 20
86.86944007215347
 30
0.0
 10
164.5819338375428
 20
87.27304871582882
 30
0.0
 10
164.3873308656323
 20
87.69175680481545
 30
0.0
 10
164.2459455841358
 20
88.1231201933955
 30
0.0
 10
164.159726883605
 20
88.56977066496216
 30
0.0
 10
164.1366199107421
 20
88.98606057572981
 30
0.0
 10
164.1629937578182
 20
89.36318236541193
 30
0.0
 10
164.2247774132395
 20
89.69984173796213
 30
0.0
 10
164.3274054678196
 20
90.0326361973662
 30
0.0
 10
164.4715365226296
 20
90.35341669667518
 30
0.0
 10
164.656396993608
 20
90.65732133418936
 30
0.0
 10
164.882596351601
 20
90.94297397081277
 30
0.0
 10
165.1542371509097
 20
91.2100212364464
 30
0.0
 10
165.5406539688317
 20
91.50644707670644
 30
0.0
 10
166.0799927320231
 20
91.80119139483078
 30
0.0
 10
166.7833752016196
 20
92.03839879482261
 30
0.0
 10
167.5477302831848
 20
92.17727926322571
 30
0.0
 10
168.3623118545779
 20
92.22687609156976
 30
0.0
 10
169.2342823412416
 20
92.18827214134883
 30
0.0
 10
169.9579646826737
 20
92.09237425844248
 30
0.0
 10
170.3791570803887
 20
92.00991731218846
 30
0.0
 10
170.4990865236462
 20
91.98643869360322
 30
0.0
  0
LWPOLYLINE
  5
240
330
1F
100
AcDbEntity
  8
0
  6
Continuous
 62
     7
370
    15
100
AcDbPolyline
 90
        9
 70
   128
 43
0.0
 10
166.7223683675
 20
89.8014938545
 10
165.9711010214
 20
89.2619500912
 10
165.4383132343
 20
88.6417884387
 10
165.1489175708
 20
87.9700069666
 10
165.1164458505
 20
87.2780174299
 10
165.3424164151
 20
86.5981764902
 10
165.8162631319
 20
85.9622727544
 10
166.5158294553
 20
85.4000403742
 10
166.7217312169
 20
85.2745361641
  0
ARC
  5
241
330
1F
100
AcDbEntity
  8
0
  6
Continuous
 62
     7
370
    15
100
AcDbCircle
 10
170.5589224817
 20
82.9902178061
 30
0.0
 40
7.817456675879031
100
AcDbArc
 50
49.5921565033
 51
119.3910433561
  0
LINE
  5
242
330
1F
100
AcDbEntity
  8
0
  6
Continuous
 62
     7
370
    15
100
AcDbLine
 10
167.6383683723
 20
85.3250730626
 30
0.0
 11
167.2412802789
 21
85.0605237125
 31
0.0
  0
ARC
  5
243
330
1F
100
AcDbEntity
  8
0
  6
Continuous
 62
     7
370
    15
100
AcDbCircle
 10
170.6634052382
 20
79.4399750865
 30
0.0
 40
6.617040594399897
100
AcDbArc
 50
74.1019901041
 51
117.2039071463
  0
LINE
  5
244
330
1F
100
AcDbEntity
  8
0
  6
Continuous
 62
     7
370
    15
100
AcDbLine
 10
162.9933364866
 20
98.6246087418
 30
0.0
 11
163.3077607895
 21
98.5413351262
 31
0.0
  0
ARC
  5
245
330
1F
100
AcDbEntity
  8
0
  6
Continuous
 62
     7
370
    15
100
AcDbCircle
 10
160.9990661378
 20
93.3072572322
 30
0.0
 40
6.010514041462858
100
AcDbArc
 50
54.3193899836
 51
70.525794982
  0
ARC
  5
246
330
1F
100
AcDbEntity
  8
0
  6
Continuous
 62
     7
370
    15
100
AcDbCircle
 10
149.1269214875
 20
72.7433017106
 30
0.0
 40
6.015725171417139
100
AcDbArc
 50
226.9821169102
 51
245.6878926009
  0
ARC
  5
247
330
1F
100
AcDbEntity
  8
0
  6
Continuous
 62
     7
370
    15
100
AcDbCircle
 10
160.7579385166
 20
93.0714757529
 30
0.0
 40
6.34554904404269
100
AcDbArc
 50
53.7226546462
 51
90.7163485436
  0
ARC
  5
248
330
1F
100
AcDbEntity
  8
0
  6
Continuous
 62
     7
370
    15
100
AcDbCircle
 10
149.2767388433
 20
73.1384188887
 30
0.0
 40
6.440100577505832
100
AcDbArc
 50
210.1072745026
 51
245.9893959211
  0
ARC
  5
249
330
1F
100
AcDbEntity
  8
0
  6
Continuous
 62
     7
370
    15
100
AcDbCircle
 10
160.6644261714
 20
92.9481307144
 30
0.0
 40
6.503588886087443
100
AcDbArc
 50
60.5836590571
 51
90.4095974123
  0
ARC
  5
24A
330
1F
100
AcDbEntity
  8
0
  6
Continuous
 62
     7
370
    15
100
AcDbCircle
 10
149.3149775666
 20
73.251687128
 30
0.0
 40
6.564939595798389
100
AcDbArc
 50
210.2650034994
 51
239.2679077284
  0
LWPOLYLINE
  5
24B
330
1F
100
AcDbEntity
  8
0
  6
Continuous
 62
     7
370
    15
100
AcDbPolyline
 90
       19
 70
   128
 43
0.0
 10
142.0764582324
 20
76.0490315892
 10
142.1644257863
 20
77.8115326933
 10
142.4270935762
 20
79.6508573211
 10
142.8607743223
 20
81.5411853868
 10
143.4593800975
 20
83.4559808279
 10
144.2145077888
 20
85.3683641138
 10
145.1155570588
 20
87.2514895751
 10
146.1498791507
 20
89.0789222582
 10
147.3029544497
 20
90.8250090139
 10
148.5585963062
 20
92.4652386118
 10
149.8991782609
 20
93.9765858237
 10
151.3058814818
 20
95.3378346476
 10
152.7589589391
 20
96.529876134
 10
154.2380126106
 20
97.5359766334
 10
155.7222798248
 20
98.3420127001
 10
157.1909247235
 20
98.9366693547
 10
158.6233307518
 20
99.3115989212
 10
159.9993900689
 20
99.4615382104
 10
161.0067794774
 20
99.4224041734
  0
ARC
  5
24C
330
1F
100
AcDbEntity
  8
0
  6
Continuous
 62
     7
370
    15
100
AcDbCircle
 10
166.3717748512
 20
76.4938768057
 30
0.0
 40
24.31775868131673
100
AcDbArc
 50
122.4671078309
 51
177.5382687018
  0
LWPOLYLINE
  5
24D
330
1F
100
AcDbEntity
  8
0
  6
Continuous
 62
     7
370
     0
100
AcDbPolyline
 90
       22
 70
   128
 43
0.0
 10
194.632902343
 20
75.5978949035
 10
193.1108472875
 20
74.6187272752
 10
191.6086345472
 20
73.4513166992
 10
190.1458477628
 20
72.1108821577
 10
188.7415565968
 20
70.6148982647
 10
187.4140681323
 20
68.9828674583
 10
186.1806882115
 20
67.2360657558
 10
185.057495828
 20
65.3972653888
 10
184.059133512
 20
63.4904379322
 10
183.1986164433
 20
61.5404417979
 10
182.4871627777
 20
59.5726981678
 10
181.9340474019
 20
57.6128595893
 10
181.5464810206
 20
55.6864755555
 10
181.3295161544
 20
53.8186594282
 10
181.285981272
 20
52.0337610473
 10
181.4164439173
 20
50.3550492926
 10
181.7192033102
 20
48.8044087392
 10
182.1903125189
 20
47.4020543582
 10
182.8236299144
 20
46.1662679834
 10
183.610899236
 20
45.1131599802
 10
184.5418572241
 20
44.2564592219
 10
185.4611104415
 20
43.6787114079
  0
LWPOLYLINE
  5
24E
330
1F
100
AcDbEntity
  8
0
  6
Continuous
 62
     7
370
     0
100
AcDbPolyline
 90
        9
 70
   128
 43
0.0
 10
204.3352210041
 20
76.3731723629
 10
204.208308858
 20
76.4527944275
 10
203.0851164745
 20
76.9947844718
 10
201.8517365537
 20
77.3175560291
 10
200.5242480892
 20
77.4169012786
 10
199.1199569232
 20
77.2915251029
 10
197.6571701387
 20
76.9430619723
 10
196.1549573985
 20
76.3760546366
 10
194.632902343
 20
75.5978949035
  0
LWPOLYLINE
  5
24F
330
1F
100
AcDbEntity
  8
0
  6
Continuous
 62
     7
370
     0
100
AcDbPolyline
 90
       14
 70
   128
 43
0.0
 10
239.8629176175
 20
23.3905239231
 10
240.4770220639
 20
22.6210207025
 10
241.2452344714
 20
22.0748784557
 10
242.1459252926
 20
21.7674741923
 10
243.1537349594
 20
21.7074630904
 10
244.2402878991
 20
21.8965348036
 10
245.3749914682
 20
22.3293658881
 10
246.5258973092
 20
22.9937696879
 10
247.6606008783
 20
23.8710394579
 10
248.747153818
 20
24.936475066
 10
249.7549634848
 20
26.1600784415
 10
250.655654306
 20
27.5073981918
 10
251.4238667135
 20
28.9404996049
 10
252.0379711599
 20
30.4190327271
  0
LWPOLYLINE
  5
250
330
1F
100
AcDbEntity
  8
0
  6
Continuous
 62
     7
370
     0
100
AcDbPolyline
 90
       14
 70
   128
 43
0.0
 10
252.0377592652
 20
37.7180025311
 10
251.4236325586
 20
38.4873796129
 10
250.6554235209
 20
39.033417041
 10
249.7547589327
 20
39.3407426562
 10
248.7469944908
 20
39.4007045639
 10
247.660500989
 20
39.211614704
 10
246.5258656184
 20
38.7787963735
 10
245.3750308698
 20
38.1144343641
 10
244.2403952821
 20
37.2372319332
 10
243.1539013523
 20
36.1718842658
 10
242.1461362834
 20
34.948383251
 10
241.245470887
 20
33.6011731437
 10
240.4772608826
 20
32.1681808828
 10
239.8631330779
 20
30.6897483644
  0
LINE
  5
251
330
1F
100
AcDbEntity
  8
0
  6
Continuous
 62
     7
370
     0
100
AcDbLine
 10
237.3237416582
 20
24.1326997844
 30
0.0
 11
237.4651630145
 21
23.6049193164
 31
0.0
  0
LWPOLYLINE
  5
252
330
1F
100
AcDbEntity
  8
0
  6
Continuous
 62
     7
370
     0
100
AcDbPolyline
 90
        3
 70
   128
 43
0.0
 10
250.9803183676
 20
37.6765642416
 10
250.3450287644
 20
38.3662726558
 10
249.9551039387
 20
38.6342713382
  0
LWPOLYLINE
  5
253
330
1F
100
AcDbEntity
  8
0
  6
Continuous
 62
     7
370
     0
100
AcDbPolyline
 90
       12
 70
   128
 43
0.0
 10
241.0990820861
 20
22.9678016329
 10
241.3509742448
 20
22.8542276354
 10
242.2617644786
 20
22.639675134
 10
243.2703824257
 20
22.6763050405
 10
244.3459326895
 20
22.962995329
 10
245.4554696419
 20
23.4909642698
 10
246.5650065943
 20
24.2440394264
 10
247.6405568581
 20
25.19915304
 10
248.6491748051
 20
26.3270486275
 10
249.5599650389
 20
27.5931771495
 10
250.3450287644
 20
28.9587552956
 10
250.9803183676
 20
30.381953473
  0
LINE
  5
254
330
1F
100
AcDbEntity
  8
0
  6
Continuous
 62
     7
370
     0
100
AcDbLine
 10
236.7427473428
 20
24.4681006636
 30
0.0
 11
237.3237416582
 21
24.1326997844
 31
0.0
  0
LINE
  5
255
330
1F
100
AcDbEntity
  8
0
  6
Continuous
 62
     7
370
     0
100
AcDbLine
 10
254.4357257629
 20
33.4018166583
 30
0.0
 11
254.0114616942
 21
33.766315504
 31
0.0
  0
LINE
  5
256
330
1F
100
AcDbEntity
  8
0
  6
Continuous
 62
     7
370
     0
100
AcDbLine
 10
248.0010540541
 20
37.2360499792
 30
0.0
 11
254.0114616942
 21
33.766315504
 31
0.0
  0
LWPOLYLINE
  5
257
330
1F
100
AcDbEntity
  8
0
  6
Continuous
 62
     7
370
     0
100
AcDbPolyline
 90
       39
 70
   128
 43
0.0
 10
168.1261163416
 20
49.9611635861
 10
168.2126105769
 20
52.266918404
 10
168.4714163482
 20
54.6544916827
 10
168.9005081494
 20
57.1051974239
 10
169.4965277553
 20
59.5998555326
 10
170.2548105046
 20
62.1189419266
 10
171.1694218064
 20
64.6427413394
 10
172.2332035873
 20
67.1515016187
 10
173.4378303126
 20
69.6255883137
 10
174.7738741448
 20
72.0456383417
 10
176.2308787294
 20
74.39271153
 10
177.7974410302
 20
76.6484388484
 10
179.461300573
 20
78.7951661725
 10
181.209435401
 20
80.8160924501
 10
183.028163989
 20
82.6954011931
 10
184.9032523199
 20
84.4183842626
 10
186.8200252851
 20
85.9715569799
 10
188.7634815373
 20
87.3427636626
 10
190.7184108963
 20
88.5212727593
 10
192.6695133892
 20
89.4978608384
 10
194.6015189937
 20
90.2648847741
 10
196.4993071465
 20
90.8163415642
 10
198.348025082
 20
91.1479153114
 10
200.1332040759
 20
91.2570110018
 10
201.8408726821
 20
91.1427748137
 10
203.4576660783
 20
90.8061008
 10
204.9709306643
 20
90.2496238914
 10
206.3688230927
 20
89.4776992742
 10
207.6404029601
 20
88.4963683052
 10
208.7757184299
 20
87.3133112298
 10
209.7658841192
 20
85.9377870736
 10
210.603150639
 20
84.380561178
 10
211.2809652435
 20
82.6538209473
 10
211.7940231145
 20
80.7710804647
 10
212.1383088785
 20
78.7470747274
 10
212.3111280327
 20
76.5976443244
 10
212.3111280327
 20
74.339611463
 10
212.1383088785
 20
71.9906483119
 10
212.0683813743
 20
71.3925477538
  0
LWPOLYLINE
  5
258
330
1F
100
AcDbEntity
  8
0
  6
Continuous
 62
     7
370
     0
100
AcDbPolyline
 90
       21
 70
   128
 43
0.0
 10
193.6414327874
 20
39.4726779885
 10
192.6695133892
 20
38.7616693907
 10
190.7184108963
 20
37.4855624814
 10
188.7634815373
 20
36.4069581842
 10
186.8200252851
 20
35.5342980402
 10
184.9032523199
 20
34.8744117982
 10
183.028163989
 20
34.4324639627
 10
181.209435401
 20
34.2119133748
 10
179.461300573
 20
34.2144861418
 10
177.7974410302
 20
34.4401621284
 10
176.2308787294
 20
34.887175114
 10
174.7738741448
 20
35.5520266159
 10
173.4378303126
 20
36.4295132696
 10
172.2332035873
 20
37.5127675524
 10
171.1694218064
 20
38.7933115307
 10
170.2548105046
 20
40.2611232118
 10
169.4965277553
 20
41.904714979
 10
168.9005081494
 20
43.7112234983
 10
168.4714163482
 20
45.6665103912
 10
168.2126105769
 20
47.7552728866
 10
168.1261163416
 20
49.9611635861
  0
LWPOLYLINE
  5
259
330
1F
100
AcDbEntity
  8
0
  6
Continuous
 62
     7
370
     0
100
AcDbPolyline
 90
       14
 70
   128
 43
0.0
 10
192.0131260134
 20
79.528503329
 10
193.6549897564
 20
80.3752805646
 10
195.2782505273
 20
81.0103624193
 10
196.8645161327
 20
81.4265531619
 10
198.3958135495
 20
81.6191371851
 10
199.8547925662
 20
81.5859324348
 10
201.2249223674
 20
81.3273151343
 10
202.4906788351
 20
80.8462155207
 10
203.6377204427
 20
80.148084645
 10
204.6530507505
 20
79.240832609
 10
205.5251656604
 20
78.1347389408
 10
206.2441837619
 20
76.8423361236
 10
206.8019582927
 20
75.3782675976
 10
207.0015307751
 20
74.6559070503
  0
LWPOLYLINE
  5
25A
330
1F
100
AcDbEntity
  8
0
  6
Continuous
 62
     7
370
     0
100
AcDbPolyline
 90
       29
 70
   128
 43
0.0
 10
188.2815968089
 20
42.2285167312
 10
187.9491087475
 20
42.136706919
 10
186.3881148329
 20
41.8318875142
 10
184.8908545427
 20
41.752084773
 10
183.4742924342
 20
41.8982028923
 10
182.154478722
 20
42.2685862953
 10
180.946367423
 20
42.8590383902
 10
179.8636469208
 20
43.6628691188
 10
178.9185848715
 20
44.6709707578
 10
178.1218892056
 20
45.8719211126
 10
177.4825868034
 20
47.2521129361
 10
177.0079212165
 20
48.7959081032
 10
176.7032705958
 20
50.4858147979
 10
176.5720867545
 20
52.3026857021
 10
176.6158560579
 20
54.2259349424
 10
176.8340825823
 20
56.2337713365
 10
177.224293734
 20
58.3034452957
 10
177.7820682648
 20
60.4115065871
 10
178.5010863663
 20
62.5340700339
 10
179.3732012762
 20
64.6470861441
 10
180.388531584
 20
66.7266136009
 10
181.5355731916
 20
68.7490905272
 10
182.8013296593
 20
70.6916014514
 10
184.1714594605
 20
72.5321369484
 10
185.6304384772
 20
74.2498430157
 10
187.161735894
 20
75.8252573571
 10
188.7480014994
 20
77.2405298987
 10
190.3712622703
 20
78.479625037
 10
192.0131260134
 20
79.528503329
  0
LWPOLYLINE
  5
25B
330
1F
100
AcDbEntity
  8
0
  6
Continuous
 62
     7
370
     0
100
AcDbPolyline
 90
       27
 70
   128
 43
0.0
 10
166.9190095604
 20
50.0529053542
 10
167.0051137135
 20
52.3799312939
 10
167.2627708681
 20
54.7886609002
 10
167.6900200978
 20
57.2607622863
 10
168.2836097779
 20
59.7774212681
 10
169.0390223326
 20
62.3194845509
 10
169.9505086161
 20
64.8676054984
 10
171.0111316675
 20
67.4023913715
 10
172.2128195049
 20
69.9045509191
 10
173.5464265584
 20
72.3550411964
 10
175.0018032729
 20
74.7352124925
 10
176.5678733529
 20
77.0269502668
 10
178.2327180594
 20
79.212813011
 10
179.983666919
 20
81.2761649897
 10
181.8073941536
 20
83.2013028486
 10
183.6900200978
 20
84.9735751261
 10
185.6172168314
 20
86.57949376
 10
187.5743172235
 20
88.0068367398
 10
189.5464265584
 20
89.2447411237
 10
191.5185358933
 20
90.2837857117
 10
193.4756362854
 20
91.1160627472
 10
195.4028330189
 20
91.7352380994
 10
197.2854589631
 20
92.13659947
 10
199.1091861977
 20
92.3170922566
 10
200.8601350574
 20
92.2753428001
 10
202.5249797639
 20
92.0116688392
 10
202.6727304202
 20
91.9764770235
  0
LWPOLYLINE
  5
25C
330
1F
100
AcDbEntity
  8
0
  6
Continuous
 62
     7
370
     0
100
AcDbPolyline
 90
        9
 70
   128
 43
0.0
 10
171.1472690325
 20
37.28462874
 10
171.0111316675
 20
37.4280829544
 10
169.9505086161
 20
38.7382995181
 10
169.0390223326
 20
40.2340408031
 10
168.2836097779
 20
41.9039233153
 10
167.6900200978
 20
43.7352382403
 10
167.2627708681
 20
45.7140481658
 10
167.0051137135
 20
47.8252931535
 10
166.9190095604
 20
50.0529053542
  0
LWPOLYLINE
  5
25D
330
1F
100
AcDbEntity
  8
0
  6
Continuous
 62
     7
370
     0
100
AcDbPolyline
 90
       20
 70
   128
 43
0.0
 10
143.2216078994
 20
75.3791269461
 10
143.3096290951
 20
77.1427028068
 10
143.5724570574
 20
78.9831490374
 10
144.0064022579
 20
80.8746298074
 10
144.6053730573
 20
82.7905928727
 10
145.3609612183
 20
84.7041423119
 10
146.2625599396
 20
86.5884160854
 10
147.2975127514
 20
88.4169631197
 10
148.4512911849
 20
90.1641146228
 10
149.70769872
 20
91.8053444172
 10
151.049098149
 20
93.3176132344
 10
152.4566591642
 20
94.679692135
 10
153.9106226945
 20
95.8724605171
 10
155.390578279
 20
96.8791745271
 10
156.8757505853
 20
97.685702107
 10
158.3452910499
 20
98.2807213776
 10
159.7785705459
 20
98.6558795727
 10
161.155468971
 20
98.8059102934
 10
162.4566576894
 20
98.7287074373
 10
162.9933364866
 20
98.6246087418
  0
ARC
  5
25E
330
1F
100
AcDbEntity
  8
0
  6
Continuous
 62
     7
370
     0
100
AcDbCircle
 10
152.9409633351
 20
74.6930256859
 30
0.0
 40
9.743541708399768
100
AcDbArc
 50
175.9621186155
 51
222.40960443
  0
LWPOLYLINE
  5
25F
330
1F
100
AcDbEntity
  8
0
  6
Continuous
 62
     7
370
     0
100
AcDbPolyline
 90
       21
 70
   128
 43
0.0
 10
142.9872204036
 20
75.5112781187
 10
143.0752607965
 20
77.2752386111
 10
143.338146081
 20
79.1160862389
 10
143.772185924
 20
81.0079795364
 10
144.3712873574
 20
82.9243604688
 10
145.1270403105
 20
84.8383272487
 10
146.0288356684
 20
86.7230119779
 10
147.064014201
 20
88.551957814
 10
148.2180442709
 20
90.2994903667
 10
149.4747258256
 20
91.9410781096
 10
150.8164178106
 20
93.4536767491
 10
152.2242858116
 20
94.816052716
 10
153.678566448
 20
96.0090812381
 10
155.1588448073
 20
97.01601481
 10
156.6443410263
 20
97.8227182918
 10
158.1142019943
 20
98.4178673347
 10
159.5477940852
 20
98.7931073508
 10
160.9249928086
 20
98.9431707929
 10
162.2264653133
 20
98.8659510991
 10
163.4339417781
 20
98.5625322647
 10
163.9274757848
 20
98.3600014728
  0
ARC
  5
260
330
1F
100
AcDbEntity
  8
0
  6
Continuous
 62
     7
370
     0
100
AcDbCircle
 10
152.2837562396
 20
74.7574095618
 30
0.0
 40
9.327051857392501
100
AcDbArc
 50
175.3639525671
 51
229.3990444508
  0
LWPOLYLINE
  5
261
330
1F
100
AcDbEntity
  8
0
  6
Continuous
 62
     7
370
     0
100
AcDbPolyline
 90
       20
 70
   128
 43
0.0
 10
142.4146819676
 20
75.7219041037
 10
142.5034512175
 20
77.500467836
 10
142.7685128414
 20
79.3565552265
 10
143.2061459553
 20
81.2641108769
 10
143.8102071495
 20
83.1963568871
 10
144.5722167289
 20
85.1261687589
 10
145.4814777494
 20
87.0264561636
 10
146.5252261795
 20
88.8705432316
 10
147.6888100789
 20
90.6325430228
 10
148.9558952805
 20
92.2877209224
 10
150.3086946855
 20
93.8128418609
 10
151.7282179556
 20
95.1864964835
 10
153.1945380957
 20
96.3894016903
 10
154.6870711853
 20
97.4046713291
 10
156.1848653314
 20
98.2180532396
 10
157.6668947875
 20
98.8181293227
 10
159.1123551086
 20
99.1964758256
 10
160.5009552004
 20
99.3477815928
 10
161.8132021613
 20
99.269922623
 10
163.0028659823
 20
98.9739198501
  0
ARC
  5
262
330
1F
100
AcDbEntity
  8
0
  6
Continuous
 62
     7
370
     0
100
AcDbCircle
 10
152.1756939172
 20
75.0234195058
 30
0.0
 40
9.785971337332121
100
AcDbArc
 50
175.9069695689
 51
223.0355830912
  0
LWPOLYLINE
  5
263
330
1F
100
AcDbEntity
  8
0
  6
Continuous
 62
     7
370
     0
100
AcDbPolyline
 90
       19
 70
   128
 43
0.0
 10
142.3128650689
 20
75.7690845876
 10
142.4017048203
 20
77.5490608755
 10
142.6669769593
 20
79.4066223918
 10
143.1049576464
 20
81.3156930446
 10
143.7094985928
 20
83.2494736666
 10
144.4721133689
 20
85.1808182169
 10
145.3820965349
 20
87.0826148515
 10
146.4266739218
 20
88.9281665145
 10
147.5911819529
 20
90.691565706
 10
148.859273488
 20
92.3480581667
 10
150.2131473017
 20
93.8743903737
 10
151.6337979733
 20
95.2491359684
 10
153.1012826815
 20
96.4529965363
 10
154.5950011579
 20
97.4690725138
 10
156.0939848692
 20
98.2831004214
 10
157.57719137
 20
98.8836530918
 10
159.0237996922
 20
99.2623000818
 10
160.4135026259
 20
99.4137260178
 10
160.6786044639
 20
99.4165288479
  0
ARC
  5
264
330
1F
100
AcDbEntity
  8
0
  6
Continuous
 62
     7
370
     0
100
AcDbCircle
 10
153.758818236
 20
75.3926450013
 30
0.0
 40
11.45214175012226
100
AcDbArc
 50
178.1163099497
 51
208.6151932855
  0
LWPOLYLINE
  5
265
330
1F
100
AcDbEntity
  8
0
  6
Continuous
 62
     7
370
     0
100
AcDbPolyline
 90
       19
 70
   128
 43
0.0
 10
142.2521941637
 20
75.8041091557
 10
142.3410339151
 20
77.5840854436
 10
142.6063060541
 20
79.4416469598
 10
143.0442867411
 20
81.3507176126
 10
143.6488276876
 20
83.2844982347
 10
144.4114424637
 20
85.215842785
 10
145.3214256297
 20
87.1176394196
 10
146.3660030166
 20
88.9631910826
 10
147.5305110477
 20
90.726590274
 10
148.7986025828
 20
92.3830827348
 10
150.1524763965
 20
93.9094149418
 10
151.5731270681
 20
95.2841605365
 10
153.0406117763
 20
96.4880211043
 10
154.5343302527
 20
97.5040970818
 10
156.033313964
 20
98.3181249895
 10
157.5165204648
 20
98.9186776599
 10
158.9631287869
 20
99.2973246499
 10
160.3528317207
 20
99.4487505858
 10
160.6179335586
 20
99.451553416
  0
ARC
  5
266
330
1F
100
AcDbEntity
  8
0
  6
Continuous
 62
     7
370
     0
100
AcDbCircle
 10
153.6981473308
 20
75.4276695693
 30
0.0
 40
11.45214175012163
100
AcDbArc
 50
178.1163099497
 51
208.6151932855
  0
OLE2FRAME
  5
267
330
1F
100
AcDbEntity
  8
0
100
AcDbOle2Frame
 70
     2
  3
Paintbrush-Bild
 10
13.8511154363
 20
38.264191557
 30
0.0
 11
51.6290888628
 21
31.9806341108
 31
0.0
 71
     2
 72
     0
 73
     1
 90
    12928
310
80552BED0767C5B32B40DDAF6807D121434000000000000000006FFBDDFB85D0
310
4940DDAF6807D121434000000000000000006FFBDDFB85D04940416F4BD60AFB
310
3F4000000000000000002BED0767C5B32B40416F4BD60AFB3F40000000000000
310
0000000000000100000000010000010000000100000000000100000000320000
310
D0CF11E0A1B11AE1000000000000000000000000000000003E000300FEFF0900
310
0600000000000000000000000100000001000000000000000010000002000000
310
01000000FEFFFFFF0000000000000000FFFFFFFFFFFFFFFFFFFFFFFFFFFFFFFF
310
FFFFFFFFFFFFFFFFFFFFFFFFFFFFFFFFFFFFFFFFFFFFFFFFFFFFFFFFFFFFFFFF
310
FFFFFFFFFFFFFFFFFFFFFFFFFFFFFFFFFFFFFFFFFFFFFFFFFFFFFFFFFFFFFFFF
310
FFFFFFFFFFFFFFFFFFFFFFFFFFFFFFFFFFFFFFFFFFFFFFFFFFFFFFFFFFFFFFFF
310
FFFFFFFFFFFFFFFFFFFFFFFFFFFFFFFFFFFFFFFFFFFFFFFFFFFFFFFFFFFFFFFF
310
FFFFFFFFFFFFFFFFFFFFFFFFFFFFFFFFFFFFFFFFFFFFFFFFFFFFFFFFFFFFFFFF
310
FFFFFFFFFFFFFFFFFFFFFFFFFFFFFFFFFFFFFFFFFFFFFFFFFFFFFFFFFFFFFFFF
310
FFFFFFFFFFFFFFFFFFFFFFFFFFFFFFFFFFFFFFFFFFFFFFFFFFFFFFFFFFFFFFFF
310
FFFFFFFFFFFFFFFFFFFFFFFFFFFFFFFFFFFFFFFFFFFFFFFFFFFFFFFFFFFFFFFF
310
FFFFFFFFFFFFFFFFFFFFFFFFFFFFFFFFFFFFFFFFFFFFFFFFFFFFFFFFFFFFFFFF
310
FFFFFFFFFFFFFFFFFFFFFFFFFFFFFFFFFFFFFFFFFFFFFFFFFFFFFFFFFFFFFFFF
310
FFFFFFFFFFFFFFFFFFFFFFFFFFFFFFFFFFFFFFFFFFFFFFFFFFFFFFFFFFFFFFFF
310
FFFFFFFFFFFFFFFFFFFFFFFFFFFFFFFFFFFFFFFFFFFFFFFFFFFFFFFFFFFFFFFF
310
FFFFFFFFFFFFFFFFFFFFFFFFFFFFFFFFFFFFFFFFFFFFFFFFFFFFFFFFFFFFFFFF
310
FDFFFFFFFEFFFFFFFEFFFFFFFEFFFFFF05000000060000000700000008000000
310
090000000A0000000B0000000C0000000D0000000E0000000F00000010000000
310
11000000120000001300000014000000150000001600000017000000FEFFFFFF
310
FFFFFFFFFFFFFFFFFFFFFFFFFFFFFFFFFFFFFFFFFFFFFFFFFFFFFFFFFFFFFFFF
310
FFFFFFFFFFFFFFFFFFFFFFFFFFFFFFFFFFFFFFFFFFFFFFFFFFFFFFFFFFFFFFFF
310
FFFFFFFFFFFFFFFFFFFFFFFFFFFFFFFFFFFFFFFFFFFFFFFFFFFFFFFFFFFFFFFF
310
FFFFFFFFFFFFFFFFFFFFFFFFFFFFFFFFFFFFFFFFFFFFFFFFFFFFFFFFFFFFFFFF
310
FFFFFFFFFFFFFFFFFFFFFFFFFFFFFFFFFFFFFFFFFFFFFFFFFFFFFFFFFFFFFFFF
310
FFFFFFFFFFFFFFFFFFFFFFFFFFFFFFFFFFFFFFFFFFFFFFFFFFFFFFFFFFFFFFFF
310
FFFFFFFFFFFFFFFFFFFFFFFFFFFFFFFFFFFFFFFFFFFFFFFFFFFFFFFFFFFFFFFF
310
FFFFFFFFFFFFFFFFFFFFFFFFFFFFFFFFFFFFFFFFFFFFFFFFFFFFFFFFFFFFFFFF
310
FFFFFFFFFFFFFFFFFFFFFFFFFFFFFFFFFFFFFFFFFFFFFFFFFFFFFFFFFFFFFFFF
310
FFFFFFFFFFFFFFFFFFFFFFFFFFFFFFFFFFFFFFFFFFFFFFFFFFFFFFFFFFFFFFFF
310
FFFFFFFFFFFFFFFFFFFFFFFFFFFFFFFFFFFFFFFFFFFFFFFFFFFFFFFFFFFFFFFF
310
FFFFFFFFFFFFFFFFFFFFFFFFFFFFFFFFFFFFFFFFFFFFFFFFFFFFFFFFFFFFFFFF
310
FFFFFFFFFFFFFFFFFFFFFFFFFFFFFFFFFFFFFFFFFFFFFFFFFFFFFFFFFFFFFFFF
310
52006F006F007400200045006E00740072007900000000000000000000000000
310
0000000000000000000000000000000000000000000000000000000000000000
310
16000500FFFFFFFFFFFFFFFF020000000A00030000000000C000000000000046
310
00000000000000000000000050F072086687D20103000000C000000000000000
310
01004F006C006500000000000000000000000000000000000000000000000000
310
0000000000000000000000000000000000000000000000000000000000000000
310
0A000200FFFFFFFFFFFFFFFFFFFFFFFF00000000000000000000000000000000
310
0000000000000000000000000000000000000000000000001400000000000000
310
010043006F006D0070004F0062006A0000000000000000000000000000000000
310
0000000000000000000000000000000000000000000000000000000000000000
310
120002010100000003000000FFFFFFFF00000000000000000000000000000000
310
0000000000000000000000000000000000000000010000004D00000000000000
310
01004F006C006500310030004E00610074006900760065000000000000000000
310
0000000000000000000000000000000000000000000000000000000000000000
310
1A000200FFFFFFFFFFFFFFFFFFFFFFFF00000000000000000000000000000000
310
0000000000000000000000000000000000000000040000002426000000000000
310
FEFFFFFF02000000FEFFFFFFFFFFFFFFFFFFFFFFFFFFFFFFFFFFFFFFFFFFFFFF
310
FFFFFFFFFFFFFFFFFFFFFFFFFFFFFFFFFFFFFFFFFFFFFFFFFFFFFFFFFFFFFFFF
310
FFFFFFFFFFFFFFFFFFFFFFFFFFFFFFFFFFFFFFFFFFFFFFFFFFFFFFFFFFFFFFFF
310
FFFFFFFFFFFFFFFFFFFFFFFFFFFFFFFFFFFFFFFFFFFFFFFFFFFFFFFFFFFFFFFF
310
FFFFFFFFFFFFFFFFFFFFFFFFFFFFFFFFFFFFFFFFFFFFFFFFFFFFFFFFFFFFFFFF
310
FFFFFFFFFFFFFFFFFFFFFFFFFFFFFFFFFFFFFFFFFFFFFFFFFFFFFFFFFFFFFFFF
310
FFFFFFFFFFFFFFFFFFFFFFFFFFFFFFFFFFFFFFFFFFFFFFFFFFFFFFFFFFFFFFFF
310
FFFFFFFFFFFFFFFFFFFFFFFFFFFFFFFFFFFFFFFFFFFFFFFFFFFFFFFFFFFFFFFF
310
FFFFFFFFFFFFFFFFFFFFFFFFFFFFFFFFFFFFFFFFFFFFFFFFFFFFFFFFFFFFFFFF
310
FFFFFFFFFFFFFFFFFFFFFFFFFFFFFFFFFFFFFFFFFFFFFFFFFFFFFFFFFFFFFFFF
310
FFFFFFFFFFFFFFFFFFFFFFFFFFFFFFFFFFFFFFFFFFFFFFFFFFFFFFFFFFFFFFFF
310
FFFFFFFFFFFFFFFFFFFFFFFFFFFFFFFFFFFFFFFFFFFFFFFFFFFFFFFFFFFFFFFF
310
FFFFFFFFFFFFFFFFFFFFFFFFFFFFFFFFFFFFFFFFFFFFFFFFFFFFFFFFFFFFFFFF
310
FFFFFFFFFFFFFFFFFFFFFFFFFFFFFFFFFFFFFFFFFFFFFFFFFFFFFFFFFFFFFFFF
310
FFFFFFFFFFFFFFFFFFFFFFFFFFFFFFFFFFFFFFFFFFFFFFFFFFFFFFFFFFFFFFFF
310
FFFFFFFFFFFFFFFFFFFFFFFFFFFFFFFFFFFFFFFFFFFFFFFFFFFFFFFFFFFFFFFF
310
0100000200000000000000000000000000000000000000000000000000000000
310
0000000000000000000000000000000000000000000000000000000000000000
310
0100FEFF030A0000FFFFFFFF0A00030000000000C00000000000004607000000
310
5042727573680007000000504272757368000700000050427275736800F439B2
310
7100000000000000000000000000000000000000000000000000000000000000
310
0000000000000000000000000000000000000000000000000000000000000000
310
0000000000000000000000000000000000000000000000000000000000000000
310
0000000000000000000000000000000000000000000000000000000000000000
310
0000000000000000000000000000000000000000000000000000000000000000
310
0000000000000000000000000000000000000000000000000000000000000000
310
0000000000000000000000000000000000000000000000000000000000000000
310
0000000000000000000000000000000000000000000000000000000000000000
310
0000000000000000000000000000000000000000000000000000000000000000
310
0000000000000000000000000000000000000000000000000000000000000000
310
0000000000000000000000000000000000000000000000000000000000000000
310
0000000000000000000000000000000000000000000000000000000000000000
310
20260000424D0E260000000000003E00000028000000B40200006E0000000100
310
01000000000000000000130B0000130B00000200000002000000000000FFFFFF
310
FFFFFFFFFFFFFFFFFFFFFFFFFFFFFFFFFFFFFFFFFFFFFFFFFFFFFFFFFFFFFFFF
310
FFFFFFFFFFFFFFFFFFFFFFFFFFFFFFFFFFFFFFFFFFFFFFFFFFFFFFFFFFFFFFFF
310
FFFFFFFFFFFFFFFFFFFFFFFFFFFFFFFFFFFFFFFFFFFFFFFFF000FFFFFFFFFFFF
310
FFFFFFFFFFFFFFFFFFFFFFFFFFFFFFFFFFFFFFFFFFFFFFFFFFFFFFFFFFFFFFFF
310
FFFFFFFFFFFFFFFFFFFFFFFFFFFFFFFFFFFFFFFFFFFFFFFFFFFFFFFFFFFFFFFF
310
FFFFFFFFFFFFFFFFFFFFFFFFFFFFFFFFF000FFFFFFFFFFFFFFFFFFFFFFFFFFFF
310
FFFFFFFFFFFFFFFFFFFFFFFFFFFFFFFFFFFFFFFFFFFFFFFFFFFFFFFFFFFFFFFF
310
FFFFFFFFFFFFFFFFFFFFFFFFFFFFFFFFFFFFFFFFFFFFFFFFFFFFFFFFFFFFFFFF
310
FFFFFFFFFFFFFFFFF000FFFFFFFFFFFFFFFFFFFFFFFFFFFFFFFFFFFFFFFFFFFF
310
FFFFFFFFFFFFFFFFFFFFFFFFFFFFFFFFFFFFFFFFFFFFFFFFFFFFFFFFFFFFFFFF
310
FFFFFFFFFFFFFFFFFFFFFFFFFFFFFFFFFFFFFFFFFFFFFFFFFFFFFFFFFFFFFFFF
310
F000FFFFFFFFFFFFFFFFFFFFFFFFFFFFFFFFFFFFFFFFFFFFFFFFFFFFFFFFFFFF
310
FFFFFFFFFFFFFFFFFFFFFFFFFFFFFFFFFFFFFFFFFFFFFFFFFFFFFFFFFFFFFFFF
310
FFFFFFFFFFFFFFFFFFFFFFFFFFFFFFFFFFFFFFFFFFFFFFFFF000FFFFFFFFFFFF
310
FFFFFFFFFFFFFFFFFFFFFFFFFFFFFFFFFFFFFFFFFFFFFFFFFFFFFFFFFFFFFFFF
310
FFFFFFFFFFFFFFFFFFFFFFFFFFFFFFFFFFFFFFFFFFFFFFFFFFFFFFFFFFFFFFFF
310
FFFFFFFFFFFFFFFFFFFFFFFFFFFFFFFFF000FFFFFFFFFFFFFFFFFFFFFFFFFFFF
310
FFFFFFFFFFFFFFFFFFFFFFFFFFFFFFFFFFFFFFFFFFFFFFFFFFFFFFFFFFFFFFFF
310
FFFFFFFFFFFFFFFFFFFFFFFFFFFFFFFFFFFFFFFFFFFFFFFFFFFFFFFFFFFFFFFF
310
FFFFFFFFFFFFFFFFF000FFFFFFFFFFFFFFFFFFFFFFFFFFFFFFFFFFFFFFFFFFFF
310
FFFFFFFFFFFFFFFFFFFFFFFFFFFFFFFFFFFFFFFFFFFFFFFFFFFFFFFFFFFFFFFF
310
FFFFFFFFFFFFFFFFFFFFFFFFFFFFFFFFFFFFFFFFFFFFFFFFFFFFFFFFFFFFFFFF
310
F000FFFFFFFFFFFFFFFFFFFFFFFFFFFFFFFFFFFFFFFFFFFFFFFFFFFFFFFFFFFF
310
FFFFFFFFFFFFFFFFFFFFFFFFFFFFFFFFFFFFFFFFFFFFFFFFFFFFFFFFFFFFFFFF
310
FFFFFFFFFFFFFFFFFFFFFFFFFFFFFFFFFFFFFFFFFFFFFFFFF000FFFFFFFFFFFF
310
FFFFFFFFFFFFFFFFFFFFFFFFFFFFFFFFFFFFFFFFFFFFFFFFFFFFFFFFFFFFFFFF
310
FFFFFFFFFFFFFFFFFFFFFFFFFFFFFFFFFFFFFFFFFFFFFFFFFFFFFFFFFFFFFFFF
310
FFFFFFFFFFFFFFFFFFFFFFFFFFFFFFFFF000FFFFFFFFFFFFFFFFFFFFFFFFFFFF
310
FFFFFFFFFFFFFFFFFFFFFFFFFFFFFFFFFFFFFFFFFFFFFFFFFFFFFFFFFFFFFFFF
310
FFFFFFFFFFFFFFFFFFFFFFFFFFFFFFFFFFFFFFFFFFFFFFFFFFFFFFFFFFFFFFFF
310
FFFFFFFFFFFFFFFFF000FFFFFFFFFFFFFFFFFFFFFFFFFFFFFFFFFFFFFFFFFFFF
310
FFFFFFFFFFFFFFFFFFFFFFFFFFFFFFFFFFFFFFFFFFFFFFFFFFFFFFFFFFFFFFFF
310
FFFFFFFFFFFFFFFFFFFFFFFFFFFFFFFFFFFFFFFFFFFFFFFFFFFFFFFFFFFFFFFF
310
F000FFFFFFFFFFFFFFFFFFFFFFFFFFFFFFFFFFFFFFFFFFFFFFFFFFFFFFFFFFFF
310
FFFFFFFFFFFFFFFFFFFFFFFFFFFFFFFFFFFFFFFFFFFFFFFFFFFFFFFFFFFFFFFF
310
FFFFFFFFFFFFFFFFFFFFFFFFFFFFFFFFFFFFFFFFFFFFFFFFF000FFFFFFFFFFFF
310
FFFFFFFFFFFFFFFFFFFFFFFFFFFFFFFFFFFFFFFFFFFFFFFFFFFFFFFFFFFFFFFF
310
FFFFFFFFFFFFFFFFFFFFFFFFFFFFFFFFFFFFFFFFFFFFFFFFFFFFFFFFFFFFFFFF
310
FFFFFFFFFFFFFFFFFFFFFFFFFFFFFFFFF000FFFFFFFFFFFFFFFFFFFFFFFFFFFF
310
FFFFFFFFFFFFFFFFFFFFFFFFFFFFFFFFFFFFFFFFFFFFFFFFFFFFFFFFFFFFFFFF
310
FFFFFFFFFFFFFFFFFFFFFFFFFFFFFFFFFFFFFFFFFFFFFFFFFFFFFFFFFFFFFFFF
310
FFFFFFFFFFFFFFFFF000FFFFFFFFFFFFFFFFFFFFFFFFFFFFFFFFFFFFFFFFFFFF
310
FFFFFFFFFFFFFFFFFFFFFFFFFFFFFFFFFFFFFFFFFFFFFFFFFFFFFFFFFFFFFFFF
310
FFFFFFFFFFFFFFFFFFFFFFFFFFFFFFFFFFFFFFFFFFFFFFFFFFFFFFFFFFFFFFFF
310
F000FFFFFFFFFFFFFFFFFFFFFFFFFFFFFFFFFFFFFFFFFFFFFFFFFFFFFFFFFFFF
310
FFFFFFFFFFFFFFFFFFFFFFFFFFFFFFFFFFFFFFFFFFFFFFFFFFFFFFFFFFFFFFFF
310
FFFFFFFFFFFFFFFFFFFFFFFFFFFFFFFFFFFFFFFFFFFFFFFFF000FFFFFFFFFFFF
310
FFFFFFFFFFFFFFFFFFFFFFFFFFFFFFFFFFFFFFFFFFFFFFFFFFFFFFFFFFFFFFFF
310
FFFFFFFFFFFFFFFFFFFFFFFFFFFFFFFFFFFFFFFFFFFFFFFFFFFFFFFFFFFFFFFF
310
FFFFFFFFFFFFFFFFFFFFFFFFFFFFFFFFF000FFFFFFFFFFFFFFFFFFFFFFFFFFFF
310
FFFFFFFFFFFFFFFFFFFFFFFFFFFFFFFFFFFFFFFFFFFFFFFFFFFFFFFFFFFFFFFF
310
FFFFFFFFFFFFFFFFFFFFFFFFFFFFFFFFFFFFFFFFFFFFFFFFFFFFFFFFFFFFFFFF
310
FFFFFFFFFFFFFFFFF000FFFFF80003FFFFFFFFFFFFFFFFFFFFFFFFFFFFFFFFFF
310
FFFFF00007FFFFFFFFFF00007FFFFFF800000000000000007FFFFFFFFFFFFFFF
310
FFFFFFFC001FFFFFFFFFFFFFFC001FFFFFFFFFFFFFFFFFFFFFFFFFFE0007FFFF
310
F000FFFF8000007FFFFFFFF8000FFFFFC0007FFFFF80007FFFFF0000007FFFFF
310
FFF8000007FFFFF800000000000000007FFFFFF0001FFFFFFFFFFFC00001FFFF
310
FFFFFFFFC00001FFFFFFFF000000000003FFFFE000007FFFF000FFFE0000000F
310
FFFFFFF0000FFFFF80007FFFFF80007FFFFC0000001FFFFFFFC0000001FFFFF8
310
00000000000000007FFFFFF0001FFFFFFFFFFE0000003FFFFFFFFFFE0000003F
310
FFFFFF000000000003FFFF0000000FFFF000FFF800000003FFFFFFF00007FFFF
310
80007FFFFF80007FFFF000000007FFFFFF000000003FFFF80000000000000000
310
7FFFFFF0001FFFFFFFFFF80000000FFFFFFFFFF80000000FFFFFFF0000000000
310
03FFFC00000003FFF000FFE000000000FFFFFFF00007FFFF80003FFFFF80007F
310
FFC000000001FFFFFC000000001FFFF800000000000000007FFFFFF0001FFFFF
310
FFFFE000000003FFFFFFFFE000000003FFFFFF000000000003FFF000000000FF
310
F000FF80000000007FFFFFF00007FFFF80003FFFFF80007FFF8000000000FFFF
310
F80000000007FFF800000000000000007FFFFFF0001FFFFFFFFFC000000001FF
310
FFFFFFC000000001FFFFFF000000000003FFC0000000007FF000FF0000000000
310
3FFFFFE00007FFFF00003FFFFF80007FFE00000000003FFFF00000000003FFF8
310
00000000000000007FFFFFF0001FFFFFFFFF8000000000FFFFFFFF8000000000
310
FFFFFF000000000003FF80000000003FF000FE00000000001FFFFFE00003FFFF
310
00003FFFFF80007FFC00000000001FFFE00000000001FFF8000001FFFE000000
310
7FFFFFF0001FFFFFFFFE00000000003FFFFFFE00000000003FFFFF0000000000
310
03FF00000000001FF000FC00000000000FFFFFE00003FFFF00001FFFFF80007F
310
F800000000001FFFC00000000000FFF8000001FFFE0000007FFFFFF0001FFFFF
310
FFFC00000000001FFFFFFC00000000001FFFFF000000000003FE00000000000F
310
F000F8000000000007FFFFE00003FFFF00001FFFFF80007FF800000000000FFF
310
800000000000FFF8000001FFFE0000007FFFFFF0001FFFFFFFF800000000000F
310
FFFFF800000000000FFFFF000000000003FC000000000007F000F80000000000
310
03FFFFC00003FFFE00001FFFFF80007FF0000000000007FF0000000000007FF8
310
000001FFFE0000007FFFFFF0001FFFFFFFF0000000000007FFFFF00000000000
310
07FFFF000000000003F8000000000003F000F0000000000003FFFFC00001FFFE
310
00001FFFFF80007FE0000000000007FE0000000000003FF8000001FFFE000000
310
7FFFFFF0001FFFFFFFF0000000000007FFFFF0000000000007FFFF0000000000
310
03F800001F800003F000E00001FFF00001FFFFC00001FFFE00000FFFFF80007F
310
E00001FFE00003FE00001FFF00003FF8000001FFFE0000007FFFFFF0001FFFFF
310
FFE000003E000003FFFFE000003E000003FFFF000000000003F00001FFF80001
310
F000E00007FFFC0001FFFFC00001FFFE00000FFFFF80007FC0000FFFFC0003FC
310
0000FFFFC0001FF8000001FFFE0000007FFFFFF0001FFFFFFFC00003FFE00001
310
FFFFC00003FFE00001FFFF0001FFFFFFFFF00007FFFE0001F000E0000FFFFF00
310
00FFFF800001FFFC00000FFFFF80007FC0001FFFFE0001FC0001FFFFE0001FF8
310
000001FFFE0000007FFFFFF0001FFFFFFF80000FFFF80000FFFF80000FFFF800
310
00FFFF0003FFFFFFFFE0000FFFFF8000F000C0003FFFFF8000FFFF800000FFFC
310
000007FFFF80007F80003FFFFF0001FC0003FFFFF0001FF8000001FFFE000000
310
7FFFFFF0001FFFFFFF80003FFFFE0000FFFF80003FFFFE0000FFFF0003FFFFFF
310
FFE0003FFFFF8000F000C0003FFFFF8000FFFF800000FFFC000007FFFF80007F
310
80007FFFFF8001F80007FFFFF8000FF8000001FFFE0000007FFFFFF0001FFFFF
310
FF00007FFFFF00007FFF00007FFFFF00007FFF0003FFFFFFFFE0003FFFFFC000
310
F000C0007FFFFFC000FFFF000000FFFC000007FFFF80007F8000FFFFFF8000F8
310
000FFFFFF8000FF8000001FFFE0000007FFFFFF0001FFFFFFF0000FFFFFF8000
310
7FFF0000FFFFFF80007FFF0003FFFFFFFFC0007FFFFFC00070008000FFFFFFC0
310
00FFFF000000FFF8000007FFFF80007F8000FFFFFF8000F8000FFFFFF8000FF8
310
000001FFFE0000007FFFFFF0001FFFFFFE0001FFFFFFC0003FFE0001FFFFFFC0
310
003FFF0003FFFFFFFFC0007FFFFFE00070008000FFFFFFC0007FFF0000007FF8
310
000003FFFF80007F0001FFFFFF8000F8000FFFFFF8000FF8000001FFFE000000
310
7FFFFFF0001FFFFFFE0001FFFFFFC0003FFE0001FFFFFFC0003FFF0003FFFFFF
310
FFC000FFFFFFE00070008000FFFFFFC0007FFF0000007FF8000003FFFF80007F
310
0001FFFFFF8000F8001FFFFFF8000FF8000001FFFE0000007FFFFFF0001FFFFF
310
FE0003FFFFFFE0003FFE0003FFFFFFE0003FFF0003FFFFFFFFC000FFFFFFE000
310
70008000FFFFFFC0007FFE0000007FF8000003FFFF80007F0001FFFFFF8000F0
310
001FFFFFF8000FF8000001FFFE0000007FFFFFF0001FFFFFFC0003FFFFFFE000
310
1FFC0003FFFFFFE0001FFF0003FFFFFFFFC000FFFFFFC00070008000FFFFFF80
310
007FFE0000007FF0000003FFFF80007F0001FFFFFF0000F0001FFFFFF8000FF8
310
000001FFFE0000007FFFFFF0001FFFFFFC0007FFFFFFF0001FFC0007FFFFFFF0
310
001FFF0003FFFFFFFFC000FFFFFFC00070008001FFFFFF0000FFFE0000003FF0
310
000001FFFF80007F0001FFFFFF0000F8001FFFFFF0000FF8000001FFFE000000
310
7FFFFFF0001FFFFFFC0007FFFFFFF0001FFC0007FFFFFFF0001FFF0003FFFFFF
310
FFC001FFFFFF80007000FFFFFFFFFE0000FFFE0008003FF0008001FFFF80007F
310
FFFFFFFFFC0000FFFFFFFFFFE0000FF8000001FFFE0000007FFFFFF0001FFFFF
310
F8000FFFFFFFF8000FF8000FFFFFFFF8000FFF0003FFFFFFFFFFFFFFFFFF0000
310
7000FFFFFFFFFC0000FFFC0008003FF0008001FFFF80007FFFFFFFFFF80001FF
310
FFFFFFFF80000FF8000001FFFE0000007FFFFFF0001FFFFFF8000FFFFFFFF800
310
0FF8000FFFFFFFF8000FFF0003FFFFFFFFFFFFFFFFFE0000F000FFFFFFFFE000
310
00FFFC000C003FE000C001FFFF80007FFFFFFFFFC00001FFFFFFFFFE00001FF8
310
000001FFFE0000007FFFFFF0001FFFFFF8000FFFFFFFF8000FF8000FFFFFFFF8
310
000FFF0003FFFFFFFFFFFFFFFFF00000F000FFFFFFFE000001FFFC000C001FE0
310
00C000FFFF80007FFFFFFFFE000001FFFFFFFFE000001FF80FFFFFFFFFFFFFC0
310
7FFFFFF0001FFFFFF8000FFFFFFFF8000FF8000FFFFFFFF8000FFF0003FFFFFF
310
FFFFFFFFFF800000F000FFFFFFC0000001FFFC001C001FE001C000FFFF80007F
310
FFFFFF80000003FFFFFFF80000001FF80FFFFFFFFFFFFFC07FFFFFF0001FFFFF
310
F8001FFFFFFFFC000FF8001FFFFFFFFC000FFF0003FFFFFFFFFFFFFFF0000001
310
F000FFFFF800000001FFF8001C001FE001C000FFFF80007FFFFFF800000003FF
310
FFFF800000003FF80FFFFFFFFFFFFFC07FFFFFF0001FFFFFF8001FFFFFFFFC00
310
0FF8001FFFFFFFFC000FFF0003FFFFFFFFFFFFFE00000001F000FFFFC0000000
310
03FFF8001E001FC001E000FFFF80007FFFFF8000000007FFFFFC000000003FF8
310
0FFFFFFFFFFFFFC07FFFFFF0001FFFFFF8001FFFFFFFFC000FF8001FFFFFFFFC
310
000FFF0003FFFFFFFFFFFFE000000003F000FFFE0000000007FFF8001E000FC0
310
01E0007FFF80007FFFFE0000000007FFFFE0000000007FF80FFFFFFFFFFFFFC0
310
7FFFFFF0001FFFFFF0001FFFFFFFFC0007F0001FFFFFFFFC0007FF0003FFFFFF
310
FFFFFF0000000003F000FFF80000000007FFF8001E000FC003E0007FFF80007F
310
FFF0000000000FFFFF8000000000FFF80FFFFFFFFFFFFFC07FFFFFF0001FFFFF
310
F0001FFFFFFFFC0007F0001FFFFFFFFC0007FF0003FFFFFFFFFFFC0000000007
310
F000FFE0000000000FFFF0003E000FC003E0007FFF80007FFFC0000000001FFF
310
FE0000000001FFF80FFFFFFFFFFFFFC07FFFFFF0001FFFFFF0001FFFFFFFFC00
310
07F0001FFFFFFFFC0007FF0003FFFFFFFFFFF0000000000FF000FFC000000000
310
1FFFF0003F000F8003F0003FFF80007FFF80000000003FFFF80000000003FFF8
310
0FFFFFFFFFFFFFC07FFFFFF0001FFFFFF0001FFFFFFFFC0007F0001FFFFFFFFC
310
0007FF0003FFFFFFFFFFE0000000001FF000FF00000000007FFFF0003F000780
310
03F0003FFF80007FFF00000000007FFFF00000000007FFF80FFFFFFFFFFFFFC0
310
7FFFFFF0001FFFFFF0001FFFFFFFFC0007F0001FFFFFFFFC0007FF0003FFFFFF
310
FFFF80000000007FF000FE0000000000FFFFE0003F00078007F0003FFF80007F
310
FE0000000001FFFFE0000000001FFFF80FFFFFFFFFFFFFC07FFFFFF0001FFFFF
310
F0001FFFFFFFFC0007F0001FFFFFFFFC0007FF0003FFFFFFFFFF0000000000FF
310
F000FC0000000003FFFFE0007F00078007F0003FFF80007FFC0000000007FFFF
310
C0000000007FFFF80FFFFFFFFFFFFFC07FFFFFF0001FFFFFF8001FFFFFFFFC00
310
0FF8001FFFFFFFFC000FFF0003FFFFFFFFFE0000000003FFF000FC000000000F
310
FFFFE0007F80070007F8001FFF80007FF8000000001FFFFF8000000001FFFFF8
310
0FFFFFFFFFFFFFC07FFFFFF0001FFFFFF8001FFFFFFFFC000FF8001FFFFFFFFC
310
000FFF0003FFFFFFFFFC000000000FFFF000F8000000007FFFFFE0007F800700
310
07F8001FFF80007FF000000000FFFFFF800000000FFFFFF80FFFFFFFFFFFFFC0
310
7FFFFFF0001FFFFFF8000FFFFFFFF8000FF8000FFFFFFFF8000FFF0003FFFFFF
310
FFFC000000007FFFF000F800000007FFFFFFC0007F8003000FF8001FFF80007F
310
F000000007FFFFFF000000007FFFFFF80FFFFFFFFFFFFFC07FFFFFF0001FFFFF
310
F8000FFFFFFFF8000FF8000FFFFFFFF8000FFF0003FFFFFFFFF80000000FFFFF
310
F000F0000000FFFFFFFFC000FF8003000FF8001FFF80007FE0000000FFFFFFFF
310
0000000FFFFFFFF8000001FFFE0000007FFFFFF0001FFFFFF8000FFFFFFFF800
310
0FF8000FFFFFFFF8000FFF0003FFFFFFFFF8000000FFFFFFF000F000000FFFFF
310
FFFFC000FFC002000FF8000FFF80007FE000001FFFFFFFFE000001FFFFFFFFF8
310
000001FFFE0000007FFFFFF0001FFFFFF8000FFFFFFFF8000FF8000FFFFFFFF8
310
000FFF0003FFFFFFFFF000001FFFFFFFF000E00000FFFFFFFFFFC000FFC00200
310
0FFC000FFF80007FE00001FFFFFFFFFE00001FFFFFFFFFF8000001FFFE000000
310
7FFFFFF0001FFFFFFC000FFFFFFFF8001FFC000FFFFFFFF8001FFF0003FFFFFF
310
FFF00001FFFFFFFFF000E00007FFFFFFFFFF8000FFC000001FFC000FFF80007F
310
C0000FFFFFFFFFFE0000FFFFFFFFFFF8000001FFFE0000007FFFFFF0001FFFFF
310
FC0007FFFFFFF0001FFC0007FFFFFFF0001FFF0003FFFFFFFFF00007FFFFFFFF
310
F000E0001FFFFFFFFFFF8000FFC000001FFC000FFF80007FC0003FFFFFFFFFFE
310
0001FFFFFFFFFFF8000001FFFE0000007FFFFFF0001FFFFFFC0007FFFFFFF000
310
1FFC0007FFFFFFF0001FFF0003FFFFFFFFF0001FFFFFFFFFF000E0003FFFFF00
310
03FF8001FFE000001FFC0007FF80007FC0007FFFFF0007FC0003FFFFF0003FF8
310
000001FFFE0000007FFFFFF0001FFFFFFC0003FFFFFFE0001FFC0003FFFFFFE0
310
001FFF0003FFFFFFFFF0003FFFFFFFFFF000E0003FFFFF0001FF8001FFE00000
310
1FFE0007FF80007FC0007FFFFE0003FC0007FFFFE0003FF8000001FFFE000000
310
7FFFFFF0001FFFFFFE0003FFFFFFE0003FFE0003FFFFFFE0003FFF0003FFFFFF
310
FFF0003FFFFF8001F000E0003FFFFF0001FF0001FFE000001FFE0007FF80007F
310
C0007FFFFE0003FC0007FFFFE0003FF8000001FFFE0000007FFFFFF0001FFFFF
310
FE0001FFFFFFC0003FFE0001FFFFFFC0003FFF0003FFFFFFFFF0003FFFFF0001
310
F000E0003FFFFF0003FF0001FFE000003FFE0007FF80007FC0007FFFFE0003FC
310
0007FFFFE0003FF8000001FFFE0000007FFFFFF0001FFFFFFF0001FFFFFFC000
310
7FFF0001FFFFFFC0007FFF0003FFFFFFFFF0003FFFFF0001F000E0003FFFFE00
310
03FF0003FFF000003FFE0003FF80007FC0007FFFFC0003FE0007FFFFE0003FF8
310
000001FFFE0000007FFFFFF0001FFFFFFF0000FFFFFF80007FFF0000FFFFFF80
310
007FFF0003FFFFFFFFF0003FFFFF0001F000E0003FFFFE0003FF0003FFF00000
310
3FFF0003FF80007FC0007FFFFC0007FE0007FFFFC0003FF8000001FFFE000000
310
7FFFFFF0001FFFFFFF80007FFFFF0000FFFF80007FFFFF0000FFFF0003FFFFFF
310
FFF0003FFFFF0003F000E0003FFFFC0003FE0003FFF000003FFF0003FF80007F
310
E0003FFFF80007FE0003FFFFC0007FF8000001FFFE0000007FFFFFF0001FFFFF
310
FF80003FFFFE0000FFFF80003FFFFE0000FFFF0003FFFFFFFFF0001FFFFE0003
310
F000F0001FFFF80003FE0003FFF000007FFF0001FF80007FE0003FFFF00007FE
310
0001FFFF80007FF8000001FFFE0000007FFFFFF0001FFFFFFFC0000FFFF80001
310
FFFFC0000FFFF80001FFFF0003FFFFFFFFF0001FFFFC0003F000F0000FFFF000
310
07FE0007FFF800007FFF0001FF80007FE0001FFFE00007FF0000FFFE00007FF8
310
000001FFFE0000007FFFFFF0001FFFFFFFC00003FFE00001FFFFC00003FFE000
310
01FFFF0003FFFFFFFFF8000FFFF80003F000F00003FFC00007FC0007FFF80000
310
7FFF8001FF80007FF00007FF80000FFF00007FF80000FFF8000001FFFE000000
310
7F80000000000001FFE000003E000003FFFFE000003E000003FFFF0003FFFFFF
310
FFF80003FFE00007F000F800000000000FFC0007FFF800007FFF8001FF80007F
310
F000000000000FFF000000000000FFF8000001FFFE0000007F80000000000001
310
FFF0000000000007FFFFF0000000000007FFFF0003FFFFFFFFFC00007E000007
310
F000F800000000000FFC0007FFF80000FFFF8000FF80007FF800000000001FFF
310
800000000001FFF8000001FFFE0000007F80000000000001FFF800000000000F
310
FFFFF800000000000FFFFF0003FFFFFFFFFC00000000000FF000FC0000000000
310
1FFC0007FFFC0000FFFF8000FF80007FF800000000003FFFC00000000001FFF8
310
000001FFFE0000007F80000000000001FFF800000000000FFFFFF80000000000
310
0FFFFF0003FFFFFFFFFE00000000001FF000FE00000000003FF8000FFFFC0000
310
FFFF8000FF80007FFC00000000003FFFC00000000003FFF8000001FFFE000000
310
7F80000000000001FFFC00000000001FFFFFFC00000000001FFFFF0003FFFFFF
310
FFFF00000000001FF000FF00000000003FF8000FFFFC0000FFFFC000FF80007F
310
FE00000000007FFFE00000000007FFF8000001FFFE0000007F80000000000001
310
FFFE00000000003FFFFFFE00000000003FFFFF0003FFFFFFFFFF80000000003F
310
F000FF80000000007FF8000FFFFC0001FFFFC0007F80007FFF0000000000FFFF
310
F0000000000FFFF800000000000000007F80000000000001FFFF8000000000FF
310
FFFFFF8000000000FFFFFF0003FFFFFFFFFFC0000000007FF000FFC000000000
310
FFF8000FFFFE0001FFFFC0007F80007FFF8000000001FFFFF8000000001FFFF8
310
00000000000000007F80000000000001FFFFC000000001FFFFFFFFC000000001
310
FFFFFF0003FFFFFFFFFFE000000000FFF000FFE000000003FFF0001FFFFE0001
310
FFFFC0007F80007FFFC000000007FFFFFE000000003FFFF80000000000000000
310
7F80000000000001FFFFE000000003FFFFFFFFE000000003FFFFFF0003FFFFFF
310
FFFFF000000003FFF000FFF80000000FFFF0001FFFFE0001FFFFE0007F80007F
310
FFF00000000FFFFFFF00000000FFFFF800000000000000007F80000000000001
310
FFFFF80000000FFFFFFFFFF80000000FFFFFFF0003FFFFFFFFFFFC0000000FFF
310
F000FFFE0000003FFFF0001FFFFE0003FFFFE0003F80007FFFFC0000003FFFFF
310
FFC0000003FFFFF800000000000000007F80000000000001FFFFFE0000003FFF
310
FFFFFFFE0000003FFFFFFF0003FFFFFFFFFFFF0000003FFFF000FFFF800000FF
310
FFF0001FFFFF0003FFFFE0003F80007FFFFF000001FFFFFFFFF800001FFFFFF8
310
00000000000000007F80000000000001FFFFFFC00001FFFFFFFFFFFFC00001FF
310
FFFFFF0003FFFFFFFFFFFFC00000FFFFF000FFFFF8000FFFFFFFFFFFFFFFFFFF
310
FFFFFFFFFFFFFFFFFFFFF0001FFFFFFFFFFF0000FFFFFFF80000000000000000
310
7FFFFFFFFFFFFFFFFFFFFFFC001FFFFFFFFFFFFFFC001FFFFFFFFFFFFFFFFFFF
310
FFFFFFFC001FFFFFF000FFFFFFFFFFFFFFFFFFFFFFFFFFFFFFFFFFFFFFFFFFFF
310
FFFFFFFFFFFFFFFFFFFFFFFFFFFFFFFFFFFFFFFFFFFFFFFFFFFFFFFFFFFFFFFF
310
FFFFFFFFFFFFFFFFFFFFFFFFFFFFFFFFFFFFFFFFFFFFFFFFFFFFFFFFFFFFFFFF
310
F000FFFFFFFFFFFFFFFFFFFFFFFFFFFFFFFFFFFFFFFFFFFFFFFFFFFFFFFFFFFF
310
FFFFFFFFFFFFFFFFFFFFFFFFFFFFFFFFFFFFFFFFFFFFFFFFFFFFFFFFFFFFFFFF
310
FFFFFFFFFFFFFFFFFFFFFFFFFFFFFFFFFFFFFFFFFFFFFFFFF000FFFFFFFFFFFF
310
FFFFFFFFFFFFFFFFFFFFFFFFFFFFFFFFFFFFFFFFFFFFFFFFFFFFFFFFFFFFFFFF
310
FFFFFFFFFFFFFFFFFFFFFFFFFFFFFFFFFFFFFFFFFFFFFFFFFFFFFFFFFFFFFFFF
310
FFFFFFFFFFFFFFFFFFFFFFFFFFFFFFFFF000FFFFFFFFFFFFFFFFFFFFFFFFFFFF
310
FFFFFFFFFFFFFFFFFFFFFFFFFFFFFFFFFFFFFFFFFFFFFFFFFFFFFFFFFFFFFFFF
310
FFFFFFFFFFFFFFFFFFFFFFFFFFFFFFFFFFFFFFFFFFFFFFFFFFFFFFFFFFFFFFFF
310
FFFFFFFFFFFFFFFFF000FFFFFFFFFFFFFFFFFFFFFFFFFFFFFFFFFFFFFFFFFFFF
310
FFFFFFFFFFFFFFFFFFFFFFFFFFFFFFFFFFFFFFFFFFFFFFFFFFFFFFFFFFFFFFFF
310
FFFFFFFFFFFFFFFFFFFFFFFFFFFFFFFFFFFFFFFFFFFFFFFFFFFFFFFFFFFFFFFF
310
F000FFFFFFFFFFFFFFFFFFFFFFFFFFFFFFFFFFFFFFFFFFFFFFFFFFFFFFFFFFFF
310
FFFFFFFFFFFFFFFFFFFFFFFFFFFFFFFFFFFFFFFFFFFFFFFFFFFFFFFFFFFFFFFF
310
FFFFFFFFFFFFFFFFFFFFFFFFFFFFFFFFFFFFFFFFFFFFFFFFF000FFFFFFFFFFFF
310
FFFFFFFFFFFFFFFFFFFFFFFFFFFFFFFFFFFFFFFFFFFFFFFFFFFFFFFFFFFFFFFF
310
FFFFFFFFFFFFFFFFFFFFFFFFFFFFFFFFFFFFFFFFFFFFFFFFFFFFFFFFFFFFFFFF
310
FFFFFFFFFFFFFFFFFFFFFFFFFFFFFFFFF000FFFFFFFFFFFFFFFFFFFFFFFFFFFF
310
FFFFFFFFFFFFFFFFFFFFFFFFFFFFFFFFFFFFFFFFFFFFFFFFFFFFFFFFFFFFFFFF
310
FFFFFFFFFFFFFFFFFFFFFFFFFFFFFFFFFFFFFFFFFFFFFFFFFFFFFFFFFFFFFFFF
310
FFFFFFFFFFFFFFFFF000FFFFFFFFFFFFFFFFFFFFFFFFFFFFFFFFFFFFFFFFFFFF
310
FFFFFFFFFFFFFFFFFFFFFFFFFFFFFFFFFFFFFFFFFFFFFFFFFFFFFFFFFFFFFFFF
310
FFFFFFFFFFFFFFFFFFFFFFFFFFFFFFFFFFFFFFFFFFFFFFFFFFFFFFFFFFFFFFFF
310
F000FFFFFFFFFFFFFFFFFFFFFFFFFFFFFFFFFFFFFFFFFFFFFFFFFFFFFFFFFFFF
310
FFFFFFFFFFFFFFFFFFFFFFFFFFFFFFFFFFFFFFFFFFFFFFFFFFFFFFFFFFFFFFFF
310
FFFFFFFFFFFFFFFFFFFFFFFFFFFFFFFFFFFFFFFFFFFFFFFFF000FFFFFFFFFFFF
310
FFFFFFFFFFFFFFFFFFFFFFFFFFFFFFFFFFFFFFFFFFFFFFFFFFFFFFFFFFFFFFFF
310
FFFFFFFFFFFFFFFFFFFFFFFFFFFFFFFFFFFFFFFFFFFFFFFFFFFFFFFFFFFFFFFF
310
FFFFFFFFFFFFFFFFFFFFFFFFFFFFFFFFF000FFFFFFFFFFFFFFFFFFFFFFFFFFFF
310
FFFFFFFFFFFFFFFFFFFFFFFFFFFFFFFFFFFFFFFFFFFFFFFFFFFFFFFFFFFFFFFF
310
FFFFFFFFFFFFFFFFFFFFFFFFFFFFFFFFFFFFFFFFFFFFFFFFFFFFFFFFFFFFFFFF
310
FFFFFFFFFFFFFFFFF000FFFFFFFFFFFFFFFFFFFFFFFFFFFFFFFFFFFFFFFFFFFF
310
FFFFFFFFFFFFFFFFFFFFFFFFFFFFFFFFFFFFFFFFFFFFFFFFFFFFFFFFFFFFFFFF
310
FFFFFFFFFFFFFFFFFFFFFFFFFFFFFFFFFFFFFFFFFFFFFFFFFFFFFFFFFFFFFFFF
310
F000FFFFFFFFFFFFFFFFFFFFFFFFFFFFFFFFFFFFFFFFFFFFFFFFFFFFFFFFFFFF
310
FFFFFFFFFFFFFFFFFFFFFFFFFFFFFFFFFFFFFFFFFFFFFFFFFFFFFFFFFFFFFFFF
310
FFFFFFFFFFFFFFFFFFFFFFFFFFFFFFFFFFFFFFFFFFFFFFFFF000FFFFFFFFFFFF
310
FFFFFFFFFFFFFFFFFFFFFFFFFFFFFFFFFFFFFFFFFFFFFFFFFFFFFFFFFFFFFFFF
310
FFFFFFFFFFFFFFFFFFFFFFFFFFFFFFFFFFFFFFFFFFFFFFFFFFFFFFFFFFFFFFFF
310
FFFFFFFFFFFFFFFFFFFFFFFFFFFFFFFFF000FFFFFFFFFFFFFFFFFFFFFFFFFFFF
310
FFFFFFFFFFFFFFFFFFFFFFFFFFFFFFFFFFFFFFFFFFFFFFFFFFFFFFFFFFFFFFFF
310
FFFFFFFFFFFFFFFFFFFFFFFFFFFFFFFFFFFFFFFFFFFFFFFFFFFFFFFFFFFFFFFF
310
FFFFFFFFFFFFFFFFF000FFFFFFFFFFFFFFFFFFFFFFFFFFFFFFFFFFFFFFFFFFFF
310
FFFFFFFFFFFFFFFFFFFFFFFFFFFFFFFFFFFFFFFFFFFFFFFFFFFFFFFFFFFFFFFF
310
FFFFFFFFFFFFFFFFFFFFFFFFFFFFFFFFFFFFFFFFFFFFFFFFFFFFFFFFFFFFFFFF
310
F000FFFFFFFFFFFFFFFFFFFFFFFFFFFFFFFFFFFFFFFFFFFFFFFFFFFFFFFFFFFF
310
FFFFFFFFFFFFFFFFFFFFFFFFFFFFFFFFFFFFFFFFFFFFFFFFFFFFFFFFFFFFFFFF
310
FFFFFFFFFFFFFFFFFFFFFFFFFFFFFFFFFFFFFFFFFFFFFFFFF000FFFFFFFFFFFF
310
FFFFFFFFFFFFFFFFFFFFFFFFFFFFFFFFFFFFFFFFFFFFFFFFFFFFFFFFFFFFFFFF
310
FFFFFFFFFFFFFFFFFFFFFFFFFFFFFFFFFFFFFFFFFFFFFFFFFFFFFFFFFFFFFFFF
310
FFFFFFFFFFFFFFFFFFFFFFFFFFFFFFFFF000FFFFFFFFFFFFFFFFFFFFFFFFFFFF
310
FFFFFFFFFFFFFFFFFFFFFFFFFFFFFFFFFFFFFFFFFFFFFFFFFFFFFFFFFFFFFFFF
310
FFFFFFFFFFFFFFFFFFFFFFFFFFFFFFFFFFFFFFFFFFFFFFFFFFFFFFFFFFFFFFFF
310
FFFFFFFFFFFFFFFFF000FFFFFFFFFFFFFFFFFFFFFFFFFFFFFFFFFFFFFFFFFFFF
310
FFFFFFFFFFFFFFFFFFFFFFFFFFFFFFFFFFFFFFFFFFFFFFFFFFFFFFFFFFFFFFFF
310
FFFFFFFFFFFFFFFFFFFFFFFFFFFFFFFFFFFFFFFFFFFFFFFFFFFFFFFFFFFFFFFF
310
F000FFFFFFFFFFFFFFFFFFFFFFFFFFFFFFFFFFFFFFFFFFFFFFFFFFFFFFFFFFFF
310
FFFFFFFFFFFFFFFFFFFFFFFFFFFFFFFFFFFFFFFFFFFFFFFFFFFFFFFFFFFFFFFF
310
FFFFFFFFFFFFFFFFFFFFFFFFFFFFFFFFFFFFFFFFFFFFFFFFF000FFFFFFFFFFFF
310
FFFFFFFFFFFFFFFFFFFFFFFFFFFFFFFFFFFFFFFFFFFFFFFFFFFFFFFFFFFFFFFF
310
FFFFFFFFFFFFFFFFFFFFFFFFFFFFFFFFFFFFFFFFFFFFFFFFFFFFFFFFFFFFFFFF
310
FFFFFFFFFFFFFFFFFFFFFFFFFFFFFFFFF0000000000000000000000000000000
310
0000000000000000000000000000000000000000000000000000000000000000
310
0000000000000000000000000000000000000000000000000000000000000000
310
0000000000000000000000000000000000000000000000000000000000000000
310
0000000000000000000000000000000000000000000000000000000000000000
310
0000000000000000000000000000000000000000000000000000000000000000
310
0000000000000000000000000000000000000000000000000000000000000000
310
0000000000000000000000000000000000000000000000000000000000000000
310
0000000000000000000000000000000000000000000000000000000000000000
310
0000000000000000000000000000000000000000000000000000000000000000
310
0000000000000000000000000000000000000000000000000000000000000000
310
0000000000000000000000000000000000000000000000000000000000000000
310
0000000000000000000000000000000000000000000000000000000000000000
310
0000000000000000000000000000000000000000000000000000000000000000
310
0000000000000000000000000000000000000000000000000000000000000000
310
0000000000000000000000000000000000000000000000000000000000000000
  1
OLE
  0
ENDSEC
  0
SECTION
  2
OBJECTS
  0
DICTIONARY
  5
C
330
0
100
AcDbDictionary
281
     1
  3
ACAD_GROUP
350
D
  3
ACAD_LAYOUT
350
1A
  3
ACAD_MLINESTYLE
350
17
  3
ACAD_PLOTSETTINGS
350
19
  3
ACAD_PLOTSTYLENAME
350
E
  3
ACAD_SCALELIST
350
47
  0
DICTIONARY
  5
D
102
{ACAD_REACTORS
330
C
102
}
330
C
100
AcDbDictionary
281
     1
  0
DICTIONARY
  5
1A
102
{ACAD_REACTORS
330
C
102
}
330
C
100
AcDbDictionary
281
     1
  3
Layout1
350
1E
  3
Layout2
350
26
  3
Model
350
22
  0
DICTIONARY
  5
17
102
{ACAD_REACTORS
330
C
102
}
330
C
100
AcDbDictionary
281
     1
  3
Standard
350
18
  0
DICTIONARY
  5
19
102
{ACAD_REACTORS
330
C
102
}
330
C
100
AcDbDictionary
281
     1
  0
ACDBDICTIONARYWDFLT
  5
E
102
{ACAD_REACTORS
330
C
102
}
330
C
100
AcDbDictionary
281
     1
  3
Normal
350
F
100
AcDbDictionaryWithDefault
340
F
  0
DICTIONARY
  5
47
102
{ACAD_REACTORS
330
C
102
}
330
C
100
AcDbDictionary
281
     1
  3
A0
350
48
  3
A1
350
49
  3
A2
350
4A
  3
A3
350
4B
  3
A4
350
4C
  3
A5
350
4D
  3
A6
350
4E
  3
A7
350
4F
  3
A8
350
50
  3
A9
350
51
  3
B0
350
52
  3
B1
350
53
  3
B2
350
54
  3
B3
350
55
  3
B4
350
56
  3
B5
350
57
  3
B6
350
58
  3
B7
350
59
  3
B8
350
5A
  3
B9
350
5B
  3
C0
350
5C
  3
C1
350
5D
  3
C2
350
5E
  3
C3
350
5F
  3
C4
350
60
  3
C5
350
61
  3
C6
350
62
  3
C7
350
63
  3
C8
350
64
  3
C9
350
65
  3
D0
350
66
  3
D1
350
67
  3
D2
350
68
  0
LAYOUT
  5
1E
102
{ACAD_REACTORS
330
1A
102
}
330
1A
100
AcDbPlotSettings
  1

  2
none_device
  4

  6

 40
0.0
 41
0.0
 42
0.0
 43
0.0
 44
0.0
 45
0.0
 46
0.0
 47
0.0
 48
0.0
 49
0.0
140
0.0
141
0.0
142
1.0
143
1.0
 70
   688
 72
     1
 73
     0
 74
     5
  7

 75
    16
147
1.0
148
0.0
149
0.0
100
AcDbLayout
  1
Layout1
 70
     1
 71
     1
 10
0.0
 20
0.0
 11
420.0
 21
297.0
 12
0.0
 22
0.0
 32
0.0
 14
1.0000000000E+20
 24
1.0000000000E+20
 34
1.0000000000E+20
 15
-1.0000000000E+20
 25
-1.0000000000E+20
 35
-1.0000000000E+20
146
0.0
 13
0.0
 23
0.0
 33
0.0
 16
1.0
 26
0.0
 36
0.0
 17
0.0
 27
1.0
 37
0.0
 76
     0
330
1B
  0
LAYOUT
  5
26
102
{ACAD_REACTORS
330
1A
102
}
330
1A
100
AcDbPlotSettings
  1

  2
none_device
  4

  6

 40
0.0
 41
0.0
 42
0.0
 43
0.0
 44
0.0
 45
0.0
 46
0.0
 47
0.0
 48
0.0
 49
0.0
140
0.0
141
0.0
142
1.0
143
1.0
 70
   688
 72
     1
 73
     0
 74
     5
  7

 75
    16
147
1.0
148
0.0
149
0.0
100
AcDbLayout
  1
Layout2
 70
     1
 71
     2
 10
0.0
 20
0.0
 11
0.0
 21
0.0
 12
0.0
 22
0.0
 32
0.0
 14
0.0
 24
0.0
 34
0.0
 15
0.0
 25
0.0
 35
0.0
146
0.0
 13
0.0
 23
0.0
 33
0.0
 16
1.0
 26
0.0
 36
0.0
 17
0.0
 27
1.0
 37
0.0
 76
     0
330
23
  0
LAYOUT
  5
22
102
{ACAD_REACTORS
330
1A
102
}
330
1A
100
AcDbPlotSettings
  1

  2
none_device
  4
Letter_(8.50_x_11.00_Inches)
  6

 40
6.35
 41
6.35
 42
6.35000508
 43
6.35000508
 44
215.9
 45
279.4
 46
0.0
 47
0.0
 48
0.0
 49
0.0
140
0.0
141
0.0
142
1.0
143
1.0
 70
  1712
 72
     1
 73
     0
 74
     0
  7

 75
     0
147
1.0
148
0.0
149
0.0
100
AcDbLayout
  1
Model
 70
     1
 71
     0
 10
0.0
 20
0.0
 11
297.0
 21
210.0
 12
0.0
 22
0.0
 32
0.0
 14
0.0
 24
0.0
 34
0.0
 15
297.0
 25
210.0
 35
0.0
146
0.0
 13
0.0
 23
0.0
 33
0.0
 16
1.0
 26
0.0
 36
0.0
 17
0.0
 27
1.0
 37
0.0
 76
     0
330
1F
331
29
  0
MLINESTYLE
  5
18
102
{ACAD_REACTORS
330
17
102
}
330
17
100
AcDbMlineStyle
  2
Standard
 70
     0
  3

 62
   256
 51
90.0
 52
90.0
 71
     2
 49
0.5
 62
   256
  6
BYLAYER
 49
-0.5
 62
   256
  6
BYLAYER
  0
ACDBPLACEHOLDER
  5
F
102
{ACAD_REACTORS
330
E
102
}
330
E
  0
SCALE
  5
48
102
{ACAD_REACTORS
330
47
102
}
330
47
100
AcDbScale
 70
     0
300
1:1
140
1.0
141
1.0
290
     1
  0
SCALE
  5
49
102
{ACAD_REACTORS
330
47
102
}
330
47
100
AcDbScale
 70
     0
300
1:2
140
1.0
141
2.0
290
     0
  0
SCALE
  5
4A
102
{ACAD_REACTORS
330
47
102
}
330
47
100
AcDbScale
 70
     0
300
1:4
140
1.0
141
4.0
290
     0
  0
SCALE
  5
4B
102
{ACAD_REACTORS
330
47
102
}
330
47
100
AcDbScale
 70
     0
300
1:5
140
1.0
141
5.0
290
     0
  0
SCALE
  5
4C
102
{ACAD_REACTORS
330
47
102
}
330
47
100
AcDbScale
 70
     0
300
1:8
140
1.0
141
8.0
290
     0
  0
SCALE
  5
4D
102
{ACAD_REACTORS
330
47
102
}
330
47
100
AcDbScale
 70
     0
300
1:10
140
1.0
141
10.0
290
     0
  0
SCALE
  5
4E
102
{ACAD_REACTORS
330
47
102
}
330
47
100
AcDbScale
 70
     0
300
1:16
140
1.0
141
16.0
290
     0
  0
SCALE
  5
4F
102
{ACAD_REACTORS
330
47
102
}
330
47
100
AcDbScale
 70
     0
300
1:20
140
1.0
141
20.0
290
     0
  0
SCALE
  5
50
102
{ACAD_REACTORS
330
47
102
}
330
47
100
AcDbScale
 70
     0
300
1:30
140
1.0
141
30.0
290
     0
  0
SCALE
  5
51
102
{ACAD_REACTORS
330
47
102
}
330
47
100
AcDbScale
 70
     0
300
1:40
140
1.0
141
40.0
290
     0
  0
SCALE
  5
52
102
{ACAD_REACTORS
330
47
102
}
330
47
100
AcDbScale
 70
     0
300
1:50
140
1.0
141
50.0
290
     0
  0
SCALE
  5
53
102
{ACAD_REACTORS
330
47
102
}
330
47
100
AcDbScale
 70
     0
300
1:100
140
1.0
141
100.0
290
     0
  0
SCALE
  5
54
102
{ACAD_REACTORS
330
47
102
}
330
47
100
AcDbScale
 70
     0
300
2:1
140
2.0
141
1.0
290
     0
  0
SCALE
  5
55
102
{ACAD_REACTORS
330
47
102
}
330
47
100
AcDbScale
 70
     0
300
4:1
140
4.0
141
1.0
290
     0
  0
SCALE
  5
56
102
{ACAD_REACTORS
330
47
102
}
330
47
100
AcDbScale
 70
     0
300
8:1
140
8.0
141
1.0
290
     0
  0
SCALE
  5
57
102
{ACAD_REACTORS
330
47
102
}
330
47
100
AcDbScale
 70
     0
300
10:1
140
10.0
141
1.0
290
     0
  0
SCALE
  5
58
102
{ACAD_REACTORS
330
47
102
}
330
47
100
AcDbScale
 70
     0
300
100:1
140
100.0
141
1.0
290
     0
  0
SCALE
  5
59
102
{ACAD_REACTORS
330
47
102
}
330
47
100
AcDbScale
 70
     0
300
1/128" = 1'-0"
140
0.0078125
141
12.0
290
     0
  0
SCALE
  5
5A
102
{ACAD_REACTORS
330
47
102
}
330
47
100
AcDbScale
 70
     0
300
1/64" = 1'-0"
140
0.015625
141
12.0
290
     0
  0
SCALE
  5
5B
102
{ACAD_REACTORS
330
47
102
}
330
47
100
AcDbScale
 70
     0
300
1/32" = 1'-0"
140
0.03125
141
12.0
290
     0
  0
SCALE
  5
5C
102
{ACAD_REACTORS
330
47
102
}
330
47
100
AcDbScale
 70
     0
300
1/16" = 1'-0"
140
0.0625
141
12.0
290
     0
  0
SCALE
  5
5D
102
{ACAD_REACTORS
330
47
102
}
330
47
100
AcDbScale
 70
     0
300
3/32" = 1'-0"
140
0.09375
141
12.0
290
     0
  0
SCALE
  5
5E
102
{ACAD_REACTORS
330
47
102
}
330
47
100
AcDbScale
 70
     0
300
1/8" = 1'-0"
140
0.125
141
12.0
290
     0
  0
SCALE
  5
5F
102
{ACAD_REACTORS
330
47
102
}
330
47
100
AcDbScale
 70
     0
300
3/16" = 1'-0"
140
0.1875
141
12.0
290
     0
  0
SCALE
  5
60
102
{ACAD_REACTORS
330
47
102
}
330
47
100
AcDbScale
 70
     0
300
1/4" = 1'-0"
140
0.25
141
12.0
290
     0
  0
SCALE
  5
61
102
{ACAD_REACTORS
330
47
102
}
330
47
100
AcDbScale
 70
     0
300
3/8" = 1'-0"
140
0.375
141
12.0
290
     0
  0
SCALE
  5
62
102
{ACAD_REACTORS
330
47
102
}
330
47
100
AcDbScale
 70
     0
300
1/2" = 1'-0"
140
0.5
141
12.0
290
     0
  0
SCALE
  5
63
102
{ACAD_REACTORS
330
47
102
}
330
47
100
AcDbScale
 70
     0
300
3/4" = 1'-0"
140
0.75
141
12.0
290
     0
  0
SCALE
  5
64
102
{ACAD_REACTORS
330
47
102
}
330
47
100
AcDbScale
 70
     0
300
1" = 1'-0"
140
1.0
141
12.0
290
     0
  0
SCALE
  5
65
102
{ACAD_REACTORS
330
47
102
}
330
47
100
AcDbScale
 70
     0
300
1-1/2" = 1'-0"
140
1.5
141
12.0
290
     0
  0
SCALE
  5
66
102
{ACAD_REACTORS
330
47
102
}
330
47
100
AcDbScale
 70
     0
300
3" = 1'-0"
140
3.0
141
12.0
290
     0
  0
SCALE
  5
67
102
{ACAD_REACTORS
330
47
102
}
330
47
100
AcDbScale
 70
     0
300
6" = 1'-0"
140
6.0
141
12.0
290
     0
  0
SCALE
  5
68
102
{ACAD_REACTORS
330
47
102
}
330
47
100
AcDbScale
 70
     0
300
1'-0" = 1'-0"
140
12.0
141
12.0
290
     0
  0
ENDSEC
  0
EOF
