  0
SECTION
  2
HEADER
  9
$ACADVER
  1
AC1015
  9
$ACADMAINTVER
 70
     6
  9
$DWGCODEPAGE
  3
ANSI_1252
  9
$INSBASE
 10
0.0
 20
0.0
 30
0.0
  9
$EXTMIN
 10
0.0
 20
0.0
 30
0.0
  9
$EXTMAX
 10
297.0
 20
210.0
 30
0.0
  9
$LIMMIN
 10
0.0
 20
0.0
  9
$LIMMAX
 10
297.0
 20
210.0
  9
$ORTHOMODE
 70
     0
  9
$REGENMODE
 70
     1
  9
$FILLMODE
 70
     1
  9
$QTEXTMODE
 70
     0
  9
$MIRRTEXT
 70
     1
  9
$LTSCALE
 40
1.0
  9
$ATTMODE
 70
     1
  9
$TEXTSIZE
 40
2.0
  9
$TRACEWID
 40
1.0
  9
$TEXTSTYLE
  7
Standard
  9
$CLAYER
  8
0
  9
$CELTYPE
  6
ByLayer
  9
$CECOLOR
 62
   256
  9
$CELTSCALE
 40
1.0
  9
$DISPSILH
 70
     0
  9
$DIMSCALE
 40
1.0
  9
$DIMASZ
 40
3.0
  9
$DIMEXO
 40
0.0
  9
$DIMDLI
 40
3.75
  9
$DIMRND
 40
0.0
  9
$DIMDLE
 40
0.0
  9
$DIMEXE
 40
1.0
  9
$DIMTP
 40
0.0
  9
$DIMTM
 40
0.0
  9
$DIMTXT
 40
2.0
  9
$DIMCEN
 40
2.5
  9
$DIMTSZ
 40
0.0
  9
$DIMTOL
 70
     0
  9
$DIMLIM
 70
     0
  9
$DIMTIH
 70
     1
  9
$DIMTOH
 70
     1
  9
$DIMSE1
 70
     0
  9
$DIMSE2
 70
     0
  9
$DIMTAD
 70
     1
  9
$DIMZIN
 70
     0
  9
$DIMBLK
  1

  9
$DIMASO
 70
     1
  9
$DIMSHO
 70
     1
  9
$DIMPOST
  1

  9
$DIMAPOST
  1

  9
$DIMALT
 70
     0
  9
$DIMALTD
 70
     3
  9
$DIMALTF
 40
0.0393700787
  9
$DIMLFAC
 40
1.0
  9
$DIMTOFL
 70
     1
  9
$DIMTVP
 40
0.0
  9
$DIMTIX
 70
     0
  9
$DIMSOXD
 70
     0
  9
$DIMSAH
 70
     0
  9
$DIMBLK1
  1

  9
$DIMBLK2
  1

  9
$DIMSTYLE
  2
ISO-25
  9
$DIMCLRD
 70
     0
  9
$DIMCLRE
 70
     0
  9
$DIMCLRT
 70
     0
  9
$DIMTFAC
 40
1.0
  9
$DIMGAP
 40
1.524
  9
$DIMJUST
 70
     0
  9
$DIMSD1
 70
     0
  9
$DIMSD2
 70
     0
  9
$DIMTOLJ
 70
     0
  9
$DIMTZIN
 70
     0
  9
$DIMALTZ
 70
     0
  9
$DIMALTTZ
 70
     0
  9
$DIMUPT
 70
     0
  9
$DIMDEC
 70
     2
  9
$DIMTDEC
 70
     3
  9
$DIMALTU
 70
     2
  9
$DIMALTTD
 70
     3
  9
$DIMTXSTY
  7
Standard
  9
$DIMAUNIT
 70
     0
  9
$DIMADEC
 70
     2
  9
$DIMALTRND
 40
0.0
  9
$DIMAZIN
 70
     0
  9
$DIMDSEP
 70
    44
  9
$DIMATFIT
 70
     3
  9
$DIMFRAC
 70
     0
  9
$DIMLDRBLK
  1

  9
$DIMLUNIT
 70
     2
  9
$DIMLWD
 70
    -2
  9
$DIMLWE
 70
    -2
  9
$DIMTMOVE
 70
     0
  9
$LUNITS
 70
     2
  9
$LUPREC
 70
     2
  9
$SKETCHINC
 40
1.0
  9
$FILLETRAD
 40
10.0
  9
$AUNITS
 70
     0
  9
$AUPREC
 70
     2
  9
$MENU
  1
.
  9
$ELEVATION
 40
0.0
  9
$PELEVATION
 40
0.0
  9
$THICKNESS
 40
0.0
  9
$LIMCHECK
 70
     0
  9
$CHAMFERA
 40
0.0
  9
$CHAMFERB
 40
0.0
  9
$CHAMFERC
 40
0.0
  9
$CHAMFERD
 40
0.0
  9
$SKPOLY
 70
     0
  9
$TDCREATE
 40
2457668.661435567
  9
$TDUCREATE
 40
2457668.578102234
  9
$TDUPDATE
 40
2457668.661437072
  9
$TDUUPDATE
 40
2457668.578103738
  9
$TDINDWG
 40
0.0000000116
  9
$TDUSRTIMER
 40
0.0000000116
  9
$USRTIMER
 70
     1
  9
$ANGBASE
 50
0.0
  9
$ANGDIR
 70
     0
  9
$PDMODE
 70
     0
  9
$PDSIZE
 40
-1.0
  9
$PLINEWID
 40
0.0
  9
$SPLFRAME
 70
     0
  9
$SPLINETYPE
 70
     6
  9
$SPLINESEGS
 70
     8
  9
$HANDSEED
  5
284
  9
$SURFTAB1
 70
     6
  9
$SURFTAB2
 70
     6
  9
$SURFTYPE
 70
     6
  9
$SURFU
 70
     6
  9
$SURFV
 70
     6
  9
$UCSBASE
  2

  9
$UCSNAME
  2

  9
$UCSORG
 10
0.0
 20
0.0
 30
0.0
  9
$UCSXDIR
 10
1.0
 20
0.0
 30
0.0
  9
$UCSYDIR
 10
0.0
 20
1.0
 30
0.0
  9
$UCSORTHOREF
  2

  9
$UCSORTHOVIEW
 70
     0
  9
$UCSORGTOP
 10
0.0
 20
0.0
 30
0.0
  9
$UCSORGBOTTOM
 10
0.0
 20
0.0
 30
0.0
  9
$UCSORGLEFT
 10
0.0
 20
0.0
 30
0.0
  9
$UCSORGRIGHT
 10
0.0
 20
0.0
 30
0.0
  9
$UCSORGFRONT
 10
0.0
 20
0.0
 30
0.0
  9
$UCSORGBACK
 10
0.0
 20
0.0
 30
0.0
  9
$PUCSBASE
  2

  9
$PUCSNAME
  2

  9
$PUCSORG
 10
0.0
 20
0.0
 30
0.0
  9
$PUCSXDIR
 10
1.0
 20
0.0
 30
0.0
  9
$PUCSYDIR
 10
0.0
 20
1.0
 30
0.0
  9
$PUCSORTHOREF
  2

  9
$PUCSORTHOVIEW
 70
     0
  9
$PUCSORGTOP
 10
0.0
 20
0.0
 30
0.0
  9
$PUCSORGBOTTOM
 10
0.0
 20
0.0
 30
0.0
  9
$PUCSORGLEFT
 10
0.0
 20
0.0
 30
0.0
  9
$PUCSORGRIGHT
 10
0.0
 20
0.0
 30
0.0
  9
$PUCSORGFRONT
 10
0.0
 20
0.0
 30
0.0
  9
$PUCSORGBACK
 10
0.0
 20
0.0
 30
0.0
  9
$USERI1
 70
     0
  9
$USERI2
 70
     0
  9
$USERI3
 70
     0
  9
$USERI4
 70
     0
  9
$USERI5
 70
     0
  9
$USERR1
 40
0.0
  9
$USERR2
 40
0.0
  9
$USERR3
 40
0.0
  9
$USERR4
 40
0.0
  9
$USERR5
 40
0.0
  9
$WORLDVIEW
 70
     1
  9
$SHADEDGE
 70
     3
  9
$SHADEDIF
 70
    70
  9
$TILEMODE
 70
     1
  9
$MAXACTVP
 70
    64
  9
$PINSBASE
 10
0.0
 20
0.0
 30
0.0
  9
$PLIMCHECK
 70
     0
  9
$PEXTMIN
 10
1.0000000000E+20
 20
1.0000000000E+20
 30
1.0000000000E+20
  9
$PEXTMAX
 10
-1.0000000000E+20
 20
-1.0000000000E+20
 30
-1.0000000000E+20
  9
$PLIMMIN
 10
0.0
 20
0.0
  9
$PLIMMAX
 10
420.0
 20
297.0
  9
$UNITMODE
 70
     0
  9
$VISRETAIN
 70
     1
  9
$PLINEGEN
 70
     0
  9
$PSLTSCALE
 70
     1
  9
$TREEDEPTH
 70
  3020
  9
$CMLSTYLE
  2
Standard
  9
$CMLJUST
 70
     0
  9
$CMLSCALE
 40
20.0
  9
$PROXYGRAPHICS
 70
     1
  9
$MEASUREMENT
 70
     1
  9
$CELWEIGHT
370
    -1
  9
$ENDCAPS
280
     0
  9
$JOINSTYLE
280
     0
  9
$LWDISPLAY
290
     1
  9
$INSUNITS
 70
     4
  9
$HYPERLINKBASE
  1

  9
$STYLESHEET
  1

  9
$XEDIT
290
     1
  9
$CEPSNTYPE
380
     0
  9
$PSTYLEMODE
290
     1
  9
$FINGERPRINTGUID
  2
{F9FD43D6-2654-4F26-A1FC-70C31C793ED9}
  9
$VERSIONGUID
  2
{FAEB1C32-E019-11D5-929B-00C0DF256EC4}
  9
$EXTNAMES
290
     1
  9
$PSVPSCALE
 40
0.0
  9
$OLESTARTUP
290
     0
  0
ENDSEC
  0
SECTION
  2
CLASSES
  0
CLASS
  1
ACDBDICTIONARYWDFLT
  2
AcDbDictionaryWithDefault
  3
ObjectDBX Classes
 90
        0
280
     0
281
     0
  0
CLASS
  1
VISUALSTYLE
  2
AcDbVisualStyle
  3
ObjectDBX Classes
 90
     4095
280
     0
281
     0
  0
CLASS
  1
MATERIAL
  2
AcDbMaterial
  3
ObjectDBX Classes
 90
     1153
280
     0
281
     0
  0
CLASS
  1
SCALE
  2
AcDbScale
  3
ObjectDBX Classes
 90
     1153
280
     0
281
     0
  0
CLASS
  1
TABLESTYLE
  2
AcDbTableStyle
  3
ObjectDBX Classes
 90
     4095
280
     0
281
     0
  0
CLASS
  1
MLEADERSTYLE
  2
AcDbMLeaderStyle
  3
ACDB_MLEADERSTYLE_CLASS
 90
     4095
280
     0
281
     0
  0
CLASS
  1
SUN
  2
AcDbSun
  3
SCENEOE
 90
     1153
280
     0
281
     0
  0
CLASS
  1
ACDBPLACEHOLDER
  2
AcDbPlaceHolder
  3
ObjectDBX Classes
 90
        0
280
     0
281
     0
  0
CLASS
  1
LAYOUT
  2
AcDbLayout
  3
ObjectDBX Classes
 90
        0
280
     0
281
     0
  0
ENDSEC
  0
SECTION
  2
TABLES
  0
TABLE
  2
VPORT
  5
8
330
0
100
AcDbSymbolTable
 70
     1
  0
VPORT
  5
29
330
8
100
AcDbSymbolTableRecord
100
AcDbViewportTableRecord
  2
*Active
 70
     0
 10
0.0
 20
0.0
 11
1.0
 21
1.0
 12
148.5
 22
105.0
 13
0.0
 23
0.0
 14
10.0
 24
10.0
 15
10.0
 25
10.0
 16
0.0
 26
0.0
 36
1.0
 17
0.0
 27
0.0
 37
0.0
 40
210.0
 41
1.4142857143
 42
50.0
 43
0.0
 44
0.0
 50
0.0
 51
0.0
 71
     0
 72
  2000
 73
     1
 74
     3
 75
     0
 76
     0
 77
     0
 78
     0
281
     0
 65
     1
110
0.0
120
0.0
130
0.0
111
1.0
121
0.0
131
0.0
112
0.0
122
1.0
132
0.0
 79
     0
146
0.0
  0
ENDTAB
  0
TABLE
  2
LTYPE
  5
5
330
0
100
AcDbSymbolTable
 70
     6
  0
LTYPE
  5
14
330
5
100
AcDbSymbolTableRecord
100
AcDbLinetypeTableRecord
  2
ByBlock
 70
     0
  3

 72
    65
 73
     0
 40
0.0
  0
LTYPE
  5
15
330
5
100
AcDbSymbolTableRecord
100
AcDbLinetypeTableRecord
  2
ByLayer
 70
     0
  3

 72
    65
 73
     0
 40
0.0
  0
LTYPE
  5
16
330
5
100
AcDbSymbolTableRecord
100
AcDbLinetypeTableRecord
  2
Continuous
 70
     0
  3
Solid line
 72
    65
 73
     0
 40
0.0
  0
LTYPE
  5
6E
330
5
100
AcDbSymbolTableRecord
100
AcDbLinetypeTableRecord
  2
HIDDEN
 70
     0
  3
Hidden __ __ __ __ __ __ __ __ __ __ __ __ __ __
 72
    65
 73
     2
 40
1.905
 49
1.27
 74
     0
 49
-0.635
 74
     0
  0
LTYPE
  5
6F
330
5
100
AcDbSymbolTableRecord
100
AcDbLinetypeTableRecord
  2
PHANTOM
 70
     0
  3
Phantom ______  __  __  ______  __  __  ______
 72
    65
 73
     6
 40
12.7
 49
6.35
 74
     0
 49
-1.27
 74
     0
 49
1.27
 74
     0
 49
-1.27
 74
     0
 49
1.27
 74
     0
 49
-1.27
 74
     0
  0
LTYPE
  5
70
330
5
100
AcDbSymbolTableRecord
100
AcDbLinetypeTableRecord
  2
CENTER
 70
     0
  3
Center ____ _ ____ _ ____ _ ____ _ ____ _ ____
 72
    65
 73
     4
 40
10.16
 49
6.35
 74
     0
 49
-1.27
 74
     0
 49
1.27
 74
     0
 49
-1.27
 74
     0
  0
LTYPE
  5
71
330
5
100
AcDbSymbolTableRecord
100
AcDbLinetypeTableRecord
  2
CENTERX2
 70
     0
  3
Center (2x) ________  __  ________  __  _____
 72
    65
 73
     4
 40
20.32
 49
12.7
 74
     0
 49
-2.54
 74
     0
 49
2.54
 74
     0
 49
-2.54
 74
     0
  0
LTYPE
  5
72
330
5
100
AcDbSymbolTableRecord
100
AcDbLinetypeTableRecord
  2
DOT2
 70
     0
  3
Dot (.5x) ........................................
 72
    65
 73
     2
 40
0.635
 49
0.0
 74
     0
 49
-0.635
 74
     0
  0
ENDTAB
  0
TABLE
  2
LAYER
  5
2
330
0
100
AcDbSymbolTable
 70
     5
  0
LAYER
  5
10
330
2
100
AcDbSymbolTableRecord
100
AcDbLayerTableRecord
  2
0
 70
     0
 62
     7
  6
Continuous
370
    -3
390
F
  0
LAYER
  5
73
330
2
100
AcDbSymbolTableRecord
100
AcDbLayerTableRecord
  2
FORMAT
 70
     0
 62
     7
  6
Continuous
370
    -3
390
F
  0
LAYER
  5
74
330
2
100
AcDbSymbolTableRecord
100
AcDbLayerTableRecord
  2
VERMASSUNG
 70
     0
 62
     7
  6
Continuous
370
    -3
390
F
  0
LAYER
  5
75
330
2
100
AcDbSymbolTableRecord
100
AcDbLayerTableRecord
  2
KOPF_DÜNN
 70
     0
 62
     7
  6
Continuous
370
    -3
390
F
  0
LAYER
  5
76
330
2
100
AcDbSymbolTableRecord
100
AcDbLayerTableRecord
  2
KOPF_DICK
 70
     0
 62
     7
  6
Continuous
370
    15
390
F
  0
ENDTAB
  0
TABLE
  2
STYLE
  5
3
330
0
100
AcDbSymbolTable
 70
     3
  0
STYLE
  5
11
330
3
100
AcDbSymbolTableRecord
100
AcDbTextStyleTableRecord
  2
Standard
 70
     0
 40
0.0
 41
1.0
 50
0.0
 71
     0
 42
2.0
  3
txt
  4

  0
STYLE
  5
77
330
3
100
AcDbSymbolTableRecord
100
AcDbTextStyleTableRecord
  2
SLDTEXTSTYLE0
 70
     0
 40
0.0
 41
0.7
 50
0.0
 71
     0
 42
2.0
  3
TXT
  4

  0
STYLE
  5
19C
330
3
100
AcDbSymbolTableRecord
100
AcDbTextStyleTableRecord
  2
SLDTEXTSTYLE1
 70
     0
 40
0.0
 41
0.65
 50
0.0
 71
     0
 42
2.0
  3
TXT
  4

  0
ENDTAB
  0
TABLE
  2
VIEW
  5
6
330
0
100
AcDbSymbolTable
 70
     0
  0
ENDTAB
  0
TABLE
  2
UCS
  5
7
330
0
100
AcDbSymbolTable
 70
     0
  0
ENDTAB
  0
TABLE
  2
APPID
  5
9
330
0
100
AcDbSymbolTable
 70
     1
  0
APPID
  5
12
330
9
100
AcDbSymbolTableRecord
100
AcDbRegAppTableRecord
  2
ACAD
 70
     0
  0
ENDTAB
  0
TABLE
  2
DIMSTYLE
  5
A
330
0
100
AcDbSymbolTable
 70
     2
100
AcDbDimStyleTable
  0
DIMSTYLE
105
27
330
A
100
AcDbSymbolTableRecord
100
AcDbDimStyleTableRecord
  2
ISO-25
 70
     0
 41
2.5
 42
0.625
 43
3.75
 44
1.25
 73
     0
 74
     0
 77
     1
 78
     8
140
2.5
141
2.5
143
0.0393700787
147
0.625
171
     3
172
     1
178
     0
271
     2
272
     2
274
     3
278
    44
283
     0
284
     8
340
11
  0
DIMSTYLE
105
17C
102
{ACAD_REACTORS
330
17B
330
188
330
193
330
1A0
330
1AC
330
1B6
102
}
330
A
100
AcDbSymbolTableRecord
100
AcDbDimStyleTableRecord
  2
SLDDIMSTYLE0
 70
     0
 41
3.0
 44
0.0
 45
0.000000001
 73
     0
 74
     0
 77
     1
 78
    12
 79
     3
140
2.0
147
0.5
173
     1
178
     0
271
     2
272
     3
276
     2
284
    12
340
77
  0
ENDTAB
  0
TABLE
  2
BLOCK_RECORD
  5
1
330
0
100
AcDbSymbolTable
 70
     7
  0
BLOCK_RECORD
  5
1F
330
1
100
AcDbSymbolTableRecord
100
AcDbBlockTableRecord
  2
*Model_Space
340
22
  0
BLOCK_RECORD
  5
1B
330
1
100
AcDbSymbolTableRecord
100
AcDbBlockTableRecord
  2
*Paper_Space
340
1E
  0
BLOCK_RECORD
  5
23
330
1
100
AcDbSymbolTableRecord
100
AcDbBlockTableRecord
  2
*Paper_Space0
340
26
  0
BLOCK_RECORD
  5
17D
330
1
100
AcDbSymbolTableRecord
100
AcDbBlockTableRecord
  2
_D
340
0
  0
BLOCK_RECORD
  5
189
330
1
100
AcDbSymbolTableRecord
100
AcDbBlockTableRecord
  2
_D_1
340
0
  0
BLOCK_RECORD
  5
194
330
1
100
AcDbSymbolTableRecord
100
AcDbBlockTableRecord
  2
_D_2
340
0
  0
BLOCK_RECORD
  5
1A1
330
1
100
AcDbSymbolTableRecord
100
AcDbBlockTableRecord
  2
_D_3
340
0
  0
BLOCK_RECORD
  5
1AD
330
1
100
AcDbSymbolTableRecord
100
AcDbBlockTableRecord
  2
_D_4
340
0
  0
BLOCK_RECORD
  5
1B7
330
1
100
AcDbSymbolTableRecord
100
AcDbBlockTableRecord
  2
_D_5
340
0
  0
ENDTAB
  0
ENDSEC
  0
SECTION
  2
BLOCKS
  0
BLOCK
  5
20
330
1F
100
AcDbEntity
  8
0
100
AcDbBlockBegin
  2
*Model_Space
 70
     0
 10
0.0
 20
0.0
 30
0.0
  3
*Model_Space
  1

  0
ENDBLK
  5
21
330
1F
100
AcDbEntity
  8
0
100
AcDbBlockEnd
  0
BLOCK
  5
1C
330
1B
100
AcDbEntity
 67
     1
  8
0
100
AcDbBlockBegin
  2
*Paper_Space
 70
     0
 10
0.0
 20
0.0
 30
0.0
  3
*Paper_Space
  1

  0
ENDBLK
  5
1D
330
1B
100
AcDbEntity
 67
     1
  8
0
100
AcDbBlockEnd
  0
BLOCK
  5
24
330
23
100
AcDbEntity
  8
0
100
AcDbBlockBegin
  2
*Paper_Space0
 70
     0
 10
0.0
 20
0.0
 30
0.0
  3
*Paper_Space0
  1

  0
ENDBLK
  5
25
330
23
100
AcDbEntity
  8
0
100
AcDbBlockEnd
  0
BLOCK
  5
17E
330
17D
100
AcDbEntity
  8
0
100
AcDbBlockBegin
  2
_D
 70
     0
 10
0.0
 20
0.0
 30
0.0
  3
_D
  1

  0
SOLID
  5
180
330
17D
100
AcDbEntity
  8
VERMASSUNG
100
AcDbTrace
 10
203.8660544014
 20
131.2522080512
 30
0.0
 11
203.4160544014
 21
128.2522080512
 31
0.0
 12
204.3160544014
 22
128.2522080512
 32
0.0
 13
204.3160544014
 23
128.2522080512
 33
0.0
  0
SOLID
  5
181
330
17D
100
AcDbEntity
  8
VERMASSUNG
100
AcDbTrace
 10
203.8660544014
 20
81.2522080512
 30
0.0
 11
204.3160544014
 21
84.2522080512
 31
0.0
 12
203.4160544014
 22
84.2522080512
 32
0.0
 13
203.4160544014
 23
84.2522080512
 33
0.0
  0
LINE
  5
182
330
17D
100
AcDbEntity
  8
VERMASSUNG
100
AcDbLine
 10
191.117751042
 20
131.2522080512
 30
0.0
 11
204.8660544014
 21
131.2522080512
 31
0.0
  0
LINE
  5
183
330
17D
100
AcDbEntity
  8
VERMASSUNG
100
AcDbLine
 10
191.117751042
 20
81.2522080512
 30
0.0
 11
204.8660544014
 21
81.2522080512
 31
0.0
  0
LINE
  5
184
330
17D
100
AcDbEntity
  8
VERMASSUNG
100
AcDbLine
 10
203.8660544014
 20
131.2522080512
 30
0.0
 11
203.8660544014
 21
81.2522080512
 31
0.0
  0
MTEXT
  5
185
330
17D
100
AcDbEntity
  8
VERMASSUNG
100
AcDbMText
 10
201.0879191452
 20
100.1482801419
 30
0.0
 40
2.0
 41
0.0
 71
     1
 72
     1
  1
ST5
  7
SLDTEXTSTYLE0
 11
-7.044195017643634E-15
 21
1.0
 31
0.0
 73
     1
 44
1.0
  0
MTEXT
  5
186
330
17D
100
AcDbEntity
  8
VERMASSUNG
100
AcDbMText
 10
201.2879190965
 20
105.9482800681
 30
0.0
 40
2.0
 41
0.0
 71
     1
 72
     1
  1
%%c
  7
SLDTEXTSTYLE0
 11
-7.044195017643634E-15
 21
1.0
 31
0.0
 73
     1
 44
1.0
  0
MTEXT
  5
187
330
17D
100
AcDbEntity
  8
VERMASSUNG
100
AcDbMText
 10
201.2879188054
 20
109.55675594
 30
0.0
 40
2.0
 41
0.0
 71
     1
 72
     1
  1
50
  7
SLDTEXTSTYLE0
 11
-7.044195017643634E-15
 21
1.0
 31
0.0
 73
     1
 44
1.0
  0
ENDBLK
  5
17F
330
17D
100
AcDbEntity
  8
0
100
AcDbBlockEnd
  0
BLOCK
  5
18A
330
189
100
AcDbEntity
  8
0
100
AcDbBlockBegin
  2
_D_1
 70
     0
 10
0.0
 20
0.0
 30
0.0
  3
_D_1
  1

  0
SOLID
  5
18C
330
189
100
AcDbEntity
  8
VERMASSUNG
100
AcDbTrace
 10
197.8660544014
 20
120.2522080512
 30
0.0
 11
197.4160544014
 21
117.2522080512
 31
0.0
 12
198.3160544014
 22
117.2522080512
 32
0.0
 13
198.3160544014
 23
117.2522080512
 33
0.0
  0
SOLID
  5
18D
330
189
100
AcDbEntity
  8
VERMASSUNG
100
AcDbTrace
 10
197.8660544014
 20
92.2522080512
 30
0.0
 11
198.3160544014
 21
95.2522080512
 31
0.0
 12
197.4160544014
 22
95.2522080512
 32
0.0
 13
197.4160544014
 23
95.2522080512
 33
0.0
  0
LINE
  5
18E
330
189
100
AcDbEntity
  8
VERMASSUNG
100
AcDbLine
 10
178.017751042
 20
120.2522080512
 30
0.0
 11
198.8660544014
 21
120.2522080512
 31
0.0
  0
LINE
  5
18F
330
189
100
AcDbEntity
  8
VERMASSUNG
100
AcDbLine
 10
178.017751042
 20
92.2522080512
 30
0.0
 11
198.8660544014
 21
92.2522080512
 31
0.0
  0
LINE
  5
190
330
189
100
AcDbEntity
  8
VERMASSUNG
100
AcDbLine
 10
197.8660544014
 20
120.2522080512
 30
0.0
 11
197.8660544014
 21
92.2522080512
 31
0.0
  0
MTEXT
  5
191
330
189
100
AcDbEntity
  8
VERMASSUNG
100
AcDbMText
 10
195.2879188637
 20
103.0480319441
 30
0.0
 40
2.0
 41
0.0
 71
     1
 72
     1
  1
%%c
  7
SLDTEXTSTYLE0
 11
-7.044195017643634E-15
 21
1.0
 31
0.0
 73
     1
 44
1.0
  0
MTEXT
  5
192
330
189
100
AcDbEntity
  8
VERMASSUNG
100
AcDbMText
 10
195.2879188054
 20
106.6570041377
 30
0.0
 40
2.0
 41
0.0
 71
     1
 72
     1
  1
28
  7
SLDTEXTSTYLE0
 11
-7.044195017643634E-15
 21
1.0
 31
0.0
 73
     1
 44
1.0
  0
ENDBLK
  5
18B
330
189
100
AcDbEntity
  8
0
100
AcDbBlockEnd
  0
BLOCK
  5
195
330
194
100
AcDbEntity
  8
0
100
AcDbBlockBegin
  2
_D_2
 70
     0
 10
0.0
 20
0.0
 30
0.0
  3
_D_2
  1

  0
SOLID
  5
197
330
194
100
AcDbEntity
  8
VERMASSUNG
100
AcDbTrace
 10
97.2816138333
 20
137.7522080512
 30
0.0
 11
96.8316138333
 21
134.7522080512
 31
0.0
 12
97.7316138333
 22
134.7522080512
 32
0.0
 13
97.7316138333
 23
134.7522080512
 33
0.0
  0
SOLID
  5
198
330
194
100
AcDbEntity
  8
VERMASSUNG
100
AcDbTrace
 10
97.2816138333
 20
74.7522080512
 30
0.0
 11
97.7316138333
 21
77.7522080512
 31
0.0
 12
96.8316138333
 22
77.7522080512
 32
0.0
 13
96.8316138333
 23
77.7522080512
 33
0.0
  0
LINE
  5
199
330
194
100
AcDbEntity
  8
VERMASSUNG
100
AcDbLine
 10
132.917751042
 20
137.7522080512
 30
0.0
 11
96.2816138333
 21
137.7522080512
 31
0.0
  0
LINE
  5
19A
330
194
100
AcDbEntity
  8
VERMASSUNG
100
AcDbLine
 10
132.917751042
 20
74.7522080512
 30
0.0
 11
96.2816138333
 21
74.7522080512
 31
0.0
  0
LINE
  5
19B
330
194
100
AcDbEntity
  8
VERMASSUNG
100
AcDbLine
 10
97.2816138333
 20
137.7522080512
 30
0.0
 11
97.2816138333
 21
74.7522080512
 31
0.0
  0
MTEXT
  5
19D
330
194
100
AcDbEntity
  8
VERMASSUNG
100
AcDbMText
 10
94.5034785771
 20
96.5481318411
 30
0.0
 40
2.0
 41
0.0
 71
     1
 72
     1
  1
HSK A 63
  7
SLDTEXTSTYLE1
 11
-7.044195017643634E-15
 21
1.0
 31
0.0
 73
     1
 44
1.0
  0
MTEXT
  5
19E
330
194
100
AcDbEntity
  8
VERMASSUNG
100
AcDbMText
 10
94.7034785284
 20
109.5481321094
 30
0.0
 40
2.0
 41
0.0
 71
     1
 72
     1
  1
%%c
  7
SLDTEXTSTYLE0
 11
-7.044195017643634E-15
 21
1.0
 31
0.0
 73
     1
 44
1.0
  0
MTEXT
  5
19F
330
194
100
AcDbEntity
  8
VERMASSUNG
100
AcDbMText
 10
94.7034782373
 20
113.1569042407
 30
0.0
 40
2.0
 41
0.0
 71
     1
 72
     1
  1
63
  7
SLDTEXTSTYLE0
 11
-7.044195017643634E-15
 21
1.0
 31
0.0
 73
     1
 44
1.0
  0
ENDBLK
  5
196
330
194
100
AcDbEntity
  8
0
100
AcDbBlockEnd
  0
BLOCK
  5
1A2
330
1A1
100
AcDbEntity
  8
0
100
AcDbBlockBegin
  2
_D_3
 70
     0
 10
0.0
 20
0.0
 30
0.0
  3
_D_3
  1

  0
ARC
  5
1A4
330
1A1
100
AcDbEntity
  8
VERMASSUNG
100
AcDbCircle
 10
145.9799410523
 20
154.9425757267
 30
0.0
 40
4.247059938537284
100
AcDbArc
 50
153.4349488229
 51
206.5650511771
  0
ARC
  5
1A5
330
1A1
100
AcDbEntity
  8
VERMASSUNG
100
AcDbCircle
 10
146.3555610317
 20
154.9425757267
 30
0.0
 40
4.24705993853731
100
AcDbArc
 50
333.4349488229
 51
26.5650511771
  0
SOLID
  5
1A6
330
1A1
100
AcDbEntity
  8
VERMASSUNG
100
AcDbTrace
 10
100.717751042
 20
153.0432327812
 30
0.0
 11
103.717751042
 21
152.5932327812
 31
0.0
 12
103.717751042
 22
153.4932327812
 32
0.0
 13
103.717751042
 23
153.4932327812
 33
0.0
  0
SOLID
  5
1A7
330
1A1
100
AcDbEntity
  8
VERMASSUNG
100
AcDbTrace
 10
191.617751042
 20
153.0432327812
 30
0.0
 11
188.617751042
 21
153.4932327812
 31
0.0
 12
188.617751042
 22
152.5932327812
 32
0.0
 13
188.617751042
 23
152.5932327812
 33
0.0
  0
LINE
  5
1A8
330
1A1
100
AcDbEntity
  8
VERMASSUNG
100
AcDbLine
 10
100.717751042
 20
125.9428857977
 30
0.0
 11
100.717751042
 21
154.0432327812
 31
0.0
  0
LINE
  5
1A9
330
1A1
100
AcDbEntity
  8
VERMASSUNG
100
AcDbLine
 10
191.617751042
 20
130.7522080512
 30
0.0
 11
191.617751042
 21
154.0432327812
 31
0.0
  0
LINE
  5
1AA
330
1A1
100
AcDbEntity
  8
VERMASSUNG
100
AcDbLine
 10
100.717751042
 20
153.0432327812
 30
0.0
 11
191.617751042
 21
153.0432327812
 31
0.0
  0
MTEXT
  5
1AB
330
1A1
100
AcDbEntity
  8
VERMASSUNG
100
AcDbMText
 10
143.7687551614
 20
155.6213683772
 30
0.0
 40
2.0
 41
0.0
 71
     1
 72
     1
  1
90.9
  7
SLDTEXTSTYLE0
 73
     1
 44
1.0
  0
ENDBLK
  5
1A3
330
1A1
100
AcDbEntity
  8
0
100
AcDbBlockEnd
  0
BLOCK
  5
1AE
330
1AD
100
AcDbEntity
  8
0
100
AcDbBlockBegin
  2
_D_4
 70
     0
 10
0.0
 20
0.0
 30
0.0
  3
_D_4
  1

  0
SOLID
  5
1B0
330
1AD
100
AcDbEntity
  8
VERMASSUNG
100
AcDbTrace
 10
132.617751042
 20
147.0432327812
 30
0.0
 11
135.617751042
 21
146.5932327812
 31
0.0
 12
135.617751042
 22
147.4932327812
 32
0.0
 13
135.617751042
 23
147.4932327812
 33
0.0
  0
SOLID
  5
1B1
330
1AD
100
AcDbEntity
  8
VERMASSUNG
100
AcDbTrace
 10
191.617751042
 20
147.0432327812
 30
0.0
 11
188.617751042
 21
147.4932327812
 31
0.0
 12
188.617751042
 22
146.5932327812
 32
0.0
 13
188.617751042
 23
146.5932327812
 33
0.0
  0
LINE
  5
1B2
330
1AD
100
AcDbEntity
  8
VERMASSUNG
100
AcDbLine
 10
132.617751042
 20
137.4522080512
 30
0.0
 11
132.617751042
 21
148.0432327812
 31
0.0
  0
LINE
  5
1B3
330
1AD
100
AcDbEntity
  8
VERMASSUNG
100
AcDbLine
 10
191.617751042
 20
130.7522080512
 30
0.0
 11
191.617751042
 21
148.0432327812
 31
0.0
  0
LINE
  5
1B4
330
1AD
100
AcDbEntity
  8
VERMASSUNG
100
AcDbLine
 10
132.617751042
 20
147.0432327812
 30
0.0
 11
191.617751042
 21
147.0432327812
 31
0.0
  0
MTEXT
  5
1B5
330
1AD
100
AcDbEntity
  8
VERMASSUNG
100
AcDbMText
 10
160.7180610317
 20
149.6213683772
 30
0.0
 40
2.0
 41
0.0
 71
     1
 72
     1
  1
59
  7
SLDTEXTSTYLE0
 73
     1
 44
1.0
  0
ENDBLK
  5
1AF
330
1AD
100
AcDbEntity
  8
0
100
AcDbBlockEnd
  0
BLOCK
  5
1B8
330
1B7
100
AcDbEntity
  8
0
100
AcDbBlockBegin
  2
_D_5
 70
     0
 10
0.0
 20
0.0
 30
0.0
  3
_D_5
  1

  0
ARC
  5
1BA
330
1B7
100
AcDbEntity
  8
VERMASSUNG
100
AcDbCircle
 10
174.2045445538
 20
142.9425757267
 30
0.0
 40
4.247059938537386
100
AcDbArc
 50
153.4349488229
 51
206.5650511771
  0
ARC
  5
1BB
330
1B7
100
AcDbEntity
  8
VERMASSUNG
100
AcDbCircle
 10
175.9809575301
 20
142.9425757267
 30
0.0
 40
4.247059938537361
100
AcDbArc
 50
333.4349488229
 51
26.5650511771
  0
SOLID
  5
1BC
330
1B7
100
AcDbEntity
  8
VERMASSUNG
100
AcDbTrace
 10
158.567751042
 20
141.0432327812
 30
0.0
 11
161.567751042
 21
140.5932327812
 31
0.0
 12
161.567751042
 22
141.4932327812
 32
0.0
 13
161.567751042
 23
141.4932327812
 33
0.0
  0
SOLID
  5
1BD
330
1B7
100
AcDbEntity
  8
VERMASSUNG
100
AcDbTrace
 10
191.617751042
 20
141.0432327812
 30
0.0
 11
188.617751042
 21
141.4932327812
 31
0.0
 12
188.617751042
 22
140.5932327812
 32
0.0
 13
188.617751042
 23
140.5932327812
 33
0.0
  0
LINE
  5
1BE
330
1B7
100
AcDbEntity
  8
VERMASSUNG
100
AcDbLine
 10
158.567751042
 20
136.098648375
 30
0.0
 11
158.567751042
 21
142.0432327812
 31
0.0
  0
LINE
  5
1BF
330
1B7
100
AcDbEntity
  8
VERMASSUNG
100
AcDbLine
 10
191.617751042
 20
130.7522080512
 30
0.0
 11
191.617751042
 21
142.0432327812
 31
0.0
  0
LINE
  5
1C0
330
1B7
100
AcDbEntity
  8
VERMASSUNG
100
AcDbLine
 10
158.567751042
 20
141.0432327812
 30
0.0
 11
191.617751042
 21
141.0432327812
 31
0.0
  0
MTEXT
  5
1C1
330
1B7
100
AcDbEntity
  8
VERMASSUNG
100
AcDbMText
 10
171.993358663
 20
143.6213683772
 30
0.0
 40
2.0
 41
0.0
 71
     1
 72
     1
  1
33.05
  7
SLDTEXTSTYLE0
 73
     1
 44
1.0
  0
ENDBLK
  5
1B9
330
1B7
100
AcDbEntity
  8
0
100
AcDbBlockEnd
  0
ENDSEC
  0
SECTION
  2
ENTITIES
  0
MTEXT
  5
78
330
1F
100
AcDbEntity
  8
KOPF_DÜNN
100
AcDbMText
 10
13.8892156294
 20
23.8442973028
 30
0.0
 40
3.0
 41
0.0
 71
     1
 72
     1
  1
144.806.050.059
  7
SLDTEXTSTYLE0
 73
     1
 44
1.0
  0
MTEXT
  5
79
330
1F
100
AcDbEntity
  8
VERMASSUNG
100
AcDbMText
 10
13.9329988022
 20
28.8834360957
 30
0.0
 40
3.0
 41
0.0
 71
     1
 72
     1
  1
Aufnahme_Master shank ST5
  7
SLDTEXTSTYLE0
 73
     1
 44
1.0
  0
MTEXT
  5
7A
330
1F
100
AcDbEntity
  8
VERMASSUNG
100
AcDbMText
 10
98.8601118557
 20
13.8365368761
 30
0.0
 40
2.0
 41
0.0
 71
     1
 72
     1
  1
Datum: 10.06.2008
  7
SLDTEXTSTYLE0
 73
     1
 44
1.0
  0
MTEXT
  5
7B
330
1F
100
AcDbEntity
  8
VERMASSUNG
100
AcDbMText
 10
13.933048693
 20
18.0482802738
 30
0.0
 40
2.0
 41
0.0
 71
     1
 72
     1
  1
DIN 69893 HSK A 63
  7
SLDTEXTSTYLE0
 73
     1
 44
1.0
  0
MTEXT
  5
7C
330
1F
100
AcDbEntity
  8
VERMASSUNG
100
AcDbMText
 10
13.9808475933
 20
13.9090974274
 30
0.0
 40
2.0
 41
0.0
 71
     1
 72
     1
  1
Gewicht: 987g
  7
SLDTEXTSTYLE0
 73
     1
 44
1.0
  0
ARC
  5
7D
330
1F
100
AcDbEntity
  8
0
  6
Continuous
 62
     7
370
    15
100
AcDbCircle
 10
132.917751042
 20
75.0522080512
 30
0.0
 40
0.3000000000000114
100
AcDbArc
 50
180.0
 51
270.0
  0
ARC
  5
7E
330
1F
100
AcDbEntity
  8
0
  6
Continuous
 62
     7
370
    15
100
AcDbCircle
 10
132.917751042
 20
137.4522080512
 30
0.0
 40
0.3000000000000114
100
AcDbArc
 50
90.0
 51
180.0
  0
LINE
  5
7F
330
1F
100
AcDbEntity
  8
0
  6
Continuous
 62
     7
370
    15
100
AcDbLine
 10
132.917751042
 20
74.7522080512
 30
0.0
 11
137.567751042
 21
74.7522080512
 31
0.0
  0
LINE
  5
80
330
1F
100
AcDbEntity
  8
0
  6
Continuous
 62
     7
370
    15
100
AcDbLine
 10
137.595739401
 20
137.7522080512
 30
0.0
 11
132.917751042
 21
137.7522080512
 31
0.0
  0
ARC
  5
81
330
1F
100
AcDbEntity
  8
0
  6
Continuous
 62
     7
370
    15
100
AcDbCircle
 10
159.567751042
 20
80.2522080512
 30
0.0
 40
1.0
100
AcDbArc
 50
90.0
 51
180.0
  0
ARC
  5
82
330
1F
100
AcDbEntity
  8
0
  6
Continuous
 62
     7
370
    15
100
AcDbCircle
 10
159.567751042
 20
132.2522080512
 30
0.0
 40
1.0
100
AcDbArc
 50
180.0
 51
270.0
  0
LINE
  5
83
330
1F
100
AcDbEntity
  8
0
  6
Continuous
 62
     7
370
    15
100
AcDbLine
 10
191.117751042
 20
81.2522080512
 30
0.0
 11
191.617751042
 21
81.7522080512
 31
0.0
  0
LINE
  5
84
330
1F
100
AcDbEntity
  8
0
  6
Continuous
 62
     7
370
    15
100
AcDbLine
 10
191.617751042
 20
130.7522080512
 30
0.0
 11
191.117751042
 21
131.2522080512
 31
0.0
  0
LINE
  5
85
330
1F
100
AcDbEntity
  8
0
  6
Continuous
 62
     7
370
    15
100
AcDbLine
 10
191.117751042
 20
131.2522080512
 30
0.0
 11
159.567751042
 21
131.2522080512
 31
0.0
  0
LINE
  5
86
330
1F
100
AcDbEntity
  8
0
  6
Continuous
 62
     7
370
    15
100
AcDbLine
 10
159.567751042
 20
81.2522080512
 30
0.0
 11
191.117751042
 21
81.2522080512
 31
0.0
  0
ARC
  5
87
330
1F
100
AcDbEntity
  8
0
  6
Continuous
 62
     7
370
    15
100
AcDbCircle
 10
132.1177442893
 20
81.6817704368
 30
0.0
 40
0.6000067526677361
100
AcDbArc
 50
33.5571153394
 51
90.0
  0
ARC
  5
88
330
1F
100
AcDbEntity
  8
0
  6
Continuous
 62
     7
370
    15
100
AcDbCircle
 10
132.1177442893
 20
130.8226456656
 30
0.0
 40
0.6000067526677282
100
AcDbArc
 50
270.0
 51
326.4428846606
  0
LINE
  5
89
330
1F
100
AcDbEntity
  8
0
  6
Continuous
 62
     7
370
    15
100
AcDbLine
 10
130.617751042
 20
82.0317771895
 30
0.0
 11
131.4744638153
 21
82.2613326853
 31
0.0
  0
LINE
  5
8A
330
1F
100
AcDbEntity
  8
0
  6
Continuous
 62
     7
370
    15
100
AcDbLine
 10
131.4744638153
 20
130.2430834172
 30
0.0
 11
130.617751042
 21
130.4726389129
 31
0.0
  0
LINE
  5
8B
330
1F
100
AcDbEntity
  8
0
  6
Continuous
 62
     7
370
    15
100
AcDbLine
 10
119.3862422431
 20
129.9099380713
 30
0.0
 11
106.817751042
 21
129.2802541434
 31
0.0
  0
LINE
  5
8C
330
1F
100
AcDbEntity
  8
0
  6
Continuous
 62
     7
370
    15
100
AcDbLine
 10
130.617751042
 20
130.4726389129
 30
0.0
 11
127.8007493846
 21
130.3315065654
 31
0.0
  0
LINE
  5
8D
330
1F
100
AcDbEntity
  8
0
  6
Continuous
 62
     7
370
    15
100
AcDbLine
 10
127.8008054747
 20
82.1729067269
 30
0.0
 11
130.617751042
 21
82.0317771895
 31
0.0
  0
LINE
  5
8E
330
1F
100
AcDbEntity
  8
0
  6
Continuous
 62
     7
370
    15
100
AcDbLine
 10
110.817751042
 20
83.0237611574
 30
0.0
 11
119.3866447618
 21
82.5944578649
 31
0.0
  0
ARC
  5
8F
330
1F
100
AcDbEntity
  8
0
  6
Continuous
 62
     7
370
    15
100
AcDbCircle
 10
131.6297552424
 20
81.6817771895
 30
0.0
 40
0.6000000000000145
100
AcDbArc
 50
90.0
 51
105.0
  0
ARC
  5
90
330
1F
100
AcDbEntity
  8
0
  6
Continuous
 62
     7
370
    15
100
AcDbCircle
 10
131.6297552424
 20
130.8226389129
 30
0.0
 40
0.6000000000000282
100
AcDbArc
 50
255.0
 51
270.0
  0
LINE
  5
91
330
1F
100
AcDbEntity
  8
0
  6
Continuous
 62
     7
370
    15
100
AcDbLine
 10
131.6297552424
 20
82.2817771895
 30
0.0
 11
132.1177442893
 21
82.2817771895
 31
0.0
  0
LINE
  5
92
330
1F
100
AcDbEntity
  8
0
  6
Continuous
 62
     7
370
    15
100
AcDbLine
 10
132.1177442893
 20
130.2226389129
 30
0.0
 11
131.6297552424
 21
130.2226389129
 31
0.0
  0
LINE
  5
93
330
1F
100
AcDbEntity
  8
0
  6
Continuous
 62
     7
370
    15
100
AcDbLine
 10
102.001087682
 20
85.3822080512
 30
0.0
 11
109.417751042
 21
85.3822080512
 31
0.0
  0
ARC
  5
94
330
1F
100
AcDbEntity
  8
0
  6
Continuous
 62
     7
370
    15
100
AcDbCircle
 10
109.417751042
 20
83.9822080512
 30
0.0
 40
1.400000000000006
100
AcDbArc
 50
42.2465410162
 51
90.0
  0
LINE
  5
95
330
1F
100
AcDbEntity
  8
0
  6
Continuous
 62
     7
370
    15
100
AcDbLine
 10
100.7187835361
 20
86.5311755571
 30
0.0
 11
101.8589145001
 21
85.391044593
 31
0.0
  0
LINE
  5
96
330
1F
100
AcDbEntity
  8
0
  6
Continuous
 62
     7
370
    15
100
AcDbLine
 10
101.8589145001
 20
127.1133715094
 30
0.0
 11
100.7276518153
 21
125.9821088246
 31
0.0
  0
ARC
  5
97
330
1F
100
AcDbEntity
  8
0
  6
Continuous
 62
     7
370
    15
100
AcDbCircle
 10
105.417751042
 20
128.5222080512
 30
0.0
 40
1.399999999999984
100
AcDbArc
 50
270.0
 51
301.7485287426
  0
LINE
  5
98
330
1F
100
AcDbEntity
  8
0
  6
Continuous
 62
     7
370
    15
100
AcDbLine
 10
105.417751042
 20
127.1222080512
 30
0.0
 11
101.9920167759
 21
127.1222080512
 31
0.0
  0
SPLINE
  5
99
330
1F
100
AcDbEntity
  8
0
  6
Continuous
 62
     7
370
    15
100
AcDbSpline
210
0.0
220
0.0
230
1.0
 70
    24
 71
     3
 72
    11
 73
     7
 74
     0
 42
0.000000001
 43
0.00000001
 40
0.0
 40
0.0
 40
0.0
 40
0.0
 40
0.1285561766307353
 40
0.4801535797842224
 40
0.8150691831753863
 40
1.0
 40
1.0
 40
1.0
 40
1.0
 10
175.6985636148135
 20
106.5701653458678
 30
0.0
 10
175.7674284536401
 20
106.6638325910139
 30
0.0
 10
176.0246366232551
 20
107.0136770266851
 30
0.0
 10
176.506959548049
 20
107.6697136980258
 30
0.0
 10
177.0292135348429
 20
108.3800630293104
 30
0.0
 10
177.3089888143999
 20
108.760602360304
 30
0.0
 10
177.4085164228699
 20
108.8959758986758
 30
0.0
  0
SPLINE
  5
9A
330
1F
100
AcDbEntity
  8
0
  6
Continuous
 62
     7
370
    15
100
AcDbSpline
210
0.0
220
0.0
230
1.0
 70
    24
 71
     3
 72
    11
 73
     7
 74
     0
 42
0.000000001
 43
0.00000001
 40
0.0
 40
0.0
 40
0.0
 40
0.0
 40
0.2164543009645043
 40
0.4403089937225372
 40
0.7518987489759473
 40
1.0
 40
1.0
 40
1.0
 40
1.0
 10
176.8577982339069
 20
103.9263974984143
 30
0.0
 10
176.778389942061
 20
104.1074972390067
 30
0.0
 10
176.6168584551831
 20
104.4758883690896
 30
0.0
 10
176.3170984671891
 20
105.159525490651
 30
0.0
 10
175.9955505490146
 20
105.8928524923501
 30
0.0
 10
175.7897786880543
 20
106.3621388826608
 30
0.0
 10
175.6985636148135
 20
106.5701653458678
 30
0.0
  0
SPLINE
  5
9B
330
1F
100
AcDbEntity
  8
0
  6
Continuous
 62
     7
370
    15
100
AcDbSpline
210
0.0
220
0.0
230
1.0
 70
    24
 71
     3
 72
    11
 73
     7
 74
     0
 42
0.000000001
 43
0.00000001
 40
0.0
 40
0.0
 40
0.0
 40
0.0
 40
0.2164543009645042
 40
0.440308993722536
 40
0.7518987489759464
 40
1.0
 40
1.0
 40
1.0
 40
1.0
 10
179.7269856610568
 20
103.6084402037689
 30
0.0
 10
179.5304445391621
 20
103.6302204760554
 30
0.0
 10
179.1306427185425
 20
103.6745256699495
 30
0.0
 10
178.3887156103033
 20
103.7567444660894
 30
0.0
 10
177.5928618384635
 20
103.8449393012657
 30
0.0
 10
177.083561972324
 20
103.9013788374454
 30
0.0
 10
176.8577982339069
 20
103.9263974984143
 30
0.0
  0
SPLINE
  5
9C
330
1F
100
AcDbEntity
  8
0
  6
Continuous
 62
     7
370
    15
100
AcDbSpline
210
0.0
220
0.0
230
1.0
 70
    24
 71
     3
 72
    11
 73
     7
 74
     0
 42
0.000000001
 43
0.00000001
 40
0.0
 40
0.0
 40
0.0
 40
0.0
 40
0.1849308168246132
 40
0.5198464202157769
 40
0.8714438233692652
 40
1.0
 40
1.0
 40
1.0
 40
1.0
 10
181.4369384691133
 20
105.9342507565769
 30
0.0
 10
181.3374108606432
 20
105.7988772182051
 30
0.0
 10
181.0576355810862
 20
105.4183378872115
 30
0.0
 10
180.5353815942924
 20
104.7079885559269
 30
0.0
 10
180.0530586694985
 20
104.0519518845862
 30
0.0
 10
179.7958504998835
 20
103.702107448915
 30
0.0
 10
179.7269856610568
 20
103.6084402037689
 30
0.0
  0
SPLINE
  5
9D
330
1F
100
AcDbEntity
  8
0
  6
Continuous
 62
     7
370
    15
100
AcDbSpline
210
0.0
220
0.0
230
1.0
 70
    24
 71
     3
 72
    11
 73
     7
 74
     0
 42
0.000000001
 43
0.00000001
 40
0.0
 40
0.0
 40
0.0
 40
0.0
 40
0.2164543009645038
 40
0.4403089937225351
 40
0.7518987489759474
 40
1.0
 40
1.0
 40
1.0
 40
1.0
 10
177.4085164228699
 20
108.8959758986758
 30
0.0
 10
177.6050575447646
 20
108.8741956263894
 30
0.0
 10
178.0048593653842
 20
108.8298904324952
 30
0.0
 10
178.7467864736234
 20
108.7476716363553
 30
0.0
 10
179.5426402454632
 20
108.659476801179
 30
0.0
 10
180.0519401116028
 20
108.6030372649993
 30
0.0
 10
180.2777038500198
 20
108.5780186040304
 30
0.0
  0
CIRCLE
  5
9E
330
1F
100
AcDbEntity
  8
0
  6
Continuous
 62
     7
370
    15
100
AcDbCircle
 10
178.567751042
 20
106.2522080512
 30
0.0
 40
3.000000000000005
  0
SPLINE
  5
9F
330
1F
100
AcDbEntity
  8
0
  6
Continuous
 62
     7
370
    15
100
AcDbSpline
210
0.0
220
0.0
230
1.0
 70
    24
 71
     3
 72
    11
 73
     7
 74
     0
 42
0.000000001
 43
0.00000001
 40
0.0
 40
0.0
 40
0.0
 40
0.0
 40
0.2164543009645039
 40
0.4403089937225372
 40
0.7518987489759479
 40
0.9999999999999999
 40
0.9999999999999999
 40
0.9999999999999999
 40
0.9999999999999999
 10
180.2777038500198
 20
108.5780186040304
 30
0.0
 10
180.3571121418658
 20
108.396918863438
 30
0.0
 10
180.5186436287437
 20
108.0285277333551
 30
0.0
 10
180.8184036167376
 20
107.3448906117937
 30
0.0
 10
181.1399515349121
 20
106.6115636100946
 30
0.0
 10
181.3457233958725
 20
106.1422772197839
 30
0.0
 10
181.4369384691133
 20
105.9342507565769
 30
0.0
  0
CIRCLE
  5
A0
330
1F
100
AcDbEntity
  8
0
  6
Continuous
 62
     7
370
    15
100
AcDbCircle
 10
178.567751042
 20
106.2522080512
 30
0.0
 40
4.500000000000012
  0
CIRCLE
  5
A1
330
1F
100
AcDbEntity
  8
0
  6
Continuous
 62
     7
370
    15
100
AcDbCircle
 10
178.567751042
 20
106.2522080512
 30
0.0
 40
4.999999999999988
  0
ARC
  5
A2
330
1F
100
AcDbEntity
  8
0
  6
Continuous
 62
     7
370
    15
100
AcDbCircle
 10
178.567751042
 20
106.2522080512
 30
0.0
 40
2.500000000000006
100
AcDbArc
 50
323.6764042781
 51
23.6764042781
  0
ARC
  5
A3
330
1F
100
AcDbEntity
  8
0
  6
Continuous
 62
     7
370
    15
100
AcDbCircle
 10
178.567751042
 20
106.2522080512
 30
0.0
 40
2.500000000000004
100
AcDbArc
 50
23.6764042781
 51
83.6764042781
  0
ARC
  5
A4
330
1F
100
AcDbEntity
  8
0
  6
Continuous
 62
     7
370
    15
100
AcDbCircle
 10
178.567751042
 20
106.2522080512
 30
0.0
 40
2.500000000000014
100
AcDbArc
 50
143.6764042781
 51
203.6764042781
  0
ARC
  5
A5
330
1F
100
AcDbEntity
  8
0
  6
Continuous
 62
     7
370
    15
100
AcDbCircle
 10
178.567751042
 20
106.2522080512
 30
0.0
 40
2.500000000000006
100
AcDbArc
 50
263.6764042781
 51
323.6764042781
  0
ARC
  5
A6
330
1F
100
AcDbEntity
  8
0
  6
Continuous
 62
     7
370
    15
100
AcDbCircle
 10
178.567751042
 20
106.2522080512
 30
0.0
 40
2.500000000000014
100
AcDbArc
 50
83.6764042781
 51
143.6764042781
  0
ARC
  5
A7
330
1F
100
AcDbEntity
  8
0
  6
Continuous
 62
     7
370
    15
100
AcDbCircle
 10
178.567751042
 20
106.2522080512
 30
0.0
 40
2.49999999999999
100
AcDbArc
 50
203.6764042781
 51
263.6764042781
  0
LINE
  5
A8
330
1F
100
AcDbEntity
  8
0
  6
Continuous
 62
     7
370
    15
100
AcDbLine
 10
148.707751042
 20
78.7543708922
 30
0.0
 11
148.707751042
 21
126.1022080512
 31
0.0
  0
SPLINE
  5
A9
330
1F
100
AcDbEntity
  8
0
  6
Continuous
 62
     7
370
    15
100
AcDbSpline
210
0.0
220
0.0
230
1.0
 70
     8
 71
     3
 72
     8
 73
     4
 74
     0
 42
0.000000001
 43
0.00000001
 40
0.0
 40
0.0
 40
0.0
 40
0.0
 40
1.0
 40
1.0
 40
1.0
 40
1.0
 10
148.7077510419634
 20
78.7543708921675
 30
0.0
 10
148.2154119191822
 20
77.8571008579608
 30
0.0
 10
147.7212978711401
 20
76.96081644290855
 30
0.0
 10
147.2258182104743
 20
76.06529035497519
 30
0.0
  0
LINE
  5
AA
330
1F
100
AcDbEntity
  8
0
  6
Continuous
 62
     7
370
    15
100
AcDbLine
 10
147.2258182105
 20
76.065290355
 30
0.0
 11
147.2258182105
 21
126.1022080512
 31
0.0
  0
SPLINE
  5
AB
330
1F
100
AcDbEntity
  8
0
  6
Continuous
 62
     7
370
    15
100
AcDbSpline
210
0.0
220
0.0
230
1.0
 70
    24
 71
     3
 72
     8
 73
     4
 74
     0
 42
0.000000001
 43
0.00000001
 40
0.0
 40
0.0
 40
0.0
 40
0.0
 40
1.0
 40
1.0
 40
1.0
 40
1.0
 10
147.2258182104743
 20
126.1022080512223
 30
0.0
 10
147.7324983186248
 20
126.1022080512223
 30
0.0
 10
148.2277990475985
 20
126.1022080512223
 30
0.0
 10
148.7077510419634
 20
126.1022080512223
 30
0.0
  0
LINE
  5
AC
330
1F
100
AcDbEntity
  8
0
  6
Continuous
 62
     7
370
    15
100
AcDbLine
 10
157.967751042
 20
76.065290355
 30
0.0
 11
154.0096838735
 21
76.065290355
 31
0.0
  0
LINE
  5
AD
330
1F
100
AcDbEntity
  8
0
  6
Continuous
 62
     7
370
    15
100
AcDbLine
 10
154.0096838735
 20
76.065290355
 30
0.0
 11
154.0096838735
 21
126.1022080512
 31
0.0
  0
LINE
  5
AE
330
1F
100
AcDbEntity
  8
0
  6
Continuous
 62
     7
370
    15
100
AcDbLine
 10
154.0096838735
 20
126.1022080512
 30
0.0
 11
157.967751042
 21
126.1022080512
 31
0.0
  0
SPLINE
  5
AF
330
1F
100
AcDbEntity
  8
0
  6
Continuous
 62
     7
370
    15
100
AcDbSpline
210
0.0
220
0.0
230
1.0
 70
     8
 71
     3
 72
     8
 73
     4
 74
     0
 42
0.000000001
 43
0.00000001
 40
0.0
 40
0.0
 40
0.0
 40
0.0
 40
1.0
 40
1.0
 40
1.0
 40
1.0
 10
154.0096838734524
 20
76.06529035497519
 30
0.0
 10
153.5142042127867
 20
76.96081644290855
 30
0.0
 10
153.0200901647445
 20
77.8571008579608
 30
0.0
 10
152.5277510419634
 20
78.7543708921675
 30
0.0
  0
LINE
  5
B0
330
1F
100
AcDbEntity
  8
0
  6
Continuous
 62
     7
370
    15
100
AcDbLine
 10
152.527751042
 20
78.7543708922
 30
0.0
 11
152.527751042
 21
126.1022080512
 31
0.0
  0
SPLINE
  5
B1
330
1F
100
AcDbEntity
  8
0
  6
Continuous
 62
     7
370
    15
100
AcDbSpline
210
0.0
220
0.0
230
1.0
 70
    24
 71
     3
 72
     8
 73
     4
 74
     0
 42
0.000000001
 43
0.00000001
 40
0.0
 40
0.0
 40
0.0
 40
0.0
 40
1.0
 40
1.0
 40
1.0
 40
1.0
 10
152.5277510419634
 20
126.1022080512223
 30
0.0
 10
153.0077030363283
 20
126.1022080512223
 30
0.0
 10
153.5030037653019
 20
126.1022080512223
 30
0.0
 10
154.0096838734524
 20
126.1022080512223
 30
0.0
  0
LINE
  5
B2
330
1F
100
AcDbEntity
  8
0
  6
Continuous
 62
     7
370
    15
100
AcDbLine
 10
132.617751042
 20
75.0522080512
 30
0.0
 11
132.617751042
 21
137.4522080512
 31
0.0
  0
LINE
  5
B3
330
1F
100
AcDbEntity
  8
0
  6
Continuous
 62
     7
370
    15
100
AcDbLine
 10
137.567751042
 20
126.1022080512
 30
0.0
 11
147.2258182105
 21
126.1022080512
 31
0.0
  0
LINE
  5
B4
330
1F
100
AcDbEntity
  8
0
  6
Continuous
 62
     7
370
    15
100
AcDbLine
 10
147.2258182105
 20
76.065290355
 30
0.0
 11
145.567751042
 21
76.065290355
 31
0.0
  0
SPLINE
  5
B5
330
1F
100
AcDbEntity
  8
0
  6
Continuous
 62
     7
370
    15
100
AcDbSpline
210
0.0
220
0.0
230
1.0
 70
     8
 71
     3
 72
    28
 73
    24
 74
     0
 42
0.000000001
 43
0.00000001
 40
0.0
 40
0.0
 40
0.0
 40
0.0
 40
0.1249999999999999
 40
0.1249999999999999
 40
0.1874999999999998
 40
0.1874999999999998
 40
0.2499999999999997
 40
0.2499999999999997
 40
0.3749999999999993
 40
0.3749999999999993
 40
0.4374999999999993
 40
0.4374999999999993
 40
0.4999999999999992
 40
0.4999999999999992
 40
0.6249999999999992
 40
0.6249999999999992
 40
0.7499999999999992
 40
0.7499999999999992
 40
0.8124999999999993
 40
0.8124999999999993
 40
0.8749999999999996
 40
0.8749999999999996
 40
1.0
 40
1.0
 40
1.0
 40
1.0
 10
145.5677510419634
 20
76.06529035497519
 30
0.0
 10
145.0360432844704
 20
76.06529035497519
 30
0.0
 10
144.5138047191601
 20
76.04950564102498
 30
0.0
 10
143.7439342328851
 20
76.00451022694878
 30
0.0
 10
143.4895746606938
 20
75.98595523187305
 30
0.0
 10
142.9854530799952
 20
75.94210250942655
 30
0.0
 10
142.7357302625673
 20
75.91675790247434
 30
0.0
 10
142.0101403111209
 20
75.83335582472424
 30
0.0
 10
141.5517800495394
 20
75.76749026557316
 30
0.0
 10
140.9012821061455
 20
75.65851992508138
 30
0.0
 10
140.689600055353
 20
75.62028028931472
 30
0.0
 10
140.285528566215
 20
75.54252155189536
 30
0.0
 10
140.0930220523942
 20
75.50302058972002
 30
0.0
 10
139.5431870813729
 20
75.384112847354
 30
0.0
 10
139.2132583030641
 20
75.30429516592939
 30
0.0
 10
138.6287870344954
 20
75.15095200413334
 30
0.0
 10
138.382509896482
 20
75.07961825086409
 30
0.0
 10
138.0826671037839
 20
74.98567474378946
 30
0.0
 10
137.9942102467117
 20
74.95648095042954
 30
0.0
 10
137.8408488934066
 20
74.90301437616613
 30
0.0
 10
137.7757606791803
 20
74.87865504189095
 30
0.0
 10
137.6201666632396
 20
74.81506489644622
 30
0.0
 10
137.5677510419634
 20
74.78496196135696
 30
0.0
 10
137.5677510419634
 20
74.76808506836002
 30
0.0
  0
LINE
  5
B6
330
1F
100
AcDbEntity
  8
0
  6
Continuous
 62
     7
370
    15
100
AcDbLine
 10
137.567751042
 20
74.7680850684
 30
0.0
 11
137.567751042
 21
74.7522080512
 31
0.0
  0
SPLINE
  5
B7
330
1F
100
AcDbEntity
  8
0
  6
Continuous
 62
     7
370
    15
100
AcDbSpline
210
0.0
220
0.0
230
1.0
 70
     8
 71
     3
 72
    17
 73
    13
 74
     0
 42
0.000000001
 43
0.00000001
 40
0.0
 40
0.0
 40
0.0
 40
0.0
 40
0.1034796923964057
 40
0.210023918880785
 40
0.3134862136955584
 40
0.4198361274354883
 40
0.5254127712915682
 40
0.6339610695419791
 40
0.7409508756305032
 40
0.8511696089308174
 40
0.9558996534551938
 40
0.9999999999999999
 40
0.9999999999999999
 40
0.9999999999999999
 40
0.9999999999999999
 10
145.5677510419633
 20
136.7194035243866
 30
0.0
 10
145.1325026928533
 20
136.7248517209199
 30
0.0
 10
144.2491161862883
 20
136.7359094614318
 30
0.0
 10
142.9682886010597
 20
136.8222678543333
 30
0.0
 10
141.7508720651856
 20
136.9501380308711
 30
0.0
 10
140.6430662129391
 20
137.1090833294643
 30
0.0
 10
139.6548274089909
 20
137.2835770171798
 30
0.0
 10
138.8301038514594
 20
137.4527428678197
 30
0.0
 10
138.1811503508001
 20
137.6006266503481
 30
0.0
 10
137.7641155353383
 20
137.7024172345788
 30
0.0
 10
137.5655188223738
 20
137.752768757182
 30
0.0
 10
137.5888315438071
 20
137.7468630729596
 30
0.0
 10
137.5957394010446
 20
137.745113143265
 30
0.0
  0
LINE
  5
B8
330
1F
100
AcDbEntity
  8
0
  6
Continuous
 62
     7
370
    15
100
AcDbLine
 10
147.2258182105
 20
136.7194035244
 30
0.0
 11
145.567751042
 21
136.7194035244
 31
0.0
  0
LINE
  5
B9
330
1F
100
AcDbEntity
  8
0
  6
Continuous
 62
     7
370
    15
100
AcDbLine
 10
147.2258182105
 20
130.7108977136
 30
0.0
 11
147.2258182105
 21
136.7194035244
 31
0.0
  0
LINE
  5
BA
330
1F
100
AcDbEntity
  8
0
  6
Continuous
 62
     7
370
    15
100
AcDbLine
 10
144.8133713877
 20
130.7108977136
 30
0.0
 11
147.2258182105
 21
130.7108977136
 31
0.0
  0
SPLINE
  5
BB
330
1F
100
AcDbEntity
  8
0
  6
Continuous
 62
     7
370
    15
100
AcDbSpline
210
0.0
220
0.0
230
1.0
 70
     8
 71
     3
 72
    20
 73
    16
 74
     0
 42
0.000000001
 43
0.00000001
 40
0.0
 40
0.0
 40
0.0
 40
0.0
 40
0.2499999999999995
 40
0.2499999999999995
 40
0.3749999999999996
 40
0.3749999999999996
 40
0.4999999999999997
 40
0.4999999999999997
 40
0.6249999999999998
 40
0.6249999999999998
 40
0.7499999999999998
 40
0.7499999999999998
 40
0.8749999999999999
 40
0.8749999999999999
 40
1.0
 40
1.0
 40
1.0
 40
1.0
 10
137.5677510419634
 20
126.1022080512223
 30
0.0
 10
137.8161247762514
 20
126.7560704795197
 30
0.0
 10
138.1356948685967
 20
127.3598562615169
 30
0.0
 10
138.7580011018014
 20
128.1866949976855
 30
0.0
 10
138.9894253622321
 20
128.4491236356384
 30
0.0
 10
139.5106397018818
 20
128.9457862897434
 30
0.0
 10
139.7972601845169
 20
129.1763731687649
 30
0.0
 10
140.4167449258245
 20
129.5929273933476
 30
0.0
 10
140.7510453053115
 20
129.7804251953151
 30
0.0
 10
141.4763057779363
 20
130.1118221729515
 30
0.0
 10
141.8582208353268
 20
130.2513261604468
 30
0.0
 10
142.6530090114984
 20
130.4767796679177
 30
0.0
 10
143.0671672057048
 20
130.5634057794614
 30
0.0
 10
143.9327135462862
 20
130.6813865683155
 30
0.0
 10
144.370601161298
 20
130.7108977135898
 30
0.0
 10
144.8133713876527
 20
130.7108977135898
 30
0.0
  0
LINE
  5
BC
330
1F
100
AcDbEntity
  8
0
  6
Continuous
 62
     7
370
    15
100
AcDbLine
 10
158.567751042
 20
76.6919306506
 30
0.0
 11
158.567751042
 21
126.1022080512
 31
0.0
  0
SPLINE
  5
BD
330
1F
100
AcDbEntity
  8
0
  6
Continuous
 62
     7
370
    15
100
AcDbSpline
210
0.0
220
0.0
230
1.0
 70
     8
 71
     3
 72
    10
 73
     6
 74
     0
 42
0.000000001
 43
0.00000001
 40
0.0
 40
0.0
 40
0.0
 40
0.0
 40
0.5
 40
0.5
 40
1.0
 40
1.0
 40
1.0
 40
1.0
 10
158.5677510419634
 20
76.69193065062952
 30
0.0
 10
158.5677510419634
 20
76.53204338243586
 30
0.0
 10
158.5064413907275
 20
76.37091612692124
 30
0.0
 10
158.2873417531925
 20
76.13681712856642
 30
0.0
 10
158.129293546879
 20
76.06529035497519
 30
0.0
 10
157.9677510419634
 20
76.06529035497519
 30
0.0
  0
SPLINE
  5
BE
330
1F
100
AcDbEntity
  8
0
  6
Continuous
 62
     7
370
    15
100
AcDbSpline
210
0.0
220
0.0
230
1.0
 70
    24
 71
     3
 72
    12
 73
     8
 74
     0
 42
0.000000001
 43
0.00000001
 40
0.0
 40
0.0
 40
0.0
 40
0.0
 40
0.250000000000002
 40
0.250000000000002
 40
0.500000000000004
 40
0.500000000000004
 40
1.0
 40
1.0
 40
1.0
 40
1.0
 10
157.9677510419634
 20
126.1022080512223
 30
0.0
 10
158.0579901096504
 20
126.1022080512223
 30
0.0
 10
158.1488882237569
 20
126.1022080512223
 30
0.0
 10
158.3034852602454
 20
126.1022080512223
 30
0.0
 10
158.3684636763535
 20
126.1022080512223
 30
0.0
 10
158.5202987042898
 20
126.1022080512223
 30
0.0
 10
158.5677510419634
 20
126.1022080512223
 30
0.0
 10
158.5677510419634
 20
126.1022080512223
 30
0.0
  0
SPLINE
  5
BF
330
1F
100
AcDbEntity
  8
0
  6
Continuous
 62
     7
370
    15
100
AcDbSpline
210
0.0
220
0.0
230
1.0
 70
     8
 71
     3
 72
    10
 73
     6
 74
     0
 42
0.000000001
 43
0.00000001
 40
0.0
 40
0.0
 40
0.0
 40
0.0
 40
0.5
 40
0.5
 40
1.0
 40
1.0
 40
1.0
 40
1.0
 10
149.1020485736543
 20
132.6522080512223
 30
0.0
 10
148.9805083099858
 20
132.7269342184341
 30
0.0
 10
148.8791739496369
 20
132.8358792343509
 30
0.0
 10
148.7435350067485
 20
133.0863097151125
 30
0.0
 10
148.7077510419634
 20
133.2287290772115
 30
0.0
 10
148.7077510419634
 20
133.3718619022581
 30
0.0
  0
SPLINE
  5
C0
330
1F
100
AcDbEntity
  8
0
  6
Continuous
 62
     7
370
    15
100
AcDbSpline
210
0.0
220
0.0
230
1.0
 70
    24
 71
     3
 72
    12
 73
     8
 74
     0
 42
0.000000001
 43
0.00000001
 40
0.0
 40
0.0
 40
0.0
 40
0.0
 40
0.2499999999999992
 40
0.2499999999999992
 40
0.4999999999999983
 40
0.4999999999999983
 40
1.0
 40
1.0
 40
1.0
 40
1.0
 10
149.5077510419634
 20
132.6522080512223
 30
0.0
 10
149.457874359646
 20
132.6522080512223
 30
0.0
 10
149.4098711662423
 20
132.6522080512223
 30
0.0
 10
149.3268230635304
 20
132.6522080512223
 30
0.0
 10
149.2906934840625
 20
132.6522080512223
 30
0.0
 10
149.1947814531183
 20
132.6522080512223
 30
0.0
 10
149.1450227851495
 20
132.6522080512223
 30
0.0
 10
149.1020485736543
 20
132.6522080512223
 30
0.0
  0
SPLINE
  5
C1
330
1F
100
AcDbEntity
  8
0
  6
Continuous
 62
     7
370
    15
100
AcDbSpline
210
0.0
220
0.0
230
1.0
 70
    24
 71
     3
 72
    14
 73
    10
 74
     0
 42
0.000000001
 43
0.00000001
 40
0.0
 40
0.0
 40
0.0
 40
0.0
 40
0.1250000000000012
 40
0.1250000000000012
 40
0.2500000000000024
 40
0.2500000000000024
 40
0.5000000000000013
 40
0.5000000000000013
 40
1.0
 40
1.0
 40
1.0
 40
1.0
 10
149.5077510419633
 20
79.85220805122236
 30
0.0
 10
149.4393131940769
 20
79.85220805122236
 30
0.0
 10
149.3737631553119
 20
79.85220805122236
 30
0.0
 10
149.2693365159039
 20
79.85220805122236
 30
0.0
 10
149.2267919061425
 20
79.85220805122235
 30
0.0
 10
149.1141824456022
 20
79.85220805122235
 30
0.0
 10
149.0586433985828
 20
79.85220805122235
 30
0.0
 10
148.916031703119
 20
79.85220805122236
 30
0.0
 10
148.8526263481232
 20
79.85220805122235
 30
0.0
 10
148.8054258442957
 20
79.85220805122236
 30
0.0
  0
SPLINE
  5
C2
330
1F
100
AcDbEntity
  8
0
  6
Continuous
 62
     7
370
    15
100
AcDbSpline
210
0.0
220
0.0
230
1.0
 70
     8
 71
     3
 72
    10
 73
     6
 74
     0
 42
0.000000001
 43
0.00000001
 40
0.0
 40
0.0
 40
0.0
 40
0.0
 40
0.5
 40
0.5
 40
1.0
 40
1.0
 40
1.0
 40
1.0
 10
148.7077510419634
 20
126.3880746826837
 30
0.0
 10
148.7077510419634
 20
126.3403031746904
 30
0.0
 10
148.7099122855605
 20
126.2925934526288
 30
0.0
 10
148.7185836594207
 20
126.1972983350805
 30
0.0
 10
148.7251128423767
 20
126.1496057711139
 30
0.0
 10
148.7338986651235
 20
126.1022080512223
 30
0.0
  0
SPLINE
  5
C3
330
1F
100
AcDbEntity
  8
0
  6
Continuous
 62
     7
370
    15
100
AcDbSpline
210
0.0
220
0.0
230
1.0
 70
    24
 71
     3
 72
    14
 73
    10
 74
     0
 42
0.000000001
 43
0.00000001
 40
0.0
 40
0.0
 40
0.0
 40
0.0
 40
0.4999999999999984
 40
0.4999999999999984
 40
0.7499999999999992
 40
0.7499999999999992
 40
0.8749999999999996
 40
0.8749999999999996
 40
1.0
 40
1.0
 40
1.0
 40
1.0
 10
152.4300762396311
 20
79.85220805122236
 30
0.0
 10
152.3832915345829
 20
79.85220805122236
 30
0.0
 10
152.3212403378032
 20
79.85220805122236
 30
0.0
 10
152.1778486992526
 20
79.85220805122235
 30
0.0
 10
152.1217050457015
 20
79.85220805122236
 30
0.0
 10
152.0087540235653
 20
79.85220805122236
 30
0.0
 10
151.9657532615272
 20
79.85220805122236
 30
0.0
 10
151.8616905512207
 20
79.85220805122236
 30
0.0
 10
151.7963583128638
 20
79.85220805122236
 30
0.0
 10
151.7277510419633
 20
79.85220805122236
 30
0.0
  0
SPLINE
  5
C4
330
1F
100
AcDbEntity
  8
0
  6
Continuous
 62
     7
370
    15
100
AcDbSpline
210
0.0
220
0.0
230
1.0
 70
    24
 71
     3
 72
    12
 73
     8
 74
     0
 42
0.000000001
 43
0.00000001
 40
0.0
 40
0.0
 40
0.0
 40
0.0
 40
0.5000000000000017
 40
0.5000000000000017
 40
0.7500000000000008
 40
0.7500000000000008
 40
1.0
 40
1.0
 40
1.0
 40
1.0
 10
152.1334535102724
 20
132.6522080512223
 30
0.0
 10
152.0903679606614
 20
132.6522080512223
 30
0.0
 10
152.0412157589121
 20
132.6522080512223
 30
0.0
 10
151.9447431646242
 20
132.6522080512223
 30
0.0
 10
151.9086415794896
 20
132.6522080512223
 30
0.0
 10
151.8255358216284
 20
132.6522080512223
 30
0.0
 10
151.7775392246621
 20
132.6522080512223
 30
0.0
 10
151.7277510419634
 20
132.6522080512223
 30
0.0
  0
SPLINE
  5
C5
330
1F
100
AcDbEntity
  8
0
  6
Continuous
 62
     7
370
    15
100
AcDbSpline
210
0.0
220
0.0
230
1.0
 70
     8
 71
     3
 72
    10
 73
     6
 74
     0
 42
0.000000001
 43
0.00000001
 40
0.0
 40
0.0
 40
0.0
 40
0.0
 40
0.5
 40
0.5
 40
1.0
 40
1.0
 40
1.0
 40
1.0
 10
152.5277510419634
 20
133.3718619022581
 30
0.0
 10
152.5277510419634
 20
133.2280918444401
 30
0.0
 10
152.4917019832445
 20
133.085672481945
 30
0.0
 10
152.3561931224704
 20
132.8357781885877
 30
0.0
 10
152.2563171293743
 20
132.7277478523395
 30
0.0
 10
152.1334535102724
 20
132.6522080512223
 30
0.0
  0
SPLINE
  5
C6
330
1F
100
AcDbEntity
  8
0
  6
Continuous
 62
     7
370
    15
100
AcDbSpline
210
0.0
220
0.0
230
1.0
 70
     8
 71
     3
 72
    10
 73
     6
 74
     0
 42
0.000000001
 43
0.00000001
 40
0.0
 40
0.0
 40
0.0
 40
0.0
 40
0.5
 40
0.5
 40
1.0
 40
1.0
 40
1.0
 40
1.0
 10
152.5016034188032
 20
126.1022080512223
 30
0.0
 10
152.5102930617149
 20
126.1490869005405
 30
0.0
 10
152.5168321264654
 20
126.1965093659418
 30
0.0
 10
152.5255907608584
 20
126.2924461645285
 30
0.0
 10
152.5277510419634
 20
126.340361452539
 30
0.0
 10
152.5277510419634
 20
126.3880746826835
 30
0.0
  0
LINE
  5
C7
330
1F
100
AcDbEntity
  8
0
  6
Continuous
 62
     7
370
    15
100
AcDbLine
 10
151.727751042
 20
132.6522080512
 30
0.0
 11
149.507751042
 21
132.6522080512
 31
0.0
  0
LINE
  5
C8
330
1F
100
AcDbEntity
  8
0
  6
Continuous
 62
     7
370
    15
100
AcDbLine
 10
151.727751042
 20
79.8522080512
 30
0.0
 11
149.507751042
 21
79.8522080512
 31
0.0
  0
LINE
  5
C9
330
1F
100
AcDbEntity
  8
0
  6
Continuous
 62
     7
370
    15
100
AcDbLine
 10
191.617751042
 20
106.2522080512
 30
0.0
 11
191.617751042
 21
81.7522080512
 31
0.0
  0
LINE
  5
CA
330
1F
100
AcDbEntity
  8
0
  6
Continuous
 62
     7
370
    15
100
AcDbLine
 10
191.617751042
 20
130.7522080512
 30
0.0
 11
191.617751042
 21
106.2522080512
 31
0.0
  0
LINE
  5
CB
330
1F
100
AcDbEntity
  8
0
  6
Continuous
 62
     7
370
    15
100
AcDbLine
 10
191.117751042
 20
106.2522080512
 30
0.0
 11
191.117751042
 21
81.2522080512
 31
0.0
  0
LINE
  5
CC
330
1F
100
AcDbEntity
  8
0
  6
Continuous
 62
     7
370
    15
100
AcDbLine
 10
191.117751042
 20
131.2522080512
 30
0.0
 11
191.117751042
 21
106.2522080512
 31
0.0
  0
SPLINE
  5
CD
330
1F
100
AcDbEntity
  8
0
  6
Continuous
 62
     7
370
    15
100
AcDbSpline
210
0.0
220
0.0
230
1.0
 70
    11
 71
     3
 72
    83
 73
    79
 74
     0
 42
0.000000001
 43
0.00000001
 40
0.0
 40
0.0
 40
0.0
 40
0.0
 40
0.0312500000000006
 40
0.0312500000000006
 40
0.0625000000000012
 40
0.0625000000000012
 40
0.0937500000000018
 40
0.0937500000000018
 40
0.1093750000000021
 40
0.1093750000000021
 40
0.1250000000000024
 40
0.1250000000000024
 40
0.1562500000000025
 40
0.1562500000000025
 40
0.1875000000000026
 40
0.1875000000000026
 40
0.2187500000000026
 40
0.2187500000000026
 40
0.2500000000000027
 40
0.2500000000000027
 40
0.2812500000000027
 40
0.2812500000000027
 40
0.3125000000000028
 40
0.3125000000000028
 40
0.3437500000000028
 40
0.3437500000000028
 40
0.3593750000000028
 40
0.3593750000000028
 40
0.3750000000000028
 40
0.3906250000000027
 40
0.3906250000000027
 40
0.4062500000000027
 40
0.4062500000000027
 40
0.4375000000000025
 40
0.4375000000000025
 40
0.4687500000000023
 40
0.4687500000000023
 40
0.500000000000002
 40
0.500000000000002
 40
0.5312500000000018
 40
0.5312500000000018
 40
0.5468750000000017
 40
0.5468750000000017
 40
0.5625000000000016
 40
0.5625000000000016
 40
0.5937500000000018
 40
0.5937500000000018
 40
0.6250000000000021
 40
0.6250000000000021
 40
0.6562500000000023
 40
0.6562500000000023
 40
0.6875000000000027
 40
0.6875000000000027
 40
0.7187500000000029
 40
0.7187500000000029
 40
0.7500000000000032
 40
0.7500000000000032
 40
0.7656250000000031
 40
0.7656250000000031
 40
0.7812500000000029
 40
0.7812500000000029
 40
0.8125000000000024
 40
0.8125000000000024
 40
0.8281250000000023
 40
0.8281250000000023
 40
0.8437500000000021
 40
0.8437500000000021
 40
0.8750000000000018
 40
0.8750000000000018
 40
0.8906250000000016
 40
0.8906250000000016
 40
0.9062500000000012
 40
0.9062500000000012
 40
0.9375000000000009
 40
0.9375000000000009
 40
0.9687500000000004
 40
0.9687500000000004
 40
1.0
 40
1.0
 40
1.0
 40
1.0
 10
174.3774533662727
 20
110.408619860776
 30
0.0
 10
174.6803782653092
 20
110.6550221152563
 30
0.0
 10
175.0018652818791
 20
110.8688035692163
 30
0.0
 10
175.6789857609031
 20
111.2371511203321
 30
0.0
 10
176.0372122442677
 20
111.3924755094965
 30
0.0
 10
176.7771875631862
 20
111.6388617582046
 30
0.0
 10
177.1537903490121
 20
111.7287349867381
 30
0.0
 10
177.7282674914646
 20
111.8156740741209
 30
0.0
 10
177.9213657219105
 20
111.8366206431359
 30
0.0
 10
178.310836674375
 20
111.8621616503874
 30
0.0
 10
178.5076033936199
 20
111.8666656870561
 30
0.0
 10
179.0917366391994
 20
111.8552791928244
 30
0.0
 10
179.4765589143758
 20
111.8150904120254
 30
0.0
 10
180.2371100885375
 20
111.6700568959487
 30
0.0
 10
180.616498162873
 20
111.563596538363
 30
0.0
 10
181.342056967919
 20
111.289433899854
 30
0.0
 10
181.6891019578745
 20
111.1224096227156
 30
0.0
 10
182.3512052117778
 20
110.7267717837593
 30
0.0
 10
182.6692578217304
 20
110.4950548650163
 30
0.0
 10
183.2465610455286
 20
109.9824681882195
 30
0.0
 10
183.5079771938425
 20
109.7012954591611
 30
0.0
 10
183.9731127737133
 20
109.085577458517
 30
0.0
 10
184.1776982610901
 20
108.7472171604794
 30
0.0
 10
184.5024134310758
 20
108.0464850596639
 30
0.0
 10
184.6258534937427
 20
107.6809883113491
 30
0.0
 10
184.7479012594336
 20
107.1080523160177
 30
0.0
 10
184.7777936476122
 20
106.9126533561017
 30
0.0
 10
184.814101833893
 20
106.5248524045633
 30
0.0
 10
184.8276658383131
 20
106.137211383764
 30
0.0
 10
184.7962872115576
 20
105.7498864964788
 30
0.0
 10
184.7419917148002
 20
105.3627226824665
 30
0.0
 10
184.7031459143362
 20
105.1690359869438
 30
0.0
 10
184.5555773771301
 20
104.6035807636172
 30
0.0
 10
184.41563694761
 20
104.2419542449519
 30
0.0
 10
184.055845793758
 20
103.5479940425471
 30
0.0
 10
183.8395101831175
 20
103.2234382878592
 30
0.0
 10
183.3476944434507
 20
102.6259520536567
 30
0.0
 10
183.0680595861251
 20
102.3490391678939
 30
0.0
 10
182.4681278155735
 20
101.858929893474
 30
0.0
 10
182.1470691949134
 20
101.6437529512137
 30
0.0
 10
181.6348122922674
 20
101.3638586476425
 30
0.0
 10
181.4584252334165
 20
101.277634562518
 30
0.0
 10
181.1017925592272
 20
101.1225004921468
 30
0.0
 10
180.9208320442227
 20
101.0531488096861
 30
0.0
 10
180.370231345355
 20
100.8689523607945
 30
0.0
 10
179.9929364224595
 20
100.7777596296178
 30
0.0
 10
179.2173982790105
 20
100.6596393966424
 30
0.0
 10
178.8288529397694
 20
100.6343070535841
 30
0.0
 10
178.0542257521873
 20
100.6484692814935
 30
0.0
 10
177.6663755668117
 20
100.688072072637
 30
0.0
 10
176.8964511729818
 20
100.8345667704469
 30
0.0
 10
176.5234839371096
 20
100.9395263404149
 30
0.0
 10
175.8009283106536
 20
101.2117615215748
 30
0.0
 10
175.4493612473344
 20
101.3801893632215
 30
0.0
 10
174.7801840496067
 20
101.7801497130463
 30
0.0
 10
174.468880489961
 20
102.0074187632816
 30
0.0
 10
174.0371531852969
 20
102.3901550346303
 30
0.0
 10
173.899156781147
 20
102.524755014408
 30
0.0
 10
173.6356035510314
 20
102.8088239224023
 30
0.0
 10
173.5093367397055
 20
102.9593189374704
 30
0.0
 10
173.1581312885354
 20
103.4249878134839
 30
0.0
 10
172.9591177701176
 20
103.7548417333719
 30
0.0
 10
172.7153483567527
 20
104.280178832961
 30
0.0
 10
172.6432846261309
 20
104.4604207316616
 30
0.0
 10
172.5188572007938
 20
104.8319375634469
 30
0.0
 10
172.4671503701895
 20
105.021735438637
 30
0.0
 10
172.3464318938793
 20
105.5920759675039
 30
0.0
 10
172.3099372876891
 20
105.977888899354
 30
0.0
 10
172.3237222496431
 20
106.5653268588678
 30
0.0
 10
172.3400380429933
 20
106.7624456948356
 30
0.0
 10
172.3947753668096
 20
107.148587378793
 30
0.0
 10
172.4331850036181
 20
107.3390253589563
 30
0.0
 10
172.5806506615893
 20
107.9026669666633
 30
0.0
 10
172.7241678154914
 20
108.2720491846304
 30
0.0
 10
173.0829899011923
 20
108.961535746536
 30
0.0
 10
173.2979505169664
 20
109.2842154940155
 30
0.0
 10
173.7961115445564
 20
109.8876759918541
 30
0.0
 10
174.0745284672363
 20
110.1622176062957
 30
0.0
 10
174.3774533662727
 20
110.408619860776
 30
0.0
  0
LINE
  5
CE
330
1F
100
AcDbEntity
  8
0
  6
Continuous
 62
     7
370
    15
100
AcDbLine
 10
130.617751042
 20
82.0317771895
 30
0.0
 11
130.617751042
 21
130.4726389129
 31
0.0
  0
LINE
  5
CF
330
1F
100
AcDbEntity
  8
0
  6
Continuous
 62
     7
370
    15
100
AcDbLine
 10
110.817751042
 20
83.0237611574
 30
0.0
 11
110.817751042
 21
84.28847052
 31
0.0
  0
SPLINE
  5
D0
330
1F
100
AcDbEntity
  8
0
  6
Continuous
 62
     7
370
    15
100
AcDbSpline
210
0.0
220
0.0
230
1.0
 70
     8
 71
     3
 72
    14
 73
    10
 74
     0
 42
0.000000001
 43
0.00000001
 40
0.0
 40
0.0
 40
0.0
 40
0.0
 40
0.25
 40
0.25
 40
0.5
 40
0.5
 40
0.75
 40
0.75
 40
1.0
 40
1.0
 40
1.0
 40
1.0
 10
110.0394639240477
 20
85.41905672766241
 30
0.0
 10
110.0960905992497
 20
85.31135927382554
 30
0.0
 10
110.1906132595394
 20
85.20856969210624
 30
0.0
 10
110.3736582351017
 20
85.01021237988608
 30
0.0
 10
110.4652848120564
 20
84.91415287120783
 30
0.0
 10
110.6241381297496
 20
84.72662382849859
 30
0.0
 10
110.6920287373713
 20
84.63521485571503
 30
0.0
 10
110.7889457630789
 20
84.45683863480488
 30
0.0
 10
110.817751041964
 20
84.36961672855871
 30
0.0
 10
110.8177510419639
 20
84.28847052002445
 30
0.0
  0
SPLINE
  5
D1
330
1F
100
AcDbEntity
  8
0
  6
Continuous
 62
     7
370
    15
100
AcDbSpline
210
0.0
220
0.0
230
1.0
 70
     8
 71
     3
 72
    14
 73
    10
 74
     0
 42
0.000000001
 43
0.00000001
 40
0.0
 40
0.0
 40
0.0
 40
0.0
 40
0.125
 40
0.125
 40
0.25
 40
0.25
 40
0.5
 40
0.5
 40
1.0
 40
1.0
 40
1.0
 40
1.0
 10
109.4177510419634
 20
85.86573858994173
 30
0.0
 10
109.4662954506205
 20
85.87148690322202
 30
0.0
 10
109.5192108054054
 20
85.86838601456579
 30
0.0
 10
109.6145061503885
 20
85.84619117040346
 30
0.0
 10
109.6547571476734
 20
85.8289589433076
 30
0.0
 10
109.7590271611864
 20
85.77263102685554
 30
0.0
 10
109.8093491363397
 20
85.72844468090973
 30
0.0
 10
109.9370320838651
 20
85.5974367820591
 30
0.0
 10
109.9931175309274
 20
85.50720226182881
 30
0.0
 10
110.0394639240491
 20
85.41905672766293
 30
0.0
  0
SPLINE
  5
D2
330
1F
100
AcDbEntity
  8
0
  6
Continuous
 62
     7
370
    15
100
AcDbSpline
210
0.0
220
0.0
230
1.0
 70
     8
 71
     3
 72
     8
 73
     4
 74
     0
 42
0.000000001
 43
0.00000001
 40
0.0
 40
0.0
 40
0.0
 40
0.0
 40
1.0
 40
1.0
 40
1.0
 40
1.0
 10
107.1492259490171
 20
85.55589330335893
 30
0.0
 10
107.8838029755001
 20
85.67451831442789
 30
0.0
 10
108.6472780448957
 20
85.77450418656419
 30
0.0
 10
109.4177510419634
 20
85.86573858994173
 30
0.0
  0
SPLINE
  5
D3
330
1F
100
AcDbEntity
  8
0
  6
Continuous
 62
     7
370
    15
100
AcDbSpline
210
0.0
220
0.0
230
1.0
 70
     8
 71
     3
 72
    14
 73
    10
 74
     0
 42
0.000000001
 43
0.00000001
 40
0.0
 40
0.0
 40
0.0
 40
0.0
 40
0.5000000000000002
 40
0.5000000000000002
 40
0.7500000000000002
 40
0.7500000000000002
 40
0.8750000000000001
 40
0.8750000000000001
 40
1.0
 40
1.0
 40
1.0
 40
1.0
 10
101.8677510419634
 20
85.38227028582729
 30
0.0
 10
102.7598971725169
 20
85.38154805962664
 30
0.0
 10
103.6498736083105
 20
85.3861342660841
 30
0.0
 10
104.9764687753861
 20
85.41385927047564
 30
0.0
 10
105.4173157038848
 20
85.42646580809982
 30
0.0
 10
106.0737559413073
 20
85.45748195610724
 30
0.0
 10
106.2917695978991
 20
85.46982512873403
 30
0.0
 10
106.7244784515819
 20
85.50284918389731
 30
0.0
 10
106.9397549167467
 20
85.52206634903575
 30
0.0
 10
107.1492259490171
 20
85.55589330335893
 30
0.0
  0
SPLINE
  5
D4
330
1F
100
AcDbEntity
  8
0
  6
Continuous
 62
     7
370
    15
100
AcDbSpline
210
0.0
220
0.0
230
1.0
 70
     8
 71
     3
 72
     8
 73
     4
 74
     0
 42
0.000000001
 43
0.00000001
 40
0.0000005163856998
 40
0.0000005163856998
 40
0.0000005163856998
 40
0.0000005163856998
 40
0.000026289209185
 40
0.000026289209185
 40
0.000026289209185
 40
0.000026289209185
 10
101.8577061115558
 20
85.39225415892408
 30
0.0
 10
101.8610338497636
 20
85.38891991205496
 30
0.0
 10
101.8643823027392
 20
85.38559195477964
 30
0.0
 10
101.8677510419633
 20
85.38227028582727
 30
0.0
  0
SPLINE
  5
D5
330
1F
100
AcDbEntity
  8
0
  6
Continuous
 62
     7
370
    15
100
AcDbSpline
210
0.0
220
0.0
230
1.0
 70
     8
 71
     3
 72
     8
 73
     4
 74
     0
 42
0.000000001
 43
0.00000001
 40
0.0000005099763573
 40
0.0000005099763573
 40
0.0000005099763573
 40
0.0000005099763573
 40
0.0000262827998699
 40
0.0000262827998699
 40
0.0000262827998699
 40
0.0000262827998699
 10
101.8677510419634
 20
127.1221458166174
 30
0.0
 10
101.8643823027356
 20
127.1188241476615
 30
0.0
 10
101.8610338497565
 20
127.1154961903827
 30
0.0
 10
101.8577061115451
 20
127.11216194351
 30
0.0
  0
SPLINE
  5
D6
330
1F
100
AcDbEntity
  8
0
  6
Continuous
 62
     7
370
    15
100
AcDbSpline
210
0.0
220
0.0
230
1.0
 70
     8
 71
     3
 72
    10
 73
     6
 74
     0
 42
0.000000001
 43
0.00000001
 40
0.0
 40
0.0
 40
0.0
 40
0.0
 40
0.5
 40
0.5
 40
1.0
 40
1.0
 40
1.0
 40
1.0
 10
105.4177510419634
 20
127.0752954430501
 30
0.0
 10
104.8301654948728
 20
127.0963609632865
 30
0.0
 10
104.2394191014124
 20
127.1071194491587
 30
0.0
 10
103.0553999361135
 20
127.1204842296944
 30
0.0
 10
102.4619859479081
 20
127.122626872359
 30
0.0
 10
101.8677510419634
 20
127.1221458166174
 30
0.0
  0
SPLINE
  5
D7
330
1F
100
AcDbEntity
  8
0
  6
Continuous
 62
     7
370
    15
100
AcDbSpline
210
0.0
220
0.0
230
1.0
 70
     8
 71
     3
 72
    18
 73
    14
 74
     0
 42
0.000000001
 43
0.00000001
 40
0.0
 40
0.0
 40
0.0
 40
0.0
 40
0.2500000000000008
 40
0.2500000000000008
 40
0.5000000000000009
 40
0.5000000000000009
 40
0.7500000000000009
 40
0.7500000000000009
 40
0.875000000000001
 40
0.875000000000001
 40
0.9375000000000006
 40
0.9375000000000006
 40
1.0
 40
1.0
 40
1.0
 40
1.0
 10
106.8177510419634
 20
128.0963157235853
 30
0.0
 10
106.8177510419634
 20
128.0131088147282
 30
0.0
 10
106.7819019420251
 20
127.9243721594146
 30
0.0
 10
106.6570302059912
 20
127.7422469688544
 30
0.0
 10
106.5666297883433
 20
127.6471169202277
 30
0.0
 10
106.3443871336011
 20
127.4579354111034
 30
0.0
 10
106.2146223471554
 20
127.3629902430087
 30
0.0
 10
105.9739848898439
 20
127.2247115354288
 30
0.0
 10
105.8862175917064
 20
127.1790011021264
 30
0.0
 10
105.7316935044996
 20
127.1211777969049
 30
0.0
 10
105.6750826184449
 20
127.103463032867
 30
0.0
 10
105.5510385875383
 20
127.0789237296341
 30
0.0
 10
105.48332391252
 20
127.0729445910958
 30
0.0
 10
105.4177510419634
 20
127.0752954430501
 30
0.0
  0
LINE
  5
D8
330
1F
100
AcDbEntity
  8
0
  6
Continuous
 62
     7
370
    15
100
AcDbLine
 10
106.817751042
 20
128.0963157236
 30
0.0
 11
106.817751042
 21
129.2802541434
 31
0.0
  0
SPLINE
  5
D9
330
1F
100
AcDbEntity
  8
0
  6
Continuous
 62
     7
370
    15
100
AcDbSpline
210
0.0
220
0.0
230
1.0
 70
     8
 71
     3
 72
    24
 73
    20
 74
     0
 42
0.000000001
 43
0.00000001
 40
0.0
 40
0.0
 40
0.0
 40
0.0
 40
0.0010489762969682
 40
0.0637843125639767
 40
0.1272220590447889
 40
0.19037889244876
 40
0.2526748653693632
 40
0.3146354154433589
 40
0.3770891997149993
 40
0.4393540298512636
 40
0.5008133242537819
 40
0.5621845104587263
 40
0.6248438451115537
 40
0.6874304766616293
 40
0.7496743174679374
 40
0.8119848426977089
 40
0.875096052541316
 40
0.9384412526965075
 40
0.9999999999999999
 40
0.9999999999999999
 40
0.9999999999999999
 40
0.9999999999999999
 10
119.3866568739391
 20
82.59469962264221
 30
0.0
 10
119.3862104138348
 20
82.59464133682332
 30
0.0
 10
119.3590628501411
 20
82.59109719488073
 30
0.0
 10
119.4546746277548
 20
82.60393093956358
 30
0.0
 10
119.6882348856492
 20
82.63317762476372
 30
0.0
 10
120.0837891929663
 20
82.67979194782662
 30
0.0
 10
120.610829496807
 20
82.72997508948602
 30
0.0
 10
121.2543599087949
 20
82.77435155193628
 30
0.0
 10
121.9930337640398
 20
82.8012963328739
 30
0.0
 10
122.7905482694705
 20
82.8047681835798
 30
0.0
 10
123.6171271519127
 20
82.7771409395502
 30
0.0
 10
124.4426501695199
 20
82.71866205057692
 30
0.0
 10
125.2347767175209
 20
82.63321702121688
 30
0.0
 10
125.9673489915264
 20
82.53148278138053
 30
0.0
 10
126.6029892282545
 20
82.42363965940763
 30
0.0
 10
127.1249003352642
 20
82.32200950266852
 30
0.0
 10
127.5065291123797
 20
82.23952434599029
 30
0.0
 10
127.7573435826136
 20
82.18337513964066
 30
0.0
 10
127.7864651385979
 20
82.1765256810269
 30
0.0
 10
127.800817659414
 20
82.17314993429873
 30
0.0
  0
SPLINE
  5
DA
330
1F
100
AcDbEntity
  8
0
  6
Continuous
 62
     7
370
    15
100
AcDbSpline
210
0.0
220
0.0
230
1.0
 70
     8
 71
     3
 72
    24
 73
    20
 74
     0
 42
0.000000001
 43
0.00000001
 40
0.0
 40
0.0
 40
0.0
 40
0.0
 40
0.061438427625136
 40
0.1250736755369643
 40
0.1884253490730172
 40
0.2508623904037476
 40
0.3129665632512369
 40
0.3753451453465166
 40
0.4377328972325402
 40
0.4990927322917273
 40
0.5605807588448041
 40
0.6229469893028856
 40
0.6854686282026866
 40
0.7475477813740222
 40
0.8098225060807238
 40
0.8730684085990468
 40
0.9364041844533111
 40
0.9991757196257863
 40
1.0
 40
1.0
 40
1.0
 40
1.0
 10
127.8007628886111
 20
130.3312370256797
 30
0.0
 10
127.7861621643074
 20
130.3278689688271
 30
0.0
 10
127.7564386455789
 20
130.3210124253533
 30
0.0
 10
127.5037008299307
 20
130.2646738048273
 30
0.0
 10
127.1207049134817
 20
130.1818167226974
 30
0.0
 10
126.5983493290437
 20
130.0799096927461
 30
0.0
 10
125.9635648510437
 20
129.9720705537023
 30
0.0
 10
125.2333412468712
 20
129.8706036017271
 30
0.0
 10
124.4428726616376
 20
129.7855438880365
 30
0.0
 10
123.6183891468092
 20
129.7273395941502
 30
0.0
 10
122.7913526879259
 20
129.6997561553235
 30
0.0
 10
121.9930284202739
 20
129.7032491328163
 30
0.0
 10
121.2532044559847
 20
129.7302050526694
 30
0.0
 10
120.6089502230092
 20
129.7745589946688
 30
0.0
 10
120.0815429677935
 20
129.8247644444266
 30
0.0
 10
119.6868783656436
 20
129.8713742996249
 30
0.0
 10
119.4543490864588
 20
129.9005698921722
 30
0.0
 10
119.3589690539065
 20
129.9133479611141
 30
0.0
 10
119.385902690808
 20
129.9097937026058
 30
0.0
 10
119.3862517840323
 20
129.9097476350224
 30
0.0
  0
SPLINE
  5
DB
330
1F
100
AcDbEntity
  8
0
  6
Continuous
 62
     7
370
    15
100
AcDbSpline
210
0.0
220
0.0
230
1.0
 70
     8
 71
     3
 72
     9
 73
     5
 74
     0
 42
0.000000001
 43
0.00000001
 40
0.0
 40
0.0
 40
0.0
 40
0.0
 40
0.7009329310330167
 40
1.0
 40
1.0
 40
1.0
 40
1.0
 10
100.7385357261988
 20
86.55092774711974
 30
0.0
 10
100.7476750028741
 20
86.5330984615782
 30
0.0
 10
100.7607137349277
 20
86.50766195438594
 30
0.0
 10
100.775878988693
 20
86.56154181457774
 30
0.0
 10
100.7804144166868
 20
86.57765550644164
 30
0.0
  0
LINE
  5
DC
330
1F
100
AcDbEntity
  8
0
  6
Continuous
 62
     7
370
    15
100
AcDbLine
 10
100.717751042
 20
86.5615303047
 30
0.0
 11
100.717751042
 21
125.9428857977
 31
0.0
  0
SPLINE
  5
DD
330
1F
100
AcDbEntity
  8
0
  6
Continuous
 62
     7
370
    15
100
AcDbSpline
210
0.0
220
0.0
230
1.0
 70
     8
 71
     3
 72
    10
 73
     6
 74
     0
 42
0.000000001
 43
0.00000001
 40
0.0
 40
0.0
 40
0.0
 40
0.0
 40
0.5
 40
0.5
 40
1.0
 40
1.0
 40
1.0
 40
1.0
 10
100.7804144166868
 20
125.9267605960031
 30
0.0
 10
100.771510127578
 20
125.9725021152163
 30
0.0
 10
100.754994747385
 20
125.9896929546853
 30
0.0
 10
100.7278868013234
 20
125.9893696777495
 30
0.0
 10
100.7177510419634
 20
125.9714921354531
 30
0.0
 10
100.7177510419634
 20
125.9428857977005
 30
0.0
  0
SPLINE
  5
DE
330
1F
100
AcDbEntity
  8
0
  6
Continuous
 62
     7
370
    15
100
AcDbSpline
210
0.0
220
0.0
230
1.0
 70
     8
 71
     3
 72
    26
 73
    22
 74
     0
 42
0.000000001
 43
0.00000001
 40
0.0
 40
0.0
 40
0.0
 40
0.0
 40
0.2500000000000165
 40
0.2500000000000165
 40
0.3750000000000256
 40
0.3750000000000256
 40
0.4375000000000291
 40
0.4375000000000291
 40
0.4687500000000291
 40
0.4687500000000291
 40
0.5000000000000292
 40
0.5000000000000292
 40
0.5312500000000293
 40
0.5312500000000293
 40
0.5625000000000293
 40
0.5625000000000293
 40
0.625000000000026
 40
0.625000000000026
 40
0.7500000000000173
 40
0.7500000000000173
 40
1.0
 40
1.0
 40
1.0
 40
1.0
 10
101.5419046880679
 20
126.6423273848202
 30
0.0
 10
101.5033041651994
 20
126.5245526884647
 30
0.0
 10
101.4570071626452
 20
126.4001630023028
 30
0.0
 10
101.3630678142112
 20
126.1949436699494
 30
0.0
 10
101.3277563472978
 20
126.1233708035029
 30
0.0
 10
101.2615763715521
 20
126.0074175709024
 30
0.0
 10
101.2370380048839
 20
125.9668330360922
 30
0.0
 10
101.1936652593301
 20
125.9026913542205
 30
0.0
 10
101.1781568579049
 20
125.8808249289354
 30
0.0
 10
101.1431142133178
 20
125.8352306605922
 30
0.0
 10
101.1235639225981
 20
125.8115603696248
 30
0.0
 10
101.0816366422275
 20
125.7669438102849
 30
0.0
 10
101.0589845319958
 20
125.746063797767
 30
0.0
 10
101.0180108179092
 20
125.7151903840161
 30
0.0
 10
101.0004115180138
 20
125.7053515141837
 30
0.0
 10
100.9557845321576
 20
125.6863618984876
 30
0.0
 10
100.9352253095043
 20
125.6860375738341
 30
0.0
 10
100.8840998700076
 20
125.6952610147103
 30
0.0
 10
100.8631884570191
 20
125.7165079109273
 30
0.0
 10
100.8117385494582
 20
125.790476789758
 30
0.0
 10
100.7940732501536
 20
125.8565948830728
 30
0.0
 10
100.7804144166868
 20
125.9267605960031
 30
0.0
  0
SPLINE
  5
DF
330
1F
100
AcDbEntity
  8
0
  6
Continuous
 62
     7
370
    15
100
AcDbSpline
210
0.0
220
0.0
230
1.0
 70
     8
 71
     3
 72
    10
 73
     6
 74
     0
 42
0.000000001
 43
0.00000001
 40
0.0
 40
0.0
 40
0.0
 40
0.0
 40
0.5
 40
0.5
 40
1.0
 40
1.0
 40
1.0
 40
1.0
 10
101.8577061115452
 20
127.11216194351
 30
0.0
 10
101.7901468566269
 20
127.0444705507002
 30
0.0
 10
101.7265102012904
 20
126.9697633859466
 30
0.0
 10
101.6162894467186
 20
126.81079725352
 30
0.0
 10
101.5694731534959
 20
126.726441987512
 30
0.0
 10
101.5419046880679
 20
126.6423273848202
 30
0.0
  0
SPLINE
  5
E0
330
1F
100
AcDbEntity
  8
0
  6
Continuous
 62
     7
370
    15
100
AcDbSpline
210
0.0
220
0.0
230
1.0
 70
     8
 71
     3
 72
    10
 73
     6
 74
     0
 42
0.000000001
 43
0.00000001
 40
0.0
 40
0.0
 40
0.0
 40
0.0
 40
0.5
 40
0.5
 40
1.0
 40
1.0
 40
1.0
 40
1.0
 10
101.5419046880679
 20
85.86208871762439
 30
0.0
 10
101.5693821028219
 20
85.77825192115651
 30
0.0
 10
101.6160907331113
 20
85.69394143356737
 30
0.0
 10
101.7263691958573
 20
85.53482020308066
 30
0.0
 10
101.7902567344712
 20
85.45983545899101
 30
0.0
 10
101.8577061115558
 20
85.39225415892408
 30
0.0
  0
SPLINE
  5
E1
330
1F
100
AcDbEntity
  8
0
  6
Continuous
 62
     7
370
    15
100
AcDbSpline
210
0.0
220
0.0
230
1.0
 70
     8
 71
     3
 72
    24
 73
    20
 74
     0
 42
0.000000001
 43
0.00000001
 40
0.0
 40
0.0
 40
0.0
 40
0.0
 40
0.249999999999999
 40
0.249999999999999
 40
0.3749999999999983
 40
0.3749999999999983
 40
0.4374999999999987
 40
0.4374999999999987
 40
0.4687499999999975
 40
0.4687499999999975
 40
0.4999999999999963
 40
0.4999999999999963
 40
0.5624999999999984
 40
0.5624999999999984
 40
0.6250000000000006
 40
0.6250000000000006
 40
0.7500000000000001
 40
0.7500000000000001
 40
1.0
 40
1.0
 40
1.0
 40
1.0
 10
100.7804144166868
 20
86.57765550644162
 30
0.0
 10
100.794167535357
 20
86.6483055644319
 30
0.0
 10
100.8119401027629
 20
86.71490367719683
 30
0.0
 10
100.8641911943182
 20
86.78900169743004
 30
0.0
 10
100.8852262698998
 20
86.81025950459158
 30
0.0
 10
100.9381266775282
 20
86.81840543073784
 30
0.0
 10
100.9592323504061
 20
86.81746562734205
 30
0.0
 10
101.0052845190841
 20
86.7964496357647
 30
0.0
 10
101.0236549910675
 20
86.7855408296571
 30
0.0
 10
101.0652066261332
 20
86.75290591870973
 30
0.0
 10
101.0877732988901
 20
86.73141393833835
 30
0.0
 10
101.1505543153501
 20
86.66294799475203
 30
0.0
 10
101.183684076318
 20
86.61687353654695
 30
0.0
 10
101.2406017628031
 20
86.53186564821227
 30
0.0
 10
101.2647877883068
 20
86.4915853470309
 30
0.0
 10
101.3299957386866
 20
86.37664912056496
 30
0.0
 10
101.3647117988778
 20
86.30606613541794
 30
0.0
 10
101.4579270692087
 20
86.10186037633935
 30
0.0
 10
101.5035996045694
 20
85.978961994012
 30
0.0
 10
101.5419046880679
 20
85.8620887176244
 30
0.0
  0
SPLINE
  5
E2
330
1F
100
AcDbEntity
  8
0
  6
Continuous
 62
     7
370
    15
100
AcDbSpline
210
0.0
220
0.0
230
1.0
 70
     8
 71
     3
 72
     8
 73
     4
 74
     0
 42
0.000000001
 43
0.00000001
 40
0.0
 40
0.0
 40
0.0
 40
0.0
 40
1.0
 40
1.0
 40
1.0
 40
1.0
 10
148.7077510419634
 20
134.057442242394
 30
0.0
 10
148.2150409451176
 20
134.9454612405204
 30
0.0
 10
147.7209582398386
 20
135.8327238762064
 30
0.0
 10
147.2258182104743
 20
136.7194035243866
 30
0.0
  0
LINE
  5
E3
330
1F
100
AcDbEntity
  8
0
  6
Continuous
 62
     7
370
    15
100
AcDbLine
 10
148.707751042
 20
127.3023517188
 30
0.0
 11
148.707751042
 21
134.0574422424
 31
0.0
  0
SPLINE
  5
E4
330
1F
100
AcDbEntity
  8
0
  6
Continuous
 62
     7
370
    15
100
AcDbSpline
210
0.0
220
0.0
230
1.0
 70
     8
 71
     3
 72
     8
 73
     4
 74
     0
 42
0.000000001
 43
0.00000001
 40
0.0
 40
0.0
 40
0.0
 40
0.0
 40
1.0
 40
1.0
 40
1.0
 40
1.0
 10
147.2258182104743
 20
130.7108977135898
 30
0.0
 10
147.7329050522336
 20
129.5797473594261
 30
0.0
 10
148.2284728913735
 20
128.4433629486583
 30
0.0
 10
148.7077510419633
 20
127.3023517188057
 30
0.0
  0
SPLINE
  5
E5
330
1F
100
AcDbEntity
  8
0
  6
Continuous
 62
     7
370
    15
100
AcDbSpline
210
0.0
220
0.0
230
1.0
 70
     8
 71
     3
 72
    10
 73
     6
 74
     0
 42
0.000000001
 43
0.00000001
 40
0.0
 40
0.0
 40
0.0
 40
0.0
 40
0.5
 40
0.5
 40
1.0
 40
1.0
 40
1.0
 40
1.0
 10
158.5677510419634
 20
136.0986483749863
 30
0.0
 10
158.5677510419634
 20
136.2590536413371
 30
0.0
 10
158.5055132108565
 20
136.4181154543257
 30
0.0
 10
158.286378287114
 20
136.649027919956
 30
0.0
 10
158.1287895921221
 20
136.7194035243866
 30
0.0
 10
157.9677510419634
 20
136.7194035243866
 30
0.0
  0
SPLINE
  5
E6
330
1F
100
AcDbEntity
  8
0
  6
Continuous
 62
     7
370
    15
100
AcDbSpline
210
0.0
220
0.0
230
1.0
 70
     8
 71
     3
 72
    12
 73
     8
 74
     0
 42
0.000000001
 43
0.00000001
 40
0.0
 40
0.0
 40
0.0
 40
0.0
 40
0.250000000000002
 40
0.250000000000002
 40
0.500000000000004
 40
0.500000000000004
 40
1.0
 40
1.0
 40
1.0
 40
1.0
 10
157.9677510419634
 20
130.7108977135898
 30
0.0
 10
158.058950763789
 20
130.7108977135898
 30
0.0
 10
158.1495457729251
 20
130.6826780150019
 30
0.0
 10
158.3029584993717
 20
130.5882350077538
 30
0.0
 10
158.3681673666954
 20
130.5219480310485
 30
0.0
 10
158.5209518960353
 20
130.2963232077602
 30
0.0
 10
158.5677510419634
 20
130.1138969447276
 30
0.0
 10
158.5677510419634
 20
129.9331603124808
 30
0.0
  0
LINE
  5
E7
330
1F
100
AcDbEntity
  8
0
  6
Continuous
 62
     7
370
    15
100
AcDbLine
 10
158.567751042
 20
129.9331603125
 30
0.0
 11
158.567751042
 21
136.098648375
 31
0.0
  0
SPLINE
  5
E8
330
1F
100
AcDbEntity
  8
0
  6
Continuous
 62
     7
370
    15
100
AcDbSpline
210
0.0
220
0.0
230
1.0
 70
     8
 71
     3
 72
     8
 73
     4
 74
     0
 42
0.000000001
 43
0.00000001
 40
0.0
 40
0.0
 40
0.0
 40
0.0
 40
1.0
 40
1.0
 40
1.0
 40
1.0
 10
154.0096838734524
 20
136.7194035243866
 30
0.0
 10
153.5145438440881
 20
135.8327238762064
 30
0.0
 10
153.0204611388091
 20
134.9454612405203
 30
0.0
 10
152.5277510419634
 20
134.057442242394
 30
0.0
  0
LINE
  5
E9
330
1F
100
AcDbEntity
  8
0
  6
Continuous
 62
     7
370
    15
100
AcDbLine
 10
154.0096838735
 20
130.7108977136
 30
0.0
 11
154.0096838735
 21
136.7194035244
 31
0.0
  0
SPLINE
  5
EA
330
1F
100
AcDbEntity
  8
0
  6
Continuous
 62
     7
370
    15
100
AcDbSpline
210
0.0
220
0.0
230
1.0
 70
     8
 71
     3
 72
     8
 73
     4
 74
     0
 42
0.000000001
 43
0.00000001
 40
0.0
 40
0.0
 40
0.0
 40
0.0
 40
1.0
 40
1.0
 40
1.0
 40
1.0
 10
152.5277510419634
 20
127.3023517188057
 30
0.0
 10
153.0070291925532
 20
128.4433629486583
 30
0.0
 10
153.5025970316931
 20
129.5797473594261
 30
0.0
 10
154.0096838734524
 20
130.7108977135898
 30
0.0
  0
LINE
  5
EB
330
1F
100
AcDbEntity
  8
0
  6
Continuous
 62
     7
370
    15
100
AcDbLine
 10
152.527751042
 20
127.3023517188
 30
0.0
 11
152.527751042
 21
134.0574422424
 31
0.0
  0
LINE
  5
EC
330
1F
100
AcDbEntity
  8
0
  6
Continuous
 62
     7
370
    15
100
AcDbLine
 10
157.967751042
 20
136.7194035244
 30
0.0
 11
154.0096838735
 21
136.7194035244
 31
0.0
  0
LINE
  5
ED
330
1F
100
AcDbEntity
  8
0
  6
Continuous
 62
     7
370
    15
100
AcDbLine
 10
154.0096838735
 20
130.7108977136
 30
0.0
 11
157.967751042
 21
130.7108977136
 31
0.0
  0
LINE
  5
EE
330
1F
100
AcDbEntity
  8
0
  6
Continuous
 62
     7
370
    15
100
AcDbLine
 10
152.527751042
 20
126.3880746827
 30
0.0
 11
152.527751042
 21
127.3023517188
 31
0.0
  0
LINE
  5
EF
330
1F
100
AcDbEntity
  8
0
  6
Continuous
 62
     7
370
    15
100
AcDbLine
 10
158.567751042
 20
129.9331603125
 30
0.0
 11
158.567751042
 21
126.1022080512
 31
0.0
  0
LINE
  5
F0
330
1F
100
AcDbEntity
  8
0
  6
Continuous
 62
     7
370
    15
100
AcDbLine
 10
148.707751042
 20
127.3023517188
 30
0.0
 11
148.707751042
 21
126.3880746827
 31
0.0
  0
CIRCLE
  5
F1
330
1F
100
AcDbEntity
  8
0
  6
HIDDEN
 62
     7
370
     0
100
AcDbCircle
 10
178.567751042
 20
106.2522080512
 30
0.0
 40
3.680384757729345
  0
CIRCLE
  5
F2
330
1F
100
AcDbEntity
  8
0
  6
HIDDEN
 62
     7
370
     0
100
AcDbCircle
 10
178.567751042
 20
106.2522080512
 30
0.0
 40
3.380384757729346
  0
LINE
  5
F3
330
1F
100
AcDbEntity
  8
0
  6
HIDDEN
 62
     7
370
     0
100
AcDbLine
 10
147.2258182105
 20
130.7108977136
 30
0.0
 11
147.2258182105
 21
126.1022080512
 31
0.0
  0
LINE
  5
F4
330
1F
100
AcDbEntity
  8
0
  6
HIDDEN
 62
     7
370
     0
100
AcDbLine
 10
120.6129012465
 20
82.7276084284
 30
0.0
 11
120.3612436523
 21
82.7040868069
 31
0.0
  0
SPLINE
  5
F5
330
1F
100
AcDbEntity
  8
0
  6
HIDDEN
 62
     7
370
     0
100
AcDbSpline
210
0.0
220
0.0
230
1.0
 70
     8
 71
     3
 72
    10
 73
     6
 74
     0
 42
0.000000001
 43
0.00000001
 40
0.0
 40
0.0
 40
0.0
 40
0.0
 40
0.4475780818580021
 40
0.895139404870559
 40
1.0
 40
1.0
 40
1.0
 40
1.0
 10
126.372753043565
 20
126.0897365270388
 30
0.0
 10
126.6194585742613
 20
126.1192490071635
 30
0.0
 10
127.1128603981599
 20
126.1782728623653
 30
0.0
 10
127.4018749997216
 20
126.1922108940942
 30
0.0
 10
127.3415070075199
 20
126.1883202355229
 30
0.0
 10
127.330047969815
 20
126.1875817116522
 30
0.0
  0
SPLINE
  5
F6
330
1F
100
AcDbEntity
  8
0
  6
HIDDEN
 62
     7
370
     0
100
AcDbSpline
210
0.0
220
0.0
230
1.0
 70
     8
 71
     3
 72
    10
 73
     6
 74
     0
 42
0.000000001
 43
0.00000001
 40
0.0
 40
0.0
 40
0.0
 40
0.0
 40
0.3456053188490388
 40
0.796737566915907
 40
1.0
 40
1.0
 40
1.0
 40
1.0
 10
127.3300788541097
 20
86.31683229135417
 30
0.0
 10
127.3205191851944
 20
86.3173877927692
 30
0.0
 10
127.2984809035573
 20
86.3186684120817
 30
0.0
 10
126.8814831626032
 20
86.34862981255527
 30
0.0
 10
126.4933207157298
 20
86.3990259589678
 30
0.0
 10
126.372753043565
 20
86.4146795754059
 30
0.0
  0
SPLINE
  5
F7
330
1F
100
AcDbEntity
  8
0
  6
HIDDEN
 62
     7
370
     0
100
AcDbSpline
210
0.0
220
0.0
230
1.0
 70
     8
 71
     3
 72
    15
 73
    11
 74
     0
 42
0.000000001
 43
0.00000001
 40
0.0
 40
0.0
 40
0.0
 40
0.0
 40
0.1409172169897705
 40
0.2818898291171906
 40
0.4212989265166057
 40
0.5593768372264388
 40
0.6988856205980569
 40
0.8403671979046411
 40
0.981316445467027
 40
1.0
 40
1.0
 40
1.0
 40
1.0
 10
126.372753043565
 20
86.4146795754059
 30
0.0
 10
126.0567113572924
 20
86.45503339272751
 30
0.0
 10
125.4245037474604
 20
86.53575689062235
 30
0.0
 10
124.1903406257832
 20
86.61231198822462
 30
0.0
 10
122.9196186249247
 20
86.60763593708558
 30
0.0
 10
121.7310592198972
 20
86.52683992535337
 30
0.0
 10
120.7379365471161
 20
86.40244312884161
 30
0.0
 10
120.0985275408195
 20
86.2960395901795
 30
0.0
 10
119.817507434236
 20
86.24295892950235
 30
0.0
 10
119.8840681719292
 20
86.25521496951659
 30
0.0
 10
119.8918584954474
 20
86.25664942652644
 30
0.0
  0
SPLINE
  5
F8
330
1F
100
AcDbEntity
  8
0
  6
HIDDEN
 62
     7
370
     0
100
AcDbSpline
210
0.0
220
0.0
230
1.0
 70
     8
 71
     3
 72
    15
 73
    11
 74
     0
 42
0.000000001
 43
0.00000001
 40
0.0
 40
0.0
 40
0.0
 40
0.0
 40
0.1201202395113831
 40
0.2584739316900695
 40
0.3987301965958642
 40
0.5404022890432704
 40
0.680739540300365
 40
0.819035606386088
 40
0.9577823106998845
 40
1.0
 40
1.0
 40
1.0
 40
1.0
 10
119.8918584954474
 20
126.2477666759183
 30
0.0
 10
119.9125676319179
 20
126.2437420820647
 30
0.0
 10
119.9571294139057
 20
126.2350819878038
 30
0.0
 10
120.5195690197784
 20
126.1357908611951
 30
0.0
 10
121.4130312320997
 20
126.0118732712139
 30
0.0
 10
122.5720103862919
 20
125.9121628343924
 30
0.0
 10
123.8450472664173
 20
125.8850243453168
 30
0.0
 10
125.0793325410609
 20
125.9403631794807
 30
0.0
 10
125.9072953378269
 20
126.0268417784649
 30
0.0
 10
126.2847058824908
 20
126.0778391967548
 30
0.0
 10
126.372753043565
 20
126.0897365270388
 30
0.0
  0
LINE
  5
F9
330
1F
100
AcDbEntity
  8
0
  6
HIDDEN
 62
     7
370
     0
100
AcDbLine
 10
113.6217256382
 20
89.2522080512
 30
0.0
 11
113.6217256382
 21
123.2522080512
 31
0.0
  0
SPLINE
  5
FA
330
1F
100
AcDbEntity
  8
0
  6
HIDDEN
 62
     7
370
     0
100
AcDbSpline
210
0.0
220
0.0
230
1.0
 70
     8
 71
     3
 72
    11
 73
     7
 74
     0
 42
0.000000001
 43
0.00000001
 40
0.0
 40
0.0
 40
0.0
 40
0.0
 40
0.0005779865010846
 40
0.0005779865010846
 40
0.0005779865010846
 40
0.0011559733324422
 40
0.0011559733324422
 40
0.0011559733324422
 40
0.0011559733324422
 10
100.7177510419634
 20
108.2520486593823
 30
0.0
 10
100.8844182967693
 20
108.2500650200416
 30
0.0
 10
101.051084726447
 20
108.2480274130334
 30
0.0
 10
101.2177510648988
 20
108.2459159496272
 30
0.0
 10
101.3844174937252
 20
108.2438044850762
 30
0.0
 10
101.5510838673629
 20
108.2416189219201
 30
0.0
 10
101.7177510419634
 20
108.2393363445888
 30
0.0
  0
SPLINE
  5
FB
330
1F
100
AcDbEntity
  8
0
  6
HIDDEN
 62
     7
370
     0
100
AcDbSpline
210
0.0
220
0.0
230
1.0
 70
     8
 71
     3
 72
    11
 73
     7
 74
     0
 42
0.000000001
 43
0.00000001
 40
0.0
 40
0.0
 40
0.0
 40
0.0
 40
0.0005782382535738
 40
0.0005782382535738
 40
0.0005782382535738
 40
0.0011564766069467
 40
0.0011564766069467
 40
0.0011564766069467
 40
0.0011564766069467
 10
101.7177510419634
 20
104.2555077490041
 30
0.0
 10
101.5510970879947
 20
104.2550701712425
 30
0.0
 10
101.3844364157928
 20
104.2545901065701
 30
0.0
 10
101.2177695271274
 20
104.2540705672007
 30
0.0
 10
101.0511026087313
 20
104.2535510277387
 30
0.0
 10
100.8844294788981
 20
104.2529921987168
 30
0.0
 10
100.7177510419634
 20
104.2524066551337
 30
0.0
  0
LINE
  5
FC
330
1F
100
AcDbEntity
  8
0
  6
HIDDEN
 62
     7
370
     0
100
AcDbLine
 10
140.2775770105
 20
89.2522080512
 30
0.0
 11
140.2775770105
 21
123.2522080512
 31
0.0
  0
LINE
  5
FD
330
1F
100
AcDbEntity
  8
0
  6
HIDDEN
 62
     7
370
     0
100
AcDbLine
 10
142.567751042
 20
90.5272080512
 30
0.0
 11
142.567751042
 21
121.9772080497
 31
0.0
  0
SPLINE
  5
FE
330
1F
100
AcDbEntity
  8
0
  6
HIDDEN
 62
     7
370
     0
100
AcDbSpline
210
0.0
220
0.0
230
1.0
 70
     8
 71
     3
 72
    16
 73
    12
 74
     0
 42
0.000000001
 43
0.00000001
 40
0.0
 40
0.0
 40
0.0
 40
0.0
 40
0.124999999999998
 40
0.124999999999998
 40
0.249999999999996
 40
0.249999999999996
 40
0.4999999999999973
 40
0.4999999999999973
 40
0.7499999999999987
 40
0.7499999999999987
 40
1.0
 40
1.0
 40
1.0
 40
1.0
 10
109.4177510419634
 20
90.4507176151907
 30
0.0
 10
109.5128727966292
 20
90.4507176151907
 30
0.0
 10
109.6062028653573
 20
90.4469017817979
 30
0.0
 10
109.7894646260953
 20
90.43213122906809
 30
0.0
 10
109.8803423416523
 20
90.42097318109252
 30
0.0
 10
110.137144039172
 20
90.37850191095079
 30
0.0
 10
110.292211404044
 20
90.33745571374799
 30
0.0
 10
110.5459578655986
 20
90.2423095971661
 30
0.0
 10
110.6468283172665
 20
90.18754686308453
 30
0.0
 10
110.7820747319613
 20
90.07628573918063
 30
0.0
 10
110.8177510419634
 20
90.01911600185196
 30
0.0
 10
110.8177510419634
 20
89.96469442881825
 30
0.0
  0
SPLINE
  5
FF
330
1F
100
AcDbEntity
  8
0
  6
HIDDEN
 62
     7
370
     0
100
AcDbSpline
210
0.0
220
0.0
230
1.0
 70
     8
 71
     3
 72
     8
 73
     4
 74
     0
 42
0.000000001
 43
0.00000001
 40
0.0
 40
0.0
 40
0.0
 40
0.0
 40
1.0
 40
1.0
 40
1.0
 40
1.0
 10
102.0177510452442
 20
92.59552056127293
 30
0.0
 10
102.0177510452461
 20
91.711623418956
 30
0.0
 10
102.0042704193367
 20
90.99704017389404
 30
0.0
 10
102.0029190511474
 20
90.45071761519068
 30
0.0
  0
SPLINE
  5
100
330
1F
100
AcDbEntity
  8
0
  6
HIDDEN
 62
     7
370
     0
100
AcDbSpline
210
0.0
220
0.0
230
1.0
 70
     8
 71
     3
 72
    10
 73
     6
 74
     0
 42
0.000000001
 43
0.00000001
 40
0.0
 40
0.0
 40
0.0
 40
0.0
 40
0.5
 40
0.5
 40
1.0
 40
1.0
 40
1.0
 40
1.0
 10
101.7177510419634
 20
93.62043082692571
 30
0.0
 10
101.8091421576456
 20
93.44579203931643
 30
0.0
 10
101.8817939913711
 20
93.27219021206943
 30
0.0
 10
101.9892928843667
 20
92.92857679307984
 30
0.0
 10
102.0177510452386
 20
92.76025096655678
 30
0.0
 10
102.0177510452442
 20
92.5955205613324
 30
0.0
  0
LINE
  5
101
330
1F
100
AcDbEntity
  8
0
  6
HIDDEN
 62
     7
370
     0
100
AcDbLine
 10
101.717751042
 20
96.651381259
 30
0.0
 11
101.717751042
 21
93.6204308269
 31
0.0
  0
SPLINE
  5
102
330
1F
100
AcDbEntity
  8
0
  6
HIDDEN
 62
     7
370
     0
100
AcDbSpline
210
0.0
220
0.0
230
1.0
 70
     8
 71
     3
 72
    10
 73
     6
 74
     0
 42
0.000000001
 43
0.00000001
 40
0.0
 40
0.0
 40
0.0
 40
0.0
 40
0.5
 40
0.5
 40
1.0
 40
1.0
 40
1.0
 40
1.0
 10
102.0177510450486
 20
98.01922167557953
 30
0.0
 10
102.0177510450486
 20
97.77723770800823
 30
0.0
 10
101.9896010159883
 20
97.54289527907615
 30
0.0
 10
101.8860111018829
 20
97.08752025686007
 30
0.0
 10
101.8093823923179
 20
96.86591569378238
 30
0.0
 10
101.7177510419634
 20
96.6513812590096
 30
0.0
  0
LINE
  5
103
330
1F
100
AcDbEntity
  8
0
  6
HIDDEN
 62
     7
370
     0
100
AcDbLine
 10
102.017751045
 20
109.8568416728
 30
0.0
 11
102.017751045
 21
98.0192216755
 31
0.0
  0
SPLINE
  5
104
330
1F
100
AcDbEntity
  8
0
  6
HIDDEN
 62
     7
370
     0
100
AcDbSpline
210
0.0
220
0.0
230
1.0
 70
     8
 71
     3
 72
     8
 73
     4
 74
     0
 42
0.000000001
 43
0.00000001
 40
0.0
 40
0.0
 40
0.0
 40
0.0
 40
1.0
 40
1.0
 40
1.0
 40
1.0
 10
101.7177510419634
 20
115.8591473721029
 30
0.0
 10
101.8987825084627
 20
115.4270398864926
 30
0.0
 10
102.0177510450543
 20
114.972894480453
 30
0.0
 10
102.0177510450486
 20
114.4851944268343
 30
0.0
  0
LINE
  5
105
330
1F
100
AcDbEntity
  8
0
  6
HIDDEN
 62
     7
370
     0
100
AcDbLine
 10
101.717751042
 20
118.8923503583
 30
0.0
 11
101.717751042
 21
115.8591473721
 31
0.0
  0
SPLINE
  5
106
330
1F
100
AcDbEntity
  8
0
  6
HIDDEN
 62
     7
370
     0
100
AcDbSpline
210
0.0
220
0.0
230
1.0
 70
     8
 71
     3
 72
    10
 73
     6
 74
     0
 42
0.000000001
 43
0.00000001
 40
0.0
 40
0.0
 40
0.0
 40
0.0
 40
0.5
 40
0.5
 40
1.0
 40
1.0
 40
1.0
 40
1.0
 10
102.0177510453558
 20
119.9088955411422
 30
0.0
 10
102.017751045354
 20
119.7442591945364
 30
0.0
 10
101.9905923745988
 20
119.5771039707061
 30
0.0
 10
101.8848273792806
 20
119.2384809629049
 30
0.0
 10
101.8084125909835
 20
119.0662091856142
 30
0.0
 10
101.7177510419634
 20
118.8923503582704
 30
0.0
  0
SPLINE
  5
107
330
1F
100
AcDbEntity
  8
0
  6
HIDDEN
 62
     7
370
     0
100
AcDbSpline
210
0.0
220
0.0
230
1.0
 70
     8
 71
     3
 72
    18
 73
    14
 74
     0
 42
0.000000001
 43
0.00000001
 40
0.0
 40
0.0
 40
0.0
 40
0.0
 40
0.2500000000000033
 40
0.2500000000000033
 40
0.3750000000000029
 40
0.3750000000000029
 40
0.5000000000000026
 40
0.5000000000000026
 40
0.6250000000000022
 40
0.6250000000000022
 40
0.7500000000000018
 40
0.7500000000000018
 40
1.0
 40
1.0
 40
1.0
 40
1.0
 10
106.8177510419634
 20
122.5397216736265
 30
0.0
 10
106.8177510419634
 20
122.4852471530743
 30
0.0
 10
106.7828403505712
 20
122.4288660937218
 30
0.0
 10
106.6808310492382
 20
122.3447892528683
 30
0.0
 10
106.63919469456
 20
122.3174555488774
 30
0.0
 10
106.5407888990713
 20
122.2645016332784
 30
0.0
 10
106.483245687367
 20
122.2386142795613
 30
0.0
 10
106.355947513794
 20
122.190836734728
 30
0.0
 10
106.2863602090366
 20
122.1688888165501
 30
0.0
 10
106.1349259638816
 20
122.1294562516374
 30
0.0
 10
106.0522420607877
 20
122.1119000024115
 30
0.0
 10
105.7961305987496
 20
122.069461236991
 30
0.0
 10
105.6082155948616
 20
122.053698487254
 30
0.0
 10
105.4177510419634
 20
122.053698487254
 30
0.0
  0
LINE
  5
108
330
1F
100
AcDbEntity
  8
0
  6
HIDDEN
 62
     7
370
     0
100
AcDbLine
 10
105.417751042
 20
122.0536984873
 30
0.0
 11
102.0177510454
 21
122.0536984873
 31
0.0
  0
LINE
  5
109
330
1F
100
AcDbEntity
  8
0
  6
HIDDEN
 62
     7
370
     0
100
AcDbLine
 10
101.9487820553
 20
90.4507176152
 30
0.0
 11
109.417751042
 21
90.4507176152
 31
0.0
  0
SPLINE
  5
10A
330
1F
100
AcDbEntity
  8
0
  6
HIDDEN
 62
     7
370
     0
100
AcDbSpline
210
0.0
220
0.0
230
1.0
 70
     8
 71
     3
 72
    22
 73
    18
 74
     0
 42
0.000000001
 43
0.00000001
 40
0.0
 40
0.0
 40
0.0
 40
0.0
 40
0.125
 40
0.125
 40
0.25
 40
0.25
 40
0.5000000000000001
 40
0.5000000000000001
 40
0.5625000000000001
 40
0.5625000000000001
 40
0.6250000000000001
 40
0.6250000000000001
 40
0.75
 40
0.75
 40
0.875
 40
0.875
 40
1.0
 40
1.0
 40
1.0
 40
1.0
 10
101.9487820553213
 20
90.4507176151907
 30
0.0
 10
101.9356996625929
 20
90.70582332533837
 30
0.0
 10
101.9224800991531
 20
90.99898158444228
 30
0.0
 10
101.9000329213589
 20
91.66128205006709
 30
0.0
 10
101.8905544543345
 20
92.03155597067847
 30
0.0
 10
101.871356493398
 20
93.25411277379226
 30
0.0
 10
101.8724702663949
 20
94.19125169992412
 30
0.0
 10
101.8913810593479
 20
95.51112292943911
 30
0.0
 10
101.8960105872069
 20
95.78262483841542
 30
0.0
 10
101.9064918069529
 20
96.34100967321773
 30
0.0
 10
101.9122870682373
 20
96.62813252915734
 30
0.0
 10
101.9305962891422
 20
97.50072178352902
 30
0.0
 10
101.9446312234226
 20
98.10117745988488
 30
0.0
 10
101.9740883955594
 20
99.33865195238094
 30
0.0
 10
101.989644086541
 20
99.9756681090244
 30
0.0
 10
102.0134386365379
 20
101.287156706709
 30
0.0
 10
102.0214576886832
 20
101.9632793183695
 30
0.0
 10
102.0177510419634
 20
102.6475744296543
 30
0.0
  0
LINE
  5
10B
330
1F
100
AcDbEntity
  8
0
  6
HIDDEN
 62
     7
370
     0
100
AcDbLine
 10
102.0177510454
 20
109.8568416728
 30
0.0
 11
102.0177510454
 21
122.0536984873
 31
0.0
  0
SPLINE
  5
10C
330
1F
100
AcDbEntity
  8
0
  6
HIDDEN
 62
     7
370
     0
100
AcDbSpline
210
0.0
220
0.0
230
1.0
 70
     8
 71
     3
 72
    10
 73
     6
 74
     0
 42
0.000000001
 43
0.00000001
 40
0.0
 40
0.0
 40
0.0
 40
0.0
 40
0.5
 40
0.5
 40
1.0
 40
1.0
 40
1.0
 40
1.0
 10
102.0177510419634
 20
102.6475744296392
 30
0.0
 10
102.0177510419632
 20
102.9214895777133
 30
0.0
 10
101.9919918120944
 20
103.1924311564429
 30
0.0
 10
101.8887858793609
 20
103.728122238045
 30
0.0
 10
101.8114477154865
 20
103.9938690415668
 30
0.0
 10
101.7177510419634
 20
104.2555077490042
 30
0.0
  0
SPLINE
  5
10D
330
1F
100
AcDbEntity
  8
0
  6
HIDDEN
 62
     7
370
     0
100
AcDbSpline
210
0.0
220
0.0
230
1.0
 70
     8
 71
     3
 72
    10
 73
     6
 74
     0
 42
0.000000001
 43
0.00000001
 40
0.0
 40
0.0
 40
0.0
 40
0.0
 40
0.5
 40
0.5
 40
1.0
 40
1.0
 40
1.0
 40
1.0
 10
101.7177510419634
 20
108.2393363445888
 30
0.0
 10
101.8109816233541
 20
108.5032301526586
 30
0.0
 10
101.8860112355907
 20
108.7694104632966
 30
0.0
 10
101.9910783347685
 20
109.3077330382541
 30
0.0
 10
102.0177510453546
 20
109.5804811544994
 30
0.0
 10
102.0177510453558
 20
109.8568416727895
 30
0.0
  0
LINE
  5
10E
330
1F
100
AcDbEntity
  8
0
  6
HIDDEN
 62
     7
370
     0
100
AcDbLine
 10
101.717751042
 20
104.255507749
 30
0.0
 11
101.717751042
 21
108.2393363446
 31
0.0
  0
SPLINE
  5
10F
330
1F
100
AcDbEntity
  8
0
  6
HIDDEN
 62
     7
370
     0
100
AcDbSpline
210
0.0
220
0.0
230
1.0
 70
     8
 71
     3
 72
    16
 73
    12
 74
     0
 42
0.000000001
 43
0.00000001
 40
0.0
 40
0.0
 40
0.0
 40
0.0
 40
0.2499999999999974
 40
0.2499999999999974
 40
0.4999999999999948
 40
0.4999999999999948
 40
0.6249999999999934
 40
0.6249999999999934
 40
0.7499999999999922
 40
0.7499999999999922
 40
1.0
 40
1.0
 40
1.0
 40
1.0
 10
191.6177510419633
 20
119.3206845089211
 30
0.0
 10
191.6177510419633
 20
119.2311641170192
 30
0.0
 10
191.6125235350864
 20
119.139861008837
 30
0.0
 10
191.5832516993745
 20
118.9508386743265
 30
0.0
 10
191.5595081757775
 20
118.8509934228912
 30
0.0
 10
191.4911991149389
 20
118.7108061378404
 30
0.0
 10
191.4623282732811
 20
118.6663689089066
 30
0.0
 10
191.3958772296867
 20
118.5964805805914
 30
0.0
 10
191.3580702131722
 20
118.5710804773913
 30
0.0
 10
191.2478479949687
 20
118.5262580958976
 30
0.0
 10
191.1798377457864
 20
118.5321005368624
 30
0.0
 10
191.1177510419464
 20
118.5483055914064
 30
0.0
  0
SPLINE
  5
110
330
1F
100
AcDbEntity
  8
0
  6
HIDDEN
 62
     7
370
     0
100
AcDbSpline
210
0.0
220
0.0
230
1.0
 70
     8
 71
     3
 72
     8
 73
     4
 74
     0
 42
0.000000001
 43
0.00000001
 40
0.0
 40
0.0
 40
0.0
 40
0.0
 40
1.0
 40
1.0
 40
1.0
 40
1.0
 10
191.1177510419464
 20
118.5483055914064
 30
0.0
 10
191.0315076571391
 20
118.4896487472599
 30
0.0
 10
190.9281283487201
 20
118.4495759112903
 30
0.0
 10
190.8177510419634
 20
118.4495759112903
 30
0.0
  0
SPLINE
  5
111
330
1F
100
AcDbEntity
  8
0
  6
HIDDEN
 62
     7
370
     0
100
AcDbSpline
210
0.0
220
0.0
230
1.0
 70
     8
 71
     3
 72
     8
 73
     4
 74
     0
 42
0.000000001
 43
0.00000001
 40
0.0
 40
0.0
 40
0.0
 40
0.0
 40
1.0
 40
1.0
 40
1.0
 40
1.0
 10
191.1177510419796
 20
93.95611051101567
 30
0.0
 10
191.0315076571648
 20
94.0147673551748
 30
0.0
 10
190.9281283487343
 20
94.0548401911544
 30
0.0
 10
190.8177510419634
 20
94.0548401911544
 30
0.0
  0
SPLINE
  5
112
330
1F
100
AcDbEntity
  8
0
  6
HIDDEN
 62
     7
370
     0
100
AcDbSpline
210
0.0
220
0.0
230
1.0
 70
     8
 71
     3
 72
    16
 73
    12
 74
     0
 42
0.000000001
 43
0.00000001
 40
0.0
 40
0.0
 40
0.0
 40
0.0
 40
0.2499999999999958
 40
0.2499999999999958
 40
0.3749999999999989
 40
0.3749999999999989
 40
0.5000000000000021
 40
0.5000000000000021
 40
0.7500000000000011
 40
0.7500000000000011
 40
1.0
 40
1.0
 40
1.0
 40
1.0
 10
191.1177510419696
 20
93.9561105110187
 30
0.0
 10
191.1798241913539
 20
93.97231210540774
 30
0.0
 10
191.2478857487483
 20
93.97813992851974
 30
0.0
 10
191.35803243072
 20
93.93335698228884
 30
0.0
 10
191.3954611976575
 20
93.90826042671033
 30
0.0
 10
191.461871612791
 20
93.83864818301689
 30
0.0
 10
191.4908656288973
 20
93.79420208765889
 30
0.0
 10
191.5594643212201
 20
93.65370915280177
 30
0.0
 10
191.5830033920332
 20
93.55467014174594
 30
0.0
 10
191.6124039355518
 20
93.36583635497766
 30
0.0
 10
191.6177510419634
 20
93.27332624918358
 30
0.0
 10
191.6177510419635
 20
93.18373277326921
 30
0.0
  0
LINE
  5
113
330
1F
100
AcDbEntity
  8
0
  6
HIDDEN
 62
     7
370
     0
100
AcDbLine
 10
161.117751042
 20
106.2522080512
 30
0.0
 11
161.117751042
 21
92.7522080512
 31
0.0
  0
LINE
  5
114
330
1F
100
AcDbEntity
  8
0
  6
HIDDEN
 62
     7
370
     0
100
AcDbLine
 10
161.117751042
 20
119.7522080512
 30
0.0
 11
161.117751042
 21
106.2522080512
 31
0.0
  0
LINE
  5
115
330
1F
100
AcDbEntity
  8
0
  6
HIDDEN
 62
     7
370
     0
100
AcDbLine
 10
165.9837764457
 20
106.2522080512
 30
0.0
 11
165.9837764457
 21
92.2522080512
 31
0.0
  0
LINE
  5
116
330
1F
100
AcDbEntity
  8
0
  6
HIDDEN
 62
     7
370
     0
100
AcDbLine
 10
165.9837764457
 20
120.2522080512
 30
0.0
 11
165.9837764457
 21
106.2522080512
 31
0.0
  0
LINE
  5
117
330
1F
100
AcDbEntity
  8
0
  6
HIDDEN
 62
     7
370
     0
100
AcDbLine
 10
178.017751042
 20
118.4495759113
 30
0.0
 11
190.817751042
 21
118.4495759113
 31
0.0
  0
LINE
  5
118
330
1F
100
AcDbEntity
  8
0
  6
HIDDEN
 62
     7
370
     0
100
AcDbLine
 10
178.017751042
 20
94.0548401912
 30
0.0
 11
190.817751042
 21
94.0548401912
 31
0.0
  0
LINE
  5
119
330
1F
100
AcDbEntity
  8
0
  6
HIDDEN
 62
     7
370
     0
100
AcDbLine
 10
101.867751042
 20
88.2622080512
 30
0.0
 11
101.867751042
 21
85.3822702858
 31
0.0
  0
LINE
  5
11A
330
1F
100
AcDbEntity
  8
0
  6
HIDDEN
 62
     7
370
     0
100
AcDbLine
 10
110.817751042
 20
88.2622080512
 30
0.0
 11
110.817751042
 21
84.28847052
 31
0.0
  0
LINE
  5
11B
330
1F
100
AcDbEntity
  8
0
  6
HIDDEN
 62
     7
370
     0
100
AcDbLine
 10
101.867751042
 20
124.2422080512
 30
0.0
 11
101.867751042
 21
127.1221458166
 31
0.0
  0
LINE
  5
11C
330
1F
100
AcDbEntity
  8
0
  6
HIDDEN
 62
     7
370
     0
100
AcDbLine
 10
106.817751042
 20
124.2422080512
 30
0.0
 11
106.817751042
 21
128.0963157236
 31
0.0
  0
LINE
  5
11D
330
1F
100
AcDbEntity
  8
0
  6
HIDDEN
 62
     7
370
     0
100
AcDbLine
 10
151.417751042
 20
96.7522080512
 30
0.0
 11
151.417751042
 21
115.7522080512
 31
0.0
  0
LINE
  5
11E
330
1F
100
AcDbEntity
  8
0
  6
HIDDEN
 62
     7
370
     0
100
AcDbLine
 10
154.417751042
 20
96.7522080512
 30
0.0
 11
154.417751042
 21
115.7522080512
 31
0.0
  0
LINE
  5
11F
330
1F
100
AcDbEntity
  8
0
  6
HIDDEN
 62
     7
370
     0
100
AcDbLine
 10
143.067751042
 20
97.7522080512
 30
0.0
 11
143.067751042
 21
114.7522080512
 31
0.0
  0
LINE
  5
120
330
1F
100
AcDbEntity
  8
0
  6
HIDDEN
 62
     7
370
     0
100
AcDbLine
 10
158.567751042
 20
79.8522080512
 30
0.0
 11
152.4300762396
 21
79.8522080512
 31
0.0
  0
LINE
  5
121
330
1F
100
AcDbEntity
  8
0
  6
HIDDEN
 62
     7
370
     0
100
AcDbLine
 10
137.567751042
 20
74.7680850684
 30
0.0
 11
137.567751042
 21
79.8522080512
 31
0.0
  0
LINE
  5
122
330
1F
100
AcDbEntity
  8
0
  6
HIDDEN
 62
     7
370
     0
100
AcDbLine
 10
145.567751042
 20
79.8522080512
 30
0.0
 11
137.567751042
 21
79.8522080512
 31
0.0
  0
LINE
  5
123
330
1F
100
AcDbEntity
  8
0
  6
HIDDEN
 62
     7
370
     0
100
AcDbLine
 10
148.8054258443
 20
79.8522080512
 30
0.0
 11
145.567751042
 21
79.8522080512
 31
0.0
  0
LINE
  5
124
330
1F
100
AcDbEntity
  8
0
  6
HIDDEN
 62
     7
370
     0
100
AcDbLine
 10
191.0600227886
 20
126.1344199755
 30
0.0
 11
191.0598061617
 21
126.1252053233
 31
0.0
  0
SPLINE
  5
125
330
1F
100
AcDbEntity
  8
0
  6
HIDDEN
 62
     7
370
     0
100
AcDbSpline
210
0.0
220
0.0
230
1.0
 70
     8
 71
     3
 72
    11
 73
     7
 74
     0
 42
0.000000001
 43
0.00000001
 40
0.0
 40
0.0
 40
0.0
 40
0.0
 40
0.2408398747833927
 40
0.5670143889402722
 40
0.8932940901136374
 40
1.0
 40
1.0
 40
1.0
 40
1.0
 10
191.0609734547535
 20
86.39891055970449
 30
0.0
 10
191.0570670417458
 20
86.41100507710324
 30
0.0
 10
191.0478700913382
 20
86.4394794541081
 30
0.0
 10
191.0771760090965
 20
87.03331847989878
 30
0.0
 10
191.1137719077629
 20
87.79249867544587
 30
0.0
 10
191.1169643010558
 20
88.32177263307942
 30
0.0
 10
191.1177510413592
 20
88.45220805122234
 30
0.0
  0
LINE
  5
126
330
1F
100
AcDbEntity
  8
0
  6
HIDDEN
 62
     7
370
     0
100
AcDbLine
 10
145.567751042
 20
132.6522080512
 30
0.0
 11
137.567751042
 21
132.6522080512
 31
0.0
  0
LINE
  5
127
330
1F
100
AcDbEntity
  8
0
  6
HIDDEN
 62
     7
370
     0
100
AcDbLine
 10
149.1020485737
 20
132.6522080512
 30
0.0
 11
145.567751042
 21
132.6522080512
 31
0.0
  0
LINE
  5
128
330
1F
100
AcDbEntity
  8
0
  6
HIDDEN
 62
     7
370
     0
100
AcDbLine
 10
158.567751042
 20
132.6522080512
 30
0.0
 11
152.1334535103
 21
132.6522080512
 31
0.0
  0
SPLINE
  5
129
330
1F
100
AcDbEntity
  8
0
  6
HIDDEN
 62
     7
370
     0
100
AcDbSpline
210
0.0
220
0.0
230
1.0
 70
     8
 71
     3
 72
    11
 73
     7
 74
     0
 42
0.000000001
 43
0.00000001
 40
0.0
 40
0.0
 40
0.0
 40
0.0
 40
0.0008203708524183
 40
0.0008203708524183
 40
0.0008203708524183
 40
0.0016409967870154
 40
0.0016409967870154
 40
0.0016409967870154
 40
0.0016409967870154
 10
101.8677510419634
 20
90.40017530057965
 30
0.0
 10
101.6765927416647
 20
90.3589962719605
 30
0.0
 10
101.4851656715925
 20
90.3202422997305
 30
0.0
 10
101.2935200480719
 20
90.28387454045196
 30
0.0
 10
101.1018146429914
 20
90.24749543668592
 30
0.0
 10
100.9098756909325
 20
90.21350118591836
 30
0.0
 10
100.7177510438617
 20
90.18185306052716
 30
0.0
  0
ELLIPSE
  5
12A
330
1F
100
AcDbEntity
  8
0
  6
HIDDEN
 62
     7
370
     0
100
AcDbEllipse
 10
96.4753191734
 20
106.2522080512
 30
0.0
 11
20.19992453367506
 21
-1.421085471520200E-14
 31
0.0
210
0.0
220
0.0
230
1.0
 40
0.8164965809
 41
1.300566354717478
 42
1.359198697209065
  0
LINE
  5
12B
330
1F
100
AcDbEntity
  8
0
  6
HIDDEN
 62
     7
370
     0
100
AcDbLine
 10
178.017751042
 20
88.4522080512
 30
0.0
 11
178.017751042
 21
94.0548401912
 31
0.0
  0
LINE
  5
12C
330
1F
100
AcDbEntity
  8
0
  6
HIDDEN
 62
     7
370
     0
100
AcDbLine
 10
178.017751042
 20
124.0522080512
 30
0.0
 11
178.017751042
 21
118.4495759113
 31
0.0
  0
LINE
  5
12D
330
1F
100
AcDbEntity
  8
0
  6
HIDDEN
 62
     7
370
     0
100
AcDbLine
 10
110.817751042
 20
88.2622080512
 30
0.0
 11
110.817751042
 21
89.9646944288
 31
0.0
  0
LINE
  5
12E
330
1F
100
AcDbEntity
  8
0
  6
HIDDEN
 62
     7
370
     0
100
AcDbLine
 10
101.867751042
 20
88.2622080512
 30
0.0
 11
101.867751042
 21
90.4001753006
 31
0.0
  0
LINE
  5
12F
330
1F
100
AcDbEntity
  8
0
  6
HIDDEN
 62
     7
370
     0
100
AcDbLine
 10
101.9487820553
 20
90.4507176152
 30
0.0
 11
101.867751042
 21
90.4001753006
 31
0.0
  0
LINE
  5
130
330
1F
100
AcDbEntity
  8
0
  6
HIDDEN
 62
     7
370
     0
100
AcDbLine
 10
106.817751042
 20
124.2422080512
 30
0.0
 11
106.817751042
 21
122.5397216736
 31
0.0
  0
LINE
  5
131
330
1F
100
AcDbEntity
  8
0
  6
HIDDEN
 62
     7
370
     0
100
AcDbLine
 10
101.867751042
 20
124.2422080512
 30
0.0
 11
101.867751042
 21
122.1468325023
 31
0.0
  0
SPLINE
  5
132
330
1F
100
AcDbEntity
  8
0
  6
HIDDEN
 62
     7
370
     0
100
AcDbSpline
210
0.0
220
0.0
230
1.0
 70
     8
 71
     3
 72
     8
 73
     4
 74
     0
 42
0.000000001
 43
0.00000001
 40
0.0
 40
0.0
 40
0.0
 40
0.0
 40
1.0
 40
1.0
 40
1.0
 40
1.0
 10
101.8677510419634
 20
122.1468325022805
 30
0.0
 10
101.9177565409068
 20
122.1157967280616
 30
0.0
 10
101.9677566115709
 20
122.0847520830342
 30
0.0
 10
102.0177510453558
 20
122.053698487254
 30
0.0
  0
LWPOLYLINE
  5
133
330
1F
100
AcDbEntity
  8
0
  6
HIDDEN
 62
     7
370
     0
100
AcDbPolyline
 90
       25
 70
   128
 43
0.0
 10
127.3668349507
 20
82.6521736606
 10
127.3165590959
 20
82.6669571014
 10
127.1377248031
 20
82.7133231765
 10
126.8006132663
 20
82.7910068264
 10
126.5649690277
 20
82.8415927419
 10
126.2819221424
 20
82.9000080511
 10
125.5401457346
 20
83.030113085
 10
124.80993642
 20
83.1306918958
 10
124.3665133089
 20
83.181340979
 10
123.9735523666
 20
83.2188672963
 10
123.6385162655
 20
83.2432708478
 10
122.9980840623
 20
83.2677145139
 10
122.3169362825
 20
83.2693540237
 10
121.6283933753
 20
83.2481893771
 10
121.2951858543
 20
83.2290554952
 10
120.9782670225
 20
83.2042205742
 10
120.3976210146
 20
83.1472449225
 10
120.0616437208
 20
83.106481814
 10
119.9069433601
 20
83.0819312487
 10
119.8677708527
 20
83.0735932266
 10
119.9044199418
 20
83.0814875252
 10
120.0567701256
 20
83.1056426766
 10
120.3887577418
 20
83.1460586808
 10
120.961608273
 20
83.2027355377
 10
120.961608273
 20
83.2027355377
  0
SPLINE
  5
134
330
1F
100
AcDbEntity
  8
0
  6
HIDDEN
 62
     7
370
     0
100
AcDbSpline
210
0.0
220
0.0
230
1.0
 70
     8
 71
     3
 72
    27
 73
    23
 74
     0
 42
0.000000001
 43
0.00000001
 40
0.0
 40
0.0
 40
0.0
 40
0.0
 40
0.0008283643408998
 40
0.0457110782076643
 40
0.102292998876498
 40
0.1705713967243116
 40
0.2091632427176234
 40
0.2506906688117207
 40
0.3211367636566137
 40
0.3862307914363212
 40
0.4267101236726426
 40
0.4648415484074178
 40
0.5006460265175592
 40
0.5452379919628578
 40
0.6017325027952186
 40
0.6701387858497126
 40
0.7088762904893893
 40
0.7506052240175496
 40
0.8222701324952532
 40
0.8878098527301815
 40
0.9472838760266322
 40
1.0
 40
1.0
 40
1.0
 40
1.0
 10
119.8684355598456
 20
129.4306187407885
 30
0.0
 10
119.8682076877922
 20
129.4306678637409
 30
0.0
 10
119.855633175898
 20
129.4333785829344
 30
0.0
 10
119.9047040026749
 20
129.421547811927
 30
0.0
 10
120.0498161803688
 20
129.3981018281442
 30
0.0
 10
120.3228659650262
 20
129.3641982326293
 30
0.0
 10
120.6513928292755
 20
129.3306293461302
 30
0.0
 10
121.0441204905115
 20
129.2924460315224
 30
0.0
 10
121.5938485093773
 20
129.253477348533
 30
0.0
 10
122.2198711423089
 20
129.2340162467619
 30
0.0
 10
122.763062654385
 20
129.2318305683429
 30
0.0
 10
123.20813155059
 20
129.2403454494688
 30
0.0
 10
123.6745793477208
 20
129.2601288462756
 30
0.0
 10
124.2118199971421
 20
129.3042912315314
 30
0.0
 10
124.8600334313378
 20
129.3767068521242
 30
0.0
 10
125.4455720508816
 20
129.4576089425314
 30
0.0
 10
125.9265416901145
 20
129.5357749373393
 30
0.0
 10
126.3719564799355
 20
129.6205470487958
 30
0.0
 10
126.8104568834721
 20
129.7143302666423
 30
0.0
 10
127.1494796561891
 20
129.7922333947535
 30
0.0
 10
127.336803044727
 20
129.8424202353489
 30
0.0
 10
127.357291894346
 20
129.849086129474
 30
0.0
 10
127.3669192347397
 20
129.852218312733
 30
0.0
  0
LINE
  5
135
330
1F
100
AcDbEntity
  8
0
  6
HIDDEN
 62
     7
370
     0
100
AcDbLine
 10
178.017751042
 20
126.1522080512
 30
0.0
 11
178.017751042
 21
124.0522080512
 31
0.0
  0
LINE
  5
136
330
1F
100
AcDbEntity
  8
0
  6
HIDDEN
 62
     7
370
     0
100
AcDbLine
 10
178.017751042
 20
86.3522080512
 30
0.0
 11
178.017751042
 21
88.4522080512
 31
0.0
  0
SPLINE
  5
137
330
1F
100
AcDbEntity
  8
0
  6
HIDDEN
 62
     7
370
     0
100
AcDbSpline
210
0.0
220
0.0
230
1.0
 70
     8
 71
     3
 72
     8
 73
     4
 74
     0
 42
0.000000001
 43
0.00000001
 40
0.0
 40
0.0
 40
0.0
 40
0.0
 40
0.0001590976953043
 40
0.0001590976953043
 40
0.0001590976953043
 40
0.0001590976953043
 10
102.0029190511474
 20
90.4507176151907
 30
0.0
 10
101.9578675806544
 20
90.4227387308732
 30
0.0
 10
101.9128115422509
 20
90.39476720050442
 30
0.0
 10
101.8677510419634
 20
90.36680286115818
 30
0.0
  0
SPLINE
  5
138
330
1F
100
AcDbEntity
  8
0
  6
HIDDEN
 62
     7
370
     0
100
AcDbSpline
210
0.0
220
0.0
230
1.0
 70
     8
 71
     3
 72
    11
 73
     7
 74
     0
 42
0.000000001
 43
0.00000001
 40
0.0
 40
0.0
 40
0.0
 40
0.0
 40
0.000821290931147
 40
0.000821290931147
 40
0.000821290931147
 40
0.0016428257243086
 40
0.0016428257243086
 40
0.0016428257243086
 40
0.0016428257243086
 10
101.8677510419634
 20
90.36680286115816
 30
0.0
 10
101.6766060204812
 20
90.32351667230257
 30
0.0
 10
101.4851876848047
 20
90.28258016266219
 30
0.0
 10
101.2935416101436
 20
90.24397839127248
 30
0.0
 10
101.101838528602
 20
90.20536513743224
 30
0.0
 10
100.9098934053165
 20
90.16908492814304
 30
0.0
 10
100.7177510419633
 20
90.13511802178829
 30
0.0
  0
LINE
  5
139
330
1F
100
AcDbEntity
  8
0
  6
HIDDEN
 62
     7
370
     0
100
AcDbLine
 10
148.707751042
 20
126.3880746827
 30
0.0
 11
148.707751042
 21
126.1022080512
 31
0.0
  0
LINE
  5
13A
330
1F
100
AcDbEntity
  8
0
  6
HIDDEN
 62
     7
370
     0
100
AcDbLine
 10
152.527751042
 20
126.3880746827
 30
0.0
 11
152.527751042
 21
126.1022080512
 31
0.0
  0
LINE
  5
13B
330
1F
100
AcDbEntity
  8
0
  6
HIDDEN
 62
     7
370
     0
100
AcDbLine
 10
154.0096838735
 20
130.7108977136
 30
0.0
 11
154.0096838735
 21
126.1022080512
 31
0.0
  0
SPLINE
  5
13C
330
1F
100
AcDbEntity
  8
0
  6
HIDDEN
 62
     7
370
     0
100
AcDbSpline
210
0.0
220
0.0
230
1.0
 70
     8
 71
     3
 72
    11
 73
     7
 74
     0
 42
0.000000001
 43
0.00000001
 40
0.0000000000000004
 40
0.0000000000000004
 40
0.0000000000000004
 40
0.0000000000000004
 40
0.0005781862223981
 40
0.0005781862223981
 40
0.0005781862223981
 40
0.0011563724723932
 40
0.0011563724723932
 40
0.0011563724723932
 40
0.0011563724723932
 10
101.7177510419637
 20
118.8923503582752
 30
0.0
 10
101.551090487688
 20
118.9568798696886
 30
0.0
 10
101.3844271907815
 20
119.0213825735272
 30
0.0
 10
101.2177606069512
 20
119.0858690219607
 30
0.0
 10
101.0510940146921
 20
119.1503554736554
 30
0.0
 10
100.8844241490661
 20
119.2148254823833
 30
0.0
 10
100.7177510419633
 20
119.2792812491157
 30
0.0
  0
SPLINE
  5
13D
330
1F
100
AcDbEntity
  8
0
  6
HIDDEN
 62
     7
370
     0
100
AcDbSpline
210
0.0
220
0.0
230
1.0
 70
     8
 71
     3
 72
    11
 73
     7
 74
     0
 42
0.000000001
 43
0.00000001
 40
0.0000000000000001
 40
0.0000000000000001
 40
0.0000000000000001
 40
0.0000000000000001
 40
0.0005778746105124
 40
0.0005778746105124
 40
0.0005778746105124
 40
0.0011557494857259
 40
0.0011557494857259
 40
0.0011557494857259
 40
0.0011557494857259
 10
100.7177510419633
 20
93.22498619573248
 30
0.0
 10
100.8844179183767
 20
93.29079832241754
 30
0.0
 10
101.0510846379381
 20
93.35665680254655
 30
0.0
 10
101.2177512859868
 20
93.42256437546874
 30
0.0
 10
101.3844180105054
 20
93.48847197863067
 30
0.0
 10
101.551084704926
 20
93.55442908701094
 30
0.0
 10
101.7177510419634
 20
93.62043082692571
 30
0.0
  0
SPLINE
  5
13E
330
1F
100
AcDbEntity
  8
0
  6
HIDDEN
 62
     7
370
     0
100
AcDbSpline
210
0.0
220
0.0
230
1.0
 70
     8
 71
     3
 72
    11
 73
     7
 74
     0
 42
0.000000001
 43
0.00000001
 40
0.0000000000000006
 40
0.0000000000000006
 40
0.0000000000000006
 40
0.0000000000000006
 40
0.0005780486062825
 40
0.0005780486062825
 40
0.0005780486062825
 40
0.0011560973514241
 40
0.0011560973514241
 40
0.0011560973514241
 40
0.0011560973514241
 10
100.7177510419633
 20
116.2330225529141
 30
0.0
 10
100.8844208980082
 20
116.1706506913672
 30
0.0
 10
101.0510886020925
 20
116.1082968310376
 30
0.0
 10
101.2177549065461
 20
116.0459772708203
 30
0.0
 10
101.3844212472399
 20
115.9836576970521
 30
0.0
 10
101.5510862038687
 20
115.9213724927018
 30
0.0
 10
101.7177510419634
 20
115.8591473721029
 30
0.0
  0
SPLINE
  5
13F
330
1F
100
AcDbEntity
  8
0
  6
HIDDEN
 62
     7
370
     0
100
AcDbSpline
210
0.0
220
0.0
230
1.0
 70
     8
 71
     3
 72
    11
 73
     7
 74
     0
 42
0.000000001
 43
0.00000001
 40
0.0
 40
0.0
 40
0.0
 40
0.0
 40
0.0005782401583596
 40
0.0005782401583596
 40
0.0005782401583596
 40
0.0011564805961119
 40
0.0011564805961119
 40
0.0011564805961119
 40
0.0011564805961119
 10
101.7177510419634
 20
96.6513812590096
 30
0.0
 10
101.5511000916144
 20
96.58795580091969
 30
0.0
 10
101.3844404990318
 20
96.5246002772345
 30
0.0
 10
101.2177734466032
 20
96.46130269285372
 30
0.0
 10
101.0511063100394
 20
96.39800507651967
 30
0.0
 10
100.8844317025933
 20
96.33476528154728
 30
0.0
 10
100.7177510419633
 20
96.27156527487584
 30
0.0
  0
CIRCLE
  5
140
330
1F
100
AcDbEntity
  8
0
  6
HIDDEN
 62
     7
370
     0
100
AcDbCircle
 10
139.617751042
 20
106.2522080512
 30
0.0
 40
5.0
  0
ARC
  5
141
330
1F
100
AcDbEntity
  8
0
  6
HIDDEN
 62
     7
370
     0
100
AcDbCircle
 10
162.117751042
 20
119.7522080512
 30
0.0
 40
1.0
100
AcDbArc
 50
0.0
 51
180.0
  0
ARC
  5
142
330
1F
100
AcDbEntity
  8
0
  6
HIDDEN
 62
     7
370
     0
100
AcDbCircle
 10
162.117751042
 20
119.7522080512
 30
0.0
 40
1.0
100
AcDbArc
 50
180.0
 51
0.0
  0
ARC
  5
143
330
1F
100
AcDbEntity
  8
0
  6
HIDDEN
 62
     7
370
     0
100
AcDbCircle
 10
162.117751042
 20
92.7522080512
 30
0.0
 40
1.0
100
AcDbArc
 50
180.0
 51
0.0
  0
ARC
  5
144
330
1F
100
AcDbEntity
  8
0
  6
HIDDEN
 62
     7
370
     0
100
AcDbCircle
 10
162.117751042
 20
92.7522080512
 30
0.0
 40
1.0
100
AcDbArc
 50
0.0
 51
180.0
  0
LINE
  5
145
330
1F
100
AcDbEntity
  8
0
  6
HIDDEN
 62
     7
370
     0
100
AcDbLine
 10
161.117751042
 20
119.7522080512
 30
0.0
 11
161.117751042
 21
92.7522080512
 31
0.0
  0
LINE
  5
146
330
1F
100
AcDbEntity
  8
0
  6
HIDDEN
 62
     7
370
     0
100
AcDbLine
 10
163.117751042
 20
92.7522080512
 30
0.0
 11
163.117751042
 21
119.7522080512
 31
0.0
  0
LINE
  5
147
330
1F
100
AcDbEntity
  8
0
  6
HIDDEN
 62
     7
370
     0
100
AcDbLine
 10
132.617751042
 20
80.9282769052
 30
0.0
 11
132.7119118175
 21
81.5982656365
 31
0.0
  0
LINE
  5
148
330
1F
100
AcDbEntity
  8
0
  6
HIDDEN
 62
     7
370
     0
100
AcDbLine
 10
132.7119118175
 20
130.906150466
 30
0.0
 11
132.617751042
 21
131.5761391972
 31
0.0
  0
ARC
  5
149
330
1F
100
AcDbEntity
  8
0
  6
HIDDEN
 62
     7
370
     0
100
AcDbCircle
 10
132.1177442893
 20
81.6817704368
 30
0.0
 40
0.6000067526677343
100
AcDbArc
 50
352.0
 51
0.0
  0
ARC
  5
14A
330
1F
100
AcDbEntity
  8
0
  6
HIDDEN
 62
     7
370
     0
100
AcDbCircle
 10
132.1177442893
 20
81.6817704368
 30
0.0
 40
0.6000067526677361
100
AcDbArc
 50
0.0
 51
33.5571153394
  0
ARC
  5
14B
330
1F
100
AcDbEntity
  8
0
  6
HIDDEN
 62
     7
370
     0
100
AcDbCircle
 10
132.1177442893
 20
130.8226456656
 30
0.0
 40
0.6000067526677363
100
AcDbArc
 50
348.75
 51
8.0
  0
LWPOLYLINE
  5
14C
330
1F
100
AcDbEntity
  8
0
  6
HIDDEN
 62
     7
370
     0
100
AcDbPolyline
 90
        3
 70
   128
 43
0.0
 10
132.7062220805
 20
130.705590155
 10
132.6720782475
 20
130.5930330221
 10
132.617751042
 20
130.4909811506
  0
LINE
  5
14D
330
1F
100
AcDbEntity
  8
0
  6
HIDDEN
 62
     7
370
     0
100
AcDbLine
 10
132.717751042
 20
81.6817704368
 30
0.0
 11
132.717751042
 21
130.8226456656
 31
0.0
  0
ARC
  5
14E
330
1F
100
AcDbEntity
  8
0
  6
HIDDEN
 62
     7
370
     0
100
AcDbCircle
 10
115.7001866073
 20
86.8522080512
 30
0.0
 40
0.6000000000000085
100
AcDbArc
 50
210.0
 51
270.0
  0
ARC
  5
14F
330
1F
100
AcDbEntity
  8
0
  6
HIDDEN
 62
     7
370
     0
100
AcDbCircle
 10
115.7001866073
 20
125.6522080512
 30
0.0
 40
0.5999999999999962
100
AcDbArc
 50
90.0
 51
150.0
  0
ARC
  5
150
330
1F
100
AcDbEntity
  8
0
  6
HIDDEN
 62
     7
370
     0
100
AcDbCircle
 10
126.3727530436
 20
94.2522080512
 30
0.0
 40
8.000000000000025
100
AcDbArc
 50
276.8827930431
 51
321.3178125465
  0
ARC
  5
151
330
1F
100
AcDbEntity
  8
0
  6
HIDDEN
 62
     7
370
     0
100
AcDbCircle
 10
126.3727530436
 20
118.2522080512
 30
0.0
 40
8.000000000000025
100
AcDbArc
 50
38.6821874535
 51
83.1253117544
  0
LINE
  5
152
330
1F
100
AcDbEntity
  8
0
  6
HIDDEN
 62
     7
370
     0
100
AcDbLine
 10
115.7001866073
 20
86.2522080512
 30
0.0
 11
119.8918584954
 21
86.2522080512
 31
0.0
  0
LINE
  5
153
330
1F
100
AcDbEntity
  8
0
  6
HIDDEN
 62
     7
370
     0
100
AcDbLine
 10
119.8918584954
 20
126.2522080512
 30
0.0
 11
115.7001866073
 21
126.2522080512
 31
0.0
  0
LINE
  5
154
330
1F
100
AcDbEntity
  8
0
  6
HIDDEN
 62
     7
370
     0
100
AcDbLine
 10
115.180571365
 20
125.9522080512
 30
0.0
 11
113.6217256382
 21
123.2522080512
 31
0.0
  0
LINE
  5
155
330
1F
100
AcDbEntity
  8
0
  6
HIDDEN
 62
     7
370
     0
100
AcDbLine
 10
113.6217256382
 20
89.2522080512
 30
0.0
 11
115.180571365
 21
86.5522080512
 31
0.0
  0
ARC
  5
156
330
1F
100
AcDbEntity
  8
0
  6
HIDDEN
 62
     7
370
     0
100
AcDbCircle
 10
141.067751042
 20
90.5272080512
 30
0.0
 40
1.500000000000001
100
AcDbArc
 50
238.2116693829
 51
0.0
  0
ARC
  5
157
330
1F
100
AcDbEntity
  8
0
  6
HIDDEN
 62
     7
370
     0
100
AcDbCircle
 10
141.067751042
 20
121.9772080512
 30
0.0
 40
1.500000000000001
100
AcDbArc
 50
0.0
 51
121.7883306171
  0
LINE
  5
158
330
1F
100
AcDbEntity
  8
0
  6
HIDDEN
 62
     7
370
     0
100
AcDbLine
 10
110.817751042
 20
89.2522080512
 30
0.0
 11
113.6217256382
 21
89.2522080512
 31
0.0
  0
LINE
  5
159
330
1F
100
AcDbEntity
  8
0
  6
HIDDEN
 62
     7
370
     0
100
AcDbLine
 10
113.6217256382
 20
123.2522080512
 30
0.0
 11
106.817751042
 21
123.2522080512
 31
0.0
  0
LINE
  5
15A
330
1F
100
AcDbEntity
  8
0
  6
HIDDEN
 62
     7
370
     0
100
AcDbLine
 10
132.617751042
 20
89.2522080512
 30
0.0
 11
140.2775770105
 21
89.2522080512
 31
0.0
  0
LINE
  5
15B
330
1F
100
AcDbEntity
  8
0
  6
HIDDEN
 62
     7
370
     0
100
AcDbLine
 10
140.2775770105
 20
123.2522080512
 30
0.0
 11
132.617751042
 21
123.2522080512
 31
0.0
  0
LINE
  5
15C
330
1F
100
AcDbEntity
  8
0
  6
HIDDEN
 62
     7
370
     0
100
AcDbLine
 10
163.9860985444
 20
120.7522080512
 30
0.0
 11
162.117751042
 21
120.7522080512
 31
0.0
  0
LINE
  5
15D
330
1F
100
AcDbEntity
  8
0
  6
HIDDEN
 62
     7
370
     0
100
AcDbLine
 10
162.117751042
 20
91.7522080512
 30
0.0
 11
163.9860985444
 21
91.7522080512
 31
0.0
  0
ARC
  5
15E
330
1F
100
AcDbEntity
  8
0
  6
HIDDEN
 62
     7
370
     0
100
AcDbCircle
 10
162.117751042
 20
119.7522080512
 30
0.0
 40
1.0
100
AcDbArc
 50
90.0
 51
180.0
  0
ARC
  5
15F
330
1F
100
AcDbEntity
  8
0
  6
HIDDEN
 62
     7
370
     0
100
AcDbCircle
 10
162.117751042
 20
92.7522080512
 30
0.0
 40
1.0
100
AcDbArc
 50
180.0
 51
270.0
  0
ARC
  5
160
330
1F
100
AcDbEntity
  8
0
  6
HIDDEN
 62
     7
370
     0
100
AcDbCircle
 10
163.9860985444
 20
119.7522080512
 30
0.0
 40
1.000000000000009
100
AcDbArc
 50
75.0
 51
90.0
  0
ARC
  5
161
330
1F
100
AcDbEntity
  8
0
  6
HIDDEN
 62
     7
370
     0
100
AcDbCircle
 10
163.9860985444
 20
92.7522080512
 30
0.0
 40
1.000000000000009
100
AcDbArc
 50
270.0
 51
285.0
  0
LINE
  5
162
330
1F
100
AcDbEntity
  8
0
  6
HIDDEN
 62
     7
370
     0
100
AcDbLine
 10
164.2449175895
 20
91.7862822249
 30
0.0
 11
165.9837764457
 21
92.2522080512
 31
0.0
  0
LINE
  5
163
330
1F
100
AcDbEntity
  8
0
  6
HIDDEN
 62
     7
370
     0
100
AcDbLine
 10
165.9837764457
 20
120.2522080512
 30
0.0
 11
164.2449175895
 21
120.7181338775
 31
0.0
  0
LINE
  5
164
330
1F
100
AcDbEntity
  8
0
  6
HIDDEN
 62
     7
370
     0
100
AcDbLine
 10
178.017751042
 20
120.2522080512
 30
0.0
 11
165.9837764457
 21
120.2522080512
 31
0.0
  0
LINE
  5
165
330
1F
100
AcDbEntity
  8
0
  6
HIDDEN
 62
     7
370
     0
100
AcDbLine
 10
165.9837764457
 20
92.2522080512
 30
0.0
 11
178.017751042
 21
92.2522080512
 31
0.0
  0
LINE
  5
166
330
1F
100
AcDbEntity
  8
0
  6
HIDDEN
 62
     7
370
     0
100
AcDbLine
 10
151.417751042
 20
96.7522080512
 30
0.0
 11
154.417751042
 21
96.7522080512
 31
0.0
  0
LINE
  5
167
330
1F
100
AcDbEntity
  8
0
  6
HIDDEN
 62
     7
370
     0
100
AcDbLine
 10
154.417751042
 20
115.7522080512
 30
0.0
 11
151.417751042
 21
115.7522080512
 31
0.0
  0
LINE
  5
168
330
1F
100
AcDbEntity
  8
0
  6
HIDDEN
 62
     7
370
     0
100
AcDbLine
 10
142.567751042
 20
97.2522080512
 30
0.0
 11
143.067751042
 21
97.7522080512
 31
0.0
  0
LINE
  5
169
330
1F
100
AcDbEntity
  8
0
  6
HIDDEN
 62
     7
370
     0
100
AcDbLine
 10
143.067751042
 20
114.7522080512
 30
0.0
 11
142.567751042
 21
115.2522080512
 31
0.0
  0
LINE
  5
16A
330
1F
100
AcDbEntity
  8
0
  6
HIDDEN
 62
     7
370
     0
100
AcDbLine
 10
143.067751042
 20
97.7522080512
 30
0.0
 11
151.417751042
 21
97.7522080512
 31
0.0
  0
LINE
  5
16B
330
1F
100
AcDbEntity
  8
0
  6
HIDDEN
 62
     7
370
     0
100
AcDbLine
 10
151.417751042
 20
114.7522080512
 30
0.0
 11
143.067751042
 21
114.7522080512
 31
0.0
  0
LINE
  5
16C
330
1F
100
AcDbEntity
  8
0
  6
HIDDEN
 62
     7
370
     0
100
AcDbLine
 10
191.617751042
 20
126.7114427193
 30
0.0
 11
191.0478004244
 21
126.1415153234
 31
0.0
  0
LINE
  5
16D
330
1F
100
AcDbEntity
  8
0
  6
HIDDEN
 62
     7
370
     0
100
AcDbLine
 10
191.0481120065
 20
86.3625865162
 30
0.0
 11
191.617751042
 21
85.7929719513
 31
0.0
  0
LINE
  5
16E
330
1F
100
AcDbEntity
  8
0
  6
HIDDEN
 62
     7
370
     0
100
AcDbLine
 10
137.567751042
 20
137.7522080512
 30
0.0
 11
137.567751042
 21
132.6522080512
 31
0.0
  0
LINE
  5
16F
330
1F
100
AcDbEntity
  8
0
  6
HIDDEN
 62
     7
370
     0
100
AcDbLine
 10
127.8021888724
 20
82.1728367177
 30
0.0
 11
127.3677567229
 21
82.6519027368
 31
0.0
  0
LINE
  5
170
330
1F
100
AcDbEntity
  8
0
  6
HIDDEN
 62
     7
370
     0
100
AcDbLine
 10
119.8677533979
 20
83.0735906959
 30
0.0
 11
119.3853196545
 21
82.5945247205
 31
0.0
  0
LINE
  5
171
330
1F
100
AcDbEntity
  8
0
  6
HIDDEN
 62
     7
370
     0
100
AcDbLine
 10
119.3851977263
 20
129.9098860915
 30
0.0
 11
119.8677484773
 21
129.4307658336
 31
0.0
  0
LINE
  5
172
330
1F
100
AcDbEntity
  8
0
  6
HIDDEN
 62
     7
370
     0
100
AcDbLine
 10
127.367750924
 20
129.8524636113
 30
0.0
 11
127.8022933143
 21
130.3315838619
 31
0.0
  0
LINE
  5
173
330
1F
100
AcDbEntity
  8
0
  6
HIDDEN
 62
     7
370
     0
100
AcDbLine
 10
154.417751042
 20
102.0522080512
 30
0.0
 11
161.117751042
 21
102.0522080512
 31
0.0
  0
LINE
  5
174
330
1F
100
AcDbEntity
  8
0
  6
HIDDEN
 62
     7
370
     0
100
AcDbLine
 10
161.117751042
 20
110.4522080512
 30
0.0
 11
154.417751042
 21
110.4522080512
 31
0.0
  0
LINE
  5
175
330
1F
100
AcDbEntity
  8
0
  6
HIDDEN
 62
     7
370
     0
100
AcDbLine
 10
127.367751042
 20
82.6521577029
 30
0.0
 11
127.367751042
 21
86.316807713
 31
0.0
  0
LINE
  5
176
330
1F
100
AcDbEntity
  8
0
  6
HIDDEN
 62
     7
370
     0
100
AcDbLine
 10
119.867751042
 20
86.2565858193
 30
0.0
 11
119.867751042
 21
83.0737721209
 31
0.0
  0
LINE
  5
177
330
1F
100
AcDbEntity
  8
0
  6
HIDDEN
 62
     7
370
     0
100
AcDbLine
 10
127.367751042
 20
126.1876083895
 30
0.0
 11
127.367751042
 21
129.8521723052
 31
0.0
  0
LINE
  5
178
330
1F
100
AcDbEntity
  8
0
  6
HIDDEN
 62
     7
370
     0
100
AcDbLine
 10
119.867751042
 20
129.4306220545
 30
0.0
 11
119.867751042
 21
126.2478302832
 31
0.0
  0
LINE
  5
179
330
1F
100
AcDbEntity
  8
0
  6
HIDDEN
 62
     7
370
     0
100
AcDbLine
 10
191.0600227886
 20
126.1522080512
 30
0.0
 11
178.017751042
 21
126.1522080512
 31
0.0
  0
LINE
  5
17A
330
1F
100
AcDbEntity
  8
0
  6
HIDDEN
 62
     7
370
     0
100
AcDbLine
 10
178.017751042
 20
86.3522080512
 30
0.0
 11
191.0614064022
 21
86.3522080512
 31
0.0
  0
DIMENSION
  5
17B
330
1F
100
AcDbEntity
  8
VERMASSUNG
100
AcDbDimension
  2
_D
 10
203.8660544014
 20
81.2522080512
 30
0.0
 11
203.8660544014
 21
106.2522080512
 31
0.0
 70
   160
  1
ST5 %%c<>
 71
     2
 42
-1.0
  3
SLDDIMSTYLE0
100
AcDbAlignedDimension
 13
191.117751042
 23
131.2522080512
 33
0.0
 14
191.117751042
 24
81.2522080512
 34
0.0
 50
90.0
100
AcDbRotatedDimension
  0
DIMENSION
  5
188
330
1F
100
AcDbEntity
  8
VERMASSUNG
100
AcDbDimension
  2
_D_1
 10
197.8660544014
 20
92.2522080512
 30
0.0
 11
197.8660544014
 21
106.2522080512
 31
0.0
 70
   160
  1
%%c<>
 71
     2
 42
-1.0
  3
SLDDIMSTYLE0
100
AcDbAlignedDimension
 13
178.017751042
 23
120.2522080512
 33
0.0
 14
178.017751042
 24
92.2522080512
 34
0.0
 50
90.0
100
AcDbRotatedDimension
  0
DIMENSION
  5
193
330
1F
100
AcDbEntity
  8
VERMASSUNG
100
AcDbDimension
  2
_D_2
 10
97.2816138333
 20
74.7522080512
 30
0.0
 11
97.2816138333
 21
106.2522080512
 31
0.0
 70
   160
  1
HSK A 63 %%c<>
 71
     2
 42
-1.0
  3
SLDDIMSTYLE0
100
AcDbAlignedDimension
 13
132.917751042
 23
137.7522080512
 33
0.0
 14
132.917751042
 24
74.7522080512
 34
0.0
 50
90.0
100
AcDbRotatedDimension
  0
DIMENSION
  5
1A0
330
1F
100
AcDbEntity
  8
VERMASSUNG
100
AcDbDimension
  2
_D_3
 10
191.617751042
 20
153.0432327812
 30
0.0
 11
146.167751042
 21
153.0432327812
 31
0.0
 70
   160
  1
(<>)
 71
     2
 42
-1.0
  3
SLDDIMSTYLE0
100
AcDbAlignedDimension
 13
100.717751042
 23
125.9428857977
 33
0.0
 14
191.617751042
 24
130.7522080512
 34
0.0
100
AcDbRotatedDimension
  0
DIMENSION
  5
1AC
330
1F
100
AcDbEntity
  8
VERMASSUNG
100
AcDbDimension
  2
_D_4
 10
191.617751042
 20
147.0432327812
 30
0.0
 11
162.117751042
 21
147.0432327812
 31
0.0
 70
   160
  1
<>
 71
     2
 42
-1.0
  3
SLDDIMSTYLE0
100
AcDbAlignedDimension
 13
132.617751042
 23
137.4522080512
 33
0.0
 14
191.617751042
 24
130.7522080512
 34
0.0
100
AcDbRotatedDimension
  0
DIMENSION
  5
1B6
330
1F
100
AcDbEntity
  8
VERMASSUNG
100
AcDbDimension
  2
_D_5
 10
191.617751042
 20
141.0432327812
 30
0.0
 11
175.092751042
 21
141.0432327812
 31
0.0
 70
   160
  1
(<>)
 71
     2
 42
-1.0
  3
SLDDIMSTYLE0
100
AcDbAlignedDimension
 13
158.567751042
 23
136.098648375
 33
0.0
 14
191.617751042
 24
130.7522080512
 34
0.0
100
AcDbRotatedDimension
  0
LINE
  5
1C2
330
1F
100
AcDbEntity
  8
VERMASSUNG
  6
CENTERX2
370
     0
100
AcDbLine
 10
99.748535033
 20
106.2522080512
 30
0.0
 11
192.8300597936
 21
106.2522080512
 31
0.0
  0
LINE
  5
1C3
330
1F
100
AcDbEntity
  8
0
  6
Continuous
 62
     7
370
    15
100
AcDbLine
 10
263.4320017083
 20
47.304151584
 30
0.0
 11
263.2551962888
 21
47.4062523578
 31
0.0
  0
LINE
  5
1C4
330
1F
100
AcDbEntity
  8
0
  6
Continuous
 62
     7
370
    15
100
AcDbLine
 10
260.0726987382
 20
47.4062523578
 30
0.0
 11
259.8958933188
 21
47.304151584
 31
0.0
  0
LINE
  5
1C5
330
1F
100
AcDbEntity
  8
0
  6
Continuous
 62
     7
370
    15
100
AcDbLine
 10
264.1639475135
 20
45.9776044878
 30
0.0
 11
264.1639475135
 21
46.2838072923
 31
0.0
  0
LINE
  5
1C6
330
1F
100
AcDbEntity
  8
0
  6
Continuous
 62
     7
370
    15
100
AcDbLine
 10
259.1639475135
 20
46.2838072923
 30
0.0
 11
259.1639475135
 21
45.9776044878
 31
0.0
  0
LINE
  5
1C7
330
1F
100
AcDbEntity
  8
0
  6
Continuous
 62
     7
370
    15
100
AcDbLine
 10
266.1024791247
 20
23.5137711901
 30
0.0
 11
266.2792270888
 21
23.6158387902
 31
0.0
  0
LINE
  5
1C8
330
1F
100
AcDbEntity
  8
0
  6
Continuous
 62
     7
370
    15
100
AcDbLine
 10
274.9398773303
 20
38.6181505668
 30
0.0
 11
274.9398773303
 21
38.8222525948
 31
0.0
  0
LINE
  5
1C9
330
1F
100
AcDbEntity
  8
0
  6
Continuous
 62
     7
370
    15
100
AcDbLine
 10
272.3505346445
 20
44.5453126756
 30
0.0
 11
261.1959251712
 21
50.9847316576
 31
0.0
  0
LINE
  5
1CA
330
1F
100
AcDbEntity
  8
0
  6
Continuous
 62
     7
370
    15
100
AcDbLine
 10
248.6969410133
 20
29.3335100981
 30
0.0
 11
259.8515504865
 21
22.8940911161
 31
0.0
  0
SPLINE
  5
1CB
330
1F
100
AcDbEntity
  8
0
  6
Continuous
 62
     7
370
    15
100
AcDbSpline
210
0.0
220
0.0
230
1.0
 70
     8
 71
     3
 72
    25
 73
    21
 74
     0
 42
0.000000001
 43
0.00000001
 40
0.0
 40
0.0
 40
0.0
 40
0.0
 40
0.0065046679459461
 40
0.0672462460637332
 40
0.1280432022244321
 40
0.1888591617004019
 40
0.2496677145148584
 40
0.310437881714891
 40
0.3711448210873121
 40
0.4317644525530169
 40
0.4922754712741468
 40
0.5526637619775457
 40
0.6129311243283488
 40
0.6731112068423714
 40
0.7332756650190029
 40
0.7935612254340564
 40
0.8542473155931171
 40
0.9157560267133746
 40
0.9785459293604877
 40
1.0
 40
1.0
 40
1.0
 40
1.0
 10
261.8333167060761
 20
34.03041068310213
 30
0.0
 10
261.8429801091753
 20
34.05635050230487
 30
0.0
 10
261.9428818394434
 20
34.32452029658977
 30
0.0
 10
262.1693745423881
 20
34.83288208256688
 30
0.0
 10
262.5321383466107
 20
35.54295680236868
 30
0.0
 10
262.9437444799433
 20
36.22977278553097
 30
0.0
 10
263.3951311967405
 20
36.88417036207817
 30
0.0
 10
263.8810872889676
 20
37.49739809258732
 30
0.0
 10
264.3946368342447
 20
38.06135938095682
 30
0.0
 10
264.9286570351282
 20
38.56871107673386
 30
0.0
 10
265.4755488689059
 20
39.01299139474548
 30
0.0
 10
266.0274597350765
 20
39.38876011926665
 30
0.0
 10
266.5764220977775
 20
39.69176641349444
 30
0.0
 10
267.1145054816267
 20
39.91901125917109
 30
0.0
 10
267.6341945233642
 20
40.0690373785316
 30
0.0
 10
268.1285235643067
 20
40.14122473342176
 30
0.0
 10
268.5933335625397
 20
40.138123015338
 30
0.0
 10
269.0218457924597
 20
40.05412393544141
 30
0.0
 10
269.3349572054605
 20
39.9452357290732
 30
0.0
 10
269.4903700172519
 20
39.83808897164222
 30
0.0
 10
269.5299483670422
 20
39.81080234195183
 30
0.0
  0
LINE
  5
1CC
330
1F
100
AcDbEntity
  8
0
  6
Continuous
 62
     7
370
    15
100
AcDbLine
 10
237.6498752134
 20
31.9581703404
 30
0.0
 11
242.7085408737
 21
29.0378648152
 31
0.0
  0
LINE
  5
1CD
330
1F
100
AcDbEntity
  8
0
  6
Continuous
 62
     7
370
    15
100
AcDbLine
 10
255.5817718198
 20
57.9783884997
 30
0.0
 11
253.3985952525
 21
59.2387095054
 31
0.0
  0
SPLINE
  5
1CE
330
1F
100
AcDbEntity
  8
0
  6
Continuous
 62
     7
370
    15
100
AcDbSpline
210
0.0
220
0.0
230
1.0
 70
     8
 71
     3
 72
    10
 73
     6
 74
     0
 42
0.000000001
 43
0.00000001
 40
0.0
 40
0.0
 40
0.0
 40
0.0
 40
0.2986822559552565
 40
0.7506812224006303
 40
0.9999999999999999
 40
0.9999999999999999
 40
0.9999999999999999
 40
0.9999999999999999
 10
262.4600143405353
 20
27.75105936263655
 30
0.0
 10
262.3785878651345
 20
27.80075930902784
 30
0.0
 10
262.1739378570709
 20
27.92567070154072
 30
0.0
 10
261.9400947315305
 20
28.16057761045986
 30
0.0
 10
261.8019037336072
 20
28.36653486399328
 30
0.0
 10
261.7527767708717
 20
28.43975276147941
 30
0.0
  0
SPLINE
  5
1CF
330
1F
100
AcDbEntity
  8
0
  6
Continuous
 62
     7
370
    15
100
AcDbSpline
210
0.0
220
0.0
230
1.0
 70
     8
 71
     3
 72
    10
 73
     6
 74
     0
 42
0.000000001
 43
0.00000001
 40
0.0
 40
0.0
 40
0.0
 40
0.0
 40
0.0017074424298372
 40
0.4944778554639028
 40
1.0
 40
1.0
 40
1.0
 40
1.0
 10
234.4767090727806
 20
41.29057388890197
 30
0.0
 10
234.4765211592371
 20
41.28935451660661
 30
0.0
 10
234.422101118834
 20
40.9362224946502
 30
0.0
 10
234.367339894666
 20
40.24190371462624
 30
0.0
 10
234.3514273490421
 20
39.570464557318
 30
0.0
 10
234.3433694464485
 20
39.23045665066371
 30
0.0
  0
SPLINE
  5
1D0
330
1F
100
AcDbEntity
  8
0
  6
Continuous
 62
     7
370
    15
100
AcDbSpline
210
0.0
220
0.0
230
1.0
 70
     8
 71
     3
 72
    13
 73
     9
 74
     0
 42
0.000000001
 43
0.00000001
 40
0.0
 40
0.0
 40
0.0
 40
0.0
 40
0.1451456052129468
 40
0.3541585791082159
 40
0.5631677523107123
 40
0.7721534452924094
 40
0.9811070441017435
 40
1.0
 40
1.0
 40
1.0
 40
1.0
 10
246.4180970834632
 20
58.96900773697266
 30
0.0
 10
246.2217336459582
 20
58.87511597368194
 30
0.0
 10
245.7426023907365
 20
58.64601793500405
 30
0.0
 10
244.9780822087422
 20
58.19331603146698
 30
0.0
 10
244.1303585257969
 20
57.62884906678296
 30
0.0
 10
243.2928084810728
 20
56.98564021443557
 30
0.0
 10
242.7129927341839
 20
56.50872907002891
 30
0.0
 10
242.4197114979479
 20
56.23008892054424
 30
0.0
 10
242.3953927213524
 20
56.20698417769459
 30
0.0
  0
SPLINE
  5
1D1
330
1F
100
AcDbEntity
  8
0
  6
Continuous
 62
     7
370
    15
100
AcDbSpline
210
0.0
220
0.0
230
1.0
 70
     8
 71
     3
 72
     9
 73
     5
 74
     0
 42
0.000000001
 43
0.00000001
 40
0.0
 40
0.0
 40
0.0
 40
0.0
 40
0.4478261473214102
 40
0.9999999999999999
 40
0.9999999999999999
 40
0.9999999999999999
 40
0.9999999999999999
 10
234.3433694464485
 20
39.23045665066371
 30
0.0
 10
234.3444208414748
 20
39.05869552243216
 30
0.0
 10
234.34676861646
 20
38.67515130720731
 30
0.0
 10
234.3782203590891
 20
38.30960924820668
 30
0.0
 10
234.39558718899
 20
38.10776648117225
 30
0.0
  0
SPLINE
  5
1D2
330
1F
100
AcDbEntity
  8
0
  6
Continuous
 62
     7
370
    15
100
AcDbSpline
210
0.0
220
0.0
230
1.0
 70
     8
 71
     3
 72
    13
 73
     9
 74
     0
 42
0.000000001
 43
0.00000001
 40
0.0
 40
0.0
 40
0.0
 40
0.0
 40
0.0813603944887251
 40
0.270607542837269
 40
0.4605704475166008
 40
0.6511688702844751
 40
0.8422589667563304
 40
1.0
 40
1.0
 40
1.0
 40
1.0
 10
248.7712202236982
 20
26.13062013999571
 30
0.0
 10
248.8765742560847
 20
26.11666253659762
 30
0.0
 10
249.2269854851754
 20
26.07023905520731
 30
0.0
 10
249.8542696298897
 20
26.07988481748447
 30
0.0
 10
250.647325638328
 20
26.15632270292017
 30
0.0
 10
251.4643796820327
 20
26.32341591908096
 30
0.0
 10
252.248341283681
 20
26.5492115256609
 30
0.0
 10
252.7628327500277
 20
26.75772418044172
 30
0.0
 10
252.9954851958193
 20
26.85201336167487
 30
0.0
  0
LINE
  5
1D3
330
1F
100
AcDbEntity
  8
0
  6
Continuous
 62
     7
370
    15
100
AcDbLine
 10
245.1069995802
 20
27.653264076
 30
0.0
 11
246.5063876478
 21
26.8454145401
 31
0.0
  0
LINE
  5
1D4
330
1F
100
AcDbEntity
  8
0
  6
Continuous
 62
     7
370
    15
100
AcDbLine
 10
246.1776466449
 20
58.8502802924
 30
0.0
 11
240.0319190058
 21
61.912251306
 31
0.0
  0
LINE
  5
1D5
330
1F
100
AcDbEntity
  8
0
  6
Continuous
 62
     7
370
    15
100
AcDbLine
 10
228.6502211926
 20
42.1964361676
 30
0.0
 11
234.3744837016
 21
38.4060672837
 31
0.0
  0
SPLINE
  5
1D6
330
1F
100
AcDbEntity
  8
0
  6
Continuous
 62
     7
370
    15
100
AcDbSpline
210
0.0
220
0.0
230
1.0
 70
     8
 71
     3
 72
    10
 73
     6
 74
     0
 42
0.000000001
 43
0.00000001
 40
0.0
 40
0.0
 40
0.0
 40
0.0
 40
0.0540800377994588
 40
0.9035312558433989
 40
1.0
 40
1.0
 40
1.0
 40
1.0
 10
263.6604594002213
 20
52.96584313137758
 30
0.0
 10
263.6507513013468
 20
52.97817653406361
 30
0.0
 10
263.4885552096868
 20
53.18423435634277
 30
0.0
 10
263.2796500275232
 20
53.37580010247396
 30
0.0
 10
263.0752048125177
 20
53.54504310206269
 30
0.0
 10
263.0543546624748
 20
53.56230318777823
 30
0.0
  0
SPLINE
  5
1D7
330
1F
100
AcDbEntity
  8
0
  6
Continuous
 62
     7
370
    15
100
AcDbSpline
210
0.0
220
0.0
230
1.0
 70
     8
 71
     3
 72
    12
 73
     8
 74
     0
 42
0.000000001
 43
0.00000001
 40
0.0
 40
0.0
 40
0.0
 40
0.0
 40
0.1187658333007767
 40
0.3433471873614908
 40
0.5676303393048759
 40
0.7912844438871947
 40
0.9999999999999999
 40
0.9999999999999999
 40
0.9999999999999999
 40
0.9999999999999999
 10
265.2451049500443
 20
49.83661895590535
 30
0.0
 10
265.2051794671391
 20
49.98255129490419
 30
0.0
 10
265.0897565220164
 20
50.40443574388911
 30
0.0
 10
264.8501973484447
 20
51.06023099474768
 30
0.0
 10
264.5057661683298
 20
51.77816416678078
 30
0.0
 10
264.1136844469054
 20
52.42156328421037
 30
0.0
 10
263.808014070307
 20
52.78864411320629
 30
0.0
 10
263.6604594002213
 20
52.96584313137758
 30
0.0
  0
SPLINE
  5
1D8
330
1F
100
AcDbEntity
  8
0
  6
Continuous
 62
     7
370
    15
100
AcDbSpline
210
0.0
220
0.0
230
1.0
 70
     8
 71
     3
 72
    28
 73
    24
 74
     0
 42
0.000000001
 43
0.00000001
 40
0.0
 40
0.0
 40
0.0
 40
0.0
 40
0.0293940134767745
 40
0.0773927071032652
 40
0.1256159679145581
 40
0.1742744099315234
 40
0.2234626656002108
 40
0.2731573966563854
 40
0.3232533731705613
 40
0.3736152730687928
 40
0.424119582797242
 40
0.4746727877934513
 40
0.5252065310939431
 40
0.5756973236725338
 40
0.6261375200176903
 40
0.6765290389606724
 40
0.7268792039041838
 40
0.7771982256013007
 40
0.8274977849620114
 40
0.8777902932532805
 40
0.9280881948033161
 40
0.978400536016556
 40
1.0
 40
1.0
 40
1.0
 40
1.0
 10
239.9745872650463
 20
61.92831795195553
 30
0.0
 10
239.8611600542512
 20
61.9839305872426
 30
0.0
 10
239.562512885516
 20
62.13035538212179
 30
0.0
 10
239.0337696740591
 20
62.27617665698207
 30
0.0
 10
238.4000126636207
 20
62.37375891517869
 30
0.0
 10
237.7347805479615
 20
62.38443544139187
 30
0.0
 10
237.0443272315936
 20
62.31208833046593
 30
0.0
 10
236.3328901288293
 20
62.15530912191699
 30
0.0
 10
235.6064368142699
 20
61.91512694815975
 30
0.0
 10
234.87130692014
 20
61.59329319611631
 30
0.0
 10
234.1340520028796
 20
61.19276157897904
 30
0.0
 10
233.4010795282045
 20
60.71734894679275
 30
0.0
 10
232.6784461464421
 20
60.17150330409211
 30
0.0
 10
231.9718452325902
 20
59.56011239098771
 30
0.0
 10
231.2866274371152
 20
58.88837018350812
 30
0.0
 10
230.6279228877038
 20
58.1618136528442
 30
0.0
 10
230.0006856625962
 20
57.38630109892956
 30
0.0
 10
229.4095499238639
 20
56.56800114758847
 30
0.0
 10
228.8593041735286
 20
55.71332160152814
 30
0.0
 10
228.3530107638915
 20
54.82902719959415
 30
0.0
 10
227.8989033945624
 20
53.92164133021809
 30
0.0
 10
227.5634214836592
 20
53.17508805672355
 30
0.0
 10
227.4011167125206
 20
52.73167220648886
 30
0.0
 10
227.3523667743295
 20
52.59848761098835
 30
0.0
  0
LINE
  5
1D9
330
1F
100
AcDbEntity
  8
0
  6
Continuous
 62
     7
370
    15
100
AcDbLine
 10
227.4660354708
 20
50.7525762605
 30
0.0
 11
230.0195953694
 21
49.278437509
 31
0.0
  0
LINE
  5
1DA
330
1F
100
AcDbEntity
  8
0
  6
Continuous
 62
     7
370
    15
100
AcDbLine
 10
227.1677431934
 20
51.8808859778
 30
0.0
 11
227.1677431934
 21
51.4154798941
 31
0.0
  0
LINE
  5
1DB
330
1F
100
AcDbEntity
  8
0
  6
Continuous
 62
     7
370
    15
100
AcDbLine
 10
227.1677431934
 20
44.4095375491
 30
0.0
 11
227.1677431934
 21
43.9441314653
 31
0.0
  0
SPLINE
  5
1DC
330
1F
100
AcDbEntity
  8
0
  6
Continuous
 62
     7
370
    15
100
AcDbSpline
210
0.0
220
0.0
230
1.0
 70
     8
 71
     3
 72
    11
 73
     7
 74
     0
 42
0.000000001
 43
0.00000001
 40
0.0
 40
0.0
 40
0.0
 40
0.0
 40
0.2147940288120069
 40
0.5383429471551432
 40
0.8580859878166747
 40
1.0
 40
1.0
 40
1.0
 40
1.0
 10
227.2838625432447
 20
43.65687322776341
 30
0.0
 10
227.3606901858379
 20
43.52930248745096
 30
0.0
 10
227.5532449778189
 20
43.20956916576411
 30
0.0
 10
227.9341037307999
 20
42.77837946810607
 30
0.0
 10
228.3135063355608
 20
42.42081592899064
 30
0.0
 10
228.5696976529294
 20
42.26051889009133
 30
0.0
 10
228.6484512157966
 20
42.21124336014734
 30
0.0
  0
LWPOLYLINE
  5
1DD
330
1F
100
AcDbEntity
  8
0
  6
Continuous
 62
     7
370
    15
100
AcDbPolyline
 90
       30
 70
   128
 43
0.0
 10
261.3245266371
 20
47.7719753904
 10
261.8106103714
 20
47.7840774756
 10
262.2898363136
 20
47.7355737297
 10
262.739796391
 20
47.6287321338
 10
263.1394509707
 20
47.4685484824
 10
263.4701126486
 20
47.2625127849
 10
263.7163200522
 20
47.0202590415
 10
263.866560797
 20
46.753114768
 10
263.9138097926
 20
46.4735713338
 10
263.8558577287
 20
46.1946998791
 10
263.6954143791
 20
45.9295401232
 10
263.4399818968
 20
45.6904906417
 10
263.1015040207
 20
45.4887291225
 10
262.6958075999
 20
45.33368971
 10
262.2418625484
 20
45.232621875
 10
261.7608948322
 20
45.1902514369
 10
261.2753939671
 20
45.2085595905
 10
260.8080614339
 20
45.2866902668
 10
260.3807491826
 20
45.4209901622
 10
260.0134378591
 20
45.6051795628
 10
259.7233025326
 20
45.830645977
 10
259.5239096086
 20
46.0868468459
 10
259.4245824785
 20
46.3618025016
 10
259.4299655686
 20
46.6426563232
 10
259.5398071715
 20
46.9162758982
 10
259.748971216
 20
47.1698670792
 10
260.0476774238
 20
47.3915722247
 10
260.4219586247
 20
47.5710246483
 10
260.8543138457
 20
47.6998333542
 10
261.3245266371
 20
47.7719753904
  0
LWPOLYLINE
  5
1DE
330
1F
100
AcDbEntity
  8
0
  6
Continuous
 62
     7
370
    15
100
AcDbPolyline
 90
       25
 70
   128
 43
0.0
 10
263.4320017083
 20
47.304151584
 10
263.5617881725
 20
47.2232445331
 10
263.8505182538
 20
46.9834715205
 10
264.0497298721
 20
46.7150541722
 10
264.1512672803
 20
46.4289815259
 10
264.150973525
 20
46.1369654295
 10
264.0488606326
 20
45.8509610561
 10
263.8491091169
 20
45.5826774586
 10
263.5598968283
 20
45.3430981988
 10
263.1930641521
 20
45.1420316798
 10
262.7636292611
 20
44.9877095886
 10
262.28917327
 20
44.8864498896
 10
261.7891204631
 20
44.8423981669
 10
261.2839430609
 20
44.8573579032
 10
260.7943230856
 20
44.930716645
 10
260.3403056366
 20
45.0594710769
 10
259.9404782415
 20
45.2383499773
 10
259.611209881
 20
45.4600300231
 10
259.3659808403
 20
45.715435607
 10
259.2148308252
 20
45.9941103945
 10
259.1639479351
 20
46.284645407
 10
259.2154153215
 20
46.5751461071
 10
259.3671259035
 20
46.8537193618
 10
259.612868632
 20
47.1089603494
 10
259.8958933188
 20
47.304151584
  0
LWPOLYLINE
  5
1DF
330
1F
100
AcDbEntity
  8
0
  6
Continuous
 62
     7
370
    15
100
AcDbPolyline
 90
       25
 70
   128
 43
0.0
 10
261.4376669292
 20
47.3439644254
 10
261.8291629702
 20
47.3486054587
 10
262.2093998509
 20
47.2945937334
 10
262.5524650562
 20
47.1856100592
 10
262.8349792593
 20
47.0290814935
 10
263.0376895841
 20
46.8356751994
 10
263.1467816571
 20
46.6185714961
 10
263.1548210336
 20
46.3925656423
 10
263.0612598436
 20
46.1730595634
 10
262.8724741274
 20
45.9750122359
 10
262.6013293197
 20
45.811920258
 10
262.266303491
 20
45.6948980784
 10
261.8902280979
 20
45.6319205652
 10
261.4987320569
 20
45.6272795319
 10
261.1184951762
 20
45.6812912572
 10
260.7754299709
 20
45.7902749314
 10
260.4929157678
 20
45.946803497
 10
260.290205443
 20
46.1402097912
 10
260.18111337
 20
46.3573134945
 10
260.1730739935
 20
46.5833193483
 10
260.2666351835
 20
46.8028254272
 10
260.4554208997
 20
47.0008727546
 10
260.7265657074
 20
47.1639647325
 10
261.0615915361
 20
47.2809869122
 10
261.4376669292
 20
47.3439644254
  0
SPLINE
  5
1E0
330
1F
100
AcDbEntity
  8
0
  6
Continuous
 62
     7
370
    15
100
AcDbSpline
210
0.0
220
0.0
230
1.0
 70
     8
 71
     3
 72
    11
 73
     7
 74
     0
 42
0.000000001
 43
0.00000001
 40
0.0
 40
0.0
 40
0.0
 40
0.0
 40
0.1285561766307352
 40
0.4801535797842212
 40
0.8150691831753902
 40
0.9999999999999999
 40
0.9999999999999999
 40
0.9999999999999999
 40
0.9999999999999999
 10
260.7619514500108
 20
47.09220912242045
 30
0.0
 10
260.8194152193796
 20
47.07477547888229
 30
0.0
 10
261.034040726247
 20
47.00966132744346
 30
0.0
 10
261.4365116211748
 20
46.96412232014371
 30
0.0
 10
261.872302703538
 20
47.06865453539338
 30
0.0
 10
262.1057591729564
 20
47.17874368503587
 30
0.0
 10
262.1888092698766
 20
47.21790693705645
 30
0.0
  0
SPLINE
  5
1E1
330
1F
100
AcDbEntity
  8
0
  6
Continuous
 62
     7
370
    15
100
AcDbSpline
210
0.0
220
0.0
230
1.0
 70
     8
 71
     3
 72
    11
 73
     7
 74
     0
 42
0.000000001
 43
0.00000001
 40
0.0
 40
0.0
 40
0.0
 40
0.0
 40
0.2164543009645064
 40
0.4403089937225396
 40
0.7518987489759514
 40
1.0
 40
1.0
 40
1.0
 40
1.0
 10
260.2370896936758
 20
46.31600860667779
 30
0.0
 10
260.2730430501745
 20
46.33221073510465
 30
0.0
 10
260.3461789784065
 20
46.3651689291992
 30
0.0
 10
260.4819000405505
 20
46.50320218994794
 30
0.0
 10
260.627485931706
 20
46.75629435068281
 30
0.0
 10
260.7206523870284
 20
46.98903794895071
 30
0.0
 10
260.7619514500108
 20
47.09220912242045
 30
0.0
  0
SPLINE
  5
1E2
330
1F
100
AcDbEntity
  8
0
  6
Continuous
 62
     7
370
    15
100
AcDbSpline
210
0.0
220
0.0
230
1.0
 70
     8
 71
     3
 72
    10
 73
     6
 74
     0
 42
0.000000001
 43
0.00000001
 40
0.0
 40
0.0
 40
0.0
 40
0.0
 40
0.0543416147105726
 40
0.5808061487495466
 40
0.9999999999999999
 40
0.9999999999999999
 40
0.9999999999999999
 40
0.9999999999999999
 10
260.7743810833443
 20
45.78100852722731
 30
0.0
 10
260.7645151375262
 20
45.78539149665091
 30
0.0
 10
260.6590673692758
 20
45.83223691345654
 30
0.0
 10
260.4675827378658
 20
46.01701537381036
 30
0.0
 10
260.3078821679772
 20
46.22417732895555
 30
0.0
 10
260.2370896936758
 20
46.31600860667779
 30
0.0
  0
SPLINE
  5
1E3
330
1F
100
AcDbEntity
  8
0
  6
Continuous
 62
     7
370
    15
100
AcDbSpline
210
0.0
220
0.0
230
1.0
 70
     8
 71
     3
 72
    11
 73
     7
 74
     0
 42
0.000000001
 43
0.00000001
 40
0.0
 40
0.0
 40
0.0
 40
0.0
 40
0.2472162826563558
 40
0.5028846835716009
 40
0.8587568499564238
 40
1.0
 40
1.0
 40
1.0
 40
1.0
 10
263.0908053334073
 20
46.56740423594979
 30
0.0
 10
263.0548384336334
 20
46.4771608738255
 30
0.0
 10
262.9816749558175
 20
46.29358880438624
 30
0.0
 10
262.8461939458269
 20
46.03205745968724
 30
0.0
 10
262.7227347683167
 20
45.87502904951783
 30
0.0
 10
262.6498568155419
 20
45.83843578805288
 30
0.0
 10
262.6291503289814
 20
45.82803870844403
 30
0.0
  0
SPLINE
  5
1E4
330
1F
100
AcDbEntity
  8
0
  6
Continuous
 62
     7
370
    15
100
AcDbSpline
210
0.0
220
0.0
230
1.0
 70
     8
 71
     3
 72
    11
 73
     7
 74
     0
 42
0.000000001
 43
0.00000001
 40
0.0
 40
0.0
 40
0.0
 40
0.0
 40
0.2164543009645089
 40
0.4403089937225368
 40
0.7518987489759494
 40
1.0
 40
1.0
 40
1.0
 40
1.0
 10
262.1888092698766
 20
47.21790693705645
 30
0.0
 10
262.2505965607986
 20
47.13637900846542
 30
0.0
 10
262.3762835985218
 20
46.97053577948709
 30
0.0
 10
262.6095257090672
 20
46.73964584547471
 30
0.0
 10
262.8597209255081
 20
46.59699978232042
 30
0.0
 10
263.0198312306306
 20
46.57649406320788
 30
0.0
 10
263.0908053334073
 20
46.56740423594979
 30
0.0
  0
LINE
  5
1E5
330
1F
100
AcDbEntity
  8
0
  6
Continuous
 62
     7
370
    15
100
AcDbLine
 10
260.76195145
 20
45.7960629673
 30
0.0
 11
260.76195145
 21
47.0922091224
 31
0.0
  0
LINE
  5
1E6
330
1F
100
AcDbEntity
  8
0
  6
Continuous
 62
     7
370
    15
100
AcDbLine
 10
262.1888092699
 20
45.6767515451
 30
0.0
 11
262.1888092699
 21
47.2179069371
 31
0.0
  0
LWPOLYLINE
  5
1E7
330
1F
100
AcDbEntity
  8
0
  6
Continuous
 62
     7
370
    15
100
AcDbPolyline
 90
       70
 70
   128
 43
0.0
 10
266.2778192608
 20
43.6202758275
 10
265.4901362029
 20
43.1241136269
 10
264.7089801349
 20
42.5491778821
 10
263.940823962
 20
41.9002326917
 10
263.1920328682
 20
41.1826554199
 10
262.4688115722
 20
40.4023921381
 10
261.7771529136
 20
39.5659083534
 10
261.1227881937
 20
38.6801354339
 10
260.5111396847
 20
37.7524131732
 10
259.9472756989
 20
36.7904289698
 10
259.4358685907
 20
35.8021541281
 10
258.9811560406
 20
34.7957778044
 10
258.5869059399
 20
33.77963915
 10
258.2563851691
 20
32.7621582098
 10
257.9923325275
 20
31.7517661514
 10
257.7969360383
 20
30.7568354014
 10
257.6718148185
 20
29.7856102695
 10
257.6180056618
 20
28.846138633
 10
257.6359544479
 20
27.9462052496
 10
257.7255124475
 20
27.093267251
 10
257.8859375547
 20
26.2943923498
 10
258.1159004367
 20
25.5562002752
 10
258.4134955486
 20
24.8848079192
 10
258.7762569235
 20
24.2857786503
 10
259.2011786065
 20
23.7640762137
 10
259.6847395626
 20
23.3240236
 10
260.2229328535
 20
22.9692672238
 10
260.81129884
 20
22.7027467081
 10
261.4449621364
 20
22.526670526
 10
262.118672009
 20
22.4424977
 10
262.8268458856
 20
22.4509257128
 10
263.5636156144
 20
22.5518847272
 10
264.3228760894
 20
22.7445381649
 10
265.0983358392
 20
23.0272896389
 10
265.8835691601
 20
23.3977961815
 10
266.6720693615
 20
23.8529876587
 10
267.4573026824
 20
24.3890922107
 10
268.2327624322
 20
25.0016675062
 10
268.9920229072
 20
25.6856375535
 10
269.728792636
 20
26.4353347613
 10
270.4369665126
 20
27.2445469025
 10
271.1106763851
 20
28.1065685903
 10
271.7443396815
 20
29.0142568417
 10
272.3327056681
 20
29.9600902658
 10
272.870898959
 20
30.9362313891
 10
273.3544599151
 20
31.9345915988
 10
273.7793815981
 20
32.9468981678
 10
274.142142973
 20
33.9647628051
 10
274.4397380848
 20
34.9797511636
 10
274.6697009668
 20
35.9834527302
 10
274.8301260741
 20
36.9675505176
 10
274.9196840737
 20
37.9238899816
 10
274.9376328598
 20
38.8445465922
 10
274.8838237031
 20
39.7218914989
 10
274.7587024832
 20
40.5486547453
 10
274.5633059941
 20
41.3179855109
 10
274.2992533524
 20
42.0235088787
 10
273.9687325817
 20
42.6593786598
 10
273.574482481
 20
43.2203258369
 10
273.1197699308
 20
43.7017022251
 10
272.6083628227
 20
44.099518988
 10
272.0444988368
 20
44.4104796907
 10
271.4328503279
 20
44.6320076148
 10
270.778485608
 20
44.7622671102
 10
270.0868269493
 20
44.8001788057
 10
269.3636056534
 20
44.745428553
 10
268.6148145595
 20
44.59847003
 10
267.8466583866
 20
44.3605209813
 10
267.0655023186
 20
44.0335531276
 10
266.2778192608
 20
43.6202758275
  0
LWPOLYLINE
  5
1E8
330
1F
100
AcDbEntity
  8
0
  6
Continuous
 62
     7
370
    15
100
AcDbPolyline
 90
       36
 70
   128
 43
0.0
 10
266.1010425655
 20
43.9264620444
 10
265.2972843432
 20
43.4201740847
 10
264.5001863146
 20
42.8335049573
 10
263.7163534851
 20
42.1713159875
 10
262.9522809404
 20
41.4390942816
 10
262.2143000262
 20
40.6429072593
 10
261.5085258847
 20
39.789352377
 10
260.8408067827
 20
38.8855024592
 10
260.2166756512
 20
37.938847091
 10
259.641304237
 20
36.957230557
 10
259.1194602491
 20
35.9487868409
 10
258.655467851
 20
34.921872225
 10
258.2531718299
 20
33.884996047
 10
257.9159057373
 20
32.8467501897
 10
257.6464642662
 20
31.8157378851
 10
257.4470800936
 20
30.800502426
 10
257.3194053795
 20
29.809456373
 10
257.2644980767
 20
28.8508118459
 10
257.2828131646
 20
27.9325124752
 10
257.3741988784
 20
27.0621675786
 10
257.5378979675
 20
26.246989108
 10
257.7725539695
 20
25.4937318891
 10
258.076222451
 20
24.8086376483
 10
258.4463871193
 20
24.1973832922
 10
258.8799806733
 20
23.6650338671
 10
259.3734102204
 20
23.2160005878
 10
259.9225870478
 20
22.8540042856
 10
260.5229605035
 20
22.5820445757
 10
261.1695557039
 20
22.4023750021
 10
261.8570147575
 20
22.3164843634
 10
262.5796411622
 20
22.3250843764
 10
263.3314470079
 20
22.4281037788
 10
264.1062025947
 20
22.6246889193
 10
264.8974880536
 20
22.9132108316
 10
265.6987465444
 20
23.2912787322
 10
266.1024791247
 20
23.5137711901
  0
LWPOLYLINE
  5
1E9
330
1F
100
AcDbEntity
  8
0
  6
Continuous
 62
     7
370
    15
100
AcDbPolyline
 90
       19
 70
   128
 43
0.0
 10
274.9398773303
 20
38.8222525948
 10
274.9375870542
 20
39.0532689473
 10
274.8826797515
 20
39.948518852
 10
274.7550050374
 20
40.7921548178
 10
274.5556208648
 20
41.5771862112
 10
274.2861793937
 20
42.297108015
 10
273.9489133011
 20
42.9459547304
 10
273.54661728
 20
43.5183498091
 10
273.0826248819
 20
44.0095502053
 10
272.5607808939
 20
44.4154856776
 10
271.9854094798
 20
44.7327925171
 10
271.3612783482
 20
44.9588414193
 10
270.6935592463
 20
45.0917592717
 10
269.9877851048
 20
45.1304446753
 10
269.2498041906
 20
45.0745770705
 10
268.4857316458
 20
44.924619394
 10
267.7018988163
 20
44.6818142422
 10
266.9048007878
 20
44.3481735751
 10
266.1010425655
 20
43.9264620444
  0
SPLINE
  5
1EA
330
1F
100
AcDbEntity
  8
0
  6
Continuous
 62
     7
370
    15
100
AcDbSpline
210
0.0
220
0.0
230
1.0
 70
    11
 71
     3
 72
    83
 73
    79
 74
     0
 42
0.000000001
 43
0.00000001
 40
0.0
 40
0.0
 40
0.0
 40
0.0
 40
0.0312500000000006
 40
0.0312500000000006
 40
0.0625000000000012
 40
0.0625000000000012
 40
0.0937500000000018
 40
0.0937500000000018
 40
0.1093750000000021
 40
0.1093750000000021
 40
0.1250000000000024
 40
0.1250000000000024
 40
0.1562500000000025
 40
0.1562500000000025
 40
0.1875000000000026
 40
0.1875000000000026
 40
0.2187500000000026
 40
0.2187500000000026
 40
0.2500000000000027
 40
0.2500000000000027
 40
0.2812500000000027
 40
0.2812500000000027
 40
0.3125000000000028
 40
0.3125000000000028
 40
0.3437500000000028
 40
0.3437500000000028
 40
0.3593750000000028
 40
0.3593750000000028
 40
0.3750000000000028
 40
0.3906250000000027
 40
0.3906250000000027
 40
0.4062500000000027
 40
0.4062500000000027
 40
0.4375000000000025
 40
0.4375000000000025
 40
0.4687500000000023
 40
0.4687500000000023
 40
0.500000000000002
 40
0.500000000000002
 40
0.5312500000000018
 40
0.5312500000000018
 40
0.5468750000000017
 40
0.5468750000000017
 40
0.5625000000000016
 40
0.5625000000000016
 40
0.5937500000000018
 40
0.5937500000000018
 40
0.6250000000000021
 40
0.6250000000000021
 40
0.6562500000000023
 40
0.6562500000000023
 40
0.6875000000000027
 40
0.6875000000000027
 40
0.7187500000000029
 40
0.7187500000000029
 40
0.7500000000000032
 40
0.7500000000000032
 40
0.7656250000000031
 40
0.7656250000000031
 40
0.7812500000000029
 40
0.7812500000000029
 40
0.8125000000000024
 40
0.8125000000000024
 40
0.8281250000000023
 40
0.8281250000000023
 40
0.8437500000000021
 40
0.8437500000000021
 40
0.8750000000000018
 40
0.8750000000000018
 40
0.8906250000000016
 40
0.8906250000000016
 40
0.9062500000000012
 40
0.9062500000000012
 40
0.9375000000000009
 40
0.9375000000000009
 40
0.9687500000000004
 40
0.9687500000000004
 40
1.0
 40
1.0
 40
1.0
 40
1.0
 10
261.6519670506756
 20
48.04947081320215
 30
0.0
 10
261.8461835283464
 20
48.02097317652298
 30
0.0
 10
262.03542951098
 20
47.98275767454665
 30
0.0
 10
262.4050582777928
 20
47.89031021324642
 30
0.0
 10
262.5866259300175
 20
47.83562308843902
 30
0.0
 10
262.9353574066028
 20
47.71321644365086
 30
0.0
 10
263.10028158311
 20
47.64642406889362
 30
0.0
 10
263.3341275337617
 20
47.53885884535576
 30
0.0
 10
263.40980379835
 20
47.50176044641166
 30
0.0
 10
263.5565326838444
 20
47.42508618298505
 30
0.0
 10
263.6276926420248
 20
47.38542005252601
 30
0.0
 10
263.8301891979151
 20
47.26494388309579
 30
0.0
 10
263.9520355383643
 20
47.18200316289384
 30
0.0
 10
264.1696538933502
 20
47.01050092363827
 30
0.0
 10
264.2661484129941
 20
46.92100542348726
 30
0.0
 10
264.425741058174
 20
46.74063991360035
 30
0.0
 10
264.4893879915675
 20
46.64967661050338
 30
0.0
 10
264.5835977424978
 20
46.46451965806933
 30
0.0
 10
264.6141220188542
 20
46.36928312440897
 30
0.0
 10
264.637002773474
 20
46.18063821270052
 30
0.0
 10
264.6300177673653
 20
46.08678788388105
 30
0.0
 10
264.5767788419371
 20
45.8980214092736
 30
0.0
 10
264.5294823040521
 20
45.80223466930097
 30
0.0
 10
264.3965402432366
 20
45.61757189004908
 30
0.0
 10
264.3109602813101
 20
45.52760108257294
 30
0.0
 10
264.1515472189421
 20
45.39555669729081
 30
0.0
 10
264.0930318093389
 20
45.3520033647912
 30
0.0
 10
263.968760350413
 20
45.26839702221612
 30
0.0
 10
263.8365041529292
 20
45.18762154990733
 30
0.0
 10
263.6884701058868
 20
45.11240650803496
 30
0.0
 10
263.5323906697552
 20
45.04006571419897
 30
0.0
 10
263.4501780173759
 20
45.0053247946645
 30
0.0
 10
263.1980860492661
 20
44.90827513215745
 30
0.0
 10
263.0207553541256
 20
44.85202440330188
 30
0.0
 10
262.6481979892787
 20
44.75698589091432
 30
0.0
 10
262.4569640131242
 20
44.71935325221678
 30
0.0
 10
262.0718376068828
 20
44.6650262137133
 30
0.0
 10
261.8750682652868
 20
44.64812097255251
 30
0.0
 10
261.4896805579514
 20
44.63686734060293
 30
0.0
 10
261.3000926565242
 20
44.64218712673658
 30
0.0
 10
261.0200249117035
 20
44.66728046224522
 30
0.0
 10
260.9271778513435
 20
44.6785767058977
 30
0.0
 10
260.7462409836112
 20
44.70663391045957
 30
0.0
 10
260.6577422574905
 20
44.72341612364663
 30
0.0
 10
260.397952234502
 20
44.78201371710932
 30
0.0
 10
260.2323168359537
 20
44.8320239353722
 30
0.0
 10
259.9163608869367
 20
44.95525863867162
 30
0.0
 10
259.7700330290689
 20
45.02698141021982
 30
0.0
 10
259.5011680641492
 20
45.18930657498346
 30
0.0
 10
259.3780440171532
 20
45.28030235588913
 30
0.0
 10
259.1576283343288
 20
45.48081042224156
 30
0.0
 10
259.0628733153434
 20
45.58788655590423
 30
0.0
 10
258.9036609950555
 20
45.814449280515
 30
0.0
 10
258.8389115022825
 20
45.93467347629071
 30
0.0
 10
258.7437289729016
 20
46.1839501365448
 30
0.0
 10
258.7140182871727
 20
46.31051151237016
 30
0.0
 10
258.6966973412354
 20
46.50200569227022
 30
0.0
 10
258.6954965238827
 20
46.5661143907063
 30
0.0
 10
258.702749911357
 20
46.69469195497636
 30
0.0
 10
258.7113158749381
 20
46.75956553815593
 30
0.0
 10
258.7517848068904
 20
46.95034259991242
 30
0.0
 10
258.7980438744568
 20
47.07291838435178
 30
0.0
 10
258.8975930846028
 20
47.24838362230935
 30
0.0
 10
258.9358398427153
 20
47.30546552037346
 30
0.0
 10
259.0231991401447
 20
47.41645297332867
 30
0.0
 10
259.0720216971686
 20
47.4698710610332
 30
0.0
 10
259.2309870983355
 20
47.62061604288095
 30
0.0
 10
259.354489776769
 20
47.7098237621778
 30
0.0
 10
259.5670541791563
 20
47.82578213194942
 30
0.0
 10
259.6425147160217
 20
47.86135053850239
 30
0.0
 10
259.7983889840614
 20
47.92455401486063
 30
0.0
 10
259.879298834971
 20
47.9524814215706
 30
0.0
 10
260.1307132198271
 20
48.02567524891948
 30
0.0
 10
260.3120505317846
 20
48.06049828749756
 30
0.0
 10
260.6826836085341
 20
48.1012427462422
 30
0.0
 10
260.8727681818822
 20
48.1077775413286
 30
0.0
 10
261.2622502073481
 20
48.09611932278361
 30
0.0
 10
261.4577505730048
 20
48.07796844988133
 30
0.0
 10
261.6519670506756
 20
48.04947081320215
 30
0.0
  0
LINE
  5
1EB
330
1F
100
AcDbEntity
  8
0
  6
Continuous
 62
     7
370
    15
100
AcDbLine
 10
248.5686932567
 20
29.4106483958
 30
0.0
 11
248.6969410133
 21
29.3335100981
 31
0.0
  0
LINE
  5
1EC
330
1F
100
AcDbEntity
  8
0
  6
Continuous
 62
     7
370
    15
100
AcDbLine
 10
261.1959251712
 20
50.9847316576
 30
0.0
 11
261.1332074655
 21
51.0202184134
 31
0.0
  0
LINE
  5
1ED
330
1F
100
AcDbEntity
  8
0
  6
Continuous
 62
     7
370
    15
100
AcDbLine
 10
270.8982703287
 20
33.4490008624
 30
0.0
 11
272.659457961
 21
35.6399015336
 31
0.0
  0
SPLINE
  5
1EE
330
1F
100
AcDbEntity
  8
0
  6
Continuous
 62
     7
370
    15
100
AcDbSpline
210
0.0
220
0.0
230
1.0
 70
     8
 71
     3
 72
    22
 73
    18
 74
     0
 42
0.000000001
 43
0.00000001
 40
0.0
 40
0.0
 40
0.0
 40
0.0
 40
0.0500000000000109
 40
0.0999999999999997
 40
0.1499999999999999
 40
0.2
 40
0.25
 40
0.2968749999999668
 40
0.34375
 40
0.3906249999999998
 40
0.4374999999999987
 40
0.5292946909502638
 40
0.5292946909502638
 40
0.53125
 40
0.6250000000000001
 40
0.8125
 40
0.8968030376401267
 40
0.8968030376401267
 40
0.8968030376401267
 40
0.8968030376401267
 10
272.6594579609924
 20
35.63990153363081
 30
0.0
 10
272.7406576429958
 20
35.74091316609206
 30
0.0
 10
272.900247034619
 20
35.96092651848495
 30
0.0
 10
273.1194227717427
 20
36.33712258112316
 30
0.0
 10
273.3062835559473
 20
36.75441248909862
 30
0.0
 10
273.4436183967556
 20
37.19407046851094
 30
0.0
 10
273.514291708461
 20
37.62123149192152
 30
0.0
 10
273.5138122881024
 20
38.01073627653051
 30
0.0
 10
273.4454901148663
 20
38.34290746581535
 30
0.0
 10
273.3137649024897
 20
38.60990753231778
 30
0.0
 10
273.0737870346459
 20
38.86312439473173
 30
0.0
 10
272.8292278669251
 20
38.9471965531507
 30
0.0
 10
272.656647982814
 20
38.96369251810584
 30
0.0
 10
272.4925438266727
 20
38.97941555712725
 30
0.0
 10
272.0833298039265
 20
39.01404723488758
 30
0.0
 10
271.737696955208
 20
39.04596306609196
 30
0.0
 10
271.1065967629475
 20
39.10241818409929
 30
0.0
 10
270.8982234222854
 20
39.12103497810984
 30
0.0
  0
SPLINE
  5
1EF
330
1F
100
AcDbEntity
  8
0
  6
Continuous
 62
     7
370
    15
100
AcDbSpline
210
0.0
220
0.0
230
1.0
 70
     8
 71
     3
 72
    22
 73
    18
 74
     0
 42
0.000000001
 43
0.00000001
 40
0.0
 40
0.0
 40
0.0
 40
0.0
 40
0.0500000000000109
 40
0.0999999999999997
 40
0.1499999999999999
 40
0.2
 40
0.25
 40
0.2968749999999668
 40
0.34375
 40
0.3906249999999998
 40
0.4374999999999987
 40
0.5292946909502638
 40
0.5292946909502638
 40
0.53125
 40
0.6250000000000001
 40
0.8125
 40
0.8955927989355308
 40
0.8955927989355308
 40
0.8955927989355308
 40
0.8955927989355308
 10
259.8961805605751
 20
28.27181832443075
 30
0.0
 10
259.8159246320354
 20
28.27899441381936
 30
0.0
 10
259.6549534896799
 20
28.3148733268767
 30
0.0
 10
259.4363331100696
 20
28.43796480868424
 30
0.0
 10
259.2493235219099
 20
28.63952316688141
 30
0.0
 10
259.1120285394087
 20
28.9206140977643
 30
0.0
 10
259.0413448198733
 20
29.26617857484523
 30
0.0
 10
259.0418263902851
 20
29.65623602102979
 30
0.0
 10
259.1101497259143
 20
30.06729268599518
 30
0.0
 10
259.2418681854058
 20
30.48637079788228
 30
0.0
 10
259.4818801593618
 20
31.01670271655218
 30
0.0
 10
259.7262861515894
 20
31.38294630876572
 30
0.0
 10
259.8989852654962
 20
31.59884708102324
 30
0.0
 10
260.0632159826972
 20
31.80419818020976
 30
0.0
 10
260.473526505799
 20
32.31266235958369
 30
0.0
 10
260.8094594885929
 20
32.73156748940842
 30
0.0
 10
261.4501259003473
 20
33.52857877353446
 30
0.0
 10
261.657415516379
 20
33.78643103041225
 30
0.0
  0
LINE
  5
1F0
330
1F
100
AcDbEntity
  8
0
  6
Continuous
 62
     7
370
    15
100
AcDbLine
 10
261.6573681928
 20
28.1143416108
 30
0.0
 11
259.8961805606
 21
28.2718183244
 31
0.0
  0
SPLINE
  5
1F1
330
1F
100
AcDbEntity
  8
0
  6
Continuous
 62
     7
370
    15
100
AcDbSpline
210
0.0
220
0.0
230
1.0
 70
     8
 71
     3
 72
    10
 73
     6
 74
     0
 42
0.000000001
 43
0.00000001
 40
0.0
 40
0.0
 40
0.0
 40
0.0
 40
0.5
 40
0.5
 40
1.0
 40
1.0
 40
1.0
 40
1.0
 10
244.1417433998188
 20
38.00434399491022
 30
0.0
 10
244.0852147140362
 20
37.97171067922761
 30
0.0
 10
244.0065713914615
 20
37.95133770376863
 30
0.0
 10
243.8463414771304
 20
37.94827630380728
 30
0.0
 10
243.7651744645897
 20
37.96593550368751
 30
0.0
 10
243.7080605642518
 20
37.99890665654183
 30
0.0
  0
SPLINE
  5
1F2
330
1F
100
AcDbEntity
  8
0
  6
Continuous
 62
     7
370
    15
100
AcDbSpline
210
0.0
220
0.0
230
1.0
 70
     8
 71
     3
 72
    12
 73
     8
 74
     0
 42
0.000000001
 43
0.00000001
 40
0.0
 40
0.0
 40
0.0
 40
0.0
 40
0.250000000000002
 40
0.250000000000002
 40
0.500000000000004
 40
0.500000000000004
 40
1.0
 40
1.0
 40
1.0
 40
1.0
 10
261.3987824705966
 20
54.52286853479693
 30
0.0
 10
261.4306867989414
 20
54.50445055808117
 30
0.0
 10
261.4628241353822
 20
54.47453601744912
 30
0.0
 10
261.5174824418085
 20
54.4041385975062
 30
0.0
 10
261.5404557811388
 20
54.36375790083037
 30
0.0
 10
261.5941375700766
 20
54.241234070795
 30
0.0
 10
261.6109145049526
 20
54.15643274918933
 30
0.0
 10
261.6109145049526
 20
54.08288015355571
 30
0.0
  0
SPLINE
  5
1F3
330
1F
100
AcDbEntity
  8
0
  6
Continuous
 62
     7
370
    15
100
AcDbSpline
210
0.0
220
0.0
230
1.0
 70
     8
 71
     3
 72
    14
 73
    10
 74
     0
 42
0.000000001
 43
0.00000001
 40
0.0
 40
0.0
 40
0.0
 40
0.0
 40
0.1382497790611708
 40
0.2796530602884023
 40
0.4347082022097218
 40
0.5942614193279758
 40
0.7493134370740244
 40
0.9088540791328555
 40
1.0
 40
1.0
 40
1.0
 40
1.0
 10
259.8077922129268
 20
28.6016811169777
 30
0.0
 10
259.7459202594725
 20
28.61138401978155
 30
0.0
 10
259.6207650422488
 20
28.63101115033615
 30
0.0
 10
259.4506624724403
 20
28.71796173793911
 30
0.0
 10
259.2980277935255
 20
28.85315524548864
 30
0.0
 10
259.1739596142534
 20
29.04122774950898
 30
0.0
 10
259.0888099696448
 20
29.27428364803208
 30
0.0
 10
259.0451483361325
 20
29.5009684347305
 30
0.0
 10
259.0485121203477
 20
29.6581467451567
 30
0.0
 10
259.0497351424606
 20
29.71529445054994
 30
0.0
  0
SPLINE
  5
1F4
330
1F
100
AcDbEntity
  8
0
  6
Continuous
 62
     7
370
    15
100
AcDbSpline
210
0.0
220
0.0
230
1.0
 70
     8
 71
     3
 72
    12
 73
     8
 74
     0
 42
0.000000001
 43
0.00000001
 40
0.0
 40
0.0
 40
0.0
 40
0.0
 40
0.1326387794581304
 40
0.3581711854887354
 40
0.5689420516982284
 40
0.7846750805946906
 40
0.9999999999999999
 40
0.9999999999999999
 40
0.9999999999999999
 40
0.9999999999999999
 10
261.8322039167273
 20
34.0308444405689
 30
0.0
 10
261.8289636308329
 20
34.02382007355523
 30
0.0
 10
261.8202137234163
 20
34.00485182105115
 30
0.0
 10
261.7895961388436
 20
33.95908090271314
 30
0.0
 10
261.748816987696
 20
33.90317088000719
 30
0.0
 10
261.7045429602439
 20
33.84547401168788
 30
0.0
 10
261.6731147459826
 20
33.80609959809823
 30
0.0
 10
261.6574155163789
 20
33.78643103041208
 30
0.0
  0
LINE
  5
1F5
330
1F
100
AcDbEntity
  8
0
  6
Continuous
 62
     7
370
    15
100
AcDbLine
 10
243.7080605643
 20
37.9989066565
 30
0.0
 11
242.3086724966
 21
38.8067561924
 31
0.0
  0
LWPOLYLINE
  5
1F6
330
1F
100
AcDbEntity
  8
0
  6
Continuous
 62
     7
370
    15
100
AcDbPolyline
 90
       25
 70
   128
 43
0.0
 10
242.3086724966
 20
38.8067561924
 10
242.6042881668
 20
39.9719405559
 10
242.969272502
 20
41.1459595072
 10
243.4011856541
 20
42.3209649625
 10
243.8971403695
 20
43.4891022432
 10
244.4538212892
 20
44.6425625833
 10
245.0675071116
 20
45.773635329
 10
245.7340954687
 20
46.8747594835
 10
246.4491303495
 20
47.9385742499
 10
247.2078318876
 20
48.9579682376
 10
248.0051283137
 20
49.9261269999
 10
248.8356898592
 20
50.8365785874
 10
249.6939643849
 20
51.6832368118
 10
250.5742144958
 20
52.4604419306
 10
251.4705558944
 20
53.162998482
 10
252.3769967163
 20
53.7862100145
 10
253.2874775841
 20
54.3259104826
 10
254.1959121139
 20
54.7784920958
 10
255.096227601
 20
55.1409294356
 10
255.9824056149
 20
55.4107996805
 10
256.8485222312
 20
55.5862988011
 10
257.6887876321
 20
55.6662536209
 10
258.49758481
 20
55.6501296575
 10
259.2695071161
 20
55.5380346966
 10
259.999394403
 20
55.3307180707
  0
LINE
  5
1F7
330
1F
100
AcDbEntity
  8
0
  6
Continuous
 62
     7
370
    15
100
AcDbLine
 10
259.999394403
 20
55.3307180707
 30
0.0
 11
261.3987824706
 21
54.5228685348
 31
0.0
  0
SPLINE
  5
1F8
330
1F
100
AcDbEntity
  8
0
  6
Continuous
 62
     7
370
    15
100
AcDbSpline
210
0.0
220
0.0
230
1.0
 70
     8
 71
     3
 72
    16
 73
    12
 74
     0
 42
0.000000001
 43
0.00000001
 40
0.0
 40
0.0
 40
0.0
 40
0.0
 40
0.2499999999999974
 40
0.2499999999999974
 40
0.4999999999999948
 40
0.4999999999999948
 40
0.6249999999999934
 40
0.6249999999999934
 40
0.7499999999999922
 40
0.7499999999999922
 40
1.0
 40
1.0
 40
1.0
 40
1.0
 10
270.8982234222916
 20
39.12103497810929
 30
0.0
 10
270.8665731842074
 20
39.12386271970486
 30
0.0
 10
270.8324444579572
 20
39.1253478371967
 30
0.0
 10
270.7552658139283
 20
39.1234861820943
 30
0.0
 10
270.7115705834763
 20
39.12028666356051
 30
0.0
 10
270.6378559934608
 20
39.10644174662343
 30
0.0
 10
270.6119376765453
 20
39.10012293309325
 30
0.0
 10
270.5637344293353
 20
39.08455846198572
 30
0.0
 10
270.5413873378506
 20
39.07525060296395
 30
0.0
 10
270.4865707939344
 20
39.04719405703158
 30
0.0
 10
270.4645911545534
 20
39.02882744964593
 30
0.0
 10
270.4483695418788
 20
39.01171754770871
 30
0.0
  0
SPLINE
  5
1F9
330
1F
100
AcDbEntity
  8
0
  6
Continuous
 62
     7
370
    15
100
AcDbSpline
210
0.0
220
0.0
230
1.0
 70
     8
 71
     3
 72
     8
 73
     4
 74
     0
 42
0.000000001
 43
0.00000001
 40
0.0
 40
0.0
 40
0.0
 40
0.0
 40
1.0
 40
1.0
 40
1.0
 40
1.0
 10
270.4483695418788
 20
39.01171754770871
 30
0.0
 10
270.3971395746345
 20
39.03117431630761
 30
0.0
 10
270.3464215825981
 20
39.05354106540085
 30
0.0
 10
270.3073973115496
 20
39.07606929755018
 30
0.0
  0
LINE
  5
1FA
330
1F
100
AcDbEntity
  8
0
  6
Continuous
 62
     7
370
    15
100
AcDbLine
 10
269.5398211168
 20
39.816541505
 30
0.0
 11
269.4946921125
 21
39.8432745409
 31
0.0
  0
LINE
  5
1FB
330
1F
100
AcDbEntity
  8
0
  6
Continuous
 62
     7
370
    15
100
AcDbLine
 10
264.2650087652
 20
49.2129874115
 30
0.0
 11
265.1451898753
 21
49.7211051507
 31
0.0
  0
LINE
  5
1FC
330
1F
100
AcDbEntity
  8
0
  6
Continuous
 62
     7
370
    15
100
AcDbLine
 10
244.1417433998
 20
30.6554766879
 30
0.0
 11
245.25907019
 21
31.3004957143
 31
0.0
  0
LINE
  5
1FD
330
1F
100
AcDbEntity
  8
0
  6
Continuous
 62
     7
370
    15
100
AcDbLine
 10
245.25907019
 20
31.3004957143
 30
0.0
 11
245.25907019
 21
38.6493630213
 31
0.0
  0
LINE
  5
1FE
330
1F
100
AcDbEntity
  8
0
  6
Continuous
 62
     7
370
    15
100
AcDbLine
 10
245.25907019
 20
38.6493630213
 30
0.0
 11
244.1417433998
 21
38.0043439949
 31
0.0
  0
LINE
  5
1FF
330
1F
100
AcDbEntity
  8
0
  6
Continuous
 62
     7
370
    15
100
AcDbLine
 10
261.610914505
 20
54.0828801536
 30
0.0
 11
261.610914505
 21
52.5188157187
 31
0.0
  0
LINE
  5
200
330
1F
100
AcDbEntity
  8
0
  6
Continuous
 62
     7
370
    15
100
AcDbLine
 10
262.9653606661
 20
53.3007208442
 30
0.0
 11
261.610914505
 21
52.5188157187
 31
0.0
  0
LINE
  5
201
330
1F
100
AcDbEntity
  8
0
  6
Continuous
 62
     7
370
    15
100
AcDbLine
 10
268.4891727859
 20
40.125707974
 30
0.0
 11
270.3073973115
 21
39.0760692976
 31
0.0
  0
ARC
  5
202
330
1F
100
AcDbEntity
  8
0
  6
Continuous
 62
     7
370
    15
100
AcDbCircle
 10
257.7074537888
 20
39.3341447109
 30
0.0
 40
8.706539781547285
100
AcDbArc
 50
338.0333490812
 51
1.6887759117
  0
LINE
  5
203
330
1F
100
AcDbEntity
  8
0
  6
Continuous
 62
     7
370
    15
100
AcDbLine
 10
265.781913912
 20
36.0773167007
 30
0.0
 11
270.3073973115
 21
33.4648107429
 31
0.0
  0
LINE
  5
204
330
1F
100
AcDbEntity
  8
0
  6
Continuous
 62
     7
370
    15
100
AcDbLine
 10
262.4501416357
 20
27.7453176361
 30
0.0
 11
262.4952609841
 21
27.7185904676
 31
0.0
  0
LINE
  5
205
330
1F
100
AcDbEntity
  8
0
  6
Continuous
 62
     7
370
    15
100
AcDbLine
 10
259.1121067148
 20
29.9696843737
 30
0.0
 11
261.6825557851
 21
28.4857957109
 31
0.0
  0
LWPOLYLINE
  5
206
330
1F
100
AcDbEntity
  8
0
  6
Continuous
 62
     7
370
    15
100
AcDbPolyline
 90
       23
 70
   128
 43
0.0
 10
241.3848897089
 20
40.4377382264
 10
241.6852357751
 20
41.5376200246
 10
242.0516631133
 20
42.6433797302
 10
242.4816016752
 20
43.7472617655
 10
242.9720359579
 20
44.8415237226
 10
243.5195261531
 20
45.9184906669
 10
244.1202322742
 20
46.9706089673
 10
244.7699410884
 20
47.9904992765
 10
245.464095668
 20
48.9710082877
 10
246.1978273515
 20
49.9052589066
 10
246.9659898915
 20
50.7866984861
 10
247.7631955495
 20
51.6091447851
 10
248.5838528844
 20
52.3668293298
 10
249.4222059695
 20
53.0544378721
 10
250.272374764
 20
53.6671476631
 10
251.1283963538
 20
54.2006612789
 10
251.9842667746
 20
54.6512367616
 10
252.8339831222
 20
55.0157138647
 10
253.6715856562
 20
55.2915362188
 10
254.4911995997
 20
55.476769261
 10
255.2870763443
 20
55.5701138037
 10
256.0536337695
 20
55.5709151469
 10
256.4999557566
 20
55.5265697326
  0
SPLINE
  5
207
330
1F
100
AcDbEntity
  8
0
  6
Continuous
 62
     7
370
    15
100
AcDbSpline
210
0.0
220
0.0
230
1.0
 70
     8
 71
     3
 72
     8
 73
     4
 74
     0
 42
0.000000001
 43
0.00000001
 40
0.0
 40
0.0
 40
0.0
 40
0.0
 40
1.0
 40
1.0
 40
1.0
 40
1.0
 10
241.3848897088608
 20
40.43773822638849
 30
0.0
 10
240.8935886798083
 20
40.3550910061846
 30
0.0
 10
240.4020085889056
 20
40.27300721869417
 30
0.0
 10
239.9102137901537
 20
40.19135693161243
 30
0.0
  0
LWPOLYLINE
  5
208
330
1F
100
AcDbEntity
  8
0
  6
Continuous
 62
     7
370
    15
100
AcDbPolyline
 90
       25
 70
   128
 43
0.0
 10
239.9102137902
 20
40.1913569316
 10
240.2058294604
 20
41.3565412951
 10
240.5708137955
 20
42.5305602464
 10
241.0027269476
 20
43.7055657017
 10
241.498681663
 20
44.8737029824
 10
242.0553625827
 20
46.0271633225
 10
242.6690484051
 20
47.1582360682
 10
243.3356367622
 20
48.2593602227
 10
244.050671643
 20
49.3231749891
 10
244.8093731812
 20
50.3425689768
 10
245.6066696072
 20
51.3107277391
 10
246.4372311527
 20
52.2211793266
 10
247.2955056785
 20
53.0678375509
 10
248.1757557894
 20
53.8450426698
 10
249.072097188
 20
54.5475992212
 10
249.9785380098
 20
55.1708107536
 10
250.8890188776
 20
55.7105112218
 10
251.7974534075
 20
56.163092835
 10
252.6977688945
 20
56.5255301748
 10
253.5839469084
 20
56.7954004197
 10
254.4500635247
 20
56.9708995403
 10
255.2903289256
 20
57.0508543601
 10
256.0991261035
 20
57.0347303967
 10
256.8710484097
 20
56.9226354358
 10
257.6009356965
 20
56.7153188099
  0
LINE
  5
209
330
1F
100
AcDbEntity
  8
0
  6
Continuous
 62
     7
370
    15
100
AcDbLine
 10
257.6009356965
 20
56.7153188099
 30
0.0
 11
257.9298645856
 21
55.6525931597
 31
0.0
  0
LINE
  5
20A
330
1F
100
AcDbEntity
  8
0
  6
Continuous
 62
     7
370
    15
100
AcDbLine
 10
254.1862933025
 20
58.6865499051
 30
0.0
 11
257.6009356965
 21
56.7153188099
 31
0.0
  0
LINE
  5
20B
330
1F
100
AcDbEntity
  8
0
  6
Continuous
 62
     7
370
    15
100
AcDbLine
 10
239.9102137902
 20
40.1913569316
 30
0.0
 11
239.3239985209
 21
40.5297718032
 31
0.0
  0
SPLINE
  5
20C
330
1F
100
AcDbEntity
  8
0
  6
Continuous
 62
     7
370
    15
100
AcDbSpline
210
0.0
220
0.0
230
1.0
 70
     8
 71
     3
 72
    28
 73
    24
 74
     0
 42
0.000000001
 43
0.00000001
 40
0.0
 40
0.0
 40
0.0
 40
0.0
 40
0.1249999999999999
 40
0.1249999999999999
 40
0.1874999999999998
 40
0.1874999999999998
 40
0.2499999999999997
 40
0.2499999999999997
 40
0.3749999999999993
 40
0.3749999999999993
 40
0.4374999999999993
 40
0.4374999999999993
 40
0.4999999999999992
 40
0.4999999999999992
 40
0.6249999999999992
 40
0.6249999999999992
 40
0.7499999999999992
 40
0.7499999999999992
 40
0.8124999999999993
 40
0.8124999999999993
 40
0.8749999999999996
 40
0.8749999999999996
 40
1.0
 40
1.0
 40
1.0
 40
1.0
 10
239.3239985208953
 20
40.52977180319223
 30
0.0
 10
239.1360114404289
 20
40.63829443477631
 30
0.0
 10
238.9457914858282
 20
40.72023815532422
 30
0.0
 10
238.6576928838802
 20
40.80539588536268
 30
0.0
 10
238.5612030132806
 20
40.82744581576649
 30
0.0
 10
238.3674648404457
 20
40.85871963922545
 30
0.0
 10
238.2702138199144
 20
40.86784689054887
 30
0.0
 10
237.984191945029
 20
40.87562973265728
 30
0.0
 10
237.7988501286724
 20
40.85532318902021
 30
0.0
 10
237.5303375418566
 20
40.78810253588707
 30
0.0
 10
237.4419768821909
 20
40.75931617828148
 30
0.0
 10
237.2716241719012
 20
40.69030428818633
 30
0.0
 10
237.1895971421197
 20
40.6501643982762
 30
0.0
 10
236.9531608883671
 20
40.51354463051298
 30
0.0
 10
236.8082936382448
 20
40.40103014082391
 30
0.0
 10
236.5474368447607
 20
40.13277317582445
 30
0.0
 10
236.4351444372583
 20
39.98061978944716
 30
0.0
 10
236.2959199558045
 20
39.72870340174886
 30
0.0
 10
236.2543241694387
 20
39.64066111607249
 30
0.0
 10
236.1811994543775
 20
39.45632006102066
 30
0.0
 10
236.1495749703246
 20
39.35953129833889
 30
0.0
 10
236.0720816669024
 20
39.06151621944207
 30
0.0
 10
236.0429069515125
 20
38.85204334230555
 30
0.0
 10
236.0369400687707
 20
38.63166254962168
 30
0.0
  0
ARC
  5
20D
330
1F
100
AcDbEntity
  8
0
  6
Continuous
 62
     7
370
    15
100
AcDbCircle
 10
250.8803065311
 20
38.2233921437
 30
0.0
 40
14.84898018918664
100
AcDbArc
 50
178.4244628824
 51
181.5755371176
  0
SPLINE
  5
20E
330
1F
100
AcDbEntity
  8
0
  6
Continuous
 62
     7
370
    15
100
AcDbSpline
210
0.0
220
0.0
230
1.0
 70
     8
 71
     3
 72
    30
 73
    26
 74
     0
 42
0.000000001
 43
0.00000001
 40
0.0
 40
0.0
 40
0.0
 40
0.0
 40
0.1250000000000001
 40
0.1250000000000001
 40
0.1875000000000002
 40
0.1875000000000002
 40
0.2500000000000003
 40
0.2500000000000003
 40
0.3750000000000004
 40
0.3750000000000004
 40
0.4375000000000004
 40
0.4375000000000004
 40
0.5000000000000004
 40
0.5000000000000004
 40
0.6250000000000007
 40
0.6250000000000007
 40
0.6875000000000006
 40
0.6875000000000006
 40
0.7500000000000004
 40
0.7500000000000004
 40
0.8125000000000004
 40
0.8125000000000004
 40
0.8750000000000003
 40
0.8750000000000003
 40
1.0
 40
1.0
 40
1.0
 40
1.0
 10
236.0369400687707
 20
37.81512173773593
 30
0.0
 10
236.0429076674622
 20
37.60160454496121
 30
0.0
 10
236.0720528874617
 20
37.38405464694208
 30
0.0
 10
236.1484875487205
 20
37.05175561740649
 30
0.0
 10
236.1794535322979
 20
36.93998131610692
 30
0.0
 10
236.2524234731135
 20
36.71427944257193
 30
0.0
 10
236.2945596716721
 20
36.6001916699994
 30
0.0
 10
236.4344514610366
 20
36.26202894263822
 30
0.0
 10
236.5462953855788
 20
36.03951872336545
 30
0.0
 10
236.7400819827234
 20
35.70890846741588
 30
0.0
 10
236.8094226203266
 20
35.59868182770973
 30
0.0
 10
236.9549150047733
 20
35.3819518272562
 30
0.0
 10
237.0308022954924
 20
35.27575489162547
 30
0.0
 10
237.2671902439638
 20
34.96311671837586
 30
0.0
 10
237.4363357462147
 20
34.7625741705407
 30
0.0
 10
237.7062017435487
 20
34.47246933111836
 30
0.0
 10
237.7983932495996
 20
34.37812591474592
 30
0.0
 10
237.9839918446343
 20
34.19682088668552
 30
0.0
 10
238.0778207249211
 20
34.10940155319137
 30
0.0
 10
238.2672707753865
 20
33.94079400286672
 30
0.0
 10
238.3628921905922
 20
33.85960581709737
 30
0.0
 10
238.5557538800186
 20
33.70344313754923
 30
0.0
 10
238.653488788917
 20
33.62811615785252
 30
0.0
 10
238.9447447440373
 20
33.41482592440868
 30
0.0
 10
239.1360021350105
 20
33.28943249970825
 30
0.0
 10
239.3239985208953
 20
33.18090449622049
 30
0.0
  0
LINE
  5
20F
330
1F
100
AcDbEntity
  8
0
  6
Continuous
 62
     7
370
    15
100
AcDbLine
 10
239.3239985209
 20
33.1809044962
 30
0.0
 11
239.9102137902
 21
32.8424896246
 31
0.0
  0
ARC
  5
210
330
1F
100
AcDbEntity
  8
0
  6
Continuous
 62
     7
370
    15
100
AcDbCircle
 10
245.7363197234
 20
34.2383651937
 30
0.0
 40
5.990991483022732
100
AcDbArc
 50
193.4735086399
 51
253.1486627168
  0
LINE
  5
211
330
1F
100
AcDbEntity
  8
0
  6
Continuous
 62
     7
370
    15
100
AcDbLine
 10
259.2303535528
 20
55.7743701169
 30
0.0
 11
259.5646659566
 21
55.4670420067
 31
0.0
  0
LINE
  5
212
330
1F
100
AcDbEntity
  8
0
  6
Continuous
 62
     7
370
    15
100
AcDbLine
 10
258.377424799
 20
56.2667554057
 30
0.0
 11
259.2303535528
 21
55.7743701169
 31
0.0
  0
SPLINE
  5
213
330
1F
100
AcDbEntity
  8
0
  6
Continuous
 62
     7
370
    15
100
AcDbSpline
210
0.0
220
0.0
230
1.0
 70
     8
 71
     3
 72
    20
 73
    16
 74
     0
 42
0.000000001
 43
0.00000001
 40
0.0
 40
0.0
 40
0.0
 40
0.0
 40
0.2499999999999995
 40
0.2499999999999995
 40
0.3749999999999996
 40
0.3749999999999996
 40
0.4999999999999997
 40
0.4999999999999997
 40
0.6249999999999998
 40
0.6249999999999998
 40
0.7499999999999998
 40
0.7499999999999998
 40
0.8749999999999999
 40
0.8749999999999999
 40
1.0
 40
1.0
 40
1.0
 40
1.0
 10
254.1862933024939
 20
58.68654990509268
 30
0.0
 10
254.5052819568918
 20
58.55265951583289
 30
0.0
 10
254.8317375569898
 20
58.39276316877089
 30
0.0
 10
255.3440876743729
 20
58.11484424130138
 30
0.0
 10
255.5186910410507
 20
58.01584522849107
 30
0.0
 10
255.8785649033996
 20
57.80490452359238
 30
0.0
 10
256.0614253197531
 20
57.69434870638234
 30
0.0
 10
256.4277204089304
 20
57.4689308373715
 30
0.0
 10
256.612203925189
 20
57.35345023599204
 30
0.0
 10
256.9857887494244
 20
57.11861789169627
 30
0.0
 10
257.1701382206638
 20
57.00228796642101
 30
0.0
 10
257.5308481271402
 20
56.77659327962163
 30
0.0
 10
257.707902116394
 20
56.66678330552494
 30
0.0
 10
258.0556314677464
 20
56.45538854198904
 30
0.0
 10
258.2208818842047
 20
56.35712570684602
 30
0.0
 10
258.3774247989861
 20
56.26675540572865
 30
0.0
  0
LWPOLYLINE
  5
214
330
1F
100
AcDbEntity
  8
0
  6
Continuous
 62
     7
370
    15
100
AcDbPolyline
 90
       11
 70
   128
 43
0.0
 10
246.4929035993
 20
58.9694196524
 10
246.8666440208
 20
59.1401461536
 10
247.7519077435
 20
59.4850629981
 10
248.6227241552
 20
59.7399197633
 10
249.4734456772
 20
59.9030636052
 10
250.2985550541
 20
59.9734364733
 10
251.0927011348
 20
59.9505819727
 10
251.8507335774
 20
59.8346483236
 10
252.5677362505
 20
59.6263874
 10
253.2390591167
 20
59.3271498541
 10
253.3985952525
 20
59.2387095054
  0
LWPOLYLINE
  5
215
330
1F
100
AcDbEntity
  8
0
  6
Continuous
 62
     7
370
    15
100
AcDbPolyline
 90
       10
 70
   128
 43
0.0
 10
237.6498752134
 20
31.9581703404
 10
237.1881220762
 20
32.2580034896
 10
236.620895696
 20
32.7327948369
 10
236.1114108891
 20
33.2910248296
 10
235.6629718601
 20
33.9290731319
 10
235.2784869081
 20
34.6428017557
 10
234.9604495657
 20
35.4275818971
 10
234.7109224269
 20
36.2783239557
 10
234.5315237711
 20
37.1895105427
 10
234.4321431496
 20
38.0422303129
  0
LINE
  5
216
330
1F
100
AcDbEntity
  8
0
  6
Continuous
 62
     7
370
    15
100
AcDbLine
 10
261.7537155891
 20
28.427686244
 30
0.0
 11
259.8077922129
 21
28.601681117
 31
0.0
  0
SPLINE
  5
217
330
1F
100
AcDbEntity
  8
0
  6
Continuous
 62
     7
370
    15
100
AcDbSpline
210
0.0
220
0.0
230
1.0
 70
     8
 71
     3
 72
    16
 73
    12
 74
     0
 42
0.000000001
 43
0.00000001
 40
0.0
 40
0.0
 40
0.0
 40
0.0
 40
0.25
 40
0.25
 40
0.5
 40
0.5
 40
0.625
 40
0.625
 40
0.75
 40
0.75
 40
1.0
 40
1.0
 40
1.0
 40
1.0
 10
261.6573681928261
 20
28.11434161075857
 30
0.0
 10
261.6886292514716
 20
28.11154640104255
 30
0.0
 10
261.7195593941017
 20
28.11214992176134
 30
0.0
 10
261.7762153059804
 20
28.12605416716151
 30
0.0
 10
261.8030564915648
 20
28.13896308979466
 30
0.0
 10
261.8284085821022
 20
28.1808731693532
 30
0.0
 10
261.8338432028592
 20
28.19901011827206
 30
0.0
 10
261.8349648042013
 20
28.24163937265938
 30
0.0
 10
261.8306019566888
 20
28.2661823841983
 30
0.0
 10
261.8073583943708
 20
28.33946235165234
 30
0.0
 10
261.781230226984
 20
28.3854864012441
 30
0.0
 10
261.7537155890853
 20
28.42768624401594
 30
0.0
  0
LINE
  5
218
330
1F
100
AcDbEntity
  8
0
  6
Continuous
 62
     7
370
    15
100
AcDbLine
 10
242.5195042637
 20
39.663479458
 30
0.0
 11
242.0558764712
 21
39.9311260856
 31
0.0
  0
SPLINE
  5
219
330
1F
100
AcDbEntity
  8
0
  6
Continuous
 62
     7
370
    15
100
AcDbSpline
210
0.0
220
0.0
230
1.0
 70
     8
 71
     3
 72
     8
 73
     4
 74
     0
 42
0.000000001
 43
0.00000001
 40
0.0
 40
0.0
 40
0.0
 40
0.0
 40
1.0
 40
1.0
 40
1.0
 40
1.0
 10
261.6825557850686
 20
28.48579571094404
 30
0.0
 10
261.7215432757673
 20
28.46328871163869
 30
0.0
 10
261.7439609428907
 20
28.44343652432185
 30
0.0
 10
261.7537155890853
 20
28.42768624401596
 30
0.0
  0
LINE
  5
21A
330
1F
100
AcDbEntity
  8
0
  6
Continuous
 62
     7
370
    15
100
AcDbLine
 10
241.6300583132
 20
40.5792710491
 30
0.0
 11
241.3848897089
 21
40.4377382264
 31
0.0
  0
SPLINE
  5
21B
330
1F
100
AcDbEntity
  8
0
  6
Continuous
 62
     7
370
    15
100
AcDbSpline
210
0.0
220
0.0
230
1.0
 70
     8
 71
     3
 72
    14
 73
    10
 74
     0
 42
0.000000001
 43
0.00000001
 40
0.0
 40
0.0
 40
0.0
 40
0.0
 40
0.1250000000000012
 40
0.1250000000000012
 40
0.2500000000000024
 40
0.2500000000000024
 40
0.5000000000000013
 40
0.5000000000000013
 40
1.0
 40
1.0
 40
1.0
 40
1.0
 10
242.0558764712386
 20
39.93112608556651
 30
0.0
 10
242.0316800380734
 20
39.94509438910907
 30
0.0
 10
242.0085045996145
 20
39.9724595651066
 30
0.0
 10
241.9715842071836
 20
40.03026133423214
 30
0.0
 10
241.956542416151
 20
40.06123181334848
 30
0.0
 10
241.9167289595641
 20
40.15425828627771
 30
0.0
 10
241.89709294118
 20
40.21686934056243
 30
0.0
 10
241.8466720927105
 20
40.40120009147741
 30
0.0
 10
241.82425491447
 20
40.52274432637815
 30
0.0
 10
241.8075670163041
 20
40.64187339168051
 30
0.0
  0
SPLINE
  5
21C
330
1F
100
AcDbEntity
  8
0
  6
Continuous
 62
     7
370
    15
100
AcDbSpline
210
0.0
220
0.0
230
1.0
 70
     8
 71
     3
 72
    10
 73
     6
 74
     0
 42
0.000000001
 43
0.00000001
 40
0.0
 40
0.0
 40
0.0
 40
0.0
 40
0.5
 40
0.5
 40
1.0
 40
1.0
 40
1.0
 40
1.0
 10
241.8075670163041
 20
40.64187339168051
 30
0.0
 10
241.7741769981163
 20
40.63572362248028
 30
0.0
 10
241.7419376466882
 20
40.6271770146322
 30
0.0
 10
241.6819497524259
 20
40.60594104086331
 30
0.0
 10
241.6546878791769
 20
40.59348939485513
 30
0.0
 10
241.630058313227
 20
40.57927104907827
 30
0.0
  0
SPLINE
  5
21D
330
1F
100
AcDbEntity
  8
0
  6
Continuous
 62
     7
370
    15
100
AcDbSpline
210
0.0
220
0.0
230
1.0
 70
     8
 71
     3
 72
     8
 73
     4
 74
     0
 42
0.000000001
 43
0.00000001
 40
0.0
 40
0.0
 40
0.0
 40
0.0
 40
1.0
 40
1.0
 40
1.0
 40
1.0
 10
270.3073973115496
 20
33.46481074286657
 30
0.0
 10
270.3463848022482
 20
33.44230374356122
 30
0.0
 10
270.3971325823669
 20
33.43880618235849
 30
0.0
 10
270.4483695418889
 20
33.4470031318054
 30
0.0
  0
SPLINE
  5
21E
330
1F
100
AcDbEntity
  8
0
  6
Continuous
 62
     7
370
    15
100
AcDbSpline
210
0.0
220
0.0
230
1.0
 70
     8
 71
     3
 72
    16
 73
    12
 74
     0
 42
0.000000001
 43
0.00000001
 40
0.0
 40
0.0
 40
0.0
 40
0.0
 40
0.2499999999999957
 40
0.2499999999999957
 40
0.3750000000000001
 40
0.3750000000000001
 40
0.5000000000000046
 40
0.5000000000000046
 40
0.7500000000000022
 40
0.7500000000000022
 40
1.0
 40
1.0
 40
1.0
 40
1.0
 10
270.448369541889
 20
33.44700313180537
 30
0.0
 10
270.4644987645125
 20
33.39821406852347
 30
0.0
 10
270.4869050732343
 20
33.34908802742594
 30
0.0
 10
270.5412308954661
 20
33.2948484370221
 30
0.0
 10
270.5632973911289
 20
33.280528053211
 30
0.0
 10
270.6116435803575
 20
33.26619295848644
 30
0.0
 10
270.6377285457516
 20
33.26621228972555
 30
0.0
 10
270.7114662189961
 20
33.28168084218324
 30
0.0
 10
270.7549423770353
 20
33.30938147620728
 30
0.0
 10
270.8322500417501
 20
33.3727566559761
 30
0.0
 10
270.8669034441784
 20
33.40998075621046
 30
0.0
 10
270.8982703287414
 20
33.44900086240744
 30
0.0
  0
ARC
  5
21F
330
1F
100
AcDbEntity
  8
0
  6
Continuous
 62
     7
370
    15
100
AcDbCircle
 10
259.476062658
 20
37.5849903758
 30
0.0
 40
25.2385047083532
100
AcDbArc
 50
132.6720026869
 51
171.2743670877
  0
LINE
  5
220
330
1F
100
AcDbEntity
  8
0
  6
Continuous
 62
     7
370
    15
100
AcDbLine
 10
243.0890744533
 20
32.5532075884
 30
0.0
 11
245.25907019
 21
31.3004957143
 31
0.0
  0
SPLINE
  5
221
330
1F
100
AcDbEntity
  8
0
  6
Continuous
 62
     7
370
    15
100
AcDbSpline
210
0.0
220
0.0
230
1.0
 70
     8
 71
     3
 72
    14
 73
    10
 74
     0
 42
0.000000001
 43
0.00000001
 40
0.0
 40
0.0
 40
0.0
 40
0.0
 40
0.1249999999999983
 40
0.1249999999999983
 40
0.2499999999999966
 40
0.2499999999999966
 40
0.4999999999999968
 40
0.4999999999999968
 40
1.0
 40
1.0
 40
1.0
 40
1.0
 10
242.8407649983557
 20
33.26395489450461
 30
0.0
 10
242.8651943469994
 20
33.2498521317183
 30
0.0
 10
242.8881729010655
 20
33.22257000185863
 30
0.0
 10
242.9250560145573
 20
33.16481659835213
 30
0.0
 10
242.9401811608741
 20
33.13366901668152
 30
0.0
 10
242.9798985213334
 20
33.04083191512554
 30
0.0
 10
242.9993606392225
 20
32.97888144530878
 30
0.0
 10
243.0502287604165
 20
32.79296673981128
 30
0.0
 10
243.0725129878316
 20
32.67143409483799
 30
0.0
 10
243.0890744532902
 20
32.55320758839045
 30
0.0
  0
LINE
  5
222
330
1F
100
AcDbEntity
  8
0
  6
Continuous
 62
     7
370
    15
100
AcDbLine
 10
242.0558764712
 20
33.7170613966
 30
0.0
 11
242.8407649984
 21
33.2639548945
 31
0.0
  0
SPLINE
  5
223
330
1F
100
AcDbEntity
  8
0
  6
Continuous
 62
     7
370
    15
100
AcDbSpline
210
0.0
220
0.0
230
1.0
 70
     8
 71
     3
 72
    14
 73
    10
 74
     0
 42
0.000000001
 43
0.00000001
 40
0.0
 40
0.0
 40
0.0
 40
0.0
 40
0.5
 40
0.5
 40
0.75
 40
0.75
 40
0.875
 40
0.875
 40
1.0
 40
1.0
 40
1.0
 40
1.0
 10
241.807567016304
 20
33.29300608470851
 30
0.0
 10
241.8241910977578
 20
33.39248582893863
 30
0.0
 10
241.8466084993621
 20
33.48832096233463
 30
0.0
 10
241.8970395572108
 20
33.61453691190827
 30
0.0
 10
241.916574251142
 20
33.65437046060251
 30
0.0
 10
241.9565174084775
 20
33.70163079207437
 30
0.0
 10
241.9715343756431
 20
33.71523340567963
 30
0.0
 10
242.0085957431648
 20
33.73045380725534
 30
0.0
 10
242.0315794055132
 20
33.73108779404921
 30
0.0
 10
242.0558764712386
 20
33.71706139656617
 30
0.0
  0
LINE
  5
224
330
1F
100
AcDbEntity
  8
0
  6
Continuous
 62
     7
370
    15
100
AcDbLine
 10
240.6628761123
 20
33.9538220777
 30
0.0
 11
241.8075670163
 21
33.2930060847
 31
0.0
  0
ARC
  5
225
330
1F
100
AcDbEntity
  8
0
  6
Continuous
 62
     7
370
    15
100
AcDbCircle
 10
243.9493409022
 20
39.1172497333
 30
0.0
 40
6.120607483709574
100
AcDbArc
 50
182.476303705
 51
237.5236964406
  0
LINE
  5
226
330
1F
100
AcDbEntity
  8
0
  6
Continuous
 62
     7
370
    15
100
AcDbLine
 10
237.8344489876
 20
39.6693423608
 30
0.0
 11
237.8344489876
 21
38.8528015489
 31
0.0
  0
ARC
  5
227
330
1F
100
AcDbEntity
  8
0
  6
Continuous
 62
     7
370
    15
100
AcDbCircle
 10
240.403901654
 20
39.7562223978
 30
0.0
 40
2.570921069564966
100
AcDbArc
 50
153.4111664643
 51
181.9365850772
  0
SPLINE
  5
228
330
1F
100
AcDbEntity
  8
0
  6
Continuous
 62
     7
370
    15
100
AcDbSpline
210
0.0
220
0.0
230
1.0
 70
     8
 71
     3
 72
    30
 73
    26
 74
     0
 42
0.000000001
 43
0.00000001
 40
0.0
 40
0.0
 40
0.0
 40
0.0
 40
0.1249999999999999
 40
0.1249999999999999
 40
0.1874999999999998
 40
0.1874999999999998
 40
0.2499999999999997
 40
0.2499999999999997
 40
0.3124999999999996
 40
0.3124999999999996
 40
0.3749999999999996
 40
0.3749999999999996
 40
0.4374999999999994
 40
0.4374999999999994
 40
0.4999999999999994
 40
0.4999999999999994
 40
0.6249999999999992
 40
0.6249999999999992
 40
0.6874999999999993
 40
0.6874999999999993
 40
0.7499999999999994
 40
0.7499999999999994
 40
0.8749999999999997
 40
0.8749999999999997
 40
1.0
 40
1.0
 40
1.0
 40
1.0
 10
272.3942929180474
 20
35.8677133121998
 30
0.0
 10
272.507583008446
 20
36.00864510762699
 30
0.0
 10
272.6098811755728
 20
36.15843552931283
 30
0.0
 10
272.7457558654826
 20
36.39690205306856
 30
0.0
 10
272.7884071656955
 20
36.479326571155
 30
0.0
 10
272.8658520894778
 20
36.64492488377892
 30
0.0
 10
272.9007306427229
 20
36.7281998541095
 30
0.0
 10
272.9629923447463
 20
36.89566711262304
 30
0.0
 10
272.9903963785218
 20
36.97984799301772
 30
0.0
 10
273.0375580890449
 20
37.14911481452901
 30
0.0
 10
273.0571115266481
 20
37.23365898081314
 30
0.0
 10
273.0877884755156
 20
37.3986863176656
 30
0.0
 10
273.0990352589845
 20
37.47974661843911
 30
0.0
 10
273.1135046750214
 20
37.63887272576019
 30
0.0
 10
273.1167555582874
 20
37.71740497046505
 30
0.0
 10
273.1142378512001
 20
37.94449360275669
 30
0.0
 10
273.0967474461825
 20
38.0828087191851
 30
0.0
 10
273.0475410827427
 20
38.27050403846104
 30
0.0
 10
273.0271764884043
 20
38.32973436330776
 30
0.0
 10
272.979706021739
 20
38.43805166848691
 30
0.0
 10
272.9524850006547
 20
38.48763976530491
 30
0.0
 10
272.8604601071859
 20
38.62280233859368
 30
0.0
 10
272.7842214433076
 20
38.6950909534884
 30
0.0
 10
272.6085362698959
 20
38.79671731764248
 30
0.0
 10
272.5075932316242
 20
38.82759191630738
 30
0.0
 10
272.3942929185442
 20
38.83772267445634
 30
0.0
  0
LINE
  5
229
330
1F
100
AcDbEntity
  8
0
  6
Continuous
 62
     7
370
    15
100
AcDbLine
 10
272.3942929185
 20
38.8377226745
 30
0.0
 11
270.4483695419
 21
39.0117175477
 31
0.0
  0
ARC
  5
22A
330
1F
100
AcDbEntity
  8
0
  6
Continuous
 62
     7
370
    15
100
AcDbCircle
 10
249.2337079163
 20
31.5682917517
 30
0.0
 40
5.449817921161611
100
AcDbArc
 50
216.4826558068
 51
264.2918241526
  0
SPLINE
  5
22B
330
1F
100
AcDbEntity
  8
0
  6
Continuous
 62
     7
370
    15
100
AcDbSpline
210
0.0
220
0.0
230
1.0
 70
     8
 71
     3
 72
    12
 73
     8
 74
     0
 42
0.000000001
 43
0.00000001
 40
0.0
 40
0.0
 40
0.0
 40
0.0
 40
0.2499999999999999
 40
0.2499999999999999
 40
0.4999999999999998
 40
0.4999999999999998
 40
1.0
 40
1.0
 40
1.0
 40
1.0
 10
243.7080605642518
 20
30.65003934957009
 30
0.0
 10
243.7363027643242
 20
30.63373547450606
 30
0.0
 10
243.7708488962296
 20
30.62077968109606
 30
0.0
 10
243.8455729559273
 20
30.60406794290353
 30
0.0
 10
243.885863347229
 20
30.60018103411607
 30
0.0
 10
244.0069763646653
 20
30.60244443200536
 30
0.0
 10
244.0850939270832
 20
30.6227736434321
 30
0.0
 10
244.1417433998187
 20
30.65547668793846
 30
0.0
  0
ARC
  5
22C
330
1F
100
AcDbEntity
  8
0
  6
Continuous
 62
     7
370
    15
100
AcDbCircle
 10
248.4942105085
 20
33.075987029
 30
0.0
 40
6.39367829176472
100
AcDbArc
 50
194.6597165733
 51
238.0097461351
  0
LINE
  5
22D
330
1F
100
AcDbEntity
  8
0
  6
Continuous
 62
     7
370
    15
100
AcDbLine
 10
242.3086724966
 20
31.4578888854
 30
0.0
 11
243.7080605643
 21
30.6500393496
 31
0.0
  0
SPLINE
  5
22E
330
1F
100
AcDbEntity
  8
0
  6
Continuous
 62
     7
370
    15
100
AcDbSpline
210
0.0
220
0.0
230
1.0
 70
     8
 71
     3
 72
     8
 73
     4
 74
     0
 42
0.000000001
 43
0.00000001
 40
0.0
 40
0.0
 40
0.0
 40
0.0
 40
1.0
 40
1.0
 40
1.0
 40
1.0
 10
242.7354636609271
 20
32.30920117262606
 30
0.0
 10
242.5922989642366
 20
32.02557912561905
 30
0.0
 10
242.450110267384
 20
31.74179597963504
 30
0.0
 10
242.3086724966289
 20
31.45788888544795
 30
0.0
  0
LINE
  5
22F
330
1F
100
AcDbEntity
  8
0
  6
Continuous
 62
     7
370
    15
100
AcDbLine
 10
242.9806322653
 20
32.4507339953
 30
0.0
 11
242.7354636609
 21
32.3092011726
 31
0.0
  0
SPLINE
  5
230
330
1F
100
AcDbEntity
  8
0
  6
Continuous
 62
     7
370
    15
100
AcDbSpline
210
0.0
220
0.0
230
1.0
 70
     8
 71
     3
 72
    10
 73
     6
 74
     0
 42
0.000000001
 43
0.00000001
 40
0.0
 40
0.0
 40
0.0
 40
0.0
 40
0.5
 40
0.5
 40
1.0
 40
1.0
 40
1.0
 40
1.0
 10
243.0890744532902
 20
32.55320758839045
 30
0.0
 10
243.0784215863202
 20
32.53393194118432
 30
0.0
 10
243.0636168231681
 20
32.51532055975927
 30
0.0
 10
243.0268310518372
 20
32.48069028552774
 30
0.0
 10
243.0052618312431
 20
32.46495234109264
 30
0.0
 10
242.9806322652933
 20
32.45073399531579
 30
0.0
  0
SPLINE
  5
231
330
1F
100
AcDbEntity
  8
0
  6
Continuous
 62
     7
370
    15
100
AcDbSpline
210
0.0
220
0.0
230
1.0
 70
     8
 71
     3
 72
    14
 73
    10
 74
     0
 42
0.000000001
 43
0.00000001
 40
0.0
 40
0.0
 40
0.0
 40
0.0
 40
0.5000000000000002
 40
0.5000000000000002
 40
0.7500000000000002
 40
0.7500000000000002
 40
0.8750000000000001
 40
0.8750000000000001
 40
1.0
 40
1.0
 40
1.0
 40
1.0
 10
227.1677651966114
 20
43.94826693552725
 30
0.0
 10
227.4829311404513
 20
43.7211789446314
 30
0.0
 10
227.7992067957173
 20
43.49133256958326
 30
0.0
 10
228.2780312842883
 20
43.13602396759416
 30
0.0
 10
228.4383512947124
 20
43.01588565339861
 30
0.0
 10
228.6814038306661
 20
42.82961681915479
 30
0.0
 10
228.7628472686827
 20
42.76652357792779
 30
0.0
 10
228.927508717716
 20
42.63617833551565
 30
0.0
 10
229.0104147357823
 20
42.56965389353839
 30
0.0
 10
229.096433563867
 20
42.49586042221484
 30
0.0
  0
SPLINE
  5
232
330
1F
100
AcDbEntity
  8
0
  6
Continuous
 62
     7
370
    15
100
AcDbSpline
210
0.0
220
0.0
230
1.0
 70
     8
 71
     3
 72
     8
 73
     4
 74
     0
 42
0.000000001
 43
0.00000001
 40
0.0
 40
0.0
 40
0.0
 40
0.0
 40
1.0
 40
1.0
 40
1.0
 40
1.0
 10
229.096433563867
 20
42.49586042221484
 30
0.0
 10
229.3980860371045
 20
42.23708006413301
 30
0.0
 10
229.7033655806279
 20
41.98950504872835
 30
0.0
 10
230.0080251537545
 20
41.74853219216181
 30
0.0
  0
SPLINE
  5
233
330
1F
100
AcDbEntity
  8
0
  6
Continuous
 62
     7
370
    15
100
AcDbSpline
210
0.0
220
0.0
230
1.0
 70
     8
 71
     3
 72
    14
 73
    10
 74
     0
 42
0.000000001
 43
0.00000001
 40
0.0
 40
0.0
 40
0.0
 40
0.0
 40
0.1250000000000022
 40
0.1250000000000022
 40
0.2500000000000044
 40
0.2500000000000044
 40
0.500000000000003
 40
0.500000000000003
 40
1.0
 40
1.0
 40
1.0
 40
1.0
 10
230.0080251537546
 20
41.74853219216176
 30
0.0
 10
230.0272205296802
 20
41.73334946042556
 30
0.0
 10
230.0448326030805
 20
41.72198164192878
 30
0.0
 10
230.0706775329998
 20
41.71071317271634
 30
0.0
 10
230.0788158972475
 20
41.71032970247928
 30
0.0
 10
230.0957659882155
 20
41.71610549517367
 30
0.0
 10
230.0979352607253
 20
41.72877092079171
 30
0.0
 10
230.0967597129107
 20
41.77320774783547
 30
0.0
 10
230.0846861923065
 20
41.81369101860891
 30
0.0
 10
230.0699079642665
 20
41.85769468849141
 30
0.0
  0
SPLINE
  5
234
330
1F
100
AcDbEntity
  8
0
  6
Continuous
 62
     7
370
    15
100
AcDbSpline
210
0.0
220
0.0
230
1.0
 70
     8
 71
     3
 72
    14
 73
    10
 74
     0
 42
0.000000001
 43
0.00000001
 40
0.0
 40
0.0
 40
0.0
 40
0.0
 40
0.25
 40
0.25
 40
0.5
 40
0.5
 40
0.75
 40
0.75
 40
1.0
 40
1.0
 40
1.0
 40
1.0
 10
230.0699079642658
 20
41.85769468849212
 30
0.0
 10
230.0518517173192
 20
41.91145899147888
 30
0.0
 10
230.048928919218
 20
41.95600960057593
 30
0.0
 10
230.0435151906747
 20
42.04827095042065
 30
0.0
 10
230.0419479126336
 20
42.0955653533409
 30
0.0
 10
230.0318095128264
 20
42.20032640816869
 30
0.0
 10
230.0234945150822
 20
42.25758761520369
 30
0.0
 10
229.9946943404234
 20
42.38720897257811
 30
0.0
 10
229.9740409437528
 20
42.46000317219116
 30
0.0
 10
229.9453514265917
 20
42.53968987115093
 30
0.0
  0
ARC
  5
235
330
1F
100
AcDbEntity
  8
0
  6
Continuous
 62
     7
370
    15
100
AcDbCircle
 10
240.3003187039
 20
45.6262513691
 30
0.0
 40
10.80519362138012
100
AcDbArc
 50
163.4019732888
 51
196.5980267112
  0
SPLINE
  5
236
330
1F
100
AcDbEntity
  8
0
  6
Continuous
 62
     7
370
    15
100
AcDbSpline
210
0.0
220
0.0
230
1.0
 70
     8
 71
     3
 72
    14
 73
    10
 74
     0
 42
0.000000001
 43
0.00000001
 40
0.0
 40
0.0
 40
0.0
 40
0.0
 40
0.25
 40
0.25
 40
0.5
 40
0.5
 40
0.75
 40
0.75
 40
1.0
 40
1.0
 40
1.0
 40
1.0
 10
230.0699079642658
 20
50.1740178834151
 30
0.0
 10
230.0518517173192
 20
50.05317580447053
 30
0.0
 10
230.048928919218
 20
49.92808153790443
 30
0.0
 10
230.0435151906747
 20
49.68013022725307
 30
0.0
 10
230.0419479126336
 20
49.55622160293932
 30
0.0
 10
230.0318095128264
 20
49.31006586369912
 30
0.0
 10
230.0234945150822
 20
49.18777792183771
 30
0.0
 10
229.9946943404234
 20
48.94578074462892
 30
0.0
 10
229.9740409437528
 20
48.82562377744932
 30
0.0
 10
229.9453514265917
 20
48.71281286704406
 30
0.0
  0
SPLINE
  5
237
330
1F
100
AcDbEntity
  8
0
  6
Continuous
 62
     7
370
    15
100
AcDbSpline
210
0.0
220
0.0
230
1.0
 70
     8
 71
     3
 72
    14
 73
    10
 74
     0
 42
0.000000001
 43
0.00000001
 40
0.0
 40
0.0
 40
0.0
 40
0.0
 40
0.125
 40
0.125
 40
0.25
 40
0.25
 40
0.5
 40
0.5
 40
1.0
 40
1.0
 40
1.0
 40
1.0
 10
230.0080251537547
 20
50.71930344770912
 30
0.0
 10
230.0272205296802
 20
50.7170166397353
 30
0.0
 10
230.0448326030806
 20
50.70551840046247
 30
0.0
 10
230.0706775329998
 20
50.66882689793596
 30
0.0
 10
230.0788158972475
 20
50.64574548283388
 30
0.0
 10
230.0957659882155
 20
50.57441296375679
 30
0.0
 10
230.0979352607253
 20
50.52316885814872
 30
0.0
 10
230.0967597129107
 20
50.37313337838713
 30
0.0
 10
230.0846861923065
 20
50.27292170350405
 30
0.0
 10
230.0699079642665
 20
50.17401788341542
 30
0.0
  0
SPLINE
  5
238
330
1F
100
AcDbEntity
  8
0
  6
Continuous
 62
     7
370
    15
100
AcDbSpline
210
0.0
220
0.0
230
1.0
 70
     8
 71
     3
 72
     8
 73
     4
 74
     0
 42
0.000000001
 43
0.00000001
 40
0.0
 40
0.0
 40
0.0
 40
0.0
 40
1.0
 40
1.0
 40
1.0
 40
1.0
 10
229.096433563867
 20
50.77151625884521
 30
0.0
 10
229.3980860371045
 20
50.77886250598831
 30
0.0
 10
229.703365580628
 20
50.75559854001838
 30
0.0
 10
230.0080251537547
 20
50.71930344770912
 30
0.0
  0
SPLINE
  5
239
330
1F
100
AcDbEntity
  8
0
  6
Continuous
 62
     7
370
    15
100
AcDbSpline
210
0.0
220
0.0
230
1.0
 70
     8
 71
     3
 72
    14
 73
    10
 74
     0
 42
0.000000001
 43
0.00000001
 40
0.0
 40
0.0
 40
0.0
 40
0.0
 40
0.5000000000000002
 40
0.5000000000000002
 40
0.7500000000000002
 40
0.7500000000000002
 40
0.8750000000000001
 40
0.8750000000000001
 40
1.0
 40
1.0
 40
1.0
 40
1.0
 10
227.1677651966114
 20
51.4041556038302
 30
0.0
 10
227.4829311404513
 20
51.26677111010407
 30
0.0
 10
227.7992067957173
 20
51.13519760247292
 30
0.0
 10
228.2780312842883
 20
50.96030213595215
 30
0.0
 10
228.4383512947124
 20
50.90563098568764
 30
0.0
 10
228.6814038306661
 20
50.83659916996759
 30
0.0
 10
228.7628472686827
 20
50.8157368854588
 30
0.0
 10
228.927508717716
 20
50.78292917202916
 30
0.0
 10
229.0104147357823
 20
50.76942141253652
 30
0.0
 10
229.096433563867
 20
50.77151625884521
 30
0.0
  0
SPLINE
  5
23A
330
1F
100
AcDbEntity
  8
0
  6
Continuous
 62
     7
370
    15
100
AcDbSpline
210
0.0
220
0.0
230
1.0
 70
     8
 71
     3
 72
     8
 73
     4
 74
     0
 42
0.000000001
 43
0.00000001
 40
0.0000005163856998
 40
0.0000005163856998
 40
0.0000005163856998
 40
0.0000005163856998
 40
0.000026289209185
 40
0.000026289209185
 40
0.000026289209185
 40
0.000026289209185
 10
227.1677436095922
 20
51.41703471502137
 30
0.0
 10
227.1677413084329
 20
51.41274187999485
 30
0.0
 10
227.1677485547573
 20
51.40844881231933
 30
0.0
 10
227.1677651966114
 20
51.4041556038302
 30
0.0
  0
LINE
  5
23B
330
1F
100
AcDbEntity
  8
0
  6
Continuous
 62
     7
370
    15
100
AcDbLine
 10
239.9847628751
 20
61.9353419568
 30
0.0
 11
240.0319190058
 21
61.912251306
 31
0.0
  0
SPLINE
  5
23C
330
1F
100
AcDbEntity
  8
0
  6
Continuous
 62
     7
370
    15
100
AcDbSpline
210
0.0
220
0.0
230
1.0
 70
     8
 71
     3
 72
     8
 73
     4
 74
     0
 42
0.000000001
 43
0.00000001
 40
0.000000516385691
 40
0.000000516385691
 40
0.000000516385691
 40
0.000000516385691
 40
0.0000262892091854
 40
0.0000262892091854
 40
0.0000262892091854
 40
0.0000262892091854
 10
227.1677436095922
 20
43.94356366315994
 30
0.0
 10
227.1677413084329
 20
43.94513704885821
 30
0.0
 10
227.1677485547573
 20
43.94670477879093
 30
0.0
 10
227.1677651966114
 20
43.94826693552726
 30
0.0
  0
SPLINE
  5
23D
330
1F
100
AcDbEntity
  8
0
  6
Continuous
 62
     7
370
    15
100
AcDbSpline
210
0.0
220
0.0
230
1.0
 70
     8
 71
     3
 72
    18
 73
    14
 74
     0
 42
0.000000001
 43
0.00000001
 40
0.0
 40
0.0
 40
0.0
 40
0.0
 40
0.1245588419006727
 40
0.2497979127101811
 40
0.3750141173488518
 40
0.4995178552739267
 40
0.6229594522175117
 40
0.6850517839558751
 40
0.7463408116155572
 40
0.8075419751724922
 40
0.8700277184926605
 40
0.9939072061566391
 40
1.0
 40
1.0
 40
1.0
 40
1.0
 10
232.8566119080461
 20
42.07059254790535
 30
0.0
 10
232.7235650957056
 20
42.3155273140996
 30
0.0
 10
232.4567448884185
 20
42.80673446095372
 30
0.0
 10
232.3320503799044
 20
43.55875561257815
 30
0.0
 10
232.4678757260951
 20
44.18344253598011
 30
0.0
 10
232.8349535704869
 20
44.60030836442547
 30
0.0
 10
233.2775872786992
 20
44.69428924205165
 30
0.0
 10
233.65382490747
 20
44.61235029496098
 30
0.0
 10
233.9360112927758
 20
44.47006142604317
 30
0.0
 10
234.2085289402834
 20
44.25342420477937
 30
0.0
 10
234.5340909311757
 20
43.87537450188013
 30
0.0
 10
234.7815124704463
 20
43.51125723978969
 30
0.0
 10
234.8688703793523
 20
43.23606400814449
 30
0.0
 10
234.8729655119712
 20
43.22316359885678
 30
0.0
  0
SPLINE
  5
23E
330
1F
100
AcDbEntity
  8
0
  6
Continuous
 62
     7
370
    15
100
AcDbSpline
210
0.0
220
0.0
230
1.0
 70
     8
 71
     3
 72
    12
 73
     8
 74
     0
 42
0.000000001
 43
0.00000001
 40
0.0
 40
0.0
 40
0.0
 40
0.0
 40
0.1563493142336162
 40
0.3239574712221868
 40
0.4916906027442364
 40
0.6618450584888177
 40
1.0
 40
1.0
 40
1.0
 40
1.0
 10
234.4238836146577
 20
40.7408689638895
 30
0.0
 10
234.3486650438056
 20
40.76038815123673
 30
0.0
 10
234.1928113509279
 20
40.80083211867156
 30
0.0
 10
233.9270392736213
 20
40.94717679060414
 30
0.0
 10
233.6456040141754
 20
41.15453372287714
 30
0.0
 10
233.2654233653595
 20
41.50373786396356
 30
0.0
 10
233.0199284331561
 20
41.84413916562477
 30
0.0
 10
232.8566119080461
 20
42.07059254790535
 30
0.0
  0
ARC
  5
23F
330
1F
100
AcDbEntity
  8
0
  6
Continuous
 62
     7
370
    15
100
AcDbCircle
 10
265.1348659774
 20
40.6854195736
 30
0.0
 40
3.391510922046381
100
AcDbArc
 50
320.7905073233
 51
350.5847266219
  0
LINE
  5
240
330
1F
100
AcDbEntity
  8
0
  6
Continuous
 62
     7
370
    15
100
AcDbLine
 10
270.4483695419
 20
33.4470031318
 30
0.0
 11
272.394292918
 21
35.8677133122
 31
0.0
  0
LINE
  5
241
330
1F
100
AcDbEntity
  8
0
  6
Continuous
 62
     7
370
    15
100
AcDbLine
 10
265.781913912
 20
36.0773167007
 30
0.0
 11
267.7627435013
 21
38.5414498784
 31
0.0
  0
ARC
  5
242
330
1F
100
AcDbEntity
  8
0
  6
Continuous
 62
     7
370
    15
100
AcDbCircle
 10
247.6680158308
 20
35.1414737198
 30
0.0
 40
6.609905605978871
100
AcDbArc
 50
198.0914363868
 51
217.3775948369
  0
SPLINE
  5
243
330
1F
100
AcDbEntity
  8
0
  6
Continuous
 62
     7
370
    15
100
AcDbSpline
210
0.0
220
0.0
230
1.0
 70
     8
 71
     3
 72
     8
 73
     4
 74
     0
 42
0.000000001
 43
0.00000001
 40
0.0
 40
0.0
 40
0.0
 40
0.0
 40
1.0
 40
1.0
 40
1.0
 40
1.0
 10
239.9102137901537
 20
32.84248962464068
 30
0.0
 10
240.4020085889056
 20
32.92413991172242
 30
0.0
 10
240.8935886798083
 20
33.00622369921285
 30
0.0
 10
241.3848897088608
 20
33.08887091941674
 30
0.0
  0
LINE
  5
244
330
1F
100
AcDbEntity
  8
0
  6
Continuous
 62
     7
370
    15
100
AcDbLine
 10
241.3848897089
 20
33.0888709194
 30
0.0
 11
241.6300583132
 21
33.2304037421
 31
0.0
  0
SPLINE
  5
245
330
1F
100
AcDbEntity
  8
0
  6
Continuous
 62
     7
370
    15
100
AcDbSpline
210
0.0
220
0.0
230
1.0
 70
     8
 71
     3
 72
    10
 73
     6
 74
     0
 42
0.000000001
 43
0.00000001
 40
0.0
 40
0.0
 40
0.0
 40
0.0
 40
0.5
 40
0.5
 40
1.0
 40
1.0
 40
1.0
 40
1.0
 10
241.630058313227
 20
33.23040374210652
 30
0.0
 10
241.654890616579
 20
33.24473912569437
 30
0.0
 10
241.6825656140724
 20
33.25733456583045
 30
0.0
 10
241.7426906235269
 20
33.27853246397072
 30
0.0
 10
241.7743850237216
 20
33.28689462963738
 30
0.0
 10
241.8075670163033
 20
33.29300608470863
 30
0.0
  0
SPLINE
  5
246
330
1F
100
AcDbEntity
  8
0
  6
Continuous
 62
     7
370
    15
100
AcDbSpline
210
0.0
220
0.0
230
1.0
 70
     8
 71
     3
 72
    21
 73
    17
 74
     0
 42
0.000000001
 43
0.00000001
 40
0.0
 40
0.0
 40
0.0
 40
0.0
 40
0.0125254930931254
 40
0.0793182929406155
 40
0.1427191382566894
 40
0.2716937580251924
 40
0.3374200315444065
 40
0.4006404934661444
 40
0.5291809097090059
 40
0.5946420109184644
 40
0.6587289137256275
 40
0.7890368885042152
 40
0.8554092868254792
 40
0.9201126845798346
 40
0.9852697413996959
 40
1.0
 40
1.0
 40
1.0
 40
1.0
 10
233.8580968301633
 20
44.3959790443385
 30
0.0
 10
233.8562136310026
 20
44.38869113365811
 30
0.0
 10
233.8442881809162
 20
44.34254008555373
 30
0.0
 10
233.840326157851
 20
44.2494873358016
 30
0.0
 10
233.8377632009461
 20
44.08003412845605
 30
0.0
 10
233.8597910303796
 20
43.90151180673787
 30
0.0
 10
233.9021170313598
 20
43.71991313693707
 30
0.0
 10
233.9580968485103
 20
43.53702142552857
 30
0.0
 10
234.0334993438588
 20
43.35348387643221
 30
0.0
 10
234.1264222146459
 20
43.17254342381606
 30
0.0
 10
234.2306846139339
 20
42.99335559640567
 30
0.0
 10
234.3503099335349
 20
42.81936115561582
 30
0.0
 10
234.4814928833962
 20
42.65430154944734
 30
0.0
 10
234.5851212293073
 20
42.53625841342843
 30
0.0
 10
234.6637542316535
 20
42.45206067340134
 30
0.0
 10
234.7087545248425
 20
42.4092851058826
 30
0.0
 10
234.7170520368101
 20
42.40139780652837
 30
0.0
  0
LINE
  5
247
330
1F
100
AcDbEntity
  8
0
  6
Continuous
 62
     7
370
    15
100
AcDbLine
 10
261.533803944
 20
54.3687208563
 30
0.0
 11
261.6288122593
 21
54.3897693777
 31
0.0
  0
LINE
  5
248
330
1F
100
AcDbEntity
  8
0
  6
Continuous
 62
     7
370
    15
100
AcDbLine
 10
261.6288122593
 20
54.3897693777
 30
0.0
 11
263.0282003269
 21
53.5819198418
 31
0.0
  0
SPLINE
  5
249
330
1F
100
AcDbEntity
  8
0
  6
Continuous
 62
     7
370
    15
100
AcDbSpline
210
0.0
220
0.0
230
1.0
 70
     8
 71
     3
 72
    12
 73
     8
 74
     0
 42
0.000000001
 43
0.00000001
 40
0.0
 40
0.0
 40
0.0
 40
0.0
 40
0.250000000000002
 40
0.250000000000002
 40
0.500000000000004
 40
0.500000000000004
 40
1.0
 40
1.0
 40
1.0
 40
1.0
 10
263.0282003269188
 20
53.58191984178493
 30
0.0
 10
263.0604442977914
 20
53.56330579361132
 30
0.0
 10
263.082497300325
 20
53.53905547081391
 30
0.0
 10
263.10334624449
 20
53.48846761292636
 30
0.0
 10
263.1029650752627
 20
53.46162904449231
 30
0.0
 10
263.0772121423655
 20
53.38439492822349
 30
0.0
 10
263.0292607152568
 20
53.33760955739566
 30
0.0
 10
262.9653606661215
 20
53.30072084422818
 30
0.0
  0
SPLINE
  5
24A
330
1F
100
AcDbEntity
  8
0
  6
Continuous
 62
     7
370
    15
100
AcDbSpline
210
0.0
220
0.0
230
1.0
 70
     8
 71
     3
 72
    11
 73
     7
 74
     0
 42
0.000000001
 43
0.00000001
 40
0.0
 40
0.0
 40
0.0
 40
0.0
 40
0.2044405784386503
 40
0.3930110619821218
 40
0.7217118157037236
 40
1.0
 40
1.0
 40
1.0
 40
1.0
 10
233.147881260015
 20
42.25351562982419
 30
0.0
 10
233.2275010473104
 20
42.1389297812824
 30
0.0
 10
233.3805599820813
 20
41.91865303207996
 30
0.0
 10
233.7043079681931
 20
41.56783818792914
 30
0.0
 10
234.0882306202881
 20
41.25082235831387
 30
0.0
 10
234.3415514816867
 20
41.14337328591247
 30
0.0
 10
234.457692317454
 20
41.0941107616883
 30
0.0
  0
SPLINE
  5
24B
330
1F
100
AcDbEntity
  8
0
  6
Continuous
 62
     7
370
    15
100
AcDbSpline
210
0.0
220
0.0
230
1.0
 70
     8
 71
     3
 72
    16
 73
    12
 74
     0
 42
0.000000001
 43
0.00000001
 40
0.0
 40
0.0
 40
0.0
 40
0.0
 40
0.1460145433272634
 40
0.2335492811860072
 40
0.328284659647779
 40
0.4359414636891987
 40
0.5278790605354984
 40
0.6640995323892502
 40
0.8013223013367583
 40
0.893041357694521
 40
1.0
 40
1.0
 40
1.0
 40
1.0
 10
234.0874887283111
 20
44.33548455177349
 30
0.0
 10
233.9406281220315
 20
44.40895545146569
 30
0.0
 10
233.7057255688369
 20
44.52647166197591
 30
0.0
 10
233.388874479071
 20
44.51650172753155
 30
0.0
 10
233.1357453205583
 20
44.42876638451532
 30
0.0
 10
232.9270220457005
 20
44.24697416925801
 30
0.0
 10
232.7639911296785
 20
43.955108794239
 30
0.0
 10
232.6869633238968
 20
43.5452254198782
 30
0.0
 10
232.7623626647869
 20
43.08065625713353
 30
0.0
 10
232.9211052024441
 20
42.63871159061105
 30
0.0
 10
233.0685200847428
 20
42.38831647469994
 30
0.0
 10
233.147881260015
 20
42.25351562982419
 30
0.0
  0
SPLINE
  5
24C
330
1F
100
AcDbEntity
  8
0
  6
Continuous
 62
     7
370
    15
100
AcDbSpline
210
0.0
220
0.0
230
1.0
 70
     8
 71
     3
 72
    10
 73
     6
 74
     0
 42
0.000000001
 43
0.00000001
 40
0.0
 40
0.0
 40
0.0
 40
0.0
 40
0.3338113126253519
 40
0.7037145579068499
 40
1.0
 40
1.0
 40
1.0
 40
1.0
 10
265.1451898752827
 20
49.72110515069901
 30
0.0
 10
265.165952705104
 20
49.7355337946271
 30
0.0
 10
265.2097232576766
 20
49.7659511184236
 30
0.0
 10
265.2417059890699
 20
49.82127467539506
 30
0.0
 10
265.2351600173836
 20
49.85863041800145
 30
0.0
 10
265.2322487158983
 20
49.8752442736892
 30
0.0
  0
SPLINE
  5
24D
330
1F
100
AcDbEntity
  8
0
  6
Continuous
 62
     7
370
    15
100
AcDbSpline
210
0.0
220
0.0
230
1.0
 70
     8
 71
     3
 72
     9
 73
     5
 74
     0
 42
0.000000001
 43
0.00000001
 40
0.0
 40
0.0
 40
0.0
 40
0.0
 40
0.9680469915252872
 40
1.0
 40
1.0
 40
1.0
 40
1.0
 10
259.2303535528206
 20
55.77437011685551
 30
0.0
 10
259.1789326925086
 20
55.69570581068225
 30
0.0
 10
259.1258145476642
 20
55.61444497638192
 30
0.0
 10
259.0702650341126
 20
55.53373213066598
 30
0.0
 10
259.0684900600353
 20
55.5311531124228
 30
0.0
  0
LINE
  5
24E
330
1F
100
AcDbEntity
  8
0
  6
Continuous
 62
     7
370
    15
100
AcDbLine
 10
229.0075210429
 20
46.1232481381
 30
0.0
 11
229.5079038772
 21
45.8343832766
 31
0.0
  0
SPLINE
  5
24F
330
1F
100
AcDbEntity
  8
0
  6
Continuous
 62
     7
370
    15
100
AcDbSpline
210
0.0
220
0.0
230
1.0
 70
     8
 71
     3
 72
     9
 73
     5
 74
     0
 42
0.000000001
 43
0.00000001
 40
0.0
 40
0.0
 40
0.0
 40
0.0
 40
0.7009329310329975
 40
1.0
 40
1.0
 40
1.0
 40
1.0
 10
227.1817101008951
 20
51.88062656951085
 30
0.0
 10
227.1786377187962
 20
51.93463074433588
 30
0.0
 10
227.1742544433601
 20
52.01167688161102
 30
0.0
 10
227.1986655775035
 20
52.10130917699424
 30
0.0
 10
227.2059661438419
 20
52.12811524485929
 30
0.0
  0
SPLINE
  5
250
330
1F
100
AcDbEntity
  8
0
  6
Continuous
 62
     7
370
    15
100
AcDbSpline
210
0.0
220
0.0
230
1.0
 70
     8
 71
     3
 72
    10
 73
     6
 74
     0
 42
0.000000001
 43
0.00000001
 40
0.0
 40
0.0
 40
0.0
 40
0.0
 40
0.5
 40
0.5
 40
1.0
 40
1.0
 40
1.0
 40
1.0
 10
227.2222025468103
 20
51.93297689414305
 30
0.0
 10
227.2022764963136
 20
51.84901642012503
 30
0.0
 10
227.1889822321727
 20
51.76357055761126
 30
0.0
 10
227.171713706032
 20
51.59115708667397
 30
0.0
 10
227.1677902514099
 20
51.50404548040767
 30
0.0
 10
227.1677436095922
 20
51.41703471502138
 30
0.0
  0
SPLINE
  5
251
330
1F
100
AcDbEntity
  8
0
  6
Continuous
 62
     7
370
    15
100
AcDbSpline
210
0.0
220
0.0
230
1.0
 70
     8
 71
     3
 72
    24
 73
    20
 74
     0
 42
0.000000001
 43
0.00000001
 40
0.0
 40
0.0
 40
0.0
 40
0.0
 40
0.249999999999999
 40
0.249999999999999
 40
0.3749999999999983
 40
0.3749999999999983
 40
0.4374999999999987
 40
0.4374999999999987
 40
0.4687499999999975
 40
0.4687499999999975
 40
0.4999999999999963
 40
0.4999999999999963
 40
0.5624999999999984
 40
0.5624999999999984
 40
0.6250000000000006
 40
0.6250000000000006
 40
0.7500000000000001
 40
0.7500000000000001
 40
1.0
 40
1.0
 40
1.0
 40
1.0
 10
227.2059661438419
 20
52.12811524485929
 30
0.0
 10
227.2358071731271
 20
52.23539430141554
 30
0.0
 10
227.2656367131682
 20
52.34127887478621
 30
0.0
 10
227.3103078700395
 20
52.4912269180365
 30
0.0
 10
227.3252606621312
 20
52.54022718079944
 30
0.0
 10
227.3468438004206
 20
52.60337746270218
 30
0.0
 10
227.3539735119502
 20
52.6230176469307
 30
0.0
 10
227.3628251372517
 20
52.64072757641869
 30
0.0
 10
227.3654632345215
 20
52.64444394290437
 30
0.0
 10
227.3686157725666
 20
52.64229559452217
 30
0.0
 10
227.3689957337033
 20
52.63613318545557
 30
0.0
 10
227.3669858084425
 20
52.60748810210283
 30
0.0
 10
227.3624091668441
 20
52.57918709711465
 30
0.0
 10
227.3524777807377
 20
52.52280808696536
 30
0.0
 10
227.3467875950028
 20
52.49333833900931
 30
0.0
 10
227.3292059943841
 20
52.40548391844298
 30
0.0
 10
227.3165251214559
 20
52.34625892539366
 30
0.0
 10
227.2772840578355
 20
52.16776561826388
 30
0.0
 10
227.249980597799
 20
52.05002258409016
 30
0.0
 10
227.2222025468103
 20
51.93297689414306
 30
0.0
  0
ARC
  5
252
330
1F
100
AcDbEntity
  8
0
  6
Continuous
 62
     7
370
    15
100
AcDbCircle
 10
227.8848805838
 20
51.3383674603
 30
0.0
 40
0.720126765527103
100
AcDbArc
 50
174.7583590299
 51
234.4349468916
  0
ARC
  5
253
330
1F
100
AcDbEntity
  8
0
  6
Continuous
 62
     7
370
    15
100
AcDbCircle
 10
229.3802145289
 20
43.8384710829
 30
0.0
 40
2.21517204233888
100
AcDbArc
 50
122.6235698332
 51
177.1589486026
  0
LINE
  5
254
330
1F
100
AcDbEntity
  8
0
  6
Continuous
 62
     7
370
    15
100
AcDbLine
 10
228.1859769583
 20
45.7041569627
 30
0.0
 11
228.9300635891
 21
46.1337090315
 31
0.0
  0
SPLINE
  5
255
330
1F
100
AcDbEntity
  8
0
  6
Continuous
 62
     7
370
    15
100
AcDbSpline
210
0.0
220
0.0
230
1.0
 70
     8
 71
     3
 72
     8
 73
     4
 74
     0
 42
0.000000001
 43
0.00000001
 40
0.0
 40
0.0
 40
0.0
 40
0.0
 40
0.0001590976953043
 40
0.0001590976953043
 40
0.0001590976953043
 40
0.0001590976953043
 10
229.0075210428981
 20
46.12324813813731
 30
0.0
 10
228.9817009133386
 20
46.12673268759818
 30
0.0
 10
228.9558817687924
 20
46.13021967033469
 30
0.0
 10
228.9300635891423
 20
46.13370903145307
 30
0.0
  0
SPLINE
  5
256
330
1F
100
AcDbEntity
  8
0
  6
Continuous
 62
     7
370
    15
100
AcDbSpline
210
0.0
220
0.0
230
1.0
 70
     8
 71
     3
 72
    10
 73
     6
 74
     0
 42
0.000000001
 43
0.00000001
 40
0.0
 40
0.0
 40
0.0
 40
0.0
 40
0.5
 40
0.5
 40
1.0
 40
1.0
 40
1.0
 40
1.0
 10
227.2222025468103
 20
43.74832127843906
 30
0.0
 10
227.2022764963137
 20
43.7868428399554
 30
0.0
 10
227.1889822321729
 20
43.81880616714898
 30
0.0
 10
227.1717137060322
 20
43.88124959064691
 30
0.0
 10
227.1677902514101
 20
43.91167296785969
 30
0.0
 10
227.1677436095922
 20
43.94356366315993
 30
0.0
  0
LINE
  5
257
330
1F
100
AcDbEntity
  8
0
  6
Continuous
 62
     7
370
    15
100
AcDbLine
 10
227.1781101755
 20
44.5454338396
 30
0.0
 11
227.1817101009
 21
44.4097969574
 31
0.0
  0
ARC
  5
258
330
1F
100
AcDbEntity
  8
0
  6
Continuous
 62
     7
370
    15
100
AcDbCircle
 10
228.5148357742
 20
44.3331286978
 30
0.0
 40
1.353480254557401
100
AcDbArc
 50
122.9135798094
 51
170.9753897871
  0
LINE
  5
259
330
1F
100
AcDbEntity
  8
0
  6
Continuous
 62
     7
370
    15
100
AcDbLine
 10
228.1859769583
 20
45.7041569627
 30
0.0
 11
227.7793905591
 21
45.469363328
 31
0.0
  0
LINE
  5
25A
330
1F
100
AcDbEntity
  8
0
  6
Continuous
 62
     7
370
    15
100
AcDbLine
 10
227.277504093
 20
43.6523507951
 30
0.0
 11
227.2222025468
 21
43.7483212784
 31
0.0
  0
LWPOLYLINE
  5
25B
330
1F
100
AcDbEntity
  8
0
  6
Continuous
 62
     7
370
     0
100
AcDbPolyline
 90
       10
 70
   128
 43
0.0
 10
246.1075983274
 20
35.056570179
 10
246.1442190117
 20
34.1495605213
 10
246.253777614
 20
33.2923479733
 10
246.4353662972
 20
32.4920356683
 10
246.6874803603
 20
31.7552552459
 10
247.0080307068
 20
31.0881119009
 10
247.3943611556
 20
30.496133793
 10
247.8432704509
 20
29.9842262393
 10
248.3510387888
 20
29.5566310671
 10
248.5686932567
 20
29.4106483958
  0
LWPOLYLINE
  5
25C
330
1F
100
AcDbEntity
  8
0
  6
Continuous
 62
     7
370
     0
100
AcDbPolyline
 90
       27
 70
   128
 43
0.0
 10
261.1332074655
 20
51.0202184134
 10
260.6791430125
 20
51.2373653897
 10
260.0436151716
 20
51.4402772051
 10
259.3658504747
 20
51.5497098063
 10
258.6514650935
 20
51.5647564004
 10
257.9063786504
 20
51.4852923064
 10
257.1367651661
 20
51.311975989
 10
256.3490019005
 20
51.0462436017
 10
255.549616508
 20
50.6902970867
 10
254.7452329477
 20
50.247085929
 10
253.9425165952
 20
49.7202827159
 10
253.148119011
 20
49.1142527045
 10
252.3686228236
 20
48.4340176506
 10
251.6104871839
 20
47.6852141959
 10
250.8799942427
 20
46.8740471617
 10
250.1831970944
 20
46.0072381336
 10
249.5258696197
 20
45.0919697641
 10
248.9134586411
 20
44.1358262552
 10
248.3510387888
 20
43.1467305132
 10
247.8432704509
 20
42.1328784968
 10
247.3943611556
 20
41.1026713031
 10
247.0080307068
 20
40.0646455535
 10
246.6874803603
 20
39.0274026561
 10
246.4353662972
 20
37.9995375324
 10
246.253777614
 20
36.9895673964
 10
246.1442190117
 20
36.0058611787
 10
246.1075983274
 20
35.056570179
  0
LWPOLYLINE
  5
25D
330
1F
100
AcDbEntity
  8
0
  6
Continuous
 62
     7
370
     0
100
AcDbPolyline
 90
       19
 70
   128
 43
0.0
 10
261.6573681928
 20
28.1143416108
 10
261.9853430405
 20
27.6841073469
 10
262.3753121336
 20
27.3395685034
 10
262.8216433292
 20
27.0857010951
 10
263.3178904725
 20
26.9261716114
 10
263.856886496
 20
26.8632840627
 10
264.4308469298
 20
26.8979467048
 10
265.0314823294
 20
27.0296589211
 10
265.6501179958
 20
27.2565184532
 10
266.2778192608
 20
27.5752488739
 10
266.9055205258
 20
27.9812469075
 10
267.5241561922
 20
28.4686489124
 10
268.1247915917
 20
29.0304155672
 10
268.6987520256
 20
29.6584335365
 10
269.2377480491
 20
30.3436326476
 10
269.7339951924
 20
31.0761168873
 10
270.180326388
 20
31.845307325
 10
270.570295481
 20
32.6400948996
 10
270.8982703287
 20
33.4490008624
  0
LWPOLYLINE
  5
25E
330
1F
100
AcDbEntity
  8
0
  6
Continuous
 62
     7
370
     0
100
AcDbPolyline
 90
       19
 70
   128
 43
0.0
 10
270.8982234223
 20
39.1210349781
 10
270.570244706
 20
39.5512492095
 10
270.1802746728
 20
39.8957702636
 10
269.7339452798
 20
40.1496225588
 10
269.2377024273
 20
40.3091399536
 10
268.6987128672
 20
40.3720186939
 10
268.1247607004
 20
40.3373506833
 10
267.5241349585
 20
40.2056365981
 10
266.9055098938
 20
39.9787786564
 10
266.2778197051
 20
39.6600531463
 10
265.65012951
 20
39.2540631099
 10
265.0315044261
 20
38.7666718653
 10
264.4308786526
 20
38.2049183294
 10
263.8569264422
 20
37.576915361
 10
263.3179368271
 20
36.8917325946
 10
262.821693909
 20
36.1592654574
 10
262.3753644407
 20
35.3900922581
 10
261.9853943238
 20
34.5953214155
 10
261.6574155164
 20
33.7864310304
  0
LWPOLYLINE
  5
25F
330
1F
100
AcDbEntity
  8
0
  6
Continuous
 62
     7
370
     0
100
AcDbPolyline
 90
       25
 70
   128
 43
0.0
 10
244.1417433998
 20
38.0043439949
 10
244.438307862
 20
39.1540951797
 10
244.8034513436
 20
40.3120122228
 10
245.2347078441
 20
41.4702751178
 10
245.7291648676
 20
42.6210615228
 10
246.2834830928
 20
43.7565995883
 10
246.893918925
 20
44.8692204447
 10
247.5563497788
 20
45.951409994
 10
248.2663019197
 20
46.9958596566
 10
249.0189806775
 20
47.9955157294
 10
249.8093028275
 20
48.9436270235
 10
250.6319309198
 20
49.8337904581
 10
251.481309326
 20
50.659994304
 10
252.3517017591
 20
51.4166587841
 10
253.2372300135
 20
52.0986737557
 10
254.1319136641
 20
52.701433223
 10
255.0297104541
 20
53.2208664427
 10
255.9245571025
 20
53.6534654166
 10
256.8104102521
 20
53.9963085824
 10
257.6812872831
 20
54.2470805447
 10
258.5313067175
 20
54.4040877123
 10
259.354727939
 20
54.4662697354
 10
260.1459899628
 20
54.433206667
 10
260.8997489916
 20
54.3051217988
 10
261.610914505
 20
54.0828801536
  0
LWPOLYLINE
  5
260
330
1F
100
AcDbEntity
  8
0
  6
Continuous
 62
     7
370
     0
100
AcDbPolyline
 90
       25
 70
   128
 43
0.0
 10
243.7080605643
 20
37.9989066565
 10
244.0036762345
 20
39.16409102
 10
244.3686605696
 20
40.3381099713
 10
244.8005737217
 20
41.5131154266
 10
245.2965284371
 20
42.6812527073
 10
245.8532093568
 20
43.8347130474
 10
246.4668951792
 20
44.9657857932
 10
247.1334835363
 20
46.0669099476
 10
247.8485184171
 20
47.130724714
 10
248.6072199553
 20
48.1501187017
 10
249.4045163813
 20
49.118277464
 10
250.2350779268
 20
50.0287290515
 10
251.0933524526
 20
50.8753872759
 10
251.9736025635
 20
51.6525923948
 10
252.8699439621
 20
52.3551489461
 10
253.7763847839
 20
52.9783604786
 10
254.6868656517
 20
53.5180609467
 10
255.5953001816
 20
53.9706425599
 10
256.4956156686
 20
54.3330798998
 10
257.3817936825
 20
54.6029501446
 10
258.2479102988
 20
54.7784492653
 10
259.0881756997
 20
54.858404085
 10
259.8969728776
 20
54.8422801216
 10
260.6688951838
 20
54.7301851607
 10
261.3987824706
 20
54.5228685348
  0
LINE
  5
261
330
1F
100
AcDbEntity
  8
0
  6
Continuous
 62
     7
370
     0
100
AcDbLine
 10
259.8077922129
 20
28.601681117
 30
0.0
 11
259.8961805606
 21
28.2718183244
 31
0.0
  0
ARC
  5
262
330
1F
100
AcDbEntity
  8
0
  6
Continuous
 62
     7
370
     0
100
AcDbCircle
 10
268.2527219913
 20
37.7142576032
 30
0.0
 40
2.464999343290718
100
AcDbArc
 50
33.5358920911
 51
58.5234276198
  0
LWPOLYLINE
  5
263
330
1F
100
AcDbEntity
  8
0
  6
Continuous
 62
     7
370
     0
100
AcDbPolyline
 90
       15
 70
   128
 43
0.0
 10
252.8839245086
 20
26.9164159755
 10
252.512806351
 20
26.7776461255
 10
251.6270312111
 20
26.5093029905
 10
250.7618535552
 20
26.3371737698
 10
249.9232819446
 20
26.2624538817
 10
249.1171401648
 20
26.2856622473
 10
248.3490267798
 20
26.406637687
 10
247.6242762505
 20
26.6245400402
 10
246.9479218878
 20
26.9378559995
 10
246.3246608966
 20
27.3444096208
 10
245.7588217543
 20
27.841377435
 10
245.2543341501
 20
28.4253080565
 10
244.8147016937
 20
29.0921461529
 10
244.4429775829
 20
29.8372606088
 10
244.1417433998
 20
30.6554766879
  0
ARC
  5
264
330
1F
100
AcDbEntity
  8
0
  6
Continuous
 62
     7
370
     0
100
AcDbCircle
 10
258.6187380171
 20
48.2002998712
 30
0.0
 40
6.701300064527913
100
AcDbArc
 50
13.1170908933
 51
49.5620782406
  0
LWPOLYLINE
  5
265
330
1F
100
AcDbEntity
  8
0
  6
Continuous
 62
     7
370
     0
100
AcDbPolyline
 90
       31
 70
   128
 43
0.0
 10
245.4004915463
 20
35.056570179
 10
245.4364629967
 20
36.015493566
 10
245.5440958225
 20
37.00844383
 10
245.722547651
 20
38.0276497888
 10
245.9704218547
 20
39.0651347739
 10
246.2857784817
 20
40.1127790587
 10
246.666149439
 20
41.1623834062
 10
247.108557808
 20
42.2057332392
 10
247.6095411435
 20
43.2346629307
 10
248.1651785716
 20
44.2411197107
 10
248.771121476
 20
45.2172266904
 10
249.4226275319
 20
46.1553445092
 10
250.1145978212
 20
47.0481311231
 10
250.8416167381
 20
47.8885992666
 10
251.5979943738
 20
48.6701711367
 10
252.3778110478
 20
49.386729874
 10
253.1749636373
 20
50.0326674347
 10
253.9832133425
 20
50.6029284817
 10
254.7962345136
 20
51.093049949
 10
255.6076641576
 20
51.4991959717
 10
256.4111517373
 20
51.8181879064
 10
257.200408873
 20
52.0475292087
 10
257.9692585575
 20
52.1854249721
 10
258.7116834996
 20
52.2307959752
 10
259.4218732176
 20
52.1832871284
 10
260.0942695138
 20
52.0432702528
 10
260.7236099758
 20
51.8118411703
 10
261.304969161
 20
51.4908111272
 10
261.8337971455
 20
51.082692619
 10
262.3059551335
 20
50.5906797263
 10
262.6278739673
 20
50.1580852133
  0
LWPOLYLINE
  5
266
330
1F
100
AcDbEntity
  8
0
  6
Continuous
 62
     7
370
     0
100
AcDbPolyline
 90
       14
 70
   128
 43
0.0
 10
250.1288898093
 20
28.5068636538
 10
250.1145978212
 20
28.5078004868
 10
249.4226275319
 20
28.6016552105
 10
248.771121476
 20
28.7875601484
 10
248.1651785716
 20
29.0640603422
 10
247.6095411435
 20
29.4289918031
 10
247.108557808
 20
29.8794984475
 10
246.666149439
 20
30.4120544501
 10
246.2857784817
 20
31.0224918382
 10
245.9704218547
 20
31.7060331116
 10
245.722547651
 20
32.4573286329
 10
245.5440958225
 20
33.2704984962
 10
245.4364629967
 20
34.1391785446
 10
245.4004915463
 20
35.056570179
  0
LWPOLYLINE
  5
267
330
1F
100
AcDbEntity
  8
0
  6
Continuous
 62
     7
370
     0
100
AcDbPolyline
 90
       16
 70
   128
 43
0.0
 10
262.4952609841
 20
27.7185904676
 10
262.8656683323
 20
27.5458739949
 10
263.3658583608
 20
27.4203598428
 10
263.9067073717
 20
27.3932111477
 10
264.479851203
 20
27.4648477608
 10
265.0764262574
 20
27.6341618309
 10
265.6872065767
 20
27.8985349371
 10
266.3027465199
 20
28.2538785826
 10
266.9135268392
 20
28.6946974226
 10
267.5101018936
 20
29.214174249
 10
268.083245725
 20
29.8042754181
 10
268.6240947359
 20
30.4558750893
 10
269.1242847643
 20
31.1588963557
 10
269.5760804344
 20
31.9024670817
 10
269.9724947828
 20
32.6750880394
 10
270.3073973115
 20
33.4648107429
  0
LINE
  5
268
330
1F
100
AcDbEntity
  8
0
  6
Continuous
 62
     7
370
     0
100
AcDbLine
 10
259.2708010269
 20
28.9116795302
 30
0.0
 11
259.8077922129
 21
28.601681117
 31
0.0
  0
LWPOLYLINE
  5
269
330
1F
100
AcDbEntity
  8
0
  6
Continuous
 62
     7
370
     0
100
AcDbPolyline
 90
       22
 70
   128
 43
0.0
 10
234.3873034293
 20
39.1692260423
 10
234.4234170674
 20
40.2249157401
 10
234.5315237711
 20
41.3154548042
 10
234.7109224269
 20
42.4337706704
 10
234.9604495657
 20
43.572610631
 10
235.2784869081
 20
44.7245888719
 10
235.6629718601
 20
45.8822343723
 10
236.1114108891
 20
47.0380393567
 10
236.620895696
 20
48.1845079864
 10
237.1881220762
 20
49.3142049724
 10
237.8094113492
 20
50.4198037961
 10
238.4807342154
 20
51.494134225
 10
239.1977368885
 20
52.530228814
 10
239.9557693311
 20
53.5213680921
 10
240.7499154119
 20
54.4611241408
 10
241.5750247887
 20
55.3434022814
 10
242.4257463107
 20
56.1624806016
 10
243.2965627224
 20
56.9130470643
 10
244.1818264451
 20
57.5902339579
 10
245.0757962039
 20
58.1896494656
 10
245.972674262
 20
58.7074061477
 10
246.4929035993
 20
58.9694196524
  0
LWPOLYLINE
  5
26A
330
1F
100
AcDbEntity
  8
0
  6
Continuous
 62
     7
370
     0
100
AcDbPolyline
 90
        3
 70
   128
 43
0.0
 10
234.4321431496
 20
38.0422303129
 10
234.4234170674
 20
38.1552322636
 10
234.3873034293
 20
39.1692260423
  0
LWPOLYLINE
  5
26B
330
1F
100
AcDbEntity
  8
0
  6
Continuous
 62
     7
370
     0
100
AcDbPolyline
 90
       19
 70
   128
 43
0.0
 10
242.0558764712
 20
39.9311260856
 10
242.3215123246
 20
40.9988835239
 10
242.6541894805
 20
42.0756124349
 10
243.051448446
 20
43.1533525267
 10
243.5103522727
 20
44.224136032
 10
244.0275082696
 20
45.2800466133
 10
244.5990930856
 20
46.3132778894
 10
245.2208809756
 20
47.3161911479
 10
245.8882750416
 20
48.2813718186
 10
246.5963412175
 20
49.2016842892
 10
247.3398447471
 20
50.0703246599
 10
248.1132888845
 20
50.8808710441
 10
248.9109555322
 20
51.6273310461
 10
249.7269475147
 20
52.3041860628
 10
250.5552321768
 20
52.906432083
 10
251.3896859829
 20
53.4296166824
 10
252.224139789
 20
53.8698719402
 10
253.0524244511
 20
54.2239430349
 10
253.2019396252
 20
54.278866845
  0
LWPOLYLINE
  5
26C
330
1F
100
AcDbEntity
  8
0
  6
Continuous
 62
     7
370
     0
100
AcDbPolyline
 90
       21
 70
   128
 43
0.0
 10
241.6300583132
 20
40.5792710491
 10
241.9465744649
 20
41.7100633254
 10
242.3340595048
 20
42.8460123595
 10
242.7895114051
 20
43.9783174228
 10
243.3094015668
 20
45.0982060181
 10
243.8897021576
 20
46.1970018446
 10
244.5259173173
 20
47.2661920169
 10
245.2131179894
 20
48.2974930185
 10
245.9459801088
 20
49.282914878
 10
246.7188258497
 20
50.2148230712
 10
247.5256676146
 20
51.0859976693
 10
248.3602544229
 20
51.8896892751
 10
249.21612034
 20
52.6196713137
 10
250.0866345722
 20
53.2702882728
 10
250.9650528386
 20
53.8364995182
 10
251.8445696218
 20
54.3139183467
 10
252.7183708938
 20
54.6988459711
 10
253.5796869073
 20
54.9883001771
 10
254.4218446442
 20
55.1800384275
 10
255.2383195144
 20
55.2725752364
 10
255.5213357811
 20
55.2814126162
  0
LINE
  5
26D
330
1F
100
AcDbEntity
  8
0
  6
Continuous
 62
     7
370
     0
100
AcDbLine
 10
272.659457961
 20
35.6399015336
 30
0.0
 11
272.394292918
 21
35.8677133122
 31
0.0
  0
LINE
  5
26E
330
1F
100
AcDbEntity
  8
0
  6
Continuous
 62
     7
370
     0
100
AcDbLine
 10
236.0369400688
 20
38.6316625496
 30
0.0
 11
237.8344489876
 21
39.6693423608
 31
0.0
  0
ARC
  5
26F
330
1F
100
AcDbEntity
  8
0
  6
Continuous
 62
     7
370
     0
100
AcDbCircle
 10
250.7397748339
 20
32.6708958062
 30
0.0
 40
7.316342418724064
100
AcDbArc
 50
196.0342127885
 51
216.412628623
  0
LWPOLYLINE
  5
270
330
1F
100
AcDbEntity
  8
0
  6
Continuous
 62
     7
370
     0
100
AcDbPolyline
 90
       21
 70
   128
 43
0.0
 10
227.1677436096
 20
51.417034715
 10
227.5136184372
 20
52.4194299293
 10
227.9248243226
 20
53.417349321
 10
228.3975394381
 20
54.4015180327
 10
228.9273702772
 20
55.3627890087
 10
229.509392489
 20
56.2922280092
 10
230.1381966455
 20
57.1811966469
 10
230.8079385183
 20
58.0214326741
 10
231.5123933961
 20
58.8051267733
 10
232.2450139377
 20
59.5249951389
 10
232.9989910252
 20
60.174347174
 10
233.7673170485
 20
60.7471476742
 10
234.5428510358
 20
61.2380729201
 10
235.3183850232
 20
61.6425601566
 10
236.0867110465
 20
61.9568500007
 10
236.8406881339
 20
62.1780213812
 10
237.5733086756
 20
62.3040186882
 10
238.2777635533
 20
62.3336708782
 10
238.9475054262
 20
62.266702358
 10
239.5763095827
 20
62.103735546
 10
239.9847628751
 20
61.9353419568
  0
ARC
  5
271
330
1F
100
AcDbEntity
  8
0
  6
Continuous
 62
     7
370
     0
100
AcDbCircle
 10
231.0618797423
 20
45.7453053192
 30
0.0
 40
4.290753921547971
100
AcDbArc
 50
204.8290699934
 51
235.8016614461
  0
LINE
  5
272
330
1F
100
AcDbEntity
  8
0
  6
Continuous
 62
     7
370
     0
100
AcDbLine
 10
267.7627435013
 20
38.5414498784
 30
0.0
 11
272.394292918
 21
35.8677133122
 31
0.0
  0
LINE
  5
273
330
1F
100
AcDbEntity
  8
0
  6
Continuous
 62
     7
370
     0
100
AcDbLine
 10
236.0369400688
 20
37.8151217377
 30
0.0
 11
237.8344489876
 21
38.8528015489
 31
0.0
  0
LINE
  5
274
330
1F
100
AcDbEntity
  8
0
  6
Continuous
 62
     7
370
     0
100
AcDbLine
 10
239.3239985209
 20
33.1809044962
 30
0.0
 11
240.6628761123
 21
33.9538220777
 31
0.0
  0
LINE
  5
275
330
1F
100
AcDbEntity
  8
0
  6
Continuous
 62
     7
370
     0
100
AcDbLine
 10
243.0287305349
 20
32.6998763203
 30
0.0
 11
242.8407649984
 21
33.2639548945
 31
0.0
  0
ARC
  5
276
330
1F
100
AcDbEntity
  8
0
  6
Continuous
 62
     7
370
     0
100
AcDbCircle
 10
248.6452459943
 20
35.5799702195
 30
0.0
 40
6.84764338985226
100
AcDbArc
 50
195.7863549635
 51
209.4894303656
  0
ARC
  5
277
330
1F
100
AcDbEntity
  8
0
  6
Continuous
 62
     7
370
     0
100
AcDbCircle
 10
247.8105072578
 20
35.3273983909
 30
0.0
 40
6.526510224751481
100
AcDbArc
 50
198.7418111038
 51
214.1226623503
  0
LINE
  5
278
330
1F
100
AcDbEntity
  8
0
  6
Continuous
 62
     7
370
     0
100
AcDbLine
 10
258.377424799
 20
56.2667554057
 30
0.0
 11
257.8364358211
 21
55.9544491164
 31
0.0
  0
ARC
  5
279
330
1F
100
AcDbEntity
  8
0
  6
Continuous
 62
     7
370
     0
100
AcDbCircle
 10
230.9301813386
 20
49.9209441036
 30
0.0
 40
1.102095792745925
100
AcDbArc
 50
159.4111972489
 51
213.1915491986
  0
ARC
  5
27A
330
1F
100
AcDbEntity
  8
0
  6
Continuous
 62
     7
370
     0
100
AcDbCircle
 10
229.5983705298
 20
49.7494592809
 30
0.0
 40
0.6345057597336389
100
AcDbArc
 50
41.9989524423
 51
61.7721687695
  0
LINE
  5
27B
330
1F
100
AcDbEntity
  8
0
  6
Continuous
 62
     7
370
     0
100
AcDbLine
 10
229.8984783021
 20
50.3085056869
 30
0.0
 11
230.0080251538
 21
50.7193034477
 31
0.0
  0
LINE
  5
27C
330
1F
100
AcDbEntity
  8
0
  6
Continuous
 62
     7
370
     0
100
AcDbLine
 10
229.8984783021
 20
50.3085056869
 30
0.0
 11
229.0964335639
 21
50.7715162588
 31
0.0
  0
LINE
  5
27D
330
1F
100
AcDbEntity
  8
0
  6
Continuous
 62
     7
370
     0
100
AcDbLine
 10
227.2222025468
 20
51.9329768941
 30
0.0
 11
227.2059661438
 21
52.1281152449
 31
0.0
  0
ARC
  5
27E
330
1F
100
AcDbEntity
  8
0
  6
Continuous
 62
     7
370
     0
100
AcDbCircle
 10
229.6885183207
 20
41.6558863746
 30
0.0
 40
0.4314912001449145
100
AcDbArc
 50
27.8850837497
 51
60.8831993912
  0
ARC
  5
27F
330
1F
100
AcDbEntity
  8
0
  6
Continuous
 62
     7
370
     0
100
AcDbCircle
 10
231.1382169974
 20
42.4279445703
 30
0.0
 40
1.301173266867148
100
AcDbArc
 50
165.9701785416
 51
197.6766607319
  0
LINE
  5
280
330
1F
100
AcDbEntity
  8
0
  6
Continuous
 62
     7
370
     0
100
AcDbLine
 10
229.5067071364
 20
44.9417156599
 30
0.0
 11
228.1859769583
 21
45.7041569627
 31
0.0
  0
LINE
  5
281
330
1F
100
AcDbEntity
  8
0
  6
Continuous
 62
     7
370
     0
100
AcDbLine
 10
229.8984783021
 20
42.0328498503
 30
0.0
 11
229.0964335639
 21
42.4958604222
 31
0.0
  0
LINE
  5
282
330
1F
100
AcDbEntity
  8
0
  6
Continuous
 62
     7
370
     0
100
AcDbLine
 10
229.8984783021
 20
42.0328498503
 30
0.0
 11
230.0080251538
 21
41.7485321922
 31
0.0
  0
OLE2FRAME
  5
283
330
1F
100
AcDbEntity
  8
0
100
AcDbOle2Frame
 70
     2
  3
Paintbrush-Bild
 10
13.8511154363
 20
38.264191557
 30
0.0
 11
51.6290888628
 21
31.9806341108
 31
0.0
 71
     2
 72
     0
 73
     1
 90
    12928
310
80552BED0767C5B32B40DDAF6807D121434000000000000000006FFBDDFB85D0
310
4940DDAF6807D121434000000000000000006FFBDDFB85D04940416F4BD60AFB
310
3F4000000000000000002BED0767C5B32B40416F4BD60AFB3F40000000000000
310
0000000000000100000000010000010000000100000000000100000000320000
310
D0CF11E0A1B11AE1000000000000000000000000000000003E000300FEFF0900
310
0600000000000000000000000100000001000000000000000010000002000000
310
01000000FEFFFFFF0000000000000000FFFFFFFFFFFFFFFFFFFFFFFFFFFFFFFF
310
FFFFFFFFFFFFFFFFFFFFFFFFFFFFFFFFFFFFFFFFFFFFFFFFFFFFFFFFFFFFFFFF
310
FFFFFFFFFFFFFFFFFFFFFFFFFFFFFFFFFFFFFFFFFFFFFFFFFFFFFFFFFFFFFFFF
310
FFFFFFFFFFFFFFFFFFFFFFFFFFFFFFFFFFFFFFFFFFFFFFFFFFFFFFFFFFFFFFFF
310
FFFFFFFFFFFFFFFFFFFFFFFFFFFFFFFFFFFFFFFFFFFFFFFFFFFFFFFFFFFFFFFF
310
FFFFFFFFFFFFFFFFFFFFFFFFFFFFFFFFFFFFFFFFFFFFFFFFFFFFFFFFFFFFFFFF
310
FFFFFFFFFFFFFFFFFFFFFFFFFFFFFFFFFFFFFFFFFFFFFFFFFFFFFFFFFFFFFFFF
310
FFFFFFFFFFFFFFFFFFFFFFFFFFFFFFFFFFFFFFFFFFFFFFFFFFFFFFFFFFFFFFFF
310
FFFFFFFFFFFFFFFFFFFFFFFFFFFFFFFFFFFFFFFFFFFFFFFFFFFFFFFFFFFFFFFF
310
FFFFFFFFFFFFFFFFFFFFFFFFFFFFFFFFFFFFFFFFFFFFFFFFFFFFFFFFFFFFFFFF
310
FFFFFFFFFFFFFFFFFFFFFFFFFFFFFFFFFFFFFFFFFFFFFFFFFFFFFFFFFFFFFFFF
310
FFFFFFFFFFFFFFFFFFFFFFFFFFFFFFFFFFFFFFFFFFFFFFFFFFFFFFFFFFFFFFFF
310
FFFFFFFFFFFFFFFFFFFFFFFFFFFFFFFFFFFFFFFFFFFFFFFFFFFFFFFFFFFFFFFF
310
FFFFFFFFFFFFFFFFFFFFFFFFFFFFFFFFFFFFFFFFFFFFFFFFFFFFFFFFFFFFFFFF
310
FDFFFFFFFEFFFFFFFEFFFFFFFEFFFFFF05000000060000000700000008000000
310
090000000A0000000B0000000C0000000D0000000E0000000F00000010000000
310
11000000120000001300000014000000150000001600000017000000FEFFFFFF
310
FFFFFFFFFFFFFFFFFFFFFFFFFFFFFFFFFFFFFFFFFFFFFFFFFFFFFFFFFFFFFFFF
310
FFFFFFFFFFFFFFFFFFFFFFFFFFFFFFFFFFFFFFFFFFFFFFFFFFFFFFFFFFFFFFFF
310
FFFFFFFFFFFFFFFFFFFFFFFFFFFFFFFFFFFFFFFFFFFFFFFFFFFFFFFFFFFFFFFF
310
FFFFFFFFFFFFFFFFFFFFFFFFFFFFFFFFFFFFFFFFFFFFFFFFFFFFFFFFFFFFFFFF
310
FFFFFFFFFFFFFFFFFFFFFFFFFFFFFFFFFFFFFFFFFFFFFFFFFFFFFFFFFFFFFFFF
310
FFFFFFFFFFFFFFFFFFFFFFFFFFFFFFFFFFFFFFFFFFFFFFFFFFFFFFFFFFFFFFFF
310
FFFFFFFFFFFFFFFFFFFFFFFFFFFFFFFFFFFFFFFFFFFFFFFFFFFFFFFFFFFFFFFF
310
FFFFFFFFFFFFFFFFFFFFFFFFFFFFFFFFFFFFFFFFFFFFFFFFFFFFFFFFFFFFFFFF
310
FFFFFFFFFFFFFFFFFFFFFFFFFFFFFFFFFFFFFFFFFFFFFFFFFFFFFFFFFFFFFFFF
310
FFFFFFFFFFFFFFFFFFFFFFFFFFFFFFFFFFFFFFFFFFFFFFFFFFFFFFFFFFFFFFFF
310
FFFFFFFFFFFFFFFFFFFFFFFFFFFFFFFFFFFFFFFFFFFFFFFFFFFFFFFFFFFFFFFF
310
FFFFFFFFFFFFFFFFFFFFFFFFFFFFFFFFFFFFFFFFFFFFFFFFFFFFFFFFFFFFFFFF
310
FFFFFFFFFFFFFFFFFFFFFFFFFFFFFFFFFFFFFFFFFFFFFFFFFFFFFFFFFFFFFFFF
310
52006F006F007400200045006E00740072007900000000000000000000000000
310
0000000000000000000000000000000000000000000000000000000000000000
310
16000500FFFFFFFFFFFFFFFF020000000A00030000000000C000000000000046
310
00000000000000000000000010072DE0D81FD20103000000C000000000000000
310
01004F006C006500000000000000000000000000000000000000000000000000
310
0000000000000000000000000000000000000000000000000000000000000000
310
0A000200FFFFFFFFFFFFFFFFFFFFFFFF00000000000000000000000000000000
310
0000000000000000000000000000000000000000000000001400000000000000
310
010043006F006D0070004F0062006A0000000000000000000000000000000000
310
0000000000000000000000000000000000000000000000000000000000000000
310
120002010100000003000000FFFFFFFF00000000000000000000000000000000
310
0000000000000000000000000000000000000000010000004D00000000000000
310
01004F006C006500310030004E00610074006900760065000000000000000000
310
0000000000000000000000000000000000000000000000000000000000000000
310
1A000200FFFFFFFFFFFFFFFFFFFFFFFF00000000000000000000000000000000
310
0000000000000000000000000000000000000000040000002426000000000000
310
FEFFFFFF02000000FEFFFFFFFFFFFFFFFFFFFFFFFFFFFFFFFFFFFFFFFFFFFFFF
310
FFFFFFFFFFFFFFFFFFFFFFFFFFFFFFFFFFFFFFFFFFFFFFFFFFFFFFFFFFFFFFFF
310
FFFFFFFFFFFFFFFFFFFFFFFFFFFFFFFFFFFFFFFFFFFFFFFFFFFFFFFFFFFFFFFF
310
FFFFFFFFFFFFFFFFFFFFFFFFFFFFFFFFFFFFFFFFFFFFFFFFFFFFFFFFFFFFFFFF
310
FFFFFFFFFFFFFFFFFFFFFFFFFFFFFFFFFFFFFFFFFFFFFFFFFFFFFFFFFFFFFFFF
310
FFFFFFFFFFFFFFFFFFFFFFFFFFFFFFFFFFFFFFFFFFFFFFFFFFFFFFFFFFFFFFFF
310
FFFFFFFFFFFFFFFFFFFFFFFFFFFFFFFFFFFFFFFFFFFFFFFFFFFFFFFFFFFFFFFF
310
FFFFFFFFFFFFFFFFFFFFFFFFFFFFFFFFFFFFFFFFFFFFFFFFFFFFFFFFFFFFFFFF
310
FFFFFFFFFFFFFFFFFFFFFFFFFFFFFFFFFFFFFFFFFFFFFFFFFFFFFFFFFFFFFFFF
310
FFFFFFFFFFFFFFFFFFFFFFFFFFFFFFFFFFFFFFFFFFFFFFFFFFFFFFFFFFFFFFFF
310
FFFFFFFFFFFFFFFFFFFFFFFFFFFFFFFFFFFFFFFFFFFFFFFFFFFFFFFFFFFFFFFF
310
FFFFFFFFFFFFFFFFFFFFFFFFFFFFFFFFFFFFFFFFFFFFFFFFFFFFFFFFFFFFFFFF
310
FFFFFFFFFFFFFFFFFFFFFFFFFFFFFFFFFFFFFFFFFFFFFFFFFFFFFFFFFFFFFFFF
310
FFFFFFFFFFFFFFFFFFFFFFFFFFFFFFFFFFFFFFFFFFFFFFFFFFFFFFFFFFFFFFFF
310
FFFFFFFFFFFFFFFFFFFFFFFFFFFFFFFFFFFFFFFFFFFFFFFFFFFFFFFFFFFFFFFF
310
FFFFFFFFFFFFFFFFFFFFFFFFFFFFFFFFFFFFFFFFFFFFFFFFFFFFFFFFFFFFFFFF
310
0100000200000000000000000000000000000000000000000000000000000000
310
0000000000000000000000000000000000000000000000000000000000000000
310
0100FEFF030A0000FFFFFFFF0A00030000000000C00000000000004607000000
310
5042727573680007000000504272757368000700000050427275736800F439B2
310
7100000000000000000000000000000000000000000000000000000000000000
310
0000000000000000000000000000000000000000000000000000000000000000
310
0000000000000000000000000000000000000000000000000000000000000000
310
0000000000000000000000000000000000000000000000000000000000000000
310
0000000000000000000000000000000000000000000000000000000000000000
310
0000000000000000000000000000000000000000000000000000000000000000
310
0000000000000000000000000000000000000000000000000000000000000000
310
0000000000000000000000000000000000000000000000000000000000000000
310
0000000000000000000000000000000000000000000000000000000000000000
310
0000000000000000000000000000000000000000000000000000000000000000
310
0000000000000000000000000000000000000000000000000000000000000000
310
0000000000000000000000000000000000000000000000000000000000000000
310
20260000424D0E260000000000003E00000028000000B40200006E0000000100
310
01000000000000000000130B0000130B00000200000002000000000000FFFFFF
310
FFFFFFFFFFFFFFFFFFFFFFFFFFFFFFFFFFFFFFFFFFFFFFFFFFFFFFFFFFFFFFFF
310
FFFFFFFFFFFFFFFFFFFFFFFFFFFFFFFFFFFFFFFFFFFFFFFFFFFFFFFFFFFFFFFF
310
FFFFFFFFFFFFFFFFFFFFFFFFFFFFFFFFFFFFFFFFFFFFFFFFF000FFFFFFFFFFFF
310
FFFFFFFFFFFFFFFFFFFFFFFFFFFFFFFFFFFFFFFFFFFFFFFFFFFFFFFFFFFFFFFF
310
FFFFFFFFFFFFFFFFFFFFFFFFFFFFFFFFFFFFFFFFFFFFFFFFFFFFFFFFFFFFFFFF
310
FFFFFFFFFFFFFFFFFFFFFFFFFFFFFFFFF000FFFFFFFFFFFFFFFFFFFFFFFFFFFF
310
FFFFFFFFFFFFFFFFFFFFFFFFFFFFFFFFFFFFFFFFFFFFFFFFFFFFFFFFFFFFFFFF
310
FFFFFFFFFFFFFFFFFFFFFFFFFFFFFFFFFFFFFFFFFFFFFFFFFFFFFFFFFFFFFFFF
310
FFFFFFFFFFFFFFFFF000FFFFFFFFFFFFFFFFFFFFFFFFFFFFFFFFFFFFFFFFFFFF
310
FFFFFFFFFFFFFFFFFFFFFFFFFFFFFFFFFFFFFFFFFFFFFFFFFFFFFFFFFFFFFFFF
310
FFFFFFFFFFFFFFFFFFFFFFFFFFFFFFFFFFFFFFFFFFFFFFFFFFFFFFFFFFFFFFFF
310
F000FFFFFFFFFFFFFFFFFFFFFFFFFFFFFFFFFFFFFFFFFFFFFFFFFFFFFFFFFFFF
310
FFFFFFFFFFFFFFFFFFFFFFFFFFFFFFFFFFFFFFFFFFFFFFFFFFFFFFFFFFFFFFFF
310
FFFFFFFFFFFFFFFFFFFFFFFFFFFFFFFFFFFFFFFFFFFFFFFFF000FFFFFFFFFFFF
310
FFFFFFFFFFFFFFFFFFFFFFFFFFFFFFFFFFFFFFFFFFFFFFFFFFFFFFFFFFFFFFFF
310
FFFFFFFFFFFFFFFFFFFFFFFFFFFFFFFFFFFFFFFFFFFFFFFFFFFFFFFFFFFFFFFF
310
FFFFFFFFFFFFFFFFFFFFFFFFFFFFFFFFF000FFFFFFFFFFFFFFFFFFFFFFFFFFFF
310
FFFFFFFFFFFFFFFFFFFFFFFFFFFFFFFFFFFFFFFFFFFFFFFFFFFFFFFFFFFFFFFF
310
FFFFFFFFFFFFFFFFFFFFFFFFFFFFFFFFFFFFFFFFFFFFFFFFFFFFFFFFFFFFFFFF
310
FFFFFFFFFFFFFFFFF000FFFFFFFFFFFFFFFFFFFFFFFFFFFFFFFFFFFFFFFFFFFF
310
FFFFFFFFFFFFFFFFFFFFFFFFFFFFFFFFFFFFFFFFFFFFFFFFFFFFFFFFFFFFFFFF
310
FFFFFFFFFFFFFFFFFFFFFFFFFFFFFFFFFFFFFFFFFFFFFFFFFFFFFFFFFFFFFFFF
310
F000FFFFFFFFFFFFFFFFFFFFFFFFFFFFFFFFFFFFFFFFFFFFFFFFFFFFFFFFFFFF
310
FFFFFFFFFFFFFFFFFFFFFFFFFFFFFFFFFFFFFFFFFFFFFFFFFFFFFFFFFFFFFFFF
310
FFFFFFFFFFFFFFFFFFFFFFFFFFFFFFFFFFFFFFFFFFFFFFFFF000FFFFFFFFFFFF
310
FFFFFFFFFFFFFFFFFFFFFFFFFFFFFFFFFFFFFFFFFFFFFFFFFFFFFFFFFFFFFFFF
310
FFFFFFFFFFFFFFFFFFFFFFFFFFFFFFFFFFFFFFFFFFFFFFFFFFFFFFFFFFFFFFFF
310
FFFFFFFFFFFFFFFFFFFFFFFFFFFFFFFFF000FFFFFFFFFFFFFFFFFFFFFFFFFFFF
310
FFFFFFFFFFFFFFFFFFFFFFFFFFFFFFFFFFFFFFFFFFFFFFFFFFFFFFFFFFFFFFFF
310
FFFFFFFFFFFFFFFFFFFFFFFFFFFFFFFFFFFFFFFFFFFFFFFFFFFFFFFFFFFFFFFF
310
FFFFFFFFFFFFFFFFF000FFFFFFFFFFFFFFFFFFFFFFFFFFFFFFFFFFFFFFFFFFFF
310
FFFFFFFFFFFFFFFFFFFFFFFFFFFFFFFFFFFFFFFFFFFFFFFFFFFFFFFFFFFFFFFF
310
FFFFFFFFFFFFFFFFFFFFFFFFFFFFFFFFFFFFFFFFFFFFFFFFFFFFFFFFFFFFFFFF
310
F000FFFFFFFFFFFFFFFFFFFFFFFFFFFFFFFFFFFFFFFFFFFFFFFFFFFFFFFFFFFF
310
FFFFFFFFFFFFFFFFFFFFFFFFFFFFFFFFFFFFFFFFFFFFFFFFFFFFFFFFFFFFFFFF
310
FFFFFFFFFFFFFFFFFFFFFFFFFFFFFFFFFFFFFFFFFFFFFFFFF000FFFFFFFFFFFF
310
FFFFFFFFFFFFFFFFFFFFFFFFFFFFFFFFFFFFFFFFFFFFFFFFFFFFFFFFFFFFFFFF
310
FFFFFFFFFFFFFFFFFFFFFFFFFFFFFFFFFFFFFFFFFFFFFFFFFFFFFFFFFFFFFFFF
310
FFFFFFFFFFFFFFFFFFFFFFFFFFFFFFFFF000FFFFFFFFFFFFFFFFFFFFFFFFFFFF
310
FFFFFFFFFFFFFFFFFFFFFFFFFFFFFFFFFFFFFFFFFFFFFFFFFFFFFFFFFFFFFFFF
310
FFFFFFFFFFFFFFFFFFFFFFFFFFFFFFFFFFFFFFFFFFFFFFFFFFFFFFFFFFFFFFFF
310
FFFFFFFFFFFFFFFFF000FFFFFFFFFFFFFFFFFFFFFFFFFFFFFFFFFFFFFFFFFFFF
310
FFFFFFFFFFFFFFFFFFFFFFFFFFFFFFFFFFFFFFFFFFFFFFFFFFFFFFFFFFFFFFFF
310
FFFFFFFFFFFFFFFFFFFFFFFFFFFFFFFFFFFFFFFFFFFFFFFFFFFFFFFFFFFFFFFF
310
F000FFFFFFFFFFFFFFFFFFFFFFFFFFFFFFFFFFFFFFFFFFFFFFFFFFFFFFFFFFFF
310
FFFFFFFFFFFFFFFFFFFFFFFFFFFFFFFFFFFFFFFFFFFFFFFFFFFFFFFFFFFFFFFF
310
FFFFFFFFFFFFFFFFFFFFFFFFFFFFFFFFFFFFFFFFFFFFFFFFF000FFFFFFFFFFFF
310
FFFFFFFFFFFFFFFFFFFFFFFFFFFFFFFFFFFFFFFFFFFFFFFFFFFFFFFFFFFFFFFF
310
FFFFFFFFFFFFFFFFFFFFFFFFFFFFFFFFFFFFFFFFFFFFFFFFFFFFFFFFFFFFFFFF
310
FFFFFFFFFFFFFFFFFFFFFFFFFFFFFFFFF000FFFFFFFFFFFFFFFFFFFFFFFFFFFF
310
FFFFFFFFFFFFFFFFFFFFFFFFFFFFFFFFFFFFFFFFFFFFFFFFFFFFFFFFFFFFFFFF
310
FFFFFFFFFFFFFFFFFFFFFFFFFFFFFFFFFFFFFFFFFFFFFFFFFFFFFFFFFFFFFFFF
310
FFFFFFFFFFFFFFFFF000FFFFF80003FFFFFFFFFFFFFFFFFFFFFFFFFFFFFFFFFF
310
FFFFF00007FFFFFFFFFF00007FFFFFF800000000000000007FFFFFFFFFFFFFFF
310
FFFFFFFC001FFFFFFFFFFFFFFC001FFFFFFFFFFFFFFFFFFFFFFFFFFE0007FFFF
310
F000FFFF8000007FFFFFFFF8000FFFFFC0007FFFFF80007FFFFF0000007FFFFF
310
FFF8000007FFFFF800000000000000007FFFFFF0001FFFFFFFFFFFC00001FFFF
310
FFFFFFFFC00001FFFFFFFF000000000003FFFFE000007FFFF000FFFE0000000F
310
FFFFFFF0000FFFFF80007FFFFF80007FFFFC0000001FFFFFFFC0000001FFFFF8
310
00000000000000007FFFFFF0001FFFFFFFFFFE0000003FFFFFFFFFFE0000003F
310
FFFFFF000000000003FFFF0000000FFFF000FFF800000003FFFFFFF00007FFFF
310
80007FFFFF80007FFFF000000007FFFFFF000000003FFFF80000000000000000
310
7FFFFFF0001FFFFFFFFFF80000000FFFFFFFFFF80000000FFFFFFF0000000000
310
03FFFC00000003FFF000FFE000000000FFFFFFF00007FFFF80003FFFFF80007F
310
FFC000000001FFFFFC000000001FFFF800000000000000007FFFFFF0001FFFFF
310
FFFFE000000003FFFFFFFFE000000003FFFFFF000000000003FFF000000000FF
310
F000FF80000000007FFFFFF00007FFFF80003FFFFF80007FFF8000000000FFFF
310
F80000000007FFF800000000000000007FFFFFF0001FFFFFFFFFC000000001FF
310
FFFFFFC000000001FFFFFF000000000003FFC0000000007FF000FF0000000000
310
3FFFFFE00007FFFF00003FFFFF80007FFE00000000003FFFF00000000003FFF8
310
00000000000000007FFFFFF0001FFFFFFFFF8000000000FFFFFFFF8000000000
310
FFFFFF000000000003FF80000000003FF000FE00000000001FFFFFE00003FFFF
310
00003FFFFF80007FFC00000000001FFFE00000000001FFF8000001FFFE000000
310
7FFFFFF0001FFFFFFFFE00000000003FFFFFFE00000000003FFFFF0000000000
310
03FF00000000001FF000FC00000000000FFFFFE00003FFFF00001FFFFF80007F
310
F800000000001FFFC00000000000FFF8000001FFFE0000007FFFFFF0001FFFFF
310
FFFC00000000001FFFFFFC00000000001FFFFF000000000003FE00000000000F
310
F000F8000000000007FFFFE00003FFFF00001FFFFF80007FF800000000000FFF
310
800000000000FFF8000001FFFE0000007FFFFFF0001FFFFFFFF800000000000F
310
FFFFF800000000000FFFFF000000000003FC000000000007F000F80000000000
310
03FFFFC00003FFFE00001FFFFF80007FF0000000000007FF0000000000007FF8
310
000001FFFE0000007FFFFFF0001FFFFFFFF0000000000007FFFFF00000000000
310
07FFFF000000000003F8000000000003F000F0000000000003FFFFC00001FFFE
310
00001FFFFF80007FE0000000000007FE0000000000003FF8000001FFFE000000
310
7FFFFFF0001FFFFFFFF0000000000007FFFFF0000000000007FFFF0000000000
310
03F800001F800003F000E00001FFF00001FFFFC00001FFFE00000FFFFF80007F
310
E00001FFE00003FE00001FFF00003FF8000001FFFE0000007FFFFFF0001FFFFF
310
FFE000003E000003FFFFE000003E000003FFFF000000000003F00001FFF80001
310
F000E00007FFFC0001FFFFC00001FFFE00000FFFFF80007FC0000FFFFC0003FC
310
0000FFFFC0001FF8000001FFFE0000007FFFFFF0001FFFFFFFC00003FFE00001
310
FFFFC00003FFE00001FFFF0001FFFFFFFFF00007FFFE0001F000E0000FFFFF00
310
00FFFF800001FFFC00000FFFFF80007FC0001FFFFE0001FC0001FFFFE0001FF8
310
000001FFFE0000007FFFFFF0001FFFFFFF80000FFFF80000FFFF80000FFFF800
310
00FFFF0003FFFFFFFFE0000FFFFF8000F000C0003FFFFF8000FFFF800000FFFC
310
000007FFFF80007F80003FFFFF0001FC0003FFFFF0001FF8000001FFFE000000
310
7FFFFFF0001FFFFFFF80003FFFFE0000FFFF80003FFFFE0000FFFF0003FFFFFF
310
FFE0003FFFFF8000F000C0003FFFFF8000FFFF800000FFFC000007FFFF80007F
310
80007FFFFF8001F80007FFFFF8000FF8000001FFFE0000007FFFFFF0001FFFFF
310
FF00007FFFFF00007FFF00007FFFFF00007FFF0003FFFFFFFFE0003FFFFFC000
310
F000C0007FFFFFC000FFFF000000FFFC000007FFFF80007F8000FFFFFF8000F8
310
000FFFFFF8000FF8000001FFFE0000007FFFFFF0001FFFFFFF0000FFFFFF8000
310
7FFF0000FFFFFF80007FFF0003FFFFFFFFC0007FFFFFC00070008000FFFFFFC0
310
00FFFF000000FFF8000007FFFF80007F8000FFFFFF8000F8000FFFFFF8000FF8
310
000001FFFE0000007FFFFFF0001FFFFFFE0001FFFFFFC0003FFE0001FFFFFFC0
310
003FFF0003FFFFFFFFC0007FFFFFE00070008000FFFFFFC0007FFF0000007FF8
310
000003FFFF80007F0001FFFFFF8000F8000FFFFFF8000FF8000001FFFE000000
310
7FFFFFF0001FFFFFFE0001FFFFFFC0003FFE0001FFFFFFC0003FFF0003FFFFFF
310
FFC000FFFFFFE00070008000FFFFFFC0007FFF0000007FF8000003FFFF80007F
310
0001FFFFFF8000F8001FFFFFF8000FF8000001FFFE0000007FFFFFF0001FFFFF
310
FE0003FFFFFFE0003FFE0003FFFFFFE0003FFF0003FFFFFFFFC000FFFFFFE000
310
70008000FFFFFFC0007FFE0000007FF8000003FFFF80007F0001FFFFFF8000F0
310
001FFFFFF8000FF8000001FFFE0000007FFFFFF0001FFFFFFC0003FFFFFFE000
310
1FFC0003FFFFFFE0001FFF0003FFFFFFFFC000FFFFFFC00070008000FFFFFF80
310
007FFE0000007FF0000003FFFF80007F0001FFFFFF0000F0001FFFFFF8000FF8
310
000001FFFE0000007FFFFFF0001FFFFFFC0007FFFFFFF0001FFC0007FFFFFFF0
310
001FFF0003FFFFFFFFC000FFFFFFC00070008001FFFFFF0000FFFE0000003FF0
310
000001FFFF80007F0001FFFFFF0000F8001FFFFFF0000FF8000001FFFE000000
310
7FFFFFF0001FFFFFFC0007FFFFFFF0001FFC0007FFFFFFF0001FFF0003FFFFFF
310
FFC001FFFFFF80007000FFFFFFFFFE0000FFFE0008003FF0008001FFFF80007F
310
FFFFFFFFFC0000FFFFFFFFFFE0000FF8000001FFFE0000007FFFFFF0001FFFFF
310
F8000FFFFFFFF8000FF8000FFFFFFFF8000FFF0003FFFFFFFFFFFFFFFFFF0000
310
7000FFFFFFFFFC0000FFFC0008003FF0008001FFFF80007FFFFFFFFFF80001FF
310
FFFFFFFF80000FF8000001FFFE0000007FFFFFF0001FFFFFF8000FFFFFFFF800
310
0FF8000FFFFFFFF8000FFF0003FFFFFFFFFFFFFFFFFE0000F000FFFFFFFFE000
310
00FFFC000C003FE000C001FFFF80007FFFFFFFFFC00001FFFFFFFFFE00001FF8
310
000001FFFE0000007FFFFFF0001FFFFFF8000FFFFFFFF8000FF8000FFFFFFFF8
310
000FFF0003FFFFFFFFFFFFFFFFF00000F000FFFFFFFE000001FFFC000C001FE0
310
00C000FFFF80007FFFFFFFFE000001FFFFFFFFE000001FF80FFFFFFFFFFFFFC0
310
7FFFFFF0001FFFFFF8000FFFFFFFF8000FF8000FFFFFFFF8000FFF0003FFFFFF
310
FFFFFFFFFF800000F000FFFFFFC0000001FFFC001C001FE001C000FFFF80007F
310
FFFFFF80000003FFFFFFF80000001FF80FFFFFFFFFFFFFC07FFFFFF0001FFFFF
310
F8001FFFFFFFFC000FF8001FFFFFFFFC000FFF0003FFFFFFFFFFFFFFF0000001
310
F000FFFFF800000001FFF8001C001FE001C000FFFF80007FFFFFF800000003FF
310
FFFF800000003FF80FFFFFFFFFFFFFC07FFFFFF0001FFFFFF8001FFFFFFFFC00
310
0FF8001FFFFFFFFC000FFF0003FFFFFFFFFFFFFE00000001F000FFFFC0000000
310
03FFF8001E001FC001E000FFFF80007FFFFF8000000007FFFFFC000000003FF8
310
0FFFFFFFFFFFFFC07FFFFFF0001FFFFFF8001FFFFFFFFC000FF8001FFFFFFFFC
310
000FFF0003FFFFFFFFFFFFE000000003F000FFFE0000000007FFF8001E000FC0
310
01E0007FFF80007FFFFE0000000007FFFFE0000000007FF80FFFFFFFFFFFFFC0
310
7FFFFFF0001FFFFFF0001FFFFFFFFC0007F0001FFFFFFFFC0007FF0003FFFFFF
310
FFFFFF0000000003F000FFF80000000007FFF8001E000FC003E0007FFF80007F
310
FFF0000000000FFFFF8000000000FFF80FFFFFFFFFFFFFC07FFFFFF0001FFFFF
310
F0001FFFFFFFFC0007F0001FFFFFFFFC0007FF0003FFFFFFFFFFFC0000000007
310
F000FFE0000000000FFFF0003E000FC003E0007FFF80007FFFC0000000001FFF
310
FE0000000001FFF80FFFFFFFFFFFFFC07FFFFFF0001FFFFFF0001FFFFFFFFC00
310
07F0001FFFFFFFFC0007FF0003FFFFFFFFFFF0000000000FF000FFC000000000
310
1FFFF0003F000F8003F0003FFF80007FFF80000000003FFFF80000000003FFF8
310
0FFFFFFFFFFFFFC07FFFFFF0001FFFFFF0001FFFFFFFFC0007F0001FFFFFFFFC
310
0007FF0003FFFFFFFFFFE0000000001FF000FF00000000007FFFF0003F000780
310
03F0003FFF80007FFF00000000007FFFF00000000007FFF80FFFFFFFFFFFFFC0
310
7FFFFFF0001FFFFFF0001FFFFFFFFC0007F0001FFFFFFFFC0007FF0003FFFFFF
310
FFFF80000000007FF000FE0000000000FFFFE0003F00078007F0003FFF80007F
310
FE0000000001FFFFE0000000001FFFF80FFFFFFFFFFFFFC07FFFFFF0001FFFFF
310
F0001FFFFFFFFC0007F0001FFFFFFFFC0007FF0003FFFFFFFFFF0000000000FF
310
F000FC0000000003FFFFE0007F00078007F0003FFF80007FFC0000000007FFFF
310
C0000000007FFFF80FFFFFFFFFFFFFC07FFFFFF0001FFFFFF8001FFFFFFFFC00
310
0FF8001FFFFFFFFC000FFF0003FFFFFFFFFE0000000003FFF000FC000000000F
310
FFFFE0007F80070007F8001FFF80007FF8000000001FFFFF8000000001FFFFF8
310
0FFFFFFFFFFFFFC07FFFFFF0001FFFFFF8001FFFFFFFFC000FF8001FFFFFFFFC
310
000FFF0003FFFFFFFFFC000000000FFFF000F8000000007FFFFFE0007F800700
310
07F8001FFF80007FF000000000FFFFFF800000000FFFFFF80FFFFFFFFFFFFFC0
310
7FFFFFF0001FFFFFF8000FFFFFFFF8000FF8000FFFFFFFF8000FFF0003FFFFFF
310
FFFC000000007FFFF000F800000007FFFFFFC0007F8003000FF8001FFF80007F
310
F000000007FFFFFF000000007FFFFFF80FFFFFFFFFFFFFC07FFFFFF0001FFFFF
310
F8000FFFFFFFF8000FF8000FFFFFFFF8000FFF0003FFFFFFFFF80000000FFFFF
310
F000F0000000FFFFFFFFC000FF8003000FF8001FFF80007FE0000000FFFFFFFF
310
0000000FFFFFFFF8000001FFFE0000007FFFFFF0001FFFFFF8000FFFFFFFF800
310
0FF8000FFFFFFFF8000FFF0003FFFFFFFFF8000000FFFFFFF000F000000FFFFF
310
FFFFC000FFC002000FF8000FFF80007FE000001FFFFFFFFE000001FFFFFFFFF8
310
000001FFFE0000007FFFFFF0001FFFFFF8000FFFFFFFF8000FF8000FFFFFFFF8
310
000FFF0003FFFFFFFFF000001FFFFFFFF000E00000FFFFFFFFFFC000FFC00200
310
0FFC000FFF80007FE00001FFFFFFFFFE00001FFFFFFFFFF8000001FFFE000000
310
7FFFFFF0001FFFFFFC000FFFFFFFF8001FFC000FFFFFFFF8001FFF0003FFFFFF
310
FFF00001FFFFFFFFF000E00007FFFFFFFFFF8000FFC000001FFC000FFF80007F
310
C0000FFFFFFFFFFE0000FFFFFFFFFFF8000001FFFE0000007FFFFFF0001FFFFF
310
FC0007FFFFFFF0001FFC0007FFFFFFF0001FFF0003FFFFFFFFF00007FFFFFFFF
310
F000E0001FFFFFFFFFFF8000FFC000001FFC000FFF80007FC0003FFFFFFFFFFE
310
0001FFFFFFFFFFF8000001FFFE0000007FFFFFF0001FFFFFFC0007FFFFFFF000
310
1FFC0007FFFFFFF0001FFF0003FFFFFFFFF0001FFFFFFFFFF000E0003FFFFF00
310
03FF8001FFE000001FFC0007FF80007FC0007FFFFF0007FC0003FFFFF0003FF8
310
000001FFFE0000007FFFFFF0001FFFFFFC0003FFFFFFE0001FFC0003FFFFFFE0
310
001FFF0003FFFFFFFFF0003FFFFFFFFFF000E0003FFFFF0001FF8001FFE00000
310
1FFE0007FF80007FC0007FFFFE0003FC0007FFFFE0003FF8000001FFFE000000
310
7FFFFFF0001FFFFFFE0003FFFFFFE0003FFE0003FFFFFFE0003FFF0003FFFFFF
310
FFF0003FFFFF8001F000E0003FFFFF0001FF0001FFE000001FFE0007FF80007F
310
C0007FFFFE0003FC0007FFFFE0003FF8000001FFFE0000007FFFFFF0001FFFFF
310
FE0001FFFFFFC0003FFE0001FFFFFFC0003FFF0003FFFFFFFFF0003FFFFF0001
310
F000E0003FFFFF0003FF0001FFE000003FFE0007FF80007FC0007FFFFE0003FC
310
0007FFFFE0003FF8000001FFFE0000007FFFFFF0001FFFFFFF0001FFFFFFC000
310
7FFF0001FFFFFFC0007FFF0003FFFFFFFFF0003FFFFF0001F000E0003FFFFE00
310
03FF0003FFF000003FFE0003FF80007FC0007FFFFC0003FE0007FFFFE0003FF8
310
000001FFFE0000007FFFFFF0001FFFFFFF0000FFFFFF80007FFF0000FFFFFF80
310
007FFF0003FFFFFFFFF0003FFFFF0001F000E0003FFFFE0003FF0003FFF00000
310
3FFF0003FF80007FC0007FFFFC0007FE0007FFFFC0003FF8000001FFFE000000
310
7FFFFFF0001FFFFFFF80007FFFFF0000FFFF80007FFFFF0000FFFF0003FFFFFF
310
FFF0003FFFFF0003F000E0003FFFFC0003FE0003FFF000003FFF0003FF80007F
310
E0003FFFF80007FE0003FFFFC0007FF8000001FFFE0000007FFFFFF0001FFFFF
310
FF80003FFFFE0000FFFF80003FFFFE0000FFFF0003FFFFFFFFF0001FFFFE0003
310
F000F0001FFFF80003FE0003FFF000007FFF0001FF80007FE0003FFFF00007FE
310
0001FFFF80007FF8000001FFFE0000007FFFFFF0001FFFFFFFC0000FFFF80001
310
FFFFC0000FFFF80001FFFF0003FFFFFFFFF0001FFFFC0003F000F0000FFFF000
310
07FE0007FFF800007FFF0001FF80007FE0001FFFE00007FF0000FFFE00007FF8
310
000001FFFE0000007FFFFFF0001FFFFFFFC00003FFE00001FFFFC00003FFE000
310
01FFFF0003FFFFFFFFF8000FFFF80003F000F00003FFC00007FC0007FFF80000
310
7FFF8001FF80007FF00007FF80000FFF00007FF80000FFF8000001FFFE000000
310
7F80000000000001FFE000003E000003FFFFE000003E000003FFFF0003FFFFFF
310
FFF80003FFE00007F000F800000000000FFC0007FFF800007FFF8001FF80007F
310
F000000000000FFF000000000000FFF8000001FFFE0000007F80000000000001
310
FFF0000000000007FFFFF0000000000007FFFF0003FFFFFFFFFC00007E000007
310
F000F800000000000FFC0007FFF80000FFFF8000FF80007FF800000000001FFF
310
800000000001FFF8000001FFFE0000007F80000000000001FFF800000000000F
310
FFFFF800000000000FFFFF0003FFFFFFFFFC00000000000FF000FC0000000000
310
1FFC0007FFFC0000FFFF8000FF80007FF800000000003FFFC00000000001FFF8
310
000001FFFE0000007F80000000000001FFF800000000000FFFFFF80000000000
310
0FFFFF0003FFFFFFFFFE00000000001FF000FE00000000003FF8000FFFFC0000
310
FFFF8000FF80007FFC00000000003FFFC00000000003FFF8000001FFFE000000
310
7F80000000000001FFFC00000000001FFFFFFC00000000001FFFFF0003FFFFFF
310
FFFF00000000001FF000FF00000000003FF8000FFFFC0000FFFFC000FF80007F
310
FE00000000007FFFE00000000007FFF8000001FFFE0000007F80000000000001
310
FFFE00000000003FFFFFFE00000000003FFFFF0003FFFFFFFFFF80000000003F
310
F000FF80000000007FF8000FFFFC0001FFFFC0007F80007FFF0000000000FFFF
310
F0000000000FFFF800000000000000007F80000000000001FFFF8000000000FF
310
FFFFFF8000000000FFFFFF0003FFFFFFFFFFC0000000007FF000FFC000000000
310
FFF8000FFFFE0001FFFFC0007F80007FFF8000000001FFFFF8000000001FFFF8
310
00000000000000007F80000000000001FFFFC000000001FFFFFFFFC000000001
310
FFFFFF0003FFFFFFFFFFE000000000FFF000FFE000000003FFF0001FFFFE0001
310
FFFFC0007F80007FFFC000000007FFFFFE000000003FFFF80000000000000000
310
7F80000000000001FFFFE000000003FFFFFFFFE000000003FFFFFF0003FFFFFF
310
FFFFF000000003FFF000FFF80000000FFFF0001FFFFE0001FFFFE0007F80007F
310
FFF00000000FFFFFFF00000000FFFFF800000000000000007F80000000000001
310
FFFFF80000000FFFFFFFFFF80000000FFFFFFF0003FFFFFFFFFFFC0000000FFF
310
F000FFFE0000003FFFF0001FFFFE0003FFFFE0003F80007FFFFC0000003FFFFF
310
FFC0000003FFFFF800000000000000007F80000000000001FFFFFE0000003FFF
310
FFFFFFFE0000003FFFFFFF0003FFFFFFFFFFFF0000003FFFF000FFFF800000FF
310
FFF0001FFFFF0003FFFFE0003F80007FFFFF000001FFFFFFFFF800001FFFFFF8
310
00000000000000007F80000000000001FFFFFFC00001FFFFFFFFFFFFC00001FF
310
FFFFFF0003FFFFFFFFFFFFC00000FFFFF000FFFFF8000FFFFFFFFFFFFFFFFFFF
310
FFFFFFFFFFFFFFFFFFFFF0001FFFFFFFFFFF0000FFFFFFF80000000000000000
310
7FFFFFFFFFFFFFFFFFFFFFFC001FFFFFFFFFFFFFFC001FFFFFFFFFFFFFFFFFFF
310
FFFFFFFC001FFFFFF000FFFFFFFFFFFFFFFFFFFFFFFFFFFFFFFFFFFFFFFFFFFF
310
FFFFFFFFFFFFFFFFFFFFFFFFFFFFFFFFFFFFFFFFFFFFFFFFFFFFFFFFFFFFFFFF
310
FFFFFFFFFFFFFFFFFFFFFFFFFFFFFFFFFFFFFFFFFFFFFFFFFFFFFFFFFFFFFFFF
310
F000FFFFFFFFFFFFFFFFFFFFFFFFFFFFFFFFFFFFFFFFFFFFFFFFFFFFFFFFFFFF
310
FFFFFFFFFFFFFFFFFFFFFFFFFFFFFFFFFFFFFFFFFFFFFFFFFFFFFFFFFFFFFFFF
310
FFFFFFFFFFFFFFFFFFFFFFFFFFFFFFFFFFFFFFFFFFFFFFFFF000FFFFFFFFFFFF
310
FFFFFFFFFFFFFFFFFFFFFFFFFFFFFFFFFFFFFFFFFFFFFFFFFFFFFFFFFFFFFFFF
310
FFFFFFFFFFFFFFFFFFFFFFFFFFFFFFFFFFFFFFFFFFFFFFFFFFFFFFFFFFFFFFFF
310
FFFFFFFFFFFFFFFFFFFFFFFFFFFFFFFFF000FFFFFFFFFFFFFFFFFFFFFFFFFFFF
310
FFFFFFFFFFFFFFFFFFFFFFFFFFFFFFFFFFFFFFFFFFFFFFFFFFFFFFFFFFFFFFFF
310
FFFFFFFFFFFFFFFFFFFFFFFFFFFFFFFFFFFFFFFFFFFFFFFFFFFFFFFFFFFFFFFF
310
FFFFFFFFFFFFFFFFF000FFFFFFFFFFFFFFFFFFFFFFFFFFFFFFFFFFFFFFFFFFFF
310
FFFFFFFFFFFFFFFFFFFFFFFFFFFFFFFFFFFFFFFFFFFFFFFFFFFFFFFFFFFFFFFF
310
FFFFFFFFFFFFFFFFFFFFFFFFFFFFFFFFFFFFFFFFFFFFFFFFFFFFFFFFFFFFFFFF
310
F000FFFFFFFFFFFFFFFFFFFFFFFFFFFFFFFFFFFFFFFFFFFFFFFFFFFFFFFFFFFF
310
FFFFFFFFFFFFFFFFFFFFFFFFFFFFFFFFFFFFFFFFFFFFFFFFFFFFFFFFFFFFFFFF
310
FFFFFFFFFFFFFFFFFFFFFFFFFFFFFFFFFFFFFFFFFFFFFFFFF000FFFFFFFFFFFF
310
FFFFFFFFFFFFFFFFFFFFFFFFFFFFFFFFFFFFFFFFFFFFFFFFFFFFFFFFFFFFFFFF
310
FFFFFFFFFFFFFFFFFFFFFFFFFFFFFFFFFFFFFFFFFFFFFFFFFFFFFFFFFFFFFFFF
310
FFFFFFFFFFFFFFFFFFFFFFFFFFFFFFFFF000FFFFFFFFFFFFFFFFFFFFFFFFFFFF
310
FFFFFFFFFFFFFFFFFFFFFFFFFFFFFFFFFFFFFFFFFFFFFFFFFFFFFFFFFFFFFFFF
310
FFFFFFFFFFFFFFFFFFFFFFFFFFFFFFFFFFFFFFFFFFFFFFFFFFFFFFFFFFFFFFFF
310
FFFFFFFFFFFFFFFFF000FFFFFFFFFFFFFFFFFFFFFFFFFFFFFFFFFFFFFFFFFFFF
310
FFFFFFFFFFFFFFFFFFFFFFFFFFFFFFFFFFFFFFFFFFFFFFFFFFFFFFFFFFFFFFFF
310
FFFFFFFFFFFFFFFFFFFFFFFFFFFFFFFFFFFFFFFFFFFFFFFFFFFFFFFFFFFFFFFF
310
F000FFFFFFFFFFFFFFFFFFFFFFFFFFFFFFFFFFFFFFFFFFFFFFFFFFFFFFFFFFFF
310
FFFFFFFFFFFFFFFFFFFFFFFFFFFFFFFFFFFFFFFFFFFFFFFFFFFFFFFFFFFFFFFF
310
FFFFFFFFFFFFFFFFFFFFFFFFFFFFFFFFFFFFFFFFFFFFFFFFF000FFFFFFFFFFFF
310
FFFFFFFFFFFFFFFFFFFFFFFFFFFFFFFFFFFFFFFFFFFFFFFFFFFFFFFFFFFFFFFF
310
FFFFFFFFFFFFFFFFFFFFFFFFFFFFFFFFFFFFFFFFFFFFFFFFFFFFFFFFFFFFFFFF
310
FFFFFFFFFFFFFFFFFFFFFFFFFFFFFFFFF000FFFFFFFFFFFFFFFFFFFFFFFFFFFF
310
FFFFFFFFFFFFFFFFFFFFFFFFFFFFFFFFFFFFFFFFFFFFFFFFFFFFFFFFFFFFFFFF
310
FFFFFFFFFFFFFFFFFFFFFFFFFFFFFFFFFFFFFFFFFFFFFFFFFFFFFFFFFFFFFFFF
310
FFFFFFFFFFFFFFFFF000FFFFFFFFFFFFFFFFFFFFFFFFFFFFFFFFFFFFFFFFFFFF
310
FFFFFFFFFFFFFFFFFFFFFFFFFFFFFFFFFFFFFFFFFFFFFFFFFFFFFFFFFFFFFFFF
310
FFFFFFFFFFFFFFFFFFFFFFFFFFFFFFFFFFFFFFFFFFFFFFFFFFFFFFFFFFFFFFFF
310
F000FFFFFFFFFFFFFFFFFFFFFFFFFFFFFFFFFFFFFFFFFFFFFFFFFFFFFFFFFFFF
310
FFFFFFFFFFFFFFFFFFFFFFFFFFFFFFFFFFFFFFFFFFFFFFFFFFFFFFFFFFFFFFFF
310
FFFFFFFFFFFFFFFFFFFFFFFFFFFFFFFFFFFFFFFFFFFFFFFFF000FFFFFFFFFFFF
310
FFFFFFFFFFFFFFFFFFFFFFFFFFFFFFFFFFFFFFFFFFFFFFFFFFFFFFFFFFFFFFFF
310
FFFFFFFFFFFFFFFFFFFFFFFFFFFFFFFFFFFFFFFFFFFFFFFFFFFFFFFFFFFFFFFF
310
FFFFFFFFFFFFFFFFFFFFFFFFFFFFFFFFF000FFFFFFFFFFFFFFFFFFFFFFFFFFFF
310
FFFFFFFFFFFFFFFFFFFFFFFFFFFFFFFFFFFFFFFFFFFFFFFFFFFFFFFFFFFFFFFF
310
FFFFFFFFFFFFFFFFFFFFFFFFFFFFFFFFFFFFFFFFFFFFFFFFFFFFFFFFFFFFFFFF
310
FFFFFFFFFFFFFFFFF000FFFFFFFFFFFFFFFFFFFFFFFFFFFFFFFFFFFFFFFFFFFF
310
FFFFFFFFFFFFFFFFFFFFFFFFFFFFFFFFFFFFFFFFFFFFFFFFFFFFFFFFFFFFFFFF
310
FFFFFFFFFFFFFFFFFFFFFFFFFFFFFFFFFFFFFFFFFFFFFFFFFFFFFFFFFFFFFFFF
310
F000FFFFFFFFFFFFFFFFFFFFFFFFFFFFFFFFFFFFFFFFFFFFFFFFFFFFFFFFFFFF
310
FFFFFFFFFFFFFFFFFFFFFFFFFFFFFFFFFFFFFFFFFFFFFFFFFFFFFFFFFFFFFFFF
310
FFFFFFFFFFFFFFFFFFFFFFFFFFFFFFFFFFFFFFFFFFFFFFFFF000FFFFFFFFFFFF
310
FFFFFFFFFFFFFFFFFFFFFFFFFFFFFFFFFFFFFFFFFFFFFFFFFFFFFFFFFFFFFFFF
310
FFFFFFFFFFFFFFFFFFFFFFFFFFFFFFFFFFFFFFFFFFFFFFFFFFFFFFFFFFFFFFFF
310
FFFFFFFFFFFFFFFFFFFFFFFFFFFFFFFFF000FFFFFFFFFFFFFFFFFFFFFFFFFFFF
310
FFFFFFFFFFFFFFFFFFFFFFFFFFFFFFFFFFFFFFFFFFFFFFFFFFFFFFFFFFFFFFFF
310
FFFFFFFFFFFFFFFFFFFFFFFFFFFFFFFFFFFFFFFFFFFFFFFFFFFFFFFFFFFFFFFF
310
FFFFFFFFFFFFFFFFF000FFFFFFFFFFFFFFFFFFFFFFFFFFFFFFFFFFFFFFFFFFFF
310
FFFFFFFFFFFFFFFFFFFFFFFFFFFFFFFFFFFFFFFFFFFFFFFFFFFFFFFFFFFFFFFF
310
FFFFFFFFFFFFFFFFFFFFFFFFFFFFFFFFFFFFFFFFFFFFFFFFFFFFFFFFFFFFFFFF
310
F000FFFFFFFFFFFFFFFFFFFFFFFFFFFFFFFFFFFFFFFFFFFFFFFFFFFFFFFFFFFF
310
FFFFFFFFFFFFFFFFFFFFFFFFFFFFFFFFFFFFFFFFFFFFFFFFFFFFFFFFFFFFFFFF
310
FFFFFFFFFFFFFFFFFFFFFFFFFFFFFFFFFFFFFFFFFFFFFFFFF000FFFFFFFFFFFF
310
FFFFFFFFFFFFFFFFFFFFFFFFFFFFFFFFFFFFFFFFFFFFFFFFFFFFFFFFFFFFFFFF
310
FFFFFFFFFFFFFFFFFFFFFFFFFFFFFFFFFFFFFFFFFFFFFFFFFFFFFFFFFFFFFFFF
310
FFFFFFFFFFFFFFFFFFFFFFFFFFFFFFFFF0000000000000000000000000000000
310
0000000000000000000000000000000000000000000000000000000000000000
310
0000000000000000000000000000000000000000000000000000000000000000
310
0000000000000000000000000000000000000000000000000000000000000000
310
0000000000000000000000000000000000000000000000000000000000000000
310
0000000000000000000000000000000000000000000000000000000000000000
310
0000000000000000000000000000000000000000000000000000000000000000
310
0000000000000000000000000000000000000000000000000000000000000000
310
0000000000000000000000000000000000000000000000000000000000000000
310
0000000000000000000000000000000000000000000000000000000000000000
310
0000000000000000000000000000000000000000000000000000000000000000
310
0000000000000000000000000000000000000000000000000000000000000000
310
0000000000000000000000000000000000000000000000000000000000000000
310
0000000000000000000000000000000000000000000000000000000000000000
310
0000000000000000000000000000000000000000000000000000000000000000
310
0000000000000000000000000000000000000000000000000000000000000000
  1
OLE
  0
ENDSEC
  0
SECTION
  2
OBJECTS
  0
DICTIONARY
  5
C
330
0
100
AcDbDictionary
281
     1
  3
ACAD_GROUP
350
D
  3
ACAD_LAYOUT
350
1A
  3
ACAD_MLINESTYLE
350
17
  3
ACAD_PLOTSETTINGS
350
19
  3
ACAD_PLOTSTYLENAME
350
E
  3
ACAD_SCALELIST
350
47
  0
DICTIONARY
  5
D
102
{ACAD_REACTORS
330
C
102
}
330
C
100
AcDbDictionary
281
     1
  0
DICTIONARY
  5
1A
102
{ACAD_REACTORS
330
C
102
}
330
C
100
AcDbDictionary
281
     1
  3
Layout1
350
1E
  3
Layout2
350
26
  3
Model
350
22
  0
DICTIONARY
  5
17
102
{ACAD_REACTORS
330
C
102
}
330
C
100
AcDbDictionary
281
     1
  3
Standard
350
18
  0
DICTIONARY
  5
19
102
{ACAD_REACTORS
330
C
102
}
330
C
100
AcDbDictionary
281
     1
  0
ACDBDICTIONARYWDFLT
  5
E
102
{ACAD_REACTORS
330
C
102
}
330
C
100
AcDbDictionary
281
     1
  3
Normal
350
F
100
AcDbDictionaryWithDefault
340
F
  0
DICTIONARY
  5
47
102
{ACAD_REACTORS
330
C
102
}
330
C
100
AcDbDictionary
281
     1
  3
A0
350
48
  3
A1
350
49
  3
A2
350
4A
  3
A3
350
4B
  3
A4
350
4C
  3
A5
350
4D
  3
A6
350
4E
  3
A7
350
4F
  3
A8
350
50
  3
A9
350
51
  3
B0
350
52
  3
B1
350
53
  3
B2
350
54
  3
B3
350
55
  3
B4
350
56
  3
B5
350
57
  3
B6
350
58
  3
B7
350
59
  3
B8
350
5A
  3
B9
350
5B
  3
C0
350
5C
  3
C1
350
5D
  3
C2
350
5E
  3
C3
350
5F
  3
C4
350
60
  3
C5
350
61
  3
C6
350
62
  3
C7
350
63
  3
C8
350
64
  3
C9
350
65
  3
D0
350
66
  3
D1
350
67
  3
D2
350
68
  0
LAYOUT
  5
1E
102
{ACAD_REACTORS
330
1A
102
}
330
1A
100
AcDbPlotSettings
  1

  2
none_device
  4

  6

 40
0.0
 41
0.0
 42
0.0
 43
0.0
 44
0.0
 45
0.0
 46
0.0
 47
0.0
 48
0.0
 49
0.0
140
0.0
141
0.0
142
1.0
143
1.0
 70
   688
 72
     1
 73
     0
 74
     5
  7

 75
    16
147
1.0
148
0.0
149
0.0
100
AcDbLayout
  1
Layout1
 70
     1
 71
     1
 10
0.0
 20
0.0
 11
420.0
 21
297.0
 12
0.0
 22
0.0
 32
0.0
 14
1.0000000000E+20
 24
1.0000000000E+20
 34
1.0000000000E+20
 15
-1.0000000000E+20
 25
-1.0000000000E+20
 35
-1.0000000000E+20
146
0.0
 13
0.0
 23
0.0
 33
0.0
 16
1.0
 26
0.0
 36
0.0
 17
0.0
 27
1.0
 37
0.0
 76
     0
330
1B
  0
LAYOUT
  5
26
102
{ACAD_REACTORS
330
1A
102
}
330
1A
100
AcDbPlotSettings
  1

  2
none_device
  4

  6

 40
0.0
 41
0.0
 42
0.0
 43
0.0
 44
0.0
 45
0.0
 46
0.0
 47
0.0
 48
0.0
 49
0.0
140
0.0
141
0.0
142
1.0
143
1.0
 70
   688
 72
     1
 73
     0
 74
     5
  7

 75
    16
147
1.0
148
0.0
149
0.0
100
AcDbLayout
  1
Layout2
 70
     1
 71
     2
 10
0.0
 20
0.0
 11
0.0
 21
0.0
 12
0.0
 22
0.0
 32
0.0
 14
0.0
 24
0.0
 34
0.0
 15
0.0
 25
0.0
 35
0.0
146
0.0
 13
0.0
 23
0.0
 33
0.0
 16
1.0
 26
0.0
 36
0.0
 17
0.0
 27
1.0
 37
0.0
 76
     0
330
23
  0
LAYOUT
  5
22
102
{ACAD_REACTORS
330
1A
102
}
330
1A
100
AcDbPlotSettings
  1

  2
none_device
  4
Letter_(8.50_x_11.00_Inches)
  6

 40
6.35
 41
6.35
 42
6.35000508
 43
6.35000508
 44
215.9
 45
279.4
 46
0.0
 47
0.0
 48
0.0
 49
0.0
140
0.0
141
0.0
142
1.0
143
1.0
 70
  1712
 72
     1
 73
     0
 74
     0
  7

 75
     0
147
1.0
148
0.0
149
0.0
100
AcDbLayout
  1
Model
 70
     1
 71
     0
 10
0.0
 20
0.0
 11
297.0
 21
210.0
 12
0.0
 22
0.0
 32
0.0
 14
0.0
 24
0.0
 34
0.0
 15
297.0
 25
210.0
 35
0.0
146
0.0
 13
0.0
 23
0.0
 33
0.0
 16
1.0
 26
0.0
 36
0.0
 17
0.0
 27
1.0
 37
0.0
 76
     0
330
1F
331
29
  0
MLINESTYLE
  5
18
102
{ACAD_REACTORS
330
17
102
}
330
17
100
AcDbMlineStyle
  2
Standard
 70
     0
  3

 62
   256
 51
90.0
 52
90.0
 71
     2
 49
0.5
 62
   256
  6
BYLAYER
 49
-0.5
 62
   256
  6
BYLAYER
  0
ACDBPLACEHOLDER
  5
F
102
{ACAD_REACTORS
330
E
102
}
330
E
  0
SCALE
  5
48
102
{ACAD_REACTORS
330
47
102
}
330
47
100
AcDbScale
 70
     0
300
1:1
140
1.0
141
1.0
290
     1
  0
SCALE
  5
49
102
{ACAD_REACTORS
330
47
102
}
330
47
100
AcDbScale
 70
     0
300
1:2
140
1.0
141
2.0
290
     0
  0
SCALE
  5
4A
102
{ACAD_REACTORS
330
47
102
}
330
47
100
AcDbScale
 70
     0
300
1:4
140
1.0
141
4.0
290
     0
  0
SCALE
  5
4B
102
{ACAD_REACTORS
330
47
102
}
330
47
100
AcDbScale
 70
     0
300
1:5
140
1.0
141
5.0
290
     0
  0
SCALE
  5
4C
102
{ACAD_REACTORS
330
47
102
}
330
47
100
AcDbScale
 70
     0
300
1:8
140
1.0
141
8.0
290
     0
  0
SCALE
  5
4D
102
{ACAD_REACTORS
330
47
102
}
330
47
100
AcDbScale
 70
     0
300
1:10
140
1.0
141
10.0
290
     0
  0
SCALE
  5
4E
102
{ACAD_REACTORS
330
47
102
}
330
47
100
AcDbScale
 70
     0
300
1:16
140
1.0
141
16.0
290
     0
  0
SCALE
  5
4F
102
{ACAD_REACTORS
330
47
102
}
330
47
100
AcDbScale
 70
     0
300
1:20
140
1.0
141
20.0
290
     0
  0
SCALE
  5
50
102
{ACAD_REACTORS
330
47
102
}
330
47
100
AcDbScale
 70
     0
300
1:30
140
1.0
141
30.0
290
     0
  0
SCALE
  5
51
102
{ACAD_REACTORS
330
47
102
}
330
47
100
AcDbScale
 70
     0
300
1:40
140
1.0
141
40.0
290
     0
  0
SCALE
  5
52
102
{ACAD_REACTORS
330
47
102
}
330
47
100
AcDbScale
 70
     0
300
1:50
140
1.0
141
50.0
290
     0
  0
SCALE
  5
53
102
{ACAD_REACTORS
330
47
102
}
330
47
100
AcDbScale
 70
     0
300
1:100
140
1.0
141
100.0
290
     0
  0
SCALE
  5
54
102
{ACAD_REACTORS
330
47
102
}
330
47
100
AcDbScale
 70
     0
300
2:1
140
2.0
141
1.0
290
     0
  0
SCALE
  5
55
102
{ACAD_REACTORS
330
47
102
}
330
47
100
AcDbScale
 70
     0
300
4:1
140
4.0
141
1.0
290
     0
  0
SCALE
  5
56
102
{ACAD_REACTORS
330
47
102
}
330
47
100
AcDbScale
 70
     0
300
8:1
140
8.0
141
1.0
290
     0
  0
SCALE
  5
57
102
{ACAD_REACTORS
330
47
102
}
330
47
100
AcDbScale
 70
     0
300
10:1
140
10.0
141
1.0
290
     0
  0
SCALE
  5
58
102
{ACAD_REACTORS
330
47
102
}
330
47
100
AcDbScale
 70
     0
300
100:1
140
100.0
141
1.0
290
     0
  0
SCALE
  5
59
102
{ACAD_REACTORS
330
47
102
}
330
47
100
AcDbScale
 70
     0
300
1/128" = 1'-0"
140
0.0078125
141
12.0
290
     0
  0
SCALE
  5
5A
102
{ACAD_REACTORS
330
47
102
}
330
47
100
AcDbScale
 70
     0
300
1/64" = 1'-0"
140
0.015625
141
12.0
290
     0
  0
SCALE
  5
5B
102
{ACAD_REACTORS
330
47
102
}
330
47
100
AcDbScale
 70
     0
300
1/32" = 1'-0"
140
0.03125
141
12.0
290
     0
  0
SCALE
  5
5C
102
{ACAD_REACTORS
330
47
102
}
330
47
100
AcDbScale
 70
     0
300
1/16" = 1'-0"
140
0.0625
141
12.0
290
     0
  0
SCALE
  5
5D
102
{ACAD_REACTORS
330
47
102
}
330
47
100
AcDbScale
 70
     0
300
3/32" = 1'-0"
140
0.09375
141
12.0
290
     0
  0
SCALE
  5
5E
102
{ACAD_REACTORS
330
47
102
}
330
47
100
AcDbScale
 70
     0
300
1/8" = 1'-0"
140
0.125
141
12.0
290
     0
  0
SCALE
  5
5F
102
{ACAD_REACTORS
330
47
102
}
330
47
100
AcDbScale
 70
     0
300
3/16" = 1'-0"
140
0.1875
141
12.0
290
     0
  0
SCALE
  5
60
102
{ACAD_REACTORS
330
47
102
}
330
47
100
AcDbScale
 70
     0
300
1/4" = 1'-0"
140
0.25
141
12.0
290
     0
  0
SCALE
  5
61
102
{ACAD_REACTORS
330
47
102
}
330
47
100
AcDbScale
 70
     0
300
3/8" = 1'-0"
140
0.375
141
12.0
290
     0
  0
SCALE
  5
62
102
{ACAD_REACTORS
330
47
102
}
330
47
100
AcDbScale
 70
     0
300
1/2" = 1'-0"
140
0.5
141
12.0
290
     0
  0
SCALE
  5
63
102
{ACAD_REACTORS
330
47
102
}
330
47
100
AcDbScale
 70
     0
300
3/4" = 1'-0"
140
0.75
141
12.0
290
     0
  0
SCALE
  5
64
102
{ACAD_REACTORS
330
47
102
}
330
47
100
AcDbScale
 70
     0
300
1" = 1'-0"
140
1.0
141
12.0
290
     0
  0
SCALE
  5
65
102
{ACAD_REACTORS
330
47
102
}
330
47
100
AcDbScale
 70
     0
300
1-1/2" = 1'-0"
140
1.5
141
12.0
290
     0
  0
SCALE
  5
66
102
{ACAD_REACTORS
330
47
102
}
330
47
100
AcDbScale
 70
     0
300
3" = 1'-0"
140
3.0
141
12.0
290
     0
  0
SCALE
  5
67
102
{ACAD_REACTORS
330
47
102
}
330
47
100
AcDbScale
 70
     0
300
6" = 1'-0"
140
6.0
141
12.0
290
     0
  0
SCALE
  5
68
102
{ACAD_REACTORS
330
47
102
}
330
47
100
AcDbScale
 70
     0
300
1'-0" = 1'-0"
140
12.0
141
12.0
290
     0
  0
ENDSEC
  0
EOF
