  0
SECTION
  2
HEADER
  9
$ACADVER
  1
AC1015
  9
$ACADMAINTVER
 70
     6
  9
$DWGCODEPAGE
  3
ANSI_1252
  9
$INSBASE
 10
0.0
 20
0.0
 30
0.0
  9
$EXTMIN
 10
0.0
 20
0.0
 30
0.0
  9
$EXTMAX
 10
297.0
 20
210.0
 30
0.0
  9
$LIMMIN
 10
0.0
 20
0.0
  9
$LIMMAX
 10
297.0
 20
210.0
  9
$ORTHOMODE
 70
     0
  9
$REGENMODE
 70
     1
  9
$FILLMODE
 70
     1
  9
$QTEXTMODE
 70
     0
  9
$MIRRTEXT
 70
     1
  9
$LTSCALE
 40
1.0
  9
$ATTMODE
 70
     1
  9
$TEXTSIZE
 40
2.0
  9
$TRACEWID
 40
1.0
  9
$TEXTSTYLE
  7
Standard
  9
$CLAYER
  8
0
  9
$CELTYPE
  6
ByLayer
  9
$CECOLOR
 62
   256
  9
$CELTSCALE
 40
1.0
  9
$DISPSILH
 70
     0
  9
$DIMSCALE
 40
1.0
  9
$DIMASZ
 40
3.0
  9
$DIMEXO
 40
0.0
  9
$DIMDLI
 40
3.75
  9
$DIMRND
 40
0.0
  9
$DIMDLE
 40
0.0
  9
$DIMEXE
 40
1.0
  9
$DIMTP
 40
0.0
  9
$DIMTM
 40
0.0
  9
$DIMTXT
 40
2.0
  9
$DIMCEN
 40
2.5
  9
$DIMTSZ
 40
0.0
  9
$DIMTOL
 70
     0
  9
$DIMLIM
 70
     0
  9
$DIMTIH
 70
     1
  9
$DIMTOH
 70
     1
  9
$DIMSE1
 70
     0
  9
$DIMSE2
 70
     0
  9
$DIMTAD
 70
     1
  9
$DIMZIN
 70
     0
  9
$DIMBLK
  1

  9
$DIMASO
 70
     1
  9
$DIMSHO
 70
     1
  9
$DIMPOST
  1

  9
$DIMAPOST
  1

  9
$DIMALT
 70
     0
  9
$DIMALTD
 70
     3
  9
$DIMALTF
 40
0.0393700787
  9
$DIMLFAC
 40
1.0
  9
$DIMTOFL
 70
     1
  9
$DIMTVP
 40
0.0
  9
$DIMTIX
 70
     0
  9
$DIMSOXD
 70
     0
  9
$DIMSAH
 70
     0
  9
$DIMBLK1
  1

  9
$DIMBLK2
  1

  9
$DIMSTYLE
  2
ISO-25
  9
$DIMCLRD
 70
     0
  9
$DIMCLRE
 70
     0
  9
$DIMCLRT
 70
     0
  9
$DIMTFAC
 40
1.0
  9
$DIMGAP
 40
1.524
  9
$DIMJUST
 70
     0
  9
$DIMSD1
 70
     0
  9
$DIMSD2
 70
     0
  9
$DIMTOLJ
 70
     0
  9
$DIMTZIN
 70
     0
  9
$DIMALTZ
 70
     0
  9
$DIMALTTZ
 70
     0
  9
$DIMUPT
 70
     0
  9
$DIMDEC
 70
     2
  9
$DIMTDEC
 70
     3
  9
$DIMALTU
 70
     2
  9
$DIMALTTD
 70
     3
  9
$DIMTXSTY
  7
Standard
  9
$DIMAUNIT
 70
     0
  9
$DIMADEC
 70
     2
  9
$DIMALTRND
 40
0.0
  9
$DIMAZIN
 70
     0
  9
$DIMDSEP
 70
    44
  9
$DIMATFIT
 70
     3
  9
$DIMFRAC
 70
     0
  9
$DIMLDRBLK
  1

  9
$DIMLUNIT
 70
     2
  9
$DIMLWD
 70
    -2
  9
$DIMLWE
 70
    -2
  9
$DIMTMOVE
 70
     0
  9
$LUNITS
 70
     2
  9
$LUPREC
 70
     2
  9
$SKETCHINC
 40
1.0
  9
$FILLETRAD
 40
10.0
  9
$AUNITS
 70
     0
  9
$AUPREC
 70
     2
  9
$MENU
  1
.
  9
$ELEVATION
 40
0.0
  9
$PELEVATION
 40
0.0
  9
$THICKNESS
 40
0.0
  9
$LIMCHECK
 70
     0
  9
$CHAMFERA
 40
0.0
  9
$CHAMFERB
 40
0.0
  9
$CHAMFERC
 40
0.0
  9
$CHAMFERD
 40
0.0
  9
$SKPOLY
 70
     0
  9
$TDCREATE
 40
2457668.664012234
  9
$TDUCREATE
 40
2457668.5806789
  9
$TDUPDATE
 40
2457668.66401375
  9
$TDUUPDATE
 40
2457668.580680417
  9
$TDINDWG
 40
0.0000000116
  9
$TDUSRTIMER
 40
0.0000000116
  9
$USRTIMER
 70
     1
  9
$ANGBASE
 50
0.0
  9
$ANGDIR
 70
     0
  9
$PDMODE
 70
     0
  9
$PDSIZE
 40
-1.0
  9
$PLINEWID
 40
0.0
  9
$SPLFRAME
 70
     0
  9
$SPLINETYPE
 70
     6
  9
$SPLINESEGS
 70
     8
  9
$HANDSEED
  5
28B
  9
$SURFTAB1
 70
     6
  9
$SURFTAB2
 70
     6
  9
$SURFTYPE
 70
     6
  9
$SURFU
 70
     6
  9
$SURFV
 70
     6
  9
$UCSBASE
  2

  9
$UCSNAME
  2

  9
$UCSORG
 10
0.0
 20
0.0
 30
0.0
  9
$UCSXDIR
 10
1.0
 20
0.0
 30
0.0
  9
$UCSYDIR
 10
0.0
 20
1.0
 30
0.0
  9
$UCSORTHOREF
  2

  9
$UCSORTHOVIEW
 70
     0
  9
$UCSORGTOP
 10
0.0
 20
0.0
 30
0.0
  9
$UCSORGBOTTOM
 10
0.0
 20
0.0
 30
0.0
  9
$UCSORGLEFT
 10
0.0
 20
0.0
 30
0.0
  9
$UCSORGRIGHT
 10
0.0
 20
0.0
 30
0.0
  9
$UCSORGFRONT
 10
0.0
 20
0.0
 30
0.0
  9
$UCSORGBACK
 10
0.0
 20
0.0
 30
0.0
  9
$PUCSBASE
  2

  9
$PUCSNAME
  2

  9
$PUCSORG
 10
0.0
 20
0.0
 30
0.0
  9
$PUCSXDIR
 10
1.0
 20
0.0
 30
0.0
  9
$PUCSYDIR
 10
0.0
 20
1.0
 30
0.0
  9
$PUCSORTHOREF
  2

  9
$PUCSORTHOVIEW
 70
     0
  9
$PUCSORGTOP
 10
0.0
 20
0.0
 30
0.0
  9
$PUCSORGBOTTOM
 10
0.0
 20
0.0
 30
0.0
  9
$PUCSORGLEFT
 10
0.0
 20
0.0
 30
0.0
  9
$PUCSORGRIGHT
 10
0.0
 20
0.0
 30
0.0
  9
$PUCSORGFRONT
 10
0.0
 20
0.0
 30
0.0
  9
$PUCSORGBACK
 10
0.0
 20
0.0
 30
0.0
  9
$USERI1
 70
     0
  9
$USERI2
 70
     0
  9
$USERI3
 70
     0
  9
$USERI4
 70
     0
  9
$USERI5
 70
     0
  9
$USERR1
 40
0.0
  9
$USERR2
 40
0.0
  9
$USERR3
 40
0.0
  9
$USERR4
 40
0.0
  9
$USERR5
 40
0.0
  9
$WORLDVIEW
 70
     1
  9
$SHADEDGE
 70
     3
  9
$SHADEDIF
 70
    70
  9
$TILEMODE
 70
     1
  9
$MAXACTVP
 70
    64
  9
$PINSBASE
 10
0.0
 20
0.0
 30
0.0
  9
$PLIMCHECK
 70
     0
  9
$PEXTMIN
 10
1.0000000000E+20
 20
1.0000000000E+20
 30
1.0000000000E+20
  9
$PEXTMAX
 10
-1.0000000000E+20
 20
-1.0000000000E+20
 30
-1.0000000000E+20
  9
$PLIMMIN
 10
0.0
 20
0.0
  9
$PLIMMAX
 10
420.0
 20
297.0
  9
$UNITMODE
 70
     0
  9
$VISRETAIN
 70
     1
  9
$PLINEGEN
 70
     0
  9
$PSLTSCALE
 70
     1
  9
$TREEDEPTH
 70
  3020
  9
$CMLSTYLE
  2
Standard
  9
$CMLJUST
 70
     0
  9
$CMLSCALE
 40
20.0
  9
$PROXYGRAPHICS
 70
     1
  9
$MEASUREMENT
 70
     1
  9
$CELWEIGHT
370
    -1
  9
$ENDCAPS
280
     0
  9
$JOINSTYLE
280
     0
  9
$LWDISPLAY
290
     1
  9
$INSUNITS
 70
     4
  9
$HYPERLINKBASE
  1

  9
$STYLESHEET
  1

  9
$XEDIT
290
     1
  9
$CEPSNTYPE
380
     0
  9
$PSTYLEMODE
290
     1
  9
$FINGERPRINTGUID
  2
{F98019DD-B496-4352-AAEC-EFF5F1EF8EFF}
  9
$VERSIONGUID
  2
{FAEB1C32-E019-11D5-929B-00C0DF256EC4}
  9
$EXTNAMES
290
     1
  9
$PSVPSCALE
 40
0.0
  9
$OLESTARTUP
290
     0
  0
ENDSEC
  0
SECTION
  2
CLASSES
  0
CLASS
  1
ACDBDICTIONARYWDFLT
  2
AcDbDictionaryWithDefault
  3
ObjectDBX Classes
 90
        0
280
     0
281
     0
  0
CLASS
  1
VISUALSTYLE
  2
AcDbVisualStyle
  3
ObjectDBX Classes
 90
     4095
280
     0
281
     0
  0
CLASS
  1
MATERIAL
  2
AcDbMaterial
  3
ObjectDBX Classes
 90
     1153
280
     0
281
     0
  0
CLASS
  1
SCALE
  2
AcDbScale
  3
ObjectDBX Classes
 90
     1153
280
     0
281
     0
  0
CLASS
  1
TABLESTYLE
  2
AcDbTableStyle
  3
ObjectDBX Classes
 90
     4095
280
     0
281
     0
  0
CLASS
  1
MLEADERSTYLE
  2
AcDbMLeaderStyle
  3
ACDB_MLEADERSTYLE_CLASS
 90
     4095
280
     0
281
     0
  0
CLASS
  1
SUN
  2
AcDbSun
  3
SCENEOE
 90
     1153
280
     0
281
     0
  0
CLASS
  1
ACDBPLACEHOLDER
  2
AcDbPlaceHolder
  3
ObjectDBX Classes
 90
        0
280
     0
281
     0
  0
CLASS
  1
LAYOUT
  2
AcDbLayout
  3
ObjectDBX Classes
 90
        0
280
     0
281
     0
  0
ENDSEC
  0
SECTION
  2
TABLES
  0
TABLE
  2
VPORT
  5
8
330
0
100
AcDbSymbolTable
 70
     1
  0
VPORT
  5
29
330
8
100
AcDbSymbolTableRecord
100
AcDbViewportTableRecord
  2
*Active
 70
     0
 10
0.0
 20
0.0
 11
1.0
 21
1.0
 12
148.5
 22
105.0
 13
0.0
 23
0.0
 14
10.0
 24
10.0
 15
10.0
 25
10.0
 16
0.0
 26
0.0
 36
1.0
 17
0.0
 27
0.0
 37
0.0
 40
210.0
 41
1.4142857143
 42
50.0
 43
0.0
 44
0.0
 50
0.0
 51
0.0
 71
     0
 72
  2000
 73
     1
 74
     3
 75
     0
 76
     0
 77
     0
 78
     0
281
     0
 65
     1
110
0.0
120
0.0
130
0.0
111
1.0
121
0.0
131
0.0
112
0.0
122
1.0
132
0.0
 79
     0
146
0.0
  0
ENDTAB
  0
TABLE
  2
LTYPE
  5
5
330
0
100
AcDbSymbolTable
 70
     6
  0
LTYPE
  5
14
330
5
100
AcDbSymbolTableRecord
100
AcDbLinetypeTableRecord
  2
ByBlock
 70
     0
  3

 72
    65
 73
     0
 40
0.0
  0
LTYPE
  5
15
330
5
100
AcDbSymbolTableRecord
100
AcDbLinetypeTableRecord
  2
ByLayer
 70
     0
  3

 72
    65
 73
     0
 40
0.0
  0
LTYPE
  5
16
330
5
100
AcDbSymbolTableRecord
100
AcDbLinetypeTableRecord
  2
Continuous
 70
     0
  3
Solid line
 72
    65
 73
     0
 40
0.0
  0
LTYPE
  5
6E
330
5
100
AcDbSymbolTableRecord
100
AcDbLinetypeTableRecord
  2
HIDDEN
 70
     0
  3
Hidden __ __ __ __ __ __ __ __ __ __ __ __ __ __
 72
    65
 73
     2
 40
1.905
 49
1.27
 74
     0
 49
-0.635
 74
     0
  0
LTYPE
  5
6F
330
5
100
AcDbSymbolTableRecord
100
AcDbLinetypeTableRecord
  2
PHANTOM
 70
     0
  3
Phantom ______  __  __  ______  __  __  ______
 72
    65
 73
     6
 40
12.7
 49
6.35
 74
     0
 49
-1.27
 74
     0
 49
1.27
 74
     0
 49
-1.27
 74
     0
 49
1.27
 74
     0
 49
-1.27
 74
     0
  0
LTYPE
  5
70
330
5
100
AcDbSymbolTableRecord
100
AcDbLinetypeTableRecord
  2
CENTER
 70
     0
  3
Center ____ _ ____ _ ____ _ ____ _ ____ _ ____
 72
    65
 73
     4
 40
10.16
 49
6.35
 74
     0
 49
-1.27
 74
     0
 49
1.27
 74
     0
 49
-1.27
 74
     0
  0
LTYPE
  5
71
330
5
100
AcDbSymbolTableRecord
100
AcDbLinetypeTableRecord
  2
CENTERX2
 70
     0
  3
Center (2x) ________  __  ________  __  _____
 72
    65
 73
     4
 40
20.32
 49
12.7
 74
     0
 49
-2.54
 74
     0
 49
2.54
 74
     0
 49
-2.54
 74
     0
  0
LTYPE
  5
72
330
5
100
AcDbSymbolTableRecord
100
AcDbLinetypeTableRecord
  2
DOT2
 70
     0
  3
Dot (.5x) ........................................
 72
    65
 73
     2
 40
0.635
 49
0.0
 74
     0
 49
-0.635
 74
     0
  0
ENDTAB
  0
TABLE
  2
LAYER
  5
2
330
0
100
AcDbSymbolTable
 70
     5
  0
LAYER
  5
10
330
2
100
AcDbSymbolTableRecord
100
AcDbLayerTableRecord
  2
0
 70
     0
 62
     7
  6
Continuous
370
    -3
390
F
  0
LAYER
  5
73
330
2
100
AcDbSymbolTableRecord
100
AcDbLayerTableRecord
  2
FORMAT
 70
     0
 62
     7
  6
Continuous
370
    -3
390
F
  0
LAYER
  5
74
330
2
100
AcDbSymbolTableRecord
100
AcDbLayerTableRecord
  2
VERMASSUNG
 70
     0
 62
     7
  6
Continuous
370
    -3
390
F
  0
LAYER
  5
75
330
2
100
AcDbSymbolTableRecord
100
AcDbLayerTableRecord
  2
KOPF_DÜNN
 70
     0
 62
     7
  6
Continuous
370
    -3
390
F
  0
LAYER
  5
76
330
2
100
AcDbSymbolTableRecord
100
AcDbLayerTableRecord
  2
KOPF_DICK
 70
     0
 62
     7
  6
Continuous
370
    15
390
F
  0
ENDTAB
  0
TABLE
  2
STYLE
  5
3
330
0
100
AcDbSymbolTable
 70
     3
  0
STYLE
  5
11
330
3
100
AcDbSymbolTableRecord
100
AcDbTextStyleTableRecord
  2
Standard
 70
     0
 40
0.0
 41
1.0
 50
0.0
 71
     0
 42
2.0
  3
txt
  4

  0
STYLE
  5
77
330
3
100
AcDbSymbolTableRecord
100
AcDbTextStyleTableRecord
  2
SLDTEXTSTYLE0
 70
     0
 40
0.0
 41
0.7
 50
0.0
 71
     0
 42
2.0
  3
TXT
  4

  0
STYLE
  5
19D
330
3
100
AcDbSymbolTableRecord
100
AcDbTextStyleTableRecord
  2
SLDTEXTSTYLE1
 70
     0
 40
0.0
 41
0.65
 50
0.0
 71
     0
 42
2.0
  3
TXT
  4

  0
ENDTAB
  0
TABLE
  2
VIEW
  5
6
330
0
100
AcDbSymbolTable
 70
     0
  0
ENDTAB
  0
TABLE
  2
UCS
  5
7
330
0
100
AcDbSymbolTable
 70
     0
  0
ENDTAB
  0
TABLE
  2
APPID
  5
9
330
0
100
AcDbSymbolTable
 70
     1
  0
APPID
  5
12
330
9
100
AcDbSymbolTableRecord
100
AcDbRegAppTableRecord
  2
ACAD
 70
     0
  0
ENDTAB
  0
TABLE
  2
DIMSTYLE
  5
A
330
0
100
AcDbSymbolTable
 70
     2
100
AcDbDimStyleTable
  0
DIMSTYLE
105
27
330
A
100
AcDbSymbolTableRecord
100
AcDbDimStyleTableRecord
  2
ISO-25
 70
     0
 41
2.5
 42
0.625
 43
3.75
 44
1.25
 73
     0
 74
     0
 77
     1
 78
     8
140
2.5
141
2.5
143
0.0393700787
147
0.625
171
     3
172
     1
178
     0
271
     2
272
     2
274
     3
278
    44
283
     0
284
     8
340
11
  0
DIMSTYLE
105
17D
102
{ACAD_REACTORS
330
17C
330
188
330
194
330
1A1
330
1AD
330
1B7
102
}
330
A
100
AcDbSymbolTableRecord
100
AcDbDimStyleTableRecord
  2
SLDDIMSTYLE0
 70
     0
 41
3.0
 44
0.0
 45
0.000000001
 73
     0
 74
     0
 77
     1
 78
    12
 79
     3
140
2.0
147
0.5
173
     1
178
     0
271
     2
272
     3
276
     2
284
    12
340
77
  0
ENDTAB
  0
TABLE
  2
BLOCK_RECORD
  5
1
330
0
100
AcDbSymbolTable
 70
     7
  0
BLOCK_RECORD
  5
1F
330
1
100
AcDbSymbolTableRecord
100
AcDbBlockTableRecord
  2
*Model_Space
340
22
  0
BLOCK_RECORD
  5
1B
330
1
100
AcDbSymbolTableRecord
100
AcDbBlockTableRecord
  2
*Paper_Space
340
1E
  0
BLOCK_RECORD
  5
23
330
1
100
AcDbSymbolTableRecord
100
AcDbBlockTableRecord
  2
*Paper_Space0
340
26
  0
BLOCK_RECORD
  5
17E
330
1
100
AcDbSymbolTableRecord
100
AcDbBlockTableRecord
  2
_D
340
0
  0
BLOCK_RECORD
  5
189
330
1
100
AcDbSymbolTableRecord
100
AcDbBlockTableRecord
  2
_D_1
340
0
  0
BLOCK_RECORD
  5
195
330
1
100
AcDbSymbolTableRecord
100
AcDbBlockTableRecord
  2
_D_2
340
0
  0
BLOCK_RECORD
  5
1A2
330
1
100
AcDbSymbolTableRecord
100
AcDbBlockTableRecord
  2
_D_3
340
0
  0
BLOCK_RECORD
  5
1AE
330
1
100
AcDbSymbolTableRecord
100
AcDbBlockTableRecord
  2
_D_4
340
0
  0
BLOCK_RECORD
  5
1B8
330
1
100
AcDbSymbolTableRecord
100
AcDbBlockTableRecord
  2
_D_5
340
0
  0
ENDTAB
  0
ENDSEC
  0
SECTION
  2
BLOCKS
  0
BLOCK
  5
20
330
1F
100
AcDbEntity
  8
0
100
AcDbBlockBegin
  2
*Model_Space
 70
     0
 10
0.0
 20
0.0
 30
0.0
  3
*Model_Space
  1

  0
ENDBLK
  5
21
330
1F
100
AcDbEntity
  8
0
100
AcDbBlockEnd
  0
BLOCK
  5
1C
330
1B
100
AcDbEntity
 67
     1
  8
0
100
AcDbBlockBegin
  2
*Paper_Space
 70
     0
 10
0.0
 20
0.0
 30
0.0
  3
*Paper_Space
  1

  0
ENDBLK
  5
1D
330
1B
100
AcDbEntity
 67
     1
  8
0
100
AcDbBlockEnd
  0
BLOCK
  5
24
330
23
100
AcDbEntity
  8
0
100
AcDbBlockBegin
  2
*Paper_Space0
 70
     0
 10
0.0
 20
0.0
 30
0.0
  3
*Paper_Space0
  1

  0
ENDBLK
  5
25
330
23
100
AcDbEntity
  8
0
100
AcDbBlockEnd
  0
BLOCK
  5
17F
330
17E
100
AcDbEntity
  8
0
100
AcDbBlockBegin
  2
_D
 70
     0
 10
0.0
 20
0.0
 30
0.0
  3
_D
  1

  0
SOLID
  5
181
330
17E
100
AcDbEntity
  8
VERMASSUNG
100
AcDbTrace
 10
197.4497523816
 20
114.056751784
 30
0.0
 11
196.9997523816
 21
111.056751784
 31
0.0
 12
197.8997523816
 22
111.056751784
 32
0.0
 13
197.8997523816
 23
111.056751784
 33
0.0
  0
SOLID
  5
182
330
17E
100
AcDbEntity
  8
VERMASSUNG
100
AcDbTrace
 10
197.4497523816
 20
100.056751784
 30
0.0
 11
197.8997523816
 21
103.056751784
 31
0.0
 12
196.9997523816
 22
103.056751784
 32
0.0
 13
196.9997523816
 23
103.056751784
 33
0.0
  0
LINE
  5
183
330
17E
100
AcDbEntity
  8
VERMASSUNG
100
AcDbLine
 10
183.135609602
 20
114.056751784
 30
0.0
 11
198.4497523816
 21
114.056751784
 31
0.0
  0
LINE
  5
184
330
17E
100
AcDbEntity
  8
VERMASSUNG
100
AcDbLine
 10
183.135609602
 20
100.056751784
 30
0.0
 11
198.4497523816
 21
100.056751784
 31
0.0
  0
LINE
  5
185
330
17E
100
AcDbEntity
  8
VERMASSUNG
100
AcDbLine
 10
197.4497523816
 20
114.056751784
 30
0.0
 11
197.4497523816
 21
100.056751784
 31
0.0
  0
MTEXT
  5
186
330
17E
100
AcDbEntity
  8
VERMASSUNG
100
AcDbMText
 10
194.8716168438
 20
103.9529474586
 30
0.0
 40
2.0
 41
0.0
 71
     1
 72
     1
  1
%%c
  7
SLDTEXTSTYLE0
 11
-7.044195017643634E-15
 21
1.0
 31
0.0
 73
     1
 44
1.0
  0
MTEXT
  5
187
330
17E
100
AcDbEntity
  8
VERMASSUNG
100
AcDbMText
 10
194.8716167856
 20
107.5619196522
 30
0.0
 40
2.0
 41
0.0
 71
     1
 72
     1
  1
14
  7
SLDTEXTSTYLE0
 11
-7.044195017643634E-15
 21
1.0
 31
0.0
 73
     1
 44
1.0
  0
ENDBLK
  5
180
330
17E
100
AcDbEntity
  8
0
100
AcDbBlockEnd
  0
BLOCK
  5
18A
330
189
100
AcDbEntity
  8
0
100
AcDbBlockBegin
  2
_D_1
 70
     0
 10
0.0
 20
0.0
 30
0.0
  3
_D_1
  1

  0
SOLID
  5
18C
330
189
100
AcDbEntity
  8
VERMASSUNG
100
AcDbTrace
 10
203.6497523816
 20
119.556751784
 30
0.0
 11
203.1997523816
 21
116.556751784
 31
0.0
 12
204.0997523816
 22
116.556751784
 32
0.0
 13
204.0997523816
 23
116.556751784
 33
0.0
  0
SOLID
  5
18D
330
189
100
AcDbEntity
  8
VERMASSUNG
100
AcDbTrace
 10
203.6497523816
 20
94.556751784
 30
0.0
 11
204.0997523816
 21
97.556751784
 31
0.0
 12
203.1997523816
 22
97.556751784
 32
0.0
 13
203.1997523816
 23
97.556751784
 33
0.0
  0
LINE
  5
18E
330
189
100
AcDbEntity
  8
VERMASSUNG
100
AcDbLine
 10
189.835609602
 20
119.556751784
 30
0.0
 11
204.6497523816
 21
119.556751784
 31
0.0
  0
LINE
  5
18F
330
189
100
AcDbEntity
  8
VERMASSUNG
100
AcDbLine
 10
189.835609602
 20
94.556751784
 30
0.0
 11
204.6497523816
 21
94.556751784
 31
0.0
  0
LINE
  5
190
330
189
100
AcDbEntity
  8
VERMASSUNG
100
AcDbLine
 10
203.6497523816
 20
119.556751784
 30
0.0
 11
203.6497523816
 21
94.556751784
 31
0.0
  0
MTEXT
  5
191
330
189
100
AcDbEntity
  8
VERMASSUNG
100
AcDbMText
 10
200.8716171254
 20
100.9528238746
 30
0.0
 40
2.0
 41
0.0
 71
     1
 72
     1
  1
ST2
  7
SLDTEXTSTYLE0
 11
-7.044195017643634E-15
 21
1.0
 31
0.0
 73
     1
 44
1.0
  0
MTEXT
  5
192
330
189
100
AcDbEntity
  8
VERMASSUNG
100
AcDbMText
 10
201.0716170767
 20
106.7528238009
 30
0.0
 40
2.0
 41
0.0
 71
     1
 72
     1
  1
%%c
  7
SLDTEXTSTYLE0
 11
-7.044195017643634E-15
 21
1.0
 31
0.0
 73
     1
 44
1.0
  0
MTEXT
  5
193
330
189
100
AcDbEntity
  8
VERMASSUNG
100
AcDbMText
 10
201.0716167856
 20
110.3612996728
 30
0.0
 40
2.0
 41
0.0
 71
     1
 72
     1
  1
25
  7
SLDTEXTSTYLE0
 11
-7.044195017643634E-15
 21
1.0
 31
0.0
 73
     1
 44
1.0
  0
ENDBLK
  5
18B
330
189
100
AcDbEntity
  8
0
100
AcDbBlockEnd
  0
BLOCK
  5
196
330
195
100
AcDbEntity
  8
0
100
AcDbBlockBegin
  2
_D_2
 70
     0
 10
0.0
 20
0.0
 30
0.0
  3
_D_2
  1

  0
SOLID
  5
198
330
195
100
AcDbEntity
  8
VERMASSUNG
100
AcDbTrace
 10
111.9212053151
 20
138.556751784
 30
0.0
 11
111.4712053151
 21
135.556751784
 31
0.0
 12
112.3712053151
 22
135.556751784
 32
0.0
 13
112.3712053151
 23
135.556751784
 33
0.0
  0
SOLID
  5
199
330
195
100
AcDbEntity
  8
VERMASSUNG
100
AcDbTrace
 10
111.9212053151
 20
75.556751784
 30
0.0
 11
112.3712053151
 21
78.556751784
 31
0.0
 12
111.4712053151
 22
78.556751784
 32
0.0
 13
111.4712053151
 23
78.556751784
 33
0.0
  0
LINE
  5
19A
330
195
100
AcDbEntity
  8
VERMASSUNG
100
AcDbLine
 10
148.335609602
 20
138.556751784
 30
0.0
 11
110.9212053151
 21
138.556751784
 31
0.0
  0
LINE
  5
19B
330
195
100
AcDbEntity
  8
VERMASSUNG
100
AcDbLine
 10
148.335609602
 20
75.556751784
 30
0.0
 11
110.9212053151
 21
75.556751784
 31
0.0
  0
LINE
  5
19C
330
195
100
AcDbEntity
  8
VERMASSUNG
100
AcDbLine
 10
111.9212053151
 20
138.556751784
 30
0.0
 11
111.9212053151
 21
75.556751784
 31
0.0
  0
MTEXT
  5
19E
330
195
100
AcDbEntity
  8
VERMASSUNG
100
AcDbMText
 10
109.1430700589
 20
97.3526755739
 30
0.0
 40
2.0
 41
0.0
 71
     1
 72
     1
  1
HSK A 63
  7
SLDTEXTSTYLE1
 11
-7.044195017643634E-15
 21
1.0
 31
0.0
 73
     1
 44
1.0
  0
MTEXT
  5
19F
330
195
100
AcDbEntity
  8
VERMASSUNG
100
AcDbMText
 10
109.3430700102
 20
110.3526758421
 30
0.0
 40
2.0
 41
0.0
 71
     1
 72
     1
  1
%%c
  7
SLDTEXTSTYLE0
 11
-7.044195017643634E-15
 21
1.0
 31
0.0
 73
     1
 44
1.0
  0
MTEXT
  5
1A0
330
195
100
AcDbEntity
  8
VERMASSUNG
100
AcDbMText
 10
109.3430697191
 20
113.9614479735
 30
0.0
 40
2.0
 41
0.0
 71
     1
 72
     1
  1
63
  7
SLDTEXTSTYLE0
 11
-7.044195017643634E-15
 21
1.0
 31
0.0
 73
     1
 44
1.0
  0
ENDBLK
  5
197
330
195
100
AcDbEntity
  8
0
100
AcDbBlockEnd
  0
BLOCK
  5
1A3
330
1A2
100
AcDbEntity
  8
0
100
AcDbBlockBegin
  2
_D_3
 70
     0
 10
0.0
 20
0.0
 30
0.0
  3
_D_3
  1

  0
ARC
  5
1A5
330
1A2
100
AcDbEntity
  8
VERMASSUNG
100
AcDbCircle
 10
181.3220436906
 20
142.6933592524
 30
0.0
 40
4.247059938537386
100
AcDbArc
 50
153.4349488229
 51
206.5650511771
  0
ARC
  5
1A6
330
1A2
100
AcDbEntity
  8
VERMASSUNG
100
AcDbCircle
 10
182.6991755134
 20
142.6933592524
 30
0.0
 40
4.247059938537386
100
AcDbArc
 50
333.4349488229
 51
26.5650511771
  0
SOLID
  5
1A7
330
1A2
100
AcDbEntity
  8
VERMASSUNG
100
AcDbTrace
 10
173.985609602
 20
140.7940163069
 30
0.0
 11
176.985609602
 21
140.3440163069
 31
0.0
 12
176.985609602
 22
141.2440163069
 32
0.0
 13
176.985609602
 23
141.2440163069
 33
0.0
  0
SOLID
  5
1A8
330
1A2
100
AcDbEntity
  8
VERMASSUNG
100
AcDbTrace
 10
190.035609602
 20
140.7940163069
 30
0.0
 11
187.035609602
 21
141.2440163069
 31
0.0
 12
187.035609602
 22
140.3440163069
 32
0.0
 13
187.035609602
 23
140.3440163069
 33
0.0
  0
LINE
  5
1A9
330
1A2
100
AcDbEntity
  8
VERMASSUNG
100
AcDbLine
 10
173.985609602
 20
136.9031921078
 30
0.0
 11
173.985609602
 21
141.7940163069
 31
0.0
  0
LINE
  5
1AA
330
1A2
100
AcDbEntity
  8
VERMASSUNG
100
AcDbLine
 10
190.035609602
 20
119.356751784
 30
0.0
 11
190.035609602
 21
141.7940163069
 31
0.0
  0
LINE
  5
1AB
330
1A2
100
AcDbEntity
  8
VERMASSUNG
100
AcDbLine
 10
173.985609602
 20
140.7940163069
 30
0.0
 11
190.035609602
 21
140.7940163069
 31
0.0
  0
MTEXT
  5
1AC
330
1A2
100
AcDbEntity
  8
VERMASSUNG
100
AcDbMText
 10
179.1108577997
 20
143.3721519029
 30
0.0
 40
2.0
 41
0.0
 71
     1
 72
     1
  1
16.05
  7
SLDTEXTSTYLE0
 73
     1
 44
1.0
  0
ENDBLK
  5
1A4
330
1A2
100
AcDbEntity
  8
0
100
AcDbBlockEnd
  0
BLOCK
  5
1AF
330
1AE
100
AcDbEntity
  8
0
100
AcDbBlockBegin
  2
_D_4
 70
     0
 10
0.0
 20
0.0
 30
0.0
  3
_D_4
  1

  0
SOLID
  5
1B1
330
1AE
100
AcDbEntity
  8
VERMASSUNG
100
AcDbTrace
 10
148.035609602
 20
146.7940163069
 30
0.0
 11
151.035609602
 21
146.3440163069
 31
0.0
 12
151.035609602
 22
147.2440163069
 32
0.0
 13
151.035609602
 23
147.2440163069
 33
0.0
  0
SOLID
  5
1B2
330
1AE
100
AcDbEntity
  8
VERMASSUNG
100
AcDbTrace
 10
190.035609602
 20
146.7940163069
 30
0.0
 11
187.035609602
 21
147.2440163069
 31
0.0
 12
187.035609602
 22
146.3440163069
 32
0.0
 13
187.035609602
 23
146.3440163069
 33
0.0
  0
LINE
  5
1B3
330
1AE
100
AcDbEntity
  8
VERMASSUNG
100
AcDbLine
 10
148.035609602
 20
138.256751784
 30
0.0
 11
148.035609602
 21
147.7940163069
 31
0.0
  0
LINE
  5
1B4
330
1AE
100
AcDbEntity
  8
VERMASSUNG
100
AcDbLine
 10
190.035609602
 20
119.356751784
 30
0.0
 11
190.035609602
 21
147.7940163069
 31
0.0
  0
LINE
  5
1B5
330
1AE
100
AcDbEntity
  8
VERMASSUNG
100
AcDbLine
 10
148.035609602
 20
146.7940163069
 30
0.0
 11
190.035609602
 21
146.7940163069
 31
0.0
  0
MTEXT
  5
1B6
330
1AE
100
AcDbEntity
  8
VERMASSUNG
100
AcDbMText
 10
167.5366507967
 20
149.3721519029
 30
0.0
 40
2.0
 41
0.0
 71
     1
 72
     1
  1
42
  7
SLDTEXTSTYLE0
 73
     1
 44
1.0
  0
ENDBLK
  5
1B0
330
1AE
100
AcDbEntity
  8
0
100
AcDbBlockEnd
  0
BLOCK
  5
1B9
330
1B8
100
AcDbEntity
  8
0
100
AcDbBlockBegin
  2
_D_5
 70
     0
 10
0.0
 20
0.0
 30
0.0
  3
_D_5
  1

  0
ARC
  5
1BB
330
1B8
100
AcDbEntity
  8
VERMASSUNG
100
AcDbCircle
 10
152.8977996123
 20
154.6933592524
 30
0.0
 40
4.247059938537233
100
AcDbArc
 50
153.4349488229
 51
206.5650511771
  0
ARC
  5
1BC
330
1B8
100
AcDbEntity
  8
VERMASSUNG
100
AcDbCircle
 10
153.2734195917
 20
154.6933592524
 30
0.0
 40
4.247059938537233
100
AcDbArc
 50
333.4349488229
 51
26.5650511771
  0
SOLID
  5
1BD
330
1B8
100
AcDbEntity
  8
VERMASSUNG
100
AcDbTrace
 10
116.135609602
 20
152.7940163069
 30
0.0
 11
119.135609602
 21
152.3440163069
 31
0.0
 12
119.135609602
 22
153.2440163069
 32
0.0
 13
119.135609602
 23
153.2440163069
 33
0.0
  0
SOLID
  5
1BE
330
1B8
100
AcDbEntity
  8
VERMASSUNG
100
AcDbTrace
 10
190.035609602
 20
152.7940163069
 30
0.0
 11
187.035609602
 21
153.2440163069
 31
0.0
 12
187.035609602
 22
152.3440163069
 32
0.0
 13
187.035609602
 23
152.3440163069
 33
0.0
  0
LINE
  5
1BF
330
1B8
100
AcDbEntity
  8
VERMASSUNG
100
AcDbLine
 10
116.135609602
 20
126.7474295305
 30
0.0
 11
116.135609602
 21
153.7940163069
 31
0.0
  0
LINE
  5
1C0
330
1B8
100
AcDbEntity
  8
VERMASSUNG
100
AcDbLine
 10
190.035609602
 20
119.356751784
 30
0.0
 11
190.035609602
 21
153.7940163069
 31
0.0
  0
LINE
  5
1C1
330
1B8
100
AcDbEntity
  8
VERMASSUNG
100
AcDbLine
 10
116.135609602
 20
152.7940163069
 30
0.0
 11
190.035609602
 21
152.7940163069
 31
0.0
  0
MTEXT
  5
1C2
330
1B8
100
AcDbEntity
  8
VERMASSUNG
100
AcDbMText
 10
150.6866137215
 20
155.3721519029
 30
0.0
 40
2.0
 41
0.0
 71
     1
 72
     1
  1
73.9
  7
SLDTEXTSTYLE0
 73
     1
 44
1.0
  0
ENDBLK
  5
1BA
330
1B8
100
AcDbEntity
  8
0
100
AcDbBlockEnd
  0
ENDSEC
  0
SECTION
  2
ENTITIES
  0
MTEXT
  5
78
330
1F
100
AcDbEntity
  8
KOPF_DÜNN
100
AcDbMText
 10
13.8892156294
 20
23.8442973028
 30
0.0
 40
3.0
 41
0.0
 71
     1
 72
     1
  1
144.806.025.042
  7
SLDTEXTSTYLE0
 73
     1
 44
1.0
  0
MTEXT
  5
79
330
1F
100
AcDbEntity
  8
VERMASSUNG
100
AcDbMText
 10
13.9329988022
 20
28.8834360957
 30
0.0
 40
3.0
 41
0.0
 71
     1
 72
     1
  1
Aufnahme_Master shank ST2
  7
SLDTEXTSTYLE0
 73
     1
 44
1.0
  0
MTEXT
  5
7A
330
1F
100
AcDbEntity
  8
VERMASSUNG
100
AcDbMText
 10
98.8601118557
 20
13.8365368761
 30
0.0
 40
2.0
 41
0.0
 71
     1
 72
     1
  1
Datum: 10.06.2008
  7
SLDTEXTSTYLE0
 73
     1
 44
1.0
  0
MTEXT
  5
7B
330
1F
100
AcDbEntity
  8
VERMASSUNG
100
AcDbMText
 10
13.933048693
 20
18.0482802738
 30
0.0
 40
2.0
 41
0.0
 71
     1
 72
     1
  1
DIN 69893 HSK A 63
  7
SLDTEXTSTYLE0
 73
     1
 44
1.0
  0
MTEXT
  5
7C
330
1F
100
AcDbEntity
  8
VERMASSUNG
100
AcDbMText
 10
13.9808475933
 20
13.9090974274
 30
0.0
 40
2.0
 41
0.0
 71
     1
 72
     1
  1
Gewicht: 681g
  7
SLDTEXTSTYLE0
 73
     1
 44
1.0
  0
ARC
  5
7D
330
1F
100
AcDbEntity
  8
0
  6
Continuous
 62
     7
370
    15
100
AcDbCircle
 10
148.335609602
 20
75.856751784
 30
0.0
 40
0.2999999999999972
100
AcDbArc
 50
180.0
 51
270.0
  0
ARC
  5
7E
330
1F
100
AcDbEntity
  8
0
  6
Continuous
 62
     7
370
    15
100
AcDbCircle
 10
148.335609602
 20
138.256751784
 30
0.0
 40
0.2999999999999829
100
AcDbArc
 50
90.0
 51
180.0
  0
LINE
  5
7F
330
1F
100
AcDbEntity
  8
0
  6
Continuous
 62
     7
370
    15
100
AcDbLine
 10
148.335609602
 20
75.556751784
 30
0.0
 11
152.985609602
 21
75.556751784
 31
0.0
  0
LINE
  5
80
330
1F
100
AcDbEntity
  8
0
  6
Continuous
 62
     7
370
    15
100
AcDbLine
 10
152.9949176888
 20
138.556751784
 30
0.0
 11
148.335609602
 21
138.556751784
 31
0.0
  0
ARC
  5
81
330
1F
100
AcDbEntity
  8
0
  6
Continuous
 62
     7
370
    15
100
AcDbCircle
 10
147.5356028493
 20
82.4863141696
 30
0.0
 40
0.6000067526677519
100
AcDbArc
 50
33.5571153394
 51
90.0
  0
ARC
  5
82
330
1F
100
AcDbEntity
  8
0
  6
Continuous
 62
     7
370
    15
100
AcDbCircle
 10
147.5356028493
 20
131.6271893984
 30
0.0
 40
0.6000067526677519
100
AcDbArc
 50
270.0
 51
326.4428846606
  0
LINE
  5
83
330
1F
100
AcDbEntity
  8
0
  6
Continuous
 62
     7
370
    15
100
AcDbLine
 10
134.8041008032
 20
130.7144818041
 30
0.0
 11
122.235609602
 21
130.0847978762
 31
0.0
  0
LINE
  5
84
330
1F
100
AcDbEntity
  8
0
  6
Continuous
 62
     7
370
    15
100
AcDbLine
 10
146.035609602
 20
131.2771826457
 30
0.0
 11
143.2186079447
 21
131.1360502982
 31
0.0
  0
LINE
  5
85
330
1F
100
AcDbEntity
  8
0
  6
Continuous
 62
     7
370
    15
100
AcDbLine
 10
143.2186640347
 20
82.9774504597
 30
0.0
 11
146.035609602
 21
82.8363209223
 31
0.0
  0
LINE
  5
86
330
1F
100
AcDbEntity
  8
0
  6
Continuous
 62
     7
370
    15
100
AcDbLine
 10
126.235609602
 20
83.8283048902
 30
0.0
 11
134.8045033219
 21
83.3990015976
 31
0.0
  0
LINE
  5
87
330
1F
100
AcDbEntity
  8
0
  6
Continuous
 62
     7
370
    15
100
AcDbLine
 10
146.035609602
 20
82.8363209223
 30
0.0
 11
146.8923223754
 21
83.065876418
 31
0.0
  0
LINE
  5
88
330
1F
100
AcDbEntity
  8
0
  6
Continuous
 62
     7
370
    15
100
AcDbLine
 10
146.8923223754
 20
131.0476271499
 30
0.0
 11
146.035609602
 21
131.2771826457
 31
0.0
  0
ARC
  5
89
330
1F
100
AcDbEntity
  8
0
  6
Continuous
 62
     7
370
    15
100
AcDbCircle
 10
147.0476138025
 20
82.4863209223
 30
0.0
 40
0.6000000000000008
100
AcDbArc
 50
90.0
 51
105.0
  0
ARC
  5
8A
330
1F
100
AcDbEntity
  8
0
  6
Continuous
 62
     7
370
    15
100
AcDbCircle
 10
147.0476138025
 20
131.6271826457
 30
0.0
 40
0.6000000000000008
100
AcDbArc
 50
255.0
 51
270.0
  0
LINE
  5
8B
330
1F
100
AcDbEntity
  8
0
  6
Continuous
 62
     7
370
    15
100
AcDbLine
 10
147.0476138025
 20
83.0863209223
 30
0.0
 11
147.5356028493
 21
83.0863209223
 31
0.0
  0
LINE
  5
8C
330
1F
100
AcDbEntity
  8
0
  6
Continuous
 62
     7
370
    15
100
AcDbLine
 10
147.5356028493
 20
131.0271826457
 30
0.0
 11
147.0476138025
 21
131.0271826457
 31
0.0
  0
ARC
  5
8D
330
1F
100
AcDbEntity
  8
0
  6
Continuous
 62
     7
370
    15
100
AcDbCircle
 10
177.985609602
 20
90.556751784
 30
0.0
 40
4.000000000000014
100
AcDbArc
 50
90.0
 51
180.0
  0
ARC
  5
8E
330
1F
100
AcDbEntity
  8
0
  6
Continuous
 62
     7
370
    15
100
AcDbCircle
 10
177.985609602
 20
123.556751784
 30
0.0
 40
4.0
100
AcDbArc
 50
180.0
 51
270.0
  0
LINE
  5
8F
330
1F
100
AcDbEntity
  8
0
  6
Continuous
 62
     7
370
    15
100
AcDbLine
 10
189.835609602
 20
119.556751784
 30
0.0
 11
177.985609602
 21
119.556751784
 31
0.0
  0
LINE
  5
90
330
1F
100
AcDbEntity
  8
0
  6
Continuous
 62
     7
370
    15
100
AcDbLine
 10
177.985609602
 20
94.556751784
 30
0.0
 11
189.835609602
 21
94.556751784
 31
0.0
  0
LINE
  5
91
330
1F
100
AcDbEntity
  8
0
  6
Continuous
 62
     7
370
    15
100
AcDbLine
 10
189.835609602
 20
94.556751784
 30
0.0
 11
190.035609602
 21
94.756751784
 31
0.0
  0
LINE
  5
92
330
1F
100
AcDbEntity
  8
0
  6
Continuous
 62
     7
370
    15
100
AcDbLine
 10
190.035609602
 20
119.356751784
 30
0.0
 11
189.835609602
 21
119.556751784
 31
0.0
  0
LINE
  5
93
330
1F
100
AcDbEntity
  8
0
  6
Continuous
 62
     7
370
    15
100
AcDbLine
 10
117.418946242
 20
86.186751784
 30
0.0
 11
124.835609602
 21
86.186751784
 31
0.0
  0
ARC
  5
94
330
1F
100
AcDbEntity
  8
0
  6
Continuous
 62
     7
370
    15
100
AcDbCircle
 10
124.835609602
 20
84.786751784
 30
0.0
 40
1.400000000000006
100
AcDbArc
 50
42.2465410162
 51
90.0
  0
LINE
  5
95
330
1F
100
AcDbEntity
  8
0
  6
Continuous
 62
     7
370
    15
100
AcDbLine
 10
116.1467700371
 20
87.3255913489
 30
0.0
 11
117.2767730602
 21
86.1955883258
 31
0.0
  0
LINE
  5
96
330
1F
100
AcDbEntity
  8
0
  6
Continuous
 62
     7
370
    15
100
AcDbLine
 10
117.2767730602
 20
127.9179152422
 30
0.0
 11
116.1455103754
 21
126.7866525574
 31
0.0
  0
ARC
  5
97
330
1F
100
AcDbEntity
  8
0
  6
Continuous
 62
     7
370
    15
100
AcDbCircle
 10
120.835609602
 20
129.326751784
 30
0.0
 40
1.400000000000008
100
AcDbArc
 50
270.0
 51
301.7485287426
  0
LINE
  5
98
330
1F
100
AcDbEntity
  8
0
  6
Continuous
 62
     7
370
    15
100
AcDbLine
 10
120.835609602
 20
127.926751784
 30
0.0
 11
117.4264980034
 21
127.926751784
 31
0.0
  0
SPLINE
  5
99
330
1F
100
AcDbEntity
  8
0
  6
Continuous
 62
     7
370
    15
100
AcDbSpline
210
0.0
220
0.0
230
1.0
 70
    24
 71
     3
 72
    11
 73
     7
 74
     0
 42
0.000000001
 43
0.00000001
 40
0.0
 40
0.0
 40
0.0
 40
0.0
 40
0.128556176630682
 40
0.4801535797842839
 40
0.8150691831754912
 40
1.0
 40
1.0
 40
1.0
 40
1.0
 10
182.0500151226681
 20
106.9070793943491
 30
0.0
 10
182.0737027497809
 20
106.9601630644533
 30
0.0
 10
182.1621753479313
 20
107.1584290279928
 30
0.0
 10
182.3280812846202
 20
107.5302221151431
 30
0.0
 10
182.5077224180072
 20
107.9327956028321
 30
0.0
 10
182.6039574867366
 20
108.1484571638895
 30
0.0
 10
182.6381922706558
 20
108.2251768778147
 30
0.0
  0
SPLINE
  5
9A
330
1F
100
AcDbEntity
  8
0
  6
Continuous
 62
     7
370
    15
100
AcDbSpline
210
0.0
220
0.0
230
1.0
 70
    24
 71
     3
 72
    10
 73
     6
 74
     0
 42
0.000000001
 43
0.00000001
 40
0.0
 40
0.0
 40
0.0
 40
0.0
 40
0.439111987927702
 40
0.7513633230734835
 40
1.0
 40
1.0
 40
1.0
 40
1.0
 10
182.8974324540198
 20
105.7386543005334
 30
0.0
 10
182.7761194959758
 20
105.9059214770938
 30
0.0
 10
182.5685412248429
 20
106.1921318860026
 30
0.0
 10
182.2667875574636
 20
106.6081920066453
 30
0.0
 10
182.1165944111929
 20
106.8152793938502
 30
0.0
 10
182.0500151226681
 20
106.9070793943491
 30
0.0
  0
SPLINE
  5
9B
330
1F
100
AcDbEntity
  8
0
  6
Continuous
 62
     7
370
    15
100
AcDbSpline
210
0.0
220
0.0
230
1.0
 70
    24
 71
     3
 72
    10
 73
     6
 74
     0
 42
0.000000001
 43
0.00000001
 40
0.0
 40
0.0
 40
0.0
 40
0.0
 40
0.4391119879277006
 40
0.7513633230734965
 40
1.0
 40
1.0
 40
1.0
 40
1.0
 10
184.3330269333592
 20
105.8883266901834
 30
0.0
 10
184.1275128302166
 20
105.8669001749893
 30
0.0
 10
183.7758582097075
 20
105.8302373233689
 30
0.0
 10
183.2646627420397
 20
105.7769410420547
 30
0.0
 10
183.0102232307816
 20
105.7504136555124
 30
0.0
 10
182.8974324540198
 20
105.7386543005334
 30
0.0
  0
SPLINE
  5
9C
330
1F
100
AcDbEntity
  8
0
  6
Continuous
 62
     7
370
    15
100
AcDbSpline
210
0.0
220
0.0
230
1.0
 70
    24
 71
     3
 72
    11
 73
     7
 74
     0
 42
0.000000001
 43
0.00000001
 40
0.0
 40
0.0
 40
0.0
 40
0.0
 40
0.1849308168245051
 40
0.5198464202157121
 40
0.871443823369319
 40
1.0
 40
1.0
 40
1.0
 40
1.0
 10
184.9212040813469
 20
107.206424173649
 30
0.0
 10
184.8869692974277
 20
107.1297044597238
 30
0.0
 10
184.7907342286983
 20
106.9140428986664
 30
0.0
 10
184.6110930953112
 20
106.5114694109774
 30
0.0
 10
184.4451871586224
 20
106.139676323827
 30
0.0
 10
184.356714560472
 20
105.9414103602876
 30
0.0
 10
184.3330269333592
 20
105.8883266901834
 30
0.0
  0
SPLINE
  5
9D
330
1F
100
AcDbEntity
  8
0
  6
Continuous
 62
     7
370
    15
100
AcDbSpline
210
0.0
220
0.0
230
1.0
 70
    24
 71
     3
 72
    10
 73
     6
 74
     0
 42
0.000000001
 43
0.00000001
 40
0.0
 40
0.0
 40
0.0
 40
0.0
 40
0.4391119879276878
 40
0.7513633230734723
 40
1.0
 40
1.0
 40
1.0
 40
1.0
 10
184.0737867499952
 20
108.3748492674646
 30
0.0
 10
184.1950997080392
 20
108.2075820909042
 30
0.0
 10
184.4026779791721
 20
107.9213716819954
 30
0.0
 10
184.7044316465515
 20
107.5053115613527
 30
0.0
 10
184.8546247928221
 20
107.2982241741478
 30
0.0
 10
184.9212040813469
 20
107.206424173649
 30
0.0
  0
SPLINE
  5
9E
330
1F
100
AcDbEntity
  8
0
  6
Continuous
 62
     7
370
    15
100
AcDbSpline
210
0.0
220
0.0
230
1.0
 70
    24
 71
     3
 72
    10
 73
     6
 74
     0
 42
0.000000001
 43
0.00000001
 40
0.0
 40
0.0
 40
0.0
 40
0.0
 40
0.4391119879276739
 40
0.7513633230734672
 40
1.0
 40
1.0
 40
1.0
 40
1.0
 10
182.6381922706558
 20
108.2251768778147
 30
0.0
 10
182.8437063737984
 20
108.2466033930087
 30
0.0
 10
183.1953609943075
 20
108.2832662446291
 30
0.0
 10
183.7065564619753
 20
108.3365625259434
 30
0.0
 10
183.9609959732334
 20
108.3630899124856
 30
0.0
 10
184.0737867499952
 20
108.3748492674646
 30
0.0
  0
CIRCLE
  5
9F
330
1F
100
AcDbEntity
  8
0
  6
Continuous
 62
     7
370
    15
100
AcDbCircle
 10
183.485609602
 20
107.056751784
 30
0.0
 40
1.499999999999993
  0
CIRCLE
  5
A0
330
1F
100
AcDbEntity
  8
0
  6
Continuous
 62
     7
370
    15
100
AcDbCircle
 10
183.485609602
 20
107.056751784
 30
0.0
 40
2.249999999999989
  0
CIRCLE
  5
A1
330
1F
100
AcDbEntity
  8
0
  6
Continuous
 62
     7
370
    15
100
AcDbCircle
 10
183.485609602
 20
107.056751784
 30
0.0
 40
2.49999999999998
  0
ARC
  5
A2
330
1F
100
AcDbEntity
  8
0
  6
Continuous
 62
     7
370
    15
100
AcDbCircle
 10
183.485609602
 20
107.056751784
 30
0.0
 40
1.249999999999977
100
AcDbArc
 50
155.9520469708
 51
215.9520469708
  0
ARC
  5
A3
330
1F
100
AcDbEntity
  8
0
  6
Continuous
 62
     7
370
    15
100
AcDbCircle
 10
183.485609602
 20
107.056751784
 30
0.0
 40
1.250000000000055
100
AcDbArc
 50
335.9520469708
 51
35.9520469708
  0
ARC
  5
A4
330
1F
100
AcDbEntity
  8
0
  6
Continuous
 62
     7
370
    15
100
AcDbCircle
 10
183.485609602
 20
107.056751784
 30
0.0
 40
1.249999999999984
100
AcDbArc
 50
215.9520469708
 51
275.9520469708
  0
ARC
  5
A5
330
1F
100
AcDbEntity
  8
0
  6
Continuous
 62
     7
370
    15
100
AcDbCircle
 10
183.485609602
 20
107.056751784
 30
0.0
 40
1.249999999999979
100
AcDbArc
 50
95.9520469708
 51
155.9520469708
  0
ARC
  5
A6
330
1F
100
AcDbEntity
  8
0
  6
Continuous
 62
     7
370
    15
100
AcDbCircle
 10
183.485609602
 20
107.056751784
 30
0.0
 40
1.250000000000055
100
AcDbArc
 50
275.9520469708
 51
335.9520469708
  0
ARC
  5
A7
330
1F
100
AcDbEntity
  8
0
  6
Continuous
 62
     7
370
    15
100
AcDbCircle
 10
183.485609602
 20
107.056751784
 30
0.0
 40
1.250000000000006
100
AcDbArc
 50
35.9520469708
 51
95.9520469708
  0
LINE
  5
A8
330
1F
100
AcDbEntity
  8
0
  6
Continuous
 62
     7
370
    15
100
AcDbLine
 10
164.125609602
 20
79.5589146249
 30
0.0
 11
164.125609602
 21
126.906751784
 31
0.0
  0
SPLINE
  5
A9
330
1F
100
AcDbEntity
  8
0
  6
Continuous
 62
     7
370
    15
100
AcDbSpline
210
0.0
220
0.0
230
1.0
 70
     8
 71
     3
 72
     8
 73
     4
 74
     0
 42
0.000000001
 43
0.00000001
 40
0.0
 40
0.0
 40
0.0
 40
0.0
 40
1.0
 40
1.0
 40
1.0
 40
1.0
 10
164.1256096020075
 20
79.55891462494415
 30
0.0
 10
163.6332704792263
 20
78.66164459073745
 30
0.0
 10
163.1391564311842
 20
77.76536017568519
 30
0.0
 10
162.6436767705185
 20
76.86983408775184
 30
0.0
  0
LINE
  5
AA
330
1F
100
AcDbEntity
  8
0
  6
Continuous
 62
     7
370
    15
100
AcDbLine
 10
162.6436767705
 20
76.8698340878
 30
0.0
 11
162.6436767705
 21
126.906751784
 31
0.0
  0
SPLINE
  5
AB
330
1F
100
AcDbEntity
  8
0
  6
Continuous
 62
     7
370
    15
100
AcDbSpline
210
0.0
220
0.0
230
1.0
 70
    24
 71
     3
 72
     8
 73
     4
 74
     0
 42
0.000000001
 43
0.00000001
 40
0.0
 40
0.0
 40
0.0
 40
0.0
 40
1.0
 40
1.0
 40
1.0
 40
1.0
 10
162.6436767705185
 20
126.906751783999
 30
0.0
 10
163.150356878669
 20
126.906751783999
 30
0.0
 10
163.6456576076426
 20
126.906751783999
 30
0.0
 10
164.1256096020075
 20
126.906751783999
 30
0.0
  0
LINE
  5
AC
330
1F
100
AcDbEntity
  8
0
  6
Continuous
 62
     7
370
    15
100
AcDbLine
 10
173.385609602
 20
76.8698340878
 30
0.0
 11
169.4275424335
 21
76.8698340878
 31
0.0
  0
LINE
  5
AD
330
1F
100
AcDbEntity
  8
0
  6
Continuous
 62
     7
370
    15
100
AcDbLine
 10
169.4275424335
 20
76.8698340878
 30
0.0
 11
169.4275424335
 21
126.906751784
 31
0.0
  0
LINE
  5
AE
330
1F
100
AcDbEntity
  8
0
  6
Continuous
 62
     7
370
    15
100
AcDbLine
 10
169.4275424335
 20
126.906751784
 30
0.0
 11
173.385609602
 21
126.906751784
 31
0.0
  0
SPLINE
  5
AF
330
1F
100
AcDbEntity
  8
0
  6
Continuous
 62
     7
370
    15
100
AcDbSpline
210
0.0
220
0.0
230
1.0
 70
     8
 71
     3
 72
     8
 73
     4
 74
     0
 42
0.000000001
 43
0.00000001
 40
0.0
 40
0.0
 40
0.0
 40
0.0
 40
1.0
 40
1.0
 40
1.0
 40
1.0
 10
169.4275424334966
 20
76.86983408775184
 30
0.0
 10
168.9320627728308
 20
77.7653601756852
 30
0.0
 10
168.4379487247887
 20
78.66164459073747
 30
0.0
 10
167.9456096020075
 20
79.55891462494417
 30
0.0
  0
LINE
  5
B0
330
1F
100
AcDbEntity
  8
0
  6
Continuous
 62
     7
370
    15
100
AcDbLine
 10
167.945609602
 20
79.5589146249
 30
0.0
 11
167.945609602
 21
126.906751784
 31
0.0
  0
SPLINE
  5
B1
330
1F
100
AcDbEntity
  8
0
  6
Continuous
 62
     7
370
    15
100
AcDbSpline
210
0.0
220
0.0
230
1.0
 70
    24
 71
     3
 72
     8
 73
     4
 74
     0
 42
0.000000001
 43
0.00000001
 40
0.0
 40
0.0
 40
0.0
 40
0.0
 40
1.0
 40
1.0
 40
1.0
 40
1.0
 10
167.9456096020075
 20
126.906751783999
 30
0.0
 10
168.4255615963724
 20
126.906751783999
 30
0.0
 10
168.920862325346
 20
126.906751783999
 30
0.0
 10
169.4275424334966
 20
126.906751783999
 30
0.0
  0
LINE
  5
B2
330
1F
100
AcDbEntity
  8
0
  6
Continuous
 62
     7
370
    15
100
AcDbLine
 10
148.035609602
 20
75.856751784
 30
0.0
 11
148.035609602
 21
138.2567517807
 31
0.0
  0
LINE
  5
B3
330
1F
100
AcDbEntity
  8
0
  6
Continuous
 62
     7
370
    15
100
AcDbLine
 10
152.985609602
 20
126.906751784
 30
0.0
 11
162.6436767705
 21
126.906751784
 31
0.0
  0
LINE
  5
B4
330
1F
100
AcDbEntity
  8
0
  6
Continuous
 62
     7
370
    15
100
AcDbLine
 10
162.6436767705
 20
76.8698340878
 30
0.0
 11
160.985609602
 21
76.8698340878
 31
0.0
  0
SPLINE
  5
B5
330
1F
100
AcDbEntity
  8
0
  6
Continuous
 62
     7
370
    15
100
AcDbSpline
210
0.0
220
0.0
230
1.0
 70
     8
 71
     3
 72
    28
 73
    24
 74
     0
 42
0.000000001
 43
0.00000001
 40
0.0
 40
0.0
 40
0.0
 40
0.0
 40
0.1249999999999999
 40
0.1249999999999999
 40
0.1874999999999998
 40
0.1874999999999998
 40
0.2499999999999997
 40
0.2499999999999997
 40
0.3749999999999993
 40
0.3749999999999993
 40
0.4374999999999993
 40
0.4374999999999993
 40
0.4999999999999992
 40
0.4999999999999992
 40
0.6249999999999992
 40
0.6249999999999992
 40
0.7499999999999992
 40
0.7499999999999992
 40
0.8124999999999993
 40
0.8124999999999993
 40
0.8749999999999996
 40
0.8749999999999996
 40
1.0
 40
1.0
 40
1.0
 40
1.0
 10
160.9856096020075
 20
76.86983408775184
 30
0.0
 10
160.4539018445145
 20
76.86983408775184
 30
0.0
 10
159.9316632792042
 20
76.85404937380163
 30
0.0
 10
159.1617927929292
 20
76.80905395972543
 30
0.0
 10
158.9074332207379
 20
76.7904989646497
 30
0.0
 10
158.4033116400394
 20
76.7466462422032
 30
0.0
 10
158.1535888226115
 20
76.721301635251
 30
0.0
 10
157.427998871165
 20
76.63789955750089
 30
0.0
 10
156.9696386095835
 20
76.57203399834981
 30
0.0
 10
156.3191406661896
 20
76.46306365785802
 30
0.0
 10
156.1074586153971
 20
76.42482402209136
 30
0.0
 10
155.7033871262592
 20
76.34706528467201
 30
0.0
 10
155.5108806124383
 20
76.30756432249666
 30
0.0
 10
154.961045641417
 20
76.18865658013065
 30
0.0
 10
154.6311168631082
 20
76.10883889870604
 30
0.0
 10
154.0466455945395
 20
75.95549573691
 30
0.0
 10
153.8003684565261
 20
75.88416198364072
 30
0.0
 10
153.500525663828
 20
75.79021847656611
 30
0.0
 10
153.4120688067559
 20
75.7610246832062
 30
0.0
 10
153.2587074534507
 20
75.70755810894278
 30
0.0
 10
153.1936192392245
 20
75.68319877466759
 30
0.0
 10
153.0380252232837
 20
75.61960862922285
 30
0.0
 10
152.9856096020075
 20
75.5895056941336
 30
0.0
 10
152.9856096020075
 20
75.57262880113669
 30
0.0
  0
LINE
  5
B6
330
1F
100
AcDbEntity
  8
0
  6
Continuous
 62
     7
370
    15
100
AcDbLine
 10
152.985609602
 20
75.5726288011
 30
0.0
 11
152.985609602
 21
75.556751784
 31
0.0
  0
SPLINE
  5
B7
330
1F
100
AcDbEntity
  8
0
  6
Continuous
 62
     7
370
    15
100
AcDbSpline
210
0.0
220
0.0
230
1.0
 70
     8
 71
     3
 72
    22
 73
    18
 74
     0
 42
0.000000001
 43
0.00000001
 40
0.0
 40
0.0
 40
0.0
 40
0.0
 40
0.0515773377536172
 40
0.1565264849943629
 40
0.2100197540385886
 40
0.2615951369298746
 40
0.3664424119934943
 40
0.4198226601719804
 40
0.4724528789006786
 40
0.5794488992297344
 40
0.6339397336480286
 40
0.6872670452602943
 40
0.7409741315029978
 40
0.7958968813361827
 40
0.8512481408256359
 40
0.9034470736265863
 40
1.0
 40
1.0
 40
1.0
 40
1.0
 10
160.9856096020075
 20
137.5239472571633
 30
0.0
 10
160.768799406005
 20
137.5253438782318
 30
0.0
 10
160.1108255870903
 20
137.529582332488
 30
0.0
 10
159.2357306097593
 20
137.5691146568423
 30
0.0
 10
158.3909051149025
 20
137.6320879036842
 30
0.0
 10
157.5711798312983
 20
137.7101019369393
 30
0.0
 10
156.7953898532699
 20
137.8069850648145
 30
0.0
 10
156.0779013919634
 20
137.9152444767305
 30
0.0
 10
155.3986366447913
 20
138.0289628490349
 30
0.0
 10
154.7903216668824
 20
138.1454630339757
 30
0.0
 10
154.2702297261592
 20
138.2545632853927
 30
0.0
 10
153.9263395484431
 20
138.3305671831228
 30
0.0
 10
153.6313858207155
 20
138.3986006390444
 30
0.0
 10
153.3856115333744
 20
138.457313689803
 30
0.0
 10
153.1997092244009
 20
138.5029290697367
 30
0.0
 10
153.0281126186773
 20
138.5458885212972
 30
0.0
 10
153.007983343501
 20
138.5510495430993
 30
0.0
 10
152.9949176888273
 20
138.5543994962416
 30
0.0
  0
LINE
  5
B8
330
1F
100
AcDbEntity
  8
0
  6
Continuous
 62
     7
370
    15
100
AcDbLine
 10
162.6436767705
 20
137.5239472572
 30
0.0
 11
160.985609602
 21
137.5239472572
 31
0.0
  0
LINE
  5
B9
330
1F
100
AcDbEntity
  8
0
  6
Continuous
 62
     7
370
    15
100
AcDbLine
 10
162.6436767705
 20
131.5154414464
 30
0.0
 11
162.6436767705
 21
137.5239472572
 31
0.0
  0
LINE
  5
BA
330
1F
100
AcDbEntity
  8
0
  6
Continuous
 62
     7
370
    15
100
AcDbLine
 10
160.2312299477
 20
131.5154414464
 30
0.0
 11
162.6436767705
 21
131.5154414464
 31
0.0
  0
SPLINE
  5
BB
330
1F
100
AcDbEntity
  8
0
  6
Continuous
 62
     7
370
    15
100
AcDbSpline
210
0.0
220
0.0
230
1.0
 70
     8
 71
     3
 72
    20
 73
    16
 74
     0
 42
0.000000001
 43
0.00000001
 40
0.0
 40
0.0
 40
0.0
 40
0.0
 40
0.2499999999999995
 40
0.2499999999999995
 40
0.3749999999999996
 40
0.3749999999999996
 40
0.4999999999999997
 40
0.4999999999999997
 40
0.6249999999999998
 40
0.6249999999999998
 40
0.7499999999999998
 40
0.7499999999999998
 40
0.8749999999999999
 40
0.8749999999999999
 40
1.0
 40
1.0
 40
1.0
 40
1.0
 10
152.9856096020075
 20
126.906751783999
 30
0.0
 10
153.2339833362956
 20
127.5606142122964
 30
0.0
 10
153.5535534286408
 20
128.1643999942936
 30
0.0
 10
154.1758596618455
 20
128.9912387304622
 30
0.0
 10
154.4072839222763
 20
129.2536673684151
 30
0.0
 10
154.928498261926
 20
129.75033002252
 30
0.0
 10
155.215118744561
 20
129.9809169015416
 30
0.0
 10
155.8346034858687
 20
130.3974711261242
 30
0.0
 10
156.1689038653556
 20
130.5849689280917
 30
0.0
 10
156.8941643379804
 20
130.9163659057281
 30
0.0
 10
157.2760793953709
 20
131.0558698932234
 30
0.0
 10
158.0708675715426
 20
131.2813234006943
 30
0.0
 10
158.4850257657489
 20
131.367949512238
 30
0.0
 10
159.3505721063303
 20
131.4859303010921
 30
0.0
 10
159.7884597213422
 20
131.5154414463665
 30
0.0
 10
160.2312299476968
 20
131.5154414463665
 30
0.0
  0
LINE
  5
BC
330
1F
100
AcDbEntity
  8
0
  6
Continuous
 62
     7
370
    15
100
AcDbLine
 10
173.985609602
 20
77.4964743834
 30
0.0
 11
173.985609602
 21
126.906751784
 31
0.0
  0
SPLINE
  5
BD
330
1F
100
AcDbEntity
  8
0
  6
Continuous
 62
     7
370
    15
100
AcDbSpline
210
0.0
220
0.0
230
1.0
 70
     8
 71
     3
 72
    10
 73
     6
 74
     0
 42
0.000000001
 43
0.00000001
 40
0.0
 40
0.0
 40
0.0
 40
0.0
 40
0.5
 40
0.5
 40
1.0
 40
1.0
 40
1.0
 40
1.0
 10
173.9856096020075
 20
77.49647438340617
 30
0.0
 10
173.9856096020075
 20
77.33658711521251
 30
0.0
 10
173.9242999507716
 20
77.1754598596979
 30
0.0
 10
173.7052003132366
 20
76.94136086134307
 30
0.0
 10
173.5471521069231
 20
76.86983408775184
 30
0.0
 10
173.3856096020075
 20
76.86983408775184
 30
0.0
  0
SPLINE
  5
BE
330
1F
100
AcDbEntity
  8
0
  6
Continuous
 62
     7
370
    15
100
AcDbSpline
210
0.0
220
0.0
230
1.0
 70
    24
 71
     3
 72
    12
 73
     8
 74
     0
 42
0.000000001
 43
0.00000001
 40
0.0
 40
0.0
 40
0.0
 40
0.0
 40
0.250000000000002
 40
0.250000000000002
 40
0.500000000000004
 40
0.500000000000004
 40
1.0
 40
1.0
 40
1.0
 40
1.0
 10
173.3856096020075
 20
126.906751783999
 30
0.0
 10
173.4758486696945
 20
126.906751783999
 30
0.0
 10
173.566746783801
 20
126.906751783999
 30
0.0
 10
173.7213438202895
 20
126.906751783999
 30
0.0
 10
173.7863222363977
 20
126.906751783999
 30
0.0
 10
173.9381572643339
 20
126.906751783999
 30
0.0
 10
173.9856096020075
 20
126.906751783999
 30
0.0
 10
173.9856096020075
 20
126.906751783999
 30
0.0
  0
SPLINE
  5
BF
330
1F
100
AcDbEntity
  8
0
  6
Continuous
 62
     7
370
    15
100
AcDbSpline
210
0.0
220
0.0
230
1.0
 70
     8
 71
     3
 72
    10
 73
     6
 74
     0
 42
0.000000001
 43
0.00000001
 40
0.0
 40
0.0
 40
0.0
 40
0.0
 40
0.5
 40
0.5
 40
1.0
 40
1.0
 40
1.0
 40
1.0
 10
164.5199071336984
 20
133.456751783999
 30
0.0
 10
164.3983668700299
 20
133.5314779512108
 30
0.0
 10
164.297032509681
 20
133.6404229671276
 30
0.0
 10
164.1613935667926
 20
133.8908534478892
 30
0.0
 10
164.1256096020075
 20
134.0332728099881
 30
0.0
 10
164.1256096020075
 20
134.1764056350348
 30
0.0
  0
SPLINE
  5
C0
330
1F
100
AcDbEntity
  8
0
  6
Continuous
 62
     7
370
    15
100
AcDbSpline
210
0.0
220
0.0
230
1.0
 70
    24
 71
     3
 72
    12
 73
     8
 74
     0
 42
0.000000001
 43
0.00000001
 40
0.0
 40
0.0
 40
0.0
 40
0.0
 40
0.2499999999999992
 40
0.2499999999999992
 40
0.4999999999999983
 40
0.4999999999999983
 40
1.0
 40
1.0
 40
1.0
 40
1.0
 10
164.9256096020075
 20
133.456751783999
 30
0.0
 10
164.8757329196902
 20
133.456751783999
 30
0.0
 10
164.8277297262864
 20
133.456751783999
 30
0.0
 10
164.7446816235745
 20
133.456751783999
 30
0.0
 10
164.7085520441066
 20
133.456751783999
 30
0.0
 10
164.6126400131624
 20
133.456751783999
 30
0.0
 10
164.5628813451936
 20
133.456751783999
 30
0.0
 10
164.5199071336984
 20
133.456751783999
 30
0.0
  0
SPLINE
  5
C1
330
1F
100
AcDbEntity
  8
0
  6
Continuous
 62
     7
370
    15
100
AcDbSpline
210
0.0
220
0.0
230
1.0
 70
    24
 71
     3
 72
    14
 73
    10
 74
     0
 42
0.000000001
 43
0.00000001
 40
0.0
 40
0.0
 40
0.0
 40
0.0
 40
0.1250000000000012
 40
0.1250000000000012
 40
0.2500000000000024
 40
0.2500000000000024
 40
0.5000000000000013
 40
0.5000000000000013
 40
1.0
 40
1.0
 40
1.0
 40
1.0
 10
164.9256096020075
 20
80.656751783999
 30
0.0
 10
164.857171754121
 20
80.656751783999
 30
0.0
 10
164.791621715356
 20
80.656751783999
 30
0.0
 10
164.687195075948
 20
80.65675178399901
 30
0.0
 10
164.6446504661866
 20
80.656751783999
 30
0.0
 10
164.5320410056464
 20
80.656751783999
 30
0.0
 10
164.4765019586269
 20
80.656751783999
 30
0.0
 10
164.3338902631631
 20
80.656751783999
 30
0.0
 10
164.2704849081673
 20
80.656751783999
 30
0.0
 10
164.2232844043398
 20
80.656751783999
 30
0.0
  0
SPLINE
  5
C2
330
1F
100
AcDbEntity
  8
0
  6
Continuous
 62
     7
370
    15
100
AcDbSpline
210
0.0
220
0.0
230
1.0
 70
     8
 71
     3
 72
    10
 73
     6
 74
     0
 42
0.000000001
 43
0.00000001
 40
0.0
 40
0.0
 40
0.0
 40
0.0
 40
0.5
 40
0.5
 40
1.0
 40
1.0
 40
1.0
 40
1.0
 10
164.1256096020075
 20
127.1926184154604
 30
0.0
 10
164.1256096020075
 20
127.1448469074671
 30
0.0
 10
164.1277708456047
 20
127.0971371854054
 30
0.0
 10
164.1364422194648
 20
127.0018420678571
 30
0.0
 10
164.1429714024208
 20
126.9541495038905
 30
0.0
 10
164.1517572251676
 20
126.906751783999
 30
0.0
  0
SPLINE
  5
C3
330
1F
100
AcDbEntity
  8
0
  6
Continuous
 62
     7
370
    15
100
AcDbSpline
210
0.0
220
0.0
230
1.0
 70
    24
 71
     3
 72
    14
 73
    10
 74
     0
 42
0.000000001
 43
0.00000001
 40
0.0
 40
0.0
 40
0.0
 40
0.0
 40
0.4999999999999984
 40
0.4999999999999984
 40
0.7499999999999992
 40
0.7499999999999992
 40
0.8749999999999996
 40
0.8749999999999996
 40
1.0
 40
1.0
 40
1.0
 40
1.0
 10
167.8479347996752
 20
80.656751783999
 30
0.0
 10
167.801150094627
 20
80.65675178399901
 30
0.0
 10
167.7390988978474
 20
80.65675178399901
 30
0.0
 10
167.5957072592968
 20
80.656751783999
 30
0.0
 10
167.5395636057456
 20
80.656751783999
 30
0.0
 10
167.4266125836095
 20
80.65675178399901
 30
0.0
 10
167.3836118215713
 20
80.65675178399901
 30
0.0
 10
167.2795491112648
 20
80.656751783999
 30
0.0
 10
167.2142168729079
 20
80.65675178399903
 30
0.0
 10
167.1456096020075
 20
80.656751783999
 30
0.0
  0
SPLINE
  5
C4
330
1F
100
AcDbEntity
  8
0
  6
Continuous
 62
     7
370
    15
100
AcDbSpline
210
0.0
220
0.0
230
1.0
 70
    24
 71
     3
 72
    12
 73
     8
 74
     0
 42
0.000000001
 43
0.00000001
 40
0.0
 40
0.0
 40
0.0
 40
0.0
 40
0.5000000000000017
 40
0.5000000000000017
 40
0.7500000000000008
 40
0.7500000000000008
 40
1.0
 40
1.0
 40
1.0
 40
1.0
 10
167.5513120703165
 20
133.456751783999
 30
0.0
 10
167.5082265207056
 20
133.456751783999
 30
0.0
 10
167.4590743189562
 20
133.456751783999
 30
0.0
 10
167.3626017246683
 20
133.456751783999
 30
0.0
 10
167.3265001395337
 20
133.456751783999
 30
0.0
 10
167.2433943816725
 20
133.456751783999
 30
0.0
 10
167.1953977847062
 20
133.456751783999
 30
0.0
 10
167.1456096020075
 20
133.456751783999
 30
0.0
  0
SPLINE
  5
C5
330
1F
100
AcDbEntity
  8
0
  6
Continuous
 62
     7
370
    15
100
AcDbSpline
210
0.0
220
0.0
230
1.0
 70
     8
 71
     3
 72
    10
 73
     6
 74
     0
 42
0.000000001
 43
0.00000001
 40
0.0
 40
0.0
 40
0.0
 40
0.0
 40
0.5
 40
0.5
 40
1.0
 40
1.0
 40
1.0
 40
1.0
 10
167.9456096020075
 20
134.1764056350348
 30
0.0
 10
167.9456096020075
 20
134.0326355772168
 30
0.0
 10
167.9095605432886
 20
133.8902162147216
 30
0.0
 10
167.7740516825146
 20
133.6403219213644
 30
0.0
 10
167.6741756894184
 20
133.5322915851162
 30
0.0
 10
167.5513120703165
 20
133.456751783999
 30
0.0
  0
SPLINE
  5
C6
330
1F
100
AcDbEntity
  8
0
  6
Continuous
 62
     7
370
    15
100
AcDbSpline
210
0.0
220
0.0
230
1.0
 70
     8
 71
     3
 72
    10
 73
     6
 74
     0
 42
0.000000001
 43
0.00000001
 40
0.0
 40
0.0
 40
0.0
 40
0.0
 40
0.5
 40
0.5
 40
1.0
 40
1.0
 40
1.0
 40
1.0
 10
167.9194619788474
 20
126.906751783999
 30
0.0
 10
167.928151621759
 20
126.9536306333172
 30
0.0
 10
167.9346906865095
 20
127.0010530987184
 30
0.0
 10
167.9434493209025
 20
127.0969898973052
 30
0.0
 10
167.9456096020075
 20
127.1449051853157
 30
0.0
 10
167.9456096020075
 20
127.1926184154602
 30
0.0
  0
LINE
  5
C7
330
1F
100
AcDbEntity
  8
0
  6
Continuous
 62
     7
370
    15
100
AcDbLine
 10
167.145609602
 20
133.456751784
 30
0.0
 11
164.925609602
 21
133.456751784
 31
0.0
  0
LINE
  5
C8
330
1F
100
AcDbEntity
  8
0
  6
Continuous
 62
     7
370
    15
100
AcDbLine
 10
167.145609602
 20
80.656751784
 30
0.0
 11
164.925609602
 21
80.656751784
 31
0.0
  0
LINE
  5
C9
330
1F
100
AcDbEntity
  8
0
  6
Continuous
 62
     7
370
    15
100
AcDbLine
 10
126.235609602
 20
83.8283048902
 30
0.0
 11
126.235609602
 21
85.0930142528
 31
0.0
  0
SPLINE
  5
CA
330
1F
100
AcDbEntity
  8
0
  6
Continuous
 62
     7
370
    15
100
AcDbSpline
210
0.0
220
0.0
230
1.0
 70
     8
 71
     3
 72
    14
 73
    10
 74
     0
 42
0.000000001
 43
0.00000001
 40
0.0
 40
0.0
 40
0.0
 40
0.0
 40
0.25
 40
0.25
 40
0.5
 40
0.5
 40
0.75
 40
0.75
 40
1.0
 40
1.0
 40
1.0
 40
1.0
 10
125.4573224840918
 20
86.22360046043906
 30
0.0
 10
125.5139491592939
 20
86.1159030066022
 30
0.0
 10
125.6084718195836
 20
86.01311342488287
 30
0.0
 10
125.7915167951458
 20
85.81475611266274
 30
0.0
 10
125.8831433721005
 20
85.71869660398448
 30
0.0
 10
126.0419966897937
 20
85.53116756127524
 30
0.0
 10
126.1098872974154
 20
85.43975858849167
 30
0.0
 10
126.206804323123
 20
85.26138236758153
 30
0.0
 10
126.2356096020081
 20
85.17416046133536
 30
0.0
 10
126.2356096020081
 20
85.09301425280111
 30
0.0
  0
SPLINE
  5
CB
330
1F
100
AcDbEntity
  8
0
  6
Continuous
 62
     7
370
    15
100
AcDbSpline
210
0.0
220
0.0
230
1.0
 70
     8
 71
     3
 72
    14
 73
    10
 74
     0
 42
0.000000001
 43
0.00000001
 40
0.0
 40
0.0
 40
0.0
 40
0.0
 40
0.125
 40
0.125
 40
0.25
 40
0.25
 40
0.5
 40
0.5
 40
1.0
 40
1.0
 40
1.0
 40
1.0
 10
124.8356096020075
 20
86.67028232271838
 30
0.0
 10
124.8841540106647
 20
86.67603063599867
 30
0.0
 10
124.9370693654496
 20
86.67292974734244
 30
0.0
 10
125.0323647104326
 20
86.65073490318011
 30
0.0
 10
125.0726157077175
 20
86.63350267608425
 30
0.0
 10
125.1768857212305
 20
86.57717475963219
 30
0.0
 10
125.2272076963838
 20
86.53298841368638
 30
0.0
 10
125.3548906439092
 20
86.40198051483576
 30
0.0
 10
125.4109760909715
 20
86.31174599460547
 30
0.0
 10
125.4573224840933
 20
86.22360046043958
 30
0.0
  0
SPLINE
  5
CC
330
1F
100
AcDbEntity
  8
0
  6
Continuous
 62
     7
370
    15
100
AcDbSpline
210
0.0
220
0.0
230
1.0
 70
     8
 71
     3
 72
     8
 73
     4
 74
     0
 42
0.000000001
 43
0.00000001
 40
0.0
 40
0.0
 40
0.0
 40
0.0
 40
1.0
 40
1.0
 40
1.0
 40
1.0
 10
122.5670845090612
 20
86.36043703613558
 30
0.0
 10
123.3016615355442
 20
86.47906204720454
 30
0.0
 10
124.0651366049399
 20
86.57904791934084
 30
0.0
 10
124.8356096020075
 20
86.67028232271838
 30
0.0
  0
SPLINE
  5
CD
330
1F
100
AcDbEntity
  8
0
  6
Continuous
 62
     7
370
    15
100
AcDbSpline
210
0.0
220
0.0
230
1.0
 70
     8
 71
     3
 72
    14
 73
    10
 74
     0
 42
0.000000001
 43
0.00000001
 40
0.0
 40
0.0
 40
0.0
 40
0.0
 40
0.5000000000000002
 40
0.5000000000000002
 40
0.7500000000000002
 40
0.7500000000000002
 40
0.8750000000000001
 40
0.8750000000000001
 40
1.0
 40
1.0
 40
1.0
 40
1.0
 10
117.2856096020075
 20
86.18681401860394
 30
0.0
 10
118.1777557325611
 20
86.18609179240329
 30
0.0
 10
119.0677321683546
 20
86.19067799886075
 30
0.0
 10
120.3943273354302
 20
86.21840300325229
 30
0.0
 10
120.835174263929
 20
86.23100954087646
 30
0.0
 10
121.4916145013514
 20
86.2620256888839
 30
0.0
 10
121.7096281579433
 20
86.27436886151068
 30
0.0
 10
122.142337011626
 20
86.30739291667395
 30
0.0
 10
122.3576134767908
 20
86.3266100818124
 30
0.0
 10
122.5670845090612
 20
86.36043703613558
 30
0.0
  0
SPLINE
  5
CE
330
1F
100
AcDbEntity
  8
0
  6
Continuous
 62
     7
370
    15
100
AcDbSpline
210
0.0
220
0.0
230
1.0
 70
     8
 71
     3
 72
     8
 73
     4
 74
     0
 42
0.000000001
 43
0.00000001
 40
0.0000005163856998
 40
0.0000005163856998
 40
0.0000005163856998
 40
0.0000005163856998
 40
0.000026289209185
 40
0.000026289209185
 40
0.000026289209185
 40
0.000026289209185
 10
117.2755646715999
 20
86.19679789170073
 30
0.0
 10
117.2788924098077
 20
86.19346364483161
 30
0.0
 10
117.2822408627833
 20
86.19013568755629
 30
0.0
 10
117.2856096020075
 20
86.18681401860393
 30
0.0
  0
SPLINE
  5
CF
330
1F
100
AcDbEntity
  8
0
  6
Continuous
 62
     7
370
    15
100
AcDbSpline
210
0.0
220
0.0
230
1.0
 70
     8
 71
     3
 72
     8
 73
     4
 74
     0
 42
0.000000001
 43
0.00000001
 40
0.0000005099763573
 40
0.0000005099763573
 40
0.0000005099763573
 40
0.0000005099763573
 40
0.0000262827998699
 40
0.0000262827998699
 40
0.0000262827998699
 40
0.0000262827998699
 10
117.2856096020075
 20
127.9266895493941
 30
0.0
 10
117.2822408627797
 20
127.9233678804382
 30
0.0
 10
117.2788924098006
 20
127.9200399231593
 30
0.0
 10
117.2755646715893
 20
127.9167056762867
 30
0.0
  0
SPLINE
  5
D0
330
1F
100
AcDbEntity
  8
0
  6
Continuous
 62
     7
370
    15
100
AcDbSpline
210
0.0
220
0.0
230
1.0
 70
     8
 71
     3
 72
    10
 73
     6
 74
     0
 42
0.000000001
 43
0.00000001
 40
0.0
 40
0.0
 40
0.0
 40
0.0
 40
0.5
 40
0.5
 40
1.0
 40
1.0
 40
1.0
 40
1.0
 10
120.8356096020075
 20
127.8798391758267
 30
0.0
 10
120.2480240549169
 20
127.9009046960632
 30
0.0
 10
119.6572776614565
 20
127.9116631819354
 30
0.0
 10
118.4732584961577
 20
127.925027962471
 30
0.0
 10
117.8798445079522
 20
127.9271706051356
 30
0.0
 10
117.2856096020075
 20
127.9266895493941
 30
0.0
  0
SPLINE
  5
D1
330
1F
100
AcDbEntity
  8
0
  6
Continuous
 62
     7
370
    15
100
AcDbSpline
210
0.0
220
0.0
230
1.0
 70
     8
 71
     3
 72
    18
 73
    14
 74
     0
 42
0.000000001
 43
0.00000001
 40
0.0
 40
0.0
 40
0.0
 40
0.0
 40
0.2500000000000008
 40
0.2500000000000008
 40
0.5000000000000009
 40
0.5000000000000009
 40
0.7500000000000009
 40
0.7500000000000009
 40
0.875000000000001
 40
0.875000000000001
 40
0.9375000000000006
 40
0.9375000000000006
 40
1.0
 40
1.0
 40
1.0
 40
1.0
 10
122.2356096020075
 20
128.900859456362
 30
0.0
 10
122.2356096020075
 20
128.8176525475048
 30
0.0
 10
122.1997605020693
 20
128.7289158921912
 30
0.0
 10
122.0748887660353
 20
128.546790701631
 30
0.0
 10
121.9844883483875
 20
128.4516606530044
 30
0.0
 10
121.7622456936453
 20
128.2624791438801
 30
0.0
 10
121.6324809071995
 20
128.1675339757853
 30
0.0
 10
121.391843449888
 20
128.0292552682054
 30
0.0
 10
121.3040761517506
 20
127.983544834903
 30
0.0
 10
121.1495520645437
 20
127.9257215296816
 30
0.0
 10
121.092941178489
 20
127.9080067656437
 30
0.0
 10
120.9688971475824
 20
127.8834674624108
 30
0.0
 10
120.9011824725641
 20
127.8774883238725
 30
0.0
 10
120.8356096020075
 20
127.8798391758267
 30
0.0
  0
LINE
  5
D2
330
1F
100
AcDbEntity
  8
0
  6
Continuous
 62
     7
370
    15
100
AcDbLine
 10
122.235609602
 20
128.9008594564
 30
0.0
 11
122.235609602
 21
130.0847978762
 31
0.0
  0
LINE
  5
D3
330
1F
100
AcDbEntity
  8
0
  6
Continuous
 62
     7
370
    15
100
AcDbLine
 10
146.035609602
 20
82.8363209223
 30
0.0
 11
146.035609602
 21
131.2771826457
 31
0.0
  0
SPLINE
  5
D4
330
1F
100
AcDbEntity
  8
0
  6
Continuous
 62
     7
370
    15
100
AcDbSpline
210
0.0
220
0.0
230
1.0
 70
     8
 71
     3
 72
    24
 73
    20
 74
     0
 42
0.000000001
 43
0.00000001
 40
0.0
 40
0.0
 40
0.0
 40
0.0
 40
0.0010489762969682
 40
0.0637843125639767
 40
0.1272220590447889
 40
0.19037889244876
 40
0.2526748653693632
 40
0.3146354154433589
 40
0.3770891997149993
 40
0.4393540298512636
 40
0.5008133242537819
 40
0.5621845104587263
 40
0.6248438451115537
 40
0.6874304766616293
 40
0.7496743174679374
 40
0.8119848426977089
 40
0.875096052541316
 40
0.9384412526965075
 40
0.9999999999999999
 40
0.9999999999999999
 40
0.9999999999999999
 40
0.9999999999999999
 10
134.8045154339832
 20
83.39924335541888
 30
0.0
 10
134.804068973879
 20
83.39918506959997
 30
0.0
 10
134.7769214101852
 20
83.39564092765737
 30
0.0
 10
134.8725331877989
 20
83.40847467234023
 30
0.0
 10
135.1060934456933
 20
83.43772135754035
 30
0.0
 10
135.5016477530104
 20
83.48433568060327
 30
0.0
 10
136.0286880568511
 20
83.53451882226267
 30
0.0
 10
136.672218468839
 20
83.57889528471293
 30
0.0
 10
137.410892324084
 20
83.60584006565055
 30
0.0
 10
138.2084068295146
 20
83.60931191635645
 30
0.0
 10
139.0349857119568
 20
83.58168467232683
 30
0.0
 10
139.8605087295639
 20
83.52320578335356
 30
0.0
 10
140.652635277565
 20
83.43776075399353
 30
0.0
 10
141.3852075515705
 20
83.33602651415717
 30
0.0
 10
142.0208477882987
 20
83.22818339218429
 30
0.0
 10
142.5427588953084
 20
83.12655323544519
 30
0.0
 10
142.9243876724238
 20
83.04406807876694
 30
0.0
 10
143.1752021426577
 20
82.98791887241731
 30
0.0
 10
143.204323698642
 20
82.98106941380357
 30
0.0
 10
143.2186762194582
 20
82.97769366707539
 30
0.0
  0
SPLINE
  5
D5
330
1F
100
AcDbEntity
  8
0
  6
Continuous
 62
     7
370
    15
100
AcDbSpline
210
0.0
220
0.0
230
1.0
 70
     8
 71
     3
 72
    24
 73
    20
 74
     0
 42
0.000000001
 43
0.00000001
 40
0.0
 40
0.0
 40
0.0
 40
0.0
 40
0.061438427625136
 40
0.1250736755369643
 40
0.1884253490730172
 40
0.2508623904037476
 40
0.3129665632512369
 40
0.3753451453465166
 40
0.4377328972325402
 40
0.4990927322917273
 40
0.5605807588448041
 40
0.6229469893028856
 40
0.6854686282026866
 40
0.7475477813740222
 40
0.8098225060807238
 40
0.8730684085990468
 40
0.9364041844533111
 40
0.9991757196257863
 40
1.0
 40
1.0
 40
1.0
 40
1.0
 10
143.2186214486552
 20
131.1357807584564
 30
0.0
 10
143.2040207243515
 20
131.1324127016038
 30
0.0
 10
143.174297205623
 20
131.12555615813
 30
0.0
 10
142.9215593899749
 20
131.069217537604
 30
0.0
 10
142.5385634735259
 20
130.986360455474
 30
0.0
 10
142.0162078890878
 20
130.8844534255227
 30
0.0
 10
141.3814234110878
 20
130.7766142864789
 30
0.0
 10
140.6511998069153
 20
130.6751473345038
 30
0.0
 10
139.8607312216817
 20
130.5900876208131
 30
0.0
 10
139.0362477068533
 20
130.5318833269268
 30
0.0
 10
138.20921124797
 20
130.5042998881002
 30
0.0
 10
137.410886980318
 20
130.507792865593
 30
0.0
 10
136.6710630160288
 20
130.5347487854461
 30
0.0
 10
136.0268087830534
 20
130.5791027274454
 30
0.0
 10
135.4994015278376
 20
130.6293081772032
 30
0.0
 10
135.1047369256878
 20
130.6759180324016
 30
0.0
 10
134.8722076465029
 20
130.7051136249489
 30
0.0
 10
134.7768276139506
 20
130.7178916938907
 30
0.0
 10
134.8037612508521
 20
130.7143374353824
 30
0.0
 10
134.8041103440764
 20
130.7142913677991
 30
0.0
  0
SPLINE
  5
D6
330
1F
100
AcDbEntity
  8
0
  6
Continuous
 62
     7
370
    15
100
AcDbSpline
210
0.0
220
0.0
230
1.0
 70
     8
 71
     3
 72
    10
 73
     6
 74
     0
 42
0.000000001
 43
0.00000001
 40
0.0
 40
0.0
 40
0.0
 40
0.0
 40
0.0840381716606348
 40
0.7011125076933074
 40
1.0
 40
1.0
 40
1.0
 40
1.0
 10
116.1491565645432
 20
87.32797787631567
 30
0.0
 10
116.1498311218781
 20
87.32577224947978
 30
0.0
 10
116.1554588095743
 20
87.30737117611756
 30
0.0
 10
116.1817802897011
 20
87.32160573884073
 30
0.0
 10
116.1942153065458
 20
87.36729151439172
 30
0.0
 10
116.1982729767309
 20
87.38219923921828
 30
0.0
  0
LINE
  5
D7
330
1F
100
AcDbEntity
  8
0
  6
Continuous
 62
     7
370
    15
100
AcDbLine
 10
116.135609602
 20
87.3660740375
 30
0.0
 11
116.135609602
 21
126.7474295305
 31
0.0
  0
SPLINE
  5
D8
330
1F
100
AcDbEntity
  8
0
  6
Continuous
 62
     7
370
    15
100
AcDbSpline
210
0.0
220
0.0
230
1.0
 70
     8
 71
     3
 72
     9
 73
     5
 74
     0
 42
0.000000001
 43
0.00000001
 40
0.0
 40
0.0
 40
0.0
 40
0.0
 40
0.8063521891319351
 40
1.0
 40
1.0
 40
1.0
 40
1.0
 10
116.1982729767309
 20
126.7313043287797
 30
0.0
 10
116.1820881166338
 20
126.7676327602999
 30
0.0
 10
116.1620164155642
 20
126.812685569742
 30
0.0
 10
116.1527811824206
 20
126.7862829437481
 30
0.0
 10
116.1509927997395
 20
126.7811701330232
 30
0.0
  0
SPLINE
  5
D9
330
1F
100
AcDbEntity
  8
0
  6
Continuous
 62
     7
370
    15
100
AcDbSpline
210
0.0
220
0.0
230
1.0
 70
     8
 71
     3
 72
    26
 73
    22
 74
     0
 42
0.000000001
 43
0.00000001
 40
0.0
 40
0.0
 40
0.0
 40
0.0
 40
0.2500000000000165
 40
0.2500000000000165
 40
0.3750000000000256
 40
0.3750000000000256
 40
0.4375000000000291
 40
0.4375000000000291
 40
0.4687500000000291
 40
0.4687500000000291
 40
0.5000000000000292
 40
0.5000000000000292
 40
0.5312500000000293
 40
0.5312500000000293
 40
0.5625000000000293
 40
0.5625000000000293
 40
0.625000000000026
 40
0.625000000000026
 40
0.7500000000000173
 40
0.7500000000000173
 40
1.0
 40
1.0
 40
1.0
 40
1.0
 10
116.959763248112
 20
127.4468711175968
 30
0.0
 10
116.9211627252435
 20
127.3290964212414
 30
0.0
 10
116.8748657226893
 20
127.2047067350795
 30
0.0
 10
116.7809263742554
 20
126.999487402726
 30
0.0
 10
116.7456149073419
 20
126.9279145362795
 30
0.0
 10
116.6794349315962
 20
126.8119613036791
 30
0.0
 10
116.654896564928
 20
126.7713767688688
 30
0.0
 10
116.6115238193742
 20
126.7072350869971
 30
0.0
 10
116.596015417949
 20
126.6853686617121
 30
0.0
 10
116.560972773362
 20
126.6397743933689
 30
0.0
 10
116.5414224826422
 20
126.6161041024015
 30
0.0
 10
116.4994952022716
 20
126.5714875430615
 30
0.0
 10
116.47684309204
 20
126.5506075305436
 30
0.0
 10
116.4358693779533
 20
126.5197341167928
 30
0.0
 10
116.4182700780579
 20
126.5098952469604
 30
0.0
 10
116.3736430922018
 20
126.4909056312642
 30
0.0
 10
116.3530838695484
 20
126.4905813066107
 30
0.0
 10
116.3019584300518
 20
126.499804747487
 30
0.0
 10
116.2810470170632
 20
126.5210516437039
 30
0.0
 10
116.2295971095023
 20
126.5950205225347
 30
0.0
 10
116.2119318101977
 20
126.6611386158495
 30
0.0
 10
116.1982729767309
 20
126.7313043287797
 30
0.0
  0
SPLINE
  5
DA
330
1F
100
AcDbEntity
  8
0
  6
Continuous
 62
     7
370
    15
100
AcDbSpline
210
0.0
220
0.0
230
1.0
 70
     8
 71
     3
 72
    10
 73
     6
 74
     0
 42
0.000000001
 43
0.00000001
 40
0.0
 40
0.0
 40
0.0
 40
0.0
 40
0.5
 40
0.5
 40
1.0
 40
1.0
 40
1.0
 40
1.0
 10
117.2755646715893
 20
127.9167056762867
 30
0.0
 10
117.208005416671
 20
127.8490142834769
 30
0.0
 10
117.1443687613345
 20
127.7743071187233
 30
0.0
 10
117.0341480067627
 20
127.6153409862966
 30
0.0
 10
116.9873317135401
 20
127.5309857202886
 30
0.0
 10
116.959763248112
 20
127.4468711175968
 30
0.0
  0
SPLINE
  5
DB
330
1F
100
AcDbEntity
  8
0
  6
Continuous
 62
     7
370
    15
100
AcDbSpline
210
0.0
220
0.0
230
1.0
 70
     8
 71
     3
 72
    10
 73
     6
 74
     0
 42
0.000000001
 43
0.00000001
 40
0.0
 40
0.0
 40
0.0
 40
0.0
 40
0.5
 40
0.5
 40
1.0
 40
1.0
 40
1.0
 40
1.0
 10
116.9597632481121
 20
86.66663245040104
 30
0.0
 10
116.987240662866
 20
86.58279565393315
 30
0.0
 10
117.0339492931554
 20
86.49848516634401
 30
0.0
 10
117.1442277559014
 20
86.3393639358573
 30
0.0
 10
117.2081152945153
 20
86.26437919176766
 30
0.0
 10
117.2755646715999
 20
86.19679789170073
 30
0.0
  0
SPLINE
  5
DC
330
1F
100
AcDbEntity
  8
0
  6
Continuous
 62
     7
370
    15
100
AcDbSpline
210
0.0
220
0.0
230
1.0
 70
     8
 71
     3
 72
    24
 73
    20
 74
     0
 42
0.000000001
 43
0.00000001
 40
0.0
 40
0.0
 40
0.0
 40
0.0
 40
0.249999999999999
 40
0.249999999999999
 40
0.3749999999999983
 40
0.3749999999999983
 40
0.4374999999999987
 40
0.4374999999999987
 40
0.4687499999999975
 40
0.4687499999999975
 40
0.4999999999999963
 40
0.4999999999999963
 40
0.5624999999999984
 40
0.5624999999999984
 40
0.6250000000000006
 40
0.6250000000000006
 40
0.7500000000000001
 40
0.7500000000000001
 40
1.0
 40
1.0
 40
1.0
 40
1.0
 10
116.1982729767309
 20
87.38219923921828
 30
0.0
 10
116.2120260954011
 20
87.45284929720856
 30
0.0
 10
116.229798662807
 20
87.51944740997347
 30
0.0
 10
116.2820497543623
 20
87.59354543020669
 30
0.0
 10
116.3030848299439
 20
87.61480323736824
 30
0.0
 10
116.3559852375723
 20
87.62294916351449
 30
0.0
 10
116.3770909104503
 20
87.6220093601187
 30
0.0
 10
116.4231430791282
 20
87.60099336854135
 30
0.0
 10
116.4415135511116
 20
87.59008456243374
 30
0.0
 10
116.4830651861773
 20
87.55744965148638
 30
0.0
 10
116.5056318589343
 20
87.535957671115
 30
0.0
 10
116.5684128753943
 20
87.46749172752868
 30
0.0
 10
116.6015426363622
 20
87.4214172693236
 30
0.0
 10
116.6584603228472
 20
87.33640938098893
 30
0.0
 10
116.6826463483509
 20
87.29612907980754
 30
0.0
 10
116.7478542987307
 20
87.18119285334161
 30
0.0
 10
116.7825703589219
 20
87.11060986819459
 30
0.0
 10
116.8757856292528
 20
86.906404109116
 30
0.0
 10
116.9214581646135
 20
86.78350572678865
 30
0.0
 10
116.959763248112
 20
86.66663245040107
 30
0.0
  0
SPLINE
  5
DD
330
1F
100
AcDbEntity
  8
0
  6
Continuous
 62
     7
370
    15
100
AcDbSpline
210
0.0
220
0.0
230
1.0
 70
     8
 71
     3
 72
    10
 73
     6
 74
     0
 42
0.000000001
 43
0.00000001
 40
0.0
 40
0.0
 40
0.0
 40
0.0
 40
0.5
 40
0.5
 40
1.0
 40
1.0
 40
1.0
 40
1.0
 10
173.9856096020075
 20
136.9031921077629
 30
0.0
 10
173.9856096020075
 20
137.0635973741137
 30
0.0
 10
173.9233717709006
 20
137.2226591871023
 30
0.0
 10
173.7042368471581
 20
137.4535716527326
 30
0.0
 10
173.5466481521662
 20
137.5239472571633
 30
0.0
 10
173.3856096020075
 20
137.5239472571633
 30
0.0
  0
SPLINE
  5
DE
330
1F
100
AcDbEntity
  8
0
  6
Continuous
 62
     7
370
    15
100
AcDbSpline
210
0.0
220
0.0
230
1.0
 70
     8
 71
     3
 72
    12
 73
     8
 74
     0
 42
0.000000001
 43
0.00000001
 40
0.0
 40
0.0
 40
0.0
 40
0.0
 40
0.250000000000002
 40
0.250000000000002
 40
0.500000000000004
 40
0.500000000000004
 40
1.0
 40
1.0
 40
1.0
 40
1.0
 10
173.3856096020075
 20
131.5154414463665
 30
0.0
 10
173.4768093238332
 20
131.5154414463665
 30
0.0
 10
173.5674043329692
 20
131.4872217477786
 30
0.0
 10
173.7208170594158
 20
131.3927787405304
 30
0.0
 10
173.7860259267395
 20
131.3264917638251
 30
0.0
 10
173.9388104560794
 20
131.1008669405369
 30
0.0
 10
173.9856096020075
 20
130.9184406775043
 30
0.0
 10
173.9856096020075
 20
130.7377040452574
 30
0.0
  0
LINE
  5
DF
330
1F
100
AcDbEntity
  8
0
  6
Continuous
 62
     7
370
    15
100
AcDbLine
 10
173.985609602
 20
130.7377040453
 30
0.0
 11
173.985609602
 21
136.9031921078
 31
0.0
  0
SPLINE
  5
E0
330
1F
100
AcDbEntity
  8
0
  6
Continuous
 62
     7
370
    15
100
AcDbSpline
210
0.0
220
0.0
230
1.0
 70
     8
 71
     3
 72
     8
 73
     4
 74
     0
 42
0.000000001
 43
0.00000001
 40
0.0
 40
0.0
 40
0.0
 40
0.0
 40
1.0
 40
1.0
 40
1.0
 40
1.0
 10
162.6436767705185
 20
131.5154414463665
 30
0.0
 10
163.1507636122777
 20
130.3842910922028
 30
0.0
 10
163.6463314514177
 20
129.247906681435
 30
0.0
 10
164.1256096020075
 20
128.1068954515823
 30
0.0
  0
LINE
  5
E1
330
1F
100
AcDbEntity
  8
0
  6
Continuous
 62
     7
370
    15
100
AcDbLine
 10
164.125609602
 20
128.1068954516
 30
0.0
 11
164.125609602
 21
127.1926184155
 31
0.0
  0
SPLINE
  5
E2
330
1F
100
AcDbEntity
  8
0
  6
Continuous
 62
     7
370
    15
100
AcDbSpline
210
0.0
220
0.0
230
1.0
 70
     8
 71
     3
 72
     8
 73
     4
 74
     0
 42
0.000000001
 43
0.00000001
 40
0.0
 40
0.0
 40
0.0
 40
0.0
 40
1.0
 40
1.0
 40
1.0
 40
1.0
 10
169.4275424334966
 20
137.5239472571633
 30
0.0
 10
168.9324024041322
 20
136.637267608983
 30
0.0
 10
168.4383196988533
 20
135.750004973297
 30
0.0
 10
167.9456096020075
 20
134.8619859751706
 30
0.0
  0
LINE
  5
E3
330
1F
100
AcDbEntity
  8
0
  6
Continuous
 62
     7
370
    15
100
AcDbLine
 10
169.4275424335
 20
131.5154414464
 30
0.0
 11
169.4275424335
 21
137.5239472572
 31
0.0
  0
SPLINE
  5
E4
330
1F
100
AcDbEntity
  8
0
  6
Continuous
 62
     7
370
    15
100
AcDbSpline
210
0.0
220
0.0
230
1.0
 70
     8
 71
     3
 72
     8
 73
     4
 74
     0
 42
0.000000001
 43
0.00000001
 40
0.0
 40
0.0
 40
0.0
 40
0.0
 40
1.0
 40
1.0
 40
1.0
 40
1.0
 10
167.9456096020075
 20
128.1068954515823
 30
0.0
 10
168.4248877525973
 20
129.2479066814349
 30
0.0
 10
168.9204555917373
 20
130.3842910922028
 30
0.0
 10
169.4275424334966
 20
131.5154414463665
 30
0.0
  0
LINE
  5
E5
330
1F
100
AcDbEntity
  8
0
  6
Continuous
 62
     7
370
    15
100
AcDbLine
 10
167.945609602
 20
128.1068954516
 30
0.0
 11
167.945609602
 21
134.8619859752
 31
0.0
  0
LINE
  5
E6
330
1F
100
AcDbEntity
  8
0
  6
Continuous
 62
     7
370
    15
100
AcDbLine
 10
173.385609602
 20
137.5239472572
 30
0.0
 11
169.4275424335
 21
137.5239472572
 31
0.0
  0
LINE
  5
E7
330
1F
100
AcDbEntity
  8
0
  6
Continuous
 62
     7
370
    15
100
AcDbLine
 10
169.4275424335
 20
131.5154414464
 30
0.0
 11
173.385609602
 21
131.5154414464
 31
0.0
  0
SPLINE
  5
E8
330
1F
100
AcDbEntity
  8
0
  6
Continuous
 62
     7
370
    15
100
AcDbSpline
210
0.0
220
0.0
230
1.0
 70
     8
 71
     3
 72
     8
 73
     4
 74
     0
 42
0.000000001
 43
0.00000001
 40
0.0
 40
0.0
 40
0.0
 40
0.0
 40
1.0
 40
1.0
 40
1.0
 40
1.0
 10
164.1256096020075
 20
134.8619859751706
 30
0.0
 10
163.6328995051617
 20
135.750004973297
 30
0.0
 10
163.1388167998828
 20
136.637267608983
 30
0.0
 10
162.6436767705185
 20
137.5239472571633
 30
0.0
  0
LINE
  5
E9
330
1F
100
AcDbEntity
  8
0
  6
Continuous
 62
     7
370
    15
100
AcDbLine
 10
164.125609602
 20
128.1068954516
 30
0.0
 11
164.125609602
 21
134.8619859752
 31
0.0
  0
LINE
  5
EA
330
1F
100
AcDbEntity
  8
0
  6
Continuous
 62
     7
370
    15
100
AcDbLine
 10
167.945609602
 20
127.1926184155
 30
0.0
 11
167.945609602
 21
128.1068954516
 31
0.0
  0
LINE
  5
EB
330
1F
100
AcDbEntity
  8
0
  6
Continuous
 62
     7
370
    15
100
AcDbLine
 10
173.985609602
 20
130.7377040453
 30
0.0
 11
173.985609602
 21
126.906751784
 31
0.0
  0
SPLINE
  5
EC
330
1F
100
AcDbEntity
  8
0
  6
Continuous
 62
     7
370
    15
100
AcDbSpline
210
0.0
220
0.0
230
1.0
 70
    11
 71
     3
 72
    64
 73
    60
 74
     0
 42
0.000000001
 43
0.00000001
 40
0.0
 40
0.0
 40
0.0
 40
0.0
 40
0.0312500000000001
 40
0.0312500000000001
 40
0.0625000000000002
 40
0.0625000000000002
 40
0.0937500000000004
 40
0.0937500000000004
 40
0.1250000000000005
 40
0.1250000000000005
 40
0.1562500000000006
 40
0.1562500000000006
 40
0.1875000000000007
 40
0.1875000000000007
 40
0.2187500000000009
 40
0.2187500000000009
 40
0.250000000000001
 40
0.250000000000001
 40
0.2812500000000011
 40
0.2812500000000011
 40
0.3125000000000012
 40
0.3125000000000012
 40
0.3437500000000014
 40
0.3437500000000014
 40
0.3750000000000015
 40
0.3750000000000015
 40
0.4062500000000016
 40
0.4062500000000016
 40
0.4375000000000018
 40
0.4375000000000018
 40
0.4687500000000019
 40
0.4687500000000019
 40
0.500000000000002
 40
0.500000000000002
 40
0.5312500000000021
 40
0.5312500000000021
 40
0.5625000000000022
 40
0.5625000000000022
 40
0.6250000000000027
 40
0.6250000000000027
 40
0.687500000000003
 40
0.687500000000003
 40
0.7187500000000026
 40
0.7187500000000026
 40
0.7500000000000021
 40
0.7500000000000021
 40
0.7812500000000018
 40
0.7812500000000018
 40
0.8125000000000014
 40
0.8125000000000014
 40
0.8437500000000011
 40
0.8437500000000011
 40
0.8750000000000008
 40
0.8750000000000008
 40
0.9062500000000006
 40
0.9062500000000006
 40
0.9375000000000002
 40
0.9375000000000002
 40
1.0
 40
1.0
 40
1.0
 40
1.0
 10
181.4674069271145
 20
109.054019825391
 30
0.0
 10
181.6125334457623
 20
109.1732350422244
 30
0.0
 10
181.766681129073
 20
109.2767579800879
 30
0.0
 10
182.0915803945125
 20
109.4552766143971
 30
0.0
 10
182.2636196589825
 20
109.5306540167488
 30
0.0
 10
182.6189792229193
 20
109.6503263584896
 30
0.0
 10
182.7999185419189
 20
109.6940835903328
 30
0.0
 10
183.1680886257805
 20
109.7507720965461
 30
0.0
 10
183.3571502058282
 20
109.7635840392029
 30
0.0
 10
183.7315222218701
 20
109.7569268489354
 30
0.0
 10
183.9165617534989
 20
109.7378515718172
 30
0.0
 10
184.2823910518712
 20
109.6684298760855
 30
0.0
 10
184.464919553833
 20
109.6172982345928
 30
0.0
 10
184.8137152318846
 20
109.485554255102
 30
0.0
 10
184.9805979914728
 20
109.4052084050142
 30
0.0
 10
185.2990573977723
 20
109.2147154127777
 30
0.0
 10
185.4519855421522
 20
109.1031150720707
 30
0.0
 10
185.729326509229
 20
108.856462741096
 30
0.0
 10
185.8549633815162
 20
108.7211150913558
 30
0.0
 10
186.078593127146
 20
108.4246210596421
 30
0.0
 10
186.1768257668697
 20
108.2618972741816
 30
0.0
 10
186.3328681790868
 20
107.9250434544072
 30
0.0
 10
186.3923191495769
 20
107.7492646563635
 30
0.0
 10
186.4709866262478
 20
107.3816842717963
 30
0.0
 10
186.4889196315532
 20
107.19348355309
 30
0.0
 10
186.4812837795775
 20
106.8208764559583
 30
0.0
 10
186.4553427585046
 20
106.6321002002162
 30
0.0
 10
186.3621660964671
 20
106.2693822268572
 30
0.0
 10
186.2956607490603
 20
106.0952046118944
 30
0.0
 10
186.1241863961806
 20
105.7606267448536
 30
0.0
 10
186.0209639447831
 20
105.6040911017816
 30
0.0
 10
185.7858812470528
 20
105.3155911479484
 30
0.0
 10
185.6520461016532
 20
105.1817417812609
 30
0.0
 10
185.3646403585115
 20
104.9446848169151
 30
0.0
 10
185.2107105745676
 20
104.8405192713982
 30
0.0
 10
184.883012213542
 20
104.6597093134422
 30
0.0
 10
184.7103269273035
 20
104.5840368777693
 30
0.0
 10
184.1814505614028
 20
104.4051330830367
 30
0.0
 10
183.8032107233535
 20
104.3469984950929
 30
0.0
 10
183.0583567168859
 20
104.3593636338628
 30
0.0
 10
182.6822431947255
 20
104.4301319779036
 30
0.0
 10
182.1610261042611
 20
104.6264300870625
 30
0.0
 10
181.9917996652966
 20
104.7075596776084
 30
0.0
 10
181.6702471340606
 20
104.8999640953381
 30
0.0
 10
181.5206295159761
 20
105.0093442759959
 30
0.0
 10
181.2439240287052
 20
105.2550395158699
 30
0.0
 10
181.115568978664
 20
105.3930579521065
 30
0.0
 10
180.8907531884506
 20
105.6916095513191
 30
0.0
 10
180.795131885679
 20
105.8502578705014
 30
0.0
 10
180.6388064577584
 20
106.1872331368426
 30
0.0
 10
180.577829538709
 20
106.3681952445552
 30
0.0
 10
180.5000934976174
 20
106.7335312549812
 30
0.0
 10
180.4821967288545
 20
106.9189956120369
 30
0.0
 10
180.4900819104364
 20
107.2957587339639
 30
0.0
 10
180.5162206021526
 20
107.4831133105366
 30
0.0
 10
180.6093174874292
 20
107.8447778782464
 30
0.0
 10
180.6775177867282
 20
108.0226984174989
 30
0.0
 10
180.933892501518
 20
108.5211859046765
 30
0.0
 10
181.1771538898189
 20
108.8155893917241
 30
0.0
 10
181.4674069271145
 20
109.054019825391
 30
0.0
  0
LINE
  5
ED
330
1F
100
AcDbEntity
  8
0
  6
Continuous
 62
     7
370
    15
100
AcDbLine
 10
189.835609602
 20
107.056751784
 30
0.0
 11
189.835609602
 21
94.556751784
 31
0.0
  0
LINE
  5
EE
330
1F
100
AcDbEntity
  8
0
  6
Continuous
 62
     7
370
    15
100
AcDbLine
 10
189.835609602
 20
119.556751784
 30
0.0
 11
189.835609602
 21
107.056751784
 31
0.0
  0
LINE
  5
EF
330
1F
100
AcDbEntity
  8
0
  6
Continuous
 62
     7
370
    15
100
AcDbLine
 10
190.035609602
 20
107.056751784
 30
0.0
 11
190.035609602
 21
94.756751784
 31
0.0
  0
LINE
  5
F0
330
1F
100
AcDbEntity
  8
0
  6
Continuous
 62
     7
370
    15
100
AcDbLine
 10
190.035609602
 20
119.356751784
 30
0.0
 11
190.035609602
 21
107.056751784
 31
0.0
  0
CIRCLE
  5
F1
330
1F
100
AcDbEntity
  8
0
  6
HIDDEN
 62
     7
370
     0
100
AcDbCircle
 10
183.485609602
 20
107.056751784
 30
0.0
 40
1.776794919243105
  0
CIRCLE
  5
F2
330
1F
100
AcDbEntity
  8
0
  6
HIDDEN
 62
     7
370
     0
100
AcDbCircle
 10
183.485609602
 20
107.056751784
 30
0.0
 40
1.676794919243087
  0
LINE
  5
F3
330
1F
100
AcDbEntity
  8
0
  6
HIDDEN
 62
     7
370
     0
100
AcDbLine
 10
162.6436767705
 20
131.5154414464
 30
0.0
 11
162.6436767705
 21
126.906751784
 31
0.0
  0
LINE
  5
F4
330
1F
100
AcDbEntity
  8
0
  6
HIDDEN
 62
     7
370
     0
100
AcDbLine
 10
136.0307598066
 20
83.5321521612
 30
0.0
 11
135.7791022124
 21
83.5086305397
 31
0.0
  0
SPLINE
  5
F5
330
1F
100
AcDbEntity
  8
0
  6
HIDDEN
 62
     7
370
     0
100
AcDbSpline
210
0.0
220
0.0
230
1.0
 70
     8
 71
     3
 72
    22
 73
    18
 74
     0
 42
0.000000001
 43
0.00000001
 40
0.0
 40
0.0
 40
0.0
 40
0.0
 40
0.0694705033055671
 40
0.1409377255045836
 40
0.2104135489148412
 40
0.2819466223559929
 40
0.3506518733998514
 40
0.4213897814436844
 40
0.4894670043894699
 40
0.5594810940348494
 40
0.6282706827033767
 40
0.6989997382187426
 40
0.7687375408512299
 40
0.8405098102584777
 40
0.9099666189318142
 40
0.9814998892127904
 40
1.0
 40
1.0
 40
1.0
 40
1.0
 10
141.7906116036091
 20
87.21922330818255
 30
0.0
 10
141.6424377491498
 20
87.23894964799186
 30
0.0
 10
141.3418312322386
 20
87.27896930141264
 30
0.0
 10
140.8069363695579
 20
87.33434296494252
 30
0.0
 10
140.2212978168891
 20
87.37879935007031
 30
0.0
 10
139.6070651573158
 20
87.40648432552247
 30
0.0
 10
138.9731485119475
 20
87.41473757899234
 30
0.0
 10
138.3509998113757
 20
87.40275752411188
 30
0.0
 10
137.745002341515
 20
87.3720067703509
 30
0.0
 10
137.1805134203886
 20
87.32654079960069
 30
0.0
 10
136.6611371828069
 20
87.27045964780112
 30
0.0
 10
136.2082716851255
 20
87.2104694854827
 30
0.0
 10
135.8295565414598
 20
87.15248957112378
 30
0.0
 10
135.5414714203847
 20
87.10357076297728
 30
0.0
 10
135.359013523832
 20
87.07053540045153
 30
0.0
 10
135.278355572498
 20
87.0553956041959
 30
0.0
 10
135.2926454511968
 20
87.05806755756889
 30
0.0
 10
135.2955817436689
 20
87.05861659208068
 30
0.0
  0
SPLINE
  5
F6
330
1F
100
AcDbEntity
  8
0
  6
HIDDEN
 62
     7
370
     0
100
AcDbSpline
210
0.0
220
0.0
230
1.0
 70
     8
 71
     3
 72
    22
 73
    18
 74
     0
 42
0.000000001
 43
0.00000001
 40
0.0
 40
0.0
 40
0.0
 40
0.0
 40
0.0499040281125885
 40
0.1203075863893545
 40
0.1885125365560132
 40
0.2586444168297191
 40
0.3277839407293159
 40
0.39888732146551
 40
0.4686969488930338
 40
0.5405663748364755
 40
0.6097087891223015
 40
0.6809159691092502
 40
0.7490773369981714
 40
0.8192056085539695
 40
0.8876078379088254
 40
0.9579332867310426
 40
1.0
 40
1.0
 40
1.0
 40
1.0
 10
135.2955817436689
 20
127.0548869759173
 30
0.0
 10
135.2968326776944
 20
127.0546479455216
 30
0.0
 10
135.2998484032587
 20
127.0540716960469
 30
0.0
 10
135.4247417303122
 20
127.0308736612235
 30
0.0
 10
135.6492235581898
 20
126.9911936249058
 30
0.0
 10
135.9682517203673
 20
126.9389822035066
 30
0.0
 10
136.3757869513639
 20
126.8796523918344
 30
0.0
 10
136.8575735051969
 20
126.8201776153184
 30
0.0
 10
137.4079931869922
 20
126.7665712589564
 30
0.0
 10
138.0008880729404
 20
126.726097340482
 30
0.0
 10
138.6278406432576
 20
126.7028980921157
 30
0.0
 10
139.2560516170856
 20
126.6999199889008
 30
0.0
 10
139.8803117095626
 20
126.7170543146001
 30
0.0
 10
140.4729299993909
 20
126.7517401702901
 30
0.0
 10
141.0297560829191
 20
126.800696533954
 30
0.0
 10
141.467562927552
 20
126.8505966985771
 30
0.0
 10
141.7026296343249
 20
126.8823830875688
 30
0.0
 10
141.7906116036091
 20
126.8942802598155
 30
0.0
  0
SPLINE
  5
F7
330
1F
100
AcDbEntity
  8
0
  6
HIDDEN
 62
     7
370
     0
100
AcDbSpline
210
0.0
220
0.0
230
1.0
 70
     8
 71
     3
 72
    12
 73
     8
 74
     0
 42
0.000000001
 43
0.00000001
 40
0.0
 40
0.0
 40
0.0
 40
0.0
 40
0.2208233445562762
 40
0.4480992523525918
 40
0.6689569750923027
 40
0.8961554869287633
 40
1.0
 40
1.0
 40
1.0
 40
1.0
 10
141.7906116036091
 20
126.8942802598155
 30
0.0
 10
141.9226548068191
 20
126.9113373468961
 30
0.0
 10
142.1905995784898
 20
126.9459499372611
 30
0.0
 10
142.4857557466284
 20
126.9729218863733
 30
0.0
 10
142.6868477578666
 20
126.9884316001585
 30
0.0
 10
142.7841782651629
 20
126.9945407661788
 30
0.0
 10
142.7755210358196
 20
126.9939955994593
 30
0.0
 10
142.7728053593121
 20
126.9938245867259
 30
0.0
  0
SPLINE
  5
F8
330
1F
100
AcDbEntity
  8
0
  6
HIDDEN
 62
     7
370
     0
100
AcDbSpline
210
0.0
220
0.0
230
1.0
 70
     8
 71
     3
 72
    12
 73
     8
 74
     0
 42
0.000000001
 43
0.00000001
 40
0.0
 40
0.0
 40
0.0
 40
0.0
 40
0.1181210164762433
 40
0.3465078981290329
 40
0.5687652345113094
 40
0.7975205150250559
 40
1.0
 40
1.0
 40
1.0
 40
1.0
 10
142.772805315809
 20
87.11967898404465
 30
0.0
 10
142.774928742654
 20
87.11954491200191
 30
0.0
 10
142.7811578134397
 20
87.11915161178229
 30
0.0
 10
142.6764911861056
 20
87.12577498567681
 30
0.0
 10
142.466516809317
 20
87.14217941306026
 30
0.0
 10
142.1710585359836
 20
87.16978111221164
 30
0.0
 10
141.9121690703556
 20
87.20342591942429
 30
0.0
 10
141.7906116036091
 20
87.21922330818255
 30
0.0
  0
LINE
  5
F9
330
1F
100
AcDbEntity
  8
0
  6
HIDDEN
 62
     7
370
     0
100
AcDbLine
 10
129.0395841982
 20
90.056751784
 30
0.0
 11
129.0395841982
 21
124.056751784
 31
0.0
  0
SPLINE
  5
FA
330
1F
100
AcDbEntity
  8
0
  6
HIDDEN
 62
     7
370
     0
100
AcDbSpline
210
0.0
220
0.0
230
1.0
 70
     8
 71
     3
 72
    11
 73
     7
 74
     0
 42
0.000000001
 43
0.00000001
 40
0.0
 40
0.0
 40
0.0
 40
0.0
 40
0.0005779865010846
 40
0.0005779865010846
 40
0.0005779865010846
 40
0.0011559733324422
 40
0.0011559733324422
 40
0.0011559733324422
 40
0.0011559733324422
 10
116.1356096020075
 20
109.056592392159
 30
0.0
 10
116.3022768568135
 20
109.0546087528182
 30
0.0
 10
116.4689432864911
 20
109.05257114581
 30
0.0
 10
116.635609624943
 20
109.0504596824039
 30
0.0
 10
116.8022760537694
 20
109.0483482178529
 30
0.0
 10
116.968942427407
 20
109.0461626546968
 30
0.0
 10
117.1356096020075
 20
109.0438800773654
 30
0.0
  0
SPLINE
  5
FB
330
1F
100
AcDbEntity
  8
0
  6
HIDDEN
 62
     7
370
     0
100
AcDbSpline
210
0.0
220
0.0
230
1.0
 70
     8
 71
     3
 72
    11
 73
     7
 74
     0
 42
0.000000001
 43
0.00000001
 40
0.0
 40
0.0
 40
0.0
 40
0.0
 40
0.0005782382535738
 40
0.0005782382535738
 40
0.0005782382535738
 40
0.0011564766069467
 40
0.0011564766069467
 40
0.0011564766069467
 40
0.0011564766069467
 10
117.1356096020075
 20
105.0600514817808
 30
0.0
 10
116.9689556480389
 20
105.0596139040191
 30
0.0
 10
116.8022949758369
 20
105.0591338393467
 30
0.0
 10
116.6356280871715
 20
105.0586142999774
 30
0.0
 10
116.4689611687755
 20
105.0580947605154
 30
0.0
 10
116.3022880389422
 20
105.0575359314934
 30
0.0
 10
116.1356096020075
 20
105.0569503879103
 30
0.0
  0
LINE
  5
FC
330
1F
100
AcDbEntity
  8
0
  6
HIDDEN
 62
     7
370
     0
100
AcDbLine
 10
155.6954355705
 20
90.056751784
 30
0.0
 11
155.6954355705
 21
124.056751784
 31
0.0
  0
LINE
  5
FD
330
1F
100
AcDbEntity
  8
0
  6
HIDDEN
 62
     7
370
     0
100
AcDbLine
 10
157.985609602
 20
91.331751784
 30
0.0
 11
157.985609602
 21
122.7817517738
 31
0.0
  0
SPLINE
  5
FE
330
1F
100
AcDbEntity
  8
0
  6
HIDDEN
 62
     7
370
     0
100
AcDbSpline
210
0.0
220
0.0
230
1.0
 70
     8
 71
     3
 72
    16
 73
    12
 74
     0
 42
0.000000001
 43
0.00000001
 40
0.0
 40
0.0
 40
0.0
 40
0.0
 40
0.124999999999998
 40
0.124999999999998
 40
0.249999999999996
 40
0.249999999999996
 40
0.4999999999999973
 40
0.4999999999999973
 40
0.7499999999999987
 40
0.7499999999999987
 40
1.0
 40
1.0
 40
1.0
 40
1.0
 10
124.8356096020075
 20
91.25526134796735
 30
0.0
 10
124.9307313566733
 20
91.25526134796735
 30
0.0
 10
125.0240614254014
 20
91.25144551457456
 30
0.0
 10
125.2073231861394
 20
91.23667496184473
 30
0.0
 10
125.2982009016964
 20
91.22551691386916
 30
0.0
 10
125.5550025992162
 20
91.18304564372744
 30
0.0
 10
125.7100699640881
 20
91.14199944652464
 30
0.0
 10
125.9638164256427
 20
91.04685332994275
 30
0.0
 10
126.0646868773106
 20
90.99209059586116
 30
0.0
 10
126.1999332920055
 20
90.8808294719573
 30
0.0
 10
126.2356096020075
 20
90.8236597346286
 30
0.0
 10
126.2356096020075
 20
90.76923816159488
 30
0.0
  0
SPLINE
  5
FF
330
1F
100
AcDbEntity
  8
0
  6
HIDDEN
 62
     7
370
     0
100
AcDbSpline
210
0.0
220
0.0
230
1.0
 70
     8
 71
     3
 72
     8
 73
     4
 74
     0
 42
0.000000001
 43
0.00000001
 40
0.0
 40
0.0
 40
0.0
 40
0.0
 40
1.0
 40
1.0
 40
1.0
 40
1.0
 10
117.4356096052883
 20
93.40006429404959
 30
0.0
 10
117.4356096052903
 20
92.51616715173265
 30
0.0
 10
117.4221289793808
 20
91.80158390667069
 30
0.0
 10
117.4207776111915
 20
91.25526134796733
 30
0.0
  0
SPLINE
  5
100
330
1F
100
AcDbEntity
  8
0
  6
HIDDEN
 62
     7
370
     0
100
AcDbSpline
210
0.0
220
0.0
230
1.0
 70
     8
 71
     3
 72
    10
 73
     6
 74
     0
 42
0.000000001
 43
0.00000001
 40
0.0
 40
0.0
 40
0.0
 40
0.0
 40
0.5
 40
0.5
 40
1.0
 40
1.0
 40
1.0
 40
1.0
 10
117.1356096020075
 20
94.42497455970236
 30
0.0
 10
117.2270007176897
 20
94.25033577209308
 30
0.0
 10
117.2996525514152
 20
94.07673394484608
 30
0.0
 10
117.4071514444108
 20
93.73312052585649
 30
0.0
 10
117.4356096052827
 20
93.56479469933343
 30
0.0
 10
117.4356096052883
 20
93.40006429410907
 30
0.0
  0
LINE
  5
101
330
1F
100
AcDbEntity
  8
0
  6
HIDDEN
 62
     7
370
     0
100
AcDbLine
 10
117.135609602
 20
97.4559249918
 30
0.0
 11
117.135609602
 21
94.4249745597
 31
0.0
  0
SPLINE
  5
102
330
1F
100
AcDbEntity
  8
0
  6
HIDDEN
 62
     7
370
     0
100
AcDbSpline
210
0.0
220
0.0
230
1.0
 70
     8
 71
     3
 72
    10
 73
     6
 74
     0
 42
0.000000001
 43
0.00000001
 40
0.0
 40
0.0
 40
0.0
 40
0.0
 40
0.5
 40
0.5
 40
1.0
 40
1.0
 40
1.0
 40
1.0
 10
117.4356096050927
 20
98.82376540835618
 30
0.0
 10
117.4356096050927
 20
98.58178144078488
 30
0.0
 10
117.4074595760324
 20
98.34743901185279
 30
0.0
 10
117.3038696619271
 20
97.89206398963672
 30
0.0
 10
117.227240952362
 20
97.67045942655903
 30
0.0
 10
117.1356096020075
 20
97.45592499178626
 30
0.0
  0
LINE
  5
103
330
1F
100
AcDbEntity
  8
0
  6
HIDDEN
 62
     7
370
     0
100
AcDbLine
 10
117.4356096051
 20
110.6613854056
 30
0.0
 11
117.4356096051
 21
98.8237654083
 31
0.0
  0
SPLINE
  5
104
330
1F
100
AcDbEntity
  8
0
  6
HIDDEN
 62
     7
370
     0
100
AcDbSpline
210
0.0
220
0.0
230
1.0
 70
     8
 71
     3
 72
     8
 73
     4
 74
     0
 42
0.000000001
 43
0.00000001
 40
0.0
 40
0.0
 40
0.0
 40
0.0
 40
1.0
 40
1.0
 40
1.0
 40
1.0
 10
117.1356096020075
 20
116.6636911048796
 30
0.0
 10
117.3166410685068
 20
116.2315836192693
 30
0.0
 10
117.4356096050984
 20
115.7774382132296
 30
0.0
 10
117.4356096050927
 20
115.2897381596109
 30
0.0
  0
LINE
  5
105
330
1F
100
AcDbEntity
  8
0
  6
HIDDEN
 62
     7
370
     0
100
AcDbLine
 10
117.135609602
 20
119.696894091
 30
0.0
 11
117.135609602
 21
116.6636911049
 31
0.0
  0
SPLINE
  5
106
330
1F
100
AcDbEntity
  8
0
  6
HIDDEN
 62
     7
370
     0
100
AcDbSpline
210
0.0
220
0.0
230
1.0
 70
     8
 71
     3
 72
    10
 73
     6
 74
     0
 42
0.000000001
 43
0.00000001
 40
0.0
 40
0.0
 40
0.0
 40
0.0
 40
0.5
 40
0.5
 40
1.0
 40
1.0
 40
1.0
 40
1.0
 10
117.4356096053999
 20
120.7134392739188
 30
0.0
 10
117.4356096053981
 20
120.5488029273131
 30
0.0
 10
117.4084509346429
 20
120.3816477034827
 30
0.0
 10
117.3026859393247
 20
120.0430246956816
 30
0.0
 10
117.2262711510277
 20
119.8707529183908
 30
0.0
 10
117.1356096020075
 20
119.696894091047
 30
0.0
  0
SPLINE
  5
107
330
1F
100
AcDbEntity
  8
0
  6
HIDDEN
 62
     7
370
     0
100
AcDbSpline
210
0.0
220
0.0
230
1.0
 70
     8
 71
     3
 72
    18
 73
    14
 74
     0
 42
0.000000001
 43
0.00000001
 40
0.0
 40
0.0
 40
0.0
 40
0.0
 40
0.2500000000000033
 40
0.2500000000000033
 40
0.3750000000000029
 40
0.3750000000000029
 40
0.5000000000000026
 40
0.5000000000000026
 40
0.6250000000000022
 40
0.6250000000000022
 40
0.7500000000000018
 40
0.7500000000000018
 40
1.0
 40
1.0
 40
1.0
 40
1.0
 10
122.2356096020075
 20
123.3442654064031
 30
0.0
 10
122.2356096020075
 20
123.2897908858509
 30
0.0
 10
122.2006989106153
 20
123.2334098264985
 30
0.0
 10
122.0986896092823
 20
123.149332985645
 30
0.0
 10
122.0570532546042
 20
123.1219992816541
 30
0.0
 10
121.9586474591154
 20
123.0690453660551
 30
0.0
 10
121.9011042474111
 20
123.0431580123379
 30
0.0
 10
121.7738060738382
 20
122.9953804675046
 30
0.0
 10
121.7042187690807
 20
122.9734325493267
 30
0.0
 10
121.5527845239258
 20
122.933999984414
 30
0.0
 10
121.4701006208318
 20
122.9164437351882
 30
0.0
 10
121.2139891587938
 20
122.8740049697677
 30
0.0
 10
121.0260741549058
 20
122.8582422200307
 30
0.0
 10
120.8356096020075
 20
122.8582422200307
 30
0.0
  0
LINE
  5
108
330
1F
100
AcDbEntity
  8
0
  6
HIDDEN
 62
     7
370
     0
100
AcDbLine
 10
120.835609602
 20
122.85824222
 30
0.0
 11
117.4356096054
 21
122.85824222
 31
0.0
  0
LINE
  5
109
330
1F
100
AcDbEntity
  8
0
  6
HIDDEN
 62
     7
370
     0
100
AcDbLine
 10
117.3666406154
 20
91.255261348
 30
0.0
 11
124.835609602
 21
91.255261348
 31
0.0
  0
SPLINE
  5
10A
330
1F
100
AcDbEntity
  8
0
  6
HIDDEN
 62
     7
370
     0
100
AcDbSpline
210
0.0
220
0.0
230
1.0
 70
     8
 71
     3
 72
    22
 73
    18
 74
     0
 42
0.000000001
 43
0.00000001
 40
0.0
 40
0.0
 40
0.0
 40
0.0
 40
0.125
 40
0.125
 40
0.25
 40
0.25
 40
0.5000000000000001
 40
0.5000000000000001
 40
0.5625000000000001
 40
0.5625000000000001
 40
0.6250000000000001
 40
0.6250000000000001
 40
0.75
 40
0.75
 40
0.875
 40
0.875
 40
1.0
 40
1.0
 40
1.0
 40
1.0
 10
117.3666406153654
 20
91.25526134796735
 30
0.0
 10
117.353558222637
 20
91.51036705811502
 30
0.0
 10
117.3403386591972
 20
91.80352531721893
 30
0.0
 10
117.3178914814031
 20
92.46582578284374
 30
0.0
 10
117.3084130143786
 20
92.83609970345512
 30
0.0
 10
117.2892150534421
 20
94.05865650656891
 30
0.0
 10
117.290328826439
 20
94.99579543270077
 30
0.0
 10
117.309239619392
 20
96.31566666221576
 30
0.0
 10
117.313869147251
 20
96.58716857119207
 30
0.0
 10
117.324350366997
 20
97.14555340599438
 30
0.0
 10
117.3301456282814
 20
97.43267626193398
 30
0.0
 10
117.3484548491864
 20
98.30526551630567
 30
0.0
 10
117.3624897834667
 20
98.90572119266153
 30
0.0
 10
117.3919469556036
 20
100.1431956851576
 30
0.0
 10
117.4075026465851
 20
100.780211841801
 30
0.0
 10
117.431297196582
 20
102.0917004394856
 30
0.0
 10
117.4393162487274
 20
102.7678230511461
 30
0.0
 10
117.4356096020075
 20
103.4521181624309
 30
0.0
  0
LINE
  5
10B
330
1F
100
AcDbEntity
  8
0
  6
HIDDEN
 62
     7
370
     0
100
AcDbLine
 10
117.4356096054
 20
110.6613854056
 30
0.0
 11
117.4356096054
 21
122.85824222
 31
0.0
  0
SPLINE
  5
10C
330
1F
100
AcDbEntity
  8
0
  6
HIDDEN
 62
     7
370
     0
100
AcDbSpline
210
0.0
220
0.0
230
1.0
 70
     8
 71
     3
 72
    10
 73
     6
 74
     0
 42
0.000000001
 43
0.00000001
 40
0.0
 40
0.0
 40
0.0
 40
0.0
 40
0.5
 40
0.5
 40
1.0
 40
1.0
 40
1.0
 40
1.0
 10
117.4356096020075
 20
103.4521181624158
 30
0.0
 10
117.4356096020073
 20
103.7260333104899
 30
0.0
 10
117.4098503721385
 20
103.9969748892195
 30
0.0
 10
117.3066444394051
 20
104.5326659708217
 30
0.0
 10
117.2293062755307
 20
104.7984127743434
 30
0.0
 10
117.1356096020075
 20
105.0600514817808
 30
0.0
  0
SPLINE
  5
10D
330
1F
100
AcDbEntity
  8
0
  6
HIDDEN
 62
     7
370
     0
100
AcDbSpline
210
0.0
220
0.0
230
1.0
 70
     8
 71
     3
 72
    10
 73
     6
 74
     0
 42
0.000000001
 43
0.00000001
 40
0.0
 40
0.0
 40
0.0
 40
0.0
 40
0.5
 40
0.5
 40
1.0
 40
1.0
 40
1.0
 40
1.0
 10
117.1356096020075
 20
109.0438800773655
 30
0.0
 10
117.2288401833982
 20
109.3077738854353
 30
0.0
 10
117.3038697956348
 20
109.5739541960732
 30
0.0
 10
117.4089368948126
 20
110.1122767710308
 30
0.0
 10
117.4356096053987
 20
110.385024887276
 30
0.0
 10
117.4356096053999
 20
110.6613854055661
 30
0.0
  0
LINE
  5
10E
330
1F
100
AcDbEntity
  8
0
  6
HIDDEN
 62
     7
370
     0
100
AcDbLine
 10
117.135609602
 20
105.0600514818
 30
0.0
 11
117.135609602
 21
109.0438800774
 31
0.0
  0
LINE
  5
10F
330
1F
100
AcDbEntity
  8
0
  6
HIDDEN
 62
     7
370
     0
100
AcDbLine
 10
117.285609602
 20
89.066751784
 30
0.0
 11
117.285609602
 21
86.1868140186
 31
0.0
  0
LINE
  5
110
330
1F
100
AcDbEntity
  8
0
  6
HIDDEN
 62
     7
370
     0
100
AcDbLine
 10
126.235609602
 20
89.066751784
 30
0.0
 11
126.235609602
 21
85.0930142528
 31
0.0
  0
LINE
  5
111
330
1F
100
AcDbEntity
  8
0
  6
HIDDEN
 62
     7
370
     0
100
AcDbLine
 10
117.285609602
 20
125.046751784
 30
0.0
 11
117.285609602
 21
127.9266895494
 31
0.0
  0
LINE
  5
112
330
1F
100
AcDbEntity
  8
0
  6
HIDDEN
 62
     7
370
     0
100
AcDbLine
 10
122.235609602
 20
125.046751784
 30
0.0
 11
122.235609602
 21
128.9008594564
 31
0.0
  0
LINE
  5
113
330
1F
100
AcDbEntity
  8
0
  6
HIDDEN
 62
     7
370
     0
100
AcDbLine
 10
166.835609602
 20
97.556751784
 30
0.0
 11
166.835609602
 21
116.556751784
 31
0.0
  0
LINE
  5
114
330
1F
100
AcDbEntity
  8
0
  6
HIDDEN
 62
     7
370
     0
100
AcDbLine
 10
169.835609602
 20
97.556751784
 30
0.0
 11
169.835609602
 21
116.556751784
 31
0.0
  0
LINE
  5
115
330
1F
100
AcDbEntity
  8
0
  6
HIDDEN
 62
     7
370
     0
100
AcDbLine
 10
158.485609602
 20
98.556751784
 30
0.0
 11
158.485609602
 21
115.556751784
 31
0.0
  0
LINE
  5
116
330
1F
100
AcDbEntity
  8
0
  6
HIDDEN
 62
     7
370
     0
100
AcDbLine
 10
164.2232844043
 20
80.656751784
 30
0.0
 11
160.985609602
 21
80.656751784
 31
0.0
  0
LINE
  5
117
330
1F
100
AcDbEntity
  8
0
  6
HIDDEN
 62
     7
370
     0
100
AcDbLine
 10
152.985609602
 20
75.5726288011
 30
0.0
 11
152.985609602
 21
80.656751784
 31
0.0
  0
LINE
  5
118
330
1F
100
AcDbEntity
  8
0
  6
HIDDEN
 62
     7
370
     0
100
AcDbLine
 10
160.985609602
 20
80.656751784
 30
0.0
 11
152.985609602
 21
80.656751784
 31
0.0
  0
LINE
  5
119
330
1F
100
AcDbEntity
  8
0
  6
HIDDEN
 62
     7
370
     0
100
AcDbLine
 10
173.985609602
 20
80.656751784
 30
0.0
 11
167.8479347997
 21
80.656751784
 31
0.0
  0
LINE
  5
11A
330
1F
100
AcDbEntity
  8
0
  6
HIDDEN
 62
     7
370
     0
100
AcDbLine
 10
164.5199071337
 20
133.456751784
 30
0.0
 11
160.985609602
 21
133.456751784
 31
0.0
  0
LINE
  5
11B
330
1F
100
AcDbEntity
  8
0
  6
HIDDEN
 62
     7
370
     0
100
AcDbLine
 10
173.985609602
 20
133.456751784
 30
0.0
 11
167.5513120703
 21
133.456751784
 31
0.0
  0
LINE
  5
11C
330
1F
100
AcDbEntity
  8
0
  6
HIDDEN
 62
     7
370
     0
100
AcDbLine
 10
160.985609602
 20
133.456751784
 30
0.0
 11
152.985609602
 21
133.456751784
 31
0.0
  0
SPLINE
  5
11D
330
1F
100
AcDbEntity
  8
0
  6
HIDDEN
 62
     7
370
     0
100
AcDbSpline
210
0.0
220
0.0
230
1.0
 70
     8
 71
     3
 72
    16
 73
    12
 74
     0
 42
0.000000001
 43
0.00000001
 40
0.0
 40
0.0
 40
0.0
 40
0.0
 40
0.2500000000000016
 40
0.2500000000000016
 40
0.5000000000000032
 40
0.5000000000000032
 40
0.6250000000000028
 40
0.6250000000000028
 40
0.7500000000000023
 40
0.7500000000000023
 40
1.0
 40
1.0
 40
1.0
 40
1.0
 10
190.0356096020075
 20
113.8975888993775
 30
0.0
 10
190.0356096020075
 20
113.8291179771939
 30
0.0
 10
190.0310643918321
 20
113.7591897355415
 30
0.0
 10
190.0053944267083
 20
113.6140205054545
 30
0.0
 10
189.9836675468259
 20
113.5356697833839
 30
0.0
 10
189.9247081163665
 20
113.4334982345234
 30
0.0
 10
189.9000579893831
 20
113.4023099052558
 30
0.0
 10
189.8457409965863
 20
113.3561019881562
 30
0.0
 10
189.8169710648712
 20
113.3413649716823
 30
0.0
 10
189.7342686948606
 20
113.3161673229676
 30
0.0
 10
189.6829792182538
 20
113.3217441605448
 30
0.0
 10
189.6356096019999
 20
113.3342975137937
 30
0.0
  0
SPLINE
  5
11E
330
1F
100
AcDbEntity
  8
0
  6
HIDDEN
 62
     7
370
     0
100
AcDbSpline
210
0.0
220
0.0
230
1.0
 70
     8
 71
     3
 72
     8
 73
     4
 74
     0
 42
0.000000001
 43
0.00000001
 40
0.0
 40
0.0
 40
0.0
 40
0.0
 40
1.0
 40
1.0
 40
1.0
 40
1.0
 10
189.6356096020024
 20
113.334297513803
 30
0.0
 10
189.5767142773742
 20
113.3013456571307
 30
0.0
 10
189.5071046480948
 20
113.2796797011743
 30
0.0
 10
189.4356096020076
 20
113.2796797011742
 30
0.0
  0
SPLINE
  5
11F
330
1F
100
AcDbEntity
  8
0
  6
HIDDEN
 62
     7
370
     0
100
AcDbSpline
210
0.0
220
0.0
230
1.0
 70
     8
 71
     3
 72
     8
 73
     4
 74
     0
 42
0.000000001
 43
0.00000001
 40
0.0
 40
0.0
 40
0.0
 40
0.0
 40
1.0
 40
1.0
 40
1.0
 40
1.0
 10
189.6356096020172
 20
100.7792060541867
 30
0.0
 10
189.5767142773858
 20
100.8121579108635
 30
0.0
 10
189.5071046481008
 20
100.8338238668237
 30
0.0
 10
189.4356096020076
 20
100.8338238668238
 30
0.0
  0
SPLINE
  5
120
330
1F
100
AcDbEntity
  8
0
  6
HIDDEN
 62
     7
370
     0
100
AcDbSpline
210
0.0
220
0.0
230
1.0
 70
     8
 71
     3
 72
    16
 73
    12
 74
     0
 42
0.000000001
 43
0.00000001
 40
0.0
 40
0.0
 40
0.0
 40
0.0
 40
0.2500000000000064
 40
0.2500000000000064
 40
0.3750000000000017
 40
0.3750000000000017
 40
0.499999999999997
 40
0.499999999999997
 40
0.7499999999999984
 40
0.7499999999999984
 40
1.0
 40
1.0
 40
1.0
 40
1.0
 10
189.6356096020173
 20
100.7792060541865
 30
0.0
 10
189.6829915667843
 20
100.7917627448686
 30
0.0
 10
189.7341727853146
 20
100.7973875026322
 30
0.0
 10
189.8171278472318
 20
100.7720868519762
 30
0.0
 10
189.8458102083936
 20
100.7573422952367
 30
0.0
 10
189.8999180132976
 20
100.7113307278623
 30
0.0
 10
189.9243137674157
 20
100.6805979123161
 30
0.0
 10
189.9836253301531
 20
100.5781159718112
 30
0.0
 10
190.005152884053
 20
100.5004584130008
 30
0.0
 10
190.0309831388007
 20
100.3551722924529
 30
0.0
 10
190.0356096020075
 20
100.2844400256399
 30
0.0
 10
190.0356096020075
 20
100.2159191524354
 30
0.0
  0
LINE
  5
121
330
1F
100
AcDbEntity
  8
0
  6
HIDDEN
 62
     7
370
     0
100
AcDbLine
 10
176.9016350058
 20
107.056751784
 30
0.0
 11
176.9016350058
 21
100.056751784
 31
0.0
  0
LINE
  5
122
330
1F
100
AcDbEntity
  8
0
  6
HIDDEN
 62
     7
370
     0
100
AcDbLine
 10
176.9016350058
 20
114.056751784
 30
0.0
 11
176.9016350058
 21
107.056751784
 31
0.0
  0
SPLINE
  5
123
330
1F
100
AcDbEntity
  8
0
  6
HIDDEN
 62
     7
370
     0
100
AcDbSpline
210
0.0
220
0.0
230
1.0
 70
     8
 71
     3
 72
    11
 73
     7
 74
     0
 42
0.000000001
 43
0.00000001
 40
0.0
 40
0.0
 40
0.0
 40
0.0
 40
0.0008203708524183
 40
0.0008203708524183
 40
0.0008203708524183
 40
0.0016409967870154
 40
0.0016409967870154
 40
0.0016409967870154
 40
0.0016409967870154
 10
117.2856096020075
 20
91.20471903335628
 30
0.0
 10
117.0944513017088
 20
91.16354000473714
 30
0.0
 10
116.9030242316366
 20
91.12478603250715
 30
0.0
 10
116.711378608116
 20
91.08841827322861
 30
0.0
 10
116.5196732030356
 20
91.05203916946259
 30
0.0
 10
116.3277342509766
 20
91.01804491869501
 30
0.0
 10
116.1356096039058
 20
90.98639679330381
 30
0.0
  0
ELLIPSE
  5
124
330
1F
100
AcDbEntity
  8
0
  6
HIDDEN
 62
     7
370
     0
100
AcDbEllipse
 10
111.8931777334
 20
107.056751784
 30
0.0
 11
20.19992453367504
 21
-1.421085471520200E-14
 31
0.0
210
0.0
220
0.0
230
1.0
 40
0.8164965809
 41
1.300566354717479
 42
1.359198697209065
  0
LINE
  5
125
330
1F
100
AcDbEntity
  8
0
  6
HIDDEN
 62
     7
370
     0
100
AcDbLine
 10
183.135609602
 20
113.2796797012
 30
0.0
 11
189.435609602
 21
113.2796797012
 31
0.0
  0
LINE
  5
126
330
1F
100
AcDbEntity
  8
0
  6
HIDDEN
 62
     7
370
     0
100
AcDbLine
 10
183.135609602
 20
100.8338238668
 30
0.0
 11
189.435609602
 21
100.8338238668
 31
0.0
  0
LINE
  5
127
330
1F
100
AcDbEntity
  8
0
  6
HIDDEN
 62
     7
370
     0
100
AcDbLine
 10
117.285609602
 20
89.066751784
 30
0.0
 11
117.285609602
 21
91.2047190334
 31
0.0
  0
LINE
  5
128
330
1F
100
AcDbEntity
  8
0
  6
HIDDEN
 62
     7
370
     0
100
AcDbLine
 10
117.3666406154
 20
91.255261348
 30
0.0
 11
117.285609602
 21
91.2047190334
 31
0.0
  0
LINE
  5
129
330
1F
100
AcDbEntity
  8
0
  6
HIDDEN
 62
     7
370
     0
100
AcDbLine
 10
126.235609602
 20
89.066751784
 30
0.0
 11
126.235609602
 21
90.7692381616
 31
0.0
  0
LINE
  5
12A
330
1F
100
AcDbEntity
  8
0
  6
HIDDEN
 62
     7
370
     0
100
AcDbLine
 10
117.285609602
 20
125.046751784
 30
0.0
 11
117.285609602
 21
122.9513762351
 31
0.0
  0
SPLINE
  5
12B
330
1F
100
AcDbEntity
  8
0
  6
HIDDEN
 62
     7
370
     0
100
AcDbSpline
210
0.0
220
0.0
230
1.0
 70
     8
 71
     3
 72
     8
 73
     4
 74
     0
 42
0.000000001
 43
0.00000001
 40
0.0
 40
0.0
 40
0.0
 40
0.0
 40
1.0
 40
1.0
 40
1.0
 40
1.0
 10
117.2856096020075
 20
122.9513762350572
 30
0.0
 10
117.3356151009509
 20
122.9203404608382
 30
0.0
 10
117.3856151716151
 20
122.8892958158108
 30
0.0
 10
117.4356096053999
 20
122.8582422200307
 30
0.0
  0
LINE
  5
12C
330
1F
100
AcDbEntity
  8
0
  6
HIDDEN
 62
     7
370
     0
100
AcDbLine
 10
122.235609602
 20
125.046751784
 30
0.0
 11
122.235609602
 21
123.3442654064
 31
0.0
  0
LWPOLYLINE
  5
12D
330
1F
100
AcDbEntity
  8
0
  6
HIDDEN
 62
     7
370
     0
100
AcDbPolyline
 90
       25
 70
   128
 43
0.0
 10
142.784676538
 20
83.4567223841
 10
142.734417656
 20
83.4715008342
 10
142.5555833632
 20
83.5178669093
 10
142.2184718264
 20
83.5955505592
 10
141.9828275877
 20
83.6461364747
 10
141.6997807024
 20
83.7045517839
 10
140.9580042946
 20
83.8346568178
 10
140.22779498
 20
83.9352356285
 10
139.784371869
 20
83.9858847117
 10
139.3914109266
 20
84.0234110291
 10
139.0563748255
 20
84.0478145806
 10
138.4159426224
 20
84.0722582467
 10
137.7347948426
 20
84.0738977565
 10
137.0462519353
 20
84.0527331099
 10
136.7130444144
 20
84.033599228
 10
136.3961255825
 20
84.008764307
 10
135.8154795747
 20
83.9517886553
 10
135.4795022808
 20
83.9110255468
 10
135.3248019202
 20
83.8864749814
 10
135.2856294128
 20
83.8781369593
 10
135.3222785019
 20
83.886031258
 10
135.4746286856
 20
83.9101864094
 10
135.8066163019
 20
83.9506024136
 10
136.379466833
 20
84.0072792705
 10
136.379466833
 20
84.0072792705
  0
SPLINE
  5
12E
330
1F
100
AcDbEntity
  8
0
  6
HIDDEN
 62
     7
370
     0
100
AcDbSpline
210
0.0
220
0.0
230
1.0
 70
     8
 71
     3
 72
    27
 73
    23
 74
     0
 42
0.000000001
 43
0.00000001
 40
0.0
 40
0.0
 40
0.0
 40
0.0
 40
0.0008428871094166
 40
0.0457257497049191
 40
0.1023078578703841
 40
0.1705864819736772
 40
0.2091784558495535
 40
0.2507060195539053
 40
0.3211523478374182
 40
0.386246591320495
 40
0.4267260576939815
 40
0.4648576087856142
 40
0.5006622055417639
 40
0.5452543187523418
 40
0.6017490167916822
 40
0.6701555265254315
 40
0.7088931595303446
 40
0.7506222313364985
 40
0.8222873772916289
 40
0.8878273147068264
 40
0.9473015350835262
 40
1.0
 40
1.0
 40
1.0
 40
1.0
 10
135.2863059040411
 20
130.2351599364476
 30
0.0
 10
135.2860739717777
 20
130.2352099357396
 30
0.0
 10
135.2734918875265
 20
130.2379223453664
 30
0.0
 10
135.3225584343976
 20
130.2260925016231
 30
0.0
 10
135.4676762559965
 20
130.2026452096179
 30
0.0
 10
135.7407242931474
 20
130.1687420191642
 30
0.0
 10
136.0692514395172
 20
130.1351730672714
 30
0.0
 10
136.461979025611
 20
130.0969897700811
 30
0.0
 10
137.011707076968
 20
130.0580210795607
 30
0.0
 10
137.6377297011975
 20
130.0385599798054
 30
0.0
 10
138.1809212146636
 20
130.0363743010674
 30
0.0
 10
138.6259901105634
 20
130.0448891822545
 30
0.0
 10
139.0924379078417
 20
130.0646725790629
 30
0.0
 10
139.6296785568681
 20
130.1088349642301
 30
0.0
 10
140.2778919930202
 20
130.1812505853188
 30
0.0
 10
140.8634306048421
 20
130.2621526737516
 30
0.0
 10
141.3444002625596
 20
130.340318673289
 30
0.0
 10
141.7898149731358
 20
130.4250907644685
 30
0.0
 10
142.2283158806425
 20
130.5188741112706
 30
0.0
 10
142.5673368198815
 20
130.5967767702325
 30
0.0
 10
142.7546472699444
 20
130.6469600739043
 30
0.0
 10
142.775135431891
 20
130.6536255658341
 30
0.0
 10
142.7847607224038
 20
130.6567569983366
 30
0.0
  0
SPLINE
  5
12F
330
1F
100
AcDbEntity
  8
0
  6
HIDDEN
 62
     7
370
     0
100
AcDbSpline
210
0.0
220
0.0
230
1.0
 70
     8
 71
     3
 72
    14
 73
    10
 74
     0
 42
0.000000001
 43
0.00000001
 40
0.0
 40
0.0
 40
0.0
 40
0.0
 40
0.2500000000000001
 40
0.2500000000000001
 40
0.5000000000000002
 40
0.5000000000000002
 40
0.7500000000000001
 40
0.7500000000000001
 40
1.0
 40
1.0
 40
1.0
 40
1.0
 10
189.6356096020075
 20
116.131751783999
 30
0.0
 10
189.6356096020076
 20
116.2644243479358
 30
0.0
 10
189.6357772710324
 20
116.3846381466929
 30
0.0
 10
189.6334122336043
 20
116.6009309976214
 30
0.0
 10
189.6313453006154
 20
116.6965023646709
 30
0.0
 10
189.6258848095244
 20
116.8521379205708
 30
0.0
 10
189.6221868395885
 20
116.914406000806
 30
0.0
 10
189.6149822439994
 20
117.0005561587426
 30
0.0
 10
189.611443158479
 20
117.0251343240769
 30
0.0
 10
189.6088575586117
 20
117.0306039128451
 30
0.0
  0
SPLINE
  5
130
330
1F
100
AcDbEntity
  8
0
  6
HIDDEN
 62
     7
370
     0
100
AcDbSpline
210
0.0
220
0.0
230
1.0
 70
     8
 71
     3
 72
    14
 73
    10
 74
     0
 42
0.000000001
 43
0.00000001
 40
0.0
 40
0.0
 40
0.0
 40
0.0
 40
0.1124065737930646
 40
0.278107440863085
 40
0.4385721384459221
 40
0.6036781339277216
 40
0.7644102755915321
 40
0.9297920765957606
 40
1.0
 40
1.0
 40
1.0
 40
1.0
 10
189.607845866444
 20
117.0263249270418
 30
0.0
 10
189.6069074694536
 20
117.0250459221964
 30
0.0
 10
189.6045857619528
 20
117.021881509721
 30
0.0
 10
189.6055095185663
 20
116.9583834890925
 30
0.0
 10
189.6107248838492
 20
116.8452069888541
 30
0.0
 10
189.6194112697541
 20
116.6860910767624
 30
0.0
 10
189.6291843186398
 20
116.4844536748961
 30
0.0
 10
189.6348513472481
 20
116.2936097954433
 30
0.0
 10
189.6354355059047
 20
116.1689126809226
 30
0.0
 10
189.6356095906035
 20
116.131751783999
 30
0.0
  0
LWPOLYLINE
  5
131
330
1F
100
AcDbEntity
  8
0
  6
HIDDEN
 62
     7
370
     0
100
AcDbPolyline
 90
        4
 70
   128
 43
0.0
 10
189.6356095906
 20
116.131751784
 10
189.6356096057
 20
115.6510916763
 10
189.635609601
 20
113.7284512456
 10
189.635609602
 20
113.3342975138
  0
LINE
  5
132
330
1F
100
AcDbEntity
  8
0
  6
HIDDEN
 62
     7
370
     0
100
AcDbLine
 10
189.6356096066
 20
97.981751784
 30
0.0
 11
189.635609602
 21
100.7792060542
 31
0.0
  0
SPLINE
  5
133
330
1F
100
AcDbEntity
  8
0
  6
HIDDEN
 62
     7
370
     0
100
AcDbSpline
210
0.0
220
0.0
230
1.0
 70
     8
 71
     3
 72
    20
 73
    16
 74
     0
 42
0.000000001
 43
0.00000001
 40
0.0
 40
0.0
 40
0.0
 40
0.0
 40
0.0315047277249081
 40
0.1122937257050199
 40
0.1948512595544408
 40
0.278021352129265
 40
0.3582738698353762
 40
0.4390876410950169
 40
0.5207685207769811
 40
0.6036350165068939
 40
0.68402213687719
 40
0.7649688830010224
 40
0.8467842128129164
 40
0.9297933552776539
 40
1.0
 40
1.0
 40
1.0
 40
1.0
 10
189.6075737139867
 20
97.08341546486898
 30
0.0
 10
189.6072830085714
 20
97.08332744019147
 30
0.0
 10
189.606246834114
 20
97.08301368985285
 30
0.0
 10
189.605373687148
 20
97.09558869377702
 30
0.0
 10
189.6050475528001
 20
97.12129664827604
 30
0.0
 10
189.6060410511379
 20
97.1605099330531
 30
0.0
 10
189.6080716474294
 20
97.21142814403287
 30
0.0
 10
189.6111435152821
 20
97.27368858910984
 30
0.0
 10
189.6151144083895
 20
97.34798351989191
 30
0.0
 10
189.6195619647963
 20
97.43312464853295
 30
0.0
 10
189.6242752090241
 20
97.52825543564322
 30
0.0
 10
189.6288074236453
 20
97.63237909903069
 30
0.0
 10
189.6326430402864
 20
97.74663092861995
 30
0.0
 10
189.6350904101403
 20
97.8633210391327
 30
0.0
 10
189.6354464580647
 20
97.94453696560332
 30
0.0
 10
189.6356096065926
 20
97.98175178399902
 30
0.0
  0
LINE
  5
134
330
1F
100
AcDbEntity
  8
0
  6
HIDDEN
 62
     7
370
     0
100
AcDbLine
 10
183.135609602
 20
97.981751784
 30
0.0
 11
183.135609602
 21
100.8338238668
 31
0.0
  0
LINE
  5
135
330
1F
100
AcDbEntity
  8
0
  6
HIDDEN
 62
     7
370
     0
100
AcDbLine
 10
183.135609602
 20
116.131751784
 30
0.0
 11
183.135609602
 21
113.2796797012
 31
0.0
  0
LINE
  5
136
330
1F
100
AcDbEntity
  8
0
  6
HIDDEN
 62
     7
370
     0
100
AcDbLine
 10
183.135609602
 20
117.031751784
 30
0.0
 11
183.135609602
 21
116.131751784
 31
0.0
  0
LINE
  5
137
330
1F
100
AcDbEntity
  8
0
  6
HIDDEN
 62
     7
370
     0
100
AcDbLine
 10
183.135609602
 20
97.081751784
 30
0.0
 11
183.135609602
 21
97.981751784
 31
0.0
  0
SPLINE
  5
138
330
1F
100
AcDbEntity
  8
0
  6
HIDDEN
 62
     7
370
     0
100
AcDbSpline
210
0.0
220
0.0
230
1.0
 70
     8
 71
     3
 72
     8
 73
     4
 74
     0
 42
0.000000001
 43
0.00000001
 40
0.0
 40
0.0
 40
0.0
 40
0.0
 40
0.0001590976953043
 40
0.0001590976953043
 40
0.0001590976953043
 40
0.0001590976953043
 10
117.4207776111916
 20
91.25526134796735
 30
0.0
 10
117.3757261406985
 20
91.22728246364986
 30
0.0
 10
117.3306701022951
 20
91.19931093328107
 30
0.0
 10
117.2856096020075
 20
91.17134659393483
 30
0.0
  0
SPLINE
  5
139
330
1F
100
AcDbEntity
  8
0
  6
HIDDEN
 62
     7
370
     0
100
AcDbSpline
210
0.0
220
0.0
230
1.0
 70
     8
 71
     3
 72
    11
 73
     7
 74
     0
 42
0.000000001
 43
0.00000001
 40
0.0
 40
0.0
 40
0.0
 40
0.0
 40
0.000821290931147
 40
0.000821290931147
 40
0.000821290931147
 40
0.0016428257243086
 40
0.0016428257243086
 40
0.0016428257243086
 40
0.0016428257243086
 10
117.2856096020075
 20
91.17134659393483
 30
0.0
 10
117.0944645805253
 20
91.12806040507921
 30
0.0
 10
116.9030462448489
 20
91.08712389543885
 30
0.0
 10
116.7114001701877
 20
91.04852212404913
 30
0.0
 10
116.5196970886461
 20
91.00990887020889
 30
0.0
 10
116.3277519653606
 20
90.97362866091969
 30
0.0
 10
116.1356096020074
 20
90.93966175456494
 30
0.0
  0
LINE
  5
13A
330
1F
100
AcDbEntity
  8
0
  6
HIDDEN
 62
     7
370
     0
100
AcDbLine
 10
164.125609602
 20
127.1926184155
 30
0.0
 11
164.125609602
 21
126.906751784
 31
0.0
  0
LINE
  5
13B
330
1F
100
AcDbEntity
  8
0
  6
HIDDEN
 62
     7
370
     0
100
AcDbLine
 10
167.945609602
 20
127.1926184155
 30
0.0
 11
167.945609602
 21
126.906751784
 31
0.0
  0
LINE
  5
13C
330
1F
100
AcDbEntity
  8
0
  6
HIDDEN
 62
     7
370
     0
100
AcDbLine
 10
169.4275424335
 20
131.5154414464
 30
0.0
 11
169.4275424335
 21
126.906751784
 31
0.0
  0
SPLINE
  5
13D
330
1F
100
AcDbEntity
  8
0
  6
HIDDEN
 62
     7
370
     0
100
AcDbSpline
210
0.0
220
0.0
230
1.0
 70
     8
 71
     3
 72
    11
 73
     7
 74
     0
 42
0.000000001
 43
0.00000001
 40
0.0000000000000004
 40
0.0000000000000004
 40
0.0000000000000004
 40
0.0000000000000004
 40
0.0005781862223981
 40
0.0005781862223981
 40
0.0005781862223981
 40
0.0011563724723932
 40
0.0011563724723932
 40
0.0011563724723932
 40
0.0011563724723932
 10
117.1356096020078
 20
119.6968940910518
 30
0.0
 10
116.9689490477321
 20
119.7614236024652
 30
0.0
 10
116.8022857508256
 20
119.8259263063039
 30
0.0
 10
116.6356191669953
 20
119.8904127547373
 30
0.0
 10
116.4689525747362
 20
119.9548992064321
 30
0.0
 10
116.3022827091102
 20
120.01936921516
 30
0.0
 10
116.1356096020075
 20
120.0838249818923
 30
0.0
  0
SPLINE
  5
13E
330
1F
100
AcDbEntity
  8
0
  6
HIDDEN
 62
     7
370
     0
100
AcDbSpline
210
0.0
220
0.0
230
1.0
 70
     8
 71
     3
 72
    11
 73
     7
 74
     0
 42
0.000000001
 43
0.00000001
 40
0.0000000000000001
 40
0.0000000000000001
 40
0.0000000000000001
 40
0.0000000000000001
 40
0.0005778746105124
 40
0.0005778746105124
 40
0.0005778746105124
 40
0.0011557494857259
 40
0.0011557494857259
 40
0.0011557494857259
 40
0.0011557494857259
 10
116.1356096020075
 20
94.02952992850913
 30
0.0
 10
116.3022764784208
 20
94.0953420551942
 30
0.0
 10
116.4689431979822
 20
94.16120053532319
 30
0.0
 10
116.6356098460309
 20
94.22710810824539
 30
0.0
 10
116.8022765705496
 20
94.29301571140734
 30
0.0
 10
116.9689432649702
 20
94.35897281978761
 30
0.0
 10
117.1356096020075
 20
94.42497455970236
 30
0.0
  0
SPLINE
  5
13F
330
1F
100
AcDbEntity
  8
0
  6
HIDDEN
 62
     7
370
     0
100
AcDbSpline
210
0.0
220
0.0
230
1.0
 70
     8
 71
     3
 72
    11
 73
     7
 74
     0
 42
0.000000001
 43
0.00000001
 40
0.0000000000000006
 40
0.0000000000000006
 40
0.0000000000000006
 40
0.0000000000000006
 40
0.0005780486062825
 40
0.0005780486062825
 40
0.0005780486062825
 40
0.0011560973514241
 40
0.0011560973514241
 40
0.0011560973514241
 40
0.0011560973514241
 10
116.1356096020075
 20
117.0375662856908
 30
0.0
 10
116.3022794580524
 20
116.9751944241438
 30
0.0
 10
116.4689471621366
 20
116.9128405638143
 30
0.0
 10
116.6356134665903
 20
116.8505210035969
 30
0.0
 10
116.802279807284
 20
116.7882014298288
 30
0.0
 10
116.9689447639128
 20
116.7259162254785
 30
0.0
 10
117.1356096020075
 20
116.6636911048796
 30
0.0
  0
SPLINE
  5
140
330
1F
100
AcDbEntity
  8
0
  6
HIDDEN
 62
     7
370
     0
100
AcDbSpline
210
0.0
220
0.0
230
1.0
 70
     8
 71
     3
 72
    11
 73
     7
 74
     0
 42
0.000000001
 43
0.00000001
 40
0.0
 40
0.0
 40
0.0
 40
0.0
 40
0.0005782401583596
 40
0.0005782401583596
 40
0.0005782401583596
 40
0.0011564805961119
 40
0.0011564805961119
 40
0.0011564805961119
 40
0.0011564805961119
 10
117.1356096020075
 20
97.45592499178626
 30
0.0
 10
116.9689586516586
 20
97.39249953369632
 30
0.0
 10
116.8022990590759
 20
97.32914401001115
 30
0.0
 10
116.6356320066473
 20
97.26584642563037
 30
0.0
 10
116.4689648700835
 20
97.20254880929632
 30
0.0
 10
116.3022902626375
 20
97.13930901432394
 30
0.0
 10
116.1356096020074
 20
97.07610900765248
 30
0.0
  0
CIRCLE
  5
141
330
1F
100
AcDbEntity
  8
0
  6
HIDDEN
 62
     7
370
     0
100
AcDbCircle
 10
155.035609602
 20
107.056751784
 30
0.0
 40
5.0
  0
ARC
  5
142
330
1F
100
AcDbEntity
  8
0
  6
HIDDEN
 62
     7
370
     0
100
AcDbCircle
 10
174.285609602
 20
100.306751784
 30
0.0
 40
0.75
100
AcDbArc
 50
180.0
 51
0.0
  0
ARC
  5
143
330
1F
100
AcDbEntity
  8
0
  6
HIDDEN
 62
     7
370
     0
100
AcDbCircle
 10
174.285609602
 20
100.306751784
 30
0.0
 40
0.75
100
AcDbArc
 50
0.0
 51
180.0
  0
ARC
  5
144
330
1F
100
AcDbEntity
  8
0
  6
HIDDEN
 62
     7
370
     0
100
AcDbCircle
 10
174.285609602
 20
113.806751784
 30
0.0
 40
0.75
100
AcDbArc
 50
0.0
 51
180.0
  0
ARC
  5
145
330
1F
100
AcDbEntity
  8
0
  6
HIDDEN
 62
     7
370
     0
100
AcDbCircle
 10
174.285609602
 20
113.806751784
 30
0.0
 40
0.75
100
AcDbArc
 50
180.0
 51
0.0
  0
LINE
  5
146
330
1F
100
AcDbEntity
  8
0
  6
HIDDEN
 62
     7
370
     0
100
AcDbLine
 10
175.035609602
 20
100.306751784
 30
0.0
 11
175.035609602
 21
113.806751784
 31
0.0
  0
LINE
  5
147
330
1F
100
AcDbEntity
  8
0
  6
HIDDEN
 62
     7
370
     0
100
AcDbLine
 10
173.535609602
 20
113.806751784
 30
0.0
 11
173.535609602
 21
100.306751784
 31
0.0
  0
LINE
  5
148
330
1F
100
AcDbEntity
  8
0
  6
HIDDEN
 62
     7
370
     0
100
AcDbLine
 10
148.035609602
 20
81.732820638
 30
0.0
 11
148.1297703775
 21
82.4028093692
 31
0.0
  0
LINE
  5
149
330
1F
100
AcDbEntity
  8
0
  6
HIDDEN
 62
     7
370
     0
100
AcDbLine
 10
148.1297703775
 20
131.7106941988
 30
0.0
 11
148.035609602
 21
132.38068293
 31
0.0
  0
ARC
  5
14A
330
1F
100
AcDbEntity
  8
0
  6
HIDDEN
 62
     7
370
     0
100
AcDbCircle
 10
147.5356028493
 20
82.4863141696
 30
0.0
 40
0.6000067526677383
100
AcDbArc
 50
352.0
 51
0.0
  0
ARC
  5
14B
330
1F
100
AcDbEntity
  8
0
  6
HIDDEN
 62
     7
370
     0
100
AcDbCircle
 10
147.5356028493
 20
82.4863141696
 30
0.0
 40
0.6000067526677519
100
AcDbArc
 50
0.0
 51
33.5571153394
  0
ARC
  5
14C
330
1F
100
AcDbEntity
  8
0
  6
HIDDEN
 62
     7
370
     0
100
AcDbCircle
 10
147.5356028493
 20
131.6271893984
 30
0.0
 40
0.6000067526677403
100
AcDbArc
 50
348.75
 51
8.0
  0
LWPOLYLINE
  5
14D
330
1F
100
AcDbEntity
  8
0
  6
HIDDEN
 62
     7
370
     0
100
AcDbPolyline
 90
        3
 70
   128
 43
0.0
 10
148.1240806405
 20
131.5101338878
 10
148.0899368075
 20
131.3975767548
 10
148.035609602
 20
131.2955248834
  0
LINE
  5
14E
330
1F
100
AcDbEntity
  8
0
  6
HIDDEN
 62
     7
370
     0
100
AcDbLine
 10
148.135609602
 20
82.4863141696
 30
0.0
 11
148.135609602
 21
131.6271893984
 31
0.0
  0
LINE
  5
14F
330
1F
100
AcDbEntity
  8
0
  6
HIDDEN
 62
     7
370
     0
100
AcDbLine
 10
131.1180451673
 20
87.056751784
 30
0.0
 11
135.2955817437
 21
87.056751784
 31
0.0
  0
LINE
  5
150
330
1F
100
AcDbEntity
  8
0
  6
HIDDEN
 62
     7
370
     0
100
AcDbLine
 10
135.2955817437
 20
127.056751784
 30
0.0
 11
131.1180451673
 21
127.056751784
 31
0.0
  0
ARC
  5
151
330
1F
100
AcDbEntity
  8
0
  6
HIDDEN
 62
     7
370
     0
100
AcDbCircle
 10
131.1180451673
 20
87.656751784
 30
0.0
 40
0.6000000000000085
100
AcDbArc
 50
210.0
 51
270.0
  0
ARC
  5
152
330
1F
100
AcDbEntity
  8
0
  6
HIDDEN
 62
     7
370
     0
100
AcDbCircle
 10
131.1180451673
 20
126.456751784
 30
0.0
 40
0.6000000000000084
100
AcDbArc
 50
90.0
 51
150.0
  0
ARC
  5
153
330
1F
100
AcDbEntity
  8
0
  6
HIDDEN
 62
     7
370
     0
100
AcDbCircle
 10
141.7906116036
 20
95.056751784
 30
0.0
 40
8.000000000000037
100
AcDbArc
 50
277.0542283328
 51
321.3178125465
  0
ARC
  5
154
330
1F
100
AcDbEntity
  8
0
  6
HIDDEN
 62
     7
370
     0
100
AcDbCircle
 10
141.7906116036
 20
119.056751784
 30
0.0
 40
8.000000000000028
100
AcDbArc
 50
38.6821874535
 51
82.9469195222
  0
LINE
  5
155
330
1F
100
AcDbEntity
  8
0
  6
HIDDEN
 62
     7
370
     0
100
AcDbLine
 10
130.598429925
 20
126.756751784
 30
0.0
 11
129.0395841982
 21
124.056751784
 31
0.0
  0
LINE
  5
156
330
1F
100
AcDbEntity
  8
0
  6
HIDDEN
 62
     7
370
     0
100
AcDbLine
 10
129.0395841982
 20
90.056751784
 30
0.0
 11
130.598429925
 21
87.356751784
 31
0.0
  0
ARC
  5
157
330
1F
100
AcDbEntity
  8
0
  6
HIDDEN
 62
     7
370
     0
100
AcDbCircle
 10
156.485609602
 20
91.331751784
 30
0.0
 40
1.500000000000001
100
AcDbArc
 50
238.2116693829
 51
0.0
  0
ARC
  5
158
330
1F
100
AcDbEntity
  8
0
  6
HIDDEN
 62
     7
370
     0
100
AcDbCircle
 10
156.485609602
 20
122.781751784
 30
0.0
 40
1.5
100
AcDbArc
 50
0.0
 51
121.7883306171
  0
LINE
  5
159
330
1F
100
AcDbEntity
  8
0
  6
HIDDEN
 62
     7
370
     0
100
AcDbLine
 10
126.235609602
 20
90.056751784
 30
0.0
 11
129.0395841982
 21
90.056751784
 31
0.0
  0
LINE
  5
15A
330
1F
100
AcDbEntity
  8
0
  6
HIDDEN
 62
     7
370
     0
100
AcDbLine
 10
129.0395841982
 20
124.056751784
 30
0.0
 11
122.235609602
 21
124.056751784
 31
0.0
  0
LINE
  5
15B
330
1F
100
AcDbEntity
  8
0
  6
HIDDEN
 62
     7
370
     0
100
AcDbLine
 10
148.035609602
 20
90.056751784
 30
0.0
 11
155.6954355705
 21
90.056751784
 31
0.0
  0
LINE
  5
15C
330
1F
100
AcDbEntity
  8
0
  6
HIDDEN
 62
     7
370
     0
100
AcDbLine
 10
155.6954355705
 20
124.056751784
 30
0.0
 11
148.035609602
 21
124.056751784
 31
0.0
  0
LINE
  5
15D
330
1F
100
AcDbEntity
  8
0
  6
HIDDEN
 62
     7
370
     0
100
AcDbLine
 10
166.835609602
 20
97.556751784
 30
0.0
 11
169.835609602
 21
97.556751784
 31
0.0
  0
LINE
  5
15E
330
1F
100
AcDbEntity
  8
0
  6
HIDDEN
 62
     7
370
     0
100
AcDbLine
 10
169.835609602
 20
116.556751784
 30
0.0
 11
166.835609602
 21
116.556751784
 31
0.0
  0
LINE
  5
15F
330
1F
100
AcDbEntity
  8
0
  6
HIDDEN
 62
     7
370
     0
100
AcDbLine
 10
157.985609602
 20
98.056751784
 30
0.0
 11
158.485609602
 21
98.556751784
 31
0.0
  0
LINE
  5
160
330
1F
100
AcDbEntity
  8
0
  6
HIDDEN
 62
     7
370
     0
100
AcDbLine
 10
158.485609602
 20
115.556751784
 30
0.0
 11
157.985609602
 21
116.056751784
 31
0.0
  0
LINE
  5
161
330
1F
100
AcDbEntity
  8
0
  6
HIDDEN
 62
     7
370
     0
100
AcDbLine
 10
158.485609602
 20
98.556751784
 30
0.0
 11
166.835609602
 21
98.556751784
 31
0.0
  0
LINE
  5
162
330
1F
100
AcDbEntity
  8
0
  6
HIDDEN
 62
     7
370
     0
100
AcDbLine
 10
166.835609602
 20
115.556751784
 30
0.0
 11
158.485609602
 21
115.556751784
 31
0.0
  0
LINE
  5
163
330
1F
100
AcDbEntity
  8
0
  6
HIDDEN
 62
     7
370
     0
100
AcDbLine
 10
152.985609602
 20
138.556751784
 30
0.0
 11
152.985609602
 21
133.456751784
 31
0.0
  0
ARC
  5
164
330
1F
100
AcDbEntity
  8
0
  6
HIDDEN
 62
     7
370
     0
100
AcDbCircle
 10
174.9302876039
 20
113.756751784
 30
0.0
 40
0.7999999999999972
100
AcDbArc
 50
75.0
 51
90.0
  0
ARC
  5
165
330
1F
100
AcDbEntity
  8
0
  6
HIDDEN
 62
     7
370
     0
100
AcDbCircle
 10
174.9302876039
 20
100.356751784
 30
0.0
 40
0.7999999999999972
100
AcDbArc
 50
270.0
 51
285.0
  0
LINE
  5
166
330
1F
100
AcDbEntity
  8
0
  6
HIDDEN
 62
     7
370
     0
100
AcDbLine
 10
174.9302876039
 20
114.556751784
 30
0.0
 11
174.335609602
 21
114.556751784
 31
0.0
  0
LINE
  5
167
330
1F
100
AcDbEntity
  8
0
  6
HIDDEN
 62
     7
370
     0
100
AcDbLine
 10
174.335609602
 20
99.556751784
 30
0.0
 11
174.9302876039
 21
99.556751784
 31
0.0
  0
ARC
  5
168
330
1F
100
AcDbEntity
  8
0
  6
HIDDEN
 62
     7
370
     0
100
AcDbCircle
 10
174.335609602
 20
113.756751784
 30
0.0
 40
0.8000000000000114
100
AcDbArc
 50
90.0
 51
180.0
  0
ARC
  5
169
330
1F
100
AcDbEntity
  8
0
  6
HIDDEN
 62
     7
370
     0
100
AcDbCircle
 10
174.335609602
 20
100.356751784
 30
0.0
 40
0.8000000000000114
100
AcDbArc
 50
180.0
 51
270.0
  0
LINE
  5
16A
330
1F
100
AcDbEntity
  8
0
  6
HIDDEN
 62
     7
370
     0
100
AcDbLine
 10
175.13734284
 20
99.584011123
 30
0.0
 11
176.9016350058
 21
100.056751784
 31
0.0
  0
LINE
  5
16B
330
1F
100
AcDbEntity
  8
0
  6
HIDDEN
 62
     7
370
     0
100
AcDbLine
 10
176.9016350058
 20
114.056751784
 30
0.0
 11
175.13734284
 21
114.529492445
 31
0.0
  0
LINE
  5
16C
330
1F
100
AcDbEntity
  8
0
  6
HIDDEN
 62
     7
370
     0
100
AcDbLine
 10
183.135609602
 20
114.056751784
 30
0.0
 11
176.9016350058
 21
114.056751784
 31
0.0
  0
LINE
  5
16D
330
1F
100
AcDbEntity
  8
0
  6
HIDDEN
 62
     7
370
     0
100
AcDbLine
 10
176.9016350058
 20
100.056751784
 30
0.0
 11
183.135609602
 21
100.056751784
 31
0.0
  0
LINE
  5
16E
330
1F
100
AcDbEntity
  8
0
  6
HIDDEN
 62
     7
370
     0
100
AcDbLine
 10
143.2200474325
 20
82.9773804505
 30
0.0
 11
142.785615283
 21
83.4564464696
 31
0.0
  0
LINE
  5
16F
330
1F
100
AcDbEntity
  8
0
  6
HIDDEN
 62
     7
370
     0
100
AcDbLine
 10
135.2856119579
 20
83.8781344287
 30
0.0
 11
134.8031782146
 21
83.3990684532
 31
0.0
  0
LINE
  5
170
330
1F
100
AcDbEntity
  8
0
  6
HIDDEN
 62
     7
370
     0
100
AcDbLine
 10
134.8030562863
 20
130.7144298243
 30
0.0
 11
135.2856070373
 21
130.2353095664
 31
0.0
  0
LINE
  5
171
330
1F
100
AcDbEntity
  8
0
  6
HIDDEN
 62
     7
370
     0
100
AcDbLine
 10
142.785609484
 20
130.6570073441
 30
0.0
 11
143.2201518743
 21
131.1361275947
 31
0.0
  0
LINE
  5
172
330
1F
100
AcDbEntity
  8
0
  6
HIDDEN
 62
     7
370
     0
100
AcDbLine
 10
190.035609602
 20
117.4597001989
 30
0.0
 11
189.6016258717
 21
117.0257166168
 31
0.0
  0
LINE
  5
173
330
1F
100
AcDbEntity
  8
0
  6
HIDDEN
 62
     7
370
     0
100
AcDbLine
 10
189.6016253374
 20
97.087787909
 30
0.0
 11
190.035609602
 21
96.6538037365
 31
0.0
  0
LINE
  5
174
330
1F
100
AcDbEntity
  8
0
  6
HIDDEN
 62
     7
370
     0
100
AcDbLine
 10
142.785609602
 20
126.99382461
 30
0.0
 11
142.785609602
 21
130.656716038
 31
0.0
  0
LINE
  5
175
330
1F
100
AcDbEntity
  8
0
  6
HIDDEN
 62
     7
370
     0
100
AcDbLine
 10
135.285609602
 20
130.2351657873
 30
0.0
 11
135.285609602
 21
127.0548895384
 31
0.0
  0
LINE
  5
176
330
1F
100
AcDbEntity
  8
0
  6
HIDDEN
 62
     7
370
     0
100
AcDbLine
 10
142.785609602
 20
83.4567014357
 30
0.0
 11
142.785609602
 21
87.119678958
 31
0.0
  0
LINE
  5
177
330
1F
100
AcDbEntity
  8
0
  6
HIDDEN
 62
     7
370
     0
100
AcDbLine
 10
135.285609602
 20
87.0586140296
 30
0.0
 11
135.285609602
 21
83.8783158537
 31
0.0
  0
LINE
  5
178
330
1F
100
AcDbEntity
  8
0
  6
HIDDEN
 62
     7
370
     0
100
AcDbLine
 10
169.835609602
 20
104.556751784
 30
0.0
 11
173.535609602
 21
104.556751784
 31
0.0
  0
LINE
  5
179
330
1F
100
AcDbEntity
  8
0
  6
HIDDEN
 62
     7
370
     0
100
AcDbLine
 10
173.535609602
 20
109.556751784
 30
0.0
 11
169.835609602
 21
109.556751784
 31
0.0
  0
LINE
  5
17A
330
1F
100
AcDbEntity
  8
0
  6
HIDDEN
 62
     7
370
     0
100
AcDbLine
 10
189.6081384321
 20
117.031751784
 30
0.0
 11
183.135609602
 21
117.031751784
 31
0.0
  0
LINE
  5
17B
330
1F
100
AcDbEntity
  8
0
  6
HIDDEN
 62
     7
370
     0
100
AcDbLine
 10
183.135609602
 20
97.081751784
 30
0.0
 11
189.607944895
 21
97.081751784
 31
0.0
  0
DIMENSION
  5
17C
330
1F
100
AcDbEntity
  8
VERMASSUNG
100
AcDbDimension
  2
_D
 10
197.4497523816
 20
100.056751784
 30
0.0
 11
197.4497523816
 21
107.056751784
 31
0.0
 70
   160
  1
%%c<>
 71
     2
 42
-1.0
  3
SLDDIMSTYLE0
100
AcDbAlignedDimension
 13
183.135609602
 23
114.056751784
 33
0.0
 14
183.135609602
 24
100.056751784
 34
0.0
 50
90.0
100
AcDbRotatedDimension
  0
DIMENSION
  5
188
330
1F
100
AcDbEntity
  8
VERMASSUNG
100
AcDbDimension
  2
_D_1
 10
203.6497523816
 20
94.556751784
 30
0.0
 11
203.6497523816
 21
107.056751784
 31
0.0
 70
   160
  1
ST2 %%c<>
 71
     2
 42
-1.0
  3
SLDDIMSTYLE0
100
AcDbAlignedDimension
 13
189.835609602
 23
119.556751784
 33
0.0
 14
189.835609602
 24
94.556751784
 34
0.0
 50
90.0
100
AcDbRotatedDimension
  0
DIMENSION
  5
194
330
1F
100
AcDbEntity
  8
VERMASSUNG
100
AcDbDimension
  2
_D_2
 10
111.9212053151
 20
75.556751784
 30
0.0
 11
111.9212053151
 21
107.056751784
 31
0.0
 70
   160
  1
HSK A 63 %%c<>
 71
     2
 42
-1.0
  3
SLDDIMSTYLE0
100
AcDbAlignedDimension
 13
148.335609602
 23
138.556751784
 33
0.0
 14
148.335609602
 24
75.556751784
 34
0.0
 50
90.0
100
AcDbRotatedDimension
  0
DIMENSION
  5
1A1
330
1F
100
AcDbEntity
  8
VERMASSUNG
100
AcDbDimension
  2
_D_3
 10
190.035609602
 20
140.7940163069
 30
0.0
 11
182.010609602
 21
140.7940163069
 31
0.0
 70
   160
  1
(<>)
 71
     2
 42
-1.0
  3
SLDDIMSTYLE0
100
AcDbAlignedDimension
 13
173.985609602
 23
136.9031921078
 33
0.0
 14
190.035609602
 24
119.356751784
 34
0.0
100
AcDbRotatedDimension
  0
DIMENSION
  5
1AD
330
1F
100
AcDbEntity
  8
VERMASSUNG
100
AcDbDimension
  2
_D_4
 10
190.035609602
 20
146.7940163069
 30
0.0
 11
169.035609602
 21
146.7940163069
 31
0.0
 70
   160
  1
<>
 71
     2
 42
-1.0
  3
SLDDIMSTYLE0
100
AcDbAlignedDimension
 13
148.035609602
 23
138.256751784
 33
0.0
 14
190.035609602
 24
119.356751784
 34
0.0
100
AcDbRotatedDimension
  0
DIMENSION
  5
1B7
330
1F
100
AcDbEntity
  8
VERMASSUNG
100
AcDbDimension
  2
_D_5
 10
190.035609602
 20
152.7940163069
 30
0.0
 11
153.085609602
 21
152.7940163069
 31
0.0
 70
   160
  1
(<>)
 71
     2
 42
-1.0
  3
SLDDIMSTYLE0
100
AcDbAlignedDimension
 13
116.135609602
 23
126.7474295305
 33
0.0
 14
190.035609602
 24
119.356751784
 34
0.0
100
AcDbRotatedDimension
  0
LINE
  5
1C3
330
1F
100
AcDbEntity
  8
VERMASSUNG
  6
CENTERX2
370
     0
100
AcDbLine
 10
114.2751635626
 20
107.056751784
 30
0.0
 11
191.3458184939
 21
107.056751784
 31
0.0
  0
LINE
  5
1C4
330
1F
100
AcDbEntity
  8
0
  6
Continuous
 62
     7
370
    15
100
AcDbLine
 10
254.3179846515
 20
43.034384363
 30
0.0
 11
254.2295819418
 21
43.0854347499
 31
0.0
  0
LINE
  5
1C5
330
1F
100
AcDbEntity
  8
0
  6
Continuous
 62
     7
370
    15
100
AcDbLine
 10
252.6383331664
 20
43.0854347499
 30
0.0
 11
252.5499304567
 21
43.034384363
 31
0.0
  0
LINE
  5
1C6
330
1F
100
AcDbEntity
  8
0
  6
Continuous
 62
     7
370
    15
100
AcDbLine
 10
254.6839575541
 20
42.4221446157
 30
0.0
 11
254.6839575541
 21
42.5242122171
 31
0.0
  0
LINE
  5
1C7
330
1F
100
AcDbEntity
  8
0
  6
Continuous
 62
     7
370
    15
100
AcDbLine
 10
252.1839575541
 20
42.5242122171
 30
0.0
 11
252.1839575541
 21
42.4221446157
 31
0.0
  0
LINE
  5
1C8
330
1F
100
AcDbEntity
  8
0
  6
Continuous
 62
     7
370
    15
100
AcDbLine
 10
233.1321958552
 20
31.0568164445
 30
0.0
 11
238.1908615155
 21
28.1365109193
 31
0.0
  0
LINE
  5
1C9
330
1F
100
AcDbEntity
  8
0
  6
Continuous
 62
     7
370
    15
100
AcDbLine
 10
251.0640924616
 20
57.0770346038
 30
0.0
 11
248.8809158943
 21
58.3373556095
 31
0.0
  0
LINE
  5
1CA
330
1F
100
AcDbEntity
  8
0
  6
Continuous
 62
     7
370
    15
100
AcDbLine
 10
255.679739864
 20
31.1238865139
 30
0.0
 11
255.7504390496
 21
31.164713554
 31
0.0
  0
LINE
  5
1CB
330
1F
100
AcDbEntity
  8
0
  6
Continuous
 62
     7
370
    15
100
AcDbLine
 10
260.0984389668
 20
38.6964864051
 30
0.0
 11
260.0984389668
 21
38.7781272163
 31
0.0
  0
LINE
  5
1CC
330
1F
100
AcDbEntity
  8
0
  6
Continuous
 62
     7
370
    15
100
AcDbLine
 10
258.8037676239
 20
41.6396572567
 30
0.0
 11
254.6141599453
 21
44.058266288
 31
0.0
  0
LINE
  5
1CD
330
1F
100
AcDbEntity
  8
0
  6
Continuous
 62
     7
370
    15
100
AcDbLine
 10
248.3646678663
 20
33.2326555082
 30
0.0
 11
252.5542755449
 21
30.8140464769
 31
0.0
  0
SPLINE
  5
1CE
330
1F
100
AcDbEntity
  8
0
  6
Continuous
 62
     7
370
    15
100
AcDbSpline
210
0.0
220
0.0
230
1.0
 70
     8
 71
     3
 72
    10
 73
     6
 74
     0
 42
0.000000001
 43
0.00000001
 40
0.0
 40
0.0
 40
0.0
 40
0.0
 40
0.1928762709510173
 40
0.6849555902905377
 40
1.0
 40
1.0
 40
1.0
 40
1.0
 10
229.9553513344998
 20
40.30603096094569
 30
0.0
 10
229.9378758013897
 20
40.17488703422268
 30
0.0
 10
229.8758154761974
 20
39.70915962618712
 30
0.0
 10
229.8355895035619
 20
39.04951976108753
 30
0.0
 10
229.8284693111977
 20
38.53135707180245
 30
0.0
 10
229.8256900882364
 20
38.32910275477025
 30
0.0
  0
SPLINE
  5
1CF
330
1F
100
AcDbEntity
  8
0
  6
Continuous
 62
     7
370
    15
100
AcDbSpline
210
0.0
220
0.0
230
1.0
 70
     8
 71
     3
 72
    10
 73
     6
 74
     0
 42
0.000000001
 43
0.00000001
 40
0.0
 40
0.0
 40
0.0
 40
0.0
 40
0.1068604487570109
 40
0.5990694535020861
 40
1.0
 40
1.0
 40
1.0
 40
1.0
 10
237.2441489377302
 20
54.70414705153295
 30
0.0
 10
237.1882203170028
 20
54.65102442230643
 30
0.0
 10
236.8746793517159
 20
54.35321410212254
 30
0.0
 10
236.3673137883473
 20
53.81145312261491
 30
0.0
 10
235.9307450461387
 20
53.3004186498208
 30
0.0
 10
235.7347692390501
 20
53.07101515943514
 30
0.0
  0
SPLINE
  5
1D0
330
1F
100
AcDbEntity
  8
0
  6
Continuous
 62
     7
370
    15
100
AcDbSpline
210
0.0
220
0.0
230
1.0
 70
     8
 71
     3
 72
    15
 73
    11
 74
     0
 42
0.000000001
 43
0.00000001
 40
0.0
 40
0.0
 40
0.0
 40
0.0
 40
0.0731587950571148
 40
0.2097742051820802
 40
0.3464328176107903
 40
0.483105771201249
 40
0.6197710050181676
 40
0.7564195754197669
 40
0.8930472860919306
 40
1.0
 40
1.0
 40
1.0
 40
1.0
 10
243.1141057610725
 20
58.56732123780968
 30
0.0
 10
242.9713341154733
 20
58.51922889980813
 30
0.0
 10
242.5619532822498
 20
58.3813298000246
 30
0.0
 10
241.8758068362858
 20
58.07326298597763
 30
0.0
 10
241.0616074064583
 20
57.65127892841355
 30
0.0
 10
240.2468608966805
 20
57.15668210637087
 30
0.0
 10
239.4363503699778
 20
56.59737635471271
 30
0.0
 10
238.6349578582776
 20
55.973053774768
 30
0.0
 10
237.9012633333311
 20
55.34433398008053
 30
0.0
 10
237.4446440129196
 20
54.89947731249462
 30
0.0
 10
237.2441489377302
 20
54.70414705153295
 30
0.0
  0
SPLINE
  5
1D1
330
1F
100
AcDbEntity
  8
0
  6
Continuous
 62
     7
370
    15
100
AcDbSpline
210
0.0
220
0.0
230
1.0
 70
     8
 71
     3
 72
    11
 73
     7
 74
     0
 42
0.000000001
 43
0.00000001
 40
0.0
 40
0.0
 40
0.0
 40
0.0
 40
0.1952692711210365
 40
0.5662509004861336
 40
0.9373271229736228
 40
1.0
 40
1.0
 40
1.0
 40
1.0
 10
229.8256900882364
 20
38.32910275477025
 30
0.0
 10
229.8272458273982
 20
38.16488214698776
 30
0.0
 10
229.8317572320663
 20
37.68866760231638
 30
0.0
 10
229.8891489116895
 20
36.93099452875848
 30
0.0
 10
229.964216306741
 20
36.29691751738527
 30
0.0
 10
230.0356314399449
 20
35.97947083628944
 30
0.0
 10
230.0459502898656
 20
35.93360262162561
 30
0.0
  0
SPLINE
  5
1D2
330
1F
100
AcDbEntity
  8
0
  6
Continuous
 62
     7
370
    15
100
AcDbSpline
210
0.0
220
0.0
230
1.0
 70
     8
 71
     3
 72
    21
 73
    17
 74
     0
 42
0.000000001
 43
0.00000001
 40
0.0
 40
0.0
 40
0.0
 40
0.0
 40
0.0105537586653047
 40
0.091627336581013
 40
0.1728398184098716
 40
0.2540822403299078
 40
0.3352464913753238
 40
0.4162344292169892
 40
0.496960495957326
 40
0.5773576306873633
 40
0.6574168376178047
 40
0.73727746537667
 40
0.8172368382842302
 40
0.8981148703256464
 40
0.9814738989044243
 40
1.0
 40
1.0
 40
1.0
 40
1.0
 10
253.4567947945083
 20
36.31613320774886
 30
0.0
 10
253.4642931669277
 20
36.33747112891689
 30
0.0
 10
253.5293937548107
 20
36.52272615954684
 30
0.0
 10
253.6859008392143
 20
36.87168719880376
 30
0.0
 10
253.9427702132511
 20
37.34887551265843
 30
0.0
 10
254.2414976388719
 20
37.80077269125373
 30
0.0
 10
254.5714419381313
 20
38.2160091478997
 30
0.0
 10
254.9248145662478
 20
38.58444630299562
 30
0.0
 10
255.2919475640844
 20
38.89733685924742
 30
0.0
 10
255.6628096180332
 20
39.14765294104731
 30
0.0
 10
256.0271156988819
 20
39.3306811564533
 30
0.0
 10
256.3743673111525
 20
39.44356550686532
 30
0.0
 10
256.6965721907915
 20
39.48856719373161
 30
0.0
 10
256.9840317533722
 20
39.46157090993688
 30
0.0
 10
257.177934242984
 20
39.41029420015965
 30
0.0
 10
257.2657423307091
 20
39.34682938759584
 30
0.0
 10
257.2817087579533
 20
39.33528937643496
 30
0.0
  0
SPLINE
  5
1D3
330
1F
100
AcDbEntity
  8
0
  6
Continuous
 62
     7
370
    15
100
AcDbSpline
210
0.0
220
0.0
230
1.0
 70
     8
 71
     3
 72
    22
 73
    18
 74
     0
 42
0.000000001
 43
0.00000001
 40
0.0
 40
0.0
 40
0.0
 40
0.0
 40
0.0167629453253963
 40
0.0890739650897268
 40
0.1616482326503159
 40
0.2344740017403483
 40
0.3075091097542209
 40
0.3806987854341911
 40
0.4539895313924415
 40
0.5273368249029681
 40
0.6007075665589158
 40
0.6740748846389351
 40
0.7474264748253854
 40
0.8207566306661486
 40
0.8940634948173408
 40
0.9673477171471513
 40
1.0
 40
1.0
 40
1.0
 40
1.0
 10
244.0807084809239
 20
25.24692088973495
 30
0.0
 10
244.1341703558419
 20
25.23743912762636
 30
0.0
 10
244.4182529611145
 20
25.18705549094105
 30
0.0
 10
244.9620444413442
 20
25.17135227238435
 30
0.0
 10
245.7091169745306
 20
25.20332225665487
 30
0.0
 10
246.4810542270232
 20
25.31842693607172
 30
0.0
 10
247.2705975525743
 20
25.50815347471398
 30
0.0
 10
248.0742030620058
 20
25.77373175755505
 30
0.0
 10
248.8871621013966
 20
26.11310885299877
 30
0.0
 10
249.7050420341195
 20
26.52449467726431
 30
0.0
 10
250.5233480303283
 20
27.00549354879919
 30
0.0
 10
251.337728122779
 20
27.55330783283941
 30
0.0
 10
252.1437380972166
 20
28.16510680420832
 30
0.0
 10
252.9376913131482
 20
28.83661003255743
 30
0.0
 10
253.7135619215267
 20
29.56760000159088
 30
0.0
 10
254.3339122356822
 20
30.19843949589934
 30
0.0
 10
254.6847720608441
 20
30.60142808289093
 30
0.0
 10
254.7929158421886
 20
30.7256392535939
 30
0.0
  0
SPLINE
  5
1D4
330
1F
100
AcDbEntity
  8
0
  6
Continuous
 62
     7
370
    15
100
AcDbSpline
210
0.0
220
0.0
230
1.0
 70
     8
 71
     3
 72
    11
 73
     7
 74
     0
 42
0.000000001
 43
0.00000001
 40
0.0
 40
0.0
 40
0.0
 40
0.0
 40
0.1231338619827053
 40
0.5129128645915276
 40
0.9028164995364834
 40
1.0
 40
1.0
 40
1.0
 40
1.0
 10
259.9930959349331
 20
39.72264325989097
 30
0.0
 10
260.0317108217842
 20
39.83305608019616
 30
0.0
 10
260.1925607448824
 20
40.29297957352668
 30
0.0
 10
260.4195045639655
 20
41.10072225271345
 30
0.0
 10
260.6143829146978
 20
41.88066601345846
 30
0.0
 10
260.6996569333916
 20
42.3085911671127
 30
0.0
 10
260.716670783754
 20
42.39397068413409
 30
0.0
  0
LINE
  5
1D5
330
1F
100
AcDbEntity
  8
0
  6
Continuous
 62
     7
370
    15
100
AcDbLine
 10
240.589320222
 20
26.7519101801
 30
0.0
 11
241.9887082896
 21
25.9440606442
 31
0.0
  0
LINE
  5
1D6
330
1F
100
AcDbEntity
  8
0
  6
Continuous
 62
     7
370
    15
100
AcDbLine
 10
241.6576305397
 20
57.9500906283
 30
0.0
 11
235.5142396476
 21
61.0108974101
 31
0.0
  0
LINE
  5
1D7
330
1F
100
AcDbEntity
  8
0
  6
Continuous
 62
     7
370
    15
100
AcDbLine
 10
224.1325418344
 20
41.2950822717
 30
0.0
 11
229.8565224872
 21
37.5049000213
 31
0.0
  0
LINE
  5
1D8
330
1F
100
AcDbEntity
  8
0
  6
Continuous
 62
     7
370
    15
100
AcDbLine
 10
253.4049594588
 20
33.6664179626
 30
0.0
 11
253.3686561578
 21
33.7294683775
 31
0.0
  0
SPLINE
  5
1D9
330
1F
100
AcDbEntity
  8
0
  6
Continuous
 62
     7
370
    15
100
AcDbSpline
210
0.0
220
0.0
230
1.0
 70
     8
 71
     3
 72
    10
 73
     6
 74
     0
 42
0.000000001
 43
0.00000001
 40
0.0
 40
0.0
 40
0.0
 40
0.0
 40
0.4156367803952367
 40
0.9535802309693796
 40
1.0
 40
1.0
 40
1.0
 40
1.0
 10
253.7934786299795
 20
33.28172030213169
 30
0.0
 10
253.7315825282957
 20
33.31986541098137
 30
0.0
 10
253.5895765708741
 20
33.40738033608653
 30
0.0
 10
253.4691456876066
 20
33.55386607640553
 30
0.0
 10
253.4096829690197
 20
33.65813518916136
 30
0.0
 10
253.4049594587607
 20
33.66641796256114
 30
0.0
  0
SPLINE
  5
1DA
330
1F
100
AcDbEntity
  8
0
  6
Continuous
 62
     7
370
    15
100
AcDbSpline
210
0.0
220
0.0
230
1.0
 70
     8
 71
     3
 72
    10
 73
     6
 74
     0
 42
0.000000001
 43
0.00000001
 40
0.0
 40
0.0
 40
0.0
 40
0.0
 40
0.0276582149065851
 40
0.7431300157345454
 40
1.0
 40
1.0
 40
1.0
 40
1.0
 10
259.2221623216819
 20
51.97435346968957
 30
0.0
 10
259.2166226217805
 20
51.98166866877267
 30
0.0
 10
259.0677801426556
 20
52.17821584392814
 30
0.0
 10
258.8361380920975
 20
52.40454143275319
 30
0.0
 10
258.5987354101563
 20
52.60514204272336
 30
0.0
 10
258.5360191676685
 20
52.65813603754766
 30
0.0
  0
SPLINE
  5
1DB
330
1F
100
AcDbEntity
  8
0
  6
Continuous
 62
     7
370
    15
100
AcDbSpline
210
0.0
220
0.0
230
1.0
 70
     8
 71
     3
 72
    12
 73
     8
 74
     0
 42
0.000000001
 43
0.00000001
 40
0.0
 40
0.0
 40
0.0
 40
0.0
 40
0.1180949062059849
 40
0.3413964454997745
 40
0.564417810346134
 40
0.7868539178876008
 40
1.0
 40
1.0
 40
1.0
 40
1.0
 10
260.7274255918322
 20
48.93526506001189
 30
0.0
 10
260.6892449556829
 20
49.07514734913182
 30
0.0
 10
260.5788698862827
 20
49.47952818000879
 30
0.0
 10
260.3516297436182
 20
50.10985400812073
 30
0.0
 10
260.0267308361655
 20
50.8028734405914
 30
0.0
 10
259.6547444051483
 20
51.43210276996408
 30
0.0
 10
259.3642914384411
 20
51.79619164570351
 30
0.0
 10
259.2221623216819
 20
51.97435346968957
 30
0.0
  0
SPLINE
  5
1DC
330
1F
100
AcDbEntity
  8
0
  6
Continuous
 62
     7
370
    15
100
AcDbSpline
210
0.0
220
0.0
230
1.0
 70
     8
 71
     3
 72
    29
 73
    25
 74
     0
 42
0.000000001
 43
0.00000001
 40
0.0
 40
0.0
 40
0.0
 40
0.0
 40
0.0256238170622069
 40
0.0712510982928028
 40
0.1170298042155619
 40
0.1631641487001495
 40
0.2097678165911395
 40
0.2568519321130771
 40
0.3043454684986063
 40
0.3521351457336686
 40
0.4001046341469926
 40
0.4481589374073156
 40
0.4962247287581077
 40
0.5442618074161778
 40
0.5922555458363841
 40
0.6402025354781503
 40
0.6881061227006149
 40
0.7359734953311128
 40
0.7838139182114661
 40
0.8316377320364753
 40
0.87945582461338
 40
0.9272789232118007
 40
0.9751150712517913
 40
0.9999999999999999
 40
0.9999999999999999
 40
0.9999999999999999
 40
0.9999999999999999
 10
235.5453690066807
 20
60.98367970161592
 30
0.0
 10
235.447275946852
 20
61.0353782381343
 30
0.0
 10
235.1745125942753
 20
61.17913424053324
 30
0.0
 10
234.6851442328494
 20
61.33293034314988
 30
0.0
 10
234.0871173807459
 20
61.4501589051345
 30
0.0
 10
233.4587716518156
 20
61.48748271698253
 30
0.0
 10
232.8058206041069
 20
61.44877645155945
 30
0.0
 10
232.1316444855459
 20
61.3324549202566
 30
0.0
 10
231.4412724319611
 20
61.13910268293738
 30
0.0
 10
230.7401357410929
 20
60.86981218041206
 30
0.0
 10
230.0339917331139
 20
60.52675449952444
 30
0.0
 10
229.3285632669551
 20
60.11291072525855
 30
0.0
 10
228.6293467256062
 20
59.63190566568262
 30
0.0
 10
227.9415267900822
 20
59.08781014831504
 30
0.0
 10
227.2699744010046
 20
58.48500188600755
 30
0.0
 10
226.6193299247961
 20
57.82813306964157
 30
0.0
 10
225.9940554164299
 20
57.12214071382257
 30
0.0
 10
225.3984643658812
 20
56.37222933990536
 30
0.0
 10
224.8366056223024
 20
55.58386149809304
 30
0.0
 10
224.3126325139805
 20
54.7626976487745
 30
0.0
 10
223.8293298316836
 20
53.91469687172246
 30
0.0
 10
223.3935132639062
 20
53.04561281593477
 30
0.0
 10
223.0594512770747
 20
52.30407860788376
 30
0.0
 10
222.8918338484736
 20
51.85238345402894
 30
0.0
 10
222.8344756800867
 20
51.69781476203438
 30
0.0
  0
LINE
  5
1DD
330
1F
100
AcDbEntity
  8
0
  6
Continuous
 62
     7
370
    15
100
AcDbLine
 10
222.9483561126
 20
49.8512223646
 30
0.0
 11
225.5019160112
 21
48.3770836131
 31
0.0
  0
LINE
  5
1DE
330
1F
100
AcDbEntity
  8
0
  6
Continuous
 62
     7
370
    15
100
AcDbLine
 10
222.6500638351
 20
50.9753978154
 30
0.0
 11
222.6500638351
 21
50.5141259982
 31
0.0
  0
LINE
  5
1DF
330
1F
100
AcDbEntity
  8
0
  6
Continuous
 62
     7
370
    15
100
AcDbLine
 10
222.6500638351
 20
43.5038878231
 30
0.0
 11
222.6500638351
 21
43.0427775694
 31
0.0
  0
SPLINE
  5
1E0
330
1F
100
AcDbEntity
  8
0
  6
Continuous
 62
     7
370
    15
100
AcDbSpline
210
0.0
220
0.0
230
1.0
 70
     8
 71
     3
 72
    11
 73
     7
 74
     0
 42
0.000000001
 43
0.00000001
 40
0.0
 40
0.0
 40
0.0
 40
0.0
 40
0.1997245182293877
 40
0.5195411125527489
 40
0.8357454779518417
 40
1.0
 40
1.0
 40
1.0
 40
1.0
 10
222.7659314335623
 20
42.75519434372626
 30
0.0
 10
222.8348224447542
 20
42.63980603111958
 30
0.0
 10
223.014027846859
 20
42.33964772888047
 30
0.0
 10
223.3692403362675
 20
41.927126879265
 30
0.0
 10
223.7393403301259
 20
41.56786296970503
 30
0.0
 10
223.9940808917599
 20
41.39984112627578
 30
0.0
 10
224.0811690699385
 20
41.34239948390601
 30
0.0
  0
LWPOLYLINE
  5
1E1
330
1F
100
AcDbEntity
  8
0
  6
Continuous
 62
     7
370
    15
100
AcDbPolyline
 90
       22
 70
   128
 43
0.0
 10
253.0316727698
 20
43.2327869686
 10
253.359219372
 20
43.2742937493
 10
253.6934067896
 20
43.2582216486
 10
254.0045410041
 20
43.185998743
 10
254.2649763752
 20
43.0640423546
 10
254.451572077
 20
42.9031888439
 10
254.5477482629
 20
42.7177307511
 10
254.5449592564
 20
42.5241468416
 10
254.4434528731
 20
42.3396378953
 10
254.2522484007
 20
42.1805983418
 10
253.9883351955
 20
42.0611595434
 10
253.675163104
 20
41.9919341614
 10
253.3405588409
 20
41.9790731748
 10
253.0142534634
 20
42.0237193388
 10
252.7252406361
 20
42.1219056457
 10
252.4992004172
 20
42.2649078112
 10
252.356217472
 20
42.4400194655
 10
252.3089964627
 20
42.6316811695
 10
252.3617331831
 20
42.8228629398
 10
252.5097417443
 20
42.9965774371
 10
252.7398709361
 20
43.137389366
 10
253.0316727698
 20
43.2327869686
  0
LWPOLYLINE
  5
1E2
330
1F
100
AcDbEntity
  8
0
  6
Continuous
 62
     7
370
    15
100
AcDbPolyline
 90
       19
 70
   128
 43
0.0
 10
254.3179846515
 20
43.034384363
 10
254.4859500041
 20
42.9139613306
 10
254.6290894359
 20
42.7356601726
 10
254.6835914035
 20
42.5416768871
 10
254.6454137452
 20
42.3463983269
 10
254.5173879232
 20
42.1643074095
 10
254.3090090271
 20
42.0089089852
 10
254.0357315663
 20
41.8917282443
 10
253.71782328
 20
41.8214559463
 10
253.3788619714
 20
41.8033038659
 10
253.0439868501
 20
41.83861826
 10
252.738034072
 20
41.9247800216
 10
252.4836947548
 20
42.0553989268
 10
252.2998320824
 20
42.2207875692
 10
252.2000823078
 20
42.4086798296
 10
252.1918434158
 20
42.6051405986
 10
252.275726447
 20
42.7955992798
 10
252.4455101809
 20
42.9659304241
 10
252.5499304567
 20
43.034384363
  0
LWPOLYLINE
  5
1E3
330
1F
100
AcDbEntity
  8
0
  6
Continuous
 62
     7
370
    15
100
AcDbPolyline
 90
       18
 70
   128
 43
0.0
 10
253.1657676979
 20
43.0306179186
 10
253.4368952449
 20
43.0592422813
 10
253.7076260404
 20
43.0293926644
 10
253.9413963905
 20
42.9451004238
 10
254.1066343139
 20
42.8177496939
 10
254.1810235134
 20
42.6645398964
 10
254.1545173155
 20
42.5061628633
 10
254.0306955291
 20
42.3640082907
 10
253.8262809725
 20
42.2572749412
 10
253.5688809643
 20
42.2003777451
 10
253.2932588019
 20
42.2010009841
 10
253.0366387857
 20
42.2590604862
 10
252.8336788707
 20
42.366714994
 10
252.7117899182
 20
42.5094251697
 10
252.6874337066
 20
42.6679172132
 10
252.7638996772
 20
42.8207858958
 10
252.9308606771
 20
42.947385455
 10
253.1657676979
 20
43.0306179186
  0
SPLINE
  5
1E4
330
1F
100
AcDbEntity
  8
0
  6
Continuous
 62
     7
370
    15
100
AcDbSpline
210
0.0
220
0.0
230
1.0
 70
     8
 71
     3
 72
    11
 73
     7
 74
     0
 42
0.000000001
 43
0.00000001
 40
0.0
 40
0.0
 40
0.0
 40
0.0
 40
0.1285561766306812
 40
0.4801535797842835
 40
0.815069183175491
 40
1.0
 40
1.0
 40
1.0
 40
1.0
 10
252.8734810775737
 20
42.86562108794874
 30
0.0
 10
252.9006238300051
 20
42.8603729474541
 30
0.0
 10
253.0020012207043
 20
42.84077129538451
 30
0.0
 10
253.1921065337014
 20
42.84229611269684
 30
0.0
 10
253.3979504870358
 20
42.92086784530188
 30
0.0
 10
253.5082225980115
 20
42.99000453577726
 30
0.0
 10
253.547450936926
 20
43.01459930866586
 30
0.0
  0
SPLINE
  5
1E5
330
1F
100
AcDbEntity
  8
0
  6
Continuous
 62
     7
370
    15
100
AcDbSpline
210
0.0
220
0.0
230
1.0
 70
     8
 71
     3
 72
    10
 73
     6
 74
     0
 42
0.000000001
 43
0.00000001
 40
0.0
 40
0.0
 40
0.0
 40
0.0
 40
0.4391119879277053
 40
0.7513633230734866
 40
1.0
 40
1.0
 40
1.0
 40
1.0
 10
252.7599876947478
 20
42.45418356093299
 30
0.0
 10
252.7762349645164
 20
42.47813075145208
 30
0.0
 10
252.8040356234367
 20
42.51910672373561
 30
0.0
 10
252.8444490575546
 20
42.69219686734724
 30
0.0
 10
252.8645642093422
 20
42.81235573051751
 30
0.0
 10
252.8734810775737
 20
42.86562108794874
 30
0.0
  0
SPLINE
  5
1E6
330
1F
100
AcDbEntity
  8
0
  6
Continuous
 62
     7
370
    15
100
AcDbSpline
210
0.0
220
0.0
230
1.0
 70
     8
 71
     3
 72
     9
 73
     5
 74
     0
 42
0.000000001
 43
0.00000001
 40
0.0
 40
0.0
 40
0.0
 40
0.0
 40
0.3974672949266892
 40
1.0
 40
1.0
 40
1.0
 40
1.0
 10
252.9895709688415
 20
42.27910238109384
 30
0.0
 10
252.9574917214223
 20
42.29609426983468
 30
0.0
 10
252.8767825716918
 20
42.33884467712035
 30
0.0
 10
252.8039011405833
 20
42.41081755071443
 30
0.0
 10
252.7599876947478
 20
42.45418356093299
 30
0.0
  0
LINE
  5
1E7
330
1F
100
AcDbEntity
  8
0
  6
Continuous
 62
     7
370
    15
100
AcDbLine
 10
253.9944340306
 20
42.3407024754
 30
0.0
 11
253.917992137
 21
42.2952188222
 31
0.0
  0
SPLINE
  5
1E8
330
1F
100
AcDbEntity
  8
0
  6
Continuous
 62
     7
370
    15
100
AcDbSpline
210
0.0
220
0.0
230
1.0
 70
     8
 71
     3
 72
    10
 73
     6
 74
     0
 42
0.000000001
 43
0.00000001
 40
0.0
 40
0.0
 40
0.0
 40
0.0
 40
0.4391119879276878
 40
0.7513633230734723
 40
1.0
 40
1.0
 40
1.0
 40
1.0
 10
254.1079274134524
 20
42.75214000236724
 30
0.0
 10
254.0916801436838
 20
42.65828761148537
 30
0.0
 10
254.0638794847636
 20
42.49769704181275
 30
0.0
 10
254.0234660506456
 20
42.3777726857647
 30
0.0
 10
254.0033508988581
 20
42.35208818607208
 30
0.0
 10
253.9944340306265
 20
42.3407024753515
 30
0.0
  0
SPLINE
  5
1E9
330
1F
100
AcDbEntity
  8
0
  6
Continuous
 62
     7
370
    15
100
AcDbSpline
210
0.0
220
0.0
230
1.0
 70
     8
 71
     3
 72
    10
 73
     6
 74
     0
 42
0.000000001
 43
0.00000001
 40
0.0
 40
0.0
 40
0.0
 40
0.0
 40
0.4391119879276739
 40
0.7513633230734672
 40
1.0
 40
1.0
 40
1.0
 40
1.0
 10
253.547450936926
 20
43.01459930866586
 30
0.0
 10
253.6276865620023
 20
42.94207405846271
 30
0.0
 10
253.7649775209002
 20
42.81797630094864
 30
0.0
 10
253.9645554927148
 20
42.75110104219641
 30
0.0
 10
254.0638922920765
 20
42.75182089708504
 30
0.0
 10
254.1079274134524
 20
42.75214000236724
 30
0.0
  0
LINE
  5
1EA
330
1F
100
AcDbEntity
  8
0
  6
Continuous
 62
     7
370
    15
100
AcDbLine
 10
252.8734810776
 20
42.353418315
 30
0.0
 11
252.8734810776
 21
42.8656210879
 31
0.0
  0
LINE
  5
1EB
330
1F
100
AcDbEntity
  8
0
  6
Continuous
 62
     7
370
    15
100
AcDbLine
 10
253.5474509369
 20
42.1983000085
 30
0.0
 11
253.5474509369
 21
43.0145993087
 31
0.0
  0
SPLINE
  5
1EC
330
1F
100
AcDbEntity
  8
0
  6
Continuous
 62
     7
370
    15
100
AcDbSpline
210
0.0
220
0.0
230
1.0
 70
     8
 71
     3
 72
    10
 73
     6
 74
     0
 42
0.000000001
 43
0.00000001
 40
0.0
 40
0.0
 40
0.0
 40
0.0
 40
0.5
 40
0.5
 40
1.0
 40
1.0
 40
1.0
 40
1.0
 10
239.6240640416067
 20
37.10299009901676
 30
0.0
 10
239.5675353558241
 20
37.07035678333413
 30
0.0
 10
239.4888920332494
 20
37.04998380787517
 30
0.0
 10
239.3286621189183
 20
37.04692240791381
 30
0.0
 10
239.2474951063776
 20
37.06458160779405
 30
0.0
 10
239.1903812060397
 20
37.09755276064837
 30
0.0
  0
SPLINE
  5
1ED
330
1F
100
AcDbEntity
  8
0
  6
Continuous
 62
     7
370
    15
100
AcDbSpline
210
0.0
220
0.0
230
1.0
 70
     8
 71
     3
 72
    12
 73
     8
 74
     0
 42
0.000000001
 43
0.00000001
 40
0.0
 40
0.0
 40
0.0
 40
0.0
 40
0.250000000000002
 40
0.250000000000002
 40
0.500000000000004
 40
0.500000000000004
 40
1.0
 40
1.0
 40
1.0
 40
1.0
 10
256.8811031123846
 20
53.62151463890348
 30
0.0
 10
256.9130074407292
 20
53.60309666218771
 30
0.0
 10
256.9451447771701
 20
53.57318212155565
 30
0.0
 10
256.9998030835963
 20
53.50278470161274
 30
0.0
 10
257.0227764229268
 20
53.46240400493691
 30
0.0
 10
257.0764582118644
 20
53.33988017490154
 30
0.0
 10
257.0932351467405
 20
53.25507885329586
 30
0.0
 10
257.0932351467405
 20
53.18152625766225
 30
0.0
  0
LINE
  5
1EE
330
1F
100
AcDbEntity
  8
0
  6
Continuous
 62
     7
370
    15
100
AcDbLine
 10
239.190381206
 20
37.0975527606
 30
0.0
 11
237.7909931384
 21
37.9054022965
 31
0.0
  0
LWPOLYLINE
  5
1EF
330
1F
100
AcDbEntity
  8
0
  6
Continuous
 62
     7
370
    15
100
AcDbPolyline
 90
       26
 70
   128
 43
0.0
 10
237.7909931384
 20
37.9054022965
 10
238.0734376183
 20
39.0237575554
 10
238.4198962012
 20
40.1505436395
 10
238.828234362
 20
41.2788184395
 10
239.2959363363
 20
42.4016306742
 10
239.8201206204
 20
43.512062717
 10
240.3975577242
 20
44.6032732154
 10
241.0246900677
 20
45.6685392407
 10
241.6976538996
 20
46.7012977076
 10
242.4123031015
 20
47.6951858091
 10
243.164234732
 20
48.6440802182
 10
243.9488161537
 20
49.5421348128
 10
244.761213574
 20
50.3838166944
 10
245.5964218267
 20
51.1639402757
 10
246.4492952084
 20
51.8776992288
 10
247.314579181
 20
52.5206960974
 10
248.1869427452
 20
53.0889693889
 10
249.0610112842
 20
53.5790179817
 10
249.9313996771
 20
53.9878226948
 10
250.7927454763
 20
54.3128648896
 10
251.6397419453
 20
54.5521419868
 10
252.4671707536
 20
54.7041798044
 10
253.269934127
 20
54.7680416401
 10
254.0430862542
 20
54.7433340422
 10
254.7818637585
 20
54.6302092338
 10
255.4817150448
 20
54.4293641748
  0
LINE
  5
1F0
330
1F
100
AcDbEntity
  8
0
  6
Continuous
 62
     7
370
    15
100
AcDbLine
 10
255.4817150448
 20
54.4293641748
 30
0.0
 11
256.8811031124
 21
53.6215146389
 31
0.0
  0
LINE
  5
1F1
330
1F
100
AcDbEntity
  8
0
  6
Continuous
 62
     7
370
    15
100
AcDbLine
 10
259.4090098551
 20
48.1163257955
 30
0.0
 11
260.6275105171
 21
48.8197512548
 31
0.0
  0
LINE
  5
1F2
330
1F
100
AcDbEntity
  8
0
  6
Continuous
 62
     7
370
    15
100
AcDbLine
 10
259.4090098551
 20
41.5839993004
 30
0.0
 11
259.4090098551
 21
48.1163257955
 31
0.0
  0
LINE
  5
1F3
330
1F
100
AcDbEntity
  8
0
  6
Continuous
 62
     7
370
    15
100
AcDbLine
 10
260.6275105171
 20
42.2874247597
 30
0.0
 11
259.4090098551
 21
41.5839993004
 31
0.0
  0
LINE
  5
1F4
330
1F
100
AcDbEntity
  8
0
  6
Continuous
 62
     7
370
    15
100
AcDbLine
 10
239.6240640416
 20
29.754122792
 30
0.0
 11
240.7413908318
 21
30.3991418184
 31
0.0
  0
LINE
  5
1F5
330
1F
100
AcDbEntity
  8
0
  6
Continuous
 62
     7
370
    15
100
AcDbLine
 10
240.7413908318
 20
30.3991418184
 30
0.0
 11
240.7413908318
 21
37.7480091254
 31
0.0
  0
LINE
  5
1F6
330
1F
100
AcDbEntity
  8
0
  6
Continuous
 62
     7
370
    15
100
AcDbLine
 10
240.7413908318
 20
37.7480091254
 30
0.0
 11
239.6240640416
 21
37.102990099
 31
0.0
  0
LINE
  5
1F7
330
1F
100
AcDbEntity
  8
0
  6
Continuous
 62
     7
370
    15
100
AcDbLine
 10
257.0932351467
 20
53.1815262577
 30
0.0
 11
257.0932351467
 21
51.6174618228
 31
0.0
  0
LINE
  5
1F8
330
1F
100
AcDbEntity
  8
0
  6
Continuous
 62
     7
370
    15
100
AcDbLine
 10
258.4476813079
 20
52.3993669483
 30
0.0
 11
257.0932351467
 21
51.6174618228
 31
0.0
  0
LWPOLYLINE
  5
1F9
330
1F
100
AcDbEntity
  8
0
  6
Continuous
 62
     7
370
    15
100
AcDbPolyline
 90
       24
 70
   128
 43
0.0
 10
236.8672103506
 20
39.5363843305
 10
237.1542582591
 20
40.5921064475
 10
237.5022954225
 20
41.65353135
 10
237.9090720541
 20
42.7137977596
 10
238.3719586623
 20
43.7660518866
 10
238.8879630488
 20
44.8034917346
 10
239.4537496505
 20
45.8194110697
 10
240.0656611014
 20
46.8072427713
 10
240.7197418745
 20
47.7606012833
 10
241.4117638513
 20
48.6733238917
 10
242.1372536533
 20
49.5395105615
 10
242.8915215586
 20
50.3535620764
 10
243.6696918177
 20
51.1102162326
 10
244.466734171
 20
51.8045818552
 10
245.2774963657
 20
52.4321704159
 10
246.0967374608
 20
52.9889250475
 10
246.9191617063
 20
53.4712467685
 10
247.7394527751
 20
53.8760177478
 10
248.5523081299
 20
54.200621459
 10
249.3524732991
 20
54.442959594
 10
250.1347758435
 20
54.6014656271
 10
250.8941587913
 20
54.6751149413
 10
251.6257133283
 20
54.6634314516
 10
251.9822763984
 20
54.6252158367
  0
SPLINE
  5
1FA
330
1F
100
AcDbEntity
  8
0
  6
Continuous
 62
     7
370
    15
100
AcDbSpline
210
0.0
220
0.0
230
1.0
 70
     8
 71
     3
 72
     8
 73
     4
 74
     0
 42
0.000000001
 43
0.00000001
 40
0.0
 40
0.0
 40
0.0
 40
0.0
 40
1.0
 40
1.0
 40
1.0
 40
1.0
 10
236.8672103506487
 20
39.53638433049503
 30
0.0
 10
236.3759093215962
 20
39.45373711029114
 30
0.0
 10
235.8843292306935
 20
39.3716533228007
 30
0.0
 10
235.3925344319416
 20
39.29000303571896
 30
0.0
  0
LWPOLYLINE
  5
1FB
330
1F
100
AcDbEntity
  8
0
  6
Continuous
 62
     7
370
    15
100
AcDbPolyline
 90
       26
 70
   128
 43
0.0
 10
235.3925344319
 20
39.2900030357
 10
235.6749789118
 20
40.4083582946
 10
236.0214374948
 20
41.5351443787
 10
236.4297756555
 20
42.6634191787
 10
236.8974776298
 20
43.7862314134
 10
237.4216619139
 20
44.8966634561
 10
237.9990990177
 20
45.9878739546
 10
238.6262313613
 20
47.0531399799
 10
239.2991951932
 20
48.0858984468
 10
240.013844395
 20
49.0797865483
 10
240.7657760256
 20
50.0286809573
 10
241.5503574472
 20
50.926735552
 10
242.3627548676
 20
51.7684174336
 10
243.1979631203
 20
52.5485410149
 10
244.0508365019
 20
53.262299968
 10
244.9161204746
 20
53.9052968366
 10
245.7884840387
 20
54.4735701281
 10
246.6625525777
 20
54.9636187209
 10
247.5329409707
 20
55.372423434
 10
248.3942867698
 20
55.6974656288
 10
249.2412832388
 20
55.936742726
 10
250.0687120472
 20
56.0887805436
 10
250.8714754205
 20
56.1526423793
 10
251.6446275477
 20
56.1279347814
 10
252.3834050521
 20
56.0148099729
 10
253.0832563383
 20
55.813964914
  0
LINE
  5
1FC
330
1F
100
AcDbEntity
  8
0
  6
Continuous
 62
     7
370
    15
100
AcDbLine
 10
253.0832563383
 20
55.813964914
 30
0.0
 11
253.4184999379
 21
54.7308372712
 31
0.0
  0
LINE
  5
1FD
330
1F
100
AcDbEntity
  8
0
  6
Continuous
 62
     7
370
    15
100
AcDbLine
 10
249.6686139443
 20
57.7851960092
 30
0.0
 11
253.0832563383
 21
55.813964914
 31
0.0
  0
LINE
  5
1FE
330
1F
100
AcDbEntity
  8
0
  6
Continuous
 62
     7
370
    15
100
AcDbLine
 10
235.3925344319
 20
39.2900030357
 30
0.0
 11
234.8063191627
 21
39.6284179073
 31
0.0
  0
SPLINE
  5
1FF
330
1F
100
AcDbEntity
  8
0
  6
Continuous
 62
     7
370
    15
100
AcDbSpline
210
0.0
220
0.0
230
1.0
 70
     8
 71
     3
 72
    28
 73
    24
 74
     0
 42
0.000000001
 43
0.00000001
 40
0.0
 40
0.0
 40
0.0
 40
0.0
 40
0.1249999999999999
 40
0.1249999999999999
 40
0.1874999999999998
 40
0.1874999999999998
 40
0.2499999999999997
 40
0.2499999999999997
 40
0.3749999999999993
 40
0.3749999999999993
 40
0.4374999999999993
 40
0.4374999999999993
 40
0.4999999999999992
 40
0.4999999999999992
 40
0.6249999999999992
 40
0.6249999999999992
 40
0.7499999999999992
 40
0.7499999999999992
 40
0.8124999999999993
 40
0.8124999999999993
 40
0.8749999999999996
 40
0.8749999999999996
 40
1.0
 40
1.0
 40
1.0
 40
1.0
 10
234.8063191626832
 20
39.62841790729877
 30
0.0
 10
234.6183320822168
 20
39.73694053888285
 30
0.0
 10
234.4281121276161
 20
39.81888425943075
 30
0.0
 10
234.1400135256681
 20
39.90404198946921
 30
0.0
 10
234.0435236550685
 20
39.92609191987302
 30
0.0
 10
233.8497854822336
 20
39.95736574333198
 30
0.0
 10
233.7525344617023
 20
39.9664929946554
 30
0.0
 10
233.4665125868169
 20
39.97427583676381
 30
0.0
 10
233.2811707704603
 20
39.95396929312675
 30
0.0
 10
233.0126581836445
 20
39.88674863999361
 30
0.0
 10
232.9242975239788
 20
39.85796228238802
 30
0.0
 10
232.7539448136891
 20
39.78895039229286
 30
0.0
 10
232.6719177839076
 20
39.74881050238273
 30
0.0
 10
232.435481530155
 20
39.61219073461952
 30
0.0
 10
232.2906142800327
 20
39.49967624493045
 30
0.0
 10
232.0297574865486
 20
39.23141927993098
 30
0.0
 10
231.9174650790462
 20
39.0792658935537
 30
0.0
 10
231.7782405975924
 20
38.82734950585539
 30
0.0
 10
231.7366448112266
 20
38.73930722017902
 30
0.0
 10
231.6635200961654
 20
38.55496616512719
 30
0.0
 10
231.6318956121125
 20
38.45817740244542
 30
0.0
 10
231.5544023086903
 20
38.1601623235486
 30
0.0
 10
231.5252275933004
 20
37.95068944641208
 30
0.0
 10
231.5192607105587
 20
37.73030865372822
 30
0.0
  0
ARC
  5
200
330
1F
100
AcDbEntity
  8
0
  6
Continuous
 62
     7
370
    15
100
AcDbCircle
 10
246.3626271729
 20
37.3220382478
 30
0.0
 40
14.84898018918661
100
AcDbArc
 50
178.4244628824
 51
181.5755371176
  0
SPLINE
  5
201
330
1F
100
AcDbEntity
  8
0
  6
Continuous
 62
     7
370
    15
100
AcDbSpline
210
0.0
220
0.0
230
1.0
 70
     8
 71
     3
 72
    30
 73
    26
 74
     0
 42
0.000000001
 43
0.00000001
 40
0.0
 40
0.0
 40
0.0
 40
0.0
 40
0.1250000000000001
 40
0.1250000000000001
 40
0.1875000000000002
 40
0.1875000000000002
 40
0.2500000000000003
 40
0.2500000000000003
 40
0.3750000000000004
 40
0.3750000000000004
 40
0.4375000000000004
 40
0.4375000000000004
 40
0.5000000000000004
 40
0.5000000000000004
 40
0.6250000000000007
 40
0.6250000000000007
 40
0.6875000000000006
 40
0.6875000000000006
 40
0.7500000000000004
 40
0.7500000000000004
 40
0.8125000000000004
 40
0.8125000000000004
 40
0.8750000000000003
 40
0.8750000000000003
 40
1.0
 40
1.0
 40
1.0
 40
1.0
 10
231.5192607105587
 20
36.91376784184246
 30
0.0
 10
231.5252283092501
 20
36.70025064906775
 30
0.0
 10
231.5543735292496
 20
36.48270075104862
 30
0.0
 10
231.6308081905084
 20
36.15040172151303
 30
0.0
 10
231.6617741740858
 20
36.03862742021346
 30
0.0
 10
231.7347441149014
 20
35.81292554667846
 30
0.0
 10
231.77688031346
 20
35.69883777410595
 30
0.0
 10
231.9167721028245
 20
35.36067504674476
 30
0.0
 10
232.0286160273667
 20
35.13816482747199
 30
0.0
 10
232.2224026245113
 20
34.80755457152242
 30
0.0
 10
232.2917432621146
 20
34.69732793181627
 30
0.0
 10
232.4372356465612
 20
34.48059793136273
 30
0.0
 10
232.5131229372803
 20
34.37440099573201
 30
0.0
 10
232.7495108857517
 20
34.0617628224824
 30
0.0
 10
232.9186563880026
 20
33.86122027464723
 30
0.0
 10
233.1885223853366
 20
33.5711154352249
 30
0.0
 10
233.2807138913875
 20
33.47677201885245
 30
0.0
 10
233.4663124864222
 20
33.29546699079206
 30
0.0
 10
233.560141366709
 20
33.2080476572979
 30
0.0
 10
233.7495914171744
 20
33.03944010697325
 30
0.0
 10
233.8452128323801
 20
32.9582519212039
 30
0.0
 10
234.0380745218065
 20
32.80208924165576
 30
0.0
 10
234.1358094307049
 20
32.72676226195906
 30
0.0
 10
234.4270653858252
 20
32.51347202851522
 30
0.0
 10
234.6183227767984
 20
32.38807860381479
 30
0.0
 10
234.8063191626832
 20
32.27955060032702
 30
0.0
  0
LINE
  5
202
330
1F
100
AcDbEntity
  8
0
  6
Continuous
 62
     7
370
    15
100
AcDbLine
 10
234.8063191627
 20
32.2795506003
 30
0.0
 11
235.3925344319
 21
31.9411357287
 31
0.0
  0
ARC
  5
203
330
1F
100
AcDbEntity
  8
0
  6
Continuous
 62
     7
370
    15
100
AcDbCircle
 10
241.2137639581
 20
33.3324142226
 30
0.0
 40
5.985179115444013
100
AcDbArc
 50
193.4415888918
 51
253.1805824648
  0
LINE
  5
204
330
1F
100
AcDbEntity
  8
0
  6
Continuous
 62
     7
370
    15
100
AcDbLine
 10
254.7126741946
 20
54.873016221
 30
0.0
 11
255.0469865984
 21
54.5656881108
 31
0.0
  0
LINE
  5
205
330
1F
100
AcDbEntity
  8
0
  6
Continuous
 62
     7
370
    15
100
AcDbLine
 10
253.8597454408
 20
55.3654015098
 30
0.0
 11
254.7126741946
 21
54.873016221
 31
0.0
  0
SPLINE
  5
206
330
1F
100
AcDbEntity
  8
0
  6
Continuous
 62
     7
370
    15
100
AcDbSpline
210
0.0
220
0.0
230
1.0
 70
     8
 71
     3
 72
    20
 73
    16
 74
     0
 42
0.000000001
 43
0.00000001
 40
0.0
 40
0.0
 40
0.0
 40
0.0
 40
0.2499999999999995
 40
0.2499999999999995
 40
0.3749999999999996
 40
0.3749999999999996
 40
0.4999999999999997
 40
0.4999999999999997
 40
0.6249999999999998
 40
0.6249999999999998
 40
0.7499999999999998
 40
0.7499999999999998
 40
0.8749999999999999
 40
0.8749999999999999
 40
1.0
 40
1.0
 40
1.0
 40
1.0
 10
249.6686139442818
 20
57.78519600919922
 30
0.0
 10
249.9876025986797
 20
57.65130561993942
 30
0.0
 10
250.3140581987777
 20
57.49140927287743
 30
0.0
 10
250.8264083161608
 20
57.21349034540792
 30
0.0
 10
251.0010116828387
 20
57.11449133259761
 30
0.0
 10
251.3608855451875
 20
56.90355062769891
 30
0.0
 10
251.543745961541
 20
56.79299481048887
 30
0.0
 10
251.9100410507182
 20
56.56757694147804
 30
0.0
 10
252.0945245669769
 20
56.45209634009858
 30
0.0
 10
252.4681093912124
 20
56.2172639958028
 30
0.0
 10
252.6524588624516
 20
56.10093407052755
 30
0.0
 10
253.0131687689281
 20
55.87523938372816
 30
0.0
 10
253.1902227581819
 20
55.76542940963148
 30
0.0
 10
253.5379521095343
 20
55.55403464609557
 30
0.0
 10
253.7032025259925
 20
55.45577181095256
 30
0.0
 10
253.859745440774
 20
55.36540150983518
 30
0.0
  0
ARC
  5
207
330
1F
100
AcDbEntity
  8
0
  6
Continuous
 62
     7
370
    15
100
AcDbCircle
 10
245.7842703132
 20
52.2769030826
 30
0.0
 40
6.805754821143235
100
AcDbArc
 50
62.9348092132
 51
112.4502524579
  0
ARC
  5
208
330
1F
100
AcDbEntity
  8
0
  6
Continuous
 62
     7
370
    15
100
AcDbCircle
 10
236.8499680658
 20
36.7806077754
 30
0.0
 40
6.825219220612556
100
AcDbArc
 50
187.6324277536
 51
236.9950811643
  0
LINE
  5
209
330
1F
100
AcDbEntity
  8
0
  6
Continuous
 62
     7
370
    15
100
AcDbLine
 10
238.0018249055
 20
38.7621255621
 30
0.0
 11
237.538197113
 21
39.0297721897
 31
0.0
  0
LINE
  5
20A
330
1F
100
AcDbEntity
  8
0
  6
Continuous
 62
     7
370
    15
100
AcDbLine
 10
237.112378955
 20
39.6779171532
 30
0.0
 11
236.8672103506
 21
39.5363843305
 31
0.0
  0
SPLINE
  5
20B
330
1F
100
AcDbEntity
  8
0
  6
Continuous
 62
     7
370
    15
100
AcDbSpline
210
0.0
220
0.0
230
1.0
 70
     8
 71
     3
 72
    14
 73
    10
 74
     0
 42
0.000000001
 43
0.00000001
 40
0.0
 40
0.0
 40
0.0
 40
0.0
 40
0.1250000000000012
 40
0.1250000000000012
 40
0.2500000000000024
 40
0.2500000000000024
 40
0.5000000000000013
 40
0.5000000000000013
 40
1.0
 40
1.0
 40
1.0
 40
1.0
 10
237.5381971130265
 20
39.02977218967305
 30
0.0
 10
237.5140006798613
 20
39.0437404932156
 30
0.0
 10
237.4908252414024
 20
39.07110566921313
 30
0.0
 10
237.4539048489715
 20
39.12890743833867
 30
0.0
 10
237.4388630579389
 20
39.15987791745502
 30
0.0
 10
237.399049601352
 20
39.25290439038424
 30
0.0
 10
237.3794135829679
 20
39.31551544466897
 30
0.0
 10
237.3289927344985
 20
39.49984619558395
 30
0.0
 10
237.3065755562579
 20
39.62139043048468
 30
0.0
 10
237.289887658092
 20
39.74051949578704
 30
0.0
  0
SPLINE
  5
20C
330
1F
100
AcDbEntity
  8
0
  6
Continuous
 62
     7
370
    15
100
AcDbSpline
210
0.0
220
0.0
230
1.0
 70
     8
 71
     3
 72
    10
 73
     6
 74
     0
 42
0.000000001
 43
0.00000001
 40
0.0
 40
0.0
 40
0.0
 40
0.0
 40
0.5
 40
0.5
 40
1.0
 40
1.0
 40
1.0
 40
1.0
 10
237.289887658092
 20
39.74051949578704
 30
0.0
 10
237.2564976399042
 20
39.73436972658681
 30
0.0
 10
237.2242582884761
 20
39.72582311873873
 30
0.0
 10
237.1642703942138
 20
39.70458714496984
 30
0.0
 10
237.1370085209648
 20
39.69213549896166
 30
0.0
 10
237.1123789550149
 20
39.67791715318481
 30
0.0
  0
LWPOLYLINE
  5
20D
330
1F
100
AcDbEntity
  8
0
  6
Continuous
 62
     7
370
    15
100
AcDbPolyline
 90
       52
 70
   128
 43
0.0
 10
255.7497322625
 20
41.2077574543
 10
255.215327129
 20
40.8611898139
 10
254.6890230326
 20
40.4437515384
 10
254.1787982069
 20
39.9617705667
 10
253.6923871401
 20
39.4225532389
 10
253.2371633283
 20
38.83427354
 10
252.8200275003
 20
38.2058491907
 10
252.4473030102
 20
37.5468064636
 10
252.1246399812
 20
36.8671357744
 10
251.8569296559
 20
36.1771402382
 10
251.6482302501
 20
35.4872794839
 10
251.501705434
 20
34.8080110972
 10
251.4195763743
 20
34.1496320946
 10
251.4030880641
 20
33.5221228307
 10
251.4524904491
 20
32.9349957061
 10
251.5670346397
 20
32.3971509696
 10
251.7449842626
 20
31.9167417992
 10
251.983641783
 20
31.5010507083
 10
252.2793893961
 20
31.1563791499
 10
252.6277438696
 20
30.8879519936
 10
253.0234245047
 20
30.6998383215
 10
253.4604331864
 20
30.5948897451
 10
253.9321453085
 20
30.5746971778
 10
254.4314101961
 20
30.6395667183
 10
254.9506595024
 20
30.7885150106
 10
255.4820219373
 20
31.0192841504
 10
256.0174425877
 20
31.3283759127
 10
256.5488050225
 20
31.7111047815
 10
257.0680543288
 20
32.1616689772
 10
257.5673192164
 20
32.6732384061
 10
258.0390313385
 20
33.2380581969
 10
258.4760400203
 20
33.8475662574
 10
258.8717206554
 20
34.4925230666
 10
259.2200751289
 20
35.1631517369
 10
259.515822742
 20
35.8492862211
 10
259.7544802624
 20
36.5405254199
 10
259.9324298853
 20
37.2263908517
 10
260.0469740759
 20
37.8964854955
 10
260.0963764609
 20
38.5406513998
 10
260.0798881506
 20
39.1491236659
 10
259.997759091
 20
39.7126784747
 10
259.8512342749
 20
40.2227729096
 10
259.642534869
 20
40.6716744589
 10
259.3748245438
 20
41.0525782328
 10
259.0521615148
 20
41.3597101184
 10
258.6794370247
 20
41.5884143092
 10
258.2623011967
 20
41.735223883
 10
257.8070773849
 20
41.7979133562
 10
257.3206663181
 20
41.7755324203
 10
256.8104414924
 20
41.6684203475
 10
256.284137396
 20
41.4782008476
 10
255.7497322625
 20
41.2077574543
  0
LWPOLYLINE
  5
20E
330
1F
100
AcDbEntity
  8
0
  6
Continuous
 62
     7
370
    15
100
AcDbPolyline
 90
       27
 70
   128
 43
0.0
 10
255.6790215844
 20
41.3302319411
 10
255.1359269365
 20
40.9780290545
 10
254.6010650499
 20
40.5538031648
 10
254.0825438856
 20
40.0639851041
 10
253.5882236958
 20
39.5160000148
 10
253.1255978707
 20
38.9181547924
 10
252.7016793464
 20
38.279512161
 10
252.3228942954
 20
37.6097532919
 10
251.9949847131
 20
36.9190310469
 10
251.7229213745
 20
36.2178160711
 10
251.5108284824
 20
35.5167380687
 10
251.3619211489
 20
34.8264246676
 10
251.2784566574
 20
34.1573403154
 10
251.2617002445
 20
33.5196276488
 10
251.3119059203
 20
32.9229537417
 10
251.4283126181
 20
32.3763635623
 10
251.6091557308
 20
31.8881428607
 10
251.8516938613
 20
31.465692565
 10
252.1522503787
 20
31.1154165911
 10
252.5062691525
 20
30.8426247656
 10
252.9083836191
 20
30.6514523346
 10
253.3524981331
 20
30.5447972772
 10
253.831880371
 20
30.5242763755
 10
254.3392633869
 20
30.5902007053
 10
254.8669557713
 20
30.7415709211
 10
255.4069582457
 20
30.9760924046
 10
255.679739864
 20
31.1238865139
  0
LWPOLYLINE
  5
20F
330
1F
100
AcDbEntity
  8
0
  6
Continuous
 62
     7
370
    15
100
AcDbPolyline
 90
       14
 70
   128
 43
0.0
 10
260.0984389668
 20
38.7781272163
 10
260.0795865114
 20
39.2381244326
 10
259.9961220199
 20
39.8108427341
 10
259.8472146864
 20
40.3292313875
 10
259.6351217943
 20
40.785432149
 10
259.3630584556
 20
41.1725294802
 10
259.0351488733
 20
41.4846553802
 10
258.6563638224
 20
41.7170783384
 10
258.232445298
 20
41.8662750597
 10
257.769819473
 20
41.9299838739
 10
257.2754992832
 20
41.9072390203
 10
256.7569781188
 20
41.7983852878
 10
256.2221162322
 20
41.6050727879
 10
255.6790215844
 20
41.3302319411
  0
SPLINE
  5
210
330
1F
100
AcDbEntity
  8
0
  6
Continuous
 62
     7
370
    15
100
AcDbSpline
210
0.0
220
0.0
230
1.0
 70
    11
 71
     3
 72
    64
 73
    60
 74
     0
 42
0.000000001
 43
0.00000001
 40
0.0
 40
0.0
 40
0.0
 40
0.0
 40
0.0312500000000001
 40
0.0312500000000001
 40
0.0625000000000002
 40
0.0625000000000002
 40
0.0937500000000004
 40
0.0937500000000004
 40
0.1250000000000005
 40
0.1250000000000005
 40
0.1562500000000006
 40
0.1562500000000006
 40
0.1875000000000007
 40
0.1875000000000007
 40
0.2187500000000009
 40
0.2187500000000009
 40
0.250000000000001
 40
0.250000000000001
 40
0.2812500000000011
 40
0.2812500000000011
 40
0.3125000000000012
 40
0.3125000000000012
 40
0.3437500000000014
 40
0.3437500000000014
 40
0.3750000000000015
 40
0.3750000000000015
 40
0.4062500000000016
 40
0.4062500000000016
 40
0.4375000000000018
 40
0.4375000000000018
 40
0.4687500000000019
 40
0.4687500000000019
 40
0.500000000000002
 40
0.500000000000002
 40
0.5312500000000021
 40
0.5312500000000021
 40
0.5625000000000022
 40
0.5625000000000022
 40
0.6250000000000027
 40
0.6250000000000027
 40
0.687500000000003
 40
0.687500000000003
 40
0.7187500000000026
 40
0.7187500000000026
 40
0.7500000000000021
 40
0.7500000000000021
 40
0.7812500000000018
 40
0.7812500000000018
 40
0.8125000000000014
 40
0.8125000000000014
 40
0.8437500000000011
 40
0.8437500000000011
 40
0.8750000000000008
 40
0.8750000000000008
 40
0.9062500000000006
 40
0.9062500000000006
 40
0.9375000000000002
 40
0.9375000000000002
 40
1.0
 40
1.0
 40
1.0
 40
1.0
 10
253.426556043445
 20
43.38027945283742
 30
0.0
 10
253.5200149602997
 20
43.36711279942467
 30
0.0
 10
253.6111152820721
 20
43.34923113543483
 30
0.0
 10
253.7891003874136
 20
43.3056540705018
 30
0.0
 10
253.8765753888577
 20
43.2797350081056
 30
0.0
 10
254.04452452975
 20
43.22151721337874
 30
0.0
 10
254.123966757155
 20
43.18964722238368
 30
0.0
 10
254.2741769521988
 20
43.1210213891489
 30
0.0
 10
254.3455500206219
 20
43.08387725160334
 30
0.0
 10
254.4755568440458
 20
43.00671050398424
 30
0.0
 10
254.5342340689454
 20
42.96678773979404
 30
0.0
 10
254.6390299818566
 20
42.88409179218663
 30
0.0
 10
254.6854857873887
 20
42.8408700551031
 30
0.0
 10
254.7622251513489
 20
42.75374583671734
 30
0.0
 10
254.7928205691142
 20
42.70975266152166
 30
0.0
 10
254.8380635286883
 20
42.62012695697362
 30
0.0
 10
254.8526751138027
 20
42.5740118540804
 30
0.0
 10
254.8635251851492
 20
42.48274252760673
 30
0.0
 10
254.8600919068554
 20
42.43731697739502
 30
0.0
 10
254.8343304914573
 20
42.345949898891
 30
0.0
 10
254.8115294282188
 20
42.29966456243393
 30
0.0
 10
254.747602942019
 20
42.21050905555667
 30
0.0
 10
254.706474844167
 20
42.16707330304484
 30
0.0
 10
254.6043287059941
 20
42.08210588419272
 30
0.0
 10
254.5441299786127
 20
42.04146689706597
 30
0.0
 10
254.4096937947066
 20
41.96637223466186
 30
0.0
 10
254.3337797734697
 20
41.93107192625484
 30
0.0
 10
254.172596679372
 20
41.86887016223213
 30
0.0
 10
254.0875024019682
 20
41.84182965303118
 30
0.0
 10
253.908585923798
 20
41.79615352195411
 30
0.0
 10
253.8167475687643
 20
41.77808684750756
 30
0.0
 10
253.6316331470482
 20
41.75201246322624
 30
0.0
 10
253.5369923801904
 20
41.74391022079536
 30
0.0
 10
253.3515668117186
 20
41.73855107999279
 30
0.0
 10
253.2603163328914
 20
41.74113374393333
 30
0.0
 10
253.0805314925705
 20
41.75725398385107
 30
0.0
 10
252.9927237779088
 20
41.77083993024107
 30
0.0
 10
252.7424857023222
 20
41.82715945720256
 30
0.0
 10
252.5882040444442
 20
41.88703510401491
 30
0.0
 10
252.3292301216978
 20
42.04270341763939
 30
0.0
 10
252.2212742986723
 20
42.14050764206706
 30
0.0
 10
252.1063980911636
 20
42.30328407520053
 30
0.0
 10
252.0752511517047
 20
42.36091852710743
 30
0.0
 10
252.0295903982858
 20
42.48021225165817
 30
0.0
 10
252.0153643158548
 20
42.54078992011139
 30
0.0
 10
252.0044005377445
 20
42.66304356479924
 30
0.0
 10
252.0078170606985
 20
42.72541559102083
 30
0.0
 10
252.0338866059783
 20
42.84711289009345
 30
0.0
 10
252.0561700213293
 20
42.90580570020555
 30
0.0
 10
252.120039384213
 20
43.01795343277004
 30
0.0
 10
252.1624605544859
 20
43.07202596779722
 30
0.0
 10
252.2641424987785
 20
43.16849932175341
 30
0.0
 10
252.323386587773
 20
43.21143580080283
 30
0.0
 10
252.4593802996645
 20
43.28610155060652
 30
0.0
 10
252.5348615685369
 20
43.31692540938841
 30
0.0
 10
252.6956440221514
 20
43.36455963056061
 30
0.0
 10
252.7826608791169
 20
43.38176435378816
 30
0.0
 10
253.0495449700532
 20
43.4126716572509
 30
0.0
 10
253.2396382097356
 20
43.40661275966291
 30
0.0
 10
253.426556043445
 20
43.38027945283741
 30
0.0
  0
LINE
  5
211
330
1F
100
AcDbEntity
  8
0
  6
Continuous
 62
     7
370
    15
100
AcDbLine
 10
258.1684316599
 20
36.2307540307
 30
0.0
 11
259.0289399602
 21
37.3012181756
 31
0.0
  0
SPLINE
  5
212
330
1F
100
AcDbEntity
  8
0
  6
Continuous
 62
     7
370
    15
100
AcDbSpline
210
0.0
220
0.0
230
1.0
 70
     8
 71
     3
 72
    22
 73
    18
 74
     0
 42
0.000000001
 43
0.00000001
 40
0.0
 40
0.0
 40
0.0
 40
0.0
 40
0.0416666666666665
 40
0.0833333333333332
 40
0.1250000000000033
 40
0.166666666666668
 40
0.2083333333333338
 40
0.2499999999999221
 40
0.2968749999997848
 40
0.34375
 40
0.3906249999999999
 40
0.4374999999999995
 40
0.4863049253904977
 40
0.4863049253904977
 40
0.53125
 40
0.6249999999999818
 40
0.828979133991777
 40
0.828979133991777
 40
0.828979133991777
 40
0.828979133991777
 10
259.0289399602383
 20
37.30121817557323
 30
0.0
 10
259.063351638831
 20
37.34402597659691
 30
0.0
 10
259.1306132741327
 20
37.43585840394056
 30
0.0
 10
259.2246525044023
 20
37.59195007252043
 30
0.0
 10
259.3074983036944
 20
37.76458598997385
 30
0.0
 10
259.3734406987542
 20
37.94830039885457
 30
0.0
 10
259.4166779070538
 20
38.13506983315982
 30
0.0
 10
259.4333337049482
 20
38.32314974991132
 30
0.0
 10
259.416413330649
 20
38.49989537416604
 30
0.0
 10
259.3617049780663
 20
38.65103817285382
 30
0.0
 10
259.275454222735
 20
38.76216188357609
 30
0.0
 10
259.1617262289004
 20
38.83256094193771
 30
0.0
 10
259.0778945728153
 20
38.8524554903827
 30
0.0
 10
258.9964970357512
 20
38.86025088240312
 30
0.0
 10
258.8892121503704
 20
38.86903061288072
 30
0.0
 10
258.7017609467974
 20
38.88647374579375
 30
0.0
 10
258.3936051596216
 20
38.91399278916868
 30
0.0
 10
258.1683334191236
 20
38.93405747170495
 30
0.0
  0
SPLINE
  5
213
330
1F
100
AcDbEntity
  8
0
  6
Continuous
 62
     7
370
    15
100
AcDbSpline
210
0.0
220
0.0
230
1.0
 70
     8
 71
     3
 72
    22
 73
    18
 74
     0
 42
0.000000001
 43
0.00000001
 40
0.0
 40
0.0
 40
0.0
 40
0.0
 40
0.0416666666666665
 40
0.0833333333333332
 40
0.1250000000000033
 40
0.166666666666668
 40
0.2083333333333338
 40
0.2499999999999221
 40
0.2968749999997848
 40
0.34375
 40
0.3906249999999999
 40
0.4374999999999995
 40
0.4863049253904977
 40
0.4863049253904977
 40
0.53125
 40
0.6249999999999818
 40
0.8265829076568426
 40
0.8265829076568426
 40
0.8265829076568426
 40
0.8265829076568426
 10
252.4705245647338
 20
33.51512555699585
 30
0.0
 10
252.4369168957255
 20
33.51813058903939
 30
0.0
 10
252.3684781088711
 20
33.53240964053969
 30
0.0
 10
252.2749120030817
 20
33.57988361968218
 30
0.0
 10
252.1919394331983
 20
33.65687915141945
 30
0.0
 10
252.1260309960236
 20
33.76445504424415
 30
0.0
 10
252.0827847267747
 20
33.90130471153056
 30
0.0
 10
252.0661313100383
 20
34.07015388141977
 30
0.0
 10
252.0830514343743
 20
34.26643604253062
 30
0.0
 10
252.1377580870725
 20
34.48074136797816
 30
0.0
 10
252.2240159015189
 20
34.69145693663425
 30
0.0
 10
252.3377169945918
 20
34.89313005900538
 30
0.0
 10
252.4216178282077
 20
35.00990063283729
 30
0.0
 10
252.5030389936644
 20
35.11170501557624
 30
0.0
 10
252.6102986796137
 20
35.2443218949729
 30
0.0
 10
252.7950882658498
 20
35.47487577993039
 30
0.0
 10
253.1071293145272
 20
35.86302243912564
 30
0.0
 10
253.3311326911156
 20
36.14160471269906
 30
0.0
  0
LINE
  5
214
330
1F
100
AcDbEntity
  8
0
  6
Continuous
 62
     7
370
    15
100
AcDbLine
 10
253.331032865
 20
33.4381831479
 30
0.0
 11
252.4705245647
 21
33.515125557
 31
0.0
  0
ARC
  5
215
330
1F
100
AcDbEntity
  8
0
  6
Continuous
 62
     7
370
    15
100
AcDbCircle
 10
254.8134291589
 20
36.7459769086
 30
0.0
 40
25.08375480985671
100
AcDbArc
 50
139.5659238294
 51
171.5757969098
  0
LINE
  5
216
330
1F
100
AcDbEntity
  8
0
  6
Continuous
 62
     7
370
    15
100
AcDbLine
 10
238.5713950951
 20
31.6518536925
 30
0.0
 11
240.7413908318
 21
30.3991418184
 31
0.0
  0
SPLINE
  5
217
330
1F
100
AcDbEntity
  8
0
  6
Continuous
 62
     7
370
    15
100
AcDbSpline
210
0.0
220
0.0
230
1.0
 70
     8
 71
     3
 72
    14
 73
    10
 74
     0
 42
0.000000001
 43
0.00000001
 40
0.0
 40
0.0
 40
0.0
 40
0.0
 40
0.1249999999999983
 40
0.1249999999999983
 40
0.2499999999999966
 40
0.2499999999999966
 40
0.4999999999999968
 40
0.4999999999999968
 40
1.0
 40
1.0
 40
1.0
 40
1.0
 10
238.3230856401436
 20
32.36260099861115
 30
0.0
 10
238.3475149887873
 20
32.34849823582483
 30
0.0
 10
238.3704935428534
 20
32.32121610596516
 30
0.0
 10
238.4073766563452
 20
32.26346270245866
 30
0.0
 10
238.4225018026621
 20
32.23231512078806
 30
0.0
 10
238.4622191631213
 20
32.13947801923207
 30
0.0
 10
238.4816812810104
 20
32.07752754941531
 30
0.0
 10
238.5325494022044
 20
31.89161284391781
 30
0.0
 10
238.5548336296195
 20
31.77008019894453
 30
0.0
 10
238.5713950950781
 20
31.65185369249699
 30
0.0
  0
LINE
  5
218
330
1F
100
AcDbEntity
  8
0
  6
Continuous
 62
     7
370
    15
100
AcDbLine
 10
237.538197113
 20
32.8157075007
 30
0.0
 11
238.3230856401
 21
32.3626009986
 31
0.0
  0
SPLINE
  5
219
330
1F
100
AcDbEntity
  8
0
  6
Continuous
 62
     7
370
    15
100
AcDbSpline
210
0.0
220
0.0
230
1.0
 70
     8
 71
     3
 72
    14
 73
    10
 74
     0
 42
0.000000001
 43
0.00000001
 40
0.0
 40
0.0
 40
0.0
 40
0.0
 40
0.5
 40
0.5
 40
0.75
 40
0.75
 40
0.875
 40
0.875
 40
1.0
 40
1.0
 40
1.0
 40
1.0
 10
237.2898876580919
 20
32.39165218881504
 30
0.0
 10
237.3065117395457
 20
32.49113193304516
 30
0.0
 10
237.32892914115
 20
32.58696706644116
 30
0.0
 10
237.3793601989987
 20
32.7131830160148
 30
0.0
 10
237.3988948929299
 20
32.75301656470905
 30
0.0
 10
237.4388380502654
 20
32.8002768961809
 30
0.0
 10
237.453855017431
 20
32.81387950978616
 30
0.0
 10
237.4909163849527
 20
32.82909991136187
 30
0.0
 10
237.5139000473011
 20
32.82973389815574
 30
0.0
 10
237.5381971130265
 20
32.81570750067271
 30
0.0
  0
LINE
  5
21A
330
1F
100
AcDbEntity
  8
0
  6
Continuous
 62
     7
370
    15
100
AcDbLine
 10
236.1451967541
 20
33.0524681818
 30
0.0
 11
237.2898876581
 21
32.3916521888
 31
0.0
  0
ARC
  5
21B
330
1F
100
AcDbEntity
  8
0
  6
Continuous
 62
     7
370
    15
100
AcDbCircle
 10
239.4138081063
 20
38.2055881504
 30
0.0
 40
6.102332798378887
100
AcDbArc
 50
182.3868561234
 51
237.6131440222
  0
LINE
  5
21C
330
1F
100
AcDbEntity
  8
0
  6
Continuous
 62
     7
370
    15
100
AcDbLine
 10
233.3167696293
 20
38.7679884649
 30
0.0
 11
233.3167696293
 21
37.951447653
 31
0.0
  0
ARC
  5
21D
330
1F
100
AcDbEntity
  8
0
  6
Continuous
 62
     7
370
    15
100
AcDbCircle
 10
235.9389242328
 20
38.8450337729
 30
0.0
 40
2.623286248972851
100
AcDbArc
 50
154.3037094398
 51
181.6830057549
  0
SPLINE
  5
21E
330
1F
100
AcDbEntity
  8
0
  6
Continuous
 62
     7
370
    15
100
AcDbSpline
210
0.0
220
0.0
230
1.0
 70
     8
 71
     3
 72
    18
 73
    14
 74
     0
 42
0.000000001
 43
0.00000001
 40
0.0
 40
0.0
 40
0.0
 40
0.0
 40
0.0779696201540389
 40
0.1564802139693106
 40
0.2366977439922599
 40
0.3175051089139417
 40
0.4744210235225138
 40
0.5540688519615251
 40
0.634877202583218
 40
0.7912446425233083
 40
0.8714704473077316
 40
0.9522858871270987
 40
0.9999999999999999
 40
0.9999999999999999
 40
0.9999999999999999
 40
0.9999999999999999
 10
252.3998138866148
 20
33.77901579103227
 30
0.0
 10
252.3848353880435
 20
33.78090463549118
 30
0.0
 10
252.354774466152
 20
33.78469542970694
 30
0.0
 10
252.3122108893406
 20
33.79773921431249
 30
0.0
 10
252.2716891558607
 20
33.81635802030035
 30
0.0
 10
252.2221124197882
 20
33.84881351815203
 30
0.0
 10
252.1788691520521
 20
33.89232342056804
 30
0.0
 10
252.1430873226481
 20
33.94577329902268
 30
0.0
 10
252.1126392473371
 20
34.00548419814368
 30
0.0
 10
252.0902671284011
 20
34.07411180276954
 30
0.0
 10
252.0771982529284
 20
34.14986990858183
 30
0.0
 10
252.072063948404
 20
34.20217247741765
 30
0.0
 10
252.0722287909746
 20
34.23614434950303
 30
0.0
 10
252.0722899855936
 20
34.24875575057953
 30
0.0
  0
SPLINE
  5
21F
330
1F
100
AcDbEntity
  8
0
  6
Continuous
 62
     7
370
    15
100
AcDbSpline
210
0.0
220
0.0
230
1.0
 70
     8
 71
     3
 72
    13
 73
     9
 74
     0
 42
0.000000001
 43
0.00000001
 40
0.0
 40
0.0
 40
0.0
 40
0.0
 40
0.0201235760847593
 40
0.1647661410177984
 40
0.409151149869284
 40
0.633805102205418
 40
0.8638445788103178
 40
1.0
 40
1.0
 40
1.0
 40
1.0
 10
253.4553278808517
 20
36.31663501638536
 30
0.0
 10
253.4552925183164
 20
36.31619996722089
 30
0.0
 10
253.4550029798947
 20
36.31263790788895
 30
0.0
 10
253.4432497412367
 20
36.29225996663525
 30
0.0
 10
253.4207107623888
 20
36.25811820403661
 30
0.0
 10
253.3877170606185
 20
36.21355970262036
 30
0.0
 10
253.357795100706
 20
36.17493002320833
 30
0.0
 10
253.3383591851986
 20
36.15063709810262
 30
0.0
 10
253.3311326911156
 20
36.14160471269906
 30
0.0
  0
SPLINE
  5
220
330
1F
100
AcDbEntity
  8
0
  6
Continuous
 62
     7
370
    15
100
AcDbSpline
210
0.0
220
0.0
230
1.0
 70
     8
 71
     3
 72
    16
 73
    12
 74
     0
 42
0.000000001
 43
0.00000001
 40
0.0
 40
0.0
 40
0.0
 40
0.0
 40
0.2500000000000016
 40
0.2500000000000016
 40
0.5000000000000032
 40
0.5000000000000032
 40
0.6250000000000028
 40
0.6250000000000028
 40
0.7500000000000023
 40
0.7500000000000023
 40
1.0
 40
1.0
 40
1.0
 40
1.0
 10
258.1683334191245
 20
38.93405747170488
 30
0.0
 10
258.1441252924294
 20
38.93621366038553
 30
0.0
 10
258.1177949510264
 20
38.93719713257831
 30
0.0
 10
258.0573941743135
 20
38.93488984495871
 30
0.0
 10
258.0220113988205
 20
38.93153494800715
 30
0.0
 10
257.9650429947524
 20
38.91896652050573
 30
0.0
 10
257.9453011192193
 20
38.91335049704763
 30
0.0
 10
257.9097601964864
 20
38.90027134938823
 30
0.0
 10
257.8943781674398
 20
38.89303925901891
 30
0.0
 10
257.8562297499744
 20
38.8717132616414
 30
0.0
 10
257.8400678914525
 20
38.85782484718936
 30
0.0
 10
257.8277584836193
 20
38.84476467794089
 30
0.0
  0
SPLINE
  5
221
330
1F
100
AcDbEntity
  8
0
  6
Continuous
 62
     7
370
    15
100
AcDbSpline
210
0.0
220
0.0
230
1.0
 70
     8
 71
     3
 72
     8
 73
     4
 74
     0
 42
0.000000001
 43
0.00000001
 40
0.0
 40
0.0
 40
0.0
 40
0.0
 40
1.0
 40
1.0
 40
1.0
 40
1.0
 10
257.8277584836234
 20
38.84476467793544
 30
0.0
 10
257.7952856012582
 20
38.85782704020109
 30
0.0
 10
257.7630148086197
 20
38.87271943258563
 30
0.0
 10
257.737737492665
 20
38.88731171648081
 30
0.0
  0
LINE
  5
222
330
1F
100
AcDbEntity
  8
0
  6
Continuous
 62
     7
370
    15
100
AcDbLine
 10
256.7211803042
 20
39.47415769
 30
0.0
 11
257.7377374927
 21
38.8873117165
 31
0.0
  0
ARC
  5
223
330
1F
100
AcDbEntity
  8
0
  6
Continuous
 62
     7
370
    15
100
AcDbCircle
 10
251.5099385294
 20
39.0565997344
 30
0.0
 40
4.27268983640255
100
AcDbArc
 50
339.4351131591
 51
1.902428218
  0
LINE
  5
224
330
1F
100
AcDbEntity
  8
0
  6
Continuous
 62
     7
370
    15
100
AcDbLine
 10
255.5103511319
 20
37.5557408311
 30
0.0
 11
257.7377374927
 21
36.269898055
 31
0.0
  0
LINE
  5
225
330
1F
100
AcDbEntity
  8
0
  6
Continuous
 62
     7
370
    15
100
AcDbLine
 10
252.1334714506
 20
34.4247231455
 30
0.0
 11
253.3374629636
 21
33.7296736395
 31
0.0
  0
LINE
  5
226
330
1F
100
AcDbEntity
  8
0
  6
Continuous
 62
     7
370
    15
100
AcDbLine
 10
253.3888633289
 20
33.6905798669
 30
0.0
 11
252.3998138866
 21
33.779015791
 31
0.0
  0
SPLINE
  5
227
330
1F
100
AcDbEntity
  8
0
  6
Continuous
 62
     7
370
    15
100
AcDbSpline
210
0.0
220
0.0
230
1.0
 70
     8
 71
     3
 72
    16
 73
    12
 74
     0
 42
0.000000001
 43
0.00000001
 40
0.0
 40
0.0
 40
0.0
 40
0.0
 40
0.2500000000000024
 40
0.2500000000000024
 40
0.5000000000000048
 40
0.5000000000000048
 40
0.6250000000000072
 40
0.6250000000000072
 40
0.7500000000000097
 40
0.7500000000000097
 40
1.0
 40
1.0
 40
1.0
 40
1.0
 10
253.3310328650471
 20
33.43818314794213
 30
0.0
 10
253.3550856874308
 20
33.43603246316887
 30
0.0
 10
253.3785868675389
 20
33.43690102001201
 30
0.0
 10
253.4208363841502
 20
33.44973461061915
 30
0.0
 10
253.4407941617222
 20
33.46202735952468
 30
0.0
 10
253.4559694640854
 20
33.49848905810091
 30
0.0
 10
253.4582808465377
 20
33.51409995874027
 30
0.0
 10
253.4554418627703
 20
33.54924688345557
 30
0.0
 10
253.4504678508074
 20
33.56832096243788
 30
0.0
 10
253.4301029537359
 20
33.62347436509536
 30
0.0
 10
253.4099691409344
 20
33.65830581091338
 30
0.0
 10
253.3888633288713
 20
33.6905798669013
 30
0.0
  0
SPLINE
  5
228
330
1F
100
AcDbEntity
  8
0
  6
Continuous
 62
     7
370
    15
100
AcDbSpline
210
0.0
220
0.0
230
1.0
 70
     8
 71
     3
 72
     8
 73
     4
 74
     0
 42
0.000000001
 43
0.00000001
 40
0.0
 40
0.0
 40
0.0
 40
0.0
 40
1.0
 40
1.0
 40
1.0
 40
1.0
 10
253.3374629635947
 20
33.72967363953727
 30
0.0
 10
253.3628148924639
 20
33.71503828252339
 30
0.0
 10
253.3796196916922
 20
33.70164408142865
 30
0.0
 10
253.3888633288718
 20
33.6905798669011
 30
0.0
  0
SPLINE
  5
229
330
1F
100
AcDbEntity
  8
0
  6
Continuous
 62
     7
370
    15
100
AcDbSpline
210
0.0
220
0.0
230
1.0
 70
     8
 71
     3
 72
    12
 73
     8
 74
     0
 42
0.000000001
 43
0.00000001
 40
0.0
 40
0.0
 40
0.0
 40
0.0
 40
0.250000000000002
 40
0.250000000000002
 40
0.500000000000004
 40
0.500000000000004
 40
1.0
 40
1.0
 40
1.0
 40
1.0
 10
260.6348485705133
 20
42.53658336134949
 30
0.0
 10
260.6629535721776
 20
42.52035868924057
 30
0.0
 10
260.685609539105
 20
42.50033908643233
 30
0.0
 10
260.7147316809857
 20
42.45737745906933
 30
0.0
 10
260.7215870791911
 20
42.43416958374905
 30
0.0
 10
260.7184290841909
 20
42.36528271913934
 30
0.0
 10
260.6837969663024
 20
42.31991823521794
 30
0.0
 10
260.6275105170703
 20
42.28742475971942
 30
0.0
  0
ARC
  5
22A
330
1F
100
AcDbEntity
  8
0
  6
Continuous
 62
     7
370
    15
100
AcDbCircle
 10
244.7062244012
 20
30.65146062
 30
0.0
 40
5.432026029966307
100
AcDbArc
 50
217.3950627517
 51
262.6019516066
  0
SPLINE
  5
22B
330
1F
100
AcDbEntity
  8
0
  6
Continuous
 62
     7
370
    15
100
AcDbSpline
210
0.0
220
0.0
230
1.0
 70
     8
 71
     3
 72
    12
 73
     8
 74
     0
 42
0.000000001
 43
0.00000001
 40
0.0
 40
0.0
 40
0.0
 40
0.0
 40
0.2499999999999999
 40
0.2499999999999999
 40
0.4999999999999998
 40
0.4999999999999998
 40
1.0
 40
1.0
 40
1.0
 40
1.0
 10
239.1903812060397
 20
29.74868545367662
 30
0.0
 10
239.2186234061121
 20
29.7323815786126
 30
0.0
 10
239.2531695380175
 20
29.7194257852026
 30
0.0
 10
239.3278935977152
 20
29.70271404701006
 30
0.0
 10
239.3681839890168
 20
29.69882713822261
 30
0.0
 10
239.4892970064532
 20
29.7010905361119
 30
0.0
 10
239.5674145688711
 20
29.72141974753864
 30
0.0
 10
239.6240640416066
 20
29.75412279204499
 30
0.0
  0
LINE
  5
22C
330
1F
100
AcDbEntity
  8
0
  6
Continuous
 62
     7
370
    15
100
AcDbLine
 10
259.4090098551
 20
43.2442449887
 30
0.0
 11
260.6348485705
 21
42.5365833613
 31
0.0
  0
ARC
  5
22D
330
1F
100
AcDbEntity
  8
0
  6
Continuous
 62
     7
370
    15
100
AcDbCircle
 10
243.9902898323
 20
32.1847527361
 30
0.0
 40
6.409553223800164
100
AcDbArc
 50
194.716105919
 51
237.9533567894
  0
LINE
  5
22E
330
1F
100
AcDbEntity
  8
0
  6
Continuous
 62
     7
370
    15
100
AcDbLine
 10
237.7909931384
 20
30.5565349896
 30
0.0
 11
239.190381206
 21
29.7486854537
 31
0.0
  0
SPLINE
  5
22F
330
1F
100
AcDbEntity
  8
0
  6
Continuous
 62
     7
370
    15
100
AcDbSpline
210
0.0
220
0.0
230
1.0
 70
     8
 71
     3
 72
     8
 73
     4
 74
     0
 42
0.000000001
 43
0.00000001
 40
0.0
 40
0.0
 40
0.0
 40
0.0
 40
1.0
 40
1.0
 40
1.0
 40
1.0
 10
238.2177843027151
 20
31.4078472767326
 30
0.0
 10
238.0746196060245
 20
31.12422522972559
 30
0.0
 10
237.932430909172
 20
30.84044208374157
 30
0.0
 10
237.7909931384168
 20
30.55653498955449
 30
0.0
  0
LINE
  5
230
330
1F
100
AcDbEntity
  8
0
  6
Continuous
 62
     7
370
    15
100
AcDbLine
 10
238.4629529071
 20
31.5493800994
 30
0.0
 11
238.2177843027
 21
31.4078472767
 31
0.0
  0
SPLINE
  5
231
330
1F
100
AcDbEntity
  8
0
  6
Continuous
 62
     7
370
    15
100
AcDbSpline
210
0.0
220
0.0
230
1.0
 70
     8
 71
     3
 72
    10
 73
     6
 74
     0
 42
0.000000001
 43
0.00000001
 40
0.0
 40
0.0
 40
0.0
 40
0.0
 40
0.5
 40
0.5
 40
1.0
 40
1.0
 40
1.0
 40
1.0
 10
238.5713950950781
 20
31.65185369249699
 30
0.0
 10
238.5607422281081
 20
31.63257804529086
 30
0.0
 10
238.545937464956
 20
31.6139666638658
 30
0.0
 10
238.5091516936251
 20
31.57933638963427
 30
0.0
 10
238.487582473031
 20
31.56359844519918
 30
0.0
 10
238.4629529070812
 20
31.54938009942232
 30
0.0
  0
SPLINE
  5
232
330
1F
100
AcDbEntity
  8
0
  6
Continuous
 62
     7
370
    15
100
AcDbSpline
210
0.0
220
0.0
230
1.0
 70
     8
 71
     3
 72
    14
 73
    10
 74
     0
 42
0.000000001
 43
0.00000001
 40
0.0
 40
0.0
 40
0.0
 40
0.0
 40
0.5000000000000002
 40
0.5000000000000002
 40
0.7500000000000002
 40
0.7500000000000002
 40
0.8750000000000001
 40
0.8750000000000001
 40
1.0
 40
1.0
 40
1.0
 40
1.0
 10
222.6500858383993
 20
43.04691303963379
 30
0.0
 10
222.9652517822392
 20
42.81982504873794
 30
0.0
 10
223.2815274375052
 20
42.5899786736898
 30
0.0
 10
223.7603519260762
 20
42.23467007170069
 30
0.0
 10
223.9206719365002
 20
42.11453175750514
 30
0.0
 10
224.163724472454
 20
41.92826292326133
 30
0.0
 10
224.2451679104705
 20
41.86516968203433
 30
0.0
 10
224.4098293595039
 20
41.73482443962219
 30
0.0
 10
224.4927353775702
 20
41.66829999764493
 30
0.0
 10
224.5787542056548
 20
41.59450652632138
 30
0.0
  0
SPLINE
  5
233
330
1F
100
AcDbEntity
  8
0
  6
Continuous
 62
     7
370
    15
100
AcDbSpline
210
0.0
220
0.0
230
1.0
 70
     8
 71
     3
 72
     8
 73
     4
 74
     0
 42
0.000000001
 43
0.00000001
 40
0.0
 40
0.0
 40
0.0
 40
0.0
 40
1.0
 40
1.0
 40
1.0
 40
1.0
 10
224.5787542056548
 20
41.59450652632138
 30
0.0
 10
224.8804066788924
 20
41.33572616823955
 30
0.0
 10
225.1856862224158
 20
41.08815115283488
 30
0.0
 10
225.4903457955425
 20
40.84717829626835
 30
0.0
  0
SPLINE
  5
234
330
1F
100
AcDbEntity
  8
0
  6
Continuous
 62
     7
370
    15
100
AcDbSpline
210
0.0
220
0.0
230
1.0
 70
     8
 71
     3
 72
    14
 73
    10
 74
     0
 42
0.000000001
 43
0.00000001
 40
0.0
 40
0.0
 40
0.0
 40
0.0
 40
0.1250000000000022
 40
0.1250000000000022
 40
0.2500000000000044
 40
0.2500000000000044
 40
0.500000000000003
 40
0.500000000000003
 40
1.0
 40
1.0
 40
1.0
 40
1.0
 10
225.4903457955425
 20
40.8471782962683
 30
0.0
 10
225.509541171468
 20
40.8319955645321
 30
0.0
 10
225.5271532448684
 20
40.82062774603531
 30
0.0
 10
225.5529981747877
 20
40.80935927682287
 30
0.0
 10
225.5611365390354
 20
40.80897580658581
 30
0.0
 10
225.5780866300034
 20
40.81475159928021
 30
0.0
 10
225.5802559025132
 20
40.82741702489825
 30
0.0
 10
225.5790803546986
 20
40.87185385194201
 30
0.0
 10
225.5670068340944
 20
40.91233712271545
 30
0.0
 10
225.5522286060544
 20
40.95634079259795
 30
0.0
  0
SPLINE
  5
235
330
1F
100
AcDbEntity
  8
0
  6
Continuous
 62
     7
370
    15
100
AcDbSpline
210
0.0
220
0.0
230
1.0
 70
     8
 71
     3
 72
    14
 73
    10
 74
     0
 42
0.000000001
 43
0.00000001
 40
0.0
 40
0.0
 40
0.0
 40
0.0
 40
0.25
 40
0.25
 40
0.5
 40
0.5
 40
0.75
 40
0.75
 40
1.0
 40
1.0
 40
1.0
 40
1.0
 10
225.5522286060536
 20
40.95634079259865
 30
0.0
 10
225.5341723591071
 20
41.01010509558542
 30
0.0
 10
225.5312495610059
 20
41.05465570468247
 30
0.0
 10
225.5258358324626
 20
41.14691705452719
 30
0.0
 10
225.5242685544214
 20
41.19421145744744
 30
0.0
 10
225.5141301546143
 20
41.29897251227522
 30
0.0
 10
225.5058151568701
 20
41.35623371931023
 30
0.0
 10
225.4770149822113
 20
41.48585507668464
 30
0.0
 10
225.4563615855407
 20
41.55864927629769
 30
0.0
 10
225.4276720683796
 20
41.63833597525746
 30
0.0
  0
ARC
  5
236
330
1F
100
AcDbEntity
  8
0
  6
Continuous
 62
     7
370
    15
100
AcDbCircle
 10
235.7826393457
 20
44.7248974732
 30
0.0
 40
10.80519362138094
100
AcDbArc
 50
163.4019732888
 51
196.5980267112
  0
SPLINE
  5
237
330
1F
100
AcDbEntity
  8
0
  6
Continuous
 62
     7
370
    15
100
AcDbSpline
210
0.0
220
0.0
230
1.0
 70
     8
 71
     3
 72
    14
 73
    10
 74
     0
 42
0.000000001
 43
0.00000001
 40
0.0
 40
0.0
 40
0.0
 40
0.0
 40
0.25
 40
0.25
 40
0.5
 40
0.5
 40
0.75
 40
0.75
 40
1.0
 40
1.0
 40
1.0
 40
1.0
 10
225.5522286060536
 20
49.27266398752163
 30
0.0
 10
225.5341723591071
 20
49.15182190857707
 30
0.0
 10
225.5312495610059
 20
49.02672764201097
 30
0.0
 10
225.5258358324626
 20
48.77877633135961
 30
0.0
 10
225.5242685544214
 20
48.65486770704586
 30
0.0
 10
225.5141301546143
 20
48.40871196780566
 30
0.0
 10
225.5058151568701
 20
48.28642402594424
 30
0.0
 10
225.4770149822113
 20
48.04442684873545
 30
0.0
 10
225.4563615855407
 20
47.92426988155586
 30
0.0
 10
225.4276720683796
 20
47.81145897115059
 30
0.0
  0
SPLINE
  5
238
330
1F
100
AcDbEntity
  8
0
  6
Continuous
 62
     7
370
    15
100
AcDbSpline
210
0.0
220
0.0
230
1.0
 70
     8
 71
     3
 72
    14
 73
    10
 74
     0
 42
0.000000001
 43
0.00000001
 40
0.0
 40
0.0
 40
0.0
 40
0.0
 40
0.125
 40
0.125
 40
0.25
 40
0.25
 40
0.5
 40
0.5
 40
1.0
 40
1.0
 40
1.0
 40
1.0
 10
225.4903457955426
 20
49.81794955181566
 30
0.0
 10
225.5095411714682
 20
49.81566274384183
 30
0.0
 10
225.5271532448685
 20
49.80416450456901
 30
0.0
 10
225.5529981747877
 20
49.7674730020425
 30
0.0
 10
225.5611365390354
 20
49.74439158694042
 30
0.0
 10
225.5780866300034
 20
49.67305906786333
 30
0.0
 10
225.5802559025132
 20
49.62181496225526
 30
0.0
 10
225.5790803546986
 20
49.47177948249367
 30
0.0
 10
225.5670068340944
 20
49.37156780761059
 30
0.0
 10
225.5522286060544
 20
49.27266398752196
 30
0.0
  0
SPLINE
  5
239
330
1F
100
AcDbEntity
  8
0
  6
Continuous
 62
     7
370
    15
100
AcDbSpline
210
0.0
220
0.0
230
1.0
 70
     8
 71
     3
 72
     8
 73
     4
 74
     0
 42
0.000000001
 43
0.00000001
 40
0.0
 40
0.0
 40
0.0
 40
0.0
 40
1.0
 40
1.0
 40
1.0
 40
1.0
 10
224.5787542056548
 20
49.87016236295175
 30
0.0
 10
224.8804066788924
 20
49.87750861009485
 30
0.0
 10
225.1856862224159
 20
49.85424464412491
 30
0.0
 10
225.4903457955426
 20
49.81794955181566
 30
0.0
  0
SPLINE
  5
23A
330
1F
100
AcDbEntity
  8
0
  6
Continuous
 62
     7
370
    15
100
AcDbSpline
210
0.0
220
0.0
230
1.0
 70
     8
 71
     3
 72
    14
 73
    10
 74
     0
 42
0.000000001
 43
0.00000001
 40
0.0
 40
0.0
 40
0.0
 40
0.0
 40
0.5000000000000002
 40
0.5000000000000002
 40
0.7500000000000002
 40
0.7500000000000002
 40
0.8750000000000001
 40
0.8750000000000001
 40
1.0
 40
1.0
 40
1.0
 40
1.0
 10
222.6500858383993
 20
50.50280170793673
 30
0.0
 10
222.9652517822392
 20
50.36541721421061
 30
0.0
 10
223.2815274375052
 20
50.23384370657946
 30
0.0
 10
223.7603519260762
 20
50.0589482400587
 30
0.0
 10
223.9206719365002
 20
50.00427708979418
 30
0.0
 10
224.163724472454
 20
49.93524527407413
 30
0.0
 10
224.2451679104705
 20
49.91438298956533
 30
0.0
 10
224.4098293595039
 20
49.88157527613569
 30
0.0
 10
224.4927353775702
 20
49.86806751664306
 30
0.0
 10
224.5787542056548
 20
49.87016236295175
 30
0.0
  0
SPLINE
  5
23B
330
1F
100
AcDbEntity
  8
0
  6
Continuous
 62
     7
370
    15
100
AcDbSpline
210
0.0
220
0.0
230
1.0
 70
     8
 71
     3
 72
     8
 73
     4
 74
     0
 42
0.000000001
 43
0.00000001
 40
0.0000005163856998
 40
0.0000005163856998
 40
0.0000005163856998
 40
0.0000005163856998
 40
0.000026289209185
 40
0.000026289209185
 40
0.000026289209185
 40
0.000026289209185
 10
222.6500642513801
 20
50.51568081912791
 30
0.0
 10
222.6500619502208
 20
50.51138798410138
 30
0.0
 10
222.6500691965452
 20
50.50709491642586
 30
0.0
 10
222.6500858383993
 20
50.50280170793673
 30
0.0
  0
LINE
  5
23C
330
1F
100
AcDbEntity
  8
0
  6
Continuous
 62
     7
370
    15
100
AcDbLine
 10
235.5142396476
 20
61.0108974101
 30
0.0
 11
235.5468776098
 21
60.9944403762
 31
0.0
  0
LINE
  5
23D
330
1F
100
AcDbEntity
  8
0
  6
Continuous
 62
     7
370
    15
100
AcDbLine
 10
224.1325418344
 20
41.2950822717
 30
0.0
 11
224.0805186586
 21
41.3301487215
 31
0.0
  0
SPLINE
  5
23E
330
1F
100
AcDbEntity
  8
0
  6
Continuous
 62
     7
370
    15
100
AcDbSpline
210
0.0
220
0.0
230
1.0
 70
     8
 71
     3
 72
     8
 73
     4
 74
     0
 42
0.000000001
 43
0.00000001
 40
0.000000516385691
 40
0.000000516385691
 40
0.000000516385691
 40
0.000000516385691
 40
0.0000262892091854
 40
0.0000262892091854
 40
0.0000262892091854
 40
0.0000262892091854
 10
222.6500642513801
 20
43.04220976726647
 30
0.0
 10
222.6500619502208
 20
43.04378315296474
 30
0.0
 10
222.6500691965452
 20
43.04535088289747
 30
0.0
 10
222.6500858383993
 20
43.04691303963379
 30
0.0
  0
SPLINE
  5
23F
330
1F
100
AcDbEntity
  8
0
  6
Continuous
 62
     7
370
    15
100
AcDbSpline
210
0.0
220
0.0
230
1.0
 70
     8
 71
     3
 72
    18
 73
    14
 74
     0
 42
0.000000001
 43
0.00000001
 40
0.0
 40
0.0
 40
0.0
 40
0.0
 40
0.1248838678074691
 40
0.2504497395243643
 40
0.3759926854030567
 40
0.5008213054457007
 40
0.624585012938571
 40
0.6868393694366417
 40
0.7482883257010521
 40
0.8096491885886693
 40
0.8722979832432477
 40
0.9965007240958161
 40
1.0
 40
1.0
 40
1.0
 40
1.0
 10
228.338932549834
 20
41.16923865201188
 30
0.0
 10
228.2058857340504
 20
41.41417341694108
 30
0.0
 10
227.939065519858
 20
41.90538056125817
 30
0.0
 10
227.8143710633463
 20
42.65740173198878
 30
0.0
 10
227.9501962121161
 20
43.28208858285619
 30
0.0
 10
228.3172747880355
 20
43.69895468007265
 30
0.0
 10
228.7599062384317
 20
43.79293472815304
 30
0.0
 10
229.1361484674686
 20
43.71099747124933
 30
0.0
 10
229.4183209668093
 20
43.56870350047961
 30
0.0
 10
229.6908908945586
 20
43.35208548753493
 30
0.0
 10
230.0161880878684
 20
42.97393849517613
 30
0.0
 10
230.2614908109873
 20
42.61519606407091
 30
0.0
 10
230.3476037655633
 20
42.34569872957596
 30
0.0
 10
230.3499634227922
 20
42.33831399476291
 30
0.0
  0
SPLINE
  5
240
330
1F
100
AcDbEntity
  8
0
  6
Continuous
 62
     7
370
    15
100
AcDbSpline
210
0.0
220
0.0
230
1.0
 70
     8
 71
     3
 72
    12
 73
     8
 74
     0
 42
0.000000001
 43
0.00000001
 40
0.0
 40
0.0
 40
0.0
 40
0.0
 40
0.1531413117482173
 40
0.321386802876692
 40
0.4897577437573836
 40
0.6605592160055246
 40
1.0
 40
1.0
 40
1.0
 40
1.0
 10
229.9006282821577
 20
39.84124973855564
 30
0.0
 10
229.8272149145891
 20
39.86034611136353
 30
0.0
 10
229.673147490052
 20
39.90042231374943
 30
0.0
 10
229.4093423741335
 20
40.04587389239722
 30
0.0
 10
229.1279293091495
 20
40.25316629879256
 30
0.0
 10
228.7477414262924
 20
40.60239147138062
 30
0.0
 10
228.5022480439154
 20
40.94278826723682
 30
0.0
 10
228.338932549834
 20
41.16923865201188
 30
0.0
  0
SPLINE
  5
241
330
1F
100
AcDbEntity
  8
0
  6
Continuous
 62
     7
370
    15
100
AcDbSpline
210
0.0
220
0.0
230
1.0
 70
     8
 71
     3
 72
     8
 73
     4
 74
     0
 42
0.000000001
 43
0.00000001
 40
0.0
 40
0.0
 40
0.0
 40
0.0
 40
1.0
 40
1.0
 40
1.0
 40
1.0
 10
257.7377374926655
 20
36.26989805497283
 30
0.0
 10
257.7630894215346
 20
36.25526269795903
 30
0.0
 10
257.7950334053371
 20
36.25060816209005
 30
0.0
 10
257.8277584836264
 20
36.25309949497726
 30
0.0
  0
SPLINE
  5
242
330
1F
100
AcDbEntity
  8
0
  6
Continuous
 62
     7
370
    15
100
AcDbSpline
210
0.0
220
0.0
230
1.0
 70
     8
 71
     3
 72
    16
 73
    12
 74
     0
 42
0.000000001
 43
0.00000001
 40
0.0
 40
0.0
 40
0.0
 40
0.0
 40
0.2500000000000055
 40
0.2500000000000055
 40
0.3750000000000082
 40
0.3750000000000082
 40
0.500000000000011
 40
0.500000000000011
 40
0.7500000000000054
 40
0.7500000000000054
 40
1.0
 40
1.0
 40
1.0
 40
1.0
 10
257.8277584836262
 20
36.25309949497786
 30
0.0
 10
257.8399777021299
 20
36.21585377810761
 30
0.0
 10
257.8560464067453
 20
36.17874287035742
 30
0.0
 10
257.8943414949065
 20
36.13373589884822
 30
0.0
 10
257.9097985902606
 20
36.12076806103462
 30
0.0
 10
257.9451064200425
 20
36.1044857032889
 30
0.0
 10
257.9646897818878
 20
36.10148908477601
 30
0.0
 10
258.0219905573587
 20
36.1065228447376
 30
0.0
 10
258.057060854711
 20
36.1261663904878
 30
0.0
 10
258.1175816132625
 20
36.17264915046207
 30
0.0
 10
258.1444067173239
 20
36.20086723048719
 30
0.0
 10
258.1684316599251
 20
36.23075403068235
 30
0.0
  0
SPLINE
  5
243
330
1F
100
AcDbEntity
  8
0
  6
Continuous
 62
     7
370
    15
100
AcDbSpline
210
0.0
220
0.0
230
1.0
 70
     8
 71
     3
 72
    22
 73
    18
 74
     0
 42
0.000000001
 43
0.00000001
 40
0.0
 40
0.0
 40
0.0
 40
0.0
 40
0.125
 40
0.125
 40
0.25
 40
0.25
 40
0.375
 40
0.375
 40
0.5
 40
0.5
 40
0.625
 40
0.625
 40
0.75
 40
0.75
 40
0.875
 40
0.875
 40
1.0
 40
1.0
 40
1.0
 40
1.0
 10
258.8168079258827
 20
37.48346759842781
 30
0.0
 10
258.8653569045744
 20
37.54386206637377
 30
0.0
 10
258.9092510769637
 20
37.60806757493066
 30
0.0
 10
258.9868445400338
 20
37.74453746736517
 30
0.0
 10
259.0204034239414
 20
37.81649975416672
 30
0.0
 10
259.073606010768
 20
37.96013543751899
 30
0.0
 10
259.0938975547427
 20
38.03384437355056
 30
0.0
 10
259.1199150662471
 20
38.17535427955103
 30
0.0
 10
259.1260027981207
 20
38.24435722216354
 30
0.0
 10
259.12437497069
 20
38.37406209965138
 30
0.0
 10
259.1168494265691
 20
38.43336402573571
 30
0.0
 10
259.0888005236187
 20
38.54065436049576
 30
0.0
 10
259.0683936600343
 20
38.58742010289849
 30
0.0
 10
259.0160520614629
 20
38.66453314853941
 30
0.0
 10
258.9834977629628
 20
38.69543765134019
 30
0.0
 10
258.9085543788398
 20
38.73880364301374
 30
0.0
 10
258.8653620862721
 20
38.75198728275554
 30
0.0
 10
258.8168079218508
 20
38.75632875613109
 30
0.0
  0
LINE
  5
244
330
1F
100
AcDbEntity
  8
0
  6
Continuous
 62
     7
370
    15
100
AcDbLine
 10
258.8168079219
 20
38.7563287561
 30
0.0
 11
257.8277584836
 21
38.8447646779
 31
0.0
  0
ARC
  5
245
330
1F
100
AcDbEntity
  8
0
  6
Continuous
 62
     7
370
    15
100
AcDbCircle
 10
243.1625621458
 20
34.2465478438
 30
0.0
 40
6.623523393472123
100
AcDbArc
 50
198.1114510494
 51
217.3575801744
  0
SPLINE
  5
246
330
1F
100
AcDbEntity
  8
0
  6
Continuous
 62
     7
370
    15
100
AcDbSpline
210
0.0
220
0.0
230
1.0
 70
     8
 71
     3
 72
     8
 73
     4
 74
     0
 42
0.000000001
 43
0.00000001
 40
0.0
 40
0.0
 40
0.0
 40
0.0
 40
1.0
 40
1.0
 40
1.0
 40
1.0
 10
235.3925344319416
 20
31.94113572874721
 30
0.0
 10
235.8843292306935
 20
32.02278601582896
 30
0.0
 10
236.3759093215962
 20
32.10486980331939
 30
0.0
 10
236.8672103506487
 20
32.18751702352328
 30
0.0
  0
LINE
  5
247
330
1F
100
AcDbEntity
  8
0
  6
Continuous
 62
     7
370
    15
100
AcDbLine
 10
236.8672103506
 20
32.1875170235
 30
0.0
 11
237.112378955
 21
32.3290498462
 31
0.0
  0
SPLINE
  5
248
330
1F
100
AcDbEntity
  8
0
  6
Continuous
 62
     7
370
    15
100
AcDbSpline
210
0.0
220
0.0
230
1.0
 70
     8
 71
     3
 72
    10
 73
     6
 74
     0
 42
0.000000001
 43
0.00000001
 40
0.0
 40
0.0
 40
0.0
 40
0.0
 40
0.5
 40
0.5
 40
1.0
 40
1.0
 40
1.0
 40
1.0
 10
237.1123789550149
 20
32.32904984621306
 30
0.0
 10
237.1372112583669
 20
32.3433852298009
 30
0.0
 10
237.1648862558603
 20
32.35598066993699
 30
0.0
 10
237.2250112653148
 20
32.37717856807726
 30
0.0
 10
237.2567056655095
 20
32.38554073374392
 30
0.0
 10
237.2898876580912
 20
32.39165218881516
 30
0.0
  0
LINE
  5
249
330
1F
100
AcDbEntity
  8
0
  6
Continuous
 62
     7
370
    15
100
AcDbLine
 10
257.8277584836
 20
36.253099495
 30
0.0
 11
258.8168079259
 21
37.4834675984
 31
0.0
  0
ARC
  5
24A
330
1F
100
AcDbEntity
  8
0
  6
Continuous
 62
     7
370
    15
100
AcDbCircle
 10
255.358807221
 20
39.7473203372
 30
0.0
 40
1.491207826006085
100
AcDbArc
 50
321.0621655031
 51
347.3474134538
  0
SPLINE
  5
24B
330
1F
100
AcDbEntity
  8
0
  6
Continuous
 62
     7
370
    15
100
AcDbSpline
210
0.0
220
0.0
230
1.0
 70
     8
 71
     3
 72
    21
 73
    17
 74
     0
 42
0.000000001
 43
0.00000001
 40
0.0
 40
0.0
 40
0.0
 40
0.0
 40
0.0054058761612288
 40
0.0930790021899637
 40
0.1763774421566866
 40
0.2614036310343463
 40
0.3476823820678878
 40
0.4307455306469014
 40
0.515479507698198
 40
0.6014159359179856
 40
0.6856176740808294
 40
0.7715166301598873
 40
0.8586469820489754
 40
0.9011682994985275
 40
0.9436896897657786
 40
1.0
 40
1.0
 40
1.0
 40
1.0
 10
229.3438609038573
 20
43.52293624972263
 30
0.0
 10
229.3430594092256
 20
43.5197340388584
 30
0.0
 10
229.3292591817785
 20
43.46459800111798
 30
0.0
 10
229.3213098080064
 20
43.34937922661389
 30
0.0
 10
229.3214585521345
 20
43.17837620596203
 30
0.0
 10
229.3429270805382
 20
43.00067844356281
 30
0.0
 10
229.3829666500252
 20
42.81923968517713
 30
0.0
 10
229.4412353980157
 20
42.63593379377335
 30
0.0
 10
229.5162745039879
 20
42.45293369651404
 30
0.0
 10
229.6075557598768
 20
42.27116484601884
 30
0.0
 10
229.7135467416877
 20
42.09257171916985
 30
0.0
 10
229.8326409620205
 20
41.91902563818441
 30
0.0
 10
229.941504173858
 20
41.77995761487703
 30
0.0
 10
230.0328649869937
 20
41.67394179035413
 30
0.0
 10
230.1096362027891
 20
41.58901485657979
 30
0.0
 10
230.1656929208528
 20
41.53415408673867
 30
0.0
 10
230.1976317741647
 20
41.5028966364088
 30
0.0
  0
LINE
  5
24C
330
1F
100
AcDbEntity
  8
0
  6
Continuous
 62
     7
370
    15
100
AcDbLine
 10
255.5103511319
 20
37.5557408311
 30
0.0
 11
256.518710887
 21
38.8101307801
 31
0.0
  0
LINE
  5
24D
330
1F
100
AcDbEntity
  8
0
  6
Continuous
 62
     7
370
    15
100
AcDbLine
 10
257.0161245857
 20
53.4673669604
 30
0.0
 11
257.1111329011
 21
53.4884154818
 31
0.0
  0
LINE
  5
24E
330
1F
100
AcDbEntity
  8
0
  6
Continuous
 62
     7
370
    15
100
AcDbLine
 10
257.1111329011
 20
53.4884154818
 30
0.0
 11
258.5105209687
 21
52.6805659459
 31
0.0
  0
SPLINE
  5
24F
330
1F
100
AcDbEntity
  8
0
  6
Continuous
 62
     7
370
    15
100
AcDbSpline
210
0.0
220
0.0
230
1.0
 70
     8
 71
     3
 72
    12
 73
     8
 74
     0
 42
0.000000001
 43
0.00000001
 40
0.0
 40
0.0
 40
0.0
 40
0.0
 40
0.250000000000002
 40
0.250000000000002
 40
0.500000000000004
 40
0.500000000000004
 40
1.0
 40
1.0
 40
1.0
 40
1.0
 10
258.5105209687067
 20
52.68056594589147
 30
0.0
 10
258.5427649395793
 20
52.66195189771786
 30
0.0
 10
258.5648179421129
 20
52.63770157492045
 30
0.0
 10
258.5856668862779
 20
52.58711371703291
 30
0.0
 10
258.5852857170506
 20
52.56027514859884
 30
0.0
 10
258.5595327841534
 20
52.48304103233002
 30
0.0
 10
258.5115813570446
 20
52.43625566150219
 30
0.0
 10
258.4476813079094
 20
52.39936694833472
 30
0.0
  0
SPLINE
  5
250
330
1F
100
AcDbEntity
  8
0
  6
Continuous
 62
     7
370
    15
100
AcDbSpline
210
0.0
220
0.0
230
1.0
 70
     8
 71
     3
 72
    11
 73
     7
 74
     0
 42
0.000000001
 43
0.00000001
 40
0.0
 40
0.0
 40
0.0
 40
0.0
 40
0.2042918413328126
 40
0.3927251337756579
 40
0.721186747111488
 40
1.0
 40
1.0
 40
1.0
 40
1.0
 10
228.6302019018028
 20
41.35216173393073
 30
0.0
 10
228.7098215319808
 20
41.23757641872052
 30
0.0
 10
228.8628801647132
 20
41.01730069478035
 30
0.0
 10
229.1866307949215
 20
40.66647687530774
 30
0.0
 10
229.5708883514183
 20
40.34922674908991
 30
0.0
 10
229.8245052066378
 20
40.24167546111472
 30
0.0
 10
229.940946285174
 20
40.19229629836566
 30
0.0
  0
SPLINE
  5
251
330
1F
100
AcDbEntity
  8
0
  6
Continuous
 62
     7
370
    15
100
AcDbSpline
210
0.0
220
0.0
230
1.0
 70
     8
 71
     3
 72
    16
 73
    12
 74
     0
 42
0.000000001
 43
0.00000001
 40
0.0
 40
0.0
 40
0.0
 40
0.0
 40
0.1460145433272634
 40
0.2335492811860072
 40
0.328284659647779
 40
0.4359414636891987
 40
0.5278790605354984
 40
0.6640995323892502
 40
0.8013223013367583
 40
0.893041357694521
 40
1.0
 40
1.0
 40
1.0
 40
1.0
 10
229.569809370099
 20
43.43413065588003
 30
0.0
 10
229.4229487638194
 20
43.50760155557222
 30
0.0
 10
229.1880462106248
 20
43.62511776608245
 30
0.0
 10
228.8711951208589
 20
43.61514783163808
 30
0.0
 10
228.6180659623462
 20
43.52741248862186
 30
0.0
 10
228.4093426874884
 20
43.34562027336455
 30
0.0
 10
228.2463117714665
 20
43.05375489834553
 30
0.0
 10
228.1692839656847
 20
42.64387152398474
 30
0.0
 10
228.2446833065748
 20
42.17930236124006
 30
0.0
 10
228.403425844232
 20
41.73735769471759
 30
0.0
 10
228.5508407265307
 20
41.48696257880648
 30
0.0
 10
228.6302019018028
 20
41.35216173393073
 30
0.0
  0
SPLINE
  5
252
330
1F
100
AcDbEntity
  8
0
  6
Continuous
 62
     7
370
    15
100
AcDbSpline
210
0.0
220
0.0
230
1.0
 70
     8
 71
     3
 72
    13
 73
     9
 74
     0
 42
0.000000001
 43
0.00000001
 40
0.0
 40
0.0
 40
0.0
 40
0.0
 40
0.1648353260908676
 40
0.333541352232803
 40
0.515748636672704
 40
0.7034480219308726
 40
0.8819189490305713
 40
1.0
 40
1.0
 40
1.0
 40
1.0
 10
260.6275105170706
 20
48.81975125480555
 30
0.0
 10
260.6383780272704
 20
48.82659380325098
 30
0.0
 10
260.660368240979
 20
48.84043957839719
 30
0.0
 10
260.6867603765332
 20
48.86529536562607
 30
0.0
 10
260.7073156788264
 20
48.89330113706544
 30
0.0
 10
260.7189569657129
 20
48.92349543959623
 30
0.0
 10
260.7223979085977
 20
48.9508841601407
 30
0.0
 10
260.7179784213665
 20
48.96739132855208
 30
0.0
 10
260.7162186701742
 20
48.97396415199853
 30
0.0
  0
LINE
  5
253
330
1F
100
AcDbEntity
  8
0
  6
Continuous
 62
     7
370
    15
100
AcDbLine
 10
254.7126741946
 20
54.873016221
 30
0.0
 11
254.5682782642
 21
54.6558063262
 31
0.0
  0
LINE
  5
254
330
1F
100
AcDbEntity
  8
0
  6
Continuous
 62
     7
370
    15
100
AcDbLine
 10
224.4898416847
 20
45.2218942422
 30
0.0
 11
224.990224519
 21
44.9330293807
 31
0.0
  0
SPLINE
  5
255
330
1F
100
AcDbEntity
  8
0
  6
Continuous
 62
     7
370
    15
100
AcDbSpline
210
0.0
220
0.0
230
1.0
 70
     8
 71
     3
 72
    10
 73
     6
 74
     0
 42
0.000000001
 43
0.00000001
 40
0.0
 40
0.0
 40
0.0
 40
0.0
 40
0.0840381716605808
 40
0.7011125076932897
 40
1.0
 40
1.0
 40
1.0
 40
1.0
 10
222.6517513648703
 20
50.97547318741943
 30
0.0
 10
222.651210050057
 20
50.98191916088328
 30
0.0
 10
222.6466939762454
 20
51.03569654002487
 30
0.0
 10
222.6610327027041
 20
51.11849654226591
 30
0.0
 10
222.6815815059196
 20
51.20012512665441
 30
0.0
 10
222.6882867856299
 20
51.22676134896582
 30
0.0
  0
SPLINE
  5
256
330
1F
100
AcDbEntity
  8
0
  6
Continuous
 62
     7
370
    15
100
AcDbSpline
210
0.0
220
0.0
230
1.0
 70
     8
 71
     3
 72
    10
 73
     6
 74
     0
 42
0.000000001
 43
0.00000001
 40
0.0
 40
0.0
 40
0.0
 40
0.0
 40
0.5
 40
0.5
 40
1.0
 40
1.0
 40
1.0
 40
1.0
 10
222.7045231885982
 20
51.03162299824958
 30
0.0
 10
222.6845971381015
 20
50.94766252423156
 30
0.0
 10
222.6713028739606
 20
50.8622166617178
 30
0.0
 10
222.6540343478198
 20
50.68980319078051
 30
0.0
 10
222.6501108931978
 20
50.6026915845142
 30
0.0
 10
222.6500642513801
 20
50.51568081912792
 30
0.0
  0
SPLINE
  5
257
330
1F
100
AcDbEntity
  8
0
  6
Continuous
 62
     7
370
    15
100
AcDbSpline
210
0.0
220
0.0
230
1.0
 70
     8
 71
     3
 72
    24
 73
    20
 74
     0
 42
0.000000001
 43
0.00000001
 40
0.0
 40
0.0
 40
0.0
 40
0.0
 40
0.249999999999999
 40
0.249999999999999
 40
0.3749999999999983
 40
0.3749999999999983
 40
0.4374999999999987
 40
0.4374999999999987
 40
0.4687499999999975
 40
0.4687499999999975
 40
0.4999999999999963
 40
0.4999999999999963
 40
0.5624999999999984
 40
0.5624999999999984
 40
0.6250000000000006
 40
0.6250000000000006
 40
0.7500000000000001
 40
0.7500000000000001
 40
1.0
 40
1.0
 40
1.0
 40
1.0
 10
222.6882867856299
 20
51.22676134896582
 30
0.0
 10
222.718127814915
 20
51.33404040552207
 30
0.0
 10
222.7479573549561
 20
51.43992497889274
 30
0.0
 10
222.7926285118274
 20
51.58987302214304
 30
0.0
 10
222.8075813039191
 20
51.63887328490598
 30
0.0
 10
222.8291644422085
 20
51.70202356680872
 30
0.0
 10
222.8362941537382
 20
51.72166375103723
 30
0.0
 10
222.8451457790396
 20
51.73937368052523
 30
0.0
 10
222.8477838763094
 20
51.74309004701091
 30
0.0
 10
222.8509364143544
 20
51.7409416986287
 30
0.0
 10
222.8513163754912
 20
51.73477928956211
 30
0.0
 10
222.8493064502304
 20
51.70613420620936
 30
0.0
 10
222.844729808632
 20
51.67783320122118
 30
0.0
 10
222.8347984225256
 20
51.62145419107189
 30
0.0
 10
222.8291082367906
 20
51.59198444311585
 30
0.0
 10
222.811526636172
 20
51.50413002254952
 30
0.0
 10
222.7988457632438
 20
51.44490502950019
 30
0.0
 10
222.7596046996234
 20
51.26641172237041
 30
0.0
 10
222.7323012395869
 20
51.14866868819669
 30
0.0
 10
222.7045231885982
 20
51.0316229982496
 30
0.0
  0
ARC
  5
258
330
1F
100
AcDbEntity
  8
0
  6
Continuous
 62
     7
370
    15
100
AcDbCircle
 10
223.3672012256
 20
50.4370135644
 30
0.0
 40
0.7201267655271583
100
AcDbArc
 50
174.7583590299
 51
234.4349468916
  0
ARC
  5
259
330
1F
100
AcDbEntity
  8
0
  6
Continuous
 62
     7
370
    15
100
AcDbCircle
 10
224.8625351707
 20
42.937117187
 30
0.0
 40
2.215172042338765
100
AcDbArc
 50
122.6235698331
 51
177.1589486026
  0
LINE
  5
25A
330
1F
100
AcDbEntity
  8
0
  6
Continuous
 62
     7
370
    15
100
AcDbLine
 10
223.6682976001
 20
44.8028030668
 30
0.0
 11
224.4123842309
 21
45.2323551356
 31
0.0
  0
SPLINE
  5
25B
330
1F
100
AcDbEntity
  8
0
  6
Continuous
 62
     7
370
    15
100
AcDbSpline
210
0.0
220
0.0
230
1.0
 70
     8
 71
     3
 72
     8
 73
     4
 74
     0
 42
0.000000001
 43
0.00000001
 40
0.0
 40
0.0
 40
0.0
 40
0.0
 40
0.0001590976953043
 40
0.0001590976953043
 40
0.0001590976953043
 40
0.0001590976953043
 10
224.489841684686
 20
45.22189424224384
 30
0.0
 10
224.4640215551265
 20
45.22537879170471
 30
0.0
 10
224.4382024105803
 20
45.22886577444122
 30
0.0
 10
224.4123842309302
 20
45.2323551355596
 30
0.0
  0
SPLINE
  5
25C
330
1F
100
AcDbEntity
  8
0
  6
Continuous
 62
     7
370
    15
100
AcDbSpline
210
0.0
220
0.0
230
1.0
 70
     8
 71
     3
 72
    10
 73
     6
 74
     0
 42
0.000000001
 43
0.00000001
 40
0.0
 40
0.0
 40
0.0
 40
0.0
 40
0.5
 40
0.5
 40
1.0
 40
1.0
 40
1.0
 40
1.0
 10
222.7045231885982
 20
42.8469673825456
 30
0.0
 10
222.6845971381017
 20
42.88548894406194
 30
0.0
 10
222.6713028739608
 20
42.91745227125552
 30
0.0
 10
222.6540343478201
 20
42.97989569475344
 30
0.0
 10
222.6501108931979
 20
43.01031907196622
 30
0.0
 10
222.6500642513801
 20
43.04220976726646
 30
0.0
  0
SPLINE
  5
25D
330
1F
100
AcDbEntity
  8
0
  6
Continuous
 62
     7
370
    15
100
AcDbSpline
210
0.0
220
0.0
230
1.0
 70
     8
 71
     3
 72
     9
 73
     5
 74
     0
 42
0.000000001
 43
0.00000001
 40
0.0
 40
0.0
 40
0.0
 40
0.0
 40
0.5797035953942357
 40
1.0
 40
1.0
 40
1.0
 40
1.0
 10
222.6604308172963
 20
43.64407994373765
 30
0.0
 10
222.6569086370805
 20
43.61683421172404
 30
0.0
 10
222.6508328075639
 20
43.56983479300371
 30
0.0
 10
222.6507893662651
 20
43.52339614867472
 30
0.0
 10
222.6507711080434
 20
43.50387815342848
 30
0.0
  0
ARC
  5
25E
330
1F
100
AcDbEntity
  8
0
  6
Continuous
 62
     7
370
    15
100
AcDbCircle
 10
223.997156416
 20
43.4317748019
 30
0.0
 40
1.353480254557428
100
AcDbArc
 50
122.9135798094
 51
170.9753897871
  0
LINE
  5
25F
330
1F
100
AcDbEntity
  8
0
  6
Continuous
 62
     7
370
    15
100
AcDbLine
 10
223.6682976001
 20
44.8028030668
 30
0.0
 11
223.2617112009
 21
44.5680094321
 31
0.0
  0
LINE
  5
260
330
1F
100
AcDbEntity
  8
0
  6
Continuous
 62
     7
370
    15
100
AcDbLine
 10
222.7598357837
 20
42.7509777249
 30
0.0
 11
222.7045231886
 21
42.8469673825
 31
0.0
  0
LWPOLYLINE
  5
261
330
1F
100
AcDbEntity
  8
0
  6
Continuous
 62
     7
370
     0
100
AcDbPolyline
 90
       26
 70
   128
 43
0.0
 10
239.6240640416
 20
37.102990099
 10
239.9074343465
 20
38.2065425191
 10
240.2540919909
 20
39.3179084819
 10
240.6618792699
 20
40.4301704998
 10
241.1282579885
 20
41.5364055079
 10
241.6503252605
 20
42.6297279553
 10
242.2248315766
 20
43.7033326629
 10
242.8482010308
 20
44.7505371808
 10
243.5165535776
 20
45.7648233823
 10
244.2257291828
 20
46.7398780344
 10
244.9713137168
 20
47.6696320936
 10
245.7486664294
 20
48.5482984812
 10
246.5529488354
 20
49.3704081043
 10
247.3791548308
 20
50.1308438967
 10
248.2221418524
 20
50.8248726694
 10
249.0766628868
 20
51.4481745714
 10
249.937399129
 20
51.9968699777
 10
250.7989930888
 20
52.4675436373
 10
251.6560819374
 20
52.8572659309
 10
252.503330887
 20
53.1636111057
 10
253.3354663965
 20
53.3846723739
 10
254.1473089955
 20
53.5190737815
 10
254.9338055231
 20
53.5659787723
 10
255.6900605802
 20
53.5250953949
 10
256.411367
 20
53.3966781204
 10
257.0932351467
 20
53.1815262577
  0
LWPOLYLINE
  5
262
330
1F
100
AcDbEntity
  8
0
  6
Continuous
 62
     7
370
     0
100
AcDbPolyline
 90
       26
 70
   128
 43
0.0
 10
239.190381206
 20
37.0975527606
 10
239.4728256859
 20
38.2159080195
 10
239.8192842689
 20
39.3426941036
 10
240.2276224296
 20
40.4709689037
 10
240.6953244039
 20
41.5937811383
 10
241.219508688
 20
42.7042131811
 10
241.7969457918
 20
43.7954236795
 10
242.4240781354
 20
44.8606897048
 10
243.0970419673
 20
45.8934481717
 10
243.8116911691
 20
46.8873362732
 10
244.5636227997
 20
47.8362306823
 10
245.3482042213
 20
48.7342852769
 10
246.1606016417
 20
49.5759671585
 10
246.9958098944
 20
50.3560907398
 10
247.848683276
 20
51.0698496929
 10
248.7139672487
 20
51.7128465615
 10
249.5863308128
 20
52.281119853
 10
250.4603993518
 20
52.7711684458
 10
251.3307877448
 20
53.1799731589
 10
252.1921335439
 20
53.5050153537
 10
253.0391300129
 20
53.7442924509
 10
253.8665588212
 20
53.8963302685
 10
254.6693221946
 20
53.9601921042
 10
255.4424743218
 20
53.9354845063
 10
256.1812518262
 20
53.8223596979
 10
256.8811031124
 20
53.6215146389
  0
ARC
  5
263
330
1F
100
AcDbEntity
  8
0
  6
Continuous
 62
     7
370
     0
100
AcDbCircle
 10
238.8117288304
 20
46.7983799215
 30
0.0
 40
22.2772764733844
100
AcDbArc
 50
341.8744566466
 51
348.3173173033
  0
LWPOLYLINE
  5
264
330
1F
100
AcDbEntity
  8
0
  6
Continuous
 62
     7
370
     0
100
AcDbPolyline
 90
       23
 70
   128
 43
0.0
 10
254.6785490748
 20
30.6784011257
 10
254.0178052466
 20
29.9724928441
 10
253.2086911754
 20
29.1853019371
 10
252.3803719096
 20
28.4610962054
 10
251.5379242259
 20
27.8043143129
 10
250.6865114938
 20
27.2189816819
 10
249.8313520299
 20
26.7086858215
 10
248.9776871147
 20
26.2765543398
 10
248.1307488683
 20
25.9252357747
 10
247.2957281831
 20
25.656883361
 10
246.4777429087
 20
25.473141833
 10
245.6818064844
 20
25.3751373445
 10
244.9127972121
 20
25.3634705657
 10
244.1754283568
 20
25.4382130024
 10
243.474219259
 20
25.5989065577
 10
242.8134676358
 20
25.8445663391
 10
242.1972232401
 20
26.1736866956
 10
241.6292630396
 20
26.5842504454
 10
241.1130680676
 20
27.0737412395
 10
240.6518020879
 20
27.6391589843
 10
240.248292204
 20
28.2770382291
 10
239.9050115318
 20
28.9834694061
 10
239.6240640416
 20
29.754122792
  0
ARC
  5
265
330
1F
100
AcDbEntity
  8
0
  6
Continuous
 62
     7
370
     0
100
AcDbCircle
 10
254.1010586589
 20
47.2989459753
 30
0.0
 40
6.701300064527602
100
AcDbArc
 50
13.1170908933
 51
49.5620782406
  0
LWPOLYLINE
  5
266
330
1F
100
AcDbEntity
  8
0
  6
Continuous
 62
     7
370
     0
100
AcDbPolyline
 90
       30
 70
   128
 43
0.0
 10
244.2415693987
 20
36.0941855487
 10
244.2746180835
 20
36.8293061431
 10
244.3733896831
 20
37.5942547268
 10
244.5367650758
 20
38.3803641265
 10
244.7628931531
 20
39.1787274087
 10
245.0492117936
 20
39.9802987984
 10
245.3924768927
 20
40.7759961715
 10
245.7887991196
 20
41.5568039587
 10
246.2336879851
 20
42.3138752958
 10
246.7221027206
 20
43.0386322621
 10
247.248509392
 20
43.7228630716
 10
247.8069436013
 20
44.3588151157
 10
248.391078066
 20
44.9392828038
 10
248.9942943089
 20
45.4576892049
 10
249.6097576491
 20
45.9081605673
 10
250.2304946411
 20
46.2855928707
 10
250.8494720866
 20
46.585709656
 10
251.4596767239
 20
46.8051104803
 10
252.0541946905
 20
46.9413094446
 10
252.6262898605
 20
46.99276336
 10
253.1694801668
 20
46.9588892333
 10
253.6776110464
 20
46.8400708718
 10
254.1449251732
 20
46.637654535
 10
254.5661276916
 20
46.353933681
 10
254.9364462085
 20
45.9921229803
 10
255.2516848674
 20
45.5563218927
 10
255.5082718883
 20
45.0514682187
 10
255.7033000375
 20
44.4832821523
 10
255.8345595684
 20
43.8582014684
 10
255.8927475878
 20
43.3201533531
  0
LWPOLYLINE
  5
267
330
1F
100
AcDbEntity
  8
0
  6
Continuous
 62
     7
370
     0
100
AcDbPolyline
 90
       16
 70
   128
 43
0.0
 10
249.6432555088
 20
32.4945425734
 10
249.6097576491
 20
32.4781887563
 10
248.9942943089
 20
32.2180612716
 10
248.391078066
 20
32.0400090232
 10
247.8069436013
 20
31.946049414
 10
247.248509392
 20
31.9372470439
 10
246.7221027206
 20
32.0137016475
 10
246.2336879851
 20
32.1745469634
 10
245.7887991196
 20
32.4179605499
 10
245.3924768927
 20
32.7411844339
 10
245.0492117936
 20
33.1405563596
 10
244.7628931531
 20
33.6115512835
 10
244.5367650758
 20
34.1488326449
 10
244.3733896831
 20
34.7463128313
 10
244.2746180835
 20
35.3972221535
 10
244.2415693987
 20
36.0941855487
  0
LWPOLYLINE
  5
268
330
1F
100
AcDbEntity
  8
0
  6
Continuous
 62
     7
370
     0
100
AcDbPolyline
 90
       24
 70
   128
 43
0.0
 10
229.8696240711
 20
38.2678721464
 10
229.9031134802
 20
39.2837978252
 10
230.0033802984
 20
40.3322796562
 10
230.1698215092
 20
41.4070119463
 10
230.4014361155
 20
42.501531129
 10
230.69683116
 20
43.6092546373
 10
231.0542301019
 20
44.7235204915
 10
231.4714835021
 20
45.8376273657
 10
231.9460819495
 20
46.9448748902
 10
232.4751711531
 20
48.0386039479
 10
233.0555691084
 20
49.1122367237
 10
233.6837852335
 20
50.1593162636
 10
234.356041363
 20
51.1735453082
 10
235.0682944692
 20
52.1488241647
 10
235.8162609783
 20
53.0792873912
 10
236.5954425315
 20
53.9593390724
 10
237.4011530395
 20
54.7836864739
 10
238.2285468643
 20
55.5473718735
 10
239.0726479622
 20
56.2458023774
 10
239.9283798099
 20
56.8747775422
 10
240.7905959352
 20
57.4305146374
 10
241.6541108691
 20
57.9096713947
 10
242.513731331
 20
58.3093661089
 10
243.1852810257
 20
58.56685963
  0
ARC
  5
269
330
1F
100
AcDbEntity
  8
0
  6
Continuous
 62
     7
370
     0
100
AcDbCircle
 10
242.4611136032
 20
38.1953171018
 30
0.0
 40
12.5916985697509
100
AcDbArc
 50
179.6698522588
 51
190.6229483052
  0
LWPOLYLINE
  5
26A
330
1F
100
AcDbEntity
  8
0
  6
Continuous
 62
     7
370
     0
100
AcDbPolyline
 90
       19
 70
   128
 43
0.0
 10
237.538197113
 20
39.0297721897
 10
237.7942057631
 20
40.0629031715
 10
238.1130693486
 20
41.1046762402
 10
238.4925800497
 20
42.1478781312
 10
238.9301101241
 20
43.1852856869
 10
239.4226301019
 20
44.2097158696
 10
239.9667297615
 20
45.2140754974
 10
240.5586417425
 20
46.1914103574
 10
241.1942676305
 20
47.1349533569
 10
241.8692063349
 20
48.0381713791
 10
242.578784562
 20
48.8948105182
 10
243.3180891733
 20
49.698939382
 10
244.0820012039
 20
50.4449901607
 10
244.8652313065
 20
51.1277971789
 10
245.662356375
 20
51.7426326624
 10
246.4678570941
 20
52.2852394741
 10
247.2761561553
 20
52.7518605898
 10
248.0816568744
 20
53.1392651126
 10
248.684260267
 20
53.3775129491
  0
LWPOLYLINE
  5
26B
330
1F
100
AcDbEntity
  8
0
  6
Continuous
 62
     7
370
     0
100
AcDbPolyline
 90
       23
 70
   128
 43
0.0
 10
237.112378955
 20
39.6779171532
 10
237.4009261205
 20
40.7179397816
 10
237.7497307383
 20
41.7629228002
 10
238.1565053102
 20
42.8060130977
 10
238.6185821647
 20
43.8403699759
 10
239.1329309522
 20
44.8592100109
 10
239.696178518
 20
45.8558515402
 10
240.3046310238
 20
46.8237584813
 10
240.9542981726
 20
47.7565831964
 10
241.6409193775
 20
48.6482081205
 10
242.3599917025
 20
49.4927858815
 10
243.1067993941
 20
50.2847776476
 10
243.876444807
 20
51.0189894513
 10
244.6638805237
 20
51.6906062528
 10
245.4639424561
 20
52.2952235168
 10
246.2713837119
 20
52.8288760982
 10
247.0809090044
 20
53.2880642459
 10
247.8872093797
 20
53.6697765546
 10
248.6849970332
 20
53.9715097139
 10
249.4690399874
 20
54.1912849253
 10
250.2341964045
 20
54.3276608793
 10
250.9754483061
 20
54.3797432078
 10
251.0036564229
 20
54.3800587204
  0
ARC
  5
26C
330
1F
100
AcDbEntity
  8
0
  6
Continuous
 62
     7
370
     0
100
AcDbCircle
 10
250.0682152432
 20
35.7270546229
 30
0.0
 40
3.020612621356296
100
AcDbArc
 50
173.0189029994
 51
235.6689166073
  0
LWPOLYLINE
  5
26D
330
1F
100
AcDbEntity
  8
0
  6
Continuous
 62
     7
370
     0
100
AcDbPolyline
 90
       21
 70
   128
 43
0.0
 10
254.6141599453
 20
44.058266288
 10
254.5659203671
 20
44.0852676776
 10
254.1527078931
 20
44.2555330073
 10
253.699122597
 20
44.3407553623
 10
253.2120403697
 20
44.3396428588
 10
252.6988448811
 20
44.252212361
 10
252.1673156517
 20
44.0797892263
 10
251.6255101229
 20
43.8249872136
 10
251.0816415142
 20
43.4916688617
 10
250.5439543192
 20
43.0848869369
 10
250.0205993279
 20
42.6108078388
 10
249.5195100683
 20
42.076618123
 10
249.0482825429
 20
41.4904155613
 10
248.6140600806
 20
40.8610863869
 10
248.2234250513
 20
40.1981705885
 10
247.8822990839
 20
39.511717294
 10
247.5958533003
 20
38.8121324355
 10
247.3684299266
 20
38.1100210064
 10
247.2034764693
 20
37.4160263003
 10
247.1034934547
 20
36.7406685694
 10
247.0699965234
 20
36.0941855487
  0
LWPOLYLINE
  5
26E
330
1F
100
AcDbEntity
  8
0
  6
Continuous
 62
     7
370
     0
100
AcDbPolyline
 90
       15
 70
   128
 43
0.0
 10
253.331032865
 20
33.4381831479
 10
253.5484195174
 20
33.1359226527
 10
253.8220503
 20
32.9115932544
 10
254.1449338729
 20
32.7709266293
 10
254.5088204746
 20
32.7175168472
 10
254.9044127047
 20
32.7527285424
 10
255.3216030759
 20
32.8756620467
 10
255.7497322625
 20
33.0831763761
 10
256.1778614491
 20
33.3699694839
 10
256.5950518203
 20
33.7287137294
 10
256.9906440504
 20
34.1502431011
 10
257.354530652
 20
34.6237874106
 10
257.677414225
 20
35.137247474
 10
257.9510450075
 20
35.6775042491
 10
258.1684316599
 20
36.2307540307
  0
LWPOLYLINE
  5
26F
330
1F
100
AcDbEntity
  8
0
  6
Continuous
 62
     7
370
     0
100
AcDbPolyline
 90
       15
 70
   128
 43
0.0
 10
258.1683334191
 20
38.9340574717
 10
257.9509343037
 20
39.2362589797
 10
257.6773023644
 20
39.4605381055
 10
257.3544279167
 20
39.6011653211
 10
256.9905592456
 20
39.6545481051
 10
256.5949918917
 20
39.6193227187
 10
256.1778311834
 20
39.4963890443
 10
255.7497340819
 20
39.2888875967
 10
255.3216369338
 20
39.0021192943
 10
254.9044760873
 20
38.6434100395
 10
254.5089085069
 20
38.2219235684
 10
254.1450395269
 20
37.7484273498
 10
253.8221646957
 20
37.2350175153
 10
253.5485323081
 20
36.6948098462
 10
253.3311326911
 20
36.1416047127
  0
LINE
  5
270
330
1F
100
AcDbEntity
  8
0
  6
Continuous
 62
     7
370
     0
100
AcDbLine
 10
252.3998138866
 20
33.779015791
 30
0.0
 11
252.4705245647
 21
33.515125557
 31
0.0
  0
LWPOLYLINE
  5
271
330
1F
100
AcDbEntity
  8
0
  6
Continuous
 62
     7
370
     0
100
AcDbPolyline
 90
        3
 70
   128
 43
0.0
 10
257.7377374927
 20
38.8873117165
 10
257.5165436763
 20
39.1671183617
 10
257.2846812126
 20
39.3412616289
  0
LWPOLYLINE
  5
272
330
1F
100
AcDbEntity
  8
0
  6
Continuous
 62
     7
370
     0
100
AcDbPolyline
 90
       13
 70
   128
 43
0.0
 10
253.787742446
 20
33.2773216597
 10
253.8358926143
 20
33.2510142297
 10
254.1613193802
 20
33.1387466891
 10
254.5257212648
 20
33.116243695
 10
254.9187787126
 20
33.1841425134
 10
255.3293606664
 20
33.3405203067
 10
255.7458397899
 20
33.580948587
 10
256.1564217437
 20
33.8986186272
 10
256.5494791914
 20
34.2845342783
 10
256.9138810761
 20
34.7277667329
 10
257.239307842
 20
35.2157640198
 10
257.5165436763
 20
35.7347064654
 10
257.7377374927
 20
36.269898055
  0
LINE
  5
273
330
1F
100
AcDbEntity
  8
0
  6
Continuous
 62
     7
370
     0
100
AcDbLine
 10
231.5192607106
 20
37.7303086537
 30
0.0
 11
233.3167696293
 21
38.7679884649
 31
0.0
  0
LINE
  5
274
330
1F
100
AcDbEntity
  8
0
  6
Continuous
 62
     7
370
     0
100
AcDbLine
 10
252.1652729908
 20
33.9144133682
 30
0.0
 11
252.3998138866
 21
33.779015791
 31
0.0
  0
ARC
  5
275
330
1F
100
AcDbEntity
  8
0
  6
Continuous
 62
     7
370
     0
100
AcDbCircle
 10
246.2053046938
 20
31.763929253
 30
0.0
 40
7.298654609585022
100
AcDbArc
 50
196.0282740928
 51
217.1863811773
  0
LWPOLYLINE
  5
276
330
1F
100
AcDbEntity
  8
0
  6
Continuous
 62
     7
370
     0
100
AcDbPolyline
 90
       22
 70
   128
 43
0.0
 10
222.6500642514
 20
50.5156808191
 10
222.9808263091
 20
51.4780041708
 10
223.371930586
 20
52.4365456112
 10
223.8200268628
 20
53.3830942259
 10
224.3212767244
 20
54.3095418315
 10
224.8713864389
 20
55.2079524309
 10
225.4656437386
 20
56.0706301934
 10
226.0989581856
 20
56.8901853777
 10
226.7659047761
 20
57.6595976325
 10
227.4607704119
 20
58.3722761336
 10
228.1776028388
 20
59.0221160407
 10
228.9102616339
 20
59.6035507923
 10
229.6524708049
 20
60.111599789
 10
230.3978725504
 20
60.5419110572
 10
231.1400817214
 20
60.890798529
 10
231.8727405165
 20
61.1552736165
 10
232.5895729433
 20
61.3330708127
 10
233.2844385791
 20
61.4226670978
 10
233.9513851696
 20
61.4232949857
 10
234.5846996166
 20
61.3349490976
 10
235.1789569164
 20
61.158386209
 10
235.5142396476
 20
61.0108974101
  0
ARC
  5
277
330
1F
100
AcDbEntity
  8
0
  6
Continuous
 62
     7
370
     0
100
AcDbCircle
 10
226.5624680315
 20
44.8574714484
 30
0.0
 40
4.313012672088795
100
AcDbArc
 50
204.8901713315
 51
234.8684218607
  0
LINE
  5
278
330
1F
100
AcDbEntity
  8
0
  6
Continuous
 62
     7
370
     0
100
AcDbLine
 10
231.5192607106
 20
36.9137678418
 30
0.0
 11
233.3167696293
 21
37.951447653
 31
0.0
  0
LINE
  5
279
330
1F
100
AcDbEntity
  8
0
  6
Continuous
 62
     7
370
     0
100
AcDbLine
 10
234.8063191627
 20
32.2795506003
 30
0.0
 11
236.1451967541
 21
33.0524681818
 31
0.0
  0
LINE
  5
27A
330
1F
100
AcDbEntity
  8
0
  6
Continuous
 62
     7
370
     0
100
AcDbLine
 10
259.0289399602
 20
37.3012181756
 30
0.0
 11
258.8168079259
 21
37.4834675984
 31
0.0
  0
LINE
  5
27B
330
1F
100
AcDbEntity
  8
0
  6
Continuous
 62
     7
370
     0
100
AcDbLine
 10
238.541981166
 20
31.7180239567
 30
0.0
 11
238.3230856401
 21
32.3626009986
 31
0.0
  0
ARC
  5
27C
330
1F
100
AcDbEntity
  8
0
  6
Continuous
 62
     7
370
     0
100
AcDbCircle
 10
244.1463786941
 20
34.6862727001
 30
0.0
 40
6.86782920383687
100
AcDbArc
 50
195.8051238746
 51
209.3718713215
  0
ARC
  5
27D
330
1F
100
AcDbEntity
  8
0
  6
Continuous
 62
     7
370
     0
100
AcDbCircle
 10
243.3200833698
 20
34.4394807161
 30
0.0
 40
6.556638815568525
100
AcDbArc
 50
198.7764725905
 51
214.0375669963
  0
LINE
  5
27E
330
1F
100
AcDbEntity
  8
0
  6
Continuous
 62
     7
370
     0
100
AcDbLine
 10
256.518710887
 20
38.8101307801
 30
0.0
 11
258.8168079259
 21
37.4834675984
 31
0.0
  0
LINE
  5
27F
330
1F
100
AcDbEntity
  8
0
  6
Continuous
 62
     7
370
     0
100
AcDbLine
 10
253.8597454408
 20
55.3654015098
 30
0.0
 11
253.3187564629
 21
55.0530952205
 31
0.0
  0
ARC
  5
280
330
1F
100
AcDbEntity
  8
0
  6
Continuous
 62
     7
370
     0
100
AcDbCircle
 10
226.4125019804
 20
49.0195902077
 30
0.0
 40
1.102095792745897
100
AcDbArc
 50
159.4111972489
 51
213.1915491986
  0
ARC
  5
281
330
1F
100
AcDbEntity
  8
0
  6
Continuous
 62
     7
370
     0
100
AcDbCircle
 10
225.0806911715
 20
48.848105385
 30
0.0
 40
0.6345057597339261
100
AcDbArc
 50
41.9989524423
 51
61.7721687695
  0
LINE
  5
282
330
1F
100
AcDbEntity
  8
0
  6
Continuous
 62
     7
370
     0
100
AcDbLine
 10
225.3807989439
 20
49.407151791
 30
0.0
 11
225.4903457955
 21
49.8179495518
 31
0.0
  0
LINE
  5
283
330
1F
100
AcDbEntity
  8
0
  6
Continuous
 62
     7
370
     0
100
AcDbLine
 10
225.3807989439
 20
49.407151791
 30
0.0
 11
224.5787542057
 21
49.870162363
 31
0.0
  0
LINE
  5
284
330
1F
100
AcDbEntity
  8
0
  6
Continuous
 62
     7
370
     0
100
AcDbLine
 10
222.7045231886
 20
51.0316229982
 30
0.0
 11
222.6882867856
 21
51.226761349
 31
0.0
  0
ARC
  5
285
330
1F
100
AcDbEntity
  8
0
  6
Continuous
 62
     7
370
     0
100
AcDbCircle
 10
225.1708389624
 20
40.7545324787
 30
0.0
 40
0.4314912001451217
100
AcDbArc
 50
27.8850837497
 51
60.8831993912
  0
ARC
  5
286
330
1F
100
AcDbEntity
  8
0
  6
Continuous
 62
     7
370
     0
100
AcDbCircle
 10
226.6205376392
 20
41.5265906744
 30
0.0
 40
1.301173266867175
100
AcDbArc
 50
165.9701785416
 51
197.6766607319
  0
LINE
  5
287
330
1F
100
AcDbEntity
  8
0
  6
Continuous
 62
     7
370
     0
100
AcDbLine
 10
224.9890277782
 20
44.040361764
 30
0.0
 11
223.6682976001
 21
44.8028030668
 31
0.0
  0
LINE
  5
288
330
1F
100
AcDbEntity
  8
0
  6
Continuous
 62
     7
370
     0
100
AcDbLine
 10
225.3807989439
 20
41.1314959544
 30
0.0
 11
224.5787542057
 21
41.5945065263
 31
0.0
  0
LINE
  5
289
330
1F
100
AcDbEntity
  8
0
  6
Continuous
 62
     7
370
     0
100
AcDbLine
 10
225.3807989439
 20
41.1314959544
 30
0.0
 11
225.4903457955
 21
40.8471782963
 31
0.0
  0
OLE2FRAME
  5
28A
330
1F
100
AcDbEntity
  8
0
100
AcDbOle2Frame
 70
     2
  3
Paintbrush-Bild
 10
13.8511154363
 20
38.264191557
 30
0.0
 11
51.6290888628
 21
31.9806341108
 31
0.0
 71
     2
 72
     0
 73
     1
 90
    12928
310
80552BED0767C5B32B40DDAF6807D121434000000000000000006FFBDDFB85D0
310
4940DDAF6807D121434000000000000000006FFBDDFB85D04940416F4BD60AFB
310
3F4000000000000000002BED0767C5B32B40416F4BD60AFB3F40000000000000
310
0000000000000100000000010000010000000100000000000100000000320000
310
D0CF11E0A1B11AE1000000000000000000000000000000003E000300FEFF0900
310
0600000000000000000000000100000001000000000000000010000002000000
310
01000000FEFFFFFF0000000000000000FFFFFFFFFFFFFFFFFFFFFFFFFFFFFFFF
310
FFFFFFFFFFFFFFFFFFFFFFFFFFFFFFFFFFFFFFFFFFFFFFFFFFFFFFFFFFFFFFFF
310
FFFFFFFFFFFFFFFFFFFFFFFFFFFFFFFFFFFFFFFFFFFFFFFFFFFFFFFFFFFFFFFF
310
FFFFFFFFFFFFFFFFFFFFFFFFFFFFFFFFFFFFFFFFFFFFFFFFFFFFFFFFFFFFFFFF
310
FFFFFFFFFFFFFFFFFFFFFFFFFFFFFFFFFFFFFFFFFFFFFFFFFFFFFFFFFFFFFFFF
310
FFFFFFFFFFFFFFFFFFFFFFFFFFFFFFFFFFFFFFFFFFFFFFFFFFFFFFFFFFFFFFFF
310
FFFFFFFFFFFFFFFFFFFFFFFFFFFFFFFFFFFFFFFFFFFFFFFFFFFFFFFFFFFFFFFF
310
FFFFFFFFFFFFFFFFFFFFFFFFFFFFFFFFFFFFFFFFFFFFFFFFFFFFFFFFFFFFFFFF
310
FFFFFFFFFFFFFFFFFFFFFFFFFFFFFFFFFFFFFFFFFFFFFFFFFFFFFFFFFFFFFFFF
310
FFFFFFFFFFFFFFFFFFFFFFFFFFFFFFFFFFFFFFFFFFFFFFFFFFFFFFFFFFFFFFFF
310
FFFFFFFFFFFFFFFFFFFFFFFFFFFFFFFFFFFFFFFFFFFFFFFFFFFFFFFFFFFFFFFF
310
FFFFFFFFFFFFFFFFFFFFFFFFFFFFFFFFFFFFFFFFFFFFFFFFFFFFFFFFFFFFFFFF
310
FFFFFFFFFFFFFFFFFFFFFFFFFFFFFFFFFFFFFFFFFFFFFFFFFFFFFFFFFFFFFFFF
310
FFFFFFFFFFFFFFFFFFFFFFFFFFFFFFFFFFFFFFFFFFFFFFFFFFFFFFFFFFFFFFFF
310
FDFFFFFFFEFFFFFFFEFFFFFFFEFFFFFF05000000060000000700000008000000
310
090000000A0000000B0000000C0000000D0000000E0000000F00000010000000
310
11000000120000001300000014000000150000001600000017000000FEFFFFFF
310
FFFFFFFFFFFFFFFFFFFFFFFFFFFFFFFFFFFFFFFFFFFFFFFFFFFFFFFFFFFFFFFF
310
FFFFFFFFFFFFFFFFFFFFFFFFFFFFFFFFFFFFFFFFFFFFFFFFFFFFFFFFFFFFFFFF
310
FFFFFFFFFFFFFFFFFFFFFFFFFFFFFFFFFFFFFFFFFFFFFFFFFFFFFFFFFFFFFFFF
310
FFFFFFFFFFFFFFFFFFFFFFFFFFFFFFFFFFFFFFFFFFFFFFFFFFFFFFFFFFFFFFFF
310
FFFFFFFFFFFFFFFFFFFFFFFFFFFFFFFFFFFFFFFFFFFFFFFFFFFFFFFFFFFFFFFF
310
FFFFFFFFFFFFFFFFFFFFFFFFFFFFFFFFFFFFFFFFFFFFFFFFFFFFFFFFFFFFFFFF
310
FFFFFFFFFFFFFFFFFFFFFFFFFFFFFFFFFFFFFFFFFFFFFFFFFFFFFFFFFFFFFFFF
310
FFFFFFFFFFFFFFFFFFFFFFFFFFFFFFFFFFFFFFFFFFFFFFFFFFFFFFFFFFFFFFFF
310
FFFFFFFFFFFFFFFFFFFFFFFFFFFFFFFFFFFFFFFFFFFFFFFFFFFFFFFFFFFFFFFF
310
FFFFFFFFFFFFFFFFFFFFFFFFFFFFFFFFFFFFFFFFFFFFFFFFFFFFFFFFFFFFFFFF
310
FFFFFFFFFFFFFFFFFFFFFFFFFFFFFFFFFFFFFFFFFFFFFFFFFFFFFFFFFFFFFFFF
310
FFFFFFFFFFFFFFFFFFFFFFFFFFFFFFFFFFFFFFFFFFFFFFFFFFFFFFFFFFFFFFFF
310
FFFFFFFFFFFFFFFFFFFFFFFFFFFFFFFFFFFFFFFFFFFFFFFFFFFFFFFFFFFFFFFF
310
52006F006F007400200045006E00740072007900000000000000000000000000
310
0000000000000000000000000000000000000000000000000000000000000000
310
16000500FFFFFFFFFFFFFFFF020000000A00030000000000C000000000000046
310
00000000000000000000000020E8DE64D91FD20103000000C000000000000000
310
01004F006C006500000000000000000000000000000000000000000000000000
310
0000000000000000000000000000000000000000000000000000000000000000
310
0A000200FFFFFFFFFFFFFFFFFFFFFFFF00000000000000000000000000000000
310
0000000000000000000000000000000000000000000000001400000000000000
310
010043006F006D0070004F0062006A0000000000000000000000000000000000
310
0000000000000000000000000000000000000000000000000000000000000000
310
120002010100000003000000FFFFFFFF00000000000000000000000000000000
310
0000000000000000000000000000000000000000010000004D00000000000000
310
01004F006C006500310030004E00610074006900760065000000000000000000
310
0000000000000000000000000000000000000000000000000000000000000000
310
1A000200FFFFFFFFFFFFFFFFFFFFFFFF00000000000000000000000000000000
310
0000000000000000000000000000000000000000040000002426000000000000
310
FEFFFFFF02000000FEFFFFFFFFFFFFFFFFFFFFFFFFFFFFFFFFFFFFFFFFFFFFFF
310
FFFFFFFFFFFFFFFFFFFFFFFFFFFFFFFFFFFFFFFFFFFFFFFFFFFFFFFFFFFFFFFF
310
FFFFFFFFFFFFFFFFFFFFFFFFFFFFFFFFFFFFFFFFFFFFFFFFFFFFFFFFFFFFFFFF
310
FFFFFFFFFFFFFFFFFFFFFFFFFFFFFFFFFFFFFFFFFFFFFFFFFFFFFFFFFFFFFFFF
310
FFFFFFFFFFFFFFFFFFFFFFFFFFFFFFFFFFFFFFFFFFFFFFFFFFFFFFFFFFFFFFFF
310
FFFFFFFFFFFFFFFFFFFFFFFFFFFFFFFFFFFFFFFFFFFFFFFFFFFFFFFFFFFFFFFF
310
FFFFFFFFFFFFFFFFFFFFFFFFFFFFFFFFFFFFFFFFFFFFFFFFFFFFFFFFFFFFFFFF
310
FFFFFFFFFFFFFFFFFFFFFFFFFFFFFFFFFFFFFFFFFFFFFFFFFFFFFFFFFFFFFFFF
310
FFFFFFFFFFFFFFFFFFFFFFFFFFFFFFFFFFFFFFFFFFFFFFFFFFFFFFFFFFFFFFFF
310
FFFFFFFFFFFFFFFFFFFFFFFFFFFFFFFFFFFFFFFFFFFFFFFFFFFFFFFFFFFFFFFF
310
FFFFFFFFFFFFFFFFFFFFFFFFFFFFFFFFFFFFFFFFFFFFFFFFFFFFFFFFFFFFFFFF
310
FFFFFFFFFFFFFFFFFFFFFFFFFFFFFFFFFFFFFFFFFFFFFFFFFFFFFFFFFFFFFFFF
310
FFFFFFFFFFFFFFFFFFFFFFFFFFFFFFFFFFFFFFFFFFFFFFFFFFFFFFFFFFFFFFFF
310
FFFFFFFFFFFFFFFFFFFFFFFFFFFFFFFFFFFFFFFFFFFFFFFFFFFFFFFFFFFFFFFF
310
FFFFFFFFFFFFFFFFFFFFFFFFFFFFFFFFFFFFFFFFFFFFFFFFFFFFFFFFFFFFFFFF
310
FFFFFFFFFFFFFFFFFFFFFFFFFFFFFFFFFFFFFFFFFFFFFFFFFFFFFFFFFFFFFFFF
310
0100000200000000000000000000000000000000000000000000000000000000
310
0000000000000000000000000000000000000000000000000000000000000000
310
0100FEFF030A0000FFFFFFFF0A00030000000000C00000000000004607000000
310
5042727573680007000000504272757368000700000050427275736800F439B2
310
7100000000000000000000000000000000000000000000000000000000000000
310
0000000000000000000000000000000000000000000000000000000000000000
310
0000000000000000000000000000000000000000000000000000000000000000
310
0000000000000000000000000000000000000000000000000000000000000000
310
0000000000000000000000000000000000000000000000000000000000000000
310
0000000000000000000000000000000000000000000000000000000000000000
310
0000000000000000000000000000000000000000000000000000000000000000
310
0000000000000000000000000000000000000000000000000000000000000000
310
0000000000000000000000000000000000000000000000000000000000000000
310
0000000000000000000000000000000000000000000000000000000000000000
310
0000000000000000000000000000000000000000000000000000000000000000
310
0000000000000000000000000000000000000000000000000000000000000000
310
20260000424D0E260000000000003E00000028000000B40200006E0000000100
310
01000000000000000000130B0000130B00000200000002000000000000FFFFFF
310
FFFFFFFFFFFFFFFFFFFFFFFFFFFFFFFFFFFFFFFFFFFFFFFFFFFFFFFFFFFFFFFF
310
FFFFFFFFFFFFFFFFFFFFFFFFFFFFFFFFFFFFFFFFFFFFFFFFFFFFFFFFFFFFFFFF
310
FFFFFFFFFFFFFFFFFFFFFFFFFFFFFFFFFFFFFFFFFFFFFFFFF000FFFFFFFFFFFF
310
FFFFFFFFFFFFFFFFFFFFFFFFFFFFFFFFFFFFFFFFFFFFFFFFFFFFFFFFFFFFFFFF
310
FFFFFFFFFFFFFFFFFFFFFFFFFFFFFFFFFFFFFFFFFFFFFFFFFFFFFFFFFFFFFFFF
310
FFFFFFFFFFFFFFFFFFFFFFFFFFFFFFFFF000FFFFFFFFFFFFFFFFFFFFFFFFFFFF
310
FFFFFFFFFFFFFFFFFFFFFFFFFFFFFFFFFFFFFFFFFFFFFFFFFFFFFFFFFFFFFFFF
310
FFFFFFFFFFFFFFFFFFFFFFFFFFFFFFFFFFFFFFFFFFFFFFFFFFFFFFFFFFFFFFFF
310
FFFFFFFFFFFFFFFFF000FFFFFFFFFFFFFFFFFFFFFFFFFFFFFFFFFFFFFFFFFFFF
310
FFFFFFFFFFFFFFFFFFFFFFFFFFFFFFFFFFFFFFFFFFFFFFFFFFFFFFFFFFFFFFFF
310
FFFFFFFFFFFFFFFFFFFFFFFFFFFFFFFFFFFFFFFFFFFFFFFFFFFFFFFFFFFFFFFF
310
F000FFFFFFFFFFFFFFFFFFFFFFFFFFFFFFFFFFFFFFFFFFFFFFFFFFFFFFFFFFFF
310
FFFFFFFFFFFFFFFFFFFFFFFFFFFFFFFFFFFFFFFFFFFFFFFFFFFFFFFFFFFFFFFF
310
FFFFFFFFFFFFFFFFFFFFFFFFFFFFFFFFFFFFFFFFFFFFFFFFF000FFFFFFFFFFFF
310
FFFFFFFFFFFFFFFFFFFFFFFFFFFFFFFFFFFFFFFFFFFFFFFFFFFFFFFFFFFFFFFF
310
FFFFFFFFFFFFFFFFFFFFFFFFFFFFFFFFFFFFFFFFFFFFFFFFFFFFFFFFFFFFFFFF
310
FFFFFFFFFFFFFFFFFFFFFFFFFFFFFFFFF000FFFFFFFFFFFFFFFFFFFFFFFFFFFF
310
FFFFFFFFFFFFFFFFFFFFFFFFFFFFFFFFFFFFFFFFFFFFFFFFFFFFFFFFFFFFFFFF
310
FFFFFFFFFFFFFFFFFFFFFFFFFFFFFFFFFFFFFFFFFFFFFFFFFFFFFFFFFFFFFFFF
310
FFFFFFFFFFFFFFFFF000FFFFFFFFFFFFFFFFFFFFFFFFFFFFFFFFFFFFFFFFFFFF
310
FFFFFFFFFFFFFFFFFFFFFFFFFFFFFFFFFFFFFFFFFFFFFFFFFFFFFFFFFFFFFFFF
310
FFFFFFFFFFFFFFFFFFFFFFFFFFFFFFFFFFFFFFFFFFFFFFFFFFFFFFFFFFFFFFFF
310
F000FFFFFFFFFFFFFFFFFFFFFFFFFFFFFFFFFFFFFFFFFFFFFFFFFFFFFFFFFFFF
310
FFFFFFFFFFFFFFFFFFFFFFFFFFFFFFFFFFFFFFFFFFFFFFFFFFFFFFFFFFFFFFFF
310
FFFFFFFFFFFFFFFFFFFFFFFFFFFFFFFFFFFFFFFFFFFFFFFFF000FFFFFFFFFFFF
310
FFFFFFFFFFFFFFFFFFFFFFFFFFFFFFFFFFFFFFFFFFFFFFFFFFFFFFFFFFFFFFFF
310
FFFFFFFFFFFFFFFFFFFFFFFFFFFFFFFFFFFFFFFFFFFFFFFFFFFFFFFFFFFFFFFF
310
FFFFFFFFFFFFFFFFFFFFFFFFFFFFFFFFF000FFFFFFFFFFFFFFFFFFFFFFFFFFFF
310
FFFFFFFFFFFFFFFFFFFFFFFFFFFFFFFFFFFFFFFFFFFFFFFFFFFFFFFFFFFFFFFF
310
FFFFFFFFFFFFFFFFFFFFFFFFFFFFFFFFFFFFFFFFFFFFFFFFFFFFFFFFFFFFFFFF
310
FFFFFFFFFFFFFFFFF000FFFFFFFFFFFFFFFFFFFFFFFFFFFFFFFFFFFFFFFFFFFF
310
FFFFFFFFFFFFFFFFFFFFFFFFFFFFFFFFFFFFFFFFFFFFFFFFFFFFFFFFFFFFFFFF
310
FFFFFFFFFFFFFFFFFFFFFFFFFFFFFFFFFFFFFFFFFFFFFFFFFFFFFFFFFFFFFFFF
310
F000FFFFFFFFFFFFFFFFFFFFFFFFFFFFFFFFFFFFFFFFFFFFFFFFFFFFFFFFFFFF
310
FFFFFFFFFFFFFFFFFFFFFFFFFFFFFFFFFFFFFFFFFFFFFFFFFFFFFFFFFFFFFFFF
310
FFFFFFFFFFFFFFFFFFFFFFFFFFFFFFFFFFFFFFFFFFFFFFFFF000FFFFFFFFFFFF
310
FFFFFFFFFFFFFFFFFFFFFFFFFFFFFFFFFFFFFFFFFFFFFFFFFFFFFFFFFFFFFFFF
310
FFFFFFFFFFFFFFFFFFFFFFFFFFFFFFFFFFFFFFFFFFFFFFFFFFFFFFFFFFFFFFFF
310
FFFFFFFFFFFFFFFFFFFFFFFFFFFFFFFFF000FFFFFFFFFFFFFFFFFFFFFFFFFFFF
310
FFFFFFFFFFFFFFFFFFFFFFFFFFFFFFFFFFFFFFFFFFFFFFFFFFFFFFFFFFFFFFFF
310
FFFFFFFFFFFFFFFFFFFFFFFFFFFFFFFFFFFFFFFFFFFFFFFFFFFFFFFFFFFFFFFF
310
FFFFFFFFFFFFFFFFF000FFFFFFFFFFFFFFFFFFFFFFFFFFFFFFFFFFFFFFFFFFFF
310
FFFFFFFFFFFFFFFFFFFFFFFFFFFFFFFFFFFFFFFFFFFFFFFFFFFFFFFFFFFFFFFF
310
FFFFFFFFFFFFFFFFFFFFFFFFFFFFFFFFFFFFFFFFFFFFFFFFFFFFFFFFFFFFFFFF
310
F000FFFFFFFFFFFFFFFFFFFFFFFFFFFFFFFFFFFFFFFFFFFFFFFFFFFFFFFFFFFF
310
FFFFFFFFFFFFFFFFFFFFFFFFFFFFFFFFFFFFFFFFFFFFFFFFFFFFFFFFFFFFFFFF
310
FFFFFFFFFFFFFFFFFFFFFFFFFFFFFFFFFFFFFFFFFFFFFFFFF000FFFFFFFFFFFF
310
FFFFFFFFFFFFFFFFFFFFFFFFFFFFFFFFFFFFFFFFFFFFFFFFFFFFFFFFFFFFFFFF
310
FFFFFFFFFFFFFFFFFFFFFFFFFFFFFFFFFFFFFFFFFFFFFFFFFFFFFFFFFFFFFFFF
310
FFFFFFFFFFFFFFFFFFFFFFFFFFFFFFFFF000FFFFFFFFFFFFFFFFFFFFFFFFFFFF
310
FFFFFFFFFFFFFFFFFFFFFFFFFFFFFFFFFFFFFFFFFFFFFFFFFFFFFFFFFFFFFFFF
310
FFFFFFFFFFFFFFFFFFFFFFFFFFFFFFFFFFFFFFFFFFFFFFFFFFFFFFFFFFFFFFFF
310
FFFFFFFFFFFFFFFFF000FFFFF80003FFFFFFFFFFFFFFFFFFFFFFFFFFFFFFFFFF
310
FFFFF00007FFFFFFFFFF00007FFFFFF800000000000000007FFFFFFFFFFFFFFF
310
FFFFFFFC001FFFFFFFFFFFFFFC001FFFFFFFFFFFFFFFFFFFFFFFFFFE0007FFFF
310
F000FFFF8000007FFFFFFFF8000FFFFFC0007FFFFF80007FFFFF0000007FFFFF
310
FFF8000007FFFFF800000000000000007FFFFFF0001FFFFFFFFFFFC00001FFFF
310
FFFFFFFFC00001FFFFFFFF000000000003FFFFE000007FFFF000FFFE0000000F
310
FFFFFFF0000FFFFF80007FFFFF80007FFFFC0000001FFFFFFFC0000001FFFFF8
310
00000000000000007FFFFFF0001FFFFFFFFFFE0000003FFFFFFFFFFE0000003F
310
FFFFFF000000000003FFFF0000000FFFF000FFF800000003FFFFFFF00007FFFF
310
80007FFFFF80007FFFF000000007FFFFFF000000003FFFF80000000000000000
310
7FFFFFF0001FFFFFFFFFF80000000FFFFFFFFFF80000000FFFFFFF0000000000
310
03FFFC00000003FFF000FFE000000000FFFFFFF00007FFFF80003FFFFF80007F
310
FFC000000001FFFFFC000000001FFFF800000000000000007FFFFFF0001FFFFF
310
FFFFE000000003FFFFFFFFE000000003FFFFFF000000000003FFF000000000FF
310
F000FF80000000007FFFFFF00007FFFF80003FFFFF80007FFF8000000000FFFF
310
F80000000007FFF800000000000000007FFFFFF0001FFFFFFFFFC000000001FF
310
FFFFFFC000000001FFFFFF000000000003FFC0000000007FF000FF0000000000
310
3FFFFFE00007FFFF00003FFFFF80007FFE00000000003FFFF00000000003FFF8
310
00000000000000007FFFFFF0001FFFFFFFFF8000000000FFFFFFFF8000000000
310
FFFFFF000000000003FF80000000003FF000FE00000000001FFFFFE00003FFFF
310
00003FFFFF80007FFC00000000001FFFE00000000001FFF8000001FFFE000000
310
7FFFFFF0001FFFFFFFFE00000000003FFFFFFE00000000003FFFFF0000000000
310
03FF00000000001FF000FC00000000000FFFFFE00003FFFF00001FFFFF80007F
310
F800000000001FFFC00000000000FFF8000001FFFE0000007FFFFFF0001FFFFF
310
FFFC00000000001FFFFFFC00000000001FFFFF000000000003FE00000000000F
310
F000F8000000000007FFFFE00003FFFF00001FFFFF80007FF800000000000FFF
310
800000000000FFF8000001FFFE0000007FFFFFF0001FFFFFFFF800000000000F
310
FFFFF800000000000FFFFF000000000003FC000000000007F000F80000000000
310
03FFFFC00003FFFE00001FFFFF80007FF0000000000007FF0000000000007FF8
310
000001FFFE0000007FFFFFF0001FFFFFFFF0000000000007FFFFF00000000000
310
07FFFF000000000003F8000000000003F000F0000000000003FFFFC00001FFFE
310
00001FFFFF80007FE0000000000007FE0000000000003FF8000001FFFE000000
310
7FFFFFF0001FFFFFFFF0000000000007FFFFF0000000000007FFFF0000000000
310
03F800001F800003F000E00001FFF00001FFFFC00001FFFE00000FFFFF80007F
310
E00001FFE00003FE00001FFF00003FF8000001FFFE0000007FFFFFF0001FFFFF
310
FFE000003E000003FFFFE000003E000003FFFF000000000003F00001FFF80001
310
F000E00007FFFC0001FFFFC00001FFFE00000FFFFF80007FC0000FFFFC0003FC
310
0000FFFFC0001FF8000001FFFE0000007FFFFFF0001FFFFFFFC00003FFE00001
310
FFFFC00003FFE00001FFFF0001FFFFFFFFF00007FFFE0001F000E0000FFFFF00
310
00FFFF800001FFFC00000FFFFF80007FC0001FFFFE0001FC0001FFFFE0001FF8
310
000001FFFE0000007FFFFFF0001FFFFFFF80000FFFF80000FFFF80000FFFF800
310
00FFFF0003FFFFFFFFE0000FFFFF8000F000C0003FFFFF8000FFFF800000FFFC
310
000007FFFF80007F80003FFFFF0001FC0003FFFFF0001FF8000001FFFE000000
310
7FFFFFF0001FFFFFFF80003FFFFE0000FFFF80003FFFFE0000FFFF0003FFFFFF
310
FFE0003FFFFF8000F000C0003FFFFF8000FFFF800000FFFC000007FFFF80007F
310
80007FFFFF8001F80007FFFFF8000FF8000001FFFE0000007FFFFFF0001FFFFF
310
FF00007FFFFF00007FFF00007FFFFF00007FFF0003FFFFFFFFE0003FFFFFC000
310
F000C0007FFFFFC000FFFF000000FFFC000007FFFF80007F8000FFFFFF8000F8
310
000FFFFFF8000FF8000001FFFE0000007FFFFFF0001FFFFFFF0000FFFFFF8000
310
7FFF0000FFFFFF80007FFF0003FFFFFFFFC0007FFFFFC00070008000FFFFFFC0
310
00FFFF000000FFF8000007FFFF80007F8000FFFFFF8000F8000FFFFFF8000FF8
310
000001FFFE0000007FFFFFF0001FFFFFFE0001FFFFFFC0003FFE0001FFFFFFC0
310
003FFF0003FFFFFFFFC0007FFFFFE00070008000FFFFFFC0007FFF0000007FF8
310
000003FFFF80007F0001FFFFFF8000F8000FFFFFF8000FF8000001FFFE000000
310
7FFFFFF0001FFFFFFE0001FFFFFFC0003FFE0001FFFFFFC0003FFF0003FFFFFF
310
FFC000FFFFFFE00070008000FFFFFFC0007FFF0000007FF8000003FFFF80007F
310
0001FFFFFF8000F8001FFFFFF8000FF8000001FFFE0000007FFFFFF0001FFFFF
310
FE0003FFFFFFE0003FFE0003FFFFFFE0003FFF0003FFFFFFFFC000FFFFFFE000
310
70008000FFFFFFC0007FFE0000007FF8000003FFFF80007F0001FFFFFF8000F0
310
001FFFFFF8000FF8000001FFFE0000007FFFFFF0001FFFFFFC0003FFFFFFE000
310
1FFC0003FFFFFFE0001FFF0003FFFFFFFFC000FFFFFFC00070008000FFFFFF80
310
007FFE0000007FF0000003FFFF80007F0001FFFFFF0000F0001FFFFFF8000FF8
310
000001FFFE0000007FFFFFF0001FFFFFFC0007FFFFFFF0001FFC0007FFFFFFF0
310
001FFF0003FFFFFFFFC000FFFFFFC00070008001FFFFFF0000FFFE0000003FF0
310
000001FFFF80007F0001FFFFFF0000F8001FFFFFF0000FF8000001FFFE000000
310
7FFFFFF0001FFFFFFC0007FFFFFFF0001FFC0007FFFFFFF0001FFF0003FFFFFF
310
FFC001FFFFFF80007000FFFFFFFFFE0000FFFE0008003FF0008001FFFF80007F
310
FFFFFFFFFC0000FFFFFFFFFFE0000FF8000001FFFE0000007FFFFFF0001FFFFF
310
F8000FFFFFFFF8000FF8000FFFFFFFF8000FFF0003FFFFFFFFFFFFFFFFFF0000
310
7000FFFFFFFFFC0000FFFC0008003FF0008001FFFF80007FFFFFFFFFF80001FF
310
FFFFFFFF80000FF8000001FFFE0000007FFFFFF0001FFFFFF8000FFFFFFFF800
310
0FF8000FFFFFFFF8000FFF0003FFFFFFFFFFFFFFFFFE0000F000FFFFFFFFE000
310
00FFFC000C003FE000C001FFFF80007FFFFFFFFFC00001FFFFFFFFFE00001FF8
310
000001FFFE0000007FFFFFF0001FFFFFF8000FFFFFFFF8000FF8000FFFFFFFF8
310
000FFF0003FFFFFFFFFFFFFFFFF00000F000FFFFFFFE000001FFFC000C001FE0
310
00C000FFFF80007FFFFFFFFE000001FFFFFFFFE000001FF80FFFFFFFFFFFFFC0
310
7FFFFFF0001FFFFFF8000FFFFFFFF8000FF8000FFFFFFFF8000FFF0003FFFFFF
310
FFFFFFFFFF800000F000FFFFFFC0000001FFFC001C001FE001C000FFFF80007F
310
FFFFFF80000003FFFFFFF80000001FF80FFFFFFFFFFFFFC07FFFFFF0001FFFFF
310
F8001FFFFFFFFC000FF8001FFFFFFFFC000FFF0003FFFFFFFFFFFFFFF0000001
310
F000FFFFF800000001FFF8001C001FE001C000FFFF80007FFFFFF800000003FF
310
FFFF800000003FF80FFFFFFFFFFFFFC07FFFFFF0001FFFFFF8001FFFFFFFFC00
310
0FF8001FFFFFFFFC000FFF0003FFFFFFFFFFFFFE00000001F000FFFFC0000000
310
03FFF8001E001FC001E000FFFF80007FFFFF8000000007FFFFFC000000003FF8
310
0FFFFFFFFFFFFFC07FFFFFF0001FFFFFF8001FFFFFFFFC000FF8001FFFFFFFFC
310
000FFF0003FFFFFFFFFFFFE000000003F000FFFE0000000007FFF8001E000FC0
310
01E0007FFF80007FFFFE0000000007FFFFE0000000007FF80FFFFFFFFFFFFFC0
310
7FFFFFF0001FFFFFF0001FFFFFFFFC0007F0001FFFFFFFFC0007FF0003FFFFFF
310
FFFFFF0000000003F000FFF80000000007FFF8001E000FC003E0007FFF80007F
310
FFF0000000000FFFFF8000000000FFF80FFFFFFFFFFFFFC07FFFFFF0001FFFFF
310
F0001FFFFFFFFC0007F0001FFFFFFFFC0007FF0003FFFFFFFFFFFC0000000007
310
F000FFE0000000000FFFF0003E000FC003E0007FFF80007FFFC0000000001FFF
310
FE0000000001FFF80FFFFFFFFFFFFFC07FFFFFF0001FFFFFF0001FFFFFFFFC00
310
07F0001FFFFFFFFC0007FF0003FFFFFFFFFFF0000000000FF000FFC000000000
310
1FFFF0003F000F8003F0003FFF80007FFF80000000003FFFF80000000003FFF8
310
0FFFFFFFFFFFFFC07FFFFFF0001FFFFFF0001FFFFFFFFC0007F0001FFFFFFFFC
310
0007FF0003FFFFFFFFFFE0000000001FF000FF00000000007FFFF0003F000780
310
03F0003FFF80007FFF00000000007FFFF00000000007FFF80FFFFFFFFFFFFFC0
310
7FFFFFF0001FFFFFF0001FFFFFFFFC0007F0001FFFFFFFFC0007FF0003FFFFFF
310
FFFF80000000007FF000FE0000000000FFFFE0003F00078007F0003FFF80007F
310
FE0000000001FFFFE0000000001FFFF80FFFFFFFFFFFFFC07FFFFFF0001FFFFF
310
F0001FFFFFFFFC0007F0001FFFFFFFFC0007FF0003FFFFFFFFFF0000000000FF
310
F000FC0000000003FFFFE0007F00078007F0003FFF80007FFC0000000007FFFF
310
C0000000007FFFF80FFFFFFFFFFFFFC07FFFFFF0001FFFFFF8001FFFFFFFFC00
310
0FF8001FFFFFFFFC000FFF0003FFFFFFFFFE0000000003FFF000FC000000000F
310
FFFFE0007F80070007F8001FFF80007FF8000000001FFFFF8000000001FFFFF8
310
0FFFFFFFFFFFFFC07FFFFFF0001FFFFFF8001FFFFFFFFC000FF8001FFFFFFFFC
310
000FFF0003FFFFFFFFFC000000000FFFF000F8000000007FFFFFE0007F800700
310
07F8001FFF80007FF000000000FFFFFF800000000FFFFFF80FFFFFFFFFFFFFC0
310
7FFFFFF0001FFFFFF8000FFFFFFFF8000FF8000FFFFFFFF8000FFF0003FFFFFF
310
FFFC000000007FFFF000F800000007FFFFFFC0007F8003000FF8001FFF80007F
310
F000000007FFFFFF000000007FFFFFF80FFFFFFFFFFFFFC07FFFFFF0001FFFFF
310
F8000FFFFFFFF8000FF8000FFFFFFFF8000FFF0003FFFFFFFFF80000000FFFFF
310
F000F0000000FFFFFFFFC000FF8003000FF8001FFF80007FE0000000FFFFFFFF
310
0000000FFFFFFFF8000001FFFE0000007FFFFFF0001FFFFFF8000FFFFFFFF800
310
0FF8000FFFFFFFF8000FFF0003FFFFFFFFF8000000FFFFFFF000F000000FFFFF
310
FFFFC000FFC002000FF8000FFF80007FE000001FFFFFFFFE000001FFFFFFFFF8
310
000001FFFE0000007FFFFFF0001FFFFFF8000FFFFFFFF8000FF8000FFFFFFFF8
310
000FFF0003FFFFFFFFF000001FFFFFFFF000E00000FFFFFFFFFFC000FFC00200
310
0FFC000FFF80007FE00001FFFFFFFFFE00001FFFFFFFFFF8000001FFFE000000
310
7FFFFFF0001FFFFFFC000FFFFFFFF8001FFC000FFFFFFFF8001FFF0003FFFFFF
310
FFF00001FFFFFFFFF000E00007FFFFFFFFFF8000FFC000001FFC000FFF80007F
310
C0000FFFFFFFFFFE0000FFFFFFFFFFF8000001FFFE0000007FFFFFF0001FFFFF
310
FC0007FFFFFFF0001FFC0007FFFFFFF0001FFF0003FFFFFFFFF00007FFFFFFFF
310
F000E0001FFFFFFFFFFF8000FFC000001FFC000FFF80007FC0003FFFFFFFFFFE
310
0001FFFFFFFFFFF8000001FFFE0000007FFFFFF0001FFFFFFC0007FFFFFFF000
310
1FFC0007FFFFFFF0001FFF0003FFFFFFFFF0001FFFFFFFFFF000E0003FFFFF00
310
03FF8001FFE000001FFC0007FF80007FC0007FFFFF0007FC0003FFFFF0003FF8
310
000001FFFE0000007FFFFFF0001FFFFFFC0003FFFFFFE0001FFC0003FFFFFFE0
310
001FFF0003FFFFFFFFF0003FFFFFFFFFF000E0003FFFFF0001FF8001FFE00000
310
1FFE0007FF80007FC0007FFFFE0003FC0007FFFFE0003FF8000001FFFE000000
310
7FFFFFF0001FFFFFFE0003FFFFFFE0003FFE0003FFFFFFE0003FFF0003FFFFFF
310
FFF0003FFFFF8001F000E0003FFFFF0001FF0001FFE000001FFE0007FF80007F
310
C0007FFFFE0003FC0007FFFFE0003FF8000001FFFE0000007FFFFFF0001FFFFF
310
FE0001FFFFFFC0003FFE0001FFFFFFC0003FFF0003FFFFFFFFF0003FFFFF0001
310
F000E0003FFFFF0003FF0001FFE000003FFE0007FF80007FC0007FFFFE0003FC
310
0007FFFFE0003FF8000001FFFE0000007FFFFFF0001FFFFFFF0001FFFFFFC000
310
7FFF0001FFFFFFC0007FFF0003FFFFFFFFF0003FFFFF0001F000E0003FFFFE00
310
03FF0003FFF000003FFE0003FF80007FC0007FFFFC0003FE0007FFFFE0003FF8
310
000001FFFE0000007FFFFFF0001FFFFFFF0000FFFFFF80007FFF0000FFFFFF80
310
007FFF0003FFFFFFFFF0003FFFFF0001F000E0003FFFFE0003FF0003FFF00000
310
3FFF0003FF80007FC0007FFFFC0007FE0007FFFFC0003FF8000001FFFE000000
310
7FFFFFF0001FFFFFFF80007FFFFF0000FFFF80007FFFFF0000FFFF0003FFFFFF
310
FFF0003FFFFF0003F000E0003FFFFC0003FE0003FFF000003FFF0003FF80007F
310
E0003FFFF80007FE0003FFFFC0007FF8000001FFFE0000007FFFFFF0001FFFFF
310
FF80003FFFFE0000FFFF80003FFFFE0000FFFF0003FFFFFFFFF0001FFFFE0003
310
F000F0001FFFF80003FE0003FFF000007FFF0001FF80007FE0003FFFF00007FE
310
0001FFFF80007FF8000001FFFE0000007FFFFFF0001FFFFFFFC0000FFFF80001
310
FFFFC0000FFFF80001FFFF0003FFFFFFFFF0001FFFFC0003F000F0000FFFF000
310
07FE0007FFF800007FFF0001FF80007FE0001FFFE00007FF0000FFFE00007FF8
310
000001FFFE0000007FFFFFF0001FFFFFFFC00003FFE00001FFFFC00003FFE000
310
01FFFF0003FFFFFFFFF8000FFFF80003F000F00003FFC00007FC0007FFF80000
310
7FFF8001FF80007FF00007FF80000FFF00007FF80000FFF8000001FFFE000000
310
7F80000000000001FFE000003E000003FFFFE000003E000003FFFF0003FFFFFF
310
FFF80003FFE00007F000F800000000000FFC0007FFF800007FFF8001FF80007F
310
F000000000000FFF000000000000FFF8000001FFFE0000007F80000000000001
310
FFF0000000000007FFFFF0000000000007FFFF0003FFFFFFFFFC00007E000007
310
F000F800000000000FFC0007FFF80000FFFF8000FF80007FF800000000001FFF
310
800000000001FFF8000001FFFE0000007F80000000000001FFF800000000000F
310
FFFFF800000000000FFFFF0003FFFFFFFFFC00000000000FF000FC0000000000
310
1FFC0007FFFC0000FFFF8000FF80007FF800000000003FFFC00000000001FFF8
310
000001FFFE0000007F80000000000001FFF800000000000FFFFFF80000000000
310
0FFFFF0003FFFFFFFFFE00000000001FF000FE00000000003FF8000FFFFC0000
310
FFFF8000FF80007FFC00000000003FFFC00000000003FFF8000001FFFE000000
310
7F80000000000001FFFC00000000001FFFFFFC00000000001FFFFF0003FFFFFF
310
FFFF00000000001FF000FF00000000003FF8000FFFFC0000FFFFC000FF80007F
310
FE00000000007FFFE00000000007FFF8000001FFFE0000007F80000000000001
310
FFFE00000000003FFFFFFE00000000003FFFFF0003FFFFFFFFFF80000000003F
310
F000FF80000000007FF8000FFFFC0001FFFFC0007F80007FFF0000000000FFFF
310
F0000000000FFFF800000000000000007F80000000000001FFFF8000000000FF
310
FFFFFF8000000000FFFFFF0003FFFFFFFFFFC0000000007FF000FFC000000000
310
FFF8000FFFFE0001FFFFC0007F80007FFF8000000001FFFFF8000000001FFFF8
310
00000000000000007F80000000000001FFFFC000000001FFFFFFFFC000000001
310
FFFFFF0003FFFFFFFFFFE000000000FFF000FFE000000003FFF0001FFFFE0001
310
FFFFC0007F80007FFFC000000007FFFFFE000000003FFFF80000000000000000
310
7F80000000000001FFFFE000000003FFFFFFFFE000000003FFFFFF0003FFFFFF
310
FFFFF000000003FFF000FFF80000000FFFF0001FFFFE0001FFFFE0007F80007F
310
FFF00000000FFFFFFF00000000FFFFF800000000000000007F80000000000001
310
FFFFF80000000FFFFFFFFFF80000000FFFFFFF0003FFFFFFFFFFFC0000000FFF
310
F000FFFE0000003FFFF0001FFFFE0003FFFFE0003F80007FFFFC0000003FFFFF
310
FFC0000003FFFFF800000000000000007F80000000000001FFFFFE0000003FFF
310
FFFFFFFE0000003FFFFFFF0003FFFFFFFFFFFF0000003FFFF000FFFF800000FF
310
FFF0001FFFFF0003FFFFE0003F80007FFFFF000001FFFFFFFFF800001FFFFFF8
310
00000000000000007F80000000000001FFFFFFC00001FFFFFFFFFFFFC00001FF
310
FFFFFF0003FFFFFFFFFFFFC00000FFFFF000FFFFF8000FFFFFFFFFFFFFFFFFFF
310
FFFFFFFFFFFFFFFFFFFFF0001FFFFFFFFFFF0000FFFFFFF80000000000000000
310
7FFFFFFFFFFFFFFFFFFFFFFC001FFFFFFFFFFFFFFC001FFFFFFFFFFFFFFFFFFF
310
FFFFFFFC001FFFFFF000FFFFFFFFFFFFFFFFFFFFFFFFFFFFFFFFFFFFFFFFFFFF
310
FFFFFFFFFFFFFFFFFFFFFFFFFFFFFFFFFFFFFFFFFFFFFFFFFFFFFFFFFFFFFFFF
310
FFFFFFFFFFFFFFFFFFFFFFFFFFFFFFFFFFFFFFFFFFFFFFFFFFFFFFFFFFFFFFFF
310
F000FFFFFFFFFFFFFFFFFFFFFFFFFFFFFFFFFFFFFFFFFFFFFFFFFFFFFFFFFFFF
310
FFFFFFFFFFFFFFFFFFFFFFFFFFFFFFFFFFFFFFFFFFFFFFFFFFFFFFFFFFFFFFFF
310
FFFFFFFFFFFFFFFFFFFFFFFFFFFFFFFFFFFFFFFFFFFFFFFFF000FFFFFFFFFFFF
310
FFFFFFFFFFFFFFFFFFFFFFFFFFFFFFFFFFFFFFFFFFFFFFFFFFFFFFFFFFFFFFFF
310
FFFFFFFFFFFFFFFFFFFFFFFFFFFFFFFFFFFFFFFFFFFFFFFFFFFFFFFFFFFFFFFF
310
FFFFFFFFFFFFFFFFFFFFFFFFFFFFFFFFF000FFFFFFFFFFFFFFFFFFFFFFFFFFFF
310
FFFFFFFFFFFFFFFFFFFFFFFFFFFFFFFFFFFFFFFFFFFFFFFFFFFFFFFFFFFFFFFF
310
FFFFFFFFFFFFFFFFFFFFFFFFFFFFFFFFFFFFFFFFFFFFFFFFFFFFFFFFFFFFFFFF
310
FFFFFFFFFFFFFFFFF000FFFFFFFFFFFFFFFFFFFFFFFFFFFFFFFFFFFFFFFFFFFF
310
FFFFFFFFFFFFFFFFFFFFFFFFFFFFFFFFFFFFFFFFFFFFFFFFFFFFFFFFFFFFFFFF
310
FFFFFFFFFFFFFFFFFFFFFFFFFFFFFFFFFFFFFFFFFFFFFFFFFFFFFFFFFFFFFFFF
310
F000FFFFFFFFFFFFFFFFFFFFFFFFFFFFFFFFFFFFFFFFFFFFFFFFFFFFFFFFFFFF
310
FFFFFFFFFFFFFFFFFFFFFFFFFFFFFFFFFFFFFFFFFFFFFFFFFFFFFFFFFFFFFFFF
310
FFFFFFFFFFFFFFFFFFFFFFFFFFFFFFFFFFFFFFFFFFFFFFFFF000FFFFFFFFFFFF
310
FFFFFFFFFFFFFFFFFFFFFFFFFFFFFFFFFFFFFFFFFFFFFFFFFFFFFFFFFFFFFFFF
310
FFFFFFFFFFFFFFFFFFFFFFFFFFFFFFFFFFFFFFFFFFFFFFFFFFFFFFFFFFFFFFFF
310
FFFFFFFFFFFFFFFFFFFFFFFFFFFFFFFFF000FFFFFFFFFFFFFFFFFFFFFFFFFFFF
310
FFFFFFFFFFFFFFFFFFFFFFFFFFFFFFFFFFFFFFFFFFFFFFFFFFFFFFFFFFFFFFFF
310
FFFFFFFFFFFFFFFFFFFFFFFFFFFFFFFFFFFFFFFFFFFFFFFFFFFFFFFFFFFFFFFF
310
FFFFFFFFFFFFFFFFF000FFFFFFFFFFFFFFFFFFFFFFFFFFFFFFFFFFFFFFFFFFFF
310
FFFFFFFFFFFFFFFFFFFFFFFFFFFFFFFFFFFFFFFFFFFFFFFFFFFFFFFFFFFFFFFF
310
FFFFFFFFFFFFFFFFFFFFFFFFFFFFFFFFFFFFFFFFFFFFFFFFFFFFFFFFFFFFFFFF
310
F000FFFFFFFFFFFFFFFFFFFFFFFFFFFFFFFFFFFFFFFFFFFFFFFFFFFFFFFFFFFF
310
FFFFFFFFFFFFFFFFFFFFFFFFFFFFFFFFFFFFFFFFFFFFFFFFFFFFFFFFFFFFFFFF
310
FFFFFFFFFFFFFFFFFFFFFFFFFFFFFFFFFFFFFFFFFFFFFFFFF000FFFFFFFFFFFF
310
FFFFFFFFFFFFFFFFFFFFFFFFFFFFFFFFFFFFFFFFFFFFFFFFFFFFFFFFFFFFFFFF
310
FFFFFFFFFFFFFFFFFFFFFFFFFFFFFFFFFFFFFFFFFFFFFFFFFFFFFFFFFFFFFFFF
310
FFFFFFFFFFFFFFFFFFFFFFFFFFFFFFFFF000FFFFFFFFFFFFFFFFFFFFFFFFFFFF
310
FFFFFFFFFFFFFFFFFFFFFFFFFFFFFFFFFFFFFFFFFFFFFFFFFFFFFFFFFFFFFFFF
310
FFFFFFFFFFFFFFFFFFFFFFFFFFFFFFFFFFFFFFFFFFFFFFFFFFFFFFFFFFFFFFFF
310
FFFFFFFFFFFFFFFFF000FFFFFFFFFFFFFFFFFFFFFFFFFFFFFFFFFFFFFFFFFFFF
310
FFFFFFFFFFFFFFFFFFFFFFFFFFFFFFFFFFFFFFFFFFFFFFFFFFFFFFFFFFFFFFFF
310
FFFFFFFFFFFFFFFFFFFFFFFFFFFFFFFFFFFFFFFFFFFFFFFFFFFFFFFFFFFFFFFF
310
F000FFFFFFFFFFFFFFFFFFFFFFFFFFFFFFFFFFFFFFFFFFFFFFFFFFFFFFFFFFFF
310
FFFFFFFFFFFFFFFFFFFFFFFFFFFFFFFFFFFFFFFFFFFFFFFFFFFFFFFFFFFFFFFF
310
FFFFFFFFFFFFFFFFFFFFFFFFFFFFFFFFFFFFFFFFFFFFFFFFF000FFFFFFFFFFFF
310
FFFFFFFFFFFFFFFFFFFFFFFFFFFFFFFFFFFFFFFFFFFFFFFFFFFFFFFFFFFFFFFF
310
FFFFFFFFFFFFFFFFFFFFFFFFFFFFFFFFFFFFFFFFFFFFFFFFFFFFFFFFFFFFFFFF
310
FFFFFFFFFFFFFFFFFFFFFFFFFFFFFFFFF000FFFFFFFFFFFFFFFFFFFFFFFFFFFF
310
FFFFFFFFFFFFFFFFFFFFFFFFFFFFFFFFFFFFFFFFFFFFFFFFFFFFFFFFFFFFFFFF
310
FFFFFFFFFFFFFFFFFFFFFFFFFFFFFFFFFFFFFFFFFFFFFFFFFFFFFFFFFFFFFFFF
310
FFFFFFFFFFFFFFFFF000FFFFFFFFFFFFFFFFFFFFFFFFFFFFFFFFFFFFFFFFFFFF
310
FFFFFFFFFFFFFFFFFFFFFFFFFFFFFFFFFFFFFFFFFFFFFFFFFFFFFFFFFFFFFFFF
310
FFFFFFFFFFFFFFFFFFFFFFFFFFFFFFFFFFFFFFFFFFFFFFFFFFFFFFFFFFFFFFFF
310
F000FFFFFFFFFFFFFFFFFFFFFFFFFFFFFFFFFFFFFFFFFFFFFFFFFFFFFFFFFFFF
310
FFFFFFFFFFFFFFFFFFFFFFFFFFFFFFFFFFFFFFFFFFFFFFFFFFFFFFFFFFFFFFFF
310
FFFFFFFFFFFFFFFFFFFFFFFFFFFFFFFFFFFFFFFFFFFFFFFFF000FFFFFFFFFFFF
310
FFFFFFFFFFFFFFFFFFFFFFFFFFFFFFFFFFFFFFFFFFFFFFFFFFFFFFFFFFFFFFFF
310
FFFFFFFFFFFFFFFFFFFFFFFFFFFFFFFFFFFFFFFFFFFFFFFFFFFFFFFFFFFFFFFF
310
FFFFFFFFFFFFFFFFFFFFFFFFFFFFFFFFF000FFFFFFFFFFFFFFFFFFFFFFFFFFFF
310
FFFFFFFFFFFFFFFFFFFFFFFFFFFFFFFFFFFFFFFFFFFFFFFFFFFFFFFFFFFFFFFF
310
FFFFFFFFFFFFFFFFFFFFFFFFFFFFFFFFFFFFFFFFFFFFFFFFFFFFFFFFFFFFFFFF
310
FFFFFFFFFFFFFFFFF000FFFFFFFFFFFFFFFFFFFFFFFFFFFFFFFFFFFFFFFFFFFF
310
FFFFFFFFFFFFFFFFFFFFFFFFFFFFFFFFFFFFFFFFFFFFFFFFFFFFFFFFFFFFFFFF
310
FFFFFFFFFFFFFFFFFFFFFFFFFFFFFFFFFFFFFFFFFFFFFFFFFFFFFFFFFFFFFFFF
310
F000FFFFFFFFFFFFFFFFFFFFFFFFFFFFFFFFFFFFFFFFFFFFFFFFFFFFFFFFFFFF
310
FFFFFFFFFFFFFFFFFFFFFFFFFFFFFFFFFFFFFFFFFFFFFFFFFFFFFFFFFFFFFFFF
310
FFFFFFFFFFFFFFFFFFFFFFFFFFFFFFFFFFFFFFFFFFFFFFFFF000FFFFFFFFFFFF
310
FFFFFFFFFFFFFFFFFFFFFFFFFFFFFFFFFFFFFFFFFFFFFFFFFFFFFFFFFFFFFFFF
310
FFFFFFFFFFFFFFFFFFFFFFFFFFFFFFFFFFFFFFFFFFFFFFFFFFFFFFFFFFFFFFFF
310
FFFFFFFFFFFFFFFFFFFFFFFFFFFFFFFFF0000000000000000000000000000000
310
0000000000000000000000000000000000000000000000000000000000000000
310
0000000000000000000000000000000000000000000000000000000000000000
310
0000000000000000000000000000000000000000000000000000000000000000
310
0000000000000000000000000000000000000000000000000000000000000000
310
0000000000000000000000000000000000000000000000000000000000000000
310
0000000000000000000000000000000000000000000000000000000000000000
310
0000000000000000000000000000000000000000000000000000000000000000
310
0000000000000000000000000000000000000000000000000000000000000000
310
0000000000000000000000000000000000000000000000000000000000000000
310
0000000000000000000000000000000000000000000000000000000000000000
310
0000000000000000000000000000000000000000000000000000000000000000
310
0000000000000000000000000000000000000000000000000000000000000000
310
0000000000000000000000000000000000000000000000000000000000000000
310
0000000000000000000000000000000000000000000000000000000000000000
310
0000000000000000000000000000000000000000000000000000000000000000
  1
OLE
  0
ENDSEC
  0
SECTION
  2
OBJECTS
  0
DICTIONARY
  5
C
330
0
100
AcDbDictionary
281
     1
  3
ACAD_GROUP
350
D
  3
ACAD_LAYOUT
350
1A
  3
ACAD_MLINESTYLE
350
17
  3
ACAD_PLOTSETTINGS
350
19
  3
ACAD_PLOTSTYLENAME
350
E
  3
ACAD_SCALELIST
350
47
  0
DICTIONARY
  5
D
102
{ACAD_REACTORS
330
C
102
}
330
C
100
AcDbDictionary
281
     1
  0
DICTIONARY
  5
1A
102
{ACAD_REACTORS
330
C
102
}
330
C
100
AcDbDictionary
281
     1
  3
Layout1
350
1E
  3
Layout2
350
26
  3
Model
350
22
  0
DICTIONARY
  5
17
102
{ACAD_REACTORS
330
C
102
}
330
C
100
AcDbDictionary
281
     1
  3
Standard
350
18
  0
DICTIONARY
  5
19
102
{ACAD_REACTORS
330
C
102
}
330
C
100
AcDbDictionary
281
     1
  0
ACDBDICTIONARYWDFLT
  5
E
102
{ACAD_REACTORS
330
C
102
}
330
C
100
AcDbDictionary
281
     1
  3
Normal
350
F
100
AcDbDictionaryWithDefault
340
F
  0
DICTIONARY
  5
47
102
{ACAD_REACTORS
330
C
102
}
330
C
100
AcDbDictionary
281
     1
  3
A0
350
48
  3
A1
350
49
  3
A2
350
4A
  3
A3
350
4B
  3
A4
350
4C
  3
A5
350
4D
  3
A6
350
4E
  3
A7
350
4F
  3
A8
350
50
  3
A9
350
51
  3
B0
350
52
  3
B1
350
53
  3
B2
350
54
  3
B3
350
55
  3
B4
350
56
  3
B5
350
57
  3
B6
350
58
  3
B7
350
59
  3
B8
350
5A
  3
B9
350
5B
  3
C0
350
5C
  3
C1
350
5D
  3
C2
350
5E
  3
C3
350
5F
  3
C4
350
60
  3
C5
350
61
  3
C6
350
62
  3
C7
350
63
  3
C8
350
64
  3
C9
350
65
  3
D0
350
66
  3
D1
350
67
  3
D2
350
68
  0
LAYOUT
  5
1E
102
{ACAD_REACTORS
330
1A
102
}
330
1A
100
AcDbPlotSettings
  1

  2
none_device
  4

  6

 40
0.0
 41
0.0
 42
0.0
 43
0.0
 44
0.0
 45
0.0
 46
0.0
 47
0.0
 48
0.0
 49
0.0
140
0.0
141
0.0
142
1.0
143
1.0
 70
   688
 72
     1
 73
     0
 74
     5
  7

 75
    16
147
1.0
148
0.0
149
0.0
100
AcDbLayout
  1
Layout1
 70
     1
 71
     1
 10
0.0
 20
0.0
 11
420.0
 21
297.0
 12
0.0
 22
0.0
 32
0.0
 14
1.0000000000E+20
 24
1.0000000000E+20
 34
1.0000000000E+20
 15
-1.0000000000E+20
 25
-1.0000000000E+20
 35
-1.0000000000E+20
146
0.0
 13
0.0
 23
0.0
 33
0.0
 16
1.0
 26
0.0
 36
0.0
 17
0.0
 27
1.0
 37
0.0
 76
     0
330
1B
  0
LAYOUT
  5
26
102
{ACAD_REACTORS
330
1A
102
}
330
1A
100
AcDbPlotSettings
  1

  2
none_device
  4

  6

 40
0.0
 41
0.0
 42
0.0
 43
0.0
 44
0.0
 45
0.0
 46
0.0
 47
0.0
 48
0.0
 49
0.0
140
0.0
141
0.0
142
1.0
143
1.0
 70
   688
 72
     1
 73
     0
 74
     5
  7

 75
    16
147
1.0
148
0.0
149
0.0
100
AcDbLayout
  1
Layout2
 70
     1
 71
     2
 10
0.0
 20
0.0
 11
0.0
 21
0.0
 12
0.0
 22
0.0
 32
0.0
 14
0.0
 24
0.0
 34
0.0
 15
0.0
 25
0.0
 35
0.0
146
0.0
 13
0.0
 23
0.0
 33
0.0
 16
1.0
 26
0.0
 36
0.0
 17
0.0
 27
1.0
 37
0.0
 76
     0
330
23
  0
LAYOUT
  5
22
102
{ACAD_REACTORS
330
1A
102
}
330
1A
100
AcDbPlotSettings
  1

  2
none_device
  4
Letter_(8.50_x_11.00_Inches)
  6

 40
6.35
 41
6.35
 42
6.35000508
 43
6.35000508
 44
215.9
 45
279.4
 46
0.0
 47
0.0
 48
0.0
 49
0.0
140
0.0
141
0.0
142
1.0
143
1.0
 70
  1712
 72
     1
 73
     0
 74
     0
  7

 75
     0
147
1.0
148
0.0
149
0.0
100
AcDbLayout
  1
Model
 70
     1
 71
     0
 10
0.0
 20
0.0
 11
297.0
 21
210.0
 12
0.0
 22
0.0
 32
0.0
 14
0.0
 24
0.0
 34
0.0
 15
297.0
 25
210.0
 35
0.0
146
0.0
 13
0.0
 23
0.0
 33
0.0
 16
1.0
 26
0.0
 36
0.0
 17
0.0
 27
1.0
 37
0.0
 76
     0
330
1F
331
29
  0
MLINESTYLE
  5
18
102
{ACAD_REACTORS
330
17
102
}
330
17
100
AcDbMlineStyle
  2
Standard
 70
     0
  3

 62
   256
 51
90.0
 52
90.0
 71
     2
 49
0.5
 62
   256
  6
BYLAYER
 49
-0.5
 62
   256
  6
BYLAYER
  0
ACDBPLACEHOLDER
  5
F
102
{ACAD_REACTORS
330
E
102
}
330
E
  0
SCALE
  5
48
102
{ACAD_REACTORS
330
47
102
}
330
47
100
AcDbScale
 70
     0
300
1:1
140
1.0
141
1.0
290
     1
  0
SCALE
  5
49
102
{ACAD_REACTORS
330
47
102
}
330
47
100
AcDbScale
 70
     0
300
1:2
140
1.0
141
2.0
290
     0
  0
SCALE
  5
4A
102
{ACAD_REACTORS
330
47
102
}
330
47
100
AcDbScale
 70
     0
300
1:4
140
1.0
141
4.0
290
     0
  0
SCALE
  5
4B
102
{ACAD_REACTORS
330
47
102
}
330
47
100
AcDbScale
 70
     0
300
1:5
140
1.0
141
5.0
290
     0
  0
SCALE
  5
4C
102
{ACAD_REACTORS
330
47
102
}
330
47
100
AcDbScale
 70
     0
300
1:8
140
1.0
141
8.0
290
     0
  0
SCALE
  5
4D
102
{ACAD_REACTORS
330
47
102
}
330
47
100
AcDbScale
 70
     0
300
1:10
140
1.0
141
10.0
290
     0
  0
SCALE
  5
4E
102
{ACAD_REACTORS
330
47
102
}
330
47
100
AcDbScale
 70
     0
300
1:16
140
1.0
141
16.0
290
     0
  0
SCALE
  5
4F
102
{ACAD_REACTORS
330
47
102
}
330
47
100
AcDbScale
 70
     0
300
1:20
140
1.0
141
20.0
290
     0
  0
SCALE
  5
50
102
{ACAD_REACTORS
330
47
102
}
330
47
100
AcDbScale
 70
     0
300
1:30
140
1.0
141
30.0
290
     0
  0
SCALE
  5
51
102
{ACAD_REACTORS
330
47
102
}
330
47
100
AcDbScale
 70
     0
300
1:40
140
1.0
141
40.0
290
     0
  0
SCALE
  5
52
102
{ACAD_REACTORS
330
47
102
}
330
47
100
AcDbScale
 70
     0
300
1:50
140
1.0
141
50.0
290
     0
  0
SCALE
  5
53
102
{ACAD_REACTORS
330
47
102
}
330
47
100
AcDbScale
 70
     0
300
1:100
140
1.0
141
100.0
290
     0
  0
SCALE
  5
54
102
{ACAD_REACTORS
330
47
102
}
330
47
100
AcDbScale
 70
     0
300
2:1
140
2.0
141
1.0
290
     0
  0
SCALE
  5
55
102
{ACAD_REACTORS
330
47
102
}
330
47
100
AcDbScale
 70
     0
300
4:1
140
4.0
141
1.0
290
     0
  0
SCALE
  5
56
102
{ACAD_REACTORS
330
47
102
}
330
47
100
AcDbScale
 70
     0
300
8:1
140
8.0
141
1.0
290
     0
  0
SCALE
  5
57
102
{ACAD_REACTORS
330
47
102
}
330
47
100
AcDbScale
 70
     0
300
10:1
140
10.0
141
1.0
290
     0
  0
SCALE
  5
58
102
{ACAD_REACTORS
330
47
102
}
330
47
100
AcDbScale
 70
     0
300
100:1
140
100.0
141
1.0
290
     0
  0
SCALE
  5
59
102
{ACAD_REACTORS
330
47
102
}
330
47
100
AcDbScale
 70
     0
300
1/128" = 1'-0"
140
0.0078125
141
12.0
290
     0
  0
SCALE
  5
5A
102
{ACAD_REACTORS
330
47
102
}
330
47
100
AcDbScale
 70
     0
300
1/64" = 1'-0"
140
0.015625
141
12.0
290
     0
  0
SCALE
  5
5B
102
{ACAD_REACTORS
330
47
102
}
330
47
100
AcDbScale
 70
     0
300
1/32" = 1'-0"
140
0.03125
141
12.0
290
     0
  0
SCALE
  5
5C
102
{ACAD_REACTORS
330
47
102
}
330
47
100
AcDbScale
 70
     0
300
1/16" = 1'-0"
140
0.0625
141
12.0
290
     0
  0
SCALE
  5
5D
102
{ACAD_REACTORS
330
47
102
}
330
47
100
AcDbScale
 70
     0
300
3/32" = 1'-0"
140
0.09375
141
12.0
290
     0
  0
SCALE
  5
5E
102
{ACAD_REACTORS
330
47
102
}
330
47
100
AcDbScale
 70
     0
300
1/8" = 1'-0"
140
0.125
141
12.0
290
     0
  0
SCALE
  5
5F
102
{ACAD_REACTORS
330
47
102
}
330
47
100
AcDbScale
 70
     0
300
3/16" = 1'-0"
140
0.1875
141
12.0
290
     0
  0
SCALE
  5
60
102
{ACAD_REACTORS
330
47
102
}
330
47
100
AcDbScale
 70
     0
300
1/4" = 1'-0"
140
0.25
141
12.0
290
     0
  0
SCALE
  5
61
102
{ACAD_REACTORS
330
47
102
}
330
47
100
AcDbScale
 70
     0
300
3/8" = 1'-0"
140
0.375
141
12.0
290
     0
  0
SCALE
  5
62
102
{ACAD_REACTORS
330
47
102
}
330
47
100
AcDbScale
 70
     0
300
1/2" = 1'-0"
140
0.5
141
12.0
290
     0
  0
SCALE
  5
63
102
{ACAD_REACTORS
330
47
102
}
330
47
100
AcDbScale
 70
     0
300
3/4" = 1'-0"
140
0.75
141
12.0
290
     0
  0
SCALE
  5
64
102
{ACAD_REACTORS
330
47
102
}
330
47
100
AcDbScale
 70
     0
300
1" = 1'-0"
140
1.0
141
12.0
290
     0
  0
SCALE
  5
65
102
{ACAD_REACTORS
330
47
102
}
330
47
100
AcDbScale
 70
     0
300
1-1/2" = 1'-0"
140
1.5
141
12.0
290
     0
  0
SCALE
  5
66
102
{ACAD_REACTORS
330
47
102
}
330
47
100
AcDbScale
 70
     0
300
3" = 1'-0"
140
3.0
141
12.0
290
     0
  0
SCALE
  5
67
102
{ACAD_REACTORS
330
47
102
}
330
47
100
AcDbScale
 70
     0
300
6" = 1'-0"
140
6.0
141
12.0
290
     0
  0
SCALE
  5
68
102
{ACAD_REACTORS
330
47
102
}
330
47
100
AcDbScale
 70
     0
300
1'-0" = 1'-0"
140
12.0
141
12.0
290
     0
  0
ENDSEC
  0
EOF
