  0
SECTION
  2
HEADER
  9
$ACADVER
  1
AC1015
  9
$ACADMAINTVER
 70
     6
  9
$DWGCODEPAGE
  3
ANSI_1252
  9
$INSBASE
 10
0.0
 20
0.0
 30
0.0
  9
$EXTMIN
 10
0.0
 20
0.0
 30
0.0
  9
$EXTMAX
 10
297.0
 20
210.0
 30
0.0
  9
$LIMMIN
 10
0.0
 20
0.0
  9
$LIMMAX
 10
297.0
 20
210.0
  9
$ORTHOMODE
 70
     0
  9
$REGENMODE
 70
     1
  9
$FILLMODE
 70
     1
  9
$QTEXTMODE
 70
     0
  9
$MIRRTEXT
 70
     1
  9
$LTSCALE
 40
1.0
  9
$ATTMODE
 70
     1
  9
$TEXTSIZE
 40
2.0
  9
$TRACEWID
 40
1.0
  9
$TEXTSTYLE
  7
Standard
  9
$CLAYER
  8
0
  9
$CELTYPE
  6
ByLayer
  9
$CECOLOR
 62
   256
  9
$CELTSCALE
 40
1.0
  9
$DISPSILH
 70
     0
  9
$DIMSCALE
 40
1.0
  9
$DIMASZ
 40
3.0
  9
$DIMEXO
 40
0.0
  9
$DIMDLI
 40
3.75
  9
$DIMRND
 40
0.0
  9
$DIMDLE
 40
0.0
  9
$DIMEXE
 40
1.0
  9
$DIMTP
 40
0.0
  9
$DIMTM
 40
0.0
  9
$DIMTXT
 40
2.0
  9
$DIMCEN
 40
2.5
  9
$DIMTSZ
 40
0.0
  9
$DIMTOL
 70
     0
  9
$DIMLIM
 70
     0
  9
$DIMTIH
 70
     1
  9
$DIMTOH
 70
     1
  9
$DIMSE1
 70
     0
  9
$DIMSE2
 70
     0
  9
$DIMTAD
 70
     1
  9
$DIMZIN
 70
     0
  9
$DIMBLK
  1

  9
$DIMASO
 70
     1
  9
$DIMSHO
 70
     1
  9
$DIMPOST
  1

  9
$DIMAPOST
  1

  9
$DIMALT
 70
     0
  9
$DIMALTD
 70
     3
  9
$DIMALTF
 40
0.0393700787
  9
$DIMLFAC
 40
1.0
  9
$DIMTOFL
 70
     1
  9
$DIMTVP
 40
0.0
  9
$DIMTIX
 70
     0
  9
$DIMSOXD
 70
     0
  9
$DIMSAH
 70
     0
  9
$DIMBLK1
  1

  9
$DIMBLK2
  1

  9
$DIMSTYLE
  2
ISO-25
  9
$DIMCLRD
 70
     0
  9
$DIMCLRE
 70
     0
  9
$DIMCLRT
 70
     0
  9
$DIMTFAC
 40
1.0
  9
$DIMGAP
 40
1.524
  9
$DIMJUST
 70
     0
  9
$DIMSD1
 70
     0
  9
$DIMSD2
 70
     0
  9
$DIMTOLJ
 70
     0
  9
$DIMTZIN
 70
     0
  9
$DIMALTZ
 70
     0
  9
$DIMALTTZ
 70
     0
  9
$DIMUPT
 70
     0
  9
$DIMDEC
 70
     2
  9
$DIMTDEC
 70
     3
  9
$DIMALTU
 70
     2
  9
$DIMALTTD
 70
     3
  9
$DIMTXSTY
  7
Standard
  9
$DIMAUNIT
 70
     0
  9
$DIMADEC
 70
     2
  9
$DIMALTRND
 40
0.0
  9
$DIMAZIN
 70
     0
  9
$DIMDSEP
 70
    44
  9
$DIMATFIT
 70
     3
  9
$DIMFRAC
 70
     0
  9
$DIMLDRBLK
  1

  9
$DIMLUNIT
 70
     2
  9
$DIMLWD
 70
    -2
  9
$DIMLWE
 70
    -2
  9
$DIMTMOVE
 70
     0
  9
$LUNITS
 70
     2
  9
$LUPREC
 70
     2
  9
$SKETCHINC
 40
1.0
  9
$FILLETRAD
 40
10.0
  9
$AUNITS
 70
     0
  9
$AUPREC
 70
     2
  9
$MENU
  1
.
  9
$ELEVATION
 40
0.0
  9
$PELEVATION
 40
0.0
  9
$THICKNESS
 40
0.0
  9
$LIMCHECK
 70
     0
  9
$CHAMFERA
 40
0.0
  9
$CHAMFERB
 40
0.0
  9
$CHAMFERC
 40
0.0
  9
$CHAMFERD
 40
0.0
  9
$SKPOLY
 70
     0
  9
$TDCREATE
 40
2457668.664779734
  9
$TDUCREATE
 40
2457668.5814464
  9
$TDUPDATE
 40
2457668.664781203
  9
$TDUUPDATE
 40
2457668.58144787
  9
$TDINDWG
 40
0.0000000116
  9
$TDUSRTIMER
 40
0.0000000116
  9
$USRTIMER
 70
     1
  9
$ANGBASE
 50
0.0
  9
$ANGDIR
 70
     0
  9
$PDMODE
 70
     0
  9
$PDSIZE
 40
-1.0
  9
$PLINEWID
 40
0.0
  9
$SPLFRAME
 70
     0
  9
$SPLINETYPE
 70
     6
  9
$SPLINESEGS
 70
     8
  9
$HANDSEED
  5
28D
  9
$SURFTAB1
 70
     6
  9
$SURFTAB2
 70
     6
  9
$SURFTYPE
 70
     6
  9
$SURFU
 70
     6
  9
$SURFV
 70
     6
  9
$UCSBASE
  2

  9
$UCSNAME
  2

  9
$UCSORG
 10
0.0
 20
0.0
 30
0.0
  9
$UCSXDIR
 10
1.0
 20
0.0
 30
0.0
  9
$UCSYDIR
 10
0.0
 20
1.0
 30
0.0
  9
$UCSORTHOREF
  2

  9
$UCSORTHOVIEW
 70
     0
  9
$UCSORGTOP
 10
0.0
 20
0.0
 30
0.0
  9
$UCSORGBOTTOM
 10
0.0
 20
0.0
 30
0.0
  9
$UCSORGLEFT
 10
0.0
 20
0.0
 30
0.0
  9
$UCSORGRIGHT
 10
0.0
 20
0.0
 30
0.0
  9
$UCSORGFRONT
 10
0.0
 20
0.0
 30
0.0
  9
$UCSORGBACK
 10
0.0
 20
0.0
 30
0.0
  9
$PUCSBASE
  2

  9
$PUCSNAME
  2

  9
$PUCSORG
 10
0.0
 20
0.0
 30
0.0
  9
$PUCSXDIR
 10
1.0
 20
0.0
 30
0.0
  9
$PUCSYDIR
 10
0.0
 20
1.0
 30
0.0
  9
$PUCSORTHOREF
  2

  9
$PUCSORTHOVIEW
 70
     0
  9
$PUCSORGTOP
 10
0.0
 20
0.0
 30
0.0
  9
$PUCSORGBOTTOM
 10
0.0
 20
0.0
 30
0.0
  9
$PUCSORGLEFT
 10
0.0
 20
0.0
 30
0.0
  9
$PUCSORGRIGHT
 10
0.0
 20
0.0
 30
0.0
  9
$PUCSORGFRONT
 10
0.0
 20
0.0
 30
0.0
  9
$PUCSORGBACK
 10
0.0
 20
0.0
 30
0.0
  9
$USERI1
 70
     0
  9
$USERI2
 70
     0
  9
$USERI3
 70
     0
  9
$USERI4
 70
     0
  9
$USERI5
 70
     0
  9
$USERR1
 40
0.0
  9
$USERR2
 40
0.0
  9
$USERR3
 40
0.0
  9
$USERR4
 40
0.0
  9
$USERR5
 40
0.0
  9
$WORLDVIEW
 70
     1
  9
$SHADEDGE
 70
     3
  9
$SHADEDIF
 70
    70
  9
$TILEMODE
 70
     1
  9
$MAXACTVP
 70
    64
  9
$PINSBASE
 10
0.0
 20
0.0
 30
0.0
  9
$PLIMCHECK
 70
     0
  9
$PEXTMIN
 10
1.0000000000E+20
 20
1.0000000000E+20
 30
1.0000000000E+20
  9
$PEXTMAX
 10
-1.0000000000E+20
 20
-1.0000000000E+20
 30
-1.0000000000E+20
  9
$PLIMMIN
 10
0.0
 20
0.0
  9
$PLIMMAX
 10
420.0
 20
297.0
  9
$UNITMODE
 70
     0
  9
$VISRETAIN
 70
     1
  9
$PLINEGEN
 70
     0
  9
$PSLTSCALE
 70
     1
  9
$TREEDEPTH
 70
  3020
  9
$CMLSTYLE
  2
Standard
  9
$CMLJUST
 70
     0
  9
$CMLSCALE
 40
20.0
  9
$PROXYGRAPHICS
 70
     1
  9
$MEASUREMENT
 70
     1
  9
$CELWEIGHT
370
    -1
  9
$ENDCAPS
280
     0
  9
$JOINSTYLE
280
     0
  9
$LWDISPLAY
290
     1
  9
$INSUNITS
 70
     4
  9
$HYPERLINKBASE
  1

  9
$STYLESHEET
  1

  9
$XEDIT
290
     1
  9
$CEPSNTYPE
380
     0
  9
$PSTYLEMODE
290
     1
  9
$FINGERPRINTGUID
  2
{24414511-31EC-44DA-AF1A-95837068E149}
  9
$VERSIONGUID
  2
{FAEB1C32-E019-11D5-929B-00C0DF256EC4}
  9
$EXTNAMES
290
     1
  9
$PSVPSCALE
 40
0.0
  9
$OLESTARTUP
290
     0
  0
ENDSEC
  0
SECTION
  2
CLASSES
  0
CLASS
  1
ACDBDICTIONARYWDFLT
  2
AcDbDictionaryWithDefault
  3
ObjectDBX Classes
 90
        0
280
     0
281
     0
  0
CLASS
  1
VISUALSTYLE
  2
AcDbVisualStyle
  3
ObjectDBX Classes
 90
     4095
280
     0
281
     0
  0
CLASS
  1
MATERIAL
  2
AcDbMaterial
  3
ObjectDBX Classes
 90
     1153
280
     0
281
     0
  0
CLASS
  1
SCALE
  2
AcDbScale
  3
ObjectDBX Classes
 90
     1153
280
     0
281
     0
  0
CLASS
  1
TABLESTYLE
  2
AcDbTableStyle
  3
ObjectDBX Classes
 90
     4095
280
     0
281
     0
  0
CLASS
  1
MLEADERSTYLE
  2
AcDbMLeaderStyle
  3
ACDB_MLEADERSTYLE_CLASS
 90
     4095
280
     0
281
     0
  0
CLASS
  1
SUN
  2
AcDbSun
  3
SCENEOE
 90
     1153
280
     0
281
     0
  0
CLASS
  1
ACDBPLACEHOLDER
  2
AcDbPlaceHolder
  3
ObjectDBX Classes
 90
        0
280
     0
281
     0
  0
CLASS
  1
LAYOUT
  2
AcDbLayout
  3
ObjectDBX Classes
 90
        0
280
     0
281
     0
  0
ENDSEC
  0
SECTION
  2
TABLES
  0
TABLE
  2
VPORT
  5
8
330
0
100
AcDbSymbolTable
 70
     1
  0
VPORT
  5
29
330
8
100
AcDbSymbolTableRecord
100
AcDbViewportTableRecord
  2
*Active
 70
     0
 10
0.0
 20
0.0
 11
1.0
 21
1.0
 12
148.5
 22
105.0
 13
0.0
 23
0.0
 14
10.0
 24
10.0
 15
10.0
 25
10.0
 16
0.0
 26
0.0
 36
1.0
 17
0.0
 27
0.0
 37
0.0
 40
210.0
 41
1.4142857143
 42
50.0
 43
0.0
 44
0.0
 50
0.0
 51
0.0
 71
     0
 72
  2000
 73
     1
 74
     3
 75
     0
 76
     0
 77
     0
 78
     0
281
     0
 65
     1
110
0.0
120
0.0
130
0.0
111
1.0
121
0.0
131
0.0
112
0.0
122
1.0
132
0.0
 79
     0
146
0.0
  0
ENDTAB
  0
TABLE
  2
LTYPE
  5
5
330
0
100
AcDbSymbolTable
 70
     6
  0
LTYPE
  5
14
330
5
100
AcDbSymbolTableRecord
100
AcDbLinetypeTableRecord
  2
ByBlock
 70
     0
  3

 72
    65
 73
     0
 40
0.0
  0
LTYPE
  5
15
330
5
100
AcDbSymbolTableRecord
100
AcDbLinetypeTableRecord
  2
ByLayer
 70
     0
  3

 72
    65
 73
     0
 40
0.0
  0
LTYPE
  5
16
330
5
100
AcDbSymbolTableRecord
100
AcDbLinetypeTableRecord
  2
Continuous
 70
     0
  3
Solid line
 72
    65
 73
     0
 40
0.0
  0
LTYPE
  5
6E
330
5
100
AcDbSymbolTableRecord
100
AcDbLinetypeTableRecord
  2
HIDDEN
 70
     0
  3
Hidden __ __ __ __ __ __ __ __ __ __ __ __ __ __
 72
    65
 73
     2
 40
1.905
 49
1.27
 74
     0
 49
-0.635
 74
     0
  0
LTYPE
  5
6F
330
5
100
AcDbSymbolTableRecord
100
AcDbLinetypeTableRecord
  2
PHANTOM
 70
     0
  3
Phantom ______  __  __  ______  __  __  ______
 72
    65
 73
     6
 40
12.7
 49
6.35
 74
     0
 49
-1.27
 74
     0
 49
1.27
 74
     0
 49
-1.27
 74
     0
 49
1.27
 74
     0
 49
-1.27
 74
     0
  0
LTYPE
  5
70
330
5
100
AcDbSymbolTableRecord
100
AcDbLinetypeTableRecord
  2
CENTER
 70
     0
  3
Center ____ _ ____ _ ____ _ ____ _ ____ _ ____
 72
    65
 73
     4
 40
10.16
 49
6.35
 74
     0
 49
-1.27
 74
     0
 49
1.27
 74
     0
 49
-1.27
 74
     0
  0
LTYPE
  5
71
330
5
100
AcDbSymbolTableRecord
100
AcDbLinetypeTableRecord
  2
CENTERX2
 70
     0
  3
Center (2x) ________  __  ________  __  _____
 72
    65
 73
     4
 40
20.32
 49
12.7
 74
     0
 49
-2.54
 74
     0
 49
2.54
 74
     0
 49
-2.54
 74
     0
  0
LTYPE
  5
72
330
5
100
AcDbSymbolTableRecord
100
AcDbLinetypeTableRecord
  2
DOT2
 70
     0
  3
Dot (.5x) ........................................
 72
    65
 73
     2
 40
0.635
 49
0.0
 74
     0
 49
-0.635
 74
     0
  0
ENDTAB
  0
TABLE
  2
LAYER
  5
2
330
0
100
AcDbSymbolTable
 70
     5
  0
LAYER
  5
10
330
2
100
AcDbSymbolTableRecord
100
AcDbLayerTableRecord
  2
0
 70
     0
 62
     7
  6
Continuous
370
    -3
390
F
  0
LAYER
  5
73
330
2
100
AcDbSymbolTableRecord
100
AcDbLayerTableRecord
  2
FORMAT
 70
     0
 62
     7
  6
Continuous
370
    -3
390
F
  0
LAYER
  5
74
330
2
100
AcDbSymbolTableRecord
100
AcDbLayerTableRecord
  2
VERMASSUNG
 70
     0
 62
     7
  6
Continuous
370
    -3
390
F
  0
LAYER
  5
75
330
2
100
AcDbSymbolTableRecord
100
AcDbLayerTableRecord
  2
KOPF_DÜNN
 70
     0
 62
     7
  6
Continuous
370
    -3
390
F
  0
LAYER
  5
76
330
2
100
AcDbSymbolTableRecord
100
AcDbLayerTableRecord
  2
KOPF_DICK
 70
     0
 62
     7
  6
Continuous
370
    15
390
F
  0
ENDTAB
  0
TABLE
  2
STYLE
  5
3
330
0
100
AcDbSymbolTable
 70
     3
  0
STYLE
  5
11
330
3
100
AcDbSymbolTableRecord
100
AcDbTextStyleTableRecord
  2
Standard
 70
     0
 40
0.0
 41
1.0
 50
0.0
 71
     0
 42
2.0
  3
txt
  4

  0
STYLE
  5
77
330
3
100
AcDbSymbolTableRecord
100
AcDbTextStyleTableRecord
  2
SLDTEXTSTYLE0
 70
     0
 40
0.0
 41
0.7
 50
0.0
 71
     0
 42
2.0
  3
TXT
  4

  0
STYLE
  5
187
330
3
100
AcDbSymbolTableRecord
100
AcDbTextStyleTableRecord
  2
SLDTEXTSTYLE1
 70
     0
 40
0.0
 41
0.65
 50
0.0
 71
     0
 42
2.0
  3
TXT
  4

  0
ENDTAB
  0
TABLE
  2
VIEW
  5
6
330
0
100
AcDbSymbolTable
 70
     0
  0
ENDTAB
  0
TABLE
  2
UCS
  5
7
330
0
100
AcDbSymbolTable
 70
     0
  0
ENDTAB
  0
TABLE
  2
APPID
  5
9
330
0
100
AcDbSymbolTable
 70
     1
  0
APPID
  5
12
330
9
100
AcDbSymbolTableRecord
100
AcDbRegAppTableRecord
  2
ACAD
 70
     0
  0
ENDTAB
  0
TABLE
  2
DIMSTYLE
  5
A
330
0
100
AcDbSymbolTable
 70
     2
100
AcDbDimStyleTable
  0
DIMSTYLE
105
27
330
A
100
AcDbSymbolTableRecord
100
AcDbDimStyleTableRecord
  2
ISO-25
 70
     0
 41
2.5
 42
0.625
 43
3.75
 44
1.25
 73
     0
 74
     0
 77
     1
 78
     8
140
2.5
141
2.5
143
0.0393700787
147
0.625
171
     3
172
     1
178
     0
271
     2
272
     2
274
     3
278
    44
283
     0
284
     8
340
11
  0
DIMSTYLE
105
17E
102
{ACAD_REACTORS
330
17D
330
18B
330
197
330
1A2
330
1AE
330
1B8
102
}
330
A
100
AcDbSymbolTableRecord
100
AcDbDimStyleTableRecord
  2
SLDDIMSTYLE0
 70
     0
 41
3.0
 44
0.0
 45
0.000000001
 73
     0
 74
     0
 77
     1
 78
    12
 79
     3
140
2.0
147
0.5
173
     1
178
     0
271
     2
272
     3
276
     2
284
    12
340
77
  0
ENDTAB
  0
TABLE
  2
BLOCK_RECORD
  5
1
330
0
100
AcDbSymbolTable
 70
     7
  0
BLOCK_RECORD
  5
1F
330
1
100
AcDbSymbolTableRecord
100
AcDbBlockTableRecord
  2
*Model_Space
340
22
  0
BLOCK_RECORD
  5
1B
330
1
100
AcDbSymbolTableRecord
100
AcDbBlockTableRecord
  2
*Paper_Space
340
1E
  0
BLOCK_RECORD
  5
23
330
1
100
AcDbSymbolTableRecord
100
AcDbBlockTableRecord
  2
*Paper_Space0
340
26
  0
BLOCK_RECORD
  5
17F
330
1
100
AcDbSymbolTableRecord
100
AcDbBlockTableRecord
  2
_D
340
0
  0
BLOCK_RECORD
  5
18C
330
1
100
AcDbSymbolTableRecord
100
AcDbBlockTableRecord
  2
_D_1
340
0
  0
BLOCK_RECORD
  5
198
330
1
100
AcDbSymbolTableRecord
100
AcDbBlockTableRecord
  2
_D_2
340
0
  0
BLOCK_RECORD
  5
1A3
330
1
100
AcDbSymbolTableRecord
100
AcDbBlockTableRecord
  2
_D_3
340
0
  0
BLOCK_RECORD
  5
1AF
330
1
100
AcDbSymbolTableRecord
100
AcDbBlockTableRecord
  2
_D_4
340
0
  0
BLOCK_RECORD
  5
1B9
330
1
100
AcDbSymbolTableRecord
100
AcDbBlockTableRecord
  2
_D_5
340
0
  0
ENDTAB
  0
ENDSEC
  0
SECTION
  2
BLOCKS
  0
BLOCK
  5
20
330
1F
100
AcDbEntity
  8
0
100
AcDbBlockBegin
  2
*Model_Space
 70
     0
 10
0.0
 20
0.0
 30
0.0
  3
*Model_Space
  1

  0
ENDBLK
  5
21
330
1F
100
AcDbEntity
  8
0
100
AcDbBlockEnd
  0
BLOCK
  5
1C
330
1B
100
AcDbEntity
 67
     1
  8
0
100
AcDbBlockBegin
  2
*Paper_Space
 70
     0
 10
0.0
 20
0.0
 30
0.0
  3
*Paper_Space
  1

  0
ENDBLK
  5
1D
330
1B
100
AcDbEntity
 67
     1
  8
0
100
AcDbBlockEnd
  0
BLOCK
  5
24
330
23
100
AcDbEntity
  8
0
100
AcDbBlockBegin
  2
*Paper_Space0
 70
     0
 10
0.0
 20
0.0
 30
0.0
  3
*Paper_Space0
  1

  0
ENDBLK
  5
25
330
23
100
AcDbEntity
  8
0
100
AcDbBlockEnd
  0
BLOCK
  5
180
330
17F
100
AcDbEntity
  8
0
100
AcDbBlockBegin
  2
_D
 70
     0
 10
0.0
 20
0.0
 30
0.0
  3
_D
  1

  0
SOLID
  5
182
330
17F
100
AcDbEntity
  8
VERMASSUNG
100
AcDbTrace
 10
109.9825773347
 20
147.6652239703
 30
0.0
 11
109.5325773347
 21
144.6652239703
 31
0.0
 12
110.4325773347
 22
144.6652239703
 32
0.0
 13
110.4325773347
 23
144.6652239703
 33
0.0
  0
SOLID
  5
183
330
17F
100
AcDbEntity
  8
VERMASSUNG
100
AcDbTrace
 10
109.9825773347
 20
84.6652239703
 30
0.0
 11
110.4325773347
 21
87.6652239703
 31
0.0
 12
109.5325773347
 22
87.6652239703
 32
0.0
 13
109.5325773347
 23
87.6652239703
 33
0.0
  0
LINE
  5
184
330
17F
100
AcDbEntity
  8
VERMASSUNG
100
AcDbLine
 10
146.5744352415
 20
147.6652239703
 30
0.0
 11
108.9825773347
 21
147.6652239703
 31
0.0
  0
LINE
  5
185
330
17F
100
AcDbEntity
  8
VERMASSUNG
100
AcDbLine
 10
146.5744352415
 20
84.6652239703
 30
0.0
 11
108.9825773347
 21
84.6652239703
 31
0.0
  0
LINE
  5
186
330
17F
100
AcDbEntity
  8
VERMASSUNG
100
AcDbLine
 10
109.9825773347
 20
147.6652239703
 30
0.0
 11
109.9825773347
 21
84.6652239703
 31
0.0
  0
MTEXT
  5
188
330
17F
100
AcDbEntity
  8
VERMASSUNG
100
AcDbMText
 10
107.2044420785
 20
106.4611477602
 30
0.0
 40
2.0
 41
0.0
 71
     1
 72
     1
  1
HSK A 63
  7
SLDTEXTSTYLE1
 11
-7.044195017643634E-15
 21
1.0
 31
0.0
 73
     1
 44
1.0
  0
MTEXT
  5
189
330
17F
100
AcDbEntity
  8
VERMASSUNG
100
AcDbMText
 10
107.4044420298
 20
119.4611480284
 30
0.0
 40
2.0
 41
0.0
 71
     1
 72
     1
  1
%%c
  7
SLDTEXTSTYLE0
 11
-7.044195017643634E-15
 21
1.0
 31
0.0
 73
     1
 44
1.0
  0
MTEXT
  5
18A
330
17F
100
AcDbEntity
  8
VERMASSUNG
100
AcDbMText
 10
107.4044417388
 20
123.0699201598
 30
0.0
 40
2.0
 41
0.0
 71
     1
 72
     1
  1
63
  7
SLDTEXTSTYLE0
 11
-7.044195017643634E-15
 21
1.0
 31
0.0
 73
     1
 44
1.0
  0
ENDBLK
  5
181
330
17F
100
AcDbEntity
  8
0
100
AcDbBlockEnd
  0
BLOCK
  5
18D
330
18C
100
AcDbEntity
  8
0
100
AcDbBlockBegin
  2
_D_1
 70
     0
 10
0.0
 20
0.0
 30
0.0
  3
_D_1
  1

  0
SOLID
  5
18F
330
18C
100
AcDbEntity
  8
VERMASSUNG
100
AcDbTrace
 10
199.6104566336
 20
126.1652239703
 30
0.0
 11
199.1604566336
 21
123.1652239703
 31
0.0
 12
200.0604566336
 22
123.1652239703
 32
0.0
 13
200.0604566336
 23
123.1652239703
 33
0.0
  0
SOLID
  5
190
330
18C
100
AcDbEntity
  8
VERMASSUNG
100
AcDbTrace
 10
199.6104566336
 20
106.1652239703
 30
0.0
 11
200.0604566336
 21
109.1652239703
 31
0.0
 12
199.1604566336
 22
109.1652239703
 32
0.0
 13
199.1604566336
 23
109.1652239703
 33
0.0
  0
LINE
  5
191
330
18C
100
AcDbEntity
  8
VERMASSUNG
100
AcDbLine
 10
188.0744352415
 20
126.1652239703
 30
0.0
 11
200.6104566336
 21
126.1652239703
 31
0.0
  0
LINE
  5
192
330
18C
100
AcDbEntity
  8
VERMASSUNG
100
AcDbLine
 10
188.0744352415
 20
106.1652239703
 30
0.0
 11
200.6104566336
 21
106.1652239703
 31
0.0
  0
LINE
  5
193
330
18C
100
AcDbEntity
  8
VERMASSUNG
100
AcDbLine
 10
199.6104566336
 20
126.1652239703
 30
0.0
 11
199.6104566336
 21
106.1652239703
 31
0.0
  0
MTEXT
  5
194
330
18C
100
AcDbEntity
  8
VERMASSUNG
100
AcDbMText
 10
196.8323213773
 20
110.2609366376
 30
0.0
 40
2.0
 41
0.0
 71
     1
 72
     1
  1
ST1
  7
SLDTEXTSTYLE0
 11
-7.044195017643634E-15
 21
1.0
 31
0.0
 73
     1
 44
1.0
  0
MTEXT
  5
195
330
18C
100
AcDbEntity
  8
VERMASSUNG
100
AcDbMText
 10
197.0323213286
 20
115.6609367777
 30
0.0
 40
2.0
 41
0.0
 71
     1
 72
     1
  1
%%c
  7
SLDTEXTSTYLE0
 11
-7.044195017643634E-15
 21
1.0
 31
0.0
 73
     1
 44
1.0
  0
MTEXT
  5
196
330
18C
100
AcDbEntity
  8
VERMASSUNG
100
AcDbMText
 10
197.0323210376
 20
119.2701312823
 30
0.0
 40
2.0
 41
0.0
 71
     1
 72
     1
  1
20
  7
SLDTEXTSTYLE0
 11
-7.044195017643634E-15
 21
1.0
 31
0.0
 73
     1
 44
1.0
  0
ENDBLK
  5
18E
330
18C
100
AcDbEntity
  8
0
100
AcDbBlockEnd
  0
BLOCK
  5
199
330
198
100
AcDbEntity
  8
0
100
AcDbBlockBegin
  2
_D_2
 70
     0
 10
0.0
 20
0.0
 30
0.0
  3
_D_2
  1

  0
SOLID
  5
19B
330
198
100
AcDbEntity
  8
VERMASSUNG
100
AcDbTrace
 10
193.5104566336
 20
121.6652239703
 30
0.0
 11
193.0604566336
 21
118.6652239703
 31
0.0
 12
193.9604566336
 22
118.6652239703
 32
0.0
 13
193.9604566336
 23
118.6652239703
 33
0.0
  0
SOLID
  5
19C
330
198
100
AcDbEntity
  8
VERMASSUNG
100
AcDbTrace
 10
193.5104566336
 20
110.6652239703
 30
0.0
 11
193.9604566336
 21
113.6652239703
 31
0.0
 12
193.0604566336
 22
113.6652239703
 32
0.0
 13
193.0604566336
 23
113.6652239703
 33
0.0
  0
LINE
  5
19D
330
198
100
AcDbEntity
  8
VERMASSUNG
100
AcDbLine
 10
182.3744352415
 20
121.6652239703
 30
0.0
 11
194.5104566336
 21
121.6652239703
 31
0.0
  0
LINE
  5
19E
330
198
100
AcDbEntity
  8
VERMASSUNG
100
AcDbLine
 10
182.3744352415
 20
110.6652239703
 30
0.0
 11
194.5104566336
 21
110.6652239703
 31
0.0
  0
LINE
  5
19F
330
198
100
AcDbEntity
  8
VERMASSUNG
100
AcDbLine
 10
193.5104566336
 20
121.6652239703
 30
0.0
 11
193.5104566336
 21
110.6652239703
 31
0.0
  0
MTEXT
  5
1A0
330
198
100
AcDbEntity
  8
VERMASSUNG
100
AcDbMText
 10
190.9323210958
 20
113.3614320032
 30
0.0
 40
2.0
 41
0.0
 71
     1
 72
     1
  1
%%c
  7
SLDTEXTSTYLE0
 11
-7.044195017643634E-15
 21
1.0
 31
0.0
 73
     1
 44
1.0
  0
MTEXT
  5
1A1
330
198
100
AcDbEntity
  8
VERMASSUNG
100
AcDbMText
 10
190.9323210376
 20
116.9704041969
 30
0.0
 40
2.0
 41
0.0
 71
     1
 72
     1
  1
11
  7
SLDTEXTSTYLE0
 11
-7.044195017643634E-15
 21
1.0
 31
0.0
 73
     1
 44
1.0
  0
ENDBLK
  5
19A
330
198
100
AcDbEntity
  8
0
100
AcDbBlockEnd
  0
BLOCK
  5
1A4
330
1A3
100
AcDbEntity
  8
0
100
AcDbBlockBegin
  2
_D_3
 70
     0
 10
0.0
 20
0.0
 30
0.0
  3
_D_3
  1

  0
ARC
  5
1A6
330
1A3
100
AcDbEntity
  8
VERMASSUNG
100
AcDbCircle
 10
179.5608693301
 20
152.0267347749
 30
0.0
 40
4.247059938537284
100
AcDbArc
 50
153.4349488229
 51
206.5650511771
  0
ARC
  5
1A7
330
1A3
100
AcDbEntity
  8
VERMASSUNG
100
AcDbCircle
 10
180.9380011529
 20
152.0267347749
 30
0.0
 40
4.24705993853726
100
AcDbArc
 50
333.4349488229
 51
26.5650511771
  0
SOLID
  5
1A8
330
1A3
100
AcDbEntity
  8
VERMASSUNG
100
AcDbTrace
 10
172.2244352415
 20
150.1273918294
 30
0.0
 11
175.2244352415
 21
149.6773918294
 31
0.0
 12
175.2244352415
 22
150.5773918294
 32
0.0
 13
175.2244352415
 23
150.5773918294
 33
0.0
  0
SOLID
  5
1A9
330
1A3
100
AcDbEntity
  8
VERMASSUNG
100
AcDbTrace
 10
188.2744352415
 20
150.1273918294
 30
0.0
 11
185.2744352415
 21
150.5773918294
 31
0.0
 12
185.2744352415
 22
149.6773918294
 32
0.0
 13
185.2744352415
 23
149.6773918294
 33
0.0
  0
LINE
  5
1AA
330
1A3
100
AcDbEntity
  8
VERMASSUNG
100
AcDbLine
 10
172.2244352415
 20
146.011664294
 30
0.0
 11
172.2244352415
 21
151.1273918294
 31
0.0
  0
LINE
  5
1AB
330
1A3
100
AcDbEntity
  8
VERMASSUNG
100
AcDbLine
 10
188.2744352415
 20
125.9652239703
 30
0.0
 11
188.2744352415
 21
151.1273918294
 31
0.0
  0
LINE
  5
1AC
330
1A3
100
AcDbEntity
  8
VERMASSUNG
100
AcDbLine
 10
172.2244352415
 20
150.1273918294
 30
0.0
 11
188.2744352415
 21
150.1273918294
 31
0.0
  0
MTEXT
  5
1AD
330
1A3
100
AcDbEntity
  8
VERMASSUNG
100
AcDbMText
 10
177.3496834392
 20
152.7055274254
 30
0.0
 40
2.0
 41
0.0
 71
     1
 72
     1
  1
16.05
  7
SLDTEXTSTYLE0
 73
     1
 44
1.0
  0
ENDBLK
  5
1A5
330
1A3
100
AcDbEntity
  8
0
100
AcDbBlockEnd
  0
BLOCK
  5
1B0
330
1AF
100
AcDbEntity
  8
0
100
AcDbBlockBegin
  2
_D_4
 70
     0
 10
0.0
 20
0.0
 30
0.0
  3
_D_4
  1

  0
SOLID
  5
1B2
330
1AF
100
AcDbEntity
  8
VERMASSUNG
100
AcDbTrace
 10
188.2744352415
 20
156.1273918294
 30
0.0
 11
185.2744352415
 21
156.5773918294
 31
0.0
 12
185.2744352415
 22
155.6773918294
 32
0.0
 13
185.2744352415
 23
155.6773918294
 33
0.0
  0
SOLID
  5
1B3
330
1AF
100
AcDbEntity
  8
VERMASSUNG
100
AcDbTrace
 10
146.2744352415
 20
156.1273918294
 30
0.0
 11
149.2744352415
 21
155.6773918294
 31
0.0
 12
149.2744352415
 22
156.5773918294
 32
0.0
 13
149.2744352415
 23
156.5773918294
 33
0.0
  0
LINE
  5
1B4
330
1AF
100
AcDbEntity
  8
VERMASSUNG
100
AcDbLine
 10
188.2744352415
 20
125.9652239703
 30
0.0
 11
188.2744352415
 21
157.1273918294
 31
0.0
  0
LINE
  5
1B5
330
1AF
100
AcDbEntity
  8
VERMASSUNG
100
AcDbLine
 10
146.2744352415
 20
147.3652239703
 30
0.0
 11
146.2744352415
 21
157.1273918294
 31
0.0
  0
LINE
  5
1B6
330
1AF
100
AcDbEntity
  8
VERMASSUNG
100
AcDbLine
 10
188.2744352415
 20
156.1273918294
 30
0.0
 11
146.2744352415
 21
156.1273918294
 31
0.0
  0
MTEXT
  5
1B7
330
1AF
100
AcDbEntity
  8
VERMASSUNG
100
AcDbMText
 10
165.7754764361
 20
158.7055274254
 30
0.0
 40
2.0
 41
0.0
 71
     1
 72
     1
  1
42
  7
SLDTEXTSTYLE0
 73
     1
 44
1.0
  0
ENDBLK
  5
1B1
330
1AF
100
AcDbEntity
  8
0
100
AcDbBlockEnd
  0
BLOCK
  5
1BA
330
1B9
100
AcDbEntity
  8
0
100
AcDbBlockBegin
  2
_D_5
 70
     0
 10
0.0
 20
0.0
 30
0.0
  3
_D_5
  1

  0
ARC
  5
1BC
330
1B9
100
AcDbEntity
  8
VERMASSUNG
100
AcDbCircle
 10
151.1366252518
 20
164.0267347749
 30
0.0
 40
4.247059938537233
100
AcDbArc
 50
153.4349488229
 51
206.5650511771
  0
ARC
  5
1BD
330
1B9
100
AcDbEntity
  8
VERMASSUNG
100
AcDbCircle
 10
151.5122452312
 20
164.0267347749
 30
0.0
 40
4.247059938537233
100
AcDbArc
 50
333.4349488229
 51
26.5650511771
  0
SOLID
  5
1BE
330
1B9
100
AcDbEntity
  8
VERMASSUNG
100
AcDbTrace
 10
114.3744352415
 20
162.1273918294
 30
0.0
 11
117.3744352415
 21
161.6773918294
 31
0.0
 12
117.3744352415
 22
162.5773918294
 32
0.0
 13
117.3744352415
 23
162.5773918294
 33
0.0
  0
SOLID
  5
1BF
330
1B9
100
AcDbEntity
  8
VERMASSUNG
100
AcDbTrace
 10
188.2744352415
 20
162.1273918294
 30
0.0
 11
185.2744352415
 21
162.5773918294
 31
0.0
 12
185.2744352415
 22
161.6773918294
 32
0.0
 13
185.2744352415
 23
161.6773918294
 33
0.0
  0
LINE
  5
1C0
330
1B9
100
AcDbEntity
  8
VERMASSUNG
100
AcDbLine
 10
114.3744352415
 20
135.8559017168
 30
0.0
 11
114.3744352415
 21
163.1273918294
 31
0.0
  0
LINE
  5
1C1
330
1B9
100
AcDbEntity
  8
VERMASSUNG
100
AcDbLine
 10
188.2744352415
 20
125.9652239703
 30
0.0
 11
188.2744352415
 21
163.1273918294
 31
0.0
  0
LINE
  5
1C2
330
1B9
100
AcDbEntity
  8
VERMASSUNG
100
AcDbLine
 10
114.3744352415
 20
162.1273918294
 30
0.0
 11
188.2744352415
 21
162.1273918294
 31
0.0
  0
MTEXT
  5
1C3
330
1B9
100
AcDbEntity
  8
VERMASSUNG
100
AcDbMText
 10
148.925439361
 20
164.7055274254
 30
0.0
 40
2.0
 41
0.0
 71
     1
 72
     1
  1
73.9
  7
SLDTEXTSTYLE0
 73
     1
 44
1.0
  0
ENDBLK
  5
1BB
330
1B9
100
AcDbEntity
  8
0
100
AcDbBlockEnd
  0
ENDSEC
  0
SECTION
  2
ENTITIES
  0
MTEXT
  5
78
330
1F
100
AcDbEntity
  8
KOPF_DÜNN
100
AcDbMText
 10
13.8892156294
 20
23.8442973028
 30
0.0
 40
3.0
 41
0.0
 71
     1
 72
     1
  1
144.806.020.042
  7
SLDTEXTSTYLE0
 73
     1
 44
1.0
  0
MTEXT
  5
79
330
1F
100
AcDbEntity
  8
VERMASSUNG
100
AcDbMText
 10
13.9329988022
 20
28.8834360957
 30
0.0
 40
3.0
 41
0.0
 71
     1
 72
     1
  1
Aufnahme_Master shank ST1
  7
SLDTEXTSTYLE0
 73
     1
 44
1.0
  0
MTEXT
  5
7A
330
1F
100
AcDbEntity
  8
VERMASSUNG
100
AcDbMText
 10
98.8601118557
 20
13.8365368761
 30
0.0
 40
2.0
 41
0.0
 71
     1
 72
     1
  1
Datum: 10.06.2008
  7
SLDTEXTSTYLE0
 73
     1
 44
1.0
  0
MTEXT
  5
7B
330
1F
100
AcDbEntity
  8
VERMASSUNG
100
AcDbMText
 10
13.933048693
 20
18.0482802738
 30
0.0
 40
2.0
 41
0.0
 71
     1
 72
     1
  1
DIN 69893 HSK A 63
  7
SLDTEXTSTYLE0
 73
     1
 44
1.0
  0
MTEXT
  5
7C
330
1F
100
AcDbEntity
  8
VERMASSUNG
100
AcDbMText
 10
13.9808475933
 20
13.9090974274
 30
0.0
 40
2.0
 41
0.0
 71
     1
 72
     1
  1
Gewicht: 669g
  7
SLDTEXTSTYLE0
 73
     1
 44
1.0
  0
ARC
  5
7D
330
1F
100
AcDbEntity
  8
0
  6
Continuous
 62
     7
370
    15
100
AcDbCircle
 10
146.5744352415
 20
84.9652239703
 30
0.0
 40
0.2999999999999972
100
AcDbArc
 50
180.0
 51
270.0
  0
ARC
  5
7E
330
1F
100
AcDbEntity
  8
0
  6
Continuous
 62
     7
370
    15
100
AcDbCircle
 10
146.5744352415
 20
147.3652239703
 30
0.0
 40
0.2999999999999829
100
AcDbArc
 50
90.0
 51
180.0
  0
LINE
  5
7F
330
1F
100
AcDbEntity
  8
0
  6
Continuous
 62
     7
370
    15
100
AcDbLine
 10
146.5744352415
 20
84.6652239703
 30
0.0
 11
151.2244352415
 21
84.6652239703
 31
0.0
  0
LINE
  5
80
330
1F
100
AcDbEntity
  8
0
  6
Continuous
 62
     7
370
    15
100
AcDbLine
 10
151.2337433283
 20
147.6652239703
 30
0.0
 11
146.5744352415
 21
147.6652239703
 31
0.0
  0
ARC
  5
81
330
1F
100
AcDbEntity
  8
0
  6
Continuous
 62
     7
370
    15
100
AcDbCircle
 10
145.7744284888
 20
91.5947863559
 30
0.0
 40
0.6000067526677282
100
AcDbArc
 50
33.5571153394
 51
90.0
  0
ARC
  5
82
330
1F
100
AcDbEntity
  8
0
  6
Continuous
 62
     7
370
    15
100
AcDbCircle
 10
145.7744284888
 20
140.7356615847
 30
0.0
 40
0.6000067526677282
100
AcDbArc
 50
270.0
 51
326.4428846606
  0
LINE
  5
83
330
1F
100
AcDbEntity
  8
0
  6
Continuous
 62
     7
370
    15
100
AcDbLine
 10
133.0429264427
 20
139.8229539904
 30
0.0
 11
120.4744352415
 21
139.1932700625
 31
0.0
  0
LINE
  5
84
330
1F
100
AcDbEntity
  8
0
  6
Continuous
 62
     7
370
    15
100
AcDbLine
 10
144.2744352415
 20
140.385654832
 30
0.0
 11
141.4574335842
 21
140.2445224844
 31
0.0
  0
LINE
  5
85
330
1F
100
AcDbEntity
  8
0
  6
Continuous
 62
     7
370
    15
100
AcDbLine
 10
141.4574896742
 20
92.085922646
 30
0.0
 11
144.2744352415
 21
91.9447931086
 31
0.0
  0
LINE
  5
86
330
1F
100
AcDbEntity
  8
0
  6
Continuous
 62
     7
370
    15
100
AcDbLine
 10
124.4744352415
 20
92.9367770765
 30
0.0
 11
133.0433289614
 21
92.5074737839
 31
0.0
  0
LINE
  5
87
330
1F
100
AcDbEntity
  8
0
  6
Continuous
 62
     7
370
    15
100
AcDbLine
 10
144.2744352415
 20
91.9447931086
 30
0.0
 11
145.1311480149
 21
92.1743486043
 31
0.0
  0
LINE
  5
88
330
1F
100
AcDbEntity
  8
0
  6
Continuous
 62
     7
370
    15
100
AcDbLine
 10
145.1311480149
 20
140.1560993362
 30
0.0
 11
144.2744352415
 21
140.385654832
 31
0.0
  0
ARC
  5
89
330
1F
100
AcDbEntity
  8
0
  6
Continuous
 62
     7
370
    15
100
AcDbCircle
 10
145.2864394419
 20
91.5947931086
 30
0.0
 40
0.6000000000000085
100
AcDbArc
 50
90.0
 51
105.0
  0
ARC
  5
8A
330
1F
100
AcDbEntity
  8
0
  6
Continuous
 62
     7
370
    15
100
AcDbCircle
 10
145.2864394419
 20
140.735654832
 30
0.0
 40
0.5999999999999943
100
AcDbArc
 50
255.0
 51
270.0
  0
LINE
  5
8B
330
1F
100
AcDbEntity
  8
0
  6
Continuous
 62
     7
370
    15
100
AcDbLine
 10
145.2864394419
 20
92.1947931086
 30
0.0
 11
145.7744284888
 21
92.1947931086
 31
0.0
  0
LINE
  5
8C
330
1F
100
AcDbEntity
  8
0
  6
Continuous
 62
     7
370
    15
100
AcDbLine
 10
145.7744284888
 20
140.135654832
 30
0.0
 11
145.2864394419
 21
140.135654832
 31
0.0
  0
ARC
  5
8D
330
1F
100
AcDbEntity
  8
0
  6
Continuous
 62
     7
370
    15
100
AcDbCircle
 10
176.2244352415
 20
102.1652239703
 30
0.0
 40
4.000000000000028
100
AcDbArc
 50
90.0
 51
180.0
  0
ARC
  5
8E
330
1F
100
AcDbEntity
  8
0
  6
Continuous
 62
     7
370
    15
100
AcDbCircle
 10
176.2244352415
 20
130.1652239703
 30
0.0
 40
4.000000000000028
100
AcDbArc
 50
180.0
 51
270.0
  0
LINE
  5
8F
330
1F
100
AcDbEntity
  8
0
  6
Continuous
 62
     7
370
    15
100
AcDbLine
 10
115.6577718815
 20
95.2952239703
 30
0.0
 11
123.0744352415
 21
95.2952239703
 31
0.0
  0
ARC
  5
90
330
1F
100
AcDbEntity
  8
0
  6
Continuous
 62
     7
370
    15
100
AcDbCircle
 10
123.0744352415
 20
93.8952239703
 30
0.0
 40
1.399999999999997
100
AcDbArc
 50
42.2465410162
 51
90.0
  0
LINE
  5
91
330
1F
100
AcDbEntity
  8
0
  6
Continuous
 62
     7
370
    15
100
AcDbLine
 10
114.3855956766
 20
96.4340635352
 30
0.0
 11
115.5155986997
 21
95.3040605121
 31
0.0
  0
LINE
  5
92
330
1F
100
AcDbEntity
  8
0
  6
Continuous
 62
     7
370
    15
100
AcDbLine
 10
115.5155986997
 20
137.0263874285
 30
0.0
 11
114.3843360149
 21
135.8951247437
 31
0.0
  0
LINE
  5
93
330
1F
100
AcDbEntity
  8
0
  6
Continuous
 62
     7
370
    15
100
AcDbLine
 10
188.0744352415
 20
106.1652239703
 30
0.0
 11
188.2744352415
 21
106.3652239703
 31
0.0
  0
LINE
  5
94
330
1F
100
AcDbEntity
  8
0
  6
Continuous
 62
     7
370
    15
100
AcDbLine
 10
188.2744352415
 20
125.9652239703
 30
0.0
 11
188.0744352415
 21
126.1652239703
 31
0.0
  0
LINE
  5
95
330
1F
100
AcDbEntity
  8
0
  6
Continuous
 62
     7
370
    15
100
AcDbLine
 10
188.0744352415
 20
126.1652239703
 30
0.0
 11
176.2244352415
 21
126.1652239703
 31
0.0
  0
LINE
  5
96
330
1F
100
AcDbEntity
  8
0
  6
Continuous
 62
     7
370
    15
100
AcDbLine
 10
176.2244352415
 20
106.1652239703
 30
0.0
 11
188.0744352415
 21
106.1652239703
 31
0.0
  0
ARC
  5
97
330
1F
100
AcDbEntity
  8
0
  6
Continuous
 62
     7
370
    15
100
AcDbCircle
 10
119.0744352415
 20
138.4352239703
 30
0.0
 40
1.400000000000008
100
AcDbArc
 50
270.0
 51
301.7485287426
  0
LINE
  5
98
330
1F
100
AcDbEntity
  8
0
  6
Continuous
 62
     7
370
    15
100
AcDbLine
 10
119.0744352415
 20
137.0352239703
 30
0.0
 11
115.6653236429
 21
137.0352239703
 31
0.0
  0
SPLINE
  5
99
330
1F
100
AcDbEntity
  8
0
  6
Continuous
 62
     7
370
    15
100
AcDbSpline
210
0.0
220
0.0
230
1.0
 70
    24
 71
     3
 72
    11
 73
     7
 74
     0
 42
0.000000001
 43
0.00000001
 40
0.0
 40
0.0
 40
0.0
 40
0.0
 40
0.1208913875340466
 40
0.4766714197330046
 40
0.8143663490172433
 40
1.0
 40
1.0
 40
1.0
 40
1.0
 10
182.1489618887623
 20
116.5855695434446
 30
0.0
 10
182.1830894710333
 20
116.612864084154
 30
0.0
 10
182.3176535903225
 20
116.7204857082934
 30
0.0
 10
182.5714295138086
 20
116.9234504896727
 30
0.0
 10
182.8495240518212
 20
117.1458648004362
 30
0.0
 10
182.9980454239452
 20
117.2646491492792
 30
0.0
 10
183.0507285098609
 20
117.306784001429
 30
0.0
  0
SPLINE
  5
9A
330
1F
100
AcDbEntity
  8
0
  6
Continuous
 62
     7
370
    15
100
AcDbSpline
210
0.0
220
0.0
230
1.0
 70
    24
 71
     3
 72
    10
 73
     6
 74
     0
 42
0.000000001
 43
0.00000001
 40
0.0
 40
0.0
 40
0.0
 40
0.0
 40
0.4391051671061713
 40
0.751357898069273
 40
1.0
 40
1.0
 40
1.0
 40
1.0
 10
182.322668620404
 20
115.4440095122962
 30
0.0
 10
182.2978018623485
 20
115.6074280328809
 30
0.0
 10
182.255252066846
 20
115.8870553416219
 30
0.0
 10
182.1933974057524
 20
116.2935497139315
 30
0.0
 10
182.1626098643759
 20
116.4958782383391
 30
0.0
 10
182.1489618887623
 20
116.5855695434446
 30
0.0
  0
SPLINE
  5
9B
330
1F
100
AcDbEntity
  8
0
  6
Continuous
 62
     7
370
    15
100
AcDbSpline
210
0.0
220
0.0
230
1.0
 70
    24
 71
     3
 72
    10
 73
     6
 74
     0
 42
0.000000001
 43
0.00000001
 40
0.0
 40
0.0
 40
0.0
 40
0.0
 40
0.4391051671061722
 40
0.7513578980692764
 40
1.0
 40
1.0
 40
1.0
 40
1.0
 10
183.3981419731445
 20
115.0236639391321
 30
0.0
 10
183.2441840038414
 20
115.0838379552386
 30
0.0
 10
182.9807447531286
 20
115.1868024057781
 30
0.0
 10
182.5977829696662
 20
115.3364818840834
 30
0.0
 10
182.4071675569309
 20
115.410983353335
 30
0.0
 10
182.322668620404
 20
115.4440095122962
 30
0.0
  0
SPLINE
  5
9C
330
1F
100
AcDbEntity
  8
0
  6
Continuous
 62
     7
370
    15
100
AcDbSpline
210
0.0
220
0.0
230
1.0
 70
    24
 71
     3
 72
    11
 73
     7
 74
     0
 42
0.000000001
 43
0.00000001
 40
0.0
 40
0.0
 40
0.0
 40
0.0
 40
0.1856336509827591
 40
0.5233285802669958
 40
0.8791086124659568
 40
1.0
 40
1.0
 40
1.0
 40
1.0
 10
184.2999085942431
 20
115.7448783971165
 30
0.0
 10
184.2472255083274
 20
115.7027435449667
 30
0.0
 10
184.0987041362034
 20
115.5839591961237
 30
0.0
 10
183.8206095981907
 20
115.3615448853602
 30
0.0
 10
183.5668336747048
 20
115.1585801039809
 30
0.0
 10
183.4322695554155
 20
115.0509584798415
 30
0.0
 10
183.3981419731445
 20
115.0236639391321
 30
0.0
  0
SPLINE
  5
9D
330
1F
100
AcDbEntity
  8
0
  6
Continuous
 62
     7
370
    15
100
AcDbSpline
210
0.0
220
0.0
230
1.0
 70
    24
 71
     3
 72
    10
 73
     6
 74
     0
 42
0.000000001
 43
0.00000001
 40
0.0
 40
0.0
 40
0.0
 40
0.0
 40
0.4391051671061721
 40
0.7513578980692768
 40
1.0
 40
1.0
 40
1.0
 40
1.0
 10
183.0507285098609
 20
117.306784001429
 30
0.0
 10
183.2046864791639
 20
117.2466099853226
 30
0.0
 10
183.4681257298767
 20
117.1436455347831
 30
0.0
 10
183.8510875133391
 20
116.9939660564778
 30
0.0
 10
184.0417029260745
 20
116.9194645872261
 30
0.0
 10
184.1262018626013
 20
116.8864384282649
 30
0.0
  0
CIRCLE
  5
9E
330
1F
100
AcDbEntity
  8
0
  6
Continuous
 62
     7
370
    15
100
AcDbCircle
 10
183.2244352415
 20
116.1652239703
 30
0.0
 40
1.249999999999989
  0
SPLINE
  5
9F
330
1F
100
AcDbEntity
  8
0
  6
Continuous
 62
     7
370
    15
100
AcDbSpline
210
0.0
220
0.0
230
1.0
 70
    24
 71
     3
 72
    10
 73
     6
 74
     0
 42
0.000000001
 43
0.00000001
 40
0.0
 40
0.0
 40
0.0
 40
0.0
 40
0.4391051671061697
 40
0.7513578980692784
 40
1.0
 40
1.0
 40
1.0
 40
1.0
 10
184.1262018626013
 20
116.8864384282649
 30
0.0
 10
184.1510686206569
 20
116.7230199076802
 30
0.0
 10
184.1936184161594
 20
116.4433925989393
 30
0.0
 10
184.255473077253
 20
116.0368982266296
 30
0.0
 10
184.2862606186295
 20
115.8345697022221
 30
0.0
 10
184.2999085942431
 20
115.7448783971165
 30
0.0
  0
CIRCLE
  5
A0
330
1F
100
AcDbEntity
  8
0
  6
Continuous
 62
     7
370
    15
100
AcDbCircle
 10
183.2244352415
 20
116.1652239703
 30
0.0
 40
1.75000000000001
  0
CIRCLE
  5
A1
330
1F
100
AcDbEntity
  8
0
  6
Continuous
 62
     7
370
    15
100
AcDbCircle
 10
183.2244352415
 20
116.1652239703
 30
0.0
 40
2.000000000000003
  0
ARC
  5
A2
330
1F
100
AcDbEntity
  8
0
  6
Continuous
 62
     7
370
    15
100
AcDbCircle
 10
183.2244352415
 20
116.1652239703
 30
0.0
 40
1.000000000000006
100
AcDbArc
 50
68.652103963
 51
128.652103963
  0
ARC
  5
A3
330
1F
100
AcDbEntity
  8
0
  6
Continuous
 62
     7
370
    15
100
AcDbCircle
 10
183.2244352415
 20
116.1652239703
 30
0.0
 40
1.000000000000012
100
AcDbArc
 50
308.652103963
 51
8.652103963
  0
ARC
  5
A4
330
1F
100
AcDbEntity
  8
0
  6
Continuous
 62
     7
370
    15
100
AcDbCircle
 10
183.2244352415
 20
116.1652239703
 30
0.0
 40
1.000000000000014
100
AcDbArc
 50
128.652103963
 51
188.652103963
  0
ARC
  5
A5
330
1F
100
AcDbEntity
  8
0
  6
Continuous
 62
     7
370
    15
100
AcDbCircle
 10
183.2244352415
 20
116.1652239703
 30
0.0
 40
1.000000000000014
100
AcDbArc
 50
188.652103963
 51
248.652103963
  0
ARC
  5
A6
330
1F
100
AcDbEntity
  8
0
  6
Continuous
 62
     7
370
    15
100
AcDbCircle
 10
183.2244352415
 20
116.1652239703
 30
0.0
 40
1.000000000000002
100
AcDbArc
 50
248.652103963
 51
308.652103963
  0
ARC
  5
A7
330
1F
100
AcDbEntity
  8
0
  6
Continuous
 62
     7
370
    15
100
AcDbCircle
 10
183.2244352415
 20
116.1652239703
 30
0.0
 40
1.000000000000012
100
AcDbArc
 50
8.652103963
 51
68.652103963
  0
LINE
  5
A8
330
1F
100
AcDbEntity
  8
0
  6
Continuous
 62
     7
370
    15
100
AcDbLine
 10
162.3644352415
 20
88.6673868112
 30
0.0
 11
162.3644352415
 21
136.0152239703
 31
0.0
  0
SPLINE
  5
A9
330
1F
100
AcDbEntity
  8
0
  6
Continuous
 62
     7
370
    15
100
AcDbSpline
210
0.0
220
0.0
230
1.0
 70
     8
 71
     3
 72
     8
 73
     4
 74
     0
 42
0.000000001
 43
0.00000001
 40
0.0
 40
0.0
 40
0.0
 40
0.0
 40
1.0
 40
1.0
 40
1.0
 40
1.0
 10
162.3644352415027
 20
88.6673868112257
 30
0.0
 10
161.8720961187215
 20
87.770116777019
 30
0.0
 10
161.3779820706794
 20
86.87383236196675
 30
0.0
 10
160.8825024100136
 20
85.9783062740334
 30
0.0
  0
LINE
  5
AA
330
1F
100
AcDbEntity
  8
0
  6
Continuous
 62
     7
370
    15
100
AcDbLine
 10
160.88250241
 20
85.978306274
 30
0.0
 11
160.88250241
 21
136.0152239703
 31
0.0
  0
SPLINE
  5
AB
330
1F
100
AcDbEntity
  8
0
  6
Continuous
 62
     7
370
    15
100
AcDbSpline
210
0.0
220
0.0
230
1.0
 70
    24
 71
     3
 72
     8
 73
     4
 74
     0
 42
0.000000001
 43
0.00000001
 40
0.0
 40
0.0
 40
0.0
 40
0.0
 40
1.0
 40
1.0
 40
1.0
 40
1.0
 10
160.8825024100136
 20
136.0152239702806
 30
0.0
 10
161.3891825181641
 20
136.0152239702806
 30
0.0
 10
161.8844832471378
 20
136.0152239702806
 30
0.0
 10
162.3644352415027
 20
136.0152239702806
 30
0.0
  0
LINE
  5
AC
330
1F
100
AcDbEntity
  8
0
  6
Continuous
 62
     7
370
    15
100
AcDbLine
 10
171.6244352415
 20
85.978306274
 30
0.0
 11
167.666368073
 21
85.978306274
 31
0.0
  0
LINE
  5
AD
330
1F
100
AcDbEntity
  8
0
  6
Continuous
 62
     7
370
    15
100
AcDbLine
 10
167.666368073
 20
85.978306274
 30
0.0
 11
167.666368073
 21
136.0152239703
 31
0.0
  0
LINE
  5
AE
330
1F
100
AcDbEntity
  8
0
  6
Continuous
 62
     7
370
    15
100
AcDbLine
 10
167.666368073
 20
136.0152239703
 30
0.0
 11
171.6244352415
 21
136.0152239703
 31
0.0
  0
SPLINE
  5
AF
330
1F
100
AcDbEntity
  8
0
  6
Continuous
 62
     7
370
    15
100
AcDbSpline
210
0.0
220
0.0
230
1.0
 70
     8
 71
     3
 72
     8
 73
     4
 74
     0
 42
0.000000001
 43
0.00000001
 40
0.0
 40
0.0
 40
0.0
 40
0.0
 40
1.0
 40
1.0
 40
1.0
 40
1.0
 10
167.6663680729917
 20
85.9783062740334
 30
0.0
 10
167.170888412326
 20
86.87383236196676
 30
0.0
 10
166.6767743642839
 20
87.77011677701901
 30
0.0
 10
166.1844352415027
 20
88.66738681122571
 30
0.0
  0
LINE
  5
B0
330
1F
100
AcDbEntity
  8
0
  6
Continuous
 62
     7
370
    15
100
AcDbLine
 10
166.1844352415
 20
88.6673868112
 30
0.0
 11
166.1844352415
 21
136.0152239703
 31
0.0
  0
SPLINE
  5
B1
330
1F
100
AcDbEntity
  8
0
  6
Continuous
 62
     7
370
    15
100
AcDbSpline
210
0.0
220
0.0
230
1.0
 70
    24
 71
     3
 72
     8
 73
     4
 74
     0
 42
0.000000001
 43
0.00000001
 40
0.0
 40
0.0
 40
0.0
 40
0.0
 40
1.0
 40
1.0
 40
1.0
 40
1.0
 10
166.1844352415027
 20
136.0152239702806
 30
0.0
 10
166.6643872358676
 20
136.0152239702806
 30
0.0
 10
167.1596879648412
 20
136.0152239702806
 30
0.0
 10
167.6663680729918
 20
136.0152239702806
 30
0.0
  0
LINE
  5
B2
330
1F
100
AcDbEntity
  8
0
  6
Continuous
 62
     7
370
    15
100
AcDbLine
 10
146.2744352415
 20
84.9652239703
 30
0.0
 11
146.2744352415
 21
147.365223967
 31
0.0
  0
LINE
  5
B3
330
1F
100
AcDbEntity
  8
0
  6
Continuous
 62
     7
370
    15
100
AcDbLine
 10
151.2244352415
 20
136.0152239703
 30
0.0
 11
160.88250241
 21
136.0152239703
 31
0.0
  0
LINE
  5
B4
330
1F
100
AcDbEntity
  8
0
  6
Continuous
 62
     7
370
    15
100
AcDbLine
 10
160.88250241
 20
85.978306274
 30
0.0
 11
159.2244352415
 21
85.978306274
 31
0.0
  0
SPLINE
  5
B5
330
1F
100
AcDbEntity
  8
0
  6
Continuous
 62
     7
370
    15
100
AcDbSpline
210
0.0
220
0.0
230
1.0
 70
     8
 71
     3
 72
    28
 73
    24
 74
     0
 42
0.000000001
 43
0.00000001
 40
0.0
 40
0.0
 40
0.0
 40
0.0
 40
0.1249999999999999
 40
0.1249999999999999
 40
0.1874999999999998
 40
0.1874999999999998
 40
0.2499999999999997
 40
0.2499999999999997
 40
0.3749999999999993
 40
0.3749999999999993
 40
0.4374999999999993
 40
0.4374999999999993
 40
0.4999999999999992
 40
0.4999999999999992
 40
0.6249999999999992
 40
0.6249999999999992
 40
0.7499999999999992
 40
0.7499999999999992
 40
0.8124999999999993
 40
0.8124999999999993
 40
0.8749999999999996
 40
0.8749999999999996
 40
1.0
 40
1.0
 40
1.0
 40
1.0
 10
159.2244352415027
 20
85.9783062740334
 30
0.0
 10
158.6927274840097
 20
85.9783062740334
 30
0.0
 10
158.1704889186994
 20
85.96252156008319
 30
0.0
 10
157.4006184324244
 20
85.91752614600698
 30
0.0
 10
157.1462588602331
 20
85.89897115093126
 30
0.0
 10
156.6421372795346
 20
85.85511842848476
 30
0.0
 10
156.3924144621066
 20
85.82977382153256
 30
0.0
 10
155.6668245106602
 20
85.74637174378245
 30
0.0
 10
155.2084642490787
 20
85.68050618463135
 30
0.0
 10
154.5579663056848
 20
85.57153584413956
 30
0.0
 10
154.3462842548923
 20
85.53329620837292
 30
0.0
 10
153.9422127657543
 20
85.45553747095357
 30
0.0
 10
153.7497062519335
 20
85.41603650877822
 30
0.0
 10
153.1998712809122
 20
85.29712876641221
 30
0.0
 10
152.8699425026034
 20
85.21731108498759
 30
0.0
 10
152.2854712340347
 20
85.06396792319154
 30
0.0
 10
152.0391940960213
 20
84.99263416992228
 30
0.0
 10
151.7393513033232
 20
84.89869066284767
 30
0.0
 10
151.650894446251
 20
84.86949686948775
 30
0.0
 10
151.4975330929459
 20
84.81603029522434
 30
0.0
 10
151.4324448787197
 20
84.79167096094913
 30
0.0
 10
151.2768508627789
 20
84.72808081550441
 30
0.0
 10
151.2244352415027
 20
84.69797788041517
 30
0.0
 10
151.2244352415027
 20
84.68110098741823
 30
0.0
  0
LINE
  5
B6
330
1F
100
AcDbEntity
  8
0
  6
Continuous
 62
     7
370
    15
100
AcDbLine
 10
151.2244352415
 20
84.6811009874
 30
0.0
 11
151.2244352415
 21
84.6652239703
 31
0.0
  0
SPLINE
  5
B7
330
1F
100
AcDbEntity
  8
0
  6
Continuous
 62
     7
370
    15
100
AcDbSpline
210
0.0
220
0.0
230
1.0
 70
     8
 71
     3
 72
    22
 73
    18
 74
     0
 42
0.000000001
 43
0.00000001
 40
0.0
 40
0.0
 40
0.0
 40
0.0
 40
0.0515773377536172
 40
0.1565264849943629
 40
0.2100197540385886
 40
0.2615951369298746
 40
0.3664424119934943
 40
0.4198226601719804
 40
0.4724528789006786
 40
0.5794488992297344
 40
0.6339397336480286
 40
0.6872670452602943
 40
0.7409741315029978
 40
0.7958968813361827
 40
0.8512481408256359
 40
0.9034470736265863
 40
1.0
 40
1.0
 40
1.0
 40
1.0
 10
159.2244352415026
 20
146.6324194434448
 30
0.0
 10
159.0076250455002
 20
146.6338160645133
 30
0.0
 10
158.3496512265855
 20
146.6380545187695
 30
0.0
 10
157.4745562492545
 20
146.6775868431238
 30
0.0
 10
156.6297307543977
 20
146.7405600899658
 30
0.0
 10
155.8100054707934
 20
146.8185741232209
 30
0.0
 10
155.034215492765
 20
146.915457251096
 30
0.0
 10
154.3167270314586
 20
147.023716663012
 30
0.0
 10
153.6374622842865
 20
147.1374350353165
 30
0.0
 10
153.0291473063776
 20
147.2539352202573
 30
0.0
 10
152.5090553656544
 20
147.3630354716743
 30
0.0
 10
152.1651651879383
 20
147.4390393694044
 30
0.0
 10
151.8702114602107
 20
147.507072825326
 30
0.0
 10
151.6244371728696
 20
147.5657858760845
 30
0.0
 10
151.4385348638961
 20
147.6114012560182
 30
0.0
 10
151.2669382581724
 20
147.6543607075788
 30
0.0
 10
151.2468089829961
 20
147.6595217293809
 30
0.0
 10
151.2337433283224
 20
147.6628716825231
 30
0.0
  0
LINE
  5
B8
330
1F
100
AcDbEntity
  8
0
  6
Continuous
 62
     7
370
    15
100
AcDbLine
 10
160.88250241
 20
146.6324194434
 30
0.0
 11
159.2244352415
 21
146.6324194434
 31
0.0
  0
LINE
  5
B9
330
1F
100
AcDbEntity
  8
0
  6
Continuous
 62
     7
370
    15
100
AcDbLine
 10
160.88250241
 20
140.6239136326
 30
0.0
 11
160.88250241
 21
146.6324194434
 31
0.0
  0
LINE
  5
BA
330
1F
100
AcDbEntity
  8
0
  6
Continuous
 62
     7
370
    15
100
AcDbLine
 10
158.4700555872
 20
140.6239136326
 30
0.0
 11
160.88250241
 21
140.6239136326
 31
0.0
  0
SPLINE
  5
BB
330
1F
100
AcDbEntity
  8
0
  6
Continuous
 62
     7
370
    15
100
AcDbSpline
210
0.0
220
0.0
230
1.0
 70
     8
 71
     3
 72
    20
 73
    16
 74
     0
 42
0.000000001
 43
0.00000001
 40
0.0
 40
0.0
 40
0.0
 40
0.0
 40
0.2499999999999995
 40
0.2499999999999995
 40
0.3749999999999996
 40
0.3749999999999996
 40
0.4999999999999997
 40
0.4999999999999997
 40
0.6249999999999998
 40
0.6249999999999998
 40
0.7499999999999998
 40
0.7499999999999998
 40
0.8749999999999999
 40
0.8749999999999999
 40
1.0
 40
1.0
 40
1.0
 40
1.0
 10
151.2244352415027
 20
136.0152239702806
 30
0.0
 10
151.4728089757907
 20
136.669086398578
 30
0.0
 10
151.792379068136
 20
137.2728721805751
 30
0.0
 10
152.4146853013407
 20
138.0997109167437
 30
0.0
 10
152.6461095617714
 20
138.3621395546967
 30
0.0
 10
153.1673239014212
 20
138.8588022088016
 30
0.0
 10
153.4539443840562
 20
139.0893890878232
 30
0.0
 10
154.0734291253638
 20
139.5059433124057
 30
0.0
 10
154.4077295048508
 20
139.6934411143733
 30
0.0
 10
155.1329899774756
 20
140.0248380920097
 30
0.0
 10
155.5149050348661
 20
140.164342079505
 30
0.0
 10
156.3096932110377
 20
140.3897955869759
 30
0.0
 10
156.7238514052441
 20
140.4764216985195
 30
0.0
 10
157.5893977458255
 20
140.5944024873737
 30
0.0
 10
158.0272853608373
 20
140.623913632648
 30
0.0
 10
158.470055587192
 20
140.623913632648
 30
0.0
  0
LINE
  5
BC
330
1F
100
AcDbEntity
  8
0
  6
Continuous
 62
     7
370
    15
100
AcDbLine
 10
172.2244352415
 20
86.6049465697
 30
0.0
 11
172.2244352415
 21
136.0152239703
 31
0.0
  0
SPLINE
  5
BD
330
1F
100
AcDbEntity
  8
0
  6
Continuous
 62
     7
370
    15
100
AcDbSpline
210
0.0
220
0.0
230
1.0
 70
     8
 71
     3
 72
    10
 73
     6
 74
     0
 42
0.000000001
 43
0.00000001
 40
0.0
 40
0.0
 40
0.0
 40
0.0
 40
0.5
 40
0.5
 40
1.0
 40
1.0
 40
1.0
 40
1.0
 10
172.2244352415026
 20
86.60494656968771
 30
0.0
 10
172.2244352415026
 20
86.44505930149406
 30
0.0
 10
172.1631255902668
 20
86.28393204597945
 30
0.0
 10
171.9440259527317
 20
86.04983304762462
 30
0.0
 10
171.7859777464183
 20
85.9783062740334
 30
0.0
 10
171.6244352415027
 20
85.9783062740334
 30
0.0
  0
SPLINE
  5
BE
330
1F
100
AcDbEntity
  8
0
  6
Continuous
 62
     7
370
    15
100
AcDbSpline
210
0.0
220
0.0
230
1.0
 70
    24
 71
     3
 72
    12
 73
     8
 74
     0
 42
0.000000001
 43
0.00000001
 40
0.0
 40
0.0
 40
0.0
 40
0.0
 40
0.250000000000002
 40
0.250000000000002
 40
0.500000000000004
 40
0.500000000000004
 40
1.0
 40
1.0
 40
1.0
 40
1.0
 10
171.6244352415027
 20
136.0152239702806
 30
0.0
 10
171.7146743091897
 20
136.0152239702806
 30
0.0
 10
171.8055724232962
 20
136.0152239702806
 30
0.0
 10
171.9601694597847
 20
136.0152239702806
 30
0.0
 10
172.0251478758929
 20
136.0152239702806
 30
0.0
 10
172.1769829038291
 20
136.0152239702806
 30
0.0
 10
172.2244352415026
 20
136.0152239702806
 30
0.0
 10
172.2244352415026
 20
136.0152239702806
 30
0.0
  0
SPLINE
  5
BF
330
1F
100
AcDbEntity
  8
0
  6
Continuous
 62
     7
370
    15
100
AcDbSpline
210
0.0
220
0.0
230
1.0
 70
     8
 71
     3
 72
    10
 73
     6
 74
     0
 42
0.000000001
 43
0.00000001
 40
0.0
 40
0.0
 40
0.0
 40
0.0
 40
0.5
 40
0.5
 40
1.0
 40
1.0
 40
1.0
 40
1.0
 10
162.7587327731936
 20
142.5652239702806
 30
0.0
 10
162.6371925095251
 20
142.6399501374923
 30
0.0
 10
162.5358581491762
 20
142.7488951534091
 30
0.0
 10
162.4002192062877
 20
142.9993256341707
 30
0.0
 10
162.3644352415027
 20
143.1417449962696
 30
0.0
 10
162.3644352415027
 20
143.2848778213163
 30
0.0
  0
SPLINE
  5
C0
330
1F
100
AcDbEntity
  8
0
  6
Continuous
 62
     7
370
    15
100
AcDbSpline
210
0.0
220
0.0
230
1.0
 70
    24
 71
     3
 72
    12
 73
     8
 74
     0
 42
0.000000001
 43
0.00000001
 40
0.0
 40
0.0
 40
0.0
 40
0.0
 40
0.2499999999999992
 40
0.2499999999999992
 40
0.4999999999999983
 40
0.4999999999999983
 40
1.0
 40
1.0
 40
1.0
 40
1.0
 10
163.1644352415027
 20
142.5652239702806
 30
0.0
 10
163.1145585591854
 20
142.5652239702806
 30
0.0
 10
163.0665553657816
 20
142.5652239702805
 30
0.0
 10
162.9835072630696
 20
142.5652239702806
 30
0.0
 10
162.9473776836018
 20
142.5652239702806
 30
0.0
 10
162.8514656526576
 20
142.5652239702806
 30
0.0
 10
162.8017069846888
 20
142.5652239702806
 30
0.0
 10
162.7587327731936
 20
142.5652239702806
 30
0.0
  0
SPLINE
  5
C1
330
1F
100
AcDbEntity
  8
0
  6
Continuous
 62
     7
370
    15
100
AcDbSpline
210
0.0
220
0.0
230
1.0
 70
    24
 71
     3
 72
    14
 73
    10
 74
     0
 42
0.000000001
 43
0.00000001
 40
0.0
 40
0.0
 40
0.0
 40
0.0
 40
0.1250000000000012
 40
0.1250000000000012
 40
0.2500000000000024
 40
0.2500000000000024
 40
0.5000000000000013
 40
0.5000000000000013
 40
1.0
 40
1.0
 40
1.0
 40
1.0
 10
163.1644352415026
 20
89.76522397028056
 30
0.0
 10
163.0959973936162
 20
89.76522397028056
 30
0.0
 10
163.0304473548512
 20
89.76522397028056
 30
0.0
 10
162.9260207154432
 20
89.76522397028057
 30
0.0
 10
162.8834761056818
 20
89.76522397028056
 30
0.0
 10
162.7708666451415
 20
89.76522397028056
 30
0.0
 10
162.7153275981221
 20
89.76522397028056
 30
0.0
 10
162.5727159026583
 20
89.76522397028056
 30
0.0
 10
162.5093105476625
 20
89.76522397028056
 30
0.0
 10
162.462110043835
 20
89.76522397028056
 30
0.0
  0
SPLINE
  5
C2
330
1F
100
AcDbEntity
  8
0
  6
Continuous
 62
     7
370
    15
100
AcDbSpline
210
0.0
220
0.0
230
1.0
 70
     8
 71
     3
 72
    10
 73
     6
 74
     0
 42
0.000000001
 43
0.00000001
 40
0.0
 40
0.0
 40
0.0
 40
0.0
 40
0.5
 40
0.5
 40
1.0
 40
1.0
 40
1.0
 40
1.0
 10
162.3644352415027
 20
136.3010906017419
 30
0.0
 10
162.3644352415027
 20
136.2533190937486
 30
0.0
 10
162.3665964850998
 20
136.205609371687
 30
0.0
 10
162.37526785896
 20
136.1103142541387
 30
0.0
 10
162.381797041916
 20
136.0626216901721
 30
0.0
 10
162.3905828646628
 20
136.0152239702806
 30
0.0
  0
SPLINE
  5
C3
330
1F
100
AcDbEntity
  8
0
  6
Continuous
 62
     7
370
    15
100
AcDbSpline
210
0.0
220
0.0
230
1.0
 70
    24
 71
     3
 72
    14
 73
    10
 74
     0
 42
0.000000001
 43
0.00000001
 40
0.0
 40
0.0
 40
0.0
 40
0.0
 40
0.4999999999999984
 40
0.4999999999999984
 40
0.7499999999999992
 40
0.7499999999999992
 40
0.8749999999999996
 40
0.8749999999999996
 40
1.0
 40
1.0
 40
1.0
 40
1.0
 10
166.0867604391704
 20
89.76522397028056
 30
0.0
 10
166.0399757341222
 20
89.76522397028057
 30
0.0
 10
165.9779245373425
 20
89.76522397028057
 30
0.0
 10
165.8345328987919
 20
89.76522397028056
 30
0.0
 10
165.7783892452408
 20
89.76522397028056
 30
0.0
 10
165.6654382231046
 20
89.76522397028057
 30
0.0
 10
165.6224374610665
 20
89.76522397028057
 30
0.0
 10
165.51837475076
 20
89.76522397028056
 30
0.0
 10
165.4530425124031
 20
89.76522397028059
 30
0.0
 10
165.3844352415026
 20
89.76522397028056
 30
0.0
  0
SPLINE
  5
C4
330
1F
100
AcDbEntity
  8
0
  6
Continuous
 62
     7
370
    15
100
AcDbSpline
210
0.0
220
0.0
230
1.0
 70
    24
 71
     3
 72
    12
 73
     8
 74
     0
 42
0.000000001
 43
0.00000001
 40
0.0
 40
0.0
 40
0.0
 40
0.0
 40
0.5000000000000017
 40
0.5000000000000017
 40
0.7500000000000008
 40
0.7500000000000008
 40
1.0
 40
1.0
 40
1.0
 40
1.0
 10
165.7901377098117
 20
142.5652239702806
 30
0.0
 10
165.7470521602008
 20
142.5652239702806
 30
0.0
 10
165.6978999584514
 20
142.5652239702806
 30
0.0
 10
165.6014273641635
 20
142.5652239702806
 30
0.0
 10
165.5653257790289
 20
142.5652239702806
 30
0.0
 10
165.4822200211677
 20
142.5652239702806
 30
0.0
 10
165.4342234242013
 20
142.5652239702806
 30
0.0
 10
165.3844352415027
 20
142.5652239702806
 30
0.0
  0
SPLINE
  5
C5
330
1F
100
AcDbEntity
  8
0
  6
Continuous
 62
     7
370
    15
100
AcDbSpline
210
0.0
220
0.0
230
1.0
 70
     8
 71
     3
 72
    10
 73
     6
 74
     0
 42
0.000000001
 43
0.00000001
 40
0.0
 40
0.0
 40
0.0
 40
0.0
 40
0.5
 40
0.5
 40
1.0
 40
1.0
 40
1.0
 40
1.0
 10
166.1844352415027
 20
143.2848778213163
 30
0.0
 10
166.1844352415027
 20
143.1411077634983
 30
0.0
 10
166.1483861827838
 20
142.9986884010032
 30
0.0
 10
166.0128773220098
 20
142.7487941076459
 30
0.0
 10
165.9130013289136
 20
142.6407637713978
 30
0.0
 10
165.7901377098117
 20
142.5652239702805
 30
0.0
  0
SPLINE
  5
C6
330
1F
100
AcDbEntity
  8
0
  6
Continuous
 62
     7
370
    15
100
AcDbSpline
210
0.0
220
0.0
230
1.0
 70
     8
 71
     3
 72
    10
 73
     6
 74
     0
 42
0.000000001
 43
0.00000001
 40
0.0
 40
0.0
 40
0.0
 40
0.0
 40
0.5
 40
0.5
 40
1.0
 40
1.0
 40
1.0
 40
1.0
 10
166.1582876183425
 20
136.0152239702806
 30
0.0
 10
166.1669772612542
 20
136.0621028195987
 30
0.0
 10
166.1735163260047
 20
136.109525285
 30
0.0
 10
166.1822749603977
 20
136.2054620835867
 30
0.0
 10
166.1844352415027
 20
136.2533773715972
 30
0.0
 10
166.1844352415027
 20
136.3010906017417
 30
0.0
  0
LINE
  5
C7
330
1F
100
AcDbEntity
  8
0
  6
Continuous
 62
     7
370
    15
100
AcDbLine
 10
165.3844352415
 20
142.5652239703
 30
0.0
 11
163.1644352415
 21
142.5652239703
 31
0.0
  0
LINE
  5
C8
330
1F
100
AcDbEntity
  8
0
  6
Continuous
 62
     7
370
    15
100
AcDbLine
 10
165.3844352415
 20
89.7652239703
 30
0.0
 11
163.1644352415
 21
89.7652239703
 31
0.0
  0
LINE
  5
C9
330
1F
100
AcDbEntity
  8
0
  6
Continuous
 62
     7
370
    15
100
AcDbLine
 10
124.4744352415
 20
92.9367770765
 30
0.0
 11
124.4744352415
 21
94.2014864391
 31
0.0
  0
SPLINE
  5
CA
330
1F
100
AcDbEntity
  8
0
  6
Continuous
 62
     7
370
    15
100
AcDbSpline
210
0.0
220
0.0
230
1.0
 70
     8
 71
     3
 72
    14
 73
    10
 74
     0
 42
0.000000001
 43
0.00000001
 40
0.0
 40
0.0
 40
0.0
 40
0.0
 40
0.25
 40
0.25
 40
0.5
 40
0.5
 40
0.75
 40
0.75
 40
1.0
 40
1.0
 40
1.0
 40
1.0
 10
123.696148123587
 20
95.3320726467206
 30
0.0
 10
123.752774798789
 20
95.22437519288376
 30
0.0
 10
123.8472974590788
 20
95.12158561116443
 30
0.0
 10
124.030342434641
 20
94.92322829894428
 30
0.0
 10
124.1219690115957
 20
94.82716879026604
 30
0.0
 10
124.2808223292889
 20
94.63963974755679
 30
0.0
 10
124.3487129369106
 20
94.54823077477323
 30
0.0
 10
124.4456299626182
 20
94.36985455386308
 30
0.0
 10
124.4744352415033
 20
94.28263264761691
 30
0.0
 10
124.4744352415032
 20
94.20148643908266
 30
0.0
  0
SPLINE
  5
CB
330
1F
100
AcDbEntity
  8
0
  6
Continuous
 62
     7
370
    15
100
AcDbSpline
210
0.0
220
0.0
230
1.0
 70
     8
 71
     3
 72
    14
 73
    10
 74
     0
 42
0.000000001
 43
0.00000001
 40
0.0
 40
0.0
 40
0.0
 40
0.0
 40
0.1249999999999976
 40
0.1249999999999976
 40
0.2499999999999952
 40
0.2499999999999952
 40
0.4999999999999968
 40
0.4999999999999968
 40
1.0
 40
1.0
 40
1.0
 40
1.0
 10
123.0744352415027
 20
95.77875450899992
 30
0.0
 10
123.1229796501598
 20
95.78450282228022
 30
0.0
 10
123.1758950049447
 20
95.78140193362397
 30
0.0
 10
123.2711903499278
 20
95.75920708946165
 30
0.0
 10
123.3114413472127
 20
95.7419748623658
 30
0.0
 10
123.4157113607257
 20
95.68564694591373
 30
0.0
 10
123.466033335879
 20
95.64146059996793
 30
0.0
 10
123.5937162834044
 20
95.5104527011173
 30
0.0
 10
123.6498017304667
 20
95.42021818088703
 30
0.0
 10
123.6961481235884
 20
95.33207264672114
 30
0.0
  0
SPLINE
  5
CC
330
1F
100
AcDbEntity
  8
0
  6
Continuous
 62
     7
370
    15
100
AcDbSpline
210
0.0
220
0.0
230
1.0
 70
     8
 71
     3
 72
     8
 73
     4
 74
     0
 42
0.000000001
 43
0.00000001
 40
0.0
 40
0.0
 40
0.0
 40
0.0
 40
1.0
 40
1.0
 40
1.0
 40
1.0
 10
120.8059101485565
 20
95.46890922241714
 30
0.0
 10
121.5404871750394
 20
95.5875342334861
 30
0.0
 10
122.3039622444351
 20
95.68752010562238
 30
0.0
 10
123.0744352415027
 20
95.77875450899994
 30
0.0
  0
SPLINE
  5
CD
330
1F
100
AcDbEntity
  8
0
  6
Continuous
 62
     7
370
    15
100
AcDbSpline
210
0.0
220
0.0
230
1.0
 70
     8
 71
     3
 72
    14
 73
    10
 74
     0
 42
0.000000001
 43
0.00000001
 40
0.0
 40
0.0
 40
0.0
 40
0.0
 40
0.5000000000000009
 40
0.5000000000000009
 40
0.7500000000000004
 40
0.7500000000000004
 40
0.8750000000000002
 40
0.8750000000000002
 40
1.0
 40
1.0
 40
1.0
 40
1.0
 10
115.5244352415027
 20
95.29528620488549
 30
0.0
 10
116.4165813720563
 20
95.29456397868483
 30
0.0
 10
117.3065578078498
 20
95.29915018514231
 30
0.0
 10
118.6331529749255
 20
95.32687518953384
 30
0.0
 10
119.0739999034242
 20
95.33948172715802
 30
0.0
 10
119.7304401408466
 20
95.37049787516547
 30
0.0
 10
119.9484537974385
 20
95.38284104779224
 30
0.0
 10
120.3811626511213
 20
95.41586510295552
 30
0.0
 10
120.5964391162861
 20
95.43508226809394
 30
0.0
 10
120.8059101485565
 20
95.46890922241712
 30
0.0
  0
SPLINE
  5
CE
330
1F
100
AcDbEntity
  8
0
  6
Continuous
 62
     7
370
    15
100
AcDbSpline
210
0.0
220
0.0
230
1.0
 70
     8
 71
     3
 72
     8
 73
     4
 74
     0
 42
0.000000001
 43
0.00000001
 40
0.0000005163856998
 40
0.0000005163856998
 40
0.0000005163856998
 40
0.0000005163856998
 40
0.000026289209185
 40
0.000026289209185
 40
0.000026289209185
 40
0.000026289209185
 10
115.5143903110951
 20
95.30527007798227
 30
0.0
 10
115.5177180493029
 20
95.30193583111316
 30
0.0
 10
115.5210665022785
 20
95.29860787383784
 30
0.0
 10
115.5244352415027
 20
95.29528620488547
 30
0.0
  0
SPLINE
  5
CF
330
1F
100
AcDbEntity
  8
0
  6
Continuous
 62
     7
370
    15
100
AcDbSpline
210
0.0
220
0.0
230
1.0
 70
     8
 71
     3
 72
     8
 73
     4
 74
     0
 42
0.000000001
 43
0.00000001
 40
0.0000005099763573
 40
0.0000005099763573
 40
0.0000005099763573
 40
0.0000005099763573
 40
0.0000262827998699
 40
0.0000262827998699
 40
0.0000262827998699
 40
0.0000262827998699
 10
115.5244352415027
 20
137.0351617356756
 30
0.0
 10
115.5210665022749
 20
137.0318400667198
 30
0.0
 10
115.5177180492958
 20
137.0285121094409
 30
0.0
 10
115.5143903110844
 20
137.0251778625682
 30
0.0
  0
SPLINE
  5
D0
330
1F
100
AcDbEntity
  8
0
  6
Continuous
 62
     7
370
    15
100
AcDbSpline
210
0.0
220
0.0
230
1.0
 70
     8
 71
     3
 72
    10
 73
     6
 74
     0
 42
0.000000001
 43
0.00000001
 40
0.0
 40
0.0
 40
0.0
 40
0.0
 40
0.5
 40
0.5
 40
1.0
 40
1.0
 40
1.0
 40
1.0
 10
119.0744352415027
 20
136.9883113621083
 30
0.0
 10
118.4868496944121
 20
137.0093768823447
 30
0.0
 10
117.8961033009517
 20
137.020135368217
 30
0.0
 10
116.7120841356528
 20
137.0335001487526
 30
0.0
 10
116.1186701474474
 20
137.0356427914172
 30
0.0
 10
115.5244352415027
 20
137.0351617356756
 30
0.0
  0
SPLINE
  5
D1
330
1F
100
AcDbEntity
  8
0
  6
Continuous
 62
     7
370
    15
100
AcDbSpline
210
0.0
220
0.0
230
1.0
 70
     8
 71
     3
 72
    18
 73
    14
 74
     0
 42
0.000000001
 43
0.00000001
 40
0.0
 40
0.0
 40
0.0
 40
0.0
 40
0.2500000000000011
 40
0.2500000000000011
 40
0.5000000000000014
 40
0.5000000000000014
 40
0.7500000000000018
 40
0.7500000000000018
 40
0.8750000000000013
 40
0.8750000000000013
 40
0.9375000000000007
 40
0.9375000000000007
 40
1.0
 40
1.0
 40
1.0
 40
1.0
 10
120.4744352415027
 20
138.0093316426436
 30
0.0
 10
120.4744352415027
 20
137.9261247337863
 30
0.0
 10
120.4385861415644
 20
137.8373880784728
 30
0.0
 10
120.3137144055305
 20
137.6552628879126
 30
0.0
 10
120.2233139878826
 20
137.5601328392859
 30
0.0
 10
120.0010713331404
 20
137.3709513301616
 30
0.0
 10
119.8713065466947
 20
137.2760061620669
 30
0.0
 10
119.6306690893832
 20
137.137727454487
 30
0.0
 10
119.5429017912457
 20
137.0920170211846
 30
0.0
 10
119.3883777040389
 20
137.0341937159631
 30
0.0
 10
119.3317668179842
 20
137.0164789519253
 30
0.0
 10
119.2077227870776
 20
136.9919396486923
 30
0.0
 10
119.1400081120593
 20
136.9859605101541
 30
0.0
 10
119.0744352415027
 20
136.9883113621083
 30
0.0
  0
LINE
  5
D2
330
1F
100
AcDbEntity
  8
0
  6
Continuous
 62
     7
370
    15
100
AcDbLine
 10
120.4744352415
 20
138.0093316426
 30
0.0
 11
120.4744352415
 21
139.1932700625
 31
0.0
  0
LINE
  5
D3
330
1F
100
AcDbEntity
  8
0
  6
Continuous
 62
     7
370
    15
100
AcDbLine
 10
144.2744352415
 20
91.9447931086
 30
0.0
 11
144.2744352415
 21
140.385654832
 31
0.0
  0
SPLINE
  5
D4
330
1F
100
AcDbEntity
  8
0
  6
Continuous
 62
     7
370
    15
100
AcDbSpline
210
0.0
220
0.0
230
1.0
 70
     8
 71
     3
 72
    24
 73
    20
 74
     0
 42
0.000000001
 43
0.00000001
 40
0.0
 40
0.0
 40
0.0
 40
0.0
 40
0.0010489762969675
 40
0.0637843125639742
 40
0.1272220590447993
 40
0.1903788924486897
 40
0.2526748653693586
 40
0.3146354154430313
 40
0.3770891997149978
 40
0.4393540298511533
 40
0.5008133242537846
 40
0.5621845104596577
 40
0.6248438451115937
 40
0.6874304766626984
 40
0.7496743174679443
 40
0.8119848426976755
 40
0.8750960525413112
 40
0.9384412526963591
 40
1.0
 40
1.0
 40
1.0
 40
1.0
 10
133.0433410734784
 20
92.50771554170042
 30
0.0
 10
133.0428946133742
 20
92.50765725588151
 30
0.0
 10
133.0157470496802
 20
92.50411311393903
 30
0.0
 10
133.1113588272929
 20
92.51694685862181
 30
0.0
 10
133.3449190851884
 20
92.54619354382193
 30
0.0
 10
133.7404733925067
 20
92.59280786688464
 30
0.0
 10
134.2675136963449
 20
92.64299100854413
 30
0.0
 10
134.9110441083328
 20
92.68736747099449
 30
0.0
 10
135.6497179635774
 20
92.71431225193203
 30
0.0
 10
136.4472324690093
 20
92.71778410263818
 30
0.0
 10
137.2738113514555
 20
92.69015685860806
 30
0.0
 10
138.0993343690641
 20
92.63167796963542
 30
0.0
 10
138.8914609170682
 20
92.54623294027405
 30
0.0
 10
139.6240331910676
 20
92.44449870043779
 30
0.0
 10
140.2596734277975
 20
92.33665557846538
 30
0.0
 10
140.7815845348024
 20
92.2350254217267
 30
0.0
 10
141.1632133119188
 20
92.15254026504857
 30
0.0
 10
141.4140277821533
 20
92.09639105869887
 30
0.0
 10
141.4431493381373
 20
92.08954160008511
 30
0.0
 10
141.4575018589534
 20
92.08616585335693
 30
0.0
  0
SPLINE
  5
D5
330
1F
100
AcDbEntity
  8
0
  6
Continuous
 62
     7
370
    15
100
AcDbSpline
210
0.0
220
0.0
230
1.0
 70
     8
 71
     3
 72
    24
 73
    20
 74
     0
 42
0.000000001
 43
0.00000001
 40
0.0
 40
0.0
 40
0.0
 40
0.0
 40
0.0614384276251206
 40
0.1250736755369695
 40
0.188425349072922
 40
0.2508623904037455
 40
0.3129665632511837
 40
0.3753451453465246
 40
0.4377328972326386
 40
0.4990927322917316
 40
0.560580758844746
 40
0.6229469893028882
 40
0.6854686282026691
 40
0.7475477813740279
 40
0.8098225060804654
 40
0.8730684085990404
 40
0.9364041844528526
 40
0.9991757196257861
 40
1.0
 40
1.0
 40
1.0
 40
1.0
 10
141.4574470881504
 20
140.244252944738
 30
0.0
 10
141.4428463638469
 20
140.2408848878853
 30
0.0
 10
141.4131228451187
 20
140.2340283444115
 30
0.0
 10
141.1603850294703
 20
140.1776897238856
 30
0.0
 10
140.7773891130206
 20
140.0948326417556
 30
0.0
 10
140.2550335285834
 20
139.9929256118044
 30
0.0
 10
139.6202490505838
 20
139.8850864727604
 30
0.0
 10
138.8900254464103
 20
139.7836195207853
 30
0.0
 10
138.0995568611764
 20
139.6985598070947
 30
0.0
 10
137.2750733463483
 20
139.6403555132083
 30
0.0
 10
136.4480368874655
 20
139.6127720743818
 30
0.0
 10
135.6497126198136
 20
139.6162650518745
 30
0.0
 10
134.9098886555239
 20
139.6432209717276
 30
0.0
 10
134.2656344225492
 20
139.6875749137269
 30
0.0
 10
133.7382271673347
 20
139.7377803634849
 30
0.0
 10
133.343562565184
 20
139.7843902186829
 30
0.0
 10
133.1110332859979
 20
139.8135858112305
 30
0.0
 10
133.0156532534454
 20
139.8263638801721
 30
0.0
 10
133.0425868903473
 20
139.822809621664
 30
0.0
 10
133.0429359835716
 20
139.8227635540806
 30
0.0
  0
SPLINE
  5
D6
330
1F
100
AcDbEntity
  8
0
  6
Continuous
 62
     7
370
    15
100
AcDbSpline
210
0.0
220
0.0
230
1.0
 70
     8
 71
     3
 72
    10
 73
     6
 74
     0
 42
0.000000001
 43
0.00000001
 40
0.0
 40
0.0
 40
0.0
 40
0.0
 40
0.0840381716606348
 40
0.7011125076933074
 40
1.0
 40
1.0
 40
1.0
 40
1.0
 10
114.3879822040383
 20
96.43645006259723
 30
0.0
 10
114.3886567613732
 20
96.43424443576133
 30
0.0
 10
114.3942844490695
 20
96.41584336239912
 30
0.0
 10
114.4206059291963
 20
96.43007792512229
 30
0.0
 10
114.433040946041
 20
96.47576370067327
 30
0.0
 10
114.4370986162261
 20
96.49067142549983
 30
0.0
  0
LINE
  5
D7
330
1F
100
AcDbEntity
  8
0
  6
Continuous
 62
     7
370
    15
100
AcDbLine
 10
114.3744352415
 20
96.4745462238
 30
0.0
 11
114.3744352415
 21
135.8559017168
 31
0.0
  0
SPLINE
  5
D8
330
1F
100
AcDbEntity
  8
0
  6
Continuous
 62
     7
370
    15
100
AcDbSpline
210
0.0
220
0.0
230
1.0
 70
     8
 71
     3
 72
     9
 73
     5
 74
     0
 42
0.000000001
 43
0.00000001
 40
0.0
 40
0.0
 40
0.0
 40
0.0
 40
0.8063521891319351
 40
1.0
 40
1.0
 40
1.0
 40
1.0
 10
114.4370986162261
 20
135.8397765150613
 30
0.0
 10
114.420913756129
 20
135.8761049465815
 30
0.0
 10
114.4008420550594
 20
135.9211577560236
 30
0.0
 10
114.3916068219158
 20
135.8947551300297
 30
0.0
 10
114.3898184392347
 20
135.8896423193048
 30
0.0
  0
SPLINE
  5
D9
330
1F
100
AcDbEntity
  8
0
  6
Continuous
 62
     7
370
    15
100
AcDbSpline
210
0.0
220
0.0
230
1.0
 70
     8
 71
     3
 72
    26
 73
    22
 74
     0
 42
0.000000001
 43
0.00000001
 40
0.0
 40
0.0
 40
0.0
 40
0.0
 40
0.2500000000000165
 40
0.2500000000000165
 40
0.3750000000000256
 40
0.3750000000000256
 40
0.4375000000000291
 40
0.4375000000000291
 40
0.4687500000000291
 40
0.4687500000000291
 40
0.5000000000000292
 40
0.5000000000000292
 40
0.5312500000000293
 40
0.5312500000000293
 40
0.5625000000000293
 40
0.5625000000000293
 40
0.625000000000026
 40
0.625000000000026
 40
0.7500000000000173
 40
0.7500000000000173
 40
1.0
 40
1.0
 40
1.0
 40
1.0
 10
115.1985888876072
 20
136.5553433038784
 30
0.0
 10
115.1599883647387
 20
136.437568607523
 30
0.0
 10
115.1136913621845
 20
136.313178921361
 30
0.0
 10
115.0197520137505
 20
136.1079595890075
 30
0.0
 10
114.9844405468371
 20
136.0363867225611
 30
0.0
 10
114.9182605710914
 20
135.9204334899606
 30
0.0
 10
114.8937222044232
 20
135.8798489551504
 30
0.0
 10
114.8503494588694
 20
135.8157072732787
 30
0.0
 10
114.8348410574442
 20
135.7938408479936
 30
0.0
 10
114.7997984128571
 20
135.7482465796504
 30
0.0
 10
114.7802481221374
 20
135.724576288683
 30
0.0
 10
114.7383208417668
 20
135.6799597293431
 30
0.0
 10
114.7156687315351
 20
135.6590797168251
 30
0.0
 10
114.6746950174485
 20
135.6282063030743
 30
0.0
 10
114.6570957175531
 20
135.6183674332419
 30
0.0
 10
114.6124687316969
 20
135.5993778175458
 30
0.0
 10
114.5919095090436
 20
135.5990534928923
 30
0.0
 10
114.5407840695469
 20
135.6082769337685
 30
0.0
 10
114.5198726565584
 20
135.6295238299855
 30
0.0
 10
114.4684227489975
 20
135.7034927088163
 30
0.0
 10
114.4507574496929
 20
135.769610802131
 30
0.0
 10
114.4370986162261
 20
135.8397765150613
 30
0.0
  0
SPLINE
  5
DA
330
1F
100
AcDbEntity
  8
0
  6
Continuous
 62
     7
370
    15
100
AcDbSpline
210
0.0
220
0.0
230
1.0
 70
     8
 71
     3
 72
    10
 73
     6
 74
     0
 42
0.000000001
 43
0.00000001
 40
0.0
 40
0.0
 40
0.0
 40
0.0
 40
0.5
 40
0.5
 40
1.0
 40
1.0
 40
1.0
 40
1.0
 10
115.5143903110845
 20
137.0251778625682
 30
0.0
 10
115.4468310561662
 20
136.9574864697584
 30
0.0
 10
115.3831944008297
 20
136.8827793050048
 30
0.0
 10
115.2729736462579
 20
136.7238131725782
 30
0.0
 10
115.2261573530352
 20
136.6394579065702
 30
0.0
 10
115.1985888876072
 20
136.5553433038784
 30
0.0
  0
SPLINE
  5
DB
330
1F
100
AcDbEntity
  8
0
  6
Continuous
 62
     7
370
    15
100
AcDbSpline
210
0.0
220
0.0
230
1.0
 70
     8
 71
     3
 72
    10
 73
     6
 74
     0
 42
0.000000001
 43
0.00000001
 40
0.0
 40
0.0
 40
0.0
 40
0.0
 40
0.5
 40
0.5
 40
1.0
 40
1.0
 40
1.0
 40
1.0
 10
115.1985888876072
 20
95.7751046366826
 30
0.0
 10
115.2260663023612
 20
95.6912678402147
 30
0.0
 10
115.2727749326506
 20
95.60695735262556
 30
0.0
 10
115.3830533953966
 20
95.44783612213887
 30
0.0
 10
115.4469409340105
 20
95.3728513780492
 30
0.0
 10
115.5143903110951
 20
95.30527007798227
 30
0.0
  0
SPLINE
  5
DC
330
1F
100
AcDbEntity
  8
0
  6
Continuous
 62
     7
370
    15
100
AcDbSpline
210
0.0
220
0.0
230
1.0
 70
     8
 71
     3
 72
    24
 73
    20
 74
     0
 42
0.000000001
 43
0.00000001
 40
0.0
 40
0.0
 40
0.0
 40
0.0
 40
0.249999999999999
 40
0.249999999999999
 40
0.3749999999999983
 40
0.3749999999999983
 40
0.4374999999999987
 40
0.4374999999999987
 40
0.4687499999999975
 40
0.4687499999999975
 40
0.4999999999999963
 40
0.4999999999999963
 40
0.5624999999999984
 40
0.5624999999999984
 40
0.6250000000000006
 40
0.6250000000000006
 40
0.7500000000000001
 40
0.7500000000000001
 40
1.0
 40
1.0
 40
1.0
 40
1.0
 10
114.4370986162261
 20
96.49067142549983
 30
0.0
 10
114.4508517348963
 20
96.56132148349012
 30
0.0
 10
114.4686243023022
 20
96.62791959625503
 30
0.0
 10
114.5208753938575
 20
96.70201761648823
 30
0.0
 10
114.5419104694391
 20
96.7232754236498
 30
0.0
 10
114.5948108770675
 20
96.73142134979604
 30
0.0
 10
114.6159165499454
 20
96.73048154640026
 30
0.0
 10
114.6619687186234
 20
96.7094655548229
 30
0.0
 10
114.6803391906068
 20
96.6985567487153
 30
0.0
 10
114.7218908256725
 20
96.66592183776793
 30
0.0
 10
114.7444574984294
 20
96.64442985739655
 30
0.0
 10
114.8072385148894
 20
96.57596391381024
 30
0.0
 10
114.8403682758573
 20
96.52988945560514
 30
0.0
 10
114.8972859623424
 20
96.44488156727047
 30
0.0
 10
114.9214719878461
 20
96.4046012660891
 30
0.0
 10
114.9866799382259
 20
96.28966503962316
 30
0.0
 10
115.0213959984171
 20
96.21908205447615
 30
0.0
 10
115.114611268748
 20
96.01487629539756
 30
0.0
 10
115.1602838041087
 20
95.89197791307019
 30
0.0
 10
115.1985888876072
 20
95.77510463668263
 30
0.0
  0
SPLINE
  5
DD
330
1F
100
AcDbEntity
  8
0
  6
Continuous
 62
     7
370
    15
100
AcDbSpline
210
0.0
220
0.0
230
1.0
 70
     8
 71
     3
 72
    10
 73
     6
 74
     0
 42
0.000000001
 43
0.00000001
 40
0.0
 40
0.0
 40
0.0
 40
0.0
 40
0.5
 40
0.5
 40
1.0
 40
1.0
 40
1.0
 40
1.0
 10
172.2244352415026
 20
146.0116642940445
 30
0.0
 10
172.2244352415026
 20
146.1720695603953
 30
0.0
 10
172.1621974103958
 20
146.3311313733839
 30
0.0
 10
171.9430624866532
 20
146.5620438390142
 30
0.0
 10
171.7854737916614
 20
146.6324194434448
 30
0.0
 10
171.6244352415027
 20
146.6324194434448
 30
0.0
  0
SPLINE
  5
DE
330
1F
100
AcDbEntity
  8
0
  6
Continuous
 62
     7
370
    15
100
AcDbSpline
210
0.0
220
0.0
230
1.0
 70
     8
 71
     3
 72
    12
 73
     8
 74
     0
 42
0.000000001
 43
0.00000001
 40
0.0
 40
0.0
 40
0.0
 40
0.0
 40
0.250000000000002
 40
0.250000000000002
 40
0.500000000000004
 40
0.500000000000004
 40
1.0
 40
1.0
 40
1.0
 40
1.0
 10
171.6244352415027
 20
140.623913632648
 30
0.0
 10
171.7156349633283
 20
140.623913632648
 30
0.0
 10
171.8062299724644
 20
140.5956939340601
 30
0.0
 10
171.959642698911
 20
140.501250926812
 30
0.0
 10
172.0248515662347
 20
140.4349639501067
 30
0.0
 10
172.1776360955746
 20
140.2093391268184
 30
0.0
 10
172.2244352415026
 20
140.0269128637858
 30
0.0
 10
172.2244352415026
 20
139.8461762315389
 30
0.0
  0
LINE
  5
DF
330
1F
100
AcDbEntity
  8
0
  6
Continuous
 62
     7
370
    15
100
AcDbLine
 10
172.2244352415
 20
139.8461762315
 30
0.0
 11
172.2244352415
 21
146.011664294
 31
0.0
  0
SPLINE
  5
E0
330
1F
100
AcDbEntity
  8
0
  6
Continuous
 62
     7
370
    15
100
AcDbSpline
210
0.0
220
0.0
230
1.0
 70
     8
 71
     3
 72
     8
 73
     4
 74
     0
 42
0.000000001
 43
0.00000001
 40
0.0
 40
0.0
 40
0.0
 40
0.0
 40
1.0
 40
1.0
 40
1.0
 40
1.0
 10
160.8825024100136
 20
140.623913632648
 30
0.0
 10
161.3895892517729
 20
139.4927632784843
 30
0.0
 10
161.8851570909128
 20
138.3563788677165
 30
0.0
 10
162.3644352415027
 20
137.2153676378639
 30
0.0
  0
LINE
  5
E1
330
1F
100
AcDbEntity
  8
0
  6
Continuous
 62
     7
370
    15
100
AcDbLine
 10
162.3644352415
 20
137.2153676379
 30
0.0
 11
162.3644352415
 21
136.3010906017
 31
0.0
  0
SPLINE
  5
E2
330
1F
100
AcDbEntity
  8
0
  6
Continuous
 62
     7
370
    15
100
AcDbSpline
210
0.0
220
0.0
230
1.0
 70
     8
 71
     3
 72
     8
 73
     4
 74
     0
 42
0.000000001
 43
0.00000001
 40
0.0
 40
0.0
 40
0.0
 40
0.0
 40
1.0
 40
1.0
 40
1.0
 40
1.0
 10
167.6663680729917
 20
146.6324194434448
 30
0.0
 10
167.1712280436274
 20
145.7457397952646
 30
0.0
 10
166.6771453383484
 20
144.8584771595786
 30
0.0
 10
166.1844352415027
 20
143.9704581614521
 30
0.0
  0
LINE
  5
E3
330
1F
100
AcDbEntity
  8
0
  6
Continuous
 62
     7
370
    15
100
AcDbLine
 10
167.666368073
 20
140.6239136326
 30
0.0
 11
167.666368073
 21
146.6324194434
 31
0.0
  0
SPLINE
  5
E4
330
1F
100
AcDbEntity
  8
0
  6
Continuous
 62
     7
370
    15
100
AcDbSpline
210
0.0
220
0.0
230
1.0
 70
     8
 71
     3
 72
     8
 73
     4
 74
     0
 42
0.000000001
 43
0.00000001
 40
0.0
 40
0.0
 40
0.0
 40
0.0
 40
1.0
 40
1.0
 40
1.0
 40
1.0
 10
166.1844352415027
 20
137.2153676378639
 30
0.0
 10
166.6637133920925
 20
138.3563788677165
 30
0.0
 10
167.1592812312325
 20
139.4927632784843
 30
0.0
 10
167.6663680729917
 20
140.623913632648
 30
0.0
  0
LINE
  5
E5
330
1F
100
AcDbEntity
  8
0
  6
Continuous
 62
     7
370
    15
100
AcDbLine
 10
166.1844352415
 20
137.2153676379
 30
0.0
 11
166.1844352415
 21
143.9704581615
 31
0.0
  0
LINE
  5
E6
330
1F
100
AcDbEntity
  8
0
  6
Continuous
 62
     7
370
    15
100
AcDbLine
 10
171.6244352415
 20
146.6324194434
 30
0.0
 11
167.666368073
 21
146.6324194434
 31
0.0
  0
LINE
  5
E7
330
1F
100
AcDbEntity
  8
0
  6
Continuous
 62
     7
370
    15
100
AcDbLine
 10
167.666368073
 20
140.6239136326
 30
0.0
 11
171.6244352415
 21
140.6239136326
 31
0.0
  0
SPLINE
  5
E8
330
1F
100
AcDbEntity
  8
0
  6
Continuous
 62
     7
370
    15
100
AcDbSpline
210
0.0
220
0.0
230
1.0
 70
     8
 71
     3
 72
     8
 73
     4
 74
     0
 42
0.000000001
 43
0.00000001
 40
0.0
 40
0.0
 40
0.0
 40
0.0
 40
1.0
 40
1.0
 40
1.0
 40
1.0
 10
162.3644352415027
 20
143.9704581614522
 30
0.0
 10
161.8717251446569
 20
144.8584771595786
 30
0.0
 10
161.377642439378
 20
145.7457397952646
 30
0.0
 10
160.8825024100136
 20
146.6324194434448
 30
0.0
  0
LINE
  5
E9
330
1F
100
AcDbEntity
  8
0
  6
Continuous
 62
     7
370
    15
100
AcDbLine
 10
162.3644352415
 20
137.2153676379
 30
0.0
 11
162.3644352415
 21
143.9704581615
 31
0.0
  0
LINE
  5
EA
330
1F
100
AcDbEntity
  8
0
  6
Continuous
 62
     7
370
    15
100
AcDbLine
 10
166.1844352415
 20
136.3010906017
 30
0.0
 11
166.1844352415
 21
137.2153676379
 31
0.0
  0
LINE
  5
EB
330
1F
100
AcDbEntity
  8
0
  6
Continuous
 62
     7
370
    15
100
AcDbLine
 10
172.2244352415
 20
139.8461762315
 30
0.0
 11
172.2244352415
 21
136.0152239703
 31
0.0
  0
SPLINE
  5
EC
330
1F
100
AcDbEntity
  8
0
  6
Continuous
 62
     7
370
    15
100
AcDbSpline
210
0.0
220
0.0
230
1.0
 70
    11
 71
     3
 72
    60
 73
    56
 74
     0
 42
0.000000001
 43
0.00000001
 40
0.0
 40
0.0
 40
0.0
 40
0.0
 40
0.0624999999999982
 40
0.0624999999999982
 40
0.0937499999999979
 40
0.0937499999999979
 40
0.1249999999999976
 40
0.1249999999999976
 40
0.1562499999999974
 40
0.1562499999999974
 40
0.1874999999999971
 40
0.1874999999999971
 40
0.2187499999999969
 40
0.2187499999999969
 40
0.2499999999999966
 40
0.2499999999999966
 40
0.2812499999999963
 40
0.2812499999999963
 40
0.3124999999999961
 40
0.3124999999999961
 40
0.3437499999999958
 40
0.3437499999999958
 40
0.3749999999999956
 40
0.3749999999999956
 40
0.4062499999999953
 40
0.4062499999999953
 40
0.4374999999999951
 40
0.4374999999999951
 40
0.4687499999999948
 40
0.4687499999999948
 40
0.4999999999999946
 40
0.4999999999999946
 40
0.5312499999999943
 40
0.5312499999999943
 40
0.562499999999994
 40
0.562499999999994
 40
0.624999999999995
 40
0.624999999999995
 40
0.6874999999999959
 40
0.6874999999999959
 40
0.7499999999999968
 40
0.7499999999999968
 40
0.7812499999999972
 40
0.7812499999999972
 40
0.8124999999999977
 40
0.8124999999999977
 40
0.8437499999999981
 40
0.8437499999999981
 40
0.8749999999999984
 40
0.8749999999999984
 40
0.9062499999999989
 40
0.9062499999999989
 40
0.9374999999999993
 40
0.9374999999999993
 40
1.0
 40
1.0
 40
1.0
 40
1.0
 10
181.5506143100772
 20
117.8296556902915
 30
0.0
 10
181.7931927700447
 20
118.0264838168049
 30
0.0
 10
182.0669246668323
 20
118.173314587415
 30
0.0
 10
182.5110831557115
 20
118.3206586341666
 30
0.0
 10
182.6617651128773
 20
118.3564438239618
 30
0.0
 10
182.9682019657834
 20
118.4024793767363
 30
0.0
 10
183.1254621769066
 20
118.4126333325371
 30
0.0
 10
183.4369984787145
 20
118.4062253457412
 30
0.0
 10
183.5909093621139
 20
118.3899837068434
 30
0.0
 10
183.8950597309736
 20
118.3316413294829
 30
0.0
 10
184.0467633978838
 20
118.2888929242604
 30
0.0
 10
184.3368663861884
 20
118.1789045884318
 30
0.0
 10
184.4756067539259
 20
118.1119384949011
 30
0.0
 10
184.7402574920748
 20
117.9533809839573
 30
0.0
 10
184.8673672805382
 20
117.8605449090211
 30
0.0
 10
185.0980410087558
 20
117.655224377029
 30
0.0
 10
185.2024652281986
 20
117.5426228970898
 30
0.0
 10
185.3881963569336
 20
117.2960942224936
 30
0.0
 10
185.4698502424741
 20
117.1606359171208
 30
0.0
 10
185.5993488727224
 20
116.8801545058057
 30
0.0
 10
185.6485158001207
 20
116.7338817291546
 30
0.0
 10
185.7131620723658
 20
116.4282142046805
 30
0.0
 10
185.7276298965297
 20
116.2712733962083
 30
0.0
 10
185.7200428648185
 20
115.961293698173
 30
0.0
 10
185.6977340267312
 20
115.8044094665016
 30
0.0
 10
185.618594106637
 20
115.5029567589456
 30
0.0
 10
185.5624125275533
 20
115.3583866380562
 30
0.0
 10
185.4181105717635
 20
115.0809989185912
 30
0.0
 10
185.3314085816829
 20
114.9513020334084
 30
0.0
 10
185.1343742676872
 20
114.712563257043
 30
0.0
 10
185.022382376327
 20
114.6019383374336
 30
0.0
 10
184.7821733457386
 20
114.4061865680004
 30
0.0
 10
184.6536484684094
 20
114.320266474396
 30
0.0
 10
184.3802723938574
 20
114.1713027982842
 30
0.0
 10
184.2363216751285
 20
114.1090577864437
 30
0.0
 10
183.795674548887
 20
113.9621867790119
 30
0.0
 10
183.4808218540006
 20
113.9149536128314
 30
0.0
 10
182.8611359369244
 20
113.9269502799832
 30
0.0
 10
182.5483411856683
 20
113.9864308726246
 30
0.0
 10
181.9705505144467
 20
114.2048576557657
 30
0.0
 10
181.6975542659402
 20
114.3669250870616
 30
0.0
 10
181.352551418137
 20
114.6735332990791
 30
0.0
 10
181.2459638501177
 20
114.788208124958
 30
0.0
 10
181.0589719524502
 20
115.0368182345061
 30
0.0
 10
180.9795436631467
 20
115.1688703062564
 30
0.0
 10
180.8499222986162
 20
115.4492349822064
 30
0.0
 10
180.7994566943263
 20
115.5998427628327
 30
0.0
 10
180.7355172067498
 20
115.9041238257283
 30
0.0
 10
180.7211485751076
 20
116.0584738537502
 30
0.0
 10
180.7289669864469
 20
116.371771007674
 30
0.0
 10
180.7514826260328
 20
116.5277312030505
 30
0.0
 10
180.8305682391239
 20
116.8282257548602
 30
0.0
 10
180.8881854080881
 20
116.9758950420741
 30
0.0
 10
181.1040439215772
 20
117.3892781101232
 30
0.0
 10
181.3080358501097
 20
117.6328275637781
 30
0.0
 10
181.5506143100772
 20
117.8296556902915
 30
0.0
  0
LINE
  5
ED
330
1F
100
AcDbEntity
  8
0
  6
Continuous
 62
     7
370
    15
100
AcDbLine
 10
188.2744352415
 20
116.1652239703
 30
0.0
 11
188.2744352415
 21
106.3652239703
 31
0.0
  0
LINE
  5
EE
330
1F
100
AcDbEntity
  8
0
  6
Continuous
 62
     7
370
    15
100
AcDbLine
 10
188.2744352415
 20
125.9652239703
 30
0.0
 11
188.2744352415
 21
116.1652239703
 31
0.0
  0
LINE
  5
EF
330
1F
100
AcDbEntity
  8
0
  6
Continuous
 62
     7
370
    15
100
AcDbLine
 10
188.0744352415
 20
116.1652239703
 30
0.0
 11
188.0744352415
 21
106.1652239703
 31
0.0
  0
LINE
  5
F0
330
1F
100
AcDbEntity
  8
0
  6
Continuous
 62
     7
370
    15
100
AcDbLine
 10
188.0744352415
 20
126.1652239703
 30
0.0
 11
188.0744352415
 21
116.1652239703
 31
0.0
  0
CIRCLE
  5
F1
330
1F
100
AcDbEntity
  8
0
  6
HIDDEN
 62
     7
370
     0
100
AcDbCircle
 10
183.2244352415
 20
116.1652239703
 30
0.0
 40
1.426794919243112
  0
CIRCLE
  5
F2
330
1F
100
AcDbEntity
  8
0
  6
HIDDEN
 62
     7
370
     0
100
AcDbCircle
 10
183.2244352415
 20
116.1652239703
 30
0.0
 40
1.326794919243107
  0
LINE
  5
F3
330
1F
100
AcDbEntity
  8
0
  6
HIDDEN
 62
     7
370
     0
100
AcDbLine
 10
160.88250241
 20
140.6239136326
 30
0.0
 11
160.88250241
 21
136.0152239703
 31
0.0
  0
LINE
  5
F4
330
1F
100
AcDbEntity
  8
0
  6
HIDDEN
 62
     7
370
     0
100
AcDbLine
 10
134.2695854461
 20
92.6406243475
 30
0.0
 11
134.0179278518
 21
92.617102726
 31
0.0
  0
SPLINE
  5
F5
330
1F
100
AcDbEntity
  8
0
  6
HIDDEN
 62
     7
370
     0
100
AcDbSpline
210
0.0
220
0.0
230
1.0
 70
     8
 71
     3
 72
    22
 73
    18
 74
     0
 42
0.000000001
 43
0.00000001
 40
0.0
 40
0.0
 40
0.0
 40
0.0
 40
0.0694705033055671
 40
0.1409377255045836
 40
0.2104135489148412
 40
0.281946622355993
 40
0.3506518733998515
 40
0.4213897814436845
 40
0.4894670043894701
 40
0.5594810940348496
 40
0.6282706827033768
 40
0.6989997382187428
 40
0.7687375408512301
 40
0.8405098102584778
 40
0.9099666189318144
 40
0.9814998892127906
 40
1.0
 40
1.0
 40
1.0
 40
1.0
 10
140.0294372431043
 20
96.3276954944641
 30
0.0
 10
139.8812633886449
 20
96.34742183427342
 30
0.0
 10
139.5806568717338
 20
96.38744148769419
 30
0.0
 10
139.045762009053
 20
96.44281515122407
 30
0.0
 10
138.4601234563843
 20
96.48727153635187
 30
0.0
 10
137.8458907968109
 20
96.51495651180403
 30
0.0
 10
137.2119741514427
 20
96.5232097652739
 30
0.0
 10
136.5898254508709
 20
96.51122971039342
 30
0.0
 10
135.9838279810102
 20
96.48047895663245
 30
0.0
 10
135.4193390598837
 20
96.43501298588225
 30
0.0
 10
134.8999628223021
 20
96.37893183408266
 30
0.0
 10
134.4470973246206
 20
96.31894167176426
 30
0.0
 10
134.0683821809549
 20
96.26096175740534
 30
0.0
 10
133.7802970598798
 20
96.21204294925883
 30
0.0
 10
133.5978391633272
 20
96.17900758673309
 30
0.0
 10
133.5171812119931
 20
96.16386779047745
 30
0.0
 10
133.531471090692
 20
96.16653974385045
 30
0.0
 10
133.5344073831641
 20
96.16708877836223
 30
0.0
  0
SPLINE
  5
F6
330
1F
100
AcDbEntity
  8
0
  6
HIDDEN
 62
     7
370
     0
100
AcDbSpline
210
0.0
220
0.0
230
1.0
 70
     8
 71
     3
 72
    30
 73
    26
 74
     0
 42
0.000000001
 43
0.00000001
 40
0.0
 40
0.0
 40
0.0
 40
0.0
 40
0.0501295436075414
 40
0.0849645869476773
 40
0.120310272050844
 40
0.1887226296272166
 40
0.2234350577734726
 40
0.2586381408933402
 40
0.3279891800896622
 40
0.3631798593913008
 40
0.3988730116878408
 40
0.4336686238483541
 40
0.468708200706925
 40
0.5045231139898279
 40
0.5406088812122953
 40
0.6099754147819899
 40
0.6451997353264742
 40
0.680954013711161
 40
0.7493278060998905
 40
0.7840312587819454
 40
0.8192361094257297
 40
0.8878451716853011
 40
0.9226548639511131
 40
0.9579546327627271
 40
1.0
 40
1.0
 40
1.0
 40
1.0
 10
133.5344577006639
 20
136.1633498063696
 30
0.0
 10
133.5352016719795
 20
136.1632044636949
 30
0.0
 10
133.536462629311
 20
136.1629581223275
 30
0.0
 10
133.5990115050967
 20
136.1513395762339
 30
0.0
 10
133.6992225561317
 20
136.1330607712308
 30
0.0
 10
133.8508161591308
 20
136.1062448565075
 30
0.0
 10
134.0472542619835
 20
136.0736114025046
 30
0.0
 10
134.2748886295357
 20
136.0375806427587
 30
0.0
 10
134.5462186408801
 20
135.9980872524428
 30
0.0
 10
134.8550228969443
 20
135.9584471363895
 30
0.0
 10
135.1051135609157
 20
135.9293701194773
 30
0.0
 10
135.3702942467144
 20
135.9019703789267
 30
0.0
 10
135.6493483227582
 20
135.8769245081318
 30
0.0
 10
135.9438322142361
 20
135.8547580519064
 30
0.0
 10
136.3459188915771
 20
135.8306305731714
 30
0.0
 10
136.7621666933534
 20
135.8152535659415
 30
0.0
 10
137.182613414201
 20
135.8098668285721
 30
0.0
 10
137.6010146108632
 20
135.8112972154453
 30
0.0
 10
138.0153226473055
 20
135.8226905327126
 30
0.0
 10
138.4153716846646
 20
135.8428637467995
 30
0.0
 10
138.8052559538392
 20
135.868429690873
 30
0.0
 10
139.1760787130491
 20
135.9010011252531
 30
0.0
 10
139.5183842778634
 20
135.9377503203765
 30
0.0
 10
139.7799244347568
 20
135.9689728254522
 30
0.0
 10
139.9415671247228
 20
135.9908563863933
 30
0.0
 10
140.0294372431043
 20
136.002752446097
 30
0.0
  0
SPLINE
  5
F7
330
1F
100
AcDbEntity
  8
0
  6
HIDDEN
 62
     7
370
     0
100
AcDbSpline
210
0.0
220
0.0
230
1.0
 70
     8
 71
     3
 72
    12
 73
     8
 74
     0
 42
0.000000001
 43
0.00000001
 40
0.0
 40
0.0
 40
0.0
 40
0.0
 40
0.2208233445562762
 40
0.4480992523525918
 40
0.6689569750923027
 40
0.8961554869287633
 40
1.0
 40
1.0
 40
1.0
 40
1.0
 10
140.0294372431043
 20
136.002752446097
 30
0.0
 10
140.1614804463143
 20
136.0198095331777
 30
0.0
 10
140.4294252179849
 20
136.0544221235427
 30
0.0
 10
140.7245813861235
 20
136.0813940726548
 30
0.0
 10
140.9256733973618
 20
136.09690378644
 30
0.0
 10
141.0230039046581
 20
136.1030129524604
 30
0.0
 10
141.0143466753148
 20
136.1024677857408
 30
0.0
 10
141.0116309988073
 20
136.1022967730075
 30
0.0
  0
SPLINE
  5
F8
330
1F
100
AcDbEntity
  8
0
  6
HIDDEN
 62
     7
370
     0
100
AcDbSpline
210
0.0
220
0.0
230
1.0
 70
     8
 71
     3
 72
    10
 73
     6
 74
     0
 42
0.000000001
 43
0.00000001
 40
0.0
 40
0.0
 40
0.0
 40
0.0
 40
0.3457593118339806
 40
0.7967853988890248
 40
1.0
 40
1.0
 40
1.0
 40
1.0
 10
140.9868223372352
 20
96.22984418046013
 30
0.0
 10
140.9772630412867
 20
96.23039955889126
 30
0.0
 10
140.9552341119863
 20
96.23167940128349
 30
0.0
 10
140.538170565422
 20
96.26164549832971
 30
0.0
 10
140.1500056744377
 20
96.31204182273837
 30
0.0
 10
140.0294372431043
 20
96.3276954944641
 30
0.0
  0
LINE
  5
F9
330
1F
100
AcDbEntity
  8
0
  6
HIDDEN
 62
     7
370
     0
100
AcDbLine
 10
127.2784098377
 20
99.1652239703
 30
0.0
 11
127.2784098377
 21
133.1652239703
 31
0.0
  0
SPLINE
  5
FA
330
1F
100
AcDbEntity
  8
0
  6
HIDDEN
 62
     7
370
     0
100
AcDbSpline
210
0.0
220
0.0
230
1.0
 70
     8
 71
     3
 72
    11
 73
     7
 74
     0
 42
0.000000001
 43
0.00000001
 40
0.0
 40
0.0
 40
0.0
 40
0.0
 40
0.0005779865010846
 40
0.0005779865010846
 40
0.0005779865010846
 40
0.0011559733324422
 40
0.0011559733324422
 40
0.0011559733324422
 40
0.0011559733324422
 10
114.3744352415027
 20
118.1650645784405
 30
0.0
 10
114.5411024963086
 20
118.1630809390998
 30
0.0
 10
114.7077689259863
 20
118.1610433320916
 30
0.0
 10
114.8744352644381
 20
118.1589318686855
 30
0.0
 10
115.0411016932645
 20
118.1568204041344
 30
0.0
 10
115.2077680669022
 20
118.1546348409783
 30
0.0
 10
115.3744352415027
 20
118.152352263647
 30
0.0
  0
SPLINE
  5
FB
330
1F
100
AcDbEntity
  8
0
  6
HIDDEN
 62
     7
370
     0
100
AcDbSpline
210
0.0
220
0.0
230
1.0
 70
     8
 71
     3
 72
    11
 73
     7
 74
     0
 42
0.000000001
 43
0.00000001
 40
0.0
 40
0.0
 40
0.0
 40
0.0
 40
0.0005782382535738
 40
0.0005782382535738
 40
0.0005782382535738
 40
0.0011564766069467
 40
0.0011564766069467
 40
0.0011564766069467
 40
0.0011564766069467
 10
115.3744352415027
 20
114.1685236680623
 30
0.0
 10
115.207781287534
 20
114.1680860903007
 30
0.0
 10
115.0411206153321
 20
114.1676060256283
 30
0.0
 10
114.8744537266667
 20
114.167086486259
 30
0.0
 10
114.7077868082706
 20
114.1665669467969
 30
0.0
 10
114.5411136784374
 20
114.166008117775
 30
0.0
 10
114.3744352415027
 20
114.1654225741919
 30
0.0
  0
LINE
  5
FC
330
1F
100
AcDbEntity
  8
0
  6
HIDDEN
 62
     7
370
     0
100
AcDbLine
 10
153.93426121
 20
99.1652239703
 30
0.0
 11
153.93426121
 21
133.1652239703
 31
0.0
  0
LINE
  5
FD
330
1F
100
AcDbEntity
  8
0
  6
HIDDEN
 62
     7
370
     0
100
AcDbLine
 10
156.2244352415
 20
100.4402239703
 30
0.0
 11
156.2244352415
 21
131.8902239601
 31
0.0
  0
SPLINE
  5
FE
330
1F
100
AcDbEntity
  8
0
  6
HIDDEN
 62
     7
370
     0
100
AcDbSpline
210
0.0
220
0.0
230
1.0
 70
     8
 71
     3
 72
    16
 73
    12
 74
     0
 42
0.000000001
 43
0.00000001
 40
0.0
 40
0.0
 40
0.0
 40
0.0
 40
0.124999999999998
 40
0.124999999999998
 40
0.249999999999996
 40
0.249999999999996
 40
0.4999999999999973
 40
0.4999999999999973
 40
0.7499999999999987
 40
0.7499999999999987
 40
1.0
 40
1.0
 40
1.0
 40
1.0
 10
123.0744352415027
 20
100.3637335342489
 30
0.0
 10
123.1695569961685
 20
100.3637335342489
 30
0.0
 10
123.2628870648966
 20
100.3599177008561
 30
0.0
 10
123.4461488256346
 20
100.3451471481263
 30
0.0
 10
123.5370265411916
 20
100.3339891001507
 30
0.0
 10
123.7938282387113
 20
100.291517830009
 30
0.0
 10
123.9488956035833
 20
100.2504716328062
 30
0.0
 10
124.2026420651379
 20
100.1553255162243
 30
0.0
 10
124.3035125168058
 20
100.1005627821427
 30
0.0
 10
124.4387589315006
 20
99.98930165823886
 30
0.0
 10
124.4744352415027
 20
99.93213192091017
 30
0.0
 10
124.4744352415027
 20
99.87771034787643
 30
0.0
  0
SPLINE
  5
FF
330
1F
100
AcDbEntity
  8
0
  6
HIDDEN
 62
     7
370
     0
100
AcDbSpline
210
0.0
220
0.0
230
1.0
 70
     8
 71
     3
 72
     8
 73
     4
 74
     0
 42
0.000000001
 43
0.00000001
 40
0.0
 40
0.0
 40
0.0
 40
0.0
 40
1.0
 40
1.0
 40
1.0
 40
1.0
 10
115.6744352447835
 20
102.5085364803311
 30
0.0
 10
115.6744352447854
 20
101.6246393380142
 30
0.0
 10
115.660954618876
 20
100.9100560929523
 30
0.0
 10
115.6596032506867
 20
100.3637335342489
 30
0.0
  0
SPLINE
  5
100
330
1F
100
AcDbEntity
  8
0
  6
HIDDEN
 62
     7
370
     0
100
AcDbSpline
210
0.0
220
0.0
230
1.0
 70
     8
 71
     3
 72
    10
 73
     6
 74
     0
 42
0.000000001
 43
0.00000001
 40
0.0
 40
0.0
 40
0.0
 40
0.0
 40
0.5
 40
0.5
 40
1.0
 40
1.0
 40
1.0
 40
1.0
 10
115.3744352415027
 20
103.5334467459839
 30
0.0
 10
115.4658263571849
 20
103.3588079583746
 30
0.0
 10
115.5384781909104
 20
103.1852061311276
 30
0.0
 10
115.645977083906
 20
102.841592712138
 30
0.0
 10
115.6744352447779
 20
102.673266885615
 30
0.0
 10
115.6744352447835
 20
102.5085364803906
 30
0.0
  0
LINE
  5
101
330
1F
100
AcDbEntity
  8
0
  6
HIDDEN
 62
     7
370
     0
100
AcDbLine
 10
115.3744352415
 20
106.5643971781
 30
0.0
 11
115.3744352415
 21
103.533446746
 31
0.0
  0
SPLINE
  5
102
330
1F
100
AcDbEntity
  8
0
  6
HIDDEN
 62
     7
370
     0
100
AcDbSpline
210
0.0
220
0.0
230
1.0
 70
     8
 71
     3
 72
    10
 73
     6
 74
     0
 42
0.000000001
 43
0.00000001
 40
0.0
 40
0.0
 40
0.0
 40
0.0
 40
0.5
 40
0.5
 40
1.0
 40
1.0
 40
1.0
 40
1.0
 10
115.6744352445879
 20
107.9322375946377
 30
0.0
 10
115.6744352445879
 20
107.6902536270664
 30
0.0
 10
115.6462852155275
 20
107.4559111981343
 30
0.0
 10
115.5426953014222
 20
107.0005361759183
 30
0.0
 10
115.4660665918572
 20
106.7789316128406
 30
0.0
 10
115.3744352415027
 20
106.5643971780678
 30
0.0
  0
LINE
  5
103
330
1F
100
AcDbEntity
  8
0
  6
HIDDEN
 62
     7
370
     0
100
AcDbLine
 10
115.6744352446
 20
119.7698575918
 30
0.0
 11
115.6744352446
 21
107.9322375946
 31
0.0
  0
SPLINE
  5
104
330
1F
100
AcDbEntity
  8
0
  6
HIDDEN
 62
     7
370
     0
100
AcDbSpline
210
0.0
220
0.0
230
1.0
 70
     8
 71
     3
 72
     8
 73
     4
 74
     0
 42
0.000000001
 43
0.00000001
 40
0.0
 40
0.0
 40
0.0
 40
0.0
 40
1.0
 40
1.0
 40
1.0
 40
1.0
 10
115.3744352415027
 20
125.7721632911611
 30
0.0
 10
115.555466708002
 20
125.3400558055508
 30
0.0
 10
115.6744352445936
 20
124.8859103995112
 30
0.0
 10
115.6744352445879
 20
124.3982103458925
 30
0.0
  0
LINE
  5
105
330
1F
100
AcDbEntity
  8
0
  6
HIDDEN
 62
     7
370
     0
100
AcDbLine
 10
115.3744352415
 20
128.8053662773
 30
0.0
 11
115.3744352415
 21
125.7721632912
 31
0.0
  0
SPLINE
  5
106
330
1F
100
AcDbEntity
  8
0
  6
HIDDEN
 62
     7
370
     0
100
AcDbSpline
210
0.0
220
0.0
230
1.0
 70
     8
 71
     3
 72
    10
 73
     6
 74
     0
 42
0.000000001
 43
0.00000001
 40
0.0
 40
0.0
 40
0.0
 40
0.0
 40
0.5
 40
0.5
 40
1.0
 40
1.0
 40
1.0
 40
1.0
 10
115.6744352448951
 20
129.8219114602004
 30
0.0
 10
115.6744352448933
 20
129.6572751135946
 30
0.0
 10
115.6472765741381
 20
129.4901198897643
 30
0.0
 10
115.5415115788199
 20
129.1514968819631
 30
0.0
 10
115.4650967905228
 20
128.9792251046724
 30
0.0
 10
115.3744352415027
 20
128.8053662773286
 30
0.0
  0
SPLINE
  5
107
330
1F
100
AcDbEntity
  8
0
  6
HIDDEN
 62
     7
370
     0
100
AcDbSpline
210
0.0
220
0.0
230
1.0
 70
     8
 71
     3
 72
    18
 73
    14
 74
     0
 42
0.000000001
 43
0.00000001
 40
0.0
 40
0.0
 40
0.0
 40
0.0
 40
0.2500000000000033
 40
0.2500000000000033
 40
0.3750000000000029
 40
0.3750000000000029
 40
0.5000000000000026
 40
0.5000000000000026
 40
0.6250000000000022
 40
0.6250000000000022
 40
0.7500000000000018
 40
0.7500000000000018
 40
1.0
 40
1.0
 40
1.0
 40
1.0
 10
120.4744352415027
 20
132.4527375926847
 30
0.0
 10
120.4744352415027
 20
132.3982630721325
 30
0.0
 10
120.4395245501105
 20
132.34188201278
 30
0.0
 10
120.3375152487774
 20
132.2578051719265
 30
0.0
 10
120.2958788940993
 20
132.2304714679356
 30
0.0
 10
120.1974730986106
 20
132.1775175523366
 30
0.0
 10
120.1399298869063
 20
132.1516301986195
 30
0.0
 10
120.0126317133334
 20
132.1038526537862
 30
0.0
 10
119.9430444085759
 20
132.0819047356083
 30
0.0
 10
119.7916101634209
 20
132.0424721706956
 30
0.0
 10
119.708926260327
 20
132.0249159214697
 30
0.0
 10
119.4528147982889
 20
131.9824771560492
 30
0.0
 10
119.264899794401
 20
131.9667144063122
 30
0.0
 10
119.0744352415027
 20
131.9667144063122
 30
0.0
  0
LINE
  5
108
330
1F
100
AcDbEntity
  8
0
  6
HIDDEN
 62
     7
370
     0
100
AcDbLine
 10
119.0744352415
 20
131.9667144063
 30
0.0
 11
115.6744352449
 21
131.9667144063
 31
0.0
  0
LINE
  5
109
330
1F
100
AcDbEntity
  8
0
  6
HIDDEN
 62
     7
370
     0
100
AcDbLine
 10
115.6054662549
 20
100.3637335342
 30
0.0
 11
123.0744352415
 21
100.3637335342
 31
0.0
  0
SPLINE
  5
10A
330
1F
100
AcDbEntity
  8
0
  6
HIDDEN
 62
     7
370
     0
100
AcDbSpline
210
0.0
220
0.0
230
1.0
 70
     8
 71
     3
 72
    22
 73
    18
 74
     0
 42
0.000000001
 43
0.00000001
 40
0.0
 40
0.0
 40
0.0
 40
0.0
 40
0.125
 40
0.125
 40
0.25
 40
0.25
 40
0.5000000000000001
 40
0.5000000000000001
 40
0.5625000000000001
 40
0.5625000000000001
 40
0.6250000000000001
 40
0.6250000000000001
 40
0.75
 40
0.75
 40
0.875
 40
0.875
 40
1.0
 40
1.0
 40
1.0
 40
1.0
 10
115.6054662548606
 20
100.3637335342489
 30
0.0
 10
115.5923838621322
 20
100.6188392443966
 30
0.0
 10
115.5791642986924
 20
100.9119975035005
 30
0.0
 10
115.5567171208983
 20
101.5742979691253
 30
0.0
 10
115.5472386538738
 20
101.9445718897367
 30
0.0
 10
115.5280406929373
 20
103.1671286928505
 30
0.0
 10
115.5291544659342
 20
104.1042676189823
 30
0.0
 10
115.5480652588872
 20
105.4241388484973
 30
0.0
 10
115.5526947867462
 20
105.6956407574736
 30
0.0
 10
115.5631760064922
 20
106.2540255922759
 30
0.0
 10
115.5689712677766
 20
106.5411484482155
 30
0.0
 10
115.5872804886815
 20
107.4137377025872
 30
0.0
 10
115.6013154229619
 20
108.0141933789431
 30
0.0
 10
115.6307725950987
 20
109.2516678714391
 30
0.0
 10
115.6463282860803
 20
109.8886840280826
 30
0.0
 10
115.6701228360772
 20
111.2001726257672
 30
0.0
 10
115.6781418882226
 20
111.8762952374277
 30
0.0
 10
115.6744352415027
 20
112.5605903487125
 30
0.0
  0
LINE
  5
10B
330
1F
100
AcDbEntity
  8
0
  6
HIDDEN
 62
     7
370
     0
100
AcDbLine
 10
115.6744352449
 20
119.7698575918
 30
0.0
 11
115.6744352449
 21
131.9667144063
 31
0.0
  0
SPLINE
  5
10C
330
1F
100
AcDbEntity
  8
0
  6
HIDDEN
 62
     7
370
     0
100
AcDbSpline
210
0.0
220
0.0
230
1.0
 70
     8
 71
     3
 72
    10
 73
     6
 74
     0
 42
0.000000001
 43
0.00000001
 40
0.0
 40
0.0
 40
0.0
 40
0.0
 40
0.5
 40
0.5
 40
1.0
 40
1.0
 40
1.0
 40
1.0
 10
115.6744352415027
 20
112.5605903486974
 30
0.0
 10
115.6744352415025
 20
112.8345054967715
 30
0.0
 10
115.6486760116337
 20
113.1054470755011
 30
0.0
 10
115.5454700789003
 20
113.6411381571033
 30
0.0
 10
115.4681319150258
 20
113.906884960625
 30
0.0
 10
115.3744352415027
 20
114.1685236680623
 30
0.0
  0
SPLINE
  5
10D
330
1F
100
AcDbEntity
  8
0
  6
HIDDEN
 62
     7
370
     0
100
AcDbSpline
210
0.0
220
0.0
230
1.0
 70
     8
 71
     3
 72
    10
 73
     6
 74
     0
 42
0.000000001
 43
0.00000001
 40
0.0
 40
0.0
 40
0.0
 40
0.0
 40
0.5
 40
0.5
 40
1.0
 40
1.0
 40
1.0
 40
1.0
 10
115.3744352415027
 20
118.152352263647
 30
0.0
 10
115.4676658228934
 20
118.4162460717168
 30
0.0
 10
115.54269543513
 20
118.6824263823548
 30
0.0
 10
115.6477625343078
 20
119.2207489573123
 30
0.0
 10
115.6744352448939
 20
119.4934970735576
 30
0.0
 10
115.6744352448951
 20
119.7698575918477
 30
0.0
  0
LINE
  5
10E
330
1F
100
AcDbEntity
  8
0
  6
HIDDEN
 62
     7
370
     0
100
AcDbLine
 10
115.3744352415
 20
114.1685236681
 30
0.0
 11
115.3744352415
 21
118.1523522636
 31
0.0
  0
LINE
  5
10F
330
1F
100
AcDbEntity
  8
0
  6
HIDDEN
 62
     7
370
     0
100
AcDbLine
 10
115.5244352415
 20
98.1752239703
 30
0.0
 11
115.5244352415
 21
95.2952862049
 31
0.0
  0
LINE
  5
110
330
1F
100
AcDbEntity
  8
0
  6
HIDDEN
 62
     7
370
     0
100
AcDbLine
 10
124.4744352415
 20
98.1752239703
 30
0.0
 11
124.4744352415
 21
94.2014864391
 31
0.0
  0
LINE
  5
111
330
1F
100
AcDbEntity
  8
0
  6
HIDDEN
 62
     7
370
     0
100
AcDbLine
 10
115.5244352415
 20
134.1552239703
 30
0.0
 11
115.5244352415
 21
137.0351617357
 31
0.0
  0
LINE
  5
112
330
1F
100
AcDbEntity
  8
0
  6
HIDDEN
 62
     7
370
     0
100
AcDbLine
 10
120.4744352415
 20
134.1552239703
 30
0.0
 11
120.4744352415
 21
138.0093316426
 31
0.0
  0
LINE
  5
113
330
1F
100
AcDbEntity
  8
0
  6
HIDDEN
 62
     7
370
     0
100
AcDbLine
 10
165.0744352415
 20
106.6652239703
 30
0.0
 11
165.0744352415
 21
125.6652239703
 31
0.0
  0
LINE
  5
114
330
1F
100
AcDbEntity
  8
0
  6
HIDDEN
 62
     7
370
     0
100
AcDbLine
 10
168.0744352415
 20
106.6652239703
 30
0.0
 11
168.0744352415
 21
125.6652239703
 31
0.0
  0
LINE
  5
115
330
1F
100
AcDbEntity
  8
0
  6
HIDDEN
 62
     7
370
     0
100
AcDbLine
 10
162.4621100438
 20
89.7652239703
 30
0.0
 11
159.2244352415
 21
89.7652239703
 31
0.0
  0
LINE
  5
116
330
1F
100
AcDbEntity
  8
0
  6
HIDDEN
 62
     7
370
     0
100
AcDbLine
 10
156.7244352415
 20
107.6652239703
 30
0.0
 11
156.7244352415
 21
124.6652239703
 31
0.0
  0
LINE
  5
117
330
1F
100
AcDbEntity
  8
0
  6
HIDDEN
 62
     7
370
     0
100
AcDbLine
 10
151.2244352415
 20
84.6811009874
 30
0.0
 11
151.2244352415
 21
89.7652239703
 31
0.0
  0
LINE
  5
118
330
1F
100
AcDbEntity
  8
0
  6
HIDDEN
 62
     7
370
     0
100
AcDbLine
 10
159.2244352415
 20
89.7652239703
 30
0.0
 11
151.2244352415
 21
89.7652239703
 31
0.0
  0
LINE
  5
119
330
1F
100
AcDbEntity
  8
0
  6
HIDDEN
 62
     7
370
     0
100
AcDbLine
 10
172.2244352415
 20
89.7652239703
 30
0.0
 11
166.0867604392
 21
89.7652239703
 31
0.0
  0
LINE
  5
11A
330
1F
100
AcDbEntity
  8
0
  6
HIDDEN
 62
     7
370
     0
100
AcDbLine
 10
172.2244352415
 20
142.5652239703
 30
0.0
 11
165.7901377098
 21
142.5652239703
 31
0.0
  0
LINE
  5
11B
330
1F
100
AcDbEntity
  8
0
  6
HIDDEN
 62
     7
370
     0
100
AcDbLine
 10
162.7587327732
 20
142.5652239703
 30
0.0
 11
159.2244352415
 21
142.5652239703
 31
0.0
  0
LINE
  5
11C
330
1F
100
AcDbEntity
  8
0
  6
HIDDEN
 62
     7
370
     0
100
AcDbLine
 10
159.2244352415
 20
142.5652239703
 30
0.0
 11
151.2244352415
 21
142.5652239703
 31
0.0
  0
SPLINE
  5
11D
330
1F
100
AcDbEntity
  8
0
  6
HIDDEN
 62
     7
370
     0
100
AcDbSpline
210
0.0
220
0.0
230
1.0
 70
     8
 71
     3
 72
    11
 73
     7
 74
     0
 42
0.000000001
 43
0.00000001
 40
0.0
 40
0.0
 40
0.0
 40
0.0
 40
0.0008203708524183
 40
0.0008203708524183
 40
0.0008203708524183
 40
0.0016409967870154
 40
0.0016409967870154
 40
0.0016409967870154
 40
0.0016409967870154
 10
115.5244352415027
 20
100.3131912196378
 30
0.0
 10
115.333276941204
 20
100.2720121910187
 30
0.0
 10
115.1418498711318
 20
100.2332582187887
 30
0.0
 10
114.9502042476112
 20
100.1968904595102
 30
0.0
 10
114.7584988425307
 20
100.1605113557441
 30
0.0
 10
114.5665598904718
 20
100.1265171049766
 30
0.0
 10
114.374435243401
 20
100.0948689795854
 30
0.0
  0
ELLIPSE
  5
11E
330
1F
100
AcDbEntity
  8
0
  6
HIDDEN
 62
     7
370
     0
100
AcDbEllipse
 10
110.1320033729
 20
116.1652239703
 30
0.0
 11
20.19992453367506
 21
-1.421085471520200E-14
 31
0.0
210
0.0
220
0.0
230
1.0
 40
0.8164965809
 41
1.300566354717479
 42
1.359198697209065
  0
LINE
  5
11F
330
1F
100
AcDbEntity
  8
0
  6
HIDDEN
 62
     7
370
     0
100
AcDbLine
 10
115.5244352415
 20
98.1752239703
 30
0.0
 11
115.5244352415
 21
100.3131912196
 31
0.0
  0
LINE
  5
120
330
1F
100
AcDbEntity
  8
0
  6
HIDDEN
 62
     7
370
     0
100
AcDbLine
 10
115.6054662549
 20
100.3637335342
 30
0.0
 11
115.5244352415
 21
100.3131912196
 31
0.0
  0
LINE
  5
121
330
1F
100
AcDbEntity
  8
0
  6
HIDDEN
 62
     7
370
     0
100
AcDbLine
 10
124.4744352415
 20
98.1752239703
 30
0.0
 11
124.4744352415
 21
99.8777103479
 31
0.0
  0
LINE
  5
122
330
1F
100
AcDbEntity
  8
0
  6
HIDDEN
 62
     7
370
     0
100
AcDbLine
 10
120.4744352415
 20
134.1552239703
 30
0.0
 11
120.4744352415
 21
132.4527375927
 31
0.0
  0
LINE
  5
123
330
1F
100
AcDbEntity
  8
0
  6
HIDDEN
 62
     7
370
     0
100
AcDbLine
 10
115.5244352415
 20
134.1552239703
 30
0.0
 11
115.5244352415
 21
132.0598484213
 31
0.0
  0
SPLINE
  5
124
330
1F
100
AcDbEntity
  8
0
  6
HIDDEN
 62
     7
370
     0
100
AcDbSpline
210
0.0
220
0.0
230
1.0
 70
     8
 71
     3
 72
     8
 73
     4
 74
     0
 42
0.000000001
 43
0.00000001
 40
0.0
 40
0.0
 40
0.0
 40
0.0
 40
1.0
 40
1.0
 40
1.0
 40
1.0
 10
115.5244352415027
 20
132.0598484213387
 30
0.0
 10
115.5744407404461
 20
132.0288126471198
 30
0.0
 10
115.6244408111103
 20
131.9977680020924
 30
0.0
 10
115.6744352448951
 20
131.9667144063122
 30
0.0
  0
SPLINE
  5
125
330
1F
100
AcDbEntity
  8
0
  6
HIDDEN
 62
     7
370
     0
100
AcDbSpline
210
0.0
220
0.0
230
1.0
 70
     8
 71
     3
 72
    16
 73
    12
 74
     0
 42
0.000000001
 43
0.00000001
 40
0.0
 40
0.0
 40
0.0
 40
0.0
 40
0.2499999999999964
 40
0.2499999999999964
 40
0.4999999999999929
 40
0.4999999999999929
 40
0.6249999999999911
 40
0.6249999999999911
 40
0.7499999999999893
 40
0.7499999999999893
 40
1.0
 40
1.0
 40
1.0
 40
1.0
 10
188.2744352415027
 20
121.633860051703
 30
0.0
 10
188.2744352415027
 20
121.5647261503634
 30
0.0
 10
188.2699014322828
 20
121.4941050029281
 30
0.0
 10
188.2447375853015
 20
121.3475815165704
 30
0.0
 10
188.224450442764
 20
121.2701396414184
 30
0.0
 10
188.1658410659916
 20
121.164491177465
 30
0.0
 10
188.1413127694046
 20
121.1324108973958
 30
0.0
 10
188.0869668635621
 20
121.0852851740428
 30
0.0
 10
188.0573670387945
 20
121.0702318255877
 30
0.0
 10
187.9734174806045
 20
121.0462263912218
 30
0.0
 10
187.9220590818746
 20
121.0537888259667
 30
0.0
 10
187.8744352416158
 20
121.0678281810377
 30
0.0
  0
SPLINE
  5
126
330
1F
100
AcDbEntity
  8
0
  6
HIDDEN
 62
     7
370
     0
100
AcDbSpline
210
0.0
220
0.0
230
1.0
 70
     8
 71
     3
 72
     8
 73
     4
 74
     0
 42
0.000000001
 43
0.00000001
 40
0.0
 40
0.0
 40
0.0
 40
0.0
 40
1.0
 40
1.0
 40
1.0
 40
1.0
 10
187.8744352416153
 20
121.0678281810379
 30
0.0
 10
187.8152689327231
 20
121.0339788902094
 30
0.0
 10
187.7464859471988
 20
121.0118635140286
 30
0.0
 10
187.6744352415027
 20
121.0118635140286
 30
0.0
  0
SPLINE
  5
127
330
1F
100
AcDbEntity
  8
0
  6
HIDDEN
 62
     7
370
     0
100
AcDbSpline
210
0.0
220
0.0
230
1.0
 70
     8
 71
     3
 72
     8
 73
     4
 74
     0
 42
0.000000001
 43
0.00000001
 40
0.0
 40
0.0
 40
0.0
 40
0.0
 40
1.0
 40
1.0
 40
1.0
 40
1.0
 10
187.8744352414379
 20
111.2626197596248
 30
0.0
 10
187.8152689325881
 20
111.2964690503962
 30
0.0
 10
187.7464859471268
 20
111.3185844265326
 30
0.0
 10
187.6744352415027
 20
111.3185844265326
 30
0.0
  0
SPLINE
  5
128
330
1F
100
AcDbEntity
  8
0
  6
HIDDEN
 62
     7
370
     0
100
AcDbSpline
210
0.0
220
0.0
230
1.0
 70
     8
 71
     3
 72
    16
 73
    12
 74
     0
 42
0.000000001
 43
0.00000001
 40
0.0
 40
0.0
 40
0.0
 40
0.0
 40
0.2500000000000001
 40
0.2500000000000001
 40
0.3750000000000001
 40
0.3750000000000001
 40
0.5000000000000001
 40
0.5000000000000001
 40
0.75
 40
0.75
 40
1.0
 40
1.0
 40
1.0
 40
1.0
 10
187.8744352414255
 20
111.2626197596245
 30
0.0
 10
187.9217398292875
 20
111.2765649284165
 30
0.0
 10
187.9727379684399
 20
111.2841459158178
 30
0.0
 10
188.0563369747063
 20
111.2606370828622
 30
0.0
 10
188.0854743165409
 20
111.2460728152741
 30
0.0
 10
188.1397979884821
 20
111.199703128649
 30
0.0
 10
188.1642811353988
 20
111.1681786652612
 30
0.0
 10
188.2231216916936
 20
111.0638035660401
 30
0.0
 10
188.2440030693495
 20
110.9860377408359
 30
0.0
 10
188.2697737799063
 20
110.8381502063645
 30
0.0
 10
188.2744349341297
 20
110.7660395544415
 30
0.0
 10
188.2744352414884
 20
110.6965932043027
 30
0.0
  0
LINE
  5
129
330
1F
100
AcDbEntity
  8
0
  6
HIDDEN
 62
     7
370
     0
100
AcDbLine
 10
178.1404606453
 20
116.1652239703
 30
0.0
 11
178.1404606453
 21
110.6652239703
 31
0.0
  0
LINE
  5
12A
330
1F
100
AcDbEntity
  8
0
  6
HIDDEN
 62
     7
370
     0
100
AcDbLine
 10
178.1404606453
 20
121.6652239703
 30
0.0
 11
178.1404606453
 21
116.1652239703
 31
0.0
  0
LINE
  5
12B
330
1F
100
AcDbEntity
  8
0
  6
HIDDEN
 62
     7
370
     0
100
AcDbLine
 10
182.3744352415
 20
121.011863514
 30
0.0
 11
187.6744352415
 21
121.011863514
 31
0.0
  0
LINE
  5
12C
330
1F
100
AcDbEntity
  8
0
  6
HIDDEN
 62
     7
370
     0
100
AcDbLine
 10
182.3744352415
 20
111.3185844265
 30
0.0
 11
187.6744352415
 21
111.3185844265
 31
0.0
  0
LWPOLYLINE
  5
12D
330
1F
100
AcDbEntity
  8
0
  6
HIDDEN
 62
     7
370
     0
100
AcDbPolyline
 90
       25
 70
   128
 43
0.0
 10
141.0235021775
 20
92.5651945704
 10
140.9732432955
 20
92.5799730205
 10
140.7944090027
 20
92.6263390956
 10
140.4572974658
 20
92.7040227454
 10
140.2216532272
 20
92.7546086609
 10
139.9386063419
 20
92.8130239701
 10
139.1968299342
 20
92.9431290041
 10
138.4666206196
 20
93.0437078148
 10
138.0231975086
 20
93.094356898
 10
137.6302365662
 20
93.1318832154
 10
137.295200465
 20
93.1562867669
 10
136.6547682619
 20
93.180730433
 10
135.9736204821
 20
93.1823699428
 10
135.2850775748
 20
93.1612052962
 10
134.9518700539
 20
93.1420714143
 10
134.634951222
 20
93.1172364933
 10
134.0543052141
 20
93.0602608416
 10
133.7183279203
 20
93.019497733
 10
133.5636275597
 20
92.9949471677
 10
133.5244550523
 20
92.9866091456
 10
133.5611041414
 20
92.9945034443
 10
133.7134543251
 20
93.0186585957
 10
134.0454419414
 20
93.0590745999
 10
134.6182924725
 20
93.1157514568
 10
134.6182924725
 20
93.1157514568
  0
SPLINE
  5
12E
330
1F
100
AcDbEntity
  8
0
  6
HIDDEN
 62
     7
370
     0
100
AcDbSpline
210
0.0
220
0.0
230
1.0
 70
     8
 71
     3
 72
    27
 73
    23
 74
     0
 42
0.000000001
 43
0.00000001
 40
0.0
 40
0.0
 40
0.0
 40
0.0
 40
0.0008428871093909
 40
0.045725749701792
 40
0.1023078578662232
 40
0.1705864819705469
 40
0.2091784558477173
 40
0.2507060195538809
 40
0.3211523478360184
 40
0.386246591318636
 40
0.4267260576923261
 40
0.4648576087845703
 40
0.5006622055417376
 40
0.5452543187537062
 40
0.6017490167935078
 40
0.6701555265267966
 40
0.7088931595311332
 40
0.750622231336481
 40
0.8222873772892332
 40
0.8878273147036452
 40
0.9473015350811597
 40
1.0
 40
1.0
 40
1.0
 40
1.0
 10
133.5251315435363
 20
139.3436321227292
 30
0.0
 10
133.5248996112729
 20
139.3436821220211
 30
0.0
 10
133.5123175270206
 20
139.3463945316481
 30
0.0
 10
133.5613840738906
 20
139.3345646879079
 30
0.0
 10
133.7065018954777
 20
139.3111173959025
 30
0.0
 10
133.9795499326247
 20
139.2772142054484
 30
0.0
 10
134.3080770789998
 20
139.2436452535543
 30
0.0
 10
134.7008046650969
 20
139.2054619563633
 30
0.0
 10
135.2505327164527
 20
139.1664932658429
 30
0.0
 10
135.8765553406749
 20
139.1470321660881
 30
0.0
 10
136.4197468541415
 20
139.1448464873499
 30
0.0
 10
136.8648157500481
 20
139.1533613685368
 30
0.0
 10
137.3312635473383
 20
139.1731447653444
 30
0.0
 10
137.8685041963762
 20
139.2173071505104
 30
0.0
 10
138.516717632533
 20
139.2897227715992
 30
0.0
 10
139.1022562443513
 20
139.3706248600324
 30
0.0
 10
139.5832259020616
 20
139.4487908595702
 30
0.0
 10
140.028640612626
 20
139.5335629507497
 30
0.0
 10
140.4671415201246
 20
139.6273462975514
 30
0.0
 10
140.8061624593656
 20
139.7052489565125
 30
0.0
 10
140.9934729094372
 20
139.7554322601843
 30
0.0
 10
141.0139610713854
 20
139.7620977521152
 30
0.0
 10
141.0235863618991
 20
139.7652291846182
 30
0.0
  0
SPLINE
  5
12F
330
1F
100
AcDbEntity
  8
0
  6
HIDDEN
 62
     7
370
     0
100
AcDbSpline
210
0.0
220
0.0
230
1.0
 70
    11
 71
     3
 72
    20
 73
    16
 74
     0
 42
0.000000001
 43
0.00000001
 40
0.0
 40
0.0
 40
0.0
 40
0.0
 40
0.1249999999999998
 40
0.1249999999999998
 40
0.2499999999999996
 40
0.2499999999999996
 40
0.4999999999999999
 40
0.4999999999999999
 40
0.6249999999999999
 40
0.6249999999999999
 40
0.7499999999999999
 40
0.7499999999999999
 40
0.875
 40
0.875
 40
1.0
 40
1.0
 40
1.0
 40
1.0
 10
187.8744352415027
 20
123.5652239702806
 30
0.0
 10
187.8744352415027
 20
123.6643986515911
 30
0.0
 10
187.8746016841596
 20
123.7539452692701
 30
0.0
 10
187.8726413448566
 20
123.9143419459284
 30
0.0
 10
187.8706529779551
 20
123.984471813519
 30
0.0
 10
187.8636493271427
 20
124.1538620888687
 30
0.0
 10
187.8559205041929
 20
124.2152075111409
 30
0.0
 10
187.8502389126767
 20
124.2152321947611
 30
0.0
 10
187.8492454698919
 20
124.2005298066687
 30
0.0
 10
187.8508289697485
 20
124.1417459708035
 30
0.0
 10
187.8531583847516
 20
124.0979305591603
 30
0.0
 10
187.8598281842592
 20
123.9850414836949
 30
0.0
 10
187.8644219787997
 20
123.9146942919728
 30
0.0
 10
187.8716993992807
 20
123.755149569708
 30
0.0
 10
187.8744352107304
 20
123.6644155363827
 30
0.0
 10
187.8744351165525
 20
123.5652239702826
 30
0.0
  0
LWPOLYLINE
  5
130
330
1F
100
AcDbEntity
  8
0
  6
HIDDEN
 62
     7
370
     0
100
AcDbPolyline
 90
        4
 70
   128
 43
0.0
 10
187.8744351166
 20
123.5652239703
 10
187.8744352403
 20
122.8231132697
 10
187.8744352582
 20
122.0810025691
 10
187.8744352416
 20
121.067828181
  0
LWPOLYLINE
  5
131
330
1F
100
AcDbEntity
  8
0
  6
HIDDEN
 62
     7
370
     0
100
AcDbPolyline
 90
        3
 70
   128
 43
0.0
 10
187.8744352917
 20
108.7652239703
 10
187.8744352371
 20
110.0419041984
 10
187.8744352414
 20
111.2626197596
  0
SPLINE
  5
132
330
1F
100
AcDbEntity
  8
0
  6
HIDDEN
 62
     7
370
     0
100
AcDbSpline
210
0.0
220
0.0
230
1.0
 70
     8
 71
     3
 72
    18
 73
    14
 74
     0
 42
0.000000001
 43
0.00000001
 40
0.0
 40
0.0
 40
0.0
 40
0.0
 40
0.0388630644040285
 40
0.1190447004665395
 40
0.2009839359644835
 40
0.2835333050172137
 40
0.3628390556097
 40
0.5241407278698695
 40
0.6063259674309845
 40
0.6857670200453538
 40
0.8473350172406954
 40
0.9296616587218616
 40
1.0
 40
1.0
 40
1.0
 40
1.0
 10
187.8520538972923
 20
108.1163658170981
 30
0.0
 10
187.851756030544
 20
108.1162556655027
 30
0.0
 10
187.8508436100138
 20
108.1159182509449
 30
0.0
 10
187.8498871288548
 20
108.1251305541038
 30
0.0
 10
187.8495894211923
 20
108.143746022158
 30
0.0
 10
187.850342591053
 20
108.1719949276095
 30
0.0
 10
187.8525302248312
 20
108.2209582929448
 30
0.0
 10
187.8563166765781
 20
108.2869727922596
 30
0.0
 10
187.8613173795428
 20
108.3685970394124
 30
0.0
 10
187.8666072845421
 20
108.4600760712701
 30
0.0
 10
187.8713264333308
 20
108.5657396436238
 30
0.0
 10
187.8740413077698
 20
108.6792100448254
 30
0.0
 10
187.8743110237128
 20
108.738093985248
 30
0.0
 10
187.8744352917126
 20
108.7652239702806
 30
0.0
  0
LINE
  5
133
330
1F
100
AcDbEntity
  8
0
  6
HIDDEN
 62
     7
370
     0
100
AcDbLine
 10
182.3744352415
 20
108.7652239703
 30
0.0
 11
182.3744352415
 21
111.3185844265
 31
0.0
  0
LINE
  5
134
330
1F
100
AcDbEntity
  8
0
  6
HIDDEN
 62
     7
370
     0
100
AcDbLine
 10
182.3744352415
 20
123.5652239703
 30
0.0
 11
182.3744352415
 21
121.011863514
 31
0.0
  0
LINE
  5
135
330
1F
100
AcDbEntity
  8
0
  6
HIDDEN
 62
     7
370
     0
100
AcDbLine
 10
182.3744352415
 20
124.2152239703
 30
0.0
 11
182.3744352415
 21
123.5652239703
 31
0.0
  0
LINE
  5
136
330
1F
100
AcDbEntity
  8
0
  6
HIDDEN
 62
     7
370
     0
100
AcDbLine
 10
182.3744352415
 20
108.1152239703
 30
0.0
 11
182.3744352415
 21
108.7652239703
 31
0.0
  0
SPLINE
  5
137
330
1F
100
AcDbEntity
  8
0
  6
HIDDEN
 62
     7
370
     0
100
AcDbSpline
210
0.0
220
0.0
230
1.0
 70
     8
 71
     3
 72
    16
 73
    12
 74
     0
 42
0.000000001
 43
0.00000001
 40
0.0
 40
0.0
 40
0.0
 40
0.0
 40
0.2499999999999997
 40
0.2499999999999997
 40
0.4999999999999993
 40
0.4999999999999993
 40
0.6249999999999991
 40
0.6249999999999991
 40
0.749999999999999
 40
0.749999999999999
 40
1.0
 40
1.0
 40
1.0
 40
1.0
 10
188.2744352415027
 20
110.696720515839
 30
0.0
 10
188.2744352415027
 20
110.7655248673969
 30
0.0
 10
188.2698134644733
 20
110.8374959892256
 30
0.0
 10
188.2444145859919
 20
110.9843419002004
 30
0.0
 10
188.2231847818275
 20
111.063452994989
 30
0.0
 10
188.1649279787657
 20
111.1672651831354
 30
0.0
 10
188.1403594794471
 20
111.199205555037
 30
0.0
 10
188.0854998159409
 20
111.246154871538
 30
0.0
 10
188.0561756204934
 20
111.2607224350177
 30
0.0
 10
187.9727013258064
 20
111.2841245897973
 30
0.0
 10
187.921488647943
 20
111.2764910746662
 30
0.0
 10
187.8744352415029
 20
111.2626197595877
 30
0.0
  0
SPLINE
  5
138
330
1F
100
AcDbEntity
  8
0
  6
HIDDEN
 62
     7
370
     0
100
AcDbSpline
210
0.0
220
0.0
230
1.0
 70
     8
 71
     3
 72
     8
 73
     4
 74
     0
 42
0.000000001
 43
0.00000001
 40
0.0
 40
0.0
 40
0.0
 40
0.0
 40
0.0001590976953043
 40
0.0001590976953043
 40
0.0001590976953043
 40
0.0001590976953043
 10
115.6596032506867
 20
100.3637335342489
 30
0.0
 10
115.6145517801937
 20
100.3357546499314
 30
0.0
 10
115.5694957417902
 20
100.3077831195626
 30
0.0
 10
115.5244352415027
 20
100.2798187802164
 30
0.0
  0
SPLINE
  5
139
330
1F
100
AcDbEntity
  8
0
  6
HIDDEN
 62
     7
370
     0
100
AcDbSpline
210
0.0
220
0.0
230
1.0
 70
     8
 71
     3
 72
    11
 73
     7
 74
     0
 42
0.000000001
 43
0.00000001
 40
0.0
 40
0.0
 40
0.0
 40
0.0
 40
0.000821290931147
 40
0.000821290931147
 40
0.000821290931147
 40
0.0016428257243086
 40
0.0016428257243086
 40
0.0016428257243086
 40
0.0016428257243086
 10
115.5244352415027
 20
100.2798187802164
 30
0.0
 10
115.3332902200205
 20
100.2365325913608
 30
0.0
 10
115.1418718843441
 20
100.1955960817204
 30
0.0
 10
114.9502258096829
 20
100.1569943103307
 30
0.0
 10
114.7585227281413
 20
100.1183810564904
 30
0.0
 10
114.5665776048558
 20
100.0821008472012
 30
0.0
 10
114.3744352415026
 20
100.0481339408465
 30
0.0
  0
LINE
  5
13A
330
1F
100
AcDbEntity
  8
0
  6
HIDDEN
 62
     7
370
     0
100
AcDbLine
 10
162.3644352415
 20
136.3010906017
 30
0.0
 11
162.3644352415
 21
136.0152239703
 31
0.0
  0
LINE
  5
13B
330
1F
100
AcDbEntity
  8
0
  6
HIDDEN
 62
     7
370
     0
100
AcDbLine
 10
166.1844352415
 20
136.3010906017
 30
0.0
 11
166.1844352415
 21
136.0152239703
 31
0.0
  0
LINE
  5
13C
330
1F
100
AcDbEntity
  8
0
  6
HIDDEN
 62
     7
370
     0
100
AcDbLine
 10
167.666368073
 20
140.6239136326
 30
0.0
 11
167.666368073
 21
136.0152239703
 31
0.0
  0
SPLINE
  5
13D
330
1F
100
AcDbEntity
  8
0
  6
HIDDEN
 62
     7
370
     0
100
AcDbSpline
210
0.0
220
0.0
230
1.0
 70
     8
 71
     3
 72
    11
 73
     7
 74
     0
 42
0.000000001
 43
0.00000001
 40
0.0000000000000004
 40
0.0000000000000004
 40
0.0000000000000004
 40
0.0000000000000004
 40
0.000578186222398
 40
0.000578186222398
 40
0.000578186222398
 40
0.0011563724723932
 40
0.0011563724723932
 40
0.0011563724723932
 40
0.0011563724723932
 10
115.374435241503
 20
128.8053662773333
 30
0.0
 10
115.2077746872273
 20
128.8698957887468
 30
0.0
 10
115.0411113903208
 20
128.9343984925855
 30
0.0
 10
114.8744448064905
 20
128.9988849410189
 30
0.0
 10
114.7077782142314
 20
129.0633713927137
 30
0.0
 10
114.5411083486054
 20
129.1278414014415
 30
0.0
 10
114.3744352415027
 20
129.1922971681739
 30
0.0
  0
SPLINE
  5
13E
330
1F
100
AcDbEntity
  8
0
  6
HIDDEN
 62
     7
370
     0
100
AcDbSpline
210
0.0
220
0.0
230
1.0
 70
     8
 71
     3
 72
    11
 73
     7
 74
     0
 42
0.000000001
 43
0.00000001
 40
0.0
 40
0.0
 40
0.0
 40
0.0
 40
0.0005778746105124
 40
0.0005778746105124
 40
0.0005778746105124
 40
0.0011557494857259
 40
0.0011557494857259
 40
0.0011557494857259
 40
0.0011557494857259
 10
114.3744352415026
 20
103.1380021147907
 30
0.0
 10
114.541102117916
 20
103.2038142414757
 30
0.0
 10
114.7077688374774
 20
103.2696727216047
 30
0.0
 10
114.874435485526
 20
103.335580294527
 30
0.0
 10
115.0411022100447
 20
103.4014878976889
 30
0.0
 10
115.2077689044653
 20
103.4674450060692
 30
0.0
 10
115.3744352415027
 20
103.5334467459839
 30
0.0
  0
SPLINE
  5
13F
330
1F
100
AcDbEntity
  8
0
  6
HIDDEN
 62
     7
370
     0
100
AcDbSpline
210
0.0
220
0.0
230
1.0
 70
     8
 71
     3
 72
    11
 73
     7
 74
     0
 42
0.000000001
 43
0.00000001
 40
0.0000000000000006
 40
0.0000000000000006
 40
0.0000000000000006
 40
0.0000000000000006
 40
0.0005780486062825
 40
0.0005780486062825
 40
0.0005780486062825
 40
0.0011560973514241
 40
0.0011560973514241
 40
0.0011560973514241
 40
0.0011560973514241
 10
114.3744352415027
 20
126.1460384719723
 30
0.0
 10
114.5411050975475
 20
126.0836666104254
 30
0.0
 10
114.7077728016318
 20
126.0213127500958
 30
0.0
 10
114.8744391060854
 20
125.9589931898785
 30
0.0
 10
115.0411054467792
 20
125.8966736161103
 30
0.0
 10
115.207770403408
 20
125.83438841176
 30
0.0
 10
115.3744352415027
 20
125.7721632911611
 30
0.0
  0
SPLINE
  5
140
330
1F
100
AcDbEntity
  8
0
  6
HIDDEN
 62
     7
370
     0
100
AcDbSpline
210
0.0
220
0.0
230
1.0
 70
     8
 71
     3
 72
    11
 73
     7
 74
     0
 42
0.000000001
 43
0.00000001
 40
0.0
 40
0.0
 40
0.0
 40
0.0
 40
0.0005782401583596
 40
0.0005782401583596
 40
0.0005782401583596
 40
0.0011564805961119
 40
0.0011564805961119
 40
0.0011564805961119
 40
0.0011564805961119
 10
115.3744352415027
 20
106.5643971780678
 30
0.0
 10
115.2077842911537
 20
106.5009717199779
 30
0.0
 10
115.0411246985711
 20
106.4376161962927
 30
0.0
 10
114.8744576461425
 20
106.3743186119119
 30
0.0
 10
114.7077905095787
 20
106.3110209955779
 30
0.0
 10
114.5411159021326
 20
106.2477812006055
 30
0.0
 10
114.3744352415026
 20
106.184581193934
 30
0.0
  0
CIRCLE
  5
141
330
1F
100
AcDbEntity
  8
0
  6
HIDDEN
 62
     7
370
     0
100
AcDbCircle
 10
153.2744352415
 20
116.1652239703
 30
0.0
 40
5.0
  0
ARC
  5
142
330
1F
100
AcDbEntity
  8
0
  6
HIDDEN
 62
     7
370
     0
100
AcDbCircle
 10
175.5244352415
 20
110.9152239703
 30
0.0
 40
0.75
100
AcDbArc
 50
180.0
 51
0.0
  0
ARC
  5
143
330
1F
100
AcDbEntity
  8
0
  6
HIDDEN
 62
     7
370
     0
100
AcDbCircle
 10
175.5244352415
 20
110.9152239703
 30
0.0
 40
0.75
100
AcDbArc
 50
0.0
 51
180.0
  0
ARC
  5
144
330
1F
100
AcDbEntity
  8
0
  6
HIDDEN
 62
     7
370
     0
100
AcDbCircle
 10
175.5244352415
 20
121.4152239703
 30
0.0
 40
0.75
100
AcDbArc
 50
0.0
 51
180.0
  0
ARC
  5
145
330
1F
100
AcDbEntity
  8
0
  6
HIDDEN
 62
     7
370
     0
100
AcDbCircle
 10
175.5244352415
 20
121.4152239703
 30
0.0
 40
0.75
100
AcDbArc
 50
180.0
 51
0.0
  0
LINE
  5
146
330
1F
100
AcDbEntity
  8
0
  6
HIDDEN
 62
     7
370
     0
100
AcDbLine
 10
176.2744352415
 20
110.9152239703
 30
0.0
 11
176.2744352415
 21
121.4152239703
 31
0.0
  0
LINE
  5
147
330
1F
100
AcDbEntity
  8
0
  6
HIDDEN
 62
     7
370
     0
100
AcDbLine
 10
174.7744352415
 20
121.4152239703
 30
0.0
 11
174.7744352415
 21
110.9152239703
 31
0.0
  0
LINE
  5
148
330
1F
100
AcDbEntity
  8
0
  6
HIDDEN
 62
     7
370
     0
100
AcDbLine
 10
146.2744352415
 20
90.8412928243
 30
0.0
 11
146.368596017
 21
91.5112815555
 31
0.0
  0
LINE
  5
149
330
1F
100
AcDbEntity
  8
0
  6
HIDDEN
 62
     7
370
     0
100
AcDbLine
 10
146.368596017
 20
140.819166385
 30
0.0
 11
146.2744352415
 21
141.4891551163
 31
0.0
  0
ARC
  5
14A
330
1F
100
AcDbEntity
  8
0
  6
HIDDEN
 62
     7
370
     0
100
AcDbCircle
 10
145.7744284888
 20
91.5947863559
 30
0.0
 40
0.6000067526677242
100
AcDbArc
 50
352.0
 51
0.0
  0
ARC
  5
14B
330
1F
100
AcDbEntity
  8
0
  6
HIDDEN
 62
     7
370
     0
100
AcDbCircle
 10
145.7744284888
 20
91.5947863559
 30
0.0
 40
0.6000067526677282
100
AcDbArc
 50
0.0
 51
33.5571153394
  0
ARC
  5
14C
330
1F
100
AcDbEntity
  8
0
  6
HIDDEN
 62
     7
370
     0
100
AcDbCircle
 10
145.7744284888
 20
140.7356615847
 30
0.0
 40
0.6000067526677121
100
AcDbArc
 50
348.75
 51
8.0
  0
LWPOLYLINE
  5
14D
330
1F
100
AcDbEntity
  8
0
  6
HIDDEN
 62
     7
370
     0
100
AcDbPolyline
 90
        3
 70
   128
 43
0.0
 10
146.36290628
 20
140.6186060741
 10
146.328762447
 20
140.5060489411
 10
146.2744352415
 20
140.4039970696
  0
LINE
  5
14E
330
1F
100
AcDbEntity
  8
0
  6
HIDDEN
 62
     7
370
     0
100
AcDbLine
 10
146.3744352415
 20
91.5947863559
 30
0.0
 11
146.3744352415
 21
140.7356615847
 31
0.0
  0
LINE
  5
14F
330
1F
100
AcDbEntity
  8
0
  6
HIDDEN
 62
     7
370
     0
100
AcDbLine
 10
129.3568708068
 20
96.1652239703
 30
0.0
 11
133.5344073832
 21
96.1652239703
 31
0.0
  0
LINE
  5
150
330
1F
100
AcDbEntity
  8
0
  6
HIDDEN
 62
     7
370
     0
100
AcDbLine
 10
133.5344577007
 20
136.1652239703
 30
0.0
 11
129.3568708068
 21
136.1652239703
 31
0.0
  0
ARC
  5
151
330
1F
100
AcDbEntity
  8
0
  6
HIDDEN
 62
     7
370
     0
100
AcDbCircle
 10
129.3568708068
 20
96.7652239703
 30
0.0
 40
0.6000000000000084
100
AcDbArc
 50
210.0
 51
270.0
  0
ARC
  5
152
330
1F
100
AcDbEntity
  8
0
  6
HIDDEN
 62
     7
370
     0
100
AcDbCircle
 10
129.3568708068
 20
135.5652239703
 30
0.0
 40
0.6000000000000227
100
AcDbArc
 50
90.0
 51
150.0
  0
ARC
  5
153
330
1F
100
AcDbEntity
  8
0
  6
HIDDEN
 62
     7
370
     0
100
AcDbCircle
 10
140.0294372431
 20
104.1652239703
 30
0.0
 40
8.000000000000007
100
AcDbArc
 50
276.8838637475
 51
321.3178125465
  0
ARC
  5
154
330
1F
100
AcDbEntity
  8
0
  6
HIDDEN
 62
     7
370
     0
100
AcDbCircle
 10
140.0294372431
 20
128.1652239703
 30
0.0
 40
8.000000000000016
100
AcDbArc
 50
38.6821874535
 51
82.9469195222
  0
LINE
  5
155
330
1F
100
AcDbEntity
  8
0
  6
HIDDEN
 62
     7
370
     0
100
AcDbLine
 10
128.8372555645
 20
135.8652239703
 30
0.0
 11
127.2784098377
 21
133.1652239703
 31
0.0
  0
LINE
  5
156
330
1F
100
AcDbEntity
  8
0
  6
HIDDEN
 62
     7
370
     0
100
AcDbLine
 10
127.2784098377
 20
99.1652239703
 30
0.0
 11
128.8372555645
 21
96.4652239703
 31
0.0
  0
ARC
  5
157
330
1F
100
AcDbEntity
  8
0
  6
HIDDEN
 62
     7
370
     0
100
AcDbCircle
 10
154.7244352415
 20
100.4402239703
 30
0.0
 40
1.5
100
AcDbArc
 50
238.2116693829
 51
0.0
  0
ARC
  5
158
330
1F
100
AcDbEntity
  8
0
  6
HIDDEN
 62
     7
370
     0
100
AcDbCircle
 10
154.7244352415
 20
131.8902239703
 30
0.0
 40
1.500000000000025
100
AcDbArc
 50
0.0
 51
121.7883306171
  0
LINE
  5
159
330
1F
100
AcDbEntity
  8
0
  6
HIDDEN
 62
     7
370
     0
100
AcDbLine
 10
124.4744352415
 20
99.1652239703
 30
0.0
 11
127.2784098377
 21
99.1652239703
 31
0.0
  0
LINE
  5
15A
330
1F
100
AcDbEntity
  8
0
  6
HIDDEN
 62
     7
370
     0
100
AcDbLine
 10
127.2784098377
 20
133.1652239703
 30
0.0
 11
120.4744352415
 21
133.1652239703
 31
0.0
  0
LINE
  5
15B
330
1F
100
AcDbEntity
  8
0
  6
HIDDEN
 62
     7
370
     0
100
AcDbLine
 10
146.2744352415
 20
99.1652239703
 30
0.0
 11
153.93426121
 21
99.1652239703
 31
0.0
  0
LINE
  5
15C
330
1F
100
AcDbEntity
  8
0
  6
HIDDEN
 62
     7
370
     0
100
AcDbLine
 10
153.93426121
 20
133.1652239703
 30
0.0
 11
146.2744352415
 21
133.1652239703
 31
0.0
  0
LINE
  5
15D
330
1F
100
AcDbEntity
  8
0
  6
HIDDEN
 62
     7
370
     0
100
AcDbLine
 10
165.0744352415
 20
106.6652239703
 30
0.0
 11
168.0744352415
 21
106.6652239703
 31
0.0
  0
LINE
  5
15E
330
1F
100
AcDbEntity
  8
0
  6
HIDDEN
 62
     7
370
     0
100
AcDbLine
 10
168.0744352415
 20
125.6652239703
 30
0.0
 11
165.0744352415
 21
125.6652239703
 31
0.0
  0
LINE
  5
15F
330
1F
100
AcDbEntity
  8
0
  6
HIDDEN
 62
     7
370
     0
100
AcDbLine
 10
156.2244352415
 20
107.1652239703
 30
0.0
 11
156.7244352415
 21
107.6652239703
 31
0.0
  0
LINE
  5
160
330
1F
100
AcDbEntity
  8
0
  6
HIDDEN
 62
     7
370
     0
100
AcDbLine
 10
156.7244352415
 20
124.6652239703
 30
0.0
 11
156.2244352415
 21
125.1652239703
 31
0.0
  0
LINE
  5
161
330
1F
100
AcDbEntity
  8
0
  6
HIDDEN
 62
     7
370
     0
100
AcDbLine
 10
156.7244352415
 20
107.6652239703
 30
0.0
 11
165.0744352415
 21
107.6652239703
 31
0.0
  0
LINE
  5
162
330
1F
100
AcDbEntity
  8
0
  6
HIDDEN
 62
     7
370
     0
100
AcDbLine
 10
165.0744352415
 20
124.6652239703
 30
0.0
 11
156.7244352415
 21
124.6652239703
 31
0.0
  0
LINE
  5
163
330
1F
100
AcDbEntity
  8
0
  6
HIDDEN
 62
     7
370
     0
100
AcDbLine
 10
151.2244352415
 20
147.6652239703
 30
0.0
 11
151.2244352415
 21
142.5652239703
 31
0.0
  0
LINE
  5
164
330
1F
100
AcDbEntity
  8
0
  6
HIDDEN
 62
     7
370
     0
100
AcDbLine
 10
176.1691132434
 20
122.1652239703
 30
0.0
 11
175.5744352415
 21
122.1652239703
 31
0.0
  0
LINE
  5
165
330
1F
100
AcDbEntity
  8
0
  6
HIDDEN
 62
     7
370
     0
100
AcDbLine
 10
175.5744352415
 20
110.1652239703
 30
0.0
 11
176.1691132434
 21
110.1652239703
 31
0.0
  0
ARC
  5
166
330
1F
100
AcDbEntity
  8
0
  6
HIDDEN
 62
     7
370
     0
100
AcDbCircle
 10
175.5744352415
 20
121.3652239703
 30
0.0
 40
0.7999999999999972
100
AcDbArc
 50
90.0
 51
180.0
  0
ARC
  5
167
330
1F
100
AcDbEntity
  8
0
  6
HIDDEN
 62
     7
370
     0
100
AcDbCircle
 10
175.5744352415
 20
110.9652239703
 30
0.0
 40
0.7999999999999972
100
AcDbArc
 50
180.0
 51
270.0
  0
ARC
  5
168
330
1F
100
AcDbEntity
  8
0
  6
HIDDEN
 62
     7
370
     0
100
AcDbCircle
 10
176.1691132434
 20
121.3652239703
 30
0.0
 40
0.7999999999999972
100
AcDbArc
 50
75.0
 51
90.0
  0
ARC
  5
169
330
1F
100
AcDbEntity
  8
0
  6
HIDDEN
 62
     7
370
     0
100
AcDbCircle
 10
176.1691132434
 20
110.9652239703
 30
0.0
 40
0.7999999999999972
100
AcDbArc
 50
270.0
 51
285.0
  0
LINE
  5
16A
330
1F
100
AcDbEntity
  8
0
  6
HIDDEN
 62
     7
370
     0
100
AcDbLine
 10
176.3761684795
 20
110.1924833092
 30
0.0
 11
178.1404606453
 21
110.6652239703
 31
0.0
  0
LINE
  5
16B
330
1F
100
AcDbEntity
  8
0
  6
HIDDEN
 62
     7
370
     0
100
AcDbLine
 10
178.1404606453
 20
121.6652239703
 30
0.0
 11
176.3761684795
 21
122.1379646313
 31
0.0
  0
LINE
  5
16C
330
1F
100
AcDbEntity
  8
0
  6
HIDDEN
 62
     7
370
     0
100
AcDbLine
 10
182.3744352415
 20
121.6652239703
 30
0.0
 11
178.1404606453
 21
121.6652239703
 31
0.0
  0
LINE
  5
16D
330
1F
100
AcDbEntity
  8
0
  6
HIDDEN
 62
     7
370
     0
100
AcDbLine
 10
178.1404606453
 20
110.6652239703
 30
0.0
 11
182.3744352415
 21
110.6652239703
 31
0.0
  0
LINE
  5
16E
330
1F
100
AcDbEntity
  8
0
  6
HIDDEN
 62
     7
370
     0
100
AcDbLine
 10
141.458873072
 20
92.0858526367
 30
0.0
 11
141.0244409225
 21
92.5649186558
 31
0.0
  0
LINE
  5
16F
330
1F
100
AcDbEntity
  8
0
  6
HIDDEN
 62
     7
370
     0
100
AcDbLine
 10
133.5244375974
 20
92.986606615
 30
0.0
 11
133.0420038541
 21
92.5075406395
 31
0.0
  0
LINE
  5
170
330
1F
100
AcDbEntity
  8
0
  6
HIDDEN
 62
     7
370
     0
100
AcDbLine
 10
133.0418819258
 20
139.8229020106
 30
0.0
 11
133.5244326768
 21
139.3437817527
 31
0.0
  0
LINE
  5
171
330
1F
100
AcDbEntity
  8
0
  6
HIDDEN
 62
     7
370
     0
100
AcDbLine
 10
141.0244351235
 20
139.7654795304
 30
0.0
 11
141.4589775138
 21
140.2445997809
 31
0.0
  0
LINE
  5
172
330
1F
100
AcDbEntity
  8
0
  6
HIDDEN
 62
     7
370
     0
100
AcDbLine
 10
141.0244352415
 20
136.1022967963
 30
0.0
 11
141.0244352415
 21
139.7651882243
 31
0.0
  0
LINE
  5
173
330
1F
100
AcDbEntity
  8
0
  6
HIDDEN
 62
     7
370
     0
100
AcDbLine
 10
133.5244352415
 20
139.3436379735
 30
0.0
 11
133.5244352415
 21
136.1633524231
 31
0.0
  0
LINE
  5
174
330
1F
100
AcDbEntity
  8
0
  6
HIDDEN
 62
     7
370
     0
100
AcDbLine
 10
141.0244352415
 20
92.5651736219
 30
0.0
 11
141.0244352415
 21
96.229823632
 31
0.0
  0
LINE
  5
175
330
1F
100
AcDbEntity
  8
0
  6
HIDDEN
 62
     7
370
     0
100
AcDbLine
 10
133.5244352415
 20
96.1670862159
 30
0.0
 11
133.5244352415
 21
92.98678804
 31
0.0
  0
LINE
  5
176
330
1F
100
AcDbEntity
  8
0
  6
HIDDEN
 62
     7
370
     0
100
AcDbLine
 10
188.2744352415
 20
124.6375267024
 30
0.0
 11
187.8463543207
 21
124.2095537828
 31
0.0
  0
LINE
  5
177
330
1F
100
AcDbEntity
  8
0
  6
HIDDEN
 62
     7
370
     0
100
AcDbLine
 10
187.8463555208
 20
108.1208838139
 30
0.0
 11
188.2744352415
 21
107.6929158152
 31
0.0
  0
LINE
  5
178
330
1F
100
AcDbEntity
  8
0
  6
HIDDEN
 62
     7
370
     0
100
AcDbLine
 10
168.0744352415
 20
114.0652239703
 30
0.0
 11
174.7744352415
 21
114.0652239703
 31
0.0
  0
LINE
  5
179
330
1F
100
AcDbEntity
  8
0
  6
HIDDEN
 62
     7
370
     0
100
AcDbLine
 10
174.7744352415
 20
118.2652239703
 30
0.0
 11
168.0744352415
 21
118.2652239703
 31
0.0
  0
LINE
  5
17A
330
1F
100
AcDbEntity
  8
0
  6
HIDDEN
 62
     7
370
     0
100
AcDbLine
 10
187.8521933164
 20
124.2152239703
 30
0.0
 11
182.3744352415
 21
124.2152239703
 31
0.0
  0
LINE
  5
17B
330
1F
100
AcDbEntity
  8
0
  6
HIDDEN
 62
     7
370
     0
100
AcDbLine
 10
182.3744352415
 20
108.1152239703
 30
0.0
 11
187.8521905773
 21
108.1152239703
 31
0.0
  0
LINE
  5
17C
330
1F
100
AcDbEntity
  8
0
  6
HIDDEN
 62
     7
370
     0
100
AcDbLine
 10
114.3754677357
 20
96.4441914761
 30
0.0
 11
114.3855956766
 21
96.4340635352
 31
0.0
  0
DIMENSION
  5
17D
330
1F
100
AcDbEntity
  8
VERMASSUNG
100
AcDbDimension
  2
_D
 10
109.9825773347
 20
84.6652239703
 30
0.0
 11
109.9825773347
 21
116.1652239703
 31
0.0
 70
   160
  1
HSK A 63 %%c<>
 71
     2
 42
-1.0
  3
SLDDIMSTYLE0
100
AcDbAlignedDimension
 13
146.5744352415
 23
147.6652239703
 33
0.0
 14
146.5744352415
 24
84.6652239703
 34
0.0
 50
90.0
100
AcDbRotatedDimension
  0
DIMENSION
  5
18B
330
1F
100
AcDbEntity
  8
VERMASSUNG
100
AcDbDimension
  2
_D_1
 10
199.6104566336
 20
106.1652239703
 30
0.0
 11
199.6104566336
 21
116.1652239703
 31
0.0
 70
   160
  1
ST1 %%c<>
 71
     2
 42
-1.0
  3
SLDDIMSTYLE0
100
AcDbAlignedDimension
 13
188.0744352415
 23
126.1652239703
 33
0.0
 14
188.0744352415
 24
106.1652239703
 34
0.0
 50
90.0
100
AcDbRotatedDimension
  0
DIMENSION
  5
197
330
1F
100
AcDbEntity
  8
VERMASSUNG
100
AcDbDimension
  2
_D_2
 10
193.5104566336
 20
110.6652239703
 30
0.0
 11
193.5104566336
 21
116.1652239703
 31
0.0
 70
   160
  1
%%c<>
 71
     2
 42
-1.0
  3
SLDDIMSTYLE0
100
AcDbAlignedDimension
 13
182.3744352415
 23
121.6652239703
 33
0.0
 14
182.3744352415
 24
110.6652239703
 34
0.0
 50
90.0
100
AcDbRotatedDimension
  0
DIMENSION
  5
1A2
330
1F
100
AcDbEntity
  8
VERMASSUNG
100
AcDbDimension
  2
_D_3
 10
188.2744352415
 20
150.1273918294
 30
0.0
 11
180.2494352415
 21
150.1273918294
 31
0.0
 70
   160
  1
(<>)
 71
     2
 42
-1.0
  3
SLDDIMSTYLE0
100
AcDbAlignedDimension
 13
172.2244352415
 23
146.011664294
 33
0.0
 14
188.2744352415
 24
125.9652239703
 34
0.0
100
AcDbRotatedDimension
  0
DIMENSION
  5
1AE
330
1F
100
AcDbEntity
  8
VERMASSUNG
100
AcDbDimension
  2
_D_4
 10
146.2744352415
 20
156.1273918294
 30
0.0
 11
167.2744352415
 21
156.1273918294
 31
0.0
 70
   160
  1
<>
 71
     2
 42
-1.0
  3
SLDDIMSTYLE0
100
AcDbAlignedDimension
 13
188.2744352415
 23
125.9652239703
 33
0.0
 14
146.2744352415
 24
147.3652239703
 34
0.0
100
AcDbRotatedDimension
  0
DIMENSION
  5
1B8
330
1F
100
AcDbEntity
  8
VERMASSUNG
100
AcDbDimension
  2
_D_5
 10
188.2744352415
 20
162.1273918294
 30
0.0
 11
151.3244352415
 21
162.1273918294
 31
0.0
 70
   160
  1
(<>)
 71
     2
 42
-1.0
  3
SLDDIMSTYLE0
100
AcDbAlignedDimension
 13
114.3744352415
 23
135.8559017168
 33
0.0
 14
188.2744352415
 24
125.9652239703
 34
0.0
100
AcDbRotatedDimension
  0
LINE
  5
1C4
330
1F
100
AcDbEntity
  8
VERMASSUNG
  6
CENTERX2
370
     0
100
AcDbLine
 10
112.6501343582
 20
116.1652239703
 30
0.0
 11
190.0092880402
 21
116.1652239703
 31
0.0
  0
LINE
  5
1C5
330
1F
100
AcDbEntity
  8
0
  6
Continuous
 62
     7
370
    15
100
AcDbLine
 10
249.8531767219
 20
47.6034618302
 30
0.0
 11
249.7647740121
 21
47.6545122171
 31
0.0
  0
LINE
  5
1C6
330
1F
100
AcDbEntity
  8
0
  6
Continuous
 62
     7
370
    15
100
AcDbLine
 10
248.5271360758
 20
47.6545122171
 30
0.0
 11
248.4387333661
 21
47.6034618302
 31
0.0
  0
LINE
  5
1C7
330
1F
100
AcDbEntity
  8
0
  6
Continuous
 62
     7
370
    15
100
AcDbLine
 10
250.145955044
 20
47.093256512
 30
0.0
 11
250.145955044
 21
47.1953241135
 31
0.0
  0
LINE
  5
1C8
330
1F
100
AcDbEntity
  8
0
  6
Continuous
 62
     7
370
    15
100
AcDbLine
 10
248.145955044
 20
47.1953241135
 30
0.0
 11
248.145955044
 21
47.093256512
 31
0.0
  0
LINE
  5
1C9
330
1F
100
AcDbEntity
  8
0
  6
Continuous
 62
     7
370
    15
100
AcDbLine
 10
228.3138632592
 20
37.0547573977
 30
0.0
 11
233.3725289195
 21
34.1344518724
 31
0.0
  0
LINE
  5
1CA
330
1F
100
AcDbEntity
  8
0
  6
Continuous
 62
     7
370
    15
100
AcDbLine
 10
246.2457598656
 20
63.074975557
 30
0.0
 11
244.0625832982
 21
64.3352965626
 31
0.0
  0
SPLINE
  5
1CB
330
1F
100
AcDbEntity
  8
0
  6
Continuous
 62
     7
370
    15
100
AcDbSpline
210
0.0
220
0.0
230
1.0
 70
     8
 71
     3
 72
    10
 73
     6
 74
     0
 42
0.000000001
 43
0.00000001
 40
0.0
 40
0.0
 40
0.0
 40
0.0
 40
0.1928762709510173
 40
0.6849555902905377
 40
1.0
 40
1.0
 40
1.0
 40
1.0
 10
225.1370187384766
 20
46.30397191410427
 30
0.0
 10
225.1195432053665
 20
46.17282798738125
 30
0.0
 10
225.0574828801742
 20
45.7071005793457
 30
0.0
 10
225.0172569075386
 20
45.04746071424611
 30
0.0
 10
225.0101367151744
 20
44.52929802496103
 30
0.0
 10
225.0073574922131
 20
44.32704370792882
 30
0.0
  0
SPLINE
  5
1CC
330
1F
100
AcDbEntity
  8
0
  6
Continuous
 62
     7
370
    15
100
AcDbSpline
210
0.0
220
0.0
230
1.0
 70
     8
 71
     3
 72
    10
 73
     6
 74
     0
 42
0.000000001
 43
0.00000001
 40
0.0
 40
0.0
 40
0.0
 40
0.0
 40
0.1068604487570109
 40
0.5990694535020861
 40
1.0
 40
1.0
 40
1.0
 40
1.0
 10
232.4258163417069
 20
60.70208800469152
 30
0.0
 10
232.3698877209796
 20
60.648965375465
 30
0.0
 10
232.0563467556926
 20
60.35115505528112
 30
0.0
 10
231.548981192324
 20
59.80939407577349
 30
0.0
 10
231.1124124501154
 20
59.29835960297937
 30
0.0
 10
230.9164366430268
 20
59.06895611259372
 30
0.0
  0
SPLINE
  5
1CD
330
1F
100
AcDbEntity
  8
0
  6
Continuous
 62
     7
370
    15
100
AcDbSpline
210
0.0
220
0.0
230
1.0
 70
     8
 71
     3
 72
    15
 73
    11
 74
     0
 42
0.000000001
 43
0.00000001
 40
0.0
 40
0.0
 40
0.0
 40
0.0
 40
0.0731587950571148
 40
0.2097742051820802
 40
0.3464328176107903
 40
0.483105771201249
 40
0.6197710050181676
 40
0.7564195754197669
 40
0.8930472860919306
 40
1.0
 40
1.0
 40
1.0
 40
1.0
 10
238.2957731650492
 20
64.56526219096826
 30
0.0
 10
238.15300151945
 20
64.51716985296672
 30
0.0
 10
237.7436206862265
 20
64.37927075318316
 30
0.0
 10
237.0574742402626
 20
64.07120393913621
 30
0.0
 10
236.243274810435
 20
63.64921988157213
 30
0.0
 10
235.4285283006573
 20
63.15462305952944
 30
0.0
 10
234.6180177739546
 20
62.59531730787128
 30
0.0
 10
233.8166252622543
 20
61.97099472792657
 30
0.0
 10
233.0829307373079
 20
61.3422749332391
 30
0.0
 10
232.6263114168963
 20
60.89741826565319
 30
0.0
 10
232.4258163417069
 20
60.70208800469152
 30
0.0
  0
SPLINE
  5
1CE
330
1F
100
AcDbEntity
  8
0
  6
Continuous
 62
     7
370
    15
100
AcDbSpline
210
0.0
220
0.0
230
1.0
 70
     8
 71
     3
 72
    11
 73
     7
 74
     0
 42
0.000000001
 43
0.00000001
 40
0.0
 40
0.0
 40
0.0
 40
0.0
 40
0.1952692711210365
 40
0.5662509004861336
 40
0.9373271229736228
 40
1.0
 40
1.0
 40
1.0
 40
1.0
 10
225.0073574922131
 20
44.32704370792882
 30
0.0
 10
225.0089132313749
 20
44.16282310014633
 30
0.0
 10
225.0134246360431
 20
43.68660855547495
 30
0.0
 10
225.0708163156663
 20
42.92893548191706
 30
0.0
 10
225.1458837107177
 20
42.29485847054384
 30
0.0
 10
225.2172988439216
 20
41.97741178944802
 30
0.0
 10
225.2276176938423
 20
41.93154357478418
 30
0.0
  0
LINE
  5
1CF
330
1F
100
AcDbEntity
  8
0
  6
Continuous
 62
     7
370
    15
100
AcDbLine
 10
250.861263612
 20
38.1424205377
 30
0.0
 11
250.9319627977
 21
38.1832475777
 31
0.0
  0
LINE
  5
1D0
330
1F
100
AcDbEntity
  8
0
  6
Continuous
 62
     7
370
    15
100
AcDbLine
 10
254.3962228943
 20
44.1841722884
 30
0.0
 11
254.3962228943
 21
44.2658130995
 31
0.0
  0
LINE
  5
1D1
330
1F
100
AcDbEntity
  8
0
  6
Continuous
 62
     7
370
    15
100
AcDbLine
 10
253.3604858199
 20
46.5550371319
 30
0.0
 11
249.1708781414
 21
48.9736461632
 31
0.0
  0
LINE
  5
1D2
330
1F
100
AcDbEntity
  8
0
  6
Continuous
 62
     7
370
    15
100
AcDbLine
 10
244.1712844782
 20
40.3131575394
 30
0.0
 11
248.3608921568
 21
37.8945485081
 31
0.0
  0
SPLINE
  5
1D3
330
1F
100
AcDbEntity
  8
0
  6
Continuous
 62
     7
370
    15
100
AcDbSpline
210
0.0
220
0.0
230
1.0
 70
     8
 71
     3
 72
    19
 73
    15
 74
     0
 42
0.000000001
 43
0.00000001
 40
0.0
 40
0.0
 40
0.0
 40
0.0
 40
0.0081450104855738
 40
0.1015006365895797
 40
0.1950510409786859
 40
0.2886106186206125
 40
0.3819657866280582
 40
0.4749548969858182
 40
0.5674366864416677
 40
0.6593500194860199
 40
0.7508723084407988
 40
0.842515678688352
 40
0.9357219421173852
 40
1.0
 40
1.0
 40
1.0
 40
1.0
 10
249.1263865994761
 20
42.34993896497054
 30
0.0
 10
249.1309619263686
 20
42.36260953262783
 30
0.0
 10
249.1879782547102
 20
42.52050628247776
 30
0.0
 10
249.3302521677491
 20
42.82292910931466
 30
0.0
 10
249.5687099672745
 20
43.24093961423575
 30
0.0
 10
249.8464100614389
 20
43.6297320010139
 30
0.0
 10
250.1507873953896
 20
43.97687150284037
 30
0.0
 10
250.4722357006499
 20
44.27163933789657
 30
0.0
 10
250.7990966867298
 20
44.50555010166185
 30
0.0
 10
251.1193068648373
 20
44.67261573820698
 30
0.0
 10
251.4213068648425
 20
44.77112059394447
 30
0.0
 10
251.6929404519874
 20
44.79977664437758
 30
0.0
 10
251.9064077665422
 20
44.77699158397427
 30
0.0
 10
252.0133910764061
 20
44.72170392848531
 30
0.0
 10
252.0570568796214
 20
44.69913797976029
 30
0.0
  0
SPLINE
  5
1D4
330
1F
100
AcDbEntity
  8
0
  6
Continuous
 62
     7
370
    15
100
AcDbSpline
210
0.0
220
0.0
230
1.0
 70
     8
 71
     3
 72
    24
 73
    20
 74
     0
 42
0.000000001
 43
0.00000001
 40
0.0
 40
0.0
 40
0.0
 40
0.0
 40
0.0145720876130616
 40
0.077432312647575
 40
0.1405213799217163
 40
0.2038290783642308
 40
0.2673187558730614
 40
0.3309427996002861
 40
0.3946547040776109
 40
0.4584157655419732
 40
0.522197210562018
 40
0.585975679455409
 40
0.6497404760353367
 40
0.7134866396628077
 40
0.7772125557422199
 40
0.8409187892062868
 40
0.9046072711350234
 40
0.9682807578026761
 40
0.9999999999999999
 40
0.9999999999999999
 40
0.9999999999999999
 40
0.9999999999999999
 10
239.2623758849006
 20
31.24486184289352
 30
0.0
 10
239.3158377598219
 20
31.23538008077888
 30
0.0
 10
239.5999203651118
 20
31.18499644406146
 30
0.0
 10
240.1437118448722
 20
31.16929322637543
 30
0.0
 10
240.8907843801291
 20
31.20126320680505
 30
0.0
 10
241.6627216249341
 20
31.31636790048223
 30
0.0
 10
242.4522649792745
 20
31.50609438572129
 30
0.0
 10
243.2558703809381
 20
31.77167286846822
 30
0.0
 10
244.06882982333
 20
32.11104921635835
 30
0.0
 10
244.8867082503477
 20
32.52243783365723
 30
0.0
 10
245.7050198684032
 20
33.00342627685298
 30
0.0
 10
246.5193789810463
 20
33.5512794777396
 30
0.0
 10
247.3254672283005
 20
34.16293325563288
 30
0.0
 10
248.1191284526238
 20
34.83497811871938
 30
0.0
 10
248.8960882771261
 20
35.56394762801163
 30
0.0
 10
249.6529294100151
 20
36.34525468013669
 30
0.0
 10
250.3834918094967
 20
37.17722924076283
 30
0.0
 10
250.9738303956573
 20
37.90083540512927
 30
0.0
 10
251.3066912446479
 20
38.3599173349261
 30
0.0
 10
251.417371524086
 20
38.51256765841408
 30
0.0
  0
SPLINE
  5
1D5
330
1F
100
AcDbEntity
  8
0
  6
Continuous
 62
     7
370
    15
100
AcDbSpline
210
0.0
220
0.0
230
1.0
 70
     8
 71
     3
 72
    13
 73
     9
 74
     0
 42
0.000000001
 43
0.00000001
 40
0.0
 40
0.0
 40
0.0
 40
0.0
 40
0.0890507698928841
 40
0.3033457337298776
 40
0.5176847939587532
 40
0.7320805059187444
 40
0.9465447711826841
 40
1.0
 40
1.0
 40
1.0
 40
1.0
 10
254.3226865834226
 20
43.5281015087829
 30
0.0
 10
254.3876883573118
 20
43.67149519264332
 30
0.0
 10
254.6091127292502
 20
44.15995657591032
 30
0.0
 10
254.9347883110533
 20
45.00366905856934
 30
0.0
 10
255.2986314153271
 20
46.05225645672309
 30
0.0
 10
255.603560782148
 20
47.09871627565859
 30
0.0
 10
255.7959312661589
 20
47.87860432175181
 30
0.0
 10
255.8813045350037
 20
48.30653168034285
 30
0.0
 10
255.8983381877307
 20
48.39191163729266
 30
0.0
  0
LINE
  5
1D6
330
1F
100
AcDbEntity
  8
0
  6
Continuous
 62
     7
370
    15
100
AcDbLine
 10
235.770987626
 20
32.7498511332
 30
0.0
 11
237.1703756936
 21
31.9420015974
 31
0.0
  0
LINE
  5
1D7
330
1F
100
AcDbEntity
  8
0
  6
Continuous
 62
     7
370
    15
100
AcDbLine
 10
236.8392979437
 20
63.9480315814
 30
0.0
 11
230.6959070515
 21
67.0088383633
 31
0.0
  0
LINE
  5
1D8
330
1F
100
AcDbEntity
  8
0
  6
Continuous
 62
     7
370
    15
100
AcDbLine
 10
219.3142092384
 20
47.2930232249
 30
0.0
 11
225.0381898911
 21
43.5028409745
 31
0.0
  0
LINE
  5
1D9
330
1F
100
AcDbEntity
  8
0
  6
Continuous
 62
     7
370
    15
100
AcDbLine
 10
249.0705587468
 20
40.2013076396
 30
0.0
 11
249.0368612085
 21
40.2526960697
 31
0.0
  0
SPLINE
  5
1DA
330
1F
100
AcDbEntity
  8
0
  6
Continuous
 62
     7
370
    15
100
AcDbSpline
210
0.0
220
0.0
230
1.0
 70
     8
 71
     3
 72
    10
 73
     6
 74
     0
 42
0.000000001
 43
0.00000001
 40
0.0
 40
0.0
 40
0.0
 40
0.0
 40
0.2352802213811506
 40
0.9716958326648255
 40
0.9999999999999999
 40
0.9999999999999999
 40
0.9999999999999999
 40
0.9999999999999999
 10
249.3814701076029
 20
39.91373696349679
 30
0.0
 10
249.3574954346904
 20
39.92371509055598
 30
0.0
 10
249.2584812055223
 20
39.96492426837937
 30
0.0
 10
249.1760359993722
 20
40.03995358805653
 30
0.0
 10
249.123262378005
 20
40.12091717069487
 30
0.0
 10
249.1213090959639
 20
40.12391383281231
 30
0.0
  0
SPLINE
  5
1DB
330
1F
100
AcDbEntity
  8
0
  6
Continuous
 62
     7
370
    15
100
AcDbSpline
210
0.0
220
0.0
230
1.0
 70
     8
 71
     3
 72
    10
 73
     6
 74
     0
 42
0.000000001
 43
0.00000001
 40
0.0
 40
0.0
 40
0.0
 40
0.0
 40
0.0276582149065851
 40
0.7431300157345454
 40
1.0
 40
1.0
 40
1.0
 40
1.0
 10
254.4038297256586
 20
57.97229442284814
 30
0.0
 10
254.3982900257573
 20
57.97960962193125
 30
0.0
 10
254.2494475466324
 20
58.17615679708671
 30
0.0
 10
254.0178054960743
 20
58.40248238591177
 30
0.0
 10
253.780402814133
 20
58.60308299588193
 30
0.0
 10
253.7176865716453
 20
58.65607699070623
 30
0.0
  0
SPLINE
  5
1DC
330
1F
100
AcDbEntity
  8
0
  6
Continuous
 62
     7
370
    15
100
AcDbSpline
210
0.0
220
0.0
230
1.0
 70
     8
 71
     3
 72
    12
 73
     8
 74
     0
 42
0.000000001
 43
0.00000001
 40
0.0
 40
0.0
 40
0.0
 40
0.0
 40
0.1180949062059849
 40
0.3413964454997745
 40
0.564417810346134
 40
0.7868539178876008
 40
1.0
 40
1.0
 40
1.0
 40
1.0
 10
255.9090929958089
 20
54.93320601317046
 30
0.0
 10
255.8709123596597
 20
55.07308830229039
 30
0.0
 10
255.7605372902595
 20
55.47746913316737
 30
0.0
 10
255.5332971475949
 20
56.10779496127931
 30
0.0
 10
255.2083982401422
 20
56.80081439374997
 30
0.0
 10
254.8364118091251
 20
57.43004372312264
 30
0.0
 10
254.5459588424179
 20
57.79413259886208
 30
0.0
 10
254.4038297256586
 20
57.97229442284814
 30
0.0
  0
SPLINE
  5
1DD
330
1F
100
AcDbEntity
  8
0
  6
Continuous
 62
     7
370
    15
100
AcDbSpline
210
0.0
220
0.0
230
1.0
 70
     8
 71
     3
 72
    29
 73
    25
 74
     0
 42
0.000000001
 43
0.00000001
 40
0.0
 40
0.0
 40
0.0
 40
0.0
 40
0.0256238170622069
 40
0.0712510982928028
 40
0.1170298042155619
 40
0.1631641487001495
 40
0.2097678165911395
 40
0.2568519321130771
 40
0.3043454684986063
 40
0.3521351457336686
 40
0.4001046341469926
 40
0.4481589374073156
 40
0.4962247287581077
 40
0.5442618074161778
 40
0.5922555458363841
 40
0.6402025354781503
 40
0.6881061227006149
 40
0.7359734953311128
 40
0.7838139182114661
 40
0.8316377320364753
 40
0.87945582461338
 40
0.9272789232118007
 40
0.9751150712517913
 40
0.9999999999999999
 40
0.9999999999999999
 40
0.9999999999999999
 40
0.9999999999999999
 10
230.7270364106575
 20
66.98162065477449
 30
0.0
 10
230.6289433508287
 20
67.03331919129288
 30
0.0
 10
230.3561799982521
 20
67.17707519369182
 30
0.0
 10
229.8668116368261
 20
67.33087129630844
 30
0.0
 10
229.2687847847226
 20
67.44809985829308
 30
0.0
 10
228.6404390557923
 20
67.4854236701411
 30
0.0
 10
227.9874880080836
 20
67.44671740471803
 30
0.0
 10
227.3133118895227
 20
67.33039587341517
 30
0.0
 10
226.6229398359379
 20
67.13704363609595
 30
0.0
 10
225.9218031450696
 20
66.86775313357063
 30
0.0
 10
225.2156591370907
 20
66.52469545268302
 30
0.0
 10
224.5102306709319
 20
66.11085167841712
 30
0.0
 10
223.811014129583
 20
65.62984661884119
 30
0.0
 10
223.1231941940589
 20
65.08575110147362
 30
0.0
 10
222.4516418049814
 20
64.48294283916613
 30
0.0
 10
221.8009973287729
 20
63.82607402280014
 30
0.0
 10
221.1757228204067
 20
63.12008166698113
 30
0.0
 10
220.580131769858
 20
62.37017029306393
 30
0.0
 10
220.0182730262792
 20
61.58180245125162
 30
0.0
 10
219.4942999179573
 20
60.76063860193307
 30
0.0
 10
219.0109972356604
 20
59.91263782488103
 30
0.0
 10
218.575180667883
 20
59.04355376909335
 30
0.0
 10
218.2411186810515
 20
58.30201956104234
 30
0.0
 10
218.0735012524504
 20
57.85032440718751
 30
0.0
 10
218.0161430840635
 20
57.69575571519295
 30
0.0
  0
LINE
  5
1DE
330
1F
100
AcDbEntity
  8
0
  6
Continuous
 62
     7
370
    15
100
AcDbLine
 10
218.1300235165
 20
55.8491633178
 30
0.0
 11
220.6835834152
 21
54.3750245662
 31
0.0
  0
LINE
  5
1DF
330
1F
100
AcDbEntity
  8
0
  6
Continuous
 62
     7
370
    15
100
AcDbLine
 10
217.8317312391
 20
56.9733387685
 30
0.0
 11
217.8317312391
 21
56.5120669513
 31
0.0
  0
LINE
  5
1E0
330
1F
100
AcDbEntity
  8
0
  6
Continuous
 62
     7
370
    15
100
AcDbLine
 10
217.8317312391
 20
49.5018287763
 30
0.0
 11
217.8317312391
 21
49.0407185226
 31
0.0
  0
SPLINE
  5
1E1
330
1F
100
AcDbEntity
  8
0
  6
Continuous
 62
     7
370
    15
100
AcDbSpline
210
0.0
220
0.0
230
1.0
 70
     8
 71
     3
 72
    11
 73
     7
 74
     0
 42
0.000000001
 43
0.00000001
 40
0.0
 40
0.0
 40
0.0
 40
0.0
 40
0.1997245182293877
 40
0.5195411125527489
 40
0.8357454779518417
 40
1.0
 40
1.0
 40
1.0
 40
1.0
 10
217.9475988375391
 20
48.75313529688484
 30
0.0
 10
218.0164898487309
 20
48.63774698427815
 30
0.0
 10
218.1956952508358
 20
48.33758868203904
 30
0.0
 10
218.5509077402442
 20
47.92506783242358
 30
0.0
 10
218.9210077341027
 20
47.56580392286361
 30
0.0
 10
219.1757482957367
 20
47.39778207943436
 30
0.0
 10
219.2628364739153
 20
47.34034043706458
 30
0.0
  0
LWPOLYLINE
  5
1E2
330
1F
100
AcDbEntity
  8
0
  6
Continuous
 62
     7
370
    15
100
AcDbPolyline
 90
       20
 70
   128
 43
0.0
 10
249.2426995659
 20
47.7994214686
 10
249.5198277904
 20
47.7540858336
 10
249.7564411016
 20
47.6592603044
 10
249.9268987758
 20
47.5252206987
 10
250.0127290791
 20
47.3664922874
 10
250.0046309663
 20
47.2002757569
 10
249.9034819935
 20
47.0445832474
 10
249.7202432216
 20
46.9162864581
 10
249.4747714146
 20
46.8292883368
 10
249.1936672517
 20
46.7930164799
 10
248.9073927308
 20
46.8114015059
 10
248.6469701382
 20
46.882451112
 10
248.4406203027
 20
46.9984659709
 10
248.3107044308
 20
47.1468740725
 10
248.2713009231
 20
47.3115930962
 10
248.326679761
 20
47.4747731798
 10
248.4708397882
 20
47.6187312294
 10
248.6881590289
 20
47.7278671565
 10
248.9550875713
 20
47.79035439
 10
249.2426995659
 20
47.7994214686
  0
LWPOLYLINE
  5
1E3
330
1F
100
AcDbEntity
  8
0
  6
Continuous
 62
     7
370
    15
100
AcDbPolyline
 90
       17
 70
   128
 43
0.0
 10
249.8531767219
 20
47.6034618302
 10
250.0150004303
 20
47.4809270306
 10
250.1253470312
 20
47.3119181332
 10
250.1398239205
 20
47.1314962007
 10
250.0570139994
 20
46.9573221891
 10
249.8850232801
 20
46.806445464
 10
249.6406874125
 20
46.6936348907
 10
249.3479236936
 20
46.629933154
 10
249.0353898761
 20
46.6215758237
 10
248.7336789475
 20
46.6693809735
 10
248.4723244758
 20
46.7686691024
 10
248.2769096576
 20
46.9097211964
 10
248.1665630568
 20
47.0787300939
 10
248.1520861675
 20
47.2591520263
 10
248.2348960885
 20
47.433326038
 10
248.4068868078
 20
47.584202763
 10
248.4387333661
 20
47.6034618302
  0
LWPOLYLINE
  5
1E4
330
1F
100
AcDbEntity
  8
0
  6
Continuous
 62
     7
370
    15
100
AcDbPolyline
 90
       17
 70
   128
 43
0.0
 10
249.2150582739
 20
47.6559843961
 10
249.4475088243
 20
47.6134219756
 10
249.6340505453
 20
47.5227468128
 10
249.7462841508
 20
47.3977633791
 10
249.7671230918
 20
47.2574992695
 10
249.6933948284
 20
47.1233084231
 10
249.5363238203
 20
47.0156201797
 10
249.3198227048
 20
46.9508290984
 10
249.076851814
 20
46.9387990339
 10
248.8444012636
 20
46.9813614544
 10
248.6578595426
 20
47.0720366172
 10
248.5456259371
 20
47.1970200509
 10
248.5247869962
 20
47.3372841605
 10
248.5985152596
 20
47.4714750069
 10
248.7555862676
 20
47.5791632503
 10
248.9720873831
 20
47.6439543316
 10
249.2150582739
 20
47.6559843961
  0
SPLINE
  5
1E5
330
1F
100
AcDbEntity
  8
0
  6
Continuous
 62
     7
370
    15
100
AcDbSpline
210
0.0
220
0.0
230
1.0
 70
     8
 71
     3
 72
    11
 73
     7
 74
     0
 42
0.000000001
 43
0.00000001
 40
0.0
 40
0.0
 40
0.0
 40
0.0
 40
0.1208913875340466
 40
0.4766714197330046
 40
0.8143663490172433
 40
1.0
 40
1.0
 40
1.0
 40
1.0
 10
248.9143323962257
 20
47.56378344134865
 30
0.0
 10
248.9360483960629
 20
47.55390808679499
 30
0.0
 10
249.0216739868054
 20
47.51496983510081
 30
0.0
 10
249.1831562116325
 20
47.47132728559939
 30
0.0
 10
249.3601128121393
 20
47.486329091347
 30
0.0
 10
249.4546196561121
 20
47.51630087234006
 30
0.0
 10
249.4881428596042
 20
47.52693237870525
 30
0.0
  0
SPLINE
  5
1E6
330
1F
100
AcDbEntity
  8
0
  6
Continuous
 62
     7
370
    15
100
AcDbSpline
210
0.0
220
0.0
230
1.0
 70
     8
 71
     3
 72
    10
 73
     6
 74
     0
 42
0.000000001
 43
0.00000001
 40
0.0
 40
0.0
 40
0.0
 40
0.0
 40
0.4391051671061713
 40
0.751357898069273
 40
1.0
 40
1.0
 40
1.0
 40
1.0
 10
248.5721445805882
 20
47.29533482776047
 30
0.0
 10
248.6211300260031
 20
47.30580250662825
 30
0.0
 10
248.704949584642
 20
47.32371387224391
 30
0.0
 10
248.8267981230755
 20
47.44056985674621
 30
0.0
 10
248.8874470192518
 20
47.5259394797651
 30
0.0
 10
248.9143323962257
 20
47.56378344134865
 30
0.0
  0
SPLINE
  5
1E7
330
1F
100
AcDbEntity
  8
0
  6
Continuous
 62
     7
370
    15
100
AcDbSpline
210
0.0
220
0.0
230
1.0
 70
     8
 71
     3
 72
    10
 73
     6
 74
     0
 42
0.000000001
 43
0.00000001
 40
0.0
 40
0.0
 40
0.0
 40
0.0
 40
0.3309838716904001
 40
0.7034282246633903
 40
1.0
 40
1.0
 40
1.0
 40
1.0
 10
248.7664983638356
 20
47.01630785285936
 30
0.0
 10
248.745476184063
 20
47.02717811553976
 30
0.0
 10
248.7007984947227
 20
47.05028029734653
 30
0.0
 10
248.631344210443
 20
47.16338660660696
 30
0.0
 10
248.5903272227475
 20
47.2548080998963
 30
0.0
 10
248.5721445805882
 20
47.29533482776047
 30
0.0
  0
SPLINE
  5
1E8
330
1F
100
AcDbEntity
  8
0
  6
Continuous
 62
     7
370
    15
100
AcDbSpline
210
0.0
220
0.0
230
1.0
 70
     8
 71
     3
 72
     9
 73
     5
 74
     0
 42
0.000000001
 43
0.00000001
 40
0.0
 40
0.0
 40
0.0
 40
0.0
 40
0.6997252158987398
 40
1.0
 40
1.0
 40
1.0
 40
1.0
 10
249.7197655073453
 20
47.22163270247367
 30
0.0
 10
249.670562627819
 20
47.1523228245235
 30
0.0
 10
249.600245196907
 20
47.05326983004031
 30
0.0
 10
249.5258662116561
 20
47.0123904753746
 30
0.0
 10
249.5035320779182
 20
47.00011543597816
 30
0.0
  0
SPLINE
  5
1E9
330
1F
100
AcDbEntity
  8
0
  6
Continuous
 62
     7
370
    15
100
AcDbSpline
210
0.0
220
0.0
230
1.0
 70
     8
 71
     3
 72
    10
 73
     6
 74
     0
 42
0.000000001
 43
0.00000001
 40
0.0
 40
0.0
 40
0.0
 40
0.0
 40
0.4391051671061721
 40
0.7513578980692768
 40
1.0
 40
1.0
 40
1.0
 40
1.0
 10
249.4881428596042
 20
47.52693237870525
 30
0.0
 10
249.5213004942401
 20
47.45526587789609
 30
0.0
 10
249.5780369039462
 20
47.33263650469871
 30
0.0
 10
249.6605146538999
 20
47.24518833999268
 30
0.0
 10
249.7015671323137
 20
47.22886760797716
 30
0.0
 10
249.7197655073453
 20
47.22163270247367
 30
0.0
  0
LINE
  5
1EA
330
1F
100
AcDbEntity
  8
0
  6
Continuous
 62
     7
370
    15
100
AcDbLine
 10
249.4881428596
 20
46.9954683106
 30
0.0
 11
249.4881428596
 21
47.5269323787
 31
0.0
  0
LINE
  5
1EB
330
1F
100
AcDbEntity
  8
0
  6
Continuous
 62
     7
370
    15
100
AcDbLine
 10
248.9143323962
 20
46.9622783367
 30
0.0
 11
248.9143323962
 21
47.5637834413
 31
0.0
  0
SPLINE
  5
1EC
330
1F
100
AcDbEntity
  8
0
  6
Continuous
 62
     7
370
    15
100
AcDbSpline
210
0.0
220
0.0
230
1.0
 70
     8
 71
     3
 72
    10
 73
     6
 74
     0
 42
0.000000001
 43
0.00000001
 40
0.0
 40
0.0
 40
0.0
 40
0.0
 40
0.5
 40
0.5
 40
1.0
 40
1.0
 40
1.0
 40
1.0
 10
234.8057314455834
 20
43.10093105217533
 30
0.0
 10
234.7492027598009
 20
43.0682977364927
 30
0.0
 10
234.6705594372261
 20
43.04792476103373
 30
0.0
 10
234.510329522895
 20
43.04486336107238
 30
0.0
 10
234.4291625103543
 20
43.06252256095262
 30
0.0
 10
234.3720486100165
 20
43.09549371380695
 30
0.0
  0
SPLINE
  5
1ED
330
1F
100
AcDbEntity
  8
0
  6
Continuous
 62
     7
370
    15
100
AcDbSpline
210
0.0
220
0.0
230
1.0
 70
     8
 71
     3
 72
    12
 73
     8
 74
     0
 42
0.000000001
 43
0.00000001
 40
0.0
 40
0.0
 40
0.0
 40
0.0
 40
0.250000000000002
 40
0.250000000000002
 40
0.500000000000004
 40
0.500000000000004
 40
1.0
 40
1.0
 40
1.0
 40
1.0
 10
252.0627705163613
 20
59.61945559206205
 30
0.0
 10
252.094674844706
 20
59.60103761534629
 30
0.0
 10
252.1268121811469
 20
59.57112307471422
 30
0.0
 10
252.1814704875731
 20
59.50072565477131
 30
0.0
 10
252.2044438269035
 20
59.46034495809548
 30
0.0
 10
252.2581256158412
 20
59.33782112806011
 30
0.0
 10
252.2749025507173
 20
59.25301980645443
 30
0.0
 10
252.2749025507173
 20
59.17946721082082
 30
0.0
  0
LINE
  5
1EE
330
1F
100
AcDbEntity
  8
0
  6
Continuous
 62
     7
370
    15
100
AcDbLine
 10
234.37204861
 20
43.0954937138
 30
0.0
 11
232.9726605424
 21
43.9033432497
 31
0.0
  0
LWPOLYLINE
  5
1EF
330
1F
100
AcDbEntity
  8
0
  6
Continuous
 62
     7
370
    15
100
AcDbPolyline
 90
       26
 70
   128
 43
0.0
 10
232.9726605424
 20
43.9033432497
 10
233.2551050223
 20
45.0216985085
 10
233.6015636052
 20
46.1484845926
 10
234.009901766
 20
47.2767593927
 10
234.4776037402
 20
48.3995716274
 10
235.0017880244
 20
49.5100036701
 10
235.5792251282
 20
50.6012141685
 10
236.2063574717
 20
51.6664801939
 10
236.8793213036
 20
52.6992386607
 10
237.5939705055
 20
53.6931267623
 10
238.345902136
 20
54.6420211713
 10
239.1304835577
 20
55.540075766
 10
239.942880978
 20
56.3817576476
 10
240.7780892307
 20
57.1618812288
 10
241.6309626124
 20
57.8756401819
 10
242.496246585
 20
58.5186370505
 10
243.3686101492
 20
59.0869103421
 10
244.2426786882
 20
59.5769589348
 10
245.1130670811
 20
59.985763648
 10
245.9744128803
 20
60.3108058428
 10
246.8214093492
 20
60.55008294
 10
247.6488381576
 20
60.7021207576
 10
248.4516015309
 20
60.7659825933
 10
249.2247536582
 20
60.7412749953
 10
249.9635311625
 20
60.6281501869
 10
250.6633824487
 20
60.4273051279
  0
LINE
  5
1F0
330
1F
100
AcDbEntity
  8
0
  6
Continuous
 62
     7
370
    15
100
AcDbLine
 10
250.6633824487
 20
60.4273051279
 30
0.0
 11
252.0627705164
 21
59.6194555921
 31
0.0
  0
LINE
  5
1F1
330
1F
100
AcDbEntity
  8
0
  6
Continuous
 62
     7
370
    15
100
AcDbLine
 10
254.5906772591
 20
54.1142667487
 30
0.0
 11
255.809177921
 21
54.817692208
 31
0.0
  0
LINE
  5
1F2
330
1F
100
AcDbEntity
  8
0
  6
Continuous
 62
     7
370
    15
100
AcDbLine
 10
254.5906772591
 20
47.5819402536
 30
0.0
 11
254.5906772591
 21
54.1142667487
 31
0.0
  0
LINE
  5
1F3
330
1F
100
AcDbEntity
  8
0
  6
Continuous
 62
     7
370
    15
100
AcDbLine
 10
255.809177921
 20
48.2853657129
 30
0.0
 11
254.5906772591
 21
47.5819402536
 31
0.0
  0
LINE
  5
1F4
330
1F
100
AcDbEntity
  8
0
  6
Continuous
 62
     7
370
    15
100
AcDbLine
 10
234.8057314456
 20
35.7520637452
 30
0.0
 11
235.9230582358
 21
36.3970827716
 31
0.0
  0
LINE
  5
1F5
330
1F
100
AcDbEntity
  8
0
  6
Continuous
 62
     7
370
    15
100
AcDbLine
 10
235.9230582358
 20
36.3970827716
 30
0.0
 11
235.9230582358
 21
43.7459500785
 31
0.0
  0
LINE
  5
1F6
330
1F
100
AcDbEntity
  8
0
  6
Continuous
 62
     7
370
    15
100
AcDbLine
 10
235.9230582358
 20
43.7459500785
 30
0.0
 11
234.8057314456
 21
43.1009310522
 31
0.0
  0
LINE
  5
1F7
330
1F
100
AcDbEntity
  8
0
  6
Continuous
 62
     7
370
    15
100
AcDbLine
 10
252.2749025507
 20
59.1794672108
 30
0.0
 11
252.2749025507
 21
57.615402776
 31
0.0
  0
LINE
  5
1F8
330
1F
100
AcDbEntity
  8
0
  6
Continuous
 62
     7
370
    15
100
AcDbLine
 10
253.6293487119
 20
58.3973079015
 30
0.0
 11
252.2749025507
 21
57.615402776
 31
0.0
  0
LWPOLYLINE
  5
1F9
330
1F
100
AcDbEntity
  8
0
  6
Continuous
 62
     7
370
    15
100
AcDbPolyline
 90
       24
 70
   128
 43
0.0
 10
232.0488777546
 20
45.5343252837
 10
232.335925663
 20
46.5900474007
 10
232.6839628265
 20
47.6514723031
 10
233.0907394581
 20
48.7117387127
 10
233.5536260663
 20
49.7639928397
 10
234.0696304528
 20
50.8014326877
 10
234.6354170545
 20
51.8173520228
 10
235.2473285054
 20
52.8051837244
 10
235.9014092785
 20
53.7585422364
 10
236.5934312553
 20
54.6712648448
 10
237.3189210573
 20
55.5374515147
 10
238.0731889626
 20
56.3515030296
 10
238.8513592217
 20
57.1081571858
 10
239.648401575
 20
57.8025228084
 10
240.4591637696
 20
58.4301113691
 10
241.2784048648
 20
58.9868660006
 10
242.1008291102
 20
59.4691877216
 10
242.9211201791
 20
59.873958701
 10
243.7339755339
 20
60.1985624122
 10
244.5341407031
 20
60.4409005472
 10
245.3164432474
 20
60.5994065803
 10
246.0758261953
 20
60.6730558945
 10
246.8073807323
 20
60.6613724047
 10
247.1639438024
 20
60.6231567898
  0
SPLINE
  5
1FA
330
1F
100
AcDbEntity
  8
0
  6
Continuous
 62
     7
370
    15
100
AcDbSpline
210
0.0
220
0.0
230
1.0
 70
     8
 71
     3
 72
     8
 73
     4
 74
     0
 42
0.000000001
 43
0.00000001
 40
0.0
 40
0.0
 40
0.0
 40
0.0
 40
1.0
 40
1.0
 40
1.0
 40
1.0
 10
232.0488777546255
 20
45.5343252836536
 30
0.0
 10
231.557576725573
 20
45.45167806344971
 30
0.0
 10
231.0659966346703
 20
45.36959427595927
 30
0.0
 10
230.5742018359183
 20
45.28794398887753
 30
0.0
  0
LWPOLYLINE
  5
1FB
330
1F
100
AcDbEntity
  8
0
  6
Continuous
 62
     7
370
    15
100
AcDbPolyline
 90
       26
 70
   128
 43
0.0
 10
230.5742018359
 20
45.2879439889
 10
230.8566463158
 20
46.4062992477
 10
231.2031048987
 20
47.5330853318
 10
231.6114430595
 20
48.6613601319
 10
232.0791450338
 20
49.7841723666
 10
232.6033293179
 20
50.8946044093
 10
233.1807664217
 20
51.9858149077
 10
233.8078987652
 20
53.0510809331
 10
234.4808625971
 20
54.0838393999
 10
235.195511799
 20
55.0777275015
 10
235.9474434295
 20
56.0266219105
 10
236.7320248512
 20
56.9246765052
 10
237.5444222715
 20
57.7663583868
 10
238.3796305243
 20
58.546481968
 10
239.2325039059
 20
59.2602409211
 10
240.0977878785
 20
59.9032377897
 10
240.9701514427
 20
60.4715110813
 10
241.8442199817
 20
60.961559674
 10
242.7146083746
 20
61.3703643871
 10
243.5759541738
 20
61.695406582
 10
244.4229506428
 20
61.9346836792
 10
245.2503794511
 20
62.0867214968
 10
246.0531428245
 20
62.1505833325
 10
246.8262949517
 20
62.1258757345
 10
247.565072456
 20
62.0127509261
 10
248.2649237423
 20
61.8119058671
  0
LINE
  5
1FC
330
1F
100
AcDbEntity
  8
0
  6
Continuous
 62
     7
370
    15
100
AcDbLine
 10
248.2649237423
 20
61.8119058671
 30
0.0
 11
248.6001673418
 21
60.7287782244
 31
0.0
  0
LINE
  5
1FD
330
1F
100
AcDbEntity
  8
0
  6
Continuous
 62
     7
370
    15
100
AcDbLine
 10
244.8502813483
 20
63.7831369624
 30
0.0
 11
248.2649237423
 21
61.8119058671
 31
0.0
  0
LINE
  5
1FE
330
1F
100
AcDbEntity
  8
0
  6
Continuous
 62
     7
370
    15
100
AcDbLine
 10
230.5742018359
 20
45.2879439889
 30
0.0
 11
229.9879865667
 21
45.6263588605
 31
0.0
  0
SPLINE
  5
1FF
330
1F
100
AcDbEntity
  8
0
  6
Continuous
 62
     7
370
    15
100
AcDbSpline
210
0.0
220
0.0
230
1.0
 70
     8
 71
     3
 72
    28
 73
    24
 74
     0
 42
0.000000001
 43
0.00000001
 40
0.0
 40
0.0
 40
0.0
 40
0.0
 40
0.1249999999999999
 40
0.1249999999999999
 40
0.1874999999999998
 40
0.1874999999999998
 40
0.2499999999999997
 40
0.2499999999999997
 40
0.3749999999999993
 40
0.3749999999999993
 40
0.4374999999999993
 40
0.4374999999999993
 40
0.4999999999999992
 40
0.4999999999999992
 40
0.6249999999999992
 40
0.6249999999999992
 40
0.7499999999999992
 40
0.7499999999999992
 40
0.8124999999999993
 40
0.8124999999999993
 40
0.8749999999999996
 40
0.8749999999999996
 40
1.0
 40
1.0
 40
1.0
 40
1.0
 10
229.9879865666599
 20
45.62635886045734
 30
0.0
 10
229.7999994861935
 20
45.73488149204142
 30
0.0
 10
229.6097795315929
 20
45.81682521258933
 30
0.0
 10
229.3216809296448
 20
45.90198294262779
 30
0.0
 10
229.2251910590453
 20
45.92403287303159
 30
0.0
 10
229.0314528862104
 20
45.95530669649055
 30
0.0
 10
228.934201865679
 20
45.96443394781398
 30
0.0
 10
228.6481799907936
 20
45.97221678992238
 30
0.0
 10
228.4628381744371
 20
45.95191024628532
 30
0.0
 10
228.1943255876213
 20
45.88468959315218
 30
0.0
 10
228.1059649279555
 20
45.85590323554659
 30
0.0
 10
227.9356122176658
 20
45.78689134545144
 30
0.0
 10
227.8535851878844
 20
45.74675145554131
 30
0.0
 10
227.6171489341318
 20
45.61013168777809
 30
0.0
 10
227.4722816840094
 20
45.49761719808902
 30
0.0
 10
227.2114248905253
 20
45.22936023308956
 30
0.0
 10
227.099132483023
 20
45.07720684671227
 30
0.0
 10
226.9599080015691
 20
44.82529045901397
 30
0.0
 10
226.9183122152034
 20
44.7372481733376
 30
0.0
 10
226.8451875001421
 20
44.55290711828577
 30
0.0
 10
226.8135630160892
 20
44.45611835560399
 30
0.0
 10
226.736069712667
 20
44.15810327670717
 30
0.0
 10
226.7068949972771
 20
43.94863039957065
 30
0.0
 10
226.7009281145354
 20
43.72824960688678
 30
0.0
  0
ARC
  5
200
330
1F
100
AcDbEntity
  8
0
  6
Continuous
 62
     7
370
    15
100
AcDbCircle
 10
241.5442945768
 20
43.3199792009
 30
0.0
 40
14.84898018918638
100
AcDbArc
 50
178.4244628824
 51
181.5755371176
  0
SPLINE
  5
201
330
1F
100
AcDbEntity
  8
0
  6
Continuous
 62
     7
370
    15
100
AcDbSpline
210
0.0
220
0.0
230
1.0
 70
     8
 71
     3
 72
    30
 73
    26
 74
     0
 42
0.000000001
 43
0.00000001
 40
0.0
 40
0.0
 40
0.0
 40
0.0
 40
0.1250000000000001
 40
0.1250000000000001
 40
0.1875000000000002
 40
0.1875000000000002
 40
0.2500000000000003
 40
0.2500000000000003
 40
0.3750000000000004
 40
0.3750000000000004
 40
0.4375000000000004
 40
0.4375000000000004
 40
0.5000000000000004
 40
0.5000000000000004
 40
0.6250000000000007
 40
0.6250000000000007
 40
0.6875000000000006
 40
0.6875000000000006
 40
0.7500000000000004
 40
0.7500000000000004
 40
0.8125000000000004
 40
0.8125000000000004
 40
0.8750000000000003
 40
0.8750000000000003
 40
1.0
 40
1.0
 40
1.0
 40
1.0
 10
226.7009281145354
 20
42.91170879500104
 30
0.0
 10
226.7068957132269
 20
42.69819160222632
 30
0.0
 10
226.7360409332263
 20
42.48064170420719
 30
0.0
 10
226.8124755944852
 20
42.1483426746716
 30
0.0
 10
226.8434415780626
 20
42.03656837337203
 30
0.0
 10
226.9164115188782
 20
41.81086649983703
 30
0.0
 10
226.9585477174368
 20
41.69677872726452
 30
0.0
 10
227.0984395068012
 20
41.35861599990334
 30
0.0
 10
227.2102834313435
 20
41.13610578063056
 30
0.0
 10
227.4040700284881
 20
40.80549552468099
 30
0.0
 10
227.4734106660913
 20
40.69526888497484
 30
0.0
 10
227.618903050538
 20
40.47853888452131
 30
0.0
 10
227.6947903412571
 20
40.37234194889059
 30
0.0
 10
227.9311782897285
 20
40.05970377564097
 30
0.0
 10
228.1003237919793
 20
39.85916122780581
 30
0.0
 10
228.3701897893134
 20
39.56905638838347
 30
0.0
 10
228.4623812953643
 20
39.47471297201102
 30
0.0
 10
228.647979890399
 20
39.29340794395063
 30
0.0
 10
228.7418087706858
 20
39.20598861045647
 30
0.0
 10
228.9312588211512
 20
39.03738106013183
 30
0.0
 10
229.0268802363568
 20
38.95619287436248
 30
0.0
 10
229.2197419257833
 20
38.80003019481434
 30
0.0
 10
229.3174768346817
 20
38.72470321511763
 30
0.0
 10
229.608732789802
 20
38.51141298167379
 30
0.0
 10
229.7999901807752
 20
38.38601955697337
 30
0.0
 10
229.9879865666599
 20
38.2774915534856
 30
0.0
  0
LINE
  5
202
330
1F
100
AcDbEntity
  8
0
  6
Continuous
 62
     7
370
    15
100
AcDbLine
 10
229.9879865667
 20
38.2774915535
 30
0.0
 11
230.5742018359
 21
37.9390766819
 31
0.0
  0
ARC
  5
203
330
1F
100
AcDbEntity
  8
0
  6
Continuous
 62
     7
370
    15
100
AcDbCircle
 10
236.3954313621
 20
39.3303551758
 30
0.0
 40
5.985179115444033
100
AcDbArc
 50
193.4415888918
 51
253.1805824648
  0
LINE
  5
204
330
1F
100
AcDbEntity
  8
0
  6
Continuous
 62
     7
370
    15
100
AcDbLine
 10
249.8943415986
 20
60.8709571741
 30
0.0
 11
250.2286540023
 21
60.5636290639
 31
0.0
  0
LINE
  5
205
330
1F
100
AcDbEntity
  8
0
  6
Continuous
 62
     7
370
    15
100
AcDbLine
 10
249.0414128448
 20
61.363342463
 30
0.0
 11
249.8943415986
 21
60.8709571741
 31
0.0
  0
SPLINE
  5
206
330
1F
100
AcDbEntity
  8
0
  6
Continuous
 62
     7
370
    15
100
AcDbSpline
210
0.0
220
0.0
230
1.0
 70
     8
 71
     3
 72
    20
 73
    16
 74
     0
 42
0.000000001
 43
0.00000001
 40
0.0
 40
0.0
 40
0.0
 40
0.0
 40
0.2499999999999995
 40
0.2499999999999995
 40
0.3749999999999996
 40
0.3749999999999996
 40
0.4999999999999997
 40
0.4999999999999997
 40
0.6249999999999998
 40
0.6249999999999998
 40
0.7499999999999998
 40
0.7499999999999998
 40
0.8749999999999999
 40
0.8749999999999999
 40
1.0
 40
1.0
 40
1.0
 40
1.0
 10
244.8502813482585
 20
63.78313696235779
 30
0.0
 10
245.1692700026565
 20
63.64924657309799
 30
0.0
 10
245.4957256027544
 20
63.489350226036
 30
0.0
 10
246.0080757201376
 20
63.21143129856649
 30
0.0
 10
246.1826790868154
 20
63.11243228575619
 30
0.0
 10
246.5425529491643
 20
62.90149158085747
 30
0.0
 10
246.7254133655178
 20
62.79093576364744
 30
0.0
 10
247.091708454695
 20
62.56551789463661
 30
0.0
 10
247.2761919709536
 20
62.45003729325715
 30
0.0
 10
247.6497767951892
 20
62.21520494896138
 30
0.0
 10
247.8341262664284
 20
62.09887502368612
 30
0.0
 10
248.1948361729049
 20
61.87318033688674
 30
0.0
 10
248.3718901621586
 20
61.76337036279006
 30
0.0
 10
248.7196195135111
 20
61.55197559925415
 30
0.0
 10
248.8848699299693
 20
61.45371276411113
 30
0.0
 10
249.0414128447508
 20
61.36334246299376
 30
0.0
  0
ARC
  5
207
330
1F
100
AcDbEntity
  8
0
  6
Continuous
 62
     7
370
    15
100
AcDbCircle
 10
240.9659377172
 20
58.2748440357
 30
0.0
 40
6.80575482114331
100
AcDbArc
 50
62.9348092132
 51
112.4502524579
  0
ARC
  5
208
330
1F
100
AcDbEntity
  8
0
  6
Continuous
 62
     7
370
    15
100
AcDbCircle
 10
232.0316354698
 20
42.7785487286
 30
0.0
 40
6.825219220612339
100
AcDbArc
 50
187.6324277536
 51
236.9950811643
  0
LINE
  5
209
330
1F
100
AcDbEntity
  8
0
  6
Continuous
 62
     7
370
    15
100
AcDbLine
 10
233.1834923095
 20
44.7600665153
 30
0.0
 11
232.719864517
 21
45.0277131428
 31
0.0
  0
LINE
  5
20A
330
1F
100
AcDbEntity
  8
0
  6
Continuous
 62
     7
370
    15
100
AcDbLine
 10
232.294046359
 20
45.6758581063
 30
0.0
 11
232.0488777546
 21
45.5343252837
 31
0.0
  0
SPLINE
  5
20B
330
1F
100
AcDbEntity
  8
0
  6
Continuous
 62
     7
370
    15
100
AcDbSpline
210
0.0
220
0.0
230
1.0
 70
     8
 71
     3
 72
    14
 73
    10
 74
     0
 42
0.000000001
 43
0.00000001
 40
0.0
 40
0.0
 40
0.0
 40
0.0
 40
0.1250000000000012
 40
0.1250000000000012
 40
0.2500000000000024
 40
0.2500000000000024
 40
0.5000000000000013
 40
0.5000000000000013
 40
1.0
 40
1.0
 40
1.0
 40
1.0
 10
232.7198645170032
 20
45.02771314283162
 30
0.0
 10
232.6956680838381
 20
45.04168144637418
 30
0.0
 10
232.6724926453792
 20
45.0690466223717
 30
0.0
 10
232.6355722529483
 20
45.12684839149725
 30
0.0
 10
232.6205304619156
 20
45.15781887061359
 30
0.0
 10
232.5807170053287
 20
45.25084534354281
 30
0.0
 10
232.5610809869447
 20
45.31345639782754
 30
0.0
 10
232.5106601384752
 20
45.49778714874252
 30
0.0
 10
232.4882429602347
 20
45.61933138364326
 30
0.0
 10
232.4715550620687
 20
45.73846044894561
 30
0.0
  0
SPLINE
  5
20C
330
1F
100
AcDbEntity
  8
0
  6
Continuous
 62
     7
370
    15
100
AcDbSpline
210
0.0
220
0.0
230
1.0
 70
     8
 71
     3
 72
    10
 73
     6
 74
     0
 42
0.000000001
 43
0.00000001
 40
0.0
 40
0.0
 40
0.0
 40
0.0
 40
0.5
 40
0.5
 40
1.0
 40
1.0
 40
1.0
 40
1.0
 10
232.4715550620687
 20
45.73846044894561
 30
0.0
 10
232.438165043881
 20
45.73231067974538
 30
0.0
 10
232.4059256924529
 20
45.72376407189731
 30
0.0
 10
232.3459377981906
 20
45.70252809812841
 30
0.0
 10
232.3186759249416
 20
45.69007645212023
 30
0.0
 10
232.2940463589917
 20
45.67585810634338
 30
0.0
  0
ARC
  5
20D
330
1F
100
AcDbEntity
  8
0
  6
Continuous
 62
     7
370
    15
100
AcDbCircle
 10
249.9950965628
 20
42.7439178617
 30
0.0
 40
25.08375480985698
100
AcDbArc
 50
139.5659238294
 51
171.5757969098
  0
LWPOLYLINE
  5
20E
330
1F
100
AcDbEntity
  8
0
  6
Continuous
 62
     7
370
    15
100
AcDbPolyline
 90
       46
 70
   128
 43
0.0
 10
250.9313996665
 20
46.1850223926
 10
250.4491894736
 20
45.8677104303
 10
249.9763649536
 20
45.4786986976
 10
249.5221290979
 20
45.0255588656
 10
249.0953230909
 20
44.5171107855
 10
248.7042542259
 20
43.963250821
 10
248.3565342135
 20
43.3747592261
 10
248.0589310283
 20
42.7630903205
 10
247.8172371778
 20
42.1401495436
 10
247.6361569578
 20
41.518061729
 10
247.5192148889
 20
40.9089351084
 10
247.4686871153
 20
40.3246256387
 10
247.4855571028
 20
39.7765062389
 10
247.5694964962
 20
39.2752454299
 10
247.7188715107
 20
38.8305996829
 10
247.9307747316
 20
38.4512235218
 10
248.2010817036
 20
38.1445010719
 10
248.5245312091
 20
37.9164023369
 10
248.8948276714
 20
37.7713669991
 10
249.3047636909
 20
37.7122180065
 10
249.7463603295
 20
37.7401066269
 10
250.2110224108
 20
37.85449004
 10
250.6897058159
 20
38.0531419028
 10
251.173093517
 20
38.3321956828
 10
251.6517769221
 20
38.6862199155
 10
252.1164390034
 20
39.108323922
 10
252.558035642
 20
39.5902919279
 10
252.9679716616
 20
40.1227429742
 10
253.3382681238
 20
40.6953135069
 10
253.6617176293
 20
41.296859092
 10
253.9320246014
 20
41.9156713288
 10
254.1439278222
 20
42.539705741
 10
254.2933028367
 20
43.1568162087
 10
254.3772422301
 20
43.7549913785
 10
254.3941122176
 20
44.3225884512
 10
254.343584444
 20
44.8485597953
 10
254.2266423751
 20
45.322667977
 10
254.0455621551
 20
45.7356850198
 10
253.8038683046
 20
46.0795720168
 10
253.5062651194
 20
46.3476355987
 10
253.1585451071
 20
46.5346582127
 10
252.767476242
 20
46.6369996766
 10
252.340670235
 20
46.65266803
 10
251.8864343794
 20
46.5813583064
 10
251.4136098594
 20
46.4244584683
 10
250.9313996665
 20
46.1850223926
  0
LWPOLYLINE
  5
20F
330
1F
100
AcDbEntity
  8
0
  6
Continuous
 62
     7
370
    15
100
AcDbPolyline
 90
       25
 70
   128
 43
0.0
 10
250.8606889883
 20
46.3074968794
 10
250.3792671836
 20
45.9915514613
 10
249.9068133562
 20
45.6054384566
 10
249.452128427
 20
45.1563504202
 10
249.023682316
 20
44.6526530124
 10
248.6294561636
 20
44.1037291629
 10
248.276793657
 20
43.5198042845
 10
247.9722642315
 20
42.9117557927
 10
247.7215406941
 20
42.2909104805
 10
247.52929355
 20
41.6688335213
 10
247.3991039996
 20
41.057113032
 10
247.333397228
 20
40.4671442079
 10
247.333397228
 20
39.9099170517
 10
247.3991039996
 20
39.3958116512
 10
247.52929355
 20
38.9344048173
 10
247.7215406941
 20
38.5342916862
 10
247.9722642315
 20
38.2029256085
 10
248.276793657
 20
37.9464793073
 10
248.6294561636
 20
37.7697298919
 10
249.023682316
 20
37.6759698696
 10
249.452128427
 20
37.6669458122
 10
249.9068133562
 20
37.7428258207
 10
250.3792671836
 20
37.9021963943
 10
250.8606889883
 20
38.1420887606
 10
250.861263612
 20
38.1424205377
  0
LWPOLYLINE
  5
210
330
1F
100
AcDbEntity
  8
0
  6
Continuous
 62
     7
370
    15
100
AcDbPolyline
 90
       13
 70
   128
 43
0.0
 10
254.3962228943
 20
44.2658130995
 10
254.3879807487
 20
44.5396685883
 10
254.3222739771
 20
45.0537739887
 10
254.1920844267
 20
45.5151808227
 10
253.9998372826
 20
45.9152939538
 10
253.7491137452
 20
46.2466600315
 10
253.4445843197
 20
46.5031063327
 10
253.0919218131
 20
46.679855748
 10
252.6976956607
 20
46.7736157703
 10
252.2692495497
 20
46.7826398278
 10
251.8145646205
 20
46.7067598192
 10
251.3421107931
 20
46.5473892457
 10
250.8606889883
 20
46.3074968794
  0
SPLINE
  5
211
330
1F
100
AcDbEntity
  8
0
  6
Continuous
 62
     7
370
    15
100
AcDbSpline
210
0.0
220
0.0
230
1.0
 70
    11
 71
     3
 72
    60
 73
    56
 74
     0
 42
0.000000001
 43
0.00000001
 40
0.0
 40
0.0
 40
0.0
 40
0.0
 40
0.0624999999999982
 40
0.0624999999999982
 40
0.0937499999999979
 40
0.0937499999999979
 40
0.1249999999999976
 40
0.1249999999999976
 40
0.1562499999999974
 40
0.1562499999999974
 40
0.1874999999999971
 40
0.1874999999999971
 40
0.2187499999999969
 40
0.2187499999999969
 40
0.2499999999999966
 40
0.2499999999999966
 40
0.2812499999999963
 40
0.2812499999999963
 40
0.3124999999999961
 40
0.3124999999999961
 40
0.3437499999999958
 40
0.3437499999999958
 40
0.3749999999999956
 40
0.3749999999999956
 40
0.4062499999999953
 40
0.4062499999999953
 40
0.4374999999999951
 40
0.4374999999999951
 40
0.4687499999999948
 40
0.4687499999999948
 40
0.4999999999999946
 40
0.4999999999999946
 40
0.5312499999999943
 40
0.5312499999999943
 40
0.562499999999994
 40
0.562499999999994
 40
0.624999999999995
 40
0.624999999999995
 40
0.6874999999999959
 40
0.6874999999999959
 40
0.7499999999999968
 40
0.7499999999999968
 40
0.7812499999999972
 40
0.7812499999999972
 40
0.8124999999999977
 40
0.8124999999999977
 40
0.8437499999999981
 40
0.8437499999999981
 40
0.8749999999999984
 40
0.8749999999999984
 40
0.9062499999999989
 40
0.9062499999999989
 40
0.9374999999999993
 40
0.9374999999999993
 40
1.0
 40
1.0
 40
1.0
 40
1.0
 10
249.1426354564362
 20
47.92178647517117
 30
0.0
 10
249.2979891449355
 20
47.89888430657976
 30
0.0
 10
249.4466805019509
 20
47.86054468451748
 30
0.0
 10
249.6558082289677
 20
47.78700264319907
 30
0.0
 10
249.72173432101
 20
47.76025786894961
 30
0.0
 10
249.846352135129
 20
47.70284185487927
 30
0.0
 10
249.9055419814783
 20
47.67185186547756
 30
0.0
 10
250.0134211318167
 20
47.60756128668195
 30
0.0
 10
250.0620945599907
 20
47.57437027481942
 30
0.0
 10
250.1490008088202
 20
47.50574534695115
 30
0.0
 10
250.1875223110129
 20
47.4699375459664
 30
0.0
 10
250.2512024570913
 20
47.39777285731115
 30
0.0
 10
250.2765784950945
 20
47.3613807531293
 30
0.0
 10
250.3140881152918
 20
47.28730827765737
 30
0.0
 10
250.3262057029176
 20
47.2492098705754
 30
0.0
 10
250.3351694114054
 20
47.17374585805002
 30
0.0
 10
250.3322783132312
 20
47.13620528243824
 30
0.0
 10
250.3107831347523
 20
47.06070354656131
 30
0.0
 10
250.2917603996916
 20
47.02239300802042
 30
0.0
 10
250.2383799255243
 20
46.94854401494386
 30
0.0
 10
250.2040478232745
 20
46.91256805421517
 30
0.0
 10
250.1188339423439
 20
46.84218002527398
 30
0.0
 10
250.0684621356737
 20
46.80839030617873
 30
0.0
 10
249.9561853416322
 20
46.7460519741722
 30
0.0
 10
249.8928310242483
 20
46.71675025898433
 30
0.0
 10
249.7582712103077
 20
46.66507176568307
 30
0.0
 10
249.6872947661149
 20
46.64261554324003
 30
0.0
 10
249.5382049516503
 20
46.60469621419413
 30
0.0
 10
249.4616963955804
 20
46.58969544692865
 30
0.0
 10
249.3076273419539
 20
46.56807082183417
 30
0.0
 10
249.2289204136326
 20
46.56136448783165
 30
0.0
 10
249.0747849946192
 20
46.55697530726675
 30
0.0
 10
248.9989672480499
 20
46.55915995077016
 30
0.0
 10
248.8496475972204
 20
46.57265805941346
 30
0.0
 10
248.7767463975517
 20
46.5840115806789
 30
0.0
 10
248.5690273693565
 20
46.63105956458033
 30
0.0
 10
248.4410106854904
 20
46.68106766702947
 30
0.0
 10
248.2261600907526
 20
46.8111233560595
 30
0.0
 10
248.1366000110891
 20
46.89286440063309
 30
0.0
 10
248.0095456900014
 20
47.07423834455616
 30
0.0
 10
247.9703264305622
 20
47.17632694647373
 30
0.0
 10
247.9567518768995
 20
47.3295326690769
 30
0.0
 10
247.9596111543364
 20
47.38158072446269
 30
0.0
 10
247.981396482069
 20
47.48330396818444
 30
0.0
 10
248.000001798779
 20
47.53231147870605
 30
0.0
 10
248.0532976076406
 20
47.62582670944714
 30
0.0
 10
248.0887032136257
 20
47.67088282332314
 30
0.0
 10
248.1736767924803
 20
47.75117541899422
 30
0.0
 10
248.2231676897903
 20
47.78679798731422
 30
0.0
 10
248.3366991866614
 20
47.84850855923825
 30
0.0
 10
248.3997999232513
 20
47.87389367937915
 30
0.0
 10
248.5340017775539
 20
47.91278477905295
 30
0.0
 10
248.6065815001785
 20
47.92663941581068
 30
0.0
 10
248.8290519948337
 20
47.95087464044245
 30
0.0
 10
248.9872817679368
 20
47.94468864376257
 30
0.0
 10
249.1426354564362
 20
47.92178647517116
 30
0.0
  0
LINE
  5
212
330
1F
100
AcDbEntity
  8
0
  6
Continuous
 62
     7
370
    15
100
AcDbLine
 10
252.8648076043
 20
42.1966059664
 30
0.0
 11
253.618405435
 21
43.1340745035
 31
0.0
  0
SPLINE
  5
213
330
1F
100
AcDbEntity
  8
0
  6
Continuous
 62
     7
370
    15
100
AcDbSpline
210
0.0
220
0.0
230
1.0
 70
     8
 71
     3
 72
    21
 73
    17
 74
     0
 42
0.000000001
 43
0.00000001
 40
0.0
 40
0.0
 40
0.0
 40
0.0
 40
0.0416666666666667
 40
0.0833333333333331
 40
0.1250000000000027
 40
0.1666666666666668
 40
0.2083333333333333
 40
0.2499999999976954
 40
0.3339999999999608
 40
0.4179999999999998
 40
0.4330099753158394
 40
0.4330099753158394
 40
0.5019999999997408
 40
0.5859999999988202
 40
0.6699999999999806
 40
0.8156536847930637
 40
0.8156536847930637
 40
0.8156536847930637
 40
0.8156536847930637
 10
253.6184054349737
 20
43.13407450348269
 30
0.0
 10
253.6483819020689
 20
43.17136494356829
 30
0.0
 10
253.7065288504299
 20
43.25167795062834
 30
0.0
 10
253.7865950528501
 20
43.38962740007323
 30
0.0
 10
253.8544285206338
 20
43.54223434795006
 30
0.0
 10
253.9039625069082
 20
43.70313532353576
 30
0.0
 10
253.929383476864
 20
43.86308144192012
 30
0.0
 10
253.9252592495732
 20
44.06266244248538
 30
0.0
 10
253.8493957605002
 20
44.25288395856803
 30
0.0
 10
253.7068382915797
 20
44.32375912056845
 30
0.0
 10
253.6329701832548
 20
44.33516798039906
 30
0.0
 10
253.5738427513748
 20
44.34142803332264
 30
0.0
 10
253.4856096809278
 20
44.34740066861922
 30
0.0
 10
253.3523832053718
 20
44.36020135501268
 30
0.0
 10
253.2201393887624
 20
44.37175415696659
 30
0.0
 10
253.0125043577821
 20
44.39030439606704
 30
0.0
 10
252.8648544949704
 20
44.4035216619605
 30
0.0
  0
SPLINE
  5
214
330
1F
100
AcDbEntity
  8
0
  6
Continuous
 62
     7
370
    15
100
AcDbSpline
210
0.0
220
0.0
230
1.0
 70
     8
 71
     3
 72
    21
 73
    17
 74
     0
 42
0.000000001
 43
0.00000001
 40
0.0
 40
0.0
 40
0.0
 40
0.0
 40
0.0416666666666667
 40
0.0833333333333331
 40
0.1250000000000027
 40
0.1666666666666668
 40
0.2083333333333333
 40
0.2499999999976954
 40
0.3339999999999608
 40
0.4179999999999998
 40
0.4330099753158394
 40
0.4330099753158394
 40
0.5019999999997408
 40
0.5859999999988202
 40
0.6699999999999806
 40
0.8133971939535304
 40
0.8133971939535304
 40
0.8133971939535304
 40
0.8133971939535304
 10
248.2443938979519
 20
40.03172367855415
 30
0.0
 10
248.2153206514215
 20
40.03432326489892
 30
0.0
 10
248.1558512960339
 20
40.04761947666961
 30
0.0
 10
248.0763166018444
 20
40.09307893541368
 30
0.0
 10
248.0083407116782
 20
40.16737974935215
 30
0.0
 10
247.9588449067032
 20
40.27108663920005
 30
0.0
 10
247.9334136339317
 20
40.40168305961014
 30
0.0
 10
247.9375419173336
 20
40.60602638835034
 30
0.0
 10
248.0133982285692
 20
40.88383129037469
 30
0.0
 10
248.1559727174454
 20
41.11932046183293
 30
0.0
 10
248.2298248980534
 20
41.21599574001323
 30
0.0
 10
248.2889383017762
 20
41.29050538285306
 30
0.0
 10
248.3771415106376
 20
41.39831270727638
 30
0.0
 10
248.5106661348637
 20
41.56530425507698
 30
0.0
 10
248.6404967102759
 20
41.72654243822794
 30
0.0
 10
248.8507834952157
 20
41.98812010517717
 30
0.0
 10
248.9979444298802
 20
42.17120104412112
 30
0.0
  0
LINE
  5
215
330
1F
100
AcDbEntity
  8
0
  6
Continuous
 62
     7
370
    15
100
AcDbLine
 10
248.9979917287
 20
39.9643406765
 30
0.0
 11
248.244393898
 21
40.0317236786
 31
0.0
  0
LINE
  5
216
330
1F
100
AcDbEntity
  8
0
  6
Continuous
 62
     7
370
    15
100
AcDbLine
 10
233.7530624991
 20
37.6497946457
 30
0.0
 11
235.9230582358
 21
36.3970827716
 31
0.0
  0
SPLINE
  5
217
330
1F
100
AcDbEntity
  8
0
  6
Continuous
 62
     7
370
    15
100
AcDbSpline
210
0.0
220
0.0
230
1.0
 70
     8
 71
     3
 72
    14
 73
    10
 74
     0
 42
0.000000001
 43
0.00000001
 40
0.0
 40
0.0
 40
0.0
 40
0.0
 40
0.1249999999999983
 40
0.1249999999999983
 40
0.2499999999999966
 40
0.2499999999999966
 40
0.4999999999999968
 40
0.4999999999999968
 40
1.0
 40
1.0
 40
1.0
 40
1.0
 10
233.5047530441203
 20
38.36054195176973
 30
0.0
 10
233.5291823927641
 20
38.34643918898341
 30
0.0
 10
233.5521609468302
 20
38.31915705912374
 30
0.0
 10
233.5890440603219
 20
38.26140365561724
 30
0.0
 10
233.6041692066388
 20
38.23025607394663
 30
0.0
 10
233.6438865670981
 20
38.13741897239065
 30
0.0
 10
233.6633486849871
 20
38.07546850257388
 30
0.0
 10
233.7142168061812
 20
37.88955379707638
 30
0.0
 10
233.7365010335963
 20
37.7680211521031
 30
0.0
 10
233.7530624990548
 20
37.64979464565555
 30
0.0
  0
LINE
  5
218
330
1F
100
AcDbEntity
  8
0
  6
Continuous
 62
     7
370
    15
100
AcDbLine
 10
232.719864517
 20
38.8136484538
 30
0.0
 11
233.5047530441
 21
38.3605419518
 31
0.0
  0
SPLINE
  5
219
330
1F
100
AcDbEntity
  8
0
  6
Continuous
 62
     7
370
    15
100
AcDbSpline
210
0.0
220
0.0
230
1.0
 70
     8
 71
     3
 72
    14
 73
    10
 74
     0
 42
0.000000001
 43
0.00000001
 40
0.0
 40
0.0
 40
0.0
 40
0.0
 40
0.5
 40
0.5
 40
0.75
 40
0.75
 40
0.875
 40
0.875
 40
1.0
 40
1.0
 40
1.0
 40
1.0
 10
232.4715550620687
 20
38.38959314197362
 30
0.0
 10
232.4881791435225
 20
38.48907288620374
 30
0.0
 10
232.5105965451268
 20
38.58490801959973
 30
0.0
 10
232.5610276029755
 20
38.71112396917337
 30
0.0
 10
232.5805622969067
 20
38.75095751786763
 30
0.0
 10
232.6205054542421
 20
38.79821784933948
 30
0.0
 10
232.6355224214078
 20
38.81182046294474
 30
0.0
 10
232.6725837889295
 20
38.82704086452045
 30
0.0
 10
232.6955674512778
 20
38.82767485131432
 30
0.0
 10
232.7198645170033
 20
38.81364845383128
 30
0.0
  0
LINE
  5
21A
330
1F
100
AcDbEntity
  8
0
  6
Continuous
 62
     7
370
    15
100
AcDbLine
 10
231.3268641581
 20
39.050409135
 30
0.0
 11
232.4715550621
 21
38.389593142
 31
0.0
  0
ARC
  5
21B
330
1F
100
AcDbEntity
  8
0
  6
Continuous
 62
     7
370
    15
100
AcDbCircle
 10
234.5954755103
 20
44.2035291035
 30
0.0
 40
6.102332798379128
100
AcDbArc
 50
182.3868561234
 51
237.6131440222
  0
LINE
  5
21C
330
1F
100
AcDbEntity
  8
0
  6
Continuous
 62
     7
370
    15
100
AcDbLine
 10
228.4984370333
 20
44.7659294181
 30
0.0
 11
228.4984370333
 21
43.9493886062
 31
0.0
  0
ARC
  5
21D
330
1F
100
AcDbEntity
  8
0
  6
Continuous
 62
     7
370
    15
100
AcDbCircle
 10
231.1190185164
 20
44.8431446315
 30
0.0
 40
2.621718806159234
100
AcDbArc
 50
154.2332733254
 51
181.6877270293
  0
SPLINE
  5
21E
330
1F
100
AcDbEntity
  8
0
  6
Continuous
 62
     7
370
    15
100
AcDbSpline
210
0.0
220
0.0
230
1.0
 70
     8
 71
     3
 72
    18
 73
    14
 74
     0
 42
0.000000001
 43
0.00000001
 40
0.0
 40
0.0
 40
0.0
 40
0.0
 40
0.0907656609687252
 40
0.1821608599238659
 40
0.2755432282680055
 40
0.3696121143795622
 40
0.4603779216372863
 40
0.5517747631219052
 40
0.6451593583432748
 40
0.7392296914017165
 40
0.8300113933934746
 40
0.9214218185816603
 40
1.0
 40
1.0
 40
1.0
 40
1.0
 10
248.1736832198352
 20
40.29561391259656
 30
0.0
 10
248.1628728548486
 20
40.2969744767788
 30
0.0
 10
248.1411771456889
 20
40.299705041827
 30
0.0
 10
248.1104450523817
 20
40.30912129764786
 30
0.0
 10
248.081130061089
 20
40.32259324242379
 30
0.0
 10
248.0541588047682
 20
40.34024901816258
 30
0.0
 10
248.029692923355
 20
40.36171789109691
 30
0.0
 10
248.0076751861882
 20
40.38691882489781
 30
0.0
 10
247.9880539846202
 20
40.41609880206637
 30
0.0
 10
247.9713483257599
 20
40.44866468256094
 30
0.0
 10
247.9578121517004
 20
40.48422142842956
 30
0.0
 10
247.9476304182776
 20
40.52022164561897
 30
0.0
 10
247.9435604863949
 20
40.54566403485242
 30
0.0
 10
247.9416791376844
 20
40.55742492116599
 30
0.0
  0
ARC
  5
21F
330
1F
100
AcDbEntity
  8
0
  6
Continuous
 62
     7
370
    15
100
AcDbCircle
 10
247.5918691925
 20
43.3080502389
 30
0.0
 40
1.808168594131373
100
AcDbArc
 50
321.0435400286
 51
328.013924642
  0
SPLINE
  5
220
330
1F
100
AcDbEntity
  8
0
  6
Continuous
 62
     7
370
    15
100
AcDbSpline
210
0.0
220
0.0
230
1.0
 70
     8
 71
     3
 72
    16
 73
    12
 74
     0
 42
0.000000001
 43
0.00000001
 40
0.0
 40
0.0
 40
0.0
 40
0.0
 40
0.2499999999999964
 40
0.2499999999999964
 40
0.4999999999999929
 40
0.4999999999999929
 40
0.6249999999999911
 40
0.6249999999999911
 40
0.7499999999999893
 40
0.7499999999999893
 40
1.0
 40
1.0
 40
1.0
 40
1.0
 10
252.8648544949704
 20
44.4035216619605
 30
0.0
 10
252.8404119697468
 20
44.40570969890707
 30
0.0
 10
252.8138406800015
 20
44.40673453974685
 30
0.0
 10
252.7531400411776
 20
44.40465337948026
 30
0.0
 10
252.7185876156141
 20
44.40168812724128
 30
0.0
 10
252.660513699094
 20
44.38937809067654
 30
0.0
 10
252.6404995448806
 20
44.38384145358609
 30
0.0
 10
252.6046239063294
 20
44.37081346071697
 30
0.0
 10
252.5888366255358
 20
44.36338051541863
 30
0.0
 10
252.5506687718862
 20
44.34170542985648
 30
0.0
 10
252.535184560325
 20
44.3277376600082
 30
0.0
 10
252.5233106517155
 20
44.3145627136606
 30
0.0
  0
SPLINE
  5
221
330
1F
100
AcDbEntity
  8
0
  6
Continuous
 62
     7
370
    15
100
AcDbSpline
210
0.0
220
0.0
230
1.0
 70
     8
 71
     3
 72
     8
 73
     4
 74
     0
 42
0.000000001
 43
0.00000001
 40
0.0
 40
0.0
 40
0.0
 40
0.0
 40
1.0
 40
1.0
 40
1.0
 40
1.0
 10
252.5233106517154
 20
44.31456271366056
 30
0.0
 10
252.4904246710561
 20
44.32770875495075
 30
0.0
 10
252.4582872470759
 20
44.34244663519039
 30
0.0
 10
252.4328134757824
 20
44.35715233033861
 30
0.0
  0
LINE
  5
222
330
1F
100
AcDbEntity
  8
0
  6
Continuous
 62
     7
370
    15
100
AcDbLine
 10
252.0941558895
 20
44.6880680027
 30
0.0
 11
252.0522311538
 21
44.7108378749
 31
0.0
  0
LINE
  5
223
330
1F
100
AcDbEntity
  8
0
  6
Continuous
 62
     7
370
    15
100
AcDbLine
 10
251.6823843344
 20
44.7903658524
 30
0.0
 11
252.4328134758
 21
44.3571523303
 31
0.0
  0
ARC
  5
224
330
1F
100
AcDbEntity
  8
0
  6
Continuous
 62
     7
370
    15
100
AcDbCircle
 10
247.2468324924
 20
44.577405107
 30
0.0
 40
3.544261024029691
100
AcDbArc
 50
339.1491549497
 51
358.4685176341
  0
LINE
  5
225
330
1F
100
AcDbEntity
  8
0
  6
Continuous
 62
     7
370
    15
100
AcDbLine
 10
250.5589805056
 20
43.3158735995
 30
0.0
 11
252.4328134758
 21
42.2341328513
 31
0.0
  0
LINE
  5
226
330
1F
100
AcDbEntity
  8
0
  6
Continuous
 62
     7
370
    15
100
AcDbLine
 10
249.3443793747
 20
39.9247992596
 30
0.0
 11
249.3862915981
 21
39.9020357678
 31
0.0
  0
LINE
  5
227
330
1F
100
AcDbEntity
  8
0
  6
Continuous
 62
     7
370
    15
100
AcDbLine
 10
248.0251226933
 20
40.8218027401
 30
0.0
 11
249.0057217884
 21
40.255714932
 31
0.0
  0
LINE
  5
228
330
1F
100
AcDbEntity
  8
0
  6
Continuous
 62
     7
370
    15
100
AcDbLine
 10
249.0566459688
 20
40.2166637375
 30
0.0
 11
248.1736832198
 21
40.2956139126
 31
0.0
  0
SPLINE
  5
229
330
1F
100
AcDbEntity
  8
0
  6
Continuous
 62
     7
370
    15
100
AcDbSpline
210
0.0
220
0.0
230
1.0
 70
     8
 71
     3
 72
    16
 73
    12
 74
     0
 42
0.000000001
 43
0.00000001
 40
0.0
 40
0.0
 40
0.0
 40
0.0
 40
0.2499999999999997
 40
0.2499999999999997
 40
0.4999999999999993
 40
0.4999999999999993
 40
0.6249999999999991
 40
0.6249999999999991
 40
0.749999999999999
 40
0.749999999999999
 40
1.0
 40
1.0
 40
1.0
 40
1.0
 10
248.997991728674
 20
39.9643406765165
 30
0.0
 10
249.0223177404549
 20
39.96216556449444
 30
0.0
 10
249.0461293296628
 20
39.9630125000367
 30
0.0
 10
249.0890673397784
 20
39.97552801748328
 30
0.0
 10
249.1095314663305
 20
39.98736849226131
 30
0.0
 10
249.1256377271869
 20
40.02344101714036
 30
0.0
 10
249.1282440777337
 20
40.03902809571998
 30
0.0
 10
249.1254473477292
 20
40.07460334983807
 30
0.0
 10
249.1202300904633
 20
40.09395226034857
 30
0.0
 10
249.0989913817188
 20
40.14960201238726
 30
0.0
 10
249.0781861106621
 20
40.18443913778916
 30
0.0
 10
249.0566459687982
 20
40.2166637374672
 30
0.0
  0
SPLINE
  5
22A
330
1F
100
AcDbEntity
  8
0
  6
Continuous
 62
     7
370
    15
100
AcDbSpline
210
0.0
220
0.0
230
1.0
 70
     8
 71
     3
 72
    12
 73
     8
 74
     0
 42
0.000000001
 43
0.00000001
 40
0.0
 40
0.0
 40
0.0
 40
0.0
 40
0.250000000000002
 40
0.250000000000002
 40
0.500000000000004
 40
0.500000000000004
 40
1.0
 40
1.0
 40
1.0
 40
1.0
 10
255.8165159744901
 20
48.53452431450807
 30
0.0
 10
255.8446209761543
 20
48.51829964239914
 30
0.0
 10
255.8672769430817
 20
48.4982800395909
 30
0.0
 10
255.8963990849624
 20
48.4553184122279
 30
0.0
 10
255.9032544831679
 20
48.43211053690762
 30
0.0
 10
255.9000964881676
 20
48.36322367229791
 30
0.0
 10
255.8654643702791
 20
48.31785918837652
 30
0.0
 10
255.8091779210471
 20
48.285365712878
 30
0.0
  0
ARC
  5
22B
330
1F
100
AcDbEntity
  8
0
  6
Continuous
 62
     7
370
    15
100
AcDbCircle
 10
239.8878918051
 20
36.6494015731
 30
0.0
 40
5.432026029965996
100
AcDbArc
 50
217.3950627517
 51
262.6019516066
  0
SPLINE
  5
22C
330
1F
100
AcDbEntity
  8
0
  6
Continuous
 62
     7
370
    15
100
AcDbSpline
210
0.0
220
0.0
230
1.0
 70
     8
 71
     3
 72
    12
 73
     8
 74
     0
 42
0.000000001
 43
0.00000001
 40
0.0
 40
0.0
 40
0.0
 40
0.0
 40
0.2499999999999999
 40
0.2499999999999999
 40
0.4999999999999998
 40
0.4999999999999998
 40
1.0
 40
1.0
 40
1.0
 40
1.0
 10
234.3720486100165
 20
35.7466264068352
 30
0.0
 10
234.4002908100888
 20
35.73032253177117
 30
0.0
 10
234.4348369419943
 20
35.71736673836117
 30
0.0
 10
234.5095610016919
 20
35.70065500016863
 30
0.0
 10
234.5498513929936
 20
35.69676809138119
 30
0.0
 10
234.6709644104299
 20
35.69903148927047
 30
0.0
 10
234.7490819728478
 20
35.71936070069722
 30
0.0
 10
234.8057314455834
 20
35.75206374520356
 30
0.0
  0
SPLINE
  5
22D
330
1F
100
AcDbEntity
  8
0
  6
Continuous
 62
     7
370
    15
100
AcDbSpline
210
0.0
220
0.0
230
1.0
 70
     8
 71
     3
 72
     8
 73
     4
 74
     0
 42
0.000000001
 43
0.00000001
 40
0.0
 40
0.0
 40
0.0
 40
0.0
 40
1.0
 40
1.0
 40
1.0
 40
1.0
 10
249.0057217884313
 20
40.25571493199658
 30
0.0
 10
249.0311478468162
 20
40.2410367809242
 30
0.0
 10
249.0476959432478
 20
40.22766852661331
 30
0.0
 10
249.0566459687985
 20
40.21666373746705
 30
0.0
  0
LINE
  5
22E
330
1F
100
AcDbEntity
  8
0
  6
Continuous
 62
     7
370
    15
100
AcDbLine
 10
254.5906772591
 20
49.2421859419
 30
0.0
 11
255.8165159745
 21
48.5345243145
 31
0.0
  0
ARC
  5
22F
330
1F
100
AcDbEntity
  8
0
  6
Continuous
 62
     7
370
    15
100
AcDbCircle
 10
239.1719572363
 20
38.1826936893
 30
0.0
 40
6.409553223799742
100
AcDbArc
 50
194.716105919
 51
237.9533567894
  0
LINE
  5
230
330
1F
100
AcDbEntity
  8
0
  6
Continuous
 62
     7
370
    15
100
AcDbLine
 10
232.9726605424
 20
36.5544759427
 30
0.0
 11
234.37204861
 21
35.7466264068
 31
0.0
  0
SPLINE
  5
231
330
1F
100
AcDbEntity
  8
0
  6
Continuous
 62
     7
370
    15
100
AcDbSpline
210
0.0
220
0.0
230
1.0
 70
     8
 71
     3
 72
     8
 73
     4
 74
     0
 42
0.000000001
 43
0.00000001
 40
0.0
 40
0.0
 40
0.0
 40
0.0
 40
1.0
 40
1.0
 40
1.0
 40
1.0
 10
233.3994517066918
 20
37.40578822989117
 30
0.0
 10
233.2562870100013
 20
37.12216618288416
 30
0.0
 10
233.1140983131487
 20
36.83838303690015
 30
0.0
 10
232.9726605423936
 20
36.55447594271306
 30
0.0
  0
LINE
  5
232
330
1F
100
AcDbEntity
  8
0
  6
Continuous
 62
     7
370
    15
100
AcDbLine
 10
233.6446203111
 20
37.5473210526
 30
0.0
 11
233.3994517067
 21
37.4057882299
 31
0.0
  0
SPLINE
  5
233
330
1F
100
AcDbEntity
  8
0
  6
Continuous
 62
     7
370
    15
100
AcDbSpline
210
0.0
220
0.0
230
1.0
 70
     8
 71
     3
 72
    10
 73
     6
 74
     0
 42
0.000000001
 43
0.00000001
 40
0.0
 40
0.0
 40
0.0
 40
0.0
 40
0.5
 40
0.5
 40
1.0
 40
1.0
 40
1.0
 40
1.0
 10
233.7530624990548
 20
37.64979464565555
 30
0.0
 10
233.7424096320849
 20
37.63051899844943
 30
0.0
 10
233.7276048689327
 20
37.61190761702438
 30
0.0
 10
233.6908190976018
 20
37.57727734279284
 30
0.0
 10
233.6692498770078
 20
37.56153939835774
 30
0.0
 10
233.6446203110579
 20
37.54732105258089
 30
0.0
  0
SPLINE
  5
234
330
1F
100
AcDbEntity
  8
0
  6
Continuous
 62
     7
370
    15
100
AcDbSpline
210
0.0
220
0.0
230
1.0
 70
     8
 71
     3
 72
    14
 73
    10
 74
     0
 42
0.000000001
 43
0.00000001
 40
0.0
 40
0.0
 40
0.0
 40
0.0
 40
0.5000000000000009
 40
0.5000000000000009
 40
0.7500000000000004
 40
0.7500000000000004
 40
0.8750000000000002
 40
0.8750000000000002
 40
1.0
 40
1.0
 40
1.0
 40
1.0
 10
217.8317532423761
 20
49.04485399279236
 30
0.0
 10
218.146919186216
 20
48.8177660018965
 30
0.0
 10
218.4631948414819
 20
48.58791962684837
 30
0.0
 10
218.942019330053
 20
48.23261102485925
 30
0.0
 10
219.102339340477
 20
48.1124727106637
 30
0.0
 10
219.3453918764308
 20
47.9262038764199
 30
0.0
 10
219.4268353144473
 20
47.86311063519288
 30
0.0
 10
219.5914967634807
 20
47.73276539278073
 30
0.0
 10
219.6744027815469
 20
47.6662409508035
 30
0.0
 10
219.7604216096316
 20
47.59244747947994
 30
0.0
  0
SPLINE
  5
235
330
1F
100
AcDbEntity
  8
0
  6
Continuous
 62
     7
370
    15
100
AcDbSpline
210
0.0
220
0.0
230
1.0
 70
     8
 71
     3
 72
     8
 73
     4
 74
     0
 42
0.000000001
 43
0.00000001
 40
0.0
 40
0.0
 40
0.0
 40
0.0
 40
1.0
 40
1.0
 40
1.0
 40
1.0
 10
219.7604216096316
 20
47.59244747947993
 30
0.0
 10
220.0620740828691
 20
47.3336671213981
 30
0.0
 10
220.3673536263926
 20
47.08609210599344
 30
0.0
 10
220.6720131995192
 20
46.84511924942693
 30
0.0
  0
SPLINE
  5
236
330
1F
100
AcDbEntity
  8
0
  6
Continuous
 62
     7
370
    15
100
AcDbSpline
210
0.0
220
0.0
230
1.0
 70
     8
 71
     3
 72
    14
 73
    10
 74
     0
 42
0.000000001
 43
0.00000001
 40
0.0
 40
0.0
 40
0.0
 40
0.0
 40
0.1250000000000039
 40
0.1250000000000039
 40
0.2500000000000078
 40
0.2500000000000078
 40
0.5000000000000064
 40
0.5000000000000064
 40
1.0
 40
1.0
 40
1.0
 40
1.0
 10
220.6720131995193
 20
46.84511924942687
 30
0.0
 10
220.6912085754448
 20
46.82993651769068
 30
0.0
 10
220.7088206488452
 20
46.81856869919389
 30
0.0
 10
220.7346655787645
 20
46.80730022998144
 30
0.0
 10
220.7428039430121
 20
46.8069167597444
 30
0.0
 10
220.7597540339802
 20
46.81269255243878
 30
0.0
 10
220.7619233064899
 20
46.82535797805681
 30
0.0
 10
220.7607477586753
 20
46.86979480510058
 30
0.0
 10
220.7486742380711
 20
46.91027807587403
 30
0.0
 10
220.7338960100311
 20
46.95428174575652
 30
0.0
  0
SPLINE
  5
237
330
1F
100
AcDbEntity
  8
0
  6
Continuous
 62
     7
370
    15
100
AcDbSpline
210
0.0
220
0.0
230
1.0
 70
     8
 71
     3
 72
    14
 73
    10
 74
     0
 42
0.000000001
 43
0.00000001
 40
0.0
 40
0.0
 40
0.0
 40
0.0
 40
0.25
 40
0.25
 40
0.5
 40
0.5
 40
0.75
 40
0.75
 40
1.0
 40
1.0
 40
1.0
 40
1.0
 10
220.7338960100304
 20
46.95428174575723
 30
0.0
 10
220.7158397630838
 20
47.00804604874399
 30
0.0
 10
220.7129169649827
 20
47.05259665784104
 30
0.0
 10
220.7075032364394
 20
47.14485800768576
 30
0.0
 10
220.7059359583982
 20
47.19215241060601
 30
0.0
 10
220.6957975585911
 20
47.29691346543379
 30
0.0
 10
220.6874825608469
 20
47.3541746724688
 30
0.0
 10
220.658682386188
 20
47.48379602984322
 30
0.0
 10
220.6380289895175
 20
47.55659022945627
 30
0.0
 10
220.6093394723564
 20
47.63627692841604
 30
0.0
  0
ARC
  5
238
330
1F
100
AcDbEntity
  8
0
  6
Continuous
 62
     7
370
    15
100
AcDbCircle
 10
230.9643067497
 20
50.7228384264
 30
0.0
 40
10.80519362138099
100
AcDbArc
 50
163.4019732888
 51
196.5980267112
  0
SPLINE
  5
239
330
1F
100
AcDbEntity
  8
0
  6
Continuous
 62
     7
370
    15
100
AcDbSpline
210
0.0
220
0.0
230
1.0
 70
     8
 71
     3
 72
    14
 73
    10
 74
     0
 42
0.000000001
 43
0.00000001
 40
0.0
 40
0.0
 40
0.0
 40
0.0
 40
0.25
 40
0.25
 40
0.5
 40
0.5
 40
0.75
 40
0.75
 40
1.0
 40
1.0
 40
1.0
 40
1.0
 10
220.7338960100304
 20
55.27060494068021
 30
0.0
 10
220.7158397630838
 20
55.14976286173565
 30
0.0
 10
220.7129169649827
 20
55.02466859516954
 30
0.0
 10
220.7075032364394
 20
54.77671728451818
 30
0.0
 10
220.7059359583982
 20
54.65280866020443
 30
0.0
 10
220.6957975585911
 20
54.40665292096423
 30
0.0
 10
220.6874825608469
 20
54.28436497910281
 30
0.0
 10
220.658682386188
 20
54.04236780189403
 30
0.0
 10
220.6380289895175
 20
53.92221083471443
 30
0.0
 10
220.6093394723564
 20
53.80939992430916
 30
0.0
  0
SPLINE
  5
23A
330
1F
100
AcDbEntity
  8
0
  6
Continuous
 62
     7
370
    15
100
AcDbSpline
210
0.0
220
0.0
230
1.0
 70
     8
 71
     3
 72
    14
 73
    10
 74
     0
 42
0.000000001
 43
0.00000001
 40
0.0
 40
0.0
 40
0.0
 40
0.0
 40
0.1249999999999976
 40
0.1249999999999976
 40
0.2499999999999952
 40
0.2499999999999952
 40
0.4999999999999968
 40
0.4999999999999968
 40
1.0
 40
1.0
 40
1.0
 40
1.0
 10
220.6720131995194
 20
55.81589050497423
 30
0.0
 10
220.6912085754449
 20
55.8136036970004
 30
0.0
 10
220.7088206488453
 20
55.80210545772758
 30
0.0
 10
220.7346655787645
 20
55.76541395520106
 30
0.0
 10
220.7428039430121
 20
55.742332540099
 30
0.0
 10
220.7597540339802
 20
55.6710000210219
 30
0.0
 10
220.7619233064899
 20
55.61975591541383
 30
0.0
 10
220.7607477586753
 20
55.46972043565223
 30
0.0
 10
220.7486742380711
 20
55.36950876076916
 30
0.0
 10
220.7338960100311
 20
55.27060494068053
 30
0.0
  0
SPLINE
  5
23B
330
1F
100
AcDbEntity
  8
0
  6
Continuous
 62
     7
370
    15
100
AcDbSpline
210
0.0
220
0.0
230
1.0
 70
     8
 71
     3
 72
     8
 73
     4
 74
     0
 42
0.000000001
 43
0.00000001
 40
0.0
 40
0.0
 40
0.0
 40
0.0
 40
1.0
 40
1.0
 40
1.0
 40
1.0
 10
219.7604216096316
 20
55.86810331611032
 30
0.0
 10
220.0620740828692
 20
55.87544956325343
 30
0.0
 10
220.3673536263927
 20
55.85218559728348
 30
0.0
 10
220.6720131995194
 20
55.81589050497423
 30
0.0
  0
SPLINE
  5
23C
330
1F
100
AcDbEntity
  8
0
  6
Continuous
 62
     7
370
    15
100
AcDbSpline
210
0.0
220
0.0
230
1.0
 70
     8
 71
     3
 72
    14
 73
    10
 74
     0
 42
0.000000001
 43
0.00000001
 40
0.0
 40
0.0
 40
0.0
 40
0.0
 40
0.5000000000000009
 40
0.5000000000000009
 40
0.7500000000000004
 40
0.7500000000000004
 40
0.8750000000000002
 40
0.8750000000000002
 40
1.0
 40
1.0
 40
1.0
 40
1.0
 10
217.8317532423761
 20
56.5007426610953
 30
0.0
 10
218.146919186216
 20
56.36335816736919
 30
0.0
 10
218.4631948414819
 20
56.23178465973803
 30
0.0
 10
218.942019330053
 20
56.05688919321726
 30
0.0
 10
219.102339340477
 20
56.00221804295275
 30
0.0
 10
219.3453918764308
 20
55.9331862272327
 30
0.0
 10
219.4268353144473
 20
55.91232394272391
 30
0.0
 10
219.5914967634807
 20
55.87951622929427
 30
0.0
 10
219.6744027815469
 20
55.86600846980161
 30
0.0
 10
219.7604216096316
 20
55.86810331611031
 30
0.0
  0
SPLINE
  5
23D
330
1F
100
AcDbEntity
  8
0
  6
Continuous
 62
     7
370
    15
100
AcDbSpline
210
0.0
220
0.0
230
1.0
 70
     8
 71
     3
 72
     8
 73
     4
 74
     0
 42
0.000000001
 43
0.00000001
 40
0.0000005163856998
 40
0.0000005163856998
 40
0.0000005163856998
 40
0.0000005163856998
 40
0.000026289209185
 40
0.000026289209185
 40
0.000026289209185
 40
0.000026289209185
 10
217.8317316553569
 20
56.51362177228648
 30
0.0
 10
217.8317293541976
 20
56.50932893725995
 30
0.0
 10
217.8317366005219
 20
56.50503586958443
 30
0.0
 10
217.8317532423761
 20
56.5007426610953
 30
0.0
  0
LINE
  5
23E
330
1F
100
AcDbEntity
  8
0
  6
Continuous
 62
     7
370
    15
100
AcDbLine
 10
230.6959070515
 20
67.0088383633
 30
0.0
 11
230.7285450138
 21
66.9923813294
 31
0.0
  0
LINE
  5
23F
330
1F
100
AcDbEntity
  8
0
  6
Continuous
 62
     7
370
    15
100
AcDbLine
 10
219.3142092384
 20
47.2930232249
 30
0.0
 11
219.2621860625
 21
47.3280896746
 31
0.0
  0
SPLINE
  5
240
330
1F
100
AcDbEntity
  8
0
  6
Continuous
 62
     7
370
    15
100
AcDbSpline
210
0.0
220
0.0
230
1.0
 70
     8
 71
     3
 72
     8
 73
     4
 74
     0
 42
0.000000001
 43
0.00000001
 40
0.000000516385691
 40
0.000000516385691
 40
0.000000516385691
 40
0.000000516385691
 40
0.0000262892091854
 40
0.0000262892091854
 40
0.0000262892091854
 40
0.0000262892091854
 10
217.8317316553569
 20
49.04015072042505
 30
0.0
 10
217.8317293541976
 20
49.04172410612331
 30
0.0
 10
217.8317366005219
 20
49.04329183605604
 30
0.0
 10
217.8317532423761
 20
49.04485399279237
 30
0.0
  0
SPLINE
  5
241
330
1F
100
AcDbEntity
  8
0
  6
Continuous
 62
     7
370
    15
100
AcDbSpline
210
0.0
220
0.0
230
1.0
 70
     8
 71
     3
 72
    18
 73
    14
 74
     0
 42
0.000000001
 43
0.00000001
 40
0.0
 40
0.0
 40
0.0
 40
0.0
 40
0.1248838678074636
 40
0.2504497395243528
 40
0.3759926854030406
 40
0.5008213054456792
 40
0.6245850129385444
 40
0.686839369436504
 40
0.7482883257010252
 40
0.8096491885895687
 40
0.8722979832432538
 40
0.9965007240958169
 40
1.0
 40
1.0
 40
1.0
 40
1.0
 10
223.5205999538107
 20
47.16717960517046
 30
0.0
 10
223.3875531380271
 20
47.41211437009966
 30
0.0
 10
223.1207329238348
 20
47.90332151441674
 30
0.0
 10
222.996038467323
 20
48.65534268514737
 30
0.0
 10
223.1318636160928
 20
49.28002953601474
 30
0.0
 10
223.4989421920123
 20
49.6968956332313
 30
0.0
 10
223.9415736424082
 20
49.79087568131136
 30
0.0
 10
224.3178158714452
 20
49.70893842440834
 30
0.0
 10
224.5999883707872
 20
49.5666444536371
 30
0.0
 10
224.8725582985373
 20
49.35002644069387
 30
0.0
 10
225.1978554918458
 20
48.97187944833208
 30
0.0
 10
225.443158214964
 20
48.61313701722946
 30
0.0
 10
225.52927116954
 20
48.34363968273453
 30
0.0
 10
225.5316308267689
 20
48.33625494792148
 30
0.0
  0
SPLINE
  5
242
330
1F
100
AcDbEntity
  8
0
  6
Continuous
 62
     7
370
    15
100
AcDbSpline
210
0.0
220
0.0
230
1.0
 70
     8
 71
     3
 72
    12
 73
     8
 74
     0
 42
0.000000001
 43
0.00000001
 40
0.0
 40
0.0
 40
0.0
 40
0.0
 40
0.1531413117506471
 40
0.3213868028766648
 40
0.4897577437572047
 40
0.6605592160055069
 40
1.0
 40
1.0
 40
1.0
 40
1.0
 10
225.0822956861345
 20
45.83919069171436
 30
0.0
 10
225.0088823185645
 20
45.85828706452308
 30
0.0
 10
224.854814894027
 20
45.89836326691013
 30
0.0
 10
224.5910097781091
 20
46.04381484555633
 30
0.0
 10
224.3095967131263
 20
46.25110725195127
 30
0.0
 10
223.9294088302692
 20
46.600332424539
 30
0.0
 10
223.6839154478922
 20
46.94072922039535
 30
0.0
 10
223.5205999538107
 20
47.16717960517046
 30
0.0
  0
SPLINE
  5
243
330
1F
100
AcDbEntity
  8
0
  6
Continuous
 62
     7
370
    15
100
AcDbSpline
210
0.0
220
0.0
230
1.0
 70
     8
 71
     3
 72
     8
 73
     4
 74
     0
 42
0.000000001
 43
0.00000001
 40
0.0
 40
0.0
 40
0.0
 40
0.0
 40
1.0
 40
1.0
 40
1.0
 40
1.0
 10
252.4328134757824
 20
42.23413285129487
 30
0.0
 10
252.4582395341672
 20
42.21945470022256
 30
0.0
 10
252.4904279483602
 20
42.21511540916855
 30
0.0
 10
252.523310651653
 20
42.2179266608001
 30
0.0
  0
SPLINE
  5
244
330
1F
100
AcDbEntity
  8
0
  6
Continuous
 62
     7
370
    15
100
AcDbSpline
210
0.0
220
0.0
230
1.0
 70
     8
 71
     3
 72
    16
 73
    12
 74
     0
 42
0.000000001
 43
0.00000001
 40
0.0
 40
0.0
 40
0.0
 40
0.0
 40
0.2499999999999999
 40
0.2499999999999999
 40
0.3749999999999991
 40
0.3749999999999991
 40
0.4999999999999983
 40
0.4999999999999983
 40
0.7499999999999992
 40
0.7499999999999992
 40
1.0
 40
1.0
 40
1.0
 40
1.0
 10
252.5233106516527
 20
42.21792666080047
 30
0.0
 10
252.535022808233
 20
42.18010265800557
 30
0.0
 10
252.5504810734104
 20
42.14216884705023
 30
0.0
 10
252.5878959501148
 20
42.09634558659351
 30
0.0
 10
252.6033087590662
 20
42.08288783535396
 30
0.0
 10
252.6393462813931
 20
42.06626566436035
 30
0.0
 10
252.6593638919739
 20
42.06362195347004
 30
0.0
 10
252.717098041057
 20
42.06987239154302
 30
0.0
 10
252.7523078787436
 20
42.09023469037791
 30
0.0
 10
252.813569216261
 20
42.13794048587792
 30
0.0
 10
252.8402739068447
 20
42.16608628004801
 30
0.0
 10
252.8648076042516
 20
42.1966059663848
 30
0.0
  0
SPLINE
  5
245
330
1F
100
AcDbEntity
  8
0
  6
Continuous
 62
     7
370
    15
100
AcDbSpline
210
0.0
220
0.0
230
1.0
 70
     8
 71
     3
 72
    20
 73
    16
 74
     0
 42
0.000000001
 43
0.00000001
 40
0.0
 40
0.0
 40
0.0
 40
0.0
 40
0.1249999999999998
 40
0.1249999999999998
 40
0.2499999999999996
 40
0.2499999999999996
 40
0.4999999999999999
 40
0.4999999999999999
 40
0.6249999999999999
 40
0.6249999999999999
 40
0.7499999999999999
 40
0.7499999999999999
 40
0.875
 40
0.875
 40
1.0
 40
1.0
 40
1.0
 40
1.0
 10
253.4062734006157
 20
43.31632392634058
 30
0.0
 10
253.4413369454541
 20
43.35994264277659
 30
0.0
 10
253.4730553021163
 20
43.40630450864029
 30
0.0
 10
253.5290710063815
 20
43.50488166923956
 30
0.0
 10
253.5531626649902
 20
43.55693712075615
 30
0.0
 10
253.6105750066824
 20
43.71267118751854
 30
0.0
 10
253.6295313371649
 20
43.81938108331938
 30
0.0
 10
253.627531318198
 20
43.96003173207881
 30
0.0
 10
253.6219820039731
 20
44.00292799568584
 30
0.0
 10
253.6017586312342
 20
44.08039976629757
 30
0.0
 10
253.58709111646
 20
44.11413410213449
 30
0.0
 10
253.5495369312988
 20
44.16968274050644
 30
0.0
 10
253.5262895947822
 20
44.19184876267803
 30
0.0
 10
253.47245497396
 20
44.22300253251959
 30
0.0
 10
253.4413429042498
 20
44.23247680177792
 30
0.0
 10
253.4062733564399
 20
44.23561256406007
 30
0.0
  0
LWPOLYLINE
  5
246
330
1F
100
AcDbEntity
  8
0
  6
Continuous
 62
     7
370
    15
100
AcDbPolyline
 90
        4
 70
   128
 43
0.0
 10
253.4062733564
 20
44.2356125641
 10
253.1438976458
 20
44.259072885
 10
252.8815218977
 20
44.2825332275
 10
252.5233106517
 20
44.3145627137
  0
ARC
  5
247
330
1F
100
AcDbEntity
  8
0
  6
Continuous
 62
     7
370
    15
100
AcDbCircle
 10
238.3442295498
 20
40.2444887969
 30
0.0
 40
6.623523393471268
100
AcDbArc
 50
198.1114510494
 51
217.3575801744
  0
SPLINE
  5
248
330
1F
100
AcDbEntity
  8
0
  6
Continuous
 62
     7
370
    15
100
AcDbSpline
210
0.0
220
0.0
230
1.0
 70
     8
 71
     3
 72
     8
 73
     4
 74
     0
 42
0.000000001
 43
0.00000001
 40
0.0
 40
0.0
 40
0.0
 40
0.0
 40
1.0
 40
1.0
 40
1.0
 40
1.0
 10
230.5742018359183
 20
37.93907668190578
 30
0.0
 10
231.0659966346703
 20
38.02072696898752
 30
0.0
 10
231.557576725573
 20
38.10281075647796
 30
0.0
 10
232.0488777546255
 20
38.18545797668185
 30
0.0
  0
LINE
  5
249
330
1F
100
AcDbEntity
  8
0
  6
Continuous
 62
     7
370
    15
100
AcDbLine
 10
232.0488777546
 20
38.1854579767
 30
0.0
 11
232.294046359
 21
38.3269907994
 31
0.0
  0
SPLINE
  5
24A
330
1F
100
AcDbEntity
  8
0
  6
Continuous
 62
     7
370
    15
100
AcDbSpline
210
0.0
220
0.0
230
1.0
 70
     8
 71
     3
 72
    10
 73
     6
 74
     0
 42
0.000000001
 43
0.00000001
 40
0.0
 40
0.0
 40
0.0
 40
0.0
 40
0.5
 40
0.5
 40
1.0
 40
1.0
 40
1.0
 40
1.0
 10
232.2940463589917
 20
38.32699079937163
 30
0.0
 10
232.3188786623436
 20
38.34132618295948
 30
0.0
 10
232.346553659837
 20
38.35392162309556
 30
0.0
 10
232.4066786692916
 20
38.37511952123583
 30
0.0
 10
232.4383730694863
 20
38.38348168690249
 30
0.0
 10
232.4715550620679
 20
38.38959314197374
 30
0.0
  0
LINE
  5
24B
330
1F
100
AcDbEntity
  8
0
  6
Continuous
 62
     7
370
    15
100
AcDbLine
 10
252.5233106517
 20
42.2179266608
 30
0.0
 11
253.4062734006
 21
43.3163239263
 31
0.0
  0
LINE
  5
24C
330
1F
100
AcDbEntity
  8
0
  6
Continuous
 62
     7
370
    15
100
AcDbLine
 10
250.5589805056
 20
43.3158735995
 30
0.0
 11
251.4617297524
 21
44.4388850801
 31
0.0
  0
ARC
  5
24D
330
1F
100
AcDbEntity
  8
0
  6
Continuous
 62
     7
370
    15
100
AcDbCircle
 10
250.605751549
 20
45.1270719405
 30
0.0
 40
1.098316821078354
100
AcDbArc
 50
321.2015158327
 51
341.9020156981
  0
SPLINE
  5
24E
330
1F
100
AcDbEntity
  8
0
  6
Continuous
 62
     7
370
    15
100
AcDbSpline
210
0.0
220
0.0
230
1.0
 70
     8
 71
     3
 72
    16
 73
    12
 74
     0
 42
0.000000001
 43
0.00000001
 40
0.0
 40
0.0
 40
0.0
 40
0.0
 40
0.0933393767968009
 40
0.218763067428697
 40
0.3478523558893634
 40
0.4729103600870685
 40
0.6015015100876362
 40
0.7282731131594883
 40
0.8586455694819441
 40
0.9866458489123833
 40
1.0
 40
1.0
 40
1.0
 40
1.0
 10
224.5297443303661
 20
49.5192201596141
 30
0.0
 10
224.5194751871956
 20
49.46168522067536
 30
0.0
 10
224.4954070035744
 20
49.32683838369721
 30
0.0
 10
224.5086312453457
 20
49.08782897051037
 30
0.0
 10
224.5604485047551
 20
48.81831193958684
 30
0.0
 10
224.6553288361007
 20
48.54116609436402
 30
0.0
 10
224.7862306550303
 20
48.26846614487742
 30
0.0
 10
224.9511925078025
 20
48.0002133653591
 30
0.0
 10
225.1433219752249
 20
47.75067028877625
 30
0.0
 10
225.290001241843
 20
47.58166573237561
 30
0.0
 10
225.3715644946476
 20
47.50766833926408
 30
0.0
 10
225.3792700048121
 20
47.50067759716934
 30
0.0
  0
LINE
  5
24F
330
1F
100
AcDbEntity
  8
0
  6
Continuous
 62
     7
370
    15
100
AcDbLine
 10
252.1977919897
 20
59.4653079136
 30
0.0
 11
252.2928003051
 21
59.4863564349
 31
0.0
  0
LINE
  5
250
330
1F
100
AcDbEntity
  8
0
  6
Continuous
 62
     7
370
    15
100
AcDbLine
 10
252.2928003051
 20
59.4863564349
 30
0.0
 11
253.6921883727
 21
58.6785068991
 31
0.0
  0
SPLINE
  5
251
330
1F
100
AcDbEntity
  8
0
  6
Continuous
 62
     7
370
    15
100
AcDbSpline
210
0.0
220
0.0
230
1.0
 70
     8
 71
     3
 72
    12
 73
     8
 74
     0
 42
0.000000001
 43
0.00000001
 40
0.0
 40
0.0
 40
0.0
 40
0.0
 40
0.250000000000002
 40
0.250000000000002
 40
0.500000000000004
 40
0.500000000000004
 40
1.0
 40
1.0
 40
1.0
 40
1.0
 10
253.6921883726835
 20
58.67850689905004
 30
0.0
 10
253.7244323435561
 20
58.65989285087643
 30
0.0
 10
253.7464853460897
 20
58.63564252807902
 30
0.0
 10
253.7673342902547
 20
58.58505467019148
 30
0.0
 10
253.7669531210274
 20
58.55821610175741
 30
0.0
 10
253.7412001881301
 20
58.4809819854886
 30
0.0
 10
253.6932487610214
 20
58.43419661466077
 30
0.0
 10
253.6293487118861
 20
58.39730790149329
 30
0.0
  0
SPLINE
  5
252
330
1F
100
AcDbEntity
  8
0
  6
Continuous
 62
     7
370
    15
100
AcDbSpline
210
0.0
220
0.0
230
1.0
 70
     8
 71
     3
 72
    11
 73
     7
 74
     0
 42
0.000000001
 43
0.00000001
 40
0.0
 40
0.0
 40
0.0
 40
0.0
 40
0.204291841339453
 40
0.3927251337843728
 40
0.7211867471107678
 40
1.0
 40
1.0
 40
1.0
 40
1.0
 10
223.8118693057796
 20
47.3501026870893
 30
0.0
 10
223.8914889359604
 20
47.2355173718753
 30
0.0
 10
224.0445475686968
 20
47.01524164793012
 30
0.0
 10
224.368298198907
 20
46.66441782846029
 30
0.0
 10
224.7525557553994
 20
46.34716770224545
 30
0.0
 10
225.0061726106147
 20
46.23961641427434
 30
0.0
 10
225.1226136891511
 20
46.19023725152631
 30
0.0
  0
SPLINE
  5
253
330
1F
100
AcDbEntity
  8
0
  6
Continuous
 62
     7
370
    15
100
AcDbSpline
210
0.0
220
0.0
230
1.0
 70
     8
 71
     3
 72
    16
 73
    12
 74
     0
 42
0.000000001
 43
0.00000001
 40
0.0
 40
0.0
 40
0.0
 40
0.0
 40
0.1460145433259785
 40
0.2335492811850808
 40
0.3282846596479785
 40
0.4359414636991774
 40
0.5278790605487241
 40
0.664099532389377
 40
0.8013223013368341
 40
0.8930413576945605
 40
1.0
 40
1.0
 40
1.0
 40
1.0
 10
224.7514767740767
 20
49.43207160903819
 30
0.0
 10
224.6046161677976
 20
49.50554250872947
 30
0.0
 10
224.3697136146025
 20
49.6230587192388
 30
0.0
 10
224.0528625248364
 20
49.61308878479634
 30
0.0
 10
223.7997333663153
 20
49.52535344177824
 30
0.0
 10
223.5910100914515
 20
49.3435612265086
 30
0.0
 10
223.4279791754387
 20
49.05169585148008
 30
0.0
 10
223.3509513696634
 20
48.64181247712642
 30
0.0
 10
223.4263507105516
 20
48.17724331439869
 30
0.0
 10
223.5850932482088
 20
47.73529864787615
 30
0.0
 10
223.7325081305074
 20
47.48490353196505
 30
0.0
 10
223.8118693057796
 20
47.3501026870893
 30
0.0
  0
SPLINE
  5
254
330
1F
100
AcDbEntity
  8
0
  6
Continuous
 62
     7
370
    15
100
AcDbSpline
210
0.0
220
0.0
230
1.0
 70
     8
 71
     3
 72
    12
 73
     8
 74
     0
 42
0.000000001
 43
0.00000001
 40
0.0
 40
0.0
 40
0.0
 40
0.0
 40
0.1650617432048901
 40
0.3339995032382378
 40
0.7030406793749748
 40
0.881756753393172
 40
1.0
 40
1.0
 40
1.0
 40
1.0
 10
255.8091779210473
 20
54.81769220796412
 30
0.0
 10
255.8200389801279
 20
54.82453758366687
 30
0.0
 10
255.8420161401113
 20
54.83838907971803
 30
0.0
 10
255.8780824449638
 20
54.87216361124369
 30
0.0
 10
255.8995117176602
 20
54.91123528955384
 30
0.0
 10
255.9040471387215
 20
54.94882229125872
 30
0.0
 10
255.899640649712
 20
54.9653314780373
 30
0.0
 10
255.8978860741509
 20
54.9719051051571
 30
0.0
  0
LINE
  5
255
330
1F
100
AcDbEntity
  8
0
  6
Continuous
 62
     7
370
    15
100
AcDbLine
 10
249.8943415986
 20
60.8709571741
 30
0.0
 11
249.7499456682
 21
60.6537472794
 31
0.0
  0
LINE
  5
256
330
1F
100
AcDbEntity
  8
0
  6
Continuous
 62
     7
370
    15
100
AcDbLine
 10
219.6715090887
 20
51.2198351954
 30
0.0
 11
220.1718919229
 21
50.9309703338
 31
0.0
  0
SPLINE
  5
257
330
1F
100
AcDbEntity
  8
0
  6
Continuous
 62
     7
370
    15
100
AcDbSpline
210
0.0
220
0.0
230
1.0
 70
     8
 71
     3
 72
    10
 73
     6
 74
     0
 42
0.000000001
 43
0.00000001
 40
0.0
 40
0.0
 40
0.0
 40
0.0
 40
0.0840381716605808
 40
0.7011125076932897
 40
1.0
 40
1.0
 40
1.0
 40
1.0
 10
217.8334187688471
 20
56.97341414057801
 30
0.0
 10
217.8328774540338
 20
56.97986011404186
 30
0.0
 10
217.8283613802222
 20
57.03363749318344
 30
0.0
 10
217.8427001066808
 20
57.11643749542448
 30
0.0
 10
217.8632489098963
 20
57.19806607981298
 30
0.0
 10
217.8699541896066
 20
57.2247023021244
 30
0.0
  0
SPLINE
  5
258
330
1F
100
AcDbEntity
  8
0
  6
Continuous
 62
     7
370
    15
100
AcDbSpline
210
0.0
220
0.0
230
1.0
 70
     8
 71
     3
 72
    10
 73
     6
 74
     0
 42
0.000000001
 43
0.00000001
 40
0.0
 40
0.0
 40
0.0
 40
0.0
 40
0.5
 40
0.5
 40
1.0
 40
1.0
 40
1.0
 40
1.0
 10
217.8861905925749
 20
57.02956395140815
 30
0.0
 10
217.8662645420783
 20
56.94560347739013
 30
0.0
 10
217.8529702779373
 20
56.86015761487636
 30
0.0
 10
217.8357017517966
 20
56.68774414393908
 30
0.0
 10
217.8317782971746
 20
56.60063253767277
 30
0.0
 10
217.8317316553569
 20
56.51362177228649
 30
0.0
  0
SPLINE
  5
259
330
1F
100
AcDbEntity
  8
0
  6
Continuous
 62
     7
370
    15
100
AcDbSpline
210
0.0
220
0.0
230
1.0
 70
     8
 71
     3
 72
    24
 73
    20
 74
     0
 42
0.000000001
 43
0.00000001
 40
0.0
 40
0.0
 40
0.0
 40
0.0
 40
0.249999999999999
 40
0.249999999999999
 40
0.3749999999999983
 40
0.3749999999999983
 40
0.4374999999999987
 40
0.4374999999999987
 40
0.4687499999999975
 40
0.4687499999999975
 40
0.4999999999999963
 40
0.4999999999999963
 40
0.5624999999999984
 40
0.5624999999999984
 40
0.6250000000000006
 40
0.6250000000000006
 40
0.7500000000000001
 40
0.7500000000000001
 40
1.0
 40
1.0
 40
1.0
 40
1.0
 10
217.8699541896066
 20
57.2247023021244
 30
0.0
 10
217.8997952188918
 20
57.33198135868064
 30
0.0
 10
217.9296247589328
 20
57.43786593205132
 30
0.0
 10
217.9742959158041
 20
57.58781397530161
 30
0.0
 10
217.9892487078959
 20
57.63681423806455
 30
0.0
 10
218.0108318461853
 20
57.69996451996729
 30
0.0
 10
218.0179615577149
 20
57.71960470419581
 30
0.0
 10
218.0268131830163
 20
57.73731463368379
 30
0.0
 10
218.0294512802862
 20
57.74103100016948
 30
0.0
 10
218.0326038183312
 20
57.73888265178728
 30
0.0
 10
218.0329837794679
 20
57.73272024272068
 30
0.0
 10
218.0309738542072
 20
57.70407515936794
 30
0.0
 10
218.0263972126088
 20
57.67577415437976
 30
0.0
 10
218.0164658265024
 20
57.61939514423047
 30
0.0
 10
218.0107756407674
 20
57.58992539627442
 30
0.0
 10
217.9931940401488
 20
57.50207097570809
 30
0.0
 10
217.9805131672205
 20
57.44284598265877
 30
0.0
 10
217.9412721036001
 20
57.26435267552898
 30
0.0
 10
217.9139686435637
 20
57.14660964135527
 30
0.0
 10
217.8861905925749
 20
57.02956395140816
 30
0.0
  0
ARC
  5
25A
330
1F
100
AcDbEntity
  8
0
  6
Continuous
 62
     7
370
    15
100
AcDbCircle
 10
218.5488686296
 20
56.4349545175
 30
0.0
 40
0.7201267655271255
100
AcDbArc
 50
174.7583590299
 51
234.4349468916
  0
ARC
  5
25B
330
1F
100
AcDbEntity
  8
0
  6
Continuous
 62
     7
370
    15
100
AcDbCircle
 10
220.0442025747
 20
48.9350581402
 30
0.0
 40
2.215172042338998
100
AcDbArc
 50
122.6235698332
 51
177.1589486026
  0
LINE
  5
25C
330
1F
100
AcDbEntity
  8
0
  6
Continuous
 62
     7
370
    15
100
AcDbLine
 10
218.849965004
 20
50.80074402
 30
0.0
 11
219.5940516349
 21
51.2302960887
 31
0.0
  0
SPLINE
  5
25D
330
1F
100
AcDbEntity
  8
0
  6
Continuous
 62
     7
370
    15
100
AcDbSpline
210
0.0
220
0.0
230
1.0
 70
     8
 71
     3
 72
     8
 73
     4
 74
     0
 42
0.000000001
 43
0.00000001
 40
0.0
 40
0.0
 40
0.0
 40
0.0
 40
0.0001590976953043
 40
0.0001590976953043
 40
0.0001590976953043
 40
0.0001590976953043
 10
219.6715090886628
 20
51.21983519540242
 30
0.0
 10
219.6456889591033
 20
51.22331974486328
 30
0.0
 10
219.6198698145571
 20
51.2268067275998
 30
0.0
 10
219.594051634907
 20
51.23029608871817
 30
0.0
  0
SPLINE
  5
25E
330
1F
100
AcDbEntity
  8
0
  6
Continuous
 62
     7
370
    15
100
AcDbSpline
210
0.0
220
0.0
230
1.0
 70
     8
 71
     3
 72
    10
 73
     6
 74
     0
 42
0.000000001
 43
0.00000001
 40
0.0
 40
0.0
 40
0.0
 40
0.0
 40
0.5
 40
0.5
 40
1.0
 40
1.0
 40
1.0
 40
1.0
 10
217.8861905925749
 20
48.84490833570417
 30
0.0
 10
217.8662645420784
 20
48.88342989722051
 30
0.0
 10
217.8529702779375
 20
48.9153932244141
 30
0.0
 10
217.8357017517968
 20
48.97783664791202
 30
0.0
 10
217.8317782971747
 20
49.0082600251248
 30
0.0
 10
217.8317316553569
 20
49.04015072042504
 30
0.0
  0
SPLINE
  5
25F
330
1F
100
AcDbEntity
  8
0
  6
Continuous
 62
     7
370
    15
100
AcDbSpline
210
0.0
220
0.0
230
1.0
 70
     8
 71
     3
 72
     9
 73
     5
 74
     0
 42
0.000000001
 43
0.00000001
 40
0.0
 40
0.0
 40
0.0
 40
0.0
 40
0.5797035953942357
 40
1.0
 40
1.0
 40
1.0
 40
1.0
 10
217.842098221273
 20
49.64202089689623
 30
0.0
 10
217.8385760410573
 20
49.61477516488262
 30
0.0
 10
217.8325002115407
 20
49.56777574616228
 30
0.0
 10
217.8324567702419
 20
49.52133710183329
 30
0.0
 10
217.8324385120202
 20
49.50181910658706
 30
0.0
  0
ARC
  5
260
330
1F
100
AcDbEntity
  8
0
  6
Continuous
 62
     7
370
    15
100
AcDbCircle
 10
219.17882382
 20
49.429715755
 30
0.0
 40
1.353480254557491
100
AcDbArc
 50
122.9135798094
 51
170.9753897871
  0
LINE
  5
261
330
1F
100
AcDbEntity
  8
0
  6
Continuous
 62
     7
370
    15
100
AcDbLine
 10
218.849965004
 20
50.80074402
 30
0.0
 11
218.4433786048
 21
50.5659503853
 31
0.0
  0
LINE
  5
262
330
1F
100
AcDbEntity
  8
0
  6
Continuous
 62
     7
370
    15
100
AcDbLine
 10
217.9415031877
 20
48.7489186781
 30
0.0
 11
217.8861905926
 21
48.8449083357
 31
0.0
  0
LWPOLYLINE
  5
263
330
1F
100
AcDbEntity
  8
0
  6
Continuous
 62
     7
370
     0
100
AcDbPolyline
 90
       26
 70
   128
 43
0.0
 10
234.8057314456
 20
43.1009310522
 10
235.0891017505
 20
44.2044834723
 10
235.4357593949
 20
45.3158494351
 10
235.8435466739
 20
46.428111453
 10
236.3099253925
 20
47.5343464611
 10
236.8319926644
 20
48.6276689085
 10
237.4064989805
 20
49.7012736161
 10
238.0298684347
 20
50.748478134
 10
238.6982209816
 20
51.7627643355
 10
239.4073965868
 20
52.7378189876
 10
240.1529811208
 20
53.6675730467
 10
240.9303338333
 20
54.5462394344
 10
241.7346162393
 20
55.3683490575
 10
242.5608222348
 20
56.1287848499
 10
243.4038092564
 20
56.8228136226
 10
244.2583302908
 20
57.4461155246
 10
245.119066533
 20
57.9948109309
 10
245.9806604928
 20
58.4654845905
 10
246.8377493414
 20
58.8552068841
 10
247.684998291
 20
59.1615520588
 10
248.5171338004
 20
59.3826133271
 10
249.3289763995
 20
59.5170147347
 10
250.1154729271
 20
59.5639197254
 10
250.8717279842
 20
59.5230363481
 10
251.5930344039
 20
59.3946190735
 10
252.2749025507
 20
59.1794672108
  0
LWPOLYLINE
  5
264
330
1F
100
AcDbEntity
  8
0
  6
Continuous
 62
     7
370
     0
100
AcDbPolyline
 90
       26
 70
   128
 43
0.0
 10
234.37204861
 20
43.0954937138
 10
234.6544930899
 20
44.2138489726
 10
235.0009516728
 20
45.3406350568
 10
235.4092898336
 20
46.4689098568
 10
235.8769918079
 20
47.5917220915
 10
236.401176092
 20
48.7021541342
 10
236.9786131958
 20
49.7933646327
 10
237.6057455393
 20
50.858630658
 10
238.2787093712
 20
51.8913891249
 10
238.9933585731
 20
52.8852772264
 10
239.7452902036
 20
53.8341716354
 10
240.5298716253
 20
54.7322262301
 10
241.3422690456
 20
55.5739081117
 10
242.1774772983
 20
56.3540316929
 10
243.03035068
 20
57.0677906461
 10
243.8956346526
 20
57.7107875146
 10
244.7679982168
 20
58.2790608062
 10
245.6420667558
 20
58.769109399
 10
246.5124551487
 20
59.1779141121
 10
247.3738009479
 20
59.5029563069
 10
248.2207974169
 20
59.7422334041
 10
249.0482262252
 20
59.8942712217
 10
249.8509895986
 20
59.9581330574
 10
250.6241417258
 20
59.9334254595
 10
251.3629192301
 20
59.820300651
 10
252.0627705164
 20
59.6194555921
  0
ARC
  5
265
330
1F
100
AcDbEntity
  8
0
  6
Continuous
 62
     7
370
     0
100
AcDbCircle
 10
232.7240177809
 20
53.1422811608
 30
0.0
 40
23.59055417675395
100
AcDbArc
 50
336.6335055231
 51
348.1187530242
  0
LWPOLYLINE
  5
266
330
1F
100
AcDbEntity
  8
0
  6
Continuous
 62
     7
370
     0
100
AcDbPolyline
 90
       25
 70
   128
 43
0.0
 10
251.2685711617
 20
38.3965569772
 10
250.7403970416
 20
37.7141158701
 10
249.9844224595
 20
36.8157851794
 10
249.1994726506
 20
35.9704337973
 10
248.3903585793
 20
35.1832428902
 10
247.5620393136
 20
34.4590371586
 10
246.7195916298
 20
33.8022552661
 10
245.8681788977
 20
33.2169226351
 10
245.0130194339
 20
32.7066267746
 10
244.1593545187
 20
32.274495293
 10
243.3124162722
 20
31.9231767279
 10
242.477395587
 20
31.6548243141
 10
241.6594103126
 20
31.4710827862
 10
240.8634738884
 20
31.3730782976
 10
240.0944646161
 20
31.3614115188
 10
239.3570957608
 20
31.4361539556
 10
238.655886663
 20
31.5968475108
 10
237.9951350398
 20
31.8425072922
 10
237.3788906441
 20
32.1716276487
 10
236.8109304436
 20
32.5821913986
 10
236.2947354716
 20
33.0716821927
 10
235.8334694919
 20
33.6370999375
 10
235.429959608
 20
34.2749791823
 10
235.0866789357
 20
34.9814103593
 10
234.8057314456
 20
35.7520637452
  0
ARC
  5
267
330
1F
100
AcDbEntity
  8
0
  6
Continuous
 62
     7
370
     0
100
AcDbCircle
 10
249.2827260629
 20
53.2968869285
 30
0.0
 40
6.70130006452763
100
AcDbArc
 50
13.1170908933
 51
49.5620782406
  0
LWPOLYLINE
  5
268
330
1F
100
AcDbEntity
  8
0
  6
Continuous
 62
     7
370
     0
100
AcDbPolyline
 90
       28
 70
   128
 43
0.0
 10
240.3071202791
 20
42.6023815717
 10
240.3405887008
 20
43.2852646967
 10
240.4405413627
 20
43.9975548161
 10
240.6056265767
 20
44.7296194279
 10
240.8336118484
 20
45.471558614
 10
241.1214140681
 20
46.2133389197
 10
241.4651412045
 20
46.944929039
 10
241.8601449378
 20
47.6564354705
 10
242.30108352
 20
48.3382363103
 10
242.7819940133
 20
48.9811113716
 10
243.2963729282
 20
49.5763668721
 10
243.8372641724
 20
50.1159530023
 10
244.3973531197
 20
50.5925727855
 10
244.9690655277
 20
50.9997807566
 10
245.5446699671
 20
51.3320701265
 10
246.1163823752
 20
51.5849472514
 10
246.6764713225
 20
51.7549924021
 10
247.2173625666
 20
51.8399060096
 10
247.7317414816
 20
51.838539763
 10
248.2126519749
 20
51.7509121385
 10
248.6535905571
 20
51.5782081493
 10
249.0485942904
 20
51.3227633207
 10
249.3923214268
 20
50.9880321057
 10
249.6801236465
 20
50.5785411698
 10
249.9081089182
 20
50.0998281755
 10
250.0731941321
 20
49.5583668947
 10
250.1731467941
 20
48.9614796624
 10
250.2063533692
 20
48.375879038
  0
LWPOLYLINE
  5
269
330
1F
100
AcDbEntity
  8
0
  6
Continuous
 62
     7
370
     0
100
AcDbPolyline
 90
       15
 70
   128
 43
0.0
 10
245.206759706
 20
39.7153904142
 10
244.9690655277
 20
39.5875497997
 10
244.3973531197
 20
39.3346726747
 10
243.8372641724
 20
39.164627524
 10
243.2963729282
 20
39.0797139166
 10
242.7819940133
 20
39.0810801632
 10
242.30108352
 20
39.1687077877
 10
241.8601449378
 20
39.3414117768
 10
241.4651412045
 20
39.5968566055
 10
241.1214140681
 20
39.9315878205
 10
240.8336118484
 20
40.3410787563
 10
240.6056265767
 20
40.8197917507
 10
240.4405413627
 20
41.3612530315
 10
240.3405887008
 20
41.9581402638
 10
240.3071202791
 20
42.6023815717
  0
LWPOLYLINE
  5
26A
330
1F
100
AcDbEntity
  8
0
  6
Continuous
 62
     7
370
     0
100
AcDbPolyline
 90
       24
 70
   128
 43
0.0
 10
225.051291475
 20
44.2658130995
 10
225.0847808842
 20
45.2817387784
 10
225.1850477024
 20
46.3302206094
 10
225.3514889131
 20
47.4049528995
 10
225.5831035195
 20
48.4994720822
 10
225.8784985639
 20
49.6071955904
 10
226.2358975059
 20
50.7214614447
 10
226.6531509061
 20
51.8355683189
 10
227.1277493535
 20
52.9428158433
 10
227.6568385571
 20
54.0365449011
 10
228.2372365123
 20
55.1101776768
 10
228.8654526375
 20
56.1572572168
 10
229.5377087669
 20
57.1714862614
 10
230.2499618732
 20
58.1467651179
 10
230.9979283822
 20
59.0772283443
 10
231.7771099355
 20
59.9572800255
 10
232.5828204435
 20
60.7816274271
 10
233.4102142683
 20
61.5453128267
 10
234.2543153662
 20
62.2437433305
 10
235.1100472138
 20
62.8727184954
 10
235.9722633392
 20
63.4284555906
 10
236.835778273
 20
63.9076123478
 10
237.6953987349
 20
64.307307062
 10
238.3669484297
 20
64.5648005832
  0
ARC
  5
26B
330
1F
100
AcDbEntity
  8
0
  6
Continuous
 62
     7
370
     0
100
AcDbCircle
 10
237.6427810071
 20
44.193258055
 30
0.0
 40
12.59169856974942
100
AcDbArc
 50
179.6698522588
 51
190.6229483052
  0
LWPOLYLINE
  5
26C
330
1F
100
AcDbEntity
  8
0
  6
Continuous
 62
     7
370
     0
100
AcDbPolyline
 90
       19
 70
   128
 43
0.0
 10
232.719864517
 20
45.0277131428
 10
232.9758731671
 20
46.0608441246
 10
233.2947367526
 20
47.1026171933
 10
233.6742474537
 20
48.1458190844
 10
234.1117775281
 20
49.1832266401
 10
234.6042975058
 20
50.2076568228
 10
235.1483971655
 20
51.2120164506
 10
235.7403091465
 20
52.1893513106
 10
236.3759350345
 20
53.1328943101
 10
237.0508737389
 20
54.0361123323
 10
237.760451966
 20
54.8927514714
 10
238.4997565773
 20
55.6968803351
 10
239.2636686078
 20
56.4429311139
 10
240.0468987105
 20
57.125738132
 10
240.8440237789
 20
57.7405736156
 10
241.649524498
 20
58.2831804273
 10
242.4578235593
 20
58.749801543
 10
243.2633242784
 20
59.1372060658
 10
243.865927671
 20
59.3754539023
  0
LWPOLYLINE
  5
26D
330
1F
100
AcDbEntity
  8
0
  6
Continuous
 62
     7
370
     0
100
AcDbPolyline
 90
       23
 70
   128
 43
0.0
 10
232.294046359
 20
45.6758581063
 10
232.5825935245
 20
46.7158807348
 10
232.9313981422
 20
47.7608637533
 10
233.3381727141
 20
48.8039540509
 10
233.8002495687
 20
49.8383109291
 10
234.3145983562
 20
50.8571509641
 10
234.8778459219
 20
51.8537924934
 10
235.4862984277
 20
52.8216994345
 10
236.1359655766
 20
53.7545241496
 10
236.8225867814
 20
54.6461490737
 10
237.5416591065
 20
55.4907268347
 10
238.2884667981
 20
56.2827186007
 10
239.0581122109
 20
57.0169304045
 10
239.8455479276
 20
57.688547206
 10
240.64560986
 20
58.29316447
 10
241.4530511158
 20
58.8268170513
 10
242.2625764084
 20
59.286005199
 10
243.0688767837
 20
59.6677175077
 10
243.8666644372
 20
59.9694506671
 10
244.6507073914
 20
60.1892258785
 10
245.4158638084
 20
60.3256018325
 10
246.1571157101
 20
60.3776841609
 10
246.1853238268
 20
60.3779996735
  0
ARC
  5
26E
330
1F
100
AcDbEntity
  8
0
  6
Continuous
 62
     7
370
     0
100
AcDbCircle
 10
245.6331349866
 20
42.3534741189
 30
0.0
 40
2.509959890790731
100
AcDbArc
 50
174.3087434829
 51
234.3790761237
  0
LWPOLYLINE
  5
26F
330
1F
100
AcDbEntity
  8
0
  6
Continuous
 62
     7
370
     0
100
AcDbPolyline
 90
       19
 70
   128
 43
0.0
 10
249.1708781414
 20
48.9736461632
 10
249.0842710903
 20
49.0202936166
 10
248.7099541415
 20
49.1558643821
 10
248.2976568496
 20
49.2073765087
 10
247.855059533
 20
49.1738704227
 10
247.3904069423
 20
49.0559702792
 10
246.9123546761
 20
48.8558723348
 10
246.4298079435
 20
48.5773040356
 10
245.9517556773
 20
48.2254545819
 10
245.4871030866
 20
47.8068782634
 10
245.04450577
 20
47.3293723648
 10
244.6322084781
 20
46.8018319176
 10
244.2578915294
 20
46.2340840022
 10
243.9285277403
 20
45.636704688
 10
243.6502525352
 20
45.0208220214
 10
243.4282496544
 20
44.397908731
 10
243.2666545918
 20
43.7795685131
 10
243.1684775575
 20
43.1773198758
 10
243.1355474039
 20
42.6023815717
  0
LWPOLYLINE
  5
270
330
1F
100
AcDbEntity
  8
0
  6
Continuous
 62
     7
370
     0
100
AcDbPolyline
 90
       13
 70
   128
 43
0.0
 10
248.9979917287
 20
39.9643406765
 10
249.207141428
 20
39.6926446735
 10
249.4753210296
 20
39.5062391622
 10
249.793349417
 20
39.4115057269
 10
250.1503389028
 20
39.4116875623
 10
250.5340679683
 20
39.5067784434
 10
250.9313996665
 20
39.6935229381
 10
251.3287313646
 20
39.9655278573
 10
251.7124604301
 20
40.3134811248
 10
252.069449916
 20
40.7254705764
 10
252.3874783034
 20
41.187391772
 10
252.6556579049
 20
41.6834308606
 10
252.8648076043
 20
42.1966059664
  0
LWPOLYLINE
  5
271
330
1F
100
AcDbEntity
  8
0
  6
Continuous
 62
     7
370
     0
100
AcDbPolyline
 90
       13
 70
   128
 43
0.0
 10
252.864854495
 20
44.403521662
 10
252.655710832
 20
44.6752493568
 10
252.3875302358
 20
44.8616807585
 10
252.0694946686
 20
44.9564328324
 10
251.7124930262
 20
44.9562614587
 10
251.328748324
 20
44.8611725049
 10
250.9313992059
 20
44.6744216248
 10
250.5340501036
 20
44.4024027915
 10
250.1503054482
 20
44.0544293808
 10
249.7933038819
 20
43.6424152996
 10
249.4752684177
 20
43.1804670784
 10
249.2070879477
 20
42.6844008916
 10
248.9979444299
 20
42.1712010441
  0
LINE
  5
272
330
1F
100
AcDbEntity
  8
0
  6
Continuous
 62
     7
370
     0
100
AcDbLine
 10
248.1736832198
 20
40.2956139126
 30
0.0
 11
248.244393898
 21
40.0317236786
 31
0.0
  0
LINE
  5
273
330
1F
100
AcDbEntity
  8
0
  6
Continuous
 62
     7
370
     0
100
AcDbLine
 10
226.7009281145
 20
43.7282496069
 30
0.0
 11
228.4984370333
 21
44.7659294181
 31
0.0
  0
LWPOLYLINE
  5
274
330
1F
100
AcDbEntity
  8
0
  6
Continuous
 62
     7
370
     0
100
AcDbPolyline
 90
        3
 70
   128
 43
0.0
 10
252.4328134758
 20
44.3571523303
 10
252.220892294
 20
44.5999722952
 10
252.0941558895
 20
44.6880680027
  0
LWPOLYLINE
  5
275
330
1F
100
AcDbEntity
  8
0
  6
Continuous
 62
     7
370
     0
100
AcDbPolyline
 90
       11
 70
   128
 43
0.0
 10
249.3862915981
 20
39.9020357678
 10
249.4871097154
 20
39.8579684542
 10
249.8037954652
 20
39.7968725181
 10
250.1555641241
 20
39.8319484897
 10
250.5289351427
 20
39.9618521805
 10
250.9096001215
 20
40.1816053952
 10
251.2829711401
 20
40.4827867065
 10
251.6347397991
 20
40.8538541835
 10
251.9514255488
 20
41.2805877035
 10
252.220892294
 20
41.7466338982
 10
252.4328134758
 20
42.2341328513
  0
LINE
  5
276
330
1F
100
AcDbEntity
  8
0
  6
Continuous
 62
     7
370
     0
100
AcDbLine
 10
248.0041167781
 20
40.3935025358
 30
0.0
 11
248.1736832198
 21
40.2956139126
 31
0.0
  0
ARC
  5
277
330
1F
100
AcDbEntity
  8
0
  6
Continuous
 62
     7
370
     0
100
AcDbCircle
 10
241.3869720978
 20
37.7618702061
 30
0.0
 40
7.298654609583205
100
AcDbArc
 50
196.0282740928
 51
217.1863811773
  0
LWPOLYLINE
  5
278
330
1F
100
AcDbEntity
  8
0
  6
Continuous
 62
     7
370
     0
100
AcDbPolyline
 90
       22
 70
   128
 43
0.0
 10
217.8317316554
 20
56.5136217723
 10
218.1624937131
 20
57.4759451239
 10
218.5535979899
 20
58.4344865644
 10
219.0016942668
 20
59.381035179
 10
219.5029441284
 20
60.3074827846
 10
220.0530538428
 20
61.2058933841
 10
220.6473111426
 20
62.0685711466
 10
221.2806255896
 20
62.8881263309
 10
221.9475721801
 20
63.6575385857
 10
222.6424378159
 20
64.3702170867
 10
223.3592702428
 20
65.0200569938
 10
224.0919290379
 20
65.6014917455
 10
224.8341382088
 20
66.1095407421
 10
225.5795399544
 20
66.5398520104
 10
226.3217491253
 20
66.8887394821
 10
227.0544079204
 20
67.1532145696
 10
227.7712403473
 20
67.3310117658
 10
228.4661059831
 20
67.420608051
 10
229.1330525736
 20
67.4212359388
 10
229.7663670206
 20
67.3328900508
 10
230.3606243203
 20
67.1563271622
 10
230.6959070515
 20
67.0088383633
  0
ARC
  5
279
330
1F
100
AcDbEntity
  8
0
  6
Continuous
 62
     7
370
     0
100
AcDbCircle
 10
221.7441354355
 20
50.8554124016
 30
0.0
 40
4.313012672088841
100
AcDbArc
 50
204.8901713315
 51
234.8684218607
  0
LINE
  5
27A
330
1F
100
AcDbEntity
  8
0
  6
Continuous
 62
     7
370
     0
100
AcDbLine
 10
226.7009281145
 20
42.911708795
 30
0.0
 11
228.4984370333
 21
43.9493886062
 31
0.0
  0
LINE
  5
27B
330
1F
100
AcDbEntity
  8
0
  6
Continuous
 62
     7
370
     0
100
AcDbLine
 10
229.9879865667
 20
38.2774915535
 30
0.0
 11
231.3268641581
 21
39.050409135
 31
0.0
  0
LINE
  5
27C
330
1F
100
AcDbEntity
  8
0
  6
Continuous
 62
     7
370
     0
100
AcDbLine
 10
253.618405435
 20
43.1340745035
 30
0.0
 11
253.4062734006
 21
43.3163239263
 31
0.0
  0
LINE
  5
27D
330
1F
100
AcDbEntity
  8
0
  6
Continuous
 62
     7
370
     0
100
AcDbLine
 10
233.72364857
 20
37.7159649098
 30
0.0
 11
233.5047530441
 21
38.3605419518
 31
0.0
  0
ARC
  5
27E
330
1F
100
AcDbEntity
  8
0
  6
Continuous
 62
     7
370
     0
100
AcDbCircle
 10
239.328046098
 20
40.6842136532
 30
0.0
 40
6.867829203840544
100
AcDbArc
 50
195.8051238746
 51
209.3718713215
  0
ARC
  5
27F
330
1F
100
AcDbEntity
  8
0
  6
Continuous
 62
     7
370
     0
100
AcDbCircle
 10
238.5017507738
 20
40.4374216693
 30
0.0
 40
6.556638815570282
100
AcDbArc
 50
198.7764725905
 51
214.0375669963
  0
LINE
  5
280
330
1F
100
AcDbEntity
  8
0
  6
Continuous
 62
     7
370
     0
100
AcDbLine
 10
251.4617297524
 20
44.4388850801
 30
0.0
 11
253.4062734006
 21
43.3163239263
 31
0.0
  0
LINE
  5
281
330
1F
100
AcDbEntity
  8
0
  6
Continuous
 62
     7
370
     0
100
AcDbLine
 10
249.0414128448
 20
61.363342463
 30
0.0
 11
248.5004238669
 21
61.0510361737
 31
0.0
  0
ARC
  5
282
330
1F
100
AcDbEntity
  8
0
  6
Continuous
 62
     7
370
     0
100
AcDbCircle
 10
221.5941693844
 20
55.0175311609
 30
0.0
 40
1.102095792745882
100
AcDbArc
 50
159.4111972489
 51
213.1915491986
  0
ARC
  5
283
330
1F
100
AcDbEntity
  8
0
  6
Continuous
 62
     7
370
     0
100
AcDbCircle
 10
220.2623585755
 20
54.8460463381
 30
0.0
 40
0.6345057597334223
100
AcDbArc
 50
41.9989524423
 51
61.7721687695
  0
LINE
  5
284
330
1F
100
AcDbEntity
  8
0
  6
Continuous
 62
     7
370
     0
100
AcDbLine
 10
220.5624663479
 20
55.4050927442
 30
0.0
 11
220.6720131995
 21
55.815890505
 31
0.0
  0
LINE
  5
285
330
1F
100
AcDbEntity
  8
0
  6
Continuous
 62
     7
370
     0
100
AcDbLine
 10
220.5624663479
 20
55.4050927442
 30
0.0
 11
219.7604216096
 21
55.8681033161
 31
0.0
  0
LINE
  5
286
330
1F
100
AcDbEntity
  8
0
  6
Continuous
 62
     7
370
     0
100
AcDbLine
 10
217.8861905926
 20
57.0295639514
 30
0.0
 11
217.8699541896
 21
57.2247023021
 31
0.0
  0
ARC
  5
287
330
1F
100
AcDbEntity
  8
0
  6
Continuous
 62
     7
370
     0
100
AcDbCircle
 10
220.3525063664
 20
46.7524734319
 30
0.0
 40
0.4314912001448801
100
AcDbArc
 50
27.8850837496
 51
60.8831993912
  0
ARC
  5
288
330
1F
100
AcDbEntity
  8
0
  6
Continuous
 62
     7
370
     0
100
AcDbCircle
 10
221.8022050432
 20
47.5245316275
 30
0.0
 40
1.301173266866779
100
AcDbArc
 50
165.9701785416
 51
197.6766607319
  0
LINE
  5
289
330
1F
100
AcDbEntity
  8
0
  6
Continuous
 62
     7
370
     0
100
AcDbLine
 10
220.1706951821
 20
50.0383027172
 30
0.0
 11
218.849965004
 21
50.80074402
 31
0.0
  0
LINE
  5
28A
330
1F
100
AcDbEntity
  8
0
  6
Continuous
 62
     7
370
     0
100
AcDbLine
 10
220.5624663479
 20
47.1294369075
 30
0.0
 11
219.7604216096
 21
47.5924474795
 31
0.0
  0
LINE
  5
28B
330
1F
100
AcDbEntity
  8
0
  6
Continuous
 62
     7
370
     0
100
AcDbLine
 10
220.5624663479
 20
47.1294369075
 30
0.0
 11
220.6720131995
 21
46.8451192494
 31
0.0
  0
OLE2FRAME
  5
28C
330
1F
100
AcDbEntity
  8
0
100
AcDbOle2Frame
 70
     2
  3
Paintbrush-Bild
 10
13.8511154363
 20
38.264191557
 30
0.0
 11
51.6290888628
 21
31.9806341108
 31
0.0
 71
     2
 72
     0
 73
     1
 90
    12928
310
80552BED0767C5B32B40DDAF6807D121434000000000000000006FFBDDFB85D0
310
4940DDAF6807D121434000000000000000006FFBDDFB85D04940416F4BD60AFB
310
3F4000000000000000002BED0767C5B32B40416F4BD60AFB3F40000000000000
310
0000000000000100000000010000010000000100000000000100000000320000
310
D0CF11E0A1B11AE1000000000000000000000000000000003E000300FEFF0900
310
0600000000000000000000000100000001000000000000000010000002000000
310
01000000FEFFFFFF0000000000000000FFFFFFFFFFFFFFFFFFFFFFFFFFFFFFFF
310
FFFFFFFFFFFFFFFFFFFFFFFFFFFFFFFFFFFFFFFFFFFFFFFFFFFFFFFFFFFFFFFF
310
FFFFFFFFFFFFFFFFFFFFFFFFFFFFFFFFFFFFFFFFFFFFFFFFFFFFFFFFFFFFFFFF
310
FFFFFFFFFFFFFFFFFFFFFFFFFFFFFFFFFFFFFFFFFFFFFFFFFFFFFFFFFFFFFFFF
310
FFFFFFFFFFFFFFFFFFFFFFFFFFFFFFFFFFFFFFFFFFFFFFFFFFFFFFFFFFFFFFFF
310
FFFFFFFFFFFFFFFFFFFFFFFFFFFFFFFFFFFFFFFFFFFFFFFFFFFFFFFFFFFFFFFF
310
FFFFFFFFFFFFFFFFFFFFFFFFFFFFFFFFFFFFFFFFFFFFFFFFFFFFFFFFFFFFFFFF
310
FFFFFFFFFFFFFFFFFFFFFFFFFFFFFFFFFFFFFFFFFFFFFFFFFFFFFFFFFFFFFFFF
310
FFFFFFFFFFFFFFFFFFFFFFFFFFFFFFFFFFFFFFFFFFFFFFFFFFFFFFFFFFFFFFFF
310
FFFFFFFFFFFFFFFFFFFFFFFFFFFFFFFFFFFFFFFFFFFFFFFFFFFFFFFFFFFFFFFF
310
FFFFFFFFFFFFFFFFFFFFFFFFFFFFFFFFFFFFFFFFFFFFFFFFFFFFFFFFFFFFFFFF
310
FFFFFFFFFFFFFFFFFFFFFFFFFFFFFFFFFFFFFFFFFFFFFFFFFFFFFFFFFFFFFFFF
310
FFFFFFFFFFFFFFFFFFFFFFFFFFFFFFFFFFFFFFFFFFFFFFFFFFFFFFFFFFFFFFFF
310
FFFFFFFFFFFFFFFFFFFFFFFFFFFFFFFFFFFFFFFFFFFFFFFFFFFFFFFFFFFFFFFF
310
FDFFFFFFFEFFFFFFFEFFFFFFFEFFFFFF05000000060000000700000008000000
310
090000000A0000000B0000000C0000000D0000000E0000000F00000010000000
310
11000000120000001300000014000000150000001600000017000000FEFFFFFF
310
FFFFFFFFFFFFFFFFFFFFFFFFFFFFFFFFFFFFFFFFFFFFFFFFFFFFFFFFFFFFFFFF
310
FFFFFFFFFFFFFFFFFFFFFFFFFFFFFFFFFFFFFFFFFFFFFFFFFFFFFFFFFFFFFFFF
310
FFFFFFFFFFFFFFFFFFFFFFFFFFFFFFFFFFFFFFFFFFFFFFFFFFFFFFFFFFFFFFFF
310
FFFFFFFFFFFFFFFFFFFFFFFFFFFFFFFFFFFFFFFFFFFFFFFFFFFFFFFFFFFFFFFF
310
FFFFFFFFFFFFFFFFFFFFFFFFFFFFFFFFFFFFFFFFFFFFFFFFFFFFFFFFFFFFFFFF
310
FFFFFFFFFFFFFFFFFFFFFFFFFFFFFFFFFFFFFFFFFFFFFFFFFFFFFFFFFFFFFFFF
310
FFFFFFFFFFFFFFFFFFFFFFFFFFFFFFFFFFFFFFFFFFFFFFFFFFFFFFFFFFFFFFFF
310
FFFFFFFFFFFFFFFFFFFFFFFFFFFFFFFFFFFFFFFFFFFFFFFFFFFFFFFFFFFFFFFF
310
FFFFFFFFFFFFFFFFFFFFFFFFFFFFFFFFFFFFFFFFFFFFFFFFFFFFFFFFFFFFFFFF
310
FFFFFFFFFFFFFFFFFFFFFFFFFFFFFFFFFFFFFFFFFFFFFFFFFFFFFFFFFFFFFFFF
310
FFFFFFFFFFFFFFFFFFFFFFFFFFFFFFFFFFFFFFFFFFFFFFFFFFFFFFFFFFFFFFFF
310
FFFFFFFFFFFFFFFFFFFFFFFFFFFFFFFFFFFFFFFFFFFFFFFFFFFFFFFFFFFFFFFF
310
FFFFFFFFFFFFFFFFFFFFFFFFFFFFFFFFFFFFFFFFFFFFFFFFFFFFFFFFFFFFFFFF
310
52006F006F007400200045006E00740072007900000000000000000000000000
310
0000000000000000000000000000000000000000000000000000000000000000
310
16000500FFFFFFFFFFFFFFFF020000000A00030000000000C000000000000046
310
00000000000000000000000070DB648CD91FD20103000000C000000000000000
310
01004F006C006500000000000000000000000000000000000000000000000000
310
0000000000000000000000000000000000000000000000000000000000000000
310
0A000200FFFFFFFFFFFFFFFFFFFFFFFF00000000000000000000000000000000
310
0000000000000000000000000000000000000000000000001400000000000000
310
010043006F006D0070004F0062006A0000000000000000000000000000000000
310
0000000000000000000000000000000000000000000000000000000000000000
310
120002010100000003000000FFFFFFFF00000000000000000000000000000000
310
0000000000000000000000000000000000000000010000004D00000000000000
310
01004F006C006500310030004E00610074006900760065000000000000000000
310
0000000000000000000000000000000000000000000000000000000000000000
310
1A000200FFFFFFFFFFFFFFFFFFFFFFFF00000000000000000000000000000000
310
0000000000000000000000000000000000000000040000002426000000000000
310
FEFFFFFF02000000FEFFFFFFFFFFFFFFFFFFFFFFFFFFFFFFFFFFFFFFFFFFFFFF
310
FFFFFFFFFFFFFFFFFFFFFFFFFFFFFFFFFFFFFFFFFFFFFFFFFFFFFFFFFFFFFFFF
310
FFFFFFFFFFFFFFFFFFFFFFFFFFFFFFFFFFFFFFFFFFFFFFFFFFFFFFFFFFFFFFFF
310
FFFFFFFFFFFFFFFFFFFFFFFFFFFFFFFFFFFFFFFFFFFFFFFFFFFFFFFFFFFFFFFF
310
FFFFFFFFFFFFFFFFFFFFFFFFFFFFFFFFFFFFFFFFFFFFFFFFFFFFFFFFFFFFFFFF
310
FFFFFFFFFFFFFFFFFFFFFFFFFFFFFFFFFFFFFFFFFFFFFFFFFFFFFFFFFFFFFFFF
310
FFFFFFFFFFFFFFFFFFFFFFFFFFFFFFFFFFFFFFFFFFFFFFFFFFFFFFFFFFFFFFFF
310
FFFFFFFFFFFFFFFFFFFFFFFFFFFFFFFFFFFFFFFFFFFFFFFFFFFFFFFFFFFFFFFF
310
FFFFFFFFFFFFFFFFFFFFFFFFFFFFFFFFFFFFFFFFFFFFFFFFFFFFFFFFFFFFFFFF
310
FFFFFFFFFFFFFFFFFFFFFFFFFFFFFFFFFFFFFFFFFFFFFFFFFFFFFFFFFFFFFFFF
310
FFFFFFFFFFFFFFFFFFFFFFFFFFFFFFFFFFFFFFFFFFFFFFFFFFFFFFFFFFFFFFFF
310
FFFFFFFFFFFFFFFFFFFFFFFFFFFFFFFFFFFFFFFFFFFFFFFFFFFFFFFFFFFFFFFF
310
FFFFFFFFFFFFFFFFFFFFFFFFFFFFFFFFFFFFFFFFFFFFFFFFFFFFFFFFFFFFFFFF
310
FFFFFFFFFFFFFFFFFFFFFFFFFFFFFFFFFFFFFFFFFFFFFFFFFFFFFFFFFFFFFFFF
310
FFFFFFFFFFFFFFFFFFFFFFFFFFFFFFFFFFFFFFFFFFFFFFFFFFFFFFFFFFFFFFFF
310
FFFFFFFFFFFFFFFFFFFFFFFFFFFFFFFFFFFFFFFFFFFFFFFFFFFFFFFFFFFFFFFF
310
0100000200000000000000000000000000000000000000000000000000000000
310
0000000000000000000000000000000000000000000000000000000000000000
310
0100FEFF030A0000FFFFFFFF0A00030000000000C00000000000004607000000
310
5042727573680007000000504272757368000700000050427275736800F439B2
310
7100000000000000000000000000000000000000000000000000000000000000
310
0000000000000000000000000000000000000000000000000000000000000000
310
0000000000000000000000000000000000000000000000000000000000000000
310
0000000000000000000000000000000000000000000000000000000000000000
310
0000000000000000000000000000000000000000000000000000000000000000
310
0000000000000000000000000000000000000000000000000000000000000000
310
0000000000000000000000000000000000000000000000000000000000000000
310
0000000000000000000000000000000000000000000000000000000000000000
310
0000000000000000000000000000000000000000000000000000000000000000
310
0000000000000000000000000000000000000000000000000000000000000000
310
0000000000000000000000000000000000000000000000000000000000000000
310
0000000000000000000000000000000000000000000000000000000000000000
310
20260000424D0E260000000000003E00000028000000B40200006E0000000100
310
01000000000000000000130B0000130B00000200000002000000000000FFFFFF
310
FFFFFFFFFFFFFFFFFFFFFFFFFFFFFFFFFFFFFFFFFFFFFFFFFFFFFFFFFFFFFFFF
310
FFFFFFFFFFFFFFFFFFFFFFFFFFFFFFFFFFFFFFFFFFFFFFFFFFFFFFFFFFFFFFFF
310
FFFFFFFFFFFFFFFFFFFFFFFFFFFFFFFFFFFFFFFFFFFFFFFFF000FFFFFFFFFFFF
310
FFFFFFFFFFFFFFFFFFFFFFFFFFFFFFFFFFFFFFFFFFFFFFFFFFFFFFFFFFFFFFFF
310
FFFFFFFFFFFFFFFFFFFFFFFFFFFFFFFFFFFFFFFFFFFFFFFFFFFFFFFFFFFFFFFF
310
FFFFFFFFFFFFFFFFFFFFFFFFFFFFFFFFF000FFFFFFFFFFFFFFFFFFFFFFFFFFFF
310
FFFFFFFFFFFFFFFFFFFFFFFFFFFFFFFFFFFFFFFFFFFFFFFFFFFFFFFFFFFFFFFF
310
FFFFFFFFFFFFFFFFFFFFFFFFFFFFFFFFFFFFFFFFFFFFFFFFFFFFFFFFFFFFFFFF
310
FFFFFFFFFFFFFFFFF000FFFFFFFFFFFFFFFFFFFFFFFFFFFFFFFFFFFFFFFFFFFF
310
FFFFFFFFFFFFFFFFFFFFFFFFFFFFFFFFFFFFFFFFFFFFFFFFFFFFFFFFFFFFFFFF
310
FFFFFFFFFFFFFFFFFFFFFFFFFFFFFFFFFFFFFFFFFFFFFFFFFFFFFFFFFFFFFFFF
310
F000FFFFFFFFFFFFFFFFFFFFFFFFFFFFFFFFFFFFFFFFFFFFFFFFFFFFFFFFFFFF
310
FFFFFFFFFFFFFFFFFFFFFFFFFFFFFFFFFFFFFFFFFFFFFFFFFFFFFFFFFFFFFFFF
310
FFFFFFFFFFFFFFFFFFFFFFFFFFFFFFFFFFFFFFFFFFFFFFFFF000FFFFFFFFFFFF
310
FFFFFFFFFFFFFFFFFFFFFFFFFFFFFFFFFFFFFFFFFFFFFFFFFFFFFFFFFFFFFFFF
310
FFFFFFFFFFFFFFFFFFFFFFFFFFFFFFFFFFFFFFFFFFFFFFFFFFFFFFFFFFFFFFFF
310
FFFFFFFFFFFFFFFFFFFFFFFFFFFFFFFFF000FFFFFFFFFFFFFFFFFFFFFFFFFFFF
310
FFFFFFFFFFFFFFFFFFFFFFFFFFFFFFFFFFFFFFFFFFFFFFFFFFFFFFFFFFFFFFFF
310
FFFFFFFFFFFFFFFFFFFFFFFFFFFFFFFFFFFFFFFFFFFFFFFFFFFFFFFFFFFFFFFF
310
FFFFFFFFFFFFFFFFF000FFFFFFFFFFFFFFFFFFFFFFFFFFFFFFFFFFFFFFFFFFFF
310
FFFFFFFFFFFFFFFFFFFFFFFFFFFFFFFFFFFFFFFFFFFFFFFFFFFFFFFFFFFFFFFF
310
FFFFFFFFFFFFFFFFFFFFFFFFFFFFFFFFFFFFFFFFFFFFFFFFFFFFFFFFFFFFFFFF
310
F000FFFFFFFFFFFFFFFFFFFFFFFFFFFFFFFFFFFFFFFFFFFFFFFFFFFFFFFFFFFF
310
FFFFFFFFFFFFFFFFFFFFFFFFFFFFFFFFFFFFFFFFFFFFFFFFFFFFFFFFFFFFFFFF
310
FFFFFFFFFFFFFFFFFFFFFFFFFFFFFFFFFFFFFFFFFFFFFFFFF000FFFFFFFFFFFF
310
FFFFFFFFFFFFFFFFFFFFFFFFFFFFFFFFFFFFFFFFFFFFFFFFFFFFFFFFFFFFFFFF
310
FFFFFFFFFFFFFFFFFFFFFFFFFFFFFFFFFFFFFFFFFFFFFFFFFFFFFFFFFFFFFFFF
310
FFFFFFFFFFFFFFFFFFFFFFFFFFFFFFFFF000FFFFFFFFFFFFFFFFFFFFFFFFFFFF
310
FFFFFFFFFFFFFFFFFFFFFFFFFFFFFFFFFFFFFFFFFFFFFFFFFFFFFFFFFFFFFFFF
310
FFFFFFFFFFFFFFFFFFFFFFFFFFFFFFFFFFFFFFFFFFFFFFFFFFFFFFFFFFFFFFFF
310
FFFFFFFFFFFFFFFFF000FFFFFFFFFFFFFFFFFFFFFFFFFFFFFFFFFFFFFFFFFFFF
310
FFFFFFFFFFFFFFFFFFFFFFFFFFFFFFFFFFFFFFFFFFFFFFFFFFFFFFFFFFFFFFFF
310
FFFFFFFFFFFFFFFFFFFFFFFFFFFFFFFFFFFFFFFFFFFFFFFFFFFFFFFFFFFFFFFF
310
F000FFFFFFFFFFFFFFFFFFFFFFFFFFFFFFFFFFFFFFFFFFFFFFFFFFFFFFFFFFFF
310
FFFFFFFFFFFFFFFFFFFFFFFFFFFFFFFFFFFFFFFFFFFFFFFFFFFFFFFFFFFFFFFF
310
FFFFFFFFFFFFFFFFFFFFFFFFFFFFFFFFFFFFFFFFFFFFFFFFF000FFFFFFFFFFFF
310
FFFFFFFFFFFFFFFFFFFFFFFFFFFFFFFFFFFFFFFFFFFFFFFFFFFFFFFFFFFFFFFF
310
FFFFFFFFFFFFFFFFFFFFFFFFFFFFFFFFFFFFFFFFFFFFFFFFFFFFFFFFFFFFFFFF
310
FFFFFFFFFFFFFFFFFFFFFFFFFFFFFFFFF000FFFFFFFFFFFFFFFFFFFFFFFFFFFF
310
FFFFFFFFFFFFFFFFFFFFFFFFFFFFFFFFFFFFFFFFFFFFFFFFFFFFFFFFFFFFFFFF
310
FFFFFFFFFFFFFFFFFFFFFFFFFFFFFFFFFFFFFFFFFFFFFFFFFFFFFFFFFFFFFFFF
310
FFFFFFFFFFFFFFFFF000FFFFFFFFFFFFFFFFFFFFFFFFFFFFFFFFFFFFFFFFFFFF
310
FFFFFFFFFFFFFFFFFFFFFFFFFFFFFFFFFFFFFFFFFFFFFFFFFFFFFFFFFFFFFFFF
310
FFFFFFFFFFFFFFFFFFFFFFFFFFFFFFFFFFFFFFFFFFFFFFFFFFFFFFFFFFFFFFFF
310
F000FFFFFFFFFFFFFFFFFFFFFFFFFFFFFFFFFFFFFFFFFFFFFFFFFFFFFFFFFFFF
310
FFFFFFFFFFFFFFFFFFFFFFFFFFFFFFFFFFFFFFFFFFFFFFFFFFFFFFFFFFFFFFFF
310
FFFFFFFFFFFFFFFFFFFFFFFFFFFFFFFFFFFFFFFFFFFFFFFFF000FFFFFFFFFFFF
310
FFFFFFFFFFFFFFFFFFFFFFFFFFFFFFFFFFFFFFFFFFFFFFFFFFFFFFFFFFFFFFFF
310
FFFFFFFFFFFFFFFFFFFFFFFFFFFFFFFFFFFFFFFFFFFFFFFFFFFFFFFFFFFFFFFF
310
FFFFFFFFFFFFFFFFFFFFFFFFFFFFFFFFF000FFFFFFFFFFFFFFFFFFFFFFFFFFFF
310
FFFFFFFFFFFFFFFFFFFFFFFFFFFFFFFFFFFFFFFFFFFFFFFFFFFFFFFFFFFFFFFF
310
FFFFFFFFFFFFFFFFFFFFFFFFFFFFFFFFFFFFFFFFFFFFFFFFFFFFFFFFFFFFFFFF
310
FFFFFFFFFFFFFFFFF000FFFFF80003FFFFFFFFFFFFFFFFFFFFFFFFFFFFFFFFFF
310
FFFFF00007FFFFFFFFFF00007FFFFFF800000000000000007FFFFFFFFFFFFFFF
310
FFFFFFFC001FFFFFFFFFFFFFFC001FFFFFFFFFFFFFFFFFFFFFFFFFFE0007FFFF
310
F000FFFF8000007FFFFFFFF8000FFFFFC0007FFFFF80007FFFFF0000007FFFFF
310
FFF8000007FFFFF800000000000000007FFFFFF0001FFFFFFFFFFFC00001FFFF
310
FFFFFFFFC00001FFFFFFFF000000000003FFFFE000007FFFF000FFFE0000000F
310
FFFFFFF0000FFFFF80007FFFFF80007FFFFC0000001FFFFFFFC0000001FFFFF8
310
00000000000000007FFFFFF0001FFFFFFFFFFE0000003FFFFFFFFFFE0000003F
310
FFFFFF000000000003FFFF0000000FFFF000FFF800000003FFFFFFF00007FFFF
310
80007FFFFF80007FFFF000000007FFFFFF000000003FFFF80000000000000000
310
7FFFFFF0001FFFFFFFFFF80000000FFFFFFFFFF80000000FFFFFFF0000000000
310
03FFFC00000003FFF000FFE000000000FFFFFFF00007FFFF80003FFFFF80007F
310
FFC000000001FFFFFC000000001FFFF800000000000000007FFFFFF0001FFFFF
310
FFFFE000000003FFFFFFFFE000000003FFFFFF000000000003FFF000000000FF
310
F000FF80000000007FFFFFF00007FFFF80003FFFFF80007FFF8000000000FFFF
310
F80000000007FFF800000000000000007FFFFFF0001FFFFFFFFFC000000001FF
310
FFFFFFC000000001FFFFFF000000000003FFC0000000007FF000FF0000000000
310
3FFFFFE00007FFFF00003FFFFF80007FFE00000000003FFFF00000000003FFF8
310
00000000000000007FFFFFF0001FFFFFFFFF8000000000FFFFFFFF8000000000
310
FFFFFF000000000003FF80000000003FF000FE00000000001FFFFFE00003FFFF
310
00003FFFFF80007FFC00000000001FFFE00000000001FFF8000001FFFE000000
310
7FFFFFF0001FFFFFFFFE00000000003FFFFFFE00000000003FFFFF0000000000
310
03FF00000000001FF000FC00000000000FFFFFE00003FFFF00001FFFFF80007F
310
F800000000001FFFC00000000000FFF8000001FFFE0000007FFFFFF0001FFFFF
310
FFFC00000000001FFFFFFC00000000001FFFFF000000000003FE00000000000F
310
F000F8000000000007FFFFE00003FFFF00001FFFFF80007FF800000000000FFF
310
800000000000FFF8000001FFFE0000007FFFFFF0001FFFFFFFF800000000000F
310
FFFFF800000000000FFFFF000000000003FC000000000007F000F80000000000
310
03FFFFC00003FFFE00001FFFFF80007FF0000000000007FF0000000000007FF8
310
000001FFFE0000007FFFFFF0001FFFFFFFF0000000000007FFFFF00000000000
310
07FFFF000000000003F8000000000003F000F0000000000003FFFFC00001FFFE
310
00001FFFFF80007FE0000000000007FE0000000000003FF8000001FFFE000000
310
7FFFFFF0001FFFFFFFF0000000000007FFFFF0000000000007FFFF0000000000
310
03F800001F800003F000E00001FFF00001FFFFC00001FFFE00000FFFFF80007F
310
E00001FFE00003FE00001FFF00003FF8000001FFFE0000007FFFFFF0001FFFFF
310
FFE000003E000003FFFFE000003E000003FFFF000000000003F00001FFF80001
310
F000E00007FFFC0001FFFFC00001FFFE00000FFFFF80007FC0000FFFFC0003FC
310
0000FFFFC0001FF8000001FFFE0000007FFFFFF0001FFFFFFFC00003FFE00001
310
FFFFC00003FFE00001FFFF0001FFFFFFFFF00007FFFE0001F000E0000FFFFF00
310
00FFFF800001FFFC00000FFFFF80007FC0001FFFFE0001FC0001FFFFE0001FF8
310
000001FFFE0000007FFFFFF0001FFFFFFF80000FFFF80000FFFF80000FFFF800
310
00FFFF0003FFFFFFFFE0000FFFFF8000F000C0003FFFFF8000FFFF800000FFFC
310
000007FFFF80007F80003FFFFF0001FC0003FFFFF0001FF8000001FFFE000000
310
7FFFFFF0001FFFFFFF80003FFFFE0000FFFF80003FFFFE0000FFFF0003FFFFFF
310
FFE0003FFFFF8000F000C0003FFFFF8000FFFF800000FFFC000007FFFF80007F
310
80007FFFFF8001F80007FFFFF8000FF8000001FFFE0000007FFFFFF0001FFFFF
310
FF00007FFFFF00007FFF00007FFFFF00007FFF0003FFFFFFFFE0003FFFFFC000
310
F000C0007FFFFFC000FFFF000000FFFC000007FFFF80007F8000FFFFFF8000F8
310
000FFFFFF8000FF8000001FFFE0000007FFFFFF0001FFFFFFF0000FFFFFF8000
310
7FFF0000FFFFFF80007FFF0003FFFFFFFFC0007FFFFFC00070008000FFFFFFC0
310
00FFFF000000FFF8000007FFFF80007F8000FFFFFF8000F8000FFFFFF8000FF8
310
000001FFFE0000007FFFFFF0001FFFFFFE0001FFFFFFC0003FFE0001FFFFFFC0
310
003FFF0003FFFFFFFFC0007FFFFFE00070008000FFFFFFC0007FFF0000007FF8
310
000003FFFF80007F0001FFFFFF8000F8000FFFFFF8000FF8000001FFFE000000
310
7FFFFFF0001FFFFFFE0001FFFFFFC0003FFE0001FFFFFFC0003FFF0003FFFFFF
310
FFC000FFFFFFE00070008000FFFFFFC0007FFF0000007FF8000003FFFF80007F
310
0001FFFFFF8000F8001FFFFFF8000FF8000001FFFE0000007FFFFFF0001FFFFF
310
FE0003FFFFFFE0003FFE0003FFFFFFE0003FFF0003FFFFFFFFC000FFFFFFE000
310
70008000FFFFFFC0007FFE0000007FF8000003FFFF80007F0001FFFFFF8000F0
310
001FFFFFF8000FF8000001FFFE0000007FFFFFF0001FFFFFFC0003FFFFFFE000
310
1FFC0003FFFFFFE0001FFF0003FFFFFFFFC000FFFFFFC00070008000FFFFFF80
310
007FFE0000007FF0000003FFFF80007F0001FFFFFF0000F0001FFFFFF8000FF8
310
000001FFFE0000007FFFFFF0001FFFFFFC0007FFFFFFF0001FFC0007FFFFFFF0
310
001FFF0003FFFFFFFFC000FFFFFFC00070008001FFFFFF0000FFFE0000003FF0
310
000001FFFF80007F0001FFFFFF0000F8001FFFFFF0000FF8000001FFFE000000
310
7FFFFFF0001FFFFFFC0007FFFFFFF0001FFC0007FFFFFFF0001FFF0003FFFFFF
310
FFC001FFFFFF80007000FFFFFFFFFE0000FFFE0008003FF0008001FFFF80007F
310
FFFFFFFFFC0000FFFFFFFFFFE0000FF8000001FFFE0000007FFFFFF0001FFFFF
310
F8000FFFFFFFF8000FF8000FFFFFFFF8000FFF0003FFFFFFFFFFFFFFFFFF0000
310
7000FFFFFFFFFC0000FFFC0008003FF0008001FFFF80007FFFFFFFFFF80001FF
310
FFFFFFFF80000FF8000001FFFE0000007FFFFFF0001FFFFFF8000FFFFFFFF800
310
0FF8000FFFFFFFF8000FFF0003FFFFFFFFFFFFFFFFFE0000F000FFFFFFFFE000
310
00FFFC000C003FE000C001FFFF80007FFFFFFFFFC00001FFFFFFFFFE00001FF8
310
000001FFFE0000007FFFFFF0001FFFFFF8000FFFFFFFF8000FF8000FFFFFFFF8
310
000FFF0003FFFFFFFFFFFFFFFFF00000F000FFFFFFFE000001FFFC000C001FE0
310
00C000FFFF80007FFFFFFFFE000001FFFFFFFFE000001FF80FFFFFFFFFFFFFC0
310
7FFFFFF0001FFFFFF8000FFFFFFFF8000FF8000FFFFFFFF8000FFF0003FFFFFF
310
FFFFFFFFFF800000F000FFFFFFC0000001FFFC001C001FE001C000FFFF80007F
310
FFFFFF80000003FFFFFFF80000001FF80FFFFFFFFFFFFFC07FFFFFF0001FFFFF
310
F8001FFFFFFFFC000FF8001FFFFFFFFC000FFF0003FFFFFFFFFFFFFFF0000001
310
F000FFFFF800000001FFF8001C001FE001C000FFFF80007FFFFFF800000003FF
310
FFFF800000003FF80FFFFFFFFFFFFFC07FFFFFF0001FFFFFF8001FFFFFFFFC00
310
0FF8001FFFFFFFFC000FFF0003FFFFFFFFFFFFFE00000001F000FFFFC0000000
310
03FFF8001E001FC001E000FFFF80007FFFFF8000000007FFFFFC000000003FF8
310
0FFFFFFFFFFFFFC07FFFFFF0001FFFFFF8001FFFFFFFFC000FF8001FFFFFFFFC
310
000FFF0003FFFFFFFFFFFFE000000003F000FFFE0000000007FFF8001E000FC0
310
01E0007FFF80007FFFFE0000000007FFFFE0000000007FF80FFFFFFFFFFFFFC0
310
7FFFFFF0001FFFFFF0001FFFFFFFFC0007F0001FFFFFFFFC0007FF0003FFFFFF
310
FFFFFF0000000003F000FFF80000000007FFF8001E000FC003E0007FFF80007F
310
FFF0000000000FFFFF8000000000FFF80FFFFFFFFFFFFFC07FFFFFF0001FFFFF
310
F0001FFFFFFFFC0007F0001FFFFFFFFC0007FF0003FFFFFFFFFFFC0000000007
310
F000FFE0000000000FFFF0003E000FC003E0007FFF80007FFFC0000000001FFF
310
FE0000000001FFF80FFFFFFFFFFFFFC07FFFFFF0001FFFFFF0001FFFFFFFFC00
310
07F0001FFFFFFFFC0007FF0003FFFFFFFFFFF0000000000FF000FFC000000000
310
1FFFF0003F000F8003F0003FFF80007FFF80000000003FFFF80000000003FFF8
310
0FFFFFFFFFFFFFC07FFFFFF0001FFFFFF0001FFFFFFFFC0007F0001FFFFFFFFC
310
0007FF0003FFFFFFFFFFE0000000001FF000FF00000000007FFFF0003F000780
310
03F0003FFF80007FFF00000000007FFFF00000000007FFF80FFFFFFFFFFFFFC0
310
7FFFFFF0001FFFFFF0001FFFFFFFFC0007F0001FFFFFFFFC0007FF0003FFFFFF
310
FFFF80000000007FF000FE0000000000FFFFE0003F00078007F0003FFF80007F
310
FE0000000001FFFFE0000000001FFFF80FFFFFFFFFFFFFC07FFFFFF0001FFFFF
310
F0001FFFFFFFFC0007F0001FFFFFFFFC0007FF0003FFFFFFFFFF0000000000FF
310
F000FC0000000003FFFFE0007F00078007F0003FFF80007FFC0000000007FFFF
310
C0000000007FFFF80FFFFFFFFFFFFFC07FFFFFF0001FFFFFF8001FFFFFFFFC00
310
0FF8001FFFFFFFFC000FFF0003FFFFFFFFFE0000000003FFF000FC000000000F
310
FFFFE0007F80070007F8001FFF80007FF8000000001FFFFF8000000001FFFFF8
310
0FFFFFFFFFFFFFC07FFFFFF0001FFFFFF8001FFFFFFFFC000FF8001FFFFFFFFC
310
000FFF0003FFFFFFFFFC000000000FFFF000F8000000007FFFFFE0007F800700
310
07F8001FFF80007FF000000000FFFFFF800000000FFFFFF80FFFFFFFFFFFFFC0
310
7FFFFFF0001FFFFFF8000FFFFFFFF8000FF8000FFFFFFFF8000FFF0003FFFFFF
310
FFFC000000007FFFF000F800000007FFFFFFC0007F8003000FF8001FFF80007F
310
F000000007FFFFFF000000007FFFFFF80FFFFFFFFFFFFFC07FFFFFF0001FFFFF
310
F8000FFFFFFFF8000FF8000FFFFFFFF8000FFF0003FFFFFFFFF80000000FFFFF
310
F000F0000000FFFFFFFFC000FF8003000FF8001FFF80007FE0000000FFFFFFFF
310
0000000FFFFFFFF8000001FFFE0000007FFFFFF0001FFFFFF8000FFFFFFFF800
310
0FF8000FFFFFFFF8000FFF0003FFFFFFFFF8000000FFFFFFF000F000000FFFFF
310
FFFFC000FFC002000FF8000FFF80007FE000001FFFFFFFFE000001FFFFFFFFF8
310
000001FFFE0000007FFFFFF0001FFFFFF8000FFFFFFFF8000FF8000FFFFFFFF8
310
000FFF0003FFFFFFFFF000001FFFFFFFF000E00000FFFFFFFFFFC000FFC00200
310
0FFC000FFF80007FE00001FFFFFFFFFE00001FFFFFFFFFF8000001FFFE000000
310
7FFFFFF0001FFFFFFC000FFFFFFFF8001FFC000FFFFFFFF8001FFF0003FFFFFF
310
FFF00001FFFFFFFFF000E00007FFFFFFFFFF8000FFC000001FFC000FFF80007F
310
C0000FFFFFFFFFFE0000FFFFFFFFFFF8000001FFFE0000007FFFFFF0001FFFFF
310
FC0007FFFFFFF0001FFC0007FFFFFFF0001FFF0003FFFFFFFFF00007FFFFFFFF
310
F000E0001FFFFFFFFFFF8000FFC000001FFC000FFF80007FC0003FFFFFFFFFFE
310
0001FFFFFFFFFFF8000001FFFE0000007FFFFFF0001FFFFFFC0007FFFFFFF000
310
1FFC0007FFFFFFF0001FFF0003FFFFFFFFF0001FFFFFFFFFF000E0003FFFFF00
310
03FF8001FFE000001FFC0007FF80007FC0007FFFFF0007FC0003FFFFF0003FF8
310
000001FFFE0000007FFFFFF0001FFFFFFC0003FFFFFFE0001FFC0003FFFFFFE0
310
001FFF0003FFFFFFFFF0003FFFFFFFFFF000E0003FFFFF0001FF8001FFE00000
310
1FFE0007FF80007FC0007FFFFE0003FC0007FFFFE0003FF8000001FFFE000000
310
7FFFFFF0001FFFFFFE0003FFFFFFE0003FFE0003FFFFFFE0003FFF0003FFFFFF
310
FFF0003FFFFF8001F000E0003FFFFF0001FF0001FFE000001FFE0007FF80007F
310
C0007FFFFE0003FC0007FFFFE0003FF8000001FFFE0000007FFFFFF0001FFFFF
310
FE0001FFFFFFC0003FFE0001FFFFFFC0003FFF0003FFFFFFFFF0003FFFFF0001
310
F000E0003FFFFF0003FF0001FFE000003FFE0007FF80007FC0007FFFFE0003FC
310
0007FFFFE0003FF8000001FFFE0000007FFFFFF0001FFFFFFF0001FFFFFFC000
310
7FFF0001FFFFFFC0007FFF0003FFFFFFFFF0003FFFFF0001F000E0003FFFFE00
310
03FF0003FFF000003FFE0003FF80007FC0007FFFFC0003FE0007FFFFE0003FF8
310
000001FFFE0000007FFFFFF0001FFFFFFF0000FFFFFF80007FFF0000FFFFFF80
310
007FFF0003FFFFFFFFF0003FFFFF0001F000E0003FFFFE0003FF0003FFF00000
310
3FFF0003FF80007FC0007FFFFC0007FE0007FFFFC0003FF8000001FFFE000000
310
7FFFFFF0001FFFFFFF80007FFFFF0000FFFF80007FFFFF0000FFFF0003FFFFFF
310
FFF0003FFFFF0003F000E0003FFFFC0003FE0003FFF000003FFF0003FF80007F
310
E0003FFFF80007FE0003FFFFC0007FF8000001FFFE0000007FFFFFF0001FFFFF
310
FF80003FFFFE0000FFFF80003FFFFE0000FFFF0003FFFFFFFFF0001FFFFE0003
310
F000F0001FFFF80003FE0003FFF000007FFF0001FF80007FE0003FFFF00007FE
310
0001FFFF80007FF8000001FFFE0000007FFFFFF0001FFFFFFFC0000FFFF80001
310
FFFFC0000FFFF80001FFFF0003FFFFFFFFF0001FFFFC0003F000F0000FFFF000
310
07FE0007FFF800007FFF0001FF80007FE0001FFFE00007FF0000FFFE00007FF8
310
000001FFFE0000007FFFFFF0001FFFFFFFC00003FFE00001FFFFC00003FFE000
310
01FFFF0003FFFFFFFFF8000FFFF80003F000F00003FFC00007FC0007FFF80000
310
7FFF8001FF80007FF00007FF80000FFF00007FF80000FFF8000001FFFE000000
310
7F80000000000001FFE000003E000003FFFFE000003E000003FFFF0003FFFFFF
310
FFF80003FFE00007F000F800000000000FFC0007FFF800007FFF8001FF80007F
310
F000000000000FFF000000000000FFF8000001FFFE0000007F80000000000001
310
FFF0000000000007FFFFF0000000000007FFFF0003FFFFFFFFFC00007E000007
310
F000F800000000000FFC0007FFF80000FFFF8000FF80007FF800000000001FFF
310
800000000001FFF8000001FFFE0000007F80000000000001FFF800000000000F
310
FFFFF800000000000FFFFF0003FFFFFFFFFC00000000000FF000FC0000000000
310
1FFC0007FFFC0000FFFF8000FF80007FF800000000003FFFC00000000001FFF8
310
000001FFFE0000007F80000000000001FFF800000000000FFFFFF80000000000
310
0FFFFF0003FFFFFFFFFE00000000001FF000FE00000000003FF8000FFFFC0000
310
FFFF8000FF80007FFC00000000003FFFC00000000003FFF8000001FFFE000000
310
7F80000000000001FFFC00000000001FFFFFFC00000000001FFFFF0003FFFFFF
310
FFFF00000000001FF000FF00000000003FF8000FFFFC0000FFFFC000FF80007F
310
FE00000000007FFFE00000000007FFF8000001FFFE0000007F80000000000001
310
FFFE00000000003FFFFFFE00000000003FFFFF0003FFFFFFFFFF80000000003F
310
F000FF80000000007FF8000FFFFC0001FFFFC0007F80007FFF0000000000FFFF
310
F0000000000FFFF800000000000000007F80000000000001FFFF8000000000FF
310
FFFFFF8000000000FFFFFF0003FFFFFFFFFFC0000000007FF000FFC000000000
310
FFF8000FFFFE0001FFFFC0007F80007FFF8000000001FFFFF8000000001FFFF8
310
00000000000000007F80000000000001FFFFC000000001FFFFFFFFC000000001
310
FFFFFF0003FFFFFFFFFFE000000000FFF000FFE000000003FFF0001FFFFE0001
310
FFFFC0007F80007FFFC000000007FFFFFE000000003FFFF80000000000000000
310
7F80000000000001FFFFE000000003FFFFFFFFE000000003FFFFFF0003FFFFFF
310
FFFFF000000003FFF000FFF80000000FFFF0001FFFFE0001FFFFE0007F80007F
310
FFF00000000FFFFFFF00000000FFFFF800000000000000007F80000000000001
310
FFFFF80000000FFFFFFFFFF80000000FFFFFFF0003FFFFFFFFFFFC0000000FFF
310
F000FFFE0000003FFFF0001FFFFE0003FFFFE0003F80007FFFFC0000003FFFFF
310
FFC0000003FFFFF800000000000000007F80000000000001FFFFFE0000003FFF
310
FFFFFFFE0000003FFFFFFF0003FFFFFFFFFFFF0000003FFFF000FFFF800000FF
310
FFF0001FFFFF0003FFFFE0003F80007FFFFF000001FFFFFFFFF800001FFFFFF8
310
00000000000000007F80000000000001FFFFFFC00001FFFFFFFFFFFFC00001FF
310
FFFFFF0003FFFFFFFFFFFFC00000FFFFF000FFFFF8000FFFFFFFFFFFFFFFFFFF
310
FFFFFFFFFFFFFFFFFFFFF0001FFFFFFFFFFF0000FFFFFFF80000000000000000
310
7FFFFFFFFFFFFFFFFFFFFFFC001FFFFFFFFFFFFFFC001FFFFFFFFFFFFFFFFFFF
310
FFFFFFFC001FFFFFF000FFFFFFFFFFFFFFFFFFFFFFFFFFFFFFFFFFFFFFFFFFFF
310
FFFFFFFFFFFFFFFFFFFFFFFFFFFFFFFFFFFFFFFFFFFFFFFFFFFFFFFFFFFFFFFF
310
FFFFFFFFFFFFFFFFFFFFFFFFFFFFFFFFFFFFFFFFFFFFFFFFFFFFFFFFFFFFFFFF
310
F000FFFFFFFFFFFFFFFFFFFFFFFFFFFFFFFFFFFFFFFFFFFFFFFFFFFFFFFFFFFF
310
FFFFFFFFFFFFFFFFFFFFFFFFFFFFFFFFFFFFFFFFFFFFFFFFFFFFFFFFFFFFFFFF
310
FFFFFFFFFFFFFFFFFFFFFFFFFFFFFFFFFFFFFFFFFFFFFFFFF000FFFFFFFFFFFF
310
FFFFFFFFFFFFFFFFFFFFFFFFFFFFFFFFFFFFFFFFFFFFFFFFFFFFFFFFFFFFFFFF
310
FFFFFFFFFFFFFFFFFFFFFFFFFFFFFFFFFFFFFFFFFFFFFFFFFFFFFFFFFFFFFFFF
310
FFFFFFFFFFFFFFFFFFFFFFFFFFFFFFFFF000FFFFFFFFFFFFFFFFFFFFFFFFFFFF
310
FFFFFFFFFFFFFFFFFFFFFFFFFFFFFFFFFFFFFFFFFFFFFFFFFFFFFFFFFFFFFFFF
310
FFFFFFFFFFFFFFFFFFFFFFFFFFFFFFFFFFFFFFFFFFFFFFFFFFFFFFFFFFFFFFFF
310
FFFFFFFFFFFFFFFFF000FFFFFFFFFFFFFFFFFFFFFFFFFFFFFFFFFFFFFFFFFFFF
310
FFFFFFFFFFFFFFFFFFFFFFFFFFFFFFFFFFFFFFFFFFFFFFFFFFFFFFFFFFFFFFFF
310
FFFFFFFFFFFFFFFFFFFFFFFFFFFFFFFFFFFFFFFFFFFFFFFFFFFFFFFFFFFFFFFF
310
F000FFFFFFFFFFFFFFFFFFFFFFFFFFFFFFFFFFFFFFFFFFFFFFFFFFFFFFFFFFFF
310
FFFFFFFFFFFFFFFFFFFFFFFFFFFFFFFFFFFFFFFFFFFFFFFFFFFFFFFFFFFFFFFF
310
FFFFFFFFFFFFFFFFFFFFFFFFFFFFFFFFFFFFFFFFFFFFFFFFF000FFFFFFFFFFFF
310
FFFFFFFFFFFFFFFFFFFFFFFFFFFFFFFFFFFFFFFFFFFFFFFFFFFFFFFFFFFFFFFF
310
FFFFFFFFFFFFFFFFFFFFFFFFFFFFFFFFFFFFFFFFFFFFFFFFFFFFFFFFFFFFFFFF
310
FFFFFFFFFFFFFFFFFFFFFFFFFFFFFFFFF000FFFFFFFFFFFFFFFFFFFFFFFFFFFF
310
FFFFFFFFFFFFFFFFFFFFFFFFFFFFFFFFFFFFFFFFFFFFFFFFFFFFFFFFFFFFFFFF
310
FFFFFFFFFFFFFFFFFFFFFFFFFFFFFFFFFFFFFFFFFFFFFFFFFFFFFFFFFFFFFFFF
310
FFFFFFFFFFFFFFFFF000FFFFFFFFFFFFFFFFFFFFFFFFFFFFFFFFFFFFFFFFFFFF
310
FFFFFFFFFFFFFFFFFFFFFFFFFFFFFFFFFFFFFFFFFFFFFFFFFFFFFFFFFFFFFFFF
310
FFFFFFFFFFFFFFFFFFFFFFFFFFFFFFFFFFFFFFFFFFFFFFFFFFFFFFFFFFFFFFFF
310
F000FFFFFFFFFFFFFFFFFFFFFFFFFFFFFFFFFFFFFFFFFFFFFFFFFFFFFFFFFFFF
310
FFFFFFFFFFFFFFFFFFFFFFFFFFFFFFFFFFFFFFFFFFFFFFFFFFFFFFFFFFFFFFFF
310
FFFFFFFFFFFFFFFFFFFFFFFFFFFFFFFFFFFFFFFFFFFFFFFFF000FFFFFFFFFFFF
310
FFFFFFFFFFFFFFFFFFFFFFFFFFFFFFFFFFFFFFFFFFFFFFFFFFFFFFFFFFFFFFFF
310
FFFFFFFFFFFFFFFFFFFFFFFFFFFFFFFFFFFFFFFFFFFFFFFFFFFFFFFFFFFFFFFF
310
FFFFFFFFFFFFFFFFFFFFFFFFFFFFFFFFF000FFFFFFFFFFFFFFFFFFFFFFFFFFFF
310
FFFFFFFFFFFFFFFFFFFFFFFFFFFFFFFFFFFFFFFFFFFFFFFFFFFFFFFFFFFFFFFF
310
FFFFFFFFFFFFFFFFFFFFFFFFFFFFFFFFFFFFFFFFFFFFFFFFFFFFFFFFFFFFFFFF
310
FFFFFFFFFFFFFFFFF000FFFFFFFFFFFFFFFFFFFFFFFFFFFFFFFFFFFFFFFFFFFF
310
FFFFFFFFFFFFFFFFFFFFFFFFFFFFFFFFFFFFFFFFFFFFFFFFFFFFFFFFFFFFFFFF
310
FFFFFFFFFFFFFFFFFFFFFFFFFFFFFFFFFFFFFFFFFFFFFFFFFFFFFFFFFFFFFFFF
310
F000FFFFFFFFFFFFFFFFFFFFFFFFFFFFFFFFFFFFFFFFFFFFFFFFFFFFFFFFFFFF
310
FFFFFFFFFFFFFFFFFFFFFFFFFFFFFFFFFFFFFFFFFFFFFFFFFFFFFFFFFFFFFFFF
310
FFFFFFFFFFFFFFFFFFFFFFFFFFFFFFFFFFFFFFFFFFFFFFFFF000FFFFFFFFFFFF
310
FFFFFFFFFFFFFFFFFFFFFFFFFFFFFFFFFFFFFFFFFFFFFFFFFFFFFFFFFFFFFFFF
310
FFFFFFFFFFFFFFFFFFFFFFFFFFFFFFFFFFFFFFFFFFFFFFFFFFFFFFFFFFFFFFFF
310
FFFFFFFFFFFFFFFFFFFFFFFFFFFFFFFFF000FFFFFFFFFFFFFFFFFFFFFFFFFFFF
310
FFFFFFFFFFFFFFFFFFFFFFFFFFFFFFFFFFFFFFFFFFFFFFFFFFFFFFFFFFFFFFFF
310
FFFFFFFFFFFFFFFFFFFFFFFFFFFFFFFFFFFFFFFFFFFFFFFFFFFFFFFFFFFFFFFF
310
FFFFFFFFFFFFFFFFF000FFFFFFFFFFFFFFFFFFFFFFFFFFFFFFFFFFFFFFFFFFFF
310
FFFFFFFFFFFFFFFFFFFFFFFFFFFFFFFFFFFFFFFFFFFFFFFFFFFFFFFFFFFFFFFF
310
FFFFFFFFFFFFFFFFFFFFFFFFFFFFFFFFFFFFFFFFFFFFFFFFFFFFFFFFFFFFFFFF
310
F000FFFFFFFFFFFFFFFFFFFFFFFFFFFFFFFFFFFFFFFFFFFFFFFFFFFFFFFFFFFF
310
FFFFFFFFFFFFFFFFFFFFFFFFFFFFFFFFFFFFFFFFFFFFFFFFFFFFFFFFFFFFFFFF
310
FFFFFFFFFFFFFFFFFFFFFFFFFFFFFFFFFFFFFFFFFFFFFFFFF000FFFFFFFFFFFF
310
FFFFFFFFFFFFFFFFFFFFFFFFFFFFFFFFFFFFFFFFFFFFFFFFFFFFFFFFFFFFFFFF
310
FFFFFFFFFFFFFFFFFFFFFFFFFFFFFFFFFFFFFFFFFFFFFFFFFFFFFFFFFFFFFFFF
310
FFFFFFFFFFFFFFFFFFFFFFFFFFFFFFFFF000FFFFFFFFFFFFFFFFFFFFFFFFFFFF
310
FFFFFFFFFFFFFFFFFFFFFFFFFFFFFFFFFFFFFFFFFFFFFFFFFFFFFFFFFFFFFFFF
310
FFFFFFFFFFFFFFFFFFFFFFFFFFFFFFFFFFFFFFFFFFFFFFFFFFFFFFFFFFFFFFFF
310
FFFFFFFFFFFFFFFFF000FFFFFFFFFFFFFFFFFFFFFFFFFFFFFFFFFFFFFFFFFFFF
310
FFFFFFFFFFFFFFFFFFFFFFFFFFFFFFFFFFFFFFFFFFFFFFFFFFFFFFFFFFFFFFFF
310
FFFFFFFFFFFFFFFFFFFFFFFFFFFFFFFFFFFFFFFFFFFFFFFFFFFFFFFFFFFFFFFF
310
F000FFFFFFFFFFFFFFFFFFFFFFFFFFFFFFFFFFFFFFFFFFFFFFFFFFFFFFFFFFFF
310
FFFFFFFFFFFFFFFFFFFFFFFFFFFFFFFFFFFFFFFFFFFFFFFFFFFFFFFFFFFFFFFF
310
FFFFFFFFFFFFFFFFFFFFFFFFFFFFFFFFFFFFFFFFFFFFFFFFF000FFFFFFFFFFFF
310
FFFFFFFFFFFFFFFFFFFFFFFFFFFFFFFFFFFFFFFFFFFFFFFFFFFFFFFFFFFFFFFF
310
FFFFFFFFFFFFFFFFFFFFFFFFFFFFFFFFFFFFFFFFFFFFFFFFFFFFFFFFFFFFFFFF
310
FFFFFFFFFFFFFFFFFFFFFFFFFFFFFFFFF0000000000000000000000000000000
310
0000000000000000000000000000000000000000000000000000000000000000
310
0000000000000000000000000000000000000000000000000000000000000000
310
0000000000000000000000000000000000000000000000000000000000000000
310
0000000000000000000000000000000000000000000000000000000000000000
310
0000000000000000000000000000000000000000000000000000000000000000
310
0000000000000000000000000000000000000000000000000000000000000000
310
0000000000000000000000000000000000000000000000000000000000000000
310
0000000000000000000000000000000000000000000000000000000000000000
310
0000000000000000000000000000000000000000000000000000000000000000
310
0000000000000000000000000000000000000000000000000000000000000000
310
0000000000000000000000000000000000000000000000000000000000000000
310
0000000000000000000000000000000000000000000000000000000000000000
310
0000000000000000000000000000000000000000000000000000000000000000
310
0000000000000000000000000000000000000000000000000000000000000000
310
0000000000000000000000000000000000000000000000000000000000000000
  1
OLE
  0
ENDSEC
  0
SECTION
  2
OBJECTS
  0
DICTIONARY
  5
C
330
0
100
AcDbDictionary
281
     1
  3
ACAD_GROUP
350
D
  3
ACAD_LAYOUT
350
1A
  3
ACAD_MLINESTYLE
350
17
  3
ACAD_PLOTSETTINGS
350
19
  3
ACAD_PLOTSTYLENAME
350
E
  3
ACAD_SCALELIST
350
47
  0
DICTIONARY
  5
D
102
{ACAD_REACTORS
330
C
102
}
330
C
100
AcDbDictionary
281
     1
  0
DICTIONARY
  5
1A
102
{ACAD_REACTORS
330
C
102
}
330
C
100
AcDbDictionary
281
     1
  3
Layout1
350
1E
  3
Layout2
350
26
  3
Model
350
22
  0
DICTIONARY
  5
17
102
{ACAD_REACTORS
330
C
102
}
330
C
100
AcDbDictionary
281
     1
  3
Standard
350
18
  0
DICTIONARY
  5
19
102
{ACAD_REACTORS
330
C
102
}
330
C
100
AcDbDictionary
281
     1
  0
ACDBDICTIONARYWDFLT
  5
E
102
{ACAD_REACTORS
330
C
102
}
330
C
100
AcDbDictionary
281
     1
  3
Normal
350
F
100
AcDbDictionaryWithDefault
340
F
  0
DICTIONARY
  5
47
102
{ACAD_REACTORS
330
C
102
}
330
C
100
AcDbDictionary
281
     1
  3
A0
350
48
  3
A1
350
49
  3
A2
350
4A
  3
A3
350
4B
  3
A4
350
4C
  3
A5
350
4D
  3
A6
350
4E
  3
A7
350
4F
  3
A8
350
50
  3
A9
350
51
  3
B0
350
52
  3
B1
350
53
  3
B2
350
54
  3
B3
350
55
  3
B4
350
56
  3
B5
350
57
  3
B6
350
58
  3
B7
350
59
  3
B8
350
5A
  3
B9
350
5B
  3
C0
350
5C
  3
C1
350
5D
  3
C2
350
5E
  3
C3
350
5F
  3
C4
350
60
  3
C5
350
61
  3
C6
350
62
  3
C7
350
63
  3
C8
350
64
  3
C9
350
65
  3
D0
350
66
  3
D1
350
67
  3
D2
350
68
  0
LAYOUT
  5
1E
102
{ACAD_REACTORS
330
1A
102
}
330
1A
100
AcDbPlotSettings
  1

  2
none_device
  4

  6

 40
0.0
 41
0.0
 42
0.0
 43
0.0
 44
0.0
 45
0.0
 46
0.0
 47
0.0
 48
0.0
 49
0.0
140
0.0
141
0.0
142
1.0
143
1.0
 70
   688
 72
     1
 73
     0
 74
     5
  7

 75
    16
147
1.0
148
0.0
149
0.0
100
AcDbLayout
  1
Layout1
 70
     1
 71
     1
 10
0.0
 20
0.0
 11
420.0
 21
297.0
 12
0.0
 22
0.0
 32
0.0
 14
1.0000000000E+20
 24
1.0000000000E+20
 34
1.0000000000E+20
 15
-1.0000000000E+20
 25
-1.0000000000E+20
 35
-1.0000000000E+20
146
0.0
 13
0.0
 23
0.0
 33
0.0
 16
1.0
 26
0.0
 36
0.0
 17
0.0
 27
1.0
 37
0.0
 76
     0
330
1B
  0
LAYOUT
  5
26
102
{ACAD_REACTORS
330
1A
102
}
330
1A
100
AcDbPlotSettings
  1

  2
none_device
  4

  6

 40
0.0
 41
0.0
 42
0.0
 43
0.0
 44
0.0
 45
0.0
 46
0.0
 47
0.0
 48
0.0
 49
0.0
140
0.0
141
0.0
142
1.0
143
1.0
 70
   688
 72
     1
 73
     0
 74
     5
  7

 75
    16
147
1.0
148
0.0
149
0.0
100
AcDbLayout
  1
Layout2
 70
     1
 71
     2
 10
0.0
 20
0.0
 11
0.0
 21
0.0
 12
0.0
 22
0.0
 32
0.0
 14
0.0
 24
0.0
 34
0.0
 15
0.0
 25
0.0
 35
0.0
146
0.0
 13
0.0
 23
0.0
 33
0.0
 16
1.0
 26
0.0
 36
0.0
 17
0.0
 27
1.0
 37
0.0
 76
     0
330
23
  0
LAYOUT
  5
22
102
{ACAD_REACTORS
330
1A
102
}
330
1A
100
AcDbPlotSettings
  1

  2
none_device
  4
Letter_(8.50_x_11.00_Inches)
  6

 40
6.35
 41
6.35
 42
6.35000508
 43
6.35000508
 44
215.9
 45
279.4
 46
0.0
 47
0.0
 48
0.0
 49
0.0
140
0.0
141
0.0
142
1.0
143
1.0
 70
  1712
 72
     1
 73
     0
 74
     0
  7

 75
     0
147
1.0
148
0.0
149
0.0
100
AcDbLayout
  1
Model
 70
     1
 71
     0
 10
0.0
 20
0.0
 11
297.0
 21
210.0
 12
0.0
 22
0.0
 32
0.0
 14
0.0
 24
0.0
 34
0.0
 15
297.0
 25
210.0
 35
0.0
146
0.0
 13
0.0
 23
0.0
 33
0.0
 16
1.0
 26
0.0
 36
0.0
 17
0.0
 27
1.0
 37
0.0
 76
     0
330
1F
331
29
  0
MLINESTYLE
  5
18
102
{ACAD_REACTORS
330
17
102
}
330
17
100
AcDbMlineStyle
  2
Standard
 70
     0
  3

 62
   256
 51
90.0
 52
90.0
 71
     2
 49
0.5
 62
   256
  6
BYLAYER
 49
-0.5
 62
   256
  6
BYLAYER
  0
ACDBPLACEHOLDER
  5
F
102
{ACAD_REACTORS
330
E
102
}
330
E
  0
SCALE
  5
48
102
{ACAD_REACTORS
330
47
102
}
330
47
100
AcDbScale
 70
     0
300
1:1
140
1.0
141
1.0
290
     1
  0
SCALE
  5
49
102
{ACAD_REACTORS
330
47
102
}
330
47
100
AcDbScale
 70
     0
300
1:2
140
1.0
141
2.0
290
     0
  0
SCALE
  5
4A
102
{ACAD_REACTORS
330
47
102
}
330
47
100
AcDbScale
 70
     0
300
1:4
140
1.0
141
4.0
290
     0
  0
SCALE
  5
4B
102
{ACAD_REACTORS
330
47
102
}
330
47
100
AcDbScale
 70
     0
300
1:5
140
1.0
141
5.0
290
     0
  0
SCALE
  5
4C
102
{ACAD_REACTORS
330
47
102
}
330
47
100
AcDbScale
 70
     0
300
1:8
140
1.0
141
8.0
290
     0
  0
SCALE
  5
4D
102
{ACAD_REACTORS
330
47
102
}
330
47
100
AcDbScale
 70
     0
300
1:10
140
1.0
141
10.0
290
     0
  0
SCALE
  5
4E
102
{ACAD_REACTORS
330
47
102
}
330
47
100
AcDbScale
 70
     0
300
1:16
140
1.0
141
16.0
290
     0
  0
SCALE
  5
4F
102
{ACAD_REACTORS
330
47
102
}
330
47
100
AcDbScale
 70
     0
300
1:20
140
1.0
141
20.0
290
     0
  0
SCALE
  5
50
102
{ACAD_REACTORS
330
47
102
}
330
47
100
AcDbScale
 70
     0
300
1:30
140
1.0
141
30.0
290
     0
  0
SCALE
  5
51
102
{ACAD_REACTORS
330
47
102
}
330
47
100
AcDbScale
 70
     0
300
1:40
140
1.0
141
40.0
290
     0
  0
SCALE
  5
52
102
{ACAD_REACTORS
330
47
102
}
330
47
100
AcDbScale
 70
     0
300
1:50
140
1.0
141
50.0
290
     0
  0
SCALE
  5
53
102
{ACAD_REACTORS
330
47
102
}
330
47
100
AcDbScale
 70
     0
300
1:100
140
1.0
141
100.0
290
     0
  0
SCALE
  5
54
102
{ACAD_REACTORS
330
47
102
}
330
47
100
AcDbScale
 70
     0
300
2:1
140
2.0
141
1.0
290
     0
  0
SCALE
  5
55
102
{ACAD_REACTORS
330
47
102
}
330
47
100
AcDbScale
 70
     0
300
4:1
140
4.0
141
1.0
290
     0
  0
SCALE
  5
56
102
{ACAD_REACTORS
330
47
102
}
330
47
100
AcDbScale
 70
     0
300
8:1
140
8.0
141
1.0
290
     0
  0
SCALE
  5
57
102
{ACAD_REACTORS
330
47
102
}
330
47
100
AcDbScale
 70
     0
300
10:1
140
10.0
141
1.0
290
     0
  0
SCALE
  5
58
102
{ACAD_REACTORS
330
47
102
}
330
47
100
AcDbScale
 70
     0
300
100:1
140
100.0
141
1.0
290
     0
  0
SCALE
  5
59
102
{ACAD_REACTORS
330
47
102
}
330
47
100
AcDbScale
 70
     0
300
1/128" = 1'-0"
140
0.0078125
141
12.0
290
     0
  0
SCALE
  5
5A
102
{ACAD_REACTORS
330
47
102
}
330
47
100
AcDbScale
 70
     0
300
1/64" = 1'-0"
140
0.015625
141
12.0
290
     0
  0
SCALE
  5
5B
102
{ACAD_REACTORS
330
47
102
}
330
47
100
AcDbScale
 70
     0
300
1/32" = 1'-0"
140
0.03125
141
12.0
290
     0
  0
SCALE
  5
5C
102
{ACAD_REACTORS
330
47
102
}
330
47
100
AcDbScale
 70
     0
300
1/16" = 1'-0"
140
0.0625
141
12.0
290
     0
  0
SCALE
  5
5D
102
{ACAD_REACTORS
330
47
102
}
330
47
100
AcDbScale
 70
     0
300
3/32" = 1'-0"
140
0.09375
141
12.0
290
     0
  0
SCALE
  5
5E
102
{ACAD_REACTORS
330
47
102
}
330
47
100
AcDbScale
 70
     0
300
1/8" = 1'-0"
140
0.125
141
12.0
290
     0
  0
SCALE
  5
5F
102
{ACAD_REACTORS
330
47
102
}
330
47
100
AcDbScale
 70
     0
300
3/16" = 1'-0"
140
0.1875
141
12.0
290
     0
  0
SCALE
  5
60
102
{ACAD_REACTORS
330
47
102
}
330
47
100
AcDbScale
 70
     0
300
1/4" = 1'-0"
140
0.25
141
12.0
290
     0
  0
SCALE
  5
61
102
{ACAD_REACTORS
330
47
102
}
330
47
100
AcDbScale
 70
     0
300
3/8" = 1'-0"
140
0.375
141
12.0
290
     0
  0
SCALE
  5
62
102
{ACAD_REACTORS
330
47
102
}
330
47
100
AcDbScale
 70
     0
300
1/2" = 1'-0"
140
0.5
141
12.0
290
     0
  0
SCALE
  5
63
102
{ACAD_REACTORS
330
47
102
}
330
47
100
AcDbScale
 70
     0
300
3/4" = 1'-0"
140
0.75
141
12.0
290
     0
  0
SCALE
  5
64
102
{ACAD_REACTORS
330
47
102
}
330
47
100
AcDbScale
 70
     0
300
1" = 1'-0"
140
1.0
141
12.0
290
     0
  0
SCALE
  5
65
102
{ACAD_REACTORS
330
47
102
}
330
47
100
AcDbScale
 70
     0
300
1-1/2" = 1'-0"
140
1.5
141
12.0
290
     0
  0
SCALE
  5
66
102
{ACAD_REACTORS
330
47
102
}
330
47
100
AcDbScale
 70
     0
300
3" = 1'-0"
140
3.0
141
12.0
290
     0
  0
SCALE
  5
67
102
{ACAD_REACTORS
330
47
102
}
330
47
100
AcDbScale
 70
     0
300
6" = 1'-0"
140
6.0
141
12.0
290
     0
  0
SCALE
  5
68
102
{ACAD_REACTORS
330
47
102
}
330
47
100
AcDbScale
 70
     0
300
1'-0" = 1'-0"
140
12.0
141
12.0
290
     0
  0
ENDSEC
  0
EOF
