  0
SECTION
  2
HEADER
  9
$ACADVER
  1
AC1015
  9
$ACADMAINTVER
 70
     6
  9
$DWGCODEPAGE
  3
ANSI_1252
  9
$INSBASE
 10
0.0
 20
0.0
 30
0.0
  9
$EXTMIN
 10
0.0
 20
0.0
 30
0.0
  9
$EXTMAX
 10
297.0
 20
210.0
 30
0.0
  9
$LIMMIN
 10
0.0
 20
0.0
  9
$LIMMAX
 10
297.0
 20
210.0
  9
$ORTHOMODE
 70
     0
  9
$REGENMODE
 70
     1
  9
$FILLMODE
 70
     1
  9
$QTEXTMODE
 70
     0
  9
$MIRRTEXT
 70
     1
  9
$LTSCALE
 40
1.0
  9
$ATTMODE
 70
     1
  9
$TEXTSIZE
 40
2.0
  9
$TRACEWID
 40
1.0
  9
$TEXTSTYLE
  7
Standard
  9
$CLAYER
  8
0
  9
$CELTYPE
  6
ByLayer
  9
$CECOLOR
 62
   256
  9
$CELTSCALE
 40
1.0
  9
$DISPSILH
 70
     0
  9
$DIMSCALE
 40
1.0
  9
$DIMASZ
 40
3.0
  9
$DIMEXO
 40
0.0
  9
$DIMDLI
 40
3.75
  9
$DIMRND
 40
0.0
  9
$DIMDLE
 40
0.0
  9
$DIMEXE
 40
1.0
  9
$DIMTP
 40
0.0
  9
$DIMTM
 40
0.0
  9
$DIMTXT
 40
2.0
  9
$DIMCEN
 40
2.5
  9
$DIMTSZ
 40
0.0
  9
$DIMTOL
 70
     0
  9
$DIMLIM
 70
     0
  9
$DIMTIH
 70
     1
  9
$DIMTOH
 70
     1
  9
$DIMSE1
 70
     0
  9
$DIMSE2
 70
     0
  9
$DIMTAD
 70
     1
  9
$DIMZIN
 70
     0
  9
$DIMBLK
  1

  9
$DIMASO
 70
     1
  9
$DIMSHO
 70
     1
  9
$DIMPOST
  1

  9
$DIMAPOST
  1

  9
$DIMALT
 70
     0
  9
$DIMALTD
 70
     3
  9
$DIMALTF
 40
0.0393700787
  9
$DIMLFAC
 40
1.0
  9
$DIMTOFL
 70
     1
  9
$DIMTVP
 40
0.0
  9
$DIMTIX
 70
     0
  9
$DIMSOXD
 70
     0
  9
$DIMSAH
 70
     0
  9
$DIMBLK1
  1

  9
$DIMBLK2
  1

  9
$DIMSTYLE
  2
ISO-25
  9
$DIMCLRD
 70
     0
  9
$DIMCLRE
 70
     0
  9
$DIMCLRT
 70
     0
  9
$DIMTFAC
 40
1.0
  9
$DIMGAP
 40
1.524
  9
$DIMJUST
 70
     0
  9
$DIMSD1
 70
     0
  9
$DIMSD2
 70
     0
  9
$DIMTOLJ
 70
     0
  9
$DIMTZIN
 70
     0
  9
$DIMALTZ
 70
     0
  9
$DIMALTTZ
 70
     0
  9
$DIMUPT
 70
     0
  9
$DIMDEC
 70
     2
  9
$DIMTDEC
 70
     3
  9
$DIMALTU
 70
     2
  9
$DIMALTTD
 70
     3
  9
$DIMTXSTY
  7
Standard
  9
$DIMAUNIT
 70
     0
  9
$DIMADEC
 70
     2
  9
$DIMALTRND
 40
0.0
  9
$DIMAZIN
 70
     0
  9
$DIMDSEP
 70
    44
  9
$DIMATFIT
 70
     3
  9
$DIMFRAC
 70
     0
  9
$DIMLDRBLK
  1

  9
$DIMLUNIT
 70
     2
  9
$DIMLWD
 70
    -2
  9
$DIMLWE
 70
    -2
  9
$DIMTMOVE
 70
     0
  9
$LUNITS
 70
     2
  9
$LUPREC
 70
     2
  9
$SKETCHINC
 40
1.0
  9
$FILLETRAD
 40
10.0
  9
$AUNITS
 70
     0
  9
$AUPREC
 70
     2
  9
$MENU
  1
.
  9
$ELEVATION
 40
0.0
  9
$PELEVATION
 40
0.0
  9
$THICKNESS
 40
0.0
  9
$LIMCHECK
 70
     0
  9
$CHAMFERA
 40
0.0
  9
$CHAMFERB
 40
0.0
  9
$CHAMFERC
 40
0.0
  9
$CHAMFERD
 40
0.0
  9
$SKPOLY
 70
     0
  9
$TDCREATE
 40
2457672.513664421
  9
$TDUCREATE
 40
2457672.430331088
  9
$TDUPDATE
 40
2457672.513665868
  9
$TDUUPDATE
 40
2457672.430332535
  9
$TDINDWG
 40
0.0000000116
  9
$TDUSRTIMER
 40
0.0000000116
  9
$USRTIMER
 70
     1
  9
$ANGBASE
 50
0.0
  9
$ANGDIR
 70
     0
  9
$PDMODE
 70
     0
  9
$PDSIZE
 40
-1.0
  9
$PLINEWID
 40
0.0
  9
$SPLFRAME
 70
     0
  9
$SPLINETYPE
 70
     6
  9
$SPLINESEGS
 70
     8
  9
$HANDSEED
  5
274
  9
$SURFTAB1
 70
     6
  9
$SURFTAB2
 70
     6
  9
$SURFTYPE
 70
     6
  9
$SURFU
 70
     6
  9
$SURFV
 70
     6
  9
$UCSBASE
  2

  9
$UCSNAME
  2

  9
$UCSORG
 10
0.0
 20
0.0
 30
0.0
  9
$UCSXDIR
 10
1.0
 20
0.0
 30
0.0
  9
$UCSYDIR
 10
0.0
 20
1.0
 30
0.0
  9
$UCSORTHOREF
  2

  9
$UCSORTHOVIEW
 70
     0
  9
$UCSORGTOP
 10
0.0
 20
0.0
 30
0.0
  9
$UCSORGBOTTOM
 10
0.0
 20
0.0
 30
0.0
  9
$UCSORGLEFT
 10
0.0
 20
0.0
 30
0.0
  9
$UCSORGRIGHT
 10
0.0
 20
0.0
 30
0.0
  9
$UCSORGFRONT
 10
0.0
 20
0.0
 30
0.0
  9
$UCSORGBACK
 10
0.0
 20
0.0
 30
0.0
  9
$PUCSBASE
  2

  9
$PUCSNAME
  2

  9
$PUCSORG
 10
0.0
 20
0.0
 30
0.0
  9
$PUCSXDIR
 10
1.0
 20
0.0
 30
0.0
  9
$PUCSYDIR
 10
0.0
 20
1.0
 30
0.0
  9
$PUCSORTHOREF
  2

  9
$PUCSORTHOVIEW
 70
     0
  9
$PUCSORGTOP
 10
0.0
 20
0.0
 30
0.0
  9
$PUCSORGBOTTOM
 10
0.0
 20
0.0
 30
0.0
  9
$PUCSORGLEFT
 10
0.0
 20
0.0
 30
0.0
  9
$PUCSORGRIGHT
 10
0.0
 20
0.0
 30
0.0
  9
$PUCSORGFRONT
 10
0.0
 20
0.0
 30
0.0
  9
$PUCSORGBACK
 10
0.0
 20
0.0
 30
0.0
  9
$USERI1
 70
     0
  9
$USERI2
 70
     0
  9
$USERI3
 70
     0
  9
$USERI4
 70
     0
  9
$USERI5
 70
     0
  9
$USERR1
 40
0.0
  9
$USERR2
 40
0.0
  9
$USERR3
 40
0.0
  9
$USERR4
 40
0.0
  9
$USERR5
 40
0.0
  9
$WORLDVIEW
 70
     1
  9
$SHADEDGE
 70
     3
  9
$SHADEDIF
 70
    70
  9
$TILEMODE
 70
     1
  9
$MAXACTVP
 70
    64
  9
$PINSBASE
 10
0.0
 20
0.0
 30
0.0
  9
$PLIMCHECK
 70
     0
  9
$PEXTMIN
 10
1.0000000000E+20
 20
1.0000000000E+20
 30
1.0000000000E+20
  9
$PEXTMAX
 10
-1.0000000000E+20
 20
-1.0000000000E+20
 30
-1.0000000000E+20
  9
$PLIMMIN
 10
0.0
 20
0.0
  9
$PLIMMAX
 10
420.0
 20
297.0
  9
$UNITMODE
 70
     0
  9
$VISRETAIN
 70
     1
  9
$PLINEGEN
 70
     0
  9
$PSLTSCALE
 70
     1
  9
$TREEDEPTH
 70
  3020
  9
$CMLSTYLE
  2
Standard
  9
$CMLJUST
 70
     0
  9
$CMLSCALE
 40
20.0
  9
$PROXYGRAPHICS
 70
     1
  9
$MEASUREMENT
 70
     1
  9
$CELWEIGHT
370
    -1
  9
$ENDCAPS
280
     0
  9
$JOINSTYLE
280
     0
  9
$LWDISPLAY
290
     1
  9
$INSUNITS
 70
     4
  9
$HYPERLINKBASE
  1

  9
$STYLESHEET
  1

  9
$XEDIT
290
     1
  9
$CEPSNTYPE
380
     0
  9
$PSTYLEMODE
290
     1
  9
$FINGERPRINTGUID
  2
{6A2DB77E-0E1C-4CAF-8AA8-1F9B0E943DE4}
  9
$VERSIONGUID
  2
{FAEB1C32-E019-11D5-929B-00C0DF256EC4}
  9
$EXTNAMES
290
     1
  9
$PSVPSCALE
 40
0.0
  9
$OLESTARTUP
290
     0
  0
ENDSEC
  0
SECTION
  2
CLASSES
  0
CLASS
  1
ACDBDICTIONARYWDFLT
  2
AcDbDictionaryWithDefault
  3
ObjectDBX Classes
 90
        0
280
     0
281
     0
  0
CLASS
  1
VISUALSTYLE
  2
AcDbVisualStyle
  3
ObjectDBX Classes
 90
     4095
280
     0
281
     0
  0
CLASS
  1
MATERIAL
  2
AcDbMaterial
  3
ObjectDBX Classes
 90
     1153
280
     0
281
     0
  0
CLASS
  1
SCALE
  2
AcDbScale
  3
ObjectDBX Classes
 90
     1153
280
     0
281
     0
  0
CLASS
  1
TABLESTYLE
  2
AcDbTableStyle
  3
ObjectDBX Classes
 90
     4095
280
     0
281
     0
  0
CLASS
  1
MLEADERSTYLE
  2
AcDbMLeaderStyle
  3
ACDB_MLEADERSTYLE_CLASS
 90
     4095
280
     0
281
     0
  0
CLASS
  1
SUN
  2
AcDbSun
  3
SCENEOE
 90
     1153
280
     0
281
     0
  0
CLASS
  1
ACDBPLACEHOLDER
  2
AcDbPlaceHolder
  3
ObjectDBX Classes
 90
        0
280
     0
281
     0
  0
CLASS
  1
LAYOUT
  2
AcDbLayout
  3
ObjectDBX Classes
 90
        0
280
     0
281
     0
  0
ENDSEC
  0
SECTION
  2
TABLES
  0
TABLE
  2
VPORT
  5
8
330
0
100
AcDbSymbolTable
 70
     1
  0
VPORT
  5
29
330
8
100
AcDbSymbolTableRecord
100
AcDbViewportTableRecord
  2
*Active
 70
     0
 10
0.0
 20
0.0
 11
1.0
 21
1.0
 12
148.5
 22
105.0
 13
0.0
 23
0.0
 14
10.0
 24
10.0
 15
10.0
 25
10.0
 16
0.0
 26
0.0
 36
1.0
 17
0.0
 27
0.0
 37
0.0
 40
210.0
 41
1.4142857143
 42
50.0
 43
0.0
 44
0.0
 50
0.0
 51
0.0
 71
     0
 72
  2000
 73
     1
 74
     3
 75
     0
 76
     0
 77
     0
 78
     0
281
     0
 65
     1
110
0.0
120
0.0
130
0.0
111
1.0
121
0.0
131
0.0
112
0.0
122
1.0
132
0.0
 79
     0
146
0.0
  0
ENDTAB
  0
TABLE
  2
LTYPE
  5
5
330
0
100
AcDbSymbolTable
 70
     6
  0
LTYPE
  5
14
330
5
100
AcDbSymbolTableRecord
100
AcDbLinetypeTableRecord
  2
ByBlock
 70
     0
  3

 72
    65
 73
     0
 40
0.0
  0
LTYPE
  5
15
330
5
100
AcDbSymbolTableRecord
100
AcDbLinetypeTableRecord
  2
ByLayer
 70
     0
  3

 72
    65
 73
     0
 40
0.0
  0
LTYPE
  5
16
330
5
100
AcDbSymbolTableRecord
100
AcDbLinetypeTableRecord
  2
Continuous
 70
     0
  3
Solid line
 72
    65
 73
     0
 40
0.0
  0
LTYPE
  5
6E
330
5
100
AcDbSymbolTableRecord
100
AcDbLinetypeTableRecord
  2
HIDDEN
 70
     0
  3
Hidden __ __ __ __ __ __ __ __ __ __ __ __ __ __
 72
    65
 73
     2
 40
1.905
 49
1.27
 74
     0
 49
-0.635
 74
     0
  0
LTYPE
  5
6F
330
5
100
AcDbSymbolTableRecord
100
AcDbLinetypeTableRecord
  2
PHANTOM
 70
     0
  3
Phantom ______  __  __  ______  __  __  ______
 72
    65
 73
     6
 40
12.7
 49
6.35
 74
     0
 49
-1.27
 74
     0
 49
1.27
 74
     0
 49
-1.27
 74
     0
 49
1.27
 74
     0
 49
-1.27
 74
     0
  0
LTYPE
  5
70
330
5
100
AcDbSymbolTableRecord
100
AcDbLinetypeTableRecord
  2
CENTER
 70
     0
  3
Center ____ _ ____ _ ____ _ ____ _ ____ _ ____
 72
    65
 73
     4
 40
10.16
 49
6.35
 74
     0
 49
-1.27
 74
     0
 49
1.27
 74
     0
 49
-1.27
 74
     0
  0
LTYPE
  5
71
330
5
100
AcDbSymbolTableRecord
100
AcDbLinetypeTableRecord
  2
CENTERX2
 70
     0
  3
Center (2x) ________  __  ________  __  _____
 72
    65
 73
     4
 40
20.32
 49
12.7
 74
     0
 49
-2.54
 74
     0
 49
2.54
 74
     0
 49
-2.54
 74
     0
  0
LTYPE
  5
72
330
5
100
AcDbSymbolTableRecord
100
AcDbLinetypeTableRecord
  2
DOT2
 70
     0
  3
Dot (.5x) ........................................
 72
    65
 73
     2
 40
0.635
 49
0.0
 74
     0
 49
-0.635
 74
     0
  0
ENDTAB
  0
TABLE
  2
LAYER
  5
2
330
0
100
AcDbSymbolTable
 70
     5
  0
LAYER
  5
10
330
2
100
AcDbSymbolTableRecord
100
AcDbLayerTableRecord
  2
0
 70
     0
 62
     7
  6
Continuous
370
    -3
390
F
  0
LAYER
  5
73
330
2
100
AcDbSymbolTableRecord
100
AcDbLayerTableRecord
  2
FORMAT
 70
     0
 62
     7
  6
Continuous
370
    -3
390
F
  0
LAYER
  5
74
330
2
100
AcDbSymbolTableRecord
100
AcDbLayerTableRecord
  2
VERMASSUNG
 70
     0
 62
     7
  6
Continuous
370
    -3
390
F
  0
LAYER
  5
75
330
2
100
AcDbSymbolTableRecord
100
AcDbLayerTableRecord
  2
KOPF_DÜNN
 70
     0
 62
     7
  6
Continuous
370
    -3
390
F
  0
LAYER
  5
76
330
2
100
AcDbSymbolTableRecord
100
AcDbLayerTableRecord
  2
KOPF_DICK
 70
     0
 62
     7
  6
Continuous
370
    15
390
F
  0
ENDTAB
  0
TABLE
  2
STYLE
  5
3
330
0
100
AcDbSymbolTable
 70
     3
  0
STYLE
  5
11
330
3
100
AcDbSymbolTableRecord
100
AcDbTextStyleTableRecord
  2
Standard
 70
     0
 40
0.0
 41
1.0
 50
0.0
 71
     0
 42
2.0
  3
txt
  4

  0
STYLE
  5
77
330
3
100
AcDbSymbolTableRecord
100
AcDbTextStyleTableRecord
  2
SLDTEXTSTYLE0
 70
     0
 40
0.0
 41
0.7
 50
0.0
 71
     0
 42
2.0
  3
TXT
  4

  0
STYLE
  5
7B
330
3
100
AcDbSymbolTableRecord
100
AcDbTextStyleTableRecord
  2
SLDTEXTSTYLE1
 70
     0
 40
0.0
 41
0.6454545455
 50
0.0
 71
     0
 42
2.0
  3
TXT
  4

  0
ENDTAB
  0
TABLE
  2
VIEW
  5
6
330
0
100
AcDbSymbolTable
 70
     0
  0
ENDTAB
  0
TABLE
  2
UCS
  5
7
330
0
100
AcDbSymbolTable
 70
     0
  0
ENDTAB
  0
TABLE
  2
APPID
  5
9
330
0
100
AcDbSymbolTable
 70
     1
  0
APPID
  5
12
330
9
100
AcDbSymbolTableRecord
100
AcDbRegAppTableRecord
  2
ACAD
 70
     0
  0
ENDTAB
  0
TABLE
  2
DIMSTYLE
  5
A
330
0
100
AcDbSymbolTable
 70
     2
100
AcDbDimStyleTable
  0
DIMSTYLE
105
27
330
A
100
AcDbSymbolTableRecord
100
AcDbDimStyleTableRecord
  2
ISO-25
 70
     0
 41
2.5
 42
0.625
 43
3.75
 44
1.25
 73
     0
 74
     0
 77
     1
 78
     8
140
2.5
141
2.5
143
0.0393700787
147
0.625
171
     3
172
     1
178
     0
271
     2
272
     2
274
     3
278
    44
283
     0
284
     8
340
11
  0
DIMSTYLE
105
19B
102
{ACAD_REACTORS
330
19A
330
1A6
330
1B2
330
1BE
330
1C8
330
1D4
102
}
330
A
100
AcDbSymbolTableRecord
100
AcDbDimStyleTableRecord
  2
SLDDIMSTYLE0
 70
     0
 41
3.0
 44
0.0
 45
0.000000001
 73
     0
 74
     0
 77
     1
 78
    12
 79
     3
140
2.0
147
0.5
173
     1
178
     0
271
     2
272
     3
276
     2
284
    12
340
77
  0
ENDTAB
  0
TABLE
  2
BLOCK_RECORD
  5
1
330
0
100
AcDbSymbolTable
 70
     7
  0
BLOCK_RECORD
  5
1F
330
1
100
AcDbSymbolTableRecord
100
AcDbBlockTableRecord
  2
*Model_Space
340
22
  0
BLOCK_RECORD
  5
1B
330
1
100
AcDbSymbolTableRecord
100
AcDbBlockTableRecord
  2
*Paper_Space
340
1E
  0
BLOCK_RECORD
  5
23
330
1
100
AcDbSymbolTableRecord
100
AcDbBlockTableRecord
  2
*Paper_Space0
340
26
  0
BLOCK_RECORD
  5
19C
330
1
100
AcDbSymbolTableRecord
100
AcDbBlockTableRecord
  2
_D
340
0
  0
BLOCK_RECORD
  5
1A7
330
1
100
AcDbSymbolTableRecord
100
AcDbBlockTableRecord
  2
_D_1
340
0
  0
BLOCK_RECORD
  5
1B3
330
1
100
AcDbSymbolTableRecord
100
AcDbBlockTableRecord
  2
_D_2
340
0
  0
BLOCK_RECORD
  5
1BF
330
1
100
AcDbSymbolTableRecord
100
AcDbBlockTableRecord
  2
_D_3
340
0
  0
BLOCK_RECORD
  5
1C9
330
1
100
AcDbSymbolTableRecord
100
AcDbBlockTableRecord
  2
_D_4
340
0
  0
BLOCK_RECORD
  5
1D5
330
1
100
AcDbSymbolTableRecord
100
AcDbBlockTableRecord
  2
_D_5
340
0
  0
ENDTAB
  0
ENDSEC
  0
SECTION
  2
BLOCKS
  0
BLOCK
  5
20
330
1F
100
AcDbEntity
  8
0
100
AcDbBlockBegin
  2
*Model_Space
 70
     0
 10
0.0
 20
0.0
 30
0.0
  3
*Model_Space
  1

  0
ENDBLK
  5
21
330
1F
100
AcDbEntity
  8
0
100
AcDbBlockEnd
  0
BLOCK
  5
1C
330
1B
100
AcDbEntity
 67
     1
  8
0
100
AcDbBlockBegin
  2
*Paper_Space
 70
     0
 10
0.0
 20
0.0
 30
0.0
  3
*Paper_Space
  1

  0
ENDBLK
  5
1D
330
1B
100
AcDbEntity
 67
     1
  8
0
100
AcDbBlockEnd
  0
BLOCK
  5
24
330
23
100
AcDbEntity
  8
0
100
AcDbBlockBegin
  2
*Paper_Space0
 70
     0
 10
0.0
 20
0.0
 30
0.0
  3
*Paper_Space0
  1

  0
ENDBLK
  5
25
330
23
100
AcDbEntity
  8
0
100
AcDbBlockEnd
  0
BLOCK
  5
19D
330
19C
100
AcDbEntity
  8
0
100
AcDbBlockBegin
  2
_D
 70
     0
 10
0.0
 20
0.0
 30
0.0
  3
_D
  1

  0
SOLID
  5
19F
330
19C
100
AcDbEntity
  8
VERMASSUNG
100
AcDbTrace
 10
241.9664063656
 20
137.3200652857
 30
0.0
 11
241.5164063656
 21
134.3200652857
 31
0.0
 12
242.4164063656
 22
134.3200652857
 32
0.0
 13
242.4164063656
 23
134.3200652857
 33
0.0
  0
SOLID
  5
1A0
330
19C
100
AcDbEntity
  8
VERMASSUNG
100
AcDbTrace
 10
241.9664063656
 20
101.3200652857
 30
0.0
 11
242.4164063656
 21
104.3200652857
 31
0.0
 12
241.5164063656
 22
104.3200652857
 32
0.0
 13
241.5164063656
 23
104.3200652857
 33
0.0
  0
LINE
  5
1A1
330
19C
100
AcDbEntity
  8
VERMASSUNG
100
AcDbLine
 10
218.7744585151
 20
137.3200652857
 30
0.0
 11
242.9664063656
 21
137.3200652857
 31
0.0
  0
LINE
  5
1A2
330
19C
100
AcDbEntity
  8
VERMASSUNG
100
AcDbLine
 10
218.7744585151
 20
101.3200652857
 30
0.0
 11
242.9664063656
 21
101.3200652857
 31
0.0
  0
LINE
  5
1A3
330
19C
100
AcDbEntity
  8
VERMASSUNG
100
AcDbLine
 10
241.9664063656
 20
137.3200652857
 30
0.0
 11
241.9664063656
 21
101.3200652857
 31
0.0
  0
MTEXT
  5
1A4
330
19C
100
AcDbEntity
  8
VERMASSUNG
100
AcDbMText
 10
239.3882708279
 20
116.1158891786
 30
0.0
 40
2.0
 41
0.0
 71
     1
 72
     1
  1
%%c
  7
SLDTEXTSTYLE0
 11
-7.044195017643634E-15
 21
1.0
 31
0.0
 73
     1
 44
1.0
  0
MTEXT
  5
1A5
330
19C
100
AcDbEntity
  8
VERMASSUNG
100
AcDbMText
 10
239.3882707697
 20
119.7248613722
 30
0.0
 40
2.0
 41
0.0
 71
     1
 72
     1
  1
36
  7
SLDTEXTSTYLE0
 11
-7.044195017643634E-15
 21
1.0
 31
0.0
 73
     1
 44
1.0
  0
ENDBLK
  5
19E
330
19C
100
AcDbEntity
  8
0
100
AcDbBlockEnd
  0
BLOCK
  5
1A8
330
1A7
100
AcDbEntity
  8
0
100
AcDbBlockBegin
  2
_D_1
 70
     0
 10
0.0
 20
0.0
 30
0.0
  3
_D_1
  1

  0
SOLID
  5
1AA
330
1A7
100
AcDbEntity
  8
VERMASSUNG
100
AcDbTrace
 10
247.9664063656
 20
151.3200652857
 30
0.0
 11
247.5164063656
 21
148.3200652857
 31
0.0
 12
248.4164063656
 22
148.3200652857
 32
0.0
 13
248.4164063656
 23
148.3200652857
 33
0.0
  0
SOLID
  5
1AB
330
1A7
100
AcDbEntity
  8
VERMASSUNG
100
AcDbTrace
 10
247.9664063656
 20
87.3200652857
 30
0.0
 11
248.4164063656
 21
90.3200652857
 31
0.0
 12
247.5164063656
 22
90.3200652857
 32
0.0
 13
247.5164063656
 23
90.3200652857
 33
0.0
  0
LINE
  5
1AC
330
1A7
100
AcDbEntity
  8
VERMASSUNG
100
AcDbLine
 10
234.7744585152
 20
151.3200652857
 30
0.0
 11
248.9664063656
 21
151.3200652857
 31
0.0
  0
LINE
  5
1AD
330
1A7
100
AcDbEntity
  8
VERMASSUNG
100
AcDbLine
 10
234.7744585152
 20
87.3200652857
 30
0.0
 11
248.9664063656
 21
87.3200652857
 31
0.0
  0
LINE
  5
1AE
330
1A7
100
AcDbEntity
  8
VERMASSUNG
100
AcDbLine
 10
247.9664063656
 20
151.3200652857
 30
0.0
 11
247.9664063656
 21
87.3200652857
 31
0.0
  0
MTEXT
  5
1AF
330
1A7
100
AcDbEntity
  8
VERMASSUNG
100
AcDbMText
 10
245.1882711094
 20
113.1168685812
 30
0.0
 40
2.0
 41
0.0
 71
     1
 72
     1
  1
ST6
  7
SLDTEXTSTYLE0
 11
-7.044195017643634E-15
 21
1.0
 31
0.0
 73
     1
 44
1.0
  0
MTEXT
  5
1B0
330
1A7
100
AcDbEntity
  8
VERMASSUNG
100
AcDbMText
 10
245.3882710607
 20
118.9168685075
 30
0.0
 40
2.0
 41
0.0
 71
     1
 72
     1
  1
%%c
  7
SLDTEXTSTYLE0
 11
-7.044195017643634E-15
 21
1.0
 31
0.0
 73
     1
 44
1.0
  0
MTEXT
  5
1B1
330
1A7
100
AcDbEntity
  8
VERMASSUNG
100
AcDbMText
 10
245.3882707697
 20
122.5253443794
 30
0.0
 40
2.0
 41
0.0
 71
     1
 72
     1
  1
64
  7
SLDTEXTSTYLE0
 11
-7.044195017643634E-15
 21
1.0
 31
0.0
 73
     1
 44
1.0
  0
ENDBLK
  5
1A9
330
1A7
100
AcDbEntity
  8
0
100
AcDbBlockEnd
  0
BLOCK
  5
1B4
330
1B3
100
AcDbEntity
  8
0
100
AcDbBlockBegin
  2
_D_2
 70
     0
 10
0.0
 20
0.0
 30
0.0
  3
_D_2
  1

  0
ARC
  5
1B6
330
1B3
100
AcDbEntity
  8
VERMASSUNG
100
AcDbCircle
 10
219.0866856007
 20
175.1188661716
 30
0.0
 40
4.247059938537323
100
AcDbArc
 50
153.4349488229
 51
206.5650511771
  0
ARC
  5
1B7
330
1B3
100
AcDbEntity
  8
VERMASSUNG
100
AcDbCircle
 10
217.6622314297
 20
175.1188661716
 30
0.0
 40
4.247059938537323
100
AcDbArc
 50
333.4349488229
 51
26.5650511771
  0
SOLID
  5
1B8
330
1B3
100
AcDbEntity
  8
VERMASSUNG
100
AcDbTrace
 10
201.3744585152
 20
173.2195232262
 30
0.0
 11
204.3744585152
 21
172.7695232262
 31
0.0
 12
204.3744585152
 22
173.6695232262
 32
0.0
 13
204.3744585152
 23
173.6695232262
 33
0.0
  0
SOLID
  5
1B9
330
1B3
100
AcDbEntity
  8
VERMASSUNG
100
AcDbTrace
 10
235.3744585152
 20
173.2195232262
 30
0.0
 11
232.3744585152
 21
173.6695232262
 31
0.0
 12
232.3744585152
 22
172.7695232262
 32
0.0
 13
232.3744585152
 23
172.7695232262
 33
0.0
  0
LINE
  5
1BA
330
1B3
100
AcDbEntity
  8
VERMASSUNG
100
AcDbLine
 10
201.3744585152
 20
168.3200652857
 30
0.0
 11
201.3744585152
 21
174.2195232262
 31
0.0
  0
LINE
  5
1BB
330
1B3
100
AcDbEntity
  8
VERMASSUNG
100
AcDbLine
 10
235.3744585152
 20
150.7200652857
 30
0.0
 11
235.3744585152
 21
174.2195232262
 31
0.0
  0
LINE
  5
1BC
330
1B3
100
AcDbEntity
  8
VERMASSUNG
100
AcDbLine
 10
201.3744585152
 20
173.2195232262
 30
0.0
 11
235.3744585152
 21
173.2195232262
 31
0.0
  0
MTEXT
  5
1BD
330
1B3
100
AcDbEntity
  8
VERMASSUNG
100
AcDbMText
 10
216.8754997099
 20
175.7976588221
 30
0.0
 40
2.0
 41
0.0
 71
     1
 72
     1
  1
34
  7
SLDTEXTSTYLE0
 73
     1
 44
1.0
  0
ENDBLK
  5
1B5
330
1B3
100
AcDbEntity
  8
0
100
AcDbBlockEnd
  0
BLOCK
  5
1C0
330
1BF
100
AcDbEntity
  8
0
100
AcDbBlockBegin
  2
_D_3
 70
     0
 10
0.0
 20
0.0
 30
0.0
  3
_D_3
  1

  0
SOLID
  5
1C2
330
1BF
100
AcDbEntity
  8
VERMASSUNG
100
AcDbTrace
 10
163.3744585152
 20
179.2195232262
 30
0.0
 11
166.3744585152
 21
178.7695232262
 31
0.0
 12
166.3744585152
 22
179.6695232262
 32
0.0
 13
166.3744585152
 23
179.6695232262
 33
0.0
  0
SOLID
  5
1C3
330
1BF
100
AcDbEntity
  8
VERMASSUNG
100
AcDbTrace
 10
235.3744585152
 20
179.2195232262
 30
0.0
 11
232.3744585152
 21
179.6695232262
 31
0.0
 12
232.3744585152
 22
178.7695232262
 32
0.0
 13
232.3744585152
 23
178.7695232262
 33
0.0
  0
LINE
  5
1C4
330
1BF
100
AcDbEntity
  8
VERMASSUNG
100
AcDbLine
 10
163.3744585152
 20
154.2450652857
 30
0.0
 11
163.3744585152
 21
180.2195232262
 31
0.0
  0
LINE
  5
1C5
330
1BF
100
AcDbEntity
  8
VERMASSUNG
100
AcDbLine
 10
235.3744585152
 20
150.7200652857
 30
0.0
 11
235.3744585152
 21
180.2195232262
 31
0.0
  0
LINE
  5
1C6
330
1BF
100
AcDbEntity
  8
VERMASSUNG
100
AcDbLine
 10
163.3744585152
 20
179.2195232262
 30
0.0
 11
235.3744585152
 21
179.2195232262
 31
0.0
  0
MTEXT
  5
1C7
330
1BF
100
AcDbEntity
  8
VERMASSUNG
100
AcDbMText
 10
197.9747685049
 20
181.7976588221
 30
0.0
 40
2.0
 41
0.0
 71
     1
 72
     1
  1
72
  7
SLDTEXTSTYLE0
 73
     1
 44
1.0
  0
ENDBLK
  5
1C1
330
1BF
100
AcDbEntity
  8
0
100
AcDbBlockEnd
  0
BLOCK
  5
1CA
330
1C9
100
AcDbEntity
  8
0
100
AcDbBlockBegin
  2
_D_4
 70
     0
 10
0.0
 20
0.0
 30
0.0
  3
_D_4
  1

  0
ARC
  5
1CC
330
1C9
100
AcDbEntity
  8
VERMASSUNG
100
AcDbCircle
 10
147.7858926038
 20
187.1188661716
 30
0.0
 40
4.247059938537323
100
AcDbArc
 50
153.4349488229
 51
206.5650511771
  0
ARC
  5
1CD
330
1C9
100
AcDbEntity
  8
VERMASSUNG
100
AcDbCircle
 10
149.1630244267
 20
187.1188661716
 30
0.0
 40
4.247059938537297
100
AcDbArc
 50
333.4349488229
 51
26.5650511771
  0
SOLID
  5
1CE
330
1C9
100
AcDbEntity
  8
VERMASSUNG
100
AcDbTrace
 10
61.5744585152
 20
185.2195232262
 30
0.0
 11
64.5744585152
 21
184.7695232262
 31
0.0
 12
64.5744585152
 22
185.6695232262
 32
0.0
 13
64.5744585152
 23
185.6695232262
 33
0.0
  0
SOLID
  5
1CF
330
1C9
100
AcDbEntity
  8
VERMASSUNG
100
AcDbTrace
 10
235.3744585152
 20
185.2195232262
 30
0.0
 11
232.3744585152
 21
185.6695232262
 31
0.0
 12
232.3744585152
 22
184.7695232262
 32
0.0
 13
232.3744585152
 23
184.7695232262
 33
0.0
  0
LINE
  5
1D0
330
1C9
100
AcDbEntity
  8
VERMASSUNG
100
AcDbLine
 10
61.5744585152
 20
137.6697431464
 30
0.0
 11
61.5744585152
 21
186.2195232262
 31
0.0
  0
LINE
  5
1D1
330
1C9
100
AcDbEntity
  8
VERMASSUNG
100
AcDbLine
 10
235.3744585152
 20
150.7200652857
 30
0.0
 11
235.3744585152
 21
186.2195232262
 31
0.0
  0
LINE
  5
1D2
330
1C9
100
AcDbEntity
  8
VERMASSUNG
100
AcDbLine
 10
61.5744585152
 20
185.2195232262
 30
0.0
 11
235.3744585152
 21
185.2195232262
 31
0.0
  0
MTEXT
  5
1D3
330
1C9
100
AcDbEntity
  8
VERMASSUNG
100
AcDbMText
 10
145.574706713
 20
187.7976588221
 30
0.0
 40
2.0
 41
0.0
 71
     1
 72
     1
  1
173.8
  7
SLDTEXTSTYLE0
 73
     1
 44
1.0
  0
ENDBLK
  5
1CB
330
1C9
100
AcDbEntity
  8
0
100
AcDbBlockEnd
  0
BLOCK
  5
1D6
330
1D5
100
AcDbEntity
  8
0
100
AcDbBlockBegin
  2
_D_5
 70
     0
 10
0.0
 20
0.0
 30
0.0
  3
_D_5
  1

  0
SOLID
  5
1D8
330
1D5
100
AcDbEntity
  8
VERMASSUNG
100
AcDbTrace
 10
56.328579768
 20
169.3200652857
 30
0.0
 11
55.878579768
 21
166.3200652857
 31
0.0
 12
56.778579768
 22
166.3200652857
 32
0.0
 13
56.778579768
 23
166.3200652857
 33
0.0
  0
SOLID
  5
1D9
330
1D5
100
AcDbEntity
  8
VERMASSUNG
100
AcDbTrace
 10
56.328579768
 20
69.3200652857
 30
0.0
 11
56.778579768
 21
72.3200652857
 31
0.0
 12
55.878579768
 22
72.3200652857
 32
0.0
 13
55.878579768
 23
72.3200652857
 33
0.0
  0
LINE
  5
1DA
330
1D5
100
AcDbEntity
  8
VERMASSUNG
100
AcDbLine
 10
197.3744604238
 20
169.3200652857
 30
0.0
 11
55.328579768
 21
169.3200652857
 31
0.0
  0
LINE
  5
1DB
330
1D5
100
AcDbEntity
  8
VERMASSUNG
100
AcDbLine
 10
197.3744605773
 20
69.3200652857
 30
0.0
 11
55.328579768
 21
69.3200652857
 31
0.0
  0
LINE
  5
1DC
330
1D5
100
AcDbEntity
  8
VERMASSUNG
100
AcDbLine
 10
56.328579768
 20
169.3200652857
 30
0.0
 11
56.328579768
 21
69.3200652857
 31
0.0
  0
MTEXT
  5
1DD
330
1D5
100
AcDbEntity
  8
VERMASSUNG
100
AcDbMText
 10
53.5504445118
 20
108.2162990653
 30
0.0
 40
2.0
 41
0.0
 71
     1
 72
     1
  1
MAS BT 50
  7
SLDTEXTSTYLE0
 11
-7.044195017643634E-15
 21
1.0
 31
0.0
 73
     1
 44
1.0
  0
MTEXT
  5
1DE
330
1D5
100
AcDbEntity
  8
VERMASSUNG
100
AcDbMText
 10
53.7504444631
 20
123.0162990697
 30
0.0
 40
2.0
 41
0.0
 71
     1
 72
     1
  1
%%c
  7
SLDTEXTSTYLE0
 11
-7.044195017643634E-15
 21
1.0
 31
0.0
 73
     1
 44
1.0
  0
MTEXT
  5
1DF
330
1D5
100
AcDbEntity
  8
VERMASSUNG
100
AcDbMText
 10
53.7504441721
 20
126.6251456152
 30
0.0
 40
2.0
 41
0.0
 71
     1
 72
     1
  1
100
  7
SLDTEXTSTYLE0
 11
-7.044195017643634E-15
 21
1.0
 31
0.0
 73
     1
 44
1.0
  0
ENDBLK
  5
1D7
330
1D5
100
AcDbEntity
  8
0
100
AcDbBlockEnd
  0
ENDSEC
  0
SECTION
  2
ENTITIES
  0
MTEXT
  5
78
330
1F
100
AcDbEntity
  8
KOPF_DÜNN
100
AcDbMText
 10
13.8892156294
 20
23.8442973028
 30
0.0
 40
3.0
 41
0.0
 71
     1
 72
     1
  1
134.650.064.072
  7
SLDTEXTSTYLE0
 73
     1
 44
1.0
  0
MTEXT
  5
79
330
1F
100
AcDbEntity
  8
VERMASSUNG
100
AcDbMText
 10
13.9329988022
 20
28.8834360957
 30
0.0
 40
3.0
 41
0.0
 71
     1
 72
     1
  1
Aufnahme_Master shank ST6
  7
SLDTEXTSTYLE0
 73
     1
 44
1.0
  0
MTEXT
  5
7A
330
1F
100
AcDbEntity
  8
VERMASSUNG
100
AcDbMText
 10
98.8601118557
 20
13.8365368761
 30
0.0
 40
2.0
 41
0.0
 71
     1
 72
     1
  1
Datum: 06.06.2008
  7
SLDTEXTSTYLE0
 73
     1
 44
1.0
  0
MTEXT
  5
7C
330
1F
100
AcDbEntity
  8
VERMASSUNG
100
AcDbMText
 10
13.933048693
 20
18.0482802738
 30
0.0
 40
2.0
 41
0.0
 71
     1
 72
     1
  1
MAS BT 50 B
  7
SLDTEXTSTYLE1
 73
     1
 44
1.0
  0
MTEXT
  5
7D
330
1F
100
AcDbEntity
  8
VERMASSUNG
100
AcDbMText
 10
13.9808475933
 20
13.9090974274
 30
0.0
 40
2.0
 41
0.0
 71
     1
 72
     1
  1
Gewicht: 4087g
  7
SLDTEXTSTYLE0
 73
     1
 44
1.0
  0
LINE
  5
7E
330
1F
100
AcDbEntity
  8
0
  6
Continuous
 62
     7
370
    15
100
AcDbLine
 10
197.3741712885
 20
69.3200652857
 30
0.0
 11
200.3744585152
 21
69.3200652857
 31
0.0
  0
LINE
  5
7F
330
1F
100
AcDbEntity
  8
0
  6
Continuous
 62
     7
370
    15
100
AcDbLine
 10
200.3744585152
 20
169.3200652857
 30
0.0
 11
197.3740243343
 21
169.3200652857
 31
0.0
  0
ARC
  5
80
330
1F
100
AcDbEntity
  8
0
  6
Continuous
 62
     7
370
    15
100
AcDbCircle
 10
200.3744585152
 20
70.3200652857
 30
0.0
 40
1.0
100
AcDbArc
 50
270.0
 51
0.0
  0
ARC
  5
81
330
1F
100
AcDbEntity
  8
0
  6
Continuous
 62
     7
370
    15
100
AcDbCircle
 10
200.3744585152
 20
168.3200652857
 30
0.0
 40
1.0
100
AcDbArc
 50
0.0
 51
90.0
  0
ARC
  5
82
330
1F
100
AcDbEntity
  8
0
  6
Continuous
 62
     7
370
    15
100
AcDbCircle
 10
205.3744585152
 20
83.3200652857
 30
0.0
 40
4.0
100
AcDbArc
 50
90.0
 51
180.0
  0
ARC
  5
83
330
1F
100
AcDbEntity
  8
0
  6
Continuous
 62
     7
370
    15
100
AcDbCircle
 10
205.3744585152
 20
155.3200652857
 30
0.0
 40
4.0
100
AcDbArc
 50
180.0
 51
270.0
  0
ARC
  5
84
330
1F
100
AcDbEntity
  8
0
  6
Continuous
 62
     7
370
    15
100
AcDbCircle
 10
165.3744585152
 20
83.3950652857
 30
0.0
 40
1.0
100
AcDbArc
 50
38.7226389445
 51
90.0
  0
ARC
  5
85
330
1F
100
AcDbEntity
  8
0
  6
Continuous
 62
     7
370
    15
100
AcDbCircle
 10
165.3744585152
 20
155.2450652857
 30
0.0
 40
1.0
100
AcDbArc
 50
270.0
 51
321.2884428123
  0
LINE
  5
86
330
1F
100
AcDbEntity
  8
0
  6
Continuous
 62
     7
370
    15
100
AcDbLine
 10
163.3744585152
 20
154.2450652857
 30
0.0
 11
63.2858447291
 21
139.6488091085
 31
0.0
  0
LINE
  5
87
330
1F
100
AcDbEntity
  8
0
  6
Continuous
 62
     7
370
    15
100
AcDbLine
 10
63.2858447291
 20
98.9913214628
 30
0.0
 11
163.3744585152
 21
84.3950652857
 31
0.0
  0
LINE
  5
88
330
1F
100
AcDbEntity
  8
0
  6
Continuous
 62
     7
370
    15
100
AcDbLine
 10
163.3744585152
 20
84.3950652857
 30
0.0
 11
165.3744585152
 21
84.3950652857
 31
0.0
  0
LINE
  5
89
330
1F
100
AcDbEntity
  8
0
  6
Continuous
 62
     7
370
    15
100
AcDbLine
 10
165.3744585152
 20
154.2450652857
 30
0.0
 11
163.3744585152
 21
154.2450652857
 31
0.0
  0
LINE
  5
8A
330
1F
100
AcDbEntity
  8
0
  6
Continuous
 62
     7
370
    15
100
AcDbLine
 10
234.7744585152
 20
151.3200652857
 30
0.0
 11
205.3744585152
 21
151.3200652857
 31
0.0
  0
LINE
  5
8B
330
1F
100
AcDbEntity
  8
0
  6
Continuous
 62
     7
370
    15
100
AcDbLine
 10
205.3744585152
 20
87.3200652857
 30
0.0
 11
234.7744585152
 21
87.3200652857
 31
0.0
  0
LINE
  5
8C
330
1F
100
AcDbEntity
  8
0
  6
Continuous
 62
     7
370
    15
100
AcDbLine
 10
234.7744585152
 20
87.3200652857
 30
0.0
 11
235.3744585152
 21
87.9200652857
 31
0.0
  0
LINE
  5
8D
330
1F
100
AcDbEntity
  8
0
  6
Continuous
 62
     7
370
    15
100
AcDbLine
 10
235.3744585152
 20
150.7200652857
 30
0.0
 11
234.7744585152
 21
151.3200652857
 31
0.0
  0
ARC
  5
8E
330
1F
100
AcDbEntity
  8
0
  6
Continuous
 62
     7
370
    15
100
AcDbCircle
 10
63.5744585152
 20
100.9703874249
 30
0.0
 40
2.0
100
AcDbArc
 50
180.0
 51
261.7028550302
  0
ARC
  5
8F
330
1F
100
AcDbEntity
  8
0
  6
Continuous
 62
     7
370
    15
100
AcDbCircle
 10
63.5744585152
 20
137.6697431464
 30
0.0
 40
2.0
100
AcDbArc
 50
98.2971449698
 51
180.0
  0
SPLINE
  5
90
330
1F
100
AcDbEntity
  8
0
  6
Continuous
 62
     7
370
    15
100
AcDbSpline
210
0.0
220
0.0
230
1.0
 70
    24
 71
     3
 72
    11
 73
     7
 74
     0
 42
0.000000001
 43
0.00000001
 40
0.0
 40
0.0
 40
0.0
 40
0.0
 40
0.1336647920874077
 40
0.482547360825976
 40
0.815635656150373
 40
0.9999999999999999
 40
0.9999999999999999
 40
0.9999999999999999
 40
0.9999999999999999
 10
218.9058066030278
 20
122.7587758836006
 30
0.0
 10
219.0393337627205
 20
122.701935764705
 30
0.0
 10
219.5213842526221
 20
122.4967355101443
 30
0.0
 10
220.4219129079275
 20
122.1133966002604
 30
0.0
 10
221.3890711346229
 20
121.701694675927
 30
0.0
 10
221.9081865243067
 20
121.4807165577817
 30
0.0
 10
222.0931432932084
 20
121.4019837759332
 30
0.0
  0
SPLINE
  5
91
330
1F
100
AcDbEntity
  8
0
  6
Continuous
 62
     7
370
    15
100
AcDbSpline
210
0.0
220
0.0
230
1.0
 70
    24
 71
     3
 72
    10
 73
     6
 74
     0
 42
0.000000001
 43
0.00000001
 40
0.0
 40
0.0
 40
0.0
 40
0.0
 40
0.4391279203157601
 40
0.7513760035667072
 40
0.9999999999999999
 40
0.9999999999999999
 40
0.9999999999999999
 40
0.9999999999999999
 10
216.1371218250433
 20
120.6768573933236
 30
0.0
 10
216.5334915602249
 20
120.9749084705797
 30
0.0
 10
217.2117055698042
 20
121.484892957848
 30
0.0
 10
218.1975931650572
 20
122.2262332614509
 30
0.0
 10
218.68828997698
 20
122.5952137875063
 30
0.0
 10
218.9058066030278
 20
122.7587758836006
 30
0.0
  0
SPLINE
  5
92
330
1F
100
AcDbEntity
  8
0
  6
Continuous
 62
     7
370
    15
100
AcDbSpline
210
0.0
220
0.0
230
1.0
 70
    24
 71
     3
 72
    10
 73
     6
 74
     0
 42
0.000000001
 43
0.00000001
 40
0.0
 40
0.0
 40
0.0
 40
0.0
 40
0.4391279203157566
 40
0.7513760035667034
 40
1.0
 40
1.0
 40
1.0
 40
1.0
 10
216.5557737372395
 20
117.2381467953793
 30
0.0
 10
216.4958388003012
 20
117.730438593966
 30
0.0
 10
216.3932862835806
 20
118.5727813990983
 30
0.0
 10
216.2442105454376
 20
119.7972552536647
 30
0.0
 10
216.1700124423334
 20
120.4067014213736
 30
0.0
 10
216.1371218250433
 20
120.6768573933236
 30
0.0
  0
SPLINE
  5
93
330
1F
100
AcDbEntity
  8
0
  6
Continuous
 62
     7
370
    15
100
AcDbSpline
210
0.0
220
0.0
230
1.0
 70
    24
 71
     3
 72
    11
 73
     7
 74
     0
 42
0.000000001
 43
0.00000001
 40
0.0
 40
0.0
 40
0.0
 40
0.0
 40
0.1843643438496246
 40
0.5174526391740262
 40
0.8663352079126
 40
1.0
 40
1.0
 40
1.0
 40
1.0
 10
219.7431104274201
 20
115.881354687712
 30
0.0
 10
219.5581536585184
 20
115.9600874695604
 30
0.0
 10
219.0390382688346
 20
116.1810655877057
 30
0.0
 10
218.0718800421392
 20
116.5927675120391
 30
0.0
 10
217.1713513868338
 20
116.976106421923
 30
0.0
 10
216.6893008969322
 20
117.1813066764837
 30
0.0
 10
216.5557737372395
 20
117.2381467953793
 30
0.0
  0
SPLINE
  5
94
330
1F
100
AcDbEntity
  8
0
  6
Continuous
 62
     7
370
    15
100
AcDbSpline
210
0.0
220
0.0
230
1.0
 70
    24
 71
     3
 72
    10
 73
     6
 74
     0
 42
0.000000001
 43
0.00000001
 40
0.0
 40
0.0
 40
0.0
 40
0.0
 40
0.4391279203157592
 40
0.751376003566706
 40
1.0
 40
1.0
 40
1.0
 40
1.0
 10
222.5117952054046
 20
117.9632731779889
 30
0.0
 10
222.115425470223
 20
117.6652221007329
 30
0.0
 10
221.4372114606437
 20
117.1552376134646
 30
0.0
 10
220.4513238653908
 20
116.4138973098616
 30
0.0
 10
219.9606270534679
 20
116.0449167838063
 30
0.0
 10
219.7431104274201
 20
115.881354687712
 30
0.0
  0
SPLINE
  5
95
330
1F
100
AcDbEntity
  8
0
  6
Continuous
 62
     7
370
    15
100
AcDbSpline
210
0.0
220
0.0
230
1.0
 70
    24
 71
     3
 72
    10
 73
     6
 74
     0
 42
0.000000001
 43
0.00000001
 40
0.0
 40
0.0
 40
0.0
 40
0.0
 40
0.4391279203157574
 40
0.7513760035667065
 40
1.0
 40
1.0
 40
1.0
 40
1.0
 10
222.0931432932084
 20
121.4019837759332
 30
0.0
 10
222.1530782301467
 20
120.9096919773466
 30
0.0
 10
222.2556307468674
 20
120.0673491722143
 30
0.0
 10
222.4047064850103
 20
118.8428753176479
 30
0.0
 10
222.4789045881146
 20
118.233429149939
 30
0.0
 10
222.5117952054046
 20
117.9632731779889
 30
0.0
  0
CIRCLE
  5
96
330
1F
100
AcDbEntity
  8
0
  6
Continuous
 62
     7
370
    15
100
AcDbCircle
 10
219.3244585152
 20
119.3200652857
 30
0.0
 40
3.500000000000001
  0
CIRCLE
  5
97
330
1F
100
AcDbEntity
  8
0
  6
Continuous
 62
     7
370
    15
100
AcDbCircle
 10
219.3244585152
 20
119.3200652857
 30
0.0
 40
5.500000000000007
  0
CIRCLE
  5
98
330
1F
100
AcDbEntity
  8
0
  6
Continuous
 62
     7
370
    15
100
AcDbCircle
 10
219.3244585152
 20
119.3200652857
 30
0.0
 40
6.000000000000001
  0
ARC
  5
99
330
1F
100
AcDbEntity
  8
0
  6
Continuous
 62
     7
370
    15
100
AcDbCircle
 10
219.3244585152
 20
119.3200652857
 30
0.0
 40
3.000000000000005
100
AcDbArc
 50
66.9414148154
 51
126.9414148154
  0
ARC
  5
9A
330
1F
100
AcDbEntity
  8
0
  6
Continuous
 62
     7
370
    15
100
AcDbCircle
 10
219.3244585152
 20
119.3200652857
 30
0.0
 40
3.000000000000021
100
AcDbArc
 50
246.9414148154
 51
306.9414148154
  0
ARC
  5
9B
330
1F
100
AcDbEntity
  8
0
  6
Continuous
 62
     7
370
    15
100
AcDbCircle
 10
219.3244585152
 20
119.3200652857
 30
0.0
 40
3.000000000000021
100
AcDbArc
 50
306.9414148154
 51
6.9414148154
  0
ARC
  5
9C
330
1F
100
AcDbEntity
  8
0
  6
Continuous
 62
     7
370
    15
100
AcDbCircle
 10
219.3244585152
 20
119.3200652857
 30
0.0
 40
3.000000000000005
100
AcDbArc
 50
6.9414148154
 51
66.9414148154
  0
ARC
  5
9D
330
1F
100
AcDbEntity
  8
0
  6
Continuous
 62
     7
370
    15
100
AcDbCircle
 10
219.3244585152
 20
119.3200652857
 30
0.0
 40
2.999999999999998
100
AcDbArc
 50
186.9414148154
 51
246.9414148154
  0
ARC
  5
9E
330
1F
100
AcDbEntity
  8
0
  6
Continuous
 62
     7
370
    15
100
AcDbCircle
 10
219.3244585152
 20
119.3200652857
 30
0.0
 40
2.999999999999981
100
AcDbArc
 50
126.9414148154
 51
186.9414148154
  0
SPLINE
  5
9F
330
1F
100
AcDbEntity
  8
0
  6
Continuous
 62
     7
370
    15
100
AcDbSpline
210
0.0
220
0.0
230
1.0
 70
     8
 71
     3
 72
    12
 73
     8
 74
     0
 42
0.000000001
 43
0.00000001
 40
0.0
 40
0.0
 40
0.0
 40
0.0
 40
0.5000000000000001
 40
0.5000000000000001
 40
0.75
 40
0.75
 40
1.0
 40
1.0
 40
1.0
 40
1.0
 10
193.4587381800675
 20
167.5261122373574
 30
0.0
 10
192.9198414849699
 20
166.4684124198564
 30
0.0
 10
192.3575106742502
 20
165.3660439848978
 30
0.0
 10
191.4888444316598
 20
163.666079378535
 30
0.0
 10
191.1945157093173
 20
163.0905609630964
 30
0.0
 10
190.6009847103495
 20
161.9311322946379
 30
0.0
 10
190.301758452231
 20
161.3471726255565
 30
0.0
 10
190.0002716039777
 20
160.7594626649678
 30
0.0
  0
SPLINE
  5
A0
330
1F
100
AcDbEntity
  8
0
  6
Continuous
 62
     7
370
    15
100
AcDbSpline
210
0.0
220
0.0
230
1.0
 70
     8
 71
     3
 72
     9
 73
     5
 74
     0
 42
0.000000001
 43
0.00000001
 40
0.0
 40
0.0
 40
0.0
 40
0.0
 40
0.504794330390352
 40
1.0
 40
1.0
 40
1.0
 40
1.0
 10
194.0994349206361
 20
168.4801705357439
 30
0.0
 10
193.9910524861354
 20
168.3193289744546
 30
0.0
 10
193.7763463613323
 20
168.0007010667979
 30
0.0
 10
193.5639189325207
 20
167.6833268402101
 30
0.0
 10
193.4587236653927
 20
167.5261613238158
 30
0.0
  0
LINE
  5
A1
330
1F
100
AcDbEntity
  8
0
  6
Continuous
 62
     7
370
    15
100
AcDbLine
 10
194.0994585152
 20
70.1599040003
 30
0.0
 11
194.0994585152
 21
168.480226571
 31
0.0
  0
SPLINE
  5
A2
330
1F
100
AcDbEntity
  8
0
  6
Continuous
 62
     7
370
    15
100
AcDbSpline
210
0.0
220
0.0
230
1.0
 70
     8
 71
     3
 72
     9
 73
     5
 74
     0
 42
0.000000001
 43
0.00000001
 40
0.0
 40
0.0
 40
0.0
 40
0.0
 40
0.4952056715554214
 40
1.0
 40
1.0
 40
1.0
 40
1.0
 10
193.4587236653927
 20
71.11396924749707
 30
0.0
 10
193.5639189329376
 20
70.95680373047874
 30
0.0
 10
193.7763463617561
 20
70.63942950387775
 30
0.0
 10
193.9910524865552
 20
70.32080159623251
 30
0.0
 10
194.0994349206361
 20
70.15996003556904
 30
0.0
  0
SPLINE
  5
A3
330
1F
100
AcDbEntity
  8
0
  6
Continuous
 62
     7
370
    15
100
AcDbSpline
210
0.0
220
0.0
230
1.0
 70
     8
 71
     3
 72
    12
 73
     8
 74
     0
 42
0.000000001
 43
0.00000001
 40
0.0
 40
0.0
 40
0.0
 40
0.0
 40
0.2499999999999993
 40
0.2499999999999993
 40
0.4999999999999986
 40
0.4999999999999986
 40
1.0
 40
1.0
 40
1.0
 40
1.0
 10
193.4587381478285
 20
71.11401839723125
 30
0.0
 10
193.1894006264597
 20
71.64265078591589
 30
0.0
 10
192.9136305090656
 20
72.1835754398626
 30
0.0
 10
192.3513702224599
 20
73.28563219422566
 30
0.0
 10
192.0642848490552
 20
73.84792903346246
 30
0.0
 10
191.1938584083359
 20
75.55132426878245
 30
0.0
 10
190.6018484121666
 20
76.70797103986455
 30
0.0
 10
190.0002716039777
 20
77.8806679063452
 30
0.0
  0
SPLINE
  5
A4
330
1F
100
AcDbEntity
  8
0
  6
Continuous
 62
     7
370
    15
100
AcDbSpline
210
0.0
220
0.0
230
1.0
 70
     8
 71
     3
 72
    12
 73
     8
 74
     0
 42
0.000000001
 43
0.00000001
 40
0.0
 40
0.0
 40
0.0
 40
0.0
 40
0.000512515335492
 40
0.2509311781568301
 40
0.5009716914398246
 40
0.7506335204405247
 40
1.0
 40
1.0
 40
1.0
 40
1.0
 10
197.3740243342939
 20
169.3199402434728
 30
0.0
 10
197.3741687909807
 20
169.3199819167902
 30
0.0
 10
197.4448958192748
 20
169.3403854713791
 30
0.0
 10
197.2016322590183
 20
169.2687738399904
 30
0.0
 10
196.5961076447864
 20
169.1004206315196
 30
0.0
 10
195.5709439603632
 20
168.8230870410627
 30
0.0
 10
194.5897600931414
 20
168.5944682917389
 30
0.0
 10
194.099458515911
 20
168.4802265709743
 30
0.0
  0
SPLINE
  5
A5
330
1F
100
AcDbEntity
  8
0
  6
Continuous
 62
     7
370
    15
100
AcDbSpline
210
0.0
220
0.0
230
1.0
 70
     8
 71
     3
 72
    13
 73
     9
 74
     0
 42
0.000000001
 43
0.00000001
 40
0.0
 40
0.0
 40
0.0
 40
0.0
 40
0.249249238042121
 40
0.4988437701386194
 40
0.6658825660857411
 40
0.8320256711231946
 40
0.9994886337290221
 40
0.9999999999999999
 40
0.9999999999999999
 40
0.9999999999999999
 40
0.9999999999999999
 10
194.099458515911
 20
70.15990400033866
 30
0.0
 10
194.5906432393307
 20
70.0454164766487
 30
0.0
 10
195.5736931422707
 20
69.81628282552921
 30
0.0
 10
196.4727365670808
 20
69.57307307437898
 30
0.0
 10
197.0310614677663
 20
69.41913586699361
 30
0.0
 10
197.2967326924755
 20
69.34288230814334
 30
0.0
 10
197.4056269384913
 20
69.31096812382084
 30
0.0
 10
197.374266758673
 20
69.32012103776374
 30
0.0
 10
197.3741712885001
 20
69.32014890208981
 30
0.0
  0
LINE
  5
A6
330
1F
100
AcDbEntity
  8
0
  6
Continuous
 62
     7
370
    15
100
AcDbLine
 10
201.3744585152
 20
70.3200652857
 30
0.0
 11
201.3744585152
 21
168.320065276
 31
0.0
  0
LINE
  5
A7
330
1F
100
AcDbEntity
  8
0
  6
Continuous
 62
     7
370
    15
100
AcDbLine
 10
166.3744585152
 20
72.3181770257
 30
0.0
 11
166.3744585152
 21
166.3219535456
 31
0.0
  0
SPLINE
  5
A8
330
1F
100
AcDbEntity
  8
0
  6
Continuous
 62
     7
370
    15
100
AcDbSpline
210
0.0
220
0.0
230
1.0
 70
     8
 71
     3
 72
    12
 73
     8
 74
     0
 42
0.000000001
 43
0.00000001
 40
0.0
 40
0.0
 40
0.0
 40
0.0
 40
0.2500000000000004
 40
0.2500000000000004
 40
0.5000000000000009
 40
0.5000000000000009
 40
1.0
 40
1.0
 40
1.0
 40
1.0
 10
166.7605949352738
 20
167.2544990195277
 30
0.0
 10
166.708964813164
 20
167.1982947488131
 30
0.0
 10
166.6604325801735
 20
167.1370053382927
 30
0.0
 10
166.5706074432157
 20
167.002543264248
 30
0.0
 10
166.5288971700032
 20
166.9284241940052
 30
0.0
 10
166.4227657898411
 20
166.6921165488367
 30
0.0
 10
166.374458515224
 20
166.5102930061868
 30
0.0
 10
166.374458515224
 20
166.3219535455977
 30
0.0
  0
SPLINE
  5
A9
330
1F
100
AcDbEntity
  8
0
  6
Continuous
 62
     7
370
    15
100
AcDbSpline
210
0.0
220
0.0
230
1.0
 70
     8
 71
     3
 72
     8
 73
     4
 74
     0
 42
0.000000001
 43
0.00000001
 40
0.0
 40
0.0
 40
0.0
 40
0.0
 40
1.0
 40
1.0
 40
1.0
 40
1.0
 10
167.374458515224
 20
167.4251567811208
 30
0.0
 10
167.1475642715242
 20
167.4251567811208
 30
0.0
 10
166.9297146255979
 20
167.361144614152
 30
0.0
 10
166.7605949352738
 20
167.2544990195277
 30
0.0
  0
SPLINE
  5
AA
330
1F
100
AcDbEntity
  8
0
  6
Continuous
 62
     7
370
    15
100
AcDbSpline
210
0.0
220
0.0
230
1.0
 70
     8
 71
     3
 72
    10
 73
     6
 74
     0
 42
0.000000001
 43
0.00000001
 40
0.0
 40
0.0
 40
0.0
 40
0.0
 40
0.5
 40
0.5
 40
1.0
 40
1.0
 40
1.0
 40
1.0
 10
166.7605949352737
 20
71.38563155178522
 30
0.0
 10
166.8452055760045
 20
71.33227672317253
 30
0.0
 10
166.940440198111
 20
71.28970726122233
 30
0.0
 10
167.1504775572909
 20
71.23042492654136
 30
0.0
 10
167.2609094620751
 20
71.21497379019212
 30
0.0
 10
167.374458515224
 20
71.21497379019212
 30
0.0
  0
SPLINE
  5
AB
330
1F
100
AcDbEntity
  8
0
  6
Continuous
 62
     7
370
    15
100
AcDbSpline
210
0.0
220
0.0
230
1.0
 70
     8
 71
     3
 72
    12
 73
     8
 74
     0
 42
0.000000001
 43
0.00000001
 40
0.0
 40
0.0
 40
0.0
 40
0.0
 40
0.2500000000000039
 40
0.2500000000000039
 40
0.5000000000000079
 40
0.5000000000000079
 40
1.0
 40
1.0
 40
1.0
 40
1.0
 10
166.7605949352737
 20
71.38563155178522
 30
0.0
 10
166.708964813164
 20
71.44183582249985
 30
0.0
 10
166.6604325801735
 20
71.50312523302027
 30
0.0
 10
166.5706074432156
 20
71.63758730706496
 30
0.0
 10
166.5288971700032
 20
71.71170637730778
 30
0.0
 10
166.4227657898411
 20
71.94801402247624
 30
0.0
 10
166.374458515224
 20
72.12983756512614
 30
0.0
 10
166.374458515224
 20
72.31817702571524
 30
0.0
  0
LINE
  5
AC
330
1F
100
AcDbEntity
  8
0
  6
Continuous
 62
     7
370
    15
100
AcDbLine
 10
179.0494585152
 20
167.4251567811
 30
0.0
 11
167.3744585152
 21
167.4251567811
 31
0.0
  0
LINE
  5
AD
330
1F
100
AcDbEntity
  8
0
  6
Continuous
 62
     7
370
    15
100
AcDbLine
 10
179.0494585152
 20
71.2149737902
 30
0.0
 11
179.0494585152
 21
167.4251567811
 31
0.0
  0
LINE
  5
AE
330
1F
100
AcDbEntity
  8
0
  6
Continuous
 62
     7
370
    15
100
AcDbLine
 10
167.3744585152
 20
71.2149737902
 30
0.0
 11
179.0494585152
 21
71.2149737902
 31
0.0
  0
SPLINE
  5
AF
330
1F
100
AcDbEntity
  8
0
  6
Continuous
 62
     7
370
    15
100
AcDbSpline
210
0.0
220
0.0
230
1.0
 70
     8
 71
     3
 72
     8
 73
     4
 74
     0
 42
0.000000001
 43
0.00000001
 40
0.0
 40
0.0
 40
0.0
 40
0.0
 40
0.0012417047560384
 40
0.0012417047560384
 40
0.0012417047560384
 40
0.0012417047560384
 10
179.6070275517517
 20
166.6406354395775
 30
0.0
 10
179.4216390004573
 20
166.902308525126
 30
0.0
 10
179.2357727548494
 20
167.1638126340036
 30
0.0
 10
179.049458515224
 20
167.4251567811208
 30
0.0
  0
SPLINE
  5
B0
330
1F
100
AcDbEntity
  8
0
  6
Continuous
 62
     7
370
    15
100
AcDbSpline
210
0.0
220
0.0
230
1.0
 70
     8
 71
     3
 72
     8
 73
     4
 74
     0
 42
0.000000001
 43
0.00000001
 40
0.0
 40
0.0
 40
0.0
 40
0.0
 40
1.0
 40
1.0
 40
1.0
 40
1.0
 10
183.1486454264703
 20
160.2503413658395
 30
0.0
 10
181.9736579505674
 20
162.3834181207754
 30
0.0
 10
180.7924114164711
 20
164.5131366866515
 30
0.0
 10
179.6070275517517
 20
166.6406354395775
 30
0.0
  0
SPLINE
  5
B1
330
1F
100
AcDbEntity
  8
0
  6
Continuous
 62
     7
370
    15
100
AcDbSpline
210
0.0
220
0.0
230
1.0
 70
     8
 71
     3
 72
     8
 73
     4
 74
     0
 42
0.000000001
 43
0.00000001
 40
0.0
 40
0.0
 40
0.0
 40
0.0
 40
1.0
 40
1.0
 40
1.0
 40
1.0
 10
183.1486454264703
 20
78.38978920547349
 30
0.0
 10
181.9736086286434
 20
76.25662291132815
 30
0.0
 10
180.7923614212044
 20
74.12690415434646
 30
0.0
 10
179.6070275517517
 20
71.9994951317355
 30
0.0
  0
SPLINE
  5
B2
330
1F
100
AcDbEntity
  8
0
  6
Continuous
 62
     7
370
    15
100
AcDbSpline
210
0.0
220
0.0
230
1.0
 70
     8
 71
     3
 72
     8
 73
     4
 74
     0
 42
0.000000001
 43
0.00000001
 40
0.0
 40
0.0
 40
0.0
 40
0.0
 40
0.0012417047560385
 40
0.0012417047560385
 40
0.0012417047560385
 40
0.0012417047560385
 10
179.049458515224
 20
71.2149737901921
 30
0.0
 10
179.2357727548494
 20
71.47631793730935
 30
0.0
 10
179.4216390004573
 20
71.73782204618693
 30
0.0
 10
179.6070275517517
 20
71.9994951317355
 30
0.0
  0
SPLINE
  5
B3
330
1F
100
AcDbEntity
  8
0
  6
Continuous
 62
     7
370
    15
100
AcDbSpline
210
0.0
220
0.0
230
1.0
 70
     8
 71
     3
 72
    10
 73
     6
 74
     0
 42
0.000000001
 43
0.00000001
 40
0.0
 40
0.0
 40
0.0
 40
0.0
 40
0.5
 40
0.5
 40
1.0
 40
1.0
 40
1.0
 40
1.0
 10
183.524458515224
 20
78.7405340715073
 30
0.0
 10
183.4454584469727
 20
78.70476983689939
 30
0.0
 10
183.3717011966961
 20
78.65528023333995
 30
0.0
 10
183.2436460735629
 20
78.534991741837
 30
0.0
 10
183.1907960391513
 20
78.46630958884768
 30
0.0
 10
183.1486454264703
 20
78.38978920547348
 30
0.0
  0
SPLINE
  5
B4
330
1F
100
AcDbEntity
  8
0
  6
Continuous
 62
     7
370
    15
100
AcDbSpline
210
0.0
220
0.0
230
1.0
 70
     8
 71
     3
 72
    10
 73
     6
 74
     0
 42
0.000000001
 43
0.00000001
 40
0.0
 40
0.0
 40
0.0
 40
0.0
 40
0.5
 40
0.5
 40
1.0
 40
1.0
 40
1.0
 40
1.0
 10
183.524458515224
 20
159.8995964998056
 30
0.0
 10
183.4451720675413
 20
159.9354903816581
 30
0.0
 10
183.3716598484206
 20
159.9849920915091
 30
0.0
 10
183.24470739555
 20
160.1040397881777
 30
0.0
 10
183.1906415468134
 20
160.174101448446
 30
0.0
 10
183.1486454264703
 20
160.2503413658395
 30
0.0
  0
SPLINE
  5
B5
330
1F
100
AcDbEntity
  8
0
  6
Continuous
 62
     7
370
    15
100
AcDbSpline
210
0.0
220
0.0
230
1.0
 70
     8
 71
     3
 72
     8
 73
     4
 74
     0
 42
0.000000001
 43
0.00000001
 40
0.0
 40
0.0
 40
0.0
 40
0.0
 40
1.0
 40
1.0
 40
1.0
 40
1.0
 10
183.8414657494979
 20
159.8321374813191
 30
0.0
 10
183.7317639641962
 20
159.8312790641198
 30
0.0
 10
183.6244169432117
 20
159.8543441759946
 30
0.0
 10
183.524458515224
 20
159.8995964998055
 30
0.0
  0
SPLINE
  5
B6
330
1F
100
AcDbEntity
  8
0
  6
Continuous
 62
     7
370
    15
100
AcDbSpline
210
0.0
220
0.0
230
1.0
 70
     8
 71
     3
 72
     8
 73
     4
 74
     0
 42
0.000000001
 43
0.00000001
 40
0.0
 40
0.0
 40
0.0
 40
0.0
 40
1.0
 40
1.0
 40
1.0
 40
1.0
 10
183.8414657494979
 20
78.80799308999383
 30
0.0
 10
183.7317639641962
 20
78.80885150719317
 30
0.0
 10
183.6244169432117
 20
78.78578639531835
 30
0.0
 10
183.5244585152239
 20
78.74053407150744
 30
0.0
  0
SPLINE
  5
B7
330
1F
100
AcDbEntity
  8
0
  6
Continuous
 62
     7
370
    15
100
AcDbSpline
210
0.0
220
0.0
230
1.0
 70
     8
 71
     3
 72
    12
 73
     8
 74
     0
 42
0.000000001
 43
0.00000001
 40
0.0
 40
0.0
 40
0.0
 40
0.0
 40
0.2499999999999951
 40
0.2499999999999951
 40
0.4999999999999902
 40
0.4999999999999902
 40
1.0
 40
1.0
 40
1.0
 40
1.0
 10
190.0002716039777
 20
160.7594626649678
 30
0.0
 10
189.9640511825907
 20
160.688855596868
 30
0.0
 10
189.9211255079429
 20
160.6251210055423
 30
0.0
 10
189.8235989246839
 20
160.5093468292938
 30
0.0
 10
189.7681674050672
 20
160.4567989852823
 30
0.0
 10
189.5896795021631
 20
160.322650382068
 30
0.0
 10
189.4528426735152
 20
160.2621282800041
 30
0.0
 10
189.3074512809508
 20
160.2415816960757
 30
0.0
  0
SPLINE
  5
B8
330
1F
100
AcDbEntity
  8
0
  6
Continuous
 62
     7
370
    15
100
AcDbSpline
210
0.0
220
0.0
230
1.0
 70
     8
 71
     3
 72
    12
 73
     8
 74
     0
 42
0.000000001
 43
0.00000001
 40
0.0
 40
0.0
 40
0.0
 40
0.0
 40
0.2499999999999957
 40
0.2499999999999957
 40
0.4999999999999913
 40
0.4999999999999913
 40
1.0
 40
1.0
 40
1.0
 40
1.0
 10
190.0002716039777
 20
77.88066790634518
 30
0.0
 10
189.9640511825907
 20
77.9512749744451
 30
0.0
 10
189.9211255079428
 20
78.01500956577081
 30
0.0
 10
189.8235989246838
 20
78.13078374201923
 30
0.0
 10
189.7681674050672
 20
78.18333158603066
 30
0.0
 10
189.5896795021629
 20
78.31748018924505
 30
0.0
 10
189.4528426735152
 20
78.37800229130885
 30
0.0
 10
189.3074512809508
 20
78.39854887523725
 30
0.0
  0
SPLINE
  5
B9
330
1F
100
AcDbEntity
  8
0
  6
Continuous
 62
     7
370
    15
100
AcDbSpline
210
0.0
220
0.0
230
1.0
 70
    11
 71
     3
 72
    66
 73
    62
 74
     0
 42
0.000000001
 43
0.00000001
 40
0.0
 40
0.0
 40
0.0
 40
0.0
 40
0.0312500000000001
 40
0.0312500000000001
 40
0.0625000000000003
 40
0.0625000000000003
 40
0.0937500000000004
 40
0.0937500000000004
 40
0.1250000000000006
 40
0.1250000000000006
 40
0.1562500000000007
 40
0.1562500000000007
 40
0.1875000000000009
 40
0.1875000000000009
 40
0.218750000000001
 40
0.218750000000001
 40
0.2500000000000012
 40
0.2500000000000012
 40
0.2812500000000013
 40
0.2812500000000013
 40
0.3125000000000014
 40
0.3125000000000014
 40
0.3437500000000016
 40
0.3437500000000016
 40
0.3750000000000018
 40
0.3750000000000018
 40
0.4062500000000019
 40
0.4062500000000019
 40
0.4375000000000021
 40
0.4375000000000021
 40
0.4687500000000022
 40
0.4687500000000022
 40
0.5000000000000023
 40
0.5000000000000023
 40
0.5312500000000024
 40
0.5312500000000024
 40
0.5625000000000027
 40
0.5625000000000027
 40
0.6250000000000022
 40
0.6250000000000022
 40
0.6562500000000021
 40
0.6562500000000021
 40
0.6875000000000019
 40
0.6875000000000019
 40
0.7187500000000017
 40
0.7187500000000017
 40
0.7500000000000014
 40
0.7500000000000014
 40
0.7812500000000013
 40
0.7812500000000013
 40
0.8125000000000011
 40
0.8125000000000011
 40
0.8437500000000009
 40
0.8437500000000009
 40
0.8750000000000008
 40
0.8750000000000008
 40
0.9062500000000006
 40
0.9062500000000006
 40
0.9375000000000003
 40
0.9375000000000003
 40
1.0
 40
1.0
 40
1.0
 40
1.0
 10
186.574458515224
 20
102.4601479748132
 30
0.0
 10
186.7396588058879
 20
102.4601479748132
 30
0.0
 10
186.9020913471844
 20
102.475054004171
 30
0.0
 10
187.2216495027745
 20
102.5334891829134
 30
0.0
 10
187.3804328407515
 20
102.5777302352891
 30
0.0
 10
187.6831708572309
 20
102.6933217807116
 30
0.0
 10
187.8267500223652
 20
102.7640977509303
 30
0.0
 10
188.0984797522332
 20
102.9315362828429
 30
0.0
 10
188.2271083157709
 20
103.0290755551636
 30
0.0
 10
188.4576740774381
 20
103.242493915365
 30
0.0
 10
188.5611480786875
 20
103.3591085673911
 30
0.0
 10
188.7439086166133
 20
103.6128339314109
 30
0.0
 10
188.8215528728419
 20
103.7481267904796
 30
0.0
 10
188.946245523532
 20
104.0284731458712
 30
0.0
 10
188.9942495041104
 20
104.1755940217073
 30
0.0
 10
189.0584812464287
 20
104.4775841260846
 30
0.0
 10
189.0743706904709
 20
104.6297078936538
 30
0.0
 10
189.074545620826
 20
104.93619053648
 30
0.0
 10
189.0583149694911
 20
105.0921764575457
 30
0.0
 10
188.9945337467815
 20
105.394755926515
 30
0.0
 10
188.9473416353853
 20
105.5421344379072
 30
0.0
 10
188.8221750177273
 20
105.8289231432849
 30
0.0
 10
188.7439155303523
 20
105.9678802448228
 30
0.0
 10
188.562995346997
 20
106.2254739050908
 30
0.0
 10
188.4597101180731
 20
106.3457664487918
 30
0.0
 10
188.2264583760244
 20
106.5684872664385
 30
0.0
 10
188.1000445077588
 20
106.6674651704303
 30
0.0
 10
187.8293722370642
 20
106.8406820250395
 30
0.0
 10
187.6832904648998
 20
106.9156630625163
 30
0.0
 10
187.380406019427
 20
107.035991232612
 30
0.0
 10
187.2245756597873
 20
107.0813749201012
 30
0.0
 10
186.9042301705219
 20
107.1428011805222
 30
0.0
 10
186.7385200845502
 20
107.158554802042
 30
0.0
 10
186.4121886958537
 20
107.1586670472974
 30
0.0
 10
186.2500016100268
 20
107.1435348173914
 30
0.0
 10
185.9276260288182
 20
107.082282704211
 30
0.0
 10
185.7696105547807
 20
107.0362759608357
 30
0.0
 10
185.3181996797051
 20
106.8573952315938
 30
0.0
 10
185.0391202226529
 20
106.6792431242948
 30
0.0
 10
184.6930465181546
 20
106.3497467080078
 30
0.0
 10
184.5874045022399
 20
106.2273738681678
 30
0.0
 10
184.4056210262692
 20
105.9689711640532
 30
0.0
 10
184.3287332028852
 20
105.8327395985049
 30
0.0
 10
184.2030786455148
 20
105.5463041366188
 30
0.0
 10
184.1547705696002
 20
105.3959970520433
 30
0.0
 10
184.0909526841598
 20
105.0944291219588
 30
0.0
 10
184.074624507117
 20
104.9415630594943
 30
0.0
 10
184.0742950170573
 20
104.6315479427508
 30
0.0
 10
184.090391528892
 20
104.4786789423981
 30
0.0
 10
184.1536202661532
 20
104.1796461766233
 30
0.0
 10
184.2014568595637
 20
104.0315805802004
 30
0.0
 10
184.3268001774771
 20
103.7490235420549
 30
0.0
 10
184.4034968520023
 20
103.6154072099312
 30
0.0
 10
184.5845482186541
 20
103.363117339999
 30
0.0
 10
184.690023829015
 20
103.2437740309312
 30
0.0
 10
184.9205503976912
 20
103.0300902514464
 30
0.0
 10
185.0462698353215
 20
102.9344302767866
 30
0.0
 10
185.3190366845184
 20
102.7657092077828
 30
0.0
 10
185.4647560609244
 20
102.6938419991295
 30
0.0
 10
185.9158251660324
 20
102.5211909218611
 30
0.0
 10
186.2440579338962
 20
102.4601479748132
 30
0.0
 10
186.574458515224
 20
102.4601479748132
 30
0.0
  0
SPLINE
  5
BA
330
1F
100
AcDbEntity
  8
0
  6
Continuous
 62
     7
370
    15
100
AcDbSpline
210
0.0
220
0.0
230
1.0
 70
     8
 71
     3
 72
    10
 73
     6
 74
     0
 42
0.000000001
 43
0.00000001
 40
0.0
 40
0.0
 40
0.0
 40
0.0
 40
0.5
 40
0.5
 40
1.0
 40
1.0
 40
1.0
 40
1.0
 10
189.3074512809501
 20
160.2415816960785
 30
0.0
 10
188.4598869141819
 20
160.1218046440175
 30
0.0
 10
187.57917347846
 20
160.0231144643537
 30
0.0
 10
185.7516172272444
 20
159.8818420581165
 30
0.0
 10
184.7981848241431
 20
159.8396238144389
 30
0.0
 10
183.8414657494979
 20
159.8321374813191
 30
0.0
  0
SPLINE
  5
BB
330
1F
100
AcDbEntity
  8
0
  6
Continuous
 62
     7
370
    15
100
AcDbSpline
210
0.0
220
0.0
230
1.0
 70
     8
 71
     3
 72
    10
 73
     6
 74
     0
 42
0.000000001
 43
0.00000001
 40
0.0
 40
0.0
 40
0.0
 40
0.0
 40
0.5
 40
0.5
 40
1.0
 40
1.0
 40
1.0
 40
1.0
 10
189.3074512809501
 20
78.39854887523443
 30
0.0
 10
188.4598869141819
 20
78.51832592729546
 30
0.0
 10
187.57917347846
 20
78.61701610695928
 30
0.0
 10
185.7516172272444
 20
78.7582885131964
 30
0.0
 10
184.7981848241431
 20
78.80050675687403
 30
0.0
 10
183.8414657494979
 20
78.80799308999384
 30
0.0
  0
LINE
  5
BC
330
1F
100
AcDbEntity
  8
0
  6
Continuous
 62
     7
370
    15
100
AcDbLine
 10
163.3744585152
 20
84.3950652857
 30
0.0
 11
163.3744585152
 21
154.2450652857
 31
0.0
  0
SPLINE
  5
BD
330
1F
100
AcDbEntity
  8
0
  6
Continuous
 62
     7
370
    15
100
AcDbSpline
210
0.0
220
0.0
230
1.0
 70
    11
 71
     3
 72
    94
 73
    90
 74
     0
 42
0.000000001
 43
0.00000001
 40
0.0
 40
0.0
 40
0.0
 40
0.0
 40
0.0312500000000012
 40
0.0312500000000012
 40
0.0625000000000025
 40
0.0625000000000025
 40
0.0937500000000037
 40
0.0937500000000037
 40
0.1093750000000043
 40
0.1093750000000043
 40
0.125000000000005
 40
0.125000000000005
 40
0.1562500000000057
 40
0.1562500000000057
 40
0.1718750000000059
 40
0.1718750000000059
 40
0.187500000000006
 40
0.187500000000006
 40
0.2187500000000063
 40
0.2187500000000063
 40
0.2343750000000062
 40
0.2343750000000062
 40
0.2500000000000061
 40
0.2500000000000061
 40
0.2812500000000064
 40
0.2812500000000064
 40
0.3125000000000067
 40
0.3125000000000067
 40
0.3281250000000068
 40
0.3281250000000068
 40
0.3437500000000068
 40
0.3437500000000068
 40
0.3750000000000069
 40
0.3750000000000069
 40
0.390625000000007
 40
0.390625000000007
 40
0.406250000000007
 40
0.406250000000007
 40
0.4218750000000071
 40
0.4218750000000071
 40
0.4375000000000071
 40
0.4375000000000071
 40
0.4687500000000068
 40
0.4687500000000068
 40
0.4843750000000066
 40
0.4843750000000066
 40
0.5000000000000063
 40
0.5000000000000063
 40
0.5312500000000056
 40
0.5312500000000056
 40
0.5625000000000048
 40
0.5625000000000048
 40
0.5781250000000047
 40
0.5781250000000047
 40
0.5937500000000046
 40
0.5937500000000046
 40
0.6250000000000042
 40
0.6250000000000042
 40
0.6562500000000039
 40
0.6562500000000039
 40
0.6875000000000036
 40
0.6875000000000036
 40
0.7187500000000032
 40
0.7187500000000032
 40
0.7500000000000029
 40
0.7500000000000029
 40
0.7812500000000026
 40
0.7812500000000026
 40
0.8125000000000021
 40
0.8125000000000021
 40
0.8281250000000019
 40
0.8281250000000019
 40
0.8437500000000018
 40
0.8437500000000018
 40
0.8593750000000017
 40
0.8593750000000017
 40
0.8750000000000014
 40
0.8750000000000014
 40
0.906250000000001
 40
0.906250000000001
 40
0.9218750000000009
 40
0.9218750000000009
 40
0.9375000000000008
 40
0.9375000000000008
 40
0.9531250000000006
 40
0.9531250000000006
 40
0.9687500000000004
 40
0.9687500000000004
 40
1.0
 40
1.0
 40
1.0
 40
1.0
 10
214.4352044630752
 20
124.1625722706971
 30
0.0
 10
214.7854493108715
 20
124.4530125024772
 30
0.0
 10
215.158795524317
 20
124.7062647559442
 30
0.0
 10
215.9487685055434
 20
125.1438749060338
 30
0.0
 10
216.3685567220662
 20
125.3286847400331
 30
0.0
 10
217.2233489947955
 20
125.6185190496563
 30
0.0
 10
217.6609705735318
 20
125.7255369690022
 30
0.0
 10
218.3326904381452
 20
125.82974545527
 30
0.0
 10
218.5602733291262
 20
125.8550762341857
 30
0.0
 10
219.013996647143
 20
125.8858396877611
 30
0.0
 10
219.2401756791111
 20
125.8914029602041
 30
0.0
 10
219.9167156081857
 20
125.8793764208489
 30
0.0
 10
220.3650956979082
 20
125.8333165730779
 30
0.0
 10
221.0335998484034
 20
125.7056212835271
 30
0.0
 10
221.2565159527289
 20
125.6529286073166
 30
0.0
 10
221.6925244770557
 20
125.5295164768505
 30
0.0
 10
221.9065373593021
 20
125.4586914452271
 30
0.0
 10
222.5367614000149
 20
125.2191203840524
 30
0.0
 10
222.9412738907791
 20
125.0235540322959
 30
0.0
 10
223.5232667660653
 20
124.6728360515706
 30
0.0
 10
223.7131151709386
 20
124.5461079548283
 30
0.0
 10
224.0759763298922
 20
124.2784261820755
 30
0.0
 10
224.2500883927802
 20
124.1368583152281
 30
0.0
 10
224.7503978499783
 20
123.6887694183889
 30
0.0
 10
225.054839876659
 20
123.3591555476925
 30
0.0
 10
225.5994034848284
 20
122.6309111467956
 30
0.0
 10
225.8311889453089
 20
122.2426053775003
 30
0.0
 10
226.1123705231247
 20
121.6312182583997
 30
0.0
 10
226.1952433663339
 20
121.4221547413084
 30
0.0
 10
226.338219985208
 20
120.9929428291896
 30
0.0
 10
226.3985986740981
 20
120.7711538649797
 30
0.0
 10
226.5397850914966
 20
120.1036521326561
 30
0.0
 10
226.5823279680369
 20
119.6547536767556
 30
0.0
 10
226.5687534614361
 20
118.9755493814078
 30
0.0
 10
226.5509944960605
 20
118.7466807468807
 30
0.0
 10
226.4894211134093
 20
118.2947045452062
 30
0.0
 10
226.4459187175282
 20
118.0723425054985
 30
0.0
 10
226.3345360052981
 20
117.634558715349
 30
0.0
 10
226.266652536309
 20
117.4191378760846
 30
0.0
 10
226.1067480965388
 20
116.9951505010832
 30
0.0
 10
226.0140686259481
 20
116.7854159902141
 30
0.0
 10
225.7051800973184
 20
116.1779938331479
 30
0.0
 10
225.4587313098789
 20
115.8005917351098
 30
0.0
 10
225.0322679869305
 20
115.2727409514369
 30
0.0
 10
224.8797422006029
 20
115.1024693854205
 30
0.0
 10
224.561069836591
 20
114.7803693952656
 30
0.0
 10
224.3947139507013
 20
114.6280890004632
 30
0.0
 10
223.8755099721258
 20
114.1962622524902
 30
0.0
 10
223.5008929695773
 20
113.9405071941051
 30
0.0
 10
222.7061069139034
 20
113.4988959296714
 30
0.0
 10
222.2935644148841
 20
113.3168276910083
 30
0.0
 10
221.6531824592003
 20
113.0983577344731
 30
0.0
 10
221.4361008058511
 20
113.0347090273966
 30
0.0
 10
220.9945905590045
 20
112.9259614593793
 30
0.0
 10
220.7699430782333
 20
112.8809439694489
 30
0.0
 10
220.0977073266654
 20
112.7761497600843
 30
0.0
 10
219.6476230291495
 20
112.7451971315881
 30
0.0
 10
218.7436555084881
 20
112.7598539214331
 30
0.0
 10
218.2856826030144
 20
112.8066444771703
 30
0.0
 10
217.3968455127706
 20
112.9760562563473
 30
0.0
 10
216.9636009212609
 20
113.0979794668635
 30
0.0
 10
216.1196857251292
 20
113.4175270411979
 30
0.0
 10
215.7060729306943
 20
113.6175898246592
 30
0.0
 10
214.9348345964407
 20
114.0822161030823
 30
0.0
 10
214.5734933154871
 20
114.3474850902116
 30
0.0
 10
213.9016994959081
 20
114.94787674568
 30
0.0
 10
213.5904595254042
 20
115.2857594228383
 30
0.0
 10
213.0525673667449
 20
116.0051890602712
 30
0.0
 10
212.8215657225331
 20
116.3898228656121
 30
0.0
 10
212.5369327335422
 20
117.0077553893699
 30
0.0
 10
212.4523065165925
 20
117.2215711207535
 30
0.0
 10
212.3093075293575
 20
117.6518777735826
 30
0.0
 10
212.2502384681291
 20
117.8696321014799
 30
0.0
 10
212.1569046794371
 20
118.3103424492894
 30
0.0
 10
212.1226384377655
 20
118.5332981395378
 30
0.0
 10
212.0796437644116
 20
118.9845719167956
 30
0.0
 10
212.0710001480576
 20
119.2145309858292
 30
0.0
 10
212.0851855361731
 20
119.8987208399749
 30
0.0
 10
212.1467344251414
 20
120.3465649390225
 30
0.0
 10
212.314569391092
 20
121.0063526461546
 30
0.0
 10
212.3837630194171
 20
121.2255645919512
 30
0.0
 10
212.5447521072286
 20
121.6512154262674
 30
0.0
 10
212.6364669767579
 20
121.8580828708817
 30
0.0
 10
212.8412930142886
 20
122.2604957873968
 30
0.0
 10
212.9544075705296
 20
122.4560394002944
 30
0.0
 10
213.2017182113197
 20
122.8360178794889
 30
0.0
 10
213.3365457044918
 20
123.0211112118764
 30
0.0
 10
213.7651798673451
 20
123.550376734186
 30
0.0
 10
214.084959615279
 20
123.8721320389171
 30
0.0
 10
214.4352044630753
 20
124.1625722706972
 30
0.0
  0
LINE
  5
BE
330
1F
100
AcDbEntity
  8
0
  6
Continuous
 62
     7
370
    15
100
AcDbLine
 10
234.7744585152
 20
119.3200652857
 30
0.0
 11
234.7744585152
 21
87.3200652857
 31
0.0
  0
LINE
  5
BF
330
1F
100
AcDbEntity
  8
0
  6
Continuous
 62
     7
370
    15
100
AcDbLine
 10
234.7744585152
 20
151.3200652857
 30
0.0
 11
234.7744585152
 21
119.3200652857
 31
0.0
  0
LINE
  5
C0
330
1F
100
AcDbEntity
  8
0
  6
Continuous
 62
     7
370
    15
100
AcDbLine
 10
235.3744585152
 20
119.3200652857
 30
0.0
 11
235.3744585152
 21
87.9200652857
 31
0.0
  0
LINE
  5
C1
330
1F
100
AcDbEntity
  8
0
  6
Continuous
 62
     7
370
    15
100
AcDbLine
 10
235.3744585152
 20
150.7200652857
 30
0.0
 11
235.3744585152
 21
119.3200652857
 31
0.0
  0
LINE
  5
C2
330
1F
100
AcDbEntity
  8
0
  6
Continuous
 62
     7
370
    15
100
AcDbLine
 10
61.5744585152
 20
100.9703874249
 30
0.0
 11
61.5744585152
 21
137.6697430773
 31
0.0
  0
LWPOLYLINE
  5
C3
330
1F
100
AcDbEntity
  8
0
  6
Continuous
 62
     7
370
    15
100
AcDbPolyline
 90
       21
 70
   128
 43
0.0
 10
188.7669723952
 20
103.7663207461
 10
188.9943947432
 20
104.4528041023
 10
188.9849368725
 20
105.171727698
 10
188.7395245854
 20
105.8527182825
 10
188.2821805464
 20
106.4291157527
 10
187.6576727767
 20
106.8444983083
 10
186.9271324478
 20
107.0582054105
 10
186.1620699372
 20
107.0493179192
 10
185.4373748939
 20
106.8187058039
 10
184.823985518
 20
106.3889429854
 10
184.3819446353
 20
105.8020976425
 10
184.1545222873
 20
105.1156142863
 10
184.163980158
 20
104.3966906906
 10
184.4093924451
 20
103.7157001061
 10
184.866736484
 20
103.1393026359
 10
185.4912442538
 20
102.7239200803
 10
186.2217845826
 20
102.5102129782
 10
186.9868470933
 20
102.5191004695
 10
187.7115421366
 20
102.7497125847
 10
188.3249315125
 20
103.1794754032
 10
188.7669723952
 20
103.7663207461
  0
LINE
  5
C4
330
1F
100
AcDbEntity
  8
0
  6
Continuous
 62
     7
370
    15
100
AcDbLine
 10
186.4624358916
 20
106.4083968555
 30
0.0
 11
185.0215877582
 21
105.5051392735
 31
0.0
  0
LINE
  5
C5
330
1F
100
AcDbEntity
  8
0
  6
Continuous
 62
     7
370
    15
100
AcDbLine
 10
185.1336103818
 20
103.8809516124
 30
0.0
 11
185.0215877582
 21
105.5051392735
 31
0.0
  0
LINE
  5
C6
330
1F
100
AcDbEntity
  8
0
  6
Continuous
 62
     7
370
    15
100
AcDbLine
 10
186.6864811388
 20
103.1600215332
 30
0.0
 11
185.1336103818
 21
103.8809516124
 31
0.0
  0
LINE
  5
C7
330
1F
100
AcDbEntity
  8
0
  6
Continuous
 62
     7
370
    15
100
AcDbLine
 10
186.6864811388
 20
103.1600215332
 30
0.0
 11
188.1273292723
 21
104.0632791151
 31
0.0
  0
LINE
  5
C8
330
1F
100
AcDbEntity
  8
0
  6
Continuous
 62
     7
370
    15
100
AcDbLine
 10
188.0153066487
 20
105.6874667762
 30
0.0
 11
188.1273292723
 21
104.0632791151
 31
0.0
  0
LINE
  5
C9
330
1F
100
AcDbEntity
  8
0
  6
Continuous
 62
     7
370
    15
100
AcDbLine
 10
188.0153066487
 20
105.6874667762
 30
0.0
 11
186.4624358916
 21
106.4083968555
 31
0.0
  0
LINE
  5
CA
330
1F
100
AcDbEntity
  8
0
  6
Continuous
 62
     7
370
    15
100
AcDbLine
 10
185.1336103818
 20
104.564991899
 30
0.0
 11
185.0668116491
 21
105.5334898134
 31
0.0
  0
LINE
  5
CB
330
1F
100
AcDbEntity
  8
0
  6
Continuous
 62
     7
370
    15
100
AcDbLine
 10
185.1336103818
 20
104.564991899
 30
0.0
 11
185.1336103818
 21
103.8809516124
 31
0.0
  0
LINE
  5
CC
330
1F
100
AcDbEntity
  8
0
  6
Continuous
 62
     7
370
    15
100
AcDbLine
 10
186.6864811388
 20
103.8440618198
 30
0.0
 11
186.6864811388
 21
103.1600215332
 31
0.0
  0
LINE
  5
CD
330
1F
100
AcDbEntity
  8
0
  6
Continuous
 62
     7
370
    15
100
AcDbLine
 10
186.6864811388
 20
103.8440618198
 30
0.0
 11
188.0821053813
 21
104.7189688619
 31
0.0
  0
LINE
  5
CE
330
1F
100
AcDbEntity
  8
0
  6
Continuous
 62
     7
370
    15
100
AcDbLine
 10
186.6864811388
 20
103.8440618198
 30
0.0
 11
185.1336103818
 21
104.564991899
 31
0.0
  0
CIRCLE
  5
CF
330
1F
100
AcDbEntity
  8
0
  6
HIDDEN
 62
     7
370
     0
100
AcDbCircle
 10
219.3244585152
 20
119.3200652857
 30
0.0
 40
4.080384757729345
  0
CIRCLE
  5
D0
330
1F
100
AcDbEntity
  8
0
  6
HIDDEN
 62
     7
370
     0
100
AcDbCircle
 10
219.3244585152
 20
119.3200652857
 30
0.0
 40
3.780384757729342
  0
SPLINE
  5
D1
330
1F
100
AcDbEntity
  8
0
  6
HIDDEN
 62
     7
370
     0
100
AcDbSpline
210
0.0
220
0.0
230
1.0
 70
     8
 71
     3
 72
     9
 73
     5
 74
     0
 42
0.000000001
 43
0.00000001
 40
0.0
 40
0.0
 40
0.0
 40
0.0
 40
0.326715502844845
 40
1.0
 40
1.0
 40
1.0
 40
1.0
 10
195.9984259889557
 20
69.69630484525361
 30
0.0
 10
195.8416331108382
 20
69.73838707427349
 30
0.0
 10
195.3617266578167
 20
69.86719096834479
 30
0.0
 10
194.6075151168911
 20
70.04221761646431
 30
0.0
 10
194.0997161788104
 20
70.16006034523222
 30
0.0
  0
LWPOLYLINE
  5
D2
330
1F
100
AcDbEntity
  8
0
  6
HIDDEN
 62
     7
370
     0
100
AcDbPolyline
 90
       23
 70
   128
 43
0.0
 10
166.6438456271
 20
105.2909104831
 10
166.828839943
 20
104.4581631822
 10
167.1147468677
 20
103.6928801152
 10
167.4784039224
 20
103.0570599646
 10
167.8903497754
 20
102.6022130979
 10
168.3172110235
 20
102.365188503
 10
168.7244059071
 20
102.365188503
 10
169.0789459184
 20
102.6022130979
 10
169.3521083342
 20
103.0570599646
 10
169.5217631602
 20
103.6928801152
 10
169.5741659713
 20
104.4581631822
 10
169.5050714034
 20
105.2909104831
 10
169.3200770874
 20
106.1236577839
 10
169.0341701628
 20
106.888940851
 10
168.670513108
 20
107.5247610015
 10
168.2585672551
 20
107.9796078682
 10
167.831706007
 20
108.2166324631
 10
167.4245111233
 20
108.2166324631
 10
167.069971112
 20
107.9796078682
 10
166.7968086962
 20
107.5247610015
 10
166.6271538703
 20
106.888940851
 10
166.5747510592
 20
106.1236577839
 10
166.6438456271
 20
105.2909104831
  0
LWPOLYLINE
  5
D3
330
1F
100
AcDbEntity
  8
0
  6
HIDDEN
 62
     7
370
     0
100
AcDbPolyline
 90
       20
 70
   128
 43
0.0
 10
167.3567162157
 20
105.3469288013
 10
167.5134703573
 20
104.6751043352
 10
167.7617581287
 20
104.0760824744
 10
168.0746736972
 20
103.6147765323
 10
168.4183078056
 20
103.3411761657
 10
168.7554223662
 20
103.2849302196
 10
169.0494857855
 20
103.4521338151
 10
169.2686317292
 20
103.8246678481
 10
169.3891123338
 20
104.3621624756
 10
169.3978716565
 20
105.0063718148
 10
169.2939604886
 20
105.6874857878
 10
169.0886392176
 20
106.331695127
 10
168.804157589
 20
106.8691897546
 10
168.4713436016
 20
107.2417237876
 10
168.1262628149
 20
107.408927383
 10
167.8063100868
 20
107.352681437
 10
167.5461572598
 20
107.0790810704
 10
167.3739959295
 20
106.6177751283
 10
167.3084824474
 20
106.0187532675
 10
167.3567162157
 20
105.3469288013
  0
SPLINE
  5
D4
330
1F
100
AcDbEntity
  8
0
  6
HIDDEN
 62
     7
370
     0
100
AcDbSpline
210
0.0
220
0.0
230
1.0
 70
    11
 71
     3
 72
    66
 73
    62
 74
     0
 42
0.000000001
 43
0.00000001
 40
0.0
 40
0.0
 40
0.0
 40
0.0
 40
0.0312500000000002
 40
0.0312500000000002
 40
0.0625000000000004
 40
0.0625000000000004
 40
0.0937500000000006
 40
0.0937500000000006
 40
0.1250000000000008
 40
0.1250000000000008
 40
0.156250000000001
 40
0.156250000000001
 40
0.1875000000000012
 40
0.1875000000000012
 40
0.2187500000000014
 40
0.2187500000000014
 40
0.2343750000000014
 40
0.2343750000000014
 40
0.2500000000000013
 40
0.2500000000000013
 40
0.2812500000000013
 40
0.2812500000000013
 40
0.3125000000000012
 40
0.3125000000000012
 40
0.3750000000000016
 40
0.3750000000000016
 40
0.437500000000002
 40
0.437500000000002
 40
0.4687500000000023
 40
0.4687500000000023
 40
0.5000000000000027
 40
0.5000000000000027
 40
0.531250000000003
 40
0.531250000000003
 40
0.5625000000000033
 40
0.5625000000000033
 40
0.5937500000000036
 40
0.5937500000000036
 40
0.6250000000000039
 40
0.6250000000000039
 40
0.6875000000000047
 40
0.6875000000000047
 40
0.7500000000000053
 40
0.7500000000000053
 40
0.7812500000000052
 40
0.7812500000000052
 40
0.8125000000000052
 40
0.8125000000000052
 40
0.8437500000000052
 40
0.8437500000000052
 40
0.8593750000000051
 40
0.8593750000000051
 40
0.875000000000005
 40
0.875000000000005
 40
0.9062500000000038
 40
0.9062500000000038
 40
0.9375000000000024
 40
0.9375000000000024
 40
0.9687500000000012
 40
0.9687500000000012
 40
1.0
 40
1.0
 40
1.0
 40
1.0
 10
184.1554834550043
 20
108.6641044602458
 30
0.0
 10
184.1158931673644
 20
108.8177179799367
 30
0.0
 10
184.0906321766829
 20
108.9699614075368
 30
0.0
 10
184.069487270668
 20
109.2720663242852
 30
0.0
 10
184.0741349827616
 20
109.4225464681271
 30
0.0
 10
184.1128286505472
 20
109.7049907414257
 30
0.0
 10
184.147125609642
 20
109.8404374363989
 30
0.0
 10
184.2414363955913
 20
110.0895808349759
 30
0.0
 10
184.3005829358846
 20
110.2020722519987
 30
0.0
 10
184.4389191205768
 20
110.4032391872339
 30
0.0
 10
184.5175556365276
 20
110.4904933434256
 30
0.0
 10
184.6821091885425
 20
110.632702962375
 30
0.0
 10
184.7700438848042
 20
110.6891658902521
 30
0.0
 10
184.9376224311551
 20
110.7640748057986
 30
0.0
 10
185.0182193079624
 20
110.7828847249097
 30
0.0
 10
185.1130616734239
 20
110.7783168484364
 30
0.0
 10
185.1399859788459
 20
110.7714425929575
 30
0.0
 10
185.1825146538972
 20
110.7473524251313
 30
0.0
 10
185.1980009429693
 20
110.7299447731816
 30
0.0
 10
185.2254252696574
 20
110.666052396895
 30
0.0
 10
185.2190626661253
 20
110.6068826261621
 30
0.0
 10
185.1764125305898
 20
110.4734628181068
 30
0.0
 10
185.1409169232929
 20
110.3989074073448
 30
0.0
 10
185.0123795761229
 20
110.1565506760731
 30
0.0
 10
184.9012061566841
 20
109.9753586999138
 30
0.0
 10
184.6724803410618
 20
109.5716602568768
 30
0.0
 10
184.5514151574548
 20
109.3456355915637
 30
0.0
 10
184.3833011829025
 20
108.9671038546325
 30
0.0
 10
184.3289609662768
 20
108.8330253504392
 30
0.0
 10
184.2303358920358
 20
108.5508454040888
 30
0.0
 10
184.1863330504737
 20
108.4041467313185
 30
0.0
 10
184.1155466229217
 20
108.0937299499259
 30
0.0
 10
184.090356476466
 20
107.9352255201883
 30
0.0
 10
184.0694425021012
 20
107.6238619455888
 30
0.0
 10
184.0744043438541
 20
107.4761435669596
 30
0.0
 10
184.112578462212
 20
107.2126415679876
 30
0.0
 10
184.1454147879113
 20
107.0981026489492
 30
0.0
 10
184.2261472502234
 20
106.9071369524806
 30
0.0
 10
184.2742489571653
 20
106.8289532645142
 30
0.0
 10
184.4306913538827
 20
106.6351580865747
 30
0.0
 10
184.547480813627
 20
106.5613829325469
 30
0.0
 10
184.7825377857102
 20
106.4783339757662
 30
0.0
 10
184.8983353726697
 20
106.4711905828506
 30
0.0
 10
185.0490360763786
 20
106.5029646002804
 30
0.0
 10
185.0953558641339
 20
106.5208620522791
 30
0.0
 10
185.1714390749941
 20
106.5744615726705
 30
0.0
 10
185.2008252304966
 20
106.6099807432349
 30
0.0
 10
185.2242862637245
 20
106.7040901180378
 30
0.0
 10
185.2172466199184
 20
106.7632105918521
 30
0.0
 10
185.1682489230386
 20
106.8731178212696
 30
0.0
 10
185.1453958784609
 20
106.9137610465768
 30
0.0
 10
185.0900533607891
 20
107.0000685304308
 30
0.0
 10
185.057464225362
 20
107.0461100336875
 30
0.0
 10
184.9486657505017
 20
107.1938888418872
 30
0.0
 10
184.8640450288495
 20
107.3023574442055
 30
0.0
 10
184.693856800045
 20
107.5364043068507
 30
0.0
 10
184.6072267250991
 20
107.6634152715917
 30
0.0
 10
184.4481107237584
 20
107.9291012330646
 30
0.0
 10
184.3737968294696
 20
108.0706781456396
 30
0.0
 10
184.2474680077242
 20
108.3614089714572
 30
0.0
 10
184.1950737426443
 20
108.5104909405548
 30
0.0
 10
184.1554834550043
 20
108.6641044602458
 30
0.0
  0
SPLINE
  5
D5
330
1F
100
AcDbEntity
  8
0
  6
HIDDEN
 62
     7
370
     0
100
AcDbSpline
210
0.0
220
0.0
230
1.0
 70
    11
 71
     3
 72
    66
 73
    62
 74
     0
 42
0.000000001
 43
0.00000001
 40
0.0
 40
0.0
 40
0.0
 40
0.0
 40
0.0312499999999998
 40
0.0312499999999998
 40
0.0624999999999996
 40
0.0624999999999996
 40
0.0937499999999994
 40
0.0937499999999994
 40
0.1249999999999993
 40
0.1249999999999993
 40
0.187499999999999
 40
0.187499999999999
 40
0.218749999999999
 40
0.218749999999999
 40
0.2499999999999991
 40
0.2499999999999991
 40
0.2812499999999991
 40
0.2812499999999991
 40
0.3124999999999991
 40
0.3124999999999991
 40
0.3437499999999991
 40
0.3437499999999991
 40
0.3749999999999991
 40
0.3749999999999991
 40
0.4062499999999991
 40
0.4062499999999991
 40
0.4374999999999991
 40
0.4374999999999991
 40
0.468749999999999
 40
0.468749999999999
 40
0.499999999999999
 40
0.499999999999999
 40
0.531249999999999
 40
0.531249999999999
 40
0.5624999999999991
 40
0.5624999999999991
 40
0.5937499999999991
 40
0.5937499999999991
 40
0.6249999999999991
 40
0.6249999999999991
 40
0.6562499999999991
 40
0.6562499999999991
 40
0.687499999999999
 40
0.687499999999999
 40
0.718749999999999
 40
0.718749999999999
 40
0.749999999999999
 40
0.749999999999999
 40
0.7812499999999991
 40
0.7812499999999991
 40
0.8124999999999991
 40
0.8124999999999991
 40
0.8749999999999994
 40
0.8749999999999994
 40
0.9062499999999996
 40
0.9062499999999996
 40
0.9374999999999997
 40
0.9374999999999997
 40
0.9687499999999999
 40
0.9687499999999999
 40
1.0
 40
1.0
 40
1.0
 40
1.0
 10
186.574458515224
 20
114.3717056674088
 30
0.0
 10
186.4081679070502
 20
114.3717056674088
 30
0.0
 10
186.2448794510188
 20
114.3852725138941
 30
0.0
 10
185.9239875473209
 20
114.4384841349125
 30
0.0
 10
185.7646796395586
 20
114.4788326455881
 30
0.0
 10
185.4624997913295
 20
114.584086369462
 30
0.0
 10
185.3193464771558
 20
114.6486411830813
 30
0.0
 10
185.0484185813216
 20
114.8023656056979
 30
0.0
 10
184.921030634348
 20
114.8917810295611
 30
0.0
 10
184.5775226929491
 20
115.1880111779256
 30
0.0
 10
184.3916015292146
 20
115.4308484075901
 30
0.0
 10
184.2039644493505
 20
115.8356876766495
 30
0.0
 10
184.1553609180429
 20
115.9797468034112
 30
0.0
 10
184.0907008715348
 20
116.2766826763439
 30
0.0
 10
184.0745670172576
 20
116.4280425426873
 30
0.0
 10
184.074351093524
 20
116.7366772291868
 30
0.0
 10
184.0908392678968
 20
116.8952194228993
 30
0.0
 10
184.1551313621574
 20
117.2041133186362
 30
0.0
 10
184.202689963302
 20
117.3560362151913
 30
0.0
 10
184.3290637970839
 20
117.6543507938015
 30
0.0
 10
184.4067914481567
 20
117.7976958068452
 30
0.0
 10
184.5873985549924
 20
118.0674630279057
 30
0.0
 10
184.6918311231963
 20
118.1959183748084
 30
0.0
 10
184.9224044955294
 20
118.430345540838
 30
0.0
 10
185.0474980251336
 20
118.5357485616529
 30
0.0
 10
185.3174621442445
 20
118.7224299957736
 30
0.0
 10
185.4637411066197
 20
118.8040272470289
 30
0.0
 10
185.7647999201532
 20
118.9346167209992
 30
0.0
 10
185.9206906044398
 20
118.9846790010313
 30
0.0
 10
186.2437083702194
 20
119.052781509393
 30
0.0
 10
186.4095743763901
 20
119.0700949741726
 30
0.0
 10
186.7372089407819
 20
119.0702420894615
 30
0.0
 10
186.9017130507075
 20
119.0533196569774
 30
0.0
 10
187.2262414951792
 20
118.9852929970371
 30
0.0
 10
187.3825774165927
 20
118.935179257624
 30
0.0
 10
187.6840466001113
 20
118.804621514395
 30
0.0
 10
187.8303091957729
 20
118.72312833876
 30
0.0
 10
188.1005818144207
 20
118.5364207037087
 30
0.0
 10
188.2258390365552
 20
118.4309652963289
 30
0.0
 10
188.4567412518169
 20
118.1963335044734
 30
0.0
 10
188.5609998777358
 20
118.0681211338746
 30
0.0
 10
188.7414853500003
 20
117.7987678633566
 30
0.0
 10
188.8190284932804
 20
117.656031542871
 30
0.0
 10
188.9457999885951
 20
117.3573078577423
 30
0.0
 10
188.9933807526872
 20
117.2054695894047
 30
0.0
 10
189.0577490968833
 20
116.897380983429
 30
0.0
 10
189.0744255588678
 20
116.7392083918315
 30
0.0
 10
189.0744913718662
 20
116.429538244708
 30
0.0
 10
189.05839272903
 20
116.2780878123986
 30
0.0
 10
188.9941144245391
 20
115.9817231822117
 30
0.0
 10
188.9454743641521
 20
115.8369961952342
 30
0.0
 10
188.7575954782656
 20
115.4310889244356
 30
0.0
 10
188.5717326140382
 20
115.1883546099267
 30
0.0
 10
188.2280483456279
 20
114.8918948703212
 30
0.0
 10
188.1005030074462
 20
114.802378921327
 30
0.0
 10
187.8298248863448
 20
114.6487747726112
 30
0.0
 10
187.6868565872074
 20
114.5842855862803
 30
0.0
 10
187.3852063381073
 20
114.4791241740222
 30
0.0
 10
187.2256293295813
 20
114.4386257527687
 30
0.0
 10
186.9042355295788
 20
114.3852798436968
 30
0.0
 10
186.7407491233979
 20
114.3717056674088
 30
0.0
 10
186.574458515224
 20
114.3717056674088
 30
0.0
  0
SPLINE
  5
D6
330
1F
100
AcDbEntity
  8
0
  6
HIDDEN
 62
     7
370
     0
100
AcDbSpline
210
0.0
220
0.0
230
1.0
 70
     8
 71
     3
 72
    18
 73
    14
 74
     0
 42
0.000000001
 43
0.00000001
 40
0.0
 40
0.0
 40
0.0
 40
0.0
 40
0.2499999999999978
 40
0.2499999999999978
 40
0.4999999999999956
 40
0.4999999999999956
 40
0.6249999999999967
 40
0.6249999999999967
 40
0.7499999999999978
 40
0.7499999999999978
 40
0.8749999999999989
 40
0.8749999999999989
 40
1.0
 40
1.0
 40
1.0
 40
1.0
 10
235.374458515224
 20
136.3177665297705
 30
0.0
 10
235.374458515224
 20
136.2224468647527
 30
0.0
 10
235.3692004520609
 20
136.125417478585
 30
0.0
 10
235.341695462194
 20
135.9258333380602
 30
0.0
 10
235.3192119687206
 20
135.8208291683575
 30
0.0
 10
235.2609136166004
 20
135.6688204197731
 30
0.0
 10
235.2365868228931
 20
135.6177685195994
 30
0.0
 10
235.1777434637101
 20
135.5252176285209
 30
0.0
 10
235.1426207432573
 20
135.4833956518875
 30
0.0
 10
235.0676420712652
 20
135.418923395283
 30
0.0
 10
235.0276552536109
 20
135.3957655095279
 30
0.0
 10
234.9490474090633
 20
135.3657786637301
 30
0.0
 10
234.9111980660601
 20
135.358740707244
 30
0.0
 10
234.8744189352096
 20
135.3564814002678
 30
0.0
  0
SPLINE
  5
D7
330
1F
100
AcDbEntity
  8
0
  6
HIDDEN
 62
     7
370
     0
100
AcDbSpline
210
0.0
220
0.0
230
1.0
 70
     8
 71
     3
 72
    10
 73
     6
 74
     0
 42
0.000000001
 43
0.00000001
 40
0.0
 40
0.0
 40
0.0
 40
0.0
 40
0.5
 40
0.5
 40
1.0
 40
1.0
 40
1.0
 40
1.0
 10
234.8744189352096
 20
135.356481400268
 30
0.0
 10
234.8095974774768
 20
135.2956137958935
 30
0.0
 10
234.7347540811745
 20
135.2406419642732
 30
0.0
 10
234.5661434253233
 20
135.1608169560149
 30
0.0
 10
234.4718528732875
 20
135.1365101819879
 30
0.0
 10
234.374458515224
 20
135.1365101819879
 30
0.0
  0
SPLINE
  5
D8
330
1F
100
AcDbEntity
  8
0
  6
HIDDEN
 62
     7
370
     0
100
AcDbSpline
210
0.0
220
0.0
230
1.0
 70
     8
 71
     3
 72
    10
 73
     6
 74
     0
 42
0.000000001
 43
0.00000001
 40
0.0
 40
0.0
 40
0.0
 40
0.0
 40
0.5
 40
0.5
 40
1.0
 40
1.0
 40
1.0
 40
1.0
 10
234.8744087089192
 20
103.283658773445
 30
0.0
 10
234.8095880227525
 20
103.3445240435269
 30
0.0
 10
234.734745740095
 20
103.3994935857769
 30
0.0
 10
234.5661384663741
 20
103.4793149330858
 30
0.0
 10
234.4718503124693
 20
103.5036203893251
 30
0.0
 10
234.374458515224
 20
103.5036203893251
 30
0.0
  0
SPLINE
  5
D9
330
1F
100
AcDbEntity
  8
0
  6
HIDDEN
 62
     7
370
     0
100
AcDbSpline
210
0.0
220
0.0
230
1.0
 70
     8
 71
     3
 72
    18
 73
    14
 74
     0
 42
0.000000001
 43
0.00000001
 40
0.0
 40
0.0
 40
0.0
 40
0.0
 40
0.125
 40
0.125
 40
0.25
 40
0.25
 40
0.375
 40
0.375
 40
0.5
 40
0.5
 40
0.75
 40
0.75
 40
1.0
 40
1.0
 40
1.0
 40
1.0
 10
234.8744087089191
 20
103.2836587734449
 30
0.0
 10
234.9108955890156
 20
103.2814247371581
 30
0.0
 10
234.9491512810439
 20
103.274281246706
 30
0.0
 10
235.0266983180335
 20
103.2448193659724
 30
0.0
 10
235.066645733241
 20
103.2218462848902
 30
0.0
 10
235.1409906434764
 20
103.1584213490298
 30
0.0
 10
235.1761338884776
 20
103.1170313507064
 30
0.0
 10
235.2351168490482
 20
103.0251240754654
 30
0.0
 10
235.2595344715557
 20
102.9744475507277
 30
0.0
 10
235.3186107866148
 20
102.8217965343682
 30
0.0
 10
235.3410996552018
 20
102.7175773328082
 30
0.0
 10
235.369103916672
 20
102.5164360920427
 30
0.0
 10
235.374458515224
 20
102.4179418333361
 30
0.0
 10
235.374458515224
 20
102.3223640415425
 30
0.0
  0
LINE
  5
DA
330
1F
100
AcDbEntity
  8
0
  6
HIDDEN
 62
     7
370
     0
100
AcDbLine
 10
194.8744585152
 20
119.3200652857
 30
0.0
 11
194.8744585152
 21
101.8200652857
 31
0.0
  0
LINE
  5
DB
330
1F
100
AcDbEntity
  8
0
  6
HIDDEN
 62
     7
370
     0
100
AcDbLine
 10
194.8744585152
 20
136.8200652857
 30
0.0
 11
194.8744585152
 21
119.3200652857
 31
0.0
  0
LINE
  5
DC
330
1F
100
AcDbEntity
  8
0
  6
HIDDEN
 62
     7
370
     0
100
AcDbLine
 10
199.740483919
 20
119.3200652857
 30
0.0
 11
199.740483919
 21
101.3200652857
 31
0.0
  0
LINE
  5
DD
330
1F
100
AcDbEntity
  8
0
  6
HIDDEN
 62
     7
370
     0
100
AcDbLine
 10
199.740483919
 20
137.3200652857
 30
0.0
 11
199.740483919
 21
119.3200652857
 31
0.0
  0
LINE
  5
DE
330
1F
100
AcDbEntity
  8
0
  6
HIDDEN
 62
     7
370
     0
100
AcDbLine
 10
218.7744585151
 20
135.136510182
 30
0.0
 11
234.3744585152
 21
135.136510182
 31
0.0
  0
LINE
  5
DF
330
1F
100
AcDbEntity
  8
0
  6
HIDDEN
 62
     7
370
     0
100
AcDbLine
 10
218.7744585151
 20
103.5036203893
 30
0.0
 11
234.3744585152
 21
103.5036203893
 31
0.0
  0
ELLIPSE
  5
E0
330
1F
100
AcDbEntity
  8
0
  6
HIDDEN
 62
     7
370
     0
100
AcDbEllipse
 10
166.5460313905
 20
82.0200652857
 30
0.0
 11
0.0
 21
2.0
 31
0.0
210
0.0
220
0.0
230
1.0
 40
0.4142135624
 41
4.712388980384695
 42
6.283185307179586
  0
LINE
  5
E1
330
1F
100
AcDbEntity
  8
0
  6
HIDDEN
 62
     7
370
     0
100
AcDbLine
 10
166.5460313905
 20
84.0200652857
 30
0.0
 11
166.3744585152
 21
84.0200652857
 31
0.0
  0
LINE
  5
E2
330
1F
100
AcDbEntity
  8
0
  6
HIDDEN
 62
     7
370
     0
100
AcDbLine
 10
166.3744585152
 20
154.6200652857
 30
0.0
 11
166.5460313905
 21
154.6200652857
 31
0.0
  0
ELLIPSE
  5
E3
330
1F
100
AcDbEntity
  8
0
  6
HIDDEN
 62
     7
370
     0
100
AcDbEllipse
 10
166.5460313905
 20
156.6200652857
 30
0.0
 11
0.0
 21
2.0
 31
0.0
210
0.0
220
0.0
230
1.0
 40
0.4142135624
 41
3.141592653589793
 42
4.712388980384695
  0
LINE
  5
E4
330
1F
100
AcDbEntity
  8
0
  6
HIDDEN
 62
     7
370
     0
100
AcDbLine
 10
167.3744585152
 20
71.9994951317
 30
0.0
 11
166.7605949353
 21
71.3856315518
 31
0.0
  0
LINE
  5
E5
330
1F
100
AcDbEntity
  8
0
  6
HIDDEN
 62
     7
370
     0
100
AcDbLine
 10
166.7605949353
 20
167.2544990195
 30
0.0
 11
167.3744585152
 21
166.6406354396
 31
0.0
  0
LINE
  5
E6
330
1F
100
AcDbEntity
  8
0
  6
HIDDEN
 62
     7
370
     0
100
AcDbLine
 10
183.5244585152
 20
84.0200652857
 30
0.0
 11
166.5460313905
 21
84.0200652857
 31
0.0
  0
LINE
  5
E7
330
1F
100
AcDbEntity
  8
0
  6
HIDDEN
 62
     7
370
     0
100
AcDbLine
 10
166.5460313905
 20
154.6200652857
 30
0.0
 11
183.5244585152
 21
154.6200652857
 31
0.0
  0
LINE
  5
E8
330
1F
100
AcDbEntity
  8
0
  6
HIDDEN
 62
     7
370
     0
100
AcDbLine
 10
194.3744585152
 20
84.0200652857
 30
0.0
 11
183.5244585152
 21
84.0200652857
 31
0.0
  0
SPLINE
  5
E9
330
1F
100
AcDbEntity
  8
0
  6
HIDDEN
 62
     7
370
     0
100
AcDbSpline
210
0.0
220
0.0
230
1.0
 70
     8
 71
     3
 72
    13
 73
     9
 74
     0
 42
0.000000001
 43
0.00000001
 40
0.0
 40
0.0
 40
0.0
 40
0.0
 40
0.0005825290635647
 40
0.1623661983773396
 40
0.3287385494553315
 40
0.4998718252132767
 40
0.7262528256169377
 40
1.0
 40
1.0
 40
1.0
 40
1.0
 10
196.3740243578304
 20
70.32019809231566
 30
0.0
 10
196.3741691438652
 20
70.32015375012237
 30
0.0
 10
196.4145248265826
 20
70.30779441253038
 30
0.0
 10
196.3003702196916
 20
70.34342349853785
 30
0.0
 10
196.0762531119911
 20
70.41127146144626
 30
0.0
 10
195.5969442210222
 20
70.55036463558973
 30
0.0
 10
194.8034365633937
 20
70.78061121636216
 30
0.0
 10
193.9344186909176
 20
70.99609678712035
 30
0.0
 10
193.4587582521108
 20
71.11404368371446
 30
0.0
  0
SPLINE
  5
EA
330
1F
100
AcDbEntity
  8
0
  6
HIDDEN
 62
     7
370
     0
100
AcDbSpline
210
0.0
220
0.0
230
1.0
 70
     8
 71
     3
 72
    14
 73
    10
 74
     0
 42
0.000000001
 43
0.00000001
 40
0.0
 40
0.0
 40
0.0
 40
0.0
 40
0.1878282877623173
 40
0.3545816313016879
 40
0.5003024319338173
 40
0.6713282049188825
 40
0.8376422060211013
 40
0.9994166164999629
 40
1.0
 40
1.0
 40
1.0
 40
1.0
 10
193.4587582521107
 20
167.5260868875984
 30
0.0
 10
193.7917611745001
 20
167.607634825052
 30
0.0
 10
194.420403009315
 20
167.7615807563921
 30
0.0
 10
195.1198395812198
 20
167.9525594745102
 30
0.0
 10
195.6677166806493
 20
168.109931761586
 30
0.0
 10
196.0738322747665
 20
168.2282571976096
 30
0.0
 10
196.3069601674656
 20
168.2986342122246
 30
0.0
 10
196.4009495540627
 20
168.328268563499
 30
0.0
 10
196.3742666609188
 20
168.3200060378955
 30
0.0
 10
196.3741707840335
 20
168.3199763490152
 30
0.0
  0
LINE
  5
EB
330
1F
100
AcDbEntity
  8
0
  6
HIDDEN
 62
     7
370
     0
100
AcDbLine
 10
193.958092617
 20
167.6504009255
 30
0.0
 11
193.4587539637
 21
167.526131542
 31
0.0
  0
LINE
  5
EC
330
1F
100
AcDbEntity
  8
0
  6
HIDDEN
 62
     7
370
     0
100
AcDbLine
 10
167.3744585152
 20
166.6406354396
 30
0.0
 11
179.6070275518
 21
166.6406354396
 31
0.0
  0
LINE
  5
ED
330
1F
100
AcDbEntity
  8
0
  6
HIDDEN
 62
     7
370
     0
100
AcDbLine
 10
167.3744585152
 20
166.6406354396
 30
0.0
 11
167.3744585152
 21
156.6200652857
 31
0.0
  0
LINE
  5
EE
330
1F
100
AcDbEntity
  8
0
  6
HIDDEN
 62
     7
370
     0
100
AcDbLine
 10
183.5244585152
 20
154.6200652857
 30
0.0
 11
194.3744585152
 21
154.6200652857
 31
0.0
  0
LINE
  5
EF
330
1F
100
AcDbEntity
  8
0
  6
HIDDEN
 62
     7
370
     0
100
AcDbLine
 10
179.6070275518
 20
71.9994951317
 30
0.0
 11
167.3744585152
 21
71.9994951317
 31
0.0
  0
LINE
  5
F0
330
1F
100
AcDbEntity
  8
0
  6
HIDDEN
 62
     7
370
     0
100
AcDbLine
 10
167.3744585152
 20
71.9994951317
 30
0.0
 11
167.3744585152
 21
82.0200652857
 31
0.0
  0
LINE
  5
F1
330
1F
100
AcDbEntity
  8
0
  6
HIDDEN
 62
     7
370
     0
100
AcDbLine
 10
71.5744585152
 20
106.8200652857
 30
0.0
 11
71.5744585152
 21
131.8200652857
 31
0.0
  0
LINE
  5
F2
330
1F
100
AcDbEntity
  8
0
  6
HIDDEN
 62
     7
370
     0
100
AcDbLine
 10
74.8590628642
 20
108.8200652857
 30
0.0
 11
74.8590628642
 21
129.8200652857
 31
0.0
  0
LINE
  5
F3
330
1F
100
AcDbEntity
  8
0
  6
HIDDEN
 62
     7
370
     0
100
AcDbLine
 10
124.5744585152
 20
108.8200652857
 30
0.0
 11
124.5744585152
 21
129.8200652857
 31
0.0
  0
LINE
  5
F4
330
1F
100
AcDbEntity
  8
0
  6
HIDDEN
 62
     7
370
     0
100
AcDbLine
 10
126.0766100628
 20
111.3200652857
 30
0.0
 11
126.0766100628
 21
127.3200652857
 31
0.0
  0
LINE
  5
F5
330
1F
100
AcDbEntity
  8
0
  6
HIDDEN
 62
     7
370
     0
100
AcDbLine
 10
234.8744585151
 20
142.2200652857
 30
0.0
 11
234.8713010204
 21
142.9662632618
 31
0.0
  0
SPLINE
  5
F6
330
1F
100
AcDbEntity
  8
0
  6
HIDDEN
 62
     7
370
     0
100
AcDbSpline
210
0.0
220
0.0
230
1.0
 70
     8
 71
     3
 72
    11
 73
     7
 74
     0
 42
0.000000001
 43
0.00000001
 40
0.0
 40
0.0
 40
0.0
 40
0.0
 40
0.2582493092474809
 40
0.5833708247275922
 40
0.9088511347815594
 40
1.0
 40
1.0
 40
1.0
 40
1.0
 10
234.8031864542109
 20
144.7711750551913
 30
0.0
 10
234.7991050810596
 20
144.7488486958547
 30
0.0
 10
234.789885486133
 20
144.6984146919951
 30
0.0
 10
234.8121700427799
 20
143.9304990730433
 30
0.0
 10
234.9002965535639
 20
142.9926457337656
 30
0.0
 10
234.8835245690296
 20
142.3587475946968
 30
0.0
 10
234.8798552452077
 20
142.2200652856567
 30
0.0
  0
SPLINE
  5
F7
330
1F
100
AcDbEntity
  8
0
  6
HIDDEN
 62
     7
370
     0
100
AcDbSpline
210
0.0
220
0.0
230
1.0
 70
     8
 71
     3
 72
    14
 73
    10
 74
     0
 42
0.000000001
 43
0.00000001
 40
0.0
 40
0.0
 40
0.0
 40
0.0
 40
0.25
 40
0.25
 40
0.5
 40
0.5
 40
0.75
 40
0.75
 40
1.0
 40
1.0
 40
1.0
 40
1.0
 10
234.8798552452074
 20
142.2200652856565
 30
0.0
 10
234.8520373044879
 20
141.6482824914482
 30
0.0
 10
234.8691367478019
 20
141.0763075429594
 30
0.0
 10
234.881832829451
 20
139.9323912985403
 30
0.0
 10
234.8807293814031
 20
139.3603928450049
 30
0.0
 10
234.8759819529177
 20
138.2164207963612
 30
0.0
 10
234.873229124408
 20
137.6444353612713
 30
0.0
 10
234.8730701441976
 20
136.5004589914523
 30
0.0
 10
234.874217303208
 20
135.9284702167179
 30
0.0
 10
234.8744189352095
 20
135.3564814002679
 30
0.0
  0
SPLINE
  5
F8
330
1F
100
AcDbEntity
  8
0
  6
HIDDEN
 62
     7
370
     0
100
AcDbSpline
210
0.0
220
0.0
230
1.0
 70
     8
 71
     3
 72
    14
 73
    10
 74
     0
 42
0.000000001
 43
0.00000001
 40
0.0
 40
0.0
 40
0.0
 40
0.0
 40
0.25
 40
0.25
 40
0.5
 40
0.5
 40
0.75
 40
0.75
 40
1.0
 40
1.0
 40
1.0
 40
1.0
 10
234.8798442711904
 20
96.42006528565646
 30
0.0
 10
234.8520856474526
 20
96.99177306284587
 30
0.0
 10
234.8690938943927
 20
97.56376685671967
 30
0.0
 10
234.8818901619086
 20
98.707688456235
 30
0.0
 10
234.8806786974395
 20
99.27970076104299
 30
0.0
 10
234.8758929058419
 20
100.4236838818312
 30
0.0
 10
234.8732964618717
 20
100.9956751205446
 30
0.0
 10
234.8730187814915
 20
102.1396664119701
 30
0.0
 10
234.8741598045596
 20
102.7116626307311
 30
0.0
 10
234.8744087089191
 20
103.2836587734449
 30
0.0
  0
SPLINE
  5
F9
330
1F
100
AcDbEntity
  8
0
  6
HIDDEN
 62
     7
370
     0
100
AcDbSpline
210
0.0
220
0.0
230
1.0
 70
     8
 71
     3
 72
     9
 73
     5
 74
     0
 42
0.000000001
 43
0.00000001
 40
0.0
 40
0.0
 40
0.0
 40
0.0
 40
0.9349931520448677
 40
0.9999999999999999
 40
0.9999999999999999
 40
0.9999999999999999
 40
0.9999999999999999
 10
234.8744585151103
 20
96.42006528565646
 30
0.0
 10
234.874855167583
 20
96.16921965679735
 30
0.0
 10
234.8752793979335
 20
95.90093359682943
 30
0.0
 10
234.8732591522341
 20
95.68220637250747
 30
0.0
 10
234.8731278224291
 20
95.66798760509232
 30
0.0
  0
SPLINE
  5
FA
330
1F
100
AcDbEntity
  8
0
  6
HIDDEN
 62
     7
370
     0
100
AcDbSpline
210
0.0
220
0.0
230
1.0
 70
     8
 71
     3
 72
    14
 73
    10
 74
     0
 42
0.000000001
 43
0.00000001
 40
0.0
 40
0.0
 40
0.0
 40
0.0
 40
0.1133565651201656
 40
0.2788681641817575
 40
0.439249195945491
 40
0.6042651017111645
 40
0.7648716028542605
 40
0.9301055077567156
 40
1.0
 40
1.0
 40
1.0
 40
1.0
 10
234.8008010681932
 20
93.83547531364066
 30
0.0
 10
234.7983227727868
 20
93.83919683019812
 30
0.0
 10
234.7922259252901
 20
93.84835212252062
 30
0.0
 10
234.7940579679377
 20
94.03216657168723
 30
0.0
 10
234.8103227302765
 20
94.35933749333047
 30
0.0
 10
234.8268138513946
 20
94.81952472480198
 30
0.0
 10
234.864812313829
 20
95.40207475551352
 30
0.0
 10
234.8954328790019
 20
95.95326668611307
 30
0.0
 10
234.8834163238647
 20
96.31310068650683
 30
0.0
 10
234.8798442711904
 20
96.42006528565646
 30
0.0
  0
SPLINE
  5
FB
330
1F
100
AcDbEntity
  8
0
  6
HIDDEN
 62
     7
370
     0
100
AcDbSpline
210
0.0
220
0.0
230
1.0
 70
     8
 71
     3
 72
     9
 73
     5
 74
     0
 42
0.000000001
 43
0.00000001
 40
0.0
 40
0.0
 40
0.0
 40
0.0
 40
0.4951995003022724
 40
1.0
 40
1.0
 40
1.0
 40
1.0
 10
193.4587427296611
 20
167.5260774500692
 30
0.0
 10
193.5639389512968
 20
167.6832332101892
 30
0.0
 10
193.7763709540986
 20
168.0005916889924
 30
0.0
 10
193.9910893376125
 20
168.3192182370951
 30
0.0
 10
194.0994792849046
 20
168.4800610777943
 30
0.0
  0
SPLINE
  5
FC
330
1F
100
AcDbEntity
  8
0
  6
HIDDEN
 62
     7
370
     0
100
AcDbSpline
210
0.0
220
0.0
230
1.0
 70
     8
 71
     3
 72
     9
 73
     5
 74
     0
 42
0.000000001
 43
0.00000001
 40
0.0
 40
0.0
 40
0.0
 40
0.0
 40
0.5048005003628353
 40
1.0
 40
1.0
 40
1.0
 40
1.0
 10
194.0994792849046
 20
70.16006949351863
 30
0.0
 10
193.9910893374727
 20
70.32091233442326
 30
0.0
 10
193.7763709539649
 20
70.63953888251304
 30
0.0
 10
193.563938951158
 20
70.95689736132861
 30
0.0
 10
193.4587427296611
 20
71.11405312124369
 30
0.0
  0
LINE
  5
FD
330
1F
100
AcDbEntity
  8
0
  6
HIDDEN
 62
     7
370
     0
100
AcDbLine
 10
218.7744585151
 20
96.4200652857
 30
0.0
 11
218.7744585151
 21
103.5036203893
 31
0.0
  0
LINE
  5
FE
330
1F
100
AcDbEntity
  8
0
  6
HIDDEN
 62
     7
370
     0
100
AcDbLine
 10
218.7744585151
 20
142.2200652857
 30
0.0
 11
218.7744585151
 21
135.136510182
 31
0.0
  0
SPLINE
  5
FF
330
1F
100
AcDbEntity
  8
0
  6
HIDDEN
 62
     7
370
     0
100
AcDbSpline
210
0.0
220
0.0
230
1.0
 70
    11
 71
     3
 72
    66
 73
    62
 74
     0
 42
0.000000001
 43
0.00000001
 40
0.0
 40
0.0
 40
0.0
 40
0.0
 40
0.0312499999999998
 40
0.0312499999999998
 40
0.0624999999999996
 40
0.0624999999999996
 40
0.0937499999999995
 40
0.0937499999999995
 40
0.1249999999999993
 40
0.1249999999999993
 40
0.1874999999999989
 40
0.1874999999999989
 40
0.2187499999999988
 40
0.2187499999999988
 40
0.2499999999999987
 40
0.2499999999999987
 40
0.2812499999999987
 40
0.2812499999999987
 40
0.3124999999999986
 40
0.3124999999999986
 40
0.3437499999999985
 40
0.3437499999999985
 40
0.3749999999999985
 40
0.3749999999999985
 40
0.4062499999999985
 40
0.4062499999999985
 40
0.4374999999999984
 40
0.4374999999999984
 40
0.4687499999999984
 40
0.4687499999999984
 40
0.4999999999999984
 40
0.4999999999999984
 40
0.5312499999999984
 40
0.5312499999999984
 40
0.5624999999999986
 40
0.5624999999999986
 40
0.5937499999999986
 40
0.5937499999999986
 40
0.6249999999999986
 40
0.6249999999999986
 40
0.6562499999999987
 40
0.6562499999999987
 40
0.6874999999999987
 40
0.6874999999999987
 40
0.7187499999999988
 40
0.7187499999999988
 40
0.7499999999999988
 40
0.7499999999999988
 40
0.7812499999999988
 40
0.7812499999999988
 40
0.8124999999999989
 40
0.8124999999999989
 40
0.8749999999999989
 40
0.8749999999999989
 40
0.9062499999999992
 40
0.9062499999999992
 40
0.9374999999999994
 40
0.9374999999999994
 40
0.9687499999999998
 40
0.9687499999999998
 40
1.0
 40
1.0
 40
1.0
 40
1.0
 10
186.574458515224
 20
119.5699617999746
 30
0.0
 10
186.7407491233979
 20
119.5699617999746
 30
0.0
 10
186.9040375794293
 20
119.5872622212769
 30
0.0
 10
187.2249294831271
 20
119.6545986216044
 30
0.0
 10
187.3842373908894
 20
119.7055124940973
 30
0.0
 10
187.6864172391185
 20
119.8366955380277
 30
0.0
 10
187.8295705532923
 20
119.9165308847836
 30
0.0
 10
188.1004984491264
 20
120.1036134802352
 30
0.0
 10
188.2278863961
 20
120.2111074533289
 30
0.0
 10
188.5713943374989
 20
120.5605805513127
 30
0.0
 10
188.7573155012335
 20
120.8386849833558
 30
0.0
 10
188.9449525810976
 20
121.2808228247927
 30
0.0
 10
188.9935561124051
 20
121.4349878802685
 30
0.0
 10
189.0582161589132
 20
121.7455026449325
 30
0.0
 10
189.0743500131905
 20
121.9003416422268
 30
0.0
 10
189.0745659369241
 20
122.2090224851338
 30
0.0
 10
189.0580777625512
 20
122.364010441417
 30
0.0
 10
188.9937856682906
 20
122.6594024896229
 30
0.0
 10
188.946227067146
 20
122.8014278771816
 30
0.0
 10
188.8198532333641
 20
123.074615505116
 30
0.0
 10
188.7421255822914
 20
123.2029643533927
 30
0.0
 10
188.5615184754557
 20
123.4401550986838
 30
0.0
 10
188.4570859072517
 20
123.5507645603429
 30
0.0
 10
188.2265125349186
 20
123.7494646893373
 30
0.0
 10
188.1014190053145
 20
123.8371260822654
 30
0.0
 10
187.8314548862036
 20
123.9905355736925
 30
0.0
 10
187.6851759238283
 20
124.056520913881
 30
0.0
 10
187.3841171102948
 20
124.16129527672
 30
0.0
 10
187.2282264260082
 20
124.2009711087453
 30
0.0
 10
186.9052086602287
 20
124.2547907123136
 30
0.0
 10
186.7393426540579
 20
124.2683668895122
 30
0.0
 10
186.4117080896662
 20
124.2684825417049
 30
0.0
 10
186.2472039797405
 20
124.2552144049886
 30
0.0
 10
185.9226755352688
 20
124.2014578978278
 30
0.0
 10
185.7663396138553
 20
124.1617435485722
 30
0.0
 10
185.4648704303367
 20
124.0570007403687
 30
0.0
 10
185.3186078346751
 20
123.9911042351235
 30
0.0
 10
185.0483352160273
 20
123.8376836082974
 30
0.0
 10
184.9230779938929
 20
123.7499849865084
 30
0.0
 10
184.6921757786311
 20
123.5511214083081
 30
0.0
 10
184.5879171527122
 20
123.4407239021586
 30
0.0
 10
184.4074316804477
 20
123.2039167189664
 30
0.0
 10
184.3298885371677
 20
123.0761354146652
 30
0.0
 10
184.2031170418529
 20
122.8026114906357
 30
0.0
 10
184.1555362777609
 20
122.6606746461119
 30
0.0
 10
184.0911679335648
 20
122.3661020688049
 30
0.0
 10
184.0744914715802
 20
122.2115236402063
 30
0.0
 10
184.0744256585818
 20
121.9018675614395
 30
0.0
 10
184.090524301418
 20
121.746945783002
 30
0.0
 10
184.1548026059089
 20
121.4370805960072
 30
0.0
 10
184.2034426662959
 20
121.2822372499748
 30
0.0
 10
184.3913215521824
 20
120.8389768044536
 30
0.0
 10
184.5771844164099
 20
120.5609806235878
 30
0.0
 10
184.9208686848201
 20
120.2112442948466
 30
0.0
 10
185.0484140230019
 20
120.1036288587526
 30
0.0
 10
185.3190921441033
 20
119.9166942890288
 30
0.0
 10
185.4620604432407
 20
119.8369418107905
 30
0.0
 10
185.7637106923407
 20
119.7058778525731
 30
0.0
 10
185.9232877008668
 20
119.6547775067
 30
0.0
 10
186.2446815008692
 20
119.587271820404
 30
0.0
 10
186.4081679070502
 20
119.5699617999746
 30
0.0
 10
186.574458515224
 20
119.5699617999746
 30
0.0
  0
LINE
  5
100
330
1F
100
AcDbEntity
  8
0
  6
HIDDEN
 62
     7
370
     0
100
AcDbLine
 10
218.7744585151
 20
144.8200652857
 30
0.0
 11
218.7744585151
 21
142.2200652857
 31
0.0
  0
LINE
  5
101
330
1F
100
AcDbEntity
  8
0
  6
HIDDEN
 62
     7
370
     0
100
AcDbLine
 10
218.7744585151
 20
93.8200652857
 30
0.0
 11
218.7744585151
 21
96.4200652857
 31
0.0
  0
SPLINE
  5
102
330
1F
100
AcDbEntity
  8
0
  6
HIDDEN
 62
     7
370
     0
100
AcDbSpline
210
0.0
220
0.0
230
1.0
 70
    11
 71
     3
 72
    66
 73
    62
 74
     0
 42
0.000000001
 43
0.00000001
 40
0.0
 40
0.0
 40
0.0
 40
0.0
 40
0.0312500000000001
 40
0.0312500000000001
 40
0.0625000000000003
 40
0.0625000000000003
 40
0.0937500000000004
 40
0.0937500000000004
 40
0.1250000000000006
 40
0.1250000000000006
 40
0.1562500000000007
 40
0.1562500000000007
 40
0.1875000000000008
 40
0.1875000000000008
 40
0.218750000000001
 40
0.218750000000001
 40
0.2500000000000011
 40
0.2500000000000011
 40
0.2812500000000012
 40
0.2812500000000012
 40
0.3125000000000014
 40
0.3125000000000014
 40
0.3437500000000016
 40
0.3437500000000016
 40
0.3750000000000017
 40
0.3750000000000017
 40
0.4062500000000018
 40
0.4062500000000018
 40
0.4375000000000019
 40
0.4375000000000019
 40
0.4687500000000021
 40
0.4687500000000021
 40
0.5000000000000022
 40
0.5000000000000022
 40
0.5312500000000023
 40
0.5312500000000023
 40
0.5625000000000024
 40
0.5625000000000024
 40
0.6250000000000026
 40
0.6250000000000026
 40
0.6562500000000023
 40
0.6562500000000023
 40
0.6875000000000021
 40
0.6875000000000021
 40
0.718750000000002
 40
0.718750000000002
 40
0.7500000000000018
 40
0.7500000000000018
 40
0.7812500000000016
 40
0.7812500000000016
 40
0.8125000000000013
 40
0.8125000000000013
 40
0.8437500000000012
 40
0.8437500000000012
 40
0.875000000000001
 40
0.875000000000001
 40
0.9062500000000008
 40
0.9062500000000008
 40
0.9375000000000006
 40
0.9375000000000006
 40
1.0
 40
1.0
 40
1.0
 40
1.0
 10
186.574458515224
 20
131.4815194925702
 30
0.0
 10
186.4092582245601
 20
131.4815194925702
 30
0.0
 10
186.2468256832636
 20
131.4970850838522
 30
0.0
 10
185.9272675276736
 20
131.5580313556818
 30
0.0
 10
185.7684841896966
 20
131.6041533996671
 30
0.0
 10
185.4657461732172
 20
131.7244165872551
 30
0.0
 10
185.3221670080829
 20
131.7979602366758
 30
0.0
 10
185.0504372782148
 20
131.9714771596081
 30
0.0
 10
184.9218087146771
 20
132.0723498163947
 30
0.0
 10
184.6912429530099
 20
132.292334605293
 30
0.0
 10
184.5877689517606
 20
132.4122137688817
 30
0.0
 10
184.4050084138348
 20
132.6720551354792
 30
0.0
 10
184.3273641576062
 20
132.8101445660514
 30
0.0
 10
184.2026715069161
 20
133.0951269982996
 30
0.0
 10
184.1546675263376
 20
133.2441221076421
 30
0.0
 10
184.0904357840193
 20
133.5486471950368
 30
0.0
 10
184.0745463399772
 20
133.7014165424733
 30
0.0
 10
184.074371409622
 20
134.0079062240873
 30
0.0
 10
184.0906020609569
 20
134.1632329943824
 30
0.0
 10
184.1543832836665
 20
134.4632952002809
 30
0.0
 10
184.2015753950628
 20
134.6088299127801
 30
0.0
 10
184.3267420127207
 20
134.890963193102
 30
0.0
 10
184.4050015000957
 20
135.0271030344567
 30
0.0
 10
184.5859216834511
 20
135.2786395842263
 30
0.0
 10
184.6892069123749
 20
135.3956664280695
 30
0.0
 10
184.9224586544237
 20
135.611741721691
 30
0.0
 10
185.0488725226893
 20
135.7074456455763
 30
0.0
 10
185.3195447933839
 20
135.874598642348
 30
0.0
 10
185.4656265655481
 20
135.9467598279711
 30
0.0
 10
185.768511011021
 20
136.0624138699276
 30
0.0
 10
185.9243413706607
 20
136.1059466771102
 30
0.0
 10
186.2446868599262
 20
136.1648425800436
 30
0.0
 10
186.4103969458978
 20
136.1799286830635
 30
0.0
 10
186.7367283345943
 20
136.1800362147303
 30
0.0
 10
186.8989154204212
 20
136.1655455575406
 30
0.0
 10
187.2212910016298
 20
136.1068174932634
 30
0.0
 10
187.3793064756674
 20
136.0626866861341
 30
0.0
 10
187.8307173507429
 20
135.8907570875361
 30
0.0
 10
188.1097968077951
 20
135.7191833948651
 30
0.0
 10
188.4558705122934
 20
135.3995325764988
 30
0.0
 10
188.5615125282081
 20
135.2804914471104
 30
0.0
 10
188.7432960041789
 20
135.028171686252
 30
0.0
 10
188.8201838275629
 20
134.8947073748806
 30
0.0
 10
188.9458383849332
 20
134.6129419623283
 30
0.0
 10
188.9941464608479
 20
134.4645212306973
 30
0.0
 10
189.0579643462882
 20
134.1654716329207
 30
0.0
 10
189.074292523331
 20
134.0132685630535
 30
0.0
 10
189.0746220133908
 20
133.7032667042137
 30
0.0
 10
189.0585255015561
 20
133.5497440371157
 30
0.0
 10
188.9952967642948
 20
133.2482153195366
 30
0.0
 10
188.9474601708843
 20
133.0982804942348
 30
0.0
 10
188.8221168529709
 20
132.8110613981439
 30
0.0
 10
188.7454201784457
 20
132.6746824838277
 30
0.0
 10
188.5643688117939
 20
132.4163269258135
 30
0.0
 10
188.4588932014331
 20
132.2936517494391
 30
0.0
 10
188.2283666327568
 20
132.0733980653871
 30
0.0
 10
188.1026471951265
 20
131.9744724939533
 30
0.0
 10
187.8298803459297
 20
131.7996338130316
 30
0.0
 10
187.6841609695236
 20
131.7249569680512
 30
0.0
 10
187.2330918644156
 20
131.5453307525584
 30
0.0
 10
186.9048590965518
 20
131.4815194925702
 30
0.0
 10
186.5744585152241
 20
131.4815194925703
 30
0.0
  0
SPLINE
  5
103
330
1F
100
AcDbEntity
  8
0
  6
HIDDEN
 62
     7
370
     0
100
AcDbSpline
210
0.0
220
0.0
230
1.0
 70
    11
 71
     3
 72
    60
 73
    56
 74
     0
 42
0.000000001
 43
0.00000001
 40
0.0
 40
0.0
 40
0.0
 40
0.0
 40
0.0312499999999994
 40
0.0312499999999994
 40
0.0624999999999988
 40
0.0624999999999988
 40
0.0937499999999982
 40
0.0937499999999982
 40
0.1249999999999976
 40
0.1249999999999976
 40
0.156249999999997
 40
0.156249999999997
 40
0.1874999999999964
 40
0.1874999999999964
 40
0.2187499999999958
 40
0.2187499999999958
 40
0.2499999999999952
 40
0.2499999999999952
 40
0.3124999999999941
 40
0.3124999999999941
 40
0.374999999999993
 40
0.374999999999993
 40
0.4062499999999925
 40
0.4062499999999925
 40
0.4374999999999919
 40
0.4374999999999919
 40
0.4531249999999916
 40
0.4531249999999916
 40
0.4687499999999914
 40
0.4687499999999914
 40
0.4999999999999919
 40
0.4999999999999919
 40
0.5624999999999933
 40
0.5624999999999933
 40
0.6249999999999948
 40
0.6249999999999948
 40
0.6874999999999962
 40
0.6874999999999962
 40
0.7187499999999967
 40
0.7187499999999967
 40
0.749999999999997
 40
0.749999999999997
 40
0.7812499999999974
 40
0.7812499999999974
 40
0.8124999999999979
 40
0.8124999999999979
 40
0.8437499999999982
 40
0.8437499999999982
 40
0.8749999999999987
 40
0.8749999999999987
 40
0.906249999999999
 40
0.906249999999999
 40
0.9374999999999994
 40
0.9374999999999994
 40
1.0
 40
1.0
 40
1.0
 40
1.0
 10
184.1554834550043
 20
128.7895404859336
 30
0.0
 10
184.1950735378511
 20
128.6580599545796
 30
0.0
 10
184.2473851587713
 20
128.5388761039
 30
0.0
 10
184.3731052643738
 20
128.323682616572
 30
0.0
 10
184.447528294818
 20
128.2270947109637
 30
0.0
 10
184.6062386030111
 20
128.0665337992087
 30
0.0
 10
184.6911172028166
 20
128.0012545625067
 30
0.0
 10
184.8628904223584
 20
127.9037523879495
 30
0.0
 10
184.9469006586544
 20
127.8732772911523
 30
0.0
 10
185.0922965819331
 20
127.8535283227948
 30
0.0
 10
185.1505628304423
 20
127.8653048722911
 30
0.0
 10
185.2171675552524
 20
127.9297252150744
 30
0.0
 10
185.2243284396502
 20
127.9804383531542
 30
0.0
 10
185.201183120268
 20
128.1034618655292
 30
0.0
 10
185.1722750342983
 20
128.1739330918145
 30
0.0
 10
185.0968542764532
 20
128.3275547544789
 30
0.0
 10
185.0499088036768
 20
128.4111900226629
 30
0.0
 10
184.8982669120554
 20
128.674570261673
 30
0.0
 10
184.7823397747921
 20
128.8681191870966
 30
0.0
 10
184.5487142038098
 20
129.3049886589925
 30
0.0
 10
184.4300314371079
 20
129.5479937931798
 30
0.0
 10
184.2735601281523
 20
129.9590683317096
 30
0.0
 10
184.2255734796002
 20
130.1027398971929
 30
0.0
 10
184.1449644698099
 20
130.4032028251518
 30
0.0
 10
184.1122649409148
 20
130.5617020794262
 30
0.0
 10
184.0838443315709
 20
130.7969126012555
 30
0.0
 10
184.0776982595973
 20
130.876160209052
 30
0.0
 10
184.0732200578324
 20
131.0278377795114
 30
0.0
 10
184.0747362682446
 20
131.1010458518198
 30
0.0
 10
184.090499207921
 20
131.3128015830468
 30
0.0
 10
184.1159732626064
 20
131.4386997289082
 30
0.0
 10
184.2223380063553
 20
131.7604300949274
 30
0.0
 10
184.3282160356259
 20
131.8984438112874
 30
0.0
 10
184.5513862565709
 20
132.0842556624177
 30
0.0
 10
184.6722726886981
 20
132.1331796971739
 30
0.0
 10
184.9013551623798
 20
132.1692310229649
 30
0.0
 10
185.0115179806303
 20
132.1573528397631
 30
0.0
 10
185.1395011479814
 20
132.0927452782138
 30
0.0
 10
185.1758424933938
 20
132.0627380644503
 30
0.0
 10
185.2189324965539
 20
131.9822099409003
 30
0.0
 10
185.2254173051558
 20
131.9306295236485
 30
0.0
 10
185.1893765524549
 20
131.8010823140229
 30
0.0
 10
185.1451573373297
 20
131.7212234895295
 30
0.0
 10
185.0195073625175
 20
131.5390940142245
 30
0.0
 10
184.9383832310361
 20
131.4350415742044
 30
0.0
 10
184.7714378609417
 20
131.2120776785251
 30
0.0
 10
184.6835496962118
 20
131.0902742964798
 30
0.0
 10
184.5179101989628
 20
130.8327130734202
 30
0.0
 10
184.4399641108254
 20
130.6972342131063
 30
0.0
 10
184.3007083771538
 20
130.4104798917582
 30
0.0
 10
184.2416826582548
 20
130.2640278538672
 30
0.0
 10
184.1478977045516
 20
129.9637831239651
 30
0.0
 10
184.1130846464421
 20
129.80808126784
 30
0.0
 10
184.0547670417654
 20
129.3523182805783
 30
0.0
 10
184.0763032893106
 20
129.0525015486415
 30
0.0
 10
184.1554834550043
 20
128.7895404859336
 30
0.0
  0
LWPOLYLINE
  5
104
330
1F
100
AcDbEntity
  8
0
  6
HIDDEN
 62
     7
370
     0
100
AcDbPolyline
 90
       20
 70
   128
 43
0.0
 10
167.3567162157
 20
132.1067161449
 10
167.5134703573
 20
131.6206128149
 10
167.7617581287
 20
131.3157604511
 10
168.0746736972
 20
131.2251945374
 10
168.4183078056
 20
131.3587292957
 10
168.7554223662
 20
131.7018941631
 10
169.0494857855
 20
132.2175019014
 10
169.2686317292
 20
132.8496784116
 10
169.3891123338
 20
133.5299175597
 10
169.3978716565
 20
134.184504879
 10
169.2939604886
 20
134.7425056764
 10
169.0886392176
 20
135.1434519072
 10
168.804157589
 20
135.3438948261
 10
168.4713436016
 20
135.3221133326
 10
168.1262628149
 20
135.0804677895
 10
167.8063100868
 20
134.6451442409
 10
167.5461572598
 20
134.063316748
 10
167.3739959295
 20
133.3980353477
 10
167.3084824474
 20
132.7213936025
 10
167.3567162157
 20
132.1067161449
  0
LWPOLYLINE
  5
105
330
1F
100
AcDbEntity
  8
0
  6
HIDDEN
 62
     7
370
     0
100
AcDbPolyline
 90
       23
 70
   128
 43
0.0
 10
166.6438456271
 20
131.6542406238
 10
166.828839943
 20
131.0406732067
 10
167.1147468677
 20
130.6141305285
 10
167.4784039224
 20
130.4091685402
 10
167.8903497754
 20
130.4423920432
 10
168.3172110235
 20
130.7111094669
 10
168.7244059071
 20
131.1935509236
 10
169.0789459184
 20
131.8506318758
 10
169.3521083342
 20
132.6291195325
 10
169.5217631602
 20
133.4659454536
 10
169.5741659713
 20
134.2933149799
 10
169.5050714034
 20
135.0441995527
 10
169.3200770874
 20
135.6577669698
 10
169.0341701628
 20
136.084309648
 10
168.670513108
 20
136.2892716363
 10
168.2585672551
 20
136.2560481333
 10
167.831706007
 20
135.9873307096
 10
167.4245111233
 20
135.5048892529
 10
167.069971112
 20
134.8478083007
 10
166.7968086962
 20
134.069320644
 10
166.6271538703
 20
133.2324947229
 10
166.5747510592
 20
132.4051251966
 10
166.6438456271
 20
131.6542406238
  0
LWPOLYLINE
  5
106
330
1F
100
AcDbEntity
  8
0
  6
HIDDEN
 62
     7
370
     0
100
AcDbPolyline
 90
       23
 70
   128
 43
0.0
 10
189.264109564
 20
103.6450162448
 10
189.5295332065
 20
104.407660474
 10
189.555554272
 20
105.2096810404
 10
189.3400646886
 20
105.9861030077
 10
188.9005221406
 20
106.6740252855
 10
188.2725357514
 20
107.2177165022
 10
187.5069812434
 20
107.5731300288
 10
186.6658792898
 20
107.7114723751
 10
185.8173709688
 20
107.621535867
 10
185.0301973782
 20
107.3106066256
 10
184.3681306409
 20
106.8038742887
 10
183.8848074664
 20
106.1423912966
 10
183.6193838239
 20
105.3797470675
 10
183.5933627584
 20
104.577726501
 10
183.8088523419
 20
103.8013045338
 10
184.2483948898
 20
103.1133822559
 10
184.876381279
 20
102.5696910393
 10
185.6419357871
 20
102.2142775126
 10
186.4830377406
 20
102.0759351663
 10
187.3315460617
 20
102.1658716744
 10
188.1187196522
 20
102.4768009159
 10
188.7807863896
 20
102.9835332528
 10
189.264109564
 20
103.6450162448
  0
LWPOLYLINE
  5
107
330
1F
100
AcDbEntity
  8
0
  6
HIDDEN
 62
     7
370
     0
100
AcDbPolyline
 90
       23
 70
   128
 43
0.0
 10
189.264109564
 20
104.9036022417
 10
189.5295332065
 20
105.6662464709
 10
189.555554272
 20
106.4682670373
 10
189.3400646886
 20
107.2446890046
 10
188.9005221406
 20
107.9326112824
 10
188.2725357514
 20
108.4763024991
 10
187.5069812434
 20
108.8317160257
 10
186.6658792898
 20
108.970058372
 10
185.8173709688
 20
108.880121864
 10
185.0301973782
 20
108.5691926225
 10
184.3681306409
 20
108.0624602856
 10
183.8848074664
 20
107.4009772935
 10
183.6193838239
 20
106.6383330644
 10
183.5933627584
 20
105.8363124979
 10
183.8088523419
 20
105.0598905307
 10
184.2483948898
 20
104.3719682528
 10
184.876381279
 20
103.8282770362
 10
185.6419357871
 20
103.4728635096
 10
186.4830377406
 20
103.3345211632
 10
187.3315460617
 20
103.4244576713
 10
188.1187196522
 20
103.7353869128
 10
188.7807863896
 20
104.2421192497
 10
189.264109564
 20
104.9036022417
  0
LINE
  5
108
330
1F
100
AcDbEntity
  8
0
  6
HIDDEN
 62
     7
370
     0
100
AcDbLine
 10
186.4624358916
 20
107.0924371421
 30
0.0
 11
186.4624358916
 21
106.4083968555
 31
0.0
  0
LINE
  5
109
330
1F
100
AcDbEntity
  8
0
  6
HIDDEN
 62
     7
370
     0
100
AcDbLine
 10
188.0153066487
 20
106.3715070629
 30
0.0
 11
188.0153066487
 21
105.6874667762
 31
0.0
  0
LINE
  5
10A
330
1F
100
AcDbEntity
  8
0
  6
HIDDEN
 62
     7
370
     0
100
AcDbLine
 10
185.0668116491
 20
105.5334898134
 30
0.0
 11
185.0215877582
 21
106.1891795602
 31
0.0
  0
LINE
  5
10B
330
1F
100
AcDbEntity
  8
0
  6
HIDDEN
 62
     7
370
     0
100
AcDbLine
 10
185.0215877582
 20
106.1891795602
 30
0.0
 11
185.0215877582
 21
105.5051392735
 31
0.0
  0
LINE
  5
10C
330
1F
100
AcDbEntity
  8
0
  6
HIDDEN
 62
     7
370
     0
100
AcDbLine
 10
188.0821053813
 20
104.7189688619
 30
0.0
 11
188.1273292723
 21
104.7473194017
 31
0.0
  0
LINE
  5
10D
330
1F
100
AcDbEntity
  8
0
  6
HIDDEN
 62
     7
370
     0
100
AcDbLine
 10
188.1273292723
 20
104.7473194017
 30
0.0
 11
188.1273292723
 21
104.0632791151
 31
0.0
  0
LINE
  5
10E
330
1F
100
AcDbEntity
  8
0
  6
HIDDEN
 62
     7
370
     0
100
AcDbLine
 10
188.0153066487
 20
106.3715070629
 30
0.0
 11
188.1273292723
 21
104.7473194017
 31
0.0
  0
LINE
  5
10F
330
1F
100
AcDbEntity
  8
0
  6
HIDDEN
 62
     7
370
     0
100
AcDbLine
 10
188.0153066487
 20
106.3715070629
 30
0.0
 11
186.4624358916
 21
107.0924371421
 31
0.0
  0
LINE
  5
110
330
1F
100
AcDbEntity
  8
0
  6
HIDDEN
 62
     7
370
     0
100
AcDbLine
 10
186.4624358916
 20
107.0924371421
 30
0.0
 11
185.0215877582
 21
106.1891795602
 31
0.0
  0
LWPOLYLINE
  5
111
330
1F
100
AcDbEntity
  8
0
  6
HIDDEN
 62
     7
370
     0
100
AcDbPolyline
 90
       19
 70
   128
 43
0.0
 10
188.3675592144
 20
105.6618515603
 10
188.5624120715
 20
106.288346398
 10
188.5174883906
 20
106.9396834749
 10
188.2382066306
 20
107.5373019271
 10
187.7582522937
 20
108.0091201492
 10
187.1355149561
 20
108.2982299003
 10
186.4451059314
 20
108.3697602777
 10
185.7702987374
 20
108.2150836622
 10
185.1924850807
 20
107.8528563363
 10
184.781357816
 20
107.3267682616
 10
184.586504959
 20
106.7002734239
 10
184.6314286399
 20
106.048936347
 10
184.9107103998
 20
105.4513178948
 10
185.3906647368
 20
104.9794996727
 10
186.0134020744
 20
104.6903899216
 10
186.703811099
 20
104.6188595442
 10
187.378618293
 20
104.7735361597
 10
187.9564319497
 20
105.1357634856
 10
188.3675592144
 20
105.6618515603
  0
LWPOLYLINE
  5
112
330
1F
100
AcDbEntity
  8
0
  6
HIDDEN
 62
     7
370
     0
100
AcDbPolyline
 90
       23
 70
   128
 43
0.0
 10
183.8848074664
 20
133.7365283296
 10
184.3681306409
 20
134.3980113217
 10
185.0301973782
 20
134.9047436586
 10
185.8173709688
 20
135.2156729
 10
186.6658792898
 20
135.3056094081
 10
187.5069812434
 20
135.1672670618
 10
188.2725357514
 20
134.8118535352
 10
188.9005221406
 20
134.2681623185
 10
189.3400646886
 20
133.5802400407
 10
189.555554272
 20
132.8038180734
 10
189.5295332065
 20
132.0017975069
 10
189.264109564
 20
131.2391532778
 10
188.7807863896
 20
130.5776702857
 10
188.1187196522
 20
130.0709379488
 10
187.3315460617
 20
129.7600087074
 10
186.4830377406
 20
129.6700721993
 10
185.6419357871
 20
129.8084145456
 10
184.876381279
 20
130.1638280722
 10
184.2483948898
 20
130.7075192889
 10
183.8088523419
 20
131.3954415667
 10
183.5933627584
 20
132.171863534
 10
183.6193838239
 20
132.9738841004
 10
183.8848074664
 20
133.7365283296
  0
LWPOLYLINE
  5
113
330
1F
100
AcDbEntity
  8
0
  6
HIDDEN
 62
     7
370
     0
100
AcDbPolyline
 90
       19
 70
   128
 43
0.0
 10
184.781357816
 20
132.978279011
 10
185.1924850807
 20
133.5043670857
 10
185.7702987374
 20
133.8665944116
 10
186.4451059314
 20
134.0212710271
 10
187.1355149561
 20
133.9497406497
 10
187.7582522937
 20
133.6606308986
 10
188.2382066306
 20
133.1888126765
 10
188.5174883906
 20
132.5911942244
 10
188.5624120715
 20
131.9398571474
 10
188.3675592144
 20
131.3133623098
 10
187.9564319497
 20
130.787274235
 10
187.378618293
 20
130.4250469092
 10
186.703811099
 20
130.2703702936
 10
186.0134020744
 20
130.341900671
 10
185.3906647368
 20
130.6310104221
 10
184.9107103998
 20
131.1028286442
 10
184.6314286399
 20
131.7004470964
 10
184.586504959
 20
132.3517841734
 10
184.781357816
 20
132.978279011
  0
LWPOLYLINE
  5
114
330
1F
100
AcDbEntity
  8
0
  6
HIDDEN
 62
     7
370
     0
100
AcDbPolyline
 90
       23
 70
   128
 43
0.0
 10
183.8848074664
 20
134.9951143265
 10
184.3681306409
 20
135.6565973186
 10
185.0301973782
 20
136.1633296555
 10
185.8173709688
 20
136.4742588969
 10
186.6658792898
 20
136.564195405
 10
187.5069812434
 20
136.4258530587
 10
188.2725357514
 20
136.0704395321
 10
188.9005221406
 20
135.5267483154
 10
189.3400646886
 20
134.8388260376
 10
189.555554272
 20
134.0624040703
 10
189.5295332065
 20
133.2603835039
 10
189.264109564
 20
132.4977392747
 10
188.7807863896
 20
131.8362562826
 10
188.1187196522
 20
131.3295239457
 10
187.3315460617
 20
131.0185947043
 10
186.4830377406
 20
130.9286581962
 10
185.6419357871
 20
131.0670005425
 10
184.876381279
 20
131.4224140691
 10
184.2483948898
 20
131.9661052858
 10
183.8088523419
 20
132.6540275636
 10
183.5933627584
 20
133.4304495309
 10
183.6193838239
 20
134.2324700973
 10
183.8848074664
 20
134.9951143265
  0
LINE
  5
115
330
1F
100
AcDbEntity
  8
0
  6
HIDDEN
 62
     7
370
     0
100
AcDbLine
 10
186.4624358916
 20
134.7960687515
 30
0.0
 11
185.0215877582
 21
133.8928111696
 31
0.0
  0
LINE
  5
116
330
1F
100
AcDbEntity
  8
0
  6
HIDDEN
 62
     7
370
     0
100
AcDbLine
 10
186.4624358916
 20
134.7960687515
 30
0.0
 11
186.4624358916
 21
135.4801090381
 31
0.0
  0
LINE
  5
117
330
1F
100
AcDbEntity
  8
0
  6
HIDDEN
 62
     7
370
     0
100
AcDbLine
 10
186.4624358916
 20
134.7960687515
 30
0.0
 11
188.0153066487
 21
134.0751386723
 31
0.0
  0
LINE
  5
118
330
1F
100
AcDbEntity
  8
0
  6
HIDDEN
 62
     7
370
     0
100
AcDbLine
 10
188.0153066487
 20
134.0751386723
 30
0.0
 11
188.0153066487
 21
134.7591789589
 31
0.0
  0
LINE
  5
119
330
1F
100
AcDbEntity
  8
0
  6
HIDDEN
 62
     7
370
     0
100
AcDbLine
 10
188.0153066487
 20
134.0751386723
 30
0.0
 11
188.1273292723
 21
132.4509510111
 31
0.0
  0
LINE
  5
11A
330
1F
100
AcDbEntity
  8
0
  6
HIDDEN
 62
     7
370
     0
100
AcDbLine
 10
185.1336103818
 20
132.2686235084
 30
0.0
 11
185.1336103818
 21
132.9526637951
 31
0.0
  0
LINE
  5
11B
330
1F
100
AcDbEntity
  8
0
  6
HIDDEN
 62
     7
370
     0
100
AcDbLine
 10
185.1336103818
 20
132.9526637951
 30
0.0
 11
185.0215877582
 21
134.5768514562
 31
0.0
  0
LINE
  5
11C
330
1F
100
AcDbEntity
  8
0
  6
HIDDEN
 62
     7
370
     0
100
AcDbLine
 10
185.0215877582
 20
133.8928111696
 30
0.0
 11
185.0215877582
 21
134.5768514562
 31
0.0
  0
LINE
  5
11D
330
1F
100
AcDbEntity
  8
0
  6
HIDDEN
 62
     7
370
     0
100
AcDbLine
 10
185.1336103818
 20
132.2686235084
 30
0.0
 11
185.0215877582
 21
133.8928111696
 31
0.0
  0
LINE
  5
11E
330
1F
100
AcDbEntity
  8
0
  6
HIDDEN
 62
     7
370
     0
100
AcDbLine
 10
186.6864811388
 20
131.5476934292
 30
0.0
 11
186.6864811388
 21
132.2317337159
 31
0.0
  0
LINE
  5
11F
330
1F
100
AcDbEntity
  8
0
  6
HIDDEN
 62
     7
370
     0
100
AcDbLine
 10
186.6864811388
 20
132.2317337159
 30
0.0
 11
188.1273292723
 21
133.1349912978
 31
0.0
  0
LINE
  5
120
330
1F
100
AcDbEntity
  8
0
  6
HIDDEN
 62
     7
370
     0
100
AcDbLine
 10
188.1273292723
 20
132.4509510111
 30
0.0
 11
188.1273292723
 21
133.1349912978
 31
0.0
  0
LINE
  5
121
330
1F
100
AcDbEntity
  8
0
  6
HIDDEN
 62
     7
370
     0
100
AcDbLine
 10
186.6864811388
 20
131.5476934292
 30
0.0
 11
188.1273292723
 21
132.4509510111
 31
0.0
  0
LINE
  5
122
330
1F
100
AcDbEntity
  8
0
  6
HIDDEN
 62
     7
370
     0
100
AcDbLine
 10
185.1336103818
 20
132.9526637951
 30
0.0
 11
186.6864811388
 21
132.2317337159
 31
0.0
  0
LINE
  5
123
330
1F
100
AcDbEntity
  8
0
  6
HIDDEN
 62
     7
370
     0
100
AcDbLine
 10
185.1336103818
 20
132.2686235084
 30
0.0
 11
186.6864811388
 21
131.5476934292
 31
0.0
  0
LWPOLYLINE
  5
124
330
1F
100
AcDbEntity
  8
0
  6
HIDDEN
 62
     7
370
     0
100
AcDbPolyline
 90
       21
 70
   128
 43
0.0
 10
184.3819446353
 20
134.8738098252
 10
184.823985518
 20
135.4606551681
 10
185.4373748939
 20
135.8904179866
 10
186.1620699372
 20
136.1210301019
 10
186.9271324478
 20
136.1299175932
 10
187.6576727767
 20
135.916210491
 10
188.2821805464
 20
135.5008279354
 10
188.7395245854
 20
134.9244304652
 10
188.9849368725
 20
134.2434398807
 10
188.9943947432
 20
133.524516285
 10
188.7669723952
 20
132.8380329288
 10
188.3249315125
 20
132.2511875859
 10
187.7115421366
 20
131.8214247674
 10
186.9868470933
 20
131.5908126521
 10
186.2217845826
 20
131.5819251608
 10
185.4912442538
 20
131.795632263
 10
184.866736484
 20
132.2110148186
 10
184.4093924451
 20
132.7874122888
 10
184.163980158
 20
133.4684028733
 10
184.1545222873
 20
134.187326469
 10
184.3819446353
 20
134.8738098252
  0
LINE
  5
125
330
1F
100
AcDbEntity
  8
0
  6
HIDDEN
 62
     7
370
     0
100
AcDbLine
 10
188.0153066487
 20
134.7591789589
 30
0.0
 11
188.1273292723
 21
133.1349912978
 31
0.0
  0
LINE
  5
126
330
1F
100
AcDbEntity
  8
0
  6
HIDDEN
 62
     7
370
     0
100
AcDbLine
 10
186.4624358916
 20
135.4801090381
 30
0.0
 11
188.0153066487
 21
134.7591789589
 31
0.0
  0
LINE
  5
127
330
1F
100
AcDbEntity
  8
0
  6
HIDDEN
 62
     7
370
     0
100
AcDbLine
 10
186.4624358916
 20
135.4801090381
 30
0.0
 11
185.0215877582
 21
134.5768514562
 31
0.0
  0
LWPOLYLINE
  5
128
330
1F
100
AcDbEntity
  8
0
  6
HIDDEN
 62
     7
370
     0
100
AcDbPolyline
 90
       21
 70
   128
 43
0.0
 10
171.8890036951
 20
135.0374779591
 10
172.2664957786
 20
135.0689995921
 10
172.5939255992
 20
134.8610336812
 10
172.8392420446
 20
134.4339373789
 10
172.978431832
 20
133.8295178469
 10
172.9978700952
 20
133.1069398803
 10
172.8956540816
 20
132.336934445
 10
172.6817894066
 20
131.5948750378
 10
172.3772106349
 20
130.9533996038
 10
172.0117320587
 20
130.475300228
 10
171.6211292675
 20
130.2073766083
 10
171.243637184
 20
130.1758549753
 10
170.9162073634
 20
130.3838208861
 10
170.670890918
 20
130.8109171884
 10
170.5317011306
 20
131.4153367204
 10
170.5122628674
 20
132.137914687
 10
170.6144788811
 20
132.9079201224
 10
170.828343556
 20
133.6499795295
 10
171.1329223277
 20
134.2914549635
 10
171.4984009039
 20
134.7695543394
 10
171.8890036951
 20
135.0374779591
  0
LWPOLYLINE
  5
129
330
1F
100
AcDbEntity
  8
0
  6
HIDDEN
 62
     7
370
     0
100
AcDbPolyline
 90
       18
 70
   128
 43
0.0
 10
172.4983415838
 20
134.1847052027
 10
172.8062771606
 20
134.1930654075
 10
173.0599620573
 20
133.9719803372
 10
173.225134723
 20
133.5513087555
 10
173.279487674
 20
132.9878646906
 10
173.215680243
 20
132.3577443856
 10
173.0423299771
 20
131.7460490793
 10
172.7828487903
 20
131.2353916123
 10
172.4722810548
 20
130.8947391053
 10
172.152570664
 20
130.7700985669
 10
171.866896278
 20
130.8783033925
 10
171.6538398054
 20
131.2047399207
 10
171.5421757036
 20
131.7053210897
 10
171.5469848281
 20
132.3124406387
 10
171.6676176801
 20
132.9441037085
 10
171.8877821245
 20
133.5150007012
 10
172.177743733
 20
133.9480288147
 10
172.4983415838
 20
134.1847052027
  0
LWPOLYLINE
  5
12A
330
1F
100
AcDbEntity
  8
0
  6
HIDDEN
 62
     7
370
     0
100
AcDbPolyline
 90
       21
 70
   128
 43
0.0
 10
168.430895729
 20
135.7203347073
 10
168.8083878126
 20
135.7518563403
 10
169.1358176331
 20
135.5438904294
 10
169.3811340786
 20
135.1167941271
 10
169.520323866
 20
134.5123745951
 10
169.5397621291
 20
133.7897966285
 10
169.4375461155
 20
133.0197911932
 10
169.2236814405
 20
132.277731786
 10
168.9191026688
 20
131.6362563521
 10
168.5536240926
 20
131.1581569762
 10
168.1630213014
 20
130.8902333565
 10
167.7855292179
 20
130.8587117235
 10
167.4580993973
 20
131.0666776343
 10
167.2127829519
 20
131.4937739367
 10
167.0735931645
 20
132.0981934686
 10
167.0541549013
 20
132.8207714352
 10
167.156370915
 20
133.5907768706
 10
167.3702355899
 20
134.3328362778
 10
167.6748143616
 20
134.9743117117
 10
168.0402929378
 20
135.4524110876
 10
168.430895729
 20
135.7203347073
  0
LWPOLYLINE
  5
12B
330
1F
100
AcDbEntity
  8
0
  6
HIDDEN
 62
     7
370
     0
100
AcDbPolyline
 90
       19
 70
   128
 43
0.0
 10
168.184554905
 20
135.3343917434
 10
168.5273177815
 20
135.3508873853
 10
168.815459147
 20
135.1259524097
 10
169.0142249004
 20
134.6867172943
 10
169.0996409582
 20
134.0861602766
 10
169.0614048833
 20
133.396717396
 10
168.9041285106
 20
132.7015456391
 10
168.6467816919
 20
132.0844929795
 10
168.3204042515
 20
131.6199850746
 10
167.9643621255
 20
131.364048433
 10
167.6215992489
 20
131.3475527912
 10
167.3334578834
 20
131.5724877668
 10
167.1346921301
 20
132.0117228821
 10
167.0492760723
 20
132.6122798999
 10
167.0875121471
 20
133.3017227805
 10
167.2447885198
 20
133.9968945373
 10
167.5021353385
 20
134.613947197
 10
167.828512779
 20
135.0784551019
 10
168.184554905
 20
135.3343917434
  0
LINE
  5
12C
330
1F
100
AcDbEntity
  8
0
  6
HIDDEN
 62
     7
370
     0
100
AcDbLine
 10
169.2237718591
 20
133.4621087254
 30
0.0
 11
169.8838380092
 21
134.4015301025
 31
0.0
  0
LINE
  5
12D
330
1F
100
AcDbEntity
  8
0
  6
HIDDEN
 62
     7
370
     0
100
AcDbLine
 10
167.4917210515
 20
133.8041288687
 30
0.0
 11
168.1517872017
 21
134.7435502458
 31
0.0
  0
LINE
  5
12E
330
1F
100
AcDbEntity
  8
0
  6
HIDDEN
 62
     7
370
     0
100
AcDbLine
 10
167.4917210515
 20
133.8041288687
 30
0.0
 11
167.414392365
 21
132.4097987111
 31
0.0
  0
LINE
  5
12F
330
1F
100
AcDbEntity
  8
0
  6
HIDDEN
 62
     7
370
     0
100
AcDbLine
 10
169.2237718591
 20
133.4621087254
 30
0.0
 11
169.1464431726
 21
132.0677785678
 31
0.0
  0
LINE
  5
130
330
1F
100
AcDbEntity
  8
0
  6
HIDDEN
 62
     7
370
     0
100
AcDbLine
 10
169.2237718591
 20
133.4621087254
 30
0.0
 11
167.4917210515
 21
133.8041288687
 31
0.0
  0
LINE
  5
131
330
1F
100
AcDbEntity
  8
0
  6
HIDDEN
 62
     7
370
     0
100
AcDbLine
 10
169.1464431726
 20
132.0677785678
 30
0.0
 11
167.414392365
 21
132.4097987111
 31
0.0
  0
LINE
  5
132
330
1F
100
AcDbEntity
  8
0
  6
HIDDEN
 62
     7
370
     0
100
AcDbLine
 10
167.414392365
 20
132.4097987111
 30
0.0
 11
167.9971298288
 21
131.9548899307
 31
0.0
  0
LINE
  5
133
330
1F
100
AcDbEntity
  8
0
  6
HIDDEN
 62
     7
370
     0
100
AcDbLine
 10
169.1464431726
 20
132.0677785678
 30
0.0
 11
169.7291806363
 21
131.6128697874
 31
0.0
  0
LINE
  5
134
330
1F
100
AcDbEntity
  8
0
  6
HIDDEN
 62
     7
370
     0
100
AcDbLine
 10
170.466575473
 20
133.946621322
 30
0.0
 11
168.7345246654
 21
134.2886414654
 31
0.0
  0
LINE
  5
135
330
1F
100
AcDbEntity
  8
0
  6
HIDDEN
 62
     7
370
     0
100
AcDbLine
 10
168.7345246654
 20
134.2886414654
 30
0.0
 11
168.1517872017
 21
134.7435502458
 31
0.0
  0
LINE
  5
136
330
1F
100
AcDbEntity
  8
0
  6
HIDDEN
 62
     7
370
     0
100
AcDbLine
 10
170.466575473
 20
133.946621322
 30
0.0
 11
169.8838380092
 21
134.4015301025
 31
0.0
  0
LINE
  5
137
330
1F
100
AcDbEntity
  8
0
  6
HIDDEN
 62
     7
370
     0
100
AcDbLine
 10
169.8838380092
 20
134.4015301025
 30
0.0
 11
168.1517872017
 21
134.7435502458
 31
0.0
  0
LINE
  5
138
330
1F
100
AcDbEntity
  8
0
  6
HIDDEN
 62
     7
370
     0
100
AcDbLine
 10
170.3892467865
 20
132.5522911645
 30
0.0
 11
168.657195979
 21
132.8943113078
 31
0.0
  0
LINE
  5
139
330
1F
100
AcDbEntity
  8
0
  6
HIDDEN
 62
     7
370
     0
100
AcDbLine
 10
169.7291806363
 20
131.6128697874
 30
0.0
 11
167.9971298288
 21
131.9548899307
 31
0.0
  0
LINE
  5
13A
330
1F
100
AcDbEntity
  8
0
  6
HIDDEN
 62
     7
370
     0
100
AcDbLine
 10
168.657195979
 20
132.8943113078
 30
0.0
 11
167.9971298288
 21
131.9548899307
 31
0.0
  0
LINE
  5
13B
330
1F
100
AcDbEntity
  8
0
  6
HIDDEN
 62
     7
370
     0
100
AcDbLine
 10
170.3892467865
 20
132.5522911645
 30
0.0
 11
169.7291806363
 21
131.6128697874
 31
0.0
  0
LINE
  5
13C
330
1F
100
AcDbEntity
  8
0
  6
HIDDEN
 62
     7
370
     0
100
AcDbLine
 10
168.7345246654
 20
134.2886414654
 30
0.0
 11
168.657195979
 21
132.8943113078
 31
0.0
  0
LINE
  5
13D
330
1F
100
AcDbEntity
  8
0
  6
HIDDEN
 62
     7
370
     0
100
AcDbLine
 10
170.466575473
 20
133.946621322
 30
0.0
 11
170.3892467865
 21
132.5522911645
 31
0.0
  0
LWPOLYLINE
  5
13E
330
1F
100
AcDbEntity
  8
0
  6
HIDDEN
 62
     7
370
     0
100
AcDbPolyline
 90
       19
 70
   128
 43
0.0
 10
167.9643621255
 20
103.4361802081
 10
168.3204042515
 20
103.2702807981
 10
168.6467816919
 20
103.3480991493
 10
168.9041285106
 20
103.6602492203
 10
169.0614048833
 20
104.1690811055
 10
169.0996409582
 20
104.8132221702
 10
169.0142249004
 20
105.5149794952
 10
168.815459147
 20
106.1897107905
 10
168.5273177815
 20
106.7560335039
 10
168.184554905
 20
107.145640758
 10
167.828512779
 20
107.3115401681
 10
167.5021353385
 20
107.2337218168
 10
167.2447885198
 20
106.9215717458
 10
167.0875121471
 20
106.4127398606
 10
167.0492760723
 20
105.768598796
 10
167.1346921301
 20
105.0668414709
 10
167.3334578834
 20
104.3921101756
 10
167.6215992489
 20
103.8257874622
 10
167.9643621255
 20
103.4361802081
  0
LWPOLYLINE
  5
13F
330
1F
100
AcDbEntity
  8
0
  6
HIDDEN
 62
     7
370
     0
100
AcDbPolyline
 90
       21
 70
   128
 43
0.0
 10
168.1630213014
 20
103.0784836745
 10
168.5536240926
 20
102.8836240247
 10
168.9191026688
 20
102.9287071132
 10
169.2236814405
 20
103.2093198934
 10
169.4375461155
 20
103.6979940311
 10
169.5397621291
 20
104.3468946969
 10
169.520323866
 20
105.0925029726
 10
169.3811340786
 20
105.861833525
 10
169.1358176331
 20
106.5795789196
 10
168.8083878126
 20
107.1754812363
 10
168.430895729
 20
107.5912094043
 10
168.0402929378
 20
107.7860690542
 10
167.6748143616
 20
107.7409859656
 10
167.3702355899
 20
107.4603731854
 10
167.156370915
 20
106.9716990477
 10
167.0541549013
 20
106.3227983819
 10
167.0735931645
 20
105.5771901063
 10
167.2127829519
 20
104.8078595538
 10
167.4580993973
 20
104.0901141592
 10
167.7855292179
 20
103.4942118426
 10
168.1630213014
 20
103.0784836745
  0
LWPOLYLINE
  5
140
330
1F
100
AcDbEntity
  8
0
  6
HIDDEN
 62
     7
370
     0
100
AcDbPolyline
 90
       21
 70
   128
 43
0.0
 10
171.6211292675
 20
103.7613404227
 10
172.0117320587
 20
103.5664807729
 10
172.3772106349
 20
103.6115638615
 10
172.6817894066
 20
103.8921766416
 10
172.8956540816
 20
104.3808507793
 10
172.9978700952
 20
105.0297514451
 10
172.978431832
 20
105.7753597208
 10
172.8392420446
 20
106.5446902732
 10
172.5939255992
 20
107.2624356678
 10
172.2664957786
 20
107.8583379845
 10
171.8890036951
 20
108.2740661525
 10
171.4984009039
 20
108.4689258024
 10
171.1329223277
 20
108.4238427138
 10
170.828343556
 20
108.1432299336
 10
170.6144788811
 20
107.654555796
 10
170.5122628674
 20
107.0056551301
 10
170.5317011306
 20
106.2600468545
 10
170.670890918
 20
105.490716302
 10
170.9162073634
 20
104.7729709074
 10
171.243637184
 20
104.1770685908
 10
171.6211292675
 20
103.7613404227
  0
LINE
  5
141
330
1F
100
AcDbEntity
  8
0
  6
HIDDEN
 62
     7
370
     0
100
AcDbLine
 10
168.7345246654
 20
105.4482904155
 30
0.0
 11
168.1517872017
 21
106.5936221905
 31
0.0
  0
LINE
  5
142
330
1F
100
AcDbEntity
  8
0
  6
HIDDEN
 62
     7
370
     0
100
AcDbLine
 10
167.4917210515
 20
106.436242258
 30
0.0
 11
168.1517872017
 21
106.5936221905
 31
0.0
  0
LINE
  5
143
330
1F
100
AcDbEntity
  8
0
  6
HIDDEN
 62
     7
370
     0
100
AcDbLine
 10
167.414392365
 20
105.1335305506
 30
0.0
 11
167.4917210515
 21
106.436242258
 31
0.0
  0
LINE
  5
144
330
1F
100
AcDbEntity
  8
0
  6
HIDDEN
 62
     7
370
     0
100
AcDbLine
 10
167.414392365
 20
105.1335305506
 30
0.0
 11
167.9971298288
 21
103.9881987756
 31
0.0
  0
LINE
  5
145
330
1F
100
AcDbEntity
  8
0
  6
HIDDEN
 62
     7
370
     0
100
AcDbLine
 10
168.657195979
 20
104.1455787081
 30
0.0
 11
167.9971298288
 21
103.9881987756
 31
0.0
  0
LINE
  5
146
330
1F
100
AcDbEntity
  8
0
  6
HIDDEN
 62
     7
370
     0
100
AcDbLine
 10
168.657195979
 20
104.1455787081
 30
0.0
 11
168.7345246654
 21
105.4482904155
 31
0.0
  0
LINE
  5
147
330
1F
100
AcDbEntity
  8
0
  6
HIDDEN
 62
     7
370
     0
100
AcDbLine
 10
170.466575473
 20
105.7903105589
 30
0.0
 11
168.7345246654
 21
105.4482904155
 31
0.0
  0
LWPOLYLINE
  5
148
330
1F
100
AcDbEntity
  8
0
  6
HIDDEN
 62
     7
370
     0
100
AcDbPolyline
 90
       18
 70
   128
 43
0.0
 10
172.3108294845
 20
104.566506836
 10
172.6314273353
 20
104.4233412849
 10
172.9213889438
 20
104.5128250503
 10
173.1415533882
 20
104.8228728539
 10
173.2621862402
 20
105.3116110216
 10
173.2669953647
 20
105.9130327558
 10
173.1553312629
 20
106.5459127186
 10
172.9422747903
 20
107.1247769642
 10
172.6566004043
 20
107.5714466686
 10
172.3368900135
 20
107.8255966132
 10
172.026322278
 20
107.8529024396
 10
171.7668410912
 20
107.6496763446
 10
171.5934908253
 20
107.2433651386
 10
171.5296833943
 20
106.6888434013
 10
171.5840363452
 20
106.0610023661
 10
171.749209011
 20
105.4446354437
 10
172.0028939077
 20
104.9229864025
 10
172.3108294845
 20
104.566506836
  0
LINE
  5
149
330
1F
100
AcDbEntity
  8
0
  6
HIDDEN
 62
     7
370
     0
100
AcDbLine
 10
170.3892467865
 20
104.4875988514
 30
0.0
 11
168.657195979
 21
104.1455787081
 31
0.0
  0
LINE
  5
14A
330
1F
100
AcDbEntity
  8
0
  6
HIDDEN
 62
     7
370
     0
100
AcDbLine
 10
169.1464431726
 20
105.4755506939
 30
0.0
 11
169.7291806363
 21
104.330218919
 31
0.0
  0
LINE
  5
14B
330
1F
100
AcDbEntity
  8
0
  6
HIDDEN
 62
     7
370
     0
100
AcDbLine
 10
169.1464431726
 20
105.4755506939
 30
0.0
 11
169.2237718591
 21
106.7782624014
 31
0.0
  0
LINE
  5
14C
330
1F
100
AcDbEntity
  8
0
  6
HIDDEN
 62
     7
370
     0
100
AcDbLine
 10
169.2237718591
 20
106.7782624014
 30
0.0
 11
169.8838380092
 21
106.9356423338
 31
0.0
  0
LINE
  5
14D
330
1F
100
AcDbEntity
  8
0
  6
HIDDEN
 62
     7
370
     0
100
AcDbLine
 10
170.3892467865
 20
104.4875988514
 30
0.0
 11
169.7291806363
 21
104.330218919
 31
0.0
  0
LINE
  5
14E
330
1F
100
AcDbEntity
  8
0
  6
HIDDEN
 62
     7
370
     0
100
AcDbLine
 10
170.3892467865
 20
104.4875988514
 30
0.0
 11
170.466575473
 21
105.7903105589
 31
0.0
  0
LINE
  5
14F
330
1F
100
AcDbEntity
  8
0
  6
HIDDEN
 62
     7
370
     0
100
AcDbLine
 10
170.466575473
 20
105.7903105589
 30
0.0
 11
169.8838380092
 21
106.9356423338
 31
0.0
  0
LINE
  5
150
330
1F
100
AcDbEntity
  8
0
  6
HIDDEN
 62
     7
370
     0
100
AcDbLine
 10
169.2237718591
 20
106.7782624014
 30
0.0
 11
167.4917210515
 21
106.436242258
 31
0.0
  0
LINE
  5
151
330
1F
100
AcDbEntity
  8
0
  6
HIDDEN
 62
     7
370
     0
100
AcDbLine
 10
169.8838380092
 20
106.9356423338
 30
0.0
 11
168.1517872017
 21
106.5936221905
 31
0.0
  0
LINE
  5
152
330
1F
100
AcDbEntity
  8
0
  6
HIDDEN
 62
     7
370
     0
100
AcDbLine
 10
169.1464431726
 20
105.4755506939
 30
0.0
 11
167.414392365
 21
105.1335305506
 31
0.0
  0
LINE
  5
153
330
1F
100
AcDbEntity
  8
0
  6
HIDDEN
 62
     7
370
     0
100
AcDbLine
 10
169.7291806363
 20
104.330218919
 30
0.0
 11
167.9971298288
 21
103.9881987756
 31
0.0
  0
LINE
  5
154
330
1F
100
AcDbEntity
  8
0
  6
HIDDEN
 62
     7
370
     0
100
AcDbLine
 10
166.3744585152
 20
101.8972896829
 30
0.0
 11
168.6556323938
 21
102.347742645
 31
0.0
  0
LINE
  5
155
330
1F
100
AcDbEntity
  8
0
  6
HIDDEN
 62
     7
370
     0
100
AcDbLine
 10
167.4932846366
 20
108.2340783211
 30
0.0
 11
166.3744585152
 21
108.0131488491
 31
0.0
  0
LINE
  5
156
330
1F
100
AcDbEntity
  8
0
  6
HIDDEN
 62
     7
370
     0
100
AcDbLine
 10
189.0744585152
 20
104.7843703764
 30
0.0
 11
189.0744585152
 21
116.5847371263
 31
0.0
  0
LINE
  5
157
330
1F
100
AcDbEntity
  8
0
  6
HIDDEN
 62
     7
370
     0
100
AcDbLine
 10
184.0744585152
 20
107.6211913358
 30
0.0
 11
184.0744585152
 21
104.7842418482
 31
0.0
  0
LINE
  5
158
330
1F
100
AcDbEntity
  8
0
  6
HIDDEN
 62
     7
370
     0
100
AcDbLine
 10
184.0744585152
 20
116.5848579106
 30
0.0
 11
184.0744585152
 21
109.2793224433
 31
0.0
  0
LINE
  5
159
330
1F
100
AcDbEntity
  8
0
  6
HIDDEN
 62
     7
370
     0
100
AcDbLine
 10
168.7649669524
 20
103.2867113147
 30
0.0
 11
184.9908882664
 21
106.4907697113
 31
0.0
  0
LINE
  5
15A
330
1F
100
AcDbEntity
  8
0
  6
HIDDEN
 62
     7
370
     0
100
AcDbLine
 10
184.9893278558
 20
110.7715630006
 30
0.0
 11
167.9513235224
 21
107.4071462879
 31
0.0
  0
ARC
  5
15B
330
1F
100
AcDbEntity
  8
0
  6
HIDDEN
 62
     7
370
     0
100
AcDbCircle
 10
195.8744585152
 20
136.8200652857
 30
0.0
 40
1.0
100
AcDbArc
 50
90.0
 51
180.0
  0
ARC
  5
15C
330
1F
100
AcDbEntity
  8
0
  6
HIDDEN
 62
     7
370
     0
100
AcDbCircle
 10
195.8744585152
 20
101.8200652857
 30
0.0
 40
1.0
100
AcDbArc
 50
180.0
 51
270.0
  0
LINE
  5
15D
330
1F
100
AcDbEntity
  8
0
  6
HIDDEN
 62
     7
370
     0
100
AcDbLine
 10
197.7428060176
 20
137.8200652857
 30
0.0
 11
195.8744585152
 21
137.8200652857
 31
0.0
  0
LINE
  5
15E
330
1F
100
AcDbEntity
  8
0
  6
HIDDEN
 62
     7
370
     0
100
AcDbLine
 10
195.8744585152
 20
100.8200652857
 30
0.0
 11
197.7428060176
 21
100.8200652857
 31
0.0
  0
ARC
  5
15F
330
1F
100
AcDbEntity
  8
0
  6
HIDDEN
 62
     7
370
     0
100
AcDbCircle
 10
197.7428060176
 20
136.8200652857
 30
0.0
 40
1.0
100
AcDbArc
 50
75.0
 51
90.0
  0
ARC
  5
160
330
1F
100
AcDbEntity
  8
0
  6
HIDDEN
 62
     7
370
     0
100
AcDbCircle
 10
197.7428060176
 20
101.8200652857
 30
0.0
 40
1.0
100
AcDbArc
 50
270.0
 51
285.0
  0
LINE
  5
161
330
1F
100
AcDbEntity
  8
0
  6
HIDDEN
 62
     7
370
     0
100
AcDbLine
 10
198.0016250627
 20
100.8541394594
 30
0.0
 11
199.740483919
 21
101.3200652857
 31
0.0
  0
LINE
  5
162
330
1F
100
AcDbEntity
  8
0
  6
HIDDEN
 62
     7
370
     0
100
AcDbLine
 10
199.740483919
 20
137.3200652857
 30
0.0
 11
198.0016250627
 21
137.7859911119
 31
0.0
  0
LINE
  5
163
330
1F
100
AcDbEntity
  8
0
  6
HIDDEN
 62
     7
370
     0
100
AcDbLine
 10
218.7744585151
 20
137.3200652857
 30
0.0
 11
199.740483919
 21
137.3200652857
 31
0.0
  0
LINE
  5
164
330
1F
100
AcDbEntity
  8
0
  6
HIDDEN
 62
     7
370
     0
100
AcDbLine
 10
199.740483919
 20
101.3200652857
 30
0.0
 11
218.7744585151
 21
101.3200652857
 31
0.0
  0
ARC
  5
165
330
1F
100
AcDbEntity
  8
0
  6
HIDDEN
 62
     7
370
     0
100
AcDbCircle
 10
62.7744585152
 20
105.6200652857
 30
0.0
 40
1.200000000000003
100
AcDbArc
 50
90.0
 51
180.0
  0
ARC
  5
166
330
1F
100
AcDbEntity
  8
0
  6
HIDDEN
 62
     7
370
     0
100
AcDbCircle
 10
62.7744585152
 20
133.0200652857
 30
0.0
 40
1.200000000000017
100
AcDbArc
 50
180.0
 51
270.0
  0
ARC
  5
167
330
1F
100
AcDbEntity
  8
0
  6
HIDDEN
 62
     7
370
     0
100
AcDbCircle
 10
194.3744585152
 20
82.0200652857
 30
0.0
 40
2.0
100
AcDbArc
 50
0.0
 51
90.0
  0
LINE
  5
168
330
1F
100
AcDbEntity
  8
0
  6
HIDDEN
 62
     7
370
     0
100
AcDbLine
 10
196.3744585152
 20
70.2198498986
 30
0.0
 11
196.3744585152
 21
82.0200652857
 31
0.0
  0
LINE
  5
169
330
1F
100
AcDbEntity
  8
0
  6
HIDDEN
 62
     7
370
     0
100
AcDbLine
 10
196.3744585152
 20
156.6200652857
 30
0.0
 11
196.3744585152
 21
168.4201686362
 31
0.0
  0
ARC
  5
16A
330
1F
100
AcDbEntity
  8
0
  6
HIDDEN
 62
     7
370
     0
100
AcDbCircle
 10
194.3744585152
 20
156.6200652857
 30
0.0
 40
2.0
100
AcDbArc
 50
270.0
 51
0.0
  0
ARC
  5
16B
330
1F
100
AcDbEntity
  8
0
  6
HIDDEN
 62
     7
370
     0
100
AcDbCircle
 10
72.466830946
 20
106.9950652857
 30
0.0
 40
0.3999999999999915
100
AcDbArc
 50
255.0
 51
270.0
  0
ARC
  5
16C
330
1F
100
AcDbEntity
  8
0
  6
HIDDEN
 62
     7
370
     0
100
AcDbCircle
 10
72.466830946
 20
131.6450652857
 30
0.0
 40
0.3999999999999773
100
AcDbArc
 50
90.0
 51
105.0
  0
LINE
  5
16D
330
1F
100
AcDbEntity
  8
0
  6
HIDDEN
 62
     7
370
     0
100
AcDbLine
 10
72.466830946
 20
106.5950652857
 30
0.0
 11
73.3435184075
 21
106.5950652857
 31
0.0
  0
LINE
  5
16E
330
1F
100
AcDbEntity
  8
0
  6
HIDDEN
 62
     7
370
     0
100
AcDbLine
 10
73.3435184075
 20
132.0450652857
 30
0.0
 11
72.466830946
 21
132.0450652857
 31
0.0
  0
ARC
  5
16F
330
1F
100
AcDbEntity
  8
0
  6
HIDDEN
 62
     7
370
     0
100
AcDbCircle
 10
73.3435184075
 20
106.9950652857
 30
0.0
 40
0.3999999999999927
100
AcDbArc
 50
270.0
 51
330.0
  0
ARC
  5
170
330
1F
100
AcDbEntity
  8
0
  6
HIDDEN
 62
     7
370
     0
100
AcDbCircle
 10
73.3435184075
 20
131.6450652857
 30
0.0
 40
0.4000000000000069
100
AcDbArc
 50
30.0
 51
90.0
  0
LINE
  5
171
330
1F
100
AcDbEntity
  8
0
  6
HIDDEN
 62
     7
370
     0
100
AcDbLine
 10
72.3633033279
 20
132.0314356162
 30
0.0
 11
71.5744585152
 21
131.8200652857
 31
0.0
  0
LINE
  5
172
330
1F
100
AcDbEntity
  8
0
  6
HIDDEN
 62
     7
370
     0
100
AcDbLine
 10
71.5744585152
 20
106.8200652857
 30
0.0
 11
72.3633033279
 21
106.6086949551
 31
0.0
  0
LINE
  5
173
330
1F
100
AcDbEntity
  8
0
  6
HIDDEN
 62
     7
370
     0
100
AcDbLine
 10
73.6899285691
 20
106.7950652857
 30
0.0
 11
74.8590628642
 21
108.8200652857
 31
0.0
  0
LINE
  5
174
330
1F
100
AcDbEntity
  8
0
  6
HIDDEN
 62
     7
370
     0
100
AcDbLine
 10
74.8590628642
 20
129.8200652857
 30
0.0
 11
73.6899285691
 21
131.8450652857
 31
0.0
  0
LINE
  5
175
330
1F
100
AcDbEntity
  8
0
  6
HIDDEN
 62
     7
370
     0
100
AcDbLine
 10
62.7744585152
 20
106.8200652857
 30
0.0
 11
71.5744585152
 21
106.8200652857
 31
0.0
  0
LINE
  5
176
330
1F
100
AcDbEntity
  8
0
  6
HIDDEN
 62
     7
370
     0
100
AcDbLine
 10
71.5744585152
 20
131.8200652857
 30
0.0
 11
62.7744585152
 21
131.8200652857
 31
0.0
  0
LINE
  5
177
330
1F
100
AcDbEntity
  8
0
  6
HIDDEN
 62
     7
370
     0
100
AcDbLine
 10
124.5744585152
 20
108.8200652857
 30
0.0
 11
126.0766100628
 21
111.3200652857
 31
0.0
  0
LINE
  5
178
330
1F
100
AcDbEntity
  8
0
  6
HIDDEN
 62
     7
370
     0
100
AcDbLine
 10
126.0766100628
 20
127.3200652857
 30
0.0
 11
124.5744585152
 21
129.8200652857
 31
0.0
  0
LINE
  5
179
330
1F
100
AcDbEntity
  8
0
  6
HIDDEN
 62
     7
370
     0
100
AcDbLine
 10
74.8590628642
 20
108.8200652857
 30
0.0
 11
124.5744585152
 21
108.8200652857
 31
0.0
  0
LINE
  5
17A
330
1F
100
AcDbEntity
  8
0
  6
HIDDEN
 62
     7
370
     0
100
AcDbLine
 10
124.5744585152
 20
129.8200652857
 30
0.0
 11
74.8590628642
 21
129.8200652857
 31
0.0
  0
LINE
  5
17B
330
1F
100
AcDbEntity
  8
0
  6
HIDDEN
 62
     7
370
     0
100
AcDbLine
 10
235.3744585151
 20
145.3941468114
 30
0.0
 11
234.7877000457
 21
144.8073958218
 31
0.0
  0
LINE
  5
17C
330
1F
100
AcDbEntity
  8
0
  6
HIDDEN
 62
     7
370
     0
100
AcDbLine
 10
234.7874989493
 20
93.8329310493
 30
0.0
 11
235.3744585151
 21
93.2459835256
 31
0.0
  0
LINE
  5
17D
330
1F
100
AcDbEntity
  8
0
  6
HIDDEN
 62
     7
370
     0
100
AcDbLine
 10
196.3744628356
 20
168.3200658094
 30
0.0
 11
197.374462685
 21
169.3200655882
 31
0.0
  0
LINE
  5
17E
330
1F
100
AcDbEntity
  8
0
  6
HIDDEN
 62
     7
370
     0
100
AcDbLine
 10
197.3744626856
 20
69.3200649824
 30
0.0
 11
196.3744628363
 21
70.3200647612
 31
0.0
  0
LINE
  5
17F
330
1F
100
AcDbEntity
  8
0
  6
HIDDEN
 62
     7
370
     0
100
AcDbLine
 10
126.0766100628
 20
111.3200652857
 30
0.0
 11
194.8744585152
 21
111.3200652857
 31
0.0
  0
LINE
  5
180
330
1F
100
AcDbEntity
  8
0
  6
HIDDEN
 62
     7
370
     0
100
AcDbLine
 10
194.8744585152
 20
127.3200652857
 30
0.0
 11
126.0766100628
 21
127.3200652857
 31
0.0
  0
LINE
  5
181
330
1F
100
AcDbEntity
  8
0
  6
HIDDEN
 62
     7
370
     0
100
AcDbLine
 10
234.8035581494
 20
144.8200652857
 30
0.0
 11
218.7744585151
 21
144.8200652857
 31
0.0
  0
LINE
  5
182
330
1F
100
AcDbEntity
  8
0
  6
HIDDEN
 62
     7
370
     0
100
AcDbLine
 10
218.7744585151
 20
93.8200652857
 30
0.0
 11
234.8015202497
 21
93.8200652857
 31
0.0
  0
LINE
  5
183
330
1F
100
AcDbEntity
  8
0
  6
HIDDEN
 62
     7
370
     0
100
AcDbLine
 10
189.0744585152
 20
122.0552726608
 30
0.0
 11
189.0744585152
 21
133.8558887231
 31
0.0
  0
LINE
  5
184
330
1F
100
AcDbEntity
  8
0
  6
HIDDEN
 62
     7
370
     0
100
AcDbLine
 10
184.0744585152
 20
129.3621457636
 30
0.0
 11
184.0744585152
 21
122.055393445
 31
0.0
  0
LINE
  5
185
330
1F
100
AcDbEntity
  8
0
  6
HIDDEN
 62
     7
370
     0
100
AcDbLine
 10
184.0744585152
 20
133.8557601949
 30
0.0
 11
184.0744585152
 21
131.0187435449
 31
0.0
  0
LINE
  5
186
330
1F
100
AcDbEntity
  8
0
  6
HIDDEN
 62
     7
370
     0
100
AcDbLine
 10
167.9513235224
 20
131.2329842834
 30
0.0
 11
184.9892622398
 21
127.8685805276
 31
0.0
  0
LINE
  5
187
330
1F
100
AcDbEntity
  8
0
  6
HIDDEN
 62
     7
370
     0
100
AcDbLine
 10
184.9908416059
 20
132.1493700738
 30
0.0
 11
168.7649669524
 21
135.3534192566
 31
0.0
  0
LINE
  5
188
330
1F
100
AcDbEntity
  8
0
  6
HIDDEN
 62
     7
370
     0
100
AcDbLine
 10
166.3744585152
 20
130.6269817222
 30
0.0
 11
167.4932846366
 21
130.4060522502
 31
0.0
  0
LINE
  5
189
330
1F
100
AcDbEntity
  8
0
  6
HIDDEN
 62
     7
370
     0
100
AcDbLine
 10
168.6556323938
 20
136.2923879263
 30
0.0
 11
166.3744585152
 21
136.7428408885
 31
0.0
  0
LINE
  5
18A
330
1F
100
AcDbEntity
  8
0
  6
HIDDEN
 62
     7
370
     0
100
AcDbLine
 10
189.5744585152
 20
104.8937037707
 30
0.0
 11
189.5744585152
 21
106.1522897676
 31
0.0
  0
LINE
  5
18B
330
1F
100
AcDbEntity
  8
0
  6
HIDDEN
 62
     7
370
     0
100
AcDbLine
 10
183.5744585152
 20
106.1522897676
 30
0.0
 11
183.5744585152
 21
104.8937037707
 31
0.0
  0
LINE
  5
18C
330
1F
100
AcDbEntity
  8
0
  6
HIDDEN
 62
     7
370
     0
100
AcDbLine
 10
183.5744585152
 20
133.7464268006
 30
0.0
 11
183.5744585152
 21
132.4878408037
 31
0.0
  0
LINE
  5
18D
330
1F
100
AcDbEntity
  8
0
  6
HIDDEN
 62
     7
370
     0
100
AcDbLine
 10
189.5744585152
 20
132.4878408037
 30
0.0
 11
189.5744585152
 21
133.7464268006
 31
0.0
  0
LINE
  5
18E
330
1F
100
AcDbEntity
  8
0
  6
HIDDEN
 62
     7
370
     0
100
AcDbLine
 10
171.9584060027
 20
130.4249444469
 30
0.0
 11
172.5469231991
 21
130.9559317442
 31
0.0
  0
LINE
  5
18F
330
1F
100
AcDbEntity
  8
0
  6
HIDDEN
 62
     7
370
     0
100
AcDbLine
 10
173.1209382598
 20
133.8628460555
 30
0.0
 11
172.7784275179
 21
134.5776791773
 31
0.0
  0
LINE
  5
190
330
1F
100
AcDbEntity
  8
0
  6
HIDDEN
 62
     7
370
     0
100
AcDbLine
 10
167.8126469497
 20
130.8526441669
 30
0.0
 11
171.2707549158
 21
130.1697874187
 31
0.0
  0
LINE
  5
191
330
1F
100
AcDbEntity
  8
0
  6
HIDDEN
 62
     7
370
     0
100
AcDbLine
 10
172.2393780468
 20
135.0750671487
 30
0.0
 11
168.7812700807
 21
135.7579238969
 31
0.0
  0
LINE
  5
192
330
1F
100
AcDbEntity
  8
0
  6
HIDDEN
 62
     7
370
     0
100
AcDbLine
 10
167.4222508232
 20
134.4653356643
 30
0.0
 11
167.3554487924
 21
134.3027825301
 31
0.0
  0
LINE
  5
193
330
1F
100
AcDbEntity
  8
0
  6
HIDDEN
 62
     7
370
     0
100
AcDbLine
 10
167.0469585152
 20
132.7405329255
 30
0.0
 11
167.0469585152
 21
132.5647887001
 31
0.0
  0
LINE
  5
194
330
1F
100
AcDbEntity
  8
0
  6
HIDDEN
 62
     7
370
     0
100
AcDbLine
 10
167.0469585152
 20
106.0753418712
 30
0.0
 11
167.0469585152
 21
105.8995976458
 31
0.0
  0
LINE
  5
195
330
1F
100
AcDbEntity
  8
0
  6
HIDDEN
 62
     7
370
     0
100
AcDbLine
 10
167.3554487924
 20
104.3373480412
 30
0.0
 11
167.4222508232
 21
104.174794907
 31
0.0
  0
LINE
  5
196
330
1F
100
AcDbEntity
  8
0
  6
HIDDEN
 62
     7
370
     0
100
AcDbLine
 10
168.7812700807
 20
102.8822066744
 30
0.0
 11
172.2393780468
 21
103.5650634226
 31
0.0
  0
LINE
  5
197
330
1F
100
AcDbEntity
  8
0
  6
HIDDEN
 62
     7
370
     0
100
AcDbLine
 10
171.2707549158
 20
108.4703431527
 30
0.0
 11
167.8126469497
 21
107.7874864044
 31
0.0
  0
LINE
  5
198
330
1F
100
AcDbEntity
  8
0
  6
HIDDEN
 62
     7
370
     0
100
AcDbLine
 10
172.7784275179
 20
104.062451394
 30
0.0
 11
173.1209382598
 21
104.7772845158
 31
0.0
  0
LINE
  5
199
330
1F
100
AcDbEntity
  8
0
  6
HIDDEN
 62
     7
370
     0
100
AcDbLine
 10
172.5469231991
 20
107.6841988271
 30
0.0
 11
171.9584060027
 21
108.2151861244
 31
0.0
  0
DIMENSION
  5
19A
330
1F
100
AcDbEntity
  8
VERMASSUNG
100
AcDbDimension
  2
_D
 10
241.9664063656
 20
101.3200652857
 30
0.0
 11
241.9664063656
 21
119.3200652857
 31
0.0
 70
   160
  1
%%c<>
 71
     2
 42
-1.0
  3
SLDDIMSTYLE0
100
AcDbAlignedDimension
 13
218.7744585151
 23
137.3200652857
 33
0.0
 14
218.7744585151
 24
101.3200652857
 34
0.0
 50
90.0
100
AcDbRotatedDimension
  0
DIMENSION
  5
1A6
330
1F
100
AcDbEntity
  8
VERMASSUNG
100
AcDbDimension
  2
_D_1
 10
247.9664063656
 20
87.3200652857
 30
0.0
 11
247.9664063656
 21
119.3200652857
 31
0.0
 70
   160
  1
ST6 %%c<>
 71
     2
 42
-1.0
  3
SLDDIMSTYLE0
100
AcDbAlignedDimension
 13
234.7744585152
 23
151.3200652857
 33
0.0
 14
234.7744585152
 24
87.3200652857
 34
0.0
 50
90.0
100
AcDbRotatedDimension
  0
DIMENSION
  5
1B2
330
1F
100
AcDbEntity
  8
VERMASSUNG
100
AcDbDimension
  2
_D_2
 10
235.3744585152
 20
173.2195232262
 30
0.0
 11
218.3744585152
 21
173.2195232262
 31
0.0
 70
   160
  1
(<>)
 71
     2
 42
-1.0
  3
SLDDIMSTYLE0
100
AcDbAlignedDimension
 13
201.3744585152
 23
168.3200652857
 33
0.0
 14
235.3744585152
 24
150.7200652857
 34
0.0
100
AcDbRotatedDimension
  0
DIMENSION
  5
1BE
330
1F
100
AcDbEntity
  8
VERMASSUNG
100
AcDbDimension
  2
_D_3
 10
235.3744585152
 20
179.2195232262
 30
0.0
 11
199.3744585152
 21
179.2195232262
 31
0.0
 70
   160
  1
<>
 71
     2
 42
-1.0
  3
SLDDIMSTYLE0
100
AcDbAlignedDimension
 13
163.3744585152
 23
154.2450652857
 33
0.0
 14
235.3744585152
 24
150.7200652857
 34
0.0
100
AcDbRotatedDimension
  0
DIMENSION
  5
1C8
330
1F
100
AcDbEntity
  8
VERMASSUNG
100
AcDbDimension
  2
_D_4
 10
235.3744585152
 20
185.2195232262
 30
0.0
 11
148.4744585152
 21
185.2195232262
 31
0.0
 70
   160
  1
(<>)
 71
     2
 42
-1.0
  3
SLDDIMSTYLE0
100
AcDbAlignedDimension
 13
61.5744585152
 23
137.6697431464
 33
0.0
 14
235.3744585152
 24
150.7200652857
 34
0.0
100
AcDbRotatedDimension
  0
DIMENSION
  5
1D4
330
1F
100
AcDbEntity
  8
VERMASSUNG
100
AcDbDimension
  2
_D_5
 10
56.328579768
 20
69.3200652857
 30
0.0
 11
56.328579768
 21
119.3200652857
 31
0.0
 70
   160
  1
MAS BT 50 %%c<>
 71
     2
 42
-1.0
  3
SLDDIMSTYLE0
100
AcDbAlignedDimension
 13
197.3744604238
 23
169.3200652857
 33
0.0
 14
197.3744605773
 24
69.3200652857
 34
0.0
 50
90.0
100
AcDbRotatedDimension
  0
LINE
  5
1E0
330
1F
100
AcDbEntity
  8
VERMASSUNG
  6
CENTERX2
370
     0
100
AcDbLine
 10
59.8191620995
 20
119.3200652857
 30
0.0
 11
236.8749717813
 21
119.3200652857
 31
0.0
  0
LINE
  5
1E1
330
1F
100
AcDbEntity
  8
VERMASSUNG
  6
CENTERX2
370
     0
100
AcDbLine
 10
189.1211800981
 20
129.193220333
 30
0.0
 11
164.4123466232
 21
134.0723605577
 31
0.0
  0
LINE
  5
1E2
330
1F
100
AcDbEntity
  8
VERMASSUNG
  6
CENTERX2
370
     0
100
AcDbLine
 10
166.3960333454
 20
104.9594795489
 30
0.0
 11
186.954794307
 21
109.0191239542
 31
0.0
  0
LINE
  5
1E3
330
1F
100
AcDbEntity
  8
VERMASSUNG
  6
CENTERX2
370
     0
100
AcDbLine
 10
186.5744585152
 20
133.4304510926
 30
0.0
 11
186.5744585152
 21
108.2759228576
 31
0.0
  0
LINE
  5
1E4
330
1F
100
AcDbEntity
  8
0
  6
Continuous
 62
     7
370
    15
100
AcDbLine
 10
274.7191204916
 20
47.3792971072
 30
0.0
 11
274.5423150721
 21
47.481397881
 31
0.0
  0
LINE
  5
1E5
330
1F
100
AcDbEntity
  8
0
  6
Continuous
 62
     7
370
    15
100
AcDbLine
 10
270.6525958436
 20
47.481397881
 30
0.0
 11
270.4757904241
 21
47.3792971072
 31
0.0
  0
LINE
  5
1E6
330
1F
100
AcDbEntity
  8
0
  6
Continuous
 62
     7
370
    15
100
AcDbLine
 10
275.5974554578
 20
45.8486811528
 30
0.0
 11
275.5974554578
 21
46.1548839572
 31
0.0
  0
LINE
  5
1E7
330
1F
100
AcDbEntity
  8
0
  6
Continuous
 62
     7
370
    15
100
AcDbLine
 10
269.5974554578
 20
46.1548839572
 30
0.0
 11
269.5974554578
 21
45.8486811528
 31
0.0
  0
SPLINE
  5
1E8
330
1F
100
AcDbEntity
  8
0
  6
Continuous
 62
     7
370
    15
100
AcDbSpline
210
0.0
220
0.0
230
1.0
 70
     8
 71
     3
 72
    16
 73
    12
 74
     0
 42
0.000000001
 43
0.00000001
 40
0.0
 40
0.0
 40
0.0
 40
0.0
 40
0.0336342476256904
 40
0.1629781656258138
 40
0.2928558275754839
 40
0.4232046063284585
 40
0.5539116302629441
 40
0.684855439535946
 40
0.8159317505816057
 40
0.9470631149861339
 40
1.0
 40
1.0
 40
1.0
 40
1.0
 10
257.195286944644
 20
14.3524762783355
 30
0.0
 10
257.3010368530106
 20
14.33874539282708
 30
0.0
 10
257.8134587829579
 20
14.27221099141913
 30
0.0
 10
258.7843726116232
 20
14.29710121732343
 30
0.0
 10
260.1010660734291
 20
14.43212314792555
 30
0.0
 10
261.4591237464699
 20
14.72266601500954
 30
0.0
 10
262.8444359613422
 20
15.1532845572872
 30
0.0
 10
264.2494970240898
 20
15.72258569318693
 30
0.0
 10
265.6637094859627
 20
16.43529682871425
 30
0.0
 10
266.7996949151294
 20
17.08876206340997
 30
0.0
 10
267.4569958410465
 20
17.54643135373997
 30
0.0
 10
267.6460315038767
 20
17.67805419838118
 30
0.0
  0
SPLINE
  5
1E9
330
1F
100
AcDbEntity
  8
0
  6
Continuous
 62
     7
370
    15
100
AcDbSpline
210
0.0
220
0.0
230
1.0
 70
     8
 71
     3
 72
    16
 73
    12
 74
     0
 42
0.000000001
 43
0.00000001
 40
0.0
 40
0.0
 40
0.0
 40
0.0
 40
0.0121781899182276
 40
0.1438967611399049
 40
0.2756718223469592
 40
0.4074836386157006
 40
0.5392788626692805
 40
0.6709835131113862
 40
0.8024950069052372
 40
0.9336850036704569
 40
1.0
 40
1.0
 40
1.0
 40
1.0
 10
283.6529251076172
 20
45.38688756742208
 30
0.0
 10
283.6581725760676
 20
45.43981145375711
 30
0.0
 10
283.7201763483247
 20
46.06515691820486
 30
0.0
 10
283.7332358445375
 20
47.21604807338043
 30
0.0
 10
283.6826686287623
 20
48.82292154002899
 30
0.0
 10
283.5067954467537
 20
50.35273895405594
 30
0.0
 10
283.2206793138443
 20
51.80151857291698
 30
0.0
 10
282.8234495482445
 20
53.15996454136943
 30
0.0
 10
282.3116813435347
 20
54.41143577787987
 30
0.0
 10
281.8114327865485
 20
55.38537081968857
 30
0.0
 10
281.4438337517681
 20
55.8944252955294
 30
0.0
 10
281.320407360059
 20
56.06534728169269
 30
0.0
  0
LINE
  5
1EA
330
1F
100
AcDbEntity
  8
0
  6
Continuous
 62
     7
370
    15
100
AcDbLine
 10
251.1800870222
 20
16.7916182657
 30
0.0
 11
253.3986345481
 21
15.5108780403
 31
0.0
  0
LINE
  5
1EB
330
1F
100
AcDbEntity
  8
0
  6
Continuous
 62
     7
370
    15
100
AcDbLine
 10
278.396602864
 20
58.8133211593
 30
0.0
 11
276.1780553381
 21
60.0940613847
 31
0.0
  0
LINE
  5
1EC
330
1F
100
AcDbEntity
  8
0
  6
Continuous
 62
     7
370
    15
100
AcDbLine
 10
278.0616941383
 20
17.0773985347
 30
0.0
 11
278.2737916952
 21
17.1998796549
 31
0.0
  0
LINE
  5
1ED
330
1F
100
AcDbEntity
  8
0
  6
Continuous
 62
     7
370
    15
100
AcDbLine
 10
289.3735638415
 20
36.4273322991
 30
0.0
 11
289.3735638415
 21
36.6722547327
 31
0.0
  0
LINE
  5
1EE
330
1F
100
AcDbEntity
  8
0
  6
Continuous
 62
     7
370
    15
100
AcDbLine
 10
286.0592052036
 20
43.9977716362
 30
0.0
 11
275.6647355201
 21
49.9983712581
 31
0.0
  0
LINE
  5
1EF
330
1F
100
AcDbEntity
  8
0
  6
Continuous
 62
     7
370
    15
100
AcDbLine
 10
259.666035798
 20
22.2848076619
 30
0.0
 11
270.0605054814
 21
16.28420804
 31
0.0
  0
LINE
  5
1F0
330
1F
100
AcDbEntity
  8
0
  6
Continuous
 62
     7
370
    15
100
AcDbLine
 10
270.8570768096
 20
63.1657969054
 30
0.0
 11
266.7293409745
 21
65.5486880818
 31
0.0
  0
SPLINE
  5
1F1
330
1F
100
AcDbEntity
  8
0
  6
Continuous
 62
     7
370
    15
100
AcDbSpline
210
0.0
220
0.0
230
1.0
 70
     8
 71
     3
 72
    23
 73
    19
 74
     0
 42
0.000000001
 43
0.00000001
 40
0.0
 40
0.0
 40
0.0
 40
0.0
 40
0.013060673507987
 40
0.0828701354653176
 40
0.1527580870532654
 40
0.2226677566042127
 40
0.2925569977220345
 40
0.3623812726700008
 40
0.4321033356594483
 40
0.5016888904992827
 40
0.5711135704991427
 40
0.6403787138187416
 40
0.7095432133739146
 40
0.7787233737638785
 40
0.8482026905963672
 40
0.9185169013787053
 40
0.9903578891116959
 40
1.0
 40
1.0
 40
1.0
 40
1.0
 10
272.4743381368664
 20
30.30828497833467
 30
0.0
 10
272.4983936653948
 20
30.37586904835115
 30
0.0
 10
272.6510262923883
 20
30.80469081119041
 30
0.0
 10
272.9975935092593
 20
31.59298869660003
 30
0.0
 10
273.5457482806771
 20
32.64959179408697
 30
0.0
 10
274.1760730696136
 20
33.66333156020174
 30
0.0
 10
274.8720888033046
 20
34.61578361178708
 30
0.0
 10
275.622321180025
 20
35.48994284416671
 30
0.0
 10
276.4123711480734
 20
36.27037570559723
 30
0.0
 10
277.2273338112038
 20
36.94360196717664
 30
0.0
 10
278.0515035500713
 20
37.49847485785502
 30
0.0
 10
278.8688639137533
 20
37.92646133444274
 30
0.0
 10
279.6637365964742
 20
38.22240698831226
 30
0.0
 10
280.4206965801956
 20
38.38306688277275
 30
0.0
 10
281.1299622683495
 20
38.41353768929189
 30
0.0
 10
281.7746049662686
 20
38.30029395314546
 30
0.0
 10
282.204685632254
 20
38.16208008554661
 30
0.0
 10
282.3975240276724
 20
38.02211697906954
 30
0.0
 10
282.4203431057831
 20
38.00555477395269
 30
0.0
  0
SPLINE
  5
1F2
330
1F
100
AcDbEntity
  8
0
  6
Continuous
 62
     7
370
    15
100
AcDbSpline
210
0.0
220
0.0
230
1.0
 70
     8
 71
     3
 72
    31
 73
    27
 74
     0
 42
0.000000001
 43
0.00000001
 40
0.0
 40
0.0
 40
0.0
 40
0.0
 40
0.0182239934469082
 40
0.0617824007612076
 40
0.1055178609105048
 40
0.1494039945831699
 40
0.1934010791149139
 40
0.2374690326252148
 40
0.2815747258529964
 40
0.3256939655672293
 40
0.3698080036333312
 40
0.4139097612949064
 40
0.457996219628435
 40
0.5020669816102872
 40
0.5461232630075576
 40
0.5901672288851453
 40
0.6342015794255134
 40
0.6782293041015806
 40
0.7222535442117135
 40
0.7662775216106482
 40
0.8103038810604959
 40
0.854335453920584
 40
0.8983755468798706
 40
0.9424274374172817
 40
0.9864942920449876
 40
1.0
 40
1.0
 40
1.0
 40
1.0
 10
262.843051812329
 20
66.71095763737162
 30
0.0
 10
262.6713107043433
 20
66.72917547621928
 30
0.0
 10
262.0890794830879
 20
66.79093701185464
 30
0.0
 10
261.043706100195
 20
66.74375253587695
 30
0.0
 10
259.7168432262636
 20
66.57332147623679
 30
0.0
 10
258.3516699626084
 20
66.25017497080607
 30
0.0
 10
256.9609971527902
 20
65.78729723015232
 30
0.0
 10
255.5529888394314
 20
65.18469392490411
 30
0.0
 10
254.1371834277216
 20
64.44725691025984
 30
0.0
 10
252.7226941122333
 20
63.579812773167
 30
0.0
 10
251.3185395502698
 20
62.58827852109523
 30
0.0
 10
249.9335004221233
 20
61.47921529068952
 30
0.0
 10
248.5761169607859
 20
60.25982528957601
 30
0.0
 10
247.2547248198702
 20
58.93792380266098
 30
0.0
 10
245.9774307497927
 20
57.52190774079293
 30
0.0
 10
244.7520774075857
 20
56.02071313186761
 30
0.0
 10
243.5862029249343
 20
54.44376980504589
 30
0.0
 10
242.4870006977251
 20
52.80095071470604
 30
0.0
 10
241.4612679226443
 20
51.10251339525105
 30
0.0
 10
240.5154011128493
 20
49.35905556363304
 30
0.0
 10
239.6552330996901
 20
47.58141849348318
 30
0.0
 10
238.8864449466858
 20
45.78072843667776
 30
0.0
 10
238.2128457881817
 20
43.96788772023245
 30
0.0
 10
237.6426465262534
 20
42.15511343790601
 30
0.0
 10
237.2754303740531
 20
40.76743332291232
 30
0.0
 10
237.1101560814048
 20
39.99075431742365
 30
0.0
 10
237.0713850726318
 20
39.80855642050273
 30
0.0
  0
SPLINE
  5
1F3
330
1F
100
AcDbEntity
  8
0
  6
Continuous
 62
     7
370
    15
100
AcDbSpline
210
0.0
220
0.0
230
1.0
 70
     8
 71
     3
 72
    10
 73
     6
 74
     0
 42
0.000000001
 43
0.00000001
 40
0.0
 40
0.0
 40
0.0
 40
0.0
 40
0.4023213791715267
 40
0.86811737237568
 40
1.0
 40
1.0
 40
1.0
 40
1.0
 10
273.4166610620998
 20
22.43967724111904
 30
0.0
 10
273.2601184842052
 20
22.5402794913522
 30
0.0
 10
272.9223354619192
 20
22.75735610136811
 30
0.0
 10
272.5983057087471
 20
23.12226818086019
 30
0.0
 10
272.4368094918612
 20
23.38896277529112
 30
0.0
 10
272.401174043826
 20
23.44781109721704
 30
0.0
  0
LINE
  5
1F4
330
1F
100
AcDbEntity
  8
0
  6
Continuous
 62
     7
370
    15
100
AcDbLine
 10
252.3073859987
 20
63.2646633197
 30
0.0
 11
221.9599929623
 21
74.2006608409
 31
0.0
  0
LINE
  5
1F5
330
1F
100
AcDbEntity
  8
0
  6
Continuous
 62
     7
370
    15
100
AcDbLine
 10
211.850638287
 20
56.68884747
 30
0.0
 11
241.3143756135
 21
31.8099112446
 31
0.0
  0
LINE
  5
1F6
330
1F
100
AcDbEntity
  8
0
  6
Continuous
 62
     7
370
    15
100
AcDbLine
 10
241.7313726586
 20
22.2462449628
 30
0.0
 11
245.8591084937
 21
19.8633537864
 31
0.0
  0
SPLINE
  5
1F7
330
1F
100
AcDbEntity
  8
0
  6
Continuous
 62
     7
370
    15
100
AcDbSpline
210
0.0
220
0.0
230
1.0
 70
     8
 71
     3
 72
    11
 73
     7
 74
     0
 42
0.000000001
 43
0.00000001
 40
0.0
 40
0.0
 40
0.0
 40
0.0
 40
0.103892601231773
 40
0.4191455586386527
 40
0.7339157477805021
 40
1.0
 40
1.0
 40
1.0
 40
1.0
 10
237.0758038591105
 20
28.72064610962397
 30
0.0
 10
237.1180848497701
 20
28.57073208220611
 30
0.0
 10
237.2886637864773
 20
27.96591712883275
 30
0.0
 10
237.6687090364078
 20
26.9775532286008
 30
0.0
 10
238.2142240902081
 20
25.84908481560057
 30
0.0
 10
238.6515905468204
 20
25.20863628542409
 30
0.0
 10
238.851944229717
 20
24.91525251127631
 30
0.0
  0
SPLINE
  5
1F8
330
1F
100
AcDbEntity
  8
0
  6
Continuous
 62
     7
370
    15
100
AcDbSpline
210
0.0
220
0.0
230
1.0
 70
     8
 71
     3
 72
    26
 73
    22
 74
     0
 42
0.000000001
 43
0.00000001
 40
0.0
 40
0.0
 40
0.0
 40
0.0
 40
0.0197718130349116
 40
0.0719291881301987
 40
0.1247388498623818
 40
0.1787271579796435
 40
0.2339852864304384
 40
0.2902232408334229
 40
0.3469997390200578
 40
0.4039310368551973
 40
0.4607877573149275
 40
0.5175200098690544
 40
0.5741374220511487
 40
0.630677120154301
 40
0.6871877750909801
 40
0.7437219618168532
 40
0.8003180846586544
 40
0.8570329297723878
 40
0.9139216282917155
 40
0.9710300866836912
 40
1.0
 40
1.0
 40
1.0
 40
1.0
 10
222.0267608857249
 20
74.1563428037863
 30
0.0
 10
221.934120855274
 20
74.1968222443836
 30
0.0
 10
221.5970995529321
 20
74.34408508229262
 30
0.0
 10
220.9518730674802
 20
74.44974606283134
 30
0.0
 10
220.1100596932145
 20
74.4737526951009
 30
0.0
 10
219.2266106348322
 20
74.34473095687636
 30
0.0
 10
218.3155171317619
 20
74.07392103521617
 30
0.0
 10
217.3882353404125
 20
73.65955903513459
 30
0.0
 10
216.4612915000804
 20
73.10864257848705
 30
0.0
 10
215.5512876460442
 20
72.43131669848337
 30
0.0
 10
214.6734277113968
 20
71.64057388599038
 30
0.0
 10
213.8409304902874
 20
70.75035019210682
 30
0.0
 10
213.0655069183383
 20
69.77501992057728
 30
0.0
 10
212.3579835143311
 20
68.72958247230504
 30
0.0
 10
211.7284017499632
 20
67.62963641026919
 30
0.0
 10
211.1859674014671
 20
66.49133538737084
 30
0.0
 10
210.7391170252793
 20
65.33120424506222
 30
0.0
 10
210.3946093060335
 20
64.1654557807782
 30
0.0
 10
210.1607866998766
 20
63.01126270058925
 30
0.0
 10
210.0563459539013
 20
62.06801562371088
 30
0.0
 10
210.0470519661667
 20
61.52186055464201
 30
0.0
 10
210.0439240489711
 20
61.33805056039852
 30
0.0
  0
SPLINE
  5
1F9
330
1F
100
AcDbEntity
  8
0
  6
Continuous
 62
     7
370
    15
100
AcDbSpline
210
0.0
220
0.0
230
1.0
 70
     8
 71
     3
 72
    13
 73
     9
 74
     0
 42
0.000000001
 43
0.00000001
 40
0.0
 40
0.0
 40
0.0
 40
0.0
 40
0.1017086554518487
 40
0.2935148688881801
 40
0.4853091559269201
 40
0.6752471149565382
 40
0.8614317085389452
 40
1.0
 40
1.0
 40
1.0
 40
1.0
 10
210.0439240489711
 20
61.33805056039852
 30
0.0
 10
210.0473685784709
 20
61.14774884336353
 30
0.0
 10
210.0573089382173
 20
60.59856860617944
 30
0.0
 10
210.1687700418756
 20
59.73673853429366
 30
0.0
 10
210.4194839537666
 20
58.79000064624447
 30
0.0
 10
210.8001410724685
 20
57.9464484771018
 30
0.0
 10
211.2471958861896
 20
57.26159623580948
 30
0.0
 10
211.614737341512
 20
56.9221473885738
 30
0.0
 10
211.7715630198992
 20
56.77730850040325
 30
0.0
  0
LWPOLYLINE
  5
1FA
330
1F
100
AcDbEntity
  8
0
  6
Continuous
 62
     7
370
    15
100
AcDbPolyline
 90
       25
 70
   128
 43
0.0
 10
275.1482630762
 20
46.9522171858
 10
275.3272986307
 20
46.5508804958
 10
275.3202998843
 20
46.1364687728
 10
275.1277437899
 20
45.737223491
 10
274.7627527272
 20
45.3803525564
 10
274.2502002339
 20
45.0901761336
 10
273.6250159154
 20
44.8864692662
 10
272.9298050499
 20
44.7831142405
 10
272.2119451088
 20
44.7871545309
 10
271.520357061
 20
44.898314798
 10
270.9021714889
 20
45.1090196536
 10
270.3995167178
 20
45.4049099097
 10
270.0466478394
 20
45.7658211346
 10
269.8676122849
 20
46.1671578246
 10
269.8746110313
 20
46.5815695475
 10
270.0671671257
 20
46.9808148294
 10
270.4321581884
 20
47.3376857639
 10
270.9447106817
 20
47.6278621867
 10
271.5698950002
 20
47.8315690542
 10
272.2651058658
 20
47.9349240798
 10
272.9829658068
 20
47.9308837895
 10
273.6745538546
 20
47.8197235223
 10
274.2927394267
 20
47.6090186668
 10
274.7953941979
 20
47.3131284106
 10
275.1482630762
 20
46.9522171858
  0
LWPOLYLINE
  5
1FB
330
1F
100
AcDbEntity
  8
0
  6
Continuous
 62
     7
370
    15
100
AcDbPolyline
 90
       19
 70
   128
 43
0.0
 10
275.3801546779
 20
46.802009076
 10
275.5715062222
 20
46.3821785228
 10
275.5759872192
 20
45.9480662161
 10
275.3933161114
 20
45.5269490287
 10
275.0349707963
 20
45.1452873023
 10
274.5234674279
 20
44.8270622467
 10
273.890945644
 20
44.5922691126
 10
273.1771491146
 20
44.455660816
 10
272.4269283008
 20
44.4258209587
 10
271.6874223354
 20
44.5046244887
 10
271.005097098
 20
44.6871198903
 10
270.4228255926
 20
44.9618403063
 10
269.9771940794
 20
45.3115240425
 10
269.6962032252
 20
45.7141991839
 10
269.5975087188
 20
46.1445641703
 10
269.6873118991
 20
46.5755775869
 10
269.959970102
 20
46.9801572755
 10
270.3983512097
 20
47.3328820064
 10
270.4757904241
 20
47.3792971072
  0
LWPOLYLINE
  5
1FC
330
1F
100
AcDbEntity
  8
0
  6
Continuous
 62
     7
370
    15
100
AcDbPolyline
 90
        3
 70
   128
 43
0.0
 10
274.7191204916
 20
47.3792971072
 10
275.0139559075
 20
47.1811783781
 10
275.3801546779
 20
46.802009076
  0
LWPOLYLINE
  5
1FD
330
1F
100
AcDbEntity
  8
0
  6
Continuous
 62
     7
370
    15
100
AcDbPolyline
 90
       20
 70
   128
 43
0.0
 10
274.2206966695
 20
46.7365088128
 10
274.3450666511
 20
46.4117869111
 10
274.2800558429
 20
46.0813468047
 10
274.0327091748
 20
45.7809968066
 10
273.6298304962
 20
45.5432844995
 10
273.1150779632
 20
45.3939697002
 10
272.544233
 20
45.3492329843
 10
271.9791555159
 20
45.4139222689
 10
271.4810804245
 20
45.5810274664
 10
271.1039818903
 20
45.8324401357
 10
270.8887243907
 20
46.140915813
 10
270.858634416
 20
46.4730263722
 10
271.0169726817
 20
46.792782481
 10
271.34658078
 20
47.0655336035
 10
271.8117405589
 20
47.2617229233
 10
272.3620447387
 20
47.3600902834
 10
272.9378593227
 20
47.3499760542
 10
273.4767858661
 20
47.2324762692
 10
273.9204233155
 20
47.0203238534
 10
274.2206966695
 20
46.7365088128
  0
SPLINE
  5
1FE
330
1F
100
AcDbEntity
  8
0
  6
Continuous
 62
     7
370
    15
100
AcDbSpline
210
0.0
220
0.0
230
1.0
 70
     8
 71
     3
 72
    11
 73
     7
 74
     0
 42
0.000000001
 43
0.00000001
 40
0.0
 40
0.0
 40
0.0
 40
0.0
 40
0.1336647920874079
 40
0.4825473608259767
 40
0.8156356561503721
 40
1.0
 40
1.0
 40
1.0
 40
1.0
 10
273.6652074459648
 20
47.13165842290108
 30
0.0
 10
273.6923204092532
 20
47.06477746810426
 30
0.0
 10
273.7902017486445
 20
46.82332848424902
 30
0.0
 10
273.9730559367183
 20
46.46585475745214
 30
0.0
 10
274.1694393957448
 20
46.26400943019273
 30
0.0
 10
274.2748468389595
 20
46.21990616849992
 30
0.0
 10
274.3124026897445
 20
46.20419251996852
 30
0.0
  0
SPLINE
  5
1FF
330
1F
100
AcDbEntity
  8
0
  6
Continuous
 62
     7
370
    15
100
AcDbSpline
210
0.0
220
0.0
230
1.0
 70
     8
 71
     3
 72
    10
 73
     6
 74
     0
 42
0.000000001
 43
0.00000001
 40
0.0
 40
0.0
 40
0.0
 40
0.0
 40
0.4391279203157608
 40
0.7513760035667065
 40
1.0
 40
1.0
 40
1.0
 40
1.0
 10
271.9502602140481
 20
47.27182881495377
 30
0.0
 10
272.195775046784
 20
47.167873071789
 30
0.0
 10
272.6158666540423
 20
46.98999813550439
 30
0.0
 10
273.2265339340101
 20
47.00389372146151
 30
0.0
 10
273.5304757716685
 20
47.09241750301007
 30
0.0
 10
273.6652074459648
 20
47.13165842290108
 30
0.0
  0
SPLINE
  5
200
330
1F
100
AcDbEntity
  8
0
  6
Continuous
 62
     7
370
    15
100
AcDbSpline
210
0.0
220
0.0
230
1.0
 70
     8
 71
     3
 72
    10
 73
     6
 74
     0
 42
0.000000001
 43
0.00000001
 40
0.0
 40
0.0
 40
0.0
 40
0.0
 40
0.439127920315756
 40
0.7513760035667014
 40
1.0
 40
1.0
 40
1.0
 40
1.0
 10
270.8825082259112
 20
46.48453330407389
 30
0.0
 10
271.0353694602933
 20
46.51335519498958
 30
0.0
 10
271.2969248250891
 20
46.56267129676669
 30
0.0
 10
271.6771354753883
 20
46.90682373825032
 30
0.0
 10
271.8663742434378
 20
47.15972324265291
 30
0.0
 10
271.9502602140481
 20
47.27182881495377
 30
0.0
  0
SPLINE
  5
201
330
1F
100
AcDbEntity
  8
0
  6
Continuous
 62
     7
370
    15
100
AcDbSpline
210
0.0
220
0.0
230
1.0
 70
     8
 71
     3
 72
    11
 73
     7
 74
     0
 42
0.000000001
 43
0.00000001
 40
0.0
 40
0.0
 40
0.0
 40
0.0
 40
0.0543399544031791
 40
0.4405274514418906
 40
0.8450270627247379
 40
0.9999999999999999
 40
0.9999999999999999
 40
0.9999999999999999
 40
0.9999999999999999
 10
271.4445521667445
 20
45.59946272788066
 30
0.0
 10
271.4349228056025
 20
45.60398498792743
 30
0.0
 10
271.3568587371017
 20
45.64064640428382
 30
0.0
 10
271.1897722531908
 20
45.82248785317945
 30
0.0
 10
271.0075511861072
 20
46.17589048806711
 30
0.0
 10
270.9096317436762
 20
46.41758448192592
 30
0.0
 10
270.8825082259112
 20
46.48453330407389
 30
0.0
  0
SPLINE
  5
202
330
1F
100
AcDbEntity
  8
0
  6
Continuous
 62
     7
370
    15
100
AcDbSpline
210
0.0
220
0.0
230
1.0
 70
     8
 71
     3
 72
     9
 73
     5
 74
     0
 42
0.000000001
 43
0.00000001
 40
0.0
 40
0.0
 40
0.0
 40
0.0
 40
0.7296333304496395
 40
1.0
 40
1.0
 40
1.0
 40
1.0
 10
274.3124026897445
 20
46.20419251996852
 30
0.0
 10
274.1589512071461
 20
45.99762953809809
 30
0.0
 10
273.9486380591654
 20
45.71452434916279
 30
0.0
 10
273.7261722101272
 20
45.59900728993528
 30
0.0
 10
273.666024859434
 20
45.56777532735569
 30
0.0
  0
LINE
  5
203
330
1F
100
AcDbEntity
  8
0
  6
Continuous
 62
     7
370
    15
100
AcDbLine
 10
273.665207446
 20
45.5586048672
 30
0.0
 11
273.665207446
 21
47.1316584229
 31
0.0
  0
LINE
  5
204
330
1F
100
AcDbEntity
  8
0
  6
Continuous
 62
     7
370
    15
100
AcDbLine
 10
271.950260214
 20
45.4203915343
 30
0.0
 11
271.950260214
 21
47.271828815
 31
0.0
  0
ARC
  5
205
330
1F
100
AcDbEntity
  8
0
  6
Continuous
 62
     7
370
    15
100
AcDbCircle
 10
274.0391257888
 20
51.2626566237
 30
0.0
 40
8.707898968062304
100
AcDbArc
 50
34.3406250395
 51
84.8700882705
  0
ARC
  5
206
330
1F
100
AcDbEntity
  8
0
  6
Continuous
 62
     7
370
    15
100
AcDbCircle
 10
257.7452284029
 20
23.0379819367
 30
0.0
 40
8.684222788799957
100
AcDbArc
 50
215.2000783552
 51
265.4598339297
  0
LWPOLYLINE
  5
207
330
1F
100
AcDbEntity
  8
0
  6
Continuous
 62
     7
370
    15
100
AcDbPolyline
 90
        9
 70
   128
 43
0.0
 10
251.1800870222
 20
16.7916182657
 10
251.013763759
 20
16.8902242765
 10
250.0228693711
 20
17.5966794682
 10
249.1284482654
 20
18.4504009011
 10
248.3368190171
 20
19.4453575198
 10
247.6535740357
 20
20.574520523
 10
247.0835400574
 20
21.8299130175
 10
246.6307440476
 20
23.2026663711
 10
246.2983847518
 20
24.6830828636
  0
SPLINE
  5
208
330
1F
100
AcDbEntity
  8
0
  6
Continuous
 62
     7
370
    15
100
AcDbSpline
210
0.0
220
0.0
230
1.0
 70
     8
 71
     3
 72
    32
 73
    28
 74
     0
 42
0.000000001
 43
0.00000001
 40
0.0
 40
0.0
 40
0.0
 40
0.0
 40
0.0193254758647258
 40
0.0385826927399014
 40
0.0577846348003733
 40
0.0769443985950771
 40
0.0960751672943215
 40
0.1151901840580798
 40
0.1343027247879751
 40
0.1534260705402312
 40
0.172573479885108
 40
0.1917581614995186
 40
0.2109932472740069
 40
0.2302917662029109
 40
0.2496666193081449
 40
0.3745846283005043
 40
0.4997410234224777
 40
0.4999962720873377
 40
0.6248627021449072
 40
0.7503411293897363
 40
0.7861451323127985
 40
0.8217618640028611
 40
0.8572756267732794
 40
0.8927714566788081
 40
0.9283345184945242
 40
0.9640494961196089
 40
1.0
 40
1.0
 40
1.0
 40
1.0
 10
246.2983294758192
 20
32.13490763005823
 30
0.0
 10
246.3202726931069
 20
32.07481658634426
 30
0.0
 10
246.3640816226391
 20
31.95484674486325
 30
0.0
 10
246.4265208738611
 20
31.77409919075612
 30
0.0
 10
246.4864295013878
 20
31.59325579434071
 30
0.0
 10
246.5436160870213
 20
31.41224867880067
 30
0.0
 10
246.5981741582293
 20
31.23111927647963
 30
0.0
 10
246.6501219048201
 20
31.04988075914875
 30
0.0
 10
246.699498384283
 20
30.86855480493885
 30
0.0
 10
246.7463377657305
 20
30.68716172820303
 30
0.0
 10
246.7906763720761
 20
30.50572337279986
 30
0.0
 10
246.8325502152995
 20
30.32426148382596
 30
0.0
 10
246.871997806488
 20
30.14280143137256
 30
0.0
 10
246.9090513258483
 20
29.96135898567926
 30
0.0
 10
247.0067434254825
 20
29.45100803393717
 30
0.0
 10
247.1242396243158
 20
28.62440650524893
 30
0.0
 10
247.1590910604364
 20
27.90908700995556
 30
0.0
 10
247.1594868846104
 20
27.23237504505461
 30
0.0
 10
247.1244355335641
 20
26.59068392095696
 30
0.0
 10
246.9995014533931
 20
25.96938298217663
 30
0.0
 10
246.8787752725201
 20
25.59675888018611
 30
0.0
 10
246.8044678599975
 20
25.40796217904359
 30
0.0
 10
246.7215543887654
 20
25.23377089607645
 30
0.0
 10
246.6298555877561
 20
25.07395472601109
 30
0.0
 10
246.5289535201341
 20
24.92875085340127
 30
0.0
 10
246.419400623335
 20
24.79670389328409
 30
0.0
 10
246.338872325434
 20
24.72100440835252
 30
0.0
 10
246.2984758496781
 20
24.68303027394908
 30
0.0
  0
LWPOLYLINE
  5
209
330
1F
100
AcDbEntity
  8
0
  6
Continuous
 62
     7
370
    15
100
AcDbPolyline
 90
       27
 70
   128
 43
0.0
 10
246.2983294756
 20
32.1349076302
 10
246.6306688155
 20
33.9990734925
 10
247.083448374
 20
35.8946328061
 10
247.6534694425
 20
37.8081941942
 10
248.3367050476
 20
39.7262391027
 10
249.1283284002
 20
41.6352173029
 10
250.0227469944
 20
43.5216426191
 10
251.0136421166
 20
45.3721882028
 10
252.0940134848
 20
47.1737806813
 10
253.2562287027
 20
48.9136925166
 10
254.4920771795
 20
50.5796319197
 10
255.7928281346
 20
52.159829688
 10
257.1492922772
 20
53.6431223492
 10
258.5518867245
 20
55.0190310275
 10
259.9907027017
 20
56.2778354723
 10
261.4555755432
 20
57.4106427282
 10
262.9361565017
 20
58.4094499602
 10
264.4219858585
 20
59.2672009901
 10
265.9025668171
 20
59.9778361464
 10
267.3674396585
 20
60.5363350727
 10
268.8062556357
 20
60.9387521951
 10
270.2088500831
 20
61.1822445958
 10
271.5653142256
 20
61.2650920973
 10
272.8660651807
 20
61.1867094148
 10
274.1019136575
 20
60.947650291
 10
275.2641288754
 20
60.5496035839
 10
276.1780553381
 20
60.0940613847
  0
LWPOLYLINE
  5
20A
330
1F
100
AcDbEntity
  8
0
  6
Continuous
 62
     7
370
    15
100
AcDbPolyline
 90
       60
 70
   128
 43
0.0
 10
278.2719873769
 20
42.8382193679
 10
277.0919621182
 20
42.0843791769
 10
275.9253070173
 20
41.1938280777
 10
274.7852407426
 20
40.1766563703
 10
273.6846807004
 20
39.0443890166
 10
272.6360966759
 20
37.809855058
 10
271.651369545
 20
36.4870422576
 10
270.7416566596
 20
35.090938613
 10
269.9172654302
 20
33.6373625364
 10
269.1875365389
 20
32.1427836255
 10
268.5607381055
 20
30.6241360566
 10
268.0439720067
 20
29.0986267135
 10
267.6430934091
 20
27.5835402266
 10
267.3626444271
 20
26.0960431311
 10
267.2058026599
 20
24.6529893636
 10
267.1743451874
 20
23.2707292999
 10
267.2686284353
 20
21.9649244988
 10
267.4875841367
 20
20.7503702504
 10
267.8287314361
 20
19.6408279397
 10
268.2882049982
 20
18.6488691245
 10
268.8607988039
 20
17.7857330944
 10
269.5400251367
 20
17.0611995257
 10
270.3181880908
 20
16.4834776731
 10
271.186470769
 20
16.059113356
 10
272.1350351816
 20
15.7929147919
 10
273.1531337147
 20
15.6878981166
 10
274.2292309053
 20
15.7452532113
 10
275.351134142
 20
15.9643302196
 10
276.5061318131
 20
16.3426469116
 10
277.6811373332
 20
16.875916808
 10
278.8628374205
 20
17.5580977477
 10
280.0378429406
 20
18.3814603482
 10
281.1928406117
 20
19.3366755821
 10
282.3147438484
 20
20.4129204792
 10
283.390841039
 20
21.5980007548
 10
284.4089395721
 20
22.8784889758
 10
285.3575039847
 20
24.239876699
 10
286.2257866629
 20
25.6667388575
 10
287.003949617
 20
27.1429085329
 10
287.6831759498
 20
28.651660133
 10
288.2557697555
 20
30.1758988992
 10
288.7152433176
 20
31.6983545972
 10
289.056390617
 20
33.2017771957
 10
289.2753463184
 20
34.669132316
 10
289.3696295663
 20
36.083794238
 10
289.3381720938
 20
37.4297342771
 10
289.1813303266
 20
38.6917023948
 10
288.9008813446
 20
39.8553999879
 10
288.500002747
 20
40.9076418979
 10
287.9832366482
 20
41.8365058033
 10
287.3564382148
 20
42.6314673051
 10
286.6267093235
 20
43.2835191717
 10
285.8023180941
 20
43.785273395
 10
284.8926052087
 20
44.131044899
 10
283.9078780778
 20
44.3169159546
 10
282.8592940533
 20
44.3407805683
 10
281.7587340111
 20
44.2023683446
 10
280.6186677364
 20
43.9032475492
 10
279.4520126355
 20
43.4468073403
 10
278.2719873769
 20
42.8382193679
  0
LWPOLYLINE
  5
20B
330
1F
100
AcDbEntity
  8
0
  6
Continuous
 62
     7
370
    15
100
AcDbPolyline
 90
       32
 70
   128
 43
0.0
 10
278.0598553425
 20
43.2056428283
 10
276.8772507792
 20
42.4513702096
 10
275.7076030791
 20
41.5622224874
 10
274.5637271469
 20
40.5479413503
 10
273.4581555269
 20
39.4196394747
 10
272.403001093
 20
38.1896787719
 10
271.4098243381
 20
36.8715349489
 10
270.4895067144
 20
35.4796498652
 10
269.6521314145
 20
34.029273305
 10
268.9068728974
 20
32.5362958976
 10
268.2618963714
 20
31.0170750156
 10
267.7242683342
 20
29.4882555612
 10
267.2998791511
 20
27.9665876
 10
266.9933785188
 20
26.4687428448
 10
266.8081245224
 20
25.0111319962
 10
266.7461468435
 20
23.6097249435
 10
266.8081245224
 20
22.2798757958
 10
266.9933785188
 20
21.0361546586
 10
267.2998791511
 20
19.8921880009
 10
267.7242683342
 20
18.8605093608
 10
268.2618963714
 20
17.9524220255
 10
268.9068728974
 20
17.1778751897
 10
269.6521314145
 20
16.5453549507
 10
270.4895067144
 20
16.0617913326
 10
271.4098243381
 20
15.7324823596
 10
272.403001093
 20
15.5610360097
 10
273.4581555269
 20
15.549330685
 10
274.5637271469
 20
15.6974946315
 10
275.7076030791
 20
16.0039045339
 10
276.8772507792
 20
16.4652033014
 10
278.0598553425
 20
17.0763368479
 10
278.0616941383
 20
17.0773985347
  0
LWPOLYLINE
  5
20C
330
1F
100
AcDbEntity
  8
0
  6
Continuous
 62
     7
370
    15
100
AcDbPolyline
 90
       16
 70
   128
 43
0.0
 10
289.3735638415
 20
36.6722547327
 10
289.3115861625
 20
38.0021038804
 10
289.1263321662
 20
39.2458250176
 10
288.8198315339
 20
40.3897916753
 10
288.3954423508
 20
41.4214703154
 10
287.8578143136
 20
42.3295576507
 10
287.2128377876
 20
43.1041044865
 10
286.4675792705
 20
43.7366247255
 10
285.6302039706
 20
44.2201883436
 10
284.7098863469
 20
44.5494973166
 10
283.716709592
 20
44.7209436665
 10
282.6615551581
 20
44.7326489912
 10
281.5559835381
 20
44.5844850447
 10
280.4121076059
 20
44.2780751423
 10
279.2424599058
 20
43.8167763748
 10
278.0598553425
 20
43.2056428283
  0
SPLINE
  5
20D
330
1F
100
AcDbEntity
  8
0
  6
Continuous
 62
     7
370
    15
100
AcDbSpline
210
0.0
220
0.0
230
1.0
 70
    11
 71
     3
 72
    94
 73
    90
 74
     0
 42
0.000000001
 43
0.00000001
 40
0.0
 40
0.0
 40
0.0
 40
0.0
 40
0.0312500000000012
 40
0.0312500000000012
 40
0.0625000000000025
 40
0.0625000000000025
 40
0.0937500000000037
 40
0.0937500000000037
 40
0.1093750000000043
 40
0.1093750000000043
 40
0.125000000000005
 40
0.125000000000005
 40
0.1562500000000057
 40
0.1562500000000057
 40
0.1718750000000059
 40
0.1718750000000059
 40
0.187500000000006
 40
0.187500000000006
 40
0.2187500000000063
 40
0.2187500000000063
 40
0.2343750000000062
 40
0.2343750000000062
 40
0.2500000000000061
 40
0.2500000000000061
 40
0.2812500000000064
 40
0.2812500000000064
 40
0.3125000000000067
 40
0.3125000000000067
 40
0.3281250000000068
 40
0.3281250000000068
 40
0.3437500000000068
 40
0.3437500000000068
 40
0.3750000000000069
 40
0.3750000000000069
 40
0.390625000000007
 40
0.390625000000007
 40
0.406250000000007
 40
0.406250000000007
 40
0.4218750000000071
 40
0.4218750000000071
 40
0.4375000000000071
 40
0.4375000000000071
 40
0.4687500000000068
 40
0.4687500000000068
 40
0.4843750000000066
 40
0.4843750000000066
 40
0.5000000000000063
 40
0.5000000000000063
 40
0.5312500000000056
 40
0.5312500000000056
 40
0.5625000000000048
 40
0.5625000000000048
 40
0.5781250000000047
 40
0.5781250000000047
 40
0.5937500000000046
 40
0.5937500000000046
 40
0.6250000000000042
 40
0.6250000000000042
 40
0.6562500000000039
 40
0.6562500000000039
 40
0.6875000000000036
 40
0.6875000000000036
 40
0.7187500000000032
 40
0.7187500000000032
 40
0.7500000000000029
 40
0.7500000000000029
 40
0.7812500000000026
 40
0.7812500000000026
 40
0.8125000000000021
 40
0.8125000000000021
 40
0.8281250000000019
 40
0.8281250000000019
 40
0.8437500000000018
 40
0.8437500000000018
 40
0.8593750000000017
 40
0.8593750000000017
 40
0.8750000000000014
 40
0.8750000000000014
 40
0.906250000000001
 40
0.906250000000001
 40
0.9218750000000009
 40
0.9218750000000009
 40
0.9375000000000008
 40
0.9375000000000008
 40
0.9531250000000006
 40
0.9531250000000006
 40
0.9687500000000004
 40
0.9687500000000004
 40
1.0
 40
1.0
 40
1.0
 40
1.0
 10
272.5809278737515
 20
48.19483297768223
 30
0.0
 10
272.8074442559383
 20
48.1644734376562
 30
0.0
 10
273.0289802684557
 20
48.12249496166317
 30
0.0
 10
273.4629964467677
 20
48.01879159642112
 30
0.0
 10
273.6767541374758
 20
47.95645871068817
 30
0.0
 10
274.0814407466297
 20
47.81796211302994
 30
0.0
 10
274.2739998878277
 20
47.7415271547864
 30
0.0
 10
274.5483319871392
 20
47.61690640977964
 30
0.0
 10
274.6377504726586
 20
47.57346665559453
 30
0.0
 10
274.8090424134526
 20
47.48451308081611
 30
0.0
 10
274.890975690921
 20
47.43900708500741
 30
0.0
 10
275.1259166529509
 20
47.29949887961899
 30
0.0
 10
275.2681583385972
 20
47.20255524047271
 30
0.0
 10
275.459363145047
 20
47.05073989184766
 30
0.0
 10
275.5195462152155
 20
46.99886321276189
 30
0.0
 10
275.6300657301521
 20
46.89475381363472
 30
0.0
 10
275.6806902802317
 20
46.84232086627668
 30
0.0
 10
275.8188069656927
 20
46.68365402259897
 30
0.0
 10
275.8926805815903
 20
46.57608893048891
 30
0.0
 10
275.9744486047214
 20
46.41056102546805
 30
0.0
 10
275.9967650036764
 20
46.35464636375998
 30
0.0
 10
276.0304159983823
 20
46.24356664866234
 30
0.0
 10
276.0419221092366
 20
46.1880968510209
 30
0.0
 10
276.0603848654101
 20
46.02149859270873
 30
0.0
 10
276.0514852746109
 20
45.91019706583018
 30
0.0
 10
275.9865443075552
 20
45.68478690976676
 30
0.0
 10
275.931206021677
 20
45.57394885571158
 30
0.0
 10
275.8144607329631
 20
45.41145212782933
 30
0.0
 10
275.7698455923509
 20
45.35779535131273
 30
0.0
 10
275.6686461339168
 20
45.2513645471743
 30
0.0
 10
275.6115789838008
 20
45.19822015151308
 30
0.0
 10
275.4254984196878
 20
45.04363598897933
 30
0.0
 10
275.2818300268186
 20
44.94657722789741
 30
0.0
 10
275.0368957324585
 20
44.80969729909024
 30
0.0
 10
274.9496997082991
 20
44.76526814181679
 30
0.0
 10
274.7681325115229
 20
44.68097510082126
 30
0.0
 10
274.6741352388823
 20
44.64122343345307
 30
0.0
 10
274.4799755599657
 20
44.56640400223353
 30
0.0
 10
274.3798123612131
 20
44.53133673351484
 30
0.0
 10
274.1733754303609
 20
44.46598219210254
 30
0.0
 10
274.066455941853
 20
44.43554590835604
 30
0.0
 10
273.7424911920883
 20
44.35332450092425
 30
0.0
 10
273.5219265963032
 20
44.31021859826898
 30
0.0
 10
273.1845256082162
 20
44.26326030033547
 30
0.0
 10
273.0703995098204
 20
44.25055320145265
 30
0.0
 10
272.8438522714063
 20
44.23168872946796
 30
0.0
 10
272.7311973340016
 20
44.22546523210227
 30
0.0
 10
272.394957196072
 20
44.21634634776003
 30
0.0
 10
272.1720870165937
 20
44.2230115522181
 30
0.0
 10
271.7349545519492
 20
44.26304662712239
 30
0.0
 10
271.5247279095584
 20
44.29592951154358
 30
0.0
 10
271.2210779039758
 20
44.36457813769999
 30
0.0
 10
271.1218247332048
 20
44.39070024622288
 30
0.0
 10
270.9272792170593
 20
44.44964384541471
 30
0.0
 10
270.8319382523435
 20
44.48253313432176
 30
0.0
 10
270.5572166750633
 20
44.58951044204603
 30
0.0
 10
270.3871444388711
 20
44.67237671489264
 30
0.0
 10
270.0727256146999
 20
44.86112462793181
 30
0.0
 10
269.9273507007985
 20
44.96818260055684
 30
0.0
 10
269.6729954427922
 20
45.19835775701677
 30
0.0
 10
269.5629267129778
 20
45.32175980622984
 30
0.0
 10
269.377534762374
 20
45.58439638247975
 30
0.0
 10
269.3020334319331
 20
45.72489795521604
 30
0.0
 10
269.1936296999974
 20
46.01005148360483
 30
0.0
 10
269.1596630147738
 20
46.1556815618672
 30
0.0
 10
269.1344185375568
 20
46.45151570639246
 30
0.0
 10
269.143838156829
 20
46.60253140709276
 30
0.0
 10
269.2080213479692
 20
46.89310629545983
 30
0.0
 10
269.2623385194406
 20
47.03440886443434
 30
0.0
 10
269.3801777000406
 20
47.2385399103879
 30
0.0
 10
269.4258530908978
 20
47.30550704849015
 30
0.0
 10
269.527431690212
 20
47.43287747415968
 30
0.0
 10
269.58353540428
 20
47.49372875405037
 30
0.0
 10
269.7063515645686
 20
47.60964982026577
 30
0.0
 10
269.7730633588821
 20
47.66472009266497
 30
0.0
 10
269.9174118203757
 20
47.76883252037218
 30
0.0
 10
269.9956586490613
 20
47.81818571346895
 30
0.0
 10
270.2425715838691
 20
47.9538653956032
 30
0.0
 10
270.4226692019266
 20
48.0280317335488
 30
0.0
 10
270.7152780041268
 20
48.11608369560773
 30
0.0
 10
270.8172447727236
 20
48.14165311468635
 30
0.0
 10
271.0246533062492
 20
48.18414195551203
 30
0.0
 10
271.1302180957858
 20
48.20117049736198
 30
0.0
 10
271.3449094868891
 20
48.22738294099531
 30
0.0
 10
271.4540366291223
 20
48.23656527406613
 30
0.0
 10
271.6758168243751
 20
48.24743118553319
 30
0.0
 10
271.7889259169732
 20
48.2490829959392
 30
0.0
 10
272.1275945985107
 20
48.2432446840204
 30
0.0
 10
272.3544114915649
 20
48.22519251770828
 30
0.0
 10
272.5809278737516
 20
48.19483297768224
 30
0.0
  0
LINE
  5
20E
330
1F
100
AcDbEntity
  8
0
  6
Continuous
 62
     7
370
    15
100
AcDbLine
 10
284.2819566976
 20
30.0227069086
 30
0.0
 11
286.456748369
 21
32.7281270725
 31
0.0
  0
SPLINE
  5
20F
330
1F
100
AcDbEntity
  8
0
  6
Continuous
 62
     7
370
    15
100
AcDbSpline
210
0.0
220
0.0
230
1.0
 70
     8
 71
     3
 72
    20
 73
    16
 74
     0
 42
0.000000001
 43
0.00000001
 40
0.0
 40
0.0
 40
0.0
 40
0.0
 40
0.0469163091108927
 40
0.0977062414429347
 40
0.151668963303151
 40
0.2078463383218536
 40
0.2651938476233427
 40
0.3192095203174499
 40
0.3728953068123805
 40
0.4259306594991016
 40
0.4781535685998879
 40
0.5793596734499792
 40
0.6698058354121857
 40
0.8327057026615119
 40
0.9074992363786771
 40
0.9074992363786771
 40
0.9074992363786771
 40
0.9074992363786771
 10
286.4567483690436
 20
32.72812707250727
 30
0.0
 10
286.5570797133828
 20
32.85293831103306
 30
0.0
 10
286.7561324004148
 20
33.12844035666396
 30
0.0
 10
287.0220915237641
 20
33.58800967833724
 30
0.0
 10
287.2485057280882
 20
34.09805173687322
 30
0.0
 10
287.4135328066982
 20
34.6345876810576
 30
0.0
 10
287.4964675509902
 20
35.15564439381254
 30
0.0
 10
287.4914298931983
 20
35.62939150233512
 30
0.0
 10
287.4026964194786
 20
36.03206876347319
 30
0.0
 10
287.2354254698165
 20
36.35209750929422
 30
0.0
 10
286.9328441839722
 20
36.65940394662734
 30
0.0
 10
286.4318323067406
 20
36.7776738871293
 30
0.0
 10
285.7198937322079
 20
36.8165697792934
 30
0.0
 10
285.2191989339406
 20
36.87002655403725
 30
0.0
 10
284.5144849905008
 20
36.93326457209753
 30
0.0
 10
284.2815822839879
 20
36.95396283384466
 30
0.0
  0
SPLINE
  5
210
330
1F
100
AcDbEntity
  8
0
  6
Continuous
 62
     7
370
    15
100
AcDbSpline
210
0.0
220
0.0
230
1.0
 70
     8
 71
     3
 72
    20
 73
    16
 74
     0
 42
0.000000001
 43
0.00000001
 40
0.0
 40
0.0
 40
0.0
 40
0.0
 40
0.0469163091108927
 40
0.0977062414429347
 40
0.151668963303151
 40
0.2078463383218536
 40
0.2651938476233426
 40
0.3192095203174499
 40
0.3728953068123805
 40
0.4259306594991016
 40
0.4781535685998877
 40
0.5793596734499791
 40
0.6698058354121855
 40
0.8327057026615118
 40
0.9074992363786772
 40
0.9074992363786772
 40
0.9074992363786772
 40
0.9074992363786772
 10
270.087226384576
 20
23.27820317815996
 30
0.0
 10
269.9868950402367
 20
23.28717431223763
 30
0.0
 10
269.7878423532047
 20
23.3328550173062
 30
0.0
 10
269.5218832298554
 20
23.4853544713263
 30
0.0
 10
269.2954690255313
 20
23.73398425386636
 30
0.0
 10
269.1304419469214
 20
24.07998398876502
 30
0.0
 10
269.0475072026293
 20
24.50528628395037
 30
0.0
 10
269.0525448604212
 20
24.9848497483549
 30
0.0
 10
269.141278334141
 20
25.48997649755113
 30
0.0
 10
269.3085492838031
 20
26.00313217102978
 30
0.0
 10
269.6111305696472
 20
26.65979152481271
 30
0.0
 10
270.1121424468789
 20
27.35651746598411
 30
0.0
 10
270.8240810214116
 20
28.21740013982312
 30
0.0
 10
271.324775819679
 20
28.84894682365678
 30
0.0
 10
272.0294897631187
 20
29.72583024188321
 30
0.0
 10
272.2623924696316
 20
30.01543224479309
 30
0.0
  0
LINE
  5
211
330
1F
100
AcDbEntity
  8
0
  6
Continuous
 62
     7
370
    15
100
AcDbLine
 10
272.262018056
 20
23.0837440308
 30
0.0
 11
270.0872263846
 21
23.2782031782
 31
0.0
  0
SPLINE
  5
212
330
1F
100
AcDbEntity
  8
0
  6
Continuous
 62
     7
370
    15
100
AcDbSpline
210
0.0
220
0.0
230
1.0
 70
     8
 71
     3
 72
     8
 73
     4
 74
     0
 42
0.000000001
 43
0.00000001
 40
0.0
 40
0.0
 40
0.0
 40
0.0
 40
1.0
 40
1.0
 40
1.0
 40
1.0
 10
245.3363361967631
 20
37.57024534798465
 30
0.0
 10
244.1667097768251
 20
37.3746891747419
 30
0.0
 10
242.9961065339652
 20
37.18110420802198
 30
0.0
 10
241.8248750523124
 20
36.98882475877572
 30
0.0
  0
SPLINE
  5
213
330
1F
100
AcDbEntity
  8
0
  6
Continuous
 62
     7
370
    15
100
AcDbSpline
210
0.0
220
0.0
230
1.0
 70
     8
 71
     3
 72
     8
 73
     4
 74
     0
 42
0.000000001
 43
0.00000001
 40
0.0
 40
0.0
 40
0.0
 40
0.0
 40
0.0012417047560385
 40
0.0012417047560385
 40
0.0012417047560385
 40
0.0012417047560385
 10
241.3503744486628
 20
37.26280017965558
 30
0.0
 10
241.5086455891231
 20
37.17141485489764
 30
0.0
 10
241.6668148948024
 20
37.08008830749404
 30
0.0
 10
241.8248750523124
 20
36.98882475877572
 30
0.0
  0
LWPOLYLINE
  5
214
330
1F
100
AcDbEntity
  8
0
  6
Continuous
 62
     7
370
    15
100
AcDbPolyline
 90
       28
 70
   128
 43
0.0
 10
241.3503744487
 20
37.2628001797
 10
241.8292100395
 20
39.2114663159
 10
242.4310917558
 20
41.1772775096
 10
243.1515390035
 20
43.145599653
 10
243.9851885501
 20
45.1017799459
 10
244.9258344498
 20
47.0312559758
 10
245.9664742431
 20
48.9196641252
 10
247.0993610848
 20
50.7529464984
 10
248.316061414
 20
52.5174555731
 10
249.6075177364
 20
54.200055797
 10
250.9641160508
 20
55.7882213724
 10
252.3757574189
 20
57.2701295025
 10
253.8319331448
 20
58.6347484039
 10
255.3218030049
 20
59.8719194303
 10
256.8342759464
 20
60.9724326974
 10
258.3580926517
 20
61.9280956431
 10
259.881909357
 20
62.7317940163
 10
261.3943822984
 20
63.3775448371
 10
262.8842521586
 20
63.8605409364
 10
264.3404278845
 20
64.1771867415
 10
265.7520692526
 20
64.3251250427
 10
267.108667567
 20
64.3032545416
 10
268.4001238894
 20
64.1117380489
 10
269.6168242186
 20
63.7520012729
 10
270.7497110603
 20
63.2267222054
 10
271.7903508536
 20
62.5398111868
 10
272.7309967533
 20
61.6963817955
 10
273.231227096
 20
61.1339217439
  0
LINE
  5
215
330
1F
100
AcDbEntity
  8
0
  6
Continuous
 62
     7
370
    15
100
AcDbLine
 10
237.2226386135
 20
39.645691356
 30
0.0
 11
241.3503744487
 21
37.2628001797
 31
0.0
  0
ARC
  5
216
330
1F
100
AcDbEntity
  8
0
  6
Continuous
 62
     7
370
    15
100
AcDbCircle
 10
262.3665273467
 20
57.9162430102
 30
0.0
 40
8.791379898620992
100
AcDbArc
 50
60.2471036508
 51
85.9809519032
  0
SPLINE
  5
217
330
1F
100
AcDbEntity
  8
0
  6
Continuous
 62
     7
370
    15
100
AcDbSpline
210
0.0
220
0.0
230
1.0
 70
     8
 71
     3
 72
    16
 73
    12
 74
     0
 42
0.000000001
 43
0.00000001
 40
0.0
 40
0.0
 40
0.0
 40
0.0
 40
0.0964794202882549
 40
0.1936296485218497
 40
0.2928948720294362
 40
0.3928905049859719
 40
0.4893697351531495
 40
0.6856004259276478
 40
0.7855848528743241
 40
0.882168681737504
 40
1.0
 40
1.0
 40
1.0
 40
1.0
 10
255.0577009855273
 20
52.46530783643105
 30
0.0
 10
255.082622166522
 20
52.45180813723876
 30
0.0
 10
255.132637802005
 20
52.42471487732962
 30
0.0
 10
255.2149327488433
 20
52.39171613259882
 30
0.0
 10
255.3024868381938
 20
52.36463513927568
 30
0.0
 10
255.3940757911497
 20
52.34474417955123
 30
0.0
 10
255.5201088375046
 20
52.32766456274227
 30
0.0
 10
255.6518917836809
 20
52.32445959724473
 30
0.0
 10
255.7861312827007
 20
52.33598914109729
 30
0.0
 10
255.8944768162593
 20
52.35101467244308
 30
0.0
 10
255.9678807325589
 20
52.37124045977016
 30
0.0
 10
256.0082196747426
 20
52.38235549159322
 30
0.0
  0
SPLINE
  5
218
330
1F
100
AcDbEntity
  8
0
  6
Continuous
 62
     7
370
    15
100
AcDbSpline
210
0.0
220
0.0
230
1.0
 70
     8
 71
     3
 72
    30
 73
    26
 74
     0
 42
0.000000001
 43
0.00000001
 40
0.0
 40
0.0
 40
0.0
 40
0.0
 40
0.0201689687041698
 40
0.0564804123151054
 40
0.130338100117138
 40
0.1679732300377427
 40
0.2042598330748532
 40
0.2780692637525758
 40
0.315681009048685
 40
0.3519143303567633
 40
0.4256124032251974
 40
0.4631650457448329
 40
0.4993996573226046
 40
0.5730967934905187
 40
0.6106467263969764
 40
0.646935113905078
 40
0.7207430068603001
 40
0.758350727496782
 40
0.7946617302616498
 40
0.8685198295528134
 40
0.9061559914155379
 40
0.9372224235181655
 40
0.9528073139472537
 40
0.9682937644744409
 40
1.0
 40
1.0
 40
1.0
 40
1.0
 10
255.7579216544302
 20
54.23415953950261
 30
0.0
 10
255.7392542816516
 20
54.23015293630196
 30
0.0
 10
255.6869788814146
 20
54.21893299719281
 30
0.0
 10
255.5681317231119
 20
54.18307841055972
 30
0.0
 10
255.4368963639656
 20
54.1312153710249
 30
0.0
 10
255.3129861961256
 20
54.06692058737137
 30
0.0
 10
255.1946047898856
 20
53.99529353209781
 30
0.0
 10
255.0855136560083
 20
53.91302162111282
 30
0.0
 10
254.9886337834904
 20
53.82207342024842
 30
0.0
 10
254.9004132936357
 20
53.7260005565874
 30
0.0
 10
254.8258311153219
 20
53.62300207936142
 30
0.0
 10
254.7668814317725
 20
53.51562341897435
 30
0.0
 10
254.718564950171
 20
53.40603293311669
 30
0.0
 10
254.6865775528252
 20
53.29410011265481
 30
0.0
 10
254.6718566232672
 20
53.18272081383831
 30
0.0
 10
254.6685883669628
 20
53.07236357068989
 30
0.0
 10
254.6825282484297
 20
52.96462853894289
 30
0.0
 10
254.7134764265038
 20
52.86246297777851
 30
0.0
 10
254.755443266445
 20
52.76460506840027
 30
0.0
 10
254.8135623500717
 20
52.67413367329225
 30
0.0
 10
254.8839167133996
 20
52.59645312451133
 30
0.0
 10
254.9304551157109
 20
52.55422873796496
 30
0.0
 10
254.9671345689786
 20
52.52514021995128
 30
0.0
 10
255.0055961116274
 20
52.49699420298766
 30
0.0
 10
255.0367621771019
 20
52.47804128551877
 30
0.0
 10
255.0577009855273
 20
52.46530783643105
 30
0.0
  0
SPLINE
  5
219
330
1F
100
AcDbEntity
  8
0
  6
Continuous
 62
     7
370
    15
100
AcDbSpline
210
0.0
220
0.0
230
1.0
 70
     8
 71
     3
 72
    10
 73
     6
 74
     0
 42
0.000000001
 43
0.00000001
 40
0.0
 40
0.0
 40
0.0
 40
0.0
 40
0.1983717319861197
 40
0.6709802692894349
 40
1.0
 40
1.0
 40
1.0
 40
1.0
 10
247.1784866674643
 20
36.18186072935135
 30
0.0
 10
247.0940932779127
 20
36.29236836361406
 30
0.0
 10
246.808637791485
 20
36.66615368803377
 30
0.0
 10
246.3172992217142
 20
37.11558673564043
 30
0.0
 10
245.9002967623597
 20
37.39706794544693
 30
0.0
 10
245.7291425723728
 20
37.51259889108096
 30
0.0
  0
SPLINE
  5
21A
330
1F
100
AcDbEntity
  8
0
  6
Continuous
 62
     7
370
    15
100
AcDbSpline
210
0.0
220
0.0
230
1.0
 70
     8
 71
     3
 72
    18
 73
    14
 74
     0
 42
0.000000001
 43
0.00000001
 40
0.0
 40
0.0
 40
0.0
 40
0.0
 40
0.2499999999999978
 40
0.2499999999999978
 40
0.4999999999999956
 40
0.4999999999999956
 40
0.6249999999999967
 40
0.6249999999999967
 40
0.7499999999999978
 40
0.7499999999999978
 40
0.8749999999999989
 40
0.8749999999999989
 40
1.0
 40
1.0
 40
1.0
 40
1.0
 10
284.281582283998
 20
36.95396283387777
 30
0.0
 10
284.2478816932408
 20
36.95695783406034
 30
0.0
 10
284.2117176187147
 20
36.95859517569742
 30
0.0
 10
284.1314294866978
 20
36.9574818681848
 30
0.0
 10
284.0863557911231
 20
36.95474398659027
 30
0.0
 10
284.0120010026031
 20
36.94387111477743
 30
0.0
 10
283.985350609803
 20
36.93894577221604
 30
0.0
 10
283.9318246593068
 20
36.92606537479045
 30
0.0
 10
283.9046206007638
 20
36.91795814019221
 30
0.0
 10
283.855317252137
 20
36.89988010579859
 30
0.0
 10
283.8329922281487
 20
36.88989007906574
 30
0.0
 10
283.7945982071766
 20
36.86977089508162
 30
0.0
 10
283.7787281502476
 20
36.85985466506192
 30
0.0
 10
283.7649259781905
 20
36.85007986125703
 30
0.0
  0
SPLINE
  5
21B
330
1F
100
AcDbEntity
  8
0
  6
Continuous
 62
     7
370
    15
100
AcDbSpline
210
0.0
220
0.0
230
1.0
 70
     8
 71
     3
 72
    10
 73
     6
 74
     0
 42
0.000000001
 43
0.00000001
 40
0.0
 40
0.0
 40
0.0
 40
0.0
 40
0.5
 40
0.5
 40
1.0
 40
1.0
 40
1.0
 40
1.0
 10
283.7649259781906
 20
36.85007986125703
 30
0.0
 10
283.720488184122
 20
36.86523425986221
 30
0.0
 10
283.6745915701394
 20
36.88224777338454
 30
0.0
 10
283.5867562987492
 20
36.91918505823006
 30
0.0
 10
283.5448258120044
 20
36.93919836118479
 30
0.0
 10
283.5103917064864
 20
36.95907674717701
 30
0.0
  0
SPLINE
  5
21C
330
1F
100
AcDbEntity
  8
0
  6
Continuous
 62
     7
370
    15
100
AcDbSpline
210
0.0
220
0.0
230
1.0
 70
     8
 71
     3
 72
    11
 73
     7
 74
     0
 42
0.000000001
 43
0.00000001
 40
0.0
 40
0.0
 40
0.0
 40
0.0
 40
0.1216348174436401
 40
0.335116960981569
 40
0.7111647747244574
 40
1.0
 40
1.0
 40
1.0
 40
1.0
 10
272.471131738096
 20
30.30948697810624
 30
0.0
 10
272.4683179973773
 20
30.30246663335011
 30
0.0
 10
272.4605658400717
 20
30.28312483098496
 30
0.0
 10
272.4165030990952
 20
30.21557769413233
 30
0.0
 10
272.3469696971233
 20
30.1216475288907
 30
0.0
 10
272.2880068292565
 20
30.0475997272706
 30
0.0
 10
272.262392469702
 20
30.01543224486095
 30
0.0
  0
SPLINE
  5
21D
330
1F
100
AcDbEntity
  8
0
  6
Continuous
 62
     7
370
    15
100
AcDbSpline
210
0.0
220
0.0
230
1.0
 70
     8
 71
     3
 72
    14
 73
    10
 74
     0
 42
0.000000001
 43
0.00000001
 40
0.0
 40
0.0
 40
0.0
 40
0.0
 40
0.1544296596802215
 40
0.3133374685123075
 40
0.4677552653513868
 40
0.6266509538808915
 40
0.7810900577450522
 40
0.9400017621059832
 40
1.0
 40
1.0
 40
1.0
 40
1.0
 10
269.9988380369272
 20
23.60806597070548
 30
0.0
 10
269.9130755261639
 20
23.6222846217001
 30
0.0
 10
269.7390635645273
 20
23.65113423593575
 30
0.0
 10
269.5174505901251
 20
23.77864123011653
 30
0.0
 10
269.3296288315333
 20
23.96663551837612
 30
0.0
 10
269.1858097069474
 20
24.21171907803083
 30
0.0
 10
269.0922349462764
 20
24.5112241763613
 30
0.0
 10
269.0493020226658
 20
24.77624187130605
 30
0.0
 10
269.0577507540012
 20
24.94897672619863
 30
0.0
 10
269.0600663591645
 20
24.99631942251328
 30
0.0
  0
LINE
  5
21E
330
1F
100
AcDbEntity
  8
0
  6
Continuous
 62
     7
370
    15
100
AcDbLine
 10
281.0373533234
 20
38.3867314173
 30
0.0
 11
283.5103917065
 21
36.9590767472
 31
0.0
  0
ARC
  5
21F
330
1F
100
AcDbEntity
  8
0
  6
Continuous
 62
     7
370
    15
100
AcDbCircle
 10
267.8569095621
 20
37.1235797332
 30
0.0
 40
10.89754944626584
100
AcDbArc
 50
338.4824736034
 51
3.786153622
  0
LINE
  5
220
330
1F
100
AcDbEntity
  8
0
  6
Continuous
 62
     7
370
    15
100
AcDbLine
 10
277.9949588132
 20
33.1265131443
 30
0.0
 11
283.5103917065
 21
29.9425215082
 31
0.0
  0
LINE
  5
221
330
1F
100
AcDbEntity
  8
0
  6
Continuous
 62
     7
370
    15
100
AcDbLine
 10
269.1306495983
 20
25.3310960166
 30
0.0
 11
272.326476266
 21
23.4861845514
 31
0.0
  0
SPLINE
  5
222
330
1F
100
AcDbEntity
  8
0
  6
Continuous
 62
     7
370
    15
100
AcDbSpline
210
0.0
220
0.0
230
1.0
 70
     8
 71
     3
 72
    10
 73
     6
 74
     0
 42
0.000000001
 43
0.00000001
 40
0.0
 40
0.0
 40
0.0
 40
0.0
 40
0.5
 40
0.5
 40
1.0
 40
1.0
 40
1.0
 40
1.0
 10
245.5932132251407
 20
37.56512887289028
 30
0.0
 10
245.5526379167458
 20
37.57395339421724
 30
0.0
 10
245.5090635736921
 20
37.57890647012593
 30
0.0
 10
245.4212608467053
 20
37.58049165539204
 30
0.0
 10
245.3782927297834
 20
37.57726028788351
 30
0.0
 10
245.3363361967631
 20
37.57024534798464
 30
0.0
  0
SPLINE
  5
223
330
1F
100
AcDbEntity
  8
0
  6
Continuous
 62
     7
370
    15
100
AcDbSpline
210
0.0
220
0.0
230
1.0
 70
     8
 71
     3
 72
     8
 73
     4
 74
     0
 42
0.000000001
 43
0.00000001
 40
0.0
 40
0.0
 40
0.0
 40
0.0
 40
1.0
 40
1.0
 40
1.0
 40
1.0
 10
245.7291425723728
 20
37.51259889108096
 30
0.0
 10
245.6906606305367
 20
37.53626970087683
 30
0.0
 10
245.6445529787897
 20
37.55396324608628
 30
0.0
 10
245.5932132251407
 20
37.56512887289033
 30
0.0
  0
SPLINE
  5
224
330
1F
100
AcDbEntity
  8
0
  6
Continuous
 62
     7
370
    15
100
AcDbSpline
210
0.0
220
0.0
230
1.0
 70
     8
 71
     3
 72
    10
 73
     6
 74
     0
 42
0.000000001
 43
0.00000001
 40
0.0
 40
0.0
 40
0.0
 40
0.0
 40
0.5
 40
0.5
 40
1.0
 40
1.0
 40
1.0
 40
1.0
 10
237.0659416936755
 20
39.7361392392187
 30
0.0
 10
237.0769922920255
 20
39.72976340467456
 30
0.0
 10
237.0956122379649
 20
39.71901716316918
 30
0.0
 10
237.1489121880255
 20
39.68825169032922
 30
0.0
 10
237.1824929607468
 20
39.66886694805827
 30
0.0
 10
237.2226386134863
 20
39.64569135603811
 30
0.0
  0
SPLINE
  5
225
330
1F
100
AcDbEntity
  8
0
  6
Continuous
 62
     7
370
    15
100
AcDbSpline
210
0.0
220
0.0
230
1.0
 70
     8
 71
     3
 72
    11
 73
     7
 74
     0
 42
0.000000001
 43
0.00000001
 40
0.0
 40
0.0
 40
0.0
 40
0.0
 40
0.268794610265983
 40
0.5395171108869897
 40
0.8162531976077926
 40
1.0
 40
1.0
 40
1.0
 40
1.0
 10
245.7291425723728
 20
27.02324282813786
 30
0.0
 10
245.8490865715757
 20
26.95855717538572
 30
0.0
 10
246.0898348509185
 20
26.82872192141937
 30
0.0
 10
246.4379661425352
 20
26.67235799924154
 30
0.0
 10
246.739420576397
 20
26.55501684550003
 30
0.0
 10
246.9166051599296
 20
26.50640794787687
 30
0.0
 10
246.9873072455598
 20
26.48701150619091
 30
0.0
  0
SPLINE
  5
226
330
1F
100
AcDbEntity
  8
0
  6
Continuous
 62
     7
370
    15
100
AcDbSpline
210
0.0
220
0.0
230
1.0
 70
     8
 71
     3
 72
     8
 73
     4
 74
     0
 42
0.000000001
 43
0.00000001
 40
0.0
 40
0.0
 40
0.0
 40
0.0
 40
1.0
 40
1.0
 40
1.0
 40
1.0
 10
245.5932132251413
 20
27.07257944015828
 30
0.0
 10
245.6445416071384
 20
27.06141628651799
 30
0.0
 10
245.6906621712426
 20
27.04470228221628
 30
0.0
 10
245.7291425723729
 20
27.02324282813789
 30
0.0
  0
SPLINE
  5
227
330
1F
100
AcDbEntity
  8
0
  6
Continuous
 62
     7
370
    15
100
AcDbSpline
210
0.0
220
0.0
230
1.0
 70
     8
 71
     3
 72
    12
 73
     8
 74
     0
 42
0.000000001
 43
0.00000001
 40
0.0
 40
0.0
 40
0.0
 40
0.0
 40
0.1882354094303036
 40
0.3552040209501064
 40
0.500948000530457
 40
0.75630463504078
 40
0.9999999999999999
 40
0.9999999999999999
 40
0.9999999999999999
 40
0.9999999999999999
 10
246.409129741473
 20
25.40700443085655
 30
0.0
 10
246.4981732743525
 20
25.50128607945447
 30
0.0
 10
246.6662002200484
 20
25.67919745534883
 30
0.0
 10
246.8461095776483
 20
26.02651454940287
 30
0.0
 10
247.0076335496459
 20
26.48716818696154
 30
0.0
 10
247.13339021422
 20
27.10871623535447
 30
0.0
 10
247.1506929832837
 20
27.69204020260415
 30
0.0
 10
247.1591422122744
 20
27.97688696654752
 30
0.0
  0
SPLINE
  5
228
330
1F
100
AcDbEntity
  8
0
  6
Continuous
 62
     7
370
    15
100
AcDbSpline
210
0.0
220
0.0
230
1.0
 70
     8
 71
     3
 72
     9
 73
     5
 74
     0
 42
0.000000001
 43
0.00000001
 40
0.0
 40
0.0
 40
0.0
 40
0.0
 40
0.5048005003628353
 40
1.0
 40
1.0
 40
1.0
 40
1.0
 10
246.2983953294422
 20
24.68297991059544
 30
0.0
 10
246.3169402277759
 20
24.80469378664004
 30
0.0
 10
246.3536773116742
 20
25.04580661429593
 30
0.0
 10
246.39077442303
 20
25.2873128475431
 30
0.0
 10
246.4091448940115
 20
25.40690661340635
 30
0.0
  0
LINE
  5
229
330
1F
100
AcDbEntity
  8
0
  6
Continuous
 62
     7
370
    15
100
AcDbLine
 10
272.4254682505
 20
23.3910886627
 30
0.0
 11
269.9988380369
 21
23.6080659707
 31
0.0
  0
SPLINE
  5
22A
330
1F
100
AcDbEntity
  8
0
  6
Continuous
 62
     7
370
    15
100
AcDbSpline
210
0.0
220
0.0
230
1.0
 70
     8
 71
     3
 72
    18
 73
    14
 74
     0
 42
0.000000001
 43
0.00000001
 40
0.0
 40
0.0
 40
0.0
 40
0.0
 40
0.2500000000000034
 40
0.2500000000000034
 40
0.5000000000000069
 40
0.5000000000000069
 40
0.6250000000000051
 40
0.6250000000000051
 40
0.7500000000000034
 40
0.7500000000000034
 40
0.8750000000000017
 40
0.8750000000000017
 40
1.0
 40
1.0
 40
1.0
 40
1.0
 10
272.2620180560596
 20
23.0837440307041
 30
0.0
 10
272.2955407821426
 20
23.08074659383777
 30
0.0
 10
272.3285628901868
 20
23.08122244887769
 30
0.0
 10
272.3896672461613
 20
23.09367629437142
 30
0.0
 10
272.4186995767461
 20
23.10550971835578
 30
0.0
 10
272.4520005080285
 20
23.1406589783132
 30
0.0
 10
272.4612729517713
 20
23.15551171381265
 30
0.0
 10
272.4729527380051
 20
23.19211881129268
 30
0.0
 10
272.4752807046731
 20
23.21453738668176
 30
0.0
 10
272.4715388055012
 20
23.2629007493577
 30
0.0
 10
272.4655756319091
 20
23.28918815228372
 30
0.0
 10
272.4485995631489
 20
23.34077406153311
 30
0.0
 10
272.4375944668164
 20
23.36645321311896
 30
0.0
 10
272.4254682505019
 20
23.39108866270393
 30
0.0
  0
SPLINE
  5
22B
330
1F
100
AcDbEntity
  8
0
  6
Continuous
 62
     7
370
    15
100
AcDbSpline
210
0.0
220
0.0
230
1.0
 70
     8
 71
     3
 72
    10
 73
     6
 74
     0
 42
0.000000001
 43
0.00000001
 40
0.0
 40
0.0
 40
0.0
 40
0.0
 40
0.5
 40
0.5
 40
1.0
 40
1.0
 40
1.0
 40
1.0
 10
272.3264762660271
 20
23.48618455137632
 30
0.0
 10
272.3609145071603
 20
23.46630377794427
 30
0.0
 10
272.385753774541
 20
23.44773976704088
 30
0.0
 10
272.4170324541756
 20
23.41593886273645
 30
0.0
 10
272.4240732213481
 20
23.40238905292568
 30
0.0
 10
272.4254682505019
 20
23.39108866270393
 30
0.0
  0
SPLINE
  5
22C
330
1F
100
AcDbEntity
  8
0
  6
Continuous
 62
     7
370
    15
100
AcDbSpline
210
0.0
220
0.0
230
1.0
 70
     8
 71
     3
 72
    10
 73
     6
 74
     0
 42
0.000000001
 43
0.00000001
 40
0.0
 40
0.0
 40
0.0
 40
0.0
 40
0.5
 40
0.5
 40
1.0
 40
1.0
 40
1.0
 40
1.0
 10
283.5103917064864
 20
29.94252150815722
 30
0.0
 10
283.5448299476196
 20
29.92264073472516
 30
0.0
 10
283.5869876981218
 20
29.91407447131979
 30
0.0
 10
283.674609388975
 20
29.91479969505374
 30
0.0
 10
283.7205343263219
 20
29.92369723887926
 30
0.0
 10
283.7649531125244
 20
29.93723393492955
 30
0.0
  0
SPLINE
  5
22D
330
1F
100
AcDbEntity
  8
0
  6
Continuous
 62
     7
370
    15
100
AcDbSpline
210
0.0
220
0.0
230
1.0
 70
     8
 71
     3
 72
    16
 73
    12
 74
     0
 42
0.000000001
 43
0.00000001
 40
0.0
 40
0.0
 40
0.0
 40
0.0
 40
0.2499999999999943
 40
0.2499999999999943
 40
0.3749999999999915
 40
0.3749999999999915
 40
0.4999999999999887
 40
0.4999999999999887
 40
0.7499999999999943
 40
0.7499999999999943
 40
1.0
 40
1.0
 40
1.0
 40
1.0
 10
283.7649531125244
 20
29.93723393492957
 30
0.0
 10
283.7926777882025
 20
29.88938576683789
 30
0.0
 10
283.830191055827
 20
29.84580501211605
 30
0.0
 10
283.9044120354545
 20
29.81214750444856
 30
0.0
 10
283.931178040393
 20
29.80686334777907
 30
0.0
 10
283.9847058768962
 20
29.80765188146489
 30
0.0
 10
284.01129577903
 20
29.81356247755957
 30
0.0
 10
284.0860794856822
 20
29.8409960136098
 30
0.0
 10
284.13103257662
 20
29.87185423700626
 30
0.0
 10
284.2116957945818
 20
29.94123772891157
 30
0.0
 10
284.2484112169707
 20
29.98097664946889
 30
0.0
 10
284.2819566976414
 20
30.02270690851283
 30
0.0
  0
LINE
  5
22E
330
1F
100
AcDbEntity
  8
0
  6
Continuous
 62
     7
370
    15
100
AcDbLine
 10
237.5000087938
 20
39.4855169062
 30
0.0
 11
237.0659416937
 21
39.7361392392
 31
0.0
  0
LINE
  5
22F
330
1F
100
AcDbEntity
  8
0
  6
Continuous
 62
     7
370
    15
100
AcDbLine
 10
241.8248750523
 20
36.9888247588
 30
0.0
 11
237.5000087938
 21
39.4855169062
 31
0.0
  0
SPLINE
  5
230
330
1F
100
AcDbEntity
  8
0
  6
Continuous
 62
     7
370
    15
100
AcDbSpline
210
0.0
220
0.0
230
1.0
 70
     8
 71
     3
 72
    11
 73
     7
 74
     0
 42
0.000000001
 43
0.00000001
 40
0.0
 40
0.0
 40
0.0
 40
0.0
 40
0.0763291486414734
 40
0.4828240100966647
 40
0.8892344489868842
 40
0.9999999999999999
 40
0.9999999999999999
 40
0.9999999999999999
 40
0.9999999999999999
 10
241.3963687379716
 20
34.17278556054881
 30
0.0
 10
241.3959333586415
 20
34.25102469956882
 30
0.0
 10
241.3931793439856
 20
34.7459304534059
 30
0.0
 10
241.3484836867717
 20
35.67891649590324
 30
0.0
 10
241.31040857221
 20
36.64440030418245
 30
0.0
 10
241.3224265913461
 20
37.16573906661741
 30
0.0
 10
241.3250005362656
 20
37.27739617447426
 30
0.0
  0
LINE
  5
231
330
1F
100
AcDbEntity
  8
0
  6
Continuous
 62
     7
370
    15
100
AcDbLine
 10
241.396368738
 20
32.3969849315
 30
0.0
 11
241.396368738
 21
34.1727855605
 31
0.0
  0
LINE
  5
232
330
1F
100
AcDbEntity
  8
0
  6
Continuous
 62
     7
370
    15
100
AcDbLine
 10
240.4682910877
 20
37.5856113078
 30
0.0
 11
240.4693321149
 21
37.7713630397
 31
0.0
  0
ARC
  5
233
330
1F
100
AcDbEntity
  8
0
  6
Continuous
 62
     7
370
    15
100
AcDbCircle
 10
252.4041442889
 20
37.3200216432
 30
0.0
 40
11.93880770898517
100
AcDbArc
 50
178.7252979842
 51
202.7773427363
  0
LINE
  5
234
330
1F
100
AcDbEntity
  8
0
  6
Continuous
 62
     7
370
    15
100
AcDbLine
 10
221.9599929623
 20
74.2006608409
 30
0.0
 11
222.0226110191
 21
74.1774162758
 31
0.0
  0
LWPOLYLINE
  5
235
330
1F
100
AcDbEntity
  8
0
  6
Continuous
 62
     7
370
    15
100
AcDbPolyline
 90
        3
 70
   128
 43
0.0
 10
211.850638287
 20
56.68884747
 10
211.7888887682
 20
56.742231499
 10
211.7762798319
 20
56.7534443512
  0
SPLINE
  5
236
330
1F
100
AcDbEntity
  8
0
  6
Continuous
 62
     7
370
    15
100
AcDbSpline
210
0.0
220
0.0
230
1.0
 70
     8
 71
     3
 72
    32
 73
    28
 74
     0
 42
0.000000001
 43
0.00000001
 40
0.0
 40
0.0
 40
0.0
 40
0.0
 40
0.1250000000000008
 40
0.1250000000000008
 40
0.1875000000000009
 40
0.1875000000000009
 40
0.2500000000000011
 40
0.2500000000000011
 40
0.3750000000000009
 40
0.3750000000000009
 40
0.4375000000000009
 40
0.4375000000000009
 40
0.5000000000000009
 40
0.5000000000000009
 40
0.625000000000001
 40
0.625000000000001
 40
0.6875000000000008
 40
0.6875000000000008
 40
0.7500000000000007
 40
0.7500000000000007
 40
0.8125000000000004
 40
0.8125000000000004
 40
0.8750000000000003
 40
0.8750000000000003
 40
0.9375000000000001
 40
0.9375000000000001
 40
1.0
 40
1.0
 40
1.0
 40
1.0
 10
286.1915833260991
 20
32.95593885107548
 30
0.0
 10
286.3318027131772
 20
33.1303704355599
 30
0.0
 10
286.4586391747445
 20
33.31614217818583
 30
0.0
 10
286.6275188064528
 20
33.61243763658153
 30
0.0
 10
286.6802363178227
 20
33.71453682841584
 30
0.0
 10
286.7756680042782
 20
33.91889366078111
 30
0.0
 10
286.8187794815825
 20
34.02184109173405
 30
0.0
 10
286.9344184098966
 20
34.33297973502567
 30
0.0
 10
286.9933423060186
 20
34.54579293638142
 30
0.0
 10
287.0500823648266
 20
34.85174969550285
 30
0.0
 10
287.0639873744764
 20
34.95213787898096
 30
0.0
 10
287.0818805006179
 20
35.14956206968196
 30
0.0
 10
287.0858458416409
 20
35.24720128855112
 30
0.0
 10
287.082633942403
 20
35.52717691185653
 30
0.0
 10
287.0610264671118
 20
35.69852370614171
 30
0.0
 10
286.999865488467
 20
35.93170612129919
 30
0.0
 10
286.9748635906742
 20
36.00445659950783
 30
0.0
 10
286.9164174151725
 20
36.13812879753061
 30
0.0
 10
286.8828132656162
 20
36.19948111098558
 30
0.0
 10
286.8062818583211
 20
36.31149135978609
 30
0.0
 10
286.7630349096684
 20
36.36243216427418
 30
0.0
 10
286.6700321317715
 20
36.45050395815591
 30
0.0
 10
286.620825437742
 20
36.48743508831112
 30
0.0
 10
286.5153017578188
 20
36.54853971051236
 30
0.0
 10
286.4587814312749
 20
36.57283241597769
 30
0.0
 10
286.334617632132
 20
36.61048978135168
 30
0.0
 10
286.2669796607627
 20
36.62375748996423
 30
0.0
 10
286.1934913583232
 20
36.63199181638158
 30
0.0
  0
SPLINE
  5
237
330
1F
100
AcDbEntity
  8
0
  6
Continuous
 62
     7
370
    15
100
AcDbSpline
210
0.0
220
0.0
230
1.0
 70
     8
 71
     3
 72
    14
 73
    10
 74
     0
 42
0.000000001
 43
0.00000001
 40
0.0
 40
0.0
 40
0.0
 40
0.0
 40
0.25
 40
0.25
 40
0.5
 40
0.5
 40
0.75
 40
0.75
 40
1.0
 40
1.0
 40
1.0
 40
1.0
 10
286.1934913583231
 20
36.63199181638144
 30
0.0
 10
285.9815004854871
 20
36.65574528443666
 30
0.0
 10
285.7853223692754
 20
36.67033709789356
 30
0.0
 10
285.3853756452206
 20
36.70390842705199
 30
0.0
 10
285.1827535247604
 20
36.72221623061559
 30
0.0
 10
284.7766198587809
 20
36.7593495797061
 30
0.0
 10
284.5734191969815
 20
36.7779936136147
 30
0.0
 10
284.168906264681
 20
36.81419058771245
 30
0.0
 10
283.9670832759501
 20
36.83203873183538
 30
0.0
 10
283.7649259781905
 20
36.85007986125704
 30
0.0
  0
LWPOLYLINE
  5
238
330
1F
100
AcDbEntity
  8
0
  6
Continuous
 62
     7
370
    15
100
AcDbPolyline
 90
       10
 70
   128
 43
0.0
 10
248.8059367358
 20
18.8234934272
 10
248.316061414
 20
18.9174126429
 10
247.0993610848
 20
19.277149419
 10
245.9664742431
 20
19.8024284864
 10
244.9258344498
 20
20.4893395051
 10
243.9851885501
 20
21.3327688963
 10
243.1515390035
 20
22.3264379104
 10
242.4310917558
 20
23.4629493671
 10
241.8292100395
 20
24.7338427229
 10
241.3503744487
 20
26.1296570538
  0
SPLINE
  5
239
330
1F
100
AcDbEntity
  8
0
  6
Continuous
 62
     7
370
    15
100
AcDbSpline
210
0.0
220
0.0
230
1.0
 70
     8
 71
     3
 72
     8
 73
     4
 74
     0
 42
0.000000001
 43
0.00000001
 40
0.0000000000000006
 40
0.0000000000000006
 40
0.0000000000000006
 40
0.0000000000000006
 40
0.001241704756042
 40
0.001241704756042
 40
0.001241704756042
 40
0.001241704756042
 10
241.8248750523152
 20
26.49627532604222
 30
0.0
 10
241.6668148948047
 20
26.37387212103771
 30
0.0
 10
241.5086455891235
 20
26.25166989106926
 30
0.0
 10
241.3503744486628
 20
26.12965705375815
 30
0.0
  0
SPLINE
  5
23A
330
1F
100
AcDbEntity
  8
0
  6
Continuous
 62
     7
370
    15
100
AcDbSpline
210
0.0
220
0.0
230
1.0
 70
     8
 71
     3
 72
     8
 73
     4
 74
     0
 42
0.000000001
 43
0.00000001
 40
0.0
 40
0.0
 40
0.0
 40
0.0
 40
1.0
 40
1.0
 40
1.0
 40
1.0
 10
241.8248750523142
 20
26.49627532604413
 30
0.0
 10
242.9961076369893
 20
26.68855495637203
 30
0.0
 10
244.1667270115811
 20
26.88214262358218
 30
0.0
 10
245.3363361967631
 20
27.07769591525275
 30
0.0
  0
SPLINE
  5
23B
330
1F
100
AcDbEntity
  8
0
  6
Continuous
 62
     7
370
    15
100
AcDbSpline
210
0.0
220
0.0
230
1.0
 70
     8
 71
     3
 72
    10
 73
     6
 74
     0
 42
0.000000001
 43
0.00000001
 40
0.0
 40
0.0
 40
0.0
 40
0.0
 40
0.5
 40
0.5
 40
1.0
 40
1.0
 40
1.0
 40
1.0
 10
245.3363361967631
 20
27.07769591525276
 30
0.0
 10
245.3781020577775
 20
27.0846789756667
 30
0.0
 10
245.4219993435916
 20
27.08796906667507
 30
0.0
 10
245.5096267263815
 20
27.08630609224603
 30
0.0
 10
245.5521320234421
 20
27.08151398569529
 30
0.0
 10
245.5932132251413
 20
27.07257944015828
 30
0.0
  0
LINE
  5
23C
330
1F
100
AcDbEntity
  8
0
  6
Continuous
 62
     7
370
    15
100
AcDbLine
 10
237.5000087938
 20
28.9929674735
 30
0.0
 11
241.8248750523
 21
26.496275326
 31
0.0
  0
LINE
  5
23D
330
1F
100
AcDbEntity
  8
0
  6
Continuous
 62
     7
370
    15
100
AcDbLine
 10
237.5000087938
 20
28.9929674735
 30
0.0
 11
241.0428153474
 21
31.0381861632
 31
0.0
  0
ARC
  5
23E
330
1F
100
AcDbEntity
  8
0
  6
Continuous
 62
     7
370
    15
100
AcDbCircle
 10
277.2745850284
 20
38.8842585719
 30
0.0
 40
4.169039498116963
100
AcDbArc
 50
320.6700295195
 51
350.3607260606
  0
LINE
  5
23F
330
1F
100
AcDbEntity
  8
0
  6
Continuous
 62
     7
370
    15
100
AcDbLine
 10
237.0659416937
 20
28.7423451405
 30
0.0
 11
237.5000087938
 21
28.9929674735
 31
0.0
  0
LINE
  5
240
330
1F
100
AcDbEntity
  8
0
  6
Continuous
 62
     7
370
    15
100
AcDbLine
 10
241.3503744487
 20
26.1296570538
 30
0.0
 11
237.2226386135
 21
28.5125482301
 31
0.0
  0
SPLINE
  5
241
330
1F
100
AcDbEntity
  8
0
  6
Continuous
 62
     7
370
    15
100
AcDbSpline
210
0.0
220
0.0
230
1.0
 70
     8
 71
     3
 72
     8
 73
     4
 74
     0
 42
0.000000001
 43
0.00000001
 40
0.0
 40
0.0
 40
0.0
 40
0.0
 40
1.0
 40
1.0
 40
1.0
 40
1.0
 10
237.2226386134863
 20
28.51254823014068
 30
0.0
 10
237.1424193843201
 20
28.55885780541128
 30
0.0
 10
237.0880296220344
 20
28.64252064642008
 30
0.0
 10
237.0659416936755
 20
28.74234514052711
 30
0.0
  0
LINE
  5
242
330
1F
100
AcDbEntity
  8
0
  6
Continuous
 62
     7
370
    15
100
AcDbLine
 10
283.7649531125
 20
29.9372339349
 30
0.0
 11
286.1915833261
 21
32.9559388511
 31
0.0
  0
LINE
  5
243
330
1F
100
AcDbEntity
  8
0
  6
Continuous
 62
     7
370
    15
100
AcDbLine
 10
277.9949588132
 20
33.1265131443
 30
0.0
 11
280.4993737375
 21
36.2419815012
 31
0.0
  0
ARC
  5
244
330
1F
100
AcDbEntity
  8
0
  6
Continuous
 62
     7
370
    15
100
AcDbCircle
 10
246.2486504323
 20
29.9340265876
 30
0.0
 40
8.916713789071503
100
AcDbArc
 50
215.0107921099
 51
239.5618524284
  0
ELLIPSE
  5
245
330
1F
100
AcDbEntity
  8
0
  6
Continuous
 62
     7
370
    15
100
AcDbEllipse
 10
240.7499221286
 20
32.0238106313
 30
0.0
 11
-7.507462979106096E-5
 21
1.066811201853405
 31
0.0
210
0.0
220
0.0
230
1.0
 40
0.7174342186
 41
3.53419364555748
 42
5.104989972352375
  0
ELLIPSE
  5
246
330
1F
100
AcDbEntity
  8
0
  6
Continuous
 62
     7
370
    15
100
AcDbEllipse
 10
240.6892619568
 20
31.9887808756
 30
0.0
 11
0.3250094736511642
 21
1.213179526238665
 31
0.0
210
0.0
220
0.0
230
1.0
 40
0.5176380889
 41
3.619174351347721
 42
5.18997067814262
  0
LWPOLYLINE
  5
247
330
1F
100
AcDbEntity
  8
0
  6
Continuous
 62
     7
370
    15
100
AcDbPolyline
 90
       14
 70
   128
 43
0.0
 10
257.0643405592
 20
53.55479289
 10
256.9907769863
 20
53.8225574764
 10
256.7472513065
 20
54.0927091348
 10
256.3716001955
 20
54.2447629287
 10
255.9210131298
 20
54.2555700464
 10
255.4640879056
 20
54.1234852022
 10
255.0703872461
 20
53.8686171162
 10
254.7998485078
 20
53.5297671441
 10
254.6936587614
 20
53.1585221226
 10
254.7679844329
 20
52.8114007408
 10
255.0115101128
 20
52.5412490824
 10
255.3871612237
 20
52.3891952885
 10
255.8377482894
 20
52.3783881708
 10
256.0136019096
 20
52.4121531717
  0
LINE
  5
248
330
1F
100
AcDbEntity
  8
0
  6
Continuous
 62
     7
370
    15
100
AcDbLine
 10
256.4140117858
 20
53.9126946339
 30
0.0
 11
255.5852452622
 21
53.8881954368
 31
0.0
  0
LINE
  5
249
330
1F
100
AcDbEntity
  8
0
  6
Continuous
 62
     7
370
    15
100
AcDbLine
 10
255.050614186
 20
53.2924799116
 30
0.0
 11
255.5852452622
 21
53.8881954368
 31
0.0
  0
LINE
  5
24A
330
1F
100
AcDbEntity
  8
0
  6
Continuous
 62
     7
370
    15
100
AcDbLine
 10
255.3447496335
 20
52.7212635833
 30
0.0
 11
255.050614186
 21
53.2924799116
 31
0.0
  0
LINE
  5
24B
330
1F
100
AcDbEntity
  8
0
  6
Continuous
 62
     7
370
    15
100
AcDbLine
 10
255.3447496335
 20
52.7212635833
 30
0.0
 11
256.1735161571
 21
52.7457627804
 31
0.0
  0
LINE
  5
24C
330
1F
100
AcDbEntity
  8
0
  6
Continuous
 62
     7
370
    15
100
AcDbLine
 10
256.7081472332
 20
53.3414783057
 30
0.0
 11
256.1735161571
 21
52.7457627804
 31
0.0
  0
LINE
  5
24D
330
1F
100
AcDbEntity
  8
0
  6
Continuous
 62
     7
370
    15
100
AcDbLine
 10
256.7081472332
 20
53.3414783057
 30
0.0
 11
256.4140117858
 21
53.9126946339
 31
0.0
  0
LINE
  5
24E
330
1F
100
AcDbEntity
  8
0
  6
Continuous
 62
     7
370
    15
100
AcDbLine
 10
256.6564448913
 20
53.2838686957
 30
0.0
 11
256.6558565484
 21
53.2850112681
 31
0.0
  0
LINE
  5
24F
330
1F
100
AcDbEntity
  8
0
  6
Continuous
 62
     7
370
    15
100
AcDbLine
 10
256.6558565484
 20
53.2850112681
 30
0.0
 11
256.4140117858
 21
53.9126946339
 31
0.0
  0
LINE
  5
250
330
1F
100
AcDbEntity
  8
0
  6
Continuous
 62
     7
370
    15
100
AcDbLine
 10
255.3441612906
 20
52.7224061557
 30
0.0
 11
255.8270900249
 21
53.2605120711
 31
0.0
  0
LINE
  5
251
330
1F
100
AcDbEntity
  8
0
  6
Continuous
 62
     7
370
    15
100
AcDbLine
 10
256.6558565484
 20
53.2850112681
 30
0.0
 11
255.8270900249
 21
53.2605120711
 31
0.0
  0
LINE
  5
252
330
1F
100
AcDbEntity
  8
0
  6
Continuous
 62
     7
370
    15
100
AcDbLine
 10
255.8270900249
 20
53.2605120711
 30
0.0
 11
255.5852452622
 21
53.8881954368
 31
0.0
  0
LWPOLYLINE
  5
253
330
1F
100
AcDbEntity
  8
0
  6
Continuous
 62
     7
370
     0
100
AcDbPolyline
 90
       39
 70
   128
 43
0.0
 10
248.9270559576
 20
26.956998202
 10
248.9894662845
 20
28.6895906282
 10
249.1762475973
 20
30.4817571159
 10
249.4860541324
 20
32.3205850645
 10
249.9166537266
 20
34.1928256765
 10
250.4649439
 20
36.0849894153
 10
251.1269742092
 20
37.9834431979
 10
251.8979747108
 20
39.8745086213
 10
252.7723903285
 20
41.7445605157
 10
253.7439208777
 20
43.5801251145
 10
254.8055664585
 20
45.3679771325
 10
255.9496778902
 20
47.0952350551
 10
257.1680118238
 20
48.7494539494
 10
258.4517901352
 20
50.3187151302
 10
259.7917631724
 20
51.7917120349
 10
261.1782763989
 20
53.1578316869
 10
262.6013399552
 20
54.407231163
 10
264.0507006357
 20
55.5309085111
 10
265.5159157634
 20
56.5207676104
 10
266.9864284299
 20
57.3696765032
 10
268.4516435577
 20
58.0715187816
 10
269.9010042382
 20
58.6212376559
 10
271.3240677944
 20
59.0148723889
 10
272.7105810209
 20
59.2495868335
 10
274.0505540581
 20
59.3236898666
 10
275.3343323696
 20
59.2366475743
 10
276.5526663031
 20
58.9890870981
 10
277.6967777348
 20
58.5827921171
 10
278.7584233157
 20
58.0206899958
 10
279.7299538648
 20
57.306830693
 10
280.6043694825
 20
56.4463575813
 10
281.3753699841
 20
55.4454703891
 10
282.0374002934
 20
54.3113805316
 10
282.5856904668
 20
53.0522591522
 10
283.016290061
 20
51.6771782494
 10
283.3260965961
 20
50.1960453125
 10
283.5128779089
 20
48.6195319382
 10
283.5752882357
 20
46.9589969416
 10
283.5282634705
 20
45.4588531987
  0
LWPOLYLINE
  5
254
330
1F
100
AcDbEntity
  8
0
  6
Continuous
 62
     7
370
     0
100
AcDbPolyline
 90
       21
 70
   128
 43
0.0
 10
267.5295637483
 20
17.7452896025
 10
266.9864284299
 20
17.3952275333
 10
265.5159157634
 20
16.5463186404
 10
264.0507006357
 20
15.844476362
 10
262.6013399552
 20
15.2947574877
 10
261.1782763989
 20
14.9011227547
 10
259.7917631724
 20
14.6664083101
 10
258.4517901352
 20
14.592305277
 10
257.1680118238
 20
14.6793475694
 10
255.9496778902
 20
14.9269080455
 10
254.8055664585
 20
15.3332030265
 10
253.7439208777
 20
15.8953051478
 10
252.7723903285
 20
16.6091644506
 10
251.8979747108
 20
17.4696375624
 10
251.1269742092
 20
18.4705247546
 10
250.4649439
 20
19.6046146121
 10
249.9166537266
 20
20.8637359914
 10
249.4860541324
 20
22.2388168943
 10
249.1762475973
 20
23.7199498312
 10
248.9894662845
 20
25.2964632054
 10
248.9270559576
 20
26.956998202
  0
LWPOLYLINE
  5
255
330
1F
100
AcDbEntity
  8
0
  6
Continuous
 62
     7
370
     0
100
AcDbPolyline
 90
       27
 70
   128
 43
0.0
 10
248.2199491764
 20
26.956998202
 10
248.2819472516
 20
28.7009482822
 10
248.4675066052
 20
30.5042472597
 10
248.7753256717
 20
32.3542462876
 10
249.2032453214
 20
34.2379689521
 10
249.7482640056
 20
36.1422022921
 10
250.4065588096
 20
38.0535894789
 10
251.1735122686
 20
39.9587235047
 10
252.0437447549
 20
41.8442412232
 10
253.011152213
 20
43.6969170824
 10
254.0689489747
 20
45.5037558921
 10
255.2097153556
 20
47.2520839765
 10
256.4254496993
 20
48.92963807
 10
257.7076245028
 20
50.5246513362
 10
259.0472462312
 20
52.0259359029
 10
260.4349184005
 20
53.4229613377
 10
261.8609074875
 20
54.7059285107
 10
263.3152112033
 20
55.8658383291
 10
264.7876286523
 20
56.894554859
 10
266.2678318839
 20
57.784862393
 10
267.7454383362
 20
58.5305160634
 10
269.2100836614
 20
59.1262856455
 10
270.6514944249
 20
59.5679922438
 10
272.0595601659
 20
59.8525376038
 10
273.4244043149
 20
59.9779258442
 10
274.7364534709
 20
59.9432774567
 10
274.8177362714
 20
59.9356762913
  0
ARC
  5
256
330
1F
100
AcDbEntity
  8
0
  6
Continuous
 62
     7
370
     0
100
AcDbCircle
 10
263.5980837571
 20
26.3493543334
 30
0.0
 40
15.39013496534191
100
AcDbArc
 50
177.7372205589
 51
212.7127302931
  0
LWPOLYLINE
  5
257
330
1F
100
AcDbEntity
  8
0
  6
Continuous
 62
     7
370
     0
100
AcDbPolyline
 90
       30
 70
   128
 43
0.0
 10
253.5232500353
 20
29.6103245654
 10
253.5864979392
 20
31.1102585885
 10
253.7756130647
 20
32.6683100688
 10
254.0887159007
 20
34.2689943907
 10
254.5226946906
 20
35.8964032343
 10
255.0732363582
 20
37.5343626794
 10
255.7348693731
 20
39.1665939491
 10
256.5010181291
 20
40.7768751957
 10
257.3640682957
 20
42.3492027208
 10
258.3154424926
 20
43.8679500271
 10
259.3456855355
 20
45.3180231214
 10
260.4445584063
 20
46.6850105259
 10
261.6011400127
 20
47.9553265056
 10
262.8039357271
 20
49.1163460896
 10
264.0409916252
 20
50.1565305437
 10
265.3000132899
 20
51.0655420474
 10
266.5684879981
 20
51.834346436
 10
267.8338090783
 20
52.4553029861
 10
269.0834012011
 20
52.9222403526
 10
270.3048453587
 20
53.230517902
 10
271.4860022902
 20
53.3770718337
 10
272.6151331274
 20
53.3604456288
 10
273.6810160607
 20
53.1808045259
 10
274.6730578667
 20
52.8399338792
 10
275.5813991883
 20
52.3412214141
 10
276.3970125212
 20
51.6896235594
 10
277.1117919338
 20
50.891616187
 10
277.7186336271
 20
49.955130253
 10
278.2115065357
 20
48.8894729751
 10
278.3739626301
 20
48.4343677383
  0
LWPOLYLINE
  5
258
330
1F
100
AcDbEntity
  8
0
  6
Continuous
 62
     7
370
     0
100
AcDbPolyline
 90
       14
 70
   128
 43
0.0
 10
262.3752629079
 20
20.7208041421
 10
261.6011400127
 20
20.5918558723
 10
260.4445584063
 20
20.5268111532
 10
259.3456855355
 20
20.6250669468
 10
258.3154424926
 20
20.8856467428
 10
257.3640682957
 20
21.3059607821
 10
256.5010181291
 20
21.8818317951
 10
255.7348693731
 20
22.6075365168
 10
255.0732363582
 20
23.4758625677
 10
254.5226946906
 20
24.4781801333
 10
254.0887159007
 20
25.6045277315
 10
253.7756130647
 20
26.8437112137
 10
253.5864979392
 20
28.1834150178
 10
253.5232500353
 20
29.6103245654
  0
LWPOLYLINE
  5
259
330
1F
100
AcDbEntity
  8
0
  6
Continuous
 62
     7
370
     0
100
AcDbPolyline
 90
        9
 70
   128
 43
0.0
 10
256.3516771601
 20
29.6103245654
 10
256.413654839
 20
28.2804754177
 10
256.5989088354
 20
27.0367542805
 10
256.9054094676
 20
25.8927876228
 10
257.3297986507
 20
24.8611089827
 10
257.8674266879
 20
23.9530216474
 10
258.512403214
 20
23.1784748116
 10
259.2576617311
 20
22.5459545726
 10
259.666035798
 20
22.2848076619
  0
LWPOLYLINE
  5
25A
330
1F
100
AcDbEntity
  8
0
  6
Continuous
 62
     7
370
     0
100
AcDbPolyline
 90
       24
 70
   128
 43
0.0
 10
275.6647355201
 20
49.9983712581
 10
275.2357342871
 20
50.2207879655
 10
274.3154166635
 20
50.5500969385
 10
273.3222399085
 20
50.7215432884
 10
272.2670854747
 20
50.7332486131
 10
271.1615138546
 20
50.5850846666
 10
270.0176379225
 20
50.2786747642
 10
268.8479902223
 20
49.8173759967
 10
267.6653856591
 20
49.2062424502
 10
266.4827810958
 20
48.4519698315
 10
265.3131333956
 20
47.5628221093
 10
264.1692574635
 20
46.5485409722
 10
263.0636858434
 20
45.4202390966
 10
262.0085314096
 20
44.1902783938
 10
261.0153546546
 20
42.8721345708
 10
260.095037031
 20
41.4802494871
 10
259.2576617311
 20
40.0298729269
 10
258.512403214
 20
38.5368955195
 10
257.8674266879
 20
37.0176746375
 10
257.3297986507
 20
35.4888551831
 10
256.9054094676
 20
33.9671872219
 10
256.5989088354
 20
32.4693424667
 10
256.413654839
 20
31.0117316181
 10
256.3516771601
 20
29.6103245654
  0
LWPOLYLINE
  5
25B
330
1F
100
AcDbEntity
  8
0
  6
Continuous
 62
     7
370
     0
100
AcDbPolyline
 90
       17
 70
   128
 43
0.0
 10
272.262018056
 20
23.0837440308
 10
272.7337177586
 20
22.4313444344
 10
273.3114260263
 20
21.9241718791
 10
273.9840848881
 20
21.5719342046
 10
274.7388189144
 20
21.3813736271
 10
275.5611816669
 20
21.3561376854
 10
276.4354322188
 20
21.496709423
 10
277.3448364542
 20
21.8003981427
 10
278.2719873768
 20
22.2613909085
 10
279.1991382995
 20
22.8708638124
 10
280.1085425349
 20
23.6171508736
 10
280.9827930868
 20
24.4859673378
 10
281.8051558392
 20
25.4606831032
 10
282.5598898656
 20
26.5226410393
 10
283.2325487274
 20
27.6515141045
 10
283.8102569951
 20
28.825694428
 10
284.2819566976
 20
30.0227069086
  0
LWPOLYLINE
  5
25C
330
1F
100
AcDbEntity
  8
0
  6
Continuous
 62
     7
370
     0
100
AcDbPolyline
 90
       17
 70
   128
 43
0.0
 10
284.281582284
 20
36.9539628338
 10
283.8098419797
 20
37.6061713092
 10
283.2321248909
 20
38.1131766272
 10
282.5594866709
 20
38.4652763313
 10
281.8047994587
 20
38.655732362
 10
280.9825055484
 20
38.6809000012
 10
280.1083410094
 20
38.5402976212
 10
279.1990345486
 20
38.2366159006
 10
278.2719873768
 20
37.7756663342
 10
277.344940205
 20
37.166270019
 10
276.4356337443
 20
36.4200888469
 10
275.5614692053
 20
35.5514023335
 10
274.739175295
 20
34.576834354
 10
273.9844880828
 20
33.5150350153
 10
273.3118498627
 20
32.3863237529
 10
272.734132774
 20
31.2123004821
 10
272.2623924696
 20
30.0154322448
  0
LWPOLYLINE
  5
25D
330
1F
100
AcDbEntity
  8
0
  6
Continuous
 62
     7
370
     0
100
AcDbPolyline
 90
       21
 70
   128
 43
0.0
 10
245.3363361968
 20
37.570245348
 10
245.8059817085
 20
39.3296732785
 10
246.3901501974
 20
41.1001290814
 10
247.0840635161
 20
42.8671314922
 10
247.8820458705
 20
44.6162274928
 10
248.7775702446
 20
46.3331105287
 10
249.763311787
 20
48.0037375284
 10
250.8312077241
 20
49.6144437667
 10
251.9725233088
 20
51.1520546345
 10
253.1779232653
 20
52.6039933985
 10
254.4375481464
 20
53.9583840722
 10
255.7410949772
 20
55.2041485536
 10
257.0779015279
 20
56.3310972378
 10
258.4370335242
 20
57.3300123615
 10
259.8073740828
 20
58.1927233993
 10
261.1777146415
 20
58.9121738933
 10
262.5368466378
 20
59.4824791706
 10
263.8736531885
 20
59.8989744768
 10
265.1772000193
 20
60.1582531305
 10
266.4368249003
 20
60.2581943882
 10
266.5933427639
 20
60.2594279636
  0
LWPOLYLINE
  5
25E
330
1F
100
AcDbEntity
  8
0
  6
Continuous
 62
     7
370
     0
100
AcDbPolyline
 90
       23
 70
   128
 43
0.0
 10
237.2226386135
 20
39.645691356
 10
237.7014742043
 20
41.5943574923
 10
238.3033559206
 20
43.560168686
 10
239.0238031683
 20
45.5284908294
 10
239.8574527149
 20
47.4846711222
 10
240.7980986146
 20
49.4141471522
 10
241.8387384079
 20
51.3025553015
 10
242.9716252496
 20
53.1358376747
 10
244.1883255788
 20
54.9003467495
 10
245.4797819012
 20
56.5829469734
 10
246.8363802156
 20
58.1711125488
 10
248.2480215837
 20
59.6530206789
 10
249.7041973096
 20
61.0176395802
 10
251.1940671698
 20
62.2548106067
 10
252.7065401112
 20
63.3553238737
 10
254.2303568165
 20
64.3109868195
 10
255.7541735218
 20
65.1146851926
 10
257.2666464633
 20
65.7604360135
 10
258.7565163234
 20
66.2434321128
 10
260.2126920493
 20
66.5600779178
 10
261.6243334174
 20
66.7080162191
 10
262.9809317318
 20
66.686145718
 10
262.9826985661
 20
66.6860031865
  0
LWPOLYLINE
  5
25F
330
1F
100
AcDbEntity
  8
0
  6
Continuous
 62
     7
370
     0
100
AcDbPolyline
 90
       19
 70
   128
 43
0.0
 10
245.7291425724
 20
37.5125988911
 10
246.2163867897
 20
39.3169518503
 10
246.824784043
 20
41.1319838132
 10
247.5490069604
 20
42.9418016281
 10
248.3827139543
 20
44.7305578008
 10
249.31860475
 20
46.482589261
 10
250.3484843104
 20
48.1825545149
 10
251.463334595
 20
49.8155679815
 10
252.6533935251
 20
51.3673303364
 10
253.9082404651
 20
52.8242537229
 10
255.2168874692
 20
54.1735807326
 10
256.5678754967
 20
55.403496114
 10
257.9493747518
 20
56.5032302323
 10
259.34928827
 20
57.4631533723
 10
260.7553578442
 20
58.2748600598
 10
262.1552713625
 20
58.931242664
 10
263.5367706175
 20
59.4265536341
 10
264.887758645
 20
59.7564558275
 10
265.6608495063
 20
59.8717340293
  0
LWPOLYLINE
  5
260
330
1F
100
AcDbEntity
  8
0
  6
Continuous
 62
     7
370
     0
100
AcDbPolyline
 90
        4
 70
   128
 43
0.0
 10
283.5103917065
 20
36.9590767472
 10
283.0200344931
 20
37.5609349473
 10
282.4254132178
 20
38.0128164071
 10
282.4250833952
 20
38.0130080276
  0
LINE
  5
261
330
1F
100
AcDbEntity
  8
0
  6
Continuous
 62
     7
370
     0
100
AcDbLine
 10
269.9988380369
 20
23.6080659707
 30
0.0
 11
270.0872263846
 21
23.2782031782
 31
0.0
  0
LWPOLYLINE
  5
262
330
1F
100
AcDbEntity
  8
0
  6
Continuous
 62
     7
370
     0
100
AcDbPolyline
 90
       14
 70
   128
 43
0.0
 10
273.4187996894
 20
22.4281908879
 10
274.0981875078
 20
22.1397755083
 10
274.8629966245
 20
22.012299638
 10
275.6902513031
 20
22.0526225714
 10
276.5630445096
 20
22.2599202076
 10
277.4635385156
 20
22.629955897
 10
278.3733294569
 20
23.155167028
 10
279.2738234629
 20
23.8248195874
 10
280.1466166694
 20
24.6252275379
 10
280.973871348
 20
25.540032526
 10
281.7386804647
 20
26.5505382066
 10
282.4254132178
 20
27.6360923495
 10
283.0200344931
 20
28.7745089205
 10
283.5103917065
 20
29.9425215082
  0
LINE
  5
263
330
1F
100
AcDbEntity
  8
0
  6
Continuous
 62
     7
370
     0
100
AcDbLine
 10
269.3251070234
 20
23.9970026061
 30
0.0
 11
269.9988380369
 21
23.6080659707
 31
0.0
  0
LINE
  5
264
330
1F
100
AcDbEntity
  8
0
  6
Continuous
 62
     7
370
     0
100
AcDbLine
 10
245.5932132251
 20
27.0725794402
 30
0.0
 11
246.7527026055
 21
27.7419384117
 31
0.0
  0
LINE
  5
265
330
1F
100
AcDbEntity
  8
0
  6
Continuous
 62
     7
370
     0
100
AcDbLine
 10
247.1382172616
 20
27.538307687
 30
0.0
 11
246.7527026055
 21
27.7419384117
 31
0.0
  0
ARC
  5
266
330
1F
100
AcDbEntity
  8
0
  6
Continuous
 62
     7
370
     0
100
AcDbCircle
 10
246.0275561445
 20
28.917858965
 30
0.0
 40
1.381530505405208
100
AcDbArc
 50
301.6605905892
 51
324.2377952694
  0
LINE
  5
267
330
1F
100
AcDbEntity
  8
0
  6
Continuous
 62
     7
370
     0
100
AcDbLine
 10
241.4570289098
 20
32.4320146872
 30
0.0
 11
247.0320319769
 21
29.2136339216
 31
0.0
  0
LINE
  5
268
330
1F
100
AcDbEntity
  8
0
  6
Continuous
 62
     7
370
     0
100
AcDbLine
 10
241.396368738
 20
32.3969849315
 30
0.0
 11
241.4570289098
 21
32.4320146872
 31
0.0
  0
LINE
  5
269
330
1F
100
AcDbEntity
  8
0
  6
Continuous
 62
     7
370
     0
100
AcDbLine
 10
241.1753978689
 20
37.1774072519
 30
0.0
 11
241.1764388961
 21
37.3631589838
 31
0.0
  0
LWPOLYLINE
  5
26A
330
1F
100
AcDbEntity
  8
0
  6
Continuous
 62
     7
370
     0
100
AcDbPolyline
 90
        3
 70
   128
 43
0.0
 10
241.3149105061
 20
35.1205738875
 10
241.2387507051
 20
35.7714367521
 10
241.1753978689
 20
37.1774072519
  0
LWPOLYLINE
  5
26B
330
1F
100
AcDbEntity
  8
0
  6
Continuous
 62
     7
370
     0
100
AcDbPolyline
 90
       18
 70
   128
 43
0.0
 10
210.2421781852
 20
60.9930258431
 10
210.3063069216
 20
62.136278254
 10
210.497548752
 20
63.3331707617
 10
210.8124909615
 20
64.5623447908
 10
211.2455133988
 20
65.8018657018
 10
211.7888887682
 20
67.0296142147
 10
212.4329205235
 20
68.2236811281
 10
213.1661159027
 20
69.3627582898
 10
213.9753910169
 20
70.4265188406
 10
214.8463043325
 20
71.3959799485
 10
215.7633143808
 20
72.253841557
 10
216.7100570957
 20
72.9847951054
 10
217.669637831
 20
73.5757967102
 10
218.6249328459
 20
74.0162999339
 10
219.558894878
 20
74.2984439859
 10
220.4548573529
 20
74.417193999
 10
221.296831799
 20
74.3704308764
 10
221.9599929623
 20
74.2006608409
  0
ARC
  5
26C
330
1F
100
AcDbEntity
  8
0
  6
Continuous
 62
     7
370
     0
100
AcDbCircle
 10
215.8718886733
 20
60.6327989158
 30
0.0
 40
5.641223592378272
100
AcDbArc
 50
176.3388199929
 51
223.4467111484
  0
LINE
  5
26D
330
1F
100
AcDbEntity
  8
0
  6
Continuous
 62
     7
370
     0
100
AcDbLine
 10
286.456748369
 20
32.7281270725
 30
0.0
 11
286.1915833261
 21
32.9559388511
 31
0.0
  0
LWPOLYLINE
  5
26E
330
1F
100
AcDbEntity
  8
0
  6
Continuous
 62
     7
370
     0
100
AcDbPolyline
 90
        3
 70
   128
 43
0.0
 10
246.4019513494
 20
25.4034749606
 10
246.2163867897
 20
25.7814500679
 10
245.7291425724
 20
27.0232428281
  0
LWPOLYLINE
  5
26F
330
1F
100
AcDbEntity
  8
0
  6
Continuous
 62
     7
370
     0
100
AcDbPolyline
 90
        3
 70
   128
 43
0.0
 10
246.3131960749
 20
24.8909332439
 10
245.8059817085
 20
25.8605091508
 10
245.3363361968
 20
27.0776959153
  0
LINE
  5
270
330
1F
100
AcDbEntity
  8
0
  6
Continuous
 62
     7
370
     0
100
AcDbLine
 10
246.7527026055
 20
27.7419384117
 30
0.0
 11
241.0428153474
 21
31.0381861632
 31
0.0
  0
LINE
  5
271
330
1F
100
AcDbEntity
  8
0
  6
Continuous
 62
     7
370
     0
100
AcDbLine
 10
280.4993737375
 20
36.2419815012
 30
0.0
 11
286.1915833261
 21
32.9559388511
 31
0.0
  0
ARC
  5
272
330
1F
100
AcDbEntity
  8
0
  6
Continuous
 62
     7
370
     0
100
AcDbCircle
 10
248.8806611799
 20
31.7003522915
 30
0.0
 40
12.08600781450821
100
AcDbArc
 50
195.2932781317
 51
214.710388838
  0
OLE2FRAME
  5
273
330
1F
100
AcDbEntity
  8
0
100
AcDbOle2Frame
 70
     2
  3
Paintbrush-Bild
 10
13.8511154363
 20
38.264191557
 30
0.0
 11
51.6290888628
 21
31.9806341108
 31
0.0
 71
     2
 72
     0
 73
     1
 90
    12928
310
80552BED0767C5B32B40DDAF6807D121434000000000000000006FFBDDFB85D0
310
4940DDAF6807D121434000000000000000006FFBDDFB85D04940416F4BD60AFB
310
3F4000000000000000002BED0767C5B32B40416F4BD60AFB3F40000000000000
310
0000000000000100000000010000010000000100000000000100000000320000
310
D0CF11E0A1B11AE1000000000000000000000000000000003E000300FEFF0900
310
0600000000000000000000000100000001000000000000000010000002000000
310
01000000FEFFFFFF0000000000000000FFFFFFFFFFFFFFFFFFFFFFFFFFFFFFFF
310
FFFFFFFFFFFFFFFFFFFFFFFFFFFFFFFFFFFFFFFFFFFFFFFFFFFFFFFFFFFFFFFF
310
FFFFFFFFFFFFFFFFFFFFFFFFFFFFFFFFFFFFFFFFFFFFFFFFFFFFFFFFFFFFFFFF
310
FFFFFFFFFFFFFFFFFFFFFFFFFFFFFFFFFFFFFFFFFFFFFFFFFFFFFFFFFFFFFFFF
310
FFFFFFFFFFFFFFFFFFFFFFFFFFFFFFFFFFFFFFFFFFFFFFFFFFFFFFFFFFFFFFFF
310
FFFFFFFFFFFFFFFFFFFFFFFFFFFFFFFFFFFFFFFFFFFFFFFFFFFFFFFFFFFFFFFF
310
FFFFFFFFFFFFFFFFFFFFFFFFFFFFFFFFFFFFFFFFFFFFFFFFFFFFFFFFFFFFFFFF
310
FFFFFFFFFFFFFFFFFFFFFFFFFFFFFFFFFFFFFFFFFFFFFFFFFFFFFFFFFFFFFFFF
310
FFFFFFFFFFFFFFFFFFFFFFFFFFFFFFFFFFFFFFFFFFFFFFFFFFFFFFFFFFFFFFFF
310
FFFFFFFFFFFFFFFFFFFFFFFFFFFFFFFFFFFFFFFFFFFFFFFFFFFFFFFFFFFFFFFF
310
FFFFFFFFFFFFFFFFFFFFFFFFFFFFFFFFFFFFFFFFFFFFFFFFFFFFFFFFFFFFFFFF
310
FFFFFFFFFFFFFFFFFFFFFFFFFFFFFFFFFFFFFFFFFFFFFFFFFFFFFFFFFFFFFFFF
310
FFFFFFFFFFFFFFFFFFFFFFFFFFFFFFFFFFFFFFFFFFFFFFFFFFFFFFFFFFFFFFFF
310
FFFFFFFFFFFFFFFFFFFFFFFFFFFFFFFFFFFFFFFFFFFFFFFFFFFFFFFFFFFFFFFF
310
FDFFFFFFFEFFFFFFFEFFFFFFFEFFFFFF05000000060000000700000008000000
310
090000000A0000000B0000000C0000000D0000000E0000000F00000010000000
310
11000000120000001300000014000000150000001600000017000000FEFFFFFF
310
FFFFFFFFFFFFFFFFFFFFFFFFFFFFFFFFFFFFFFFFFFFFFFFFFFFFFFFFFFFFFFFF
310
FFFFFFFFFFFFFFFFFFFFFFFFFFFFFFFFFFFFFFFFFFFFFFFFFFFFFFFFFFFFFFFF
310
FFFFFFFFFFFFFFFFFFFFFFFFFFFFFFFFFFFFFFFFFFFFFFFFFFFFFFFFFFFFFFFF
310
FFFFFFFFFFFFFFFFFFFFFFFFFFFFFFFFFFFFFFFFFFFFFFFFFFFFFFFFFFFFFFFF
310
FFFFFFFFFFFFFFFFFFFFFFFFFFFFFFFFFFFFFFFFFFFFFFFFFFFFFFFFFFFFFFFF
310
FFFFFFFFFFFFFFFFFFFFFFFFFFFFFFFFFFFFFFFFFFFFFFFFFFFFFFFFFFFFFFFF
310
FFFFFFFFFFFFFFFFFFFFFFFFFFFFFFFFFFFFFFFFFFFFFFFFFFFFFFFFFFFFFFFF
310
FFFFFFFFFFFFFFFFFFFFFFFFFFFFFFFFFFFFFFFFFFFFFFFFFFFFFFFFFFFFFFFF
310
FFFFFFFFFFFFFFFFFFFFFFFFFFFFFFFFFFFFFFFFFFFFFFFFFFFFFFFFFFFFFFFF
310
FFFFFFFFFFFFFFFFFFFFFFFFFFFFFFFFFFFFFFFFFFFFFFFFFFFFFFFFFFFFFFFF
310
FFFFFFFFFFFFFFFFFFFFFFFFFFFFFFFFFFFFFFFFFFFFFFFFFFFFFFFFFFFFFFFF
310
FFFFFFFFFFFFFFFFFFFFFFFFFFFFFFFFFFFFFFFFFFFFFFFFFFFFFFFFFFFFFFFF
310
FFFFFFFFFFFFFFFFFFFFFFFFFFFFFFFFFFFFFFFFFFFFFFFFFFFFFFFFFFFFFFFF
310
52006F006F007400200045006E00740072007900000000000000000000000000
310
0000000000000000000000000000000000000000000000000000000000000000
310
16000500FFFFFFFFFFFFFFFF020000000A00030000000000C000000000000046
310
0000000000000000000000009082D8CFDF22D20103000000C000000000000000
310
01004F006C006500000000000000000000000000000000000000000000000000
310
0000000000000000000000000000000000000000000000000000000000000000
310
0A000200FFFFFFFFFFFFFFFFFFFFFFFF00000000000000000000000000000000
310
0000000000000000000000000000000000000000000000001400000000000000
310
010043006F006D0070004F0062006A0000000000000000000000000000000000
310
0000000000000000000000000000000000000000000000000000000000000000
310
120002010100000003000000FFFFFFFF00000000000000000000000000000000
310
0000000000000000000000000000000000000000010000004D00000000000000
310
01004F006C006500310030004E00610074006900760065000000000000000000
310
0000000000000000000000000000000000000000000000000000000000000000
310
1A000200FFFFFFFFFFFFFFFFFFFFFFFF00000000000000000000000000000000
310
0000000000000000000000000000000000000000040000002426000000000000
310
FEFFFFFF02000000FEFFFFFFFFFFFFFFFFFFFFFFFFFFFFFFFFFFFFFFFFFFFFFF
310
FFFFFFFFFFFFFFFFFFFFFFFFFFFFFFFFFFFFFFFFFFFFFFFFFFFFFFFFFFFFFFFF
310
FFFFFFFFFFFFFFFFFFFFFFFFFFFFFFFFFFFFFFFFFFFFFFFFFFFFFFFFFFFFFFFF
310
FFFFFFFFFFFFFFFFFFFFFFFFFFFFFFFFFFFFFFFFFFFFFFFFFFFFFFFFFFFFFFFF
310
FFFFFFFFFFFFFFFFFFFFFFFFFFFFFFFFFFFFFFFFFFFFFFFFFFFFFFFFFFFFFFFF
310
FFFFFFFFFFFFFFFFFFFFFFFFFFFFFFFFFFFFFFFFFFFFFFFFFFFFFFFFFFFFFFFF
310
FFFFFFFFFFFFFFFFFFFFFFFFFFFFFFFFFFFFFFFFFFFFFFFFFFFFFFFFFFFFFFFF
310
FFFFFFFFFFFFFFFFFFFFFFFFFFFFFFFFFFFFFFFFFFFFFFFFFFFFFFFFFFFFFFFF
310
FFFFFFFFFFFFFFFFFFFFFFFFFFFFFFFFFFFFFFFFFFFFFFFFFFFFFFFFFFFFFFFF
310
FFFFFFFFFFFFFFFFFFFFFFFFFFFFFFFFFFFFFFFFFFFFFFFFFFFFFFFFFFFFFFFF
310
FFFFFFFFFFFFFFFFFFFFFFFFFFFFFFFFFFFFFFFFFFFFFFFFFFFFFFFFFFFFFFFF
310
FFFFFFFFFFFFFFFFFFFFFFFFFFFFFFFFFFFFFFFFFFFFFFFFFFFFFFFFFFFFFFFF
310
FFFFFFFFFFFFFFFFFFFFFFFFFFFFFFFFFFFFFFFFFFFFFFFFFFFFFFFFFFFFFFFF
310
FFFFFFFFFFFFFFFFFFFFFFFFFFFFFFFFFFFFFFFFFFFFFFFFFFFFFFFFFFFFFFFF
310
FFFFFFFFFFFFFFFFFFFFFFFFFFFFFFFFFFFFFFFFFFFFFFFFFFFFFFFFFFFFFFFF
310
FFFFFFFFFFFFFFFFFFFFFFFFFFFFFFFFFFFFFFFFFFFFFFFFFFFFFFFFFFFFFFFF
310
0100000200000000000000000000000000000000000000000000000000000000
310
0000000000000000000000000000000000000000000000000000000000000000
310
0100FEFF030A0000FFFFFFFF0A00030000000000C00000000000004607000000
310
5042727573680007000000504272757368000700000050427275736800F439B2
310
7100000000000000000000000000000000000000000000000000000000000000
310
0000000000000000000000000000000000000000000000000000000000000000
310
0000000000000000000000000000000000000000000000000000000000000000
310
0000000000000000000000000000000000000000000000000000000000000000
310
0000000000000000000000000000000000000000000000000000000000000000
310
0000000000000000000000000000000000000000000000000000000000000000
310
0000000000000000000000000000000000000000000000000000000000000000
310
0000000000000000000000000000000000000000000000000000000000000000
310
0000000000000000000000000000000000000000000000000000000000000000
310
0000000000000000000000000000000000000000000000000000000000000000
310
0000000000000000000000000000000000000000000000000000000000000000
310
0000000000000000000000000000000000000000000000000000000000000000
310
20260000424D0E260000000000003E00000028000000B40200006E0000000100
310
01000000000000000000130B0000130B00000200000002000000000000FFFFFF
310
FFFFFFFFFFFFFFFFFFFFFFFFFFFFFFFFFFFFFFFFFFFFFFFFFFFFFFFFFFFFFFFF
310
FFFFFFFFFFFFFFFFFFFFFFFFFFFFFFFFFFFFFFFFFFFFFFFFFFFFFFFFFFFFFFFF
310
FFFFFFFFFFFFFFFFFFFFFFFFFFFFFFFFFFFFFFFFFFFFFFFFF000FFFFFFFFFFFF
310
FFFFFFFFFFFFFFFFFFFFFFFFFFFFFFFFFFFFFFFFFFFFFFFFFFFFFFFFFFFFFFFF
310
FFFFFFFFFFFFFFFFFFFFFFFFFFFFFFFFFFFFFFFFFFFFFFFFFFFFFFFFFFFFFFFF
310
FFFFFFFFFFFFFFFFFFFFFFFFFFFFFFFFF000FFFFFFFFFFFFFFFFFFFFFFFFFFFF
310
FFFFFFFFFFFFFFFFFFFFFFFFFFFFFFFFFFFFFFFFFFFFFFFFFFFFFFFFFFFFFFFF
310
FFFFFFFFFFFFFFFFFFFFFFFFFFFFFFFFFFFFFFFFFFFFFFFFFFFFFFFFFFFFFFFF
310
FFFFFFFFFFFFFFFFF000FFFFFFFFFFFFFFFFFFFFFFFFFFFFFFFFFFFFFFFFFFFF
310
FFFFFFFFFFFFFFFFFFFFFFFFFFFFFFFFFFFFFFFFFFFFFFFFFFFFFFFFFFFFFFFF
310
FFFFFFFFFFFFFFFFFFFFFFFFFFFFFFFFFFFFFFFFFFFFFFFFFFFFFFFFFFFFFFFF
310
F000FFFFFFFFFFFFFFFFFFFFFFFFFFFFFFFFFFFFFFFFFFFFFFFFFFFFFFFFFFFF
310
FFFFFFFFFFFFFFFFFFFFFFFFFFFFFFFFFFFFFFFFFFFFFFFFFFFFFFFFFFFFFFFF
310
FFFFFFFFFFFFFFFFFFFFFFFFFFFFFFFFFFFFFFFFFFFFFFFFF000FFFFFFFFFFFF
310
FFFFFFFFFFFFFFFFFFFFFFFFFFFFFFFFFFFFFFFFFFFFFFFFFFFFFFFFFFFFFFFF
310
FFFFFFFFFFFFFFFFFFFFFFFFFFFFFFFFFFFFFFFFFFFFFFFFFFFFFFFFFFFFFFFF
310
FFFFFFFFFFFFFFFFFFFFFFFFFFFFFFFFF000FFFFFFFFFFFFFFFFFFFFFFFFFFFF
310
FFFFFFFFFFFFFFFFFFFFFFFFFFFFFFFFFFFFFFFFFFFFFFFFFFFFFFFFFFFFFFFF
310
FFFFFFFFFFFFFFFFFFFFFFFFFFFFFFFFFFFFFFFFFFFFFFFFFFFFFFFFFFFFFFFF
310
FFFFFFFFFFFFFFFFF000FFFFFFFFFFFFFFFFFFFFFFFFFFFFFFFFFFFFFFFFFFFF
310
FFFFFFFFFFFFFFFFFFFFFFFFFFFFFFFFFFFFFFFFFFFFFFFFFFFFFFFFFFFFFFFF
310
FFFFFFFFFFFFFFFFFFFFFFFFFFFFFFFFFFFFFFFFFFFFFFFFFFFFFFFFFFFFFFFF
310
F000FFFFFFFFFFFFFFFFFFFFFFFFFFFFFFFFFFFFFFFFFFFFFFFFFFFFFFFFFFFF
310
FFFFFFFFFFFFFFFFFFFFFFFFFFFFFFFFFFFFFFFFFFFFFFFFFFFFFFFFFFFFFFFF
310
FFFFFFFFFFFFFFFFFFFFFFFFFFFFFFFFFFFFFFFFFFFFFFFFF000FFFFFFFFFFFF
310
FFFFFFFFFFFFFFFFFFFFFFFFFFFFFFFFFFFFFFFFFFFFFFFFFFFFFFFFFFFFFFFF
310
FFFFFFFFFFFFFFFFFFFFFFFFFFFFFFFFFFFFFFFFFFFFFFFFFFFFFFFFFFFFFFFF
310
FFFFFFFFFFFFFFFFFFFFFFFFFFFFFFFFF000FFFFFFFFFFFFFFFFFFFFFFFFFFFF
310
FFFFFFFFFFFFFFFFFFFFFFFFFFFFFFFFFFFFFFFFFFFFFFFFFFFFFFFFFFFFFFFF
310
FFFFFFFFFFFFFFFFFFFFFFFFFFFFFFFFFFFFFFFFFFFFFFFFFFFFFFFFFFFFFFFF
310
FFFFFFFFFFFFFFFFF000FFFFFFFFFFFFFFFFFFFFFFFFFFFFFFFFFFFFFFFFFFFF
310
FFFFFFFFFFFFFFFFFFFFFFFFFFFFFFFFFFFFFFFFFFFFFFFFFFFFFFFFFFFFFFFF
310
FFFFFFFFFFFFFFFFFFFFFFFFFFFFFFFFFFFFFFFFFFFFFFFFFFFFFFFFFFFFFFFF
310
F000FFFFFFFFFFFFFFFFFFFFFFFFFFFFFFFFFFFFFFFFFFFFFFFFFFFFFFFFFFFF
310
FFFFFFFFFFFFFFFFFFFFFFFFFFFFFFFFFFFFFFFFFFFFFFFFFFFFFFFFFFFFFFFF
310
FFFFFFFFFFFFFFFFFFFFFFFFFFFFFFFFFFFFFFFFFFFFFFFFF000FFFFFFFFFFFF
310
FFFFFFFFFFFFFFFFFFFFFFFFFFFFFFFFFFFFFFFFFFFFFFFFFFFFFFFFFFFFFFFF
310
FFFFFFFFFFFFFFFFFFFFFFFFFFFFFFFFFFFFFFFFFFFFFFFFFFFFFFFFFFFFFFFF
310
FFFFFFFFFFFFFFFFFFFFFFFFFFFFFFFFF000FFFFFFFFFFFFFFFFFFFFFFFFFFFF
310
FFFFFFFFFFFFFFFFFFFFFFFFFFFFFFFFFFFFFFFFFFFFFFFFFFFFFFFFFFFFFFFF
310
FFFFFFFFFFFFFFFFFFFFFFFFFFFFFFFFFFFFFFFFFFFFFFFFFFFFFFFFFFFFFFFF
310
FFFFFFFFFFFFFFFFF000FFFFFFFFFFFFFFFFFFFFFFFFFFFFFFFFFFFFFFFFFFFF
310
FFFFFFFFFFFFFFFFFFFFFFFFFFFFFFFFFFFFFFFFFFFFFFFFFFFFFFFFFFFFFFFF
310
FFFFFFFFFFFFFFFFFFFFFFFFFFFFFFFFFFFFFFFFFFFFFFFFFFFFFFFFFFFFFFFF
310
F000FFFFFFFFFFFFFFFFFFFFFFFFFFFFFFFFFFFFFFFFFFFFFFFFFFFFFFFFFFFF
310
FFFFFFFFFFFFFFFFFFFFFFFFFFFFFFFFFFFFFFFFFFFFFFFFFFFFFFFFFFFFFFFF
310
FFFFFFFFFFFFFFFFFFFFFFFFFFFFFFFFFFFFFFFFFFFFFFFFF000FFFFFFFFFFFF
310
FFFFFFFFFFFFFFFFFFFFFFFFFFFFFFFFFFFFFFFFFFFFFFFFFFFFFFFFFFFFFFFF
310
FFFFFFFFFFFFFFFFFFFFFFFFFFFFFFFFFFFFFFFFFFFFFFFFFFFFFFFFFFFFFFFF
310
FFFFFFFFFFFFFFFFFFFFFFFFFFFFFFFFF000FFFFFFFFFFFFFFFFFFFFFFFFFFFF
310
FFFFFFFFFFFFFFFFFFFFFFFFFFFFFFFFFFFFFFFFFFFFFFFFFFFFFFFFFFFFFFFF
310
FFFFFFFFFFFFFFFFFFFFFFFFFFFFFFFFFFFFFFFFFFFFFFFFFFFFFFFFFFFFFFFF
310
FFFFFFFFFFFFFFFFF000FFFFF80003FFFFFFFFFFFFFFFFFFFFFFFFFFFFFFFFFF
310
FFFFF00007FFFFFFFFFF00007FFFFFF800000000000000007FFFFFFFFFFFFFFF
310
FFFFFFFC001FFFFFFFFFFFFFFC001FFFFFFFFFFFFFFFFFFFFFFFFFFE0007FFFF
310
F000FFFF8000007FFFFFFFF8000FFFFFC0007FFFFF80007FFFFF0000007FFFFF
310
FFF8000007FFFFF800000000000000007FFFFFF0001FFFFFFFFFFFC00001FFFF
310
FFFFFFFFC00001FFFFFFFF000000000003FFFFE000007FFFF000FFFE0000000F
310
FFFFFFF0000FFFFF80007FFFFF80007FFFFC0000001FFFFFFFC0000001FFFFF8
310
00000000000000007FFFFFF0001FFFFFFFFFFE0000003FFFFFFFFFFE0000003F
310
FFFFFF000000000003FFFF0000000FFFF000FFF800000003FFFFFFF00007FFFF
310
80007FFFFF80007FFFF000000007FFFFFF000000003FFFF80000000000000000
310
7FFFFFF0001FFFFFFFFFF80000000FFFFFFFFFF80000000FFFFFFF0000000000
310
03FFFC00000003FFF000FFE000000000FFFFFFF00007FFFF80003FFFFF80007F
310
FFC000000001FFFFFC000000001FFFF800000000000000007FFFFFF0001FFFFF
310
FFFFE000000003FFFFFFFFE000000003FFFFFF000000000003FFF000000000FF
310
F000FF80000000007FFFFFF00007FFFF80003FFFFF80007FFF8000000000FFFF
310
F80000000007FFF800000000000000007FFFFFF0001FFFFFFFFFC000000001FF
310
FFFFFFC000000001FFFFFF000000000003FFC0000000007FF000FF0000000000
310
3FFFFFE00007FFFF00003FFFFF80007FFE00000000003FFFF00000000003FFF8
310
00000000000000007FFFFFF0001FFFFFFFFF8000000000FFFFFFFF8000000000
310
FFFFFF000000000003FF80000000003FF000FE00000000001FFFFFE00003FFFF
310
00003FFFFF80007FFC00000000001FFFE00000000001FFF8000001FFFE000000
310
7FFFFFF0001FFFFFFFFE00000000003FFFFFFE00000000003FFFFF0000000000
310
03FF00000000001FF000FC00000000000FFFFFE00003FFFF00001FFFFF80007F
310
F800000000001FFFC00000000000FFF8000001FFFE0000007FFFFFF0001FFFFF
310
FFFC00000000001FFFFFFC00000000001FFFFF000000000003FE00000000000F
310
F000F8000000000007FFFFE00003FFFF00001FFFFF80007FF800000000000FFF
310
800000000000FFF8000001FFFE0000007FFFFFF0001FFFFFFFF800000000000F
310
FFFFF800000000000FFFFF000000000003FC000000000007F000F80000000000
310
03FFFFC00003FFFE00001FFFFF80007FF0000000000007FF0000000000007FF8
310
000001FFFE0000007FFFFFF0001FFFFFFFF0000000000007FFFFF00000000000
310
07FFFF000000000003F8000000000003F000F0000000000003FFFFC00001FFFE
310
00001FFFFF80007FE0000000000007FE0000000000003FF8000001FFFE000000
310
7FFFFFF0001FFFFFFFF0000000000007FFFFF0000000000007FFFF0000000000
310
03F800001F800003F000E00001FFF00001FFFFC00001FFFE00000FFFFF80007F
310
E00001FFE00003FE00001FFF00003FF8000001FFFE0000007FFFFFF0001FFFFF
310
FFE000003E000003FFFFE000003E000003FFFF000000000003F00001FFF80001
310
F000E00007FFFC0001FFFFC00001FFFE00000FFFFF80007FC0000FFFFC0003FC
310
0000FFFFC0001FF8000001FFFE0000007FFFFFF0001FFFFFFFC00003FFE00001
310
FFFFC00003FFE00001FFFF0001FFFFFFFFF00007FFFE0001F000E0000FFFFF00
310
00FFFF800001FFFC00000FFFFF80007FC0001FFFFE0001FC0001FFFFE0001FF8
310
000001FFFE0000007FFFFFF0001FFFFFFF80000FFFF80000FFFF80000FFFF800
310
00FFFF0003FFFFFFFFE0000FFFFF8000F000C0003FFFFF8000FFFF800000FFFC
310
000007FFFF80007F80003FFFFF0001FC0003FFFFF0001FF8000001FFFE000000
310
7FFFFFF0001FFFFFFF80003FFFFE0000FFFF80003FFFFE0000FFFF0003FFFFFF
310
FFE0003FFFFF8000F000C0003FFFFF8000FFFF800000FFFC000007FFFF80007F
310
80007FFFFF8001F80007FFFFF8000FF8000001FFFE0000007FFFFFF0001FFFFF
310
FF00007FFFFF00007FFF00007FFFFF00007FFF0003FFFFFFFFE0003FFFFFC000
310
F000C0007FFFFFC000FFFF000000FFFC000007FFFF80007F8000FFFFFF8000F8
310
000FFFFFF8000FF8000001FFFE0000007FFFFFF0001FFFFFFF0000FFFFFF8000
310
7FFF0000FFFFFF80007FFF0003FFFFFFFFC0007FFFFFC00070008000FFFFFFC0
310
00FFFF000000FFF8000007FFFF80007F8000FFFFFF8000F8000FFFFFF8000FF8
310
000001FFFE0000007FFFFFF0001FFFFFFE0001FFFFFFC0003FFE0001FFFFFFC0
310
003FFF0003FFFFFFFFC0007FFFFFE00070008000FFFFFFC0007FFF0000007FF8
310
000003FFFF80007F0001FFFFFF8000F8000FFFFFF8000FF8000001FFFE000000
310
7FFFFFF0001FFFFFFE0001FFFFFFC0003FFE0001FFFFFFC0003FFF0003FFFFFF
310
FFC000FFFFFFE00070008000FFFFFFC0007FFF0000007FF8000003FFFF80007F
310
0001FFFFFF8000F8001FFFFFF8000FF8000001FFFE0000007FFFFFF0001FFFFF
310
FE0003FFFFFFE0003FFE0003FFFFFFE0003FFF0003FFFFFFFFC000FFFFFFE000
310
70008000FFFFFFC0007FFE0000007FF8000003FFFF80007F0001FFFFFF8000F0
310
001FFFFFF8000FF8000001FFFE0000007FFFFFF0001FFFFFFC0003FFFFFFE000
310
1FFC0003FFFFFFE0001FFF0003FFFFFFFFC000FFFFFFC00070008000FFFFFF80
310
007FFE0000007FF0000003FFFF80007F0001FFFFFF0000F0001FFFFFF8000FF8
310
000001FFFE0000007FFFFFF0001FFFFFFC0007FFFFFFF0001FFC0007FFFFFFF0
310
001FFF0003FFFFFFFFC000FFFFFFC00070008001FFFFFF0000FFFE0000003FF0
310
000001FFFF80007F0001FFFFFF0000F8001FFFFFF0000FF8000001FFFE000000
310
7FFFFFF0001FFFFFFC0007FFFFFFF0001FFC0007FFFFFFF0001FFF0003FFFFFF
310
FFC001FFFFFF80007000FFFFFFFFFE0000FFFE0008003FF0008001FFFF80007F
310
FFFFFFFFFC0000FFFFFFFFFFE0000FF8000001FFFE0000007FFFFFF0001FFFFF
310
F8000FFFFFFFF8000FF8000FFFFFFFF8000FFF0003FFFFFFFFFFFFFFFFFF0000
310
7000FFFFFFFFFC0000FFFC0008003FF0008001FFFF80007FFFFFFFFFF80001FF
310
FFFFFFFF80000FF8000001FFFE0000007FFFFFF0001FFFFFF8000FFFFFFFF800
310
0FF8000FFFFFFFF8000FFF0003FFFFFFFFFFFFFFFFFE0000F000FFFFFFFFE000
310
00FFFC000C003FE000C001FFFF80007FFFFFFFFFC00001FFFFFFFFFE00001FF8
310
000001FFFE0000007FFFFFF0001FFFFFF8000FFFFFFFF8000FF8000FFFFFFFF8
310
000FFF0003FFFFFFFFFFFFFFFFF00000F000FFFFFFFE000001FFFC000C001FE0
310
00C000FFFF80007FFFFFFFFE000001FFFFFFFFE000001FF80FFFFFFFFFFFFFC0
310
7FFFFFF0001FFFFFF8000FFFFFFFF8000FF8000FFFFFFFF8000FFF0003FFFFFF
310
FFFFFFFFFF800000F000FFFFFFC0000001FFFC001C001FE001C000FFFF80007F
310
FFFFFF80000003FFFFFFF80000001FF80FFFFFFFFFFFFFC07FFFFFF0001FFFFF
310
F8001FFFFFFFFC000FF8001FFFFFFFFC000FFF0003FFFFFFFFFFFFFFF0000001
310
F000FFFFF800000001FFF8001C001FE001C000FFFF80007FFFFFF800000003FF
310
FFFF800000003FF80FFFFFFFFFFFFFC07FFFFFF0001FFFFFF8001FFFFFFFFC00
310
0FF8001FFFFFFFFC000FFF0003FFFFFFFFFFFFFE00000001F000FFFFC0000000
310
03FFF8001E001FC001E000FFFF80007FFFFF8000000007FFFFFC000000003FF8
310
0FFFFFFFFFFFFFC07FFFFFF0001FFFFFF8001FFFFFFFFC000FF8001FFFFFFFFC
310
000FFF0003FFFFFFFFFFFFE000000003F000FFFE0000000007FFF8001E000FC0
310
01E0007FFF80007FFFFE0000000007FFFFE0000000007FF80FFFFFFFFFFFFFC0
310
7FFFFFF0001FFFFFF0001FFFFFFFFC0007F0001FFFFFFFFC0007FF0003FFFFFF
310
FFFFFF0000000003F000FFF80000000007FFF8001E000FC003E0007FFF80007F
310
FFF0000000000FFFFF8000000000FFF80FFFFFFFFFFFFFC07FFFFFF0001FFFFF
310
F0001FFFFFFFFC0007F0001FFFFFFFFC0007FF0003FFFFFFFFFFFC0000000007
310
F000FFE0000000000FFFF0003E000FC003E0007FFF80007FFFC0000000001FFF
310
FE0000000001FFF80FFFFFFFFFFFFFC07FFFFFF0001FFFFFF0001FFFFFFFFC00
310
07F0001FFFFFFFFC0007FF0003FFFFFFFFFFF0000000000FF000FFC000000000
310
1FFFF0003F000F8003F0003FFF80007FFF80000000003FFFF80000000003FFF8
310
0FFFFFFFFFFFFFC07FFFFFF0001FFFFFF0001FFFFFFFFC0007F0001FFFFFFFFC
310
0007FF0003FFFFFFFFFFE0000000001FF000FF00000000007FFFF0003F000780
310
03F0003FFF80007FFF00000000007FFFF00000000007FFF80FFFFFFFFFFFFFC0
310
7FFFFFF0001FFFFFF0001FFFFFFFFC0007F0001FFFFFFFFC0007FF0003FFFFFF
310
FFFF80000000007FF000FE0000000000FFFFE0003F00078007F0003FFF80007F
310
FE0000000001FFFFE0000000001FFFF80FFFFFFFFFFFFFC07FFFFFF0001FFFFF
310
F0001FFFFFFFFC0007F0001FFFFFFFFC0007FF0003FFFFFFFFFF0000000000FF
310
F000FC0000000003FFFFE0007F00078007F0003FFF80007FFC0000000007FFFF
310
C0000000007FFFF80FFFFFFFFFFFFFC07FFFFFF0001FFFFFF8001FFFFFFFFC00
310
0FF8001FFFFFFFFC000FFF0003FFFFFFFFFE0000000003FFF000FC000000000F
310
FFFFE0007F80070007F8001FFF80007FF8000000001FFFFF8000000001FFFFF8
310
0FFFFFFFFFFFFFC07FFFFFF0001FFFFFF8001FFFFFFFFC000FF8001FFFFFFFFC
310
000FFF0003FFFFFFFFFC000000000FFFF000F8000000007FFFFFE0007F800700
310
07F8001FFF80007FF000000000FFFFFF800000000FFFFFF80FFFFFFFFFFFFFC0
310
7FFFFFF0001FFFFFF8000FFFFFFFF8000FF8000FFFFFFFF8000FFF0003FFFFFF
310
FFFC000000007FFFF000F800000007FFFFFFC0007F8003000FF8001FFF80007F
310
F000000007FFFFFF000000007FFFFFF80FFFFFFFFFFFFFC07FFFFFF0001FFFFF
310
F8000FFFFFFFF8000FF8000FFFFFFFF8000FFF0003FFFFFFFFF80000000FFFFF
310
F000F0000000FFFFFFFFC000FF8003000FF8001FFF80007FE0000000FFFFFFFF
310
0000000FFFFFFFF8000001FFFE0000007FFFFFF0001FFFFFF8000FFFFFFFF800
310
0FF8000FFFFFFFF8000FFF0003FFFFFFFFF8000000FFFFFFF000F000000FFFFF
310
FFFFC000FFC002000FF8000FFF80007FE000001FFFFFFFFE000001FFFFFFFFF8
310
000001FFFE0000007FFFFFF0001FFFFFF8000FFFFFFFF8000FF8000FFFFFFFF8
310
000FFF0003FFFFFFFFF000001FFFFFFFF000E00000FFFFFFFFFFC000FFC00200
310
0FFC000FFF80007FE00001FFFFFFFFFE00001FFFFFFFFFF8000001FFFE000000
310
7FFFFFF0001FFFFFFC000FFFFFFFF8001FFC000FFFFFFFF8001FFF0003FFFFFF
310
FFF00001FFFFFFFFF000E00007FFFFFFFFFF8000FFC000001FFC000FFF80007F
310
C0000FFFFFFFFFFE0000FFFFFFFFFFF8000001FFFE0000007FFFFFF0001FFFFF
310
FC0007FFFFFFF0001FFC0007FFFFFFF0001FFF0003FFFFFFFFF00007FFFFFFFF
310
F000E0001FFFFFFFFFFF8000FFC000001FFC000FFF80007FC0003FFFFFFFFFFE
310
0001FFFFFFFFFFF8000001FFFE0000007FFFFFF0001FFFFFFC0007FFFFFFF000
310
1FFC0007FFFFFFF0001FFF0003FFFFFFFFF0001FFFFFFFFFF000E0003FFFFF00
310
03FF8001FFE000001FFC0007FF80007FC0007FFFFF0007FC0003FFFFF0003FF8
310
000001FFFE0000007FFFFFF0001FFFFFFC0003FFFFFFE0001FFC0003FFFFFFE0
310
001FFF0003FFFFFFFFF0003FFFFFFFFFF000E0003FFFFF0001FF8001FFE00000
310
1FFE0007FF80007FC0007FFFFE0003FC0007FFFFE0003FF8000001FFFE000000
310
7FFFFFF0001FFFFFFE0003FFFFFFE0003FFE0003FFFFFFE0003FFF0003FFFFFF
310
FFF0003FFFFF8001F000E0003FFFFF0001FF0001FFE000001FFE0007FF80007F
310
C0007FFFFE0003FC0007FFFFE0003FF8000001FFFE0000007FFFFFF0001FFFFF
310
FE0001FFFFFFC0003FFE0001FFFFFFC0003FFF0003FFFFFFFFF0003FFFFF0001
310
F000E0003FFFFF0003FF0001FFE000003FFE0007FF80007FC0007FFFFE0003FC
310
0007FFFFE0003FF8000001FFFE0000007FFFFFF0001FFFFFFF0001FFFFFFC000
310
7FFF0001FFFFFFC0007FFF0003FFFFFFFFF0003FFFFF0001F000E0003FFFFE00
310
03FF0003FFF000003FFE0003FF80007FC0007FFFFC0003FE0007FFFFE0003FF8
310
000001FFFE0000007FFFFFF0001FFFFFFF0000FFFFFF80007FFF0000FFFFFF80
310
007FFF0003FFFFFFFFF0003FFFFF0001F000E0003FFFFE0003FF0003FFF00000
310
3FFF0003FF80007FC0007FFFFC0007FE0007FFFFC0003FF8000001FFFE000000
310
7FFFFFF0001FFFFFFF80007FFFFF0000FFFF80007FFFFF0000FFFF0003FFFFFF
310
FFF0003FFFFF0003F000E0003FFFFC0003FE0003FFF000003FFF0003FF80007F
310
E0003FFFF80007FE0003FFFFC0007FF8000001FFFE0000007FFFFFF0001FFFFF
310
FF80003FFFFE0000FFFF80003FFFFE0000FFFF0003FFFFFFFFF0001FFFFE0003
310
F000F0001FFFF80003FE0003FFF000007FFF0001FF80007FE0003FFFF00007FE
310
0001FFFF80007FF8000001FFFE0000007FFFFFF0001FFFFFFFC0000FFFF80001
310
FFFFC0000FFFF80001FFFF0003FFFFFFFFF0001FFFFC0003F000F0000FFFF000
310
07FE0007FFF800007FFF0001FF80007FE0001FFFE00007FF0000FFFE00007FF8
310
000001FFFE0000007FFFFFF0001FFFFFFFC00003FFE00001FFFFC00003FFE000
310
01FFFF0003FFFFFFFFF8000FFFF80003F000F00003FFC00007FC0007FFF80000
310
7FFF8001FF80007FF00007FF80000FFF00007FF80000FFF8000001FFFE000000
310
7F80000000000001FFE000003E000003FFFFE000003E000003FFFF0003FFFFFF
310
FFF80003FFE00007F000F800000000000FFC0007FFF800007FFF8001FF80007F
310
F000000000000FFF000000000000FFF8000001FFFE0000007F80000000000001
310
FFF0000000000007FFFFF0000000000007FFFF0003FFFFFFFFFC00007E000007
310
F000F800000000000FFC0007FFF80000FFFF8000FF80007FF800000000001FFF
310
800000000001FFF8000001FFFE0000007F80000000000001FFF800000000000F
310
FFFFF800000000000FFFFF0003FFFFFFFFFC00000000000FF000FC0000000000
310
1FFC0007FFFC0000FFFF8000FF80007FF800000000003FFFC00000000001FFF8
310
000001FFFE0000007F80000000000001FFF800000000000FFFFFF80000000000
310
0FFFFF0003FFFFFFFFFE00000000001FF000FE00000000003FF8000FFFFC0000
310
FFFF8000FF80007FFC00000000003FFFC00000000003FFF8000001FFFE000000
310
7F80000000000001FFFC00000000001FFFFFFC00000000001FFFFF0003FFFFFF
310
FFFF00000000001FF000FF00000000003FF8000FFFFC0000FFFFC000FF80007F
310
FE00000000007FFFE00000000007FFF8000001FFFE0000007F80000000000001
310
FFFE00000000003FFFFFFE00000000003FFFFF0003FFFFFFFFFF80000000003F
310
F000FF80000000007FF8000FFFFC0001FFFFC0007F80007FFF0000000000FFFF
310
F0000000000FFFF800000000000000007F80000000000001FFFF8000000000FF
310
FFFFFF8000000000FFFFFF0003FFFFFFFFFFC0000000007FF000FFC000000000
310
FFF8000FFFFE0001FFFFC0007F80007FFF8000000001FFFFF8000000001FFFF8
310
00000000000000007F80000000000001FFFFC000000001FFFFFFFFC000000001
310
FFFFFF0003FFFFFFFFFFE000000000FFF000FFE000000003FFF0001FFFFE0001
310
FFFFC0007F80007FFFC000000007FFFFFE000000003FFFF80000000000000000
310
7F80000000000001FFFFE000000003FFFFFFFFE000000003FFFFFF0003FFFFFF
310
FFFFF000000003FFF000FFF80000000FFFF0001FFFFE0001FFFFE0007F80007F
310
FFF00000000FFFFFFF00000000FFFFF800000000000000007F80000000000001
310
FFFFF80000000FFFFFFFFFF80000000FFFFFFF0003FFFFFFFFFFFC0000000FFF
310
F000FFFE0000003FFFF0001FFFFE0003FFFFE0003F80007FFFFC0000003FFFFF
310
FFC0000003FFFFF800000000000000007F80000000000001FFFFFE0000003FFF
310
FFFFFFFE0000003FFFFFFF0003FFFFFFFFFFFF0000003FFFF000FFFF800000FF
310
FFF0001FFFFF0003FFFFE0003F80007FFFFF000001FFFFFFFFF800001FFFFFF8
310
00000000000000007F80000000000001FFFFFFC00001FFFFFFFFFFFFC00001FF
310
FFFFFF0003FFFFFFFFFFFFC00000FFFFF000FFFFF8000FFFFFFFFFFFFFFFFFFF
310
FFFFFFFFFFFFFFFFFFFFF0001FFFFFFFFFFF0000FFFFFFF80000000000000000
310
7FFFFFFFFFFFFFFFFFFFFFFC001FFFFFFFFFFFFFFC001FFFFFFFFFFFFFFFFFFF
310
FFFFFFFC001FFFFFF000FFFFFFFFFFFFFFFFFFFFFFFFFFFFFFFFFFFFFFFFFFFF
310
FFFFFFFFFFFFFFFFFFFFFFFFFFFFFFFFFFFFFFFFFFFFFFFFFFFFFFFFFFFFFFFF
310
FFFFFFFFFFFFFFFFFFFFFFFFFFFFFFFFFFFFFFFFFFFFFFFFFFFFFFFFFFFFFFFF
310
F000FFFFFFFFFFFFFFFFFFFFFFFFFFFFFFFFFFFFFFFFFFFFFFFFFFFFFFFFFFFF
310
FFFFFFFFFFFFFFFFFFFFFFFFFFFFFFFFFFFFFFFFFFFFFFFFFFFFFFFFFFFFFFFF
310
FFFFFFFFFFFFFFFFFFFFFFFFFFFFFFFFFFFFFFFFFFFFFFFFF000FFFFFFFFFFFF
310
FFFFFFFFFFFFFFFFFFFFFFFFFFFFFFFFFFFFFFFFFFFFFFFFFFFFFFFFFFFFFFFF
310
FFFFFFFFFFFFFFFFFFFFFFFFFFFFFFFFFFFFFFFFFFFFFFFFFFFFFFFFFFFFFFFF
310
FFFFFFFFFFFFFFFFFFFFFFFFFFFFFFFFF000FFFFFFFFFFFFFFFFFFFFFFFFFFFF
310
FFFFFFFFFFFFFFFFFFFFFFFFFFFFFFFFFFFFFFFFFFFFFFFFFFFFFFFFFFFFFFFF
310
FFFFFFFFFFFFFFFFFFFFFFFFFFFFFFFFFFFFFFFFFFFFFFFFFFFFFFFFFFFFFFFF
310
FFFFFFFFFFFFFFFFF000FFFFFFFFFFFFFFFFFFFFFFFFFFFFFFFFFFFFFFFFFFFF
310
FFFFFFFFFFFFFFFFFFFFFFFFFFFFFFFFFFFFFFFFFFFFFFFFFFFFFFFFFFFFFFFF
310
FFFFFFFFFFFFFFFFFFFFFFFFFFFFFFFFFFFFFFFFFFFFFFFFFFFFFFFFFFFFFFFF
310
F000FFFFFFFFFFFFFFFFFFFFFFFFFFFFFFFFFFFFFFFFFFFFFFFFFFFFFFFFFFFF
310
FFFFFFFFFFFFFFFFFFFFFFFFFFFFFFFFFFFFFFFFFFFFFFFFFFFFFFFFFFFFFFFF
310
FFFFFFFFFFFFFFFFFFFFFFFFFFFFFFFFFFFFFFFFFFFFFFFFF000FFFFFFFFFFFF
310
FFFFFFFFFFFFFFFFFFFFFFFFFFFFFFFFFFFFFFFFFFFFFFFFFFFFFFFFFFFFFFFF
310
FFFFFFFFFFFFFFFFFFFFFFFFFFFFFFFFFFFFFFFFFFFFFFFFFFFFFFFFFFFFFFFF
310
FFFFFFFFFFFFFFFFFFFFFFFFFFFFFFFFF000FFFFFFFFFFFFFFFFFFFFFFFFFFFF
310
FFFFFFFFFFFFFFFFFFFFFFFFFFFFFFFFFFFFFFFFFFFFFFFFFFFFFFFFFFFFFFFF
310
FFFFFFFFFFFFFFFFFFFFFFFFFFFFFFFFFFFFFFFFFFFFFFFFFFFFFFFFFFFFFFFF
310
FFFFFFFFFFFFFFFFF000FFFFFFFFFFFFFFFFFFFFFFFFFFFFFFFFFFFFFFFFFFFF
310
FFFFFFFFFFFFFFFFFFFFFFFFFFFFFFFFFFFFFFFFFFFFFFFFFFFFFFFFFFFFFFFF
310
FFFFFFFFFFFFFFFFFFFFFFFFFFFFFFFFFFFFFFFFFFFFFFFFFFFFFFFFFFFFFFFF
310
F000FFFFFFFFFFFFFFFFFFFFFFFFFFFFFFFFFFFFFFFFFFFFFFFFFFFFFFFFFFFF
310
FFFFFFFFFFFFFFFFFFFFFFFFFFFFFFFFFFFFFFFFFFFFFFFFFFFFFFFFFFFFFFFF
310
FFFFFFFFFFFFFFFFFFFFFFFFFFFFFFFFFFFFFFFFFFFFFFFFF000FFFFFFFFFFFF
310
FFFFFFFFFFFFFFFFFFFFFFFFFFFFFFFFFFFFFFFFFFFFFFFFFFFFFFFFFFFFFFFF
310
FFFFFFFFFFFFFFFFFFFFFFFFFFFFFFFFFFFFFFFFFFFFFFFFFFFFFFFFFFFFFFFF
310
FFFFFFFFFFFFFFFFFFFFFFFFFFFFFFFFF000FFFFFFFFFFFFFFFFFFFFFFFFFFFF
310
FFFFFFFFFFFFFFFFFFFFFFFFFFFFFFFFFFFFFFFFFFFFFFFFFFFFFFFFFFFFFFFF
310
FFFFFFFFFFFFFFFFFFFFFFFFFFFFFFFFFFFFFFFFFFFFFFFFFFFFFFFFFFFFFFFF
310
FFFFFFFFFFFFFFFFF000FFFFFFFFFFFFFFFFFFFFFFFFFFFFFFFFFFFFFFFFFFFF
310
FFFFFFFFFFFFFFFFFFFFFFFFFFFFFFFFFFFFFFFFFFFFFFFFFFFFFFFFFFFFFFFF
310
FFFFFFFFFFFFFFFFFFFFFFFFFFFFFFFFFFFFFFFFFFFFFFFFFFFFFFFFFFFFFFFF
310
F000FFFFFFFFFFFFFFFFFFFFFFFFFFFFFFFFFFFFFFFFFFFFFFFFFFFFFFFFFFFF
310
FFFFFFFFFFFFFFFFFFFFFFFFFFFFFFFFFFFFFFFFFFFFFFFFFFFFFFFFFFFFFFFF
310
FFFFFFFFFFFFFFFFFFFFFFFFFFFFFFFFFFFFFFFFFFFFFFFFF000FFFFFFFFFFFF
310
FFFFFFFFFFFFFFFFFFFFFFFFFFFFFFFFFFFFFFFFFFFFFFFFFFFFFFFFFFFFFFFF
310
FFFFFFFFFFFFFFFFFFFFFFFFFFFFFFFFFFFFFFFFFFFFFFFFFFFFFFFFFFFFFFFF
310
FFFFFFFFFFFFFFFFFFFFFFFFFFFFFFFFF000FFFFFFFFFFFFFFFFFFFFFFFFFFFF
310
FFFFFFFFFFFFFFFFFFFFFFFFFFFFFFFFFFFFFFFFFFFFFFFFFFFFFFFFFFFFFFFF
310
FFFFFFFFFFFFFFFFFFFFFFFFFFFFFFFFFFFFFFFFFFFFFFFFFFFFFFFFFFFFFFFF
310
FFFFFFFFFFFFFFFFF000FFFFFFFFFFFFFFFFFFFFFFFFFFFFFFFFFFFFFFFFFFFF
310
FFFFFFFFFFFFFFFFFFFFFFFFFFFFFFFFFFFFFFFFFFFFFFFFFFFFFFFFFFFFFFFF
310
FFFFFFFFFFFFFFFFFFFFFFFFFFFFFFFFFFFFFFFFFFFFFFFFFFFFFFFFFFFFFFFF
310
F000FFFFFFFFFFFFFFFFFFFFFFFFFFFFFFFFFFFFFFFFFFFFFFFFFFFFFFFFFFFF
310
FFFFFFFFFFFFFFFFFFFFFFFFFFFFFFFFFFFFFFFFFFFFFFFFFFFFFFFFFFFFFFFF
310
FFFFFFFFFFFFFFFFFFFFFFFFFFFFFFFFFFFFFFFFFFFFFFFFF000FFFFFFFFFFFF
310
FFFFFFFFFFFFFFFFFFFFFFFFFFFFFFFFFFFFFFFFFFFFFFFFFFFFFFFFFFFFFFFF
310
FFFFFFFFFFFFFFFFFFFFFFFFFFFFFFFFFFFFFFFFFFFFFFFFFFFFFFFFFFFFFFFF
310
FFFFFFFFFFFFFFFFFFFFFFFFFFFFFFFFF000FFFFFFFFFFFFFFFFFFFFFFFFFFFF
310
FFFFFFFFFFFFFFFFFFFFFFFFFFFFFFFFFFFFFFFFFFFFFFFFFFFFFFFFFFFFFFFF
310
FFFFFFFFFFFFFFFFFFFFFFFFFFFFFFFFFFFFFFFFFFFFFFFFFFFFFFFFFFFFFFFF
310
FFFFFFFFFFFFFFFFF000FFFFFFFFFFFFFFFFFFFFFFFFFFFFFFFFFFFFFFFFFFFF
310
FFFFFFFFFFFFFFFFFFFFFFFFFFFFFFFFFFFFFFFFFFFFFFFFFFFFFFFFFFFFFFFF
310
FFFFFFFFFFFFFFFFFFFFFFFFFFFFFFFFFFFFFFFFFFFFFFFFFFFFFFFFFFFFFFFF
310
F000FFFFFFFFFFFFFFFFFFFFFFFFFFFFFFFFFFFFFFFFFFFFFFFFFFFFFFFFFFFF
310
FFFFFFFFFFFFFFFFFFFFFFFFFFFFFFFFFFFFFFFFFFFFFFFFFFFFFFFFFFFFFFFF
310
FFFFFFFFFFFFFFFFFFFFFFFFFFFFFFFFFFFFFFFFFFFFFFFFF000FFFFFFFFFFFF
310
FFFFFFFFFFFFFFFFFFFFFFFFFFFFFFFFFFFFFFFFFFFFFFFFFFFFFFFFFFFFFFFF
310
FFFFFFFFFFFFFFFFFFFFFFFFFFFFFFFFFFFFFFFFFFFFFFFFFFFFFFFFFFFFFFFF
310
FFFFFFFFFFFFFFFFFFFFFFFFFFFFFFFFF0000000000000000000000000000000
310
0000000000000000000000000000000000000000000000000000000000000000
310
0000000000000000000000000000000000000000000000000000000000000000
310
0000000000000000000000000000000000000000000000000000000000000000
310
0000000000000000000000000000000000000000000000000000000000000000
310
0000000000000000000000000000000000000000000000000000000000000000
310
0000000000000000000000000000000000000000000000000000000000000000
310
0000000000000000000000000000000000000000000000000000000000000000
310
0000000000000000000000000000000000000000000000000000000000000000
310
0000000000000000000000000000000000000000000000000000000000000000
310
0000000000000000000000000000000000000000000000000000000000000000
310
0000000000000000000000000000000000000000000000000000000000000000
310
0000000000000000000000000000000000000000000000000000000000000000
310
0000000000000000000000000000000000000000000000000000000000000000
310
0000000000000000000000000000000000000000000000000000000000000000
310
0000000000000000000000000000000000000000000000000000000000000000
  1
OLE
  0
ENDSEC
  0
SECTION
  2
OBJECTS
  0
DICTIONARY
  5
C
330
0
100
AcDbDictionary
281
     1
  3
ACAD_GROUP
350
D
  3
ACAD_LAYOUT
350
1A
  3
ACAD_MLINESTYLE
350
17
  3
ACAD_PLOTSETTINGS
350
19
  3
ACAD_PLOTSTYLENAME
350
E
  3
ACAD_SCALELIST
350
47
  0
DICTIONARY
  5
D
102
{ACAD_REACTORS
330
C
102
}
330
C
100
AcDbDictionary
281
     1
  0
DICTIONARY
  5
1A
102
{ACAD_REACTORS
330
C
102
}
330
C
100
AcDbDictionary
281
     1
  3
Layout1
350
1E
  3
Layout2
350
26
  3
Model
350
22
  0
DICTIONARY
  5
17
102
{ACAD_REACTORS
330
C
102
}
330
C
100
AcDbDictionary
281
     1
  3
Standard
350
18
  0
DICTIONARY
  5
19
102
{ACAD_REACTORS
330
C
102
}
330
C
100
AcDbDictionary
281
     1
  0
ACDBDICTIONARYWDFLT
  5
E
102
{ACAD_REACTORS
330
C
102
}
330
C
100
AcDbDictionary
281
     1
  3
Normal
350
F
100
AcDbDictionaryWithDefault
340
F
  0
DICTIONARY
  5
47
102
{ACAD_REACTORS
330
C
102
}
330
C
100
AcDbDictionary
281
     1
  3
A0
350
48
  3
A1
350
49
  3
A2
350
4A
  3
A3
350
4B
  3
A4
350
4C
  3
A5
350
4D
  3
A6
350
4E
  3
A7
350
4F
  3
A8
350
50
  3
A9
350
51
  3
B0
350
52
  3
B1
350
53
  3
B2
350
54
  3
B3
350
55
  3
B4
350
56
  3
B5
350
57
  3
B6
350
58
  3
B7
350
59
  3
B8
350
5A
  3
B9
350
5B
  3
C0
350
5C
  3
C1
350
5D
  3
C2
350
5E
  3
C3
350
5F
  3
C4
350
60
  3
C5
350
61
  3
C6
350
62
  3
C7
350
63
  3
C8
350
64
  3
C9
350
65
  3
D0
350
66
  3
D1
350
67
  3
D2
350
68
  0
LAYOUT
  5
1E
102
{ACAD_REACTORS
330
1A
102
}
330
1A
100
AcDbPlotSettings
  1

  2
none_device
  4

  6

 40
0.0
 41
0.0
 42
0.0
 43
0.0
 44
0.0
 45
0.0
 46
0.0
 47
0.0
 48
0.0
 49
0.0
140
0.0
141
0.0
142
1.0
143
1.0
 70
   688
 72
     1
 73
     0
 74
     5
  7

 75
    16
147
1.0
148
0.0
149
0.0
100
AcDbLayout
  1
Layout1
 70
     1
 71
     1
 10
0.0
 20
0.0
 11
420.0
 21
297.0
 12
0.0
 22
0.0
 32
0.0
 14
1.0000000000E+20
 24
1.0000000000E+20
 34
1.0000000000E+20
 15
-1.0000000000E+20
 25
-1.0000000000E+20
 35
-1.0000000000E+20
146
0.0
 13
0.0
 23
0.0
 33
0.0
 16
1.0
 26
0.0
 36
0.0
 17
0.0
 27
1.0
 37
0.0
 76
     0
330
1B
  0
LAYOUT
  5
26
102
{ACAD_REACTORS
330
1A
102
}
330
1A
100
AcDbPlotSettings
  1

  2
none_device
  4

  6

 40
0.0
 41
0.0
 42
0.0
 43
0.0
 44
0.0
 45
0.0
 46
0.0
 47
0.0
 48
0.0
 49
0.0
140
0.0
141
0.0
142
1.0
143
1.0
 70
   688
 72
     1
 73
     0
 74
     5
  7

 75
    16
147
1.0
148
0.0
149
0.0
100
AcDbLayout
  1
Layout2
 70
     1
 71
     2
 10
0.0
 20
0.0
 11
0.0
 21
0.0
 12
0.0
 22
0.0
 32
0.0
 14
0.0
 24
0.0
 34
0.0
 15
0.0
 25
0.0
 35
0.0
146
0.0
 13
0.0
 23
0.0
 33
0.0
 16
1.0
 26
0.0
 36
0.0
 17
0.0
 27
1.0
 37
0.0
 76
     0
330
23
  0
LAYOUT
  5
22
102
{ACAD_REACTORS
330
1A
102
}
330
1A
100
AcDbPlotSettings
  1

  2
none_device
  4
Letter_(8.50_x_11.00_Inches)
  6

 40
6.35
 41
6.35
 42
6.35000508
 43
6.35000508
 44
215.9
 45
279.4
 46
0.0
 47
0.0
 48
0.0
 49
0.0
140
0.0
141
0.0
142
1.0
143
1.0
 70
  1712
 72
     1
 73
     0
 74
     0
  7

 75
     0
147
1.0
148
0.0
149
0.0
100
AcDbLayout
  1
Model
 70
     1
 71
     0
 10
0.0
 20
0.0
 11
297.0
 21
210.0
 12
0.0
 22
0.0
 32
0.0
 14
0.0
 24
0.0
 34
0.0
 15
297.0
 25
210.0
 35
0.0
146
0.0
 13
0.0
 23
0.0
 33
0.0
 16
1.0
 26
0.0
 36
0.0
 17
0.0
 27
1.0
 37
0.0
 76
     0
330
1F
331
29
  0
MLINESTYLE
  5
18
102
{ACAD_REACTORS
330
17
102
}
330
17
100
AcDbMlineStyle
  2
Standard
 70
     0
  3

 62
   256
 51
90.0
 52
90.0
 71
     2
 49
0.5
 62
   256
  6
BYLAYER
 49
-0.5
 62
   256
  6
BYLAYER
  0
ACDBPLACEHOLDER
  5
F
102
{ACAD_REACTORS
330
E
102
}
330
E
  0
SCALE
  5
48
102
{ACAD_REACTORS
330
47
102
}
330
47
100
AcDbScale
 70
     0
300
1:1
140
1.0
141
1.0
290
     1
  0
SCALE
  5
49
102
{ACAD_REACTORS
330
47
102
}
330
47
100
AcDbScale
 70
     0
300
1:2
140
1.0
141
2.0
290
     0
  0
SCALE
  5
4A
102
{ACAD_REACTORS
330
47
102
}
330
47
100
AcDbScale
 70
     0
300
1:4
140
1.0
141
4.0
290
     0
  0
SCALE
  5
4B
102
{ACAD_REACTORS
330
47
102
}
330
47
100
AcDbScale
 70
     0
300
1:5
140
1.0
141
5.0
290
     0
  0
SCALE
  5
4C
102
{ACAD_REACTORS
330
47
102
}
330
47
100
AcDbScale
 70
     0
300
1:8
140
1.0
141
8.0
290
     0
  0
SCALE
  5
4D
102
{ACAD_REACTORS
330
47
102
}
330
47
100
AcDbScale
 70
     0
300
1:10
140
1.0
141
10.0
290
     0
  0
SCALE
  5
4E
102
{ACAD_REACTORS
330
47
102
}
330
47
100
AcDbScale
 70
     0
300
1:16
140
1.0
141
16.0
290
     0
  0
SCALE
  5
4F
102
{ACAD_REACTORS
330
47
102
}
330
47
100
AcDbScale
 70
     0
300
1:20
140
1.0
141
20.0
290
     0
  0
SCALE
  5
50
102
{ACAD_REACTORS
330
47
102
}
330
47
100
AcDbScale
 70
     0
300
1:30
140
1.0
141
30.0
290
     0
  0
SCALE
  5
51
102
{ACAD_REACTORS
330
47
102
}
330
47
100
AcDbScale
 70
     0
300
1:40
140
1.0
141
40.0
290
     0
  0
SCALE
  5
52
102
{ACAD_REACTORS
330
47
102
}
330
47
100
AcDbScale
 70
     0
300
1:50
140
1.0
141
50.0
290
     0
  0
SCALE
  5
53
102
{ACAD_REACTORS
330
47
102
}
330
47
100
AcDbScale
 70
     0
300
1:100
140
1.0
141
100.0
290
     0
  0
SCALE
  5
54
102
{ACAD_REACTORS
330
47
102
}
330
47
100
AcDbScale
 70
     0
300
2:1
140
2.0
141
1.0
290
     0
  0
SCALE
  5
55
102
{ACAD_REACTORS
330
47
102
}
330
47
100
AcDbScale
 70
     0
300
4:1
140
4.0
141
1.0
290
     0
  0
SCALE
  5
56
102
{ACAD_REACTORS
330
47
102
}
330
47
100
AcDbScale
 70
     0
300
8:1
140
8.0
141
1.0
290
     0
  0
SCALE
  5
57
102
{ACAD_REACTORS
330
47
102
}
330
47
100
AcDbScale
 70
     0
300
10:1
140
10.0
141
1.0
290
     0
  0
SCALE
  5
58
102
{ACAD_REACTORS
330
47
102
}
330
47
100
AcDbScale
 70
     0
300
100:1
140
100.0
141
1.0
290
     0
  0
SCALE
  5
59
102
{ACAD_REACTORS
330
47
102
}
330
47
100
AcDbScale
 70
     0
300
1/128" = 1'-0"
140
0.0078125
141
12.0
290
     0
  0
SCALE
  5
5A
102
{ACAD_REACTORS
330
47
102
}
330
47
100
AcDbScale
 70
     0
300
1/64" = 1'-0"
140
0.015625
141
12.0
290
     0
  0
SCALE
  5
5B
102
{ACAD_REACTORS
330
47
102
}
330
47
100
AcDbScale
 70
     0
300
1/32" = 1'-0"
140
0.03125
141
12.0
290
     0
  0
SCALE
  5
5C
102
{ACAD_REACTORS
330
47
102
}
330
47
100
AcDbScale
 70
     0
300
1/16" = 1'-0"
140
0.0625
141
12.0
290
     0
  0
SCALE
  5
5D
102
{ACAD_REACTORS
330
47
102
}
330
47
100
AcDbScale
 70
     0
300
3/32" = 1'-0"
140
0.09375
141
12.0
290
     0
  0
SCALE
  5
5E
102
{ACAD_REACTORS
330
47
102
}
330
47
100
AcDbScale
 70
     0
300
1/8" = 1'-0"
140
0.125
141
12.0
290
     0
  0
SCALE
  5
5F
102
{ACAD_REACTORS
330
47
102
}
330
47
100
AcDbScale
 70
     0
300
3/16" = 1'-0"
140
0.1875
141
12.0
290
     0
  0
SCALE
  5
60
102
{ACAD_REACTORS
330
47
102
}
330
47
100
AcDbScale
 70
     0
300
1/4" = 1'-0"
140
0.25
141
12.0
290
     0
  0
SCALE
  5
61
102
{ACAD_REACTORS
330
47
102
}
330
47
100
AcDbScale
 70
     0
300
3/8" = 1'-0"
140
0.375
141
12.0
290
     0
  0
SCALE
  5
62
102
{ACAD_REACTORS
330
47
102
}
330
47
100
AcDbScale
 70
     0
300
1/2" = 1'-0"
140
0.5
141
12.0
290
     0
  0
SCALE
  5
63
102
{ACAD_REACTORS
330
47
102
}
330
47
100
AcDbScale
 70
     0
300
3/4" = 1'-0"
140
0.75
141
12.0
290
     0
  0
SCALE
  5
64
102
{ACAD_REACTORS
330
47
102
}
330
47
100
AcDbScale
 70
     0
300
1" = 1'-0"
140
1.0
141
12.0
290
     0
  0
SCALE
  5
65
102
{ACAD_REACTORS
330
47
102
}
330
47
100
AcDbScale
 70
     0
300
1-1/2" = 1'-0"
140
1.5
141
12.0
290
     0
  0
SCALE
  5
66
102
{ACAD_REACTORS
330
47
102
}
330
47
100
AcDbScale
 70
     0
300
3" = 1'-0"
140
3.0
141
12.0
290
     0
  0
SCALE
  5
67
102
{ACAD_REACTORS
330
47
102
}
330
47
100
AcDbScale
 70
     0
300
6" = 1'-0"
140
6.0
141
12.0
290
     0
  0
SCALE
  5
68
102
{ACAD_REACTORS
330
47
102
}
330
47
100
AcDbScale
 70
     0
300
1'-0" = 1'-0"
140
12.0
141
12.0
290
     0
  0
ENDSEC
  0
EOF
