  0
SECTION
  2
HEADER
  9
$ACADVER
  1
AC1015
  9
$ACADMAINTVER
 70
     6
  9
$DWGCODEPAGE
  3
ANSI_1252
  9
$INSBASE
 10
0.0
 20
0.0
 30
0.0
  9
$EXTMIN
 10
0.0
 20
0.0
 30
0.0
  9
$EXTMAX
 10
297.0
 20
210.0
 30
0.0
  9
$LIMMIN
 10
0.0
 20
0.0
  9
$LIMMAX
 10
297.0
 20
210.0
  9
$ORTHOMODE
 70
     0
  9
$REGENMODE
 70
     1
  9
$FILLMODE
 70
     1
  9
$QTEXTMODE
 70
     0
  9
$MIRRTEXT
 70
     1
  9
$LTSCALE
 40
1.0
  9
$ATTMODE
 70
     1
  9
$TEXTSIZE
 40
2.0
  9
$TRACEWID
 40
1.0
  9
$TEXTSTYLE
  7
Standard
  9
$CLAYER
  8
0
  9
$CELTYPE
  6
ByLayer
  9
$CECOLOR
 62
   256
  9
$CELTSCALE
 40
1.0
  9
$DISPSILH
 70
     0
  9
$DIMSCALE
 40
1.0
  9
$DIMASZ
 40
3.0
  9
$DIMEXO
 40
0.0
  9
$DIMDLI
 40
3.75
  9
$DIMRND
 40
0.0
  9
$DIMDLE
 40
0.0
  9
$DIMEXE
 40
1.0
  9
$DIMTP
 40
0.0
  9
$DIMTM
 40
0.0
  9
$DIMTXT
 40
2.0
  9
$DIMCEN
 40
2.5
  9
$DIMTSZ
 40
0.0
  9
$DIMTOL
 70
     0
  9
$DIMLIM
 70
     0
  9
$DIMTIH
 70
     1
  9
$DIMTOH
 70
     1
  9
$DIMSE1
 70
     0
  9
$DIMSE2
 70
     0
  9
$DIMTAD
 70
     1
  9
$DIMZIN
 70
     0
  9
$DIMBLK
  1

  9
$DIMASO
 70
     1
  9
$DIMSHO
 70
     1
  9
$DIMPOST
  1

  9
$DIMAPOST
  1

  9
$DIMALT
 70
     0
  9
$DIMALTD
 70
     3
  9
$DIMALTF
 40
0.0393700787
  9
$DIMLFAC
 40
1.0
  9
$DIMTOFL
 70
     1
  9
$DIMTVP
 40
0.0
  9
$DIMTIX
 70
     0
  9
$DIMSOXD
 70
     0
  9
$DIMSAH
 70
     0
  9
$DIMBLK1
  1

  9
$DIMBLK2
  1

  9
$DIMSTYLE
  2
ISO-25
  9
$DIMCLRD
 70
     0
  9
$DIMCLRE
 70
     0
  9
$DIMCLRT
 70
     0
  9
$DIMTFAC
 40
1.0
  9
$DIMGAP
 40
1.524
  9
$DIMJUST
 70
     0
  9
$DIMSD1
 70
     0
  9
$DIMSD2
 70
     0
  9
$DIMTOLJ
 70
     0
  9
$DIMTZIN
 70
     0
  9
$DIMALTZ
 70
     0
  9
$DIMALTTZ
 70
     0
  9
$DIMUPT
 70
     0
  9
$DIMDEC
 70
     2
  9
$DIMTDEC
 70
     3
  9
$DIMALTU
 70
     2
  9
$DIMALTTD
 70
     3
  9
$DIMTXSTY
  7
Standard
  9
$DIMAUNIT
 70
     0
  9
$DIMADEC
 70
     2
  9
$DIMALTRND
 40
0.0
  9
$DIMAZIN
 70
     0
  9
$DIMDSEP
 70
    44
  9
$DIMATFIT
 70
     3
  9
$DIMFRAC
 70
     0
  9
$DIMLDRBLK
  1

  9
$DIMLUNIT
 70
     2
  9
$DIMLWD
 70
    -2
  9
$DIMLWE
 70
    -2
  9
$DIMTMOVE
 70
     0
  9
$LUNITS
 70
     2
  9
$LUPREC
 70
     2
  9
$SKETCHINC
 40
1.0
  9
$FILLETRAD
 40
10.0
  9
$AUNITS
 70
     0
  9
$AUPREC
 70
     2
  9
$MENU
  1
.
  9
$ELEVATION
 40
0.0
  9
$PELEVATION
 40
0.0
  9
$THICKNESS
 40
0.0
  9
$LIMCHECK
 70
     0
  9
$CHAMFERA
 40
0.0
  9
$CHAMFERB
 40
0.0
  9
$CHAMFERC
 40
0.0
  9
$CHAMFERD
 40
0.0
  9
$SKPOLY
 70
     0
  9
$TDCREATE
 40
2457672.51775588
  9
$TDUCREATE
 40
2457672.434422546
  9
$TDUPDATE
 40
2457672.517757211
  9
$TDUUPDATE
 40
2457672.434423877
  9
$TDINDWG
 40
0.0000000116
  9
$TDUSRTIMER
 40
0.0000000116
  9
$USRTIMER
 70
     1
  9
$ANGBASE
 50
0.0
  9
$ANGDIR
 70
     0
  9
$PDMODE
 70
     0
  9
$PDSIZE
 40
-1.0
  9
$PLINEWID
 40
0.0
  9
$SPLFRAME
 70
     0
  9
$SPLINETYPE
 70
     6
  9
$SPLINESEGS
 70
     8
  9
$HANDSEED
  5
277
  9
$SURFTAB1
 70
     6
  9
$SURFTAB2
 70
     6
  9
$SURFTYPE
 70
     6
  9
$SURFU
 70
     6
  9
$SURFV
 70
     6
  9
$UCSBASE
  2

  9
$UCSNAME
  2

  9
$UCSORG
 10
0.0
 20
0.0
 30
0.0
  9
$UCSXDIR
 10
1.0
 20
0.0
 30
0.0
  9
$UCSYDIR
 10
0.0
 20
1.0
 30
0.0
  9
$UCSORTHOREF
  2

  9
$UCSORTHOVIEW
 70
     0
  9
$UCSORGTOP
 10
0.0
 20
0.0
 30
0.0
  9
$UCSORGBOTTOM
 10
0.0
 20
0.0
 30
0.0
  9
$UCSORGLEFT
 10
0.0
 20
0.0
 30
0.0
  9
$UCSORGRIGHT
 10
0.0
 20
0.0
 30
0.0
  9
$UCSORGFRONT
 10
0.0
 20
0.0
 30
0.0
  9
$UCSORGBACK
 10
0.0
 20
0.0
 30
0.0
  9
$PUCSBASE
  2

  9
$PUCSNAME
  2

  9
$PUCSORG
 10
0.0
 20
0.0
 30
0.0
  9
$PUCSXDIR
 10
1.0
 20
0.0
 30
0.0
  9
$PUCSYDIR
 10
0.0
 20
1.0
 30
0.0
  9
$PUCSORTHOREF
  2

  9
$PUCSORTHOVIEW
 70
     0
  9
$PUCSORGTOP
 10
0.0
 20
0.0
 30
0.0
  9
$PUCSORGBOTTOM
 10
0.0
 20
0.0
 30
0.0
  9
$PUCSORGLEFT
 10
0.0
 20
0.0
 30
0.0
  9
$PUCSORGRIGHT
 10
0.0
 20
0.0
 30
0.0
  9
$PUCSORGFRONT
 10
0.0
 20
0.0
 30
0.0
  9
$PUCSORGBACK
 10
0.0
 20
0.0
 30
0.0
  9
$USERI1
 70
     0
  9
$USERI2
 70
     0
  9
$USERI3
 70
     0
  9
$USERI4
 70
     0
  9
$USERI5
 70
     0
  9
$USERR1
 40
0.0
  9
$USERR2
 40
0.0
  9
$USERR3
 40
0.0
  9
$USERR4
 40
0.0
  9
$USERR5
 40
0.0
  9
$WORLDVIEW
 70
     1
  9
$SHADEDGE
 70
     3
  9
$SHADEDIF
 70
    70
  9
$TILEMODE
 70
     1
  9
$MAXACTVP
 70
    64
  9
$PINSBASE
 10
0.0
 20
0.0
 30
0.0
  9
$PLIMCHECK
 70
     0
  9
$PEXTMIN
 10
1.0000000000E+20
 20
1.0000000000E+20
 30
1.0000000000E+20
  9
$PEXTMAX
 10
-1.0000000000E+20
 20
-1.0000000000E+20
 30
-1.0000000000E+20
  9
$PLIMMIN
 10
0.0
 20
0.0
  9
$PLIMMAX
 10
420.0
 20
297.0
  9
$UNITMODE
 70
     0
  9
$VISRETAIN
 70
     1
  9
$PLINEGEN
 70
     0
  9
$PSLTSCALE
 70
     1
  9
$TREEDEPTH
 70
  3020
  9
$CMLSTYLE
  2
Standard
  9
$CMLJUST
 70
     0
  9
$CMLSCALE
 40
20.0
  9
$PROXYGRAPHICS
 70
     1
  9
$MEASUREMENT
 70
     1
  9
$CELWEIGHT
370
    -1
  9
$ENDCAPS
280
     0
  9
$JOINSTYLE
280
     0
  9
$LWDISPLAY
290
     1
  9
$INSUNITS
 70
     4
  9
$HYPERLINKBASE
  1

  9
$STYLESHEET
  1

  9
$XEDIT
290
     1
  9
$CEPSNTYPE
380
     0
  9
$PSTYLEMODE
290
     1
  9
$FINGERPRINTGUID
  2
{DDDB94D6-155C-442B-8612-A841B04FD691}
  9
$VERSIONGUID
  2
{FAEB1C32-E019-11D5-929B-00C0DF256EC4}
  9
$EXTNAMES
290
     1
  9
$PSVPSCALE
 40
0.0
  9
$OLESTARTUP
290
     0
  0
ENDSEC
  0
SECTION
  2
CLASSES
  0
CLASS
  1
ACDBDICTIONARYWDFLT
  2
AcDbDictionaryWithDefault
  3
ObjectDBX Classes
 90
        0
280
     0
281
     0
  0
CLASS
  1
VISUALSTYLE
  2
AcDbVisualStyle
  3
ObjectDBX Classes
 90
     4095
280
     0
281
     0
  0
CLASS
  1
MATERIAL
  2
AcDbMaterial
  3
ObjectDBX Classes
 90
     1153
280
     0
281
     0
  0
CLASS
  1
SCALE
  2
AcDbScale
  3
ObjectDBX Classes
 90
     1153
280
     0
281
     0
  0
CLASS
  1
TABLESTYLE
  2
AcDbTableStyle
  3
ObjectDBX Classes
 90
     4095
280
     0
281
     0
  0
CLASS
  1
MLEADERSTYLE
  2
AcDbMLeaderStyle
  3
ACDB_MLEADERSTYLE_CLASS
 90
     4095
280
     0
281
     0
  0
CLASS
  1
SUN
  2
AcDbSun
  3
SCENEOE
 90
     1153
280
     0
281
     0
  0
CLASS
  1
ACDBPLACEHOLDER
  2
AcDbPlaceHolder
  3
ObjectDBX Classes
 90
        0
280
     0
281
     0
  0
CLASS
  1
LAYOUT
  2
AcDbLayout
  3
ObjectDBX Classes
 90
        0
280
     0
281
     0
  0
ENDSEC
  0
SECTION
  2
TABLES
  0
TABLE
  2
VPORT
  5
8
330
0
100
AcDbSymbolTable
 70
     1
  0
VPORT
  5
29
330
8
100
AcDbSymbolTableRecord
100
AcDbViewportTableRecord
  2
*Active
 70
     0
 10
0.0
 20
0.0
 11
1.0
 21
1.0
 12
148.5
 22
105.0
 13
0.0
 23
0.0
 14
10.0
 24
10.0
 15
10.0
 25
10.0
 16
0.0
 26
0.0
 36
1.0
 17
0.0
 27
0.0
 37
0.0
 40
210.0
 41
1.4142857143
 42
50.0
 43
0.0
 44
0.0
 50
0.0
 51
0.0
 71
     0
 72
  2000
 73
     1
 74
     3
 75
     0
 76
     0
 77
     0
 78
     0
281
     0
 65
     1
110
0.0
120
0.0
130
0.0
111
1.0
121
0.0
131
0.0
112
0.0
122
1.0
132
0.0
 79
     0
146
0.0
  0
ENDTAB
  0
TABLE
  2
LTYPE
  5
5
330
0
100
AcDbSymbolTable
 70
     6
  0
LTYPE
  5
14
330
5
100
AcDbSymbolTableRecord
100
AcDbLinetypeTableRecord
  2
ByBlock
 70
     0
  3

 72
    65
 73
     0
 40
0.0
  0
LTYPE
  5
15
330
5
100
AcDbSymbolTableRecord
100
AcDbLinetypeTableRecord
  2
ByLayer
 70
     0
  3

 72
    65
 73
     0
 40
0.0
  0
LTYPE
  5
16
330
5
100
AcDbSymbolTableRecord
100
AcDbLinetypeTableRecord
  2
Continuous
 70
     0
  3
Solid line
 72
    65
 73
     0
 40
0.0
  0
LTYPE
  5
6E
330
5
100
AcDbSymbolTableRecord
100
AcDbLinetypeTableRecord
  2
HIDDEN
 70
     0
  3
Hidden __ __ __ __ __ __ __ __ __ __ __ __ __ __
 72
    65
 73
     2
 40
1.905
 49
1.27
 74
     0
 49
-0.635
 74
     0
  0
LTYPE
  5
6F
330
5
100
AcDbSymbolTableRecord
100
AcDbLinetypeTableRecord
  2
PHANTOM
 70
     0
  3
Phantom ______  __  __  ______  __  __  ______
 72
    65
 73
     6
 40
12.7
 49
6.35
 74
     0
 49
-1.27
 74
     0
 49
1.27
 74
     0
 49
-1.27
 74
     0
 49
1.27
 74
     0
 49
-1.27
 74
     0
  0
LTYPE
  5
70
330
5
100
AcDbSymbolTableRecord
100
AcDbLinetypeTableRecord
  2
CENTER
 70
     0
  3
Center ____ _ ____ _ ____ _ ____ _ ____ _ ____
 72
    65
 73
     4
 40
10.16
 49
6.35
 74
     0
 49
-1.27
 74
     0
 49
1.27
 74
     0
 49
-1.27
 74
     0
  0
LTYPE
  5
71
330
5
100
AcDbSymbolTableRecord
100
AcDbLinetypeTableRecord
  2
CENTERX2
 70
     0
  3
Center (2x) ________  __  ________  __  _____
 72
    65
 73
     4
 40
20.32
 49
12.7
 74
     0
 49
-2.54
 74
     0
 49
2.54
 74
     0
 49
-2.54
 74
     0
  0
LTYPE
  5
72
330
5
100
AcDbSymbolTableRecord
100
AcDbLinetypeTableRecord
  2
DOT2
 70
     0
  3
Dot (.5x) ........................................
 72
    65
 73
     2
 40
0.635
 49
0.0
 74
     0
 49
-0.635
 74
     0
  0
ENDTAB
  0
TABLE
  2
LAYER
  5
2
330
0
100
AcDbSymbolTable
 70
     5
  0
LAYER
  5
10
330
2
100
AcDbSymbolTableRecord
100
AcDbLayerTableRecord
  2
0
 70
     0
 62
     7
  6
Continuous
370
    -3
390
F
  0
LAYER
  5
73
330
2
100
AcDbSymbolTableRecord
100
AcDbLayerTableRecord
  2
FORMAT
 70
     0
 62
     7
  6
Continuous
370
    -3
390
F
  0
LAYER
  5
74
330
2
100
AcDbSymbolTableRecord
100
AcDbLayerTableRecord
  2
VERMASSUNG
 70
     0
 62
     7
  6
Continuous
370
    -3
390
F
  0
LAYER
  5
75
330
2
100
AcDbSymbolTableRecord
100
AcDbLayerTableRecord
  2
KOPF_DÜNN
 70
     0
 62
     7
  6
Continuous
370
    -3
390
F
  0
LAYER
  5
76
330
2
100
AcDbSymbolTableRecord
100
AcDbLayerTableRecord
  2
KOPF_DICK
 70
     0
 62
     7
  6
Continuous
370
    15
390
F
  0
ENDTAB
  0
TABLE
  2
STYLE
  5
3
330
0
100
AcDbSymbolTable
 70
     3
  0
STYLE
  5
11
330
3
100
AcDbSymbolTableRecord
100
AcDbTextStyleTableRecord
  2
Standard
 70
     0
 40
0.0
 41
1.0
 50
0.0
 71
     0
 42
2.0
  3
txt
  4

  0
STYLE
  5
77
330
3
100
AcDbSymbolTableRecord
100
AcDbTextStyleTableRecord
  2
SLDTEXTSTYLE0
 70
     0
 40
0.0
 41
0.7
 50
0.0
 71
     0
 42
2.0
  3
TXT
  4

  0
STYLE
  5
7B
330
3
100
AcDbSymbolTableRecord
100
AcDbTextStyleTableRecord
  2
SLDTEXTSTYLE1
 70
     0
 40
0.0
 41
0.6454545455
 50
0.0
 71
     0
 42
2.0
  3
TXT
  4

  0
ENDTAB
  0
TABLE
  2
VIEW
  5
6
330
0
100
AcDbSymbolTable
 70
     0
  0
ENDTAB
  0
TABLE
  2
UCS
  5
7
330
0
100
AcDbSymbolTable
 70
     0
  0
ENDTAB
  0
TABLE
  2
APPID
  5
9
330
0
100
AcDbSymbolTable
 70
     1
  0
APPID
  5
12
330
9
100
AcDbSymbolTableRecord
100
AcDbRegAppTableRecord
  2
ACAD
 70
     0
  0
ENDTAB
  0
TABLE
  2
DIMSTYLE
  5
A
330
0
100
AcDbSymbolTable
 70
     2
100
AcDbDimStyleTable
  0
DIMSTYLE
105
27
330
A
100
AcDbSymbolTableRecord
100
AcDbDimStyleTableRecord
  2
ISO-25
 70
     0
 41
2.5
 42
0.625
 43
3.75
 44
1.25
 73
     0
 74
     0
 77
     1
 78
     8
140
2.5
141
2.5
143
0.0393700787
147
0.625
171
     3
172
     1
178
     0
271
     2
272
     2
274
     3
278
    44
283
     0
284
     8
340
11
  0
DIMSTYLE
105
19D
102
{ACAD_REACTORS
330
19C
330
1A8
330
1B4
330
1C0
330
1CA
330
1D6
102
}
330
A
100
AcDbSymbolTableRecord
100
AcDbDimStyleTableRecord
  2
SLDDIMSTYLE0
 70
     0
 41
3.0
 44
0.0
 45
0.000000001
 73
     0
 74
     0
 77
     1
 78
    12
 79
     3
140
2.0
147
0.5
173
     1
178
     0
271
     2
272
     3
276
     2
284
    12
340
77
  0
ENDTAB
  0
TABLE
  2
BLOCK_RECORD
  5
1
330
0
100
AcDbSymbolTable
 70
     7
  0
BLOCK_RECORD
  5
1F
330
1
100
AcDbSymbolTableRecord
100
AcDbBlockTableRecord
  2
*Model_Space
340
22
  0
BLOCK_RECORD
  5
1B
330
1
100
AcDbSymbolTableRecord
100
AcDbBlockTableRecord
  2
*Paper_Space
340
1E
  0
BLOCK_RECORD
  5
23
330
1
100
AcDbSymbolTableRecord
100
AcDbBlockTableRecord
  2
*Paper_Space0
340
26
  0
BLOCK_RECORD
  5
19E
330
1
100
AcDbSymbolTableRecord
100
AcDbBlockTableRecord
  2
_D
340
0
  0
BLOCK_RECORD
  5
1A9
330
1
100
AcDbSymbolTableRecord
100
AcDbBlockTableRecord
  2
_D_1
340
0
  0
BLOCK_RECORD
  5
1B5
330
1
100
AcDbSymbolTableRecord
100
AcDbBlockTableRecord
  2
_D_2
340
0
  0
BLOCK_RECORD
  5
1C1
330
1
100
AcDbSymbolTableRecord
100
AcDbBlockTableRecord
  2
_D_3
340
0
  0
BLOCK_RECORD
  5
1CB
330
1
100
AcDbSymbolTableRecord
100
AcDbBlockTableRecord
  2
_D_4
340
0
  0
BLOCK_RECORD
  5
1D7
330
1
100
AcDbSymbolTableRecord
100
AcDbBlockTableRecord
  2
_D_5
340
0
  0
ENDTAB
  0
ENDSEC
  0
SECTION
  2
BLOCKS
  0
BLOCK
  5
20
330
1F
100
AcDbEntity
  8
0
100
AcDbBlockBegin
  2
*Model_Space
 70
     0
 10
0.0
 20
0.0
 30
0.0
  3
*Model_Space
  1

  0
ENDBLK
  5
21
330
1F
100
AcDbEntity
  8
0
100
AcDbBlockEnd
  0
BLOCK
  5
1C
330
1B
100
AcDbEntity
 67
     1
  8
0
100
AcDbBlockBegin
  2
*Paper_Space
 70
     0
 10
0.0
 20
0.0
 30
0.0
  3
*Paper_Space
  1

  0
ENDBLK
  5
1D
330
1B
100
AcDbEntity
 67
     1
  8
0
100
AcDbBlockEnd
  0
BLOCK
  5
24
330
23
100
AcDbEntity
  8
0
100
AcDbBlockBegin
  2
*Paper_Space0
 70
     0
 10
0.0
 20
0.0
 30
0.0
  3
*Paper_Space0
  1

  0
ENDBLK
  5
25
330
23
100
AcDbEntity
  8
0
100
AcDbBlockEnd
  0
BLOCK
  5
19F
330
19E
100
AcDbEntity
  8
0
100
AcDbBlockBegin
  2
_D
 70
     0
 10
0.0
 20
0.0
 30
0.0
  3
_D
  1

  0
SOLID
  5
1A1
330
19E
100
AcDbEntity
  8
VERMASSUNG
100
AcDbTrace
 10
233.4025305595
 20
122.0322700148
 30
0.0
 11
232.9525305595
 21
119.0322700148
 31
0.0
 12
233.8525305595
 22
119.0322700148
 32
0.0
 13
233.8525305595
 23
119.0322700148
 33
0.0
  0
SOLID
  5
1A2
330
19E
100
AcDbEntity
  8
VERMASSUNG
100
AcDbTrace
 10
233.4025305595
 20
111.0322700148
 30
0.0
 11
233.8525305595
 21
114.0322700148
 31
0.0
 12
232.9525305595
 22
114.0322700148
 32
0.0
 13
232.9525305595
 23
114.0322700148
 33
0.0
  0
LINE
  5
1A3
330
19E
100
AcDbEntity
  8
VERMASSUNG
100
AcDbLine
 10
219.4386124758
 20
122.0322700148
 30
0.0
 11
234.4025305595
 21
122.0322700148
 31
0.0
  0
LINE
  5
1A4
330
19E
100
AcDbEntity
  8
VERMASSUNG
100
AcDbLine
 10
219.4386124758
 20
111.0322700148
 30
0.0
 11
234.4025305595
 21
111.0322700148
 31
0.0
  0
LINE
  5
1A5
330
19E
100
AcDbEntity
  8
VERMASSUNG
100
AcDbLine
 10
233.4025305595
 20
122.0322700148
 30
0.0
 11
233.4025305595
 21
111.0322700148
 31
0.0
  0
MTEXT
  5
1A6
330
19E
100
AcDbEntity
  8
VERMASSUNG
100
AcDbMText
 10
230.8243950217
 20
113.7284780477
 30
0.0
 40
2.0
 41
0.0
 71
     1
 72
     1
  1
%%c
  7
SLDTEXTSTYLE0
 11
-7.044195017643634E-15
 21
1.0
 31
0.0
 73
     1
 44
1.0
  0
MTEXT
  5
1A7
330
19E
100
AcDbEntity
  8
VERMASSUNG
100
AcDbMText
 10
230.8243949635
 20
117.3374502414
 30
0.0
 40
2.0
 41
0.0
 71
     1
 72
     1
  1
11
  7
SLDTEXTSTYLE0
 11
-7.044195017643634E-15
 21
1.0
 31
0.0
 73
     1
 44
1.0
  0
ENDBLK
  5
1A0
330
19E
100
AcDbEntity
  8
0
100
AcDbBlockEnd
  0
BLOCK
  5
1AA
330
1A9
100
AcDbEntity
  8
0
100
AcDbBlockBegin
  2
_D_1
 70
     0
 10
0.0
 20
0.0
 30
0.0
  3
_D_1
  1

  0
SOLID
  5
1AC
330
1A9
100
AcDbEntity
  8
VERMASSUNG
100
AcDbTrace
 10
239.5025305595
 20
126.5322700148
 30
0.0
 11
239.0525305595
 21
123.5322700148
 31
0.0
 12
239.9525305595
 22
123.5322700148
 32
0.0
 13
239.9525305595
 23
123.5322700148
 33
0.0
  0
SOLID
  5
1AD
330
1A9
100
AcDbEntity
  8
VERMASSUNG
100
AcDbTrace
 10
239.5025305595
 20
106.5322700148
 30
0.0
 11
239.9525305595
 21
109.5322700148
 31
0.0
 12
239.0525305595
 22
109.5322700148
 32
0.0
 13
239.0525305595
 23
109.5322700148
 33
0.0
  0
LINE
  5
1AE
330
1A9
100
AcDbEntity
  8
VERMASSUNG
100
AcDbLine
 10
225.1386124758
 20
126.5322700148
 30
0.0
 11
240.5025305595
 21
126.5322700148
 31
0.0
  0
LINE
  5
1AF
330
1A9
100
AcDbEntity
  8
VERMASSUNG
100
AcDbLine
 10
225.1386124758
 20
106.5322700148
 30
0.0
 11
240.5025305595
 21
106.5322700148
 31
0.0
  0
LINE
  5
1B0
330
1A9
100
AcDbEntity
  8
VERMASSUNG
100
AcDbLine
 10
239.5025305595
 20
126.5322700148
 30
0.0
 11
239.5025305595
 21
106.5322700148
 31
0.0
  0
MTEXT
  5
1B1
330
1A9
100
AcDbEntity
  8
VERMASSUNG
100
AcDbMText
 10
236.7243953033
 20
110.6279826821
 30
0.0
 40
2.0
 41
0.0
 71
     1
 72
     1
  1
ST1
  7
SLDTEXTSTYLE0
 11
-7.044195017643634E-15
 21
1.0
 31
0.0
 73
     1
 44
1.0
  0
MTEXT
  5
1B2
330
1A9
100
AcDbEntity
  8
VERMASSUNG
100
AcDbMText
 10
236.9243952546
 20
116.0279828222
 30
0.0
 40
2.0
 41
0.0
 71
     1
 72
     1
  1
%%c
  7
SLDTEXTSTYLE0
 11
-7.044195017643634E-15
 21
1.0
 31
0.0
 73
     1
 44
1.0
  0
MTEXT
  5
1B3
330
1A9
100
AcDbEntity
  8
VERMASSUNG
100
AcDbMText
 10
236.9243949635
 20
119.6371773268
 30
0.0
 40
2.0
 41
0.0
 71
     1
 72
     1
  1
20
  7
SLDTEXTSTYLE0
 11
-7.044195017643634E-15
 21
1.0
 31
0.0
 73
     1
 44
1.0
  0
ENDBLK
  5
1AB
330
1A9
100
AcDbEntity
  8
0
100
AcDbBlockEnd
  0
BLOCK
  5
1B6
330
1B5
100
AcDbEntity
  8
0
100
AcDbBlockBegin
  2
_D_2
 70
     0
 10
0.0
 20
0.0
 30
0.0
  3
_D_2
  1

  0
ARC
  5
1B8
330
1B5
100
AcDbEntity
  8
VERMASSUNG
100
AcDbCircle
 10
213.6501083563
 20
172.8402094321
 30
0.0
 40
4.247059938537386
100
AcDbArc
 50
153.4349488229
 51
206.5650511771
  0
ARC
  5
1B9
330
1B5
100
AcDbEntity
  8
VERMASSUNG
100
AcDbCircle
 10
212.0271165952
 20
172.8402094321
 30
0.0
 40
4.247059938537361
100
AcDbArc
 50
333.4349488229
 51
26.5650511771
  0
SOLID
  5
1BA
330
1B5
100
AcDbEntity
  8
VERMASSUNG
100
AcDbTrace
 10
200.3386124758
 20
170.9408664867
 30
0.0
 11
203.3386124758
 21
170.4908664867
 31
0.0
 12
203.3386124758
 22
171.3908664867
 32
0.0
 13
203.3386124758
 23
171.3908664867
 33
0.0
  0
SOLID
  5
1BB
330
1B5
100
AcDbEntity
  8
VERMASSUNG
100
AcDbTrace
 10
225.3386124758
 20
170.9408664867
 30
0.0
 11
222.3386124758
 21
171.3908664867
 31
0.0
 12
222.3386124758
 22
170.4908664867
 32
0.0
 13
222.3386124758
 23
170.4908664867
 33
0.0
  0
LINE
  5
1BC
330
1B5
100
AcDbEntity
  8
VERMASSUNG
100
AcDbLine
 10
200.3386124758
 20
165.5322700148
 30
0.0
 11
200.3386124758
 21
171.9408664867
 31
0.0
  0
LINE
  5
1BD
330
1B5
100
AcDbEntity
  8
VERMASSUNG
100
AcDbLine
 10
225.3386124758
 20
126.3322700148
 30
0.0
 11
225.3386124758
 21
171.9408664867
 31
0.0
  0
LINE
  5
1BE
330
1B5
100
AcDbEntity
  8
VERMASSUNG
100
AcDbLine
 10
200.3386124758
 20
170.9408664867
 30
0.0
 11
225.3386124758
 21
170.9408664867
 31
0.0
  0
MTEXT
  5
1BF
330
1B5
100
AcDbEntity
  8
VERMASSUNG
100
AcDbMText
 10
211.4389224655
 20
173.5190020826
 30
0.0
 40
2.0
 41
0.0
 71
     1
 72
     1
  1
25
  7
SLDTEXTSTYLE0
 73
     1
 44
1.0
  0
ENDBLK
  5
1B7
330
1B5
100
AcDbEntity
  8
0
100
AcDbBlockEnd
  0
BLOCK
  5
1C2
330
1C1
100
AcDbEntity
  8
0
100
AcDbBlockBegin
  2
_D_3
 70
     0
 10
0.0
 20
0.0
 30
0.0
  3
_D_3
  1

  0
SOLID
  5
1C4
330
1C1
100
AcDbEntity
  8
VERMASSUNG
100
AcDbTrace
 10
162.3386124758
 20
176.9408664867
 30
0.0
 11
165.3386124758
 21
176.4908664867
 31
0.0
 12
165.3386124758
 22
177.3908664867
 32
0.0
 13
165.3386124758
 23
177.3908664867
 33
0.0
  0
SOLID
  5
1C5
330
1C1
100
AcDbEntity
  8
VERMASSUNG
100
AcDbTrace
 10
225.3386124758
 20
176.9408664867
 30
0.0
 11
222.3386124758
 21
177.3908664867
 31
0.0
 12
222.3386124758
 22
176.4908664867
 32
0.0
 13
222.3386124758
 23
176.4908664867
 33
0.0
  0
LINE
  5
1C6
330
1C1
100
AcDbEntity
  8
VERMASSUNG
100
AcDbLine
 10
162.3386124758
 20
151.4572700148
 30
0.0
 11
162.3386124758
 21
177.9408664867
 31
0.0
  0
LINE
  5
1C7
330
1C1
100
AcDbEntity
  8
VERMASSUNG
100
AcDbLine
 10
225.3386124758
 20
126.3322700148
 30
0.0
 11
225.3386124758
 21
177.9408664867
 31
0.0
  0
LINE
  5
1C8
330
1C1
100
AcDbEntity
  8
VERMASSUNG
100
AcDbLine
 10
162.3386124758
 20
176.9408664867
 30
0.0
 11
225.3386124758
 21
176.9408664867
 31
0.0
  0
MTEXT
  5
1C9
330
1C1
100
AcDbEntity
  8
VERMASSUNG
100
AcDbMText
 10
192.4389224655
 20
179.5190020826
 30
0.0
 40
2.0
 41
0.0
 71
     1
 72
     1
  1
63
  7
SLDTEXTSTYLE0
 73
     1
 44
1.0
  0
ENDBLK
  5
1C3
330
1C1
100
AcDbEntity
  8
0
100
AcDbBlockEnd
  0
BLOCK
  5
1CC
330
1CB
100
AcDbEntity
  8
0
100
AcDbBlockBegin
  2
_D_4
 70
     0
 10
0.0
 20
0.0
 30
0.0
  3
_D_4
  1

  0
ARC
  5
1CE
330
1CB
100
AcDbEntity
  8
VERMASSUNG
100
AcDbCircle
 10
142.1507777693
 20
184.8402094321
 30
0.0
 40
4.247059938537284
100
AcDbArc
 50
153.4349488229
 51
206.5650511771
  0
ARC
  5
1CF
330
1CB
100
AcDbEntity
  8
VERMASSUNG
100
AcDbCircle
 10
143.7264471822
 20
184.8402094321
 30
0.0
 40
4.24705993853731
100
AcDbArc
 50
333.4349488229
 51
26.5650511771
  0
SOLID
  5
1D0
330
1CB
100
AcDbEntity
  8
VERMASSUNG
100
AcDbTrace
 10
60.5386124758
 20
182.9408664867
 30
0.0
 11
63.5386124758
 21
182.4908664867
 31
0.0
 12
63.5386124758
 22
183.3908664867
 32
0.0
 13
63.5386124758
 23
183.3908664867
 33
0.0
  0
SOLID
  5
1D1
330
1CB
100
AcDbEntity
  8
VERMASSUNG
100
AcDbTrace
 10
225.3386124758
 20
182.9408664867
 30
0.0
 11
222.3386124758
 21
183.3908664867
 31
0.0
 12
222.3386124758
 22
182.4908664867
 32
0.0
 13
222.3386124758
 23
182.4908664867
 33
0.0
  0
LINE
  5
1D2
330
1CB
100
AcDbEntity
  8
VERMASSUNG
100
AcDbLine
 10
60.5386124758
 20
134.8819478755
 30
0.0
 11
60.5386124758
 21
183.9408664867
 31
0.0
  0
LINE
  5
1D3
330
1CB
100
AcDbEntity
  8
VERMASSUNG
100
AcDbLine
 10
225.3386124758
 20
126.3322700148
 30
0.0
 11
225.3386124758
 21
183.9408664867
 31
0.0
  0
LINE
  5
1D4
330
1CB
100
AcDbEntity
  8
VERMASSUNG
100
AcDbLine
 10
60.5386124758
 20
182.9408664867
 30
0.0
 11
225.3386124758
 21
182.9408664867
 31
0.0
  0
MTEXT
  5
1D5
330
1CB
100
AcDbEntity
  8
VERMASSUNG
100
AcDbMText
 10
139.9395918784
 20
185.5190020826
 30
0.0
 40
2.0
 41
0.0
 71
     1
 72
     1
  1
164.8
  7
SLDTEXTSTYLE0
 73
     1
 44
1.0
  0
ENDBLK
  5
1CD
330
1CB
100
AcDbEntity
  8
0
100
AcDbBlockEnd
  0
BLOCK
  5
1D8
330
1D7
100
AcDbEntity
  8
0
100
AcDbBlockBegin
  2
_D_5
 70
     0
 10
0.0
 20
0.0
 30
0.0
  3
_D_5
  1

  0
SOLID
  5
1DA
330
1D7
100
AcDbEntity
  8
VERMASSUNG
100
AcDbTrace
 10
50.5386124757
 20
166.5322700148
 30
0.0
 11
50.0886124757
 21
163.5322700148
 31
0.0
 12
50.9886124757
 22
163.5322700148
 32
0.0
 13
50.9886124757
 23
163.5322700148
 33
0.0
  0
SOLID
  5
1DB
330
1D7
100
AcDbEntity
  8
VERMASSUNG
100
AcDbTrace
 10
50.5386124757
 20
66.5322700148
 30
0.0
 11
50.9886124757
 21
69.5322700148
 31
0.0
 12
50.0886124757
 22
69.5322700148
 32
0.0
 13
50.0886124757
 23
69.5322700148
 33
0.0
  0
LINE
  5
1DC
330
1D7
100
AcDbEntity
  8
VERMASSUNG
100
AcDbLine
 10
196.3386143843
 20
166.5322700148
 30
0.0
 11
49.5386124757
 21
166.5322700148
 31
0.0
  0
LINE
  5
1DD
330
1D7
100
AcDbEntity
  8
VERMASSUNG
100
AcDbLine
 10
196.3386145378
 20
66.5322700148
 30
0.0
 11
49.5386124757
 21
66.5322700148
 31
0.0
  0
LINE
  5
1DE
330
1D7
100
AcDbEntity
  8
VERMASSUNG
100
AcDbLine
 10
50.5386124757
 20
166.5322700148
 30
0.0
 11
50.5386124757
 21
66.5322700148
 31
0.0
  0
MTEXT
  5
1DF
330
1D7
100
AcDbEntity
  8
VERMASSUNG
100
AcDbMText
 10
47.7604772195
 20
105.4285037944
 30
0.0
 40
2.0
 41
0.0
 71
     1
 72
     1
  1
MAS BT 50
  7
SLDTEXTSTYLE0
 11
-7.044195017643634E-15
 21
1.0
 31
0.0
 73
     1
 44
1.0
  0
MTEXT
  5
1E0
330
1D7
100
AcDbEntity
  8
VERMASSUNG
100
AcDbMText
 10
47.9604771708
 20
120.2285037989
 30
0.0
 40
2.0
 41
0.0
 71
     1
 72
     1
  1
%%c
  7
SLDTEXTSTYLE0
 11
-7.044195017643634E-15
 21
1.0
 31
0.0
 73
     1
 44
1.0
  0
MTEXT
  5
1E1
330
1D7
100
AcDbEntity
  8
VERMASSUNG
100
AcDbMText
 10
47.9604768797
 20
123.8373503443
 30
0.0
 40
2.0
 41
0.0
 71
     1
 72
     1
  1
100
  7
SLDTEXTSTYLE0
 11
-7.044195017643634E-15
 21
1.0
 31
0.0
 73
     1
 44
1.0
  0
ENDBLK
  5
1D9
330
1D7
100
AcDbEntity
  8
0
100
AcDbBlockEnd
  0
ENDSEC
  0
SECTION
  2
ENTITIES
  0
MTEXT
  5
78
330
1F
100
AcDbEntity
  8
KOPF_DÜNN
100
AcDbMText
 10
13.8892156294
 20
23.8442973028
 30
0.0
 40
3.0
 41
0.0
 71
     1
 72
     1
  1
134.650.020.063
  7
SLDTEXTSTYLE0
 73
     1
 44
1.0
  0
MTEXT
  5
79
330
1F
100
AcDbEntity
  8
VERMASSUNG
100
AcDbMText
 10
13.9329988022
 20
28.8834360957
 30
0.0
 40
3.0
 41
0.0
 71
     1
 72
     1
  1
Aufnahme_Master shank ST1
  7
SLDTEXTSTYLE0
 73
     1
 44
1.0
  0
MTEXT
  5
7A
330
1F
100
AcDbEntity
  8
VERMASSUNG
100
AcDbMText
 10
98.8601118557
 20
13.8365368761
 30
0.0
 40
2.0
 41
0.0
 71
     1
 72
     1
  1
Datum: 06.06.2008
  7
SLDTEXTSTYLE0
 73
     1
 44
1.0
  0
MTEXT
  5
7C
330
1F
100
AcDbEntity
  8
VERMASSUNG
100
AcDbMText
 10
13.933048693
 20
18.0482802738
 30
0.0
 40
2.0
 41
0.0
 71
     1
 72
     1
  1
MAS BT 50 B
  7
SLDTEXTSTYLE1
 73
     1
 44
1.0
  0
MTEXT
  5
7D
330
1F
100
AcDbEntity
  8
VERMASSUNG
100
AcDbMText
 10
13.9808475933
 20
13.9090974274
 30
0.0
 40
2.0
 41
0.0
 71
     1
 72
     1
  1
Gewicht: 3717g
  7
SLDTEXTSTYLE0
 73
     1
 44
1.0
  0
LINE
  5
7E
330
1F
100
AcDbEntity
  8
0
  6
Continuous
 62
     7
370
    15
100
AcDbLine
 10
196.338325249
 20
66.5322700148
 30
0.0
 11
199.3386124758
 21
66.5322700148
 31
0.0
  0
LINE
  5
7F
330
1F
100
AcDbEntity
  8
0
  6
Continuous
 62
     7
370
    15
100
AcDbLine
 10
199.3386124758
 20
166.5322700148
 30
0.0
 11
196.3381782948
 21
166.5322700148
 31
0.0
  0
ARC
  5
80
330
1F
100
AcDbEntity
  8
0
  6
Continuous
 62
     7
370
    15
100
AcDbCircle
 10
199.3386124758
 20
67.5322700148
 30
0.0
 40
1.0
100
AcDbArc
 50
270.0
 51
0.0
  0
ARC
  5
81
330
1F
100
AcDbEntity
  8
0
  6
Continuous
 62
     7
370
    15
100
AcDbCircle
 10
199.3386124758
 20
165.5322700148
 30
0.0
 40
1.000000000000028
100
AcDbArc
 50
0.0
 51
90.0
  0
ARC
  5
82
330
1F
100
AcDbEntity
  8
0
  6
Continuous
 62
     7
370
    15
100
AcDbCircle
 10
164.3386124758
 20
80.6072700148
 30
0.0
 40
1.000000000000006
100
AcDbArc
 50
38.722340444
 51
90.0
  0
ARC
  5
83
330
1F
100
AcDbEntity
  8
0
  6
Continuous
 62
     7
370
    15
100
AcDbCircle
 10
164.3386124758
 20
152.4572700148
 30
0.0
 40
1.000000000000008
100
AcDbArc
 50
270.0
 51
321.290895072
  0
LINE
  5
84
330
1F
100
AcDbEntity
  8
0
  6
Continuous
 62
     7
370
    15
100
AcDbLine
 10
162.3386124758
 20
81.6072700148
 30
0.0
 11
164.3386124758
 21
81.6072700148
 31
0.0
  0
LINE
  5
85
330
1F
100
AcDbEntity
  8
0
  6
Continuous
 62
     7
370
    15
100
AcDbLine
 10
164.3386124758
 20
151.4572700148
 30
0.0
 11
162.3386124758
 21
151.4572700148
 31
0.0
  0
LINE
  5
86
330
1F
100
AcDbEntity
  8
0
  6
Continuous
 62
     7
370
    15
100
AcDbLine
 10
162.3386124758
 20
151.4572700148
 30
0.0
 11
62.2499986896
 21
136.8610138376
 31
0.0
  0
LINE
  5
87
330
1F
100
AcDbEntity
  8
0
  6
Continuous
 62
     7
370
    15
100
AcDbLine
 10
62.2499986896
 20
96.2035261919
 30
0.0
 11
162.3386124758
 21
81.6072700148
 31
0.0
  0
ARC
  5
88
330
1F
100
AcDbEntity
  8
0
  6
Continuous
 62
     7
370
    15
100
AcDbCircle
 10
62.5386124758
 20
98.1825921541
 30
0.0
 40
2.000000000000007
100
AcDbArc
 50
180.0
 51
261.7028550302
  0
ARC
  5
89
330
1F
100
AcDbEntity
  8
0
  6
Continuous
 62
     7
370
    15
100
AcDbCircle
 10
62.5386124758
 20
134.8819478755
 30
0.0
 40
2.0
100
AcDbArc
 50
98.2971449698
 51
180.0
  0
ARC
  5
8A
330
1F
100
AcDbEntity
  8
0
  6
Continuous
 62
     7
370
    15
100
AcDbCircle
 10
204.3386124758
 20
102.5322700148
 30
0.0
 40
4.0
100
AcDbArc
 50
90.0
 51
180.0
  0
ARC
  5
8B
330
1F
100
AcDbEntity
  8
0
  6
Continuous
 62
     7
370
    15
100
AcDbCircle
 10
204.3386124758
 20
130.5322700148
 30
0.0
 40
4.0
100
AcDbArc
 50
180.0
 51
270.0
  0
LINE
  5
8C
330
1F
100
AcDbEntity
  8
0
  6
Continuous
 62
     7
370
    15
100
AcDbLine
 10
225.1386124758
 20
106.5322700148
 30
0.0
 11
225.3386124758
 21
106.7322700148
 31
0.0
  0
LINE
  5
8D
330
1F
100
AcDbEntity
  8
0
  6
Continuous
 62
     7
370
    15
100
AcDbLine
 10
225.3386124758
 20
126.3322700148
 30
0.0
 11
225.1386124758
 21
126.5322700148
 31
0.0
  0
LINE
  5
8E
330
1F
100
AcDbEntity
  8
0
  6
Continuous
 62
     7
370
    15
100
AcDbLine
 10
225.1386124758
 20
126.5322700148
 30
0.0
 11
204.3386124758
 21
126.5322700148
 31
0.0
  0
LINE
  5
8F
330
1F
100
AcDbEntity
  8
0
  6
Continuous
 62
     7
370
    15
100
AcDbLine
 10
204.3386124758
 20
106.5322700148
 30
0.0
 11
225.1386124758
 21
106.5322700148
 31
0.0
  0
LWPOLYLINE
  5
90
330
1F
100
AcDbEntity
  8
0
  6
Continuous
 62
     7
370
    15
100
AcDbPolyline
 90
       22
 70
   128
 43
0.0
 10
184.0778021106
 20
103.8393864987
 10
183.564613098
 20
103.3528942208
 10
183.2268225929
 20
102.7458727157
 10
183.0944447639
 20
102.072258508
 10
183.1792419623
 20
101.391905176
 10
183.4736795846
 20
100.7652650992
 10
183.9515955562
 20
100.2480179981
 10
184.5705249456
 20
99.8861235478
 10
185.2754731604
 20
99.7117376582
 10
186.0038024581
 20
99.7403552808
 10
186.6907975845
 20
99.9694336145
 10
187.2754160077
 20
100.3786180438
 10
187.7057118152
 20
100.9315507367
 10
187.9434513363
 20
101.5791011967
 10
187.9675103711
 20
102.2637317239
 10
187.7757511689
 20
102.9246098914
 10
187.3852123763
 20
103.5030137738
 10
186.8305950788
 20
103.9475496479
 10
186.1611794573
 20
104.2187185505
 10
185.4364460274
 20
104.2924259345
 10
184.7207905348
 20
104.1621225755
 10
184.0778021106
 20
103.8393864987
  0
LINE
  5
91
330
1F
100
AcDbEntity
  8
0
  6
Continuous
 62
     7
370
    15
100
AcDbLine
 10
184.8529544146
 20
100.5017788184
 30
0.0
 11
186.5732466089
 21
100.6911094306
 31
0.0
  0
LINE
  5
92
330
1F
100
AcDbEntity
  8
0
  6
Continuous
 62
     7
370
    15
100
AcDbLine
 10
187.25890467
 20
102.1857445356
 30
0.0
 11
186.5732466089
 21
100.6911094306
 31
0.0
  0
LINE
  5
93
330
1F
100
AcDbEntity
  8
0
  6
Continuous
 62
     7
370
    15
100
AcDbLine
 10
186.2242705369
 20
103.4910490285
 30
0.0
 11
187.25890467
 21
102.1857445356
 31
0.0
  0
LINE
  5
94
330
1F
100
AcDbEntity
  8
0
  6
Continuous
 62
     7
370
    15
100
AcDbLine
 10
186.2242705369
 20
103.4910490285
 30
0.0
 11
184.5039783426
 21
103.3017184163
 31
0.0
  0
LINE
  5
95
330
1F
100
AcDbEntity
  8
0
  6
Continuous
 62
     7
370
    15
100
AcDbLine
 10
183.8183202815
 20
101.8070833113
 30
0.0
 11
184.5039783426
 21
103.3017184163
 31
0.0
  0
LINE
  5
96
330
1F
100
AcDbEntity
  8
0
  6
Continuous
 62
     7
370
    15
100
AcDbLine
 10
183.8183202815
 20
101.8070833113
 30
0.0
 11
184.8529544146
 21
100.5017788184
 31
0.0
  0
LINE
  5
97
330
1F
100
AcDbEntity
  8
0
  6
Continuous
 62
     7
370
    15
100
AcDbLine
 10
186.5732466089
 20
101.3751497172
 30
0.0
 11
186.5732466089
 21
100.6911094306
 31
0.0
  0
LINE
  5
98
330
1F
100
AcDbEntity
  8
0
  6
Continuous
 62
     7
370
    15
100
AcDbLine
 10
187.0601403782
 20
102.4365075008
 30
0.0
 11
186.5732466089
 21
101.3751497172
 31
0.0
  0
LINE
  5
99
330
1F
100
AcDbEntity
  8
0
  6
Continuous
 62
     7
370
    15
100
AcDbLine
 10
184.0170845733
 20
102.2403606327
 30
0.0
 11
184.8529544146
 21
101.1858191051
 31
0.0
  0
LINE
  5
9A
330
1F
100
AcDbEntity
  8
0
  6
Continuous
 62
     7
370
    15
100
AcDbLine
 10
184.8529544146
 20
101.1858191051
 30
0.0
 11
184.8529544146
 21
100.5017788184
 31
0.0
  0
LINE
  5
9B
330
1F
100
AcDbEntity
  8
0
  6
Continuous
 62
     7
370
    15
100
AcDbLine
 10
184.8529544146
 20
101.1858191051
 30
0.0
 11
186.5732466089
 21
101.3751497172
 31
0.0
  0
SPLINE
  5
9C
330
1F
100
AcDbEntity
  8
0
  6
Continuous
 62
     7
370
    15
100
AcDbSpline
210
0.0
220
0.0
230
1.0
 70
    24
 71
     3
 72
    11
 73
     7
 74
     0
 42
0.000000001
 43
0.00000001
 40
0.0
 40
0.0
 40
0.0
 40
0.0
 40
0.1208913875340461
 40
0.4766714197330202
 40
0.8143663490172414
 40
1.0
 40
1.0
 40
1.0
 40
1.0
 10
219.1460182631273
 20
116.3655013168932
 30
0.0
 10
219.1621733091052
 20
116.4061054831037
 30
0.0
 10
219.2258722115598
 20
116.5662065949318
 30
0.0
 10
219.3460026585234
 20
116.8681430079956
 30
0.0
 10
219.4776448596065
 20
117.1990131163446
 30
0.0
 10
219.547950736428
 20
117.3757202276672
 30
0.0
 10
219.5728894405081
 20
117.4384012801958
 30
0.0
  0
SPLINE
  5
9D
330
1F
100
AcDbEntity
  8
0
  6
Continuous
 62
     7
370
    15
100
AcDbSpline
210
0.0
220
0.0
230
1.0
 70
    24
 71
     3
 72
    10
 73
     6
 74
     0
 42
0.000000001
 43
0.00000001
 40
0.0
 40
0.0
 40
0.0
 40
0.0
 40
0.4391051671061753
 40
0.7513578980692871
 40
1.0
 40
1.0
 40
1.0
 40
1.0
 10
219.8617412983763
 20
115.4593700514867
 30
0.0
 10
219.7592829112768
 20
115.5890860776332
 30
0.0
 10
219.5839651875568
 20
115.8110446607984
 30
0.0
 10
219.3291057162871
 20
116.1337059750623
 30
0.0
 10
219.2022519533179
 20
116.2943074299545
 30
0.0
 10
219.1460182631273
 20
116.3655013168932
 30
0.0
  0
SPLINE
  5
9E
330
1F
100
AcDbEntity
  8
0
  6
Continuous
 62
     7
370
    15
100
AcDbSpline
210
0.0
220
0.0
230
1.0
 70
    24
 71
     3
 72
    10
 73
     6
 74
     0
 42
0.000000001
 43
0.00000001
 40
0.0
 40
0.0
 40
0.0
 40
0.0
 40
0.4391051671061785
 40
0.7513578980692853
 40
1.0
 40
1.0
 40
1.0
 40
1.0
 10
221.0043355110062
 20
115.6261387493828
 30
0.0
 10
220.8407689435356
 20
115.6022651963971
 30
0.0
 10
220.5608883100666
 20
115.5614148855045
 30
0.0
 10
220.1540256794606
 20
115.5020307661219
 30
0.0
 10
219.9515138581547
 20
115.472472912271
 30
0.0
 10
219.8617412983763
 20
115.4593700514867
 30
0.0
  0
SPLINE
  5
9F
330
1F
100
AcDbEntity
  8
0
  6
Continuous
 62
     7
370
    15
100
AcDbSpline
210
0.0
220
0.0
230
1.0
 70
    24
 71
     3
 72
    11
 73
     7
 74
     0
 42
0.000000001
 43
0.00000001
 40
0.0
 40
0.0
 40
0.0
 40
0.0
 40
0.1856336509827619
 40
0.5233285802669881
 40
0.8791086124659571
 40
1.0
 40
1.0
 40
1.0
 40
1.0
 10
221.4312066883871
 20
116.6990387126855
 30
0.0
 10
221.406267984307
 20
116.6363576601568
 30
0.0
 10
221.3359621074854
 20
116.4596505488342
 30
0.0
 10
221.2043199064024
 20
116.1287804404852
 30
0.0
 10
221.0841894594388
 20
115.8268440274213
 30
0.0
 10
221.0204905569841
 20
115.6667429155933
 30
0.0
 10
221.0043355110062
 20
115.6261387493828
 30
0.0
  0
SPLINE
  5
A0
330
1F
100
AcDbEntity
  8
0
  6
Continuous
 62
     7
370
    15
100
AcDbSpline
210
0.0
220
0.0
230
1.0
 70
    24
 71
     3
 72
    10
 73
     6
 74
     0
 42
0.000000001
 43
0.00000001
 40
0.0
 40
0.0
 40
0.0
 40
0.0
 40
0.4391051671061773
 40
0.75135789806929
 40
1.0
 40
1.0
 40
1.0
 40
1.0
 10
220.7154836531381
 20
117.605169978092
 30
0.0
 10
220.8179420402376
 20
117.4754539519454
 30
0.0
 10
220.9932597639575
 20
117.2534953687803
 30
0.0
 10
221.2481192352273
 20
116.9308340545163
 30
0.0
 10
221.3749729981965
 20
116.7702325996241
 30
0.0
 10
221.4312066883871
 20
116.6990387126855
 30
0.0
  0
SPLINE
  5
A1
330
1F
100
AcDbEntity
  8
0
  6
Continuous
 62
     7
370
    15
100
AcDbSpline
210
0.0
220
0.0
230
1.0
 70
    24
 71
     3
 72
    10
 73
     6
 74
     0
 42
0.000000001
 43
0.00000001
 40
0.0
 40
0.0
 40
0.0
 40
0.0
 40
0.4391051671061705
 40
0.7513578980692737
 40
1.0
 40
1.0
 40
1.0
 40
1.0
 10
219.5728894405081
 20
117.4384012801958
 30
0.0
 10
219.7364560079788
 20
117.4622748331816
 30
0.0
 10
220.0163366414478
 20
117.5031251440741
 30
0.0
 10
220.4231992720537
 20
117.5625092634568
 30
0.0
 10
220.6257110933597
 20
117.5920671173077
 30
0.0
 10
220.7154836531381
 20
117.605169978092
 30
0.0
  0
CIRCLE
  5
A2
330
1F
100
AcDbEntity
  8
0
  6
Continuous
 62
     7
370
    15
100
AcDbCircle
 10
220.2886124758
 20
116.5322700148
 30
0.0
 40
1.249999999999999
  0
CIRCLE
  5
A3
330
1F
100
AcDbEntity
  8
0
  6
Continuous
 62
     7
370
    15
100
AcDbCircle
 10
220.2886124758
 20
116.5322700148
 30
0.0
 40
1.750000000000028
  0
CIRCLE
  5
A4
330
1F
100
AcDbEntity
  8
0
  6
Continuous
 62
     7
370
    15
100
AcDbCircle
 10
220.2886124758
 20
116.5322700148
 30
0.0
 40
2.000000000000011
  0
ARC
  5
A5
330
1F
100
AcDbEntity
  8
0
  6
Continuous
 62
     7
370
    15
100
AcDbCircle
 10
220.2886124758
 20
116.5322700148
 30
0.0
 40
1.000000000000011
100
AcDbArc
 50
98.3040374257
 51
158.3040374257
  0
ARC
  5
A6
330
1F
100
AcDbEntity
  8
0
  6
Continuous
 62
     7
370
    15
100
AcDbCircle
 10
220.2886124758
 20
116.5322700148
 30
0.0
 40
1.000000000000022
100
AcDbArc
 50
158.3040374257
 51
218.3040374257
  0
ARC
  5
A7
330
1F
100
AcDbEntity
  8
0
  6
Continuous
 62
     7
370
    15
100
AcDbCircle
 10
220.2886124758
 20
116.5322700148
 30
0.0
 40
0.9999999999999638
100
AcDbArc
 50
338.3040374257
 51
38.3040374257
  0
ARC
  5
A8
330
1F
100
AcDbEntity
  8
0
  6
Continuous
 62
     7
370
    15
100
AcDbCircle
 10
220.2886124758
 20
116.5322700148
 30
0.0
 40
1.000000000000009
100
AcDbArc
 50
38.3040374257
 51
98.3040374257
  0
ARC
  5
A9
330
1F
100
AcDbEntity
  8
0
  6
Continuous
 62
     7
370
    15
100
AcDbCircle
 10
220.2886124758
 20
116.5322700148
 30
0.0
 40
0.9999999999999826
100
AcDbArc
 50
278.3040374257
 51
338.3040374257
  0
ARC
  5
AA
330
1F
100
AcDbEntity
  8
0
  6
Continuous
 62
     7
370
    15
100
AcDbCircle
 10
220.2886124758
 20
116.5322700148
 30
0.0
 40
1.000000000000022
100
AcDbArc
 50
218.3040374257
 51
278.3040374257
  0
SPLINE
  5
AB
330
1F
100
AcDbEntity
  8
0
  6
Continuous
 62
     7
370
    15
100
AcDbSpline
210
0.0
220
0.0
230
1.0
 70
     8
 71
     3
 72
    12
 73
     8
 74
     0
 42
0.000000001
 43
0.00000001
 40
0.0
 40
0.0
 40
0.0
 40
0.0
 40
0.5000000000000001
 40
0.5000000000000001
 40
0.75
 40
0.75
 40
1.0
 40
1.0
 40
1.0
 40
1.0
 10
192.4228921406006
 20
164.7383169664903
 30
0.0
 10
191.883995445503
 20
163.6806171489892
 30
0.0
 10
191.3216646347834
 20
162.5782487140306
 30
0.0
 10
190.452998392193
 20
160.8782841076679
 30
0.0
 10
190.1586696698504
 20
160.3027656922292
 30
0.0
 10
189.5651386708826
 20
159.1433370237707
 30
0.0
 10
189.2659124127642
 20
158.5593773546894
 30
0.0
 10
188.9644255645108
 20
157.9716673941006
 30
0.0
  0
SPLINE
  5
AC
330
1F
100
AcDbEntity
  8
0
  6
Continuous
 62
     7
370
    15
100
AcDbSpline
210
0.0
220
0.0
230
1.0
 70
     8
 71
     3
 72
     9
 73
     5
 74
     0
 42
0.000000001
 43
0.00000001
 40
0.0
 40
0.0
 40
0.0
 40
0.0
 40
0.504794330390352
 40
1.0
 40
1.0
 40
1.0
 40
1.0
 10
193.0635888811693
 20
165.6923752648767
 30
0.0
 10
192.9552064466685
 20
165.5315337035875
 30
0.0
 10
192.7405003218654
 20
165.2129057959307
 30
0.0
 10
192.5280728930539
 20
164.8955315693429
 30
0.0
 10
192.4228776259258
 20
164.7383660529487
 30
0.0
  0
LINE
  5
AD
330
1F
100
AcDbEntity
  8
0
  6
Continuous
 62
     7
370
    15
100
AcDbLine
 10
193.0636124758
 20
67.3721087295
 30
0.0
 11
193.0636124758
 21
165.6924313001
 31
0.0
  0
SPLINE
  5
AE
330
1F
100
AcDbEntity
  8
0
  6
Continuous
 62
     7
370
    15
100
AcDbSpline
210
0.0
220
0.0
230
1.0
 70
     8
 71
     3
 72
     9
 73
     5
 74
     0
 42
0.000000001
 43
0.00000001
 40
0.0
 40
0.0
 40
0.0
 40
0.0
 40
0.4952056715554214
 40
1.0
 40
1.0
 40
1.0
 40
1.0
 10
192.4228776259258
 20
68.32617397662992
 30
0.0
 10
192.5280728934707
 20
68.1690084596116
 30
0.0
 10
192.7405003222893
 20
67.8516342330106
 30
0.0
 10
192.9552064470884
 20
67.53300632536536
 30
0.0
 10
193.0635888811693
 20
67.37216476470189
 30
0.0
  0
SPLINE
  5
AF
330
1F
100
AcDbEntity
  8
0
  6
Continuous
 62
     7
370
    15
100
AcDbSpline
210
0.0
220
0.0
230
1.0
 70
     8
 71
     3
 72
    12
 73
     8
 74
     0
 42
0.000000001
 43
0.00000001
 40
0.0
 40
0.0
 40
0.0
 40
0.0
 40
0.2499999999999993
 40
0.2499999999999993
 40
0.4999999999999986
 40
0.4999999999999986
 40
1.0
 40
1.0
 40
1.0
 40
1.0
 10
192.4228921083617
 20
68.3262231263641
 30
0.0
 10
192.1535545869928
 20
68.85485551504874
 30
0.0
 10
191.8777844695988
 20
69.39578016899544
 30
0.0
 10
191.315524182993
 20
70.4978369233585
 30
0.0
 10
191.0284388095883
 20
71.06013376259531
 30
0.0
 10
190.158012368869
 20
72.76352899791532
 30
0.0
 10
189.5660023726998
 20
73.9201757689974
 30
0.0
 10
188.9644255645108
 20
75.09287263547805
 30
0.0
  0
SPLINE
  5
B0
330
1F
100
AcDbEntity
  8
0
  6
Continuous
 62
     7
370
    15
100
AcDbSpline
210
0.0
220
0.0
230
1.0
 70
     8
 71
     3
 72
    12
 73
     8
 74
     0
 42
0.000000001
 43
0.00000001
 40
0.0
 40
0.0
 40
0.0
 40
0.0
 40
0.000512515335492
 40
0.2509311781568301
 40
0.5009716914398246
 40
0.7506335204405247
 40
1.0
 40
1.0
 40
1.0
 40
1.0
 10
196.338178294827
 20
166.5321449726057
 30
0.0
 10
196.3383227515139
 20
166.5321866459231
 30
0.0
 10
196.409049779808
 20
166.552590200512
 30
0.0
 10
196.1657862195514
 20
166.4809785691232
 30
0.0
 10
195.5602616053195
 20
166.3126253606525
 30
0.0
 10
194.5350979208964
 20
166.0352917701956
 30
0.0
 10
193.5539140536746
 20
165.8066730208718
 30
0.0
 10
193.0636124764442
 20
165.6924313001071
 30
0.0
  0
SPLINE
  5
B1
330
1F
100
AcDbEntity
  8
0
  6
Continuous
 62
     7
370
    15
100
AcDbSpline
210
0.0
220
0.0
230
1.0
 70
     8
 71
     3
 72
    13
 73
     9
 74
     0
 42
0.000000001
 43
0.00000001
 40
0.0
 40
0.0
 40
0.0
 40
0.0
 40
0.249249238042121
 40
0.4988437701386194
 40
0.6658825660857411
 40
0.8320256711231946
 40
0.9994886337290221
 40
0.9999999999999999
 40
0.9999999999999999
 40
0.9999999999999999
 40
0.9999999999999999
 10
193.0636124764442
 20
67.3721087294715
 30
0.0
 10
193.5547971998639
 20
67.25762120578155
 30
0.0
 10
194.5378471028038
 20
67.02848755466206
 30
0.0
 10
195.4368905276139
 20
66.78527780351185
 30
0.0
 10
195.9952154282995
 20
66.63134059612646
 30
0.0
 10
196.2608866530086
 20
66.5550870372762
 30
0.0
 10
196.3697808990245
 20
66.52317285295369
 30
0.0
 10
196.3384207192061
 20
66.53232576689659
 30
0.0
 10
196.3383252490333
 20
66.53235363122268
 30
0.0
  0
LINE
  5
B2
330
1F
100
AcDbEntity
  8
0
  6
Continuous
 62
     7
370
    15
100
AcDbLine
 10
178.0136124758
 20
164.6373615103
 30
0.0
 11
166.3386124758
 21
164.6373615103
 31
0.0
  0
LINE
  5
B3
330
1F
100
AcDbEntity
  8
0
  6
Continuous
 62
     7
370
    15
100
AcDbLine
 10
178.0136124758
 20
68.4271785193
 30
0.0
 11
178.0136124758
 21
164.6373615103
 31
0.0
  0
LINE
  5
B4
330
1F
100
AcDbEntity
  8
0
  6
Continuous
 62
     7
370
    15
100
AcDbLine
 10
166.3386124758
 20
68.4271785193
 30
0.0
 11
178.0136124758
 21
68.4271785193
 31
0.0
  0
SPLINE
  5
B5
330
1F
100
AcDbEntity
  8
0
  6
Continuous
 62
     7
370
    15
100
AcDbSpline
210
0.0
220
0.0
230
1.0
 70
     8
 71
     3
 72
     8
 73
     4
 74
     0
 42
0.000000001
 43
0.00000001
 40
0.0
 40
0.0
 40
0.0
 40
0.0
 40
0.0012417047560384
 40
0.0012417047560384
 40
0.0012417047560384
 40
0.0012417047560384
 10
178.5711815122849
 20
163.8528401687103
 30
0.0
 10
178.3857929609904
 20
164.1145132542589
 30
0.0
 10
178.1999267153825
 20
164.3760173631365
 30
0.0
 10
178.0136124757572
 20
164.6373615102537
 30
0.0
  0
SPLINE
  5
B6
330
1F
100
AcDbEntity
  8
0
  6
Continuous
 62
     7
370
    15
100
AcDbSpline
210
0.0
220
0.0
230
1.0
 70
     8
 71
     3
 72
     8
 73
     4
 74
     0
 42
0.000000001
 43
0.00000001
 40
0.0
 40
0.0
 40
0.0
 40
0.0
 40
1.0
 40
1.0
 40
1.0
 40
1.0
 10
182.1127993870035
 20
157.4625460949723
 30
0.0
 10
180.9378119111006
 20
159.5956228499082
 30
0.0
 10
179.7565653770042
 20
161.7253414157844
 30
0.0
 10
178.5711815122849
 20
163.8528401687103
 30
0.0
  0
SPLINE
  5
B7
330
1F
100
AcDbEntity
  8
0
  6
Continuous
 62
     7
370
    15
100
AcDbSpline
210
0.0
220
0.0
230
1.0
 70
     8
 71
     3
 72
     8
 73
     4
 74
     0
 42
0.000000001
 43
0.00000001
 40
0.0
 40
0.0
 40
0.0
 40
0.0
 40
1.0
 40
1.0
 40
1.0
 40
1.0
 10
182.1127993870035
 20
75.60199393460634
 30
0.0
 10
180.9377625891765
 20
73.468827640461
 30
0.0
 10
179.7565153817375
 20
71.33910888347931
 30
0.0
 10
178.5711815122849
 20
69.21169986086835
 30
0.0
  0
SPLINE
  5
B8
330
1F
100
AcDbEntity
  8
0
  6
Continuous
 62
     7
370
    15
100
AcDbSpline
210
0.0
220
0.0
230
1.0
 70
     8
 71
     3
 72
     8
 73
     4
 74
     0
 42
0.000000001
 43
0.00000001
 40
0.0
 40
0.0
 40
0.0
 40
0.0
 40
0.0012417047560385
 40
0.0012417047560385
 40
0.0012417047560385
 40
0.0012417047560385
 10
178.0136124757572
 20
68.42717851932497
 30
0.0
 10
178.1999267153825
 20
68.68852266644221
 30
0.0
 10
178.3857929609904
 20
68.9500267753198
 30
0.0
 10
178.5711815122849
 20
69.21169986086835
 30
0.0
  0
LINE
  5
B9
330
1F
100
AcDbEntity
  8
0
  6
Continuous
 62
     7
370
    15
100
AcDbLine
 10
200.3386124758
 20
67.5322700148
 30
0.0
 11
200.3386124758
 21
165.5322700148
 31
0.0
  0
LINE
  5
BA
330
1F
100
AcDbEntity
  8
0
  6
Continuous
 62
     7
370
    15
100
AcDbLine
 10
165.3386124758
 20
69.5303817548
 30
0.0
 11
165.3386124758
 21
163.5341582747
 31
0.0
  0
SPLINE
  5
BB
330
1F
100
AcDbEntity
  8
0
  6
Continuous
 62
     7
370
    15
100
AcDbSpline
210
0.0
220
0.0
230
1.0
 70
     8
 71
     3
 72
    12
 73
     8
 74
     0
 42
0.000000001
 43
0.00000001
 40
0.0
 40
0.0
 40
0.0
 40
0.0
 40
0.2500000000000004
 40
0.2500000000000004
 40
0.5000000000000009
 40
0.5000000000000009
 40
1.0
 40
1.0
 40
1.0
 40
1.0
 10
165.7247488958069
 20
164.4667037486606
 30
0.0
 10
165.6731187736972
 20
164.410499477946
 30
0.0
 10
165.6245865407067
 20
164.3492100674256
 30
0.0
 10
165.5347614037488
 20
164.2147479933809
 30
0.0
 10
165.4930511305364
 20
164.140628923138
 30
0.0
 10
165.3869197503743
 20
163.9043212779696
 30
0.0
 10
165.3386124757571
 20
163.7224977353196
 30
0.0
 10
165.3386124757571
 20
163.5341582747305
 30
0.0
  0
SPLINE
  5
BC
330
1F
100
AcDbEntity
  8
0
  6
Continuous
 62
     7
370
    15
100
AcDbSpline
210
0.0
220
0.0
230
1.0
 70
     8
 71
     3
 72
     8
 73
     4
 74
     0
 42
0.000000001
 43
0.00000001
 40
0.0
 40
0.0
 40
0.0
 40
0.0
 40
1.0
 40
1.0
 40
1.0
 40
1.0
 10
166.3386124757571
 20
164.6373615102537
 30
0.0
 10
166.1117182320574
 20
164.6373615102537
 30
0.0
 10
165.893868586131
 20
164.5733493432849
 30
0.0
 10
165.7247488958069
 20
164.4667037486606
 30
0.0
  0
SPLINE
  5
BD
330
1F
100
AcDbEntity
  8
0
  6
Continuous
 62
     7
370
    15
100
AcDbSpline
210
0.0
220
0.0
230
1.0
 70
     8
 71
     3
 72
    10
 73
     6
 74
     0
 42
0.000000001
 43
0.00000001
 40
0.0
 40
0.0
 40
0.0
 40
0.0
 40
0.5
 40
0.5
 40
1.0
 40
1.0
 40
1.0
 40
1.0
 10
165.7247488958069
 20
68.59783628091807
 30
0.0
 10
165.8093595365376
 20
68.54448145230538
 30
0.0
 10
165.9045941586442
 20
68.50191199035518
 30
0.0
 10
166.1146315178241
 20
68.44262965567421
 30
0.0
 10
166.2250634226082
 20
68.42717851932498
 30
0.0
 10
166.3386124757571
 20
68.42717851932498
 30
0.0
  0
SPLINE
  5
BE
330
1F
100
AcDbEntity
  8
0
  6
Continuous
 62
     7
370
    15
100
AcDbSpline
210
0.0
220
0.0
230
1.0
 70
     8
 71
     3
 72
    12
 73
     8
 74
     0
 42
0.000000001
 43
0.00000001
 40
0.0
 40
0.0
 40
0.0
 40
0.0
 40
0.2500000000000039
 40
0.2500000000000039
 40
0.5000000000000079
 40
0.5000000000000079
 40
1.0
 40
1.0
 40
1.0
 40
1.0
 10
165.7247488958069
 20
68.59783628091807
 30
0.0
 10
165.6731187736972
 20
68.6540405516327
 30
0.0
 10
165.6245865407067
 20
68.71532996215312
 30
0.0
 10
165.5347614037488
 20
68.84979203619781
 30
0.0
 10
165.4930511305364
 20
68.92391110644064
 30
0.0
 10
165.3869197503743
 20
69.16021875160911
 30
0.0
 10
165.3386124757571
 20
69.342042294259
 30
0.0
 10
165.3386124757571
 20
69.53038175484811
 30
0.0
  0
SPLINE
  5
BF
330
1F
100
AcDbEntity
  8
0
  6
Continuous
 62
     7
370
    15
100
AcDbSpline
210
0.0
220
0.0
230
1.0
 70
     8
 71
     3
 72
    10
 73
     6
 74
     0
 42
0.000000001
 43
0.00000001
 40
0.0
 40
0.0
 40
0.0
 40
0.0
 40
0.5
 40
0.5
 40
1.0
 40
1.0
 40
1.0
 40
1.0
 10
182.4886124757571
 20
75.95273880064016
 30
0.0
 10
182.4096124075058
 20
75.91697456603225
 30
0.0
 10
182.3358551572293
 20
75.86748496247282
 30
0.0
 10
182.2078000340961
 20
75.74719647096987
 30
0.0
 10
182.1549499996844
 20
75.67851431798053
 30
0.0
 10
182.1127993870035
 20
75.60199393460633
 30
0.0
  0
SPLINE
  5
C0
330
1F
100
AcDbEntity
  8
0
  6
Continuous
 62
     7
370
    15
100
AcDbSpline
210
0.0
220
0.0
230
1.0
 70
     8
 71
     3
 72
    10
 73
     6
 74
     0
 42
0.000000001
 43
0.00000001
 40
0.0
 40
0.0
 40
0.0
 40
0.0
 40
0.5
 40
0.5
 40
1.0
 40
1.0
 40
1.0
 40
1.0
 10
182.4886124757572
 20
157.1118012289385
 30
0.0
 10
182.4093260280744
 20
157.147695110791
 30
0.0
 10
182.3358138089538
 20
157.1971968206419
 30
0.0
 10
182.2088613560832
 20
157.3162445173105
 30
0.0
 10
182.1547955073465
 20
157.3863061775788
 30
0.0
 10
182.1127993870035
 20
157.4625460949723
 30
0.0
  0
SPLINE
  5
C1
330
1F
100
AcDbEntity
  8
0
  6
Continuous
 62
     7
370
    15
100
AcDbSpline
210
0.0
220
0.0
230
1.0
 70
     8
 71
     3
 72
     8
 73
     4
 74
     0
 42
0.000000001
 43
0.00000001
 40
0.0
 40
0.0
 40
0.0
 40
0.0
 40
1.0
 40
1.0
 40
1.0
 40
1.0
 10
182.805619710031
 20
157.044342210452
 30
0.0
 10
182.6959179247294
 20
157.0434837932526
 30
0.0
 10
182.5885709037449
 20
157.0665489051274
 30
0.0
 10
182.4886124757571
 20
157.1118012289383
 30
0.0
  0
SPLINE
  5
C2
330
1F
100
AcDbEntity
  8
0
  6
Continuous
 62
     7
370
    15
100
AcDbSpline
210
0.0
220
0.0
230
1.0
 70
     8
 71
     3
 72
     8
 73
     4
 74
     0
 42
0.000000001
 43
0.00000001
 40
0.0
 40
0.0
 40
0.0
 40
0.0
 40
1.0
 40
1.0
 40
1.0
 40
1.0
 10
182.805619710031
 20
76.02019781912668
 30
0.0
 10
182.6959179247293
 20
76.02105623632602
 30
0.0
 10
182.5885709037448
 20
75.99799112445122
 30
0.0
 10
182.488612475757
 20
75.95273880064029
 30
0.0
  0
SPLINE
  5
C3
330
1F
100
AcDbEntity
  8
0
  6
Continuous
 62
     7
370
    15
100
AcDbSpline
210
0.0
220
0.0
230
1.0
 70
     8
 71
     3
 72
    12
 73
     8
 74
     0
 42
0.000000001
 43
0.00000001
 40
0.0
 40
0.0
 40
0.0
 40
0.0
 40
0.2499999999999951
 40
0.2499999999999951
 40
0.4999999999999902
 40
0.4999999999999902
 40
1.0
 40
1.0
 40
1.0
 40
1.0
 10
188.9644255645108
 20
157.9716673941006
 30
0.0
 10
188.9282051431239
 20
157.9010603260008
 30
0.0
 10
188.8852794684761
 20
157.8373257346751
 30
0.0
 10
188.7877528852171
 20
157.7215515584267
 30
0.0
 10
188.7323213656003
 20
157.6690037144152
 30
0.0
 10
188.5538334626962
 20
157.5348551112008
 30
0.0
 10
188.4169966340484
 20
157.4743330091369
 30
0.0
 10
188.2716052414839
 20
157.4537864252085
 30
0.0
  0
SPLINE
  5
C4
330
1F
100
AcDbEntity
  8
0
  6
Continuous
 62
     7
370
    15
100
AcDbSpline
210
0.0
220
0.0
230
1.0
 70
     8
 71
     3
 72
    12
 73
     8
 74
     0
 42
0.000000001
 43
0.00000001
 40
0.0
 40
0.0
 40
0.0
 40
0.0
 40
0.2499999999999957
 40
0.2499999999999957
 40
0.4999999999999913
 40
0.4999999999999913
 40
1.0
 40
1.0
 40
1.0
 40
1.0
 10
188.9644255645108
 20
75.09287263547803
 30
0.0
 10
188.9282051431238
 20
75.16347970357795
 30
0.0
 10
188.8852794684759
 20
75.22721429490367
 30
0.0
 10
188.787752885217
 20
75.34298847115208
 30
0.0
 10
188.7323213656003
 20
75.39553631516353
 30
0.0
 10
188.5538334626961
 20
75.5296849183779
 30
0.0
 10
188.4169966340484
 20
75.5902070204417
 30
0.0
 10
188.2716052414839
 20
75.61075360437012
 30
0.0
  0
SPLINE
  5
C5
330
1F
100
AcDbEntity
  8
0
  6
Continuous
 62
     7
370
    15
100
AcDbSpline
210
0.0
220
0.0
230
1.0
 70
    11
 71
     3
 72
    66
 73
    62
 74
     0
 42
0.000000001
 43
0.00000001
 40
0.0
 40
0.0
 40
0.0
 40
0.0
 40
0.0312500000000002
 40
0.0312500000000002
 40
0.0625000000000004
 40
0.0625000000000004
 40
0.0937500000000006
 40
0.0937500000000006
 40
0.1250000000000007
 40
0.1250000000000007
 40
0.1562500000000009
 40
0.1562500000000009
 40
0.1875000000000011
 40
0.1875000000000011
 40
0.2187500000000013
 40
0.2187500000000013
 40
0.2500000000000015
 40
0.2500000000000015
 40
0.2812500000000017
 40
0.2812500000000017
 40
0.3125000000000019
 40
0.3125000000000019
 40
0.3437500000000021
 40
0.3437500000000021
 40
0.3750000000000022
 40
0.3750000000000022
 40
0.4062500000000024
 40
0.4062500000000024
 40
0.4375000000000026
 40
0.4375000000000026
 40
0.4687500000000028
 40
0.4687500000000028
 40
0.500000000000003
 40
0.500000000000003
 40
0.5312500000000032
 40
0.5312500000000032
 40
0.5625000000000033
 40
0.5625000000000033
 40
0.6250000000000036
 40
0.6250000000000036
 40
0.6562500000000033
 40
0.6562500000000033
 40
0.6875000000000032
 40
0.6875000000000032
 40
0.7187500000000031
 40
0.7187500000000031
 40
0.7500000000000029
 40
0.7500000000000029
 40
0.7812500000000028
 40
0.7812500000000028
 40
0.8125000000000027
 40
0.8125000000000027
 40
0.8437500000000022
 40
0.8437500000000022
 40
0.8750000000000017
 40
0.8750000000000017
 40
0.9062500000000012
 40
0.9062500000000012
 40
0.9375000000000008
 40
0.9375000000000008
 40
1.0
 40
1.0
 40
1.0
 40
1.0
 10
185.5386124757572
 20
99.67235270394602
 30
0.0
 10
185.7038127664211
 20
99.67235270394602
 30
0.0
 10
185.8662453077176
 20
99.68725873330384
 30
0.0
 10
186.1858034633076
 20
99.74569391204628
 30
0.0
 10
186.3445868012847
 20
99.789934964422
 30
0.0
 10
186.647324817764
 20
99.90552650984449
 30
0.0
 10
186.7909039828984
 20
99.97630248006318
 30
0.0
 10
187.0626337127663
 20
100.1437410119758
 30
0.0
 10
187.1912622763041
 20
100.2412802842965
 30
0.0
 10
187.4218280379713
 20
100.4546986444979
 30
0.0
 10
187.5253020392207
 20
100.571313296524
 30
0.0
 10
187.7080625771464
 20
100.8250386605437
 30
0.0
 10
187.785706833375
 20
100.9603315196125
 30
0.0
 10
187.9103994840651
 20
101.2406778750041
 30
0.0
 10
187.9584034646435
 20
101.3877987508401
 30
0.0
 10
188.0226352069618
 20
101.6897888552174
 30
0.0
 10
188.038524651004
 20
101.8419126227866
 30
0.0
 10
188.0386995813592
 20
102.1483952656129
 30
0.0
 10
188.0224689300243
 20
102.3043811866785
 30
0.0
 10
187.9586877073147
 20
102.6069606556479
 30
0.0
 10
187.9114955959184
 20
102.7543391670401
 30
0.0
 10
187.7863289782605
 20
103.0411278724178
 30
0.0
 10
187.7080694908855
 20
103.1800849739557
 30
0.0
 10
187.5271493075301
 20
103.4376786342237
 30
0.0
 10
187.4238640786062
 20
103.5579711779247
 30
0.0
 10
187.1906123365575
 20
103.7806919955714
 30
0.0
 10
187.0641984682919
 20
103.8796698995632
 30
0.0
 10
186.7935261975973
 20
104.0528867541724
 30
0.0
 10
186.647444425433
 20
104.1278677916491
 30
0.0
 10
186.3445599799602
 20
104.2481959617449
 30
0.0
 10
186.1887296203205
 20
104.2935796492341
 30
0.0
 10
185.868384131055
 20
104.3550059096551
 30
0.0
 10
185.7026740450834
 20
104.3707595311748
 30
0.0
 10
185.3763426563869
 20
104.3708717764303
 30
0.0
 10
185.2141555705599
 20
104.3557395465243
 30
0.0
 10
184.8917799893514
 20
104.2944874333438
 30
0.0
 10
184.7337645153139
 20
104.2484806899686
 30
0.0
 10
184.2823536402383
 20
104.0695999607266
 30
0.0
 10
184.0032741831861
 20
103.8914478534277
 30
0.0
 10
183.6572004786877
 20
103.5619514371407
 30
0.0
 10
183.5515584627731
 20
103.4395785973006
 30
0.0
 10
183.3697749868023
 20
103.1811758931861
 30
0.0
 10
183.2928871634184
 20
103.0449443276378
 30
0.0
 10
183.167232606048
 20
102.7585088657517
 30
0.0
 10
183.1189245301333
 20
102.6082017811762
 30
0.0
 10
183.055106644693
 20
102.3066338510916
 30
0.0
 10
183.0387784676501
 20
102.1537677886271
 30
0.0
 10
183.0384489775904
 20
101.8437526718836
 30
0.0
 10
183.0545454894251
 20
101.690883671531
 30
0.0
 10
183.1177742266864
 20
101.3918509057561
 30
0.0
 10
183.1656108200968
 20
101.2437853093333
 30
0.0
 10
183.2909541380103
 20
100.9612282711878
 30
0.0
 10
183.3676508125355
 20
100.8276119390641
 30
0.0
 10
183.5487021791872
 20
100.5753220691319
 30
0.0
 10
183.6541777895482
 20
100.455978760064
 30
0.0
 10
183.8847043582244
 20
100.2422949805792
 30
0.0
 10
184.0104237958547
 20
100.1466350059194
 30
0.0
 10
184.2831906450515
 20
99.97791393691561
 30
0.0
 10
184.4289100214576
 20
99.9060467282624
 30
0.0
 10
184.8799791265656
 20
99.73339565099393
 30
0.0
 10
185.2082118944294
 20
99.672352703946
 30
0.0
 10
185.5386124757572
 20
99.67235270394602
 30
0.0
  0
SPLINE
  5
C6
330
1F
100
AcDbEntity
  8
0
  6
Continuous
 62
     7
370
    15
100
AcDbSpline
210
0.0
220
0.0
230
1.0
 70
     8
 71
     3
 72
    10
 73
     6
 74
     0
 42
0.000000001
 43
0.00000001
 40
0.0
 40
0.0
 40
0.0
 40
0.0
 40
0.5
 40
0.5
 40
1.0
 40
1.0
 40
1.0
 40
1.0
 10
188.2716052414833
 20
157.4537864252114
 30
0.0
 10
187.424040874715
 20
157.3340093731503
 30
0.0
 10
186.5433274389931
 20
157.2353191934865
 30
0.0
 10
184.7157711877775
 20
157.0940467872494
 30
0.0
 10
183.7623387846763
 20
157.0518285435718
 30
0.0
 10
182.805619710031
 20
157.044342210452
 30
0.0
  0
SPLINE
  5
C7
330
1F
100
AcDbEntity
  8
0
  6
Continuous
 62
     7
370
    15
100
AcDbSpline
210
0.0
220
0.0
230
1.0
 70
     8
 71
     3
 72
    10
 73
     6
 74
     0
 42
0.000000001
 43
0.00000001
 40
0.0
 40
0.0
 40
0.0
 40
0.0
 40
0.5
 40
0.5
 40
1.0
 40
1.0
 40
1.0
 40
1.0
 10
188.2716052414833
 20
75.61075360436728
 30
0.0
 10
187.424040874715
 20
75.73053065642831
 30
0.0
 10
186.5433274389931
 20
75.82922083609215
 30
0.0
 10
184.7157711877775
 20
75.97049324232927
 30
0.0
 10
183.7623387846763
 20
76.01271148600688
 30
0.0
 10
182.805619710031
 20
76.0201978191267
 30
0.0
  0
SPLINE
  5
C8
330
1F
100
AcDbEntity
  8
0
  6
Continuous
 62
     7
370
    15
100
AcDbSpline
210
0.0
220
0.0
230
1.0
 70
    24
 71
     3
 72
    20
 73
    16
 74
     0
 42
0.000000001
 43
0.00000001
 40
0.0
 40
0.0
 40
0.0
 40
0.0
 40
0.5
 40
0.5
 40
0.75
 40
0.75
 40
0.875
 40
0.875
 40
0.9375
 40
0.9375
 40
0.96875
 40
0.984375
 40
0.9921875
 40
0.9921875
 40
1.0
 40
1.0
 40
1.0
 40
1.0
 10
165.3386124757571
 20
151.8322700147893
 30
0.0
 10
165.3386124757571
 20
151.8322700147893
 30
0.0
 10
165.2778484844525
 20
151.8322700147893
 30
0.0
 10
165.1948452473852
 20
151.8322700147893
 30
0.0
 10
165.168203990207
 20
151.8322700147893
 30
0.0
 10
165.1397509767402
 20
151.8322700147893
 30
0.0
 10
165.1321663512781
 20
151.8322700147893
 30
0.0
 10
165.1244708531643
 20
151.8322700147893
 30
0.0
 10
165.1225149217713
 20
151.8322700147893
 30
0.0
 10
165.1205521897544
 20
151.8322700147893
 30
0.0
 10
165.1198130671961
 20
151.8322700147893
 30
0.0
 10
165.1193811760289
 20
151.8322700147893
 30
0.0
 10
165.1192886057759
 20
151.8322700147893
 30
0.0
 10
165.1192474749162
 20
151.8322700147893
 30
0.0
 10
165.1192372055447
 20
151.8322700147893
 30
0.0
 10
165.1192372255916
 20
151.8322700147893
 30
0.0
  0
LINE
  5
C9
330
1F
100
AcDbEntity
  8
0
  6
Continuous
 62
     7
370
    15
100
AcDbLine
 10
162.3386124758
 20
81.6072700148
 30
0.0
 11
162.3386124758
 21
151.4572700148
 31
0.0
  0
LINE
  5
CA
330
1F
100
AcDbEntity
  8
0
  6
Continuous
 62
     7
370
    15
100
AcDbLine
 10
60.5386124758
 20
98.1825921541
 30
0.0
 11
60.5386124758
 21
134.8819478673
 31
0.0
  0
LINE
  5
CB
330
1F
100
AcDbEntity
  8
0
  6
Continuous
 62
     7
370
    15
100
AcDbLine
 10
225.3386124758
 20
116.5322700148
 30
0.0
 11
225.3386124758
 21
106.7322700148
 31
0.0
  0
LINE
  5
CC
330
1F
100
AcDbEntity
  8
0
  6
Continuous
 62
     7
370
    15
100
AcDbLine
 10
225.3386124758
 20
126.3322700148
 30
0.0
 11
225.3386124758
 21
116.5322700148
 31
0.0
  0
LINE
  5
CD
330
1F
100
AcDbEntity
  8
0
  6
Continuous
 62
     7
370
    15
100
AcDbLine
 10
225.1386124758
 20
116.5322700148
 30
0.0
 11
225.1386124758
 21
106.5322700148
 31
0.0
  0
LINE
  5
CE
330
1F
100
AcDbEntity
  8
0
  6
Continuous
 62
     7
370
    15
100
AcDbLine
 10
225.1386124758
 20
126.5322700148
 30
0.0
 11
225.1386124758
 21
116.5322700148
 31
0.0
  0
SPLINE
  5
CF
330
1F
100
AcDbEntity
  8
0
  6
Continuous
 62
     7
370
    15
100
AcDbSpline
210
0.0
220
0.0
230
1.0
 70
    11
 71
     3
 72
    60
 73
    56
 74
     0
 42
0.000000001
 43
0.00000001
 40
0.0
 40
0.0
 40
0.0
 40
0.0
 40
0.0625000000000018
 40
0.0625000000000018
 40
0.0937500000000021
 40
0.0937500000000021
 40
0.1250000000000024
 40
0.1250000000000024
 40
0.1562500000000026
 40
0.1562500000000026
 40
0.1875000000000029
 40
0.1875000000000029
 40
0.2187500000000031
 40
0.2187500000000031
 40
0.2500000000000033
 40
0.2500000000000033
 40
0.2812500000000036
 40
0.2812500000000036
 40
0.3125000000000039
 40
0.3125000000000039
 40
0.3437500000000041
 40
0.3437500000000041
 40
0.3750000000000044
 40
0.3750000000000044
 40
0.4062500000000046
 40
0.4062500000000046
 40
0.4375000000000049
 40
0.4375000000000049
 40
0.4687500000000051
 40
0.4687500000000051
 40
0.5000000000000053
 40
0.5000000000000053
 40
0.5312500000000056
 40
0.5312500000000056
 40
0.5625000000000058
 40
0.5625000000000058
 40
0.625000000000005
 40
0.625000000000005
 40
0.6875000000000041
 40
0.6875000000000041
 40
0.7500000000000033
 40
0.7500000000000033
 40
0.7812500000000029
 40
0.7812500000000029
 40
0.8125000000000024
 40
0.8125000000000024
 40
0.8437500000000021
 40
0.8437500000000021
 40
0.8750000000000017
 40
0.8750000000000017
 40
0.9062500000000012
 40
0.9062500000000012
 40
0.9375000000000008
 40
0.9375000000000008
 40
1.0
 40
1.0
 40
1.0
 40
1.0
 10
218.6147915443316
 20
118.1967017348003
 30
0.0
 10
218.8573700042992
 20
118.3935298613137
 30
0.0
 10
219.1311019010868
 20
118.5403606319237
 30
0.0
 10
219.575260389966
 20
118.6877046786754
 30
0.0
 10
219.7259423471318
 20
118.7234898684705
 30
0.0
 10
220.0323792000379
 20
118.7695254212451
 30
0.0
 10
220.1896394111611
 20
118.7796793770458
 30
0.0
 10
220.5011757129689
 20
118.77327139025
 30
0.0
 10
220.6550865963684
 20
118.7570297513522
 30
0.0
 10
220.959236965228
 20
118.6986873739917
 30
0.0
 10
221.1109406321383
 20
118.6559389687692
 30
0.0
 10
221.4010436204429
 20
118.5459506329406
 30
0.0
 10
221.5397839881804
 20
118.4789845394099
 30
0.0
 10
221.8044347263293
 20
118.3204270284661
 30
0.0
 10
221.9315445147926
 20
118.2275909535299
 30
0.0
 10
222.1622182430102
 20
118.0222704215378
 30
0.0
 10
222.266642462453
 20
117.9096689415986
 30
0.0
 10
222.4523735911881
 20
117.6631402670024
 30
0.0
 10
222.5340274767286
 20
117.5276819616296
 30
0.0
 10
222.6635261069769
 20
117.2472005503145
 30
0.0
 10
222.7126930343752
 20
117.1009277736634
 30
0.0
 10
222.7773393066203
 20
116.7952602491893
 30
0.0
 10
222.7918071307842
 20
116.6383194407171
 30
0.0
 10
222.7842200990731
 20
116.3283397426817
 30
0.0
 10
222.7619112609857
 20
116.1714555110104
 30
0.0
 10
222.6827713408915
 20
115.8700028034544
 30
0.0
 10
222.6265897618078
 20
115.725432682565
 30
0.0
 10
222.482287806018
 20
115.4480449630999
 30
0.0
 10
222.3955858159374
 20
115.3183480779172
 30
0.0
 10
222.1985515019416
 20
115.0796093015518
 30
0.0
 10
222.0865596105815
 20
114.9689843819424
 30
0.0
 10
221.8463505799932
 20
114.7732326125092
 30
0.0
 10
221.7178257026639
 20
114.6873125189047
 30
0.0
 10
221.4444496281119
 20
114.538348842793
 30
0.0
 10
221.300498909383
 20
114.4761038309524
 30
0.0
 10
220.8598517831415
 20
114.3292328235206
 30
0.0
 10
220.5449990882551
 20
114.2819996573402
 30
0.0
 10
219.9253131711789
 20
114.293996324492
 30
0.0
 10
219.6125184199228
 20
114.3534769171333
 30
0.0
 10
219.0347277487012
 20
114.5719037002745
 30
0.0
 10
218.7617315001947
 20
114.7339711315704
 30
0.0
 10
218.4167286523914
 20
115.0405793435878
 30
0.0
 10
218.3101410843722
 20
115.1552541694668
 30
0.0
 10
218.1231491867046
 20
115.4038642790149
 30
0.0
 10
218.0437208974012
 20
115.5359163507651
 30
0.0
 10
217.9140995328707
 20
115.8162810267151
 30
0.0
 10
217.8636339285808
 20
115.9668888073415
 30
0.0
 10
217.7996944410044
 20
116.271169870237
 30
0.0
 10
217.7853258093621
 20
116.425519898259
 30
0.0
 10
217.7931442207014
 20
116.7388170521828
 30
0.0
 10
217.8156598602873
 20
116.8947772475593
 30
0.0
 10
217.8947454733784
 20
117.195271799369
 30
0.0
 10
217.9523626423425
 20
117.3429410865829
 30
0.0
 10
218.1682211558316
 20
117.756324154632
 30
0.0
 10
218.3722130843641
 20
117.9998736082869
 30
0.0
 10
218.6147915443316
 20
118.1967017348003
 30
0.0
  0
LWPOLYLINE
  5
D0
330
1F
100
AcDbEntity
  8
0
  6
HIDDEN
 62
     7
370
     0
100
AcDbPolyline
 90
       20
 70
   128
 43
0.0
 10
167.390038173
 20
100.4803212763
 10
167.6845053912
 20
100.6186530045
 10
167.9089800899
 20
100.9611954535
 10
168.0391369525
 20
101.4708288336
 10
168.0608714633
 20
102.0923264605
 10
167.9718283508
 20
102.7583394226
 10
167.781656818
 20
103.3966948813
 10
167.5109649011
 20
103.9382171176
 10
167.1890862696
 20
104.3242237945
 10
166.8509014677
 20
104.5128850991
 10
166.5330580662
 20
104.4837566517
 10
166.2699993294
 20
104.2399949715
 10
166.0902317533
 20
103.8080154189
 10
166.0132359442
 20
103.2346296813
 10
166.0473555925
 20
102.5819730003
 10
166.1888933052
 20
101.9207708544
 10
166.4225112746
 20
101.3226747557
 10
166.7228933691
 20
100.8524976969
 10
167.0574885276
 20
100.5611906578
 10
167.390038173
 20
100.4803212763
  0
LWPOLYLINE
  5
D1
330
1F
100
AcDbEntity
  8
0
  6
HIDDEN
 62
     7
370
     0
100
AcDbPolyline
 90
       22
 70
   128
 43
0.0
 10
167.6886376549
 20
100.0862313951
 10
168.0158679887
 20
100.2272880843
 10
168.2760349829
 20
100.5744659125
 10
168.4460216585
 20
101.0969166062
 10
168.5107239533
 20
101.7482181284
 10
168.4643927844
 20
102.4704994807
 10
168.3111448797
 20
103.1995827953
 10
168.0645969879
 20
103.8706858202
 10
167.7466559711
 20
104.4241781065
 10
167.385572284
 20
104.8108794356
 10
167.0134297968
 20
104.9964296974
 10
166.6632950025
 20
104.9643419369
 10
166.3662789142
 20
104.7174672924
 10
166.1487727147
 20
104.2777416595
 10
166.0301027845
 20
103.6842365903
 10
166.0208134675
 20
102.9896876148
 10
166.1217301604
 20
102.2558084575
 10
166.323885972
 20
101.5478075021
 10
166.6093184715
 20
100.9285937404
 10
166.9526657286
 20
100.4531870325
 10
167.3234198328
 20
100.1638293508
 10
167.6886376549
 20
100.0862313951
  0
LWPOLYLINE
  5
D2
330
1F
100
AcDbEntity
  8
0
  6
HIDDEN
 62
     7
370
     0
100
AcDbPolyline
 90
       22
 70
   128
 43
0.0
 10
171.146745621
 20
100.7690881433
 10
171.4739759547
 20
100.9101448325
 10
171.734142949
 20
101.2573226607
 10
171.9041296245
 20
101.7797733544
 10
171.9688319193
 20
102.4310748766
 10
171.9225007505
 20
103.1533562289
 10
171.7692528458
 20
103.8824395435
 10
171.5227049539
 20
104.5535425684
 10
171.2047639372
 20
105.1070348547
 10
170.8436802501
 20
105.4937361838
 10
170.4715377628
 20
105.6792864456
 10
170.1214029686
 20
105.6471986851
 10
169.8243868803
 20
105.4003240406
 10
169.6068806808
 20
104.9605984077
 10
169.4882107506
 20
104.3670933385
 10
169.4789214336
 20
103.6725443631
 10
169.5798381265
 20
102.9386652057
 10
169.7819939381
 20
102.2306642503
 10
170.0674264376
 20
101.6114504886
 10
170.4107736947
 20
101.1360437807
 10
170.7815277989
 20
100.8466860991
 10
171.146745621
 20
100.7690881433
  0
LINE
  5
D3
330
1F
100
AcDbEntity
  8
0
  6
HIDDEN
 62
     7
370
     0
100
AcDbLine
 10
167.5025044751
 20
103.2673159769
 30
0.0
 11
166.7917806985
 21
103.9238702285
 31
0.0
  0
LINE
  5
D4
330
1F
100
AcDbEntity
  8
0
  6
HIDDEN
 62
     7
370
     0
100
AcDbLine
 10
166.3278886991
 20
103.1596694638
 30
0.0
 11
166.7917806985
 21
103.9238702285
 31
0.0
  0
LINE
  5
D5
330
1F
100
AcDbEntity
  8
0
  6
HIDDEN
 62
     7
370
     0
100
AcDbLine
 10
166.5747204764
 20
101.7389144475
 30
0.0
 11
166.3278886991
 21
103.1596694638
 31
0.0
  0
LINE
  5
D6
330
1F
100
AcDbEntity
  8
0
  6
HIDDEN
 62
     7
370
     0
100
AcDbLine
 10
166.5747204764
 20
101.7389144475
 30
0.0
 11
167.285444253
 21
101.0823601959
 31
0.0
  0
LINE
  5
D7
330
1F
100
AcDbEntity
  8
0
  6
HIDDEN
 62
     7
370
     0
100
AcDbLine
 10
167.7493362524
 20
101.8465609606
 30
0.0
 11
167.285444253
 21
101.0823601959
 31
0.0
  0
LINE
  5
D8
330
1F
100
AcDbEntity
  8
0
  6
HIDDEN
 62
     7
370
     0
100
AcDbLine
 10
167.7493362524
 20
101.8465609606
 30
0.0
 11
167.5025044751
 21
103.2673159769
 31
0.0
  0
LINE
  5
D9
330
1F
100
AcDbEntity
  8
0
  6
HIDDEN
 62
     7
370
     0
100
AcDbLine
 10
169.2345552827
 20
103.6093361202
 30
0.0
 11
167.5025044751
 21
103.2673159769
 31
0.0
  0
LINE
  5
DA
330
1F
100
AcDbEntity
  8
0
  6
HIDDEN
 62
     7
370
     0
100
AcDbLine
 10
169.48138706
 20
102.1885811039
 30
0.0
 11
167.7493362524
 21
101.8465609606
 31
0.0
  0
LWPOLYLINE
  5
DB
330
1F
100
AcDbEntity
  8
0
  6
HIDDEN
 62
     7
370
     0
100
AcDbPolyline
 90
       18
 70
   128
 43
0.0
 10
171.6680071201
 20
101.6355916591
 10
171.9448223566
 20
101.7791337191
 10
172.1438344104
 20
102.1359327803
 10
172.2381656008
 20
102.6578011524
 10
172.215075978
 20
103.2742576201
 10
172.0776839234
 20
103.9020463214
 10
171.8445449953
 20
104.4563809136
 10
171.5471458978
 20
104.8623954382
 10
171.225652027
 20
105.065255384
 10
170.9234829116
 20
105.0375633912
 10
170.6814481649
 20
104.7830594168
 10
170.5322359208
 20
104.3361156329
 10
170.4959981195
 20
103.7570942741
 10
170.577628877
 20
103.1241953832
 10
170.7661035071
 20
102.5228954627
 10
171.0359674666
 20
102.0344033986
 10
171.3507741325
 20
101.724692751
 10
171.6680071201
 20
101.6355916591
  0
LINE
  5
DC
330
1F
100
AcDbEntity
  8
0
  6
HIDDEN
 62
     7
370
     0
100
AcDbLine
 10
168.306771284
 20
102.0809345908
 30
0.0
 11
169.0174950606
 21
101.4243803392
 31
0.0
  0
LINE
  5
DD
330
1F
100
AcDbEntity
  8
0
  6
HIDDEN
 62
     7
370
     0
100
AcDbLine
 10
168.306771284
 20
102.0809345908
 30
0.0
 11
168.0599395067
 21
103.5016896072
 31
0.0
  0
LINE
  5
DE
330
1F
100
AcDbEntity
  8
0
  6
HIDDEN
 62
     7
370
     0
100
AcDbLine
 10
168.0599395067
 20
103.5016896072
 30
0.0
 11
168.5238315061
 21
104.2658903719
 31
0.0
  0
LINE
  5
DF
330
1F
100
AcDbEntity
  8
0
  6
HIDDEN
 62
     7
370
     0
100
AcDbLine
 10
169.48138706
 20
102.1885811039
 30
0.0
 11
169.0174950606
 21
101.4243803392
 31
0.0
  0
LINE
  5
E0
330
1F
100
AcDbEntity
  8
0
  6
HIDDEN
 62
     7
370
     0
100
AcDbLine
 10
169.48138706
 20
102.1885811039
 30
0.0
 11
169.2345552827
 21
103.6093361202
 31
0.0
  0
LINE
  5
E1
330
1F
100
AcDbEntity
  8
0
  6
HIDDEN
 62
     7
370
     0
100
AcDbLine
 10
169.2345552827
 20
103.6093361202
 30
0.0
 11
168.5238315061
 21
104.2658903719
 31
0.0
  0
LINE
  5
E2
330
1F
100
AcDbEntity
  8
0
  6
HIDDEN
 62
     7
370
     0
100
AcDbLine
 10
168.0599395067
 20
103.5016896072
 30
0.0
 11
166.3278886991
 21
103.1596694638
 31
0.0
  0
LINE
  5
E3
330
1F
100
AcDbEntity
  8
0
  6
HIDDEN
 62
     7
370
     0
100
AcDbLine
 10
168.5238315061
 20
104.2658903719
 30
0.0
 11
166.7917806985
 21
103.9238702285
 31
0.0
  0
LINE
  5
E4
330
1F
100
AcDbEntity
  8
0
  6
HIDDEN
 62
     7
370
     0
100
AcDbLine
 10
168.306771284
 20
102.0809345908
 30
0.0
 11
166.5747204764
 21
101.7389144475
 31
0.0
  0
LINE
  5
E5
330
1F
100
AcDbEntity
  8
0
  6
HIDDEN
 62
     7
370
     0
100
AcDbLine
 10
169.0174950606
 20
101.4243803392
 30
0.0
 11
167.285444253
 21
101.0823601959
 31
0.0
  0
LWPOLYLINE
  5
E6
330
1F
100
AcDbEntity
  8
0
  6
HIDDEN
 62
     7
370
     0
100
AcDbPolyline
 90
       22
 70
   128
 43
0.0
 10
170.2916952627
 20
127.3738121394
 10
169.9644649289
 20
127.5148688286
 10
169.7042979347
 20
127.8620466568
 10
169.5343112591
 20
128.3844973504
 10
169.4696089643
 20
129.0357988726
 10
169.5159401332
 20
129.758080225
 10
169.6691880379
 20
130.4871635396
 10
169.9157359297
 20
131.1582665645
 10
170.2336769465
 20
131.7117588508
 10
170.5947606336
 20
132.0984601799
 10
170.9669031208
 20
132.2840104417
 10
171.3170379151
 20
132.2519226812
 10
171.6140540034
 20
132.0050480367
 10
171.8315602029
 20
131.5653224037
 10
171.9502301331
 20
130.9718173346
 10
171.9595194501
 20
130.2772683591
 10
171.8586027572
 20
129.5433892018
 10
171.6564469456
 20
128.8353882463
 10
171.3710144461
 20
128.2161744846
 10
171.027667189
 20
127.7407677768
 10
170.6569130848
 20
127.4514100951
 10
170.2916952627
 20
127.3738121394
  0
LWPOLYLINE
  5
E7
330
1F
100
AcDbEntity
  8
0
  6
HIDDEN
 62
     7
370
     0
100
AcDbPolyline
 90
       18
 70
   128
 43
0.0
 10
171.0694718693
 20
127.9838005477
 10
170.7926566328
 20
128.1273426076
 10
170.593644579
 20
128.4841416688
 10
170.4993133885
 20
129.006010041
 10
170.5224030113
 20
129.6224665086
 10
170.6597950659
 20
130.2502552099
 10
170.892933994
 20
130.8045898021
 10
171.1903330915
 20
131.2106043268
 10
171.5118269623
 20
131.4134642726
 10
171.8139960778
 20
131.3857722798
 10
172.0560308244
 20
131.1312683054
 10
172.2052430686
 20
130.6843245215
 10
172.2414808698
 20
130.1053031626
 10
172.1598501124
 20
129.4724042718
 10
171.9713754823
 20
128.8711043512
 10
171.7015115227
 20
128.3826122871
 10
171.3867048569
 20
128.0729016396
 10
171.0694718693
 20
127.9838005477
  0
LWPOLYLINE
  5
E8
330
1F
100
AcDbEntity
  8
0
  6
HIDDEN
 62
     7
370
     0
100
AcDbPolyline
 90
       22
 70
   128
 43
0.0
 10
166.8335872966
 20
128.0566688876
 10
166.5063569629
 20
128.1977255768
 10
166.2461899686
 20
128.544903405
 10
166.076203293
 20
129.0673540986
 10
166.0115009983
 20
129.7186556208
 10
166.0578321671
 20
130.4409369732
 10
166.2110800718
 20
131.1700202878
 10
166.4576279636
 20
131.8411233127
 10
166.7755689804
 20
132.394615599
 10
167.1366526675
 20
132.7813169281
 10
167.5087951548
 20
132.9668671899
 10
167.858929949
 20
132.9347794294
 10
168.1559460373
 20
132.6879047849
 10
168.3734522368
 20
132.248179152
 10
168.492122167
 20
131.6546740828
 10
168.501411484
 20
130.9601251073
 10
168.4004947911
 20
130.22624595
 10
168.1983389795
 20
129.5182449945
 10
167.91290648
 20
128.8990312328
 10
167.5695592229
 20
128.423624525
 10
167.1988051187
 20
128.1342668433
 10
166.8335872966
 20
128.0566688876
  0
LWPOLYLINE
  5
E9
330
1F
100
AcDbEntity
  8
0
  6
HIDDEN
 62
     7
370
     0
100
AcDbPolyline
 90
       20
 70
   128
 43
0.0
 10
166.6871867785
 20
128.5386308814
 10
166.3927195603
 20
128.6769626097
 10
166.1682448616
 20
129.0195050587
 10
166.038087999
 20
129.5291384388
 10
166.0163534882
 20
130.1506360656
 10
166.1053966007
 20
130.8166490278
 10
166.2955681336
 20
131.4550044865
 10
166.5662600504
 20
131.9965267227
 10
166.8881386819
 20
132.3825333997
 10
167.2263234838
 20
132.5711947043
 10
167.5441668853
 20
132.5420662568
 10
167.8072256221
 20
132.2983045766
 10
167.9869931982
 20
131.866325024
 10
168.0639890074
 20
131.2929392864
 10
168.029869359
 20
130.6402826055
 10
167.8883316464
 20
129.9790804596
 10
167.6547136769
 20
129.3809843609
 10
167.3543315824
 20
128.9108073021
 10
167.0197364239
 20
128.619500263
 10
166.6871867785
 20
128.5386308814
  0
LINE
  5
EA
330
1F
100
AcDbEntity
  8
0
  6
HIDDEN
 62
     7
370
     0
100
AcDbLine
 10
168.306771284
 20
130.9836054388
 30
0.0
 11
169.0174950606
 21
131.6401596904
 31
0.0
  0
LINE
  5
EB
330
1F
100
AcDbEntity
  8
0
  6
HIDDEN
 62
     7
370
     0
100
AcDbLine
 10
168.0599395067
 20
129.5628504224
 30
0.0
 11
168.306771284
 21
130.9836054388
 31
0.0
  0
LINE
  5
EC
330
1F
100
AcDbEntity
  8
0
  6
HIDDEN
 62
     7
370
     0
100
AcDbLine
 10
168.306771284
 20
130.9836054388
 30
0.0
 11
166.5747204764
 21
131.3256255821
 31
0.0
  0
LINE
  5
ED
330
1F
100
AcDbEntity
  8
0
  6
HIDDEN
 62
     7
370
     0
100
AcDbLine
 10
168.0599395067
 20
129.5628504224
 30
0.0
 11
166.3278886991
 21
129.9048705657
 31
0.0
  0
LINE
  5
EE
330
1F
100
AcDbEntity
  8
0
  6
HIDDEN
 62
     7
370
     0
100
AcDbLine
 10
168.0599395067
 20
129.5628504224
 30
0.0
 11
168.5238315061
 21
128.7986496577
 31
0.0
  0
LINE
  5
EF
330
1F
100
AcDbEntity
  8
0
  6
HIDDEN
 62
     7
370
     0
100
AcDbLine
 10
166.3278886991
 20
129.9048705657
 30
0.0
 11
166.7917806985
 21
129.140669801
 31
0.0
  0
LINE
  5
F0
330
1F
100
AcDbEntity
  8
0
  6
HIDDEN
 62
     7
370
     0
100
AcDbLine
 10
166.3278886991
 20
129.9048705657
 30
0.0
 11
166.5747204764
 21
131.3256255821
 31
0.0
  0
LINE
  5
F1
330
1F
100
AcDbEntity
  8
0
  6
HIDDEN
 62
     7
370
     0
100
AcDbLine
 10
166.5747204764
 20
131.3256255821
 30
0.0
 11
167.285444253
 21
131.9821798337
 31
0.0
  0
LINE
  5
F2
330
1F
100
AcDbEntity
  8
0
  6
HIDDEN
 62
     7
370
     0
100
AcDbLine
 10
169.48138706
 20
130.8759589257
 30
0.0
 11
167.7493362524
 21
131.217979069
 31
0.0
  0
LINE
  5
F3
330
1F
100
AcDbEntity
  8
0
  6
HIDDEN
 62
     7
370
     0
100
AcDbLine
 10
167.7493362524
 20
131.217979069
 30
0.0
 11
167.285444253
 21
131.9821798337
 31
0.0
  0
LINE
  5
F4
330
1F
100
AcDbEntity
  8
0
  6
HIDDEN
 62
     7
370
     0
100
AcDbLine
 10
169.48138706
 20
130.8759589257
 30
0.0
 11
169.0174950606
 21
131.6401596904
 31
0.0
  0
LINE
  5
F5
330
1F
100
AcDbEntity
  8
0
  6
HIDDEN
 62
     7
370
     0
100
AcDbLine
 10
169.0174950606
 20
131.6401596904
 30
0.0
 11
167.285444253
 21
131.9821798337
 31
0.0
  0
LINE
  5
F6
330
1F
100
AcDbEntity
  8
0
  6
HIDDEN
 62
     7
370
     0
100
AcDbLine
 10
169.2345552827
 20
129.4552039093
 30
0.0
 11
167.5025044751
 21
129.7972240527
 31
0.0
  0
LINE
  5
F7
330
1F
100
AcDbEntity
  8
0
  6
HIDDEN
 62
     7
370
     0
100
AcDbLine
 10
167.5025044751
 20
129.7972240527
 30
0.0
 11
166.7917806985
 21
129.140669801
 31
0.0
  0
LINE
  5
F8
330
1F
100
AcDbEntity
  8
0
  6
HIDDEN
 62
     7
370
     0
100
AcDbLine
 10
168.5238315061
 20
128.7986496577
 30
0.0
 11
166.7917806985
 21
129.140669801
 31
0.0
  0
LINE
  5
F9
330
1F
100
AcDbEntity
  8
0
  6
HIDDEN
 62
     7
370
     0
100
AcDbLine
 10
169.2345552827
 20
129.4552039093
 30
0.0
 11
168.5238315061
 21
128.7986496577
 31
0.0
  0
LINE
  5
FA
330
1F
100
AcDbEntity
  8
0
  6
HIDDEN
 62
     7
370
     0
100
AcDbLine
 10
167.5025044751
 20
129.7972240527
 30
0.0
 11
167.7493362524
 21
131.217979069
 31
0.0
  0
LINE
  5
FB
330
1F
100
AcDbEntity
  8
0
  6
HIDDEN
 62
     7
370
     0
100
AcDbLine
 10
169.2345552827
 20
129.4552039093
 30
0.0
 11
169.48138706
 21
130.8759589257
 31
0.0
  0
LWPOLYLINE
  5
FC
330
1F
100
AcDbEntity
  8
0
  6
HIDDEN
 62
     7
370
     0
100
AcDbPolyline
 90
       24
 70
   128
 43
0.0
 10
187.3306513616
 20
127.4391918318
 10
186.6150800881
 20
127.0687019067
 10
185.8196721363
 20
126.8933667008
 10
185.0034192752
 20
126.9261900241
 10
184.2268592454
 20
127.164737521
 10
183.5475859519
 20
127.5913172148
 10
183.0159779873
 20
128.1742916412
 10
182.6714622824
 20
128.8704242539
 10
182.5395899911
 20
129.6280860815
 10
182.6301414778
 20
130.3910848125
 10
182.936400953
 20
131.1028323214
 10
183.4356545526
 20
131.7105415515
 10
184.0908749209
 20
132.1691414893
 10
184.8534673607
 20
132.4446198754
 10
185.6668738794
 20
132.5165457381
 10
186.4707678365
 20
132.3795846652
 10
187.2055280949
 20
132.0438944329
 10
187.8166608474
 20
131.5343716501
 10
188.2588411735
 20
130.8888052907
 10
188.4992745814
 20
130.1550740582
 10
188.520129225
 20
129.3875954416
 10
188.3198584109
 20
128.643289819
 10
187.9133153091
 20
127.9773589332
 10
187.3306513616
 20
127.4391918318
  0
LWPOLYLINE
  5
FD
330
1F
100
AcDbEntity
  8
0
  6
HIDDEN
 62
     7
370
     0
100
AcDbPolyline
 90
       19
 70
   128
 43
0.0
 10
186.7333050663
 20
127.8507895889
 10
186.1126673198
 20
127.5577202325
 10
185.4227900869
 20
127.4817942478
 10
184.7468827434
 20
127.632169429
 10
184.1664696904
 20
127.99070831
 10
183.7515573079
 20
128.5141658102
 10
183.5521901528
 20
129.1394052297
 10
183.5924148464
 20
129.7910134669
 10
183.8673796968
 20
130.3903969519
 10
184.3439198852
 20
130.8652611902
 10
184.9645576317
 20
131.1583305465
 10
185.6544348646
 20
131.2342565312
 10
186.3303422081
 20
131.08388135
 10
186.9107552611
 20
130.725342469
 10
187.3256676436
 20
130.2018849688
 10
187.5250347987
 20
129.5766455493
 10
187.4848101051
 20
128.9250373121
 10
187.2098452547
 20
128.3256538272
 10
186.7333050663
 20
127.8507895889
  0
LWPOLYLINE
  5
FE
330
1F
100
AcDbEntity
  8
0
  6
HIDDEN
 62
     7
370
     0
100
AcDbPolyline
 90
       24
 70
   128
 43
0.0
 10
187.3306513616
 20
128.6977778288
 10
186.6150800881
 20
128.3272879036
 10
185.8196721363
 20
128.1519526977
 10
185.0034192752
 20
128.184776021
 10
184.2268592454
 20
128.4233235179
 10
183.5475859519
 20
128.8499032117
 10
183.0159779873
 20
129.4328776381
 10
182.6714622824
 20
130.1290102508
 10
182.5395899911
 20
130.8866720784
 10
182.6301414778
 20
131.6496708094
 10
182.936400953
 20
132.3614183183
 10
183.4356545526
 20
132.9691275484
 10
184.0908749209
 20
133.4277274862
 10
184.8534673607
 20
133.7032058723
 10
185.6668738794
 20
133.775131735
 10
186.4707678365
 20
133.6381706621
 10
187.2055280949
 20
133.3024804298
 10
187.8166608474
 20
132.792957647
 10
188.2588411735
 20
132.1473912876
 10
188.4992745814
 20
131.4136600551
 10
188.520129225
 20
130.6461814385
 10
188.3198584109
 20
129.9018758159
 10
187.9133153091
 20
129.2359449301
 10
187.3306513616
 20
128.6977778288
  0
LINE
  5
FF
330
1F
100
AcDbEntity
  8
0
  6
HIDDEN
 62
     7
370
     0
100
AcDbLine
 10
186.2242705369
 20
131.8787209245
 30
0.0
 11
184.5039783426
 21
131.6893903123
 31
0.0
  0
LINE
  5
100
330
1F
100
AcDbEntity
  8
0
  6
HIDDEN
 62
     7
370
     0
100
AcDbLine
 10
186.2242705369
 20
131.8787209245
 30
0.0
 11
186.2242705369
 21
132.5627612112
 31
0.0
  0
LINE
  5
101
330
1F
100
AcDbEntity
  8
0
  6
HIDDEN
 62
     7
370
     0
100
AcDbLine
 10
187.25890467
 20
130.5734164317
 30
0.0
 11
186.2242705369
 21
131.8787209245
 31
0.0
  0
LINE
  5
102
330
1F
100
AcDbEntity
  8
0
  6
HIDDEN
 62
     7
370
     0
100
AcDbLine
 10
184.5039783426
 20
131.6893903123
 30
0.0
 11
184.5039783426
 21
132.373430599
 31
0.0
  0
LINE
  5
103
330
1F
100
AcDbEntity
  8
0
  6
HIDDEN
 62
     7
370
     0
100
AcDbLine
 10
183.8183202815
 20
130.1947552073
 30
0.0
 11
184.5039783426
 21
131.6893903123
 31
0.0
  0
LINE
  5
104
330
1F
100
AcDbEntity
  8
0
  6
HIDDEN
 62
     7
370
     0
100
AcDbLine
 10
186.5732466089
 20
129.0787813266
 30
0.0
 11
186.5732466089
 21
129.7628216133
 31
0.0
  0
LINE
  5
105
330
1F
100
AcDbEntity
  8
0
  6
HIDDEN
 62
     7
370
     0
100
AcDbLine
 10
187.25890467
 20
131.2574567183
 30
0.0
 11
186.5732466089
 21
129.7628216133
 31
0.0
  0
LINE
  5
106
330
1F
100
AcDbEntity
  8
0
  6
HIDDEN
 62
     7
370
     0
100
AcDbLine
 10
187.25890467
 20
130.5734164317
 30
0.0
 11
187.25890467
 21
131.2574567183
 31
0.0
  0
LINE
  5
107
330
1F
100
AcDbEntity
  8
0
  6
HIDDEN
 62
     7
370
     0
100
AcDbLine
 10
187.25890467
 20
130.5734164317
 30
0.0
 11
186.5732466089
 21
129.0787813266
 31
0.0
  0
LINE
  5
108
330
1F
100
AcDbEntity
  8
0
  6
HIDDEN
 62
     7
370
     0
100
AcDbLine
 10
184.8529544146
 20
128.8894507144
 30
0.0
 11
184.8529544146
 21
129.5734910011
 31
0.0
  0
LINE
  5
109
330
1F
100
AcDbEntity
  8
0
  6
HIDDEN
 62
     7
370
     0
100
AcDbLine
 10
184.8529544146
 20
129.5734910011
 30
0.0
 11
183.8183202815
 21
130.8787954939
 31
0.0
  0
LINE
  5
10A
330
1F
100
AcDbEntity
  8
0
  6
HIDDEN
 62
     7
370
     0
100
AcDbLine
 10
183.8183202815
 20
130.1947552073
 30
0.0
 11
183.8183202815
 21
130.8787954939
 31
0.0
  0
LINE
  5
10B
330
1F
100
AcDbEntity
  8
0
  6
HIDDEN
 62
     7
370
     0
100
AcDbLine
 10
184.8529544146
 20
128.8894507144
 30
0.0
 11
183.8183202815
 21
130.1947552073
 31
0.0
  0
LINE
  5
10C
330
1F
100
AcDbEntity
  8
0
  6
HIDDEN
 62
     7
370
     0
100
AcDbLine
 10
184.8529544146
 20
129.5734910011
 30
0.0
 11
186.5732466089
 21
129.7628216133
 31
0.0
  0
LINE
  5
10D
330
1F
100
AcDbEntity
  8
0
  6
HIDDEN
 62
     7
370
     0
100
AcDbLine
 10
184.8529544146
 20
128.8894507144
 30
0.0
 11
186.5732466089
 21
129.0787813266
 31
0.0
  0
LWPOLYLINE
  5
10E
330
1F
100
AcDbEntity
  8
0
  6
HIDDEN
 62
     7
370
     0
100
AcDbPolyline
 90
       22
 70
   128
 43
0.0
 10
186.9994228409
 20
129.2251535309
 10
186.3564344167
 20
128.9024174541
 10
185.6407789241
 20
128.772114095
 10
184.9160454942
 20
128.8458214791
 10
184.2466298727
 20
129.1169903817
 10
183.6920125752
 20
129.5615262558
 10
183.3014737826
 20
130.1399301382
 10
183.1097145804
 20
130.8008083057
 10
183.1337736153
 20
131.4854388329
 10
183.3715131363
 20
132.1329892929
 10
183.8018089438
 20
132.6859219858
 10
184.386427367
 20
133.0951064151
 10
185.0734224934
 20
133.3241847487
 10
185.8017517911
 20
133.3528023714
 10
186.5067000059
 20
133.1784164818
 10
187.1256293953
 20
132.8165220314
 10
187.6035453669
 20
132.2992749304
 10
187.8979829893
 20
131.6726348536
 10
187.9827801876
 20
130.9922815216
 10
187.8504023587
 20
130.3186673139
 10
187.5126118535
 20
129.7116458088
 10
186.9994228409
 20
129.2251535309
  0
LINE
  5
10F
330
1F
100
AcDbEntity
  8
0
  6
HIDDEN
 62
     7
370
     0
100
AcDbLine
 10
183.8183202815
 20
130.8787954939
 30
0.0
 11
184.5039783426
 21
132.373430599
 31
0.0
  0
LINE
  5
110
330
1F
100
AcDbEntity
  8
0
  6
HIDDEN
 62
     7
370
     0
100
AcDbLine
 10
187.25890467
 20
131.2574567183
 30
0.0
 11
186.2242705369
 21
132.5627612112
 31
0.0
  0
LINE
  5
111
330
1F
100
AcDbEntity
  8
0
  6
HIDDEN
 62
     7
370
     0
100
AcDbLine
 10
186.2242705369
 20
132.5627612112
 30
0.0
 11
184.5039783426
 21
132.373430599
 31
0.0
  0
LWPOLYLINE
  5
112
330
1F
100
AcDbEntity
  8
0
  6
HIDDEN
 62
     7
370
     0
100
AcDbPolyline
 90
       24
 70
   128
 43
0.0
 10
183.7465735899
 20
104.3667622008
 10
183.1639096425
 20
103.8285950994
 10
182.7573665407
 20
103.1626642137
 10
182.5570957265
 20
102.418358591
 10
182.5779503701
 20
101.6508799745
 10
182.818383778
 20
100.917148742
 10
183.2605641041
 20
100.2715823826
 10
183.8716968566
 20
99.7620595998
 10
184.606457115
 20
99.4263693675
 10
185.4103510721
 20
99.2894082946
 10
186.2237575908
 20
99.3613341572
 10
186.9863500306
 20
99.6368125433
 10
187.6415703989
 20
100.0954124812
 10
188.1408239985
 20
100.7031217113
 10
188.4470834738
 20
101.4148692202
 10
188.5376349605
 20
102.1778679512
 10
188.4057626691
 20
102.9355297788
 10
188.0612469642
 20
103.6316623915
 10
187.5296389996
 20
104.2146368179
 10
186.8503657061
 20
104.6412165117
 10
186.0738056763
 20
104.8797640086
 10
185.2575528152
 20
104.9125873319
 10
184.4621448634
 20
104.7372521259
 10
183.7465735899
 20
104.3667622008
  0
LWPOLYLINE
  5
113
330
1F
100
AcDbEntity
  8
0
  6
HIDDEN
 62
     7
370
     0
100
AcDbPolyline
 90
       24
 70
   128
 43
0.0
 10
183.7465735899
 20
105.6253481977
 10
183.1639096425
 20
105.0871810963
 10
182.7573665407
 20
104.4212502106
 10
182.5570957265
 20
103.6769445879
 10
182.5779503701
 20
102.9094659714
 10
182.818383778
 20
102.1757347389
 10
183.2605641041
 20
101.5301683795
 10
183.8716968566
 20
101.0206455967
 10
184.606457115
 20
100.6849553644
 10
185.4103510721
 20
100.5479942915
 10
186.2237575908
 20
100.6199201542
 10
186.9863500306
 20
100.8953985402
 10
187.6415703989
 20
101.3539984781
 10
188.1408239985
 20
101.9617077082
 10
188.4470834738
 20
102.6734552171
 10
188.5376349605
 20
103.4364539481
 10
188.4057626691
 20
104.1941157757
 10
188.0612469642
 20
104.8902483884
 10
187.5296389996
 20
105.4732228148
 10
186.8503657061
 20
105.8998025086
 10
186.0738056763
 20
106.1383500055
 10
185.2575528152
 20
106.1711733288
 10
184.4621448634
 20
105.9958381228
 10
183.7465735899
 20
105.6253481977
  0
LINE
  5
114
330
1F
100
AcDbEntity
  8
0
  6
HIDDEN
 62
     7
370
     0
100
AcDbLine
 10
186.2242705369
 20
104.1750893151
 30
0.0
 11
186.2242705369
 21
103.4910490285
 31
0.0
  0
LINE
  5
115
330
1F
100
AcDbEntity
  8
0
  6
HIDDEN
 62
     7
370
     0
100
AcDbLine
 10
184.5039783426
 20
103.985758703
 30
0.0
 11
184.5039783426
 21
103.3017184163
 31
0.0
  0
LINE
  5
116
330
1F
100
AcDbEntity
  8
0
  6
HIDDEN
 62
     7
370
     0
100
AcDbLine
 10
187.25890467
 20
102.8697848223
 30
0.0
 11
187.0601403782
 21
102.4365075008
 31
0.0
  0
LINE
  5
117
330
1F
100
AcDbEntity
  8
0
  6
HIDDEN
 62
     7
370
     0
100
AcDbLine
 10
187.25890467
 20
102.8697848223
 30
0.0
 11
187.25890467
 21
102.1857445356
 31
0.0
  0
LINE
  5
118
330
1F
100
AcDbEntity
  8
0
  6
HIDDEN
 62
     7
370
     0
100
AcDbLine
 10
183.8183202815
 20
102.4911235979
 30
0.0
 11
184.0170845733
 21
102.2403606327
 31
0.0
  0
LINE
  5
119
330
1F
100
AcDbEntity
  8
0
  6
HIDDEN
 62
     7
370
     0
100
AcDbLine
 10
183.8183202815
 20
102.4911235979
 30
0.0
 11
183.8183202815
 21
101.8070833113
 31
0.0
  0
LINE
  5
11A
330
1F
100
AcDbEntity
  8
0
  6
HIDDEN
 62
     7
370
     0
100
AcDbLine
 10
183.8183202815
 20
102.4911235979
 30
0.0
 11
184.5039783426
 21
103.985758703
 31
0.0
  0
LINE
  5
11B
330
1F
100
AcDbEntity
  8
0
  6
HIDDEN
 62
     7
370
     0
100
AcDbLine
 10
186.2242705369
 20
104.1750893151
 30
0.0
 11
187.25890467
 21
102.8697848223
 31
0.0
  0
LINE
  5
11C
330
1F
100
AcDbEntity
  8
0
  6
HIDDEN
 62
     7
370
     0
100
AcDbLine
 10
186.2242705369
 20
104.1750893151
 30
0.0
 11
184.5039783426
 21
103.985758703
 31
0.0
  0
LWPOLYLINE
  5
11D
330
1F
100
AcDbEntity
  8
0
  6
HIDDEN
 62
     7
370
     0
100
AcDbPolyline
 90
       19
 70
   128
 43
0.0
 10
184.3439198852
 20
105.2137504407
 10
183.8673796968
 20
104.7388862024
 10
183.5924148464
 20
104.1395027175
 10
183.5521901528
 20
103.4878944803
 10
183.7515573079
 20
102.8626550607
 10
184.1664696904
 20
102.3391975606
 10
184.7468827434
 20
101.9806586796
 10
185.4227900869
 20
101.8302834984
 10
186.1126673198
 20
101.9062094831
 10
186.7333050664
 20
102.1992788394
 10
187.2098452547
 20
102.6741430777
 10
187.4848101051
 20
103.2735265626
 10
187.5250347987
 20
103.9251347999
 10
187.3256676436
 20
104.5503742194
 10
186.9107552611
 20
105.0738317196
 10
186.3303422081
 20
105.4323706006
 10
185.6544348646
 20
105.5827457818
 10
184.9645576317
 20
105.506819797
 10
184.3439198852
 20
105.2137504407
  0
CIRCLE
  5
11E
330
1F
100
AcDbEntity
  8
0
  6
HIDDEN
 62
     7
370
     0
100
AcDbCircle
 10
220.2886124758
 20
116.5322700148
 30
0.0
 40
1.426794919243119
  0
CIRCLE
  5
11F
330
1F
100
AcDbEntity
  8
0
  6
HIDDEN
 62
     7
370
     0
100
AcDbCircle
 10
220.2886124758
 20
116.5322700148
 30
0.0
 40
1.326794919243129
  0
SPLINE
  5
120
330
1F
100
AcDbEntity
  8
0
  6
HIDDEN
 62
     7
370
     0
100
AcDbSpline
210
0.0
220
0.0
230
1.0
 70
     8
 71
     3
 72
     9
 73
     5
 74
     0
 42
0.000000001
 43
0.00000001
 40
0.0
 40
0.0
 40
0.0
 40
0.0
 40
0.326715502844845
 40
1.0
 40
1.0
 40
1.0
 40
1.0
 10
194.9625799494889
 20
66.90850957438646
 30
0.0
 10
194.8057870713714
 20
66.95059180340634
 30
0.0
 10
194.3258806183498
 20
67.07939569747765
 30
0.0
 10
193.5716690774242
 20
67.25442234559716
 30
0.0
 10
193.0638701393435
 20
67.37226507436509
 30
0.0
  0
LWPOLYLINE
  5
121
330
1F
100
AcDbEntity
  8
0
  6
HIDDEN
 62
     7
370
     0
100
AcDbPolyline
 90
       24
 70
   128
 43
0.0
 10
165.6079995876
 20
102.5031152122
 10
165.7827127146
 20
101.7056478003
 10
166.0505701814
 20
100.9673248981
 10
166.3917062253
 20
100.3429045378
 10
166.7808203463
 20
99.8786971209
 10
167.1890537303
 20
99.6091307879
 10
167.5861295746
 20
99.5541980406
 10
167.9425985805
 20
99.7179729894
 10
168.2320230724
 20
100.0883091958
 10
168.4329377598
 20
100.6377405174
 10
168.5304417196
 20
101.3255181466
 10
168.517303529
 20
102.100632763
 10
168.3944975875
 20
102.9055976614
 10
168.1711318501
 20
103.6807122778
 10
167.8637723316
 20
104.368489907
 10
167.4952144814
 20
104.9179212286
 10
167.0927925493
 20
105.288257435
 10
166.686352329
 20
105.4520323838
 10
166.3060376323
 20
105.3970996365
 10
165.9800546605
 20
105.1275333035
 10
165.7325800792
 20
104.6633258866
 10
165.581967946
 20
104.0389055263
 10
165.539388474
 20
103.3005826241
 10
165.6079995876
 20
102.5031152122
  0
LWPOLYLINE
  5
122
330
1F
100
AcDbEntity
  8
0
  6
HIDDEN
 62
     7
370
     0
100
AcDbPolyline
 90
       20
 70
   128
 43
0.0
 10
166.3208701762
 20
102.5591335305
 10
166.4776243179
 20
101.8873090643
 10
166.7259120892
 20
101.2882872035
 10
167.0388276577
 20
100.8269812614
 10
167.3824617661
 20
100.5533808948
 10
167.7195763267
 20
100.4971349487
 10
168.013639746
 20
100.6643385442
 10
168.2327856897
 20
101.0368725772
 10
168.3532662943
 20
101.5743672048
 10
168.362025617
 20
102.218576544
 10
168.2581144491
 20
102.8996905169
 10
168.0527931781
 20
103.5438998561
 10
167.7683115496
 20
104.0813944837
 10
167.4354975621
 20
104.4539285167
 10
167.0904167755
 20
104.6211321122
 10
166.7704640473
 20
104.5648861661
 10
166.5103112204
 20
104.2912857995
 10
166.33814989
 20
103.8299798574
 10
166.2726364079
 20
103.2309579966
 10
166.3208701762
 20
102.5591335305
  0
SPLINE
  5
123
330
1F
100
AcDbEntity
  8
0
  6
HIDDEN
 62
     7
370
     0
100
AcDbSpline
210
0.0
220
0.0
230
1.0
 70
    11
 71
     3
 72
    60
 73
    56
 74
     0
 42
0.000000001
 43
0.00000001
 40
0.0
 40
0.0
 40
0.0
 40
0.0
 40
0.03125
 40
0.03125
 40
0.0625000000000001
 40
0.0625000000000001
 40
0.0937500000000001
 40
0.0937500000000001
 40
0.1250000000000001
 40
0.1250000000000001
 40
0.1562500000000001
 40
0.1562500000000001
 40
0.1875000000000001
 40
0.1875000000000001
 40
0.2499999999999998
 40
0.2499999999999998
 40
0.2812499999999997
 40
0.2812499999999997
 40
0.3124999999999997
 40
0.3124999999999997
 40
0.3437499999999996
 40
0.3437499999999996
 40
0.3749999999999995
 40
0.3749999999999995
 40
0.4374999999999996
 40
0.4374999999999996
 40
0.4999999999999997
 40
0.4999999999999997
 40
0.5312499999999997
 40
0.5312499999999997
 40
0.5624999999999998
 40
0.5624999999999998
 40
0.5937499999999998
 40
0.5937499999999998
 40
0.6249999999999999
 40
0.6249999999999999
 40
0.6562499999999999
 40
0.6562499999999999
 40
0.6875
 40
0.6875
 40
0.71875
 40
0.71875
 40
0.75
 40
0.75
 40
0.7812500000000001
 40
0.7812500000000001
 40
0.8125000000000001
 40
0.8125000000000001
 40
0.8437500000000002
 40
0.8437500000000002
 40
0.8750000000000002
 40
0.8750000000000002
 40
0.9375000000000001
 40
0.9375000000000001
 40
1.0
 40
1.0
 40
1.0
 40
1.0
 10
187.0734974886889
 20
114.4322700147893
 30
0.0
 10
187.0137996866589
 20
114.4322700147893
 30
0.0
 10
186.9631822578631
 20
114.445087271943
 30
0.0
 10
186.8985857564621
 20
114.502435638829
 30
0.0
 10
186.8873499633378
 20
114.5458472596789
 30
0.0
 10
186.9139103680302
 20
114.6627774227128
 30
0.0
 10
186.9508467362532
 20
114.7339215851709
 30
0.0
 10
187.0516976196249
 20
114.8944977780206
 30
0.0
 10
187.1135121049505
 20
114.9816238367923
 30
0.0
 10
187.245832796498
 20
115.1702271660569
 30
0.0
 10
187.3170414442564
 20
115.2725070904031
 30
0.0
 10
187.4575356036405
 20
115.4882518991484
 30
0.0
 10
187.5272366339036
 20
115.602080465792
 30
0.0
 10
187.7278007383015
 20
115.9656129840347
 30
0.0
 10
187.8474443107748
 20
116.2334822344669
 30
0.0
 10
187.9696269616124
 20
116.6589052744056
 30
0.0
 10
188.0000811135052
 20
116.8015802210059
 30
0.0
 10
188.0370286418278
 20
117.0891091810507
 30
0.0
 10
188.0427769332157
 20
117.2305051987581
 30
0.0
 10
188.0284004588807
 20
117.499073757477
 30
0.0
 10
188.0078771948212
 20
117.628680714249
 30
0.0
 10
187.9450082132248
 20
117.862739094047
 30
0.0
 10
187.9021383131508
 20
117.9701466266547
 30
0.0
 10
187.7502140516545
 20
118.2539379044159
 30
0.0
 10
187.6169410266632
 20
118.3945861332165
 30
0.0
 10
187.3405814344078
 20
118.5819497271523
 30
0.0
 10
187.1916359039498
 20
118.6322837408996
 30
0.0
 10
187.0143575381651
 20
118.6322631476255
 30
0.0
 10
186.9627949698511
 20
118.6191301363641
 30
0.0
 10
186.8989099278127
 20
118.562370956486
 30
0.0
 10
186.887465493318
 20
118.517485657114
 30
0.0
 10
186.9141129001315
 20
118.4015779226529
 30
0.0
 10
186.9515723359774
 20
118.3294418903537
 30
0.0
 10
187.0512444828506
 20
118.1707850444528
 30
0.0
 10
187.114023810475
 20
118.0821901108903
 30
0.0
 10
187.2465849403788
 20
117.8932374862125
 30
0.0
 10
187.3164969640728
 20
117.7928170807055
 30
0.0
 10
187.456462772739
 20
117.5779869571939
 30
0.0
 10
187.5272535183911
 20
117.4623831560089
 30
0.0
 10
187.6601926219746
 20
117.2215157045938
 30
0.0
 10
187.7226442643372
 20
117.0960800214359
 30
0.0
 10
187.8356721205186
 20
116.8329336300722
 30
0.0
 10
187.8868169768772
 20
116.6931759447839
 30
0.0
 10
187.9683882421618
 20
116.4107146447917
 30
0.0
 10
187.999322165854
 20
116.2672440050327
 30
0.0
 10
188.036853593778
 20
115.9783749956015
 30
0.0
 10
188.042761855012
 20
115.8386986342904
 30
0.0
 10
188.0288350256718
 20
115.5687831378645
 30
0.0
 10
188.0085458620614
 20
115.4392853682235
 30
0.0
 10
187.9460311326122
 20
115.2046975061245
 30
0.0
 10
187.9031253164222
 20
115.0966542440551
 30
0.0
 10
187.7517430024739
 20
114.8126381847732
 30
0.0
 10
187.6185950145691
 20
114.671436754084
 30
0.0
 10
187.3419211881299
 20
114.4831410016184
 30
0.0
 10
187.192893092749
 20
114.4322700147893
 30
0.0
 10
187.0734974886889
 20
114.4322700147893
 30
0.0
  0
SPLINE
  5
124
330
1F
100
AcDbEntity
  8
0
  6
HIDDEN
 62
     7
370
     0
100
AcDbSpline
210
0.0
220
0.0
230
1.0
 70
    11
 71
     3
 72
    62
 73
    58
 74
     0
 42
0.000000001
 43
0.00000001
 40
0.0
 40
0.0
 40
0.0
 40
0.0
 40
0.0624999999999998
 40
0.0624999999999998
 40
0.1249999999999997
 40
0.1249999999999997
 40
0.1562499999999998
 40
0.1562499999999998
 40
0.1874999999999998
 40
0.1874999999999998
 40
0.2187499999999999
 40
0.2187499999999999
 40
0.2499999999999999
 40
0.2499999999999999
 40
0.28125
 40
0.28125
 40
0.3125
 40
0.3125
 40
0.3750000000000001
 40
0.3750000000000001
 40
0.4062500000000002
 40
0.4062500000000002
 40
0.4375000000000002
 40
0.4375000000000002
 40
0.4687500000000003
 40
0.4687500000000003
 40
0.5000000000000003
 40
0.5000000000000003
 40
0.5312500000000003
 40
0.5312500000000003
 40
0.5625000000000004
 40
0.5625000000000004
 40
0.5937500000000004
 40
0.5937500000000004
 40
0.6250000000000004
 40
0.6250000000000004
 40
0.6562500000000006
 40
0.6562500000000006
 40
0.6875000000000006
 40
0.6875000000000006
 40
0.7187500000000006
 40
0.7187500000000006
 40
0.7500000000000006
 40
0.7500000000000006
 40
0.8125000000000004
 40
0.8125000000000004
 40
0.8437500000000003
 40
0.8437500000000003
 40
0.8750000000000003
 40
0.8750000000000003
 40
0.9062500000000002
 40
0.9062500000000002
 40
0.9375000000000001
 40
0.9375000000000001
 40
0.9687500000000001
 40
0.9687500000000001
 40
1.0
 40
1.0
 40
1.0
 40
1.0
 10
184.0037274628253
 20
114.4322700147893
 30
0.0
 10
183.8845028647549
 20
114.4322700147893
 30
0.0
 10
183.7393290169634
 20
114.4810588377853
 30
0.0
 10
183.4599785107679
 20
114.6698741880907
 30
0.0
 10
183.3303908412256
 20
114.8060143033419
 30
0.0
 10
183.1770205361363
 20
115.0899483220963
 30
0.0
 10
183.1346348790237
 20
115.1949772022302
 30
0.0
 10
183.0708484179651
 20
115.4282243618458
 30
0.0
 10
183.0499079663776
 20
115.5569411848354
 30
0.0
 10
183.0344058759617
 20
115.8238972665995
 30
0.0
 10
183.0395954196084
 20
115.9661985723742
 30
0.0
 10
183.0752124283671
 20
116.2521776021835
 30
0.0
 10
183.1051839051711
 20
116.395528360989
 30
0.0
 10
183.1860890681396
 20
116.6805219052395
 30
0.0
 10
183.2357121019011
 20
116.8178867226661
 30
0.0
 10
183.3489965259378
 20
117.0843896355024
 30
0.0
 10
183.412464529571
 20
117.2126041592688
 30
0.0
 10
183.6108011111549
 20
117.5738005864024
 30
0.0
 10
183.759641190539
 20
117.7919682592259
 30
0.0
 10
183.9576788124824
 20
118.0743504663804
 30
0.0
 10
184.0196441705821
 20
118.1615143571369
 30
0.0
 10
184.1218288872612
 20
118.3226183243895
 30
0.0
 10
184.1602181903239
 20
118.3945935374326
 30
0.0
 10
184.1900712198334
 20
118.5137259918179
 30
0.0
 10
184.1802893766141
 20
118.5586391466598
 30
0.0
 10
184.1179021985596
 20
118.6178605458927
 30
0.0
 10
184.067797964361
 20
118.6314665990676
 30
0.0
 10
183.9501133072361
 20
118.6330054214696
 30
0.0
 10
183.8824534650485
 20
118.620692674463
 30
0.0
 10
183.7448537088017
 20
118.5736194626226
 30
0.0
 10
183.6741176954588
 20
118.5388251298699
 30
0.0
 10
183.5345006860163
 20
118.4455777646377
 30
0.0
 10
183.4660742807393
 20
118.3871633550217
 30
0.0
 10
183.3402259858107
 20
118.2486228340922
 30
0.0
 10
183.2821149639903
 20
118.1681595647735
 30
0.0
 10
183.1797512684399
 20
117.9805874055983
 30
0.0
 10
183.1361270944582
 20
117.8737355350971
 30
0.0
 10
183.0717580966302
 20
117.6408786964815
 30
0.0
 10
183.0503447181281
 20
117.511533572521
 30
0.0
 10
183.0343384320777
 20
117.242984926507
 30
0.0
 10
183.0392650203962
 20
117.1020979099648
 30
0.0
 10
183.0749514388893
 20
116.8133724685829
 30
0.0
 10
183.1049457895675
 20
116.6700186837603
 30
0.0
 10
183.2262121225129
 20
116.2423473266298
 30
0.0
 10
183.3470117354142
 20
115.9707571784306
 30
0.0
 10
183.5466150889235
 20
115.6078219841837
 30
0.0
 10
183.616194361418
 20
115.4938437364757
 30
0.0
 10
183.7568958764947
 20
115.2773412988033
 30
0.0
 10
183.8283983367764
 20
115.1745097805591
 30
0.0
 10
183.9613406012305
 20
114.9849903323913
 30
0.0
 10
184.023586481615
 20
114.8973470206964
 30
0.0
 10
184.1253014521434
 20
114.7358699517777
 30
0.0
 10
184.1624843571105
 20
114.664889859694
 30
0.0
 10
184.1900219353273
 20
114.546704541685
 30
0.0
 10
184.1788881350447
 20
114.5028493149714
 30
0.0
 10
184.1143556961198
 20
114.4451741520338
 30
0.0
 10
184.0633397618606
 20
114.4322700147893
 30
0.0
 10
184.0037274628253
 20
114.4322700147894
 30
0.0
  0
SPLINE
  5
125
330
1F
100
AcDbEntity
  8
0
  6
HIDDEN
 62
     7
370
     0
100
AcDbSpline
210
0.0
220
0.0
230
1.0
 70
    11
 71
     3
 72
    60
 73
    56
 74
     0
 42
0.000000001
 43
0.00000001
 40
0.0
 40
0.0
 40
0.0
 40
0.0
 40
0.0312499999999997
 40
0.0312499999999997
 40
0.0624999999999993
 40
0.0624999999999993
 40
0.093749999999999
 40
0.093749999999999
 40
0.1249999999999986
 40
0.1249999999999986
 40
0.1562499999999983
 40
0.1562499999999983
 40
0.1874999999999979
 40
0.1874999999999979
 40
0.2187499999999976
 40
0.2187499999999976
 40
0.2499999999999973
 40
0.2499999999999973
 40
0.3124999999999963
 40
0.3124999999999963
 40
0.3749999999999954
 40
0.3749999999999954
 40
0.4062499999999947
 40
0.4062499999999947
 40
0.4374999999999941
 40
0.4374999999999941
 40
0.4531249999999939
 40
0.4531249999999939
 40
0.4687499999999938
 40
0.4687499999999938
 40
0.4999999999999941
 40
0.4999999999999941
 40
0.5624999999999953
 40
0.5624999999999953
 40
0.6249999999999966
 40
0.6249999999999966
 40
0.6874999999999978
 40
0.6874999999999978
 40
0.718749999999998
 40
0.718749999999998
 40
0.7499999999999981
 40
0.7499999999999981
 40
0.7812499999999983
 40
0.7812499999999983
 40
0.8124999999999986
 40
0.8124999999999986
 40
0.8437499999999988
 40
0.8437499999999988
 40
0.874999999999999
 40
0.874999999999999
 40
0.9062499999999992
 40
0.9062499999999992
 40
0.9374999999999994
 40
0.9374999999999994
 40
1.0
 40
1.0
 40
1.0
 40
1.0
 10
183.1196374155374
 20
126.0017452150664
 30
0.0
 10
183.1592274983843
 20
125.8702646837125
 30
0.0
 10
183.2115391193044
 20
125.7510808330328
 30
0.0
 10
183.3372592249069
 20
125.5358873457049
 30
0.0
 10
183.4116822553512
 20
125.4392994400966
 30
0.0
 10
183.5703925635442
 20
125.2787385283416
 30
0.0
 10
183.6552711633497
 20
125.2134592916396
 30
0.0
 10
183.8270443828916
 20
125.1159571170824
 30
0.0
 10
183.9110546191876
 20
125.0854820202851
 30
0.0
 10
184.0564505424662
 20
125.0657330519277
 30
0.0
 10
184.1147167909755
 20
125.0775096014239
 30
0.0
 10
184.1813215157855
 20
125.1419299442072
 30
0.0
 10
184.1884824001833
 20
125.192643082287
 30
0.0
 10
184.1653370808011
 20
125.315666594662
 30
0.0
 10
184.1364289948314
 20
125.3861378209474
 30
0.0
 10
184.0610082369863
 20
125.5397594836118
 30
0.0
 10
184.0140627642099
 20
125.6233947517958
 30
0.0
 10
183.8624208725885
 20
125.8867749908059
 30
0.0
 10
183.7464937353253
 20
126.0803239162294
 30
0.0
 10
183.5128681643429
 20
126.5171933881254
 30
0.0
 10
183.3941853976411
 20
126.7601985223127
 30
0.0
 10
183.2377140886854
 20
127.1712730608425
 30
0.0
 10
183.1897274401333
 20
127.3149446263258
 30
0.0
 10
183.109118430343
 20
127.6154075542847
 30
0.0
 10
183.0764189014479
 20
127.773906808559
 30
0.0
 10
183.047998292104
 20
128.0091173303884
 30
0.0
 10
183.0418522201305
 20
128.0883649381849
 30
0.0
 10
183.0373740183656
 20
128.2400425086443
 30
0.0
 10
183.0388902287777
 20
128.3132505809527
 30
0.0
 10
183.0546531684542
 20
128.5250063121797
 30
0.0
 10
183.0801272231396
 20
128.6509044580411
 30
0.0
 10
183.1864919668884
 20
128.9726348240603
 30
0.0
 10
183.292369996159
 20
129.1106485404203
 30
0.0
 10
183.5155402171041
 20
129.2964603915505
 30
0.0
 10
183.6364266492313
 20
129.3453844263067
 30
0.0
 10
183.865509122913
 20
129.3814357520977
 30
0.0
 10
183.9756719411634
 20
129.369557568896
 30
0.0
 10
184.1036551085145
 20
129.3049500073466
 30
0.0
 10
184.139996453927
 20
129.2749427935831
 30
0.0
 10
184.1830864570871
 20
129.1944146700332
 30
0.0
 10
184.189571265689
 20
129.1428342527814
 30
0.0
 10
184.1535305129881
 20
129.0132870431558
 30
0.0
 10
184.1093112978628
 20
128.9334282186623
 30
0.0
 10
183.9836613230507
 20
128.7512987433574
 30
0.0
 10
183.9025371915693
 20
128.6472463033372
 30
0.0
 10
183.7355918214749
 20
128.424282407658
 30
0.0
 10
183.6477036567449
 20
128.3024790256127
 30
0.0
 10
183.4820641594959
 20
128.044917802553
 30
0.0
 10
183.4041180713585
 20
127.9094389422391
 30
0.0
 10
183.264862337687
 20
127.6226846208911
 30
0.0
 10
183.2058366187879
 20
127.476232583
 30
0.0
 10
183.1120516650847
 20
127.175987853098
 30
0.0
 10
183.0772386069752
 20
127.0202859969728
 30
0.0
 10
183.0189210022986
 20
126.5645230097112
 30
0.0
 10
183.0404572498438
 20
126.2647062777744
 30
0.0
 10
183.1196374155374
 20
126.0017452150664
 30
0.0
  0
SPLINE
  5
126
330
1F
100
AcDbEntity
  8
0
  6
HIDDEN
 62
     7
370
     0
100
AcDbSpline
210
0.0
220
0.0
230
1.0
 70
    11
 71
     3
 72
    66
 73
    62
 74
     0
 42
0.000000001
 43
0.00000001
 40
0.0
 40
0.0
 40
0.0
 40
0.0
 40
0.0312499999999997
 40
0.0312499999999997
 40
0.0624999999999995
 40
0.0624999999999995
 40
0.0937499999999992
 40
0.0937499999999992
 40
0.1249999999999989
 40
0.1249999999999989
 40
0.1562499999999986
 40
0.1562499999999986
 40
0.1874999999999984
 40
0.1874999999999984
 40
0.2187499999999981
 40
0.2187499999999981
 40
0.234374999999998
 40
0.234374999999998
 40
0.2499999999999978
 40
0.2499999999999978
 40
0.2812499999999976
 40
0.2812499999999976
 40
0.3124999999999973
 40
0.3124999999999973
 40
0.3749999999999972
 40
0.3749999999999972
 40
0.4374999999999966
 40
0.4374999999999966
 40
0.4687499999999966
 40
0.4687499999999966
 40
0.4999999999999967
 40
0.4999999999999967
 40
0.5312499999999968
 40
0.5312499999999968
 40
0.5624999999999968
 40
0.5624999999999968
 40
0.5937499999999969
 40
0.5937499999999969
 40
0.6249999999999969
 40
0.6249999999999969
 40
0.6874999999999971
 40
0.6874999999999971
 40
0.7499999999999973
 40
0.7499999999999973
 40
0.7812499999999978
 40
0.7812499999999978
 40
0.8124999999999982
 40
0.8124999999999982
 40
0.8437499999999986
 40
0.8437499999999986
 40
0.8593749999999988
 40
0.8593749999999988
 40
0.874999999999999
 40
0.874999999999999
 40
0.9062499999999992
 40
0.9062499999999992
 40
0.9374999999999996
 40
0.9374999999999996
 40
0.9687499999999998
 40
0.9687499999999998
 40
1.0
 40
1.0
 40
1.0
 40
1.0
 10
183.1196374155375
 20
105.8763091893787
 30
0.0
 10
183.0800471278975
 20
106.0299227090696
 30
0.0
 10
183.054786137216
 20
106.1821661366696
 30
0.0
 10
183.0336412312012
 20
106.4842710534181
 30
0.0
 10
183.0382889432948
 20
106.63475119726
 30
0.0
 10
183.0769826110804
 20
106.9171954705586
 30
0.0
 10
183.1112795701751
 20
107.0526421655318
 30
0.0
 10
183.2055903561245
 20
107.3017855641088
 30
0.0
 10
183.2647368964177
 20
107.4142769811316
 30
0.0
 10
183.4030730811099
 20
107.6154439163668
 30
0.0
 10
183.4817095970607
 20
107.7026980725585
 30
0.0
 10
183.6462631490756
 20
107.8449076915079
 30
0.0
 10
183.7341978453373
 20
107.9013706193849
 30
0.0
 10
183.9017763916882
 20
107.9762795349315
 30
0.0
 10
183.9823732684955
 20
107.9950894540425
 30
0.0
 10
184.0772156339571
 20
107.9905215775693
 30
0.0
 10
184.1041399393791
 20
107.9836473220903
 30
0.0
 10
184.1466686144303
 20
107.9595571542641
 30
0.0
 10
184.1621549035025
 20
107.9421495023144
 30
0.0
 10
184.1895792301906
 20
107.8782571260279
 30
0.0
 10
184.1832166266584
 20
107.8190873552949
 30
0.0
 10
184.1405664911229
 20
107.6856675472396
 30
0.0
 10
184.105070883826
 20
107.6111121364777
 30
0.0
 10
183.9765335366561
 20
107.3687554052059
 30
0.0
 10
183.8653601172172
 20
107.1875634290466
 30
0.0
 10
183.6366343015949
 20
106.7838649860096
 30
0.0
 10
183.515569117988
 20
106.5578403206965
 30
0.0
 10
183.3474551434356
 20
106.1793085837654
 30
0.0
 10
183.2931149268099
 20
106.0452300795721
 30
0.0
 10
183.1944898525689
 20
105.7630501332216
 30
0.0
 10
183.1504870110068
 20
105.6163514604514
 30
0.0
 10
183.0797005834549
 20
105.3059346790587
 30
0.0
 10
183.0545104369992
 20
105.1474302493212
 30
0.0
 10
183.0335964626343
 20
104.8360666747217
 30
0.0
 10
183.0385583043873
 20
104.6883482960924
 30
0.0
 10
183.0767324227451
 20
104.4248462971205
 30
0.0
 10
183.1095687484444
 20
104.310307378082
 30
0.0
 10
183.1903012107566
 20
104.1193416816135
 30
0.0
 10
183.2384029176985
 20
104.041157993647
 30
0.0
 10
183.3948453144158
 20
103.8473628157076
 30
0.0
 10
183.5116347741602
 20
103.7735876616798
 30
0.0
 10
183.7466917462434
 20
103.6905387048991
 30
0.0
 10
183.8624893332029
 20
103.6833953119835
 30
0.0
 10
184.0131900369118
 20
103.7151693294133
 30
0.0
 10
184.0595098246671
 20
103.7330667814119
 30
0.0
 10
184.1355930355273
 20
103.7866663018034
 30
0.0
 10
184.1649791910297
 20
103.8221854723678
 30
0.0
 10
184.1884402242576
 20
103.9162948471707
 30
0.0
 10
184.1814005804515
 20
103.975415320985
 30
0.0
 10
184.1324028835718
 20
104.0853225504025
 30
0.0
 10
184.109549838994
 20
104.1259657757096
 30
0.0
 10
184.0542073213223
 20
104.2122732595637
 30
0.0
 10
184.0216181858951
 20
104.2583147628204
 30
0.0
 10
183.9128197110348
 20
104.4060935710201
 30
0.0
 10
183.8281989893827
 20
104.5145621733383
 30
0.0
 10
183.6580107605781
 20
104.7486090359836
 30
0.0
 10
183.5713806856323
 20
104.8756200007245
 30
0.0
 10
183.4122646842916
 20
105.1413059621974
 30
0.0
 10
183.3379507900028
 20
105.2828828747725
 30
0.0
 10
183.2116219682574
 20
105.5736137005901
 30
0.0
 10
183.1592277031774
 20
105.7226956696877
 30
0.0
 10
183.1196374155375
 20
105.8763091893786
 30
0.0
  0
SPLINE
  5
127
330
1F
100
AcDbEntity
  8
0
  6
HIDDEN
 62
     7
370
     0
100
AcDbSpline
210
0.0
220
0.0
230
1.0
 70
    11
 71
     3
 72
    66
 73
    62
 74
     0
 42
0.000000001
 43
0.00000001
 40
0.0
 40
0.0
 40
0.0
 40
0.0
 40
0.03125
 40
0.03125
 40
0.0625
 40
0.0625
 40
0.09375
 40
0.09375
 40
0.125
 40
0.125
 40
0.15625
 40
0.15625
 40
0.1875
 40
0.1875
 40
0.21875
 40
0.21875
 40
0.25
 40
0.25
 40
0.28125
 40
0.28125
 40
0.3125
 40
0.3125
 40
0.34375
 40
0.34375
 40
0.375
 40
0.375
 40
0.40625
 40
0.40625
 40
0.4375
 40
0.4375
 40
0.46875
 40
0.46875
 40
0.5
 40
0.5
 40
0.53125
 40
0.53125
 40
0.5625
 40
0.5625
 40
0.625
 40
0.625
 40
0.65625
 40
0.65625
 40
0.6875
 40
0.6875
 40
0.71875
 40
0.71875
 40
0.75
 40
0.75
 40
0.78125
 40
0.78125
 40
0.8125
 40
0.8125
 40
0.84375
 40
0.84375
 40
0.875
 40
0.875
 40
0.90625
 40
0.90625
 40
0.9375
 40
0.9375
 40
1.0
 40
1.0
 40
1.0
 40
1.0
 10
185.5386124757572
 20
128.6937242217031
 30
0.0
 10
185.3734121850933
 20
128.6937242217031
 30
0.0
 10
185.2109796437967
 20
128.709289812985
 30
0.0
 10
184.8914214882067
 20
128.7702360848146
 30
0.0
 10
184.7326381502297
 20
128.8163581287999
 30
0.0
 10
184.4299001337503
 20
128.936621316388
 30
0.0
 10
184.286320968616
 20
129.0101649658086
 30
0.0
 10
184.014591238748
 20
129.183681888741
 30
0.0
 10
183.8859626752102
 20
129.2845545455276
 30
0.0
 10
183.6553969135431
 20
129.5045393344258
 30
0.0
 10
183.5519229122937
 20
129.6244184980146
 30
0.0
 10
183.3691623743679
 20
129.8842598646121
 30
0.0
 10
183.2915181181393
 20
130.0223492951843
 30
0.0
 10
183.1668254674492
 20
130.3073317274325
 30
0.0
 10
183.1188214868708
 20
130.456326836775
 30
0.0
 10
183.0545897445525
 20
130.7608519241697
 30
0.0
 10
183.0387003005103
 20
130.9136212716061
 30
0.0
 10
183.0385253701551
 20
131.2201109532202
 30
0.0
 10
183.05475602149
 20
131.3754377235152
 30
0.0
 10
183.1185372441996
 20
131.6754999294137
 30
0.0
 10
183.1657293555959
 20
131.821034641913
 30
0.0
 10
183.2908959732539
 20
132.1031679222349
 30
0.0
 10
183.3691554606289
 20
132.2393077635896
 30
0.0
 10
183.5500756439842
 20
132.4908443133591
 30
0.0
 10
183.6533608729081
 20
132.6078711572024
 30
0.0
 10
183.8866126149568
 20
132.8239464508239
 30
0.0
 10
184.0130264832224
 20
132.9196503747092
 30
0.0
 10
184.283698753917
 20
133.0868033714808
 30
0.0
 10
184.4297805260813
 20
133.1589645571039
 30
0.0
 10
184.7326649715542
 20
133.2746185990604
 30
0.0
 10
184.8884953311939
 20
133.3181514062431
 30
0.0
 10
185.2088408204594
 20
133.3770473091764
 30
0.0
 10
185.374550906431
 20
133.3921334121964
 30
0.0
 10
185.7008822951275
 20
133.3922409438631
 30
0.0
 10
185.8630693809544
 20
133.3777502866734
 30
0.0
 10
186.185444962163
 20
133.3190222223963
 30
0.0
 10
186.3434604362005
 20
133.274891415267
 30
0.0
 10
186.7948713112761
 20
133.102961816669
 30
0.0
 10
187.0739507683282
 20
132.931388123998
 30
0.0
 10
187.4200244728266
 20
132.6117373056317
 30
0.0
 10
187.5256664887413
 20
132.4926961762432
 30
0.0
 10
187.7074499647121
 20
132.2403764153848
 30
0.0
 10
187.784337788096
 20
132.1069121040134
 30
0.0
 10
187.9099923454664
 20
131.8251466914612
 30
0.0
 10
187.958300421381
 20
131.6767259598302
 30
0.0
 10
188.0221183068214
 20
131.3776763620536
 30
0.0
 10
188.0384464838642
 20
131.2254732921863
 30
0.0
 10
188.0387759739239
 20
130.9154714333466
 30
0.0
 10
188.0226794620892
 20
130.7619487662486
 30
0.0
 10
187.959450724828
 20
130.4604200486694
 30
0.0
 10
187.9116141314175
 20
130.3104852233676
 30
0.0
 10
187.7862708135041
 20
130.0232661272768
 30
0.0
 10
187.7095741389789
 20
129.8868872129605
 30
0.0
 10
187.5285227723271
 20
129.6285316549463
 30
0.0
 10
187.4230471619662
 20
129.505856478572
 30
0.0
 10
187.1925205932899
 20
129.2856027945199
 30
0.0
 10
187.0668011556596
 20
129.1866772230861
 30
0.0
 10
186.7940343064628
 20
129.0118385421645
 30
0.0
 10
186.6483149300568
 20
128.9371616971841
 30
0.0
 10
186.1972458249487
 20
128.7575354816913
 30
0.0
 10
185.8690130570849
 20
128.6937242217031
 30
0.0
 10
185.5386124757572
 20
128.6937242217031
 30
0.0
  0
LINE
  5
128
330
1F
100
AcDbEntity
  8
0
  6
HIDDEN
 62
     7
370
     0
100
AcDbLine
 10
165.3386124758
 20
151.8322700148
 30
0.0
 11
165.510185351
 21
151.8322700148
 31
0.0
  0
ELLIPSE
  5
129
330
1F
100
AcDbEntity
  8
0
  6
HIDDEN
 62
     7
370
     0
100
AcDbEllipse
 10
165.510185351
 20
153.8322700148
 30
0.0
 11
0.0
 21
2.000000000000028
 31
0.0
210
0.0
220
0.0
230
1.0
 40
0.4142135624
 41
3.141592653589793
 42
4.712388980384695
  0
ELLIPSE
  5
12A
330
1F
100
AcDbEntity
  8
0
  6
HIDDEN
 62
     7
370
     0
100
AcDbEllipse
 10
165.510185351
 20
79.2322700148
 30
0.0
 11
0.0
 21
2.0
 31
0.0
210
0.0
220
0.0
230
1.0
 40
0.4142135624
 41
4.712388980384695
 42
6.283185307179586
  0
LINE
  5
12B
330
1F
100
AcDbEntity
  8
0
  6
HIDDEN
 62
     7
370
     0
100
AcDbLine
 10
165.510185351
 20
81.2322700148
 30
0.0
 11
165.3386124758
 21
81.2322700148
 31
0.0
  0
LINE
  5
12C
330
1F
100
AcDbEntity
  8
0
  6
HIDDEN
 62
     7
370
     0
100
AcDbLine
 10
166.3386124758
 20
69.2116998609
 30
0.0
 11
165.7247488958
 21
68.5978362809
 31
0.0
  0
LINE
  5
12D
330
1F
100
AcDbEntity
  8
0
  6
HIDDEN
 62
     7
370
     0
100
AcDbLine
 10
165.7247488958
 20
164.4667037487
 30
0.0
 11
166.3386124758
 21
163.8528401687
 31
0.0
  0
LINE
  5
12E
330
1F
100
AcDbEntity
  8
0
  6
HIDDEN
 62
     7
370
     0
100
AcDbLine
 10
166.3386124758
 20
163.8528401687
 30
0.0
 11
178.5711815123
 21
163.8528401687
 31
0.0
  0
LINE
  5
12F
330
1F
100
AcDbEntity
  8
0
  6
HIDDEN
 62
     7
370
     0
100
AcDbLine
 10
166.3386124758
 20
163.8528401687
 30
0.0
 11
166.3386124758
 21
153.8322700148
 31
0.0
  0
SPLINE
  5
130
330
1F
100
AcDbEntity
  8
0
  6
HIDDEN
 62
     7
370
     0
100
AcDbSpline
210
0.0
220
0.0
230
1.0
 70
     8
 71
     3
 72
    14
 73
    10
 74
     0
 42
0.000000001
 43
0.00000001
 40
0.0
 40
0.0
 40
0.0
 40
0.0
 40
0.1878282877623173
 40
0.3545816313016879
 40
0.5003024319338173
 40
0.6713282049188825
 40
0.8376422060211013
 40
0.9994166164999629
 40
1.0
 40
1.0
 40
1.0
 40
1.0
 10
192.4229122126439
 20
164.7382916167313
 30
0.0
 10
192.7559151350332
 20
164.8198395541849
 30
0.0
 10
193.3845569698481
 20
164.973785485525
 30
0.0
 10
194.0839935417529
 20
165.1647642036431
 30
0.0
 10
194.6318706411825
 20
165.3221364907188
 30
0.0
 10
195.0379862352997
 20
165.4404619267424
 30
0.0
 10
195.2711141279987
 20
165.5108389413575
 30
0.0
 10
195.3651035145958
 20
165.5404732926318
 30
0.0
 10
195.338420621452
 20
165.5322107670283
 30
0.0
 10
195.3383247445667
 20
165.5321810781481
 30
0.0
  0
LINE
  5
131
330
1F
100
AcDbEntity
  8
0
  6
HIDDEN
 62
     7
370
     0
100
AcDbLine
 10
192.9222465775
 20
164.8626056546
 30
0.0
 11
192.4229079243
 21
164.7383362711
 31
0.0
  0
LINE
  5
132
330
1F
100
AcDbEntity
  8
0
  6
HIDDEN
 62
     7
370
     0
100
AcDbLine
 10
182.4886124758
 20
81.2322700148
 30
0.0
 11
165.510185351
 21
81.2322700148
 31
0.0
  0
SPLINE
  5
133
330
1F
100
AcDbEntity
  8
0
  6
HIDDEN
 62
     7
370
     0
100
AcDbSpline
210
0.0
220
0.0
230
1.0
 70
     8
 71
     3
 72
    13
 73
     9
 74
     0
 42
0.000000001
 43
0.00000001
 40
0.0
 40
0.0
 40
0.0
 40
0.0
 40
0.0005825290635647
 40
0.1623661983773396
 40
0.3287385494553315
 40
0.4998718252132767
 40
0.7262528256169377
 40
1.0
 40
1.0
 40
1.0
 40
1.0
 10
195.3381783183635
 20
67.53240282144853
 30
0.0
 10
195.3383231043984
 20
67.53235847925524
 30
0.0
 10
195.3786787871157
 20
67.51999914166323
 30
0.0
 10
195.2645241802248
 20
67.5556282276707
 30
0.0
 10
195.0404070725242
 20
67.62347619057913
 30
0.0
 10
194.5610981815554
 20
67.76256936472258
 30
0.0
 10
193.7675905239268
 20
67.99281594549501
 30
0.0
 10
192.8985726514507
 20
68.2083015162532
 30
0.0
 10
192.4229122126439
 20
68.32624841284732
 30
0.0
  0
LINE
  5
134
330
1F
100
AcDbEntity
  8
0
  6
HIDDEN
 62
     7
370
     0
100
AcDbLine
 10
193.3386124758
 20
81.2322700148
 30
0.0
 11
182.4886124758
 21
81.2322700148
 31
0.0
  0
LINE
  5
135
330
1F
100
AcDbEntity
  8
0
  6
HIDDEN
 62
     7
370
     0
100
AcDbLine
 10
165.510185351
 20
151.8322700148
 30
0.0
 11
182.4886124758
 21
151.8322700148
 31
0.0
  0
LINE
  5
136
330
1F
100
AcDbEntity
  8
0
  6
HIDDEN
 62
     7
370
     0
100
AcDbLine
 10
182.4886124758
 20
151.8322700148
 30
0.0
 11
193.3386124758
 21
151.8322700148
 31
0.0
  0
LINE
  5
137
330
1F
100
AcDbEntity
  8
0
  6
HIDDEN
 62
     7
370
     0
100
AcDbLine
 10
178.5711815123
 20
69.2116998609
 30
0.0
 11
166.3386124758
 21
69.2116998609
 31
0.0
  0
LINE
  5
138
330
1F
100
AcDbEntity
  8
0
  6
HIDDEN
 62
     7
370
     0
100
AcDbLine
 10
166.3386124758
 20
69.2116998609
 30
0.0
 11
166.3386124758
 21
79.2322700148
 31
0.0
  0
LINE
  5
139
330
1F
100
AcDbEntity
  8
0
  6
HIDDEN
 62
     7
370
     0
100
AcDbLine
 10
70.5386124758
 20
104.0322700148
 30
0.0
 11
70.5386124758
 21
129.0322700148
 31
0.0
  0
LINE
  5
13A
330
1F
100
AcDbEntity
  8
0
  6
HIDDEN
 62
     7
370
     0
100
AcDbLine
 10
73.8232168247
 20
106.0322700148
 30
0.0
 11
73.8232168247
 21
127.0322700148
 31
0.0
  0
LINE
  5
13B
330
1F
100
AcDbEntity
  8
0
  6
HIDDEN
 62
     7
370
     0
100
AcDbLine
 10
123.5386124758
 20
106.0322700148
 30
0.0
 11
123.5386124758
 21
127.0322700148
 31
0.0
  0
LINE
  5
13C
330
1F
100
AcDbEntity
  8
0
  6
HIDDEN
 62
     7
370
     0
100
AcDbLine
 10
128.5858416756
 20
114.4322700148
 30
0.0
 11
128.5858416756
 21
118.6322700148
 31
0.0
  0
SPLINE
  5
13D
330
1F
100
AcDbEntity
  8
0
  6
HIDDEN
 62
     7
370
     0
100
AcDbSpline
210
0.0
220
0.0
230
1.0
 70
     8
 71
     3
 72
     9
 73
     5
 74
     0
 42
0.000000001
 43
0.00000001
 40
0.0
 40
0.0
 40
0.0
 40
0.0
 40
0.4951995003022724
 40
1.0
 40
1.0
 40
1.0
 40
1.0
 10
192.4228966901942
 20
164.7382821792021
 30
0.0
 10
192.5280929118299
 20
164.8954379393221
 30
0.0
 10
192.7405249146317
 20
165.2127964181253
 30
0.0
 10
192.9552432981456
 20
165.531422966228
 30
0.0
 10
193.0636332454377
 20
165.6922658069271
 30
0.0
  0
SPLINE
  5
13E
330
1F
100
AcDbEntity
  8
0
  6
HIDDEN
 62
     7
370
     0
100
AcDbSpline
210
0.0
220
0.0
230
1.0
 70
     8
 71
     3
 72
     9
 73
     5
 74
     0
 42
0.000000001
 43
0.00000001
 40
0.0
 40
0.0
 40
0.0
 40
0.0
 40
0.5048005003628353
 40
1.0
 40
1.0
 40
1.0
 40
1.0
 10
193.0636332454377
 20
67.37227422265148
 30
0.0
 10
192.9552432980059
 20
67.5331170635561
 30
0.0
 10
192.7405249144981
 20
67.85174361164589
 30
0.0
 10
192.5280929116911
 20
68.16910209046146
 30
0.0
 10
192.4228966901943
 20
68.32625785037655
 30
0.0
  0
SPLINE
  5
13F
330
1F
100
AcDbEntity
  8
0
  6
HIDDEN
 62
     7
370
     0
100
AcDbSpline
210
0.0
220
0.0
230
1.0
 70
     8
 71
     3
 72
    16
 73
    12
 74
     0
 42
0.000000001
 43
0.00000001
 40
0.0
 40
0.0
 40
0.0
 40
0.0
 40
0.2500000000000002
 40
0.2500000000000002
 40
0.5000000000000004
 40
0.5000000000000004
 40
0.6250000000000006
 40
0.6250000000000006
 40
0.7500000000000007
 40
0.7500000000000007
 40
1.0
 40
1.0
 40
1.0
 40
1.0
 10
225.3386124757571
 20
122.0009060962231
 30
0.0
 10
225.3386124757572
 20
121.931772194884
 30
0.0
 10
225.3340786665373
 20
121.8611510474493
 30
0.0
 10
225.3089148195564
 20
121.714627561093
 30
0.0
 10
225.2886276770194
 20
121.6371856859424
 30
0.0
 10
225.230018300249
 20
121.5315372219883
 30
0.0
 10
225.2054900036629
 20
121.4994569419182
 30
0.0
 10
225.1511440978213
 20
121.452331218562
 30
0.0
 10
225.1215442730534
 20
121.4372778701046
 30
0.0
 10
225.0375947148614
 20
121.4132724357334
 30
0.0
 10
224.9862363161302
 20
121.4208348704766
 30
0.0
 10
224.9386124758703
 20
121.4348742255465
 30
0.0
  0
SPLINE
  5
140
330
1F
100
AcDbEntity
  8
0
  6
HIDDEN
 62
     7
370
     0
100
AcDbSpline
210
0.0
220
0.0
230
1.0
 70
     8
 71
     3
 72
     8
 73
     4
 74
     0
 42
0.000000001
 43
0.00000001
 40
0.0
 40
0.0
 40
0.0
 40
0.0
 40
1.0
 40
1.0
 40
1.0
 40
1.0
 10
224.9386124758698
 20
121.4348742255467
 30
0.0
 10
224.8794461669777
 20
121.4010249347182
 30
0.0
 10
224.8106631814534
 20
121.3789095585374
 30
0.0
 10
224.7386124757572
 20
121.3789095585374
 30
0.0
  0
SPLINE
  5
141
330
1F
100
AcDbEntity
  8
0
  6
HIDDEN
 62
     7
370
     0
100
AcDbSpline
210
0.0
220
0.0
230
1.0
 70
     8
 71
     3
 72
     8
 73
     4
 74
     0
 42
0.000000001
 43
0.00000001
 40
0.0
 40
0.0
 40
0.0
 40
0.0
 40
1.0
 40
1.0
 40
1.0
 40
1.0
 10
224.9386124756923
 20
111.6296658041335
 30
0.0
 10
224.8794461668425
 20
111.663515094905
 30
0.0
 10
224.8106631813813
 20
111.6856304710413
 30
0.0
 10
224.7386124757572
 20
111.6856304710413
 30
0.0
  0
SPLINE
  5
142
330
1F
100
AcDbEntity
  8
0
  6
HIDDEN
 62
     7
370
     0
100
AcDbSpline
210
0.0
220
0.0
230
1.0
 70
     8
 71
     3
 72
    16
 73
    12
 74
     0
 42
0.000000001
 43
0.00000001
 40
0.0
 40
0.0
 40
0.0
 40
0.0
 40
0.2500000000000324
 40
0.2500000000000324
 40
0.3750000000000332
 40
0.3750000000000332
 40
0.5000000000000341
 40
0.5000000000000341
 40
0.750000000000017
 40
0.750000000000017
 40
1.0
 40
1.0
 40
1.0
 40
1.0
 10
224.9386124756799
 20
111.6296658041333
 30
0.0
 10
224.9859170635432
 20
111.6436109729241
 30
0.0
 10
225.0369152026969
 20
111.6511919603238
 30
0.0
 10
225.1205142089655
 20
111.6276831273628
 30
0.0
 10
225.1496515508005
 20
111.6131188597722
 30
0.0
 10
225.2039752227404
 20
111.5667491731442
 30
0.0
 10
225.2284583696564
 20
111.5352247097553
 30
0.0
 10
225.2872989259491
 20
111.4308496105334
 30
0.0
 10
225.3081803036043
 20
111.3530837853308
 30
0.0
 10
225.3339510141607
 20
111.2051962508609
 30
0.0
 10
225.3386121683842
 20
111.1330855989385
 30
0.0
 10
225.3386124757429
 20
111.0636392488003
 30
0.0
  0
LINE
  5
143
330
1F
100
AcDbEntity
  8
0
  6
HIDDEN
 62
     7
370
     0
100
AcDbLine
 10
211.8386124758
 20
116.5322700148
 30
0.0
 11
211.8386124758
 21
111.3322700148
 31
0.0
  0
LINE
  5
144
330
1F
100
AcDbEntity
  8
0
  6
HIDDEN
 62
     7
370
     0
100
AcDbLine
 10
211.8386124758
 20
121.7322700148
 30
0.0
 11
211.8386124758
 21
116.5322700148
 31
0.0
  0
LINE
  5
145
330
1F
100
AcDbEntity
  8
0
  6
HIDDEN
 62
     7
370
     0
100
AcDbLine
 10
215.2046378795
 20
116.5322700148
 30
0.0
 11
215.2046378795
 21
111.0322700148
 31
0.0
  0
LINE
  5
146
330
1F
100
AcDbEntity
  8
0
  6
HIDDEN
 62
     7
370
     0
100
AcDbLine
 10
215.2046378795
 20
122.0322700148
 30
0.0
 11
215.2046378795
 21
116.5322700148
 31
0.0
  0
LINE
  5
147
330
1F
100
AcDbEntity
  8
0
  6
HIDDEN
 62
     7
370
     0
100
AcDbLine
 10
219.4386124758
 20
121.3789095585
 30
0.0
 11
224.7386124758
 21
121.3789095585
 31
0.0
  0
LINE
  5
148
330
1F
100
AcDbEntity
  8
0
  6
HIDDEN
 62
     7
370
     0
100
AcDbLine
 10
219.4386124758
 20
111.685630471
 30
0.0
 11
224.7386124758
 21
111.685630471
 31
0.0
  0
SPLINE
  5
149
330
1F
100
AcDbEntity
  8
0
  6
HIDDEN
 62
     7
370
     0
100
AcDbSpline
210
0.0
220
0.0
230
1.0
 70
    11
 71
     3
 72
    20
 73
    16
 74
     0
 42
0.000000001
 43
0.00000001
 40
0.0
 40
0.0
 40
0.0
 40
0.0
 40
0.1249999999999998
 40
0.1249999999999998
 40
0.2499999999999997
 40
0.2499999999999997
 40
0.4999999999999996
 40
0.4999999999999996
 40
0.6249999999999997
 40
0.6249999999999997
 40
0.7499999999999998
 40
0.7499999999999998
 40
0.8749999999999999
 40
0.8749999999999999
 40
1.0
 40
1.0
 40
1.0
 40
1.0
 10
224.9386124757572
 20
123.9322700147893
 30
0.0
 10
224.9386124757572
 20
124.0314446960998
 30
0.0
 10
224.9387789184141
 20
124.1209913137789
 30
0.0
 10
224.936818579111
 20
124.2813879904372
 30
0.0
 10
224.9348302122094
 20
124.3515178580277
 30
0.0
 10
224.9278265613968
 20
124.5209081333775
 30
0.0
 10
224.9200977384467
 20
124.5822535556496
 30
0.0
 10
224.9144161469303
 20
124.5822782392699
 30
0.0
 10
224.9134227041454
 20
124.5675758511775
 30
0.0
 10
224.9150062040021
 20
124.5087920153123
 30
0.0
 10
224.9173356190053
 20
124.464976603669
 30
0.0
 10
224.9240054185132
 20
124.3520875282037
 30
0.0
 10
224.9285992130538
 20
124.2817403364816
 30
0.0
 10
224.9358766335351
 20
124.1221956142167
 30
0.0
 10
224.9386124449849
 20
124.0314615808914
 30
0.0
 10
224.938612350807
 20
123.9322700147914
 30
0.0
  0
LWPOLYLINE
  5
14A
330
1F
100
AcDbEntity
  8
0
  6
HIDDEN
 62
     7
370
     0
100
AcDbPolyline
 90
        4
 70
   128
 43
0.0
 10
224.9386123508
 20
123.9322700148
 10
224.9386124745
 20
123.1901593142
 10
224.9386124924
 20
122.4480486137
 10
224.9386124759
 20
121.4348742255
  0
LWPOLYLINE
  5
14B
330
1F
100
AcDbEntity
  8
0
  6
HIDDEN
 62
     7
370
     0
100
AcDbPolyline
 90
        3
 70
   128
 43
0.0
 10
224.938612526
 20
109.1322700148
 10
224.9386124713
 20
110.4089502429
 10
224.9386124757
 20
111.6296658041
  0
SPLINE
  5
14C
330
1F
100
AcDbEntity
  8
0
  6
HIDDEN
 62
     7
370
     0
100
AcDbSpline
210
0.0
220
0.0
230
1.0
 70
     8
 71
     3
 72
    11
 73
     7
 74
     0
 42
0.000000001
 43
0.00000001
 40
0.0
 40
0.0
 40
0.0
 40
0.0
 40
0.2832653816797496
 40
0.6060535643999898
 40
0.929381240211602
 40
1.0
 40
1.0
 40
1.0
 40
1.0
 10
224.9168215069682
 20
108.4903988525073
 30
0.0
 10
224.9152388245204
 20
108.4989063441483
 30
0.0
 10
224.9118526347461
 20
108.517108341168
 30
0.0
 10
224.9249906490053
 20
108.7204863652992
 30
0.0
 10
224.9377491591808
 20
108.9539288075241
 30
0.0
 10
224.938481285203
 20
109.1051602893901
 30
0.0
 10
224.9386125259682
 20
109.1322700147873
 30
0.0
  0
LINE
  5
14D
330
1F
100
AcDbEntity
  8
0
  6
HIDDEN
 62
     7
370
     0
100
AcDbLine
 10
219.4386124758
 20
123.9322700148
 30
0.0
 11
219.4386124758
 21
121.3789095585
 31
0.0
  0
LINE
  5
14E
330
1F
100
AcDbEntity
  8
0
  6
HIDDEN
 62
     7
370
     0
100
AcDbLine
 10
219.4386124758
 20
109.1322700148
 30
0.0
 11
219.4386124758
 21
111.685630471
 31
0.0
  0
LINE
  5
14F
330
1F
100
AcDbEntity
  8
0
  6
HIDDEN
 62
     7
370
     0
100
AcDbLine
 10
219.4386124758
 20
108.4822700148
 30
0.0
 11
219.4386124758
 21
109.1322700148
 31
0.0
  0
LINE
  5
150
330
1F
100
AcDbEntity
  8
0
  6
HIDDEN
 62
     7
370
     0
100
AcDbLine
 10
219.4386124758
 20
124.5822700148
 30
0.0
 11
219.4386124758
 21
123.9322700148
 31
0.0
  0
SPLINE
  5
151
330
1F
100
AcDbEntity
  8
0
  6
HIDDEN
 62
     7
370
     0
100
AcDbSpline
210
0.0
220
0.0
230
1.0
 70
     8
 71
     3
 72
    16
 73
    12
 74
     0
 42
0.000000001
 43
0.00000001
 40
0.0
 40
0.0
 40
0.0
 40
0.0
 40
0.2499999999999998
 40
0.2499999999999998
 40
0.4999999999999997
 40
0.4999999999999997
 40
0.6249999999999996
 40
0.6249999999999996
 40
0.7499999999999996
 40
0.7499999999999996
 40
1.0
 40
1.0
 40
1.0
 40
1.0
 10
225.3386124757572
 20
111.0637665603364
 30
0.0
 10
225.3386124757572
 20
111.1325709118938
 30
0.0
 10
225.3339906987278
 20
111.2045420337218
 30
0.0
 10
225.3085918202468
 20
111.3513879446952
 30
0.0
 10
225.2873620160829
 20
111.4304990394825
 30
0.0
 10
225.2291052130233
 20
111.5343112276293
 30
0.0
 10
225.2045367137056
 20
111.566251599532
 30
0.0
 10
225.1496770502006
 20
111.6132009160361
 30
0.0
 10
225.1203528547524
 20
111.6277684795184
 30
0.0
 10
225.0368785600633
 20
111.6511706343033
 30
0.0
 10
224.9856658821985
 20
111.6435371191739
 30
0.0
 10
224.9386124757573
 20
111.6296658040965
 30
0.0
  0
LWPOLYLINE
  5
152
330
1F
100
AcDbEntity
  8
0
  6
HIDDEN
 62
     7
370
     0
100
AcDbPolyline
 90
       20
 70
   128
 43
0.0
 10
166.3208701762
 20
129.318920874
 10
166.4776243179
 20
128.832817544
 10
166.7259120892
 20
128.5279651802
 10
167.0388276577
 20
128.4373992665
 10
167.3824617661
 20
128.5709340249
 10
167.7195763267
 20
128.9140988923
 10
168.013639746
 20
129.4297066305
 10
168.2327856897
 20
130.0618831408
 10
168.3532662943
 20
130.7421222889
 10
168.362025617
 20
131.3967096081
 10
168.2581144491
 20
131.9547104055
 10
168.0527931781
 20
132.3556566364
 10
167.7683115496
 20
132.5560995553
 10
167.4354975621
 20
132.5343180618
 10
167.0904167755
 20
132.2926725186
 10
166.7704640473
 20
131.85734897
 10
166.5103112204
 20
131.2755214771
 10
166.33814989
 20
130.6102400768
 10
166.2726364079
 20
129.9335983317
 10
166.3208701762
 20
129.318920874
  0
LWPOLYLINE
  5
153
330
1F
100
AcDbEntity
  8
0
  6
HIDDEN
 62
     7
370
     0
100
AcDbPolyline
 90
       24
 70
   128
 43
0.0
 10
165.6079995876
 20
128.8664453529
 10
165.7827127146
 20
128.2759767488
 10
166.0505701814
 20
127.8550093728
 10
166.3917062253
 20
127.6347644492
 10
166.7808203463
 20
127.6315765366
 10
167.1890537303
 20
127.8456820678
 10
167.5861295746
 20
128.261201815
 10
167.9425985805
 20
128.8473185795
 10
168.2320230724
 20
129.5605627622
 10
168.4329377598
 20
130.3480363048
 10
168.5304417196
 20
131.1513358972
 10
168.517303529
 20
131.9108844835
 10
168.3944975875
 20
132.5703498198
 10
168.1711318501
 20
133.0808223788
 10
167.8637723316
 20
133.4044427461
 10
167.4952144814
 20
133.5172094797
 10
167.0927925493
 20
133.4107591866
 10
166.686352329
 20
133.0929867982
 10
166.3060376323
 20
132.5874600388
 10
165.9800546605
 20
131.9316715156
 10
165.7325800792
 20
131.1742580632
 10
165.581967946
 20
130.3713935725
 10
165.539388474
 20
129.5826228298
 10
165.6079995876
 20
128.8664453529
  0
LINE
  5
154
330
1F
100
AcDbEntity
  8
0
  6
HIDDEN
 62
     7
370
     0
100
AcDbLine
 10
166.0111124758
 20
103.2875466004
 30
0.0
 11
166.0111124758
 21
103.111802375
 31
0.0
  0
LINE
  5
155
330
1F
100
AcDbEntity
  8
0
  6
HIDDEN
 62
     7
370
     0
100
AcDbLine
 10
166.3196027529
 20
101.5495527703
 30
0.0
 11
166.3864047837
 21
101.3869996361
 31
0.0
  0
LINE
  5
156
330
1F
100
AcDbEntity
  8
0
  6
HIDDEN
 62
     7
370
     0
100
AcDbLine
 10
167.7454240413
 20
100.0944114035
 30
0.0
 11
171.2035320074
 21
100.7772681517
 31
0.0
  0
LINE
  5
157
330
1F
100
AcDbEntity
  8
0
  6
HIDDEN
 62
     7
370
     0
100
AcDbLine
 10
170.2349088763
 20
105.6825478818
 30
0.0
 11
166.7768009102
 21
104.9996911336
 31
0.0
  0
LINE
  5
158
330
1F
100
AcDbEntity
  8
0
  6
HIDDEN
 62
     7
370
     0
100
AcDbLine
 10
171.7425814784
 20
101.2746561231
 30
0.0
 11
172.0850922203
 21
101.989489245
 31
0.0
  0
LINE
  5
159
330
1F
100
AcDbEntity
  8
0
  6
HIDDEN
 62
     7
370
     0
100
AcDbLine
 10
171.5110771596
 20
104.8964035562
 30
0.0
 11
170.9225599632
 21
105.4273908535
 31
0.0
  0
LINE
  5
15A
330
1F
100
AcDbEntity
  8
0
  6
HIDDEN
 62
     7
370
     0
100
AcDbLine
 10
170.9225599632
 20
127.637149176
 30
0.0
 11
171.5110771596
 21
128.1681364733
 31
0.0
  0
LINE
  5
15B
330
1F
100
AcDbEntity
  8
0
  6
HIDDEN
 62
     7
370
     0
100
AcDbLine
 10
172.0850922203
 20
131.0750507846
 30
0.0
 11
171.7425814784
 21
131.7898839065
 31
0.0
  0
LINE
  5
15C
330
1F
100
AcDbEntity
  8
0
  6
HIDDEN
 62
     7
370
     0
100
AcDbLine
 10
166.7768009102
 20
128.064848896
 30
0.0
 11
170.2349088763
 21
127.3819921478
 31
0.0
  0
LINE
  5
15D
330
1F
100
AcDbEntity
  8
0
  6
HIDDEN
 62
     7
370
     0
100
AcDbLine
 10
171.2035320074
 20
132.2872718778
 30
0.0
 11
167.7454240413
 21
132.970128626
 31
0.0
  0
LINE
  5
15E
330
1F
100
AcDbEntity
  8
0
  6
HIDDEN
 62
     7
370
     0
100
AcDbLine
 10
166.3864047837
 20
131.6775403935
 30
0.0
 11
166.3196027529
 21
131.5149872593
 31
0.0
  0
LINE
  5
15F
330
1F
100
AcDbEntity
  8
0
  6
HIDDEN
 62
     7
370
     0
100
AcDbLine
 10
166.0111124758
 20
129.9527376546
 30
0.0
 11
166.0111124758
 21
129.7769934292
 31
0.0
  0
LINE
  5
160
330
1F
100
AcDbEntity
  8
0
  6
HIDDEN
 62
     7
370
     0
100
AcDbLine
 10
182.5386124758
 20
130.9586315297
 30
0.0
 11
182.5386124758
 21
129.7000455328
 31
0.0
  0
LINE
  5
161
330
1F
100
AcDbEntity
  8
0
  6
HIDDEN
 62
     7
370
     0
100
AcDbLine
 10
188.5386124758
 20
129.7000455328
 30
0.0
 11
188.5386124758
 21
130.9586315297
 31
0.0
  0
LINE
  5
162
330
1F
100
AcDbEntity
  8
0
  6
HIDDEN
 62
     7
370
     0
100
AcDbLine
 10
188.5386124758
 20
102.1059084998
 30
0.0
 11
188.5386124758
 21
103.3644944968
 31
0.0
  0
LINE
  5
163
330
1F
100
AcDbEntity
  8
0
  6
HIDDEN
 62
     7
370
     0
100
AcDbLine
 10
182.5386124758
 20
103.3644944968
 30
0.0
 11
182.5386124758
 21
102.1059084998
 31
0.0
  0
LINE
  5
164
330
1F
100
AcDbEntity
  8
0
  6
HIDDEN
 62
     7
370
     0
100
AcDbLine
 10
165.3386124758
 20
99.109494412
 30
0.0
 11
167.6197863544
 21
99.5599473742
 31
0.0
  0
LINE
  5
165
330
1F
100
AcDbEntity
  8
0
  6
HIDDEN
 62
     7
370
     0
100
AcDbLine
 10
166.4574385971
 20
105.4462830502
 30
0.0
 11
165.3386124758
 21
105.2253535782
 31
0.0
  0
LINE
  5
166
330
1F
100
AcDbEntity
  8
0
  6
HIDDEN
 62
     7
370
     0
100
AcDbLine
 10
188.0386124758
 20
117.2498715865
 30
0.0
 11
188.0386124758
 21
131.0680623357
 31
0.0
  0
LINE
  5
167
330
1F
100
AcDbEntity
  8
0
  6
HIDDEN
 62
     7
370
     0
100
AcDbLine
 10
188.0386124758
 20
101.9970487484
 30
0.0
 11
188.0386124758
 21
115.8150357933
 31
0.0
  0
LINE
  5
168
330
1F
100
AcDbEntity
  8
0
  6
HIDDEN
 62
     7
370
     0
100
AcDbLine
 10
183.0386124758
 20
104.8363258991
 30
0.0
 11
183.0386124758
 21
101.9964776939
 31
0.0
  0
LINE
  5
169
330
1F
100
AcDbEntity
  8
0
  6
HIDDEN
 62
     7
370
     0
100
AcDbLine
 10
183.0386124758
 20
115.8146034189
 30
0.0
 11
183.0386124758
 21
106.4917350478
 31
0.0
  0
LINE
  5
16A
330
1F
100
AcDbEntity
  8
0
  6
HIDDEN
 62
     7
370
     0
100
AcDbLine
 10
183.0386124758
 20
126.5743504928
 30
0.0
 11
183.0386124758
 21
117.2501929846
 31
0.0
  0
LINE
  5
16B
330
1F
100
AcDbEntity
  8
0
  6
HIDDEN
 62
     7
370
     0
100
AcDbLine
 10
183.0386124758
 20
131.0674912812
 30
0.0
 11
183.0386124758
 21
128.230948274
 31
0.0
  0
LINE
  5
16C
330
1F
100
AcDbEntity
  8
0
  6
HIDDEN
 62
     7
370
     0
100
AcDbLine
 10
167.729120913
 20
100.4989160438
 30
0.0
 11
183.9567614473
 21
103.703313927
 31
0.0
  0
LINE
  5
16D
330
1F
100
AcDbEntity
  8
0
  6
HIDDEN
 62
     7
370
     0
100
AcDbLine
 10
183.9562467165
 20
107.9843137019
 30
0.0
 11
166.9154774829
 21
104.6193510171
 31
0.0
  0
ARC
  5
16E
330
1F
100
AcDbEntity
  8
0
  6
HIDDEN
 62
     7
370
     0
100
AcDbCircle
 10
61.7386124758
 20
102.8322700148
 30
0.0
 40
1.200000000000003
100
AcDbArc
 50
90.0
 51
180.0
  0
ARC
  5
16F
330
1F
100
AcDbEntity
  8
0
  6
HIDDEN
 62
     7
370
     0
100
AcDbCircle
 10
61.7386124758
 20
130.2322700148
 30
0.0
 40
1.200000000000017
100
AcDbArc
 50
180.0
 51
270.0
  0
LINE
  5
170
330
1F
100
AcDbEntity
  8
0
  6
HIDDEN
 62
     7
370
     0
100
AcDbLine
 10
195.3386124758
 20
153.8322700148
 30
0.0
 11
195.3386124758
 21
165.6323733653
 31
0.0
  0
LINE
  5
171
330
1F
100
AcDbEntity
  8
0
  6
HIDDEN
 62
     7
370
     0
100
AcDbLine
 10
195.3386124758
 20
67.4320546277
 30
0.0
 11
195.3386124758
 21
79.2322700148
 31
0.0
  0
ARC
  5
172
330
1F
100
AcDbEntity
  8
0
  6
HIDDEN
 62
     7
370
     0
100
AcDbCircle
 10
193.3386124758
 20
79.2322700148
 30
0.0
 40
2.0
100
AcDbArc
 50
0.0
 51
90.0
  0
ARC
  5
173
330
1F
100
AcDbEntity
  8
0
  6
HIDDEN
 62
     7
370
     0
100
AcDbCircle
 10
193.3386124758
 20
153.8322700148
 30
0.0
 40
2.0
100
AcDbArc
 50
270.0
 51
0.0
  0
ARC
  5
174
330
1F
100
AcDbEntity
  8
0
  6
HIDDEN
 62
     7
370
     0
100
AcDbCircle
 10
71.4309849065
 20
104.2072700148
 30
0.0
 40
0.4000000000000057
100
AcDbArc
 50
255.0
 51
270.0
  0
ARC
  5
175
330
1F
100
AcDbEntity
  8
0
  6
HIDDEN
 62
     7
370
     0
100
AcDbCircle
 10
71.4309849065
 20
128.8572700148
 30
0.0
 40
0.4000000000000057
100
AcDbArc
 50
90.0
 51
105.0
  0
LINE
  5
176
330
1F
100
AcDbEntity
  8
0
  6
HIDDEN
 62
     7
370
     0
100
AcDbLine
 10
71.4309849065
 20
103.8072700148
 30
0.0
 11
72.3076723681
 21
103.8072700148
 31
0.0
  0
LINE
  5
177
330
1F
100
AcDbEntity
  8
0
  6
HIDDEN
 62
     7
370
     0
100
AcDbLine
 10
72.3076723681
 20
129.2572700148
 30
0.0
 11
71.4309849065
 21
129.2572700148
 31
0.0
  0
ARC
  5
178
330
1F
100
AcDbEntity
  8
0
  6
HIDDEN
 62
     7
370
     0
100
AcDbCircle
 10
72.3076723681
 20
104.2072700148
 30
0.0
 40
0.4000000000000057
100
AcDbArc
 50
270.0
 51
330.0
  0
ARC
  5
179
330
1F
100
AcDbEntity
  8
0
  6
HIDDEN
 62
     7
370
     0
100
AcDbCircle
 10
72.3076723681
 20
128.8572700148
 30
0.0
 40
0.4000000000000192
100
AcDbArc
 50
30.0
 51
90.0
  0
LINE
  5
17A
330
1F
100
AcDbEntity
  8
0
  6
HIDDEN
 62
     7
370
     0
100
AcDbLine
 10
71.3274572885
 20
129.2436403453
 30
0.0
 11
70.5386124758
 21
129.0322700148
 31
0.0
  0
LINE
  5
17B
330
1F
100
AcDbEntity
  8
0
  6
HIDDEN
 62
     7
370
     0
100
AcDbLine
 10
70.5386124758
 20
104.0322700148
 30
0.0
 11
71.3274572885
 21
103.8208996843
 31
0.0
  0
LINE
  5
17C
330
1F
100
AcDbEntity
  8
0
  6
HIDDEN
 62
     7
370
     0
100
AcDbLine
 10
72.6540825296
 20
104.0072700148
 30
0.0
 11
73.8232168247
 21
106.0322700148
 31
0.0
  0
LINE
  5
17D
330
1F
100
AcDbEntity
  8
0
  6
HIDDEN
 62
     7
370
     0
100
AcDbLine
 10
73.8232168247
 20
127.0322700148
 30
0.0
 11
72.6540825296
 21
129.0572700148
 31
0.0
  0
LINE
  5
17E
330
1F
100
AcDbEntity
  8
0
  6
HIDDEN
 62
     7
370
     0
100
AcDbLine
 10
61.7386124758
 20
104.0322700148
 30
0.0
 11
70.5386124758
 21
104.0322700148
 31
0.0
  0
LINE
  5
17F
330
1F
100
AcDbEntity
  8
0
  6
HIDDEN
 62
     7
370
     0
100
AcDbLine
 10
70.5386124758
 20
129.0322700148
 30
0.0
 11
61.7386124758
 21
129.0322700148
 31
0.0
  0
LINE
  5
180
330
1F
100
AcDbEntity
  8
0
  6
HIDDEN
 62
     7
370
     0
100
AcDbLine
 10
73.8232168247
 20
106.0322700148
 30
0.0
 11
123.5386124758
 21
106.0322700148
 31
0.0
  0
LINE
  5
181
330
1F
100
AcDbEntity
  8
0
  6
HIDDEN
 62
     7
370
     0
100
AcDbLine
 10
123.5386124758
 20
127.0322700148
 30
0.0
 11
73.8232168247
 21
127.0322700148
 31
0.0
  0
LINE
  5
182
330
1F
100
AcDbEntity
  8
0
  6
HIDDEN
 62
     7
370
     0
100
AcDbLine
 10
123.5386124758
 20
106.0322700148
 30
0.0
 11
128.5858416756
 21
114.4322700148
 31
0.0
  0
LINE
  5
183
330
1F
100
AcDbEntity
  8
0
  6
HIDDEN
 62
     7
370
     0
100
AcDbLine
 10
128.5858416756
 20
118.6322700148
 30
0.0
 11
123.5386124758
 21
127.0322700148
 31
0.0
  0
LINE
  5
184
330
1F
100
AcDbEntity
  8
0
  6
HIDDEN
 62
     7
370
     0
100
AcDbLine
 10
195.3386167961
 20
165.5322705385
 30
0.0
 11
196.3386166455
 21
166.5322703174
 31
0.0
  0
LINE
  5
185
330
1F
100
AcDbEntity
  8
0
  6
HIDDEN
 62
     7
370
     0
100
AcDbLine
 10
196.3386166462
 20
66.5322697115
 30
0.0
 11
195.3386167969
 21
67.5322694904
 31
0.0
  0
ARC
  5
186
330
1F
100
AcDbEntity
  8
0
  6
HIDDEN
 62
     7
370
     0
100
AcDbCircle
 10
212.6386124758
 20
121.7322700148
 30
0.0
 40
0.7999999999999972
100
AcDbArc
 50
90.0
 51
180.0
  0
ARC
  5
187
330
1F
100
AcDbEntity
  8
0
  6
HIDDEN
 62
     7
370
     0
100
AcDbCircle
 10
212.6386124758
 20
111.3322700148
 30
0.0
 40
0.7999999999999972
100
AcDbArc
 50
180.0
 51
270.0
  0
LINE
  5
188
330
1F
100
AcDbEntity
  8
0
  6
HIDDEN
 62
     7
370
     0
100
AcDbLine
 10
213.2332904777
 20
122.5322700148
 30
0.0
 11
212.6386124758
 21
122.5322700148
 31
0.0
  0
LINE
  5
189
330
1F
100
AcDbEntity
  8
0
  6
HIDDEN
 62
     7
370
     0
100
AcDbLine
 10
212.6386124758
 20
110.5322700148
 30
0.0
 11
213.2332904777
 21
110.5322700148
 31
0.0
  0
ARC
  5
18A
330
1F
100
AcDbEntity
  8
0
  6
HIDDEN
 62
     7
370
     0
100
AcDbCircle
 10
213.2332904777
 20
121.7322700148
 30
0.0
 40
0.7999999999999982
100
AcDbArc
 50
75.0
 51
90.0
  0
ARC
  5
18B
330
1F
100
AcDbEntity
  8
0
  6
HIDDEN
 62
     7
370
     0
100
AcDbCircle
 10
213.2332904777
 20
111.3322700148
 30
0.0
 40
0.7999999999999982
100
AcDbArc
 50
270.0
 51
285.0
  0
LINE
  5
18C
330
1F
100
AcDbEntity
  8
0
  6
HIDDEN
 62
     7
370
     0
100
AcDbLine
 10
213.4403457138
 20
110.5595293538
 30
0.0
 11
215.2046378795
 21
111.0322700148
 31
0.0
  0
LINE
  5
18D
330
1F
100
AcDbEntity
  8
0
  6
HIDDEN
 62
     7
370
     0
100
AcDbLine
 10
215.2046378795
 20
122.0322700148
 30
0.0
 11
213.4403457138
 21
122.5050106758
 31
0.0
  0
LINE
  5
18E
330
1F
100
AcDbEntity
  8
0
  6
HIDDEN
 62
     7
370
     0
100
AcDbLine
 10
219.4386124758
 20
122.0322700148
 30
0.0
 11
215.2046378795
 21
122.0322700148
 31
0.0
  0
LINE
  5
18F
330
1F
100
AcDbEntity
  8
0
  6
HIDDEN
 62
     7
370
     0
100
AcDbLine
 10
215.2046378795
 20
111.0322700148
 30
0.0
 11
219.4386124758
 21
111.0322700148
 31
0.0
  0
LINE
  5
190
330
1F
100
AcDbEntity
  8
0
  6
HIDDEN
 62
     7
370
     0
100
AcDbLine
 10
225.3386124758
 20
125.0045727469
 30
0.0
 11
224.9105315549
 21
124.5765998273
 31
0.0
  0
LINE
  5
191
330
1F
100
AcDbEntity
  8
0
  6
HIDDEN
 62
     7
370
     0
100
AcDbLine
 10
224.9105327551
 20
108.4879298584
 30
0.0
 11
225.3386124758
 21
108.0599618597
 31
0.0
  0
LINE
  5
192
330
1F
100
AcDbEntity
  8
0
  6
HIDDEN
 62
     7
370
     0
100
AcDbLine
 10
187.0734974887
 20
114.4322700148
 30
0.0
 11
211.8386124758
 21
114.4322700148
 31
0.0
  0
LINE
  5
193
330
1F
100
AcDbEntity
  8
0
  6
HIDDEN
 62
     7
370
     0
100
AcDbLine
 10
211.8386124758
 20
118.6322700148
 30
0.0
 11
187.0773825847
 21
118.6322700148
 31
0.0
  0
LINE
  5
194
330
1F
100
AcDbEntity
  8
0
  6
HIDDEN
 62
     7
370
     0
100
AcDbLine
 10
128.5858416756
 20
114.4322700148
 30
0.0
 11
184.0037274628
 21
114.4322700148
 31
0.0
  0
LINE
  5
195
330
1F
100
AcDbEntity
  8
0
  6
HIDDEN
 62
     7
370
     0
100
AcDbLine
 10
184.0007831919
 20
118.6322700148
 30
0.0
 11
128.5858416756
 21
118.6322700148
 31
0.0
  0
LINE
  5
196
330
1F
100
AcDbEntity
  8
0
  6
HIDDEN
 62
     7
370
     0
100
AcDbLine
 10
219.4386124758
 20
108.4822700148
 30
0.0
 11
224.9168709323
 21
108.4822700148
 31
0.0
  0
LINE
  5
197
330
1F
100
AcDbEntity
  8
0
  6
HIDDEN
 62
     7
370
     0
100
AcDbLine
 10
224.916871241
 20
124.5822700148
 30
0.0
 11
219.4386124758
 21
124.5822700148
 31
0.0
  0
LINE
  5
198
330
1F
100
AcDbEntity
  8
0
  6
HIDDEN
 62
     7
370
     0
100
AcDbLine
 10
166.9154774829
 20
128.4451890125
 30
0.0
 11
183.9534162003
 21
125.0807852568
 31
0.0
  0
LINE
  5
199
330
1F
100
AcDbEntity
  8
0
  6
HIDDEN
 62
     7
370
     0
100
AcDbLine
 10
183.9549955664
 20
129.3615748029
 30
0.0
 11
167.729120913
 21
132.5656239857
 31
0.0
  0
LINE
  5
19A
330
1F
100
AcDbEntity
  8
0
  6
HIDDEN
 62
     7
370
     0
100
AcDbLine
 10
165.3386124758
 20
127.8391864513
 30
0.0
 11
166.4574385971
 21
127.6182569793
 31
0.0
  0
LINE
  5
19B
330
1F
100
AcDbEntity
  8
0
  6
HIDDEN
 62
     7
370
     0
100
AcDbLine
 10
167.6197863544
 20
133.5045926554
 30
0.0
 11
165.3386124758
 21
133.9550456176
 31
0.0
  0
DIMENSION
  5
19C
330
1F
100
AcDbEntity
  8
VERMASSUNG
100
AcDbDimension
  2
_D
 10
233.4025305595
 20
111.0322700148
 30
0.0
 11
233.4025305595
 21
116.5322700148
 31
0.0
 70
   160
  1
%%c<>
 71
     2
 42
-1.0
  3
SLDDIMSTYLE0
100
AcDbAlignedDimension
 13
219.4386124758
 23
122.0322700148
 33
0.0
 14
219.4386124758
 24
111.0322700148
 34
0.0
 50
90.0
100
AcDbRotatedDimension
  0
DIMENSION
  5
1A8
330
1F
100
AcDbEntity
  8
VERMASSUNG
100
AcDbDimension
  2
_D_1
 10
239.5025305595
 20
106.5322700148
 30
0.0
 11
239.5025305595
 21
116.5322700148
 31
0.0
 70
   160
  1
ST1 %%c<>
 71
     2
 42
-1.0
  3
SLDDIMSTYLE0
100
AcDbAlignedDimension
 13
225.1386124758
 23
126.5322700148
 33
0.0
 14
225.1386124758
 24
106.5322700148
 34
0.0
 50
90.0
100
AcDbRotatedDimension
  0
DIMENSION
  5
1B4
330
1F
100
AcDbEntity
  8
VERMASSUNG
100
AcDbDimension
  2
_D_2
 10
225.3386124758
 20
170.9408664867
 30
0.0
 11
212.8386124758
 21
170.9408664867
 31
0.0
 70
   160
  1
(<>)
 71
     2
 42
-1.0
  3
SLDDIMSTYLE0
100
AcDbAlignedDimension
 13
200.3386124758
 23
165.5322700148
 33
0.0
 14
225.3386124758
 24
126.3322700148
 34
0.0
100
AcDbRotatedDimension
  0
DIMENSION
  5
1C0
330
1F
100
AcDbEntity
  8
VERMASSUNG
100
AcDbDimension
  2
_D_3
 10
225.3386124758
 20
176.9408664867
 30
0.0
 11
193.8386124758
 21
176.9408664867
 31
0.0
 70
   160
  1
<>
 71
     2
 42
-1.0
  3
SLDDIMSTYLE0
100
AcDbAlignedDimension
 13
162.3386124758
 23
151.4572700148
 33
0.0
 14
225.3386124758
 24
126.3322700148
 34
0.0
100
AcDbRotatedDimension
  0
DIMENSION
  5
1CA
330
1F
100
AcDbEntity
  8
VERMASSUNG
100
AcDbDimension
  2
_D_4
 10
225.3386124758
 20
182.9408664867
 30
0.0
 11
142.9386124758
 21
182.9408664867
 31
0.0
 70
   160
  1
(<>)
 71
     2
 42
-1.0
  3
SLDDIMSTYLE0
100
AcDbAlignedDimension
 13
60.5386124758
 23
134.8819478755
 33
0.0
 14
225.3386124758
 24
126.3322700148
 34
0.0
100
AcDbRotatedDimension
  0
DIMENSION
  5
1D6
330
1F
100
AcDbEntity
  8
VERMASSUNG
100
AcDbDimension
  2
_D_5
 10
50.5386124757
 20
66.5322700148
 30
0.0
 11
50.5386124757
 21
116.5322700148
 31
0.0
 70
   160
  1
MAS BT 50 %%c<>
 71
     2
 42
-1.0
  3
SLDDIMSTYLE0
100
AcDbAlignedDimension
 13
196.3386143843
 23
166.5322700148
 33
0.0
 14
196.3386145378
 24
66.5322700148
 34
0.0
 50
90.0
100
AcDbRotatedDimension
  0
LINE
  5
1E2
330
1F
100
AcDbEntity
  8
VERMASSUNG
  6
CENTERX2
370
     0
100
AcDbLine
 10
57.1319738031
 20
116.5322700148
 30
0.0
 11
227.1344563705
 21
116.5322700148
 31
0.0
  0
LINE
  5
1E3
330
1F
100
AcDbEntity
  8
VERMASSUNG
  6
CENTERX2
370
     0
100
AcDbLine
 10
163.3765005837
 20
131.2845652869
 30
0.0
 11
188.0853340586
 21
126.4054250621
 31
0.0
  0
LINE
  5
1E4
330
1F
100
AcDbEntity
  8
VERMASSUNG
  6
CENTERX2
370
     0
100
AcDbLine
 10
165.3601873059
 20
102.1716842781
 30
0.0
 11
185.9189482675
 21
106.2313286834
 31
0.0
  0
LINE
  5
1E5
330
1F
100
AcDbEntity
  8
VERMASSUNG
  6
CENTERX2
370
     0
100
AcDbLine
 10
185.5386124758
 20
105.8861187262
 30
0.0
 11
185.5386124758
 21
130.6426558218
 31
0.0
  0
LINE
  5
1E6
330
1F
100
AcDbEntity
  8
0
  6
Continuous
 62
     7
370
    15
100
AcDbLine
 10
276.0439688193
 20
44.7391754121
 30
0.0
 11
275.9555661096
 21
44.790225799
 31
0.0
  0
LINE
  5
1E7
330
1F
100
AcDbEntity
  8
0
  6
Continuous
 62
     7
370
    15
100
AcDbLine
 10
274.7179281732
 20
44.790225799
 30
0.0
 11
274.6295254635
 21
44.7391754121
 31
0.0
  0
LINE
  5
1E8
330
1F
100
AcDbEntity
  8
0
  6
Continuous
 62
     7
370
    15
100
AcDbLine
 10
276.3367471414
 20
44.228970094
 30
0.0
 11
276.3367471414
 21
44.3310376955
 31
0.0
  0
LINE
  5
1E9
330
1F
100
AcDbEntity
  8
0
  6
Continuous
 62
     7
370
    15
100
AcDbLine
 10
274.3367471414
 20
44.3310376955
 30
0.0
 11
274.3367471414
 21
44.228970094
 31
0.0
  0
SPLINE
  5
1EA
330
1F
100
AcDbEntity
  8
0
  6
Continuous
 62
     7
370
    15
100
AcDbSpline
210
0.0
220
0.0
230
1.0
 70
     8
 71
     3
 72
    42
 73
    38
 74
     0
 42
0.000000001
 43
0.00000001
 40
0.0
 40
0.0
 40
0.0
 40
0.0
 40
0.0045125025583418
 40
0.0341557782870357
 40
0.0639204828194334
 40
0.093795638777502
 40
0.1237572948031462
 40
0.1537780621136242
 40
0.1838335036121604
 40
0.2139048971977777
 40
0.2439778698920886
 40
0.2740444805964031
 40
0.3041015187222614
 40
0.3341479328870743
 40
0.3641840395561032
 40
0.3942109839503881
 40
0.4242303925832424
 40
0.454244159916901
 40
0.4842543240028211
 40
0.5142629985413053
 40
0.5442723385368105
 40
0.5742838289145521
 40
0.6042996356438947
 40
0.6343219523542409
 40
0.6643529381917849
 40
0.6943946509357548
 40
0.7244489233495549
 40
0.7545171490859045
 40
0.7845999307716738
 40
0.8146965282208847
 40
0.8448040374990257
 40
0.8749150476621973
 40
0.9050150415917362
 40
0.9350848505641729
 40
0.9650987378823523
 40
0.9950268001511433
 40
1.0
 40
1.0
 40
1.0
 40
1.0
 10
259.1498180152986
 20
21.81899080446224
 30
0.0
 10
259.2105359599587
 20
21.81010149776209
 30
0.0
 10
259.6701187810308
 20
21.74281706194172
 30
0.0
 10
260.5785631941333
 20
21.75240363295953
 30
0.0
 10
261.8699935202249
 20
21.85679872442235
 30
0.0
 10
263.2042733179198
 20
22.11537070260665
 30
0.0
 10
264.5667548516149
 20
22.50977647641341
 30
0.0
 10
265.9503409707756
 20
23.04220992816776
 30
0.0
 10
267.3456672291662
 20
23.7079578121266
 30
0.0
 10
268.743967382405
 20
24.50291288937933
 30
0.0
 10
270.136459514798
 20
25.42171245568218
 30
0.0
 10
271.5145963626627
 20
26.45838369783061
 30
0.0
 10
272.8700439826292
 20
27.6062957558452
 30
0.0
 10
274.1946771386895
 20
28.85823451130613
 30
0.0
 10
275.4805727767815
 20
30.20641310243801
 30
0.0
 10
276.7200399734228
 20
31.64251112529092
 30
0.0
 10
277.9056549231166
 20
33.15771402735478
 30
0.0
 10
279.0302999302847
 20
34.74275838495291
 30
0.0
 10
280.0872036599299
 20
36.38798199664575
 30
0.0
 10
281.0699809418405
 20
38.08337863513506
 30
0.0
 10
281.972663771155
 20
39.81864327282986
 30
0.0
 10
282.7897460666405
 20
41.58324548677129
 30
0.0
 10
283.5162160554863
 20
43.36649496325412
 30
0.0
 10
284.1475874544718
 20
45.15762115604609
 30
0.0
 10
284.6799147927617
 20
46.94582522913343
 30
0.0
 10
285.1098103352522
 20
48.72034288249797
 30
0.0
 10
285.4344554879048
 20
50.47050366353062
 30
0.0
 10
285.6516099159973
 20
52.18578744508282
 30
0.0
 10
285.7596087953019
 20
53.85586202303669
 30
0.0
 10
285.7573928811692
 20
55.47064815248043
 30
0.0
 10
285.6444239403368
 20
57.02020409768912
 30
0.0
 10
285.4210840693569
 20
58.49512656487222
 30
0.0
 10
285.0874059359796
 20
59.8849900624082
 30
0.0
 10
284.6481749790415
 20
61.18435673774506
 30
0.0
 10
284.0944028425814
 20
62.37065444920878
 30
0.0
 10
283.644829775202
 20
63.17803448259195
 30
0.0
 10
283.3517575169312
 20
63.55193493968192
 30
0.0
 10
283.309996651504
 20
63.60521329077476
 30
0.0
  0
LINE
  5
1EB
330
1F
100
AcDbEntity
  8
0
  6
Continuous
 62
     7
370
    15
100
AcDbLine
 10
253.2122719245
 20
24.2558573891
 30
0.0
 11
255.4308194505
 21
22.9751171637
 31
0.0
  0
LINE
  5
1EC
330
1F
100
AcDbEntity
  8
0
  6
Continuous
 62
     7
370
    15
100
AcDbLine
 10
280.4287877664
 20
66.2775602827
 30
0.0
 11
278.2102402404
 21
67.5583005081
 31
0.0
  0
LINE
  5
1ED
330
1F
100
AcDbEntity
  8
0
  6
Continuous
 62
     7
370
    15
100
AcDbLine
 10
272.889261712
 20
70.6300360289
 30
0.0
 11
268.7615258768
 21
73.0129272053
 31
0.0
  0
SPLINE
  5
1EE
330
1F
100
AcDbEntity
  8
0
  6
Continuous
 62
     7
370
    15
100
AcDbSpline
210
0.0
220
0.0
230
1.0
 70
     8
 71
     3
 72
    31
 73
    27
 74
     0
 42
0.000000001
 43
0.00000001
 40
0.0
 40
0.0
 40
0.0
 40
0.0
 40
0.0188957672977165
 40
0.0616803156432558
 40
0.1046383261413208
 40
0.1477474040253081
 40
0.1909704505608899
 40
0.234268458916481
 40
0.2776082353498653
 40
0.3209651911498996
 40
0.3643198848087177
 40
0.4076637576007974
 40
0.4509931641633053
 40
0.4943072214539977
 40
0.5376067745020237
 40
0.580893703268152
 40
0.6241704818586946
 40
0.6674399114777462
 40
0.7107049672376519
 40
0.7539687161697246
 40
0.7972340337707005
 40
0.8405032699298886
 40
0.8837795909505106
 40
0.9270661522012319
 40
0.9703660390557107
 40
0.9999999999999999
 40
0.9999999999999999
 40
0.9999999999999999
 40
0.9999999999999999
 10
265.0619085043103
 20
74.15862245369064
 30
0.0
 10
264.8839965035222
 20
74.18034063148306
 30
0.0
 10
264.3032490698544
 20
74.25123397179185
 30
0.0
 10
263.2668433653828
 20
74.22156230490054
 30
0.0
 10
261.9627278182087
 20
74.07470671048613
 30
0.0
 10
260.6199854664254
 20
73.77913115180274
 30
0.0
 10
259.2508665005794
 20
73.3468569914323
 30
0.0
 10
257.8632082313938
 20
72.77777816883221
 30
0.0
 10
256.4661921731636
 20
72.0763986790694
 30
0.0
 10
255.0686108832139
 20
71.24719633586066
 30
0.0
 10
253.6791822519018
 20
70.29570491555026
 30
0.0
 10
252.3064028030542
 20
69.22808961648913
 30
0.0
 10
250.9585418236924
 20
68.05113756058846
 30
0.0
 10
249.6436719935717
 20
66.77222225928188
 30
0.0
 10
248.3696563533148
 20
65.39927942405244
 30
0.0
 10
247.1441169686333
 20
63.94076809723019
 30
0.0
 10
245.9743978716931
 20
62.40562952674559
 30
0.0
 10
244.8675281778812
 20
60.80324117304593
 30
0.0
 10
243.8301718871327
 20
59.14336302023057
 30
0.0
 10
242.8686272345984
 20
57.43609333638317
 30
0.0
 10
241.9886543668747
 20
55.69178550210845
 30
0.0
 10
241.195948222168
 20
53.92109309408645
 30
0.0
 10
240.4941842418966
 20
52.13446196534896
 30
0.0
 10
239.8921677885257
 20
50.34369626401435
 30
0.0
 10
239.4312835743013
 20
48.74409770385386
 30
0.0
 10
239.214145082403
 20
47.75373326842783
 30
0.0
 10
239.1259189187955
 20
47.35133545334198
 30
0.0
  0
LINE
  5
1EF
330
1F
100
AcDbEntity
  8
0
  6
Continuous
 62
     7
370
    15
100
AcDbLine
 10
277.0520557094
 20
35.2781341196
 30
0.0
 11
277.1227548951
 21
35.3189611597
 31
0.0
  0
LINE
  5
1F0
330
1F
100
AcDbEntity
  8
0
  6
Continuous
 62
     7
370
    15
100
AcDbLine
 10
280.5870149917
 20
41.3198858703
 30
0.0
 11
280.5870149917
 21
41.4015266815
 31
0.0
  0
LINE
  5
1F1
330
1F
100
AcDbEntity
  8
0
  6
Continuous
 62
     7
370
    15
100
AcDbLine
 10
279.5512779173
 20
43.6907507138
 30
0.0
 11
272.197367393
 21
47.9360728953
 31
0.0
  0
LINE
  5
1F2
330
1F
100
AcDbEntity
  8
0
  6
Continuous
 62
     7
370
    15
100
AcDbLine
 10
267.1977737298
 20
39.2755842715
 30
0.0
 11
274.5516842542
 21
35.03026209
 31
0.0
  0
SPLINE
  5
1F3
330
1F
100
AcDbEntity
  8
0
  6
Continuous
 62
     7
370
    15
100
AcDbSpline
210
0.0
220
0.0
230
1.0
 70
     8
 71
     3
 72
    14
 73
    10
 74
     0
 42
0.000000001
 43
0.00000001
 40
0.0
 40
0.0
 40
0.0
 40
0.0
 40
0.0020773725777957
 40
0.1792464312873903
 40
0.3553963877175705
 40
0.5300802692936539
 40
0.7035114049120671
 40
0.87735808773904
 40
1.0
 40
1.0
 40
1.0
 40
1.0
 10
276.0068831240439
 20
40.71314038881753
 30
0.0
 10
276.0082896493565
 20
40.71523796999732
 30
0.0
 10
276.129651915079
 20
40.89622810380034
 30
0.0
 10
276.4229551874894
 20
41.19414427222744
 30
0.0
 10
276.8597992433209
 20
41.56678997311254
 30
0.0
 10
277.3014928587427
 20
41.81339629697383
 30
0.0
 10
277.7055591858385
 20
41.93037955605843
 30
0.0
 10
278.0208224156423
 20
41.9374719255284
 30
0.0
 10
278.1674569480472
 20
41.86750438444685
 30
0.0
 10
278.228112028059
 20
41.83856245151384
 30
0.0
  0
SPLINE
  5
1F4
330
1F
100
AcDbEntity
  8
0
  6
Continuous
 62
     7
370
    15
100
AcDbSpline
210
0.0
220
0.0
230
1.0
 70
     8
 71
     3
 72
    10
 73
     6
 74
     0
 42
0.000000001
 43
0.00000001
 40
0.0
 40
0.0
 40
0.0
 40
0.0
 40
0.0907464134847101
 40
0.5474908217161366
 40
1.0
 40
1.0
 40
1.0
 40
1.0
 10
275.3192302813988
 20
39.48581239569085
 30
0.0
 10
275.3335750771526
 20
39.52489043352896
 30
0.0
 10
275.420120029322
 20
39.7606558618855
 30
0.0
 10
275.636530976675
 20
40.19090299004539
 30
0.0
 10
275.8838163533746
 20
40.53960266088419
 30
0.0
 10
276.0068831240439
 20
40.71314038881753
 30
0.0
  0
LINE
  5
1F5
330
1F
100
AcDbEntity
  8
0
  6
Continuous
 62
     7
370
    15
100
AcDbLine
 10
254.3417190788
 20
70.728128325
 30
0.0
 11
223.9921778647
 21
81.6648999644
 31
0.0
  0
LINE
  5
1F6
330
1F
100
AcDbEntity
  8
0
  6
Continuous
 62
     7
370
    15
100
AcDbLine
 10
213.8828231893
 20
64.1530865934
 30
0.0
 11
243.3465605159
 21
39.274150368
 31
0.0
  0
SPLINE
  5
1F7
330
1F
100
AcDbEntity
  8
0
  6
Continuous
 62
     7
370
    15
100
AcDbSpline
210
0.0
220
0.0
230
1.0
 70
     8
 71
     3
 72
    10
 73
     6
 74
     0
 42
0.000000001
 43
0.00000001
 40
0.0
 40
0.0
 40
0.0
 40
0.0
 40
0.1961441333089119
 40
0.8062426898968156
 40
1.0
 40
1.0
 40
1.0
 40
1.0
 10
275.5919956209689
 20
37.04574212684778
 30
0.0
 10
275.5615697770074
 20
37.05610165093984
 30
0.0
 10
275.4365055506951
 20
37.09868406433726
 30
0.0
 10
275.3245808048301
 20
37.22597575528429
 30
0.0
 10
275.2464786501729
 20
37.35686159718981
 30
0.0
 10
275.2276533059456
 20
37.38840965164712
 30
0.0
  0
LINE
  5
1F8
330
1F
100
AcDbEntity
  8
0
  6
Continuous
 62
     7
370
    15
100
AcDbLine
 10
243.7635575609
 20
29.7104840862
 30
0.0
 11
247.8912933961
 21
27.3275929098
 31
0.0
  0
SPLINE
  5
1F9
330
1F
100
AcDbEntity
  8
0
  6
Continuous
 62
     7
370
    15
100
AcDbSpline
210
0.0
220
0.0
230
1.0
 70
     8
 71
     3
 72
    11
 73
     7
 74
     0
 42
0.000000001
 43
0.00000001
 40
0.0
 40
0.0
 40
0.0
 40
0.0
 40
0.1014726037306065
 40
0.4117955914088775
 40
0.7216513978100001
 40
1.0
 40
1.0
 40
1.0
 40
1.0
 10
239.1079189874404
 20
36.18480755942165
 30
0.0
 10
239.1493191436931
 20
36.03792868279361
 30
0.0
 10
239.3173290419485
 20
35.44186559144842
 30
0.0
 10
239.6907799716955
 20
34.4658226514176
 30
0.0
 10
240.2377668464641
 20
33.32938046646457
 30
0.0
 10
240.6797649310935
 20
32.67630281740583
 30
0.0
 10
240.8889261465321
 20
32.3672550644785
 30
0.0
  0
SPLINE
  5
1FA
330
1F
100
AcDbEntity
  8
0
  6
Continuous
 62
     7
370
    15
100
AcDbSpline
210
0.0
220
0.0
230
1.0
 70
     8
 71
     3
 72
    26
 73
    22
 74
     0
 42
0.000000001
 43
0.00000001
 40
0.0
 40
0.0
 40
0.0
 40
0.0
 40
0.0421920351105311
 40
0.0943866687806325
 40
0.1475688754593389
 40
0.2020148164085846
 40
0.2575861961548137
 40
0.3138882453083718
 40
0.3705111500257444
 40
0.4271372314316711
 40
0.483654841022328
 40
0.5400491660923309
 40
0.5963451602113885
 40
0.6525853448007237
 40
0.7088195399200122
 40
0.765092176039975
 40
0.8214487758007444
 40
0.8779441984350076
 40
0.9346295486659488
 40
0.9884815046005885
 40
0.9999999999999999
 40
0.9999999999999999
 40
0.9999999999999999
 40
0.9999999999999999
 10
223.9502078648763
 20
81.66777351721302
 30
0.0
 10
223.745473544917
 20
81.7339567101658
 30
0.0
 10
223.2874678953814
 20
81.88201335393074
 30
0.0
 10
222.5166030306429
 20
81.9435239478772
 30
0.0
 10
221.6619837012672
 20
81.88476293187507
 30
0.0
 10
220.7731922200966
 20
81.6811128155767
 30
0.0
 10
219.8630585868853
 20
81.33813774998339
 30
0.0
 10
218.9453839375838
 20
80.85806421931093
 30
0.0
 10
218.0365501103177
 20
80.24955087996783
 30
0.0
 10
217.1519464672678
 20
79.52396576258072
 30
0.0
 10
216.3052366582024
 20
78.69442728854905
 30
0.0
 10
215.5082844498747
 20
77.77449134847863
 30
0.0
 10
214.7719325295215
 20
76.77826889573872
 30
0.0
 10
214.1062453061064
 20
75.7204569944525
 30
0.0
 10
213.5205566139911
 20
74.61632848247021
 30
0.0
 10
213.0233579635853
 20
73.48157903886583
 30
0.0
 10
212.6223056887935
 20
72.33212311797905
 30
0.0
 10
212.323760160564
 20
71.18356760778343
 30
0.0
 10
212.1379238182675
 20
70.07229951484173
 30
0.0
 10
212.0795117222551
 20
69.28415432335969
 30
0.0
 10
212.0766187099282
 20
68.87447633573612
 30
0.0
 10
212.076108951337
 20
68.80228968382565
 30
0.0
  0
SPLINE
  5
1FB
330
1F
100
AcDbEntity
  8
0
  6
Continuous
 62
     7
370
    15
100
AcDbSpline
210
0.0
220
0.0
230
1.0
 70
     8
 71
     3
 72
    14
 73
    10
 74
     0
 42
0.000000001
 43
0.00000001
 40
0.0
 40
0.0
 40
0.0
 40
0.0
 40
0.0970300021355376
 40
0.2799955097663701
 40
0.4629570220838163
 40
0.6442072974506324
 40
0.8219817389873184
 40
0.9951059531953558
 40
1.0
 40
1.0
 40
1.0
 40
1.0
 10
212.076108951337
 20
68.80228968382565
 30
0.0
 10
212.0794763535883
 20
68.6143860416371
 30
0.0
 10
212.0891935285775
 20
68.07216018444254
 30
0.0
 10
212.1974876167955
 20
67.2200914728395
 30
0.0
 10
212.4432488428624
 20
66.28516511473322
 30
0.0
 10
212.8091085729318
 20
65.44135913742159
 30
0.0
 10
213.3002391022441
 20
64.72835021105158
 30
0.0
 10
213.678172928516
 20
64.28930458960237
 30
0.0
 10
213.9112218265379
 20
64.1312261589028
 30
0.0
 10
213.917628765962
 20
64.12688029441537
 30
0.0
  0
LWPOLYLINE
  5
1FC
330
1F
100
AcDbEntity
  8
0
  6
Continuous
 62
     7
370
    15
100
AcDbPolyline
 90
       10
 70
   128
 43
0.0
 10
258.0466803571
 20
61.7293895762
 10
257.5853133931
 20
61.6251221154
 10
257.1736153719
 20
61.3923779384
 10
256.8742635853
 20
61.0665902363
 10
256.732831629
 20
60.6973572334
 10
256.7708512364
 20
60.3408913074
 10
256.9825342669
 20
60.051461164
 10
257.335653898
 20
59.8731299191
 10
257.7764508669
 20
59.8330468879
 10
258.0457868119
 20
59.8763922951
  0
ARC
  5
1FD
330
1F
100
AcDbEntity
  8
0
  6
Continuous
 62
     7
370
    15
100
AcDbCircle
 10
258.2364274168
 20
60.878851319
 30
0.0
 40
0.8714466556473314
100
AcDbArc
 50
9.2568029177
 51
102.5762100257
  0
LINE
  5
1FE
330
1F
100
AcDbEntity
  8
0
  6
Continuous
 62
     7
370
    15
100
AcDbLine
 10
257.1407155706
 20
60.394004178
 30
0.0
 11
257.8158691886
 21
60.1096660168
 31
0.0
  0
LINE
  5
1FF
330
1F
100
AcDbEntity
  8
0
  6
Continuous
 62
     7
370
    15
100
AcDbLine
 10
258.58671923
 20
60.4968800708
 30
0.0
 11
257.8158691886
 21
60.1096660168
 31
0.0
  0
LINE
  5
200
330
1F
100
AcDbEntity
  8
0
  6
Continuous
 62
     7
370
    15
100
AcDbLine
 10
258.6824156534
 20
61.1684322861
 30
0.0
 11
258.58671923
 21
60.4968800708
 31
0.0
  0
LINE
  5
201
330
1F
100
AcDbEntity
  8
0
  6
Continuous
 62
     7
370
    15
100
AcDbLine
 10
258.6824156534
 20
61.1684322861
 30
0.0
 11
258.0072620354
 21
61.4527704473
 31
0.0
  0
LINE
  5
202
330
1F
100
AcDbEntity
  8
0
  6
Continuous
 62
     7
370
    15
100
AcDbLine
 10
257.236411994
 20
61.0655563932
 30
0.0
 11
258.0072620354
 21
61.4527704473
 31
0.0
  0
LINE
  5
203
330
1F
100
AcDbEntity
  8
0
  6
Continuous
 62
     7
370
    15
100
AcDbLine
 10
257.236411994
 20
61.0655563932
 30
0.0
 11
257.1407155706
 21
60.394004178
 31
0.0
  0
LINE
  5
204
330
1F
100
AcDbEntity
  8
0
  6
Continuous
 62
     7
370
    15
100
AcDbLine
 10
257.4782567567
 20
60.4378730274
 30
0.0
 11
257.236411994
 21
61.0655563932
 31
0.0
  0
LINE
  5
205
330
1F
100
AcDbEntity
  8
0
  6
Continuous
 62
     7
370
    15
100
AcDbLine
 10
257.4782567567
 20
60.4378730274
 30
0.0
 11
257.4532492135
 21
60.2623819235
 31
0.0
  0
LINE
  5
206
330
1F
100
AcDbEntity
  8
0
  6
Continuous
 62
     7
370
    15
100
AcDbLine
 10
258.6117267731
 20
60.6723711748
 30
0.0
 11
258.249106798
 21
60.8250870815
 31
0.0
  0
LINE
  5
207
330
1F
100
AcDbEntity
  8
0
  6
Continuous
 62
     7
370
    15
100
AcDbLine
 10
257.4782567567
 20
60.4378730274
 30
0.0
 11
258.249106798
 21
60.8250870815
 31
0.0
  0
LINE
  5
208
330
1F
100
AcDbEntity
  8
0
  6
Continuous
 62
     7
370
    15
100
AcDbLine
 10
258.249106798
 20
60.8250870815
 30
0.0
 11
258.0072620354
 21
61.4527704473
 31
0.0
  0
LWPOLYLINE
  5
209
330
1F
100
AcDbEntity
  8
0
  6
Continuous
 62
     7
370
    15
100
AcDbPolyline
 90
       17
 70
   128
 43
0.0
 10
274.9905881979
 20
44.8970230505
 10
275.3244685815
 20
44.9381823091
 10
275.6602182647
 20
44.9024481711
 10
275.9467224015
 20
44.7952608352
 10
276.1403633345
 20
44.6329386015
 10
276.2116609868
 20
44.4401935587
 10
276.1497609373
 20
44.2463693923
 10
275.9640869074
 20
44.0809740746
 10
275.6829060849
 20
43.9691875434
 10
275.3490257012
 20
43.9280282848
 10
275.0132760181
 20
43.9637624228
 10
274.7267718812
 20
44.0709497587
 10
274.5331309483
 20
44.2332719924
 10
274.4618332959
 20
44.4260170352
 10
274.5237333454
 20
44.6198412016
 10
274.7094073754
 20
44.7852365193
 10
274.9905881979
 20
44.8970230505
  0
LWPOLYLINE
  5
20A
330
1F
100
AcDbEntity
  8
0
  6
Continuous
 62
     7
370
    15
100
AcDbPolyline
 90
       14
 70
   128
 43
0.0
 10
276.0439688193
 20
44.7391754121
 10
276.2551656478
 20
44.5594186149
 10
276.336648679
 20
44.339138566
 10
276.2659057653
 20
44.117625233
 10
276.0537068739
 20
43.9286020128
 10
275.7323573625
 20
43.8008459772
 10
275.3507797812
 20
43.7538068245
 10
274.9670658576
 20
43.7946458393
 10
274.6396325583
 20
43.9171456518
 10
274.418328635
 20
44.102656776
 10
274.3368456037
 20
44.3229368249
 10
274.4075885174
 20
44.544450158
 10
274.6197874088
 20
44.7334733782
 10
274.6295254635
 20
44.7391754121
  0
LWPOLYLINE
  5
20B
330
1F
100
AcDbEntity
  8
0
  6
Continuous
 62
     7
370
    15
100
AcDbPolyline
 90
       17
 70
   128
 43
0.0
 10
275.0894907532
 20
44.7644751209
 10
275.3279767415
 20
44.7938745913
 10
275.5677979437
 20
44.7683502071
 10
275.7724437558
 20
44.6917878242
 10
275.9107587079
 20
44.5758433716
 10
275.9616856024
 20
44.438168341
 10
275.9174712813
 20
44.2997225079
 10
275.7848469742
 20
44.1815829953
 10
275.5840035296
 20
44.101735473
 10
275.3455175413
 20
44.0723360026
 10
275.105696339
 20
44.0978603868
 10
274.901050527
 20
44.1744227697
 10
274.7627355749
 20
44.2903672223
 10
274.7118086803
 20
44.4280422529
 10
274.7560230014
 20
44.566488086
 10
274.8886473085
 20
44.6846275986
 10
275.0894907532
 20
44.7644751209
  0
SPLINE
  5
20C
330
1F
100
AcDbEntity
  8
0
  6
Continuous
 62
     7
370
    15
100
AcDbSpline
210
0.0
220
0.0
230
1.0
 70
     8
 71
     3
 72
    11
 73
     7
 74
     0
 42
0.000000001
 43
0.00000001
 40
0.0
 40
0.0
 40
0.0
 40
0.0
 40
0.1208913875340484
 40
0.4766714197330224
 40
0.8143663490172411
 40
1.0
 40
1.0
 40
1.0
 40
1.0
 10
274.8738174448468
 20
44.59336531356015
 30
0.0
 10
274.8938848567635
 20
44.58987471166753
 30
0.0
 10
274.9730101106279
 20
44.57611136430414
 30
0.0
 10
275.1222332800477
 20
44.57994643832495
 30
0.0
 10
275.2857560752385
 20
44.64697551126947
 30
0.0
 10
275.3730883547175
 20
44.70473338675821
 30
0.0
 10
275.4040666167494
 20
44.72522109888452
 30
0.0
  0
SPLINE
  5
20D
330
1F
100
AcDbEntity
  8
0
  6
Continuous
 62
     7
370
    15
100
AcDbSpline
210
0.0
220
0.0
230
1.0
 70
     8
 71
     3
 72
    10
 73
     6
 74
     0
 42
0.000000001
 43
0.00000001
 40
0.0
 40
0.0
 40
0.0
 40
0.0
 40
0.4391051671061776
 40
0.7513578980692895
 40
0.9999999999999999
 40
0.9999999999999999
 40
0.9999999999999999
 40
0.9999999999999999
 10
274.8064979694778
 20
44.26234156174771
 30
0.0
 10
274.8161350001824
 20
44.28176710199375
 30
0.0
 10
274.8326250341795
 20
44.3150063671664
 30
0.0
 10
274.8565966056585
 20
44.45414452767401
 30
0.0
 10
274.8685282165627
 20
44.55060488182929
 30
0.0
 10
274.8738174448468
 20
44.59336531356015
 30
0.0
  0
SPLINE
  5
20E
330
1F
100
AcDbEntity
  8
0
  6
Continuous
 62
     7
370
    15
100
AcDbSpline
210
0.0
220
0.0
230
1.0
 70
     8
 71
     3
 72
     9
 73
     5
 74
     0
 42
0.000000001
 43
0.00000001
 40
0.0
 40
0.0
 40
0.0
 40
0.0
 40
0.34121034942269
 40
1.0
 40
1.0
 40
1.0
 40
1.0
 10
274.9792695856509
 20
44.13585992155114
 30
0.0
 10
274.9585034471576
 20
44.14618536253636
 30
0.0
 10
274.8976432225822
 20
44.17644658117381
 30
0.0
 10
274.8426963804237
 20
44.22822830078123
 30
0.0
 10
274.8064979694778
 20
44.26234156174771
 30
0.0
  0
SPLINE
  5
20F
330
1F
100
AcDbEntity
  8
0
  6
Continuous
 62
     7
370
    15
100
AcDbSpline
210
0.0
220
0.0
230
1.0
 70
     8
 71
     3
 72
     9
 73
     5
 74
     0
 42
0.000000001
 43
0.00000001
 40
0.0
 40
0.0
 40
0.0
 40
0.0
 40
0.97090630493666
 40
0.9999999999999999
 40
0.9999999999999999
 40
0.9999999999999999
 40
0.9999999999999999
 10
275.799676837914
 20
44.19502938058403
 30
0.0
 10
275.7693874837256
 20
44.17219430667935
 30
0.0
 10
275.7381904938262
 20
44.14867496831625
 30
0.0
 10
275.7034646879453
 20
44.13500943961333
 30
0.0
 10
275.7024543859382
 20
44.13461185888838
 30
0.0
  0
SPLINE
  5
210
330
1F
100
AcDbEntity
  8
0
  6
Continuous
 62
     7
370
    15
100
AcDbSpline
210
0.0
220
0.0
230
1.0
 70
     8
 71
     3
 72
    10
 73
     6
 74
     0
 42
0.000000001
 43
0.00000001
 40
0.0
 40
0.0
 40
0.0
 40
0.0
 40
0.43910516710618
 40
0.7513578980692978
 40
1.0
 40
1.0
 40
1.0
 40
1.0
 10
275.866996313283
 20
44.52605313239646
 30
0.0
 10
275.8573592825784
 20
44.4507041354766
 30
0.0
 10
275.8408692485813
 20
44.3217736008613
 30
0.0
 10
275.8168976771022
 20
44.22516543434093
 30
0.0
 10
275.8049660661981
 20
44.2042854026723
 30
0.0
 10
275.799676837914
 20
44.19502938058403
 30
0.0
  0
SPLINE
  5
211
330
1F
100
AcDbEntity
  8
0
  6
Continuous
 62
     7
370
    15
100
AcDbSpline
210
0.0
220
0.0
230
1.0
 70
     8
 71
     3
 72
    10
 73
     6
 74
     0
 42
0.000000001
 43
0.00000001
 40
0.0
 40
0.0
 40
0.0
 40
0.0
 40
0.4391051671061704
 40
0.7513578980692688
 40
1.0
 40
1.0
 40
1.0
 40
1.0
 10
275.4040666167494
 20
44.72522109888452
 30
0.0
 10
275.47033670687
 20
44.668747743
 30
0.0
 10
275.5837322197172
 20
44.57211553469794
 30
0.0
 10
275.7485753390287
 20
44.52245946287986
 30
0.0
 10
275.8306243595344
 20
44.52494936862262
 30
0.0
 10
275.866996313283
 20
44.52605313239646
 30
0.0
  0
LINE
  5
212
330
1F
100
AcDbEntity
  8
0
  6
Continuous
 62
     7
370
    15
100
AcDbLine
 10
274.8738174448
 20
44.206020904
 30
0.0
 11
274.8738174448
 21
44.5933653136
 31
0.0
  0
LINE
  5
213
330
1F
100
AcDbEntity
  8
0
  6
Continuous
 62
     7
370
    15
100
AcDbLine
 10
275.4040666167
 20
44.0743995565
 30
0.0
 11
275.4040666167
 21
44.7252210989
 31
0.0
  0
ARC
  5
214
330
1F
100
AcDbEntity
  8
0
  6
Continuous
 62
     7
370
    15
100
AcDbCircle
 10
276.0836752616
 20
58.7495985033
 30
0.0
 40
8.684059238294049
100
AcDbArc
 50
34.8054510415
 51
84.8423200841
  0
ARC
  5
215
330
1F
100
AcDbEntity
  8
0
  6
Continuous
 62
     7
370
    15
100
AcDbCircle
 10
259.776555097
 20
30.5035511455
 30
0.0
 40
8.684779380439425
100
AcDbArc
 50
214.8484415773
 51
264.9829834624
  0
LWPOLYLINE
  5
216
330
1F
100
AcDbEntity
  8
0
  6
Continuous
 62
     7
370
    15
100
AcDbPolyline
 90
        9
 70
   128
 43
0.0
 10
253.2122719245
 20
24.2558573891
 10
253.0459486614
 20
24.3544633999
 10
252.0550542735
 20
25.0609185916
 10
251.1606331678
 20
25.9146400245
 10
250.3690039195
 20
26.9095966432
 10
249.685758938
 20
28.0387596464
 10
249.1157249598
 20
29.294152141
 10
248.66292895
 20
30.6669054945
 10
248.3305696542
 20
32.147321987
  0
SPLINE
  5
217
330
1F
100
AcDbEntity
  8
0
  6
Continuous
 62
     7
370
    15
100
AcDbSpline
210
0.0
220
0.0
230
1.0
 70
     8
 71
     3
 72
    32
 73
    28
 74
     0
 42
0.000000001
 43
0.00000001
 40
0.0
 40
0.0
 40
0.0
 40
0.0
 40
0.0193254758647258
 40
0.0385826927399014
 40
0.0577846348003733
 40
0.0769443985950771
 40
0.0960751672943215
 40
0.1151901840580798
 40
0.1343027247879751
 40
0.1534260705402312
 40
0.172573479885108
 40
0.1917581614995186
 40
0.2109932472740069
 40
0.2302917662029109
 40
0.2496666193081449
 40
0.3745846283005043
 40
0.4997410234224777
 40
0.4999962720873377
 40
0.6248627021449072
 40
0.7503411293897363
 40
0.7861451323127985
 40
0.8217618640028611
 40
0.8572756267732794
 40
0.8927714566788081
 40
0.9283345184945242
 40
0.9640494961196089
 40
1.0
 40
1.0
 40
1.0
 40
1.0
 10
248.3305143781851
 20
39.59914675348535
 30
0.0
 10
248.3524575954728
 20
39.53905570977138
 30
0.0
 10
248.396266525005
 20
39.41908586829037
 30
0.0
 10
248.458705776227
 20
39.23833831418325
 30
0.0
 10
248.5186144037537
 20
39.05749491776783
 30
0.0
 10
248.5758009893872
 20
38.8764878022278
 30
0.0
 10
248.6303590605952
 20
38.69535839990676
 30
0.0
 10
248.682306807186
 20
38.51411988257588
 30
0.0
 10
248.7316832866489
 20
38.33279392836597
 30
0.0
 10
248.7785226680964
 20
38.15140085163015
 30
0.0
 10
248.8228612744421
 20
37.96996249622698
 30
0.0
 10
248.8647351176654
 20
37.78850060725308
 30
0.0
 10
248.9041827088539
 20
37.60704055479968
 30
0.0
 10
248.9412362282142
 20
37.42559810910639
 30
0.0
 10
249.0389283278484
 20
36.9152471573643
 30
0.0
 10
249.1564245266817
 20
36.08864562867605
 30
0.0
 10
249.1912759628023
 20
35.37332613338269
 30
0.0
 10
249.1916717869763
 20
34.69661416848174
 30
0.0
 10
249.1566204359301
 20
34.0549230443841
 30
0.0
 10
249.031686355759
 20
33.43362210560376
 30
0.0
 10
248.910960174886
 20
33.06099800361324
 30
0.0
 10
248.8366527623634
 20
32.87220130247072
 30
0.0
 10
248.7537392911313
 20
32.69801001950358
 30
0.0
 10
248.662040490122
 20
32.53819384943822
 30
0.0
 10
248.5611384225
 20
32.3929899768284
 30
0.0
 10
248.4515855257009
 20
32.26094301671122
 30
0.0
 10
248.3710572277999
 20
32.18524353177965
 30
0.0
 10
248.330660752044
 20
32.14726939737621
 30
0.0
  0
LWPOLYLINE
  5
218
330
1F
100
AcDbEntity
  8
0
  6
Continuous
 62
     7
370
    15
100
AcDbPolyline
 90
       27
 70
   128
 43
0.0
 10
248.3305143779
 20
39.5991467536
 10
248.6628537179
 20
41.463312616
 10
249.1156332763
 20
43.3588719295
 10
249.6856543448
 20
45.2724333176
 10
250.36888995
 20
47.1904782261
 10
251.1605133026
 20
49.0994564263
 10
252.0549318968
 20
50.9858817426
 10
253.045827019
 20
52.8364273262
 10
254.1261983872
 20
54.6380198047
 10
255.2884136051
 20
56.37793164
 10
256.5242620819
 20
58.0438710432
 10
257.825013037
 20
59.6240688114
 10
259.1814771795
 20
61.1073614726
 10
260.5840716268
 20
62.4832701509
 10
262.0228876041
 20
63.7420745957
 10
263.4877604455
 20
64.8748818517
 10
264.9683414041
 20
65.8736890836
 10
266.4541707609
 20
66.7314401136
 10
267.9347517194
 20
67.4420752698
 10
269.3996245609
 20
68.0005741962
 10
270.8384405381
 20
68.4029913186
 10
272.2410349854
 20
68.6464837192
 10
273.5974991279
 20
68.7293312208
 10
274.8982500831
 20
68.6509485383
 10
276.1340985599
 20
68.4118894144
 10
277.2963137777
 20
68.0138427073
 10
278.2102402404
 20
67.5583005081
  0
SPLINE
  5
219
330
1F
100
AcDbEntity
  8
0
  6
Continuous
 62
     7
370
    15
100
AcDbSpline
210
0.0
220
0.0
230
1.0
 70
     8
 71
     3
 72
     8
 73
     4
 74
     0
 42
0.000000001
 43
0.00000001
 40
0.0
 40
0.0
 40
0.0
 40
0.0
 40
1.0
 40
1.0
 40
1.0
 40
1.0
 10
247.368521099129
 20
45.03448447141177
 30
0.0
 10
246.198894679191
 20
44.83892829816903
 30
0.0
 10
245.0282914363312
 20
44.64534333144911
 30
0.0
 10
243.8570599546783
 20
44.45306388220284
 30
0.0
  0
SPLINE
  5
21A
330
1F
100
AcDbEntity
  8
0
  6
Continuous
 62
     7
370
    15
100
AcDbSpline
210
0.0
220
0.0
230
1.0
 70
     8
 71
     3
 72
     8
 73
     4
 74
     0
 42
0.000000001
 43
0.00000001
 40
0.0
 40
0.0
 40
0.0
 40
0.0
 40
0.0012417047560385
 40
0.0012417047560385
 40
0.0012417047560385
 40
0.0012417047560385
 10
243.3825593510286
 20
44.72703930308271
 30
0.0
 10
243.540830491489
 20
44.63565397832477
 30
0.0
 10
243.6989997971683
 20
44.54432743092116
 30
0.0
 10
243.8570599546783
 20
44.45306388220284
 30
0.0
  0
LWPOLYLINE
  5
21B
330
1F
100
AcDbEntity
  8
0
  6
Continuous
 62
     7
370
    15
100
AcDbPolyline
 90
       29
 70
   128
 43
0.0
 10
243.382559351
 20
44.7270393031
 10
243.8440064405
 20
46.6124992641
 10
244.4208150102
 20
48.5144573003
 10
245.10896352
 20
50.4196528593
 10
245.9036541622
 20
52.3148028166
 10
246.7993463113
 20
54.1866940861
 10
247.7897951543
 20
56.0222757426
 10
248.8680952291
 20
57.8087500134
 10
250.0267285704
 20
59.533661505
 10
251.2576171252
 20
61.1849840431
 10
252.5521790731
 20
62.7512045191
 10
253.9013886595
 20
64.221403161
 10
255.2958391236
 20
65.5853296657
 10
256.7258082827
 20
66.8334746654
 10
258.1813263161
 20
67.9571360267
 10
259.6522452747
 20
68.9484795231
 10
261.1283098334
 20
69.8005934551
 10
262.599228792
 20
70.5075368392
 10
264.0547468254
 20
71.0643808287
 10
265.4847159845
 20
71.4672430775
 10
266.8791664486
 20
71.7133148088
 10
268.228376035
 20
71.8008803975
 10
269.5229379829
 20
71.7293293315
 10
270.7538265377
 20
71.4991604687
 10
271.912459879
 20
71.1119785586
 10
272.9907599538
 20
70.5704830541
 10
273.9812087968
 20
69.8784492905
 10
274.8769009459
 20
69.040702164
 10
275.2634119984
 20
68.5981608673
  0
LINE
  5
21C
330
1F
100
AcDbEntity
  8
0
  6
Continuous
 62
     7
370
    15
100
AcDbLine
 10
239.2548235159
 20
47.1099304795
 30
0.0
 11
243.382559351
 21
44.7270393031
 31
0.0
  0
ARC
  5
21D
330
1F
100
AcDbEntity
  8
0
  6
Continuous
 62
     7
370
    15
100
AcDbCircle
 10
264.3711086878
 20
65.2795432031
 30
0.0
 40
8.892749362158865
100
AcDbArc
 50
60.4154415272
 51
84.6559311563
  0
SPLINE
  5
21E
330
1F
100
AcDbEntity
  8
0
  6
Continuous
 62
     7
370
    15
100
AcDbSpline
210
0.0
220
0.0
230
1.0
 70
     8
 71
     3
 72
    10
 73
     6
 74
     0
 42
0.000000001
 43
0.00000001
 40
0.0
 40
0.0
 40
0.0
 40
0.0
 40
0.3714086683929653
 40
0.7428017594997562
 40
1.0
 40
1.0
 40
1.0
 40
1.0
 10
257.0898858878933
 20
59.92954695985818
 30
0.0
 10
257.1980124639939
 20
59.88262235889161
 30
0.0
 10
257.4142610812484
 20
59.7887751250276
 30
0.0
 10
257.7789223606545
 20
59.77649976727604
 30
0.0
 10
258.0054496082751
 20
59.84374487952627
 30
0.0
 10
258.0981368703861
 20
59.87125929737353
 30
0.0
  0
LWPOLYLINE
  5
21F
330
1F
100
AcDbEntity
  8
0
  6
Continuous
 62
     7
370
    15
100
AcDbPolyline
 90
       14
 70
   128
 43
0.0
 10
259.1220536763
 20
61.0207073778
 10
259.0487518778
 20
61.2910588543
 10
258.8405529663
 20
61.5277536022
 10
258.5271080703
 20
61.6824336645
 10
258.1439679193
 20
61.7377636546
 10
257.7342031943
 20
61.6858283318
 10
257.3447522216
 20
61.5296192792
 10
257.0210291091
 20
61.2847892106
 10
256.7999173703
 20
60.9786162254
 10
256.7053983044
 20
60.6461505569
 10
256.7473582899
 20
60.3263675485
 10
256.9205527048
 20
60.0580183286
 10
257.0898858879
 20
59.9295469599
 10
257.0898858879
 20
59.9295469599
  0
SPLINE
  5
220
330
1F
100
AcDbEntity
  8
0
  6
Continuous
 62
     7
370
    15
100
AcDbSpline
210
0.0
220
0.0
230
1.0
 70
     8
 71
     3
 72
    10
 73
     6
 74
     0
 42
0.000000001
 43
0.00000001
 40
0.0
 40
0.0
 40
0.0
 40
0.0
 40
0.199265986756844
 40
0.6713473065754069
 40
1.0
 40
1.0
 40
1.0
 40
1.0
 10
249.2121186854534
 20
43.6442689842111
 30
0.0
 10
249.1272550568075
 20
43.75540672314693
 30
0.0
 10
248.841340890296
 20
44.12984103031498
 30
0.0
 10
248.3494907801076
 20
44.57983672963364
 30
0.0
 10
247.9324836016364
 20
44.86131023221996
 30
0.0
 10
247.7613274747387
 20
44.97683801450809
 30
0.0
  0
SPLINE
  5
221
330
1F
100
AcDbEntity
  8
0
  6
Continuous
 62
     7
370
    15
100
AcDbSpline
210
0.0
220
0.0
230
1.0
 70
     8
 71
     3
 72
    10
 73
     6
 74
     0
 42
0.000000001
 43
0.00000001
 40
0.0
 40
0.0
 40
0.0
 40
0.0
 40
0.5
 40
0.5
 40
1.0
 40
1.0
 40
1.0
 40
1.0
 10
247.6253981275066
 20
45.0293679963174
 30
0.0
 10
247.5848228191117
 20
45.03819251764437
 30
0.0
 10
247.541248476058
 20
45.04314559355306
 30
0.0
 10
247.4534457490712
 20
45.04473077881917
 30
0.0
 10
247.4104776321493
 20
45.04149941131064
 30
0.0
 10
247.368521099129
 20
45.03448447141177
 30
0.0
  0
SPLINE
  5
222
330
1F
100
AcDbEntity
  8
0
  6
Continuous
 62
     7
370
    15
100
AcDbSpline
210
0.0
220
0.0
230
1.0
 70
     8
 71
     3
 72
     8
 73
     4
 74
     0
 42
0.000000001
 43
0.00000001
 40
0.0
 40
0.0
 40
0.0
 40
0.0
 40
1.0
 40
1.0
 40
1.0
 40
1.0
 10
247.7613274747387
 20
44.97683801450809
 30
0.0
 10
247.7228455329025
 20
45.00050882430395
 30
0.0
 10
247.6767378811556
 20
45.0182023695134
 30
0.0
 10
247.6253981275066
 20
45.02936799631745
 30
0.0
  0
SPLINE
  5
223
330
1F
100
AcDbEntity
  8
0
  6
Continuous
 62
     7
370
    15
100
AcDbSpline
210
0.0
220
0.0
230
1.0
 70
     8
 71
     3
 72
    10
 73
     6
 74
     0
 42
0.000000001
 43
0.00000001
 40
0.0
 40
0.0
 40
0.0
 40
0.0
 40
0.5
 40
0.5
 40
1.0
 40
1.0
 40
1.0
 40
1.0
 10
239.0981265960413
 20
47.20037836264583
 30
0.0
 10
239.1091771943914
 20
47.19400252810169
 30
0.0
 10
239.1277971403309
 20
47.1832562865963
 30
0.0
 10
239.1810970903914
 20
47.15249081375634
 30
0.0
 10
239.2146778631127
 20
47.13310607148539
 30
0.0
 10
239.2548235158522
 20
47.10993047946524
 30
0.0
  0
LINE
  5
224
330
1F
100
AcDbEntity
  8
0
  6
Continuous
 62
     7
370
    15
100
AcDbLine
 10
239.098126596
 20
47.2003783626
 30
0.0
 11
239.1224348528
 21
47.3520173499
 31
0.0
  0
SPLINE
  5
225
330
1F
100
AcDbEntity
  8
0
  6
Continuous
 62
     7
370
    15
100
AcDbSpline
210
0.0
220
0.0
230
1.0
 70
     8
 71
     3
 72
     9
 73
     5
 74
     0
 42
0.000000001
 43
0.00000001
 40
0.0
 40
0.0
 40
0.0
 40
0.0
 40
0.5377956222894344
 40
1.0
 40
1.0
 40
1.0
 40
1.0
 10
247.7613274747387
 20
34.48748195156498
 30
0.0
 10
248.0013936481862
 20
34.36071590402349
 30
0.0
 10
248.4477828776586
 20
34.12500173624756
 30
0.0
 10
248.8393890351016
 20
34.00935709723332
 30
0.0
 10
249.0203911154101
 20
33.95590563882217
 30
0.0
  0
SPLINE
  5
226
330
1F
100
AcDbEntity
  8
0
  6
Continuous
 62
     7
370
    15
100
AcDbSpline
210
0.0
220
0.0
230
1.0
 70
     8
 71
     3
 72
     8
 73
     4
 74
     0
 42
0.000000001
 43
0.00000001
 40
0.0
 40
0.0
 40
0.0
 40
0.0
 40
1.0
 40
1.0
 40
1.0
 40
1.0
 10
247.6253981275072
 20
34.5368185635854
 30
0.0
 10
247.6767265095043
 20
34.52565540994511
 30
0.0
 10
247.7228470736086
 20
34.50894140564341
 30
0.0
 10
247.7613274747388
 20
34.48748195156501
 30
0.0
  0
SPLINE
  5
227
330
1F
100
AcDbEntity
  8
0
  6
Continuous
 62
     7
370
    15
100
AcDbSpline
210
0.0
220
0.0
230
1.0
 70
     8
 71
     3
 72
    12
 73
     8
 74
     0
 42
0.000000001
 43
0.00000001
 40
0.0
 40
0.0
 40
0.0
 40
0.0
 40
0.1882390091646456
 40
0.3552108137215437
 40
0.5009575804481068
 40
0.7563190982906866
 40
1.0
 40
1.0
 40
1.0
 40
1.0
 10
248.441314643839
 20
32.87124355428367
 30
0.0
 10
248.5303581736209
 20
32.96552520683974
 30
0.0
 10
248.6983851134717
 20
33.1434365902032
 30
0.0
 10
248.8782945094943
 20
33.4907536351588
 30
0.0
 10
249.0398183268418
 20
33.95140747033736
 30
0.0
 10
249.165572246888
 20
34.57293582614522
 30
0.0
 10
249.1828748294316
 20
35.15623683205582
 30
0.0
 10
249.1913236280726
 20
35.44106094623808
 30
0.0
  0
SPLINE
  5
228
330
1F
100
AcDbEntity
  8
0
  6
Continuous
 62
     7
370
    15
100
AcDbSpline
210
0.0
220
0.0
230
1.0
 70
     8
 71
     3
 72
     9
 73
     5
 74
     0
 42
0.000000001
 43
0.00000001
 40
0.0
 40
0.0
 40
0.0
 40
0.0
 40
0.5048005003628353
 40
1.0
 40
1.0
 40
1.0
 40
1.0
 10
248.3305802318081
 20
32.14721903402257
 30
0.0
 10
248.3491251301418
 20
32.26893291006716
 30
0.0
 10
248.3858622140401
 20
32.51004573772305
 30
0.0
 10
248.422959325396
 20
32.75155197097023
 30
0.0
 10
248.4413297963774
 20
32.87114573683348
 30
0.0
  0
LWPOLYLINE
  5
229
330
1F
100
AcDbEntity
  8
0
  6
Continuous
 62
     7
370
    15
100
AcDbPolyline
 90
       34
 70
   128
 43
0.0
 10
277.1221917639
 20
43.3207359746
 10
276.4664696565
 20
42.869891474
 10
275.8344470546
 20
42.2907332976
 10
275.2489669017
 20
41.6041937306
 10
274.7311899759
 20
40.835086102
 10
274.2998300844
 20
40.0112079651
 10
273.9704776976
 20
39.1623364226
 10
273.7550364689
 20
38.3191519037
 10
273.6612930056
 20
37.5121292937
 10
273.6926354407
 20
36.7704364925
 10
273.8479309769
 20
36.1208802103
 10
274.121566829
 20
35.5869371037
 10
274.5036530842
 20
35.1879052677
 10
274.9803801499
 20
34.9382067524
 10
275.5345178678
 20
34.8468663128
 10
276.1460382569
 20
34.9171852305
 10
276.7928393771
 20
35.1466219964
 10
277.4515441507
 20
35.526884168
 10
278.0983452709
 20
36.0442280798
 10
278.70986566
 20
36.6799555749
 10
279.2640033778
 20
37.4110898051
 10
279.7407304435
 20
38.2112056744
 10
280.1228166988
 20
39.0513849107
 10
280.3964525509
 20
39.9012612473
 10
280.5517480871
 20
40.7301179391
 10
280.5830905222
 20
41.5079979456
 10
280.4893470589
 20
42.2067866566
 10
280.2739058301
 20
42.8012280275
 10
279.9445534434
 20
43.2698373984
 10
279.5131935519
 20
43.5956780056
 10
278.9954166261
 20
43.7669731205
 10
278.4099364732
 20
43.7775316915
 10
277.7779138712
 20
43.6269721043
 10
277.1221917639
 20
43.3207359746
  0
LWPOLYLINE
  5
22A
330
1F
100
AcDbEntity
  8
0
  6
Continuous
 62
     7
370
    15
100
AcDbPolyline
 90
       19
 70
   128
 43
0.0
 10
277.0514810858
 20
43.4432104614
 10
276.4018284353
 20
42.9986581741
 10
275.7742989267
 20
42.4302129917
 10
275.1902623247
 20
41.7572326331
 10
274.6696072954
 20
41.0026346373
 10
274.2300641212
 20
40.1921159339
 10
273.8866009178
 20
39.3532777653
 10
273.6509139127
 20
38.5146857593
 10
273.5310291442
 20
37.7048971608
 10
273.5310291442
 20
36.9514883493
 10
273.6509139127
 20
36.2801157583
 10
273.8866009178
 20
35.7136421762
 10
274.2300641212
 20
35.2713581813
 10
274.6696072954
 20
34.9683252247
 10
275.1902623247
 20
34.8148627303
 10
275.7742989267
 20
34.8161966791
 10
276.4018284353
 20
34.9722816453
 10
277.0514810858
 20
35.2778023425
 10
277.0520557094
 20
35.2781341196
  0
LWPOLYLINE
  5
22B
330
1F
100
AcDbEntity
  8
0
  6
Continuous
 62
     7
370
    15
100
AcDbPolyline
 90
       10
 70
   128
 43
0.0
 10
280.5870149917
 20
41.4015266815
 10
280.5719330273
 20
41.7695244545
 10
280.4520482588
 20
42.4408970455
 10
280.2163612537
 20
43.0073706277
 10
279.8728980503
 20
43.4496546226
 10
279.4333548761
 20
43.7526875792
 10
278.9126998468
 20
43.9061500736
 10
278.3286632448
 20
43.9048161247
 10
277.7011337362
 20
43.7487311586
 10
277.0514810858
 20
43.4432104614
  0
SPLINE
  5
22C
330
1F
100
AcDbEntity
  8
0
  6
Continuous
 62
     7
370
    15
100
AcDbSpline
210
0.0
220
0.0
230
1.0
 70
    11
 71
     3
 72
    60
 73
    56
 74
     0
 42
0.000000001
 43
0.00000001
 40
0.0
 40
0.0
 40
0.0
 40
0.0
 40
0.0625000000000018
 40
0.0625000000000018
 40
0.0937500000000021
 40
0.0937500000000021
 40
0.1250000000000024
 40
0.1250000000000024
 40
0.1562500000000026
 40
0.1562500000000026
 40
0.1875000000000029
 40
0.1875000000000029
 40
0.2187500000000031
 40
0.2187500000000031
 40
0.2500000000000033
 40
0.2500000000000033
 40
0.2812500000000036
 40
0.2812500000000036
 40
0.3125000000000039
 40
0.3125000000000039
 40
0.3437500000000041
 40
0.3437500000000041
 40
0.3750000000000044
 40
0.3750000000000044
 40
0.4062500000000046
 40
0.4062500000000046
 40
0.4375000000000049
 40
0.4375000000000049
 40
0.4687500000000051
 40
0.4687500000000051
 40
0.5000000000000053
 40
0.5000000000000053
 40
0.5312500000000056
 40
0.5312500000000056
 40
0.5625000000000058
 40
0.5625000000000058
 40
0.625000000000005
 40
0.625000000000005
 40
0.6875000000000041
 40
0.6875000000000041
 40
0.7500000000000033
 40
0.7500000000000033
 40
0.7812500000000029
 40
0.7812500000000029
 40
0.8125000000000024
 40
0.8125000000000024
 40
0.8437500000000021
 40
0.8437500000000021
 40
0.8750000000000017
 40
0.8750000000000017
 40
0.9062500000000012
 40
0.9062500000000012
 40
0.9375000000000008
 40
0.9375000000000008
 40
1.0
 40
1.0
 40
1.0
 40
1.0
 10
275.3334275538498
 20
45.05750005712618
 30
0.0
 10
275.4887812423491
 20
45.03459788853478
 30
0.0
 10
275.6374725993645
 20
44.99625826647249
 30
0.0
 10
275.8466003263813
 20
44.92271622515408
 30
0.0
 10
275.9125264184236
 20
44.89597145090463
 30
0.0
 10
276.0371442325426
 20
44.83855543683429
 30
0.0
 10
276.0963340788919
 20
44.80756544743259
 30
0.0
 10
276.2042132292304
 20
44.74327486863697
 30
0.0
 10
276.2528866574044
 20
44.71008385677445
 30
0.0
 10
276.3397929062338
 20
44.64145892890618
 30
0.0
 10
276.3783144084265
 20
44.60565112792142
 30
0.0
 10
276.4419945545049
 20
44.53348643926618
 30
0.0
 10
276.4673705925081
 20
44.49709433508432
 30
0.0
 10
276.5048802127055
 20
44.42302185961241
 30
0.0
 10
276.5169978003312
 20
44.38492345253042
 30
0.0
 10
276.5259615088191
 20
44.30945944000504
 30
0.0
 10
276.5230704106448
 20
44.27191886439326
 30
0.0
 10
276.5015752321659
 20
44.19641712851632
 30
0.0
 10
276.4825524971052
 20
44.15810658997545
 30
0.0
 10
276.4291720229378
 20
44.08425759689888
 30
0.0
 10
276.3948399206881
 20
44.04828163617019
 30
0.0
 10
276.3096260397575
 20
43.97789360722899
 30
0.0
 10
276.2592542330874
 20
43.94410388813375
 30
0.0
 10
276.1469774390459
 20
43.88176555612722
 30
0.0
 10
276.0836231216619
 20
43.85246384093935
 30
0.0
 10
275.9490633077214
 20
43.8007853476381
 30
0.0
 10
275.8780868635286
 20
43.77832912519505
 30
0.0
 10
275.7289970490639
 20
43.74040979614914
 30
0.0
 10
275.6524884929941
 20
43.72540902888367
 30
0.0
 10
275.4984194393675
 20
43.70378440378919
 30
0.0
 10
275.4197125110462
 20
43.69707806978666
 30
0.0
 10
275.2655770920329
 20
43.69268888922176
 30
0.0
 10
275.1897593454635
 20
43.69487353272518
 30
0.0
 10
275.040439694634
 20
43.70837164136848
 30
0.0
 10
274.9675384949654
 20
43.71972516263392
 30
0.0
 10
274.7598194667701
 20
43.76677314653536
 30
0.0
 10
274.6318027829041
 20
43.8167812489845
 30
0.0
 10
274.4169521881662
 20
43.94683693801452
 30
0.0
 10
274.3273921085027
 20
44.02857798258811
 30
0.0
 10
274.2003377874151
 20
44.20995192651117
 30
0.0
 10
274.1611185279758
 20
44.31204052842875
 30
0.0
 10
274.1475439743131
 20
44.46524625103192
 30
0.0
 10
274.15040325175
 20
44.51729430641771
 30
0.0
 10
274.1721885794827
 20
44.61901755013946
 30
0.0
 10
274.1907938961926
 20
44.66802506066106
 30
0.0
 10
274.2440897050542
 20
44.76154029140215
 30
0.0
 10
274.2794953110393
 20
44.80659640527816
 30
0.0
 10
274.3644688898939
 20
44.88688900094923
 30
0.0
 10
274.413959787204
 20
44.92251156926923
 30
0.0
 10
274.527491284075
 20
44.98422214119327
 30
0.0
 10
274.5905920206649
 20
45.00960726133417
 30
0.0
 10
274.7247938749675
 20
45.04849836100797
 30
0.0
 10
274.7973735975921
 20
45.0623529977657
 30
0.0
 10
275.0198440922473
 20
45.08658822239747
 30
0.0
 10
275.1780738653504
 20
45.08040222571759
 30
0.0
 10
275.3334275538498
 20
45.05750005712619
 30
0.0
  0
LINE
  5
22D
330
1F
100
AcDbEntity
  8
0
  6
Continuous
 62
     7
370
    15
100
AcDbLine
 10
279.0555997017
 20
39.3323195484
 30
0.0
 11
279.8091975324
 21
40.2697880854
 31
0.0
  0
SPLINE
  5
22E
330
1F
100
AcDbEntity
  8
0
  6
Continuous
 62
     7
370
    15
100
AcDbSpline
210
0.0
220
0.0
230
1.0
 70
     8
 71
     3
 72
    21
 73
    17
 74
     0
 42
0.000000001
 43
0.00000001
 40
0.0
 40
0.0
 40
0.0
 40
0.0
 40
0.0416666666666671
 40
0.0833333333333334
 40
0.1250000000000026
 40
0.1666666666666667
 40
0.2083333333333333
 40
0.2499999999976954
 40
0.3339999999999609
 40
0.4179999999999997
 40
0.4330099753158393
 40
0.4330099753158393
 40
0.5019999999997413
 40
0.5859999999988204
 40
0.6699999999999804
 40
0.8156536847925618
 40
0.8156536847925618
 40
0.8156536847925618
 40
0.8156536847925618
 10
279.8091975323848
 20
40.26978808544131
 30
0.0
 10
279.8391739994798
 20
40.30707852552658
 30
0.0
 10
279.8973209478403
 20
40.38739153258601
 30
0.0
 10
279.9773871502598
 20
40.52534098202978
 30
0.0
 10
280.0452206180429
 20
40.67794792990539
 30
0.0
 10
280.094754604317
 20
40.83884890548973
 30
0.0
 10
280.1201755742726
 20
40.99879502387275
 30
0.0
 10
280.1160513469818
 20
41.19837602443625
 30
0.0
 10
280.0401878579094
 20
41.38859754051716
 30
0.0
 10
279.8976303889903
 20
41.45947270251705
 30
0.0
 10
279.8237622806657
 20
41.47088156234758
 30
0.0
 10
279.7646348487859
 20
41.4771416152711
 30
0.0
 10
279.6764017783388
 20
41.48311425056776
 30
0.0
 10
279.543175302783
 20
41.49591493696116
 30
0.0
 10
279.410931486173
 20
41.50746773891514
 30
0.0
 10
279.2032964551966
 20
41.52601797801526
 30
0.0
 10
279.055646592388
 20
41.53923524390844
 30
0.0
  0
SPLINE
  5
22F
330
1F
100
AcDbEntity
  8
0
  6
Continuous
 62
     7
370
    15
100
AcDbSpline
210
0.0
220
0.0
230
1.0
 70
     8
 71
     3
 72
    21
 73
    17
 74
     0
 42
0.000000001
 43
0.00000001
 40
0.0
 40
0.0
 40
0.0
 40
0.0
 40
0.0416666666666671
 40
0.0833333333333334
 40
0.1250000000000026
 40
0.1666666666666667
 40
0.2083333333333333
 40
0.2499999999976954
 40
0.3339999999999609
 40
0.4179999999999997
 40
0.4330099753158393
 40
0.4330099753158393
 40
0.5019999999997413
 40
0.5859999999988204
 40
0.6699999999999804
 40
0.813397193953127
 40
0.813397193953127
 40
0.813397193953127
 40
0.813397193953127
 10
274.4351859953681
 20
37.16743726051568
 30
0.0
 10
274.4061127488379
 20
37.17003684686044
 30
0.0
 10
274.3466433934508
 20
37.18333305863101
 30
0.0
 10
274.2671086992618
 20
37.22879251737472
 30
0.0
 10
274.1991328090962
 20
37.3030933313126
 30
0.0
 10
274.1496370041218
 20
37.40680022115962
 30
0.0
 10
274.1242057313504
 20
37.53739664156862
 30
0.0
 10
274.1283340147522
 20
37.74173997030702
 30
0.0
 10
274.2041903259873
 20
38.01954487232889
 30
0.0
 10
274.346764814862
 20
38.25503404378497
 30
0.0
 10
274.4206169954697
 20
38.35170932196485
 30
0.0
 10
274.4797303991924
 20
38.42621896480441
 30
0.0
 10
274.5679336080539
 20
38.5340262892279
 30
0.0
 10
274.7014582322797
 20
38.7010178370282
 30
0.0
 10
274.8312888076926
 20
38.86225602018005
 30
0.0
 10
275.0415755926284
 20
39.12383368712433
 30
0.0
 10
275.1887365272898
 20
39.30691462606443
 30
0.0
  0
LINE
  5
230
330
1F
100
AcDbEntity
  8
0
  6
Continuous
 62
     7
370
    15
100
AcDbLine
 10
275.1887838261
 20
37.1000542585
 30
0.0
 11
274.4351859954
 21
37.1674372605
 31
0.0
  0
LINE
  5
231
330
1F
100
AcDbEntity
  8
0
  6
Continuous
 62
     7
370
    15
100
AcDbLine
 10
239.5321936961
 20
46.9497560297
 30
0.0
 11
239.098126596
 21
47.2003783626
 31
0.0
  0
LINE
  5
232
330
1F
100
AcDbEntity
  8
0
  6
Continuous
 62
     7
370
    15
100
AcDbLine
 10
243.8570599547
 20
44.4530638822
 30
0.0
 11
239.5321936961
 21
46.9497560297
 31
0.0
  0
SPLINE
  5
233
330
1F
100
AcDbEntity
  8
0
  6
Continuous
 62
     7
370
    15
100
AcDbSpline
210
0.0
220
0.0
230
1.0
 70
     8
 71
     3
 72
    11
 73
     7
 74
     0
 42
0.000000001
 43
0.00000001
 40
0.0
 40
0.0
 40
0.0
 40
0.0
 40
0.0763291486414734
 40
0.4828240100966647
 40
0.8892344489868842
 40
0.9999999999999999
 40
0.9999999999999999
 40
0.9999999999999999
 40
0.9999999999999999
 10
243.4285536403374
 20
41.63702468397594
 30
0.0
 10
243.4281182610074
 20
41.71526382299594
 30
0.0
 10
243.4253642463515
 20
42.21016957683303
 30
0.0
 10
243.3806685891376
 20
43.14315561933036
 30
0.0
 10
243.3425934745759
 20
44.10863942760957
 30
0.0
 10
243.354611493712
 20
44.62997819004454
 30
0.0
 10
243.3571854386315
 20
44.74163529790138
 30
0.0
  0
LINE
  5
234
330
1F
100
AcDbEntity
  8
0
  6
Continuous
 62
     7
370
    15
100
AcDbLine
 10
243.4285536403
 20
39.8612240549
 30
0.0
 11
243.4285536403
 21
41.637024684
 31
0.0
  0
SPLINE
  5
235
330
1F
100
AcDbEntity
  8
0
  6
Continuous
 62
     7
370
    15
100
AcDbSpline
210
0.0
220
0.0
230
1.0
 70
     8
 71
     3
 72
    11
 73
     7
 74
     0
 42
0.000000001
 43
0.00000001
 40
0.0
 40
0.0
 40
0.0
 40
0.0
 40
0.317637464679969
 40
0.6352804794095187
 40
0.9529670978543893
 40
0.9999999999999999
 40
0.9999999999999999
 40
0.9999999999999999
 40
0.9999999999999999
 10
274.3644753172488
 20
37.43132749455159
 30
0.0
 10
274.3219499299572
 20
37.44178671973329
 30
0.0
 10
274.2368984123318
 20
37.46270535284975
 30
0.0
 10
274.1581125163315
 20
37.57898893608247
 30
0.0
 10
274.1204131027196
 20
37.68948460846991
 30
0.0
 10
274.1291375568434
 20
37.76233616453799
 30
0.0
 10
274.1302626306986
 20
37.77173083609865
 30
0.0
  0
ARC
  5
236
330
1F
100
AcDbEntity
  8
0
  6
Continuous
 62
     7
370
    15
100
AcDbCircle
 10
273.9439255694
 20
40.3266152032
 30
0.0
 40
1.609143743675115
100
AcDbArc
 50
320.6770033458
 51
328.5408761703
  0
SPLINE
  5
237
330
1F
100
AcDbEntity
  8
0
  6
Continuous
 62
     7
370
    15
100
AcDbSpline
210
0.0
220
0.0
230
1.0
 70
     8
 71
     3
 72
    16
 73
    12
 74
     0
 42
0.000000001
 43
0.00000001
 40
0.0
 40
0.0
 40
0.0
 40
0.0
 40
0.2500000000000002
 40
0.2500000000000002
 40
0.5000000000000004
 40
0.5000000000000004
 40
0.6250000000000006
 40
0.6250000000000006
 40
0.7500000000000007
 40
0.7500000000000007
 40
1.0
 40
1.0
 40
1.0
 40
1.0
 10
279.0556465923881
 20
41.53923524390844
 30
0.0
 10
279.0312040671647
 20
41.54142328085499
 30
0.0
 10
279.0046327774195
 20
41.54244812169483
 30
0.0
 10
278.9439321385963
 20
41.54036696142872
 30
0.0
 10
278.9093797130335
 20
41.53740170919021
 30
0.0
 10
278.8513057965138
 20
41.52509167262701
 30
0.0
 10
278.8312916423004
 20
41.51955503553722
 30
0.0
 10
278.7954160037484
 20
41.50652704266935
 30
0.0
 10
278.7796287229539
 20
41.4990940973715
 30
0.0
 10
278.7414608693017
 20
41.4774190118104
 30
0.0
 10
278.7259766577395
 20
41.46345124196267
 30
0.0
 10
278.7141027491292
 20
41.45027629561561
 30
0.0
  0
SPLINE
  5
238
330
1F
100
AcDbEntity
  8
0
  6
Continuous
 62
     7
370
    15
100
AcDbSpline
210
0.0
220
0.0
230
1.0
 70
     8
 71
     3
 72
     8
 73
     4
 74
     0
 42
0.000000001
 43
0.00000001
 40
0.0
 40
0.0
 40
0.0
 40
0.0
 40
1.0
 40
1.0
 40
1.0
 40
1.0
 10
278.714102749129
 20
41.45027629561558
 30
0.0
 10
278.6812167684698
 20
41.46342233690576
 30
0.0
 10
278.6490793444895
 20
41.47816021714541
 30
0.0
 10
278.623605573196
 20
41.49286591229363
 30
0.0
  0
LINE
  5
239
330
1F
100
AcDbEntity
  8
0
  6
Continuous
 62
     7
370
    15
100
AcDbLine
 10
278.2849479869
 20
41.8237815847
 30
0.0
 11
278.2218764975
 21
41.8569953272
 31
0.0
  0
LINE
  5
23A
330
1F
100
AcDbEntity
  8
0
  6
Continuous
 62
     7
370
    15
100
AcDbLine
 10
277.8967725358
 20
41.9124576935
 30
0.0
 11
278.6236055732
 21
41.4928659123
 31
0.0
  0
ARC
  5
23B
330
1F
100
AcDbEntity
  8
0
  6
Continuous
 62
     7
370
    15
100
AcDbCircle
 10
273.4335203961
 20
41.7142683621
 30
0.0
 40
3.548505666341916
100
AcDbArc
 50
339.1553947574
 51
358.3394642278
  0
LINE
  5
23C
330
1F
100
AcDbEntity
  8
0
  6
Continuous
 62
     7
370
    15
100
AcDbLine
 10
276.7497726031
 20
40.4515871814
 30
0.0
 11
278.6236055732
 21
39.3698464332
 31
0.0
  0
LINE
  5
23D
330
1F
100
AcDbEntity
  8
0
  6
Continuous
 62
     7
370
    15
100
AcDbLine
 10
275.5351714721
 20
37.0605128416
 30
0.0
 11
275.5982253093
 21
37.0273075379
 31
0.0
  0
LINE
  5
23E
330
1F
100
AcDbEntity
  8
0
  6
Continuous
 62
     7
370
    15
100
AcDbLine
 10
274.2159147907
 20
37.9575163221
 30
0.0
 11
275.1965138858
 21
37.391428514
 31
0.0
  0
LINE
  5
23F
330
1F
100
AcDbEntity
  8
0
  6
Continuous
 62
     7
370
    15
100
AcDbLine
 10
242.50047599
 20
45.0498504312
 30
0.0
 11
242.5015170173
 21
45.2356021632
 31
0.0
  0
ARC
  5
240
330
1F
100
AcDbEntity
  8
0
  6
Continuous
 62
     7
370
    15
100
AcDbCircle
 10
254.4575557093
 20
44.7882912538
 30
0.0
 40
11.95994015934552
100
AcDbArc
 50
178.7468639795
 51
202.7557767409
  0
LINE
  5
241
330
1F
100
AcDbEntity
  8
0
  6
Continuous
 62
     7
370
    15
100
AcDbLine
 10
275.2474380662
 20
37.3523773194
 30
0.0
 11
274.3644753172
 21
37.4313274946
 31
0.0
  0
SPLINE
  5
242
330
1F
100
AcDbEntity
  8
0
  6
Continuous
 62
     7
370
    15
100
AcDbSpline
210
0.0
220
0.0
230
1.0
 70
     8
 71
     3
 72
    16
 73
    12
 74
     0
 42
0.000000001
 43
0.00000001
 40
0.0
 40
0.0
 40
0.0
 40
0.0
 40
0.2499999999999998
 40
0.2499999999999998
 40
0.4999999999999997
 40
0.4999999999999997
 40
0.6249999999999996
 40
0.6249999999999996
 40
0.7499999999999996
 40
0.7499999999999996
 40
1.0
 40
1.0
 40
1.0
 40
1.0
 10
275.1887838260836
 20
37.1000542584786
 30
0.0
 10
275.2131098378642
 20
37.09787914645657
 30
0.0
 10
275.236921427072
 20
37.09872608199878
 30
0.0
 10
275.2798594371872
 20
37.11124159944471
 30
0.0
 10
275.300323563739
 20
37.12308207422208
 30
0.0
 10
275.3164298245964
 20
37.15915459909861
 30
0.0
 10
275.3190361751438
 20
37.17474167767725
 30
0.0
 10
275.3162394451409
 20
37.21031693179343
 30
0.0
 10
275.3110221878756
 20
37.22966584230387
 30
0.0
 10
275.2897834791323
 20
37.2853155943423
 30
0.0
 10
275.2689782080757
 20
37.32015271974431
 30
0.0
 10
275.2474380662119
 20
37.35237731942222
 30
0.0
  0
SPLINE
  5
243
330
1F
100
AcDbEntity
  8
0
  6
Continuous
 62
     7
370
    15
100
AcDbSpline
210
0.0
220
0.0
230
1.0
 70
     8
 71
     3
 72
     8
 73
     4
 74
     0
 42
0.000000001
 43
0.00000001
 40
0.0
 40
0.0
 40
0.0
 40
0.0
 40
1.0
 40
1.0
 40
1.0
 40
1.0
 10
275.1965138858449
 20
37.3914285139516
 30
0.0
 10
275.2219399442299
 20
37.37675036287922
 30
0.0
 10
275.2384880406615
 20
37.36338210856835
 30
0.0
 10
275.2474380662121
 20
37.35237731942208
 30
0.0
  0
SPLINE
  5
244
330
1F
100
AcDbEntity
  8
0
  6
Continuous
 62
     7
370
    15
100
AcDbSpline
210
0.0
220
0.0
230
1.0
 70
     8
 71
     3
 72
     8
 73
     4
 74
     0
 42
0.000000001
 43
0.00000001
 40
0.0
 40
0.0
 40
0.0
 40
0.0
 40
1.0
 40
1.0
 40
1.0
 40
1.0
 10
278.623605573196
 20
39.3698464332499
 30
0.0
 10
278.6490316315808
 20
39.35516828217758
 30
0.0
 10
278.6812200457739
 20
39.35082899112358
 30
0.0
 10
278.7141027490666
 20
39.35364024275513
 30
0.0
  0
SPLINE
  5
245
330
1F
100
AcDbEntity
  8
0
  6
Continuous
 62
     7
370
    15
100
AcDbSpline
210
0.0
220
0.0
230
1.0
 70
     8
 71
     3
 72
    16
 73
    12
 74
     0
 42
0.000000001
 43
0.00000001
 40
0.0
 40
0.0
 40
0.0
 40
0.0
 40
0.2499999999999767
 40
0.2499999999999767
 40
0.3749999999999798
 40
0.3749999999999798
 40
0.499999999999983
 40
0.499999999999983
 40
0.7499999999999915
 40
0.7499999999999915
 40
1.0
 40
1.0
 40
1.0
 40
1.0
 10
278.7141027490664
 20
39.35364024275548
 30
0.0
 10
278.7258149056474
 20
39.31581623996126
 30
0.0
 10
278.741273170826
 20
39.27788242900652
 30
0.0
 10
278.7786880475325
 20
39.23205916855246
 30
0.0
 10
278.7941008564849
 20
39.21860141731403
 30
0.0
 10
278.8301383788126
 20
39.20197924632332
 30
0.0
 10
278.8501559893937
 20
39.19933553543435
 30
0.0
 10
278.9078901384764
 20
39.20558597351002
 30
0.0
 10
278.9430999761622
 20
39.22594827234491
 30
0.0
 10
279.0043613136794
 20
39.27365406784547
 30
0.0
 10
279.0310660042628
 20
39.30179986201534
 30
0.0
 10
279.0555997016693
 20
39.33231954835158
 30
0.0
  0
SPLINE
  5
246
330
1F
100
AcDbEntity
  8
0
  6
Continuous
 62
     7
370
    15
100
AcDbSpline
210
0.0
220
0.0
230
1.0
 70
     8
 71
     3
 72
    20
 73
    16
 74
     0
 42
0.000000001
 43
0.00000001
 40
0.0
 40
0.0
 40
0.0
 40
0.0
 40
0.1249999999999998
 40
0.1249999999999998
 40
0.2499999999999997
 40
0.2499999999999997
 40
0.4999999999999996
 40
0.4999999999999996
 40
0.6249999999999997
 40
0.6249999999999997
 40
0.7499999999999998
 40
0.7499999999999998
 40
0.8749999999999999
 40
0.8749999999999999
 40
1.0
 40
1.0
 40
1.0
 40
1.0
 10
279.5970654980293
 20
40.4520375082956
 30
0.0
 10
279.6321290428677
 20
40.49565622473161
 30
0.0
 10
279.66384739953
 20
40.54201809059531
 30
0.0
 10
279.7198631037951
 20
40.6405952511946
 30
0.0
 10
279.7439547624037
 20
40.6926507027112
 30
0.0
 10
279.8013671040958
 20
40.84838476947364
 30
0.0
 10
279.8203234345783
 20
40.95509466527454
 30
0.0
 10
279.8183234156113
 20
41.09574531403401
 30
0.0
 10
279.8127741013864
 20
41.13864157764105
 30
0.0
 10
279.7925507286475
 20
41.21611334825277
 30
0.0
 10
279.7778832138734
 20
41.24984768408967
 30
0.0
 10
279.7403290287122
 20
41.30539632246156
 30
0.0
 10
279.7170816921957
 20
41.32756234463312
 30
0.0
 10
279.6632470713736
 20
41.35871611447462
 30
0.0
 10
279.6321350016634
 20
41.36819038373294
 30
0.0
 10
279.5970654538535
 20
41.37132614601508
 30
0.0
  0
LWPOLYLINE
  5
247
330
1F
100
AcDbEntity
  8
0
  6
Continuous
 62
     7
370
    15
100
AcDbPolyline
 90
        4
 70
   128
 43
0.0
 10
279.5970654539
 20
41.371326146
 10
279.3346897432
 20
41.3947864669
 10
279.0723139952
 20
41.4182468095
 10
278.7141027491
 20
41.4502762956
  0
LINE
  5
248
330
1F
100
AcDbEntity
  8
0
  6
Continuous
 62
     7
370
    15
100
AcDbLine
 10
278.7141027491
 20
39.3536402428
 30
0.0
 11
279.597065498
 21
40.4520375083
 31
0.0
  0
LINE
  5
249
330
1F
100
AcDbEntity
  8
0
  6
Continuous
 62
     7
370
    15
100
AcDbLine
 10
276.7497726031
 20
40.4515871814
 30
0.0
 11
277.6525218498
 21
41.5745986621
 31
0.0
  0
ARC
  5
24A
330
1F
100
AcDbEntity
  8
0
  6
Continuous
 62
     7
370
    15
100
AcDbCircle
 10
276.7951967236
 20
42.2636166291
 30
0.0
 40
1.099887326424299
100
AcDbArc
 50
321.211738057
 51
341.3878214977
  0
LWPOLYLINE
  5
24B
330
1F
100
AcDbEntity
  8
0
  6
Continuous
 62
     7
370
    15
100
AcDbPolyline
 90
       10
 70
   128
 43
0.0
 10
250.8381216381
 20
26.2877325507
 10
250.0267285704
 20
26.45846847
 10
248.8680952291
 20
26.8456503801
 10
247.7897951543
 20
27.3871458846
 10
246.7993463113
 20
28.0791796482
 10
245.9036541622
 20
28.9169267747
 10
245.10896352
 20
29.8945464467
 10
244.4208150102
 20
31.005222648
 10
243.8440064405
 20
32.2412116852
 10
243.382559351
 20
33.5938961772
  0
SPLINE
  5
24C
330
1F
100
AcDbEntity
  8
0
  6
Continuous
 62
     7
370
    15
100
AcDbSpline
210
0.0
220
0.0
230
1.0
 70
     8
 71
     3
 72
     8
 73
     4
 74
     0
 42
0.000000001
 43
0.00000001
 40
0.0000000000000006
 40
0.0000000000000006
 40
0.0000000000000006
 40
0.0000000000000006
 40
0.001241704756042
 40
0.001241704756042
 40
0.001241704756042
 40
0.001241704756042
 10
243.8570599546811
 20
33.96051444946935
 30
0.0
 10
243.6989997971706
 20
33.83811124446484
 30
0.0
 10
243.5408304914895
 20
33.71590901449639
 30
0.0
 10
243.3825593510286
 20
33.59389617718528
 30
0.0
  0
SPLINE
  5
24D
330
1F
100
AcDbEntity
  8
0
  6
Continuous
 62
     7
370
    15
100
AcDbSpline
210
0.0
220
0.0
230
1.0
 70
     8
 71
     3
 72
     8
 73
     4
 74
     0
 42
0.000000001
 43
0.00000001
 40
0.0
 40
0.0
 40
0.0
 40
0.0
 40
1.0
 40
1.0
 40
1.0
 40
1.0
 10
243.8570599546802
 20
33.96051444947126
 30
0.0
 10
245.0282925393552
 20
34.15279407979915
 30
0.0
 10
246.1989119139471
 20
34.34638174700931
 30
0.0
 10
247.368521099129
 20
34.54193503867987
 30
0.0
  0
SPLINE
  5
24E
330
1F
100
AcDbEntity
  8
0
  6
Continuous
 62
     7
370
    15
100
AcDbSpline
210
0.0
220
0.0
230
1.0
 70
     8
 71
     3
 72
    10
 73
     6
 74
     0
 42
0.000000001
 43
0.00000001
 40
0.0
 40
0.0
 40
0.0
 40
0.0
 40
0.5
 40
0.5
 40
1.0
 40
1.0
 40
1.0
 40
1.0
 10
247.368521099129
 20
34.54193503867989
 30
0.0
 10
247.4102869601434
 20
34.54891809909383
 30
0.0
 10
247.4541842459575
 20
34.5522081901022
 30
0.0
 10
247.5418116287474
 20
34.55054521567316
 30
0.0
 10
247.5843169258081
 20
34.54575310912242
 30
0.0
 10
247.6253981275071
 20
34.5368185635854
 30
0.0
  0
LINE
  5
24F
330
1F
100
AcDbEntity
  8
0
  6
Continuous
 62
     7
370
    15
100
AcDbLine
 10
239.5321936961
 20
36.4572065969
 30
0.0
 11
243.8570599547
 21
33.9605144495
 31
0.0
  0
LINE
  5
250
330
1F
100
AcDbEntity
  8
0
  6
Continuous
 62
     7
370
    15
100
AcDbLine
 10
239.5321936961
 20
36.4572065969
 30
0.0
 11
243.0750002497
 21
38.5024252866
 31
0.0
  0
LINE
  5
251
330
1F
100
AcDbEntity
  8
0
  6
Continuous
 62
     7
370
    15
100
AcDbLine
 10
239.098126596
 20
36.206584264
 30
0.0
 11
239.5321936961
 21
36.4572065969
 31
0.0
  0
LINE
  5
252
330
1F
100
AcDbEntity
  8
0
  6
Continuous
 62
     7
370
    15
100
AcDbLine
 10
243.382559351
 20
33.5938961772
 30
0.0
 11
239.2548235159
 21
35.9767873536
 31
0.0
  0
SPLINE
  5
253
330
1F
100
AcDbEntity
  8
0
  6
Continuous
 62
     7
370
    15
100
AcDbSpline
210
0.0
220
0.0
230
1.0
 70
     8
 71
     3
 72
     8
 73
     4
 74
     0
 42
0.000000001
 43
0.00000001
 40
0.0
 40
0.0
 40
0.0
 40
0.0
 40
1.0
 40
1.0
 40
1.0
 40
1.0
 10
239.2548235158522
 20
35.97678735356781
 30
0.0
 10
239.174604286686
 20
36.02309692883841
 30
0.0
 10
239.1202145244003
 20
36.1067597698472
 30
0.0
 10
239.0981265960413
 20
36.20658426395423
 30
0.0
  0
ARC
  5
254
330
1F
100
AcDbEntity
  8
0
  6
Continuous
 62
     7
370
    15
100
AcDbCircle
 10
248.1729901379
 20
37.2809777116
 30
0.0
 40
8.761019882582701
100
AcDbArc
 50
214.8820148619
 51
239.7813472427
  0
ELLIPSE
  5
255
330
1F
100
AcDbEntity
  8
0
  6
Continuous
 62
     7
370
    15
100
AcDbEllipse
 10
242.7821070309
 20
39.4880497547
 30
0.0
 11
-7.507462981948265E-5
 21
1.066811201853405
 31
0.0
210
0.0
220
0.0
230
1.0
 40
0.7174342186
 41
3.534193645557492
 42
5.104989972352341
  0
ELLIPSE
  5
256
330
1F
100
AcDbEntity
  8
0
  6
Continuous
 62
     7
370
    15
100
AcDbEllipse
 10
242.7214468592
 20
39.453019999
 30
0.0
 11
0.3250094736511642
 21
1.213179526238669
 31
0.0
210
0.0
220
0.0
230
1.0
 40
0.5176380889
 41
3.619174351347737
 42
5.189970678142605
  0
LWPOLYLINE
  5
257
330
1F
100
AcDbEntity
  8
0
  6
Continuous
 62
     7
370
     0
100
AcDbPolyline
 90
       76
 70
   128
 43
0.0
 10
250.95924086
 20
34.4212373254
 10
251.0199989737
 20
36.1303084041
 10
251.2018471402
 20
37.8975414019
 10
251.5035098253
 20
39.7105404493
 10
251.9228710821
 20
41.5565886605
 10
252.4569893925
 20
43.4227373337
 10
253.1021183005
 20
45.2958967768
 10
253.8537326903
 20
47.1629281221
 10
254.7065605269
 20
49.0107354862
 10
255.6546198359
 20
50.8263578282
 10
256.6912606623
 20
52.5970598617
 10
257.8092117156
 20
54.3104213844
 10
259.0006313724
 20
55.9544243961
 10
260.2571626799
 20
57.517537397
 10
261.5699919736
 20
58.9887962724
 10
262.9299106995
 20
60.3578811984
 10
264.3273800048
 20
61.6151890279
 10
265.7525976463
 20
62.75190065
 10
267.1955667463
 20
63.7600428493
 10
268.6461659133
 20
64.6325442326
 10
270.0942202365
 20
65.3632848296
 10
271.5295726552
 20
65.9471390201
 10
272.9421552035
 20
66.3800114864
 10
274.3220596297
 20
66.6588659392
 10
275.6596068957
 20
66.7817464148
 10
276.9454150686
 20
66.747790995
 10
278.1704651278
 20
66.5572378527
 10
279.3261642273
 20
66.2114235812
 10
280.4044059683
 20
65.7127738193
 10
281.3976272599
 20
65.0647862367
 10
282.2988613681
 20
64.2720060006
 10
283.1017867833
 20
63.339993895
 10
283.8007715606
 20
62.275287315
 10
284.3909128239
 20
61.0853544122
 10
284.8680711565
 20
59.7785417112
 10
285.2288996353
 20
58.3640155639
 10
285.4708673079
 20
56.851697855
 10
285.5922769449
 20
55.2521964067
 10
285.5922769449
 20
53.5767305722
 10
285.4708673079
 20
51.8370525408
 10
285.2288996353
 20
50.0453649037
 10
284.8680711565
 20
48.2142350624
 10
284.3909128239
 20
46.3565070771
 10
283.8007715606
 20
44.4852115749
 10
283.1017867833
 20
42.6134743492
 10
282.2988613681
 20
40.7544242917
 10
281.3976272599
 20
38.9211013029
 10
280.4044059683
 20
37.1263648263
 10
279.3261642273
 20
35.3828036488
 10
278.1704651278
 20
33.7026475993
 10
276.9454150686
 20
32.0976817653
 10
275.6596068957
 20
30.579163829
 10
274.3220596297
 20
29.1577451025
 10
272.9421552035
 20
27.8433958171
 10
271.5295726552
 20
26.6453351886
 10
270.0942202365
 20
25.5719667514
 10
268.6461659133
 20
24.630819414
 10
267.1955667463
 20
23.8284946487
 10
265.7525976463
 20
23.1706201873
 10
264.3273800048
 20
22.6618105464
 10
262.9299106995
 20
22.3056346601
 10
261.5699919736
 20
22.1045908463
 10
260.2571626799
 20
22.060089283
 10
259.0006313724
 20
22.1724421165
 10
257.8092117156
 20
22.4408612726
 10
256.6912606623
 20
22.8634639837
 10
255.6546198359
 20
23.4372859954
 10
254.7065605269
 20
24.1583023586
 10
253.8537326903
 20
25.0214556615
 10
253.1021183005
 20
26.0206915039
 10
252.4569893925
 20
27.1490009644
 10
251.9228710821
 20
28.3984697627
 10
251.5035098253
 20
29.760333773
 10
251.2018471402
 20
31.2250404977
 10
251.0199989737
 20
32.7823160716
 10
250.95924086
 20
34.4212373254
  0
LWPOLYLINE
  5
258
330
1F
100
AcDbEntity
  8
0
  6
Continuous
 62
     7
370
     0
100
AcDbPolyline
 90
       27
 70
   128
 43
0.0
 10
250.2521340788
 20
34.4212373254
 10
250.3125122827
 20
36.1418280655
 10
250.49323445
 20
37.9203766166
 10
250.7930660652
 20
39.7447336887
 10
251.2099589742
 20
41.602437073
 10
251.7410653758
 20
43.4807967717
 10
252.3827572746
 20
45.3669816836
 10
253.1306512644
 20
47.248107253
 10
253.9796384709
 20
49.111323485
 10
254.9239194505
 20
50.9439027233
 10
255.9570438067
 20
52.7333265935
 10
257.0719542526
 20
54.4673715163
 10
258.2610348193
 20
56.1341922063
 10
259.5161628808
 20
57.7224025883
 10
260.8287646399
 20
59.2211535748
 10
262.1898736954
 20
60.620207177
 10
263.5901922924
 20
61.91000644
 10
265.0201548351
 20
63.0817407272
 10
266.4699932292
 20
64.1274059051
 10
267.9298036085
 20
65.0398590203
 10
269.3896139877
 20
65.8128670929
 10
270.8394523818
 20
66.4411496939
 10
272.2694149245
 20
66.920415016
 10
273.6697335215
 20
67.2473891911
 10
275.030842577
 20
67.4198386541
 10
276.3434443361
 20
67.4365854002
 10
276.8643458798
 20
67.3984965973
  0
ARC
  5
259
330
1F
100
AcDbEntity
  8
0
  6
Continuous
 62
     7
370
     0
100
AcDbCircle
 10
265.6882274167
 20
33.8243740696
 30
0.0
 40
15.44762840315879
100
AcDbArc
 50
177.7856626784
 51
212.4268831467
  0
LWPOLYLINE
  5
25A
330
1F
100
AcDbEntity
  8
0
  6
Continuous
 62
     7
370
     0
100
AcDbPolyline
 90
       21
 70
   128
 43
0.0
 10
263.3336095307
 20
41.5648083039
 10
263.3945491357
 20
42.4941338646
 10
263.5758674153
 20
43.4709357161
 10
263.8730997117
 20
44.4711617548
 10
264.2789271793
 20
45.4701830963
 10
264.783356999
 20
46.4434005193
 10
265.3739684346
 20
47.3668501812
 10
266.0362186723
 20
48.2177936865
 10
266.7538009135
 20
48.9752779818
 10
267.5090459018
 20
49.6206512901
 10
268.283356999
 20
50.1380223784
 10
269.0576680963
 20
50.5146518537
 10
269.8129130846
 20
50.7412658481
 10
270.5304953258
 20
50.8122843732
 10
271.1927455635
 20
50.7259587171
 10
271.783356999
 20
50.4844145039
 10
272.2877868188
 20
50.0935993539
 10
272.6936142864
 20
49.5631364331
 10
272.9908465828
 20
48.906087499
 10
273.1721648624
 20
48.1386312771
 10
273.2328426208
 20
47.3383057701
  0
LWPOLYLINE
  5
25B
330
1F
100
AcDbEntity
  8
0
  6
Continuous
 62
     7
370
     0
100
AcDbPolyline
 90
       11
 70
   128
 43
0.0
 10
268.2332489576
 20
38.6778171463
 10
267.5090459018
 20
38.3298215368
 10
266.7538009135
 20
38.1032075423
 10
266.0362186723
 20
38.0321890173
 10
265.3739684346
 20
38.1185146734
 10
264.783356999
 20
38.3600588865
 10
264.2789271793
 20
38.7508740366
 10
263.8730997117
 20
39.2813369574
 10
263.5758674153
 20
39.9383858915
 10
263.3945491357
 20
40.7058421134
 10
263.3336095307
 20
41.5648083039
  0
LWPOLYLINE
  5
25C
330
1F
100
AcDbEntity
  8
0
  6
Continuous
 62
     7
370
     0
100
AcDbPolyline
 90
       21
 70
   128
 43
0.0
 10
247.3685210991
 20
45.0344844714
 10
247.8381666109
 20
46.7939124019
 10
248.4223350998
 20
48.5643682049
 10
249.1162484184
 20
50.3313706157
 10
249.9142307729
 20
52.0804666162
 10
250.809755147
 20
53.7973496522
 10
251.7954966893
 20
55.4679766518
 10
252.8633926264
 20
57.0786828902
 10
254.0047082111
 20
58.6162937579
 10
255.2101081677
 20
60.068232522
 10
256.4697330487
 20
61.4226231957
 10
257.7732798796
 20
62.6683876771
 10
259.1100864303
 20
63.7953363612
 10
260.4692184265
 20
64.7942514849
 10
261.8395589852
 20
65.6569625227
 10
263.2098995439
 20
66.3764130167
 10
264.5690315401
 20
66.946718294
 10
265.9058380908
 20
67.3632136003
 10
267.2093849216
 20
67.622492254
 10
268.4690098027
 20
67.7224335116
 10
268.6255276662
 20
67.723667087
  0
LWPOLYLINE
  5
25D
330
1F
100
AcDbEntity
  8
0
  6
Continuous
 62
     7
370
     0
100
AcDbPolyline
 90
       23
 70
   128
 43
0.0
 10
239.2548235159
 20
47.1099304795
 10
239.7162706053
 20
48.9953904405
 10
240.293079175
 20
50.8973484767
 10
240.9812276849
 20
52.8025440357
 10
241.775918327
 20
54.697693993
 10
242.6716104762
 20
56.5695852625
 10
243.6620593191
 20
58.405166919
 10
244.7403593939
 20
60.1916411898
 10
245.8989927353
 20
61.9165526814
 10
247.1298812901
 20
63.5678752194
 10
248.4244432379
 20
65.1340956955
 10
249.7736528243
 20
66.6042943374
 10
251.1681032884
 20
67.9682208421
 10
252.5980724476
 20
69.2163658417
 10
254.0535904809
 20
70.3400272031
 10
255.5245094395
 20
71.3313706995
 10
257.0005739983
 20
72.1834846315
 10
258.4714929569
 20
72.8904280156
 10
259.9270109902
 20
73.447272005
 10
261.3569801493
 20
73.8501342539
 10
262.7514306134
 20
74.0962059852
 10
264.1006401998
 20
74.1837715738
 10
265.1993475108
 20
74.1336389599
  0
LWPOLYLINE
  5
25E
330
1F
100
AcDbEntity
  8
0
  6
Continuous
 62
     7
370
     0
100
AcDbPolyline
 90
       20
 70
   128
 43
0.0
 10
247.7613274747
 20
44.9768380145
 10
248.2290554214
 20
46.7164715469
 10
248.8096018314
 20
48.466562407
 10
249.4982395871
 20
50.2128604242
 10
250.2893614338
 20
51.9411463113
 10
251.1765256365
 20
53.6373474455
 10
252.1525084325
 20
55.287652455
 10
253.2093628509
 20
56.8786236788
 10
254.3384834208
 20
58.397306583
 10
255.5306762421
 20
59.8313352437
 10
256.7762338468
 20
61.1690330369
 10
258.0650142424
 20
62.3995077157
 10
259.3865234936
 20
63.512740101
 10
260.7300011692
 20
64.4996656625
 10
262.0845079595
 20
65.3522483274
 10
263.4390147497
 20
66.0635459144
 10
264.7824924253
 20
66.62776666
 10
266.1040016765
 20
67.040316379
 10
267.3927820722
 20
67.2978358721
 10
267.6930344087
 20
67.3359731527
  0
LINE
  5
25F
330
1F
100
AcDbEntity
  8
0
  6
Continuous
 62
     7
370
     0
100
AcDbLine
 10
247.6253981275
 20
34.5368185636
 30
0.0
 11
248.7848875078
 21
35.2061775351
 31
0.0
  0
LINE
  5
260
330
1F
100
AcDbEntity
  8
0
  6
Continuous
 62
     7
370
     0
100
AcDbLine
 10
249.1717760605
 20
35.0018890329
 30
0.0
 11
248.7848875078
 21
35.2061775351
 31
0.0
  0
ARC
  5
261
330
1F
100
AcDbEntity
  8
0
  6
Continuous
 62
     7
370
     0
100
AcDbCircle
 10
248.0597410469
 20
36.3820980884
 30
0.0
 40
1.381530505393683
100
AcDbArc
 50
301.6605905891
 51
324.2377952695
  0
ARC
  5
262
330
1F
100
AcDbEntity
  8
0
  6
Continuous
 62
     7
370
     0
100
AcDbCircle
 10
268.5681201081
 20
41.2745007003
 30
0.0
 40
2.423533801190465
100
AcDbArc
 50
173.1201958033
 51
235.5676238034
  0
LWPOLYLINE
  5
263
330
1F
100
AcDbEntity
  8
0
  6
Continuous
 62
     7
370
     0
100
AcDbPolyline
 90
       14
 70
   128
 43
0.0
 10
272.197367393
 20
47.9360728953
 10
271.8282057512
 20
48.0938862707
 10
271.2734936314
 20
48.1702764104
 10
270.6651153416
 20
48.0912297538
 10
270.0237884747
 20
47.8594381399
 10
269.3713526481
 20
47.4827949543
 10
268.7300257812
 20
46.9741263288
 10
268.1216474914
 20
46.3507543634
 10
267.5669353716
 20
45.6339072427
 10
267.0847794778
 20
44.8479963357
 10
266.6915990506
 20
44.0197848958
 10
266.400783378
 20
43.1774766701
 10
266.2222358389
 20
42.349755455
 10
266.1620366555
 20
41.5648083039
  0
LWPOLYLINE
  5
264
330
1F
100
AcDbEntity
  8
0
  6
Continuous
 62
     7
370
     0
100
AcDbPolyline
 90
       10
 70
   128
 43
0.0
 10
275.1887838261
 20
37.1000542585
 10
275.481182397
 20
36.7563686002
 10
275.8732341307
 20
36.5683448723
 10
276.3411310002
 20
36.5474011443
 10
276.8564591501
 20
36.6948092607
 10
277.3879243776
 20
37.0016176059
 10
277.9032525275
 20
37.4491947068
 10
278.371149397
 20
38.0103606614
 10
278.7632011307
 20
38.651037686
 10
279.0555997017
 20
39.3323195484
  0
LWPOLYLINE
  5
265
330
1F
100
AcDbEntity
  8
0
  6
Continuous
 62
     7
370
     0
100
AcDbPolyline
 90
       10
 70
   128
 43
0.0
 10
279.0556465924
 20
41.5392352439
 10
278.7632544739
 20
41.8829619505
 10
278.3711971623
 20
42.0710155123
 10
277.9032851236
 20
42.0919750407
 10
277.3879356408
 20
41.9445676192
 10
276.8564469729
 20
41.6377456111
 10
276.3410975456
 20
41.1901429627
 10
275.8731856145
 20
40.6289435251
 10
275.4811284562
 20
39.9882301217
 10
275.1887365273
 20
39.3069146261
  0
LINE
  5
266
330
1F
100
AcDbEntity
  8
0
  6
Continuous
 62
     7
370
     0
100
AcDbLine
 10
243.4892138121
 20
39.8962538106
 30
0.0
 11
249.0642168793
 21
36.6778730451
 31
0.0
  0
LINE
  5
267
330
1F
100
AcDbEntity
  8
0
  6
Continuous
 62
     7
370
     0
100
AcDbLine
 10
243.4285536403
 20
39.8612240549
 30
0.0
 11
243.4892138121
 21
39.8962538106
 31
0.0
  0
LINE
  5
268
330
1F
100
AcDbEntity
  8
0
  6
Continuous
 62
     7
370
     0
100
AcDbLine
 10
274.3644753172
 20
37.4313274946
 30
0.0
 11
274.4351859954
 21
37.1674372605
 31
0.0
  0
LWPOLYLINE
  5
269
330
1F
100
AcDbEntity
  8
0
  6
Continuous
 62
     7
370
     0
100
AcDbPolyline
 90
        3
 70
   128
 43
0.0
 10
278.6236055732
 20
41.4928659123
 10
278.3168677041
 20
41.8044786855
 10
278.2849479869
 20
41.8237815847
  0
LINE
  5
26A
330
1F
100
AcDbEntity
  8
0
  6
Continuous
 62
     7
370
     0
100
AcDbLine
 10
243.2075827712
 20
44.6416463753
 30
0.0
 11
243.2086237985
 21
44.8273981073
 31
0.0
  0
LWPOLYLINE
  5
26B
330
1F
100
AcDbEntity
  8
0
  6
Continuous
 62
     7
370
     0
100
AcDbPolyline
 90
        3
 70
   128
 43
0.0
 10
243.3992887714
 20
42.2494981553
 10
243.2689420224
 20
43.2573459322
 10
243.2075827712
 20
44.6416463753
  0
LWPOLYLINE
  5
26C
330
1F
100
AcDbEntity
  8
0
  6
Continuous
 62
     7
370
     0
100
AcDbPolyline
 90
        8
 70
   128
 43
0.0
 10
275.5982253093
 20
37.0273075379
 10
275.9116262704
 20
36.9388726347
 10
276.3921338918
 20
36.9787818111
 10
276.9100597295
 20
37.1966599804
 10
277.4279855673
 20
37.5767662549
 10
277.9084931886
 20
38.0916393692
 10
278.3168677041
 20
38.7040816548
 10
278.6236055732
 20
39.3698464332
  0
LINE
  5
26D
330
1F
100
AcDbEntity
  8
0
  6
Continuous
 62
     7
370
     0
100
AcDbLine
 10
274.2132245637
 20
37.518642696
 30
0.0
 11
274.3644753172
 21
37.4313274946
 31
0.0
  0
LWPOLYLINE
  5
26E
330
1F
100
AcDbEntity
  8
0
  6
Continuous
 62
     7
370
     0
100
AcDbPolyline
 90
       19
 70
   128
 43
0.0
 10
212.2743630876
 20
68.4572649665
 10
212.3358514038
 20
69.5760797979
 10
212.5192642704
 20
70.746744296
 10
212.8214634423
 20
71.9492280669
 10
213.2372782079
 20
73.1629562797
 10
213.7595938613
 20
74.3671617084
 10
214.3794734369
 20
75.541240064
 10
215.0863106232
 20
76.6651025405
 10
215.8680112401
 20
77.7195195393
 10
216.7112001732
 20
78.6864496931
 10
217.6014502261
 20
79.549348559
 10
218.5235289736
 20
80.2934516981
 10
219.4616593926
 20
80.9060272994
 10
220.3997898117
 20
81.3765940246
 10
221.3218685592
 20
81.6971003465
 10
222.2121186121
 20
81.862062313
 10
223.0553075452
 20
81.8686573793
 10
223.837008162
 20
81.7167727018
 10
223.9921778647
 20
81.6648999644
  0
ARC
  5
26F
330
1F
100
AcDbEntity
  8
0
  6
Continuous
 62
     7
370
     0
100
AcDbCircle
 10
217.6490218723
 20
68.0131329391
 30
0.0
 40
5.392977870398033
100
AcDbArc
 50
175.2761269287
 51
225.7050394481
  0
LINE
  5
270
330
1F
100
AcDbEntity
  8
0
  6
Continuous
 62
     7
370
     0
100
AcDbLine
 10
279.8091975324
 20
40.2697880854
 30
0.0
 11
279.597065498
 21
40.4520375083
 31
0.0
  0
LWPOLYLINE
  5
271
330
1F
100
AcDbEntity
  8
0
  6
Continuous
 62
     7
370
     0
100
AcDbPolyline
 90
        3
 70
   128
 43
0.0
 10
248.4340835289
 20
32.8678159679
 10
248.2290554214
 20
33.2878756115
 10
247.7613274747
 20
34.4874819516
  0
LINE
  5
272
330
1F
100
AcDbEntity
  8
0
  6
Continuous
 62
     7
370
     0
100
AcDbLine
 10
277.6525218498
 20
41.5745986621
 30
0.0
 11
279.597065498
 21
40.4520375083
 31
0.0
  0
LWPOLYLINE
  5
273
330
1F
100
AcDbEntity
  8
0
  6
Continuous
 62
     7
370
     0
100
AcDbPolyline
 90
        3
 70
   128
 43
0.0
 10
248.3300034262
 20
32.3809915157
 10
247.8381666109
 20
33.3247482742
 10
247.3685210991
 20
34.5419350387
  0
LINE
  5
274
330
1F
100
AcDbEntity
  8
0
  6
Continuous
 62
     7
370
     0
100
AcDbLine
 10
248.7848875078
 20
35.2061775351
 30
0.0
 11
243.0750002497
 21
38.5024252866
 31
0.0
  0
ARC
  5
275
330
1F
100
AcDbEntity
  8
0
  6
Continuous
 62
     7
370
     0
100
AcDbCircle
 10
250.6987528859
 20
39.0651104388
 30
0.0
 40
11.85332269471599
100
AcDbArc
 50
195.102398578
 51
214.9744635894
  0
OLE2FRAME
  5
276
330
1F
100
AcDbEntity
  8
0
100
AcDbOle2Frame
 70
     2
  3
Paintbrush-Bild
 10
13.8511154363
 20
38.264191557
 30
0.0
 11
51.6290888628
 21
31.9806341108
 31
0.0
 71
     2
 72
     0
 73
     1
 90
    12928
310
80552BED0767C5B32B40DDAF6807D121434000000000000000006FFBDDFB85D0
310
4940DDAF6807D121434000000000000000006FFBDDFB85D04940416F4BD60AFB
310
3F4000000000000000002BED0767C5B32B40416F4BD60AFB3F40000000000000
310
0000000000000100000000010000010000000100000000000100000000320000
310
D0CF11E0A1B11AE1000000000000000000000000000000003E000300FEFF0900
310
0600000000000000000000000100000001000000000000000010000002000000
310
01000000FEFFFFFF0000000000000000FFFFFFFFFFFFFFFFFFFFFFFFFFFFFFFF
310
FFFFFFFFFFFFFFFFFFFFFFFFFFFFFFFFFFFFFFFFFFFFFFFFFFFFFFFFFFFFFFFF
310
FFFFFFFFFFFFFFFFFFFFFFFFFFFFFFFFFFFFFFFFFFFFFFFFFFFFFFFFFFFFFFFF
310
FFFFFFFFFFFFFFFFFFFFFFFFFFFFFFFFFFFFFFFFFFFFFFFFFFFFFFFFFFFFFFFF
310
FFFFFFFFFFFFFFFFFFFFFFFFFFFFFFFFFFFFFFFFFFFFFFFFFFFFFFFFFFFFFFFF
310
FFFFFFFFFFFFFFFFFFFFFFFFFFFFFFFFFFFFFFFFFFFFFFFFFFFFFFFFFFFFFFFF
310
FFFFFFFFFFFFFFFFFFFFFFFFFFFFFFFFFFFFFFFFFFFFFFFFFFFFFFFFFFFFFFFF
310
FFFFFFFFFFFFFFFFFFFFFFFFFFFFFFFFFFFFFFFFFFFFFFFFFFFFFFFFFFFFFFFF
310
FFFFFFFFFFFFFFFFFFFFFFFFFFFFFFFFFFFFFFFFFFFFFFFFFFFFFFFFFFFFFFFF
310
FFFFFFFFFFFFFFFFFFFFFFFFFFFFFFFFFFFFFFFFFFFFFFFFFFFFFFFFFFFFFFFF
310
FFFFFFFFFFFFFFFFFFFFFFFFFFFFFFFFFFFFFFFFFFFFFFFFFFFFFFFFFFFFFFFF
310
FFFFFFFFFFFFFFFFFFFFFFFFFFFFFFFFFFFFFFFFFFFFFFFFFFFFFFFFFFFFFFFF
310
FFFFFFFFFFFFFFFFFFFFFFFFFFFFFFFFFFFFFFFFFFFFFFFFFFFFFFFFFFFFFFFF
310
FFFFFFFFFFFFFFFFFFFFFFFFFFFFFFFFFFFFFFFFFFFFFFFFFFFFFFFFFFFFFFFF
310
FDFFFFFFFEFFFFFFFEFFFFFFFEFFFFFF05000000060000000700000008000000
310
090000000A0000000B0000000C0000000D0000000E0000000F00000010000000
310
11000000120000001300000014000000150000001600000017000000FEFFFFFF
310
FFFFFFFFFFFFFFFFFFFFFFFFFFFFFFFFFFFFFFFFFFFFFFFFFFFFFFFFFFFFFFFF
310
FFFFFFFFFFFFFFFFFFFFFFFFFFFFFFFFFFFFFFFFFFFFFFFFFFFFFFFFFFFFFFFF
310
FFFFFFFFFFFFFFFFFFFFFFFFFFFFFFFFFFFFFFFFFFFFFFFFFFFFFFFFFFFFFFFF
310
FFFFFFFFFFFFFFFFFFFFFFFFFFFFFFFFFFFFFFFFFFFFFFFFFFFFFFFFFFFFFFFF
310
FFFFFFFFFFFFFFFFFFFFFFFFFFFFFFFFFFFFFFFFFFFFFFFFFFFFFFFFFFFFFFFF
310
FFFFFFFFFFFFFFFFFFFFFFFFFFFFFFFFFFFFFFFFFFFFFFFFFFFFFFFFFFFFFFFF
310
FFFFFFFFFFFFFFFFFFFFFFFFFFFFFFFFFFFFFFFFFFFFFFFFFFFFFFFFFFFFFFFF
310
FFFFFFFFFFFFFFFFFFFFFFFFFFFFFFFFFFFFFFFFFFFFFFFFFFFFFFFFFFFFFFFF
310
FFFFFFFFFFFFFFFFFFFFFFFFFFFFFFFFFFFFFFFFFFFFFFFFFFFFFFFFFFFFFFFF
310
FFFFFFFFFFFFFFFFFFFFFFFFFFFFFFFFFFFFFFFFFFFFFFFFFFFFFFFFFFFFFFFF
310
FFFFFFFFFFFFFFFFFFFFFFFFFFFFFFFFFFFFFFFFFFFFFFFFFFFFFFFFFFFFFFFF
310
FFFFFFFFFFFFFFFFFFFFFFFFFFFFFFFFFFFFFFFFFFFFFFFFFFFFFFFFFFFFFFFF
310
FFFFFFFFFFFFFFFFFFFFFFFFFFFFFFFFFFFFFFFFFFFFFFFFFFFFFFFFFFFFFFFF
310
52006F006F007400200045006E00740072007900000000000000000000000000
310
0000000000000000000000000000000000000000000000000000000000000000
310
16000500FFFFFFFFFFFFFFFF020000000A00030000000000C000000000000046
310
000000000000000000000000E0428BA2E022D20103000000C000000000000000
310
01004F006C006500000000000000000000000000000000000000000000000000
310
0000000000000000000000000000000000000000000000000000000000000000
310
0A000200FFFFFFFFFFFFFFFFFFFFFFFF00000000000000000000000000000000
310
0000000000000000000000000000000000000000000000001400000000000000
310
010043006F006D0070004F0062006A0000000000000000000000000000000000
310
0000000000000000000000000000000000000000000000000000000000000000
310
120002010100000003000000FFFFFFFF00000000000000000000000000000000
310
0000000000000000000000000000000000000000010000004D00000000000000
310
01004F006C006500310030004E00610074006900760065000000000000000000
310
0000000000000000000000000000000000000000000000000000000000000000
310
1A000200FFFFFFFFFFFFFFFFFFFFFFFF00000000000000000000000000000000
310
0000000000000000000000000000000000000000040000002426000000000000
310
FEFFFFFF02000000FEFFFFFFFFFFFFFFFFFFFFFFFFFFFFFFFFFFFFFFFFFFFFFF
310
FFFFFFFFFFFFFFFFFFFFFFFFFFFFFFFFFFFFFFFFFFFFFFFFFFFFFFFFFFFFFFFF
310
FFFFFFFFFFFFFFFFFFFFFFFFFFFFFFFFFFFFFFFFFFFFFFFFFFFFFFFFFFFFFFFF
310
FFFFFFFFFFFFFFFFFFFFFFFFFFFFFFFFFFFFFFFFFFFFFFFFFFFFFFFFFFFFFFFF
310
FFFFFFFFFFFFFFFFFFFFFFFFFFFFFFFFFFFFFFFFFFFFFFFFFFFFFFFFFFFFFFFF
310
FFFFFFFFFFFFFFFFFFFFFFFFFFFFFFFFFFFFFFFFFFFFFFFFFFFFFFFFFFFFFFFF
310
FFFFFFFFFFFFFFFFFFFFFFFFFFFFFFFFFFFFFFFFFFFFFFFFFFFFFFFFFFFFFFFF
310
FFFFFFFFFFFFFFFFFFFFFFFFFFFFFFFFFFFFFFFFFFFFFFFFFFFFFFFFFFFFFFFF
310
FFFFFFFFFFFFFFFFFFFFFFFFFFFFFFFFFFFFFFFFFFFFFFFFFFFFFFFFFFFFFFFF
310
FFFFFFFFFFFFFFFFFFFFFFFFFFFFFFFFFFFFFFFFFFFFFFFFFFFFFFFFFFFFFFFF
310
FFFFFFFFFFFFFFFFFFFFFFFFFFFFFFFFFFFFFFFFFFFFFFFFFFFFFFFFFFFFFFFF
310
FFFFFFFFFFFFFFFFFFFFFFFFFFFFFFFFFFFFFFFFFFFFFFFFFFFFFFFFFFFFFFFF
310
FFFFFFFFFFFFFFFFFFFFFFFFFFFFFFFFFFFFFFFFFFFFFFFFFFFFFFFFFFFFFFFF
310
FFFFFFFFFFFFFFFFFFFFFFFFFFFFFFFFFFFFFFFFFFFFFFFFFFFFFFFFFFFFFFFF
310
FFFFFFFFFFFFFFFFFFFFFFFFFFFFFFFFFFFFFFFFFFFFFFFFFFFFFFFFFFFFFFFF
310
FFFFFFFFFFFFFFFFFFFFFFFFFFFFFFFFFFFFFFFFFFFFFFFFFFFFFFFFFFFFFFFF
310
0100000200000000000000000000000000000000000000000000000000000000
310
0000000000000000000000000000000000000000000000000000000000000000
310
0100FEFF030A0000FFFFFFFF0A00030000000000C00000000000004607000000
310
5042727573680007000000504272757368000700000050427275736800F439B2
310
7100000000000000000000000000000000000000000000000000000000000000
310
0000000000000000000000000000000000000000000000000000000000000000
310
0000000000000000000000000000000000000000000000000000000000000000
310
0000000000000000000000000000000000000000000000000000000000000000
310
0000000000000000000000000000000000000000000000000000000000000000
310
0000000000000000000000000000000000000000000000000000000000000000
310
0000000000000000000000000000000000000000000000000000000000000000
310
0000000000000000000000000000000000000000000000000000000000000000
310
0000000000000000000000000000000000000000000000000000000000000000
310
0000000000000000000000000000000000000000000000000000000000000000
310
0000000000000000000000000000000000000000000000000000000000000000
310
0000000000000000000000000000000000000000000000000000000000000000
310
20260000424D0E260000000000003E00000028000000B40200006E0000000100
310
01000000000000000000130B0000130B00000200000002000000000000FFFFFF
310
FFFFFFFFFFFFFFFFFFFFFFFFFFFFFFFFFFFFFFFFFFFFFFFFFFFFFFFFFFFFFFFF
310
FFFFFFFFFFFFFFFFFFFFFFFFFFFFFFFFFFFFFFFFFFFFFFFFFFFFFFFFFFFFFFFF
310
FFFFFFFFFFFFFFFFFFFFFFFFFFFFFFFFFFFFFFFFFFFFFFFFF000FFFFFFFFFFFF
310
FFFFFFFFFFFFFFFFFFFFFFFFFFFFFFFFFFFFFFFFFFFFFFFFFFFFFFFFFFFFFFFF
310
FFFFFFFFFFFFFFFFFFFFFFFFFFFFFFFFFFFFFFFFFFFFFFFFFFFFFFFFFFFFFFFF
310
FFFFFFFFFFFFFFFFFFFFFFFFFFFFFFFFF000FFFFFFFFFFFFFFFFFFFFFFFFFFFF
310
FFFFFFFFFFFFFFFFFFFFFFFFFFFFFFFFFFFFFFFFFFFFFFFFFFFFFFFFFFFFFFFF
310
FFFFFFFFFFFFFFFFFFFFFFFFFFFFFFFFFFFFFFFFFFFFFFFFFFFFFFFFFFFFFFFF
310
FFFFFFFFFFFFFFFFF000FFFFFFFFFFFFFFFFFFFFFFFFFFFFFFFFFFFFFFFFFFFF
310
FFFFFFFFFFFFFFFFFFFFFFFFFFFFFFFFFFFFFFFFFFFFFFFFFFFFFFFFFFFFFFFF
310
FFFFFFFFFFFFFFFFFFFFFFFFFFFFFFFFFFFFFFFFFFFFFFFFFFFFFFFFFFFFFFFF
310
F000FFFFFFFFFFFFFFFFFFFFFFFFFFFFFFFFFFFFFFFFFFFFFFFFFFFFFFFFFFFF
310
FFFFFFFFFFFFFFFFFFFFFFFFFFFFFFFFFFFFFFFFFFFFFFFFFFFFFFFFFFFFFFFF
310
FFFFFFFFFFFFFFFFFFFFFFFFFFFFFFFFFFFFFFFFFFFFFFFFF000FFFFFFFFFFFF
310
FFFFFFFFFFFFFFFFFFFFFFFFFFFFFFFFFFFFFFFFFFFFFFFFFFFFFFFFFFFFFFFF
310
FFFFFFFFFFFFFFFFFFFFFFFFFFFFFFFFFFFFFFFFFFFFFFFFFFFFFFFFFFFFFFFF
310
FFFFFFFFFFFFFFFFFFFFFFFFFFFFFFFFF000FFFFFFFFFFFFFFFFFFFFFFFFFFFF
310
FFFFFFFFFFFFFFFFFFFFFFFFFFFFFFFFFFFFFFFFFFFFFFFFFFFFFFFFFFFFFFFF
310
FFFFFFFFFFFFFFFFFFFFFFFFFFFFFFFFFFFFFFFFFFFFFFFFFFFFFFFFFFFFFFFF
310
FFFFFFFFFFFFFFFFF000FFFFFFFFFFFFFFFFFFFFFFFFFFFFFFFFFFFFFFFFFFFF
310
FFFFFFFFFFFFFFFFFFFFFFFFFFFFFFFFFFFFFFFFFFFFFFFFFFFFFFFFFFFFFFFF
310
FFFFFFFFFFFFFFFFFFFFFFFFFFFFFFFFFFFFFFFFFFFFFFFFFFFFFFFFFFFFFFFF
310
F000FFFFFFFFFFFFFFFFFFFFFFFFFFFFFFFFFFFFFFFFFFFFFFFFFFFFFFFFFFFF
310
FFFFFFFFFFFFFFFFFFFFFFFFFFFFFFFFFFFFFFFFFFFFFFFFFFFFFFFFFFFFFFFF
310
FFFFFFFFFFFFFFFFFFFFFFFFFFFFFFFFFFFFFFFFFFFFFFFFF000FFFFFFFFFFFF
310
FFFFFFFFFFFFFFFFFFFFFFFFFFFFFFFFFFFFFFFFFFFFFFFFFFFFFFFFFFFFFFFF
310
FFFFFFFFFFFFFFFFFFFFFFFFFFFFFFFFFFFFFFFFFFFFFFFFFFFFFFFFFFFFFFFF
310
FFFFFFFFFFFFFFFFFFFFFFFFFFFFFFFFF000FFFFFFFFFFFFFFFFFFFFFFFFFFFF
310
FFFFFFFFFFFFFFFFFFFFFFFFFFFFFFFFFFFFFFFFFFFFFFFFFFFFFFFFFFFFFFFF
310
FFFFFFFFFFFFFFFFFFFFFFFFFFFFFFFFFFFFFFFFFFFFFFFFFFFFFFFFFFFFFFFF
310
FFFFFFFFFFFFFFFFF000FFFFFFFFFFFFFFFFFFFFFFFFFFFFFFFFFFFFFFFFFFFF
310
FFFFFFFFFFFFFFFFFFFFFFFFFFFFFFFFFFFFFFFFFFFFFFFFFFFFFFFFFFFFFFFF
310
FFFFFFFFFFFFFFFFFFFFFFFFFFFFFFFFFFFFFFFFFFFFFFFFFFFFFFFFFFFFFFFF
310
F000FFFFFFFFFFFFFFFFFFFFFFFFFFFFFFFFFFFFFFFFFFFFFFFFFFFFFFFFFFFF
310
FFFFFFFFFFFFFFFFFFFFFFFFFFFFFFFFFFFFFFFFFFFFFFFFFFFFFFFFFFFFFFFF
310
FFFFFFFFFFFFFFFFFFFFFFFFFFFFFFFFFFFFFFFFFFFFFFFFF000FFFFFFFFFFFF
310
FFFFFFFFFFFFFFFFFFFFFFFFFFFFFFFFFFFFFFFFFFFFFFFFFFFFFFFFFFFFFFFF
310
FFFFFFFFFFFFFFFFFFFFFFFFFFFFFFFFFFFFFFFFFFFFFFFFFFFFFFFFFFFFFFFF
310
FFFFFFFFFFFFFFFFFFFFFFFFFFFFFFFFF000FFFFFFFFFFFFFFFFFFFFFFFFFFFF
310
FFFFFFFFFFFFFFFFFFFFFFFFFFFFFFFFFFFFFFFFFFFFFFFFFFFFFFFFFFFFFFFF
310
FFFFFFFFFFFFFFFFFFFFFFFFFFFFFFFFFFFFFFFFFFFFFFFFFFFFFFFFFFFFFFFF
310
FFFFFFFFFFFFFFFFF000FFFFFFFFFFFFFFFFFFFFFFFFFFFFFFFFFFFFFFFFFFFF
310
FFFFFFFFFFFFFFFFFFFFFFFFFFFFFFFFFFFFFFFFFFFFFFFFFFFFFFFFFFFFFFFF
310
FFFFFFFFFFFFFFFFFFFFFFFFFFFFFFFFFFFFFFFFFFFFFFFFFFFFFFFFFFFFFFFF
310
F000FFFFFFFFFFFFFFFFFFFFFFFFFFFFFFFFFFFFFFFFFFFFFFFFFFFFFFFFFFFF
310
FFFFFFFFFFFFFFFFFFFFFFFFFFFFFFFFFFFFFFFFFFFFFFFFFFFFFFFFFFFFFFFF
310
FFFFFFFFFFFFFFFFFFFFFFFFFFFFFFFFFFFFFFFFFFFFFFFFF000FFFFFFFFFFFF
310
FFFFFFFFFFFFFFFFFFFFFFFFFFFFFFFFFFFFFFFFFFFFFFFFFFFFFFFFFFFFFFFF
310
FFFFFFFFFFFFFFFFFFFFFFFFFFFFFFFFFFFFFFFFFFFFFFFFFFFFFFFFFFFFFFFF
310
FFFFFFFFFFFFFFFFFFFFFFFFFFFFFFFFF000FFFFFFFFFFFFFFFFFFFFFFFFFFFF
310
FFFFFFFFFFFFFFFFFFFFFFFFFFFFFFFFFFFFFFFFFFFFFFFFFFFFFFFFFFFFFFFF
310
FFFFFFFFFFFFFFFFFFFFFFFFFFFFFFFFFFFFFFFFFFFFFFFFFFFFFFFFFFFFFFFF
310
FFFFFFFFFFFFFFFFF000FFFFF80003FFFFFFFFFFFFFFFFFFFFFFFFFFFFFFFFFF
310
FFFFF00007FFFFFFFFFF00007FFFFFF800000000000000007FFFFFFFFFFFFFFF
310
FFFFFFFC001FFFFFFFFFFFFFFC001FFFFFFFFFFFFFFFFFFFFFFFFFFE0007FFFF
310
F000FFFF8000007FFFFFFFF8000FFFFFC0007FFFFF80007FFFFF0000007FFFFF
310
FFF8000007FFFFF800000000000000007FFFFFF0001FFFFFFFFFFFC00001FFFF
310
FFFFFFFFC00001FFFFFFFF000000000003FFFFE000007FFFF000FFFE0000000F
310
FFFFFFF0000FFFFF80007FFFFF80007FFFFC0000001FFFFFFFC0000001FFFFF8
310
00000000000000007FFFFFF0001FFFFFFFFFFE0000003FFFFFFFFFFE0000003F
310
FFFFFF000000000003FFFF0000000FFFF000FFF800000003FFFFFFF00007FFFF
310
80007FFFFF80007FFFF000000007FFFFFF000000003FFFF80000000000000000
310
7FFFFFF0001FFFFFFFFFF80000000FFFFFFFFFF80000000FFFFFFF0000000000
310
03FFFC00000003FFF000FFE000000000FFFFFFF00007FFFF80003FFFFF80007F
310
FFC000000001FFFFFC000000001FFFF800000000000000007FFFFFF0001FFFFF
310
FFFFE000000003FFFFFFFFE000000003FFFFFF000000000003FFF000000000FF
310
F000FF80000000007FFFFFF00007FFFF80003FFFFF80007FFF8000000000FFFF
310
F80000000007FFF800000000000000007FFFFFF0001FFFFFFFFFC000000001FF
310
FFFFFFC000000001FFFFFF000000000003FFC0000000007FF000FF0000000000
310
3FFFFFE00007FFFF00003FFFFF80007FFE00000000003FFFF00000000003FFF8
310
00000000000000007FFFFFF0001FFFFFFFFF8000000000FFFFFFFF8000000000
310
FFFFFF000000000003FF80000000003FF000FE00000000001FFFFFE00003FFFF
310
00003FFFFF80007FFC00000000001FFFE00000000001FFF8000001FFFE000000
310
7FFFFFF0001FFFFFFFFE00000000003FFFFFFE00000000003FFFFF0000000000
310
03FF00000000001FF000FC00000000000FFFFFE00003FFFF00001FFFFF80007F
310
F800000000001FFFC00000000000FFF8000001FFFE0000007FFFFFF0001FFFFF
310
FFFC00000000001FFFFFFC00000000001FFFFF000000000003FE00000000000F
310
F000F8000000000007FFFFE00003FFFF00001FFFFF80007FF800000000000FFF
310
800000000000FFF8000001FFFE0000007FFFFFF0001FFFFFFFF800000000000F
310
FFFFF800000000000FFFFF000000000003FC000000000007F000F80000000000
310
03FFFFC00003FFFE00001FFFFF80007FF0000000000007FF0000000000007FF8
310
000001FFFE0000007FFFFFF0001FFFFFFFF0000000000007FFFFF00000000000
310
07FFFF000000000003F8000000000003F000F0000000000003FFFFC00001FFFE
310
00001FFFFF80007FE0000000000007FE0000000000003FF8000001FFFE000000
310
7FFFFFF0001FFFFFFFF0000000000007FFFFF0000000000007FFFF0000000000
310
03F800001F800003F000E00001FFF00001FFFFC00001FFFE00000FFFFF80007F
310
E00001FFE00003FE00001FFF00003FF8000001FFFE0000007FFFFFF0001FFFFF
310
FFE000003E000003FFFFE000003E000003FFFF000000000003F00001FFF80001
310
F000E00007FFFC0001FFFFC00001FFFE00000FFFFF80007FC0000FFFFC0003FC
310
0000FFFFC0001FF8000001FFFE0000007FFFFFF0001FFFFFFFC00003FFE00001
310
FFFFC00003FFE00001FFFF0001FFFFFFFFF00007FFFE0001F000E0000FFFFF00
310
00FFFF800001FFFC00000FFFFF80007FC0001FFFFE0001FC0001FFFFE0001FF8
310
000001FFFE0000007FFFFFF0001FFFFFFF80000FFFF80000FFFF80000FFFF800
310
00FFFF0003FFFFFFFFE0000FFFFF8000F000C0003FFFFF8000FFFF800000FFFC
310
000007FFFF80007F80003FFFFF0001FC0003FFFFF0001FF8000001FFFE000000
310
7FFFFFF0001FFFFFFF80003FFFFE0000FFFF80003FFFFE0000FFFF0003FFFFFF
310
FFE0003FFFFF8000F000C0003FFFFF8000FFFF800000FFFC000007FFFF80007F
310
80007FFFFF8001F80007FFFFF8000FF8000001FFFE0000007FFFFFF0001FFFFF
310
FF00007FFFFF00007FFF00007FFFFF00007FFF0003FFFFFFFFE0003FFFFFC000
310
F000C0007FFFFFC000FFFF000000FFFC000007FFFF80007F8000FFFFFF8000F8
310
000FFFFFF8000FF8000001FFFE0000007FFFFFF0001FFFFFFF0000FFFFFF8000
310
7FFF0000FFFFFF80007FFF0003FFFFFFFFC0007FFFFFC00070008000FFFFFFC0
310
00FFFF000000FFF8000007FFFF80007F8000FFFFFF8000F8000FFFFFF8000FF8
310
000001FFFE0000007FFFFFF0001FFFFFFE0001FFFFFFC0003FFE0001FFFFFFC0
310
003FFF0003FFFFFFFFC0007FFFFFE00070008000FFFFFFC0007FFF0000007FF8
310
000003FFFF80007F0001FFFFFF8000F8000FFFFFF8000FF8000001FFFE000000
310
7FFFFFF0001FFFFFFE0001FFFFFFC0003FFE0001FFFFFFC0003FFF0003FFFFFF
310
FFC000FFFFFFE00070008000FFFFFFC0007FFF0000007FF8000003FFFF80007F
310
0001FFFFFF8000F8001FFFFFF8000FF8000001FFFE0000007FFFFFF0001FFFFF
310
FE0003FFFFFFE0003FFE0003FFFFFFE0003FFF0003FFFFFFFFC000FFFFFFE000
310
70008000FFFFFFC0007FFE0000007FF8000003FFFF80007F0001FFFFFF8000F0
310
001FFFFFF8000FF8000001FFFE0000007FFFFFF0001FFFFFFC0003FFFFFFE000
310
1FFC0003FFFFFFE0001FFF0003FFFFFFFFC000FFFFFFC00070008000FFFFFF80
310
007FFE0000007FF0000003FFFF80007F0001FFFFFF0000F0001FFFFFF8000FF8
310
000001FFFE0000007FFFFFF0001FFFFFFC0007FFFFFFF0001FFC0007FFFFFFF0
310
001FFF0003FFFFFFFFC000FFFFFFC00070008001FFFFFF0000FFFE0000003FF0
310
000001FFFF80007F0001FFFFFF0000F8001FFFFFF0000FF8000001FFFE000000
310
7FFFFFF0001FFFFFFC0007FFFFFFF0001FFC0007FFFFFFF0001FFF0003FFFFFF
310
FFC001FFFFFF80007000FFFFFFFFFE0000FFFE0008003FF0008001FFFF80007F
310
FFFFFFFFFC0000FFFFFFFFFFE0000FF8000001FFFE0000007FFFFFF0001FFFFF
310
F8000FFFFFFFF8000FF8000FFFFFFFF8000FFF0003FFFFFFFFFFFFFFFFFF0000
310
7000FFFFFFFFFC0000FFFC0008003FF0008001FFFF80007FFFFFFFFFF80001FF
310
FFFFFFFF80000FF8000001FFFE0000007FFFFFF0001FFFFFF8000FFFFFFFF800
310
0FF8000FFFFFFFF8000FFF0003FFFFFFFFFFFFFFFFFE0000F000FFFFFFFFE000
310
00FFFC000C003FE000C001FFFF80007FFFFFFFFFC00001FFFFFFFFFE00001FF8
310
000001FFFE0000007FFFFFF0001FFFFFF8000FFFFFFFF8000FF8000FFFFFFFF8
310
000FFF0003FFFFFFFFFFFFFFFFF00000F000FFFFFFFE000001FFFC000C001FE0
310
00C000FFFF80007FFFFFFFFE000001FFFFFFFFE000001FF80FFFFFFFFFFFFFC0
310
7FFFFFF0001FFFFFF8000FFFFFFFF8000FF8000FFFFFFFF8000FFF0003FFFFFF
310
FFFFFFFFFF800000F000FFFFFFC0000001FFFC001C001FE001C000FFFF80007F
310
FFFFFF80000003FFFFFFF80000001FF80FFFFFFFFFFFFFC07FFFFFF0001FFFFF
310
F8001FFFFFFFFC000FF8001FFFFFFFFC000FFF0003FFFFFFFFFFFFFFF0000001
310
F000FFFFF800000001FFF8001C001FE001C000FFFF80007FFFFFF800000003FF
310
FFFF800000003FF80FFFFFFFFFFFFFC07FFFFFF0001FFFFFF8001FFFFFFFFC00
310
0FF8001FFFFFFFFC000FFF0003FFFFFFFFFFFFFE00000001F000FFFFC0000000
310
03FFF8001E001FC001E000FFFF80007FFFFF8000000007FFFFFC000000003FF8
310
0FFFFFFFFFFFFFC07FFFFFF0001FFFFFF8001FFFFFFFFC000FF8001FFFFFFFFC
310
000FFF0003FFFFFFFFFFFFE000000003F000FFFE0000000007FFF8001E000FC0
310
01E0007FFF80007FFFFE0000000007FFFFE0000000007FF80FFFFFFFFFFFFFC0
310
7FFFFFF0001FFFFFF0001FFFFFFFFC0007F0001FFFFFFFFC0007FF0003FFFFFF
310
FFFFFF0000000003F000FFF80000000007FFF8001E000FC003E0007FFF80007F
310
FFF0000000000FFFFF8000000000FFF80FFFFFFFFFFFFFC07FFFFFF0001FFFFF
310
F0001FFFFFFFFC0007F0001FFFFFFFFC0007FF0003FFFFFFFFFFFC0000000007
310
F000FFE0000000000FFFF0003E000FC003E0007FFF80007FFFC0000000001FFF
310
FE0000000001FFF80FFFFFFFFFFFFFC07FFFFFF0001FFFFFF0001FFFFFFFFC00
310
07F0001FFFFFFFFC0007FF0003FFFFFFFFFFF0000000000FF000FFC000000000
310
1FFFF0003F000F8003F0003FFF80007FFF80000000003FFFF80000000003FFF8
310
0FFFFFFFFFFFFFC07FFFFFF0001FFFFFF0001FFFFFFFFC0007F0001FFFFFFFFC
310
0007FF0003FFFFFFFFFFE0000000001FF000FF00000000007FFFF0003F000780
310
03F0003FFF80007FFF00000000007FFFF00000000007FFF80FFFFFFFFFFFFFC0
310
7FFFFFF0001FFFFFF0001FFFFFFFFC0007F0001FFFFFFFFC0007FF0003FFFFFF
310
FFFF80000000007FF000FE0000000000FFFFE0003F00078007F0003FFF80007F
310
FE0000000001FFFFE0000000001FFFF80FFFFFFFFFFFFFC07FFFFFF0001FFFFF
310
F0001FFFFFFFFC0007F0001FFFFFFFFC0007FF0003FFFFFFFFFF0000000000FF
310
F000FC0000000003FFFFE0007F00078007F0003FFF80007FFC0000000007FFFF
310
C0000000007FFFF80FFFFFFFFFFFFFC07FFFFFF0001FFFFFF8001FFFFFFFFC00
310
0FF8001FFFFFFFFC000FFF0003FFFFFFFFFE0000000003FFF000FC000000000F
310
FFFFE0007F80070007F8001FFF80007FF8000000001FFFFF8000000001FFFFF8
310
0FFFFFFFFFFFFFC07FFFFFF0001FFFFFF8001FFFFFFFFC000FF8001FFFFFFFFC
310
000FFF0003FFFFFFFFFC000000000FFFF000F8000000007FFFFFE0007F800700
310
07F8001FFF80007FF000000000FFFFFF800000000FFFFFF80FFFFFFFFFFFFFC0
310
7FFFFFF0001FFFFFF8000FFFFFFFF8000FF8000FFFFFFFF8000FFF0003FFFFFF
310
FFFC000000007FFFF000F800000007FFFFFFC0007F8003000FF8001FFF80007F
310
F000000007FFFFFF000000007FFFFFF80FFFFFFFFFFFFFC07FFFFFF0001FFFFF
310
F8000FFFFFFFF8000FF8000FFFFFFFF8000FFF0003FFFFFFFFF80000000FFFFF
310
F000F0000000FFFFFFFFC000FF8003000FF8001FFF80007FE0000000FFFFFFFF
310
0000000FFFFFFFF8000001FFFE0000007FFFFFF0001FFFFFF8000FFFFFFFF800
310
0FF8000FFFFFFFF8000FFF0003FFFFFFFFF8000000FFFFFFF000F000000FFFFF
310
FFFFC000FFC002000FF8000FFF80007FE000001FFFFFFFFE000001FFFFFFFFF8
310
000001FFFE0000007FFFFFF0001FFFFFF8000FFFFFFFF8000FF8000FFFFFFFF8
310
000FFF0003FFFFFFFFF000001FFFFFFFF000E00000FFFFFFFFFFC000FFC00200
310
0FFC000FFF80007FE00001FFFFFFFFFE00001FFFFFFFFFF8000001FFFE000000
310
7FFFFFF0001FFFFFFC000FFFFFFFF8001FFC000FFFFFFFF8001FFF0003FFFFFF
310
FFF00001FFFFFFFFF000E00007FFFFFFFFFF8000FFC000001FFC000FFF80007F
310
C0000FFFFFFFFFFE0000FFFFFFFFFFF8000001FFFE0000007FFFFFF0001FFFFF
310
FC0007FFFFFFF0001FFC0007FFFFFFF0001FFF0003FFFFFFFFF00007FFFFFFFF
310
F000E0001FFFFFFFFFFF8000FFC000001FFC000FFF80007FC0003FFFFFFFFFFE
310
0001FFFFFFFFFFF8000001FFFE0000007FFFFFF0001FFFFFFC0007FFFFFFF000
310
1FFC0007FFFFFFF0001FFF0003FFFFFFFFF0001FFFFFFFFFF000E0003FFFFF00
310
03FF8001FFE000001FFC0007FF80007FC0007FFFFF0007FC0003FFFFF0003FF8
310
000001FFFE0000007FFFFFF0001FFFFFFC0003FFFFFFE0001FFC0003FFFFFFE0
310
001FFF0003FFFFFFFFF0003FFFFFFFFFF000E0003FFFFF0001FF8001FFE00000
310
1FFE0007FF80007FC0007FFFFE0003FC0007FFFFE0003FF8000001FFFE000000
310
7FFFFFF0001FFFFFFE0003FFFFFFE0003FFE0003FFFFFFE0003FFF0003FFFFFF
310
FFF0003FFFFF8001F000E0003FFFFF0001FF0001FFE000001FFE0007FF80007F
310
C0007FFFFE0003FC0007FFFFE0003FF8000001FFFE0000007FFFFFF0001FFFFF
310
FE0001FFFFFFC0003FFE0001FFFFFFC0003FFF0003FFFFFFFFF0003FFFFF0001
310
F000E0003FFFFF0003FF0001FFE000003FFE0007FF80007FC0007FFFFE0003FC
310
0007FFFFE0003FF8000001FFFE0000007FFFFFF0001FFFFFFF0001FFFFFFC000
310
7FFF0001FFFFFFC0007FFF0003FFFFFFFFF0003FFFFF0001F000E0003FFFFE00
310
03FF0003FFF000003FFE0003FF80007FC0007FFFFC0003FE0007FFFFE0003FF8
310
000001FFFE0000007FFFFFF0001FFFFFFF0000FFFFFF80007FFF0000FFFFFF80
310
007FFF0003FFFFFFFFF0003FFFFF0001F000E0003FFFFE0003FF0003FFF00000
310
3FFF0003FF80007FC0007FFFFC0007FE0007FFFFC0003FF8000001FFFE000000
310
7FFFFFF0001FFFFFFF80007FFFFF0000FFFF80007FFFFF0000FFFF0003FFFFFF
310
FFF0003FFFFF0003F000E0003FFFFC0003FE0003FFF000003FFF0003FF80007F
310
E0003FFFF80007FE0003FFFFC0007FF8000001FFFE0000007FFFFFF0001FFFFF
310
FF80003FFFFE0000FFFF80003FFFFE0000FFFF0003FFFFFFFFF0001FFFFE0003
310
F000F0001FFFF80003FE0003FFF000007FFF0001FF80007FE0003FFFF00007FE
310
0001FFFF80007FF8000001FFFE0000007FFFFFF0001FFFFFFFC0000FFFF80001
310
FFFFC0000FFFF80001FFFF0003FFFFFFFFF0001FFFFC0003F000F0000FFFF000
310
07FE0007FFF800007FFF0001FF80007FE0001FFFE00007FF0000FFFE00007FF8
310
000001FFFE0000007FFFFFF0001FFFFFFFC00003FFE00001FFFFC00003FFE000
310
01FFFF0003FFFFFFFFF8000FFFF80003F000F00003FFC00007FC0007FFF80000
310
7FFF8001FF80007FF00007FF80000FFF00007FF80000FFF8000001FFFE000000
310
7F80000000000001FFE000003E000003FFFFE000003E000003FFFF0003FFFFFF
310
FFF80003FFE00007F000F800000000000FFC0007FFF800007FFF8001FF80007F
310
F000000000000FFF000000000000FFF8000001FFFE0000007F80000000000001
310
FFF0000000000007FFFFF0000000000007FFFF0003FFFFFFFFFC00007E000007
310
F000F800000000000FFC0007FFF80000FFFF8000FF80007FF800000000001FFF
310
800000000001FFF8000001FFFE0000007F80000000000001FFF800000000000F
310
FFFFF800000000000FFFFF0003FFFFFFFFFC00000000000FF000FC0000000000
310
1FFC0007FFFC0000FFFF8000FF80007FF800000000003FFFC00000000001FFF8
310
000001FFFE0000007F80000000000001FFF800000000000FFFFFF80000000000
310
0FFFFF0003FFFFFFFFFE00000000001FF000FE00000000003FF8000FFFFC0000
310
FFFF8000FF80007FFC00000000003FFFC00000000003FFF8000001FFFE000000
310
7F80000000000001FFFC00000000001FFFFFFC00000000001FFFFF0003FFFFFF
310
FFFF00000000001FF000FF00000000003FF8000FFFFC0000FFFFC000FF80007F
310
FE00000000007FFFE00000000007FFF8000001FFFE0000007F80000000000001
310
FFFE00000000003FFFFFFE00000000003FFFFF0003FFFFFFFFFF80000000003F
310
F000FF80000000007FF8000FFFFC0001FFFFC0007F80007FFF0000000000FFFF
310
F0000000000FFFF800000000000000007F80000000000001FFFF8000000000FF
310
FFFFFF8000000000FFFFFF0003FFFFFFFFFFC0000000007FF000FFC000000000
310
FFF8000FFFFE0001FFFFC0007F80007FFF8000000001FFFFF8000000001FFFF8
310
00000000000000007F80000000000001FFFFC000000001FFFFFFFFC000000001
310
FFFFFF0003FFFFFFFFFFE000000000FFF000FFE000000003FFF0001FFFFE0001
310
FFFFC0007F80007FFFC000000007FFFFFE000000003FFFF80000000000000000
310
7F80000000000001FFFFE000000003FFFFFFFFE000000003FFFFFF0003FFFFFF
310
FFFFF000000003FFF000FFF80000000FFFF0001FFFFE0001FFFFE0007F80007F
310
FFF00000000FFFFFFF00000000FFFFF800000000000000007F80000000000001
310
FFFFF80000000FFFFFFFFFF80000000FFFFFFF0003FFFFFFFFFFFC0000000FFF
310
F000FFFE0000003FFFF0001FFFFE0003FFFFE0003F80007FFFFC0000003FFFFF
310
FFC0000003FFFFF800000000000000007F80000000000001FFFFFE0000003FFF
310
FFFFFFFE0000003FFFFFFF0003FFFFFFFFFFFF0000003FFFF000FFFF800000FF
310
FFF0001FFFFF0003FFFFE0003F80007FFFFF000001FFFFFFFFF800001FFFFFF8
310
00000000000000007F80000000000001FFFFFFC00001FFFFFFFFFFFFC00001FF
310
FFFFFF0003FFFFFFFFFFFFC00000FFFFF000FFFFF8000FFFFFFFFFFFFFFFFFFF
310
FFFFFFFFFFFFFFFFFFFFF0001FFFFFFFFFFF0000FFFFFFF80000000000000000
310
7FFFFFFFFFFFFFFFFFFFFFFC001FFFFFFFFFFFFFFC001FFFFFFFFFFFFFFFFFFF
310
FFFFFFFC001FFFFFF000FFFFFFFFFFFFFFFFFFFFFFFFFFFFFFFFFFFFFFFFFFFF
310
FFFFFFFFFFFFFFFFFFFFFFFFFFFFFFFFFFFFFFFFFFFFFFFFFFFFFFFFFFFFFFFF
310
FFFFFFFFFFFFFFFFFFFFFFFFFFFFFFFFFFFFFFFFFFFFFFFFFFFFFFFFFFFFFFFF
310
F000FFFFFFFFFFFFFFFFFFFFFFFFFFFFFFFFFFFFFFFFFFFFFFFFFFFFFFFFFFFF
310
FFFFFFFFFFFFFFFFFFFFFFFFFFFFFFFFFFFFFFFFFFFFFFFFFFFFFFFFFFFFFFFF
310
FFFFFFFFFFFFFFFFFFFFFFFFFFFFFFFFFFFFFFFFFFFFFFFFF000FFFFFFFFFFFF
310
FFFFFFFFFFFFFFFFFFFFFFFFFFFFFFFFFFFFFFFFFFFFFFFFFFFFFFFFFFFFFFFF
310
FFFFFFFFFFFFFFFFFFFFFFFFFFFFFFFFFFFFFFFFFFFFFFFFFFFFFFFFFFFFFFFF
310
FFFFFFFFFFFFFFFFFFFFFFFFFFFFFFFFF000FFFFFFFFFFFFFFFFFFFFFFFFFFFF
310
FFFFFFFFFFFFFFFFFFFFFFFFFFFFFFFFFFFFFFFFFFFFFFFFFFFFFFFFFFFFFFFF
310
FFFFFFFFFFFFFFFFFFFFFFFFFFFFFFFFFFFFFFFFFFFFFFFFFFFFFFFFFFFFFFFF
310
FFFFFFFFFFFFFFFFF000FFFFFFFFFFFFFFFFFFFFFFFFFFFFFFFFFFFFFFFFFFFF
310
FFFFFFFFFFFFFFFFFFFFFFFFFFFFFFFFFFFFFFFFFFFFFFFFFFFFFFFFFFFFFFFF
310
FFFFFFFFFFFFFFFFFFFFFFFFFFFFFFFFFFFFFFFFFFFFFFFFFFFFFFFFFFFFFFFF
310
F000FFFFFFFFFFFFFFFFFFFFFFFFFFFFFFFFFFFFFFFFFFFFFFFFFFFFFFFFFFFF
310
FFFFFFFFFFFFFFFFFFFFFFFFFFFFFFFFFFFFFFFFFFFFFFFFFFFFFFFFFFFFFFFF
310
FFFFFFFFFFFFFFFFFFFFFFFFFFFFFFFFFFFFFFFFFFFFFFFFF000FFFFFFFFFFFF
310
FFFFFFFFFFFFFFFFFFFFFFFFFFFFFFFFFFFFFFFFFFFFFFFFFFFFFFFFFFFFFFFF
310
FFFFFFFFFFFFFFFFFFFFFFFFFFFFFFFFFFFFFFFFFFFFFFFFFFFFFFFFFFFFFFFF
310
FFFFFFFFFFFFFFFFFFFFFFFFFFFFFFFFF000FFFFFFFFFFFFFFFFFFFFFFFFFFFF
310
FFFFFFFFFFFFFFFFFFFFFFFFFFFFFFFFFFFFFFFFFFFFFFFFFFFFFFFFFFFFFFFF
310
FFFFFFFFFFFFFFFFFFFFFFFFFFFFFFFFFFFFFFFFFFFFFFFFFFFFFFFFFFFFFFFF
310
FFFFFFFFFFFFFFFFF000FFFFFFFFFFFFFFFFFFFFFFFFFFFFFFFFFFFFFFFFFFFF
310
FFFFFFFFFFFFFFFFFFFFFFFFFFFFFFFFFFFFFFFFFFFFFFFFFFFFFFFFFFFFFFFF
310
FFFFFFFFFFFFFFFFFFFFFFFFFFFFFFFFFFFFFFFFFFFFFFFFFFFFFFFFFFFFFFFF
310
F000FFFFFFFFFFFFFFFFFFFFFFFFFFFFFFFFFFFFFFFFFFFFFFFFFFFFFFFFFFFF
310
FFFFFFFFFFFFFFFFFFFFFFFFFFFFFFFFFFFFFFFFFFFFFFFFFFFFFFFFFFFFFFFF
310
FFFFFFFFFFFFFFFFFFFFFFFFFFFFFFFFFFFFFFFFFFFFFFFFF000FFFFFFFFFFFF
310
FFFFFFFFFFFFFFFFFFFFFFFFFFFFFFFFFFFFFFFFFFFFFFFFFFFFFFFFFFFFFFFF
310
FFFFFFFFFFFFFFFFFFFFFFFFFFFFFFFFFFFFFFFFFFFFFFFFFFFFFFFFFFFFFFFF
310
FFFFFFFFFFFFFFFFFFFFFFFFFFFFFFFFF000FFFFFFFFFFFFFFFFFFFFFFFFFFFF
310
FFFFFFFFFFFFFFFFFFFFFFFFFFFFFFFFFFFFFFFFFFFFFFFFFFFFFFFFFFFFFFFF
310
FFFFFFFFFFFFFFFFFFFFFFFFFFFFFFFFFFFFFFFFFFFFFFFFFFFFFFFFFFFFFFFF
310
FFFFFFFFFFFFFFFFF000FFFFFFFFFFFFFFFFFFFFFFFFFFFFFFFFFFFFFFFFFFFF
310
FFFFFFFFFFFFFFFFFFFFFFFFFFFFFFFFFFFFFFFFFFFFFFFFFFFFFFFFFFFFFFFF
310
FFFFFFFFFFFFFFFFFFFFFFFFFFFFFFFFFFFFFFFFFFFFFFFFFFFFFFFFFFFFFFFF
310
F000FFFFFFFFFFFFFFFFFFFFFFFFFFFFFFFFFFFFFFFFFFFFFFFFFFFFFFFFFFFF
310
FFFFFFFFFFFFFFFFFFFFFFFFFFFFFFFFFFFFFFFFFFFFFFFFFFFFFFFFFFFFFFFF
310
FFFFFFFFFFFFFFFFFFFFFFFFFFFFFFFFFFFFFFFFFFFFFFFFF000FFFFFFFFFFFF
310
FFFFFFFFFFFFFFFFFFFFFFFFFFFFFFFFFFFFFFFFFFFFFFFFFFFFFFFFFFFFFFFF
310
FFFFFFFFFFFFFFFFFFFFFFFFFFFFFFFFFFFFFFFFFFFFFFFFFFFFFFFFFFFFFFFF
310
FFFFFFFFFFFFFFFFFFFFFFFFFFFFFFFFF000FFFFFFFFFFFFFFFFFFFFFFFFFFFF
310
FFFFFFFFFFFFFFFFFFFFFFFFFFFFFFFFFFFFFFFFFFFFFFFFFFFFFFFFFFFFFFFF
310
FFFFFFFFFFFFFFFFFFFFFFFFFFFFFFFFFFFFFFFFFFFFFFFFFFFFFFFFFFFFFFFF
310
FFFFFFFFFFFFFFFFF000FFFFFFFFFFFFFFFFFFFFFFFFFFFFFFFFFFFFFFFFFFFF
310
FFFFFFFFFFFFFFFFFFFFFFFFFFFFFFFFFFFFFFFFFFFFFFFFFFFFFFFFFFFFFFFF
310
FFFFFFFFFFFFFFFFFFFFFFFFFFFFFFFFFFFFFFFFFFFFFFFFFFFFFFFFFFFFFFFF
310
F000FFFFFFFFFFFFFFFFFFFFFFFFFFFFFFFFFFFFFFFFFFFFFFFFFFFFFFFFFFFF
310
FFFFFFFFFFFFFFFFFFFFFFFFFFFFFFFFFFFFFFFFFFFFFFFFFFFFFFFFFFFFFFFF
310
FFFFFFFFFFFFFFFFFFFFFFFFFFFFFFFFFFFFFFFFFFFFFFFFF000FFFFFFFFFFFF
310
FFFFFFFFFFFFFFFFFFFFFFFFFFFFFFFFFFFFFFFFFFFFFFFFFFFFFFFFFFFFFFFF
310
FFFFFFFFFFFFFFFFFFFFFFFFFFFFFFFFFFFFFFFFFFFFFFFFFFFFFFFFFFFFFFFF
310
FFFFFFFFFFFFFFFFFFFFFFFFFFFFFFFFF000FFFFFFFFFFFFFFFFFFFFFFFFFFFF
310
FFFFFFFFFFFFFFFFFFFFFFFFFFFFFFFFFFFFFFFFFFFFFFFFFFFFFFFFFFFFFFFF
310
FFFFFFFFFFFFFFFFFFFFFFFFFFFFFFFFFFFFFFFFFFFFFFFFFFFFFFFFFFFFFFFF
310
FFFFFFFFFFFFFFFFF000FFFFFFFFFFFFFFFFFFFFFFFFFFFFFFFFFFFFFFFFFFFF
310
FFFFFFFFFFFFFFFFFFFFFFFFFFFFFFFFFFFFFFFFFFFFFFFFFFFFFFFFFFFFFFFF
310
FFFFFFFFFFFFFFFFFFFFFFFFFFFFFFFFFFFFFFFFFFFFFFFFFFFFFFFFFFFFFFFF
310
F000FFFFFFFFFFFFFFFFFFFFFFFFFFFFFFFFFFFFFFFFFFFFFFFFFFFFFFFFFFFF
310
FFFFFFFFFFFFFFFFFFFFFFFFFFFFFFFFFFFFFFFFFFFFFFFFFFFFFFFFFFFFFFFF
310
FFFFFFFFFFFFFFFFFFFFFFFFFFFFFFFFFFFFFFFFFFFFFFFFF000FFFFFFFFFFFF
310
FFFFFFFFFFFFFFFFFFFFFFFFFFFFFFFFFFFFFFFFFFFFFFFFFFFFFFFFFFFFFFFF
310
FFFFFFFFFFFFFFFFFFFFFFFFFFFFFFFFFFFFFFFFFFFFFFFFFFFFFFFFFFFFFFFF
310
FFFFFFFFFFFFFFFFFFFFFFFFFFFFFFFFF0000000000000000000000000000000
310
0000000000000000000000000000000000000000000000000000000000000000
310
0000000000000000000000000000000000000000000000000000000000000000
310
0000000000000000000000000000000000000000000000000000000000000000
310
0000000000000000000000000000000000000000000000000000000000000000
310
0000000000000000000000000000000000000000000000000000000000000000
310
0000000000000000000000000000000000000000000000000000000000000000
310
0000000000000000000000000000000000000000000000000000000000000000
310
0000000000000000000000000000000000000000000000000000000000000000
310
0000000000000000000000000000000000000000000000000000000000000000
310
0000000000000000000000000000000000000000000000000000000000000000
310
0000000000000000000000000000000000000000000000000000000000000000
310
0000000000000000000000000000000000000000000000000000000000000000
310
0000000000000000000000000000000000000000000000000000000000000000
310
0000000000000000000000000000000000000000000000000000000000000000
310
0000000000000000000000000000000000000000000000000000000000000000
  1
OLE
  0
ENDSEC
  0
SECTION
  2
OBJECTS
  0
DICTIONARY
  5
C
330
0
100
AcDbDictionary
281
     1
  3
ACAD_GROUP
350
D
  3
ACAD_LAYOUT
350
1A
  3
ACAD_MLINESTYLE
350
17
  3
ACAD_PLOTSETTINGS
350
19
  3
ACAD_PLOTSTYLENAME
350
E
  3
ACAD_SCALELIST
350
47
  0
DICTIONARY
  5
D
102
{ACAD_REACTORS
330
C
102
}
330
C
100
AcDbDictionary
281
     1
  0
DICTIONARY
  5
1A
102
{ACAD_REACTORS
330
C
102
}
330
C
100
AcDbDictionary
281
     1
  3
Layout1
350
1E
  3
Layout2
350
26
  3
Model
350
22
  0
DICTIONARY
  5
17
102
{ACAD_REACTORS
330
C
102
}
330
C
100
AcDbDictionary
281
     1
  3
Standard
350
18
  0
DICTIONARY
  5
19
102
{ACAD_REACTORS
330
C
102
}
330
C
100
AcDbDictionary
281
     1
  0
ACDBDICTIONARYWDFLT
  5
E
102
{ACAD_REACTORS
330
C
102
}
330
C
100
AcDbDictionary
281
     1
  3
Normal
350
F
100
AcDbDictionaryWithDefault
340
F
  0
DICTIONARY
  5
47
102
{ACAD_REACTORS
330
C
102
}
330
C
100
AcDbDictionary
281
     1
  3
A0
350
48
  3
A1
350
49
  3
A2
350
4A
  3
A3
350
4B
  3
A4
350
4C
  3
A5
350
4D
  3
A6
350
4E
  3
A7
350
4F
  3
A8
350
50
  3
A9
350
51
  3
B0
350
52
  3
B1
350
53
  3
B2
350
54
  3
B3
350
55
  3
B4
350
56
  3
B5
350
57
  3
B6
350
58
  3
B7
350
59
  3
B8
350
5A
  3
B9
350
5B
  3
C0
350
5C
  3
C1
350
5D
  3
C2
350
5E
  3
C3
350
5F
  3
C4
350
60
  3
C5
350
61
  3
C6
350
62
  3
C7
350
63
  3
C8
350
64
  3
C9
350
65
  3
D0
350
66
  3
D1
350
67
  3
D2
350
68
  0
LAYOUT
  5
1E
102
{ACAD_REACTORS
330
1A
102
}
330
1A
100
AcDbPlotSettings
  1

  2
none_device
  4

  6

 40
0.0
 41
0.0
 42
0.0
 43
0.0
 44
0.0
 45
0.0
 46
0.0
 47
0.0
 48
0.0
 49
0.0
140
0.0
141
0.0
142
1.0
143
1.0
 70
   688
 72
     1
 73
     0
 74
     5
  7

 75
    16
147
1.0
148
0.0
149
0.0
100
AcDbLayout
  1
Layout1
 70
     1
 71
     1
 10
0.0
 20
0.0
 11
420.0
 21
297.0
 12
0.0
 22
0.0
 32
0.0
 14
1.0000000000E+20
 24
1.0000000000E+20
 34
1.0000000000E+20
 15
-1.0000000000E+20
 25
-1.0000000000E+20
 35
-1.0000000000E+20
146
0.0
 13
0.0
 23
0.0
 33
0.0
 16
1.0
 26
0.0
 36
0.0
 17
0.0
 27
1.0
 37
0.0
 76
     0
330
1B
  0
LAYOUT
  5
26
102
{ACAD_REACTORS
330
1A
102
}
330
1A
100
AcDbPlotSettings
  1

  2
none_device
  4

  6

 40
0.0
 41
0.0
 42
0.0
 43
0.0
 44
0.0
 45
0.0
 46
0.0
 47
0.0
 48
0.0
 49
0.0
140
0.0
141
0.0
142
1.0
143
1.0
 70
   688
 72
     1
 73
     0
 74
     5
  7

 75
    16
147
1.0
148
0.0
149
0.0
100
AcDbLayout
  1
Layout2
 70
     1
 71
     2
 10
0.0
 20
0.0
 11
0.0
 21
0.0
 12
0.0
 22
0.0
 32
0.0
 14
0.0
 24
0.0
 34
0.0
 15
0.0
 25
0.0
 35
0.0
146
0.0
 13
0.0
 23
0.0
 33
0.0
 16
1.0
 26
0.0
 36
0.0
 17
0.0
 27
1.0
 37
0.0
 76
     0
330
23
  0
LAYOUT
  5
22
102
{ACAD_REACTORS
330
1A
102
}
330
1A
100
AcDbPlotSettings
  1

  2
none_device
  4
Letter_(8.50_x_11.00_Inches)
  6

 40
6.35
 41
6.35
 42
6.35000508
 43
6.35000508
 44
215.9
 45
279.4
 46
0.0
 47
0.0
 48
0.0
 49
0.0
140
0.0
141
0.0
142
1.0
143
1.0
 70
  1712
 72
     1
 73
     0
 74
     0
  7

 75
     0
147
1.0
148
0.0
149
0.0
100
AcDbLayout
  1
Model
 70
     1
 71
     0
 10
0.0
 20
0.0
 11
297.0
 21
210.0
 12
0.0
 22
0.0
 32
0.0
 14
0.0
 24
0.0
 34
0.0
 15
297.0
 25
210.0
 35
0.0
146
0.0
 13
0.0
 23
0.0
 33
0.0
 16
1.0
 26
0.0
 36
0.0
 17
0.0
 27
1.0
 37
0.0
 76
     0
330
1F
331
29
  0
MLINESTYLE
  5
18
102
{ACAD_REACTORS
330
17
102
}
330
17
100
AcDbMlineStyle
  2
Standard
 70
     0
  3

 62
   256
 51
90.0
 52
90.0
 71
     2
 49
0.5
 62
   256
  6
BYLAYER
 49
-0.5
 62
   256
  6
BYLAYER
  0
ACDBPLACEHOLDER
  5
F
102
{ACAD_REACTORS
330
E
102
}
330
E
  0
SCALE
  5
48
102
{ACAD_REACTORS
330
47
102
}
330
47
100
AcDbScale
 70
     0
300
1:1
140
1.0
141
1.0
290
     1
  0
SCALE
  5
49
102
{ACAD_REACTORS
330
47
102
}
330
47
100
AcDbScale
 70
     0
300
1:2
140
1.0
141
2.0
290
     0
  0
SCALE
  5
4A
102
{ACAD_REACTORS
330
47
102
}
330
47
100
AcDbScale
 70
     0
300
1:4
140
1.0
141
4.0
290
     0
  0
SCALE
  5
4B
102
{ACAD_REACTORS
330
47
102
}
330
47
100
AcDbScale
 70
     0
300
1:5
140
1.0
141
5.0
290
     0
  0
SCALE
  5
4C
102
{ACAD_REACTORS
330
47
102
}
330
47
100
AcDbScale
 70
     0
300
1:8
140
1.0
141
8.0
290
     0
  0
SCALE
  5
4D
102
{ACAD_REACTORS
330
47
102
}
330
47
100
AcDbScale
 70
     0
300
1:10
140
1.0
141
10.0
290
     0
  0
SCALE
  5
4E
102
{ACAD_REACTORS
330
47
102
}
330
47
100
AcDbScale
 70
     0
300
1:16
140
1.0
141
16.0
290
     0
  0
SCALE
  5
4F
102
{ACAD_REACTORS
330
47
102
}
330
47
100
AcDbScale
 70
     0
300
1:20
140
1.0
141
20.0
290
     0
  0
SCALE
  5
50
102
{ACAD_REACTORS
330
47
102
}
330
47
100
AcDbScale
 70
     0
300
1:30
140
1.0
141
30.0
290
     0
  0
SCALE
  5
51
102
{ACAD_REACTORS
330
47
102
}
330
47
100
AcDbScale
 70
     0
300
1:40
140
1.0
141
40.0
290
     0
  0
SCALE
  5
52
102
{ACAD_REACTORS
330
47
102
}
330
47
100
AcDbScale
 70
     0
300
1:50
140
1.0
141
50.0
290
     0
  0
SCALE
  5
53
102
{ACAD_REACTORS
330
47
102
}
330
47
100
AcDbScale
 70
     0
300
1:100
140
1.0
141
100.0
290
     0
  0
SCALE
  5
54
102
{ACAD_REACTORS
330
47
102
}
330
47
100
AcDbScale
 70
     0
300
2:1
140
2.0
141
1.0
290
     0
  0
SCALE
  5
55
102
{ACAD_REACTORS
330
47
102
}
330
47
100
AcDbScale
 70
     0
300
4:1
140
4.0
141
1.0
290
     0
  0
SCALE
  5
56
102
{ACAD_REACTORS
330
47
102
}
330
47
100
AcDbScale
 70
     0
300
8:1
140
8.0
141
1.0
290
     0
  0
SCALE
  5
57
102
{ACAD_REACTORS
330
47
102
}
330
47
100
AcDbScale
 70
     0
300
10:1
140
10.0
141
1.0
290
     0
  0
SCALE
  5
58
102
{ACAD_REACTORS
330
47
102
}
330
47
100
AcDbScale
 70
     0
300
100:1
140
100.0
141
1.0
290
     0
  0
SCALE
  5
59
102
{ACAD_REACTORS
330
47
102
}
330
47
100
AcDbScale
 70
     0
300
1/128" = 1'-0"
140
0.0078125
141
12.0
290
     0
  0
SCALE
  5
5A
102
{ACAD_REACTORS
330
47
102
}
330
47
100
AcDbScale
 70
     0
300
1/64" = 1'-0"
140
0.015625
141
12.0
290
     0
  0
SCALE
  5
5B
102
{ACAD_REACTORS
330
47
102
}
330
47
100
AcDbScale
 70
     0
300
1/32" = 1'-0"
140
0.03125
141
12.0
290
     0
  0
SCALE
  5
5C
102
{ACAD_REACTORS
330
47
102
}
330
47
100
AcDbScale
 70
     0
300
1/16" = 1'-0"
140
0.0625
141
12.0
290
     0
  0
SCALE
  5
5D
102
{ACAD_REACTORS
330
47
102
}
330
47
100
AcDbScale
 70
     0
300
3/32" = 1'-0"
140
0.09375
141
12.0
290
     0
  0
SCALE
  5
5E
102
{ACAD_REACTORS
330
47
102
}
330
47
100
AcDbScale
 70
     0
300
1/8" = 1'-0"
140
0.125
141
12.0
290
     0
  0
SCALE
  5
5F
102
{ACAD_REACTORS
330
47
102
}
330
47
100
AcDbScale
 70
     0
300
3/16" = 1'-0"
140
0.1875
141
12.0
290
     0
  0
SCALE
  5
60
102
{ACAD_REACTORS
330
47
102
}
330
47
100
AcDbScale
 70
     0
300
1/4" = 1'-0"
140
0.25
141
12.0
290
     0
  0
SCALE
  5
61
102
{ACAD_REACTORS
330
47
102
}
330
47
100
AcDbScale
 70
     0
300
3/8" = 1'-0"
140
0.375
141
12.0
290
     0
  0
SCALE
  5
62
102
{ACAD_REACTORS
330
47
102
}
330
47
100
AcDbScale
 70
     0
300
1/2" = 1'-0"
140
0.5
141
12.0
290
     0
  0
SCALE
  5
63
102
{ACAD_REACTORS
330
47
102
}
330
47
100
AcDbScale
 70
     0
300
3/4" = 1'-0"
140
0.75
141
12.0
290
     0
  0
SCALE
  5
64
102
{ACAD_REACTORS
330
47
102
}
330
47
100
AcDbScale
 70
     0
300
1" = 1'-0"
140
1.0
141
12.0
290
     0
  0
SCALE
  5
65
102
{ACAD_REACTORS
330
47
102
}
330
47
100
AcDbScale
 70
     0
300
1-1/2" = 1'-0"
140
1.5
141
12.0
290
     0
  0
SCALE
  5
66
102
{ACAD_REACTORS
330
47
102
}
330
47
100
AcDbScale
 70
     0
300
3" = 1'-0"
140
3.0
141
12.0
290
     0
  0
SCALE
  5
67
102
{ACAD_REACTORS
330
47
102
}
330
47
100
AcDbScale
 70
     0
300
6" = 1'-0"
140
6.0
141
12.0
290
     0
  0
SCALE
  5
68
102
{ACAD_REACTORS
330
47
102
}
330
47
100
AcDbScale
 70
     0
300
1'-0" = 1'-0"
140
12.0
141
12.0
290
     0
  0
ENDSEC
  0
EOF
