  0
SECTION
  2
HEADER
  9
$ACADVER
  1
AC1015
  9
$ACADMAINTVER
 70
     6
  9
$DWGCODEPAGE
  3
ANSI_1252
  9
$INSBASE
 10
0.0
 20
0.0
 30
0.0
  9
$EXTMIN
 10
0.0
 20
0.0
 30
0.0
  9
$EXTMAX
 10
297.0
 20
210.0
 30
0.0
  9
$LIMMIN
 10
0.0
 20
0.0
  9
$LIMMAX
 10
297.0
 20
210.0
  9
$ORTHOMODE
 70
     0
  9
$REGENMODE
 70
     1
  9
$FILLMODE
 70
     1
  9
$QTEXTMODE
 70
     0
  9
$MIRRTEXT
 70
     1
  9
$LTSCALE
 40
1.0
  9
$ATTMODE
 70
     1
  9
$TEXTSIZE
 40
2.0
  9
$TRACEWID
 40
1.0
  9
$TEXTSTYLE
  7
Standard
  9
$CLAYER
  8
0
  9
$CELTYPE
  6
ByLayer
  9
$CECOLOR
 62
   256
  9
$CELTSCALE
 40
1.0
  9
$DISPSILH
 70
     0
  9
$DIMSCALE
 40
1.0
  9
$DIMASZ
 40
3.0
  9
$DIMEXO
 40
0.0
  9
$DIMDLI
 40
3.75
  9
$DIMRND
 40
0.0
  9
$DIMDLE
 40
0.0
  9
$DIMEXE
 40
1.0
  9
$DIMTP
 40
0.0
  9
$DIMTM
 40
0.0
  9
$DIMTXT
 40
2.0
  9
$DIMCEN
 40
2.5
  9
$DIMTSZ
 40
0.0
  9
$DIMTOL
 70
     0
  9
$DIMLIM
 70
     0
  9
$DIMTIH
 70
     1
  9
$DIMTOH
 70
     1
  9
$DIMSE1
 70
     0
  9
$DIMSE2
 70
     0
  9
$DIMTAD
 70
     1
  9
$DIMZIN
 70
     0
  9
$DIMBLK
  1

  9
$DIMASO
 70
     1
  9
$DIMSHO
 70
     1
  9
$DIMPOST
  1

  9
$DIMAPOST
  1

  9
$DIMALT
 70
     0
  9
$DIMALTD
 70
     3
  9
$DIMALTF
 40
0.0393700787
  9
$DIMLFAC
 40
1.0
  9
$DIMTOFL
 70
     1
  9
$DIMTVP
 40
0.0
  9
$DIMTIX
 70
     0
  9
$DIMSOXD
 70
     0
  9
$DIMSAH
 70
     0
  9
$DIMBLK1
  1

  9
$DIMBLK2
  1

  9
$DIMSTYLE
  2
ISO-25
  9
$DIMCLRD
 70
     0
  9
$DIMCLRE
 70
     0
  9
$DIMCLRT
 70
     0
  9
$DIMTFAC
 40
1.0
  9
$DIMGAP
 40
1.524
  9
$DIMJUST
 70
     0
  9
$DIMSD1
 70
     0
  9
$DIMSD2
 70
     0
  9
$DIMTOLJ
 70
     0
  9
$DIMTZIN
 70
     0
  9
$DIMALTZ
 70
     0
  9
$DIMALTTZ
 70
     0
  9
$DIMUPT
 70
     0
  9
$DIMDEC
 70
     2
  9
$DIMTDEC
 70
     3
  9
$DIMALTU
 70
     2
  9
$DIMALTTD
 70
     3
  9
$DIMTXSTY
  7
Standard
  9
$DIMAUNIT
 70
     0
  9
$DIMADEC
 70
     2
  9
$DIMALTRND
 40
0.0
  9
$DIMAZIN
 70
     0
  9
$DIMDSEP
 70
    44
  9
$DIMATFIT
 70
     3
  9
$DIMFRAC
 70
     0
  9
$DIMLDRBLK
  1

  9
$DIMLUNIT
 70
     2
  9
$DIMLWD
 70
    -2
  9
$DIMLWE
 70
    -2
  9
$DIMTMOVE
 70
     0
  9
$LUNITS
 70
     2
  9
$LUPREC
 70
     2
  9
$SKETCHINC
 40
1.0
  9
$FILLETRAD
 40
10.0
  9
$AUNITS
 70
     0
  9
$AUPREC
 70
     2
  9
$MENU
  1
.
  9
$ELEVATION
 40
0.0
  9
$PELEVATION
 40
0.0
  9
$THICKNESS
 40
0.0
  9
$LIMCHECK
 70
     0
  9
$CHAMFERA
 40
0.0
  9
$CHAMFERB
 40
0.0
  9
$CHAMFERC
 40
0.0
  9
$CHAMFERD
 40
0.0
  9
$SKPOLY
 70
     0
  9
$TDCREATE
 40
2457669.617604618
  9
$TDUCREATE
 40
2457669.534271285
  9
$TDUPDATE
 40
2457669.617605833
  9
$TDUUPDATE
 40
2457669.5342725
  9
$TDINDWG
 40
0.0000000116
  9
$TDUSRTIMER
 40
0.0000000116
  9
$USRTIMER
 70
     1
  9
$ANGBASE
 50
0.0
  9
$ANGDIR
 70
     0
  9
$PDMODE
 70
     0
  9
$PDSIZE
 40
-1.0
  9
$PLINEWID
 40
0.0
  9
$SPLFRAME
 70
     0
  9
$SPLINETYPE
 70
     6
  9
$SPLINESEGS
 70
     8
  9
$HANDSEED
  5
1ED
  9
$SURFTAB1
 70
     6
  9
$SURFTAB2
 70
     6
  9
$SURFTYPE
 70
     6
  9
$SURFU
 70
     6
  9
$SURFV
 70
     6
  9
$UCSBASE
  2

  9
$UCSNAME
  2

  9
$UCSORG
 10
0.0
 20
0.0
 30
0.0
  9
$UCSXDIR
 10
1.0
 20
0.0
 30
0.0
  9
$UCSYDIR
 10
0.0
 20
1.0
 30
0.0
  9
$UCSORTHOREF
  2

  9
$UCSORTHOVIEW
 70
     0
  9
$UCSORGTOP
 10
0.0
 20
0.0
 30
0.0
  9
$UCSORGBOTTOM
 10
0.0
 20
0.0
 30
0.0
  9
$UCSORGLEFT
 10
0.0
 20
0.0
 30
0.0
  9
$UCSORGRIGHT
 10
0.0
 20
0.0
 30
0.0
  9
$UCSORGFRONT
 10
0.0
 20
0.0
 30
0.0
  9
$UCSORGBACK
 10
0.0
 20
0.0
 30
0.0
  9
$PUCSBASE
  2

  9
$PUCSNAME
  2

  9
$PUCSORG
 10
0.0
 20
0.0
 30
0.0
  9
$PUCSXDIR
 10
1.0
 20
0.0
 30
0.0
  9
$PUCSYDIR
 10
0.0
 20
1.0
 30
0.0
  9
$PUCSORTHOREF
  2

  9
$PUCSORTHOVIEW
 70
     0
  9
$PUCSORGTOP
 10
0.0
 20
0.0
 30
0.0
  9
$PUCSORGBOTTOM
 10
0.0
 20
0.0
 30
0.0
  9
$PUCSORGLEFT
 10
0.0
 20
0.0
 30
0.0
  9
$PUCSORGRIGHT
 10
0.0
 20
0.0
 30
0.0
  9
$PUCSORGFRONT
 10
0.0
 20
0.0
 30
0.0
  9
$PUCSORGBACK
 10
0.0
 20
0.0
 30
0.0
  9
$USERI1
 70
     0
  9
$USERI2
 70
     0
  9
$USERI3
 70
     0
  9
$USERI4
 70
     0
  9
$USERI5
 70
     0
  9
$USERR1
 40
0.0
  9
$USERR2
 40
0.0
  9
$USERR3
 40
0.0
  9
$USERR4
 40
0.0
  9
$USERR5
 40
0.0
  9
$WORLDVIEW
 70
     1
  9
$SHADEDGE
 70
     3
  9
$SHADEDIF
 70
    70
  9
$TILEMODE
 70
     1
  9
$MAXACTVP
 70
    64
  9
$PINSBASE
 10
0.0
 20
0.0
 30
0.0
  9
$PLIMCHECK
 70
     0
  9
$PEXTMIN
 10
1.0000000000E+20
 20
1.0000000000E+20
 30
1.0000000000E+20
  9
$PEXTMAX
 10
-1.0000000000E+20
 20
-1.0000000000E+20
 30
-1.0000000000E+20
  9
$PLIMMIN
 10
0.0
 20
0.0
  9
$PLIMMAX
 10
420.0
 20
297.0
  9
$UNITMODE
 70
     0
  9
$VISRETAIN
 70
     1
  9
$PLINEGEN
 70
     0
  9
$PSLTSCALE
 70
     1
  9
$TREEDEPTH
 70
  3020
  9
$CMLSTYLE
  2
Standard
  9
$CMLJUST
 70
     0
  9
$CMLSCALE
 40
20.0
  9
$PROXYGRAPHICS
 70
     1
  9
$MEASUREMENT
 70
     1
  9
$CELWEIGHT
370
    -1
  9
$ENDCAPS
280
     0
  9
$JOINSTYLE
280
     0
  9
$LWDISPLAY
290
     1
  9
$INSUNITS
 70
     4
  9
$HYPERLINKBASE
  1

  9
$STYLESHEET
  1

  9
$XEDIT
290
     1
  9
$CEPSNTYPE
380
     0
  9
$PSTYLEMODE
290
     1
  9
$FINGERPRINTGUID
  2
{226B9A4A-C123-4B49-BCBB-56186472F00F}
  9
$VERSIONGUID
  2
{FAEB1C32-E019-11D5-929B-00C0DF256EC4}
  9
$EXTNAMES
290
     1
  9
$PSVPSCALE
 40
0.0
  9
$OLESTARTUP
290
     0
  0
ENDSEC
  0
SECTION
  2
CLASSES
  0
CLASS
  1
ACDBDICTIONARYWDFLT
  2
AcDbDictionaryWithDefault
  3
ObjectDBX Classes
 90
        0
280
     0
281
     0
  0
CLASS
  1
VISUALSTYLE
  2
AcDbVisualStyle
  3
ObjectDBX Classes
 90
     4095
280
     0
281
     0
  0
CLASS
  1
MATERIAL
  2
AcDbMaterial
  3
ObjectDBX Classes
 90
     1153
280
     0
281
     0
  0
CLASS
  1
SCALE
  2
AcDbScale
  3
ObjectDBX Classes
 90
     1153
280
     0
281
     0
  0
CLASS
  1
TABLESTYLE
  2
AcDbTableStyle
  3
ObjectDBX Classes
 90
     4095
280
     0
281
     0
  0
CLASS
  1
MLEADERSTYLE
  2
AcDbMLeaderStyle
  3
ACDB_MLEADERSTYLE_CLASS
 90
     4095
280
     0
281
     0
  0
CLASS
  1
SUN
  2
AcDbSun
  3
SCENEOE
 90
     1153
280
     0
281
     0
  0
CLASS
  1
ACDBPLACEHOLDER
  2
AcDbPlaceHolder
  3
ObjectDBX Classes
 90
        0
280
     0
281
     0
  0
CLASS
  1
LAYOUT
  2
AcDbLayout
  3
ObjectDBX Classes
 90
        0
280
     0
281
     0
  0
ENDSEC
  0
SECTION
  2
TABLES
  0
TABLE
  2
VPORT
  5
8
330
0
100
AcDbSymbolTable
 70
     1
  0
VPORT
  5
29
330
8
100
AcDbSymbolTableRecord
100
AcDbViewportTableRecord
  2
*Active
 70
     0
 10
0.0
 20
0.0
 11
1.0
 21
1.0
 12
148.5
 22
105.0
 13
0.0
 23
0.0
 14
10.0
 24
10.0
 15
10.0
 25
10.0
 16
0.0
 26
0.0
 36
1.0
 17
0.0
 27
0.0
 37
0.0
 40
210.0
 41
1.4142857143
 42
50.0
 43
0.0
 44
0.0
 50
0.0
 51
0.0
 71
     0
 72
  2000
 73
     1
 74
     3
 75
     0
 76
     0
 77
     0
 78
     0
281
     0
 65
     1
110
0.0
120
0.0
130
0.0
111
1.0
121
0.0
131
0.0
112
0.0
122
1.0
132
0.0
 79
     0
146
0.0
  0
ENDTAB
  0
TABLE
  2
LTYPE
  5
5
330
0
100
AcDbSymbolTable
 70
     6
  0
LTYPE
  5
14
330
5
100
AcDbSymbolTableRecord
100
AcDbLinetypeTableRecord
  2
ByBlock
 70
     0
  3

 72
    65
 73
     0
 40
0.0
  0
LTYPE
  5
15
330
5
100
AcDbSymbolTableRecord
100
AcDbLinetypeTableRecord
  2
ByLayer
 70
     0
  3

 72
    65
 73
     0
 40
0.0
  0
LTYPE
  5
16
330
5
100
AcDbSymbolTableRecord
100
AcDbLinetypeTableRecord
  2
Continuous
 70
     0
  3
Solid line
 72
    65
 73
     0
 40
0.0
  0
LTYPE
  5
6E
330
5
100
AcDbSymbolTableRecord
100
AcDbLinetypeTableRecord
  2
HIDDEN
 70
     0
  3
Hidden __ __ __ __ __ __ __ __ __ __ __ __ __ __
 72
    65
 73
     2
 40
1.905
 49
1.27
 74
     0
 49
-0.635
 74
     0
  0
LTYPE
  5
6F
330
5
100
AcDbSymbolTableRecord
100
AcDbLinetypeTableRecord
  2
PHANTOM
 70
     0
  3
Phantom ______  __  __  ______  __  __  ______
 72
    65
 73
     6
 40
12.7
 49
6.35
 74
     0
 49
-1.27
 74
     0
 49
1.27
 74
     0
 49
-1.27
 74
     0
 49
1.27
 74
     0
 49
-1.27
 74
     0
  0
LTYPE
  5
70
330
5
100
AcDbSymbolTableRecord
100
AcDbLinetypeTableRecord
  2
CENTER
 70
     0
  3
Center ____ _ ____ _ ____ _ ____ _ ____ _ ____
 72
    65
 73
     4
 40
10.16
 49
6.35
 74
     0
 49
-1.27
 74
     0
 49
1.27
 74
     0
 49
-1.27
 74
     0
  0
LTYPE
  5
71
330
5
100
AcDbSymbolTableRecord
100
AcDbLinetypeTableRecord
  2
CENTERX2
 70
     0
  3
Center (2x) ________  __  ________  __  _____
 72
    65
 73
     4
 40
20.32
 49
12.7
 74
     0
 49
-2.54
 74
     0
 49
2.54
 74
     0
 49
-2.54
 74
     0
  0
LTYPE
  5
72
330
5
100
AcDbSymbolTableRecord
100
AcDbLinetypeTableRecord
  2
DOT2
 70
     0
  3
Dot (.5x) ........................................
 72
    65
 73
     2
 40
0.635
 49
0.0
 74
     0
 49
-0.635
 74
     0
  0
ENDTAB
  0
TABLE
  2
LAYER
  5
2
330
0
100
AcDbSymbolTable
 70
     5
  0
LAYER
  5
10
330
2
100
AcDbSymbolTableRecord
100
AcDbLayerTableRecord
  2
0
 70
     0
 62
     7
  6
Continuous
370
    -3
390
F
  0
LAYER
  5
73
330
2
100
AcDbSymbolTableRecord
100
AcDbLayerTableRecord
  2
FORMAT
 70
     0
 62
     7
  6
Continuous
370
    -3
390
F
  0
LAYER
  5
74
330
2
100
AcDbSymbolTableRecord
100
AcDbLayerTableRecord
  2
VERMASSUNG
 70
     0
 62
     7
  6
Continuous
370
    -3
390
F
  0
LAYER
  5
75
330
2
100
AcDbSymbolTableRecord
100
AcDbLayerTableRecord
  2
KOPF_DÜNN
 70
     0
 62
     7
  6
Continuous
370
    -3
390
F
  0
LAYER
  5
76
330
2
100
AcDbSymbolTableRecord
100
AcDbLayerTableRecord
  2
KOPF_DICK
 70
     0
 62
     7
  6
Continuous
370
    15
390
F
  0
ENDTAB
  0
TABLE
  2
STYLE
  5
3
330
0
100
AcDbSymbolTable
 70
     3
  0
STYLE
  5
11
330
3
100
AcDbSymbolTableRecord
100
AcDbTextStyleTableRecord
  2
Standard
 70
     0
 40
0.0
 41
1.0
 50
0.0
 71
     0
 42
2.0
  3
txt
  4

  0
STYLE
  5
77
330
3
100
AcDbSymbolTableRecord
100
AcDbTextStyleTableRecord
  2
SLDTEXTSTYLE0
 70
     0
 40
0.0
 41
0.7
 50
0.0
 71
     0
 42
2.0
  3
TXT
  4

  0
STYLE
  5
7B
330
3
100
AcDbSymbolTableRecord
100
AcDbTextStyleTableRecord
  2
SLDTEXTSTYLE1
 70
     0
 40
0.0
 41
0.6538461538
 50
0.0
 71
     0
 42
2.0
  3
TXT
  4

  0
ENDTAB
  0
TABLE
  2
VIEW
  5
6
330
0
100
AcDbSymbolTable
 70
     0
  0
ENDTAB
  0
TABLE
  2
UCS
  5
7
330
0
100
AcDbSymbolTable
 70
     0
  0
ENDTAB
  0
TABLE
  2
APPID
  5
9
330
0
100
AcDbSymbolTable
 70
     1
  0
APPID
  5
12
330
9
100
AcDbSymbolTableRecord
100
AcDbRegAppTableRecord
  2
ACAD
 70
     0
  0
ENDTAB
  0
TABLE
  2
DIMSTYLE
  5
A
330
0
100
AcDbSymbolTable
 70
     2
100
AcDbDimStyleTable
  0
DIMSTYLE
105
27
330
A
100
AcDbSymbolTableRecord
100
AcDbDimStyleTableRecord
  2
ISO-25
 70
     0
 41
2.5
 42
0.625
 43
3.75
 44
1.25
 73
     0
 74
     0
 77
     1
 78
     8
140
2.5
141
2.5
143
0.0393700787
147
0.625
171
     3
172
     1
178
     0
271
     2
272
     2
274
     3
278
    44
283
     0
284
     8
340
11
  0
DIMSTYLE
105
125
102
{ACAD_REACTORS
330
124
330
130
330
13C
330
148
330
152
330
15E
102
}
330
A
100
AcDbSymbolTableRecord
100
AcDbDimStyleTableRecord
  2
SLDDIMSTYLE0
 70
     0
 41
3.0
 44
0.0
 45
0.000000001
 73
     0
 74
     0
 77
     1
 78
    12
 79
     3
140
2.0
147
0.5
173
     1
178
     0
271
     2
272
     3
276
     2
284
    12
340
77
  0
ENDTAB
  0
TABLE
  2
BLOCK_RECORD
  5
1
330
0
100
AcDbSymbolTable
 70
     7
  0
BLOCK_RECORD
  5
1F
330
1
100
AcDbSymbolTableRecord
100
AcDbBlockTableRecord
  2
*Model_Space
340
22
  0
BLOCK_RECORD
  5
1B
330
1
100
AcDbSymbolTableRecord
100
AcDbBlockTableRecord
  2
*Paper_Space
340
1E
  0
BLOCK_RECORD
  5
23
330
1
100
AcDbSymbolTableRecord
100
AcDbBlockTableRecord
  2
*Paper_Space0
340
26
  0
BLOCK_RECORD
  5
126
330
1
100
AcDbSymbolTableRecord
100
AcDbBlockTableRecord
  2
_D
340
0
  0
BLOCK_RECORD
  5
131
330
1
100
AcDbSymbolTableRecord
100
AcDbBlockTableRecord
  2
_D_1
340
0
  0
BLOCK_RECORD
  5
13D
330
1
100
AcDbSymbolTableRecord
100
AcDbBlockTableRecord
  2
_D_2
340
0
  0
BLOCK_RECORD
  5
149
330
1
100
AcDbSymbolTableRecord
100
AcDbBlockTableRecord
  2
_D_3
340
0
  0
BLOCK_RECORD
  5
153
330
1
100
AcDbSymbolTableRecord
100
AcDbBlockTableRecord
  2
_D_4
340
0
  0
BLOCK_RECORD
  5
15F
330
1
100
AcDbSymbolTableRecord
100
AcDbBlockTableRecord
  2
_D_5
340
0
  0
ENDTAB
  0
ENDSEC
  0
SECTION
  2
BLOCKS
  0
BLOCK
  5
20
330
1F
100
AcDbEntity
  8
0
100
AcDbBlockBegin
  2
*Model_Space
 70
     0
 10
0.0
 20
0.0
 30
0.0
  3
*Model_Space
  1

  0
ENDBLK
  5
21
330
1F
100
AcDbEntity
  8
0
100
AcDbBlockEnd
  0
BLOCK
  5
1C
330
1B
100
AcDbEntity
 67
     1
  8
0
100
AcDbBlockBegin
  2
*Paper_Space
 70
     0
 10
0.0
 20
0.0
 30
0.0
  3
*Paper_Space
  1

  0
ENDBLK
  5
1D
330
1B
100
AcDbEntity
 67
     1
  8
0
100
AcDbBlockEnd
  0
BLOCK
  5
24
330
23
100
AcDbEntity
  8
0
100
AcDbBlockBegin
  2
*Paper_Space0
 70
     0
 10
0.0
 20
0.0
 30
0.0
  3
*Paper_Space0
  1

  0
ENDBLK
  5
25
330
23
100
AcDbEntity
  8
0
100
AcDbBlockEnd
  0
BLOCK
  5
127
330
126
100
AcDbEntity
  8
0
100
AcDbBlockBegin
  2
_D
 70
     0
 10
0.0
 20
0.0
 30
0.0
  3
_D
  1

  0
SOLID
  5
129
330
126
100
AcDbEntity
  8
VERMASSUNG
100
AcDbTrace
 10
244.7578936711
 20
127.9685793166
 30
0.0
 11
244.3078936711
 21
124.9685793166
 31
0.0
 12
245.2078936711
 22
124.9685793166
 32
0.0
 13
245.2078936711
 23
124.9685793166
 33
0.0
  0
SOLID
  5
12A
330
126
100
AcDbEntity
  8
VERMASSUNG
100
AcDbTrace
 10
244.7578936711
 20
91.9685793166
 30
0.0
 11
245.2078936711
 21
94.9685793166
 31
0.0
 12
244.3078936711
 22
94.9685793166
 32
0.0
 13
244.3078936711
 23
94.9685793166
 33
0.0
  0
LINE
  5
12B
330
126
100
AcDbEntity
  8
VERMASSUNG
100
AcDbLine
 10
218.0613484362
 20
127.9685793166
 30
0.0
 11
245.7578936711
 21
127.9685793166
 31
0.0
  0
LINE
  5
12C
330
126
100
AcDbEntity
  8
VERMASSUNG
100
AcDbLine
 10
218.0613484362
 20
91.9685793166
 30
0.0
 11
245.7578936711
 21
91.9685793166
 31
0.0
  0
LINE
  5
12D
330
126
100
AcDbEntity
  8
VERMASSUNG
100
AcDbLine
 10
244.7578936711
 20
127.9685793166
 30
0.0
 11
244.7578936711
 21
91.9685793166
 31
0.0
  0
MTEXT
  5
12E
330
126
100
AcDbEntity
  8
VERMASSUNG
100
AcDbMText
 10
242.1797581333
 20
106.7644032095
 30
0.0
 40
2.0
 41
0.0
 71
     1
 72
     1
  1
%%c
  7
SLDTEXTSTYLE0
 11
-7.044195017643634E-15
 21
1.0
 31
0.0
 73
     1
 44
1.0
  0
MTEXT
  5
12F
330
126
100
AcDbEntity
  8
VERMASSUNG
100
AcDbMText
 10
242.1797580751
 20
110.3733754031
 30
0.0
 40
2.0
 41
0.0
 71
     1
 72
     1
  1
36
  7
SLDTEXTSTYLE0
 11
-7.044195017643634E-15
 21
1.0
 31
0.0
 73
     1
 44
1.0
  0
ENDBLK
  5
128
330
126
100
AcDbEntity
  8
0
100
AcDbBlockEnd
  0
BLOCK
  5
132
330
131
100
AcDbEntity
  8
0
100
AcDbBlockBegin
  2
_D_1
 70
     0
 10
0.0
 20
0.0
 30
0.0
  3
_D_1
  1

  0
SOLID
  5
134
330
131
100
AcDbEntity
  8
VERMASSUNG
100
AcDbTrace
 10
250.7578936711
 20
141.9685793166
 30
0.0
 11
250.3078936711
 21
138.9685793166
 31
0.0
 12
251.2078936711
 22
138.9685793166
 32
0.0
 13
251.2078936711
 23
138.9685793166
 33
0.0
  0
SOLID
  5
135
330
131
100
AcDbEntity
  8
VERMASSUNG
100
AcDbTrace
 10
250.7578936711
 20
77.9685793166
 30
0.0
 11
251.2078936711
 21
80.9685793166
 31
0.0
 12
250.3078936711
 22
80.9685793166
 32
0.0
 13
250.3078936711
 23
80.9685793166
 33
0.0
  0
LINE
  5
136
330
131
100
AcDbEntity
  8
VERMASSUNG
100
AcDbLine
 10
234.0613484363
 20
141.9685793166
 30
0.0
 11
251.7578936711
 21
141.9685793166
 31
0.0
  0
LINE
  5
137
330
131
100
AcDbEntity
  8
VERMASSUNG
100
AcDbLine
 10
234.0613484363
 20
77.9685793166
 30
0.0
 11
251.7578936711
 21
77.9685793166
 31
0.0
  0
LINE
  5
138
330
131
100
AcDbEntity
  8
VERMASSUNG
100
AcDbLine
 10
250.7578936711
 20
141.9685793166
 30
0.0
 11
250.7578936711
 21
77.9685793166
 31
0.0
  0
MTEXT
  5
139
330
131
100
AcDbEntity
  8
VERMASSUNG
100
AcDbMText
 10
247.9797584148
 20
103.7653826122
 30
0.0
 40
2.0
 41
0.0
 71
     1
 72
     1
  1
ST6
  7
SLDTEXTSTYLE0
 11
-7.044195017643634E-15
 21
1.0
 31
0.0
 73
     1
 44
1.0
  0
MTEXT
  5
13A
330
131
100
AcDbEntity
  8
VERMASSUNG
100
AcDbMText
 10
248.1797583661
 20
109.5653825384
 30
0.0
 40
2.0
 41
0.0
 71
     1
 72
     1
  1
%%c
  7
SLDTEXTSTYLE0
 11
-7.044195017643634E-15
 21
1.0
 31
0.0
 73
     1
 44
1.0
  0
MTEXT
  5
13B
330
131
100
AcDbEntity
  8
VERMASSUNG
100
AcDbMText
 10
248.1797580751
 20
113.1738584103
 30
0.0
 40
2.0
 41
0.0
 71
     1
 72
     1
  1
64
  7
SLDTEXTSTYLE0
 11
-7.044195017643634E-15
 21
1.0
 31
0.0
 73
     1
 44
1.0
  0
ENDBLK
  5
133
330
131
100
AcDbEntity
  8
0
100
AcDbBlockEnd
  0
BLOCK
  5
13E
330
13D
100
AcDbEntity
  8
0
100
AcDbBlockBegin
  2
_D_2
 70
     0
 10
0.0
 20
0.0
 30
0.0
  3
_D_2
  1

  0
ARC
  5
140
330
13D
100
AcDbEntity
  8
VERMASSUNG
100
AcDbCircle
 10
218.3735755218
 20
166.9831666946
 30
0.0
 40
4.247059938537323
100
AcDbArc
 50
153.4349488229
 51
206.5650511771
  0
ARC
  5
141
330
13D
100
AcDbEntity
  8
VERMASSUNG
100
AcDbCircle
 10
216.9491213508
 20
166.9831666946
 30
0.0
 40
4.247059938537348
100
AcDbArc
 50
333.4349488229
 51
26.5650511771
  0
SOLID
  5
142
330
13D
100
AcDbEntity
  8
VERMASSUNG
100
AcDbTrace
 10
200.6613484363
 20
165.0838237491
 30
0.0
 11
203.6613484363
 21
164.6338237491
 31
0.0
 12
203.6613484363
 22
165.5338237491
 32
0.0
 13
203.6613484363
 23
165.5338237491
 33
0.0
  0
SOLID
  5
143
330
13D
100
AcDbEntity
  8
VERMASSUNG
100
AcDbTrace
 10
234.6613484363
 20
165.0838237491
 30
0.0
 11
231.6613484363
 21
165.5338237491
 31
0.0
 12
231.6613484363
 22
164.6338237491
 32
0.0
 13
231.6613484363
 23
164.6338237491
 33
0.0
  0
LINE
  5
144
330
13D
100
AcDbEntity
  8
VERMASSUNG
100
AcDbLine
 10
200.6613484363
 20
158.9685793166
 30
0.0
 11
200.6613484363
 21
166.0838237491
 31
0.0
  0
LINE
  5
145
330
13D
100
AcDbEntity
  8
VERMASSUNG
100
AcDbLine
 10
234.6613484363
 20
141.3685793166
 30
0.0
 11
234.6613484363
 21
166.0838237491
 31
0.0
  0
LINE
  5
146
330
13D
100
AcDbEntity
  8
VERMASSUNG
100
AcDbLine
 10
200.6613484363
 20
165.0838237491
 30
0.0
 11
234.6613484363
 21
165.0838237491
 31
0.0
  0
MTEXT
  5
147
330
13D
100
AcDbEntity
  8
VERMASSUNG
100
AcDbMText
 10
216.162389631
 20
167.6619593451
 30
0.0
 40
2.0
 41
0.0
 71
     1
 72
     1
  1
34
  7
SLDTEXTSTYLE0
 73
     1
 44
1.0
  0
ENDBLK
  5
13F
330
13D
100
AcDbEntity
  8
0
100
AcDbBlockEnd
  0
BLOCK
  5
14A
330
149
100
AcDbEntity
  8
0
100
AcDbBlockBegin
  2
_D_3
 70
     0
 10
0.0
 20
0.0
 30
0.0
  3
_D_3
  1

  0
SOLID
  5
14C
330
149
100
AcDbEntity
  8
VERMASSUNG
100
AcDbTrace
 10
162.6613484363
 20
171.0838237491
 30
0.0
 11
165.6613484363
 21
170.6338237491
 31
0.0
 12
165.6613484363
 22
171.5338237491
 32
0.0
 13
165.6613484363
 23
171.5338237491
 33
0.0
  0
SOLID
  5
14D
330
149
100
AcDbEntity
  8
VERMASSUNG
100
AcDbTrace
 10
234.6613484363
 20
171.0838237491
 30
0.0
 11
231.6613484363
 21
171.5338237491
 31
0.0
 12
231.6613484363
 22
170.6338237491
 32
0.0
 13
231.6613484363
 23
170.6338237491
 33
0.0
  0
LINE
  5
14E
330
149
100
AcDbEntity
  8
VERMASSUNG
100
AcDbLine
 10
162.6613484363
 20
144.8935793166
 30
0.0
 11
162.6613484363
 21
172.0838237491
 31
0.0
  0
LINE
  5
14F
330
149
100
AcDbEntity
  8
VERMASSUNG
100
AcDbLine
 10
234.6613484363
 20
141.3685793166
 30
0.0
 11
234.6613484363
 21
172.0838237491
 31
0.0
  0
LINE
  5
150
330
149
100
AcDbEntity
  8
VERMASSUNG
100
AcDbLine
 10
162.6613484363
 20
171.0838237491
 30
0.0
 11
234.6613484363
 21
171.0838237491
 31
0.0
  0
MTEXT
  5
151
330
149
100
AcDbEntity
  8
VERMASSUNG
100
AcDbMText
 10
197.261658426
 20
173.6619593451
 30
0.0
 40
2.0
 41
0.0
 71
     1
 72
     1
  1
72
  7
SLDTEXTSTYLE0
 73
     1
 44
1.0
  0
ENDBLK
  5
14B
330
149
100
AcDbEntity
  8
0
100
AcDbBlockEnd
  0
BLOCK
  5
154
330
153
100
AcDbEntity
  8
0
100
AcDbBlockBegin
  2
_D_4
 70
     0
 10
0.0
 20
0.0
 30
0.0
  3
_D_4
  1

  0
ARC
  5
156
330
153
100
AcDbEntity
  8
VERMASSUNG
100
AcDbCircle
 10
147.0727825249
 20
178.9831666946
 30
0.0
 40
4.247059938537284
100
AcDbArc
 50
153.4349488229
 51
206.5650511771
  0
ARC
  5
157
330
153
100
AcDbEntity
  8
VERMASSUNG
100
AcDbCircle
 10
148.4499143478
 20
178.9831666946
 30
0.0
 40
4.247059938537284
100
AcDbArc
 50
333.4349488229
 51
26.5650511771
  0
SOLID
  5
158
330
153
100
AcDbEntity
  8
VERMASSUNG
100
AcDbTrace
 10
60.8613484363
 20
177.0838237491
 30
0.0
 11
63.8613484363
 21
176.6338237491
 31
0.0
 12
63.8613484363
 22
177.5338237491
 32
0.0
 13
63.8613484363
 23
177.5338237491
 33
0.0
  0
SOLID
  5
159
330
153
100
AcDbEntity
  8
VERMASSUNG
100
AcDbTrace
 10
234.6613484363
 20
177.0838237491
 30
0.0
 11
231.6613484363
 21
177.5338237491
 31
0.0
 12
231.6613484363
 22
176.6338237491
 32
0.0
 13
231.6613484363
 23
176.6338237491
 33
0.0
  0
LINE
  5
15A
330
153
100
AcDbEntity
  8
VERMASSUNG
100
AcDbLine
 10
60.8613484363
 20
128.3182571773
 30
0.0
 11
60.8613484363
 21
178.0838237491
 31
0.0
  0
LINE
  5
15B
330
153
100
AcDbEntity
  8
VERMASSUNG
100
AcDbLine
 10
234.6613484363
 20
141.3685793166
 30
0.0
 11
234.6613484363
 21
178.0838237491
 31
0.0
  0
LINE
  5
15C
330
153
100
AcDbEntity
  8
VERMASSUNG
100
AcDbLine
 10
60.8613484363
 20
177.0838237491
 30
0.0
 11
234.6613484363
 21
177.0838237491
 31
0.0
  0
MTEXT
  5
15D
330
153
100
AcDbEntity
  8
VERMASSUNG
100
AcDbMText
 10
144.8615966341
 20
179.6619593451
 30
0.0
 40
2.0
 41
0.0
 71
     1
 72
     1
  1
173.8
  7
SLDTEXTSTYLE0
 73
     1
 44
1.0
  0
ENDBLK
  5
155
330
153
100
AcDbEntity
  8
0
100
AcDbBlockEnd
  0
BLOCK
  5
160
330
15F
100
AcDbEntity
  8
0
100
AcDbBlockBegin
  2
_D_5
 70
     0
 10
0.0
 20
0.0
 30
0.0
  3
_D_5
  1

  0
SOLID
  5
162
330
15F
100
AcDbEntity
  8
VERMASSUNG
100
AcDbTrace
 10
54.616193001
 20
159.9685793166
 30
0.0
 11
54.166193001
 21
156.9685793166
 31
0.0
 12
55.066193001
 22
156.9685793166
 32
0.0
 13
55.066193001
 23
156.9685793166
 33
0.0
  0
SOLID
  5
163
330
15F
100
AcDbEntity
  8
VERMASSUNG
100
AcDbTrace
 10
54.616193001
 20
59.9685793166
 30
0.0
 11
55.066193001
 21
62.9685793166
 31
0.0
 12
54.166193001
 22
62.9685793166
 32
0.0
 13
54.166193001
 23
62.9685793166
 33
0.0
  0
LINE
  5
164
330
15F
100
AcDbEntity
  8
VERMASSUNG
100
AcDbLine
 10
196.6613503448
 20
159.9685793166
 30
0.0
 11
53.616193001
 21
159.9685793166
 31
0.0
  0
LINE
  5
165
330
15F
100
AcDbEntity
  8
VERMASSUNG
100
AcDbLine
 10
196.6613504984
 20
59.9685793166
 30
0.0
 11
53.616193001
 21
59.9685793166
 31
0.0
  0
LINE
  5
166
330
15F
100
AcDbEntity
  8
VERMASSUNG
100
AcDbLine
 10
54.616193001
 20
159.9685793166
 30
0.0
 11
54.616193001
 21
59.9685793166
 31
0.0
  0
MTEXT
  5
167
330
15F
100
AcDbEntity
  8
VERMASSUNG
100
AcDbMText
 10
51.8380577448
 20
98.8648130962
 30
0.0
 40
2.0
 41
0.0
 71
     1
 72
     1
  1
MAS BT 50
  7
SLDTEXTSTYLE0
 11
-7.044195017643634E-15
 21
1.0
 31
0.0
 73
     1
 44
1.0
  0
MTEXT
  5
168
330
15F
100
AcDbEntity
  8
VERMASSUNG
100
AcDbMText
 10
52.0380576961
 20
113.6648131007
 30
0.0
 40
2.0
 41
0.0
 71
     1
 72
     1
  1
%%c
  7
SLDTEXTSTYLE0
 11
-7.044195017643634E-15
 21
1.0
 31
0.0
 73
     1
 44
1.0
  0
MTEXT
  5
169
330
15F
100
AcDbEntity
  8
VERMASSUNG
100
AcDbMText
 10
52.038057405
 20
117.2736596461
 30
0.0
 40
2.0
 41
0.0
 71
     1
 72
     1
  1
100
  7
SLDTEXTSTYLE0
 11
-7.044195017643634E-15
 21
1.0
 31
0.0
 73
     1
 44
1.0
  0
ENDBLK
  5
161
330
15F
100
AcDbEntity
  8
0
100
AcDbBlockEnd
  0
ENDSEC
  0
SECTION
  2
ENTITIES
  0
MTEXT
  5
78
330
1F
100
AcDbEntity
  8
KOPF_DÜNN
100
AcDbMText
 10
13.8892156294
 20
23.8442973028
 30
0.0
 40
3.0
 41
0.0
 71
     1
 72
     1
  1
134.550.064.072
  7
SLDTEXTSTYLE0
 73
     1
 44
1.0
  0
MTEXT
  5
79
330
1F
100
AcDbEntity
  8
VERMASSUNG
100
AcDbMText
 10
13.9329988022
 20
28.8834360957
 30
0.0
 40
3.0
 41
0.0
 71
     1
 72
     1
  1
Aufnahme_Master shank ST6+
  7
SLDTEXTSTYLE0
 73
     1
 44
1.0
  0
MTEXT
  5
7A
330
1F
100
AcDbEntity
  8
VERMASSUNG
100
AcDbMText
 10
98.8601118557
 20
13.8365368761
 30
0.0
 40
2.0
 41
0.0
 71
     1
 72
     1
  1
Datum: 06.06.2008
  7
SLDTEXTSTYLE0
 73
     1
 44
1.0
  0
MTEXT
  5
7C
330
1F
100
AcDbEntity
  8
VERMASSUNG
100
AcDbMText
 10
13.933048693
 20
18.0482802738
 30
0.0
 40
2.0
 41
0.0
 71
     1
 72
     1
  1
MAS BT 50 A/D
  7
SLDTEXTSTYLE1
 73
     1
 44
1.0
  0
MTEXT
  5
7D
330
1F
100
AcDbEntity
  8
VERMASSUNG
100
AcDbMText
 10
13.9808475933
 20
13.9090974274
 30
0.0
 40
2.0
 41
0.0
 71
     1
 72
     1
  1
Gewicht: 3934g
  7
SLDTEXTSTYLE0
 73
     1
 44
1.0
  0
LINE
  5
7E
330
1F
100
AcDbEntity
  8
0
  6
Continuous
 62
     7
370
    15
100
AcDbLine
 10
196.6610612096
 20
59.9685793166
 30
0.0
 11
199.6613484363
 21
59.9685793166
 31
0.0
  0
LINE
  5
7F
330
1F
100
AcDbEntity
  8
0
  6
Continuous
 62
     7
370
    15
100
AcDbLine
 10
199.6613484363
 20
159.9685793166
 30
0.0
 11
196.6609142554
 21
159.9685793166
 31
0.0
  0
ARC
  5
80
330
1F
100
AcDbEntity
  8
0
  6
Continuous
 62
     7
370
    15
100
AcDbCircle
 10
199.6613484363
 20
60.9685793166
 30
0.0
 40
1.0
100
AcDbArc
 50
270.0
 51
0.0
  0
ARC
  5
81
330
1F
100
AcDbEntity
  8
0
  6
Continuous
 62
     7
370
    15
100
AcDbCircle
 10
199.6613484363
 20
158.9685793166
 30
0.0
 40
1.0
100
AcDbArc
 50
0.0
 51
90.0
  0
ARC
  5
82
330
1F
100
AcDbEntity
  8
0
  6
Continuous
 62
     7
370
    15
100
AcDbCircle
 10
204.6613484363
 20
73.9685793166
 30
0.0
 40
4.0
100
AcDbArc
 50
90.0
 51
180.0
  0
ARC
  5
83
330
1F
100
AcDbEntity
  8
0
  6
Continuous
 62
     7
370
    15
100
AcDbCircle
 10
204.6613484363
 20
145.9685793166
 30
0.0
 40
4.000000000000028
100
AcDbArc
 50
180.0
 51
270.0
  0
ARC
  5
84
330
1F
100
AcDbEntity
  8
0
  6
Continuous
 62
     7
370
    15
100
AcDbCircle
 10
164.6613484363
 20
74.0435793166
 30
0.0
 40
1.0
100
AcDbArc
 50
38.7226389445
 51
90.0
  0
ARC
  5
85
330
1F
100
AcDbEntity
  8
0
  6
Continuous
 62
     7
370
    15
100
AcDbCircle
 10
164.6613484363
 20
145.8935793166
 30
0.0
 40
1.0
100
AcDbArc
 50
270.0
 51
321.2884428123
  0
LINE
  5
86
330
1F
100
AcDbEntity
  8
0
  6
Continuous
 62
     7
370
    15
100
AcDbLine
 10
162.6613484363
 20
144.8935793166
 30
0.0
 11
62.5727346502
 21
130.2973231394
 31
0.0
  0
LINE
  5
87
330
1F
100
AcDbEntity
  8
0
  6
Continuous
 62
     7
370
    15
100
AcDbLine
 10
62.5727346502
 20
89.6398354937
 30
0.0
 11
162.6613484363
 21
75.0435793166
 31
0.0
  0
LINE
  5
88
330
1F
100
AcDbEntity
  8
0
  6
Continuous
 62
     7
370
    15
100
AcDbLine
 10
162.6613484363
 20
75.0435793166
 30
0.0
 11
164.6613484363
 21
75.0435793166
 31
0.0
  0
LINE
  5
89
330
1F
100
AcDbEntity
  8
0
  6
Continuous
 62
     7
370
    15
100
AcDbLine
 10
164.6613484363
 20
144.8935793166
 30
0.0
 11
162.6613484363
 21
144.8935793166
 31
0.0
  0
LINE
  5
8A
330
1F
100
AcDbEntity
  8
0
  6
Continuous
 62
     7
370
    15
100
AcDbLine
 10
234.0613484363
 20
141.9685793166
 30
0.0
 11
204.6613484363
 21
141.9685793166
 31
0.0
  0
LINE
  5
8B
330
1F
100
AcDbEntity
  8
0
  6
Continuous
 62
     7
370
    15
100
AcDbLine
 10
204.6613484363
 20
77.9685793166
 30
0.0
 11
234.0613484363
 21
77.9685793166
 31
0.0
  0
LINE
  5
8C
330
1F
100
AcDbEntity
  8
0
  6
Continuous
 62
     7
370
    15
100
AcDbLine
 10
234.0613484363
 20
77.9685793166
 30
0.0
 11
234.6613484363
 21
78.5685793166
 31
0.0
  0
LINE
  5
8D
330
1F
100
AcDbEntity
  8
0
  6
Continuous
 62
     7
370
    15
100
AcDbLine
 10
234.6613484363
 20
141.3685793166
 30
0.0
 11
234.0613484363
 21
141.9685793166
 31
0.0
  0
ARC
  5
8E
330
1F
100
AcDbEntity
  8
0
  6
Continuous
 62
     7
370
    15
100
AcDbCircle
 10
62.8613484363
 20
91.6189014559
 30
0.0
 40
2.000000000000007
100
AcDbArc
 50
180.0
 51
261.7028550302
  0
ARC
  5
8F
330
1F
100
AcDbEntity
  8
0
  6
Continuous
 62
     7
370
    15
100
AcDbCircle
 10
62.8613484363
 20
128.3182571773
 30
0.0
 40
2.000000000000021
100
AcDbArc
 50
98.2971449698
 51
180.0
  0
SPLINE
  5
90
330
1F
100
AcDbEntity
  8
0
  6
Continuous
 62
     7
370
    15
100
AcDbSpline
210
0.0
220
0.0
230
1.0
 70
    24
 71
     3
 72
    11
 73
     7
 74
     0
 42
0.000000001
 43
0.00000001
 40
0.0
 40
0.0
 40
0.0
 40
0.0
 40
0.1336647920874073
 40
0.4825473608259798
 40
0.8156356561503805
 40
0.9999999999999999
 40
0.9999999999999999
 40
0.9999999999999999
 40
0.9999999999999999
 10
222.0754393299481
 20
109.9771979404186
 30
0.0
 10
222.003191402701
 20
109.851338739324
 30
0.0
 10
221.742366947182
 20
109.3969705816706
 30
0.0
 10
221.2551152979881
 20
108.5481558732596
 30
0.0
 10
220.7318121935145
 20
107.63653787716
 30
0.0
 10
220.4509329252588
 20
107.1472333164109
 30
0.0
 10
220.3508578303177
 20
106.9728979136017
 30
0.0
  0
SPLINE
  5
91
330
1F
100
AcDbEntity
  8
0
  6
Continuous
 62
     7
370
    15
100
AcDbSpline
210
0.0
220
0.0
230
1.0
 70
    24
 71
     3
 72
    10
 73
     6
 74
     0
 42
0.000000001
 43
0.00000001
 40
0.0
 40
0.0
 40
0.0
 40
0.0
 40
0.4391279203157636
 40
0.7513760035667093
 40
1.0
 40
1.0
 40
1.0
 40
1.0
 10
220.3359299359496
 20
112.9728793434038
 30
0.0
 10
220.5849611305903
 20
112.544012376015
 30
0.0
 10
221.011069458337
 20
111.810193520255
 30
0.0
 10
221.6304829600132
 20
110.7434757927559
 30
0.0
 10
221.9387779745747
 20
110.2125481387051
 30
0.0
 10
222.0754393299481
 20
109.9771979404186
 30
0.0
  0
SPLINE
  5
92
330
1F
100
AcDbEntity
  8
0
  6
Continuous
 62
     7
370
    15
100
AcDbSpline
210
0.0
220
0.0
230
1.0
 70
    24
 71
     3
 72
    10
 73
     6
 74
     0
 42
0.000000001
 43
0.00000001
 40
0.0
 40
0.0
 40
0.0
 40
0.0
 40
0.4391279203157572
 40
0.7513760035667102
 40
1.0
 40
1.0
 40
1.0
 40
1.0
 10
216.8718390423206
 20
112.9642607195719
 30
0.0
 10
217.3677643282437
 20
112.9654945767712
 30
0.0
 10
218.2163242629811
 20
112.9676057854839
 30
0.0
 10
219.4498356645007
 20
112.9706747496331
 30
0.0
 10
220.0637800077611
 20
112.9722022370781
 30
0.0
 10
220.3359299359496
 20
112.9728793434038
 30
0.0
  0
SPLINE
  5
93
330
1F
100
AcDbEntity
  8
0
  6
Continuous
 62
     7
370
    15
100
AcDbSpline
210
0.0
220
0.0
230
1.0
 70
    24
 71
     3
 72
    11
 73
     7
 74
     0
 42
0.000000001
 43
0.00000001
 40
0.0
 40
0.0
 40
0.0
 40
0.0
 40
0.1843643438496216
 40
0.5174526391740241
 40
0.8663352079125946
 40
1.0
 40
1.0
 40
1.0
 40
1.0
 10
215.1472575426901
 20
109.959960692755
 30
0.0
 10
215.2473326376313
 20
110.1342960955642
 30
0.0
 10
215.5282119058869
 20
110.6236006563133
 30
0.0
 10
216.0515150103606
 20
111.5352186524129
 30
0.0
 10
216.5387666595545
 20
112.3840333608239
 30
0.0
 10
216.7995911150735
 20
112.8384015184773
 30
0.0
 10
216.8718390423206
 20
112.9642607195719
 30
0.0
  0
SPLINE
  5
94
330
1F
100
AcDbEntity
  8
0
  6
Continuous
 62
     7
370
    15
100
AcDbSpline
210
0.0
220
0.0
230
1.0
 70
    24
 71
     3
 72
    10
 73
     6
 74
     0
 42
0.000000001
 43
0.00000001
 40
0.0
 40
0.0
 40
0.0
 40
0.0
 40
0.4391279203157611
 40
0.751376003566703
 40
1.0
 40
1.0
 40
1.0
 40
1.0
 10
216.8867669366886
 20
106.9642792897698
 30
0.0
 10
216.6377357420479
 20
107.3931462571586
 30
0.0
 10
216.2116274143012
 20
108.1269651129186
 30
0.0
 10
215.592213912625
 20
109.1936828404177
 30
0.0
 10
215.2839188980635
 20
109.7246104944685
 30
0.0
 10
215.1472575426901
 20
109.959960692755
 30
0.0
  0
SPLINE
  5
95
330
1F
100
AcDbEntity
  8
0
  6
Continuous
 62
     7
370
    15
100
AcDbSpline
210
0.0
220
0.0
230
1.0
 70
    24
 71
     3
 72
    10
 73
     6
 74
     0
 42
0.000000001
 43
0.00000001
 40
0.0
 40
0.0
 40
0.0
 40
0.0
 40
0.4391279203157578
 40
0.7513760035667029
 40
1.0
 40
1.0
 40
1.0
 40
1.0
 10
220.3508578303177
 20
106.9728979136017
 30
0.0
 10
219.8549325443946
 20
106.9716640564024
 30
0.0
 10
219.0063726096571
 20
106.9695528476897
 30
0.0
 10
217.7728612081376
 20
106.9664838835405
 30
0.0
 10
217.1589168648771
 20
106.9649563960955
 30
0.0
 10
216.8867669366886
 20
106.9642792897698
 30
0.0
  0
CIRCLE
  5
96
330
1F
100
AcDbEntity
  8
0
  6
Continuous
 62
     7
370
    15
100
AcDbCircle
 10
218.6113484363
 20
109.9685793166
 30
0.0
 40
3.500000000000005
  0
CIRCLE
  5
97
330
1F
100
AcDbEntity
  8
0
  6
Continuous
 62
     7
370
    15
100
AcDbCircle
 10
218.6113484363
 20
109.9685793166
 30
0.0
 40
5.500000000000006
  0
CIRCLE
  5
98
330
1F
100
AcDbEntity
  8
0
  6
Continuous
 62
     7
370
    15
100
AcDbCircle
 10
218.6113484363
 20
109.9685793166
 30
0.0
 40
6.000000000000001
  0
ARC
  5
99
330
1F
100
AcDbEntity
  8
0
  6
Continuous
 62
     7
370
    15
100
AcDbCircle
 10
218.6113484363
 20
109.9685793166
 30
0.0
 40
3.000000000000056
100
AcDbArc
 50
90.1425510378
 51
150.1425510378
  0
ARC
  5
9A
330
1F
100
AcDbEntity
  8
0
  6
Continuous
 62
     7
370
    15
100
AcDbCircle
 10
218.6113484363
 20
109.9685793166
 30
0.0
 40
3.000000000000019
100
AcDbArc
 50
210.1425510378
 51
270.1425510378
  0
ARC
  5
9B
330
1F
100
AcDbEntity
  8
0
  6
Continuous
 62
     7
370
    15
100
AcDbCircle
 10
218.6113484363
 20
109.9685793166
 30
0.0
 40
3.000000000000019
100
AcDbArc
 50
330.1425510378
 51
30.1425510378
  0
ARC
  5
9C
330
1F
100
AcDbEntity
  8
0
  6
Continuous
 62
     7
370
    15
100
AcDbCircle
 10
218.6113484363
 20
109.9685793166
 30
0.0
 40
2.99999999999998
100
AcDbArc
 50
270.1425510378
 51
330.1425510378
  0
ARC
  5
9D
330
1F
100
AcDbEntity
  8
0
  6
Continuous
 62
     7
370
    15
100
AcDbCircle
 10
218.6113484363
 20
109.9685793166
 30
0.0
 40
3.000000000000056
100
AcDbArc
 50
150.1425510378
 51
210.1425510378
  0
ARC
  5
9E
330
1F
100
AcDbEntity
  8
0
  6
Continuous
 62
     7
370
    15
100
AcDbCircle
 10
218.6113484363
 20
109.9685793166
 30
0.0
 40
3.000000000000019
100
AcDbArc
 50
30.1425510378
 51
90.1425510378
  0
SPLINE
  5
9F
330
1F
100
AcDbEntity
  8
0
  6
Continuous
 62
     7
370
    15
100
AcDbSpline
210
0.0
220
0.0
230
1.0
 70
     8
 71
     3
 72
    12
 73
     8
 74
     0
 42
0.000000001
 43
0.00000001
 40
0.0
 40
0.0
 40
0.0
 40
0.0
 40
0.000512515335492
 40
0.2509311781568301
 40
0.5009716914398246
 40
0.7506335204405247
 40
1.0
 40
1.0
 40
1.0
 40
1.0
 10
196.660914255389
 20
159.9684542744031
 30
0.0
 10
196.6610587120759
 20
159.9684959477205
 30
0.0
 10
196.73178574037
 20
159.9888995023094
 30
0.0
 10
196.4885221801134
 20
159.9172878709207
 30
0.0
 10
195.8829975658815
 20
159.7489346624499
 30
0.0
 10
194.8578338814584
 20
159.4716010719931
 30
0.0
 10
193.8766500142365
 20
159.2429823226692
 30
0.0
 10
193.3863484370062
 20
159.1287406019046
 30
0.0
  0
SPLINE
  5
A0
330
1F
100
AcDbEntity
  8
0
  6
Continuous
 62
     7
370
    15
100
AcDbSpline
210
0.0
220
0.0
230
1.0
 70
     8
 71
     3
 72
    13
 73
     9
 74
     0
 42
0.000000001
 43
0.00000001
 40
0.0
 40
0.0
 40
0.0
 40
0.0
 40
0.2492492380506566
 40
0.4988437701383962
 40
0.6658825660853622
 40
0.8320256711228307
 40
0.999488633728852
 40
1.0
 40
1.0
 40
1.0
 40
1.0
 10
193.3863484370062
 20
60.80841803126898
 30
0.0
 10
193.8775331604346
 20
60.69393050757451
 30
0.0
 10
194.8605830633579
 20
60.46479685645399
 30
0.0
 10
195.7596264881874
 20
60.22158710530744
 30
0.0
 10
196.3179513888607
 20
60.06764989792393
 30
0.0
 10
196.5836226135715
 20
59.99139633907416
 30
0.0
 10
196.6925168595856
 20
59.95948215475023
 30
0.0
 10
196.6611566797681
 20
59.96863506869406
 30
0.0
 10
196.6610612095952
 20
59.96866293302015
 30
0.0
  0
LINE
  5
A1
330
1F
100
AcDbEntity
  8
0
  6
Continuous
 62
     7
370
    15
100
AcDbLine
 10
193.3863484363
 20
60.8084180313
 30
0.0
 11
193.3863484363
 21
159.1287406019
 31
0.0
  0
SPLINE
  5
A2
330
1F
100
AcDbEntity
  8
0
  6
Continuous
 62
     7
370
    15
100
AcDbSpline
210
0.0
220
0.0
230
1.0
 70
     8
 71
     3
 72
    12
 73
     8
 74
     0
 42
0.000000001
 43
0.00000001
 40
0.0
 40
0.0
 40
0.0
 40
0.0
 40
0.5000000000000001
 40
0.5000000000000001
 40
0.75
 40
0.75
 40
1.0
 40
1.0
 40
1.0
 40
1.0
 10
192.7456281011626
 20
158.1746262682878
 30
0.0
 10
192.206731406065
 20
157.1169264507867
 30
0.0
 10
191.6444005953454
 20
156.0145580158281
 30
0.0
 10
190.7757343527549
 20
154.3145934094653
 30
0.0
 10
190.4814056304124
 20
153.7390749940267
 30
0.0
 10
189.8878746314446
 20
152.5796463255682
 30
0.0
 10
189.5886483733262
 20
151.9956866564869
 30
0.0
 10
189.2871615250728
 20
151.4079766958981
 30
0.0
  0
SPLINE
  5
A3
330
1F
100
AcDbEntity
  8
0
  6
Continuous
 62
     7
370
    15
100
AcDbSpline
210
0.0
220
0.0
230
1.0
 70
     8
 71
     3
 72
     9
 73
     5
 74
     0
 42
0.000000001
 43
0.00000001
 40
0.0
 40
0.0
 40
0.0
 40
0.0
 40
0.504794330390352
 40
1.0
 40
1.0
 40
1.0
 40
1.0
 10
193.3863248417312
 20
159.1286845666742
 30
0.0
 10
193.2779424072306
 20
158.9678430053849
 30
0.0
 10
193.0632362824274
 20
158.6492150977282
 30
0.0
 10
192.8508088536159
 20
158.3318408711404
 30
0.0
 10
192.7456135864878
 20
158.1746753547461
 30
0.0
  0
SPLINE
  5
A4
330
1F
100
AcDbEntity
  8
0
  6
Continuous
 62
     7
370
    15
100
AcDbSpline
210
0.0
220
0.0
230
1.0
 70
     8
 71
     3
 72
     9
 73
     5
 74
     0
 42
0.000000001
 43
0.00000001
 40
0.0
 40
0.0
 40
0.0
 40
0.0
 40
0.4952056708042673
 40
1.0
 40
1.0
 40
1.0
 40
1.0
 10
192.7456135864878
 20
61.7624832784274
 30
0.0
 10
192.8508088538767
 20
61.60531776163886
 30
0.0
 10
193.0632362827025
 20
61.28794353502043
 30
0.0
 10
193.2779424074933
 20
60.96931562739312
 30
0.0
 10
193.3863248417313
 20
60.80847406649934
 30
0.0
  0
SPLINE
  5
A5
330
1F
100
AcDbEntity
  8
0
  6
Continuous
 62
     7
370
    15
100
AcDbSpline
210
0.0
220
0.0
230
1.0
 70
     8
 71
     3
 72
    12
 73
     8
 74
     0
 42
0.000000001
 43
0.00000001
 40
0.0
 40
0.0
 40
0.0
 40
0.0
 40
0.2499999999999994
 40
0.2499999999999994
 40
0.4999999999999989
 40
0.4999999999999989
 40
1.0
 40
1.0
 40
1.0
 40
1.0
 10
192.7456280689237
 20
61.76253242816158
 30
0.0
 10
192.4762905475548
 20
62.29116481684623
 30
0.0
 10
192.2005204301608
 20
62.83208947079292
 30
0.0
 10
191.638260143555
 20
63.93414622515598
 30
0.0
 10
191.3511747701503
 20
64.49644306439276
 30
0.0
 10
190.480748329431
 20
66.19983829971277
 30
0.0
 10
189.8887383332617
 20
67.35648507079486
 30
0.0
 10
189.2871615250728
 20
68.5291819372755
 30
0.0
  0
LINE
  5
A6
330
1F
100
AcDbEntity
  8
0
  6
Continuous
 62
     7
370
    15
100
AcDbLine
 10
200.6613484363
 20
60.9685793166
 30
0.0
 11
200.6613484363
 21
158.9685793069
 31
0.0
  0
LINE
  5
A7
330
1F
100
AcDbEntity
  8
0
  6
Continuous
 62
     7
370
    15
100
AcDbLine
 10
178.3363484363
 20
158.0736708121
 30
0.0
 11
166.6613484363
 21
158.0736708121
 31
0.0
  0
LINE
  5
A8
330
1F
100
AcDbEntity
  8
0
  6
Continuous
 62
     7
370
    15
100
AcDbLine
 10
178.3363484363
 20
61.8634878211
 30
0.0
 11
178.3363484363
 21
158.0736708121
 31
0.0
  0
LINE
  5
A9
330
1F
100
AcDbEntity
  8
0
  6
Continuous
 62
     7
370
    15
100
AcDbLine
 10
166.6613484363
 20
61.8634878211
 30
0.0
 11
178.3363484363
 21
61.8634878211
 31
0.0
  0
LINE
  5
AA
330
1F
100
AcDbEntity
  8
0
  6
Continuous
 62
     7
370
    15
100
AcDbLine
 10
165.6613484363
 20
62.9666910566
 30
0.0
 11
165.6613484363
 21
156.9704675765
 31
0.0
  0
SPLINE
  5
AB
330
1F
100
AcDbEntity
  8
0
  6
Continuous
 62
     7
370
    15
100
AcDbSpline
210
0.0
220
0.0
230
1.0
 70
     8
 71
     3
 72
    12
 73
     8
 74
     0
 42
0.000000001
 43
0.00000001
 40
0.0
 40
0.0
 40
0.0
 40
0.0
 40
0.2500000000000004
 40
0.2500000000000004
 40
0.5000000000000009
 40
0.5000000000000009
 40
1.0
 40
1.0
 40
1.0
 40
1.0
 10
166.0474848563689
 20
157.9030130504581
 30
0.0
 10
165.9958547342591
 20
157.8468087797434
 30
0.0
 10
165.9473225012686
 20
157.785519369223
 30
0.0
 10
165.8574973643108
 20
157.6510572951783
 30
0.0
 10
165.8157870910984
 20
157.5769382249354
 30
0.0
 10
165.7096557109362
 20
157.340630579767
 30
0.0
 10
165.6613484363192
 20
157.1588070371171
 30
0.0
 10
165.6613484363192
 20
156.970467576528
 30
0.0
  0
SPLINE
  5
AC
330
1F
100
AcDbEntity
  8
0
  6
Continuous
 62
     7
370
    15
100
AcDbSpline
210
0.0
220
0.0
230
1.0
 70
     8
 71
     3
 72
     8
 73
     4
 74
     0
 42
0.000000001
 43
0.00000001
 40
0.0
 40
0.0
 40
0.0
 40
0.0
 40
1.0
 40
1.0
 40
1.0
 40
1.0
 10
166.6613484363192
 20
158.0736708120511
 30
0.0
 10
166.4344541926193
 20
158.0736708120511
 30
0.0
 10
166.216604546693
 20
158.0096586450823
 30
0.0
 10
166.0474848563689
 20
157.903013050458
 30
0.0
  0
SPLINE
  5
AD
330
1F
100
AcDbEntity
  8
0
  6
Continuous
 62
     7
370
    15
100
AcDbSpline
210
0.0
220
0.0
230
1.0
 70
     8
 71
     3
 72
    10
 73
     6
 74
     0
 42
0.000000001
 43
0.00000001
 40
0.0
 40
0.0
 40
0.0
 40
0.0
 40
0.5
 40
0.5
 40
1.0
 40
1.0
 40
1.0
 40
1.0
 10
166.0474848563689
 20
62.03414558271551
 30
0.0
 10
166.1320954970996
 20
61.98079075410282
 30
0.0
 10
166.2273301192062
 20
61.93822129215265
 30
0.0
 10
166.4373674783861
 20
61.87893895747167
 30
0.0
 10
166.5477993831702
 20
61.8634878211224
 30
0.0
 10
166.6613484363192
 20
61.8634878211224
 30
0.0
  0
SPLINE
  5
AE
330
1F
100
AcDbEntity
  8
0
  6
Continuous
 62
     7
370
    15
100
AcDbSpline
210
0.0
220
0.0
230
1.0
 70
     8
 71
     3
 72
    12
 73
     8
 74
     0
 42
0.000000001
 43
0.00000001
 40
0.0
 40
0.0
 40
0.0
 40
0.0
 40
0.2499999999999999
 40
0.2499999999999999
 40
0.4999999999999998
 40
0.4999999999999998
 40
1.0
 40
1.0
 40
1.0
 40
1.0
 10
166.0474848563689
 20
62.03414558271551
 30
0.0
 10
165.9958547342592
 20
62.09034985343015
 30
0.0
 10
165.9473225012687
 20
62.15163926395055
 30
0.0
 10
165.8574973643108
 20
62.28610133799526
 30
0.0
 10
165.8157870910984
 20
62.36022040823809
 30
0.0
 10
165.7096557109363
 20
62.59652805340654
 30
0.0
 10
165.6613484363192
 20
62.77835159605642
 30
0.0
 10
165.6613484363192
 20
62.96669105664557
 30
0.0
  0
SPLINE
  5
AF
330
1F
100
AcDbEntity
  8
0
  6
Continuous
 62
     7
370
    15
100
AcDbSpline
210
0.0
220
0.0
230
1.0
 70
     8
 71
     3
 72
     8
 73
     4
 74
     0
 42
0.000000001
 43
0.00000001
 40
0.0
 40
0.0
 40
0.0
 40
0.0
 40
0.0012417047560384
 40
0.0012417047560384
 40
0.0012417047560384
 40
0.0012417047560384
 10
178.8939174728469
 20
157.2891494705078
 30
0.0
 10
178.7085289215524
 20
157.5508225560563
 30
0.0
 10
178.5226626759445
 20
157.8123266649339
 30
0.0
 10
178.3363484363191
 20
158.0736708120511
 30
0.0
  0
SPLINE
  5
B0
330
1F
100
AcDbEntity
  8
0
  6
Continuous
 62
     7
370
    15
100
AcDbSpline
210
0.0
220
0.0
230
1.0
 70
     8
 71
     3
 72
     8
 73
     4
 74
     0
 42
0.000000001
 43
0.00000001
 40
0.0
 40
0.0
 40
0.0
 40
0.0
 40
1.0
 40
1.0
 40
1.0
 40
1.0
 10
182.4355353475655
 20
150.8988553967698
 30
0.0
 10
181.2605478716626
 20
153.0319321517057
 30
0.0
 10
180.0793013375662
 20
155.1616507175819
 30
0.0
 10
178.8939174728469
 20
157.2891494705078
 30
0.0
  0
SPLINE
  5
B1
330
1F
100
AcDbEntity
  8
0
  6
Continuous
 62
     7
370
    15
100
AcDbSpline
210
0.0
220
0.0
230
1.0
 70
     8
 71
     3
 72
     8
 73
     4
 74
     0
 42
0.000000001
 43
0.00000001
 40
0.0
 40
0.0
 40
0.0
 40
0.0
 40
1.0
 40
1.0
 40
1.0
 40
1.0
 10
182.4355353475655
 20
69.03830323640378
 30
0.0
 10
181.2604985497385
 20
66.90513694225844
 30
0.0
 10
180.0792513422995
 20
64.77541818527673
 30
0.0
 10
178.8939174728469
 20
62.64800916266576
 30
0.0
  0
SPLINE
  5
B2
330
1F
100
AcDbEntity
  8
0
  6
Continuous
 62
     7
370
    15
100
AcDbSpline
210
0.0
220
0.0
230
1.0
 70
     8
 71
     3
 72
     8
 73
     4
 74
     0
 42
0.000000001
 43
0.00000001
 40
0.0
 40
0.0
 40
0.0
 40
0.0
 40
0.0012417047560384
 40
0.0012417047560384
 40
0.0012417047560384
 40
0.0012417047560384
 10
178.3363484363191
 20
61.86348782112241
 30
0.0
 10
178.5226626759445
 20
62.12483196823964
 30
0.0
 10
178.7085289215524
 20
62.38633607711721
 30
0.0
 10
178.8939174728469
 20
62.64800916266576
 30
0.0
  0
SPLINE
  5
B3
330
1F
100
AcDbEntity
  8
0
  6
Continuous
 62
     7
370
    15
100
AcDbSpline
210
0.0
220
0.0
230
1.0
 70
     8
 71
     3
 72
    12
 73
     8
 74
     0
 42
0.000000001
 43
0.00000001
 40
0.0
 40
0.0
 40
0.0
 40
0.0
 40
0.2499999999999951
 40
0.2499999999999951
 40
0.4999999999999902
 40
0.4999999999999902
 40
1.0
 40
1.0
 40
1.0
 40
1.0
 10
189.2871615250728
 20
151.4079766958981
 30
0.0
 10
189.2509411036859
 20
151.3373696277983
 30
0.0
 10
189.2080154290381
 20
151.2736350364726
 30
0.0
 10
189.1104888457791
 20
151.1578608602241
 30
0.0
 10
189.0550573261623
 20
151.1053130162126
 30
0.0
 10
188.8765694232582
 20
150.9711644129983
 30
0.0
 10
188.7397325946104
 20
150.9106423109344
 30
0.0
 10
188.594341202046
 20
150.890095727006
 30
0.0
  0
SPLINE
  5
B4
330
1F
100
AcDbEntity
  8
0
  6
Continuous
 62
     7
370
    15
100
AcDbSpline
210
0.0
220
0.0
230
1.0
 70
     8
 71
     3
 72
    12
 73
     8
 74
     0
 42
0.000000001
 43
0.00000001
 40
0.0
 40
0.0
 40
0.0
 40
0.0
 40
0.2499999999999957
 40
0.2499999999999957
 40
0.4999999999999913
 40
0.4999999999999913
 40
1.0
 40
1.0
 40
1.0
 40
1.0
 10
189.2871615250728
 20
68.52918193727547
 30
0.0
 10
189.2509411036858
 20
68.5997890053754
 30
0.0
 10
189.2080154290379
 20
68.66352359670114
 30
0.0
 10
189.110488845779
 20
68.77929777294955
 30
0.0
 10
189.0550573261623
 20
68.83184561696098
 30
0.0
 10
188.8765694232581
 20
68.96599422017535
 30
0.0
 10
188.7397325946104
 20
69.02651632223913
 30
0.0
 10
188.594341202046
 20
69.04706290616755
 30
0.0
  0
SPLINE
  5
B5
330
1F
100
AcDbEntity
  8
0
  6
Continuous
 62
     7
370
    15
100
AcDbSpline
210
0.0
220
0.0
230
1.0
 70
     8
 71
     3
 72
    10
 73
     6
 74
     0
 42
0.000000001
 43
0.00000001
 40
0.0
 40
0.0
 40
0.0
 40
0.0
 40
0.5
 40
0.5
 40
1.0
 40
1.0
 40
1.0
 40
1.0
 10
182.8113484363191
 20
69.3890481024376
 30
0.0
 10
182.7323483680679
 20
69.35328386782972
 30
0.0
 10
182.6585911177912
 20
69.30379426427028
 30
0.0
 10
182.5305359946581
 20
69.1835057727673
 30
0.0
 10
182.4776859602464
 20
69.11482361977797
 30
0.0
 10
182.4355353475655
 20
69.03830323640378
 30
0.0
  0
SPLINE
  5
B6
330
1F
100
AcDbEntity
  8
0
  6
Continuous
 62
     7
370
    15
100
AcDbSpline
210
0.0
220
0.0
230
1.0
 70
     8
 71
     3
 72
    10
 73
     6
 74
     0
 42
0.000000001
 43
0.00000001
 40
0.0
 40
0.0
 40
0.0
 40
0.0
 40
0.5
 40
0.5
 40
1.0
 40
1.0
 40
1.0
 40
1.0
 10
182.8113484363192
 20
150.5481105307359
 30
0.0
 10
182.7320619886364
 20
150.5840044125885
 30
0.0
 10
182.6585497695158
 20
150.6335061224394
 30
0.0
 10
182.5315973166451
 20
150.752553819108
 30
0.0
 10
182.4775314679085
 20
150.8226154793763
 30
0.0
 10
182.4355353475655
 20
150.8988553967698
 30
0.0
  0
SPLINE
  5
B7
330
1F
100
AcDbEntity
  8
0
  6
Continuous
 62
     7
370
    15
100
AcDbSpline
210
0.0
220
0.0
230
1.0
 70
     8
 71
     3
 72
     8
 73
     4
 74
     0
 42
0.000000001
 43
0.00000001
 40
0.0
 40
0.0
 40
0.0
 40
0.0
 40
1.0
 40
1.0
 40
1.0
 40
1.0
 10
183.128355670593
 20
150.4806515122494
 30
0.0
 10
183.0186538852914
 20
150.4797930950501
 30
0.0
 10
182.9113068643069
 20
150.5028582069249
 30
0.0
 10
182.8113484363191
 20
150.5481105307358
 30
0.0
  0
SPLINE
  5
B8
330
1F
100
AcDbEntity
  8
0
  6
Continuous
 62
     7
370
    15
100
AcDbSpline
210
0.0
220
0.0
230
1.0
 70
     8
 71
     3
 72
     8
 73
     4
 74
     0
 42
0.000000001
 43
0.00000001
 40
0.0
 40
0.0
 40
0.0
 40
0.0
 40
1.0
 40
1.0
 40
1.0
 40
1.0
 10
183.128355670593
 20
69.45650712092413
 30
0.0
 10
183.0186538852913
 20
69.45736553812345
 30
0.0
 10
182.9113068643068
 20
69.43430042624868
 30
0.0
 10
182.811348436319
 20
69.38904810243776
 30
0.0
  0
SPLINE
  5
B9
330
1F
100
AcDbEntity
  8
0
  6
Continuous
 62
     7
370
    15
100
AcDbSpline
210
0.0
220
0.0
230
1.0
 70
     8
 71
     3
 72
    10
 73
     6
 74
     0
 42
0.000000001
 43
0.00000001
 40
0.0
 40
0.0
 40
0.0
 40
0.0
 40
0.5
 40
0.5
 40
1.0
 40
1.0
 40
1.0
 40
1.0
 10
188.5943412020453
 20
150.8900957270089
 30
0.0
 10
187.746776835277
 20
150.7703186749478
 30
0.0
 10
186.8660633995551
 20
150.671628495284
 30
0.0
 10
185.0385071483396
 20
150.5303560890468
 30
0.0
 10
184.0850747452383
 20
150.4881378453692
 30
0.0
 10
183.128355670593
 20
150.4806515122494
 30
0.0
  0
SPLINE
  5
BA
330
1F
100
AcDbEntity
  8
0
  6
Continuous
 62
     7
370
    15
100
AcDbSpline
210
0.0
220
0.0
230
1.0
 70
     8
 71
     3
 72
    10
 73
     6
 74
     0
 42
0.000000001
 43
0.00000001
 40
0.0
 40
0.0
 40
0.0
 40
0.0
 40
0.5
 40
0.5
 40
1.0
 40
1.0
 40
1.0
 40
1.0
 10
188.5943412020453
 20
69.04706290616473
 30
0.0
 10
187.746776835277
 20
69.16683995822578
 30
0.0
 10
186.8660633995551
 20
69.26553013788961
 30
0.0
 10
185.0385071483396
 20
69.40680254412673
 30
0.0
 10
184.0850747452383
 20
69.44902078780433
 30
0.0
 10
183.128355670593
 20
69.45650712092413
 30
0.0
  0
LINE
  5
BB
330
1F
100
AcDbEntity
  8
0
  6
Continuous
 62
     7
370
    15
100
AcDbLine
 10
162.6613484363
 20
75.0435793166
 30
0.0
 11
162.6613484363
 21
144.8935793166
 31
0.0
  0
SPLINE
  5
BC
330
1F
100
AcDbEntity
  8
0
  6
Continuous
 62
     7
370
    15
100
AcDbSpline
210
0.0
220
0.0
230
1.0
 70
    11
 71
     3
 72
    94
 73
    90
 74
     0
 42
0.000000001
 43
0.00000001
 40
0.0
 40
0.0
 40
0.0
 40
0.0
 40
0.0312500000000007
 40
0.0312500000000007
 40
0.0625000000000013
 40
0.0625000000000013
 40
0.093750000000002
 40
0.093750000000002
 40
0.1093750000000023
 40
0.1093750000000023
 40
0.1250000000000026
 40
0.1250000000000026
 40
0.1562500000000028
 40
0.1562500000000028
 40
0.1718750000000026
 40
0.1718750000000026
 40
0.1875000000000025
 40
0.1875000000000025
 40
0.2187500000000026
 40
0.2187500000000026
 40
0.2343750000000025
 40
0.2343750000000025
 40
0.2500000000000024
 40
0.2500000000000024
 40
0.2812500000000025
 40
0.2812500000000025
 40
0.3125000000000025
 40
0.3125000000000025
 40
0.3281250000000024
 40
0.3281250000000024
 40
0.3437500000000024
 40
0.3437500000000024
 40
0.3750000000000023
 40
0.3750000000000023
 40
0.3906250000000022
 40
0.3906250000000022
 40
0.4062500000000022
 40
0.4062500000000022
 40
0.4218750000000021
 40
0.4218750000000021
 40
0.437500000000002
 40
0.437500000000002
 40
0.4687500000000015
 40
0.4687500000000015
 40
0.4843750000000012
 40
0.4843750000000012
 40
0.500000000000001
 40
0.500000000000001
 40
0.5312500000000006
 40
0.5312500000000006
 40
0.5625000000000001
 40
0.5625000000000001
 40
0.5781250000000001
 40
0.5781250000000001
 40
0.5937500000000001
 40
0.5937500000000001
 40
0.625
 40
0.625
 40
0.65625
 40
0.65625
 40
0.6875
 40
0.6875
 40
0.71875
 40
0.71875
 40
0.75
 40
0.75
 40
0.78125
 40
0.78125
 40
0.8125
 40
0.8125
 40
0.828125
 40
0.828125
 40
0.84375
 40
0.84375
 40
0.859375
 40
0.859375
 40
0.8749999999999999
 40
0.8749999999999999
 40
0.90625
 40
0.90625
 40
0.921875
 40
0.921875
 40
0.9375
 40
0.9375
 40
0.953125
 40
0.953125
 40
0.96875
 40
0.96875
 40
1.0
 40
1.0
 40
1.0
 40
1.0
 10
213.7220943841704
 20
114.8110863016275
 30
0.0
 10
214.0723392319667
 20
115.1015265334075
 30
0.0
 10
214.4456854454121
 20
115.3547787868745
 30
0.0
 10
215.2356584266386
 20
115.7923889369641
 30
0.0
 10
215.6554466431613
 20
115.9771987709634
 30
0.0
 10
216.5102389158906
 20
116.2670330805866
 30
0.0
 10
216.9478604946269
 20
116.3740509999325
 30
0.0
 10
217.6195803592404
 20
116.4782594862004
 30
0.0
 10
217.8471632502213
 20
116.503590265116
 30
0.0
 10
218.3008865682382
 20
116.5343537186914
 30
0.0
 10
218.5270656002063
 20
116.5399169911344
 30
0.0
 10
219.2036055292808
 20
116.5278904517792
 30
0.0
 10
219.6519856190033
 20
116.4818306040082
 30
0.0
 10
220.3204897694985
 20
116.3541353144574
 30
0.0
 10
220.5434058738241
 20
116.3014426382469
 30
0.0
 10
220.9794143981508
 20
116.1780305077807
 30
0.0
 10
221.1934272803973
 20
116.1072054761574
 30
0.0
 10
221.8236513211101
 20
115.8676344149827
 30
0.0
 10
222.2281638118742
 20
115.6720680632262
 30
0.0
 10
222.8101566871604
 20
115.3213500825009
 30
0.0
 10
223.0000050920337
 20
115.1946219857586
 30
0.0
 10
223.3628662509873
 20
114.9269402130058
 30
0.0
 10
223.5369783138753
 20
114.7853723461584
 30
0.0
 10
224.0372877710735
 20
114.3372834493192
 30
0.0
 10
224.3417297977541
 20
114.0076695786228
 30
0.0
 10
224.8862934059236
 20
113.2794251777259
 30
0.0
 10
225.118078866404
 20
112.8911194084306
 30
0.0
 10
225.3992604442199
 20
112.27973228933
 30
0.0
 10
225.4821332874291
 20
112.0706687722387
 30
0.0
 10
225.6251099063032
 20
111.6414568601199
 30
0.0
 10
225.6854885951933
 20
111.41966789591
 30
0.0
 10
225.8266750125917
 20
110.7521661635864
 30
0.0
 10
225.869217889132
 20
110.303267707686
 30
0.0
 10
225.8556433825313
 20
109.6240634123381
 30
0.0
 10
225.8378844171557
 20
109.395194777811
 30
0.0
 10
225.7763110345045
 20
108.9432185761365
 30
0.0
 10
225.7328086386234
 20
108.7208565364289
 30
0.0
 10
225.6214259263932
 20
108.2830727462793
 30
0.0
 10
225.5535424574041
 20
108.0676519070149
 30
0.0
 10
225.3936380176339
 20
107.6436645320135
 30
0.0
 10
225.3009585470433
 20
107.4339300211444
 30
0.0
 10
224.9920700184135
 20
106.8265078640782
 30
0.0
 10
224.7456212309741
 20
106.4491057660401
 30
0.0
 10
224.3191579080257
 20
105.9212549823672
 30
0.0
 10
224.1666321216981
 20
105.7509834163508
 30
0.0
 10
223.8479597576862
 20
105.4288834261959
 30
0.0
 10
223.6816038717965
 20
105.2766030313935
 30
0.0
 10
223.1623998932209
 20
104.8447762834205
 30
0.0
 10
222.7877828906724
 20
104.5890212250354
 30
0.0
 10
221.9929968349985
 20
104.1474099606017
 30
0.0
 10
221.5804543359793
 20
103.9653417219387
 30
0.0
 10
220.9400723802954
 20
103.7468717654034
 30
0.0
 10
220.7229907269462
 20
103.6832230583269
 30
0.0
 10
220.2814804800996
 20
103.5744754903096
 30
0.0
 10
220.0568329993285
 20
103.5294580003792
 30
0.0
 10
219.3845972477606
 20
103.4246637910146
 30
0.0
 10
218.9345129502446
 20
103.3937111625184
 30
0.0
 10
218.0305454295832
 20
103.4083679523634
 30
0.0
 10
217.5725725241095
 20
103.4551585081006
 30
0.0
 10
216.6837354338657
 20
103.6245702872776
 30
0.0
 10
216.250490842356
 20
103.7464934977938
 30
0.0
 10
215.4065756462243
 20
104.0660410721282
 30
0.0
 10
214.9929628517894
 20
104.2661038555895
 30
0.0
 10
214.2217245175358
 20
104.7307301340126
 30
0.0
 10
213.8603832365823
 20
104.9959991211419
 30
0.0
 10
213.1885894170032
 20
105.5963907766103
 30
0.0
 10
212.8773494464994
 20
105.9342734537686
 30
0.0
 10
212.3394572878401
 20
106.6537030912015
 30
0.0
 10
212.1084556436282
 20
107.0383368965424
 30
0.0
 10
211.8238226546373
 20
107.6562694203002
 30
0.0
 10
211.7391964376876
 20
107.8700851516838
 30
0.0
 10
211.5961974504526
 20
108.3003918045129
 30
0.0
 10
211.5371283892242
 20
108.5181461324102
 30
0.0
 10
211.4437946005322
 20
108.9588564802197
 30
0.0
 10
211.4095283588607
 20
109.1818121704681
 30
0.0
 10
211.3665336855068
 20
109.6330859477259
 30
0.0
 10
211.3578900691527
 20
109.8630450167595
 30
0.0
 10
211.3720754572682
 20
110.5472348709052
 30
0.0
 10
211.4336243462365
 20
110.9950789699528
 30
0.0
 10
211.6014593121871
 20
111.6548666770849
 30
0.0
 10
211.6706529405123
 20
111.8740786228816
 30
0.0
 10
211.8316420283237
 20
112.2997294571977
 30
0.0
 10
211.923356897853
 20
112.506596901812
 30
0.0
 10
212.1281829353837
 20
112.9090098183272
 30
0.0
 10
212.2412974916247
 20
113.1045534312247
 30
0.0
 10
212.4886081324149
 20
113.4845319104192
 30
0.0
 10
212.6234356255869
 20
113.6696252428067
 30
0.0
 10
213.0520697884402
 20
114.1988907651163
 30
0.0
 10
213.3718495363741
 20
114.5206460698474
 30
0.0
 10
213.7220943841704
 20
114.8110863016275
 30
0.0
  0
LINE
  5
BD
330
1F
100
AcDbEntity
  8
0
  6
Continuous
 62
     7
370
    15
100
AcDbLine
 10
234.0613484363
 20
109.9685793166
 30
0.0
 11
234.0613484363
 21
77.9685793166
 31
0.0
  0
LINE
  5
BE
330
1F
100
AcDbEntity
  8
0
  6
Continuous
 62
     7
370
    15
100
AcDbLine
 10
234.0613484363
 20
141.9685793166
 30
0.0
 11
234.0613484363
 21
109.9685793166
 31
0.0
  0
LINE
  5
BF
330
1F
100
AcDbEntity
  8
0
  6
Continuous
 62
     7
370
    15
100
AcDbLine
 10
234.6613484363
 20
109.9685793166
 30
0.0
 11
234.6613484363
 21
78.5685793166
 31
0.0
  0
LINE
  5
C0
330
1F
100
AcDbEntity
  8
0
  6
Continuous
 62
     7
370
    15
100
AcDbLine
 10
234.6613484363
 20
141.3685793166
 30
0.0
 11
234.6613484363
 21
109.9685793166
 31
0.0
  0
LINE
  5
C1
330
1F
100
AcDbEntity
  8
0
  6
Continuous
 62
     7
370
    15
100
AcDbLine
 10
60.8613484363
 20
91.6189014559
 30
0.0
 11
60.8613484363
 21
128.3182571082
 31
0.0
  0
CIRCLE
  5
C2
330
1F
100
AcDbEntity
  8
0
  6
HIDDEN
 62
     7
370
     0
100
AcDbCircle
 10
218.6113484363
 20
109.9685793166
 30
0.0
 40
4.080384757729325
  0
CIRCLE
  5
C3
330
1F
100
AcDbEntity
  8
0
  6
HIDDEN
 62
     7
370
     0
100
AcDbCircle
 10
218.6113484363
 20
109.9685793166
 30
0.0
 40
3.780384757729341
  0
SPLINE
  5
C4
330
1F
100
AcDbEntity
  8
0
  6
HIDDEN
 62
     7
370
     0
100
AcDbSpline
210
0.0
220
0.0
230
1.0
 70
     8
 71
     3
 72
     9
 73
     5
 74
     0
 42
0.000000001
 43
0.00000001
 40
0.0
 40
0.0
 40
0.0
 40
0.0
 40
0.3267154991849672
 40
1.0
 40
1.0
 40
1.0
 40
1.0
 10
195.2853159017585
 20
60.34481887835683
 30
0.0
 10
195.1285230261328
 20
60.38690110669522
 30
0.0
 10
194.6486165753618
 20
60.51570500012356
 30
0.0
 10
193.8944050382087
 20
60.69073164735293
 30
0.0
 10
193.3866060999077
 20
60.80857437616206
 30
0.0
  0
SPLINE
  5
C5
330
1F
100
AcDbEntity
  8
0
  6
HIDDEN
 62
     7
370
     0
100
AcDbSpline
210
0.0
220
0.0
230
1.0
 70
     8
 71
     3
 72
    18
 73
    14
 74
     0
 42
0.000000001
 43
0.00000001
 40
0.0
 40
0.0
 40
0.0
 40
0.0
 40
0.2499999999999943
 40
0.2499999999999943
 40
0.4999999999999887
 40
0.4999999999999887
 40
0.6249999999999915
 40
0.6249999999999915
 40
0.7499999999999943
 40
0.7499999999999943
 40
0.8749999999999971
 40
0.8749999999999971
 40
1.0
 40
1.0
 40
1.0
 40
1.0
 10
234.6613484363191
 20
126.9662805607008
 30
0.0
 10
234.6613484363191
 20
126.870960895683
 30
0.0
 10
234.6560903731561
 20
126.7739315095154
 30
0.0
 10
234.6285853832892
 20
126.5743473689906
 30
0.0
 10
234.6061018898157
 20
126.4693431992878
 30
0.0
 10
234.5478035376956
 20
126.3173344507035
 30
0.0
 10
234.5234767439882
 20
126.2662825505297
 30
0.0
 10
234.4646333848052
 20
126.1737316594512
 30
0.0
 10
234.4295106643525
 20
126.1319096828178
 30
0.0
 10
234.3545319923604
 20
126.0674374262133
 30
0.0
 10
234.3145451747061
 20
126.0442795404582
 30
0.0
 10
234.2359373301585
 20
126.0142926946604
 30
0.0
 10
234.1980879871553
 20
126.0072547381743
 30
0.0
 10
234.1613088563048
 20
126.0049954311981
 30
0.0
  0
SPLINE
  5
C6
330
1F
100
AcDbEntity
  8
0
  6
HIDDEN
 62
     7
370
     0
100
AcDbSpline
210
0.0
220
0.0
230
1.0
 70
     8
 71
     3
 72
    10
 73
     6
 74
     0
 42
0.000000001
 43
0.00000001
 40
0.0
 40
0.0
 40
0.0
 40
0.0
 40
0.5
 40
0.5
 40
1.0
 40
1.0
 40
1.0
 40
1.0
 10
234.1613088563048
 20
126.0049954311983
 30
0.0
 10
234.0964873985719
 20
125.9441278268238
 30
0.0
 10
234.0216440022697
 20
125.8891559952035
 30
0.0
 10
233.8530333464184
 20
125.8093309869452
 30
0.0
 10
233.7587427943827
 20
125.7850242129181
 30
0.0
 10
233.6613484363191
 20
125.7850242129181
 30
0.0
  0
SPLINE
  5
C7
330
1F
100
AcDbEntity
  8
0
  6
HIDDEN
 62
     7
370
     0
100
AcDbSpline
210
0.0
220
0.0
230
1.0
 70
     8
 71
     3
 72
    10
 73
     6
 74
     0
 42
0.000000001
 43
0.00000001
 40
0.0
 40
0.0
 40
0.0
 40
0.0
 40
0.5
 40
0.5
 40
1.0
 40
1.0
 40
1.0
 40
1.0
 10
234.1612986300143
 20
93.9321728043753
 30
0.0
 10
234.0964779438476
 20
93.99303807445722
 30
0.0
 10
234.0216356611901
 20
94.04800761670722
 30
0.0
 10
233.8530283874693
 20
94.12782896401612
 30
0.0
 10
233.7587402335645
 20
94.15213442025541
 30
0.0
 10
233.6613484363191
 20
94.15213442025541
 30
0.0
  0
SPLINE
  5
C8
330
1F
100
AcDbEntity
  8
0
  6
HIDDEN
 62
     7
370
     0
100
AcDbSpline
210
0.0
220
0.0
230
1.0
 70
     8
 71
     3
 72
    18
 73
    14
 74
     0
 42
0.000000001
 43
0.00000001
 40
0.0
 40
0.0
 40
0.0
 40
0.0
 40
0.1249999999999999
 40
0.1249999999999999
 40
0.2499999999999998
 40
0.2499999999999998
 40
0.3749999999999997
 40
0.3749999999999997
 40
0.4999999999999996
 40
0.4999999999999996
 40
0.7499999999999998
 40
0.7499999999999998
 40
1.0
 40
1.0
 40
1.0
 40
1.0
 10
234.1612986300143
 20
93.93217280437518
 30
0.0
 10
234.1977855101107
 20
93.92993876808839
 30
0.0
 10
234.2360412021391
 20
93.92279527763623
 30
0.0
 10
234.3135882391286
 20
93.89333339690266
 30
0.0
 10
234.3535356543362
 20
93.8703603158205
 30
0.0
 10
234.4278805645716
 20
93.80693537996005
 30
0.0
 10
234.4630238095727
 20
93.7655453816367
 30
0.0
 10
234.5220067701433
 20
93.6736381063957
 30
0.0
 10
234.5464243926508
 20
93.622961581658
 30
0.0
 10
234.6055007077099
 20
93.47031056529862
 30
0.0
 10
234.6279895762969
 20
93.36609136373858
 30
0.0
 10
234.6559938377671
 20
93.16495012297302
 30
0.0
 10
234.6613484363192
 20
93.0664558642664
 30
0.0
 10
234.6613484363192
 20
92.97087807247279
 30
0.0
  0
LINE
  5
C9
330
1F
100
AcDbEntity
  8
0
  6
HIDDEN
 62
     7
370
     0
100
AcDbLine
 10
194.1613484363
 20
109.9685793166
 30
0.0
 11
194.1613484363
 21
92.4685793166
 31
0.0
  0
LINE
  5
CA
330
1F
100
AcDbEntity
  8
0
  6
HIDDEN
 62
     7
370
     0
100
AcDbLine
 10
194.1613484363
 20
127.4685793166
 30
0.0
 11
194.1613484363
 21
109.9685793166
 31
0.0
  0
LINE
  5
CB
330
1F
100
AcDbEntity
  8
0
  6
HIDDEN
 62
     7
370
     0
100
AcDbLine
 10
199.0273738401
 20
109.9685793166
 30
0.0
 11
199.0273738401
 21
91.9685793166
 31
0.0
  0
LINE
  5
CC
330
1F
100
AcDbEntity
  8
0
  6
HIDDEN
 62
     7
370
     0
100
AcDbLine
 10
199.0273738401
 20
127.9685793166
 30
0.0
 11
199.0273738401
 21
109.9685793166
 31
0.0
  0
LINE
  5
CD
330
1F
100
AcDbEntity
  8
0
  6
HIDDEN
 62
     7
370
     0
100
AcDbLine
 10
218.0613484362
 20
125.7850242129
 30
0.0
 11
233.6613484363
 21
125.7850242129
 31
0.0
  0
LINE
  5
CE
330
1F
100
AcDbEntity
  8
0
  6
HIDDEN
 62
     7
370
     0
100
AcDbLine
 10
218.0613484362
 20
94.1521344203
 30
0.0
 11
233.6613484363
 21
94.1521344203
 31
0.0
  0
LINE
  5
CF
330
1F
100
AcDbEntity
  8
0
  6
HIDDEN
 62
     7
370
     0
100
AcDbLine
 10
190.1613484363
 20
109.9685793166
 30
0.0
 11
190.1613484363
 21
93.3685793166
 31
0.0
  0
LINE
  5
D0
330
1F
100
AcDbEntity
  8
0
  6
HIDDEN
 62
     7
370
     0
100
AcDbLine
 10
190.1613484363
 20
126.5685793166
 30
0.0
 11
190.1613484363
 21
109.9685793166
 31
0.0
  0
LINE
  5
D1
330
1F
100
AcDbEntity
  8
0
  6
HIDDEN
 62
     7
370
     0
100
AcDbLine
 10
189.1613484363
 20
109.9685793166
 30
0.0
 11
189.1613484363
 21
95.9685793166
 31
0.0
  0
LINE
  5
D2
330
1F
100
AcDbEntity
  8
0
  6
HIDDEN
 62
     7
370
     0
100
AcDbLine
 10
189.1613484363
 20
123.9685793166
 30
0.0
 11
189.1613484363
 21
109.9685793166
 31
0.0
  0
LINE
  5
D3
330
1F
100
AcDbEntity
  8
0
  6
HIDDEN
 62
     7
370
     0
100
AcDbLine
 10
158.1613484363
 20
109.9685793166
 30
0.0
 11
158.1613484363
 21
95.9685793166
 31
0.0
  0
LINE
  5
D4
330
1F
100
AcDbEntity
  8
0
  6
HIDDEN
 62
     7
370
     0
100
AcDbLine
 10
158.1613484363
 20
123.9685793166
 30
0.0
 11
158.1613484363
 21
109.9685793166
 31
0.0
  0
LINE
  5
D5
330
1F
100
AcDbEntity
  8
0
  6
HIDDEN
 62
     7
370
     0
100
AcDbLine
 10
156.0583362697
 20
109.9685793166
 30
0.0
 11
156.0583362697
 21
99.4685793166
 31
0.0
  0
LINE
  5
D6
330
1F
100
AcDbEntity
  8
0
  6
HIDDEN
 62
     7
370
     0
100
AcDbLine
 10
156.0583362697
 20
120.4685793166
 30
0.0
 11
156.0583362697
 21
109.9685793166
 31
0.0
  0
LINE
  5
D7
330
1F
100
AcDbEntity
  8
0
  6
HIDDEN
 62
     7
370
     0
100
AcDbLine
 10
165.6613484363
 20
145.2685793166
 30
0.0
 11
165.8329213116
 21
145.2685793166
 31
0.0
  0
ELLIPSE
  5
D8
330
1F
100
AcDbEntity
  8
0
  6
HIDDEN
 62
     7
370
     0
100
AcDbEllipse
 10
165.8329213116
 20
147.2685793166
 30
0.0
 11
0.0
 21
2.0
 31
0.0
210
0.0
220
0.0
230
1.0
 40
0.4142135624
 41
3.141592653589793
 42
4.712388980384695
  0
ELLIPSE
  5
D9
330
1F
100
AcDbEntity
  8
0
  6
HIDDEN
 62
     7
370
     0
100
AcDbEllipse
 10
165.8329213116
 20
72.6685793166
 30
0.0
 11
0.0
 21
2.0
 31
0.0
210
0.0
220
0.0
230
1.0
 40
0.4142135624
 41
4.712388980384702
 42
6.283185307179586
  0
LINE
  5
DA
330
1F
100
AcDbEntity
  8
0
  6
HIDDEN
 62
     7
370
     0
100
AcDbLine
 10
165.8329213116
 20
74.6685793166
 30
0.0
 11
165.6613484363
 21
74.6685793166
 31
0.0
  0
LINE
  5
DB
330
1F
100
AcDbEntity
  8
0
  6
HIDDEN
 62
     7
370
     0
100
AcDbLine
 10
166.6613484363
 20
62.6480091627
 30
0.0
 11
166.0474848564
 21
62.0341455827
 31
0.0
  0
LINE
  5
DC
330
1F
100
AcDbEntity
  8
0
  6
HIDDEN
 62
     7
370
     0
100
AcDbLine
 10
166.0474848564
 20
157.9030130505
 30
0.0
 11
166.6613484363
 21
157.2891494705
 31
0.0
  0
LINE
  5
DD
330
1F
100
AcDbEntity
  8
0
  6
HIDDEN
 62
     7
370
     0
100
AcDbLine
 10
182.8113484363
 20
74.6685793166
 30
0.0
 11
165.8329213116
 21
74.6685793166
 31
0.0
  0
LINE
  5
DE
330
1F
100
AcDbEntity
  8
0
  6
HIDDEN
 62
     7
370
     0
100
AcDbLine
 10
166.6613484363
 20
157.2891494705
 30
0.0
 11
178.8939174728
 21
157.2891494705
 31
0.0
  0
LINE
  5
DF
330
1F
100
AcDbEntity
  8
0
  6
HIDDEN
 62
     7
370
     0
100
AcDbLine
 10
166.6613484363
 20
157.2891494705
 30
0.0
 11
166.6613484363
 21
147.2685793166
 31
0.0
  0
LINE
  5
E0
330
1F
100
AcDbEntity
  8
0
  6
HIDDEN
 62
     7
370
     0
100
AcDbLine
 10
178.8939174728
 20
62.6480091627
 30
0.0
 11
166.6613484363
 21
62.6480091627
 31
0.0
  0
LINE
  5
E1
330
1F
100
AcDbEntity
  8
0
  6
HIDDEN
 62
     7
370
     0
100
AcDbLine
 10
166.6613484363
 20
62.6480091627
 30
0.0
 11
166.6613484363
 21
72.6685793166
 31
0.0
  0
LINE
  5
E2
330
1F
100
AcDbEntity
  8
0
  6
HIDDEN
 62
     7
370
     0
100
AcDbLine
 10
165.8329213116
 20
145.2685793166
 30
0.0
 11
182.8113484363
 21
145.2685793166
 31
0.0
  0
LINE
  5
E3
330
1F
100
AcDbEntity
  8
0
  6
HIDDEN
 62
     7
370
     0
100
AcDbLine
 10
182.8113484363
 20
145.2685793166
 30
0.0
 11
193.6613484363
 21
145.2685793166
 31
0.0
  0
SPLINE
  5
E4
330
1F
100
AcDbEntity
  8
0
  6
HIDDEN
 62
     7
370
     0
100
AcDbSpline
210
0.0
220
0.0
230
1.0
 70
     8
 71
     3
 72
    13
 73
     9
 74
     0
 42
0.000000001
 43
0.00000001
 40
0.0
 40
0.0
 40
0.0
 40
0.0
 40
0.0005825290635638
 40
0.1623661983610097
 40
0.3287385494389913
 40
0.4998718252132356
 40
0.7262528256425268
 40
1.0
 40
1.0
 40
1.0
 40
1.0
 10
195.6609142789254
 20
60.96871212324601
 30
0.0
 10
195.6610590649603
 20
60.96866778105271
 30
0.0
 10
195.70141474768
 20
60.95630844345999
 30
0.0
 10
195.587260140792
 20
60.9919375294621
 30
0.0
 10
195.3631430331125
 20
61.05978549237376
 30
0.0
 10
194.883834142115
 20
61.19887866652284
 30
0.0
 10
194.09032648445
 20
61.42912524728127
 30
0.0
 10
193.2213086119702
 20
61.64461081805385
 30
0.0
 10
192.7456481732059
 20
61.76255771464481
 30
0.0
  0
LINE
  5
E5
330
1F
100
AcDbEntity
  8
0
  6
HIDDEN
 62
     7
370
     0
100
AcDbLine
 10
193.6613484363
 20
74.6685793166
 30
0.0
 11
182.8113484363
 21
74.6685793166
 31
0.0
  0
SPLINE
  5
E6
330
1F
100
AcDbEntity
  8
0
  6
HIDDEN
 62
     7
370
     0
100
AcDbSpline
210
0.0
220
0.0
230
1.0
 70
     8
 71
     3
 72
    14
 73
    10
 74
     0
 42
0.000000001
 43
0.00000001
 40
0.0
 40
0.0
 40
0.0
 40
0.0
 40
0.1878282877623173
 40
0.3545816313016879
 40
0.5003024319338173
 40
0.6713282049188825
 40
0.8376422060211013
 40
0.9994166164999629
 40
1.0
 40
1.0
 40
1.0
 40
1.0
 10
192.7456481732059
 20
158.1746009185287
 30
0.0
 10
193.0786510955952
 20
158.2561488559823
 30
0.0
 10
193.7072929304101
 20
158.4100947873224
 30
0.0
 10
194.4067295023149
 20
158.6010735054405
 30
0.0
 10
194.9546066017445
 20
158.7584457925163
 30
0.0
 10
195.3607221958617
 20
158.8767712285399
 30
0.0
 10
195.5938500885607
 20
158.9471482431549
 30
0.0
 10
195.6878394751578
 20
158.9767825944293
 30
0.0
 10
195.661156582014
 20
158.9685200688258
 30
0.0
 10
195.6610607051286
 20
158.9684903799455
 30
0.0
  0
LINE
  5
E7
330
1F
100
AcDbEntity
  8
0
  6
HIDDEN
 62
     7
370
     0
100
AcDbLine
 10
193.2449825381
 20
158.2989149564
 30
0.0
 11
192.7456438848
 21
158.1746455729
 31
0.0
  0
LINE
  5
E8
330
1F
100
AcDbEntity
  8
0
  6
HIDDEN
 62
     7
370
     0
100
AcDbLine
 10
70.8613484363
 20
97.4685793166
 30
0.0
 11
70.8613484363
 21
122.4685793166
 31
0.0
  0
LINE
  5
E9
330
1F
100
AcDbEntity
  8
0
  6
HIDDEN
 62
     7
370
     0
100
AcDbLine
 10
74.1459527853
 20
99.4685793166
 30
0.0
 11
74.1459527853
 21
120.4685793166
 31
0.0
  0
LINE
  5
EA
330
1F
100
AcDbEntity
  8
0
  6
HIDDEN
 62
     7
370
     0
100
AcDbLine
 10
234.1613484362
 20
132.8685793166
 30
0.0
 11
234.1581909415
 21
133.6147772928
 31
0.0
  0
SPLINE
  5
EB
330
1F
100
AcDbEntity
  8
0
  6
HIDDEN
 62
     7
370
     0
100
AcDbSpline
210
0.0
220
0.0
230
1.0
 70
     8
 71
     3
 72
    11
 73
     7
 74
     0
 42
0.000000001
 43
0.00000001
 40
0.0
 40
0.0
 40
0.0
 40
0.0
 40
0.258249309247481
 40
0.5833708247275908
 40
0.9088511347815552
 40
1.0
 40
1.0
 40
1.0
 40
1.0
 10
234.090076375306
 20
135.4196890861216
 30
0.0
 10
234.0859950021547
 20
135.397362726785
 30
0.0
 10
234.0767754072282
 20
135.3469287229254
 30
0.0
 10
234.099059963875
 20
134.5790131039736
 30
0.0
 10
234.187186474659
 20
133.6411597646959
 30
0.0
 10
234.1704144901248
 20
133.0072616256271
 30
0.0
 10
234.1667451663028
 20
132.868579316587
 30
0.0
  0
SPLINE
  5
EC
330
1F
100
AcDbEntity
  8
0
  6
HIDDEN
 62
     7
370
     0
100
AcDbSpline
210
0.0
220
0.0
230
1.0
 70
     8
 71
     3
 72
    14
 73
    10
 74
     0
 42
0.000000001
 43
0.00000001
 40
0.0
 40
0.0
 40
0.0
 40
0.0
 40
0.25
 40
0.25
 40
0.5
 40
0.5
 40
0.75
 40
0.75
 40
1.0
 40
1.0
 40
1.0
 40
1.0
 10
234.1667451663026
 20
132.8685793165868
 30
0.0
 10
234.138927225583
 20
132.2967965223785
 30
0.0
 10
234.1560266688971
 20
131.7248215738897
 30
0.0
 10
234.1687227505461
 20
130.5809053294707
 30
0.0
 10
234.1676193024982
 20
130.0089068759353
 30
0.0
 10
234.1628718740128
 20
128.8649348272916
 30
0.0
 10
234.1601190455032
 20
128.2929493922017
 30
0.0
 10
234.1599600652928
 20
127.1489730223826
 30
0.0
 10
234.1611072243032
 20
126.5769842476482
 30
0.0
 10
234.1613088563047
 20
126.0049954311982
 30
0.0
  0
SPLINE
  5
ED
330
1F
100
AcDbEntity
  8
0
  6
HIDDEN
 62
     7
370
     0
100
AcDbSpline
210
0.0
220
0.0
230
1.0
 70
     8
 71
     3
 72
    14
 73
    10
 74
     0
 42
0.000000001
 43
0.00000001
 40
0.0
 40
0.0
 40
0.0
 40
0.0
 40
0.25
 40
0.25
 40
0.5
 40
0.5
 40
0.75
 40
0.75
 40
1.0
 40
1.0
 40
1.0
 40
1.0
 10
234.1667341922856
 20
87.06857931658676
 30
0.0
 10
234.1389755685477
 20
87.64028709377618
 30
0.0
 10
234.1559838154878
 20
88.21228088764998
 30
0.0
 10
234.1687800830038
 20
89.35620248716532
 30
0.0
 10
234.1675686185348
 20
89.92821479197328
 30
0.0
 10
234.1627828269371
 20
91.07219791276147
 30
0.0
 10
234.1601863829668
 20
91.64418915147488
 30
0.0
 10
234.1599087025867
 20
92.78818044290041
 30
0.0
 10
234.1610497256548
 20
93.36017666166138
 30
0.0
 10
234.1612986300143
 20
93.93217280437524
 30
0.0
  0
LINE
  5
EE
330
1F
100
AcDbEntity
  8
0
  6
HIDDEN
 62
     7
370
     0
100
AcDbLine
 10
234.1613484362
 20
87.0685793166
 30
0.0
 11
234.1579584877
 21
86.3810806543
 31
0.0
  0
SPLINE
  5
EF
330
1F
100
AcDbEntity
  8
0
  6
HIDDEN
 62
     7
370
     0
100
AcDbSpline
210
0.0
220
0.0
230
1.0
 70
     8
 71
     3
 72
    11
 73
     7
 74
     0
 42
0.000000001
 43
0.00000001
 40
0.0
 40
0.0
 40
0.0
 40
0.0
 40
0.2794600215347619
 40
0.604480813715927
 40
0.9299383732885342
 40
0.9999999999999999
 40
0.9999999999999999
 40
0.9999999999999999
 40
0.9999999999999999
 10
234.0893181225817
 20
84.5049321582203
 30
0.0
 10
234.0856501358083
 20
84.53879519835688
 30
0.0
 10
234.0777161650839
 20
84.61204201893698
 30
0.0
 10
234.1021438833196
 20
85.4239999864682
 30
0.0
 10
234.1892070662032
 20
86.3577507768611
 30
0.0
 10
234.1701159598749
 20
86.96161227151956
 30
0.0
 10
234.1667341922856
 20
87.06857931658675
 30
0.0
  0
SPLINE
  5
F0
330
1F
100
AcDbEntity
  8
0
  6
HIDDEN
 62
     7
370
     0
100
AcDbSpline
210
0.0
220
0.0
230
1.0
 70
     8
 71
     3
 72
     9
 73
     5
 74
     0
 42
0.000000001
 43
0.00000001
 40
0.0
 40
0.0
 40
0.0
 40
0.0
 40
0.4951995003022724
 40
1.0
 40
1.0
 40
1.0
 40
1.0
 10
192.7456326507562
 20
158.1745914809995
 30
0.0
 10
192.8508288723919
 20
158.3317472411195
 30
0.0
 10
193.0632608751938
 20
158.6491057199227
 30
0.0
 10
193.2779792587076
 20
158.9677322680254
 30
0.0
 10
193.3863692059997
 20
159.1285751087246
 30
0.0
  0
SPLINE
  5
F1
330
1F
100
AcDbEntity
  8
0
  6
HIDDEN
 62
     7
370
     0
100
AcDbSpline
210
0.0
220
0.0
230
1.0
 70
     8
 71
     3
 72
     9
 73
     5
 74
     0
 42
0.000000001
 43
0.00000001
 40
0.0
 40
0.0
 40
0.0
 40
0.0
 40
0.504800498279835
 40
0.9999999999999999
 40
0.9999999999999999
 40
0.9999999999999999
 40
0.9999999999999999
 10
193.3863692059995
 20
60.80858352444925
 30
0.0
 10
193.2779792590119
 20
60.96942636469589
 30
0.0
 10
193.0632608754979
 20
61.28805291279701
 30
0.0
 10
192.8508288726941
 20
61.60541139160278
 30
0.0
 10
192.7456326507562
 20
61.76256715217406
 30
0.0
  0
LINE
  5
F2
330
1F
100
AcDbEntity
  8
0
  6
HIDDEN
 62
     7
370
     0
100
AcDbLine
 10
218.0613484362
 20
132.8685793166
 30
0.0
 11
218.0613484362
 21
125.7850242129
 31
0.0
  0
LINE
  5
F3
330
1F
100
AcDbEntity
  8
0
  6
HIDDEN
 62
     7
370
     0
100
AcDbLine
 10
218.0613484362
 20
87.0685793166
 30
0.0
 11
218.0613484362
 21
94.1521344203
 31
0.0
  0
LINE
  5
F4
330
1F
100
AcDbEntity
  8
0
  6
HIDDEN
 62
     7
370
     0
100
AcDbLine
 10
218.0613484362
 20
135.4685793166
 30
0.0
 11
218.0613484362
 21
132.8685793166
 31
0.0
  0
LINE
  5
F5
330
1F
100
AcDbEntity
  8
0
  6
HIDDEN
 62
     7
370
     0
100
AcDbLine
 10
218.0613484362
 20
84.4685793166
 30
0.0
 11
218.0613484362
 21
87.0685793166
 31
0.0
  0
ARC
  5
F6
330
1F
100
AcDbEntity
  8
0
  6
HIDDEN
 62
     7
370
     0
100
AcDbCircle
 10
195.1613484363
 20
127.4685793166
 30
0.0
 40
1.000000000000028
100
AcDbArc
 50
90.0
 51
180.0
  0
ARC
  5
F7
330
1F
100
AcDbEntity
  8
0
  6
HIDDEN
 62
     7
370
     0
100
AcDbCircle
 10
195.1613484363
 20
92.4685793166
 30
0.0
 40
1.000000000000028
100
AcDbArc
 50
180.0
 51
270.0
  0
LINE
  5
F8
330
1F
100
AcDbEntity
  8
0
  6
HIDDEN
 62
     7
370
     0
100
AcDbLine
 10
197.0296959387
 20
128.4685793166
 30
0.0
 11
195.1613484363
 21
128.4685793166
 31
0.0
  0
LINE
  5
F9
330
1F
100
AcDbEntity
  8
0
  6
HIDDEN
 62
     7
370
     0
100
AcDbLine
 10
195.1613484363
 20
91.4685793166
 30
0.0
 11
197.0296959387
 21
91.4685793166
 31
0.0
  0
ARC
  5
FA
330
1F
100
AcDbEntity
  8
0
  6
HIDDEN
 62
     7
370
     0
100
AcDbCircle
 10
197.0296959387
 20
127.4685793166
 30
0.0
 40
1.000000000000003
100
AcDbArc
 50
75.0
 51
90.0
  0
ARC
  5
FB
330
1F
100
AcDbEntity
  8
0
  6
HIDDEN
 62
     7
370
     0
100
AcDbCircle
 10
197.0296959387
 20
92.4685793166
 30
0.0
 40
1.000000000000017
100
AcDbArc
 50
270.0
 51
285.0
  0
LINE
  5
FC
330
1F
100
AcDbEntity
  8
0
  6
HIDDEN
 62
     7
370
     0
100
AcDbLine
 10
197.2885149838
 20
91.5026534903
 30
0.0
 11
199.0273738401
 21
91.9685793166
 31
0.0
  0
LINE
  5
FD
330
1F
100
AcDbEntity
  8
0
  6
HIDDEN
 62
     7
370
     0
100
AcDbLine
 10
199.0273738401
 20
127.9685793166
 30
0.0
 11
197.2885149838
 21
128.4345051429
 31
0.0
  0
LINE
  5
FE
330
1F
100
AcDbEntity
  8
0
  6
HIDDEN
 62
     7
370
     0
100
AcDbLine
 10
218.0613484362
 20
127.9685793166
 30
0.0
 11
199.0273738401
 21
127.9685793166
 31
0.0
  0
LINE
  5
FF
330
1F
100
AcDbEntity
  8
0
  6
HIDDEN
 62
     7
370
     0
100
AcDbLine
 10
199.0273738401
 20
91.9685793166
 30
0.0
 11
218.0613484362
 21
91.9685793166
 31
0.0
  0
ARC
  5
100
330
1F
100
AcDbEntity
  8
0
  6
HIDDEN
 62
     7
370
     0
100
AcDbCircle
 10
190.5613484363
 20
126.5685793166
 30
0.0
 40
0.4000000000000341
100
AcDbArc
 50
90.0
 51
180.0
  0
ARC
  5
101
330
1F
100
AcDbEntity
  8
0
  6
HIDDEN
 62
     7
370
     0
100
AcDbCircle
 10
190.5613484363
 20
93.3685793166
 30
0.0
 40
0.4000000000000341
100
AcDbArc
 50
180.0
 51
270.0
  0
LINE
  5
102
330
1F
100
AcDbEntity
  8
0
  6
HIDDEN
 62
     7
370
     0
100
AcDbLine
 10
194.1613484363
 20
126.9685793166
 30
0.0
 11
190.5613484363
 21
126.9685793166
 31
0.0
  0
LINE
  5
103
330
1F
100
AcDbEntity
  8
0
  6
HIDDEN
 62
     7
370
     0
100
AcDbLine
 10
190.5613484363
 20
92.9685793166
 30
0.0
 11
194.1613484363
 21
92.9685793166
 31
0.0
  0
LINE
  5
104
330
1F
100
AcDbEntity
  8
0
  6
HIDDEN
 62
     7
370
     0
100
AcDbLine
 10
190.1613484363
 20
124.9685793166
 30
0.0
 11
189.1613484363
 21
123.9685793166
 31
0.0
  0
LINE
  5
105
330
1F
100
AcDbEntity
  8
0
  6
HIDDEN
 62
     7
370
     0
100
AcDbLine
 10
189.1613484363
 20
95.9685793166
 30
0.0
 11
190.1613484363
 21
94.9685793166
 31
0.0
  0
LINE
  5
106
330
1F
100
AcDbEntity
  8
0
  6
HIDDEN
 62
     7
370
     0
100
AcDbLine
 10
189.1613484363
 20
123.9685793166
 30
0.0
 11
158.1613484363
 21
123.9685793166
 31
0.0
  0
LINE
  5
107
330
1F
100
AcDbEntity
  8
0
  6
HIDDEN
 62
     7
370
     0
100
AcDbLine
 10
158.1613484363
 20
95.9685793166
 30
0.0
 11
189.1613484363
 21
95.9685793166
 31
0.0
  0
LINE
  5
108
330
1F
100
AcDbEntity
  8
0
  6
HIDDEN
 62
     7
370
     0
100
AcDbLine
 10
158.1613484363
 20
123.9685793166
 30
0.0
 11
156.0583362697
 21
120.4685793166
 31
0.0
  0
LINE
  5
109
330
1F
100
AcDbEntity
  8
0
  6
HIDDEN
 62
     7
370
     0
100
AcDbLine
 10
156.0583362697
 20
99.4685793166
 30
0.0
 11
158.1613484363
 21
95.9685793166
 31
0.0
  0
ARC
  5
10A
330
1F
100
AcDbEntity
  8
0
  6
HIDDEN
 62
     7
370
     0
100
AcDbCircle
 10
62.0613484363
 20
96.2685793166
 30
0.0
 40
1.20000000000001
100
AcDbArc
 50
90.0
 51
180.0
  0
ARC
  5
10B
330
1F
100
AcDbEntity
  8
0
  6
HIDDEN
 62
     7
370
     0
100
AcDbCircle
 10
62.0613484363
 20
123.6685793166
 30
0.0
 40
1.20000000000001
100
AcDbArc
 50
180.0
 51
270.0
  0
ARC
  5
10C
330
1F
100
AcDbEntity
  8
0
  6
HIDDEN
 62
     7
370
     0
100
AcDbCircle
 10
193.6613484363
 20
147.2685793166
 30
0.0
 40
2.000000000000028
100
AcDbArc
 50
270.0
 51
0.0
  0
LINE
  5
10D
330
1F
100
AcDbEntity
  8
0
  6
HIDDEN
 62
     7
370
     0
100
AcDbLine
 10
195.6613484363
 20
60.8683639295
 30
0.0
 11
195.6613484363
 21
72.6685793166
 31
0.0
  0
ARC
  5
10E
330
1F
100
AcDbEntity
  8
0
  6
HIDDEN
 62
     7
370
     0
100
AcDbCircle
 10
193.6613484363
 20
72.6685793166
 30
0.0
 40
2.000000000000028
100
AcDbArc
 50
0.0
 51
90.0
  0
LINE
  5
10F
330
1F
100
AcDbEntity
  8
0
  6
HIDDEN
 62
     7
370
     0
100
AcDbLine
 10
195.6613484363
 20
147.2685793166
 30
0.0
 11
195.6613484363
 21
159.0686826671
 31
0.0
  0
LINE
  5
110
330
1F
100
AcDbEntity
  8
0
  6
HIDDEN
 62
     7
370
     0
100
AcDbLine
 10
71.7537208671
 20
97.2435793166
 30
0.0
 11
72.6304083286
 21
97.2435793166
 31
0.0
  0
LINE
  5
111
330
1F
100
AcDbEntity
  8
0
  6
HIDDEN
 62
     7
370
     0
100
AcDbLine
 10
72.6304083286
 20
122.6935793166
 30
0.0
 11
71.7537208671
 21
122.6935793166
 31
0.0
  0
ARC
  5
112
330
1F
100
AcDbEntity
  8
0
  6
HIDDEN
 62
     7
370
     0
100
AcDbCircle
 10
72.6304083286
 20
97.6435793166
 30
0.0
 40
0.4000000000000199
100
AcDbArc
 50
270.0
 51
330.0
  0
ARC
  5
113
330
1F
100
AcDbEntity
  8
0
  6
HIDDEN
 62
     7
370
     0
100
AcDbCircle
 10
72.6304083286
 20
122.2935793166
 30
0.0
 40
0.4000000000000121
100
AcDbArc
 50
30.0
 51
90.0
  0
ARC
  5
114
330
1F
100
AcDbEntity
  8
0
  6
HIDDEN
 62
     7
370
     0
100
AcDbCircle
 10
71.7537208671
 20
97.6435793166
 30
0.0
 40
0.4000000000000199
100
AcDbArc
 50
255.0
 51
270.0
  0
ARC
  5
115
330
1F
100
AcDbEntity
  8
0
  6
HIDDEN
 62
     7
370
     0
100
AcDbCircle
 10
71.7537208671
 20
122.2935793166
 30
0.0
 40
0.4000000000000057
100
AcDbArc
 50
90.0
 51
105.0
  0
LINE
  5
116
330
1F
100
AcDbEntity
  8
0
  6
HIDDEN
 62
     7
370
     0
100
AcDbLine
 10
71.650193249
 20
122.6799496471
 30
0.0
 11
70.8613484363
 21
122.4685793166
 31
0.0
  0
LINE
  5
117
330
1F
100
AcDbEntity
  8
0
  6
HIDDEN
 62
     7
370
     0
100
AcDbLine
 10
70.8613484363
 20
97.4685793166
 30
0.0
 11
71.650193249
 21
97.2572089861
 31
0.0
  0
LINE
  5
118
330
1F
100
AcDbEntity
  8
0
  6
HIDDEN
 62
     7
370
     0
100
AcDbLine
 10
72.9768184902
 20
97.4435793166
 30
0.0
 11
74.1459527853
 21
99.4685793166
 31
0.0
  0
LINE
  5
119
330
1F
100
AcDbEntity
  8
0
  6
HIDDEN
 62
     7
370
     0
100
AcDbLine
 10
74.1459527853
 20
120.4685793166
 30
0.0
 11
72.9768184902
 21
122.4935793166
 31
0.0
  0
LINE
  5
11A
330
1F
100
AcDbEntity
  8
0
  6
HIDDEN
 62
     7
370
     0
100
AcDbLine
 10
62.0613484363
 20
97.4685793166
 30
0.0
 11
70.8613484363
 21
97.4685793166
 31
0.0
  0
LINE
  5
11B
330
1F
100
AcDbEntity
  8
0
  6
HIDDEN
 62
     7
370
     0
100
AcDbLine
 10
70.8613484363
 20
122.4685793166
 30
0.0
 11
62.0613484363
 21
122.4685793166
 31
0.0
  0
LINE
  5
11C
330
1F
100
AcDbEntity
  8
0
  6
HIDDEN
 62
     7
370
     0
100
AcDbLine
 10
74.1459527853
 20
99.4685793166
 30
0.0
 11
156.0583362697
 21
99.4685793166
 31
0.0
  0
LINE
  5
11D
330
1F
100
AcDbEntity
  8
0
  6
HIDDEN
 62
     7
370
     0
100
AcDbLine
 10
156.0583362697
 20
120.4685793166
 30
0.0
 11
74.1459527853
 21
120.4685793166
 31
0.0
  0
LINE
  5
11E
330
1F
100
AcDbEntity
  8
0
  6
HIDDEN
 62
     7
370
     0
100
AcDbLine
 10
234.6613484362
 20
136.0426608424
 30
0.0
 11
234.0745899668
 21
135.4559098527
 31
0.0
  0
LINE
  5
11F
330
1F
100
AcDbEntity
  8
0
  6
HIDDEN
 62
     7
370
     0
100
AcDbLine
 10
234.0743888704
 20
84.4814450802
 30
0.0
 11
234.6613484362
 21
83.8944975565
 31
0.0
  0
LINE
  5
120
330
1F
100
AcDbEntity
  8
0
  6
HIDDEN
 62
     7
370
     0
100
AcDbLine
 10
195.6613527567
 20
158.9685798403
 30
0.0
 11
196.6613526061
 21
159.9685796192
 31
0.0
  0
LINE
  5
121
330
1F
100
AcDbEntity
  8
0
  6
HIDDEN
 62
     7
370
     0
100
AcDbLine
 10
196.6613526067
 20
59.9685790133
 30
0.0
 11
195.6613527574
 21
60.9685787922
 31
0.0
  0
LINE
  5
122
330
1F
100
AcDbEntity
  8
0
  6
HIDDEN
 62
     7
370
     0
100
AcDbLine
 10
234.0904480705
 20
135.4685793166
 30
0.0
 11
218.0613484362
 21
135.4685793166
 31
0.0
  0
LINE
  5
123
330
1F
100
AcDbEntity
  8
0
  6
HIDDEN
 62
     7
370
     0
100
AcDbLine
 10
218.0613484362
 20
84.4685793166
 30
0.0
 11
234.0895791129
 21
84.4685793166
 31
0.0
  0
DIMENSION
  5
124
330
1F
100
AcDbEntity
  8
VERMASSUNG
100
AcDbDimension
  2
_D
 10
244.7578936711
 20
91.9685793166
 30
0.0
 11
244.7578936711
 21
109.9685793166
 31
0.0
 70
   160
  1
%%c<>
 71
     2
 42
-1.0
  3
SLDDIMSTYLE0
100
AcDbAlignedDimension
 13
218.0613484362
 23
127.9685793166
 33
0.0
 14
218.0613484362
 24
91.9685793166
 34
0.0
 50
90.0
100
AcDbRotatedDimension
  0
DIMENSION
  5
130
330
1F
100
AcDbEntity
  8
VERMASSUNG
100
AcDbDimension
  2
_D_1
 10
250.7578936711
 20
77.9685793166
 30
0.0
 11
250.7578936711
 21
109.9685793166
 31
0.0
 70
   160
  1
ST6 %%c<>
 71
     2
 42
-1.0
  3
SLDDIMSTYLE0
100
AcDbAlignedDimension
 13
234.0613484363
 23
141.9685793166
 33
0.0
 14
234.0613484363
 24
77.9685793166
 34
0.0
 50
90.0
100
AcDbRotatedDimension
  0
DIMENSION
  5
13C
330
1F
100
AcDbEntity
  8
VERMASSUNG
100
AcDbDimension
  2
_D_2
 10
234.6613484363
 20
165.0838237491
 30
0.0
 11
217.6613484363
 21
165.0838237491
 31
0.0
 70
   160
  1
(<>)
 71
     2
 42
-1.0
  3
SLDDIMSTYLE0
100
AcDbAlignedDimension
 13
200.6613484363
 23
158.9685793166
 33
0.0
 14
234.6613484363
 24
141.3685793166
 34
0.0
100
AcDbRotatedDimension
  0
DIMENSION
  5
148
330
1F
100
AcDbEntity
  8
VERMASSUNG
100
AcDbDimension
  2
_D_3
 10
234.6613484363
 20
171.0838237491
 30
0.0
 11
198.6613484363
 21
171.0838237491
 31
0.0
 70
   160
  1
<>
 71
     2
 42
-1.0
  3
SLDDIMSTYLE0
100
AcDbAlignedDimension
 13
162.6613484363
 23
144.8935793166
 33
0.0
 14
234.6613484363
 24
141.3685793166
 34
0.0
100
AcDbRotatedDimension
  0
DIMENSION
  5
152
330
1F
100
AcDbEntity
  8
VERMASSUNG
100
AcDbDimension
  2
_D_4
 10
234.6613484363
 20
177.0838237491
 30
0.0
 11
147.7613484363
 21
177.0838237491
 31
0.0
 70
   160
  1
(<>)
 71
     2
 42
-1.0
  3
SLDDIMSTYLE0
100
AcDbAlignedDimension
 13
60.8613484363
 23
128.3182571773
 33
0.0
 14
234.6613484363
 24
141.3685793166
 34
0.0
100
AcDbRotatedDimension
  0
DIMENSION
  5
15E
330
1F
100
AcDbEntity
  8
VERMASSUNG
100
AcDbDimension
  2
_D_5
 10
54.616193001
 20
59.9685793166
 30
0.0
 11
54.616193001
 21
109.9685793166
 31
0.0
 70
   160
  1
MAS BT 50 %%c<>
 71
     2
 42
-1.0
  3
SLDDIMSTYLE0
100
AcDbAlignedDimension
 13
196.6613503448
 23
159.9685793166
 33
0.0
 14
196.6613504984
 24
59.9685793166
 34
0.0
 50
90.0
100
AcDbRotatedDimension
  0
LINE
  5
16A
330
1F
100
AcDbEntity
  8
VERMASSUNG
  6
CENTERX2
370
     0
100
AcDbLine
 10
58.8613484363
 20
109.9685793166
 30
0.0
 11
236.5361732785
 21
109.9685793166
 31
0.0
  0
LINE
  5
16B
330
1F
100
AcDbEntity
  8
0
  6
Continuous
 62
     7
370
    15
100
AcDbLine
 10
258.1959695149
 20
36.5748496359
 30
0.0
 11
258.1252473471
 21
36.6156899454
 31
0.0
  0
LINE
  5
16C
330
1F
100
AcDbEntity
  8
0
  6
Continuous
 62
     7
370
    15
100
AcDbLine
 10
256.5693596557
 20
36.6156899454
 30
0.0
 11
256.4986374879
 21
36.5748496359
 31
0.0
  0
LINE
  5
16D
330
1F
100
AcDbEntity
  8
0
  6
Continuous
 62
     7
370
    15
100
AcDbLine
 10
258.5473035014
 20
35.9626032541
 30
0.0
 11
258.5473035014
 21
36.0850843759
 31
0.0
  0
LINE
  5
16E
330
1F
100
AcDbEntity
  8
0
  6
Continuous
 62
     7
370
    15
100
AcDbLine
 10
256.1473035014
 20
36.0850843759
 30
0.0
 11
256.1473035014
 21
35.9626032541
 31
0.0
  0
SPLINE
  5
16F
330
1F
100
AcDbEntity
  8
0
  6
Continuous
 62
     7
370
    15
100
AcDbSpline
210
0.0
220
0.0
230
1.0
 70
     8
 71
     3
 72
    16
 73
    12
 74
     0
 42
0.000000001
 43
0.00000001
 40
0.0
 40
0.0
 40
0.0
 40
0.0
 40
0.0336342476256904
 40
0.1629781656258138
 40
0.2928558275754839
 40
0.4232046063284585
 40
0.5539116302629441
 40
0.684855439535946
 40
0.8159317505816057
 40
0.9470631149861339
 40
1.0
 40
1.0
 40
1.0
 40
1.0
 10
251.1864360960861
 20
23.36412130433112
 30
0.0
 10
251.2287360594327
 20
23.35862895012775
 30
0.0
 10
251.4337048314117
 20
23.33201518956458
 30
0.0
 10
251.8220703628778
 20
23.34197127992629
 30
0.0
 10
252.3487477476002
 20
23.39598005216714
 30
0.0
 10
252.8919708168165
 20
23.51219719900074
 30
0.0
 10
253.4460957027654
 20
23.6844446159118
 30
0.0
 10
254.0081201278645
 20
23.91216507027169
 30
0.0
 10
254.5738051126136
 20
24.19724952448262
 30
0.0
 10
255.0281992842803
 20
24.45863561836091
 30
0.0
 10
255.2911196546471
 20
24.64170333449291
 30
0.0
 10
255.3667339197792
 20
24.69435247234939
 30
0.0
  0
SPLINE
  5
170
330
1F
100
AcDbEntity
  8
0
  6
Continuous
 62
     7
370
    15
100
AcDbSpline
210
0.0
220
0.0
230
1.0
 70
     8
 71
     3
 72
    16
 73
    12
 74
     0
 42
0.000000001
 43
0.00000001
 40
0.0
 40
0.0
 40
0.0
 40
0.0
 40
0.0121781899182269
 40
0.1438967611399043
 40
0.2756718223469586
 40
0.4074836386157001
 40
0.53927886266928
 40
0.6709835131113857
 40
0.802495006905237
 40
0.9336850036704568
 40
0.9999999999999999
 40
0.9999999999999999
 40
0.9999999999999999
 40
0.9999999999999999
 10
261.7694913612754
 20
35.77788581996576
 30
0.0
 10
261.7715903486555
 20
35.79905537449977
 30
0.0
 10
261.7963918575584
 20
36.04919356027887
 30
0.0
 10
261.8016156560436
 20
36.5095500223491
 30
0.0
 10
261.7813887697334
 20
37.15229940900851
 30
0.0
 10
261.71103949693
 20
37.76422637461929
 30
0.0
 10
261.5965930437662
 20
38.34373822216372
 30
0.0
 10
261.4377011375263
 20
38.88711660954469
 30
0.0
 10
261.2329938556424
 20
39.38770510414887
 30
0.0
 10
261.0328944328479
 20
39.77727912087235
 30
0.0
 10
260.8858548189358
 20
39.98090091120869
 30
0.0
 10
260.8364842622522
 20
40.049269705674
 30
0.0
  0
LINE
  5
171
330
1F
100
AcDbEntity
  8
0
  6
Continuous
 62
     7
370
    15
100
AcDbLine
 10
248.7803561271
 20
24.3397780993
 30
0.0
 11
249.6677751375
 21
23.8274820091
 31
0.0
  0
LINE
  5
172
330
1F
100
AcDbEntity
  8
0
  6
Continuous
 62
     7
370
    15
100
AcDbLine
 10
259.6669624638
 20
41.1484592567
 30
0.0
 11
258.7795434535
 21
41.6607553469
 31
0.0
  0
LINE
  5
173
330
1F
100
AcDbEntity
  8
0
  6
Continuous
 62
     7
370
    15
100
AcDbLine
 10
259.5329989736
 20
24.4540902069
 30
0.0
 11
259.6178379963
 21
24.5030826549
 31
0.0
  0
LINE
  5
174
330
1F
100
AcDbEntity
  8
0
  6
Continuous
 62
     7
370
    15
100
AcDbLine
 10
264.0577468548
 20
32.1940637126
 30
0.0
 11
264.0577468548
 21
32.2920326861
 31
0.0
  0
LINE
  5
175
330
1F
100
AcDbEntity
  8
0
  6
Continuous
 62
     7
370
    15
100
AcDbLine
 10
262.7320033997
 20
35.2222394475
 30
0.0
 11
258.5742155263
 21
37.6224792962
 31
0.0
  0
LINE
  5
176
330
1F
100
AcDbEntity
  8
0
  6
Continuous
 62
     7
370
    15
100
AcDbLine
 10
252.1747356374
 20
26.5370538578
 30
0.0
 11
256.3325235108
 21
24.136814009
 31
0.0
  0
LINE
  5
177
330
1F
100
AcDbEntity
  8
0
  6
Continuous
 62
     7
370
    15
100
AcDbLine
 10
256.6511520421
 20
42.8894495552
 30
0.0
 11
255.000057708
 21
43.8426060257
 31
0.0
  0
SPLINE
  5
178
330
1F
100
AcDbEntity
  8
0
  6
Continuous
 62
     7
370
    15
100
AcDbSpline
210
0.0
220
0.0
230
1.0
 70
     8
 71
     3
 72
    23
 73
    19
 74
     0
 42
0.000000001
 43
0.00000001
 40
0.0
 40
0.0
 40
0.0
 40
0.0
 40
0.0130606735079917
 40
0.0828701354653215
 40
0.1527580870532693
 40
0.2226677566042157
 40
0.2925569977220362
 40
0.3623812726700036
 40
0.4321033356594511
 40
0.5016888904992848
 40
0.5711135704991449
 40
0.640378713818744
 40
0.7095432133739173
 40
0.7787233737638801
 40
0.8482026905963697
 40
0.9185169013787081
 40
0.9903578891116982
 40
1.0
 40
1.0
 40
1.0
 40
1.0
 10
257.2980565729751
 20
29.74644478433078
 30
0.0
 10
257.3076787843864
 20
29.77347841233738
 30
0.0
 10
257.3687318351839
 20
29.9450071174731
 30
0.0
 10
257.5073587219322
 20
30.26032627163696
 30
0.0
 10
257.7266206304994
 20
30.68296751063173
 30
0.0
 10
257.978750546074
 20
31.08846341707763
 30
0.0
 10
258.2571568395504
 20
31.46944423771176
 30
0.0
 10
258.5572497902385
 20
31.81910793066362
 30
0.0
 10
258.8732697774579
 20
32.13128107523582
 30
0.0
 10
259.19925484271
 20
32.40057157986759
 30
0.0
 10
259.5289227382571
 20
32.62252073613894
 30
0.0
 10
259.8558668837298
 20
32.79371532677403
 30
0.0
 10
260.1738159568182
 20
32.91209358832183
 30
0.0
 10
260.4765999503068
 20
32.97635754610602
 30
0.0
 10
260.7603062255683
 20
32.98854586871368
 30
0.0
 10
261.018163304736
 20
32.9432483742551
 30
0.0
 10
261.1901955711302
 20
32.88796282721556
 30
0.0
 10
261.2673309292975
 20
32.83197758462474
 30
0.0
 10
261.2764585605418
 20
32.82535270257799
 30
0.0
  0
SPLINE
  5
179
330
1F
100
AcDbEntity
  8
0
  6
Continuous
 62
     7
370
    15
100
AcDbSpline
210
0.0
220
0.0
230
1.0
 70
     8
 71
     3
 72
    31
 73
    27
 74
     0
 42
0.000000001
 43
0.00000001
 40
0.0
 40
0.0
 40
0.0
 40
0.0
 40
0.0182239934469097
 40
0.061782400761209
 40
0.1055178609105062
 40
0.1494039945831711
 40
0.1934010791149151
 40
0.2374690326252159
 40
0.2815747258529975
 40
0.3256939655672303
 40
0.3698080036333322
 40
0.4139097612949073
 40
0.4579962196284358
 40
0.502066981610288
 40
0.5461232630075583
 40
0.590167228885146
 40
0.634201579425514
 40
0.6782293041015811
 40
0.722253544211714
 40
0.7662775216106487
 40
0.8103038810604962
 40
0.8543354539205843
 40
0.898375546879871
 40
0.942427437417282
 40
0.9864942920449877
 40
1.0
 40
1.0
 40
1.0
 40
1.0
 10
253.4455420431602
 20
44.30751384794556
 30
0.0
 10
253.3768455999659
 20
44.31480098348464
 30
0.0
 10
253.1439531114637
 20
44.33950559773878
 30
0.0
 10
252.7258037583066
 20
44.3206318073477
 30
0.0
 10
252.195058608734
 20
44.25245938349165
 30
0.0
 10
251.6489893032718
 20
44.12320078131935
 30
0.0
 10
251.0927201793446
 20
43.93804968505785
 30
0.0
 10
250.5295168540011
 20
43.69700836295857
 30
0.0
 10
249.9631946893172
 20
43.40203355710085
 30
0.0
 10
249.3973989631218
 20
43.05505590226372
 30
0.0
 10
248.8357371383364
 20
42.65844220143502
 30
0.0
 10
248.2817214870779
 20
42.21481690927273
 30
0.0
 10
247.7387681025429
 20
41.72706090882733
 30
0.0
 10
247.2102112461766
 20
41.19830031406131
 30
0.0
 10
246.6992936181456
 20
40.6318938893141
 30
0.0
 10
246.2091522812628
 20
40.03141604574397
 30
0.0
 10
245.7428024882022
 20
39.40063871501528
 30
0.0
 10
245.3031215973186
 20
38.74351107887934
 30
0.0
 10
244.8928284872862
 20
38.06413615109734
 30
0.0
 10
244.5144817633682
 20
37.36675301845014
 30
0.0
 10
244.1704145581046
 20
36.65569819039019
 30
0.0
 10
243.8628992969029
 20
35.93542216766803
 30
0.0
 10
243.5934596335012
 20
35.2102858810899
 30
0.0
 10
243.3653799287299
 20
34.48517616815933
 30
0.0
 10
243.2184934678498
 20
33.93010412216185
 30
0.0
 10
243.1523837507904
 20
33.61943251996638
 30
0.0
 10
243.1368753472813
 20
33.54655336119801
 30
0.0
  0
SPLINE
  5
17A
330
1F
100
AcDbEntity
  8
0
  6
Continuous
 62
     7
370
    15
100
AcDbSpline
210
0.0
220
0.0
230
1.0
 70
     8
 71
     3
 72
    10
 73
     6
 74
     0
 42
0.000000001
 43
0.00000001
 40
0.0
 40
0.0
 40
0.0
 40
0.0
 40
0.4023213791715808
 40
0.8681173723757407
 40
1.0
 40
1.0
 40
1.0
 40
1.0
 10
257.6749857430685
 20
26.59900168944454
 30
0.0
 10
257.6123687119106
 20
26.63924258953781
 30
0.0
 10
257.4772555029962
 20
26.72607323354419
 30
0.0
 10
257.3476436017273
 20
26.87203806534101
 30
0.0
 10
257.283045114973
 20
26.97871590311338
 30
0.0
 10
257.2687909357589
 20
27.00225523188373
 30
0.0
  0
LINE
  5
17B
330
1F
100
AcDbEntity
  8
0
  6
Continuous
 62
     7
370
    15
100
AcDbLine
 10
249.2312757177
 20
42.9289961209
 30
0.0
 11
237.0923185032
 21
47.3033951294
 31
0.0
  0
LINE
  5
17C
330
1F
100
AcDbEntity
  8
0
  6
Continuous
 62
     7
370
    15
100
AcDbLine
 10
233.048576633
 20
40.298669781
 30
0.0
 11
244.8340715636
 21
30.3470952908
 31
0.0
  0
LINE
  5
17D
330
1F
100
AcDbEntity
  8
0
  6
Continuous
 62
     7
370
    15
100
AcDbLine
 10
245.0008703817
 20
26.5216287781
 30
0.0
 11
246.6519647157
 21
25.5684723076
 31
0.0
  0
SPLINE
  5
17E
330
1F
100
AcDbEntity
  8
0
  6
Continuous
 62
     7
370
    15
100
AcDbSpline
210
0.0
220
0.0
230
1.0
 70
     8
 71
     3
 72
    11
 73
     7
 74
     0
 42
0.000000001
 43
0.00000001
 40
0.0
 40
0.0
 40
0.0
 40
0.0
 40
0.1038926012317761
 40
0.4191455586386547
 40
0.733915747780503
 40
0.9999999999999999
 40
0.9999999999999999
 40
0.9999999999999999
 40
0.9999999999999999
 10
243.1386428618727
 20
29.11138923684652
 30
0.0
 10
243.1555552581366
 20
29.05142362587937
 30
0.0
 10
243.2237868328194
 20
28.80949764453003
 30
0.0
 10
243.3758049327917
 20
28.41415208443724
 30
0.0
 10
243.5940109543118
 20
27.96276471923715
 30
0.0
 10
243.7689575369567
 20
27.70658530716656
 30
0.0
 10
243.8490990101153
 20
27.58923179750745
 30
0.0
  0
SPLINE
  5
17F
330
1F
100
AcDbEntity
  8
0
  6
Continuous
 62
     7
370
    15
100
AcDbSpline
210
0.0
220
0.0
230
1.0
 70
     8
 71
     3
 72
    26
 73
    22
 74
     0
 42
0.000000001
 43
0.00000001
 40
0.0
 40
0.0
 40
0.0
 40
0.0
 40
0.0197718130349116
 40
0.0719291881301987
 40
0.1247388498623818
 40
0.1787271579796435
 40
0.2339852864304384
 40
0.2902232408334229
 40
0.3469997390200578
 40
0.4039310368551973
 40
0.4607877573149275
 40
0.5175200098690544
 40
0.5741374220511487
 40
0.630677120154301
 40
0.6871877750909801
 40
0.7437219618168532
 40
0.8003180846586544
 40
0.8570329297723878
 40
0.9139216282917155
 40
0.9710300866836912
 40
1.0
 40
1.0
 40
1.0
 40
1.0
 10
237.1190256725185
 20
47.28566791451144
 30
0.0
 10
237.0819696603382
 20
47.30185969075036
 30
0.0
 10
236.9471611394014
 20
47.36076482591397
 30
0.0
 10
236.6890705452206
 20
47.40302921812945
 30
0.0
 10
236.3523451955143
 20
47.41263187103728
 30
0.0
 10
235.9989655721614
 20
47.36102317574747
 30
0.0
 10
235.6345281709332
 20
47.2526992070834
 30
0.0
 10
235.2636154543935
 20
47.08695440705075
 30
0.0
 10
234.8928379182607
 20
46.86658782439174
 30
0.0
 10
234.5288363766462
 20
46.59565747239027
 30
0.0
 10
234.1776924027873
 20
46.27936034739307
 30
0.0
 10
233.8446935143435
 20
45.92327086983966
 30
0.0
 10
233.5345240855638
 20
45.53313876122783
 30
0.0
 10
233.251514723961
 20
45.11496378191893
 30
0.0
 10
232.9996820182138
 20
44.6749853571046
 30
0.0
 10
232.7827082788154
 20
44.21966494794525
 30
0.0
 10
232.6039681283403
 20
43.75561249102181
 30
0.0
 10
232.466165040642
 20
43.2893131053082
 30
0.0
 10
232.3726359981791
 20
42.82763587323262
 30
0.0
 10
232.3308596997891
 20
42.45033704248127
 30
0.0
 10
232.3271421046952
 20
42.23187501485373
 30
0.0
 10
232.325890937817
 20
42.15835101715633
 30
0.0
  0
SPLINE
  5
180
330
1F
100
AcDbEntity
  8
0
  6
Continuous
 62
     7
370
    15
100
AcDbSpline
210
0.0
220
0.0
230
1.0
 70
     8
 71
     3
 72
    13
 73
     9
 74
     0
 42
0.000000001
 43
0.00000001
 40
0.0
 40
0.0
 40
0.0
 40
0.0
 40
0.1017086554518487
 40
0.2935148688881801
 40
0.4853091559269201
 40
0.6752471149565382
 40
0.8614317085389452
 40
1.0
 40
1.0
 40
1.0
 40
1.0
 10
232.325890937817
 20
42.15835101715633
 30
0.0
 10
232.3272687496169
 20
42.08223033034233
 30
0.0
 10
232.3312448935154
 20
41.8625582354687
 30
0.0
 10
232.3758293349788
 20
41.51782620671438
 30
0.0
 10
232.4761148997352
 20
41.13913105149471
 30
0.0
 10
232.6283777472159
 20
40.80171018383764
 30
0.0
 10
232.8071996727044
 20
40.52776928732072
 30
0.0
 10
232.9542162548333
 20
40.39198974842644
 30
0.0
 10
233.0169465261882
 20
40.33405419315822
 30
0.0
  0
LWPOLYLINE
  5
181
330
1F
100
AcDbEntity
  8
0
  6
Continuous
 62
     7
370
    15
100
AcDbPolyline
 90
       25
 70
   128
 43
0.0
 10
257.6346470969
 20
35.5537704449
 10
257.350040282
 20
35.5317239392
 10
257.06524696
 20
35.5529526234
 10
256.7996753252
 20
35.6160097979
 10
256.5714236456
 20
35.7165982204
 10
256.3960468959
 20
35.8478629561
 10
256.2854967119
 20
36.0008585302
 10
256.2473069059
 20
36.1651585472
 10
256.28408005
 20
36.3295662325
 10
256.3933101153
 20
36.482877474
 10
256.5675532533
 20
36.6146443639
 10
256.7949350821
 20
36.7158872064
 10
257.0599599058
 20
36.7797064692
 10
257.3445667207
 20
36.801752975
 10
257.6293600427
 20
36.7805242907
 10
257.8949316775
 20
36.7174671163
 10
258.1231833571
 20
36.6168786938
 10
258.2985601068
 20
36.4856139581
 10
258.4091102908
 20
36.3326183839
 10
258.4473000968
 20
36.1683183669
 10
258.4105269527
 20
36.0039106816
 10
258.3012968874
 20
35.8505994402
 10
258.1270537494
 20
35.7188325503
 10
257.8996719206
 20
35.6175897077
 10
257.6346470969
 20
35.5537704449
  0
LWPOLYLINE
  5
182
330
1F
100
AcDbEntity
  8
0
  6
Continuous
 62
     7
370
    15
100
AcDbPolyline
 90
       12
 70
   128
 43
0.0
 10
257.660769242
 20
35.416391999
 10
257.3628550186
 20
35.3923972975
 10
257.0639636362
 20
35.4119266727
 10
256.7828755396
 20
35.4737530221
 10
256.5372525276
 20
35.5739915687
 10
256.3425279975
 20
35.7063439561
 10
256.2109372076
 20
35.862493997
 10
256.1507484912
 20
36.03263021
 10
256.1657437267
 20
36.2060623112
 10
256.2549807083
 20
36.3718929237
 10
256.4128523483
 20
36.5197023004
 10
256.4986374879
 20
36.5748496359
  0
LWPOLYLINE
  5
183
330
1F
100
AcDbEntity
  8
0
  6
Continuous
 62
     7
370
    15
100
AcDbPolyline
 90
       10
 70
   128
 43
0.0
 10
258.1959695149
 20
36.5748496359
 10
258.2619288341
 20
36.5335371736
 10
258.4263832664
 20
36.388139455
 10
258.5230351486
 20
36.2236996713
 10
258.5458114872
 20
36.0505501787
 10
258.4932811614
 20
35.8795705968
 10
258.3687448445
 20
35.7215042014
 10
258.1800276114
 20
35.5862828855
 10
257.93898726
 20
35.4824031018
 10
257.660769242
 20
35.416391999
  0
LWPOLYLINE
  5
184
330
1F
100
AcDbEntity
  8
0
  6
Continuous
 62
     7
370
    15
100
AcDbPolyline
 90
       20
 70
   128
 43
0.0
 10
257.5301585167
 20
35.7766679039
 10
257.3008530452
 20
35.7635277415
 10
257.0765812014
 20
35.7940817167
 10
256.8816463194
 20
35.865018832
 10
256.7371726186
 20
35.9686519503
 10
256.658816066
 20
36.0937508153
 10
256.6550678101
 20
36.2267590238
 10
256.7263340324
 20
36.3532630726
 10
256.864891932
 20
36.4595542851
 10
257.0557266106
 20
36.534114359
 10
257.2781581696
 20
36.5688635536
 10
257.5080826981
 20
36.5600362544
 10
257.720584306
 20
36.5085890361
 10
257.8926351466
 20
36.4200970033
 10
258.0055908417
 20
36.3041496407
 10
258.0472108892
 20
36.1733116443
 10
258.012985111
 20
36.0417613409
 10
257.9066224013
 20
35.9237542474
 10
257.73964881
 20
35.8320782632
 10
257.5301585167
 20
35.7766679039
  0
SPLINE
  5
185
330
1F
100
AcDbEntity
  8
0
  6
Continuous
 62
     7
370
    15
100
AcDbSpline
210
0.0
220
0.0
230
1.0
 70
     8
 71
     3
 72
    10
 73
     6
 74
     0
 42
0.000000001
 43
0.00000001
 40
0.0
 40
0.0
 40
0.0
 40
0.0
 40
0.4391279203157634
 40
0.751376003566709
 40
0.9999999999999999
 40
0.9999999999999999
 40
0.9999999999999999
 40
0.9999999999999999
 10
258.0160683403154
 20
36.2653532164499
 30
0.0
 10
257.9906357214334
 20
36.17645357832431
 30
0.0
 10
257.9471188812333
 20
36.0243406023029
 30
0.0
 10
257.8838605109667
 20
35.91220675463885
 30
0.0
 10
257.8523755011475
 20
35.88903846414253
 30
0.0
 10
257.8384187911372
 20
35.87876839868132
 30
0.0
  0
SPLINE
  5
186
330
1F
100
AcDbEntity
  8
0
  6
Continuous
 62
     7
370
    15
100
AcDbSpline
210
0.0
220
0.0
230
1.0
 70
     8
 71
     3
 72
    10
 73
     6
 74
     0
 42
0.000000001
 43
0.00000001
 40
0.0
 40
0.0
 40
0.0
 40
0.0
 40
0.4391279203157572
 40
0.7513760035667082
 40
0.9999999999999999
 40
0.9999999999999999
 40
0.9999999999999999
 40
0.9999999999999999
 10
257.5249530505379
 20
36.54746077557397
 30
0.0
 10
257.595261970824
 20
36.47351828376953
 30
0.0
 10
257.7155650376428
 20
36.3469979433051
 30
0.0
 10
257.8904439100521
 20
36.27206689825067
 30
0.0
 10
257.9774847710763
 20
36.26741521829195
 30
0.0
 10
258.0160683403154
 20
36.2653532164499
 30
0.0
  0
SPLINE
  5
187
330
1F
100
AcDbEntity
  8
0
  6
Continuous
 62
     7
370
    15
100
AcDbSpline
210
0.0
220
0.0
230
1.0
 70
     8
 71
     3
 72
    11
 73
     7
 74
     0
 42
0.000000001
 43
0.00000001
 40
0.0
 40
0.0
 40
0.0
 40
0.0
 40
0.1843643438496216
 40
0.5174526391740241
 40
0.8663352079125946
 40
1.0
 40
1.0
 40
1.0
 40
1.0
 10
256.8561882115822
 20
36.44298351692949
 30
0.0
 10
256.8949957163398
 20
36.43380381929152
 30
0.0
 10
257.0039161579897
 20
36.40803929958881
 30
0.0
 10
257.2068446461263
 20
36.40790851200217
 30
0.0
 10
257.3957929624418
 20
36.47560031469629
 30
0.0
 10
257.4969364717676
 20
36.53187326481634
 30
0.0
 10
257.5249530505379
 20
36.54746077557397
 30
0.0
  0
SPLINE
  5
188
330
1F
100
AcDbEntity
  8
0
  6
Continuous
 62
     7
370
    15
100
AcDbSpline
210
0.0
220
0.0
230
1.0
 70
     8
 71
     3
 72
    10
 73
     6
 74
     0
 42
0.000000001
 43
0.00000001
 40
0.0
 40
0.0
 40
0.0
 40
0.0
 40
0.4391279203157604
 40
0.751376003566703
 40
1.0
 40
1.0
 40
1.0
 40
1.0
 10
256.6785386624039
 20
36.05639869916093
 30
0.0
 10
256.703971281286
 20
36.07818737272947
 30
0.0
 10
256.7474881214861
 20
36.11546918905574
 30
0.0
 10
256.8107464917527
 20
36.27864958401097
 30
0.0
 10
256.8422315015719
 20
36.39251093237076
 30
0.0
 10
256.8561882115822
 20
36.44298351692949
 30
0.0
  0
SPLINE
  5
189
330
1F
100
AcDbEntity
  8
0
  6
Continuous
 62
     7
370
    15
100
AcDbSpline
210
0.0
220
0.0
230
1.0
 70
     8
 71
     3
 72
     9
 73
     5
 74
     0
 42
0.000000001
 43
0.00000001
 40
0.0
 40
0.0
 40
0.0
 40
0.0
 40
0.5011377408096995
 40
1.0
 40
1.0
 40
1.0
 40
1.0
 10
256.9232209747481
 20
35.84540490848332
 30
0.0
 10
256.8802736584466
 20
35.87229502869953
 30
0.0
 10
256.7945740337643
 20
35.92595317101539
 30
0.0
 10
256.7171584002404
 20
36.01298286793764
 30
0.0
 10
256.678538662404
 20
36.05639869916093
 30
0.0
  0
LINE
  5
18A
330
1F
100
AcDbEntity
  8
0
  6
Continuous
 62
     7
370
    15
100
AcDbLine
 10
256.8561882116
 20
35.89249611
 30
0.0
 11
256.8561882116
 21
36.4429835169
 31
0.0
  0
LINE
  5
18B
330
1F
100
AcDbEntity
  8
0
  6
Continuous
 62
     7
370
    15
100
AcDbLine
 10
257.5249530505
 20
35.7758670814
 30
0.0
 11
257.5249530505
 21
36.5474607756
 31
0.0
  0
ARC
  5
18C
330
1F
100
AcDbEntity
  8
0
  6
Continuous
 62
     7
370
    15
100
AcDbCircle
 10
257.9239716337
 20
38.1281934425
 30
0.0
 40
3.483159587224309
100
AcDbArc
 50
34.3406250395
 51
84.8700882705
  0
ARC
  5
18D
330
1F
100
AcDbEntity
  8
0
  6
Continuous
 62
     7
370
    15
100
AcDbCircle
 10
251.4064126794
 20
26.8383235677
 30
0.0
 40
3.473689115520145
100
AcDbArc
 50
215.2000783552
 51
265.4598339297
  0
LWPOLYLINE
  5
18E
330
1F
100
AcDbEntity
  8
0
  6
Continuous
 62
     7
370
    15
100
AcDbPolyline
 90
        9
 70
   128
 43
0.0
 10
248.7803561271
 20
24.3397780993
 10
248.7138268218
 20
24.3792205036
 10
248.3174690667
 20
24.6618025803
 10
247.9597006244
 20
25.0032911534
 10
247.6430489251
 20
25.4012738009
 10
247.3697509325
 20
25.8529390022
 10
247.1417373412
 20
26.355096
 10
246.9606189373
 20
26.9041973414
 10
246.827675219
 20
27.4963639384
  0
SPLINE
  5
18F
330
1F
100
AcDbEntity
  8
0
  6
Continuous
 62
     7
370
    15
100
AcDbSpline
210
0.0
220
0.0
230
1.0
 70
     8
 71
     3
 72
    32
 73
    28
 74
     0
 42
0.000000001
 43
0.00000001
 40
0.0
 40
0.0
 40
0.0
 40
0.0
 40
0.0193254758659164
 40
0.0385826927420932
 40
0.0577846348033733
 40
0.0769443985986916
 40
0.096075167298349
 40
0.1151901840623204
 40
0.1343027247922224
 40
0.1534260705442803
 40
0.1725734798887505
 40
0.1917581615025456
 40
0.2109932472762088
 40
0.230291766204079
 40
0.2496666193080679
 40
0.3745846283003803
 40
0.4997410234225041
 40
0.4999962720874491
 40
0.624862702147935
 40
0.7503411293899499
 40
0.7861451323117198
 40
0.821761864000942
 40
0.8572756267709577
 40
0.8927714566765009
 40
0.928334518492626
 40
0.9640494961184894
 40
1.0
 40
1.0
 40
1.0
 40
1.0
 10
246.8276531085562
 20
30.47709384502022
 30
0.0
 10
246.8364303954715
 20
30.45305742753303
 30
0.0
 10
246.8539539672846
 20
30.40506949093767
 30
0.0
 10
246.8789296677739
 20
30.33277046929088
 30
0.0
 10
246.902893118785
 20
30.26043311072156
 30
0.0
 10
246.9257677530389
 20
30.18803026450322
 30
0.0
 10
246.9475909815223
 20
30.11557850357325
 30
0.0
 10
246.9683700801588
 20
30.04308309664016
 30
0.0
 10
246.988120671944
 20
29.97055271495624
 30
0.0
 10
247.0068564245231
 20
29.89799548426275
 30
0.0
 10
247.0245918670611
 20
29.8254201421031
 30
0.0
 10
247.0413414043501
 20
29.75283538651594
 30
0.0
 10
247.0571204408251
 20
29.68025136553774
 30
0.0
 10
247.0719418485686
 20
29.60767438726435
 30
0.0
 10
247.1110186884219
 20
29.40353400657054
 30
0.0
 10
247.1580171679548
 20
29.07289339509693
 30
0.0
 10
247.1719577424032
 20
28.78676559697914
 30
0.0
 10
247.1721160720726
 20
28.51608081101604
 30
0.0
 10
247.1580955316559
 20
28.25940436137556
 30
0.0
 10
247.1081218995869
 20
28.01088398586542
 30
0.0
 10
247.059831427236
 20
27.86183434507571
 30
0.0
 10
247.0301084622266
 20
27.78631566462149
 30
0.0
 10
246.9969430737335
 20
27.71663915143602
 30
0.0
 10
246.9602635533297
 20
27.65271268340985
 30
0.0
 10
246.919902726281
 20
27.59463113436448
 30
0.0
 10
246.8760815675618
 20
27.5418123503149
 30
0.0
 10
246.8438702484021
 20
27.51153255633956
 30
0.0
 10
246.8277116581
 20
27.49634290257675
 30
0.0
  0
LWPOLYLINE
  5
190
330
1F
100
AcDbEntity
  8
0
  6
Continuous
 62
     7
370
    15
100
AcDbPolyline
 90
       27
 70
   128
 43
0.0
 10
246.8276531085
 20
30.4770938451
 10
246.9605888444
 20
31.22276019
 10
247.1417006678
 20
31.9809839154
 10
247.3697090952
 20
32.7464084707
 10
247.6430033373
 20
33.5136264341
 10
247.9596526783
 20
34.2772177142
 10
248.317420116
 20
35.0317878406
 10
248.7137781649
 20
35.7720060741
 10
249.1459267122
 20
36.4926430655
 10
249.6108127993
 20
37.1886077996
 10
250.10515219
 20
37.8549835609
 10
250.6254525721
 20
38.4870626682
 10
251.1680382291
 20
39.0803797327
 10
251.729076008
 20
39.630743204
 10
252.3046023989
 20
40.1342649819
 10
252.8905515355
 20
40.5873878843
 10
253.4827839189
 20
40.9869107771
 10
254.0771156616
 20
41.330011189
 10
254.6693480451
 20
41.6142652516
 10
255.2552971816
 20
41.8376648221
 10
255.8308235725
 20
41.998631671
 10
256.3918613515
 20
42.0960286313
 10
256.9344470085
 20
42.1291676319
 10
257.4547473905
 20
42.0978145589
 10
257.9490867812
 20
42.0021909094
 10
258.4139728684
 20
41.8429722265
 10
258.7795434535
 20
41.6607553469
  0
LWPOLYLINE
  5
191
330
1F
100
AcDbEntity
  8
0
  6
Continuous
 62
     7
370
    15
100
AcDbPolyline
 90
       60
 70
   128
 43
0.0
 10
259.617116269
 20
34.7584185402
 10
259.1451061655
 20
34.4568824637
 10
258.6784441252
 20
34.1006620241
 10
258.2224176153
 20
33.6937933411
 10
257.7821935984
 20
33.2408863996
 10
257.3627599886
 20
32.7470728162
 10
256.9688691362
 20
32.217947696
 10
256.6049839821
 20
31.6595062382
 10
256.2752274903
 20
31.0780758076
 10
255.9833359338
 20
30.4802442432
 10
255.7326165604
 20
29.8727852156
 10
255.5259101209
 20
29.2625814784
 10
255.3655586818
 20
28.6565468836
 10
255.2533790891
 20
28.0615480455
 10
255.1906423822
 20
27.4843265385
 10
255.1780593932
 20
26.931422513
 10
255.2157726924
 20
26.4091005925
 10
255.3033549729
 20
25.9232788931
 10
255.4398138927
 20
25.4794619689
 10
255.6236033175
 20
25.0826784428
 10
255.8526408398
 20
24.7374240308
 10
256.1243313729
 20
24.4476106033
 10
256.4355965546
 20
24.2165218622
 10
256.7829096258
 20
24.0467761354
 10
257.1623353909
 20
23.9402967097
 10
257.5695748041
 20
23.8982900397
 10
258.0000136803
 20
23.9212320775
 10
258.448774975
 20
24.0088628808
 10
258.9107740435
 20
24.1601895576
 10
259.3807762515
 20
24.3734975162
 10
259.8534562864
 20
24.6463698921
 10
260.3234584945
 20
24.9757149323
 10
260.7854575629
 20
25.3578010258
 10
261.2342188576
 20
25.7882989847
 10
261.6646577338
 20
26.2623310949
 10
262.0718971471
 20
26.7745263833
 10
262.4513229121
 20
27.3190814726
 10
262.7986359834
 20
27.889826336
 10
263.109901165
 20
28.4802942062
 10
263.3815916981
 20
29.0837948462
 10
263.6106292204
 20
29.6934903527
 10
263.7944186453
 20
30.3024726319
 10
263.930877565
 20
30.9038416713
 10
264.0184598456
 20
31.4907837194
 10
264.0561731447
 20
32.0566484882
 10
264.0435901557
 20
32.5950245038
 10
263.9808534489
 20
33.0998117509
 10
263.8686738561
 20
33.5652907882
 10
263.708322417
 20
33.9861875521
 10
263.5016159775
 20
34.3577331143
 10
263.2508966042
 20
34.675717715
 10
262.9590050476
 20
34.9365384617
 10
262.6292485559
 20
35.137240151
 10
262.2653634017
 20
35.2755487526
 10
261.8714725493
 20
35.3498971748
 10
261.4520389395
 20
35.3594430203
 10
261.0118149227
 20
35.3040781308
 10
260.5557884128
 20
35.1844298127
 10
260.0891263724
 20
35.0018537291
 10
259.617116269
 20
34.7584185402
  0
LWPOLYLINE
  5
192
330
1F
100
AcDbEntity
  8
0
  6
Continuous
 62
     7
370
    15
100
AcDbPolyline
 90
       32
 70
   128
 43
0.0
 10
259.5322634552
 20
34.9053879243
 10
259.0592216299
 20
34.6036788768
 10
258.5913625498
 20
34.248019788
 10
258.133812177
 20
33.8423073331
 10
257.691583529
 20
33.3909865829
 10
257.2695217554
 20
32.8990023018
 10
256.8722510535
 20
32.3717447726
 10
256.504124004
 20
31.8149907391
 10
256.169173884
 20
31.234840115
 10
255.8710704772
 20
30.637649152
 10
255.6130798668
 20
30.0299607992
 10
255.3980286519
 20
29.4184330175
 10
255.2282729787
 20
28.809765833
 10
255.1056727258
 20
28.2106279309
 10
255.0315711272
 20
27.6275835915
 10
255.0067800556
 20
27.0670207704
 10
255.0315711272
 20
26.5350811113
 10
255.1056727258
 20
26.0375926564
 10
255.2282729787
 20
25.5800059933
 10
255.3980286519
 20
25.1673345373
 10
255.6130798668
 20
24.8040996032
 10
255.8710704772
 20
24.4942808689
 10
256.169173884
 20
24.2412727733
 10
256.504124004
 20
24.047847326
 10
256.8722510535
 20
23.9161237368
 10
257.2695217554
 20
23.8475451969
 10
257.691583529
 20
23.842863067
 10
258.133812177
 20
23.9021286456
 10
258.5913625498
 20
24.0246926066
 10
259.0592216299
 20
24.2092121135
 10
259.5322634552
 20
24.4536655322
 10
259.5329989736
 20
24.4540902069
  0
LWPOLYLINE
  5
193
330
1F
100
AcDbEntity
  8
0
  6
Continuous
 62
     7
370
    15
100
AcDbPolyline
 90
       16
 70
   128
 43
0.0
 10
264.0577468548
 20
32.2920326861
 10
264.0329557832
 20
32.8239723452
 10
263.9588541847
 20
33.3214608
 10
263.8362539318
 20
33.7790474631
 10
263.6664982586
 20
34.1917189191
 10
263.4514470437
 20
34.5549538533
 10
263.1934564333
 20
34.8647725876
 10
262.8953530264
 20
35.1177806832
 10
262.5604029065
 20
35.3112061304
 10
262.192275857
 20
35.4429297196
 10
261.795005155
 20
35.5115082596
 10
261.3729433815
 20
35.5161903895
 10
260.9307147335
 20
35.4569248109
 10
260.4731643606
 20
35.3343608499
 10
260.0053052805
 20
35.1498413429
 10
259.5322634552
 20
34.9053879243
  0
SPLINE
  5
194
330
1F
100
AcDbEntity
  8
0
  6
Continuous
 62
     7
370
    15
100
AcDbSpline
210
0.0
220
0.0
230
1.0
 70
    11
 71
     3
 72
    94
 73
    90
 74
     0
 42
0.000000001
 43
0.00000001
 40
0.0
 40
0.0
 40
0.0
 40
0.0
 40
0.0312500000000007
 40
0.0312500000000007
 40
0.0625000000000013
 40
0.0625000000000013
 40
0.093750000000002
 40
0.093750000000002
 40
0.1093750000000023
 40
0.1093750000000023
 40
0.1250000000000026
 40
0.1250000000000026
 40
0.1562500000000028
 40
0.1562500000000028
 40
0.1718750000000026
 40
0.1718750000000026
 40
0.1875000000000025
 40
0.1875000000000025
 40
0.2187500000000026
 40
0.2187500000000026
 40
0.2343750000000025
 40
0.2343750000000025
 40
0.2500000000000024
 40
0.2500000000000024
 40
0.2812500000000025
 40
0.2812500000000025
 40
0.3125000000000025
 40
0.3125000000000025
 40
0.3281250000000024
 40
0.3281250000000024
 40
0.3437500000000024
 40
0.3437500000000024
 40
0.3750000000000023
 40
0.3750000000000023
 40
0.3906250000000022
 40
0.3906250000000022
 40
0.4062500000000022
 40
0.4062500000000022
 40
0.4218750000000021
 40
0.4218750000000021
 40
0.437500000000002
 40
0.437500000000002
 40
0.4687500000000015
 40
0.4687500000000015
 40
0.4843750000000012
 40
0.4843750000000012
 40
0.500000000000001
 40
0.500000000000001
 40
0.5312500000000006
 40
0.5312500000000006
 40
0.5625000000000001
 40
0.5625000000000001
 40
0.5781250000000001
 40
0.5781250000000001
 40
0.5937500000000001
 40
0.5937500000000001
 40
0.625
 40
0.625
 40
0.65625
 40
0.65625
 40
0.6875
 40
0.6875
 40
0.71875
 40
0.71875
 40
0.75
 40
0.75
 40
0.78125
 40
0.78125
 40
0.8125
 40
0.8125
 40
0.828125
 40
0.828125
 40
0.84375
 40
0.84375
 40
0.859375
 40
0.859375
 40
0.8749999999999999
 40
0.8749999999999999
 40
0.90625
 40
0.90625
 40
0.921875
 40
0.921875
 40
0.9375
 40
0.9375
 40
0.953125
 40
0.953125
 40
0.96875
 40
0.96875
 40
1.0
 40
1.0
 40
1.0
 40
1.0
 10
257.3406924677291
 20
36.90106398406982
 30
0.0
 10
257.4312990206038
 20
36.88892016805941
 30
0.0
 10
257.5199134256108
 20
36.87212877766219
 30
0.0
 10
257.6935198969356
 20
36.83064743156537
 30
0.0
 10
257.7790229732188
 20
36.8057142772722
 30
0.0
 10
257.9408976168804
 20
36.7503156382089
 30
0.0
 10
258.0179212733596
 20
36.71974165491149
 30
0.0
 10
258.1276541130842
 20
36.66989335690878
 30
0.0
 10
258.163421507292
 20
36.65251745523474
 30
0.0
 10
258.2319382836096
 20
36.61693602532337
 30
0.0
 10
258.264711594597
 20
36.59873362699989
 30
0.0
 10
258.3586879794089
 20
36.54293034484451
 30
0.0
 10
258.4155846536675
 20
36.50415288918602
 30
0.0
 10
258.4920665762473
 20
36.44342674973599
 30
0.0
 10
258.5161398043147
 20
36.42267607810168
 30
0.0
 10
258.5603476102894
 20
36.38103231845081
 30
0.0
 10
258.5805974303212
 20
36.3600591395076
 30
0.0
 10
258.6358441045056
 20
36.29659240203651
 30
0.0
 10
258.6653935508647
 20
36.25356636519249
 30
0.0
 10
258.6981007601171
 20
36.18735520318415
 30
0.0
 10
258.7070273196991
 20
36.16498933850092
 30
0.0
 10
258.7204877175814
 20
36.12055745246186
 30
0.0
 10
258.7250901619231
 20
36.09836953340529
 30
0.0
 10
258.7324752643926
 20
36.03173023008041
 30
0.0
 10
258.7289154280729
 20
35.98720961932899
 30
0.0
 10
258.7029390412507
 20
35.89704555690363
 30
0.0
 10
258.6808037268993
 20
35.85271033528156
 30
0.0
 10
258.6341056114138
 20
35.78771164412866
 30
0.0
 10
258.6162595551689
 20
35.76624893352201
 30
0.0
 10
258.5757797717952
 20
35.72367661186665
 30
0.0
 10
258.5529529117488
 20
35.70241885360215
 30
0.0
 10
258.4785206861036
 20
35.64058518858865
 30
0.0
 10
258.421053328956
 20
35.60176168415589
 30
0.0
 10
258.3230796112119
 20
35.54700971263301
 30
0.0
 10
258.2882012015482
 20
35.52923804972363
 30
0.0
 10
258.2155743228377
 20
35.49552083332542
 30
0.0
 10
258.1779754137814
 20
35.47962016637815
 30
0.0
 10
258.1003115422149
 20
35.44969239389034
 30
0.0
 10
258.0602462627137
 20
35.43566548640286
 30
0.0
 10
257.9776714903729
 20
35.40952366983794
 30
0.0
 10
257.9349036949698
 20
35.39734915633934
 30
0.0
 10
257.8053177950639
 20
35.36446059336663
 30
0.0
 10
257.7170919567498
 20
35.34721823230451
 30
0.0
 10
257.582131561515
 20
35.32843491313111
 30
0.0
 10
257.5364811221567
 20
35.32335207357799
 30
0.0
 10
257.4458622267911
 20
35.31580628478411
 30
0.0
 10
257.4008002518291
 20
35.31331688583783
 30
0.0
 10
257.2663041966573
 20
35.30966933210094
 30
0.0
 10
257.177156124866
 20
35.31233541388416
 30
0.0
 10
257.0023031390082
 20
35.32834944384588
 30
0.0
 10
256.9182124820519
 20
35.34150259761436
 30
0.0
 10
256.7967524798188
 20
35.36896204807692
 30
0.0
 10
256.7570512115105
 20
35.37941089148608
 30
0.0
 10
256.6792330050523
 20
35.4029883311628
 30
0.0
 10
256.6410966191659
 20
35.41614404672562
 30
0.0
 10
256.5312079882539
 20
35.45893496981534
 30
0.0
 10
256.4631790937769
 20
35.49208147895398
 30
0.0
 10
256.3374115641085
 20
35.56758064416965
 30
0.0
 10
256.2792615985479
 20
35.61040383321966
 30
0.0
 10
256.1775194953454
 20
35.70247389580362
 30
0.0
 10
256.1334920034197
 20
35.75183471548885
 30
0.0
 10
256.0593352231782
 20
35.85688934598883
 30
0.0
 10
256.0291346910017
 20
35.91308997508334
 30
0.0
 10
255.9857731982275
 20
36.02715138643885
 30
0.0
 10
255.9721865241381
 20
36.0854034177438
 30
0.0
 10
255.9620887332513
 20
36.2037370755539
 30
0.0
 10
255.9658565809601
 20
36.26414335583403
 30
0.0
 10
255.9915298574163
 20
36.38037331118086
 30
0.0
 10
256.0132567260048
 20
36.43689433877066
 30
0.0
 10
256.0603923982447
 20
36.51854675715209
 30
0.0
 10
256.0786625545876
 20
36.54533361239298
 30
0.0
 10
256.1192939943134
 20
36.59628178266079
 30
0.0
 10
256.1417354799405
 20
36.62062229461707
 30
0.0
 10
256.190861944056
 20
36.66699072110323
 30
0.0
 10
256.2175466617814
 20
36.68901883006292
 30
0.0
 10
256.2752860463788
 20
36.7306638011458
 30
0.0
 10
256.3065847778531
 20
36.7504050783845
 30
0.0
 10
256.4053499517761
 20
36.8046769512382
 30
0.0
 10
256.4773889989991
 20
36.83434348641644
 30
0.0
 10
256.5944325198793
 20
36.86956427124002
 30
0.0
 10
256.635219227318
 20
36.87979203887146
 30
0.0
 10
256.7181826407282
 20
36.89678757520173
 30
0.0
 10
256.7604085565429
 20
36.90359899194171
 30
0.0
 10
256.8462851129842
 20
36.91408396939504
 30
0.0
 10
256.8899359698775
 20
36.91775690262337
 30
0.0
 10
256.9786480479786
 20
36.9221032672102
 30
0.0
 10
257.0238916850178
 20
36.9227639913726
 30
0.0
 10
257.1593591576328
 20
36.92042866660508
 30
0.0
 10
257.2500859148545
 20
36.91320780008024
 30
0.0
 10
257.3406924677291
 20
36.90106398406982
 30
0.0
  0
LINE
  5
195
330
1F
100
AcDbEntity
  8
0
  6
Continuous
 62
     7
370
    15
100
AcDbLine
 10
262.0211039973
 20
29.6322135564
 30
0.0
 11
262.8910206658
 21
30.714381622
 31
0.0
  0
SPLINE
  5
196
330
1F
100
AcDbEntity
  8
0
  6
Continuous
 62
     7
370
    15
100
AcDbSpline
210
0.0
220
0.0
230
1.0
 70
     8
 71
     3
 72
    20
 73
    16
 74
     0
 42
0.000000001
 43
0.00000001
 40
0.0
 40
0.0
 40
0.0
 40
0.0
 40
0.0469163091108927
 40
0.0977062414429348
 40
0.151668963303151
 40
0.2078463383218536
 40
0.2651938476233427
 40
0.31920952031745
 40
0.3728953068123805
 40
0.4259306594991016
 40
0.4781535685998874
 40
0.5793596734499783
 40
0.669805835412185
 40
0.8327057026615108
 40
0.9074992363786795
 40
0.9074992363786795
 40
0.9074992363786795
 40
0.9074992363786795
 10
262.891020665846
 20
30.71438162199981
 30
0.0
 10
262.9311532035817
 20
30.76430611741013
 30
0.0
 10
263.0107742783945
 20
30.87450693566249
 30
0.0
 10
263.1171579277342
 20
31.05833466433181
 30
0.0
 10
263.2077236094639
 20
31.2623514877462
 30
0.0
 10
263.2737344409078
 20
31.47696586541996
 30
0.0
 10
263.3069083386247
 20
31.68538855052194
 30
0.0
 10
263.3048932755079
 20
31.87488739393098
 30
0.0
 10
263.26939988602
 20
32.03595829838621
 30
0.0
 10
263.2024915061552
 20
32.16396979671462
 30
0.0
 10
263.0814589918174
 20
32.28689237164788
 30
0.0
 10
262.8810542409248
 20
32.33420034784866
 30
0.0
 10
262.5962788111117
 20
32.3497587047143
 30
0.0
 10
262.3960008918048
 20
32.37114141461185
 30
0.0
 10
262.1141153144288
 20
32.39643662183595
 30
0.0
 10
262.0209542318237
 20
32.40471592653479
 30
0.0
  0
SPLINE
  5
197
330
1F
100
AcDbEntity
  8
0
  6
Continuous
 62
     7
370
    15
100
AcDbSpline
210
0.0
220
0.0
230
1.0
 70
     8
 71
     3
 72
    20
 73
    16
 74
     0
 42
0.000000001
 43
0.00000001
 40
0.0
 40
0.0
 40
0.0
 40
0.0
 40
0.0469163091108928
 40
0.0977062414429347
 40
0.1516689633031509
 40
0.2078463383218536
 40
0.2651938476233426
 40
0.3192095203174499
 40
0.3728953068123805
 40
0.4259306594991015
 40
0.4781535685998873
 40
0.5793596734499783
 40
0.669805835412185
 40
0.8327057026615106
 40
0.9074992363786794
 40
0.9074992363786794
 40
0.9074992363786794
 40
0.9074992363786794
 10
256.3432118720589
 20
26.93441206426088
 30
0.0
 10
256.3030793343232
 20
26.93800051789195
 30
0.0
 10
256.2234582595104
 20
26.95627279991938
 30
0.0
 10
256.1170746101707
 20
27.01727258152742
 30
0.0
 10
256.026508928441
 20
27.11672449454344
 30
0.0
 10
255.9604980969971
 20
27.25512438850291
 30
0.0
 10
255.9273241992802
 20
27.42524530657705
 30
0.0
 10
255.929339262397
 20
27.61707069233887
 30
0.0
 10
255.9648326518849
 20
27.81912139201737
 30
0.0
 10
256.0317410317497
 20
28.02438366140883
 30
0.0
 10
256.1527735460874
 20
28.287047402922
 30
0.0
 10
256.35317829698
 20
28.56573777939058
 30
0.0
 10
256.6379537267932
 20
28.91009084892617
 30
0.0
 10
256.8382316461002
 20
29.16270952245965
 30
0.0
 10
257.120117223476
 20
29.51346288975022
 30
0.0
 10
257.2132783060812
 20
29.62930369091417
 30
0.0
  0
LINE
  5
198
330
1F
100
AcDbEntity
  8
0
  6
Continuous
 62
     7
370
    15
100
AcDbLine
 10
257.2131285406
 20
26.8566284053
 30
0.0
 11
256.3432118721
 21
26.9344120643
 31
0.0
  0
SPLINE
  5
199
330
1F
100
AcDbEntity
  8
0
  6
Continuous
 62
     7
370
    15
100
AcDbSpline
210
0.0
220
0.0
230
1.0
 70
     8
 71
     3
 72
     8
 73
     4
 74
     0
 42
0.000000001
 43
0.00000001
 40
0.0
 40
0.0
 40
0.0
 40
0.0
 40
1.0
 40
1.0
 40
1.0
 40
1.0
 10
246.4428557969338
 20
32.65122893219078
 30
0.0
 10
245.9750052289586
 20
32.57300646289368
 30
0.0
 10
245.5067639318146
 20
32.49557247620572
 30
0.0
 10
245.0382713391535
 20
32.41866069650721
 30
0.0
  0
SPLINE
  5
19A
330
1F
100
AcDbEntity
  8
0
  6
Continuous
 62
     7
370
    15
100
AcDbSpline
210
0.0
220
0.0
230
1.0
 70
     8
 71
     3
 72
     8
 73
     4
 74
     0
 42
0.000000001
 43
0.00000001
 40
0.0
 40
0.0
 40
0.0
 40
0.0
 40
0.0012417047560384
 40
0.0012417047560384
 40
0.0012417047560384
 40
0.0012417047560384
 10
244.8484710976936
 20
32.52825086485915
 30
0.0
 10
244.9117795538778
 20
32.49169673495597
 30
0.0
 10
244.9750472761495
 20
32.45516611599454
 30
0.0
 10
245.0382713391535
 20
32.41866069650721
 30
0.0
  0
LWPOLYLINE
  5
19B
330
1F
100
AcDbEntity
  8
0
  6
Continuous
 62
     7
370
    15
100
AcDbPolyline
 90
       28
 70
   128
 43
0.0
 10
244.8484710977
 20
32.5282508649
 10
245.040005334
 20
33.3077173194
 10
245.2807580205
 20
34.0940417968
 10
245.5689369196
 20
34.8813706542
 10
245.9023967383
 20
35.6638427713
 10
246.2786550982
 20
36.4356331833
 10
246.6949110155
 20
37.1909964431
 10
247.1480657521
 20
37.9243093923
 10
247.6347458838
 20
38.6301130223
 10
248.1513284128
 20
39.3031531118
 10
248.6939677386
 20
39.938419342
 10
249.2586242858
 20
40.531182594
 10
249.8410945761
 20
41.0770301545
 10
250.4370425202
 20
41.5718985651
 10
251.0420316968
 20
42.0121038719
 10
251.6515583789
 20
42.3943690502
 10
252.261085061
 20
42.7158483995
 10
252.8660742376
 20
42.9741487279
 10
253.4620221817
 20
43.1673471676
 10
254.044492472
 20
43.2940054896
 10
254.6091490193
 20
43.3531808101
 10
255.151788345
 20
43.3444326096
 10
255.668370874
 20
43.2678260126
 10
256.1550510057
 20
43.1239313021
 10
256.6082057423
 20
42.9138196752
 10
257.0244616596
 20
42.6390552677
 10
257.4007200195
 20
42.3016835112
 10
257.6008121566
 20
42.0766994905
  0
LINE
  5
19C
330
1F
100
AcDbEntity
  8
0
  6
Continuous
 62
     7
370
    15
100
AcDbLine
 10
243.1973767636
 20
33.4814073354
 30
0.0
 11
244.8484710977
 21
32.5282508649
 31
0.0
  0
ARC
  5
19D
330
1F
100
AcDbEntity
  8
0
  6
Continuous
 62
     7
370
    15
100
AcDbCircle
 10
253.2549322569
 20
40.7896279971
 30
0.0
 40
3.516551959447142
100
AcDbArc
 50
60.2471036508
 51
85.9809519032
  0
SPLINE
  5
19E
330
1F
100
AcDbEntity
  8
0
  6
Continuous
 62
     7
370
    15
100
AcDbSpline
210
0.0
220
0.0
230
1.0
 70
     8
 71
     3
 72
    12
 73
     8
 74
     0
 42
0.000000001
 43
0.00000001
 40
0.0
 40
0.0
 40
0.0
 40
0.0
 40
0.1967091653699587
 40
0.4326754524514993
 40
0.6703884604423436
 40
0.8348923628148495
 40
1.0
 40
1.0
 40
1.0
 40
1.0
 10
247.1817156656355
 20
32.1020097568211
 30
0.0
 10
247.1471600366665
 20
32.14400011910618
 30
0.0
 10
247.0711525340634
 20
32.23636083329115
 30
0.0
 10
246.9447582263277
 20
32.36430947202106
 30
0.0
 10
246.8191634087156
 20
32.47411865764297
 30
0.0
 10
246.7036727307281
 20
32.56167293526455
 30
0.0
 10
246.6345853231395
 20
32.60597749447683
 30
0.0
 10
246.5999783471777
 20
32.6281703494293
 30
0.0
  0
SPLINE
  5
19F
330
1F
100
AcDbEntity
  8
0
  6
Continuous
 62
     7
370
    15
100
AcDbSpline
210
0.0
220
0.0
230
1.0
 70
     8
 71
     3
 72
    18
 73
    14
 74
     0
 42
0.000000001
 43
0.00000001
 40
0.0
 40
0.0
 40
0.0
 40
0.0
 40
0.2499999999999943
 40
0.2499999999999943
 40
0.4999999999999887
 40
0.4999999999999887
 40
0.6249999999999915
 40
0.6249999999999915
 40
0.7499999999999943
 40
0.7499999999999943
 40
0.8749999999999971
 40
0.8749999999999971
 40
1.0
 40
1.0
 40
1.0
 40
1.0
 10
262.0209542318278
 20
32.40471592654804
 30
0.0
 10
262.0074739955248
 20
32.40591392662106
 30
0.0
 10
261.9930083657144
 20
32.4065688632759
 30
0.0
 10
261.9608931129077
 20
32.40612354027085
 30
0.0
 10
261.9428636346778
 20
32.40502838763303
 30
0.0
 10
261.9131217192698
 20
32.40067923890789
 30
0.0
 10
261.9024615621498
 20
32.39870910188333
 30
0.0
 10
261.8810511819512
 20
32.3935569429131
 30
0.0
 10
261.870169558534
 20
32.3903140490738
 30
0.0
 10
261.8504482190834
 20
32.38308283531635
 30
0.0
 10
261.841518209488
 20
32.37908682462322
 30
0.0
 10
261.8261606010992
 20
32.37103915102956
 30
0.0
 10
261.8198125783276
 20
32.36707265902169
 30
0.0
 10
261.8142917095047
 20
32.36316273749973
 30
0.0
  0
SPLINE
  5
1A0
330
1F
100
AcDbEntity
  8
0
  6
Continuous
 62
     7
370
    15
100
AcDbSpline
210
0.0
220
0.0
230
1.0
 70
     8
 71
     3
 72
    10
 73
     6
 74
     0
 42
0.000000001
 43
0.00000001
 40
0.0
 40
0.0
 40
0.0
 40
0.0
 40
0.5
 40
0.5
 40
1.0
 40
1.0
 40
1.0
 40
1.0
 10
261.8142917095047
 20
32.36316273749973
 30
0.0
 10
261.7965165918774
 20
32.3692244969418
 30
0.0
 10
261.7781579462843
 20
32.37602990235074
 30
0.0
 10
261.7430238377282
 20
32.39080481628894
 30
0.0
 10
261.7262516430303
 20
32.39881013747084
 30
0.0
 10
261.7124780008231
 20
32.40676149186773
 30
0.0
  0
SPLINE
  5
1A1
330
1F
100
AcDbEntity
  8
0
  6
Continuous
 62
     7
370
    15
100
AcDbSpline
210
0.0
220
0.0
230
1.0
 70
     8
 71
     3
 72
    11
 73
     7
 74
     0
 42
0.000000001
 43
0.00000001
 40
0.0
 40
0.0
 40
0.0
 40
0.0
 40
0.121634817443809
 40
0.3351169609818405
 40
0.7111647747249447
 40
1.0
 40
1.0
 40
1.0
 40
1.0
 10
257.296774013467
 20
29.74692558423941
 30
0.0
 10
257.2956485171795
 20
29.74411744633696
 30
0.0
 10
257.2925476542572
 20
29.73638072539089
 30
0.0
 10
257.2749225578665
 20
29.70936187064981
 30
0.0
 10
257.2471091970778
 20
29.67178980455317
 30
0.0
 10
257.2235240499311
 20
29.64217068390515
 30
0.0
 10
257.2132783061093
 20
29.62930369094131
 30
0.0
  0
SPLINE
  5
1A2
330
1F
100
AcDbEntity
  8
0
  6
Continuous
 62
     7
370
    15
100
AcDbSpline
210
0.0
220
0.0
230
1.0
 70
     8
 71
     3
 72
    11
 73
     7
 74
     0
 42
0.000000001
 43
0.00000001
 40
0.0
 40
0.0
 40
0.0
 40
0.0
 40
0.3137397652437563
 40
0.6274560215931975
 40
0.9412106666698945
 40
1.0
 40
1.0
 40
1.0
 40
1.0
 10
256.3078565329994
 20
27.06635718127911
 30
0.0
 10
256.2398530346345
 20
27.08309763175568
 30
0.0
 10
256.1038511334878
 20
27.11657727832691
 30
0.0
 10
255.9781740608458
 20
27.30205881191146
 30
0.0
 10
255.9190982758034
 20
27.48216594955354
 30
0.0
 10
255.934159054089
 20
27.60290222795641
 30
0.0
 10
255.9365357214522
 20
27.62195502635733
 30
0.0
  0
LINE
  5
1A3
330
1F
100
AcDbEntity
  8
0
  6
Continuous
 62
     7
370
    15
100
AcDbLine
 10
260.7232626476
 20
32.9778233599
 30
0.0
 11
261.7124780008
 21
32.4067614919
 31
0.0
  0
ARC
  5
1A4
330
1F
100
AcDbEntity
  8
0
  6
Continuous
 62
     7
370
    15
100
AcDbCircle
 10
255.4510851431
 20
32.4725626863
 30
0.0
 40
4.359019778505651
100
AcDbArc
 50
338.4824736034
 51
3.786153622
  0
LINE
  5
1A5
330
1F
100
AcDbEntity
  8
0
  6
Continuous
 62
     7
370
    15
100
AcDbLine
 10
259.5063048435
 20
30.8737360507
 30
0.0
 11
261.7124780008
 21
29.6001393963
 31
0.0
  0
LINE
  5
1A6
330
1F
100
AcDbEntity
  8
0
  6
Continuous
 62
     7
370
    15
100
AcDbLine
 10
255.9605811575
 20
27.7555691996
 30
0.0
 11
257.2389118246
 21
27.0176046135
 31
0.0
  0
SPLINE
  5
1A7
330
1F
100
AcDbEntity
  8
0
  6
Continuous
 62
     7
370
    15
100
AcDbSpline
210
0.0
220
0.0
230
1.0
 70
     8
 71
     3
 72
    10
 73
     6
 74
     0
 42
0.000000001
 43
0.00000001
 40
0.0
 40
0.0
 40
0.0
 40
0.0
 40
0.5
 40
0.5
 40
1.0
 40
1.0
 40
1.0
 40
1.0
 10
246.5456066082848
 20
32.64918234215303
 30
0.0
 10
246.5293764849268
 20
32.65271215068382
 30
0.0
 10
246.5119467477053
 20
32.65469338104729
 30
0.0
 10
246.4768256569106
 20
32.65532745515374
 30
0.0
 10
246.4596384101419
 20
32.65403490815032
 30
0.0
 10
246.4428557969338
 20
32.65122893219078
 30
0.0
  0
SPLINE
  5
1A8
330
1F
100
AcDbEntity
  8
0
  6
Continuous
 62
     7
370
    15
100
AcDbSpline
210
0.0
220
0.0
230
1.0
 70
     8
 71
     3
 72
     8
 73
     4
 74
     0
 42
0.000000001
 43
0.00000001
 40
0.0
 40
0.0
 40
0.0
 40
0.0
 40
1.0
 40
1.0
 40
1.0
 40
1.0
 10
246.5999783471777
 20
32.6281703494293
 30
0.0
 10
246.5845855704432
 20
32.63763867334765
 30
0.0
 10
246.5661425097444
 20
32.64471609143143
 30
0.0
 10
246.5456066082848
 20
32.64918234215305
 30
0.0
  0
SPLINE
  5
1A9
330
1F
100
AcDbEntity
  8
0
  6
Continuous
 62
     7
370
    15
100
AcDbSpline
210
0.0
220
0.0
230
1.0
 70
     8
 71
     3
 72
    10
 73
     6
 74
     0
 42
0.000000001
 43
0.00000001
 40
0.0
 40
0.0
 40
0.0
 40
0.0
 40
0.5
 40
0.5
 40
1.0
 40
1.0
 40
1.0
 40
1.0
 10
243.1346979956987
 20
33.5175864886844
 30
0.0
 10
243.1391182350388
 20
33.51503615486674
 30
0.0
 10
243.1465662134145
 20
33.51073765826459
 30
0.0
 10
243.1678861934387
 20
33.4984314691286
 30
0.0
 10
243.1813185025273
 20
33.49067757222022
 30
0.0
 10
243.1973767636231
 20
33.48140733541216
 30
0.0
  0
SPLINE
  5
1AA
330
1F
100
AcDbEntity
  8
0
  6
Continuous
 62
     7
370
    15
100
AcDbSpline
210
0.0
220
0.0
230
1.0
 70
     8
 71
     3
 72
     9
 73
     5
 74
     0
 42
0.000000001
 43
0.00000001
 40
0.0
 40
0.0
 40
0.0
 40
0.0
 40
0.5377956222891745
 40
1.0
 40
1.0
 40
1.0
 40
1.0
 10
246.5999783471777
 20
28.43242792425206
 30
0.0
 10
246.6960048165566
 20
28.38172150523547
 30
0.0
 10
246.8745605083457
 20
28.28743583812506
 30
0.0
 10
247.031202971323
 20
28.24117798251934
 30
0.0
 10
247.1036038034465
 20
28.21979739915486
 30
0.0
  0
SPLINE
  5
1AB
330
1F
100
AcDbEntity
  8
0
  6
Continuous
 62
     7
370
    15
100
AcDbSpline
210
0.0
220
0.0
230
1.0
 70
     8
 71
     3
 72
     8
 73
     4
 74
     0
 42
0.000000001
 43
0.00000001
 40
0.0
 40
0.0
 40
0.0
 40
0.0
 40
1.0
 40
1.0
 40
1.0
 40
1.0
 10
246.545606608285
 20
28.45216256906023
 30
0.0
 10
246.5661379610839
 20
28.44769730760412
 30
0.0
 10
246.5845861867256
 20
28.44101170588343
 30
0.0
 10
246.5999783471777
 20
28.43242792425207
 30
0.0
  0
SPLINE
  5
1AC
330
1F
100
AcDbEntity
  8
0
  6
Continuous
 62
     7
370
    15
100
AcDbSpline
210
0.0
220
0.0
230
1.0
 70
     8
 71
     3
 72
    12
 73
     8
 74
     0
 42
0.000000001
 43
0.00000001
 40
0.0
 40
0.0
 40
0.0
 40
0.0
 40
0.1882354094086299
 40
0.3552040209284085
 40
0.500948000530382
 40
0.7563046350128582
 40
1.0
 40
1.0
 40
1.0
 40
1.0
 10
246.8719732148177
 20
27.78593256533954
 30
0.0
 10
246.9075906279658
 20
27.82364522477406
 30
0.0
 10
246.9748014062407
 20
27.8948097751269
 30
0.0
 10
247.0467651492841
 20
28.03373661274555
 30
0.0
 10
247.1113747380815
 20
28.21799806776384
 30
0.0
 10
247.1616774039142
 20
28.46661728712617
 30
0.0
 10
247.168598511541
 20
28.69994687402581
 30
0.0
 10
247.1719782031383
 20
28.81388557961608
 30
0.0
  0
SPLINE
  5
1AD
330
1F
100
AcDbEntity
  8
0
  6
Continuous
 62
     7
370
    15
100
AcDbSpline
210
0.0
220
0.0
230
1.0
 70
     8
 71
     3
 72
     9
 73
     5
 74
     0
 42
0.000000001
 43
0.00000001
 40
0.0
 40
0.0
 40
0.0
 40
0.0
 40
0.504800498279835
 40
0.9999999999999999
 40
0.9999999999999999
 40
0.9999999999999999
 40
0.9999999999999999
 10
246.8276794500054
 20
27.49632275723518
 30
0.0
 10
246.8350974093087
 20
27.54500830745158
 30
0.0
 10
246.8497922428687
 20
27.64145343851286
 30
0.0
 10
246.8646310874101
 20
27.73805593181254
 30
0.0
 10
246.8719792758331
 20
27.78589343835947
 30
0.0
  0
LINE
  5
1AE
330
1F
100
AcDbEntity
  8
0
  6
Continuous
 62
     7
370
    15
100
AcDbLine
 10
257.2785086184
 20
26.9795662581
 30
0.0
 11
256.307856533
 21
27.0663571813
 31
0.0
  0
SPLINE
  5
1AF
330
1F
100
AcDbEntity
  8
0
  6
Continuous
 62
     7
370
    15
100
AcDbSpline
210
0.0
220
0.0
230
1.0
 70
     8
 71
     3
 72
    18
 73
    14
 74
     0
 42
0.000000001
 43
0.00000001
 40
0.0
 40
0.0
 40
0.0
 40
0.0
 40
0.2500000000000002
 40
0.2500000000000002
 40
0.5000000000000004
 40
0.5000000000000004
 40
0.6250000000000003
 40
0.6250000000000003
 40
0.7500000000000002
 40
0.7500000000000002
 40
0.8750000000000001
 40
0.8750000000000001
 40
1.0
 40
1.0
 40
1.0
 40
1.0
 10
257.2131285406523
 20
26.85662840527854
 30
0.0
 10
257.2265376310856
 20
26.85542943053201
 30
0.0
 10
257.2397464743033
 20
26.85561977254797
 30
0.0
 10
257.2641882166931
 20
26.86060131074548
 30
0.0
 10
257.275801148927
 20
26.86533468033922
 30
0.0
 10
257.2891215214399
 20
26.87939438432219
 30
0.0
 10
257.292830498937
 20
26.88533547852197
 30
0.0
 10
257.2975024134306
 20
26.89997831751398
 30
0.0
 10
257.2984336000978
 20
26.90894574766962
 30
0.0
 10
257.2969368404291
 20
26.92829109274
 30
0.0
 10
257.2945515709922
 20
26.93880605391041
 30
0.0
 10
257.2877611434881
 20
26.95944041761016
 30
0.0
 10
257.2833591049551
 20
26.96971207824451
 30
0.0
 10
257.2785086184293
 20
26.97956625807849
 30
0.0
  0
SPLINE
  5
1B0
330
1F
100
AcDbEntity
  8
0
  6
Continuous
 62
     7
370
    15
100
AcDbSpline
210
0.0
220
0.0
230
1.0
 70
     8
 71
     3
 72
    10
 73
     6
 74
     0
 42
0.000000001
 43
0.00000001
 40
0.0
 40
0.0
 40
0.0
 40
0.0
 40
0.5
 40
0.5
 40
1.0
 40
1.0
 40
1.0
 40
1.0
 10
257.2389118246394
 20
27.01760461354745
 30
0.0
 10
257.2526871210926
 20
27.00965230417463
 30
0.0
 10
257.2626228280449
 20
27.00222669981327
 30
0.0
 10
257.2751342998988
 20
26.9895063380915
 30
0.0
 10
257.2779506067678
 20
26.98408641416719
 30
0.0
 10
257.2785086184293
 20
26.97956625807849
 30
0.0
  0
SPLINE
  5
1B1
330
1F
100
AcDbEntity
  8
0
  6
Continuous
 62
     7
370
    15
100
AcDbSpline
210
0.0
220
0.0
230
1.0
 70
     8
 71
     3
 72
    10
 73
     6
 74
     0
 42
0.000000001
 43
0.00000001
 40
0.0
 40
0.0
 40
0.0
 40
0.0
 40
0.5
 40
0.5
 40
1.0
 40
1.0
 40
1.0
 40
1.0
 10
261.7124780008231
 20
29.60013939625981
 30
0.0
 10
261.7262532972764
 20
29.59218708688699
 30
0.0
 10
261.7431163974773
 20
29.58876058152484
 30
0.0
 10
261.7781650738185
 20
29.58905067101842
 30
0.0
 10
261.7965350487573
 20
29.59260968854863
 30
0.0
 10
261.8143025632383
 20
29.59802436696874
 30
0.0
  0
SPLINE
  5
1B2
330
1F
100
AcDbEntity
  8
0
  6
Continuous
 62
     7
370
    15
100
AcDbSpline
210
0.0
220
0.0
230
1.0
 70
     8
 71
     3
 72
    16
 73
    12
 74
     0
 42
0.000000001
 43
0.00000001
 40
0.0
 40
0.0
 40
0.0
 40
0.0
 40
0.2500000000000034
 40
0.2500000000000034
 40
0.3750000000000029
 40
0.3750000000000029
 40
0.5000000000000023
 40
0.5000000000000023
 40
0.7500000000000012
 40
0.7500000000000012
 40
1.0
 40
1.0
 40
1.0
 40
1.0
 10
261.8143025632383
 20
29.59802436696875
 30
0.0
 10
261.8253924335095
 20
29.57888509973207
 30
0.0
 10
261.8403977405593
 20
29.56145279784334
 30
0.0
 10
261.8700861324103
 20
29.54798979477633
 30
0.0
 10
261.8807925343857
 20
29.54587613210853
 30
0.0
 10
261.902203668987
 20
29.54619154558286
 30
0.0
 10
261.9128396298406
 20
29.54855578402072
 30
0.0
 10
261.9427531125014
 20
29.55952919844081
 30
0.0
 10
261.9607343488765
 20
29.57187248779939
 30
0.0
 10
261.9929996360612
 20
29.59962588456152
 30
0.0
 10
262.0076858050168
 20
29.61552145278444
 30
0.0
 10
262.0211039972851
 20
29.63221355640202
 30
0.0
  0
LINE
  5
1B3
330
1F
100
AcDbEntity
  8
0
  6
Continuous
 62
     7
370
    15
100
AcDbLine
 10
243.3083248357
 20
33.4173375555
 30
0.0
 11
243.1346979957
 21
33.5175864887
 31
0.0
  0
LINE
  5
1B4
330
1F
100
AcDbEntity
  8
0
  6
Continuous
 62
     7
370
    15
100
AcDbLine
 10
245.0382713392
 20
32.4186606965
 30
0.0
 11
243.3083248357
 21
33.4173375555
 31
0.0
  0
SPLINE
  5
1B5
330
1F
100
AcDbEntity
  8
0
  6
Continuous
 62
     7
370
    15
100
AcDbSpline
210
0.0
220
0.0
230
1.0
 70
     8
 71
     3
 72
    11
 73
     7
 74
     0
 42
0.000000001
 43
0.00000001
 40
0.0
 40
0.0
 40
0.0
 40
0.0
 40
0.0763291486418211
 40
0.4828240100968392
 40
0.8892344489868877
 40
1.0
 40
1.0
 40
1.0
 40
1.0
 10
244.8668688134171
 20
31.29224501721645
 30
0.0
 10
244.8666946616852
 20
31.32354067282459
 30
0.0
 10
244.8655930558228
 20
31.5215029743595
 30
0.0
 10
244.8477147929374
 20
31.89469739135835
 30
0.0
 10
244.8324847471122
 20
32.2808909146702
 30
0.0
 10
244.8372919547668
 20
32.489426419644
 30
0.0
 10
244.8383215327346
 20
32.53408926278671
 30
0.0
  0
LINE
  5
1B6
330
1F
100
AcDbEntity
  8
0
  6
Continuous
 62
     7
370
    15
100
AcDbLine
 10
244.8668688134
 20
30.5819247656
 30
0.0
 11
244.8668688134
 21
31.2922450172
 31
0.0
  0
LINE
  5
1B7
330
1F
100
AcDbEntity
  8
0
  6
Continuous
 62
     7
370
    15
100
AcDbLine
 10
244.4956377533
 20
32.6573753161
 30
0.0
 11
244.4960541642
 21
32.7316760089
 31
0.0
  0
ARC
  5
1B8
330
1F
100
AcDbEntity
  8
0
  6
Continuous
 62
     7
370
    15
100
AcDbCircle
 10
249.2699790338
 20
32.5511394503
 30
0.0
 40
4.775523083593614
100
AcDbArc
 50
178.7252979842
 51
202.7773427363
  0
LINE
  5
1B9
330
1F
100
AcDbEntity
  8
0
  6
Continuous
 62
     7
370
    15
100
AcDbLine
 10
237.0923185032
 20
47.3033951294
 30
0.0
 11
237.1173657259
 21
47.2940973033
 31
0.0
  0
LWPOLYLINE
  5
1BA
330
1F
100
AcDbEntity
  8
0
  6
Continuous
 62
     7
370
    15
100
AcDbPolyline
 90
        3
 70
   128
 43
0.0
 10
233.048576633
 20
40.298669781
 10
233.0238768255
 20
40.3200233926
 10
233.018833251
 20
40.3245085335
  0
SPLINE
  5
1BB
330
1F
100
AcDbEntity
  8
0
  6
Continuous
 62
     7
370
    15
100
AcDbSpline
210
0.0
220
0.0
230
1.0
 70
     8
 71
     3
 72
    32
 73
    28
 74
     0
 42
0.000000001
 43
0.00000001
 40
0.0
 40
0.0
 40
0.0
 40
0.0
 40
0.1250000000000008
 40
0.1250000000000008
 40
0.1875000000000009
 40
0.1875000000000009
 40
0.2500000000000009
 40
0.2500000000000009
 40
0.3750000000000004
 40
0.3750000000000004
 40
0.4375000000000004
 40
0.4375000000000004
 40
0.5000000000000003
 40
0.5000000000000003
 40
0.6250000000000002
 40
0.6250000000000002
 40
0.6875000000000002
 40
0.6875000000000002
 40
0.7500000000000002
 40
0.7500000000000002
 40
0.8125000000000002
 40
0.8125000000000002
 40
0.8750000000000001
 40
0.8750000000000001
 40
0.9375000000000001
 40
0.9375000000000001
 40
1.0
 40
1.0
 40
1.0
 40
1.0
 10
262.7849546486682
 20
30.80550633342711
 30
0.0
 10
262.8410424034994
 20
30.87527896722088
 30
0.0
 10
262.8917769881263
 20
30.94958766427125
 30
0.0
 10
262.9593288408096
 20
31.06810584762954
 30
0.0
 10
262.9804158453576
 20
31.10894552436326
 30
0.0
 10
263.0185885199398
 20
31.19068825730937
 30
0.0
 10
263.0358331108615
 20
31.23186722969054
 30
0.0
 10
263.0820886821872
 20
31.35632268700719
 30
0.0
 10
263.105658240636
 20
31.44144796754949
 30
0.0
 10
263.1283542641592
 20
31.56383067119806
 30
0.0
 10
263.1339162680191
 20
31.60398594458931
 30
0.0
 10
263.1410735184757
 20
31.6829556208697
 30
0.0
 10
263.1426596548849
 20
31.72201130841737
 30
0.0
 10
263.1413748951898
 20
31.83400155773953
 30
0.0
 10
263.1327319050732
 20
31.9025402754536
 30
0.0
 10
263.1082675136153
 20
31.9958132415166
 30
0.0
 10
263.0982667544982
 20
32.02491343280005
 30
0.0
 10
263.0748882842976
 20
32.07838231200916
 30
0.0
 10
263.061446624475
 20
32.10292323739115
 30
0.0
 10
263.030834061557
 20
32.14772733691135
 30
0.0
 10
263.0135352820959
 20
32.1681036587066
 30
0.0
 10
262.9763341709372
 20
32.20333237625929
 30
0.0
 10
262.9566514933254
 20
32.21810482832137
 30
0.0
 10
262.9144420213561
 20
32.24254667720187
 30
0.0
 10
262.8918338907385
 20
32.252263759388
 30
0.0
 10
262.8421683710813
 20
32.26732670553758
 30
0.0
 10
262.8151131825336
 20
32.27263378898262
 30
0.0
 10
262.7857178615578
 20
32.27592751954955
 30
0.0
  0
SPLINE
  5
1BC
330
1F
100
AcDbEntity
  8
0
  6
Continuous
 62
     7
370
    15
100
AcDbSpline
210
0.0
220
0.0
230
1.0
 70
     8
 71
     3
 72
    14
 73
    10
 74
     0
 42
0.000000001
 43
0.00000001
 40
0.0
 40
0.0
 40
0.0
 40
0.0
 40
0.25
 40
0.25
 40
0.5
 40
0.5
 40
0.75
 40
0.75
 40
1.0
 40
1.0
 40
1.0
 40
1.0
 10
262.7857178615578
 20
32.2759275195495
 30
0.0
 10
262.7009215124233
 20
32.28542890677158
 30
0.0
 10
262.6224502659387
 20
32.29126563215434
 30
0.0
 10
262.4624715763168
 20
32.30469416381772
 30
0.0
 10
262.3814227281327
 20
32.31201728524316
 30
0.0
 10
262.2189692617409
 20
32.32687062487937
 30
0.0
 10
262.1376889970211
 20
32.3343282384428
 30
0.0
 10
261.9758838241009
 20
32.34880702808189
 30
0.0
 10
261.8951546286086
 20
32.35594628573107
 30
0.0
 10
261.8142917095047
 20
32.36316273749974
 30
0.0
  0
LWPOLYLINE
  5
1BD
330
1F
100
AcDbEntity
  8
0
  6
Continuous
 62
     7
370
    15
100
AcDbPolyline
 90
       10
 70
   128
 43
0.0
 10
247.8306960125
 20
25.1525281639
 10
247.6347458838
 20
25.1900958502
 10
247.1480657521
 20
25.3339905606
 10
246.6949110155
 20
25.5441021876
 10
246.2786550982
 20
25.818866595
 10
245.9023967383
 20
26.1562383515
 10
245.5689369196
 20
26.5537059571
 10
245.2807580205
 20
27.0083105398
 10
245.040005334
 20
27.5166678822
 10
244.8484710977
 20
28.0749936145
  0
SPLINE
  5
1BE
330
1F
100
AcDbEntity
  8
0
  6
Continuous
 62
     7
370
    15
100
AcDbSpline
210
0.0
220
0.0
230
1.0
 70
     8
 71
     3
 72
     8
 73
     4
 74
     0
 42
0.000000001
 43
0.00000001
 40
0.0
 40
0.0
 40
0.0
 40
0.0
 40
0.0012417047560384
 40
0.0012417047560384
 40
0.0012417047560384
 40
0.0012417047560384
 10
245.0382713391535
 20
28.22164092341445
 30
0.0
 10
244.9750472761495
 20
28.17267964141279
 30
0.0
 10
244.9117795538778
 20
28.12379874942449
 30
0.0
 10
244.8484710976936
 20
28.07499361450019
 30
0.0
  0
SPLINE
  5
1BF
330
1F
100
AcDbEntity
  8
0
  6
Continuous
 62
     7
370
    15
100
AcDbSpline
210
0.0
220
0.0
230
1.0
 70
     8
 71
     3
 72
     8
 73
     4
 74
     0
 42
0.000000001
 43
0.00000001
 40
0.0
 40
0.0
 40
0.0
 40
0.0
 40
1.0
 40
1.0
 40
1.0
 40
1.0
 10
245.0382713391535
 20
28.22164092341445
 30
0.0
 10
245.5067643730238
 20
28.29855277554565
 30
0.0
 10
245.9750121228607
 20
28.37598784242975
 30
0.0
 10
246.4428557969338
 20
28.45420915909802
 30
0.0
  0
SPLINE
  5
1C0
330
1F
100
AcDbEntity
  8
0
  6
Continuous
 62
     7
370
    15
100
AcDbSpline
210
0.0
220
0.0
230
1.0
 70
     8
 71
     3
 72
    10
 73
     6
 74
     0
 42
0.000000001
 43
0.00000001
 40
0.0
 40
0.0
 40
0.0
 40
0.0
 40
0.5
 40
0.5
 40
1.0
 40
1.0
 40
1.0
 40
1.0
 10
246.4428557969338
 20
28.45420915909802
 30
0.0
 10
246.4595621413395
 20
28.4570023832636
 30
0.0
 10
246.4771210556652
 20
28.45831841966695
 30
0.0
 10
246.5121720087811
 20
28.45765322989533
 30
0.0
 10
246.5291741276054
 20
28.45573638727504
 30
0.0
 10
246.545606608285
 20
28.45216256906023
 30
0.0
  0
LINE
  5
1C1
330
1F
100
AcDbEntity
  8
0
  6
Continuous
 62
     7
370
    15
100
AcDbLine
 10
243.3083248357
 20
29.2203177824
 30
0.0
 11
245.0382713392
 21
28.2216409234
 31
0.0
  0
LINE
  5
1C2
330
1F
100
AcDbEntity
  8
0
  6
Continuous
 62
     7
370
    15
100
AcDbLine
 10
243.3083248357
 20
29.2203177824
 30
0.0
 11
244.7254474572
 21
30.0384052583
 31
0.0
  0
ARC
  5
1C3
330
1F
100
AcDbEntity
  8
0
  6
Continuous
 62
     7
370
    15
100
AcDbCircle
 10
259.2181553296
 20
33.1768342217
 30
0.0
 40
1.667615799245945
100
AcDbArc
 50
320.6700295195
 51
350.3607260606
  0
LINE
  5
1C4
330
1F
100
AcDbEntity
  8
0
  6
Continuous
 62
     7
370
    15
100
AcDbLine
 10
243.1346979957
 20
29.1200688492
 30
0.0
 11
243.3083248357
 21
29.2203177824
 31
0.0
  0
LINE
  5
1C5
330
1F
100
AcDbEntity
  8
0
  6
Continuous
 62
     7
370
    15
100
AcDbLine
 10
244.8484710977
 20
28.0749936145
 30
0.0
 11
243.1973767636
 21
29.0281500851
 31
0.0
  0
SPLINE
  5
1C6
330
1F
100
AcDbEntity
  8
0
  6
Continuous
 62
     7
370
    15
100
AcDbSpline
210
0.0
220
0.0
230
1.0
 70
     8
 71
     3
 72
     8
 73
     4
 74
     0
 42
0.000000001
 43
0.00000001
 40
0.0
 40
0.0
 40
0.0
 40
0.0
 40
1.0
 40
1.0
 40
1.0
 40
1.0
 10
243.1973767636231
 20
29.0281500850532
 30
0.0
 10
243.1652890719566
 20
29.04667391516144
 30
0.0
 10
243.1435331670422
 20
29.08013905156496
 30
0.0
 10
243.1346979956987
 20
29.12006884920777
 30
0.0
  0
LINE
  5
1C7
330
1F
100
AcDbEntity
  8
0
  6
Continuous
 62
     7
370
    15
100
AcDbLine
 10
261.8143025632
 20
29.598024367
 30
0.0
 11
262.7849546487
 21
30.8055063334
 31
0.0
  0
LINE
  5
1C8
330
1F
100
AcDbEntity
  8
0
  6
Continuous
 62
     7
370
    15
100
AcDbLine
 10
259.5063048435
 20
30.8737360507
 30
0.0
 11
260.5080708132
 21
32.1199233935
 31
0.0
  0
ARC
  5
1C9
330
1F
100
AcDbEntity
  8
0
  6
Continuous
 62
     7
370
    15
100
AcDbCircle
 10
246.8077814911
 20
29.5967414281
 30
0.0
 40
3.566685515631841
100
AcDbArc
 50
215.0107921099
 51
239.5618524284
  0
ELLIPSE
  5
1CA
330
1F
100
AcDbEntity
  8
0
  6
Continuous
 62
     7
370
    15
100
AcDbEllipse
 10
244.6082901697
 20
30.4326550455
 30
0.0
 11
-3.002985192779306E-5
 21
0.4267244807413632
 31
0.0
210
0.0
220
0.0
230
1.0
 40
0.7174342186
 41
3.534193645557431
 42
5.104989972352342
  0
ELLIPSE
  5
1CB
330
1F
100
AcDbEntity
  8
0
  6
Continuous
 62
     7
370
    15
100
AcDbEllipse
 10
244.5840261009
 20
30.4186431432
 30
0.0
 11
0.1300037894604884
 21
0.4852718104954654
 31
0.0
210
0.0
220
0.0
230
1.0
 40
0.5176380889
 41
3.619174351347832
 42
5.189970678142608
  0
LWPOLYLINE
  5
1CC
330
1F
100
AcDbEntity
  8
0
  6
Continuous
 62
     7
370
     0
100
AcDbPolyline
 90
       39
 70
   128
 43
0.0
 10
247.8791437013
 20
28.4059300738
 10
247.904107832
 20
29.0989670443
 10
247.9788203571
 20
29.8158336394
 10
248.1027429712
 20
30.5513648188
 10
248.2749828089
 20
31.3002610636
 10
248.4942988782
 20
32.0571265591
 10
248.7591110019
 20
32.8165080722
 10
249.0675112026
 20
33.5729342415
 10
249.4172774496
 20
34.3209549993
 10
249.8058896693
 20
35.0551808388
 10
250.2305479016
 20
35.770321646
 10
250.6881924743
 20
36.461224815
 10
251.1755260477
 20
37.1229123727
 10
251.6890373723
 20
37.7506168451
 10
252.2250265872
 20
38.3398156069
 10
252.7796318778
 20
38.8862634678
 10
253.3488573003
 20
39.3860232582
 10
253.9286015725
 20
39.8354941974
 10
254.5146876236
 20
40.2314378371
 10
255.1028926902
 20
40.5710013943
 10
255.6889787413
 20
40.8517383056
 10
256.2687230135
 20
41.0716258553
 10
256.837948436
 20
41.2290797486
 10
257.3925537266
 20
41.3229655264
 10
257.9285429415
 20
41.3526067396
 10
258.4420542661
 20
41.3177898227
 10
258.9293878395
 20
41.2187656322
 10
259.3870324122
 20
41.0562476398
 10
259.8116906445
 20
40.8314067913
 10
260.2003028642
 20
40.5458630702
 10
260.5500691112
 20
40.2016738255
 10
260.8584693119
 20
39.8013189486
 10
261.1232814356
 20
39.3476830056
 10
261.3425975049
 20
38.8440344539
 10
261.5148373426
 20
38.2940020927
 10
261.6387599567
 20
37.701548918
 10
261.7134724818
 20
37.0709435683
 10
261.7384366125
 20
36.4067295697
 10
261.7196267064
 20
35.8066720725
  0
LWPOLYLINE
  5
1CD
330
1F
100
AcDbEntity
  8
0
  6
Continuous
 62
     7
370
     0
100
AcDbPolyline
 90
       21
 70
   128
 43
0.0
 10
255.3201468175
 20
24.721246634
 10
255.1028926902
 20
24.5812218063
 10
254.5146876236
 20
24.2416582492
 10
253.9286015725
 20
23.9609213378
 10
253.3488573003
 20
23.7410337881
 10
252.7796318778
 20
23.5835798949
 10
252.2250265872
 20
23.489694117
 10
251.6890373723
 20
23.4600529038
 10
251.1755260477
 20
23.4948698207
 10
250.6881924743
 20
23.5938940112
 10
250.2305479016
 20
23.7564120036
 10
249.8058896693
 20
23.9812528521
 10
249.4172774496
 20
24.2667965732
 10
249.0675112026
 20
24.6109858179
 10
248.7591110019
 20
25.0113406948
 10
248.4942988782
 20
25.4649766378
 10
248.2749828089
 20
25.9686251896
 10
248.1027429712
 20
26.5186575507
 10
247.9788203571
 20
27.1111107255
 10
247.904107832
 20
27.7417160752
 10
247.8791437013
 20
28.4059300738
  0
LWPOLYLINE
  5
1CE
330
1F
100
AcDbEntity
  8
0
  6
Continuous
 62
     7
370
     0
100
AcDbPolyline
 90
       27
 70
   128
 43
0.0
 10
247.5963009888
 20
28.4059300738
 10
247.6211002189
 20
29.1035101059
 10
247.6953239603
 20
29.8248296969
 10
247.8184515869
 20
30.564829308
 10
247.9896194468
 20
31.3183183738
 10
248.2076269205
 20
32.0800117098
 10
248.4709448421
 20
32.8445665845
 10
248.7777262257
 20
33.6066201949
 10
249.1258192202
 20
34.3608272823
 10
249.5127822034
 20
35.1018976259
 10
249.9359009081
 20
35.8246331498
 10
250.3922074605
 20
36.5239643836
 10
250.878501198
 20
37.194986021
 10
251.3913711194
 20
37.8329913275
 10
251.9272198107
 20
38.4335051542
 10
252.4822886784
 20
38.9923153281
 10
253.0526843132
 20
39.5055021973
 10
253.6344057995
 20
39.9694661247
 10
254.2233727791
 20
40.3809527366
 10
254.8154540718
 20
40.7370757502
 10
255.4064966527
 20
41.0353372184
 10
255.9923547828
 20
41.2736450512
 10
256.5689190882
 20
41.4503276905
 10
257.1321453846
 20
41.5641458345
 10
257.6780830442
 20
41.6143011307
 10
258.2029027066
 20
41.6004417757
 10
258.2354158268
 20
41.5974013095
  0
ARC
  5
1CF
330
1F
100
AcDbEntity
  8
0
  6
Continuous
 62
     7
370
     0
100
AcDbCircle
 10
253.7475548211
 20
28.1628725264
 30
0.0
 40
6.156053986136976
100
AcDbArc
 50
177.7372205589
 51
212.7127302931
  0
LWPOLYLINE
  5
1D0
330
1F
100
AcDbEntity
  8
0
  6
Continuous
 62
     7
370
     0
100
AcDbPolyline
 90
       30
 70
   128
 43
0.0
 10
249.7176213324
 20
29.4672606192
 10
249.7429204939
 20
30.0672342284
 10
249.8185665441
 20
30.6904548205
 10
249.9438076785
 20
31.3307285493
 10
250.1173991945
 20
31.9816920867
 10
250.3376158615
 20
32.6368758647
 10
250.6022690675
 20
33.2897683726
 10
250.9087285699
 20
33.9338808713
 10
251.2539486365
 20
34.5628118813
 10
251.6344983153
 20
35.1703108038
 10
252.0465955324
 20
35.7503400416
 10
252.4861446808
 20
36.2971350034
 10
252.9487773233
 20
36.8052613952
 10
253.4298956091
 20
37.2696692288
 10
253.9247179683
 20
37.6857430105
 10
254.4283266342
 20
38.049347612
 10
254.9357165175
 20
38.3568693674
 10
255.4418449495
 20
38.6052519874
 10
255.9416817987
 20
38.792026934
 10
256.4302594617
 20
38.9153379538
 10
256.9027222343
 20
38.9739595265
 10
257.3543745692
 20
38.9673090445
 10
257.7807277425
 20
38.8954526034
 10
258.1775444649
 20
38.7591043447
 10
258.5408809935
 20
38.5596193587
 10
258.8671263267
 20
38.2989802167
 10
259.1530380917
 20
37.9797772678
 10
259.395774769
 20
37.6051828942
 10
259.5929239325
 20
37.178919983
 10
259.6579063703
 20
36.9968778883
  0
LWPOLYLINE
  5
1D1
330
1F
100
AcDbEntity
  8
0
  6
Continuous
 62
     7
370
     0
100
AcDbPolyline
 90
       14
 70
   128
 43
0.0
 10
253.2584264814
 20
25.9114524498
 10
252.9487773233
 20
25.8598731419
 10
252.4861446808
 20
25.8338552543
 10
252.0465955324
 20
25.8731575717
 10
251.6344983153
 20
25.9773894901
 10
251.2539486365
 20
26.1455151059
 10
250.9087285699
 20
26.375863511
 10
250.6022690675
 20
26.6661453997
 10
250.3376158615
 20
27.0134758201
 10
250.1173991945
 20
27.4144028463
 10
249.9438076785
 20
27.8649418856
 10
249.8185665441
 20
28.3606152785
 10
249.7429204939
 20
28.8964968001
 10
249.7176213324
 20
29.4672606192
  0
LWPOLYLINE
  5
1D2
330
1F
100
AcDbEntity
  8
0
  6
Continuous
 62
     7
370
     0
100
AcDbPolyline
 90
        9
 70
   128
 43
0.0
 10
250.8489921823
 20
29.4672606192
 10
250.8737832538
 20
28.9353209601
 10
250.9478848524
 20
28.4378325052
 10
251.0704851053
 20
27.9802458421
 10
251.2402407785
 20
27.5675743861
 10
251.4552919934
 20
27.2043394519
 10
251.7132826038
 20
26.8945207176
 10
252.0113860107
 20
26.641512622
 10
252.1747356374
 20
26.5370538578
  0
LWPOLYLINE
  5
1D3
330
1F
100
AcDbEntity
  8
0
  6
Continuous
 62
     7
370
     0
100
AcDbPolyline
 90
       24
 70
   128
 43
0.0
 10
258.5742155263
 20
37.6224792962
 10
258.4026150331
 20
37.7114459792
 10
258.0344879836
 20
37.8431695684
 10
257.6372172816
 20
37.9117481084
 10
257.2151555081
 20
37.9164302382
 10
256.7729268601
 20
37.8571646596
 10
256.3153764872
 20
37.7346006987
 10
255.8475174072
 20
37.5500811917
 10
255.3744755818
 20
37.3056277731
 10
254.9014337565
 20
37.0039187256
 10
254.4335746765
 20
36.6482596367
 10
253.9760243036
 20
36.2425471819
 10
253.5337956556
 20
35.7912264316
 10
253.1117338821
 20
35.2992421505
 10
252.7144631801
 20
34.7719846213
 10
252.3463361306
 20
34.2152305878
 10
252.0113860107
 20
33.6350799638
 10
251.7132826038
 20
33.0378890008
 10
251.4552919934
 20
32.430200648
 10
251.2402407785
 20
31.8186728662
 10
251.0704851053
 20
31.2100056818
 10
250.9478848524
 20
30.6108677797
 10
250.8737832538
 20
30.0278234402
 10
250.8489921823
 20
29.4672606192
  0
LWPOLYLINE
  5
1D4
330
1F
100
AcDbEntity
  8
0
  6
Continuous
 62
     7
370
     0
100
AcDbPolyline
 90
       17
 70
   128
 43
0.0
 10
257.2131285406
 20
26.8566284053
 10
257.4018084217
 20
26.5956685668
 10
257.6328917287
 20
26.3927995446
 10
257.9019552735
 20
26.2519044748
 10
258.203848884
 20
26.1756802438
 10
258.532793985
 20
26.1655858671
 10
258.8824942057
 20
26.2218145622
 10
259.2462558999
 20
26.3432900501
 10
259.617116269
 20
26.5276871564
 10
259.987976638
 20
26.771476318
 10
260.3517383322
 20
27.0699911424
 10
260.7014385529
 20
27.4175177281
 10
261.0303836539
 20
27.8074040343
 10
261.3322772645
 20
28.2321872087
 10
261.6013408092
 20
28.6837364348
 10
261.8324241163
 20
29.1534085642
 10
262.0211039973
 20
29.6322135564
  0
LWPOLYLINE
  5
1D5
330
1F
100
AcDbEntity
  8
0
  6
Continuous
 62
     7
370
     0
100
AcDbPolyline
 90
       17
 70
   128
 43
0.0
 10
262.0209542318
 20
32.4047159265
 10
261.8322581101
 20
32.6655993167
 10
261.6011712746
 20
32.8684014439
 10
261.3321159866
 20
33.0092413255
 10
261.0302411017
 20
33.0854237378
 10
260.7013235376
 20
33.0954907935
 10
260.351657722
 20
33.0392498415
 10
259.9879351377
 20
32.9177771533
 10
259.617116269
 20
32.7333973267
 10
259.2462974002
 20
32.4896388006
 10
258.8825748159
 20
32.1911663318
 10
258.5329090003
 20
31.8436917264
 10
258.2039914362
 20
31.4538645346
 10
257.9021165514
 20
31.0291447991
 10
257.6330612633
 20
30.5776602941
 10
257.4019744278
 20
30.1080509858
 10
257.2132783061
 20
29.6293036909
  0
LWPOLYLINE
  5
1D6
330
1F
100
AcDbEntity
  8
0
  6
Continuous
 62
     7
370
     0
100
AcDbPolyline
 90
       21
 70
   128
 43
0.0
 10
246.4428557969
 20
32.6512289322
 10
246.6307140016
 20
33.3550001044
 10
246.8643813972
 20
34.0631824256
 10
247.1419467247
 20
34.7699833899
 10
247.4611396664
 20
35.4696217901
 10
247.8193494161
 20
36.1563750045
 10
248.213646033
 20
36.8246258044
 10
248.6408044079
 20
37.4689082997
 10
249.0973306417
 20
38.0839526468
 10
249.5794906244
 20
38.6647281524
 10
250.0833405768
 20
39.2064844219
 10
250.6047593091
 20
39.7047902144
 10
251.1394819294
 20
40.1555696881
 10
251.6831347279
 20
40.5551357376
 10
252.2312709514
 20
40.9002201527
 10
252.7794071748
 20
41.1880003503
 10
253.3230599733
 20
41.4161224612
 10
253.8577825936
 20
41.5827205837
 10
254.3792013259
 20
41.6864320452
 10
254.8830512784
 20
41.7264085483
 10
254.9456584238
 20
41.7269019784
  0
LWPOLYLINE
  5
1D7
330
1F
100
AcDbEntity
  8
0
  6
Continuous
 62
     7
370
     0
100
AcDbPolyline
 90
       23
 70
   128
 43
0.0
 10
243.1973767636
 20
33.4814073354
 10
243.3889109999
 20
34.2608737899
 10
243.6296636865
 20
35.0471982674
 10
243.9178425856
 20
35.8345271247
 10
244.2513024042
 20
36.6169992419
 10
244.6275607641
 20
37.3887896539
 10
245.0438166814
 20
38.1441529136
 10
245.4969714181
 20
38.8774658629
 10
245.9836515498
 20
39.5832694928
 10
246.5002340787
 20
40.2563095824
 10
247.0428734045
 20
40.8915758125
 10
247.6075299517
 20
41.4843390646
 10
248.1900002421
 20
42.0301866251
 10
248.7859481861
 20
42.5250550357
 10
249.3909373627
 20
42.9652603425
 10
250.0004640448
 20
43.3475255208
 10
250.609990727
 20
43.6690048701
 10
251.2149799035
 20
43.9273051984
 10
251.8109278476
 20
44.1205036381
 10
252.3933981379
 20
44.2471619601
 10
252.9580546852
 20
44.3063372806
 10
253.5006940109
 20
44.2975890802
 10
253.5014007447
 20
44.2975320676
  0
LWPOLYLINE
  5
1D8
330
1F
100
AcDbEntity
  8
0
  6
Continuous
 62
     7
370
     0
100
AcDbPolyline
 90
       19
 70
   128
 43
0.0
 10
246.5999783472
 20
32.6281703494
 10
246.7948760341
 20
33.3499115331
 10
247.0382349354
 20
34.0759243183
 10
247.3279241024
 20
34.7998514443
 10
247.6614068999
 20
35.5153539133
 10
248.0357632182
 20
36.2161664974
 10
248.4477150424
 20
36.896152599
 10
248.8936551562
 20
37.5493579856
 10
249.3696787283
 20
38.1700629276
 10
249.8716175043
 20
38.7528322822
 10
250.3950763059
 20
39.292563086
 10
250.9354715169
 20
39.7845292386
 10
251.4880712189
 20
40.2244228859
 10
252.0480366262
 20
40.6083921419
 10
252.6104644559
 20
40.9330748169
 10
253.1704298632
 20
41.1956278586
 10
253.7230295652
 20
41.3937522466
 10
254.2634247762
 20
41.525713124
 10
254.5726611207
 20
41.5718244047
  0
LWPOLYLINE
  5
1D9
330
1F
100
AcDbEntity
  8
0
  6
Continuous
 62
     7
370
     0
100
AcDbPolyline
 90
        4
 70
   128
 43
0.0
 10
261.7124780008
 20
32.4067614919
 10
261.5163351155
 20
32.6475047719
 10
261.2784866054
 20
32.8282573558
 10
261.2783546763
 20
32.828334004
  0
LINE
  5
1DA
330
1F
100
AcDbEntity
  8
0
  6
Continuous
 62
     7
370
     0
100
AcDbLine
 10
256.307856533
 20
27.0663571813
 30
0.0
 11
256.3432118721
 21
26.9344120643
 31
0.0
  0
LWPOLYLINE
  5
1DB
330
1F
100
AcDbEntity
  8
0
  6
Continuous
 62
     7
370
     0
100
AcDbPolyline
 90
       14
 70
   128
 43
0.0
 10
257.675841194
 20
26.5944071481
 10
257.9475963214
 20
26.4790409963
 10
258.253519968
 20
26.4280506482
 10
258.5844218395
 20
26.4441798216
 10
258.9335391221
 20
26.527098876
 10
259.2937367245
 20
26.6751131518
 10
259.657653101
 20
26.8851976042
 10
260.0178507034
 20
27.153058628
 10
260.366967986
 20
27.4732218082
 10
260.6978698574
 20
27.8391438034
 10
261.0037935041
 20
28.2433460756
 10
261.2784866054
 20
28.6775677328
 10
261.5163351155
 20
29.1329343612
 10
261.7124780008
 20
29.6001393963
  0
LINE
  5
1DC
330
1F
100
AcDbEntity
  8
0
  6
Continuous
 62
     7
370
     0
100
AcDbLine
 10
256.0663957087
 20
27.2057495481
 30
0.0
 11
256.307856533
 21
27.0663571813
 31
0.0
  0
LINE
  5
1DD
330
1F
100
AcDbEntity
  8
0
  6
Continuous
 62
     7
370
     0
100
AcDbLine
 10
246.5456066083
 20
28.4521625691
 30
0.0
 11
247.0094023604
 21
28.7199061577
 31
0.0
  0
LINE
  5
1DE
330
1F
100
AcDbEntity
  8
0
  6
Continuous
 62
     7
370
     0
100
AcDbLine
 10
247.1636082229
 20
28.6384538678
 30
0.0
 11
247.0094023604
 21
28.7199061577
 31
0.0
  0
ARC
  5
1DF
330
1F
100
AcDbEntity
  8
0
  6
Continuous
 62
     7
370
     0
100
AcDbCircle
 10
246.719343776
 20
29.190274379
 30
0.0
 40
0.5526122021712971
100
AcDbArc
 50
301.6605905894
 51
324.2377952692
  0
LINE
  5
1E0
330
1F
100
AcDbEntity
  8
0
  6
Continuous
 62
     7
370
     0
100
AcDbLine
 10
244.8911328821
 20
30.5959366679
 30
0.0
 11
247.121134109
 21
29.3085843617
 31
0.0
  0
LINE
  5
1E1
330
1F
100
AcDbEntity
  8
0
  6
Continuous
 62
     7
370
     0
100
AcDbLine
 10
244.8668688134
 20
30.5819247656
 30
0.0
 11
244.8911328821
 21
30.5959366679
 31
0.0
  0
LINE
  5
1E2
330
1F
100
AcDbEntity
  8
0
  6
Continuous
 62
     7
370
     0
100
AcDbLine
 10
244.7784804658
 20
32.4940936937
 30
0.0
 11
244.7788968767
 21
32.5683943865
 31
0.0
  0
LWPOLYLINE
  5
1E3
330
1F
100
AcDbEntity
  8
0
  6
Continuous
 62
     7
370
     0
100
AcDbPolyline
 90
        3
 70
   128
 43
0.0
 10
244.8342855207
 20
31.671360348
 10
244.8038216003
 20
31.9317054939
 10
244.7784804658
 20
32.4940936937
  0
LWPOLYLINE
  5
1E4
330
1F
100
AcDbEntity
  8
0
  6
Continuous
 62
     7
370
     0
100
AcDbPolyline
 90
       18
 70
   128
 43
0.0
 10
232.4051925923
 20
42.0203411302
 10
232.4308440869
 20
42.4776420946
 10
232.507340819
 20
42.9563990977
 10
232.6333177028
 20
43.4480687093
 10
232.8065266777
 20
43.9438770737
 10
233.0238768255
 20
44.4349764789
 10
233.2814895276
 20
44.9126032443
 10
233.5747676793
 20
45.3682341089
 10
233.898477725
 20
45.7937383293
 10
234.2468430512
 20
46.1815227724
 10
234.6136470706
 20
46.5246674158
 10
234.9923441565
 20
46.8170488351
 10
235.3761764506
 20
47.0534494771
 10
235.7582944566
 20
47.2296507665
 10
236.1318792694
 20
47.3425083874
 10
236.4902642594
 20
47.3900083926
 10
236.8270540378
 20
47.3713031436
 10
237.0923185032
 20
47.3033951294
  0
ARC
  5
1E5
330
1F
100
AcDbEntity
  8
0
  6
Continuous
 62
     7
370
     0
100
AcDbCircle
 10
234.6570767876
 20
41.8762503593
 30
0.0
 40
2.256489436951507
100
AcDbArc
 50
176.3388199929
 51
223.4467111484
  0
LINE
  5
1E6
330
1F
100
AcDbEntity
  8
0
  6
Continuous
 62
     7
370
     0
100
AcDbLine
 10
262.8910206658
 20
30.714381622
 30
0.0
 11
262.7849546487
 21
30.8055063334
 31
0.0
  0
LWPOLYLINE
  5
1E7
330
1F
100
AcDbEntity
  8
0
  6
Continuous
 62
     7
370
     0
100
AcDbPolyline
 90
        3
 70
   128
 43
0.0
 10
246.869101858
 20
27.7845207773
 10
246.7948760341
 20
27.9357108202
 10
246.5999783472
 20
28.4324279243
  0
LWPOLYLINE
  5
1E8
330
1F
100
AcDbEntity
  8
0
  6
Continuous
 62
     7
370
     0
100
AcDbPolyline
 90
        3
 70
   128
 43
0.0
 10
246.8335997482
 20
27.5795040906
 10
246.6307140016
 20
27.9673344533
 10
246.4428557969
 20
28.4542091591
  0
LINE
  5
1E9
330
1F
100
AcDbEntity
  8
0
  6
Continuous
 62
     7
370
     0
100
AcDbLine
 10
247.0094023604
 20
28.7199061577
 30
0.0
 11
244.7254474572
 21
30.0384052583
 31
0.0
  0
LINE
  5
1EA
330
1F
100
AcDbEntity
  8
0
  6
Continuous
 62
     7
370
     0
100
AcDbLine
 10
260.5080708132
 20
32.1199233935
 30
0.0
 11
262.7849546487
 21
30.8055063334
 31
0.0
  0
ARC
  5
1EB
330
1F
100
AcDbEntity
  8
0
  6
Continuous
 62
     7
370
     0
100
AcDbCircle
 10
247.8605857902
 20
30.3032717096
 30
0.0
 40
4.834403125804012
100
AcDbArc
 50
195.2932781317
 51
214.710388838
  0
OLE2FRAME
  5
1EC
330
1F
100
AcDbEntity
  8
0
100
AcDbOle2Frame
 70
     2
  3
Paintbrush-Bild
 10
13.8511154363
 20
38.264191557
 30
0.0
 11
51.6290888628
 21
31.9806341108
 31
0.0
 71
     2
 72
     0
 73
     1
 90
    12928
310
80552BED0767C5B32B40DDAF6807D121434000000000000000006FFBDDFB85D0
310
4940DDAF6807D121434000000000000000006FFBDDFB85D04940416F4BD60AFB
310
3F4000000000000000002BED0767C5B32B40416F4BD60AFB3F40000000000000
310
0000000000000100000000010000010000000100000000000100000000320000
310
D0CF11E0A1B11AE1000000000000000000000000000000003E000300FEFF0900
310
0600000000000000000000000100000001000000000000000010000002000000
310
01000000FEFFFFFF0000000000000000FFFFFFFFFFFFFFFFFFFFFFFFFFFFFFFF
310
FFFFFFFFFFFFFFFFFFFFFFFFFFFFFFFFFFFFFFFFFFFFFFFFFFFFFFFFFFFFFFFF
310
FFFFFFFFFFFFFFFFFFFFFFFFFFFFFFFFFFFFFFFFFFFFFFFFFFFFFFFFFFFFFFFF
310
FFFFFFFFFFFFFFFFFFFFFFFFFFFFFFFFFFFFFFFFFFFFFFFFFFFFFFFFFFFFFFFF
310
FFFFFFFFFFFFFFFFFFFFFFFFFFFFFFFFFFFFFFFFFFFFFFFFFFFFFFFFFFFFFFFF
310
FFFFFFFFFFFFFFFFFFFFFFFFFFFFFFFFFFFFFFFFFFFFFFFFFFFFFFFFFFFFFFFF
310
FFFFFFFFFFFFFFFFFFFFFFFFFFFFFFFFFFFFFFFFFFFFFFFFFFFFFFFFFFFFFFFF
310
FFFFFFFFFFFFFFFFFFFFFFFFFFFFFFFFFFFFFFFFFFFFFFFFFFFFFFFFFFFFFFFF
310
FFFFFFFFFFFFFFFFFFFFFFFFFFFFFFFFFFFFFFFFFFFFFFFFFFFFFFFFFFFFFFFF
310
FFFFFFFFFFFFFFFFFFFFFFFFFFFFFFFFFFFFFFFFFFFFFFFFFFFFFFFFFFFFFFFF
310
FFFFFFFFFFFFFFFFFFFFFFFFFFFFFFFFFFFFFFFFFFFFFFFFFFFFFFFFFFFFFFFF
310
FFFFFFFFFFFFFFFFFFFFFFFFFFFFFFFFFFFFFFFFFFFFFFFFFFFFFFFFFFFFFFFF
310
FFFFFFFFFFFFFFFFFFFFFFFFFFFFFFFFFFFFFFFFFFFFFFFFFFFFFFFFFFFFFFFF
310
FFFFFFFFFFFFFFFFFFFFFFFFFFFFFFFFFFFFFFFFFFFFFFFFFFFFFFFFFFFFFFFF
310
FDFFFFFFFEFFFFFFFEFFFFFFFEFFFFFF05000000060000000700000008000000
310
090000000A0000000B0000000C0000000D0000000E0000000F00000010000000
310
11000000120000001300000014000000150000001600000017000000FEFFFFFF
310
FFFFFFFFFFFFFFFFFFFFFFFFFFFFFFFFFFFFFFFFFFFFFFFFFFFFFFFFFFFFFFFF
310
FFFFFFFFFFFFFFFFFFFFFFFFFFFFFFFFFFFFFFFFFFFFFFFFFFFFFFFFFFFFFFFF
310
FFFFFFFFFFFFFFFFFFFFFFFFFFFFFFFFFFFFFFFFFFFFFFFFFFFFFFFFFFFFFFFF
310
FFFFFFFFFFFFFFFFFFFFFFFFFFFFFFFFFFFFFFFFFFFFFFFFFFFFFFFFFFFFFFFF
310
FFFFFFFFFFFFFFFFFFFFFFFFFFFFFFFFFFFFFFFFFFFFFFFFFFFFFFFFFFFFFFFF
310
FFFFFFFFFFFFFFFFFFFFFFFFFFFFFFFFFFFFFFFFFFFFFFFFFFFFFFFFFFFFFFFF
310
FFFFFFFFFFFFFFFFFFFFFFFFFFFFFFFFFFFFFFFFFFFFFFFFFFFFFFFFFFFFFFFF
310
FFFFFFFFFFFFFFFFFFFFFFFFFFFFFFFFFFFFFFFFFFFFFFFFFFFFFFFFFFFFFFFF
310
FFFFFFFFFFFFFFFFFFFFFFFFFFFFFFFFFFFFFFFFFFFFFFFFFFFFFFFFFFFFFFFF
310
FFFFFFFFFFFFFFFFFFFFFFFFFFFFFFFFFFFFFFFFFFFFFFFFFFFFFFFFFFFFFFFF
310
FFFFFFFFFFFFFFFFFFFFFFFFFFFFFFFFFFFFFFFFFFFFFFFFFFFFFFFFFFFFFFFF
310
FFFFFFFFFFFFFFFFFFFFFFFFFFFFFFFFFFFFFFFFFFFFFFFFFFFFFFFFFFFFFFFF
310
FFFFFFFFFFFFFFFFFFFFFFFFFFFFFFFFFFFFFFFFFFFFFFFFFFFFFFFFFFFFFFFF
310
52006F006F007400200045006E00740072007900000000000000000000000000
310
0000000000000000000000000000000000000000000000000000000000000000
310
16000500FFFFFFFFFFFFFFFF020000000A00030000000000C000000000000046
310
000000000000000000000000608959399920D20103000000C000000000000000
310
01004F006C006500000000000000000000000000000000000000000000000000
310
0000000000000000000000000000000000000000000000000000000000000000
310
0A000200FFFFFFFFFFFFFFFFFFFFFFFF00000000000000000000000000000000
310
0000000000000000000000000000000000000000000000001400000000000000
310
010043006F006D0070004F0062006A0000000000000000000000000000000000
310
0000000000000000000000000000000000000000000000000000000000000000
310
120002010100000003000000FFFFFFFF00000000000000000000000000000000
310
0000000000000000000000000000000000000000010000004D00000000000000
310
01004F006C006500310030004E00610074006900760065000000000000000000
310
0000000000000000000000000000000000000000000000000000000000000000
310
1A000200FFFFFFFFFFFFFFFFFFFFFFFF00000000000000000000000000000000
310
0000000000000000000000000000000000000000040000002426000000000000
310
FEFFFFFF02000000FEFFFFFFFFFFFFFFFFFFFFFFFFFFFFFFFFFFFFFFFFFFFFFF
310
FFFFFFFFFFFFFFFFFFFFFFFFFFFFFFFFFFFFFFFFFFFFFFFFFFFFFFFFFFFFFFFF
310
FFFFFFFFFFFFFFFFFFFFFFFFFFFFFFFFFFFFFFFFFFFFFFFFFFFFFFFFFFFFFFFF
310
FFFFFFFFFFFFFFFFFFFFFFFFFFFFFFFFFFFFFFFFFFFFFFFFFFFFFFFFFFFFFFFF
310
FFFFFFFFFFFFFFFFFFFFFFFFFFFFFFFFFFFFFFFFFFFFFFFFFFFFFFFFFFFFFFFF
310
FFFFFFFFFFFFFFFFFFFFFFFFFFFFFFFFFFFFFFFFFFFFFFFFFFFFFFFFFFFFFFFF
310
FFFFFFFFFFFFFFFFFFFFFFFFFFFFFFFFFFFFFFFFFFFFFFFFFFFFFFFFFFFFFFFF
310
FFFFFFFFFFFFFFFFFFFFFFFFFFFFFFFFFFFFFFFFFFFFFFFFFFFFFFFFFFFFFFFF
310
FFFFFFFFFFFFFFFFFFFFFFFFFFFFFFFFFFFFFFFFFFFFFFFFFFFFFFFFFFFFFFFF
310
FFFFFFFFFFFFFFFFFFFFFFFFFFFFFFFFFFFFFFFFFFFFFFFFFFFFFFFFFFFFFFFF
310
FFFFFFFFFFFFFFFFFFFFFFFFFFFFFFFFFFFFFFFFFFFFFFFFFFFFFFFFFFFFFFFF
310
FFFFFFFFFFFFFFFFFFFFFFFFFFFFFFFFFFFFFFFFFFFFFFFFFFFFFFFFFFFFFFFF
310
FFFFFFFFFFFFFFFFFFFFFFFFFFFFFFFFFFFFFFFFFFFFFFFFFFFFFFFFFFFFFFFF
310
FFFFFFFFFFFFFFFFFFFFFFFFFFFFFFFFFFFFFFFFFFFFFFFFFFFFFFFFFFFFFFFF
310
FFFFFFFFFFFFFFFFFFFFFFFFFFFFFFFFFFFFFFFFFFFFFFFFFFFFFFFFFFFFFFFF
310
FFFFFFFFFFFFFFFFFFFFFFFFFFFFFFFFFFFFFFFFFFFFFFFFFFFFFFFFFFFFFFFF
310
0100000200000000000000000000000000000000000000000000000000000000
310
0000000000000000000000000000000000000000000000000000000000000000
310
0100FEFF030A0000FFFFFFFF0A00030000000000C00000000000004607000000
310
5042727573680007000000504272757368000700000050427275736800F439B2
310
7100000000000000000000000000000000000000000000000000000000000000
310
0000000000000000000000000000000000000000000000000000000000000000
310
0000000000000000000000000000000000000000000000000000000000000000
310
0000000000000000000000000000000000000000000000000000000000000000
310
0000000000000000000000000000000000000000000000000000000000000000
310
0000000000000000000000000000000000000000000000000000000000000000
310
0000000000000000000000000000000000000000000000000000000000000000
310
0000000000000000000000000000000000000000000000000000000000000000
310
0000000000000000000000000000000000000000000000000000000000000000
310
0000000000000000000000000000000000000000000000000000000000000000
310
0000000000000000000000000000000000000000000000000000000000000000
310
0000000000000000000000000000000000000000000000000000000000000000
310
20260000424D0E260000000000003E00000028000000B40200006E0000000100
310
01000000000000000000130B0000130B00000200000002000000000000FFFFFF
310
FFFFFFFFFFFFFFFFFFFFFFFFFFFFFFFFFFFFFFFFFFFFFFFFFFFFFFFFFFFFFFFF
310
FFFFFFFFFFFFFFFFFFFFFFFFFFFFFFFFFFFFFFFFFFFFFFFFFFFFFFFFFFFFFFFF
310
FFFFFFFFFFFFFFFFFFFFFFFFFFFFFFFFFFFFFFFFFFFFFFFFF000FFFFFFFFFFFF
310
FFFFFFFFFFFFFFFFFFFFFFFFFFFFFFFFFFFFFFFFFFFFFFFFFFFFFFFFFFFFFFFF
310
FFFFFFFFFFFFFFFFFFFFFFFFFFFFFFFFFFFFFFFFFFFFFFFFFFFFFFFFFFFFFFFF
310
FFFFFFFFFFFFFFFFFFFFFFFFFFFFFFFFF000FFFFFFFFFFFFFFFFFFFFFFFFFFFF
310
FFFFFFFFFFFFFFFFFFFFFFFFFFFFFFFFFFFFFFFFFFFFFFFFFFFFFFFFFFFFFFFF
310
FFFFFFFFFFFFFFFFFFFFFFFFFFFFFFFFFFFFFFFFFFFFFFFFFFFFFFFFFFFFFFFF
310
FFFFFFFFFFFFFFFFF000FFFFFFFFFFFFFFFFFFFFFFFFFFFFFFFFFFFFFFFFFFFF
310
FFFFFFFFFFFFFFFFFFFFFFFFFFFFFFFFFFFFFFFFFFFFFFFFFFFFFFFFFFFFFFFF
310
FFFFFFFFFFFFFFFFFFFFFFFFFFFFFFFFFFFFFFFFFFFFFFFFFFFFFFFFFFFFFFFF
310
F000FFFFFFFFFFFFFFFFFFFFFFFFFFFFFFFFFFFFFFFFFFFFFFFFFFFFFFFFFFFF
310
FFFFFFFFFFFFFFFFFFFFFFFFFFFFFFFFFFFFFFFFFFFFFFFFFFFFFFFFFFFFFFFF
310
FFFFFFFFFFFFFFFFFFFFFFFFFFFFFFFFFFFFFFFFFFFFFFFFF000FFFFFFFFFFFF
310
FFFFFFFFFFFFFFFFFFFFFFFFFFFFFFFFFFFFFFFFFFFFFFFFFFFFFFFFFFFFFFFF
310
FFFFFFFFFFFFFFFFFFFFFFFFFFFFFFFFFFFFFFFFFFFFFFFFFFFFFFFFFFFFFFFF
310
FFFFFFFFFFFFFFFFFFFFFFFFFFFFFFFFF000FFFFFFFFFFFFFFFFFFFFFFFFFFFF
310
FFFFFFFFFFFFFFFFFFFFFFFFFFFFFFFFFFFFFFFFFFFFFFFFFFFFFFFFFFFFFFFF
310
FFFFFFFFFFFFFFFFFFFFFFFFFFFFFFFFFFFFFFFFFFFFFFFFFFFFFFFFFFFFFFFF
310
FFFFFFFFFFFFFFFFF000FFFFFFFFFFFFFFFFFFFFFFFFFFFFFFFFFFFFFFFFFFFF
310
FFFFFFFFFFFFFFFFFFFFFFFFFFFFFFFFFFFFFFFFFFFFFFFFFFFFFFFFFFFFFFFF
310
FFFFFFFFFFFFFFFFFFFFFFFFFFFFFFFFFFFFFFFFFFFFFFFFFFFFFFFFFFFFFFFF
310
F000FFFFFFFFFFFFFFFFFFFFFFFFFFFFFFFFFFFFFFFFFFFFFFFFFFFFFFFFFFFF
310
FFFFFFFFFFFFFFFFFFFFFFFFFFFFFFFFFFFFFFFFFFFFFFFFFFFFFFFFFFFFFFFF
310
FFFFFFFFFFFFFFFFFFFFFFFFFFFFFFFFFFFFFFFFFFFFFFFFF000FFFFFFFFFFFF
310
FFFFFFFFFFFFFFFFFFFFFFFFFFFFFFFFFFFFFFFFFFFFFFFFFFFFFFFFFFFFFFFF
310
FFFFFFFFFFFFFFFFFFFFFFFFFFFFFFFFFFFFFFFFFFFFFFFFFFFFFFFFFFFFFFFF
310
FFFFFFFFFFFFFFFFFFFFFFFFFFFFFFFFF000FFFFFFFFFFFFFFFFFFFFFFFFFFFF
310
FFFFFFFFFFFFFFFFFFFFFFFFFFFFFFFFFFFFFFFFFFFFFFFFFFFFFFFFFFFFFFFF
310
FFFFFFFFFFFFFFFFFFFFFFFFFFFFFFFFFFFFFFFFFFFFFFFFFFFFFFFFFFFFFFFF
310
FFFFFFFFFFFFFFFFF000FFFFFFFFFFFFFFFFFFFFFFFFFFFFFFFFFFFFFFFFFFFF
310
FFFFFFFFFFFFFFFFFFFFFFFFFFFFFFFFFFFFFFFFFFFFFFFFFFFFFFFFFFFFFFFF
310
FFFFFFFFFFFFFFFFFFFFFFFFFFFFFFFFFFFFFFFFFFFFFFFFFFFFFFFFFFFFFFFF
310
F000FFFFFFFFFFFFFFFFFFFFFFFFFFFFFFFFFFFFFFFFFFFFFFFFFFFFFFFFFFFF
310
FFFFFFFFFFFFFFFFFFFFFFFFFFFFFFFFFFFFFFFFFFFFFFFFFFFFFFFFFFFFFFFF
310
FFFFFFFFFFFFFFFFFFFFFFFFFFFFFFFFFFFFFFFFFFFFFFFFF000FFFFFFFFFFFF
310
FFFFFFFFFFFFFFFFFFFFFFFFFFFFFFFFFFFFFFFFFFFFFFFFFFFFFFFFFFFFFFFF
310
FFFFFFFFFFFFFFFFFFFFFFFFFFFFFFFFFFFFFFFFFFFFFFFFFFFFFFFFFFFFFFFF
310
FFFFFFFFFFFFFFFFFFFFFFFFFFFFFFFFF000FFFFFFFFFFFFFFFFFFFFFFFFFFFF
310
FFFFFFFFFFFFFFFFFFFFFFFFFFFFFFFFFFFFFFFFFFFFFFFFFFFFFFFFFFFFFFFF
310
FFFFFFFFFFFFFFFFFFFFFFFFFFFFFFFFFFFFFFFFFFFFFFFFFFFFFFFFFFFFFFFF
310
FFFFFFFFFFFFFFFFF000FFFFFFFFFFFFFFFFFFFFFFFFFFFFFFFFFFFFFFFFFFFF
310
FFFFFFFFFFFFFFFFFFFFFFFFFFFFFFFFFFFFFFFFFFFFFFFFFFFFFFFFFFFFFFFF
310
FFFFFFFFFFFFFFFFFFFFFFFFFFFFFFFFFFFFFFFFFFFFFFFFFFFFFFFFFFFFFFFF
310
F000FFFFFFFFFFFFFFFFFFFFFFFFFFFFFFFFFFFFFFFFFFFFFFFFFFFFFFFFFFFF
310
FFFFFFFFFFFFFFFFFFFFFFFFFFFFFFFFFFFFFFFFFFFFFFFFFFFFFFFFFFFFFFFF
310
FFFFFFFFFFFFFFFFFFFFFFFFFFFFFFFFFFFFFFFFFFFFFFFFF000FFFFFFFFFFFF
310
FFFFFFFFFFFFFFFFFFFFFFFFFFFFFFFFFFFFFFFFFFFFFFFFFFFFFFFFFFFFFFFF
310
FFFFFFFFFFFFFFFFFFFFFFFFFFFFFFFFFFFFFFFFFFFFFFFFFFFFFFFFFFFFFFFF
310
FFFFFFFFFFFFFFFFFFFFFFFFFFFFFFFFF000FFFFFFFFFFFFFFFFFFFFFFFFFFFF
310
FFFFFFFFFFFFFFFFFFFFFFFFFFFFFFFFFFFFFFFFFFFFFFFFFFFFFFFFFFFFFFFF
310
FFFFFFFFFFFFFFFFFFFFFFFFFFFFFFFFFFFFFFFFFFFFFFFFFFFFFFFFFFFFFFFF
310
FFFFFFFFFFFFFFFFF000FFFFF80003FFFFFFFFFFFFFFFFFFFFFFFFFFFFFFFFFF
310
FFFFF00007FFFFFFFFFF00007FFFFFF800000000000000007FFFFFFFFFFFFFFF
310
FFFFFFFC001FFFFFFFFFFFFFFC001FFFFFFFFFFFFFFFFFFFFFFFFFFE0007FFFF
310
F000FFFF8000007FFFFFFFF8000FFFFFC0007FFFFF80007FFFFF0000007FFFFF
310
FFF8000007FFFFF800000000000000007FFFFFF0001FFFFFFFFFFFC00001FFFF
310
FFFFFFFFC00001FFFFFFFF000000000003FFFFE000007FFFF000FFFE0000000F
310
FFFFFFF0000FFFFF80007FFFFF80007FFFFC0000001FFFFFFFC0000001FFFFF8
310
00000000000000007FFFFFF0001FFFFFFFFFFE0000003FFFFFFFFFFE0000003F
310
FFFFFF000000000003FFFF0000000FFFF000FFF800000003FFFFFFF00007FFFF
310
80007FFFFF80007FFFF000000007FFFFFF000000003FFFF80000000000000000
310
7FFFFFF0001FFFFFFFFFF80000000FFFFFFFFFF80000000FFFFFFF0000000000
310
03FFFC00000003FFF000FFE000000000FFFFFFF00007FFFF80003FFFFF80007F
310
FFC000000001FFFFFC000000001FFFF800000000000000007FFFFFF0001FFFFF
310
FFFFE000000003FFFFFFFFE000000003FFFFFF000000000003FFF000000000FF
310
F000FF80000000007FFFFFF00007FFFF80003FFFFF80007FFF8000000000FFFF
310
F80000000007FFF800000000000000007FFFFFF0001FFFFFFFFFC000000001FF
310
FFFFFFC000000001FFFFFF000000000003FFC0000000007FF000FF0000000000
310
3FFFFFE00007FFFF00003FFFFF80007FFE00000000003FFFF00000000003FFF8
310
00000000000000007FFFFFF0001FFFFFFFFF8000000000FFFFFFFF8000000000
310
FFFFFF000000000003FF80000000003FF000FE00000000001FFFFFE00003FFFF
310
00003FFFFF80007FFC00000000001FFFE00000000001FFF8000001FFFE000000
310
7FFFFFF0001FFFFFFFFE00000000003FFFFFFE00000000003FFFFF0000000000
310
03FF00000000001FF000FC00000000000FFFFFE00003FFFF00001FFFFF80007F
310
F800000000001FFFC00000000000FFF8000001FFFE0000007FFFFFF0001FFFFF
310
FFFC00000000001FFFFFFC00000000001FFFFF000000000003FE00000000000F
310
F000F8000000000007FFFFE00003FFFF00001FFFFF80007FF800000000000FFF
310
800000000000FFF8000001FFFE0000007FFFFFF0001FFFFFFFF800000000000F
310
FFFFF800000000000FFFFF000000000003FC000000000007F000F80000000000
310
03FFFFC00003FFFE00001FFFFF80007FF0000000000007FF0000000000007FF8
310
000001FFFE0000007FFFFFF0001FFFFFFFF0000000000007FFFFF00000000000
310
07FFFF000000000003F8000000000003F000F0000000000003FFFFC00001FFFE
310
00001FFFFF80007FE0000000000007FE0000000000003FF8000001FFFE000000
310
7FFFFFF0001FFFFFFFF0000000000007FFFFF0000000000007FFFF0000000000
310
03F800001F800003F000E00001FFF00001FFFFC00001FFFE00000FFFFF80007F
310
E00001FFE00003FE00001FFF00003FF8000001FFFE0000007FFFFFF0001FFFFF
310
FFE000003E000003FFFFE000003E000003FFFF000000000003F00001FFF80001
310
F000E00007FFFC0001FFFFC00001FFFE00000FFFFF80007FC0000FFFFC0003FC
310
0000FFFFC0001FF8000001FFFE0000007FFFFFF0001FFFFFFFC00003FFE00001
310
FFFFC00003FFE00001FFFF0001FFFFFFFFF00007FFFE0001F000E0000FFFFF00
310
00FFFF800001FFFC00000FFFFF80007FC0001FFFFE0001FC0001FFFFE0001FF8
310
000001FFFE0000007FFFFFF0001FFFFFFF80000FFFF80000FFFF80000FFFF800
310
00FFFF0003FFFFFFFFE0000FFFFF8000F000C0003FFFFF8000FFFF800000FFFC
310
000007FFFF80007F80003FFFFF0001FC0003FFFFF0001FF8000001FFFE000000
310
7FFFFFF0001FFFFFFF80003FFFFE0000FFFF80003FFFFE0000FFFF0003FFFFFF
310
FFE0003FFFFF8000F000C0003FFFFF8000FFFF800000FFFC000007FFFF80007F
310
80007FFFFF8001F80007FFFFF8000FF8000001FFFE0000007FFFFFF0001FFFFF
310
FF00007FFFFF00007FFF00007FFFFF00007FFF0003FFFFFFFFE0003FFFFFC000
310
F000C0007FFFFFC000FFFF000000FFFC000007FFFF80007F8000FFFFFF8000F8
310
000FFFFFF8000FF8000001FFFE0000007FFFFFF0001FFFFFFF0000FFFFFF8000
310
7FFF0000FFFFFF80007FFF0003FFFFFFFFC0007FFFFFC00070008000FFFFFFC0
310
00FFFF000000FFF8000007FFFF80007F8000FFFFFF8000F8000FFFFFF8000FF8
310
000001FFFE0000007FFFFFF0001FFFFFFE0001FFFFFFC0003FFE0001FFFFFFC0
310
003FFF0003FFFFFFFFC0007FFFFFE00070008000FFFFFFC0007FFF0000007FF8
310
000003FFFF80007F0001FFFFFF8000F8000FFFFFF8000FF8000001FFFE000000
310
7FFFFFF0001FFFFFFE0001FFFFFFC0003FFE0001FFFFFFC0003FFF0003FFFFFF
310
FFC000FFFFFFE00070008000FFFFFFC0007FFF0000007FF8000003FFFF80007F
310
0001FFFFFF8000F8001FFFFFF8000FF8000001FFFE0000007FFFFFF0001FFFFF
310
FE0003FFFFFFE0003FFE0003FFFFFFE0003FFF0003FFFFFFFFC000FFFFFFE000
310
70008000FFFFFFC0007FFE0000007FF8000003FFFF80007F0001FFFFFF8000F0
310
001FFFFFF8000FF8000001FFFE0000007FFFFFF0001FFFFFFC0003FFFFFFE000
310
1FFC0003FFFFFFE0001FFF0003FFFFFFFFC000FFFFFFC00070008000FFFFFF80
310
007FFE0000007FF0000003FFFF80007F0001FFFFFF0000F0001FFFFFF8000FF8
310
000001FFFE0000007FFFFFF0001FFFFFFC0007FFFFFFF0001FFC0007FFFFFFF0
310
001FFF0003FFFFFFFFC000FFFFFFC00070008001FFFFFF0000FFFE0000003FF0
310
000001FFFF80007F0001FFFFFF0000F8001FFFFFF0000FF8000001FFFE000000
310
7FFFFFF0001FFFFFFC0007FFFFFFF0001FFC0007FFFFFFF0001FFF0003FFFFFF
310
FFC001FFFFFF80007000FFFFFFFFFE0000FFFE0008003FF0008001FFFF80007F
310
FFFFFFFFFC0000FFFFFFFFFFE0000FF8000001FFFE0000007FFFFFF0001FFFFF
310
F8000FFFFFFFF8000FF8000FFFFFFFF8000FFF0003FFFFFFFFFFFFFFFFFF0000
310
7000FFFFFFFFFC0000FFFC0008003FF0008001FFFF80007FFFFFFFFFF80001FF
310
FFFFFFFF80000FF8000001FFFE0000007FFFFFF0001FFFFFF8000FFFFFFFF800
310
0FF8000FFFFFFFF8000FFF0003FFFFFFFFFFFFFFFFFE0000F000FFFFFFFFE000
310
00FFFC000C003FE000C001FFFF80007FFFFFFFFFC00001FFFFFFFFFE00001FF8
310
000001FFFE0000007FFFFFF0001FFFFFF8000FFFFFFFF8000FF8000FFFFFFFF8
310
000FFF0003FFFFFFFFFFFFFFFFF00000F000FFFFFFFE000001FFFC000C001FE0
310
00C000FFFF80007FFFFFFFFE000001FFFFFFFFE000001FF80FFFFFFFFFFFFFC0
310
7FFFFFF0001FFFFFF8000FFFFFFFF8000FF8000FFFFFFFF8000FFF0003FFFFFF
310
FFFFFFFFFF800000F000FFFFFFC0000001FFFC001C001FE001C000FFFF80007F
310
FFFFFF80000003FFFFFFF80000001FF80FFFFFFFFFFFFFC07FFFFFF0001FFFFF
310
F8001FFFFFFFFC000FF8001FFFFFFFFC000FFF0003FFFFFFFFFFFFFFF0000001
310
F000FFFFF800000001FFF8001C001FE001C000FFFF80007FFFFFF800000003FF
310
FFFF800000003FF80FFFFFFFFFFFFFC07FFFFFF0001FFFFFF8001FFFFFFFFC00
310
0FF8001FFFFFFFFC000FFF0003FFFFFFFFFFFFFE00000001F000FFFFC0000000
310
03FFF8001E001FC001E000FFFF80007FFFFF8000000007FFFFFC000000003FF8
310
0FFFFFFFFFFFFFC07FFFFFF0001FFFFFF8001FFFFFFFFC000FF8001FFFFFFFFC
310
000FFF0003FFFFFFFFFFFFE000000003F000FFFE0000000007FFF8001E000FC0
310
01E0007FFF80007FFFFE0000000007FFFFE0000000007FF80FFFFFFFFFFFFFC0
310
7FFFFFF0001FFFFFF0001FFFFFFFFC0007F0001FFFFFFFFC0007FF0003FFFFFF
310
FFFFFF0000000003F000FFF80000000007FFF8001E000FC003E0007FFF80007F
310
FFF0000000000FFFFF8000000000FFF80FFFFFFFFFFFFFC07FFFFFF0001FFFFF
310
F0001FFFFFFFFC0007F0001FFFFFFFFC0007FF0003FFFFFFFFFFFC0000000007
310
F000FFE0000000000FFFF0003E000FC003E0007FFF80007FFFC0000000001FFF
310
FE0000000001FFF80FFFFFFFFFFFFFC07FFFFFF0001FFFFFF0001FFFFFFFFC00
310
07F0001FFFFFFFFC0007FF0003FFFFFFFFFFF0000000000FF000FFC000000000
310
1FFFF0003F000F8003F0003FFF80007FFF80000000003FFFF80000000003FFF8
310
0FFFFFFFFFFFFFC07FFFFFF0001FFFFFF0001FFFFFFFFC0007F0001FFFFFFFFC
310
0007FF0003FFFFFFFFFFE0000000001FF000FF00000000007FFFF0003F000780
310
03F0003FFF80007FFF00000000007FFFF00000000007FFF80FFFFFFFFFFFFFC0
310
7FFFFFF0001FFFFFF0001FFFFFFFFC0007F0001FFFFFFFFC0007FF0003FFFFFF
310
FFFF80000000007FF000FE0000000000FFFFE0003F00078007F0003FFF80007F
310
FE0000000001FFFFE0000000001FFFF80FFFFFFFFFFFFFC07FFFFFF0001FFFFF
310
F0001FFFFFFFFC0007F0001FFFFFFFFC0007FF0003FFFFFFFFFF0000000000FF
310
F000FC0000000003FFFFE0007F00078007F0003FFF80007FFC0000000007FFFF
310
C0000000007FFFF80FFFFFFFFFFFFFC07FFFFFF0001FFFFFF8001FFFFFFFFC00
310
0FF8001FFFFFFFFC000FFF0003FFFFFFFFFE0000000003FFF000FC000000000F
310
FFFFE0007F80070007F8001FFF80007FF8000000001FFFFF8000000001FFFFF8
310
0FFFFFFFFFFFFFC07FFFFFF0001FFFFFF8001FFFFFFFFC000FF8001FFFFFFFFC
310
000FFF0003FFFFFFFFFC000000000FFFF000F8000000007FFFFFE0007F800700
310
07F8001FFF80007FF000000000FFFFFF800000000FFFFFF80FFFFFFFFFFFFFC0
310
7FFFFFF0001FFFFFF8000FFFFFFFF8000FF8000FFFFFFFF8000FFF0003FFFFFF
310
FFFC000000007FFFF000F800000007FFFFFFC0007F8003000FF8001FFF80007F
310
F000000007FFFFFF000000007FFFFFF80FFFFFFFFFFFFFC07FFFFFF0001FFFFF
310
F8000FFFFFFFF8000FF8000FFFFFFFF8000FFF0003FFFFFFFFF80000000FFFFF
310
F000F0000000FFFFFFFFC000FF8003000FF8001FFF80007FE0000000FFFFFFFF
310
0000000FFFFFFFF8000001FFFE0000007FFFFFF0001FFFFFF8000FFFFFFFF800
310
0FF8000FFFFFFFF8000FFF0003FFFFFFFFF8000000FFFFFFF000F000000FFFFF
310
FFFFC000FFC002000FF8000FFF80007FE000001FFFFFFFFE000001FFFFFFFFF8
310
000001FFFE0000007FFFFFF0001FFFFFF8000FFFFFFFF8000FF8000FFFFFFFF8
310
000FFF0003FFFFFFFFF000001FFFFFFFF000E00000FFFFFFFFFFC000FFC00200
310
0FFC000FFF80007FE00001FFFFFFFFFE00001FFFFFFFFFF8000001FFFE000000
310
7FFFFFF0001FFFFFFC000FFFFFFFF8001FFC000FFFFFFFF8001FFF0003FFFFFF
310
FFF00001FFFFFFFFF000E00007FFFFFFFFFF8000FFC000001FFC000FFF80007F
310
C0000FFFFFFFFFFE0000FFFFFFFFFFF8000001FFFE0000007FFFFFF0001FFFFF
310
FC0007FFFFFFF0001FFC0007FFFFFFF0001FFF0003FFFFFFFFF00007FFFFFFFF
310
F000E0001FFFFFFFFFFF8000FFC000001FFC000FFF80007FC0003FFFFFFFFFFE
310
0001FFFFFFFFFFF8000001FFFE0000007FFFFFF0001FFFFFFC0007FFFFFFF000
310
1FFC0007FFFFFFF0001FFF0003FFFFFFFFF0001FFFFFFFFFF000E0003FFFFF00
310
03FF8001FFE000001FFC0007FF80007FC0007FFFFF0007FC0003FFFFF0003FF8
310
000001FFFE0000007FFFFFF0001FFFFFFC0003FFFFFFE0001FFC0003FFFFFFE0
310
001FFF0003FFFFFFFFF0003FFFFFFFFFF000E0003FFFFF0001FF8001FFE00000
310
1FFE0007FF80007FC0007FFFFE0003FC0007FFFFE0003FF8000001FFFE000000
310
7FFFFFF0001FFFFFFE0003FFFFFFE0003FFE0003FFFFFFE0003FFF0003FFFFFF
310
FFF0003FFFFF8001F000E0003FFFFF0001FF0001FFE000001FFE0007FF80007F
310
C0007FFFFE0003FC0007FFFFE0003FF8000001FFFE0000007FFFFFF0001FFFFF
310
FE0001FFFFFFC0003FFE0001FFFFFFC0003FFF0003FFFFFFFFF0003FFFFF0001
310
F000E0003FFFFF0003FF0001FFE000003FFE0007FF80007FC0007FFFFE0003FC
310
0007FFFFE0003FF8000001FFFE0000007FFFFFF0001FFFFFFF0001FFFFFFC000
310
7FFF0001FFFFFFC0007FFF0003FFFFFFFFF0003FFFFF0001F000E0003FFFFE00
310
03FF0003FFF000003FFE0003FF80007FC0007FFFFC0003FE0007FFFFE0003FF8
310
000001FFFE0000007FFFFFF0001FFFFFFF0000FFFFFF80007FFF0000FFFFFF80
310
007FFF0003FFFFFFFFF0003FFFFF0001F000E0003FFFFE0003FF0003FFF00000
310
3FFF0003FF80007FC0007FFFFC0007FE0007FFFFC0003FF8000001FFFE000000
310
7FFFFFF0001FFFFFFF80007FFFFF0000FFFF80007FFFFF0000FFFF0003FFFFFF
310
FFF0003FFFFF0003F000E0003FFFFC0003FE0003FFF000003FFF0003FF80007F
310
E0003FFFF80007FE0003FFFFC0007FF8000001FFFE0000007FFFFFF0001FFFFF
310
FF80003FFFFE0000FFFF80003FFFFE0000FFFF0003FFFFFFFFF0001FFFFE0003
310
F000F0001FFFF80003FE0003FFF000007FFF0001FF80007FE0003FFFF00007FE
310
0001FFFF80007FF8000001FFFE0000007FFFFFF0001FFFFFFFC0000FFFF80001
310
FFFFC0000FFFF80001FFFF0003FFFFFFFFF0001FFFFC0003F000F0000FFFF000
310
07FE0007FFF800007FFF0001FF80007FE0001FFFE00007FF0000FFFE00007FF8
310
000001FFFE0000007FFFFFF0001FFFFFFFC00003FFE00001FFFFC00003FFE000
310
01FFFF0003FFFFFFFFF8000FFFF80003F000F00003FFC00007FC0007FFF80000
310
7FFF8001FF80007FF00007FF80000FFF00007FF80000FFF8000001FFFE000000
310
7F80000000000001FFE000003E000003FFFFE000003E000003FFFF0003FFFFFF
310
FFF80003FFE00007F000F800000000000FFC0007FFF800007FFF8001FF80007F
310
F000000000000FFF000000000000FFF8000001FFFE0000007F80000000000001
310
FFF0000000000007FFFFF0000000000007FFFF0003FFFFFFFFFC00007E000007
310
F000F800000000000FFC0007FFF80000FFFF8000FF80007FF800000000001FFF
310
800000000001FFF8000001FFFE0000007F80000000000001FFF800000000000F
310
FFFFF800000000000FFFFF0003FFFFFFFFFC00000000000FF000FC0000000000
310
1FFC0007FFFC0000FFFF8000FF80007FF800000000003FFFC00000000001FFF8
310
000001FFFE0000007F80000000000001FFF800000000000FFFFFF80000000000
310
0FFFFF0003FFFFFFFFFE00000000001FF000FE00000000003FF8000FFFFC0000
310
FFFF8000FF80007FFC00000000003FFFC00000000003FFF8000001FFFE000000
310
7F80000000000001FFFC00000000001FFFFFFC00000000001FFFFF0003FFFFFF
310
FFFF00000000001FF000FF00000000003FF8000FFFFC0000FFFFC000FF80007F
310
FE00000000007FFFE00000000007FFF8000001FFFE0000007F80000000000001
310
FFFE00000000003FFFFFFE00000000003FFFFF0003FFFFFFFFFF80000000003F
310
F000FF80000000007FF8000FFFFC0001FFFFC0007F80007FFF0000000000FFFF
310
F0000000000FFFF800000000000000007F80000000000001FFFF8000000000FF
310
FFFFFF8000000000FFFFFF0003FFFFFFFFFFC0000000007FF000FFC000000000
310
FFF8000FFFFE0001FFFFC0007F80007FFF8000000001FFFFF8000000001FFFF8
310
00000000000000007F80000000000001FFFFC000000001FFFFFFFFC000000001
310
FFFFFF0003FFFFFFFFFFE000000000FFF000FFE000000003FFF0001FFFFE0001
310
FFFFC0007F80007FFFC000000007FFFFFE000000003FFFF80000000000000000
310
7F80000000000001FFFFE000000003FFFFFFFFE000000003FFFFFF0003FFFFFF
310
FFFFF000000003FFF000FFF80000000FFFF0001FFFFE0001FFFFE0007F80007F
310
FFF00000000FFFFFFF00000000FFFFF800000000000000007F80000000000001
310
FFFFF80000000FFFFFFFFFF80000000FFFFFFF0003FFFFFFFFFFFC0000000FFF
310
F000FFFE0000003FFFF0001FFFFE0003FFFFE0003F80007FFFFC0000003FFFFF
310
FFC0000003FFFFF800000000000000007F80000000000001FFFFFE0000003FFF
310
FFFFFFFE0000003FFFFFFF0003FFFFFFFFFFFF0000003FFFF000FFFF800000FF
310
FFF0001FFFFF0003FFFFE0003F80007FFFFF000001FFFFFFFFF800001FFFFFF8
310
00000000000000007F80000000000001FFFFFFC00001FFFFFFFFFFFFC00001FF
310
FFFFFF0003FFFFFFFFFFFFC00000FFFFF000FFFFF8000FFFFFFFFFFFFFFFFFFF
310
FFFFFFFFFFFFFFFFFFFFF0001FFFFFFFFFFF0000FFFFFFF80000000000000000
310
7FFFFFFFFFFFFFFFFFFFFFFC001FFFFFFFFFFFFFFC001FFFFFFFFFFFFFFFFFFF
310
FFFFFFFC001FFFFFF000FFFFFFFFFFFFFFFFFFFFFFFFFFFFFFFFFFFFFFFFFFFF
310
FFFFFFFFFFFFFFFFFFFFFFFFFFFFFFFFFFFFFFFFFFFFFFFFFFFFFFFFFFFFFFFF
310
FFFFFFFFFFFFFFFFFFFFFFFFFFFFFFFFFFFFFFFFFFFFFFFFFFFFFFFFFFFFFFFF
310
F000FFFFFFFFFFFFFFFFFFFFFFFFFFFFFFFFFFFFFFFFFFFFFFFFFFFFFFFFFFFF
310
FFFFFFFFFFFFFFFFFFFFFFFFFFFFFFFFFFFFFFFFFFFFFFFFFFFFFFFFFFFFFFFF
310
FFFFFFFFFFFFFFFFFFFFFFFFFFFFFFFFFFFFFFFFFFFFFFFFF000FFFFFFFFFFFF
310
FFFFFFFFFFFFFFFFFFFFFFFFFFFFFFFFFFFFFFFFFFFFFFFFFFFFFFFFFFFFFFFF
310
FFFFFFFFFFFFFFFFFFFFFFFFFFFFFFFFFFFFFFFFFFFFFFFFFFFFFFFFFFFFFFFF
310
FFFFFFFFFFFFFFFFFFFFFFFFFFFFFFFFF000FFFFFFFFFFFFFFFFFFFFFFFFFFFF
310
FFFFFFFFFFFFFFFFFFFFFFFFFFFFFFFFFFFFFFFFFFFFFFFFFFFFFFFFFFFFFFFF
310
FFFFFFFFFFFFFFFFFFFFFFFFFFFFFFFFFFFFFFFFFFFFFFFFFFFFFFFFFFFFFFFF
310
FFFFFFFFFFFFFFFFF000FFFFFFFFFFFFFFFFFFFFFFFFFFFFFFFFFFFFFFFFFFFF
310
FFFFFFFFFFFFFFFFFFFFFFFFFFFFFFFFFFFFFFFFFFFFFFFFFFFFFFFFFFFFFFFF
310
FFFFFFFFFFFFFFFFFFFFFFFFFFFFFFFFFFFFFFFFFFFFFFFFFFFFFFFFFFFFFFFF
310
F000FFFFFFFFFFFFFFFFFFFFFFFFFFFFFFFFFFFFFFFFFFFFFFFFFFFFFFFFFFFF
310
FFFFFFFFFFFFFFFFFFFFFFFFFFFFFFFFFFFFFFFFFFFFFFFFFFFFFFFFFFFFFFFF
310
FFFFFFFFFFFFFFFFFFFFFFFFFFFFFFFFFFFFFFFFFFFFFFFFF000FFFFFFFFFFFF
310
FFFFFFFFFFFFFFFFFFFFFFFFFFFFFFFFFFFFFFFFFFFFFFFFFFFFFFFFFFFFFFFF
310
FFFFFFFFFFFFFFFFFFFFFFFFFFFFFFFFFFFFFFFFFFFFFFFFFFFFFFFFFFFFFFFF
310
FFFFFFFFFFFFFFFFFFFFFFFFFFFFFFFFF000FFFFFFFFFFFFFFFFFFFFFFFFFFFF
310
FFFFFFFFFFFFFFFFFFFFFFFFFFFFFFFFFFFFFFFFFFFFFFFFFFFFFFFFFFFFFFFF
310
FFFFFFFFFFFFFFFFFFFFFFFFFFFFFFFFFFFFFFFFFFFFFFFFFFFFFFFFFFFFFFFF
310
FFFFFFFFFFFFFFFFF000FFFFFFFFFFFFFFFFFFFFFFFFFFFFFFFFFFFFFFFFFFFF
310
FFFFFFFFFFFFFFFFFFFFFFFFFFFFFFFFFFFFFFFFFFFFFFFFFFFFFFFFFFFFFFFF
310
FFFFFFFFFFFFFFFFFFFFFFFFFFFFFFFFFFFFFFFFFFFFFFFFFFFFFFFFFFFFFFFF
310
F000FFFFFFFFFFFFFFFFFFFFFFFFFFFFFFFFFFFFFFFFFFFFFFFFFFFFFFFFFFFF
310
FFFFFFFFFFFFFFFFFFFFFFFFFFFFFFFFFFFFFFFFFFFFFFFFFFFFFFFFFFFFFFFF
310
FFFFFFFFFFFFFFFFFFFFFFFFFFFFFFFFFFFFFFFFFFFFFFFFF000FFFFFFFFFFFF
310
FFFFFFFFFFFFFFFFFFFFFFFFFFFFFFFFFFFFFFFFFFFFFFFFFFFFFFFFFFFFFFFF
310
FFFFFFFFFFFFFFFFFFFFFFFFFFFFFFFFFFFFFFFFFFFFFFFFFFFFFFFFFFFFFFFF
310
FFFFFFFFFFFFFFFFFFFFFFFFFFFFFFFFF000FFFFFFFFFFFFFFFFFFFFFFFFFFFF
310
FFFFFFFFFFFFFFFFFFFFFFFFFFFFFFFFFFFFFFFFFFFFFFFFFFFFFFFFFFFFFFFF
310
FFFFFFFFFFFFFFFFFFFFFFFFFFFFFFFFFFFFFFFFFFFFFFFFFFFFFFFFFFFFFFFF
310
FFFFFFFFFFFFFFFFF000FFFFFFFFFFFFFFFFFFFFFFFFFFFFFFFFFFFFFFFFFFFF
310
FFFFFFFFFFFFFFFFFFFFFFFFFFFFFFFFFFFFFFFFFFFFFFFFFFFFFFFFFFFFFFFF
310
FFFFFFFFFFFFFFFFFFFFFFFFFFFFFFFFFFFFFFFFFFFFFFFFFFFFFFFFFFFFFFFF
310
F000FFFFFFFFFFFFFFFFFFFFFFFFFFFFFFFFFFFFFFFFFFFFFFFFFFFFFFFFFFFF
310
FFFFFFFFFFFFFFFFFFFFFFFFFFFFFFFFFFFFFFFFFFFFFFFFFFFFFFFFFFFFFFFF
310
FFFFFFFFFFFFFFFFFFFFFFFFFFFFFFFFFFFFFFFFFFFFFFFFF000FFFFFFFFFFFF
310
FFFFFFFFFFFFFFFFFFFFFFFFFFFFFFFFFFFFFFFFFFFFFFFFFFFFFFFFFFFFFFFF
310
FFFFFFFFFFFFFFFFFFFFFFFFFFFFFFFFFFFFFFFFFFFFFFFFFFFFFFFFFFFFFFFF
310
FFFFFFFFFFFFFFFFFFFFFFFFFFFFFFFFF000FFFFFFFFFFFFFFFFFFFFFFFFFFFF
310
FFFFFFFFFFFFFFFFFFFFFFFFFFFFFFFFFFFFFFFFFFFFFFFFFFFFFFFFFFFFFFFF
310
FFFFFFFFFFFFFFFFFFFFFFFFFFFFFFFFFFFFFFFFFFFFFFFFFFFFFFFFFFFFFFFF
310
FFFFFFFFFFFFFFFFF000FFFFFFFFFFFFFFFFFFFFFFFFFFFFFFFFFFFFFFFFFFFF
310
FFFFFFFFFFFFFFFFFFFFFFFFFFFFFFFFFFFFFFFFFFFFFFFFFFFFFFFFFFFFFFFF
310
FFFFFFFFFFFFFFFFFFFFFFFFFFFFFFFFFFFFFFFFFFFFFFFFFFFFFFFFFFFFFFFF
310
F000FFFFFFFFFFFFFFFFFFFFFFFFFFFFFFFFFFFFFFFFFFFFFFFFFFFFFFFFFFFF
310
FFFFFFFFFFFFFFFFFFFFFFFFFFFFFFFFFFFFFFFFFFFFFFFFFFFFFFFFFFFFFFFF
310
FFFFFFFFFFFFFFFFFFFFFFFFFFFFFFFFFFFFFFFFFFFFFFFFF000FFFFFFFFFFFF
310
FFFFFFFFFFFFFFFFFFFFFFFFFFFFFFFFFFFFFFFFFFFFFFFFFFFFFFFFFFFFFFFF
310
FFFFFFFFFFFFFFFFFFFFFFFFFFFFFFFFFFFFFFFFFFFFFFFFFFFFFFFFFFFFFFFF
310
FFFFFFFFFFFFFFFFFFFFFFFFFFFFFFFFF000FFFFFFFFFFFFFFFFFFFFFFFFFFFF
310
FFFFFFFFFFFFFFFFFFFFFFFFFFFFFFFFFFFFFFFFFFFFFFFFFFFFFFFFFFFFFFFF
310
FFFFFFFFFFFFFFFFFFFFFFFFFFFFFFFFFFFFFFFFFFFFFFFFFFFFFFFFFFFFFFFF
310
FFFFFFFFFFFFFFFFF000FFFFFFFFFFFFFFFFFFFFFFFFFFFFFFFFFFFFFFFFFFFF
310
FFFFFFFFFFFFFFFFFFFFFFFFFFFFFFFFFFFFFFFFFFFFFFFFFFFFFFFFFFFFFFFF
310
FFFFFFFFFFFFFFFFFFFFFFFFFFFFFFFFFFFFFFFFFFFFFFFFFFFFFFFFFFFFFFFF
310
F000FFFFFFFFFFFFFFFFFFFFFFFFFFFFFFFFFFFFFFFFFFFFFFFFFFFFFFFFFFFF
310
FFFFFFFFFFFFFFFFFFFFFFFFFFFFFFFFFFFFFFFFFFFFFFFFFFFFFFFFFFFFFFFF
310
FFFFFFFFFFFFFFFFFFFFFFFFFFFFFFFFFFFFFFFFFFFFFFFFF000FFFFFFFFFFFF
310
FFFFFFFFFFFFFFFFFFFFFFFFFFFFFFFFFFFFFFFFFFFFFFFFFFFFFFFFFFFFFFFF
310
FFFFFFFFFFFFFFFFFFFFFFFFFFFFFFFFFFFFFFFFFFFFFFFFFFFFFFFFFFFFFFFF
310
FFFFFFFFFFFFFFFFFFFFFFFFFFFFFFFFF0000000000000000000000000000000
310
0000000000000000000000000000000000000000000000000000000000000000
310
0000000000000000000000000000000000000000000000000000000000000000
310
0000000000000000000000000000000000000000000000000000000000000000
310
0000000000000000000000000000000000000000000000000000000000000000
310
0000000000000000000000000000000000000000000000000000000000000000
310
0000000000000000000000000000000000000000000000000000000000000000
310
0000000000000000000000000000000000000000000000000000000000000000
310
0000000000000000000000000000000000000000000000000000000000000000
310
0000000000000000000000000000000000000000000000000000000000000000
310
0000000000000000000000000000000000000000000000000000000000000000
310
0000000000000000000000000000000000000000000000000000000000000000
310
0000000000000000000000000000000000000000000000000000000000000000
310
0000000000000000000000000000000000000000000000000000000000000000
310
0000000000000000000000000000000000000000000000000000000000000000
310
0000000000000000000000000000000000000000000000000000000000000000
  1
OLE
  0
ENDSEC
  0
SECTION
  2
OBJECTS
  0
DICTIONARY
  5
C
330
0
100
AcDbDictionary
281
     1
  3
ACAD_GROUP
350
D
  3
ACAD_LAYOUT
350
1A
  3
ACAD_MLINESTYLE
350
17
  3
ACAD_PLOTSETTINGS
350
19
  3
ACAD_PLOTSTYLENAME
350
E
  3
ACAD_SCALELIST
350
47
  0
DICTIONARY
  5
D
102
{ACAD_REACTORS
330
C
102
}
330
C
100
AcDbDictionary
281
     1
  0
DICTIONARY
  5
1A
102
{ACAD_REACTORS
330
C
102
}
330
C
100
AcDbDictionary
281
     1
  3
Layout1
350
1E
  3
Layout2
350
26
  3
Model
350
22
  0
DICTIONARY
  5
17
102
{ACAD_REACTORS
330
C
102
}
330
C
100
AcDbDictionary
281
     1
  3
Standard
350
18
  0
DICTIONARY
  5
19
102
{ACAD_REACTORS
330
C
102
}
330
C
100
AcDbDictionary
281
     1
  0
ACDBDICTIONARYWDFLT
  5
E
102
{ACAD_REACTORS
330
C
102
}
330
C
100
AcDbDictionary
281
     1
  3
Normal
350
F
100
AcDbDictionaryWithDefault
340
F
  0
DICTIONARY
  5
47
102
{ACAD_REACTORS
330
C
102
}
330
C
100
AcDbDictionary
281
     1
  3
A0
350
48
  3
A1
350
49
  3
A2
350
4A
  3
A3
350
4B
  3
A4
350
4C
  3
A5
350
4D
  3
A6
350
4E
  3
A7
350
4F
  3
A8
350
50
  3
A9
350
51
  3
B0
350
52
  3
B1
350
53
  3
B2
350
54
  3
B3
350
55
  3
B4
350
56
  3
B5
350
57
  3
B6
350
58
  3
B7
350
59
  3
B8
350
5A
  3
B9
350
5B
  3
C0
350
5C
  3
C1
350
5D
  3
C2
350
5E
  3
C3
350
5F
  3
C4
350
60
  3
C5
350
61
  3
C6
350
62
  3
C7
350
63
  3
C8
350
64
  3
C9
350
65
  3
D0
350
66
  3
D1
350
67
  3
D2
350
68
  0
LAYOUT
  5
1E
102
{ACAD_REACTORS
330
1A
102
}
330
1A
100
AcDbPlotSettings
  1

  2
none_device
  4

  6

 40
0.0
 41
0.0
 42
0.0
 43
0.0
 44
0.0
 45
0.0
 46
0.0
 47
0.0
 48
0.0
 49
0.0
140
0.0
141
0.0
142
1.0
143
1.0
 70
   688
 72
     1
 73
     0
 74
     5
  7

 75
    16
147
1.0
148
0.0
149
0.0
100
AcDbLayout
  1
Layout1
 70
     1
 71
     1
 10
0.0
 20
0.0
 11
420.0
 21
297.0
 12
0.0
 22
0.0
 32
0.0
 14
1.0000000000E+20
 24
1.0000000000E+20
 34
1.0000000000E+20
 15
-1.0000000000E+20
 25
-1.0000000000E+20
 35
-1.0000000000E+20
146
0.0
 13
0.0
 23
0.0
 33
0.0
 16
1.0
 26
0.0
 36
0.0
 17
0.0
 27
1.0
 37
0.0
 76
     0
330
1B
  0
LAYOUT
  5
26
102
{ACAD_REACTORS
330
1A
102
}
330
1A
100
AcDbPlotSettings
  1

  2
none_device
  4

  6

 40
0.0
 41
0.0
 42
0.0
 43
0.0
 44
0.0
 45
0.0
 46
0.0
 47
0.0
 48
0.0
 49
0.0
140
0.0
141
0.0
142
1.0
143
1.0
 70
   688
 72
     1
 73
     0
 74
     5
  7

 75
    16
147
1.0
148
0.0
149
0.0
100
AcDbLayout
  1
Layout2
 70
     1
 71
     2
 10
0.0
 20
0.0
 11
0.0
 21
0.0
 12
0.0
 22
0.0
 32
0.0
 14
0.0
 24
0.0
 34
0.0
 15
0.0
 25
0.0
 35
0.0
146
0.0
 13
0.0
 23
0.0
 33
0.0
 16
1.0
 26
0.0
 36
0.0
 17
0.0
 27
1.0
 37
0.0
 76
     0
330
23
  0
LAYOUT
  5
22
102
{ACAD_REACTORS
330
1A
102
}
330
1A
100
AcDbPlotSettings
  1

  2
none_device
  4
Letter_(8.50_x_11.00_Inches)
  6

 40
6.35
 41
6.35
 42
6.35000508
 43
6.35000508
 44
215.9
 45
279.4
 46
0.0
 47
0.0
 48
0.0
 49
0.0
140
0.0
141
0.0
142
1.0
143
1.0
 70
  1712
 72
     1
 73
     0
 74
     0
  7

 75
     0
147
1.0
148
0.0
149
0.0
100
AcDbLayout
  1
Model
 70
     1
 71
     0
 10
0.0
 20
0.0
 11
297.0
 21
210.0
 12
0.0
 22
0.0
 32
0.0
 14
0.0
 24
0.0
 34
0.0
 15
297.0
 25
210.0
 35
0.0
146
0.0
 13
0.0
 23
0.0
 33
0.0
 16
1.0
 26
0.0
 36
0.0
 17
0.0
 27
1.0
 37
0.0
 76
     0
330
1F
331
29
  0
MLINESTYLE
  5
18
102
{ACAD_REACTORS
330
17
102
}
330
17
100
AcDbMlineStyle
  2
Standard
 70
     0
  3

 62
   256
 51
90.0
 52
90.0
 71
     2
 49
0.5
 62
   256
  6
BYLAYER
 49
-0.5
 62
   256
  6
BYLAYER
  0
ACDBPLACEHOLDER
  5
F
102
{ACAD_REACTORS
330
E
102
}
330
E
  0
SCALE
  5
48
102
{ACAD_REACTORS
330
47
102
}
330
47
100
AcDbScale
 70
     0
300
1:1
140
1.0
141
1.0
290
     1
  0
SCALE
  5
49
102
{ACAD_REACTORS
330
47
102
}
330
47
100
AcDbScale
 70
     0
300
1:2
140
1.0
141
2.0
290
     0
  0
SCALE
  5
4A
102
{ACAD_REACTORS
330
47
102
}
330
47
100
AcDbScale
 70
     0
300
1:4
140
1.0
141
4.0
290
     0
  0
SCALE
  5
4B
102
{ACAD_REACTORS
330
47
102
}
330
47
100
AcDbScale
 70
     0
300
1:5
140
1.0
141
5.0
290
     0
  0
SCALE
  5
4C
102
{ACAD_REACTORS
330
47
102
}
330
47
100
AcDbScale
 70
     0
300
1:8
140
1.0
141
8.0
290
     0
  0
SCALE
  5
4D
102
{ACAD_REACTORS
330
47
102
}
330
47
100
AcDbScale
 70
     0
300
1:10
140
1.0
141
10.0
290
     0
  0
SCALE
  5
4E
102
{ACAD_REACTORS
330
47
102
}
330
47
100
AcDbScale
 70
     0
300
1:16
140
1.0
141
16.0
290
     0
  0
SCALE
  5
4F
102
{ACAD_REACTORS
330
47
102
}
330
47
100
AcDbScale
 70
     0
300
1:20
140
1.0
141
20.0
290
     0
  0
SCALE
  5
50
102
{ACAD_REACTORS
330
47
102
}
330
47
100
AcDbScale
 70
     0
300
1:30
140
1.0
141
30.0
290
     0
  0
SCALE
  5
51
102
{ACAD_REACTORS
330
47
102
}
330
47
100
AcDbScale
 70
     0
300
1:40
140
1.0
141
40.0
290
     0
  0
SCALE
  5
52
102
{ACAD_REACTORS
330
47
102
}
330
47
100
AcDbScale
 70
     0
300
1:50
140
1.0
141
50.0
290
     0
  0
SCALE
  5
53
102
{ACAD_REACTORS
330
47
102
}
330
47
100
AcDbScale
 70
     0
300
1:100
140
1.0
141
100.0
290
     0
  0
SCALE
  5
54
102
{ACAD_REACTORS
330
47
102
}
330
47
100
AcDbScale
 70
     0
300
2:1
140
2.0
141
1.0
290
     0
  0
SCALE
  5
55
102
{ACAD_REACTORS
330
47
102
}
330
47
100
AcDbScale
 70
     0
300
4:1
140
4.0
141
1.0
290
     0
  0
SCALE
  5
56
102
{ACAD_REACTORS
330
47
102
}
330
47
100
AcDbScale
 70
     0
300
8:1
140
8.0
141
1.0
290
     0
  0
SCALE
  5
57
102
{ACAD_REACTORS
330
47
102
}
330
47
100
AcDbScale
 70
     0
300
10:1
140
10.0
141
1.0
290
     0
  0
SCALE
  5
58
102
{ACAD_REACTORS
330
47
102
}
330
47
100
AcDbScale
 70
     0
300
100:1
140
100.0
141
1.0
290
     0
  0
SCALE
  5
59
102
{ACAD_REACTORS
330
47
102
}
330
47
100
AcDbScale
 70
     0
300
1/128" = 1'-0"
140
0.0078125
141
12.0
290
     0
  0
SCALE
  5
5A
102
{ACAD_REACTORS
330
47
102
}
330
47
100
AcDbScale
 70
     0
300
1/64" = 1'-0"
140
0.015625
141
12.0
290
     0
  0
SCALE
  5
5B
102
{ACAD_REACTORS
330
47
102
}
330
47
100
AcDbScale
 70
     0
300
1/32" = 1'-0"
140
0.03125
141
12.0
290
     0
  0
SCALE
  5
5C
102
{ACAD_REACTORS
330
47
102
}
330
47
100
AcDbScale
 70
     0
300
1/16" = 1'-0"
140
0.0625
141
12.0
290
     0
  0
SCALE
  5
5D
102
{ACAD_REACTORS
330
47
102
}
330
47
100
AcDbScale
 70
     0
300
3/32" = 1'-0"
140
0.09375
141
12.0
290
     0
  0
SCALE
  5
5E
102
{ACAD_REACTORS
330
47
102
}
330
47
100
AcDbScale
 70
     0
300
1/8" = 1'-0"
140
0.125
141
12.0
290
     0
  0
SCALE
  5
5F
102
{ACAD_REACTORS
330
47
102
}
330
47
100
AcDbScale
 70
     0
300
3/16" = 1'-0"
140
0.1875
141
12.0
290
     0
  0
SCALE
  5
60
102
{ACAD_REACTORS
330
47
102
}
330
47
100
AcDbScale
 70
     0
300
1/4" = 1'-0"
140
0.25
141
12.0
290
     0
  0
SCALE
  5
61
102
{ACAD_REACTORS
330
47
102
}
330
47
100
AcDbScale
 70
     0
300
3/8" = 1'-0"
140
0.375
141
12.0
290
     0
  0
SCALE
  5
62
102
{ACAD_REACTORS
330
47
102
}
330
47
100
AcDbScale
 70
     0
300
1/2" = 1'-0"
140
0.5
141
12.0
290
     0
  0
SCALE
  5
63
102
{ACAD_REACTORS
330
47
102
}
330
47
100
AcDbScale
 70
     0
300
3/4" = 1'-0"
140
0.75
141
12.0
290
     0
  0
SCALE
  5
64
102
{ACAD_REACTORS
330
47
102
}
330
47
100
AcDbScale
 70
     0
300
1" = 1'-0"
140
1.0
141
12.0
290
     0
  0
SCALE
  5
65
102
{ACAD_REACTORS
330
47
102
}
330
47
100
AcDbScale
 70
     0
300
1-1/2" = 1'-0"
140
1.5
141
12.0
290
     0
  0
SCALE
  5
66
102
{ACAD_REACTORS
330
47
102
}
330
47
100
AcDbScale
 70
     0
300
3" = 1'-0"
140
3.0
141
12.0
290
     0
  0
SCALE
  5
67
102
{ACAD_REACTORS
330
47
102
}
330
47
100
AcDbScale
 70
     0
300
6" = 1'-0"
140
6.0
141
12.0
290
     0
  0
SCALE
  5
68
102
{ACAD_REACTORS
330
47
102
}
330
47
100
AcDbScale
 70
     0
300
1'-0" = 1'-0"
140
12.0
141
12.0
290
     0
  0
ENDSEC
  0
EOF
