  0
SECTION
  2
HEADER
  9
$ACADVER
  1
AC1015
  9
$ACADMAINTVER
 70
     6
  9
$DWGCODEPAGE
  3
ANSI_1252
  9
$INSBASE
 10
0.0
 20
0.0
 30
0.0
  9
$EXTMIN
 10
0.0
 20
0.0
 30
0.0
  9
$EXTMAX
 10
297.0
 20
210.0
 30
0.0
  9
$LIMMIN
 10
0.0
 20
0.0
  9
$LIMMAX
 10
297.0
 20
210.0
  9
$ORTHOMODE
 70
     0
  9
$REGENMODE
 70
     1
  9
$FILLMODE
 70
     1
  9
$QTEXTMODE
 70
     0
  9
$MIRRTEXT
 70
     1
  9
$LTSCALE
 40
1.0
  9
$ATTMODE
 70
     1
  9
$TEXTSIZE
 40
2.0
  9
$TRACEWID
 40
1.0
  9
$TEXTSTYLE
  7
Standard
  9
$CLAYER
  8
0
  9
$CELTYPE
  6
ByLayer
  9
$CECOLOR
 62
   256
  9
$CELTSCALE
 40
1.0
  9
$DISPSILH
 70
     0
  9
$DIMSCALE
 40
1.0
  9
$DIMASZ
 40
3.0
  9
$DIMEXO
 40
0.0
  9
$DIMDLI
 40
3.75
  9
$DIMRND
 40
0.0
  9
$DIMDLE
 40
0.0
  9
$DIMEXE
 40
1.0
  9
$DIMTP
 40
0.0
  9
$DIMTM
 40
0.0
  9
$DIMTXT
 40
2.0
  9
$DIMCEN
 40
2.5
  9
$DIMTSZ
 40
0.0
  9
$DIMTOL
 70
     0
  9
$DIMLIM
 70
     0
  9
$DIMTIH
 70
     1
  9
$DIMTOH
 70
     1
  9
$DIMSE1
 70
     0
  9
$DIMSE2
 70
     0
  9
$DIMTAD
 70
     1
  9
$DIMZIN
 70
     0
  9
$DIMBLK
  1

  9
$DIMASO
 70
     1
  9
$DIMSHO
 70
     1
  9
$DIMPOST
  1

  9
$DIMAPOST
  1

  9
$DIMALT
 70
     0
  9
$DIMALTD
 70
     3
  9
$DIMALTF
 40
0.0393700787
  9
$DIMLFAC
 40
1.0
  9
$DIMTOFL
 70
     1
  9
$DIMTVP
 40
0.0
  9
$DIMTIX
 70
     0
  9
$DIMSOXD
 70
     0
  9
$DIMSAH
 70
     0
  9
$DIMBLK1
  1

  9
$DIMBLK2
  1

  9
$DIMSTYLE
  2
ISO-25
  9
$DIMCLRD
 70
     0
  9
$DIMCLRE
 70
     0
  9
$DIMCLRT
 70
     0
  9
$DIMTFAC
 40
1.0
  9
$DIMGAP
 40
1.524
  9
$DIMJUST
 70
     0
  9
$DIMSD1
 70
     0
  9
$DIMSD2
 70
     0
  9
$DIMTOLJ
 70
     0
  9
$DIMTZIN
 70
     0
  9
$DIMALTZ
 70
     0
  9
$DIMALTTZ
 70
     0
  9
$DIMUPT
 70
     0
  9
$DIMDEC
 70
     2
  9
$DIMTDEC
 70
     3
  9
$DIMALTU
 70
     2
  9
$DIMALTTD
 70
     3
  9
$DIMTXSTY
  7
Standard
  9
$DIMAUNIT
 70
     0
  9
$DIMADEC
 70
     2
  9
$DIMALTRND
 40
0.0
  9
$DIMAZIN
 70
     0
  9
$DIMDSEP
 70
    44
  9
$DIMATFIT
 70
     3
  9
$DIMFRAC
 70
     0
  9
$DIMLDRBLK
  1

  9
$DIMLUNIT
 70
     2
  9
$DIMLWD
 70
    -2
  9
$DIMLWE
 70
    -2
  9
$DIMTMOVE
 70
     0
  9
$LUNITS
 70
     2
  9
$LUPREC
 70
     2
  9
$SKETCHINC
 40
1.0
  9
$FILLETRAD
 40
10.0
  9
$AUNITS
 70
     0
  9
$AUPREC
 70
     2
  9
$MENU
  1
.
  9
$ELEVATION
 40
0.0
  9
$PELEVATION
 40
0.0
  9
$THICKNESS
 40
0.0
  9
$LIMCHECK
 70
     0
  9
$CHAMFERA
 40
0.0
  9
$CHAMFERB
 40
0.0
  9
$CHAMFERC
 40
0.0
  9
$CHAMFERD
 40
0.0
  9
$SKPOLY
 70
     0
  9
$TDCREATE
 40
2457669.618521505
  9
$TDUCREATE
 40
2457669.535188171
  9
$TDUPDATE
 40
2457669.618522604
  9
$TDUUPDATE
 40
2457669.535189271
  9
$TDINDWG
 40
0.0000000116
  9
$TDUSRTIMER
 40
0.0000000116
  9
$USRTIMER
 70
     1
  9
$ANGBASE
 50
0.0
  9
$ANGDIR
 70
     0
  9
$PDMODE
 70
     0
  9
$PDSIZE
 40
-1.0
  9
$PLINEWID
 40
0.0
  9
$SPLFRAME
 70
     0
  9
$SPLINETYPE
 70
     6
  9
$SPLINESEGS
 70
     8
  9
$HANDSEED
  5
1DD
  9
$SURFTAB1
 70
     6
  9
$SURFTAB2
 70
     6
  9
$SURFTYPE
 70
     6
  9
$SURFU
 70
     6
  9
$SURFV
 70
     6
  9
$UCSBASE
  2

  9
$UCSNAME
  2

  9
$UCSORG
 10
0.0
 20
0.0
 30
0.0
  9
$UCSXDIR
 10
1.0
 20
0.0
 30
0.0
  9
$UCSYDIR
 10
0.0
 20
1.0
 30
0.0
  9
$UCSORTHOREF
  2

  9
$UCSORTHOVIEW
 70
     0
  9
$UCSORGTOP
 10
0.0
 20
0.0
 30
0.0
  9
$UCSORGBOTTOM
 10
0.0
 20
0.0
 30
0.0
  9
$UCSORGLEFT
 10
0.0
 20
0.0
 30
0.0
  9
$UCSORGRIGHT
 10
0.0
 20
0.0
 30
0.0
  9
$UCSORGFRONT
 10
0.0
 20
0.0
 30
0.0
  9
$UCSORGBACK
 10
0.0
 20
0.0
 30
0.0
  9
$PUCSBASE
  2

  9
$PUCSNAME
  2

  9
$PUCSORG
 10
0.0
 20
0.0
 30
0.0
  9
$PUCSXDIR
 10
1.0
 20
0.0
 30
0.0
  9
$PUCSYDIR
 10
0.0
 20
1.0
 30
0.0
  9
$PUCSORTHOREF
  2

  9
$PUCSORTHOVIEW
 70
     0
  9
$PUCSORGTOP
 10
0.0
 20
0.0
 30
0.0
  9
$PUCSORGBOTTOM
 10
0.0
 20
0.0
 30
0.0
  9
$PUCSORGLEFT
 10
0.0
 20
0.0
 30
0.0
  9
$PUCSORGRIGHT
 10
0.0
 20
0.0
 30
0.0
  9
$PUCSORGFRONT
 10
0.0
 20
0.0
 30
0.0
  9
$PUCSORGBACK
 10
0.0
 20
0.0
 30
0.0
  9
$USERI1
 70
     0
  9
$USERI2
 70
     0
  9
$USERI3
 70
     0
  9
$USERI4
 70
     0
  9
$USERI5
 70
     0
  9
$USERR1
 40
0.0
  9
$USERR2
 40
0.0
  9
$USERR3
 40
0.0
  9
$USERR4
 40
0.0
  9
$USERR5
 40
0.0
  9
$WORLDVIEW
 70
     1
  9
$SHADEDGE
 70
     3
  9
$SHADEDIF
 70
    70
  9
$TILEMODE
 70
     1
  9
$MAXACTVP
 70
    64
  9
$PINSBASE
 10
0.0
 20
0.0
 30
0.0
  9
$PLIMCHECK
 70
     0
  9
$PEXTMIN
 10
1.0000000000E+20
 20
1.0000000000E+20
 30
1.0000000000E+20
  9
$PEXTMAX
 10
-1.0000000000E+20
 20
-1.0000000000E+20
 30
-1.0000000000E+20
  9
$PLIMMIN
 10
0.0
 20
0.0
  9
$PLIMMAX
 10
420.0
 20
297.0
  9
$UNITMODE
 70
     0
  9
$VISRETAIN
 70
     1
  9
$PLINEGEN
 70
     0
  9
$PSLTSCALE
 70
     1
  9
$TREEDEPTH
 70
  3020
  9
$CMLSTYLE
  2
Standard
  9
$CMLJUST
 70
     0
  9
$CMLSCALE
 40
20.0
  9
$PROXYGRAPHICS
 70
     1
  9
$MEASUREMENT
 70
     1
  9
$CELWEIGHT
370
    -1
  9
$ENDCAPS
280
     0
  9
$JOINSTYLE
280
     0
  9
$LWDISPLAY
290
     1
  9
$INSUNITS
 70
     4
  9
$HYPERLINKBASE
  1

  9
$STYLESHEET
  1

  9
$XEDIT
290
     1
  9
$CEPSNTYPE
380
     0
  9
$PSTYLEMODE
290
     1
  9
$FINGERPRINTGUID
  2
{B96F4436-6621-4054-9D03-390146D43442}
  9
$VERSIONGUID
  2
{FAEB1C32-E019-11D5-929B-00C0DF256EC4}
  9
$EXTNAMES
290
     1
  9
$PSVPSCALE
 40
0.0
  9
$OLESTARTUP
290
     0
  0
ENDSEC
  0
SECTION
  2
CLASSES
  0
CLASS
  1
ACDBDICTIONARYWDFLT
  2
AcDbDictionaryWithDefault
  3
ObjectDBX Classes
 90
        0
280
     0
281
     0
  0
CLASS
  1
VISUALSTYLE
  2
AcDbVisualStyle
  3
ObjectDBX Classes
 90
     4095
280
     0
281
     0
  0
CLASS
  1
MATERIAL
  2
AcDbMaterial
  3
ObjectDBX Classes
 90
     1153
280
     0
281
     0
  0
CLASS
  1
SCALE
  2
AcDbScale
  3
ObjectDBX Classes
 90
     1153
280
     0
281
     0
  0
CLASS
  1
TABLESTYLE
  2
AcDbTableStyle
  3
ObjectDBX Classes
 90
     4095
280
     0
281
     0
  0
CLASS
  1
MLEADERSTYLE
  2
AcDbMLeaderStyle
  3
ACDB_MLEADERSTYLE_CLASS
 90
     4095
280
     0
281
     0
  0
CLASS
  1
SUN
  2
AcDbSun
  3
SCENEOE
 90
     1153
280
     0
281
     0
  0
CLASS
  1
ACDBPLACEHOLDER
  2
AcDbPlaceHolder
  3
ObjectDBX Classes
 90
        0
280
     0
281
     0
  0
CLASS
  1
LAYOUT
  2
AcDbLayout
  3
ObjectDBX Classes
 90
        0
280
     0
281
     0
  0
ENDSEC
  0
SECTION
  2
TABLES
  0
TABLE
  2
VPORT
  5
8
330
0
100
AcDbSymbolTable
 70
     1
  0
VPORT
  5
29
330
8
100
AcDbSymbolTableRecord
100
AcDbViewportTableRecord
  2
*Active
 70
     0
 10
0.0
 20
0.0
 11
1.0
 21
1.0
 12
148.5
 22
105.0
 13
0.0
 23
0.0
 14
10.0
 24
10.0
 15
10.0
 25
10.0
 16
0.0
 26
0.0
 36
1.0
 17
0.0
 27
0.0
 37
0.0
 40
210.0
 41
1.4142857143
 42
50.0
 43
0.0
 44
0.0
 50
0.0
 51
0.0
 71
     0
 72
  2000
 73
     1
 74
     3
 75
     0
 76
     0
 77
     0
 78
     0
281
     0
 65
     1
110
0.0
120
0.0
130
0.0
111
1.0
121
0.0
131
0.0
112
0.0
122
1.0
132
0.0
 79
     0
146
0.0
  0
ENDTAB
  0
TABLE
  2
LTYPE
  5
5
330
0
100
AcDbSymbolTable
 70
     6
  0
LTYPE
  5
14
330
5
100
AcDbSymbolTableRecord
100
AcDbLinetypeTableRecord
  2
ByBlock
 70
     0
  3

 72
    65
 73
     0
 40
0.0
  0
LTYPE
  5
15
330
5
100
AcDbSymbolTableRecord
100
AcDbLinetypeTableRecord
  2
ByLayer
 70
     0
  3

 72
    65
 73
     0
 40
0.0
  0
LTYPE
  5
16
330
5
100
AcDbSymbolTableRecord
100
AcDbLinetypeTableRecord
  2
Continuous
 70
     0
  3
Solid line
 72
    65
 73
     0
 40
0.0
  0
LTYPE
  5
6E
330
5
100
AcDbSymbolTableRecord
100
AcDbLinetypeTableRecord
  2
HIDDEN
 70
     0
  3
Hidden __ __ __ __ __ __ __ __ __ __ __ __ __ __
 72
    65
 73
     2
 40
1.905
 49
1.27
 74
     0
 49
-0.635
 74
     0
  0
LTYPE
  5
6F
330
5
100
AcDbSymbolTableRecord
100
AcDbLinetypeTableRecord
  2
PHANTOM
 70
     0
  3
Phantom ______  __  __  ______  __  __  ______
 72
    65
 73
     6
 40
12.7
 49
6.35
 74
     0
 49
-1.27
 74
     0
 49
1.27
 74
     0
 49
-1.27
 74
     0
 49
1.27
 74
     0
 49
-1.27
 74
     0
  0
LTYPE
  5
70
330
5
100
AcDbSymbolTableRecord
100
AcDbLinetypeTableRecord
  2
CENTER
 70
     0
  3
Center ____ _ ____ _ ____ _ ____ _ ____ _ ____
 72
    65
 73
     4
 40
10.16
 49
6.35
 74
     0
 49
-1.27
 74
     0
 49
1.27
 74
     0
 49
-1.27
 74
     0
  0
LTYPE
  5
71
330
5
100
AcDbSymbolTableRecord
100
AcDbLinetypeTableRecord
  2
CENTERX2
 70
     0
  3
Center (2x) ________  __  ________  __  _____
 72
    65
 73
     4
 40
20.32
 49
12.7
 74
     0
 49
-2.54
 74
     0
 49
2.54
 74
     0
 49
-2.54
 74
     0
  0
LTYPE
  5
72
330
5
100
AcDbSymbolTableRecord
100
AcDbLinetypeTableRecord
  2
DOT2
 70
     0
  3
Dot (.5x) ........................................
 72
    65
 73
     2
 40
0.635
 49
0.0
 74
     0
 49
-0.635
 74
     0
  0
ENDTAB
  0
TABLE
  2
LAYER
  5
2
330
0
100
AcDbSymbolTable
 70
     5
  0
LAYER
  5
10
330
2
100
AcDbSymbolTableRecord
100
AcDbLayerTableRecord
  2
0
 70
     0
 62
     7
  6
Continuous
370
    -3
390
F
  0
LAYER
  5
73
330
2
100
AcDbSymbolTableRecord
100
AcDbLayerTableRecord
  2
FORMAT
 70
     0
 62
     7
  6
Continuous
370
    -3
390
F
  0
LAYER
  5
74
330
2
100
AcDbSymbolTableRecord
100
AcDbLayerTableRecord
  2
VERMASSUNG
 70
     0
 62
     7
  6
Continuous
370
    -3
390
F
  0
LAYER
  5
75
330
2
100
AcDbSymbolTableRecord
100
AcDbLayerTableRecord
  2
KOPF_DÜNN
 70
     0
 62
     7
  6
Continuous
370
    -3
390
F
  0
LAYER
  5
76
330
2
100
AcDbSymbolTableRecord
100
AcDbLayerTableRecord
  2
KOPF_DICK
 70
     0
 62
     7
  6
Continuous
370
    15
390
F
  0
ENDTAB
  0
TABLE
  2
STYLE
  5
3
330
0
100
AcDbSymbolTable
 70
     3
  0
STYLE
  5
11
330
3
100
AcDbSymbolTableRecord
100
AcDbTextStyleTableRecord
  2
Standard
 70
     0
 40
0.0
 41
1.0
 50
0.0
 71
     0
 42
2.0
  3
txt
  4

  0
STYLE
  5
77
330
3
100
AcDbSymbolTableRecord
100
AcDbTextStyleTableRecord
  2
SLDTEXTSTYLE0
 70
     0
 40
0.0
 41
0.7
 50
0.0
 71
     0
 42
2.0
  3
TXT
  4

  0
STYLE
  5
7B
330
3
100
AcDbSymbolTableRecord
100
AcDbTextStyleTableRecord
  2
SLDTEXTSTYLE1
 70
     0
 40
0.0
 41
0.6538461538
 50
0.0
 71
     0
 42
2.0
  3
TXT
  4

  0
ENDTAB
  0
TABLE
  2
VIEW
  5
6
330
0
100
AcDbSymbolTable
 70
     0
  0
ENDTAB
  0
TABLE
  2
UCS
  5
7
330
0
100
AcDbSymbolTable
 70
     0
  0
ENDTAB
  0
TABLE
  2
APPID
  5
9
330
0
100
AcDbSymbolTable
 70
     1
  0
APPID
  5
12
330
9
100
AcDbSymbolTableRecord
100
AcDbRegAppTableRecord
  2
ACAD
 70
     0
  0
ENDTAB
  0
TABLE
  2
DIMSTYLE
  5
A
330
0
100
AcDbSymbolTable
 70
     2
100
AcDbDimStyleTable
  0
DIMSTYLE
105
27
330
A
100
AcDbSymbolTableRecord
100
AcDbDimStyleTableRecord
  2
ISO-25
 70
     0
 41
2.5
 42
0.625
 43
3.75
 44
1.25
 73
     0
 74
     0
 77
     1
 78
     8
140
2.5
141
2.5
143
0.0393700787
147
0.625
171
     3
172
     1
178
     0
271
     2
272
     2
274
     3
278
    44
283
     0
284
     8
340
11
  0
DIMSTYLE
105
114
102
{ACAD_REACTORS
330
113
330
11F
330
12B
330
137
330
141
330
14D
102
}
330
A
100
AcDbSymbolTableRecord
100
AcDbDimStyleTableRecord
  2
SLDDIMSTYLE0
 70
     0
 41
3.0
 44
0.0
 45
0.000000001
 73
     0
 74
     0
 77
     1
 78
    12
 79
     3
140
2.0
147
0.5
173
     1
178
     0
271
     2
272
     3
276
     2
284
    12
340
77
  0
ENDTAB
  0
TABLE
  2
BLOCK_RECORD
  5
1
330
0
100
AcDbSymbolTable
 70
     7
  0
BLOCK_RECORD
  5
1F
330
1
100
AcDbSymbolTableRecord
100
AcDbBlockTableRecord
  2
*Model_Space
340
22
  0
BLOCK_RECORD
  5
1B
330
1
100
AcDbSymbolTableRecord
100
AcDbBlockTableRecord
  2
*Paper_Space
340
1E
  0
BLOCK_RECORD
  5
23
330
1
100
AcDbSymbolTableRecord
100
AcDbBlockTableRecord
  2
*Paper_Space0
340
26
  0
BLOCK_RECORD
  5
115
330
1
100
AcDbSymbolTableRecord
100
AcDbBlockTableRecord
  2
_D
340
0
  0
BLOCK_RECORD
  5
120
330
1
100
AcDbSymbolTableRecord
100
AcDbBlockTableRecord
  2
_D_1
340
0
  0
BLOCK_RECORD
  5
12C
330
1
100
AcDbSymbolTableRecord
100
AcDbBlockTableRecord
  2
_D_2
340
0
  0
BLOCK_RECORD
  5
138
330
1
100
AcDbSymbolTableRecord
100
AcDbBlockTableRecord
  2
_D_3
340
0
  0
BLOCK_RECORD
  5
142
330
1
100
AcDbSymbolTableRecord
100
AcDbBlockTableRecord
  2
_D_4
340
0
  0
BLOCK_RECORD
  5
14E
330
1
100
AcDbSymbolTableRecord
100
AcDbBlockTableRecord
  2
_D_5
340
0
  0
ENDTAB
  0
ENDSEC
  0
SECTION
  2
BLOCKS
  0
BLOCK
  5
20
330
1F
100
AcDbEntity
  8
0
100
AcDbBlockBegin
  2
*Model_Space
 70
     0
 10
0.0
 20
0.0
 30
0.0
  3
*Model_Space
  1

  0
ENDBLK
  5
21
330
1F
100
AcDbEntity
  8
0
100
AcDbBlockEnd
  0
BLOCK
  5
1C
330
1B
100
AcDbEntity
 67
     1
  8
0
100
AcDbBlockBegin
  2
*Paper_Space
 70
     0
 10
0.0
 20
0.0
 30
0.0
  3
*Paper_Space
  1

  0
ENDBLK
  5
1D
330
1B
100
AcDbEntity
 67
     1
  8
0
100
AcDbBlockEnd
  0
BLOCK
  5
24
330
23
100
AcDbEntity
  8
0
100
AcDbBlockBegin
  2
*Paper_Space0
 70
     0
 10
0.0
 20
0.0
 30
0.0
  3
*Paper_Space0
  1

  0
ENDBLK
  5
25
330
23
100
AcDbEntity
  8
0
100
AcDbBlockEnd
  0
BLOCK
  5
116
330
115
100
AcDbEntity
  8
0
100
AcDbBlockBegin
  2
_D
 70
     0
 10
0.0
 20
0.0
 30
0.0
  3
_D
  1

  0
SOLID
  5
118
330
115
100
AcDbEntity
  8
VERMASSUNG
100
AcDbTrace
 10
243.5128952014
 20
126.6393637691
 30
0.0
 11
243.0628952014
 21
123.6393637691
 31
0.0
 12
243.9628952014
 22
123.6393637691
 32
0.0
 13
243.9628952014
 23
123.6393637691
 33
0.0
  0
SOLID
  5
119
330
115
100
AcDbEntity
  8
VERMASSUNG
100
AcDbTrace
 10
243.5128952014
 20
98.6393637691
 30
0.0
 11
243.9628952014
 21
101.6393637691
 31
0.0
 12
243.0628952014
 22
101.6393637691
 32
0.0
 13
243.0628952014
 23
101.6393637691
 33
0.0
  0
LINE
  5
11A
330
115
100
AcDbEntity
  8
VERMASSUNG
100
AcDbLine
 10
219.8436876783
 20
126.6393637691
 30
0.0
 11
244.5128952014
 21
126.6393637691
 31
0.0
  0
LINE
  5
11B
330
115
100
AcDbEntity
  8
VERMASSUNG
100
AcDbLine
 10
219.8436876783
 20
98.6393637691
 30
0.0
 11
244.5128952014
 21
98.6393637691
 31
0.0
  0
LINE
  5
11C
330
115
100
AcDbEntity
  8
VERMASSUNG
100
AcDbLine
 10
243.5128952014
 20
126.6393637691
 30
0.0
 11
243.5128952014
 21
98.6393637691
 31
0.0
  0
MTEXT
  5
11D
330
115
100
AcDbEntity
  8
VERMASSUNG
100
AcDbMText
 10
240.9347596637
 20
109.435187662
 30
0.0
 40
2.0
 41
0.0
 71
     1
 72
     1
  1
%%c
  7
SLDTEXTSTYLE0
 11
-7.044195017643634E-15
 21
1.0
 31
0.0
 73
     1
 44
1.0
  0
MTEXT
  5
11E
330
115
100
AcDbEntity
  8
VERMASSUNG
100
AcDbMText
 10
240.9347596054
 20
113.0441598556
 30
0.0
 40
2.0
 41
0.0
 71
     1
 72
     1
  1
28
  7
SLDTEXTSTYLE0
 11
-7.044195017643634E-15
 21
1.0
 31
0.0
 73
     1
 44
1.0
  0
ENDBLK
  5
117
330
115
100
AcDbEntity
  8
0
100
AcDbBlockEnd
  0
BLOCK
  5
121
330
120
100
AcDbEntity
  8
0
100
AcDbBlockBegin
  2
_D_1
 70
     0
 10
0.0
 20
0.0
 30
0.0
  3
_D_1
  1

  0
SOLID
  5
123
330
120
100
AcDbEntity
  8
VERMASSUNG
100
AcDbTrace
 10
249.5128952014
 20
137.6393637691
 30
0.0
 11
249.0628952014
 21
134.6393637691
 31
0.0
 12
249.9628952014
 22
134.6393637691
 32
0.0
 13
249.9628952014
 23
134.6393637691
 33
0.0
  0
SOLID
  5
124
330
120
100
AcDbEntity
  8
VERMASSUNG
100
AcDbTrace
 10
249.5128952014
 20
87.6393637691
 30
0.0
 11
249.9628952014
 21
90.6393637691
 31
0.0
 12
249.0628952014
 22
90.6393637691
 32
0.0
 13
249.0628952014
 23
90.6393637691
 33
0.0
  0
LINE
  5
125
330
120
100
AcDbEntity
  8
VERMASSUNG
100
AcDbLine
 10
232.9436876783
 20
137.6393637691
 30
0.0
 11
250.5128952014
 21
137.6393637691
 31
0.0
  0
LINE
  5
126
330
120
100
AcDbEntity
  8
VERMASSUNG
100
AcDbLine
 10
232.9436876783
 20
87.6393637691
 30
0.0
 11
250.5128952014
 21
87.6393637691
 31
0.0
  0
LINE
  5
127
330
120
100
AcDbEntity
  8
VERMASSUNG
100
AcDbLine
 10
249.5128952014
 20
137.6393637691
 30
0.0
 11
249.5128952014
 21
87.6393637691
 31
0.0
  0
MTEXT
  5
128
330
120
100
AcDbEntity
  8
VERMASSUNG
100
AcDbMText
 10
246.7347599452
 20
106.5354358598
 30
0.0
 40
2.0
 41
0.0
 71
     1
 72
     1
  1
ST5
  7
SLDTEXTSTYLE0
 11
-7.044195017643634E-15
 21
1.0
 31
0.0
 73
     1
 44
1.0
  0
MTEXT
  5
129
330
120
100
AcDbEntity
  8
VERMASSUNG
100
AcDbMText
 10
246.9347598965
 20
112.335435786
 30
0.0
 40
2.0
 41
0.0
 71
     1
 72
     1
  1
%%c
  7
SLDTEXTSTYLE0
 11
-7.044195017643634E-15
 21
1.0
 31
0.0
 73
     1
 44
1.0
  0
MTEXT
  5
12A
330
120
100
AcDbEntity
  8
VERMASSUNG
100
AcDbMText
 10
246.9347596054
 20
115.9439116579
 30
0.0
 40
2.0
 41
0.0
 71
     1
 72
     1
  1
50
  7
SLDTEXTSTYLE0
 11
-7.044195017643634E-15
 21
1.0
 31
0.0
 73
     1
 44
1.0
  0
ENDBLK
  5
122
330
120
100
AcDbEntity
  8
0
100
AcDbBlockEnd
  0
BLOCK
  5
12D
330
12C
100
AcDbEntity
  8
0
100
AcDbBlockBegin
  2
_D_2
 70
     0
 10
0.0
 20
0.0
 30
0.0
  3
_D_2
  1

  0
ARC
  5
12F
330
12C
100
AcDbEntity
  8
VERMASSUNG
100
AcDbCircle
 10
217.1559147638
 20
169.9567527921
 30
0.0
 40
4.247059938537335
100
AcDbArc
 50
153.4349488229
 51
206.5650511771
  0
ARC
  5
130
330
12C
100
AcDbEntity
  8
VERMASSUNG
100
AcDbCircle
 10
215.7314605929
 20
169.9567527921
 30
0.0
 40
4.247059938537335
100
AcDbArc
 50
333.4349488229
 51
26.5650511771
  0
SOLID
  5
131
330
12C
100
AcDbEntity
  8
VERMASSUNG
100
AcDbTrace
 10
199.4436876783
 20
168.0574098467
 30
0.0
 11
202.4436876783
 21
167.6074098467
 31
0.0
 12
202.4436876783
 22
168.5074098467
 32
0.0
 13
202.4436876783
 23
168.5074098467
 33
0.0
  0
SOLID
  5
132
330
12C
100
AcDbEntity
  8
VERMASSUNG
100
AcDbTrace
 10
233.4436876783
 20
168.0574098467
 30
0.0
 11
230.4436876783
 21
168.5074098467
 31
0.0
 12
230.4436876783
 22
167.6074098467
 32
0.0
 13
230.4436876783
 23
167.6074098467
 33
0.0
  0
LINE
  5
133
330
12C
100
AcDbEntity
  8
VERMASSUNG
100
AcDbLine
 10
199.4436876783
 20
161.6393637691
 30
0.0
 11
199.4436876783
 21
169.0574098467
 31
0.0
  0
LINE
  5
134
330
12C
100
AcDbEntity
  8
VERMASSUNG
100
AcDbLine
 10
233.4436876783
 20
137.1393637691
 30
0.0
 11
233.4436876783
 21
169.0574098467
 31
0.0
  0
LINE
  5
135
330
12C
100
AcDbEntity
  8
VERMASSUNG
100
AcDbLine
 10
199.4436876783
 20
168.0574098467
 30
0.0
 11
233.4436876783
 21
168.0574098467
 31
0.0
  0
MTEXT
  5
136
330
12C
100
AcDbEntity
  8
VERMASSUNG
100
AcDbMText
 10
214.944728873
 20
170.6355454426
 30
0.0
 40
2.0
 41
0.0
 71
     1
 72
     1
  1
34
  7
SLDTEXTSTYLE0
 73
     1
 44
1.0
  0
ENDBLK
  5
12E
330
12C
100
AcDbEntity
  8
0
100
AcDbBlockEnd
  0
BLOCK
  5
139
330
138
100
AcDbEntity
  8
0
100
AcDbBlockBegin
  2
_D_3
 70
     0
 10
0.0
 20
0.0
 30
0.0
  3
_D_3
  1

  0
SOLID
  5
13B
330
138
100
AcDbEntity
  8
VERMASSUNG
100
AcDbTrace
 10
161.4436876783
 20
174.0574098467
 30
0.0
 11
164.4436876783
 21
173.6074098467
 31
0.0
 12
164.4436876783
 22
174.5074098467
 32
0.0
 13
164.4436876783
 23
174.5074098467
 33
0.0
  0
SOLID
  5
13C
330
138
100
AcDbEntity
  8
VERMASSUNG
100
AcDbTrace
 10
233.4436876783
 20
174.0574098467
 30
0.0
 11
230.4436876783
 21
174.5074098467
 31
0.0
 12
230.4436876783
 22
173.6074098467
 32
0.0
 13
230.4436876783
 23
173.6074098467
 33
0.0
  0
LINE
  5
13D
330
138
100
AcDbEntity
  8
VERMASSUNG
100
AcDbLine
 10
161.4436876783
 20
147.5643637691
 30
0.0
 11
161.4436876783
 21
175.0574098467
 31
0.0
  0
LINE
  5
13E
330
138
100
AcDbEntity
  8
VERMASSUNG
100
AcDbLine
 10
233.4436876783
 20
137.1393637691
 30
0.0
 11
233.4436876783
 21
175.0574098467
 31
0.0
  0
LINE
  5
13F
330
138
100
AcDbEntity
  8
VERMASSUNG
100
AcDbLine
 10
161.4436876783
 20
174.0574098467
 30
0.0
 11
233.4436876783
 21
174.0574098467
 31
0.0
  0
MTEXT
  5
140
330
138
100
AcDbEntity
  8
VERMASSUNG
100
AcDbMText
 10
196.043997668
 20
176.6355454426
 30
0.0
 40
2.0
 41
0.0
 71
     1
 72
     1
  1
72
  7
SLDTEXTSTYLE0
 73
     1
 44
1.0
  0
ENDBLK
  5
13A
330
138
100
AcDbEntity
  8
0
100
AcDbBlockEnd
  0
BLOCK
  5
143
330
142
100
AcDbEntity
  8
0
100
AcDbBlockBegin
  2
_D_4
 70
     0
 10
0.0
 20
0.0
 30
0.0
  3
_D_4
  1

  0
ARC
  5
145
330
142
100
AcDbEntity
  8
VERMASSUNG
100
AcDbCircle
 10
145.8551217669
 20
181.9567527921
 30
0.0
 40
4.247059938537272
100
AcDbArc
 50
153.4349488229
 51
206.5650511771
  0
ARC
  5
146
330
142
100
AcDbEntity
  8
VERMASSUNG
100
AcDbCircle
 10
147.2322535898
 20
181.9567527921
 30
0.0
 40
4.247059938537272
100
AcDbArc
 50
333.4349488229
 51
26.5650511771
  0
SOLID
  5
147
330
142
100
AcDbEntity
  8
VERMASSUNG
100
AcDbTrace
 10
59.6436876783
 20
180.0574098467
 30
0.0
 11
62.6436876783
 21
179.6074098467
 31
0.0
 12
62.6436876783
 22
180.5074098467
 32
0.0
 13
62.6436876783
 23
180.5074098467
 33
0.0
  0
SOLID
  5
148
330
142
100
AcDbEntity
  8
VERMASSUNG
100
AcDbTrace
 10
233.4436876783
 20
180.0574098467
 30
0.0
 11
230.4436876783
 21
180.5074098467
 31
0.0
 12
230.4436876783
 22
179.6074098467
 32
0.0
 13
230.4436876783
 23
179.6074098467
 33
0.0
  0
LINE
  5
149
330
142
100
AcDbEntity
  8
VERMASSUNG
100
AcDbLine
 10
59.6436876783
 20
130.9890416299
 30
0.0
 11
59.6436876783
 21
181.0574098467
 31
0.0
  0
LINE
  5
14A
330
142
100
AcDbEntity
  8
VERMASSUNG
100
AcDbLine
 10
233.4436876783
 20
137.1393637691
 30
0.0
 11
233.4436876783
 21
181.0574098467
 31
0.0
  0
LINE
  5
14B
330
142
100
AcDbEntity
  8
VERMASSUNG
100
AcDbLine
 10
59.6436876783
 20
180.0574098467
 30
0.0
 11
233.4436876783
 21
180.0574098467
 31
0.0
  0
MTEXT
  5
14C
330
142
100
AcDbEntity
  8
VERMASSUNG
100
AcDbMText
 10
143.6439358761
 20
182.6355454426
 30
0.0
 40
2.0
 41
0.0
 71
     1
 72
     1
  1
173.8
  7
SLDTEXTSTYLE0
 73
     1
 44
1.0
  0
ENDBLK
  5
144
330
142
100
AcDbEntity
  8
0
100
AcDbBlockEnd
  0
BLOCK
  5
14F
330
14E
100
AcDbEntity
  8
0
100
AcDbBlockBegin
  2
_D_5
 70
     0
 10
0.0
 20
0.0
 30
0.0
  3
_D_5
  1

  0
SOLID
  5
151
330
14E
100
AcDbEntity
  8
VERMASSUNG
100
AcDbTrace
 10
49.6436876783
 20
162.6393637691
 30
0.0
 11
49.1936876783
 21
159.6393637691
 31
0.0
 12
50.0936876783
 22
159.6393637691
 32
0.0
 13
50.0936876783
 23
159.6393637691
 33
0.0
  0
SOLID
  5
152
330
14E
100
AcDbEntity
  8
VERMASSUNG
100
AcDbTrace
 10
49.6436876783
 20
62.6393637691
 30
0.0
 11
50.0936876783
 21
65.6393637691
 31
0.0
 12
49.1936876783
 22
65.6393637691
 32
0.0
 13
49.1936876783
 23
65.6393637691
 33
0.0
  0
LINE
  5
153
330
14E
100
AcDbEntity
  8
VERMASSUNG
100
AcDbLine
 10
195.4436895869
 20
162.6393637691
 30
0.0
 11
48.6436876783
 21
162.6393637691
 31
0.0
  0
LINE
  5
154
330
14E
100
AcDbEntity
  8
VERMASSUNG
100
AcDbLine
 10
195.4436897404
 20
62.6393637691
 30
0.0
 11
48.6436876783
 21
62.6393637691
 31
0.0
  0
LINE
  5
155
330
14E
100
AcDbEntity
  8
VERMASSUNG
100
AcDbLine
 10
49.6436876783
 20
162.6393637691
 30
0.0
 11
49.6436876783
 21
62.6393637691
 31
0.0
  0
MTEXT
  5
156
330
14E
100
AcDbEntity
  8
VERMASSUNG
100
AcDbMText
 10
46.8655524221
 20
101.5355975487
 30
0.0
 40
2.0
 41
0.0
 71
     1
 72
     1
  1
MAS BT 50
  7
SLDTEXTSTYLE0
 11
-7.044195017643634E-15
 21
1.0
 31
0.0
 73
     1
 44
1.0
  0
MTEXT
  5
157
330
14E
100
AcDbEntity
  8
VERMASSUNG
100
AcDbMText
 10
47.0655523734
 20
116.3355975532
 30
0.0
 40
2.0
 41
0.0
 71
     1
 72
     1
  1
%%c
  7
SLDTEXTSTYLE0
 11
-7.044195017643634E-15
 21
1.0
 31
0.0
 73
     1
 44
1.0
  0
MTEXT
  5
158
330
14E
100
AcDbEntity
  8
VERMASSUNG
100
AcDbMText
 10
47.0655520823
 20
119.9444440987
 30
0.0
 40
2.0
 41
0.0
 71
     1
 72
     1
  1
100
  7
SLDTEXTSTYLE0
 11
-7.044195017643634E-15
 21
1.0
 31
0.0
 73
     1
 44
1.0
  0
ENDBLK
  5
150
330
14E
100
AcDbEntity
  8
0
100
AcDbBlockEnd
  0
ENDSEC
  0
SECTION
  2
ENTITIES
  0
MTEXT
  5
78
330
1F
100
AcDbEntity
  8
KOPF_DÜNN
100
AcDbMText
 10
13.8892156294
 20
23.8442973028
 30
0.0
 40
3.0
 41
0.0
 71
     1
 72
     1
  1
134.550.050.072
  7
SLDTEXTSTYLE0
 73
     1
 44
1.0
  0
MTEXT
  5
79
330
1F
100
AcDbEntity
  8
VERMASSUNG
100
AcDbMText
 10
13.9329988022
 20
28.8834360957
 30
0.0
 40
3.0
 41
0.0
 71
     1
 72
     1
  1
Aufnahme_Master shank ST5
  7
SLDTEXTSTYLE0
 73
     1
 44
1.0
  0
MTEXT
  5
7A
330
1F
100
AcDbEntity
  8
VERMASSUNG
100
AcDbMText
 10
98.8601118557
 20
13.8365368761
 30
0.0
 40
2.0
 41
0.0
 71
     1
 72
     1
  1
Datum: 06.06.2008
  7
SLDTEXTSTYLE0
 73
     1
 44
1.0
  0
MTEXT
  5
7C
330
1F
100
AcDbEntity
  8
VERMASSUNG
100
AcDbMText
 10
13.933048693
 20
18.0482802738
 30
0.0
 40
2.0
 41
0.0
 71
     1
 72
     1
  1
MAS BT 50 A/D
  7
SLDTEXTSTYLE1
 73
     1
 44
1.0
  0
MTEXT
  5
7D
330
1F
100
AcDbEntity
  8
VERMASSUNG
100
AcDbMText
 10
13.9808475933
 20
13.9090974274
 30
0.0
 40
2.0
 41
0.0
 71
     1
 72
     1
  1
Gewicht: 4010g
  7
SLDTEXTSTYLE0
 73
     1
 44
1.0
  0
LINE
  5
7E
330
1F
100
AcDbEntity
  8
0
  6
Continuous
 62
     7
370
    15
100
AcDbLine
 10
195.4434004516
 20
62.6393637691
 30
0.0
 11
198.4436876783
 21
62.6393637691
 31
0.0
  0
LINE
  5
7F
330
1F
100
AcDbEntity
  8
0
  6
Continuous
 62
     7
370
    15
100
AcDbLine
 10
198.4436876783
 20
162.6393637691
 30
0.0
 11
195.4432534974
 21
162.6393637691
 31
0.0
  0
ARC
  5
80
330
1F
100
AcDbEntity
  8
0
  6
Continuous
 62
     7
370
    15
100
AcDbCircle
 10
198.4436876783
 20
63.6393637691
 30
0.0
 40
1.000000000000007
100
AcDbArc
 50
270.0
 51
0.0
  0
ARC
  5
81
330
1F
100
AcDbEntity
  8
0
  6
Continuous
 62
     7
370
    15
100
AcDbCircle
 10
198.4436876783
 20
161.6393637691
 30
0.0
 40
1.0
100
AcDbArc
 50
0.0
 51
90.0
  0
ARC
  5
82
330
1F
100
AcDbEntity
  8
0
  6
Continuous
 62
     7
370
    15
100
AcDbCircle
 10
163.4436876783
 20
76.7143637691
 30
0.0
 40
1.000000000000015
100
AcDbArc
 50
38.7221169674
 51
90.0
  0
ARC
  5
83
330
1F
100
AcDbEntity
  8
0
  6
Continuous
 62
     7
370
    15
100
AcDbCircle
 10
163.4436876783
 20
148.5643637691
 30
0.0
 40
1.000000000000009
100
AcDbArc
 50
270.0
 51
321.2888489183
  0
LINE
  5
84
330
1F
100
AcDbEntity
  8
0
  6
Continuous
 62
     7
370
    15
100
AcDbLine
 10
161.4436876783
 20
77.7143637691
 30
0.0
 11
163.4436876783
 21
77.7143637691
 31
0.0
  0
LINE
  5
85
330
1F
100
AcDbEntity
  8
0
  6
Continuous
 62
     7
370
    15
100
AcDbLine
 10
163.4436876783
 20
147.5643637691
 30
0.0
 11
161.4436876783
 21
147.5643637691
 31
0.0
  0
LINE
  5
86
330
1F
100
AcDbEntity
  8
0
  6
Continuous
 62
     7
370
    15
100
AcDbLine
 10
161.4436876783
 20
147.5643637691
 30
0.0
 11
61.3550738922
 21
132.968107592
 31
0.0
  0
LINE
  5
87
330
1F
100
AcDbEntity
  8
0
  6
Continuous
 62
     7
370
    15
100
AcDbLine
 10
61.3550738922
 20
92.3106199463
 30
0.0
 11
161.4436876783
 21
77.7143637691
 31
0.0
  0
ARC
  5
88
330
1F
100
AcDbEntity
  8
0
  6
Continuous
 62
     7
370
    15
100
AcDbCircle
 10
203.4436876783
 20
83.6393637691
 30
0.0
 40
4.0
100
AcDbArc
 50
90.0
 51
180.0
  0
ARC
  5
89
330
1F
100
AcDbEntity
  8
0
  6
Continuous
 62
     7
370
    15
100
AcDbCircle
 10
203.4436876783
 20
141.6393637691
 30
0.0
 40
4.0
100
AcDbArc
 50
180.0
 51
270.0
  0
LINE
  5
8A
330
1F
100
AcDbEntity
  8
0
  6
Continuous
 62
     7
370
    15
100
AcDbLine
 10
232.9436876783
 20
137.6393637691
 30
0.0
 11
203.4436876783
 21
137.6393637691
 31
0.0
  0
LINE
  5
8B
330
1F
100
AcDbEntity
  8
0
  6
Continuous
 62
     7
370
    15
100
AcDbLine
 10
203.4436876783
 20
87.6393637691
 30
0.0
 11
232.9436876783
 21
87.6393637691
 31
0.0
  0
LINE
  5
8C
330
1F
100
AcDbEntity
  8
0
  6
Continuous
 62
     7
370
    15
100
AcDbLine
 10
232.9436876783
 20
87.6393637691
 30
0.0
 11
233.4436876783
 21
88.1393637691
 31
0.0
  0
LINE
  5
8D
330
1F
100
AcDbEntity
  8
0
  6
Continuous
 62
     7
370
    15
100
AcDbLine
 10
233.4436876783
 20
137.1393637691
 30
0.0
 11
232.9436876783
 21
137.6393637691
 31
0.0
  0
ARC
  5
8E
330
1F
100
AcDbEntity
  8
0
  6
Continuous
 62
     7
370
    15
100
AcDbCircle
 10
61.6436876783
 20
94.2896859084
 30
0.0
 40
2.000000000000007
100
AcDbArc
 50
180.0
 51
261.7028550302
  0
ARC
  5
8F
330
1F
100
AcDbEntity
  8
0
  6
Continuous
 62
     7
370
    15
100
AcDbCircle
 10
61.6436876783
 20
130.9890416299
 30
0.0
 40
2.000000000000021
100
AcDbArc
 50
98.2971449698
 51
180.0
  0
SPLINE
  5
90
330
1F
100
AcDbEntity
  8
0
  6
Continuous
 62
     7
370
    15
100
AcDbSpline
210
0.0
220
0.0
230
1.0
 70
    24
 71
     3
 72
    13
 73
     9
 74
     0
 42
0.000000001
 43
0.00000001
 40
0.0
 40
0.0
 40
0.0
 40
0.0
 40
0.1281940639112338
 40
0.3016059688761545
 40
0.4802226824374566
 40
0.6449624637538081
 40
0.8155900900874846
 40
1.0
 40
1.0
 40
1.0
 40
1.0
 10
217.9115144080413
 20
111.1655424809518
 30
0.0
 10
217.9100918862911
 20
111.2819300975254
 30
0.0
 10
217.9067450772609
 20
111.5557586882641
 30
0.0
 10
217.9011099366902
 20
112.0168135578805
 30
0.0
 10
217.8947795661085
 20
112.5347506255658
 30
0.0
 10
217.8884511245064
 20
113.0525298683604
 30
0.0
 10
217.8822491383562
 20
113.559962802819
 30
0.0
 10
217.8782905143534
 20
113.883848755717
 30
0.0
 10
217.8762343669854
 20
114.0520782337247
 30
0.0
  0
SPLINE
  5
91
330
1F
100
AcDbEntity
  8
0
  6
Continuous
 62
     7
370
    15
100
AcDbSpline
210
0.0
220
0.0
230
1.0
 70
    24
 71
     3
 72
    12
 73
     8
 74
     0
 42
0.000000001
 43
0.00000001
 40
0.0
 40
0.0
 40
0.0
 40
0.0
 40
0.2161846684386963
 40
0.439760510160024
 40
0.5934164929481138
 40
0.7522078034353514
 40
1.0
 40
1.0
 40
1.0
 40
1.0
 10
220.4289677194027
 20
109.7528280163664
 30
0.0
 10
220.2565981472582
 20
109.8495563198165
 30
0.0
 10
219.9059658312398
 20
110.046319986636
 30
0.0
 10
219.3904745540819
 20
110.3355972416786
 30
0.0
 10
218.9191763451896
 20
110.6000747570433
 30
0.0
 10
218.4351227749411
 20
110.8717101741682
 30
0.0
 10
218.1097889873949
 20
111.0542771141034
 30
0.0
 10
217.9115144080413
 20
111.1655424809518
 30
0.0
  0
SPLINE
  5
92
330
1F
100
AcDbEntity
  8
0
  6
Continuous
 62
     7
370
    15
100
AcDbSpline
210
0.0
220
0.0
230
1.0
 70
    24
 71
     3
 72
    12
 73
     8
 74
     0
 42
0.000000001
 43
0.00000001
 40
0.0
 40
0.0
 40
0.0
 40
0.0
 40
0.2161846684386937
 40
0.4397605101600234
 40
0.5934164929481096
 40
0.7522078034353537
 40
1.0
 40
1.0
 40
1.0
 40
1.0
 10
222.9111409897081
 20
111.2266493045539
 30
0.0
 10
222.7411870355831
 20
111.1257370279623
 30
0.0
 10
222.3954685435664
 20
110.9204623683123
 30
0.0
 10
221.8872014533836
 20
110.6186724543857
 30
0.0
 10
221.4225081019018
 20
110.3427549904091
 30
0.0
 10
220.9452381449798
 20
110.0593700103439
 30
0.0
 10
220.6244636433316
 20
109.868906155587
 30
0.0
 10
220.4289677194027
 20
109.7528280163664
 30
0.0
  0
SPLINE
  5
93
330
1F
100
AcDbEntity
  8
0
  6
Continuous
 62
     7
370
    15
100
AcDbSpline
210
0.0
220
0.0
230
1.0
 70
    24
 71
     3
 72
    13
 73
     9
 74
     0
 42
0.000000001
 43
0.00000001
 40
0.0
 40
0.0
 40
0.0
 40
0.0
 40
0.1844095697098938
 40
0.3495005370884465
 40
0.5197705331556598
 40
0.6927076360809672
 40
0.8718061725834138
 40
1.0
 40
1.0
 40
1.0
 40
1.0
 10
222.8758609486522
 20
114.1131850573268
 30
0.0
 10
222.8779171627367
 20
113.9449501207268
 30
0.0
 10
222.881814183526
 20
113.6261044079407
 30
0.0
 10
222.8880088797326
 20
113.1192679207161
 30
0.0
 10
222.8942687503373
 20
112.6070990068643
 30
0.0
 10
222.9006667225041
 20
112.0836309254272
 30
0.0
 10
222.9063086943011
 20
111.6220171398269
 30
0.0
 10
222.9097185096025
 20
111.3430335138571
 30
0.0
 10
222.9111409897081
 20
111.2266493045539
 30
0.0
  0
SPLINE
  5
94
330
1F
100
AcDbEntity
  8
0
  6
Continuous
 62
     7
370
    15
100
AcDbSpline
210
0.0
220
0.0
230
1.0
 70
    24
 71
     3
 72
    11
 73
     7
 74
     0
 42
0.000000001
 43
0.00000001
 40
0.0
 40
0.0
 40
0.0
 40
0.0
 40
0.2164543009645076
 40
0.4403089937225415
 40
0.7518987489759507
 40
0.9999999999999999
 40
0.9999999999999999
 40
0.9999999999999999
 40
0.9999999999999999
 10
220.3584076372908
 20
115.5258995219123
 30
0.0
 10
220.5308547536592
 20
115.4291277031181
 30
0.0
 10
220.8816448092977
 20
115.2322755178575
 30
0.0
 10
221.5326189623808
 20
114.8669695962019
 30
0.0
 10
222.2309089013088
 20
114.475111565411
 30
0.0
 10
222.6777736206912
 20
114.224345344669
 30
0.0
 10
222.8758609486522
 20
114.1131850573268
 30
0.0
  0
SPLINE
  5
95
330
1F
100
AcDbEntity
  8
0
  6
Continuous
 62
     7
370
    15
100
AcDbSpline
210
0.0
220
0.0
230
1.0
 70
    24
 71
     3
 72
    12
 73
     8
 74
     0
 42
0.000000001
 43
0.00000001
 40
0.0
 40
0.0
 40
0.0
 40
0.0
 40
0.216184668438694
 40
0.4397605101600236
 40
0.5934164929481097
 40
0.7522078034353538
 40
1.0
 40
1.0
 40
1.0
 40
1.0
 10
217.8762343669854
 20
114.0520782337247
 30
0.0
 10
218.0461883211105
 20
114.1529905103163
 30
0.0
 10
218.3919068131272
 20
114.3582651699663
 30
0.0
 10
218.90017390331
 20
114.660055083893
 30
0.0
 10
219.3648672547918
 20
114.9359725478695
 30
0.0
 10
219.8421372117137
 20
115.2193575279347
 30
0.0
 10
220.162911713362
 20
115.4098213826916
 30
0.0
 10
220.3584076372908
 20
115.5258995219123
 30
0.0
  0
CIRCLE
  5
96
330
1F
100
AcDbEntity
  8
0
  6
Continuous
 62
     7
370
    15
100
AcDbCircle
 10
220.3936876783
 20
112.6393637691
 30
0.0
 40
3.000000000000001
  0
CIRCLE
  5
97
330
1F
100
AcDbEntity
  8
0
  6
Continuous
 62
     7
370
    15
100
AcDbCircle
 10
220.3936876783
 20
112.6393637691
 30
0.0
 40
4.500000000000002
  0
ARC
  5
98
330
1F
100
AcDbEntity
  8
0
  6
Continuous
 62
     7
370
    15
100
AcDbCircle
 10
220.3936876783
 20
112.6393637691
 30
0.0
 40
2.500000000000007
100
AcDbArc
 50
60.7002500509
 51
120.7002500509
  0
ARC
  5
99
330
1F
100
AcDbEntity
  8
0
  6
Continuous
 62
     7
370
    15
100
AcDbCircle
 10
220.3936876783
 20
112.6393637691
 30
0.0
 40
2.500000000000007
100
AcDbArc
 50
0.7002500509
 51
60.7002500509
  0
ARC
  5
9A
330
1F
100
AcDbEntity
  8
0
  6
Continuous
 62
     7
370
    15
100
AcDbCircle
 10
220.3936876783
 20
112.6393637691
 30
0.0
 40
2.500000000000001
100
AcDbArc
 50
180.7002500509
 51
240.7002500509
  0
ARC
  5
9B
330
1F
100
AcDbEntity
  8
0
  6
Continuous
 62
     7
370
    15
100
AcDbCircle
 10
220.3936876783
 20
112.6393637691
 30
0.0
 40
2.500000000000001
100
AcDbArc
 50
120.7002500509
 51
180.7002500509
  0
ARC
  5
9C
330
1F
100
AcDbEntity
  8
0
  6
Continuous
 62
     7
370
    15
100
AcDbCircle
 10
220.3936876783
 20
112.6393637691
 30
0.0
 40
2.500000000000002
100
AcDbArc
 50
240.7002500509
 51
300.7002500509
  0
ARC
  5
9D
330
1F
100
AcDbEntity
  8
0
  6
Continuous
 62
     7
370
    15
100
AcDbCircle
 10
220.3936876783
 20
112.6393637691
 30
0.0
 40
2.500000000000002
100
AcDbArc
 50
300.7002500509
 51
0.7002500509
  0
SPLINE
  5
9E
330
1F
100
AcDbEntity
  8
0
  6
Continuous
 62
     7
370
    15
100
AcDbSpline
210
0.0
220
0.0
230
1.0
 70
     8
 71
     3
 72
    12
 73
     8
 74
     0
 42
0.000000001
 43
0.00000001
 40
0.0
 40
0.0
 40
0.0
 40
0.0
 40
0.5000000000000001
 40
0.5000000000000001
 40
0.75
 40
0.75
 40
1.0
 40
1.0
 40
1.0
 40
1.0
 10
191.5279673431902
 20
160.8454107208403
 30
0.0
 10
190.9890706480926
 20
159.7877109033392
 30
0.0
 10
190.426739837373
 20
158.6853424683806
 30
0.0
 10
189.5580735947825
 20
156.9853778620178
 30
0.0
 10
189.26374487244
 20
156.4098594465792
 30
0.0
 10
188.6702138734723
 20
155.2504307781207
 30
0.0
 10
188.3709876153538
 20
154.6664711090394
 30
0.0
 10
188.0695007671004
 20
154.0787611484506
 30
0.0
  0
SPLINE
  5
9F
330
1F
100
AcDbEntity
  8
0
  6
Continuous
 62
     7
370
    15
100
AcDbSpline
210
0.0
220
0.0
230
1.0
 70
     8
 71
     3
 72
     9
 73
     5
 74
     0
 42
0.000000001
 43
0.00000001
 40
0.0
 40
0.0
 40
0.0
 40
0.0
 40
0.504794330390352
 40
1.0
 40
1.0
 40
1.0
 40
1.0
 10
192.1686640837589
 20
161.7994690192267
 30
0.0
 10
192.0602816492581
 20
161.6386274579374
 30
0.0
 10
191.845575524455
 20
161.3199995502807
 30
0.0
 10
191.6331480956435
 20
161.0026253236929
 30
0.0
 10
191.5279528285154
 20
160.8454598072987
 30
0.0
  0
LINE
  5
A0
330
1F
100
AcDbEntity
  8
0
  6
Continuous
 62
     7
370
    15
100
AcDbLine
 10
192.1686876783
 20
63.4792024838
 30
0.0
 11
192.1686876783
 21
161.7995250545
 31
0.0
  0
SPLINE
  5
A1
330
1F
100
AcDbEntity
  8
0
  6
Continuous
 62
     7
370
    15
100
AcDbSpline
210
0.0
220
0.0
230
1.0
 70
     8
 71
     3
 72
     9
 73
     5
 74
     0
 42
0.000000001
 43
0.00000001
 40
0.0
 40
0.0
 40
0.0
 40
0.0
 40
0.4952056715554214
 40
1.0
 40
1.0
 40
1.0
 40
1.0
 10
191.5279528285155
 20
64.4332677309799
 30
0.0
 10
191.6331480960604
 20
64.27610221396158
 30
0.0
 10
191.8455755248789
 20
63.95872798736058
 30
0.0
 10
192.060281649678
 20
63.64010007971535
 30
0.0
 10
192.1686640837589
 20
63.47925851905188
 30
0.0
  0
SPLINE
  5
A2
330
1F
100
AcDbEntity
  8
0
  6
Continuous
 62
     7
370
    15
100
AcDbSpline
210
0.0
220
0.0
230
1.0
 70
     8
 71
     3
 72
    12
 73
     8
 74
     0
 42
0.000000001
 43
0.00000001
 40
0.0
 40
0.0
 40
0.0
 40
0.0
 40
0.2499999999999993
 40
0.2499999999999993
 40
0.4999999999999986
 40
0.4999999999999986
 40
1.0
 40
1.0
 40
1.0
 40
1.0
 10
191.5279673109513
 20
64.43331688071407
 30
0.0
 10
191.2586297895825
 20
64.96194926939872
 30
0.0
 10
190.9828596721884
 20
65.50287392334542
 30
0.0
 10
190.4205993855826
 20
66.60493067770848
 30
0.0
 10
190.1335140121779
 20
67.1672275169453
 30
0.0
 10
189.2630875714586
 20
68.87062275226529
 30
0.0
 10
188.6710775752893
 20
70.0272695233474
 30
0.0
 10
188.0695007671004
 20
71.19996638982803
 30
0.0
  0
SPLINE
  5
A3
330
1F
100
AcDbEntity
  8
0
  6
Continuous
 62
     7
370
    15
100
AcDbSpline
210
0.0
220
0.0
230
1.0
 70
     8
 71
     3
 72
    12
 73
     8
 74
     0
 42
0.000000001
 43
0.00000001
 40
0.0
 40
0.0
 40
0.0
 40
0.0
 40
0.000512515335492
 40
0.2509311781568301
 40
0.5009716914398246
 40
0.7506335204405247
 40
1.0
 40
1.0
 40
1.0
 40
1.0
 10
195.4432534974166
 20
162.6392387269557
 30
0.0
 10
195.4433979541035
 20
162.639280400273
 30
0.0
 10
195.5141249823976
 20
162.659683954862
 30
0.0
 10
195.2708614221411
 20
162.5880723234733
 30
0.0
 10
194.6653368079091
 20
162.4197191150025
 30
0.0
 10
193.640173123486
 20
162.1423855245456
 30
0.0
 10
192.6589892562642
 20
161.9137667752217
 30
0.0
 10
192.1686876790338
 20
161.7995250544571
 30
0.0
  0
SPLINE
  5
A4
330
1F
100
AcDbEntity
  8
0
  6
Continuous
 62
     7
370
    15
100
AcDbSpline
210
0.0
220
0.0
230
1.0
 70
     8
 71
     3
 72
    13
 73
     9
 74
     0
 42
0.000000001
 43
0.00000001
 40
0.0
 40
0.0
 40
0.0
 40
0.0
 40
0.249249238042121
 40
0.4988437701386194
 40
0.6658825660857411
 40
0.8320256711231946
 40
0.9994886337290221
 40
0.9999999999999999
 40
0.9999999999999999
 40
0.9999999999999999
 40
0.9999999999999999
 10
192.1686876790338
 20
63.4792024838215
 30
0.0
 10
192.6598724024535
 20
63.36471496013152
 30
0.0
 10
193.6429223053934
 20
63.13558130901203
 30
0.0
 10
194.5419657302035
 20
62.89237155786184
 30
0.0
 10
195.1002906308891
 20
62.73843435047646
 30
0.0
 10
195.3659618555983
 20
62.66218079162619
 30
0.0
 10
195.4748561016141
 20
62.63026660730367
 30
0.0
 10
195.4434959217957
 20
62.63941952124657
 30
0.0
 10
195.4434004516229
 20
62.63944738557264
 30
0.0
  0
LINE
  5
A5
330
1F
100
AcDbEntity
  8
0
  6
Continuous
 62
     7
370
    15
100
AcDbLine
 10
164.4436876783
 20
65.6374755092
 30
0.0
 11
164.4436876783
 21
159.6412520291
 31
0.0
  0
SPLINE
  5
A6
330
1F
100
AcDbEntity
  8
0
  6
Continuous
 62
     7
370
    15
100
AcDbSpline
210
0.0
220
0.0
230
1.0
 70
     8
 71
     3
 72
    12
 73
     8
 74
     0
 42
0.000000001
 43
0.00000001
 40
0.0
 40
0.0
 40
0.0
 40
0.0
 40
0.2500000000000004
 40
0.2500000000000004
 40
0.5000000000000009
 40
0.5000000000000009
 40
1.0
 40
1.0
 40
1.0
 40
1.0
 10
164.8298240983965
 20
160.5737975030106
 30
0.0
 10
164.7781939762867
 20
160.517593232296
 30
0.0
 10
164.7296617432963
 20
160.4563038217755
 30
0.0
 10
164.6398366063384
 20
160.3218417477308
 30
0.0
 10
164.598126333126
 20
160.247722677488
 30
0.0
 10
164.4919949529638
 20
160.0114150323195
 30
0.0
 10
164.4436876783468
 20
159.8295914896697
 30
0.0
 10
164.4436876783468
 20
159.6412520290805
 30
0.0
  0
SPLINE
  5
A7
330
1F
100
AcDbEntity
  8
0
  6
Continuous
 62
     7
370
    15
100
AcDbSpline
210
0.0
220
0.0
230
1.0
 70
     8
 71
     3
 72
     8
 73
     4
 74
     0
 42
0.000000001
 43
0.00000001
 40
0.0
 40
0.0
 40
0.0
 40
0.0
 40
1.0
 40
1.0
 40
1.0
 40
1.0
 10
165.4436876783468
 20
160.7444552646037
 30
0.0
 10
165.2167934346469
 20
160.7444552646037
 30
0.0
 10
164.9989437887206
 20
160.6804430976349
 30
0.0
 10
164.8298240983965
 20
160.5737975030106
 30
0.0
  0
SPLINE
  5
A8
330
1F
100
AcDbEntity
  8
0
  6
Continuous
 62
     7
370
    15
100
AcDbSpline
210
0.0
220
0.0
230
1.0
 70
     8
 71
     3
 72
    10
 73
     6
 74
     0
 42
0.000000001
 43
0.00000001
 40
0.0
 40
0.0
 40
0.0
 40
0.0
 40
0.5
 40
0.5
 40
1.0
 40
1.0
 40
1.0
 40
1.0
 10
164.8298240983965
 20
64.70493003526806
 30
0.0
 10
164.9144347391272
 20
64.65157520665538
 30
0.0
 10
165.0096693612338
 20
64.60900574470517
 30
0.0
 10
165.2197067204137
 20
64.54972341002421
 30
0.0
 10
165.3301386251978
 20
64.53427227367494
 30
0.0
 10
165.4436876783468
 20
64.53427227367494
 30
0.0
  0
SPLINE
  5
A9
330
1F
100
AcDbEntity
  8
0
  6
Continuous
 62
     7
370
    15
100
AcDbSpline
210
0.0
220
0.0
230
1.0
 70
     8
 71
     3
 72
    12
 73
     8
 74
     0
 42
0.000000001
 43
0.00000001
 40
0.0
 40
0.0
 40
0.0
 40
0.0
 40
0.2500000000000039
 40
0.2500000000000039
 40
0.5000000000000079
 40
0.5000000000000079
 40
1.0
 40
1.0
 40
1.0
 40
1.0
 10
164.8298240983965
 20
64.70493003526806
 30
0.0
 10
164.7781939762867
 20
64.7611343059827
 30
0.0
 10
164.7296617432962
 20
64.8224237165031
 30
0.0
 10
164.6398366063384
 20
64.95688579054782
 30
0.0
 10
164.598126333126
 20
65.03100486079063
 30
0.0
 10
164.4919949529638
 20
65.26731250595908
 30
0.0
 10
164.4436876783468
 20
65.44913604860898
 30
0.0
 10
164.4436876783468
 20
65.6374755091981
 30
0.0
  0
LINE
  5
AA
330
1F
100
AcDbEntity
  8
0
  6
Continuous
 62
     7
370
    15
100
AcDbLine
 10
199.4436876783
 20
63.6393637691
 30
0.0
 11
199.4436876783
 21
161.6393637595
 31
0.0
  0
LINE
  5
AB
330
1F
100
AcDbEntity
  8
0
  6
Continuous
 62
     7
370
    15
100
AcDbLine
 10
177.1186876783
 20
160.7444552646
 30
0.0
 11
165.4436876783
 21
160.7444552646
 31
0.0
  0
LINE
  5
AC
330
1F
100
AcDbEntity
  8
0
  6
Continuous
 62
     7
370
    15
100
AcDbLine
 10
177.1186876783
 20
64.5342722737
 30
0.0
 11
177.1186876783
 21
160.7444552646
 31
0.0
  0
LINE
  5
AD
330
1F
100
AcDbEntity
  8
0
  6
Continuous
 62
     7
370
    15
100
AcDbLine
 10
165.4436876783
 20
64.5342722737
 30
0.0
 11
177.1186876783
 21
64.5342722737
 31
0.0
  0
SPLINE
  5
AE
330
1F
100
AcDbEntity
  8
0
  6
Continuous
 62
     7
370
    15
100
AcDbSpline
210
0.0
220
0.0
230
1.0
 70
     8
 71
     3
 72
     8
 73
     4
 74
     0
 42
0.000000001
 43
0.00000001
 40
0.0
 40
0.0
 40
0.0
 40
0.0
 40
0.0012417047560384
 40
0.0012417047560384
 40
0.0012417047560384
 40
0.0012417047560384
 10
177.6762567148745
 20
159.9599339230603
 30
0.0
 10
177.49086816358
 20
160.2216070086089
 30
0.0
 10
177.3050019179721
 20
160.4831111174865
 30
0.0
 10
177.1186876783468
 20
160.7444552646037
 30
0.0
  0
SPLINE
  5
AF
330
1F
100
AcDbEntity
  8
0
  6
Continuous
 62
     7
370
    15
100
AcDbSpline
210
0.0
220
0.0
230
1.0
 70
     8
 71
     3
 72
     8
 73
     4
 74
     0
 42
0.000000001
 43
0.00000001
 40
0.0
 40
0.0
 40
0.0
 40
0.0
 40
1.0
 40
1.0
 40
1.0
 40
1.0
 10
181.2178745895931
 20
153.5696398493223
 30
0.0
 10
180.0428871136902
 20
155.7027166042582
 30
0.0
 10
178.8616405795938
 20
157.8324351701344
 30
0.0
 10
177.6762567148745
 20
159.9599339230603
 30
0.0
  0
SPLINE
  5
B0
330
1F
100
AcDbEntity
  8
0
  6
Continuous
 62
     7
370
    15
100
AcDbSpline
210
0.0
220
0.0
230
1.0
 70
     8
 71
     3
 72
     8
 73
     4
 74
     0
 42
0.000000001
 43
0.00000001
 40
0.0
 40
0.0
 40
0.0
 40
0.0
 40
1.0
 40
1.0
 40
1.0
 40
1.0
 10
181.2178745895931
 20
71.70908768895632
 30
0.0
 10
180.0428377917662
 20
69.57592139481098
 30
0.0
 10
178.8615905843271
 20
67.4462026378293
 30
0.0
 10
177.6762567148745
 20
65.31879361521834
 30
0.0
  0
SPLINE
  5
B1
330
1F
100
AcDbEntity
  8
0
  6
Continuous
 62
     7
370
    15
100
AcDbSpline
210
0.0
220
0.0
230
1.0
 70
     8
 71
     3
 72
     8
 73
     4
 74
     0
 42
0.000000001
 43
0.00000001
 40
0.0
 40
0.0
 40
0.0
 40
0.0
 40
0.0012417047560385
 40
0.0012417047560385
 40
0.0012417047560385
 40
0.0012417047560385
 10
177.1186876783468
 20
64.53427227367494
 30
0.0
 10
177.3050019179721
 20
64.79561642079219
 30
0.0
 10
177.49086816358
 20
65.05712052966977
 30
0.0
 10
177.6762567148745
 20
65.31879361521834
 30
0.0
  0
SPLINE
  5
B2
330
1F
100
AcDbEntity
  8
0
  6
Continuous
 62
     7
370
    15
100
AcDbSpline
210
0.0
220
0.0
230
1.0
 70
     8
 71
     3
 72
    12
 73
     8
 74
     0
 42
0.000000001
 43
0.00000001
 40
0.0
 40
0.0
 40
0.0
 40
0.0
 40
0.2499999999999951
 40
0.2499999999999951
 40
0.4999999999999902
 40
0.4999999999999902
 40
1.0
 40
1.0
 40
1.0
 40
1.0
 10
188.0695007671004
 20
154.0787611484506
 30
0.0
 10
188.0332803457135
 20
154.0081540803508
 30
0.0
 10
187.9903546710657
 20
153.9444194890251
 30
0.0
 10
187.8928280878067
 20
153.8286453127766
 30
0.0
 10
187.8373965681899
 20
153.7760974687651
 30
0.0
 10
187.6589086652858
 20
153.6419488655508
 30
0.0
 10
187.522071836638
 20
153.5814267634869
 30
0.0
 10
187.3766804440736
 20
153.5608801795586
 30
0.0
  0
SPLINE
  5
B3
330
1F
100
AcDbEntity
  8
0
  6
Continuous
 62
     7
370
    15
100
AcDbSpline
210
0.0
220
0.0
230
1.0
 70
     8
 71
     3
 72
    12
 73
     8
 74
     0
 42
0.000000001
 43
0.00000001
 40
0.0
 40
0.0
 40
0.0
 40
0.0
 40
0.2499999999999957
 40
0.2499999999999957
 40
0.4999999999999913
 40
0.4999999999999913
 40
1.0
 40
1.0
 40
1.0
 40
1.0
 10
188.0695007671004
 20
71.199966389828
 30
0.0
 10
188.0332803457135
 20
71.27057345792794
 30
0.0
 10
187.9903546710656
 20
71.33430804925366
 30
0.0
 10
187.8928280878066
 20
71.45008222550207
 30
0.0
 10
187.8373965681899
 20
71.5026300695135
 30
0.0
 10
187.6589086652857
 20
71.63677867272789
 30
0.0
 10
187.522071836638
 20
71.69730077479167
 30
0.0
 10
187.3766804440736
 20
71.71784735872008
 30
0.0
  0
SPLINE
  5
B4
330
1F
100
AcDbEntity
  8
0
  6
Continuous
 62
     7
370
    15
100
AcDbSpline
210
0.0
220
0.0
230
1.0
 70
     8
 71
     3
 72
    10
 73
     6
 74
     0
 42
0.000000001
 43
0.00000001
 40
0.0
 40
0.0
 40
0.0
 40
0.0
 40
0.5
 40
0.5
 40
1.0
 40
1.0
 40
1.0
 40
1.0
 10
181.5936876783467
 20
72.05983255499012
 30
0.0
 10
181.5146876100955
 20
72.02406832038224
 30
0.0
 10
181.4409303598189
 20
71.9745787168228
 30
0.0
 10
181.3128752366856
 20
71.85429022531983
 30
0.0
 10
181.260025202274
 20
71.7856080723305
 30
0.0
 10
181.2178745895931
 20
71.70908768895632
 30
0.0
  0
SPLINE
  5
B5
330
1F
100
AcDbEntity
  8
0
  6
Continuous
 62
     7
370
    15
100
AcDbSpline
210
0.0
220
0.0
230
1.0
 70
     8
 71
     3
 72
    10
 73
     6
 74
     0
 42
0.000000001
 43
0.00000001
 40
0.0
 40
0.0
 40
0.0
 40
0.0
 40
0.5
 40
0.5
 40
1.0
 40
1.0
 40
1.0
 40
1.0
 10
181.5936876783468
 20
153.2188949832884
 30
0.0
 10
181.514401230664
 20
153.254788865141
 30
0.0
 10
181.4408890115434
 20
153.3042905749919
 30
0.0
 10
181.3139365586728
 20
153.4233382716605
 30
0.0
 10
181.2598707099361
 20
153.4933999319288
 30
0.0
 10
181.2178745895931
 20
153.5696398493223
 30
0.0
  0
SPLINE
  5
B6
330
1F
100
AcDbEntity
  8
0
  6
Continuous
 62
     7
370
    15
100
AcDbSpline
210
0.0
220
0.0
230
1.0
 70
     8
 71
     3
 72
     8
 73
     4
 74
     0
 42
0.000000001
 43
0.00000001
 40
0.0
 40
0.0
 40
0.0
 40
0.0
 40
1.0
 40
1.0
 40
1.0
 40
1.0
 10
181.9106949126206
 20
153.151435964802
 30
0.0
 10
181.800993127319
 20
153.1505775476026
 30
0.0
 10
181.6936461063345
 20
153.1736426594774
 30
0.0
 10
181.5936876783467
 20
153.2188949832883
 30
0.0
  0
SPLINE
  5
B7
330
1F
100
AcDbEntity
  8
0
  6
Continuous
 62
     7
370
    15
100
AcDbSpline
210
0.0
220
0.0
230
1.0
 70
     8
 71
     3
 72
     8
 73
     4
 74
     0
 42
0.000000001
 43
0.00000001
 40
0.0
 40
0.0
 40
0.0
 40
0.0
 40
1.0
 40
1.0
 40
1.0
 40
1.0
 10
181.9106949126206
 20
72.12729157347667
 30
0.0
 10
181.8009931273189
 20
72.128149990676
 30
0.0
 10
181.6936461063344
 20
72.10508487880121
 30
0.0
 10
181.5936876783467
 20
72.0598325549903
 30
0.0
  0
SPLINE
  5
B8
330
1F
100
AcDbEntity
  8
0
  6
Continuous
 62
     7
370
    15
100
AcDbSpline
210
0.0
220
0.0
230
1.0
 70
     8
 71
     3
 72
    10
 73
     6
 74
     0
 42
0.000000001
 43
0.00000001
 40
0.0
 40
0.0
 40
0.0
 40
0.0
 40
0.5
 40
0.5
 40
1.0
 40
1.0
 40
1.0
 40
1.0
 10
187.3766804440729
 20
153.5608801795614
 30
0.0
 10
186.5291160773046
 20
153.4411031275003
 30
0.0
 10
185.6484026415827
 20
153.3424129478365
 30
0.0
 10
183.8208463903672
 20
153.2011405415994
 30
0.0
 10
182.8674139872659
 20
153.1589222979218
 30
0.0
 10
181.9106949126206
 20
153.151435964802
 30
0.0
  0
SPLINE
  5
B9
330
1F
100
AcDbEntity
  8
0
  6
Continuous
 62
     7
370
    15
100
AcDbSpline
210
0.0
220
0.0
230
1.0
 70
     8
 71
     3
 72
    10
 73
     6
 74
     0
 42
0.000000001
 43
0.00000001
 40
0.0
 40
0.0
 40
0.0
 40
0.0
 40
0.5
 40
0.5
 40
1.0
 40
1.0
 40
1.0
 40
1.0
 10
187.3766804440729
 20
71.71784735871726
 30
0.0
 10
186.5291160773046
 20
71.83762441077832
 30
0.0
 10
185.6484026415827
 20
71.93631459044214
 30
0.0
 10
183.8208463903672
 20
72.07758699667927
 30
0.0
 10
182.8674139872659
 20
72.11980524035687
 30
0.0
 10
181.9106949126206
 20
72.12729157347667
 30
0.0
  0
LINE
  5
BA
330
1F
100
AcDbEntity
  8
0
  6
Continuous
 62
     7
370
    15
100
AcDbLine
 10
161.4436876783
 20
77.7143637691
 30
0.0
 11
161.4436876783
 21
147.5643637691
 31
0.0
  0
SPLINE
  5
BB
330
1F
100
AcDbEntity
  8
0
  6
Continuous
 62
     7
370
    15
100
AcDbSpline
210
0.0
220
0.0
230
1.0
 70
    11
 71
     3
 72
    77
 73
    73
 74
     0
 42
0.000000001
 43
0.00000001
 40
0.0
 40
0.0
 40
0.0
 40
0.0
 40
0.0312499999999995
 40
0.0312499999999995
 40
0.062499999999999
 40
0.062499999999999
 40
0.0937499999999985
 40
0.0937499999999985
 40
0.124999999999998
 40
0.124999999999998
 40
0.1562499999999975
 40
0.1562499999999975
 40
0.187499999999997
 40
0.187499999999997
 40
0.2187499999999965
 40
0.2187499999999965
 40
0.2499999999999965
 40
0.2499999999999965
 40
0.2812499999999965
 40
0.2812499999999965
 40
0.3124999999999965
 40
0.3124999999999965
 40
0.3437499999999965
 40
0.3437499999999965
 40
0.3593749999999964
 40
0.3593749999999964
 40
0.3749999999999963
 40
0.3906249999999962
 40
0.3906249999999962
 40
0.4062499999999962
 40
0.4062499999999962
 40
0.4374999999999962
 40
0.4374999999999962
 40
0.4687499999999963
 40
0.4687499999999963
 40
0.4999999999999963
 40
0.4999999999999963
 40
0.5312499999999963
 40
0.5312499999999963
 40
0.5624999999999964
 40
0.5624999999999964
 40
0.5937499999999964
 40
0.5937499999999964
 40
0.6249999999999966
 40
0.6249999999999966
 40
0.6562499999999966
 40
0.6562499999999966
 40
0.6874999999999967
 40
0.6874999999999967
 40
0.7187499999999967
 40
0.7187499999999967
 40
0.7499999999999968
 40
0.7499999999999968
 40
0.7656249999999969
 40
0.7656249999999969
 40
0.7812499999999969
 40
0.7812499999999969
 40
0.8124999999999974
 40
0.8124999999999974
 40
0.8437499999999979
 40
0.8437499999999979
 40
0.8749999999999984
 40
0.8749999999999984
 40
0.8906249999999987
 40
0.8906249999999987
 40
0.9062499999999988
 40
0.9062499999999988
 40
0.9374999999999992
 40
0.9374999999999992
 40
0.9687499999999996
 40
0.9687499999999996
 40
1.0
 40
1.0
 40
1.0
 40
1.0
 10
216.3572823285608
 20
116.6338998519232
 30
0.0
 10
216.6475353658563
 20
116.8723302855901
 30
0.0
 10
216.9558307324777
 20
117.079376161317
 30
0.0
 10
217.6056292633568
 20
117.4364134299356
 30
0.0
 10
217.9497077922968
 20
117.5871682346389
 30
0.0
 10
218.6604269201703
 20
117.8265129181205
 30
0.0
 10
219.0223055581694
 20
117.9140273818069
 30
0.0
 10
219.7586457258928
 20
118.0274043942336
 30
0.0
 10
220.1367688859882
 20
118.053028279547
 30
0.0
 10
220.8855129180719
 20
118.039713899012
 30
0.0
 10
221.2555919813296
 20
118.0015633447757
 30
0.0
 10
221.9872505780741
 20
117.8627199533122
 30
0.0
 10
222.3523075819977
 20
117.7604566703268
 30
0.0
 10
223.049898938101
 20
117.4969687113453
 30
0.0
 10
223.3836644572774
 20
117.3362770111696
 30
0.0
 10
224.0205832698762
 20
116.9552910266966
 30
0.0
 10
224.3264395586363
 20
116.7320903452826
 30
0.0
 10
224.8811214927898
 20
116.2387856833333
 30
0.0
 10
225.1323952373641
 20
115.9680903838528
 30
0.0
 10
225.5796547286238
 20
115.3751023204256
 30
0.0
 10
225.7761200080712
 20
115.0496547495046
 30
0.0
 10
226.0882048325054
 20
114.3759471099557
 30
0.0
 10
226.2071067734854
 20
114.0243895138682
 30
0.0
 10
226.3251079884918
 20
113.4730189370173
 30
0.0
 10
226.3540454164223
 20
113.2853927125234
 30
0.0
 10
226.3895714620481
 20
112.9128190013055
 30
0.0
 10
226.4034081608526
 20
112.5402285162055
 30
0.0
 10
226.3742997580966
 20
112.1676048070419
 30
0.0
 10
226.3232481017853
 20
111.7949641339559
 30
0.0
 10
226.2865656603219
 20
111.6087016148943
 30
0.0
 10
226.1468006672658
 20
111.0646246548557
 30
0.0
 10
226.0137899724524
 20
110.7162694249301
 30
0.0
 10
225.6708412666929
 20
110.0471136908485
 30
0.0
 10
225.464396363898
 20
109.7340424047044
 30
0.0
 10
224.9942309684374
 20
109.1570424970382
 30
0.0
 10
224.726560677638
 20
108.889343763663
 30
0.0
 10
224.1517491913546
 20
108.4152298349715
 30
0.0
 10
223.8438896234669
 20
108.2068987439376
 30
0.0
 10
223.1884929014157
 20
107.8452788280256
 30
0.0
 10
222.8431223289387
 20
107.69393395668
 30
0.0
 10
222.1379538410711
 20
107.4553955637031
 30
0.0
 10
221.7753996678589
 20
107.3666306751315
 30
0.0
 10
221.0298691941373
 20
107.2511638064119
 30
0.0
 10
220.6564629178049
 20
107.226039760712
 30
0.0
 10
219.9116089113373
 20
107.2384048994819
 30
0.0
 10
219.538336687756
 20
107.2760569332984
 30
0.0
 10
218.7981291426737
 20
107.4162507933538
 30
0.0
 10
218.4394768034731
 20
107.5169895630545
 30
0.0
 10
217.7445206828539
 20
107.7787203752663
 30
0.0
 10
217.4060678049251
 20
107.9409795563582
 30
0.0
 10
216.7629627424532
 20
108.3257883918177
 30
0.0
 10
216.463727506284
 20
108.5445487531331
 30
0.0
 10
216.0486692753776
 20
108.913091612944
 30
0.0
 10
215.9159884848935
 20
109.0427202102075
 30
0.0
 10
215.6625635157706
 20
109.3163354894474
 30
0.0
 10
215.5411985365531
 20
109.4612519049608
 30
0.0
 10
215.2039748512329
 20
109.9090793037796
 30
0.0
 10
215.0127322456898
 20
110.2263759421441
 30
0.0
 10
214.7000813898486
 20
110.9003264748265
 30
0.0
 10
214.5781275517498
 20
111.2622506902517
 30
0.0
 10
214.4226554695665
 20
111.9929227111037
 30
0.0
 10
214.3868619320408
 20
112.3638514252151
 30
0.0
 10
214.3986897044135
 20
112.9289961081057
 30
0.0
 10
214.4138189525734
 20
113.1184094668904
 30
0.0
 10
214.4652061413668
 20
113.4897102055861
 30
0.0
 10
214.5014581212752
 20
113.6729191060694
 30
0.0
 10
214.6411034491901
 20
114.2154159576341
 30
0.0
 10
214.7775040477881
 20
114.5712570361391
 30
0.0
 10
215.1193370008412
 20
115.2359070190426
 30
0.0
 10
215.3244665723216
 20
115.5472665440954
 30
0.0
 10
215.8005762717424
 20
116.1300355355053
 30
0.0
 10
216.0670292912652
 20
116.3954694182564
 30
0.0
 10
216.3572823285608
 20
116.6338998519232
 30
0.0
  0
LINE
  5
BC
330
1F
100
AcDbEntity
  8
0
  6
Continuous
 62
     7
370
    15
100
AcDbLine
 10
232.9436876783
 20
112.6393637691
 30
0.0
 11
232.9436876783
 21
87.6393637691
 31
0.0
  0
LINE
  5
BD
330
1F
100
AcDbEntity
  8
0
  6
Continuous
 62
     7
370
    15
100
AcDbLine
 10
232.9436876783
 20
137.6393637691
 30
0.0
 11
232.9436876783
 21
112.6393637691
 31
0.0
  0
LINE
  5
BE
330
1F
100
AcDbEntity
  8
0
  6
Continuous
 62
     7
370
    15
100
AcDbLine
 10
233.4436876783
 20
112.6393637691
 30
0.0
 11
233.4436876783
 21
88.1393637691
 31
0.0
  0
LINE
  5
BF
330
1F
100
AcDbEntity
  8
0
  6
Continuous
 62
     7
370
    15
100
AcDbLine
 10
233.4436876783
 20
137.1393637691
 30
0.0
 11
233.4436876783
 21
112.6393637691
 31
0.0
  0
LINE
  5
C0
330
1F
100
AcDbEntity
  8
0
  6
Continuous
 62
     7
370
    15
100
AcDbLine
 10
59.6436876783
 20
94.2896859084
 30
0.0
 11
59.6436876783
 21
130.9890415608
 31
0.0
  0
CIRCLE
  5
C1
330
1F
100
AcDbEntity
  8
0
  6
HIDDEN
 62
     7
370
     0
100
AcDbCircle
 10
220.3936876783
 20
112.6393637691
 30
0.0
 40
5.000000000000002
  0
CIRCLE
  5
C2
330
1F
100
AcDbEntity
  8
0
  6
HIDDEN
 62
     7
370
     0
100
AcDbCircle
 10
220.3936876783
 20
112.6393637691
 30
0.0
 40
3.680384757729342
  0
CIRCLE
  5
C3
330
1F
100
AcDbEntity
  8
0
  6
HIDDEN
 62
     7
370
     0
100
AcDbCircle
 10
220.3936876783
 20
112.6393637691
 30
0.0
 40
3.380384757729337
  0
SPLINE
  5
C4
330
1F
100
AcDbEntity
  8
0
  6
HIDDEN
 62
     7
370
     0
100
AcDbSpline
210
0.0
220
0.0
230
1.0
 70
     8
 71
     3
 72
     9
 73
     5
 74
     0
 42
0.000000001
 43
0.00000001
 40
0.0
 40
0.0
 40
0.0
 40
0.0
 40
0.326715502844845
 40
1.0
 40
1.0
 40
1.0
 40
1.0
 10
194.0676551520784
 20
63.01560332873645
 30
0.0
 10
193.910862273961
 20
63.05768555775633
 30
0.0
 10
193.4309558209394
 20
63.18648945182763
 30
0.0
 10
192.6767442800138
 20
63.36151609994714
 30
0.0
 10
192.1689453419331
 20
63.47935882871506
 30
0.0
  0
SPLINE
  5
C5
330
1F
100
AcDbEntity
  8
0
  6
HIDDEN
 62
     7
370
     0
100
AcDbSpline
210
0.0
220
0.0
230
1.0
 70
     8
 71
     3
 72
    16
 73
    12
 74
     0
 42
0.000000001
 43
0.00000001
 40
0.0
 40
0.0
 40
0.0
 40
0.0
 40
0.2500000000000022
 40
0.2500000000000022
 40
0.5000000000000043
 40
0.5000000000000043
 40
0.6250000000000036
 40
0.6250000000000036
 40
0.7500000000000027
 40
0.7500000000000027
 40
1.0
 40
1.0
 40
1.0
 40
1.0
 10
233.4436876783468
 20
125.7078402268577
 30
0.0
 10
233.4436876783468
 20
125.6183198349564
 30
0.0
 10
233.4384601714697
 20
125.5270167267748
 30
0.0
 10
233.4091883357584
 20
125.3379943922661
 30
0.0
 10
233.3854448121623
 20
125.2381491408329
 30
0.0
 10
233.3171357513267
 20
125.0979618557814
 30
0.0
 10
233.2882649096703
 20
125.0535246268466
 30
0.0
 10
233.2218138660778
 20
124.9836362985269
 30
0.0
 10
233.1840068495636
 20
124.9582361953233
 30
0.0
 10
233.0737846313566
 20
124.9134138138197
 30
0.0
 10
233.0057743821719
 20
124.9192562547815
 30
0.0
 10
232.9436876783298
 20
124.9354613093234
 30
0.0
  0
SPLINE
  5
C6
330
1F
100
AcDbEntity
  8
0
  6
HIDDEN
 62
     7
370
     0
100
AcDbSpline
210
0.0
220
0.0
230
1.0
 70
     8
 71
     3
 72
     8
 73
     4
 74
     0
 42
0.000000001
 43
0.00000001
 40
0.0
 40
0.0
 40
0.0
 40
0.0
 40
1.0
 40
1.0
 40
1.0
 40
1.0
 10
232.9436876783298
 20
124.9354613093234
 30
0.0
 10
232.8574442935225
 20
124.8768044651768
 30
0.0
 10
232.7540649851035
 20
124.8367316292073
 30
0.0
 10
232.6436876783468
 20
124.8367316292073
 30
0.0
  0
SPLINE
  5
C7
330
1F
100
AcDbEntity
  8
0
  6
HIDDEN
 62
     7
370
     0
100
AcDbSpline
210
0.0
220
0.0
230
1.0
 70
     8
 71
     3
 72
     8
 73
     4
 74
     0
 42
0.000000001
 43
0.00000001
 40
0.0
 40
0.0
 40
0.0
 40
0.0
 40
1.0
 40
1.0
 40
1.0
 40
1.0
 10
232.943687678363
 20
100.3432662289326
 30
0.0
 10
232.8574442935482
 20
100.4019230730918
 30
0.0
 10
232.7540649851177
 20
100.4419959090713
 30
0.0
 10
232.6436876783468
 20
100.4419959090713
 30
0.0
  0
SPLINE
  5
C8
330
1F
100
AcDbEntity
  8
0
  6
HIDDEN
 62
     7
370
     0
100
AcDbSpline
210
0.0
220
0.0
230
1.0
 70
     8
 71
     3
 72
    16
 73
    12
 74
     0
 42
0.000000001
 43
0.00000001
 40
0.0
 40
0.0
 40
0.0
 40
0.0
 40
0.2499999999999907
 40
0.2499999999999907
 40
0.3749999999999971
 40
0.3749999999999971
 40
0.5000000000000036
 40
0.5000000000000036
 40
0.7500000000000017
 40
0.7500000000000017
 40
1.0
 40
1.0
 40
1.0
 40
1.0
 10
232.943687678353
 20
100.3432662289357
 30
0.0
 10
233.0057608277393
 20
100.3594678233227
 30
0.0
 10
233.073822385137
 20
100.3652956464312
 30
0.0
 10
233.1839690671106
 20
100.3205127001913
 30
0.0
 10
233.2213978340483
 20
100.2954161446092
 30
0.0
 10
233.2878082491803
 20
100.2258039009108
 30
0.0
 10
233.3168022652854
 20
100.1813578055514
 30
0.0
 10
233.3854009576046
 20
100.0408648706948
 30
0.0
 10
233.4089400284172
 20
99.94182585964006
 30
0.0
 10
233.4383405719352
 20
99.7529920728736
 30
0.0
 10
233.4436876783467
 20
99.66048196707942
 30
0.0
 10
233.4436876783467
 20
99.57088849116565
 30
0.0
  0
LINE
  5
C9
330
1F
100
AcDbEntity
  8
0
  6
HIDDEN
 62
     7
370
     0
100
AcDbLine
 10
202.9436876783
 20
112.6393637691
 30
0.0
 11
202.9436876783
 21
99.1393637691
 31
0.0
  0
LINE
  5
CA
330
1F
100
AcDbEntity
  8
0
  6
HIDDEN
 62
     7
370
     0
100
AcDbLine
 10
202.9436876783
 20
126.1393637691
 30
0.0
 11
202.9436876783
 21
112.6393637691
 31
0.0
  0
LINE
  5
CB
330
1F
100
AcDbEntity
  8
0
  6
HIDDEN
 62
     7
370
     0
100
AcDbLine
 10
207.8097130821
 20
112.6393637691
 30
0.0
 11
207.8097130821
 21
98.6393637691
 31
0.0
  0
LINE
  5
CC
330
1F
100
AcDbEntity
  8
0
  6
HIDDEN
 62
     7
370
     0
100
AcDbLine
 10
207.8097130821
 20
126.6393637691
 30
0.0
 11
207.8097130821
 21
112.6393637691
 31
0.0
  0
LINE
  5
CD
330
1F
100
AcDbEntity
  8
0
  6
HIDDEN
 62
     7
370
     0
100
AcDbLine
 10
219.8436876783
 20
124.8367316292
 30
0.0
 11
232.6436876783
 21
124.8367316292
 31
0.0
  0
LINE
  5
CE
330
1F
100
AcDbEntity
  8
0
  6
HIDDEN
 62
     7
370
     0
100
AcDbLine
 10
219.8436876783
 20
100.4419959091
 30
0.0
 11
232.6436876783
 21
100.4419959091
 31
0.0
  0
LINE
  5
CF
330
1F
100
AcDbEntity
  8
0
  6
HIDDEN
 62
     7
370
     0
100
AcDbLine
 10
164.4436876783
 20
147.9393637691
 30
0.0
 11
164.6152605536
 21
147.9393637691
 31
0.0
  0
ELLIPSE
  5
D0
330
1F
100
AcDbEntity
  8
0
  6
HIDDEN
 62
     7
370
     0
100
AcDbEllipse
 10
164.6152605536
 20
149.9393637691
 30
0.0
 11
0.0
 21
2.0
 31
0.0
210
0.0
220
0.0
230
1.0
 40
0.4142135624
 41
3.141592653589793
 42
4.712388980384695
  0
ELLIPSE
  5
D1
330
1F
100
AcDbEntity
  8
0
  6
HIDDEN
 62
     7
370
     0
100
AcDbEllipse
 10
164.6152605536
 20
75.3393637691
 30
0.0
 11
0.0
 21
2.0
 31
0.0
210
0.0
220
0.0
230
1.0
 40
0.4142135624
 41
4.712388980384702
 42
6.283185307179586
  0
LINE
  5
D2
330
1F
100
AcDbEntity
  8
0
  6
HIDDEN
 62
     7
370
     0
100
AcDbLine
 10
164.6152605536
 20
77.3393637691
 30
0.0
 11
164.4436876783
 21
77.3393637691
 31
0.0
  0
LINE
  5
D3
330
1F
100
AcDbEntity
  8
0
  6
HIDDEN
 62
     7
370
     0
100
AcDbLine
 10
165.4436876783
 20
65.3187936152
 30
0.0
 11
164.8298240984
 21
64.7049300353
 31
0.0
  0
LINE
  5
D4
330
1F
100
AcDbEntity
  8
0
  6
HIDDEN
 62
     7
370
     0
100
AcDbLine
 10
164.8298240984
 20
160.573797503
 30
0.0
 11
165.4436876783
 21
159.9599339231
 31
0.0
  0
LINE
  5
D5
330
1F
100
AcDbEntity
  8
0
  6
HIDDEN
 62
     7
370
     0
100
AcDbLine
 10
192.4436876783
 20
77.3393637691
 30
0.0
 11
181.5936876783
 21
77.3393637691
 31
0.0
  0
SPLINE
  5
D6
330
1F
100
AcDbEntity
  8
0
  6
HIDDEN
 62
     7
370
     0
100
AcDbSpline
210
0.0
220
0.0
230
1.0
 70
     8
 71
     3
 72
    13
 73
     9
 74
     0
 42
0.000000001
 43
0.00000001
 40
0.0
 40
0.0
 40
0.0
 40
0.0
 40
0.0005825290635647
 40
0.1623661983773396
 40
0.3287385494553315
 40
0.4998718252132767
 40
0.7262528256169377
 40
1.0
 40
1.0
 40
1.0
 40
1.0
 10
194.4432535209531
 20
63.63949657579851
 30
0.0
 10
194.443398306988
 20
63.63945223360522
 30
0.0
 10
194.4837539897053
 20
63.6270928960132
 30
0.0
 10
194.3695993828144
 20
63.66272198202069
 30
0.0
 10
194.1454822751138
 20
63.73056994492912
 30
0.0
 10
193.666173384145
 20
63.86966311907256
 30
0.0
 10
192.8726657265165
 20
64.099909699845
 30
0.0
 10
192.0036478540403
 20
64.3153952706032
 30
0.0
 10
191.5279874152335
 20
64.43334216719731
 30
0.0
  0
LINE
  5
D7
330
1F
100
AcDbEntity
  8
0
  6
HIDDEN
 62
     7
370
     0
100
AcDbLine
 10
177.6762567149
 20
65.3187936152
 30
0.0
 11
165.4436876783
 21
65.3187936152
 31
0.0
  0
LINE
  5
D8
330
1F
100
AcDbEntity
  8
0
  6
HIDDEN
 62
     7
370
     0
100
AcDbLine
 10
165.4436876783
 20
65.3187936152
 30
0.0
 11
165.4436876783
 21
75.3393637691
 31
0.0
  0
LINE
  5
D9
330
1F
100
AcDbEntity
  8
0
  6
HIDDEN
 62
     7
370
     0
100
AcDbLine
 10
165.4436876783
 20
159.9599339231
 30
0.0
 11
177.6762567149
 21
159.9599339231
 31
0.0
  0
LINE
  5
DA
330
1F
100
AcDbEntity
  8
0
  6
HIDDEN
 62
     7
370
     0
100
AcDbLine
 10
165.4436876783
 20
159.9599339231
 30
0.0
 11
165.4436876783
 21
149.9393637691
 31
0.0
  0
LINE
  5
DB
330
1F
100
AcDbEntity
  8
0
  6
HIDDEN
 62
     7
370
     0
100
AcDbLine
 10
181.5936876783
 20
77.3393637691
 30
0.0
 11
164.6152605536
 21
77.3393637691
 31
0.0
  0
LINE
  5
DC
330
1F
100
AcDbEntity
  8
0
  6
HIDDEN
 62
     7
370
     0
100
AcDbLine
 10
181.5936876783
 20
147.9393637691
 30
0.0
 11
192.4436876783
 21
147.9393637691
 31
0.0
  0
SPLINE
  5
DD
330
1F
100
AcDbEntity
  8
0
  6
HIDDEN
 62
     7
370
     0
100
AcDbSpline
210
0.0
220
0.0
230
1.0
 70
     8
 71
     3
 72
    14
 73
    10
 74
     0
 42
0.000000001
 43
0.00000001
 40
0.0
 40
0.0
 40
0.0
 40
0.0
 40
0.1878282877623173
 40
0.3545816313016879
 40
0.5003024319338173
 40
0.6713282049188825
 40
0.8376422060211013
 40
0.9994166164999629
 40
1.0
 40
1.0
 40
1.0
 40
1.0
 10
191.5279874152335
 20
160.8453853710813
 30
0.0
 10
191.8609903376228
 20
160.9269333085349
 30
0.0
 10
192.4896321724377
 20
161.080879239875
 30
0.0
 10
193.1890687443426
 20
161.271857957993
 30
0.0
 10
193.7369458437721
 20
161.4292302450688
 30
0.0
 10
194.1430614378893
 20
161.5475556810924
 30
0.0
 10
194.3761893305883
 20
161.6179326957075
 30
0.0
 10
194.4701787171854
 20
161.6475670469818
 30
0.0
 10
194.4434958240416
 20
161.6393045213783
 30
0.0
 10
194.4433999471563
 20
161.639274832498
 30
0.0
  0
LINE
  5
DE
330
1F
100
AcDbEntity
  8
0
  6
HIDDEN
 62
     7
370
     0
100
AcDbLine
 10
192.0273217801
 20
160.969699409
 30
0.0
 11
191.5279831268
 21
160.8454300255
 31
0.0
  0
LINE
  5
DF
330
1F
100
AcDbEntity
  8
0
  6
HIDDEN
 62
     7
370
     0
100
AcDbLine
 10
164.6152605536
 20
147.9393637691
 30
0.0
 11
181.5936876783
 21
147.9393637691
 31
0.0
  0
LINE
  5
E0
330
1F
100
AcDbEntity
  8
0
  6
HIDDEN
 62
     7
370
     0
100
AcDbLine
 10
69.6436876783
 20
100.1393637691
 30
0.0
 11
69.6436876783
 21
125.1393637691
 31
0.0
  0
LINE
  5
E1
330
1F
100
AcDbEntity
  8
0
  6
HIDDEN
 62
     7
370
     0
100
AcDbLine
 10
72.9282920273
 20
102.1393637691
 30
0.0
 11
72.9282920273
 21
123.1393637691
 31
0.0
  0
LINE
  5
E2
330
1F
100
AcDbEntity
  8
0
  6
HIDDEN
 62
     7
370
     0
100
AcDbLine
 10
122.6436876783
 20
102.1393637691
 30
0.0
 11
122.6436876783
 21
123.1393637691
 31
0.0
  0
LINE
  5
E3
330
1F
100
AcDbEntity
  8
0
  6
HIDDEN
 62
     7
370
     0
100
AcDbLine
 10
125.8883350211
 20
107.5393637691
 30
0.0
 11
125.8883350211
 21
117.7393637691
 31
0.0
  0
SPLINE
  5
E4
330
1F
100
AcDbEntity
  8
0
  6
HIDDEN
 62
     7
370
     0
100
AcDbSpline
210
0.0
220
0.0
230
1.0
 70
     8
 71
     3
 72
     9
 73
     5
 74
     0
 42
0.000000001
 43
0.00000001
 40
0.0
 40
0.0
 40
0.0
 40
0.0
 40
0.4951995003022724
 40
1.0
 40
1.0
 40
1.0
 40
1.0
 10
191.5279718927838
 20
160.845375933552
 30
0.0
 10
191.6331681144195
 20
161.0025316936721
 30
0.0
 10
191.8456001172214
 20
161.3198901724753
 30
0.0
 10
192.0603185007352
 20
161.6385167205779
 30
0.0
 10
192.1687084480273
 20
161.7993595612771
 30
0.0
  0
SPLINE
  5
E5
330
1F
100
AcDbEntity
  8
0
  6
HIDDEN
 62
     7
370
     0
100
AcDbSpline
210
0.0
220
0.0
230
1.0
 70
     8
 71
     3
 72
     9
 73
     5
 74
     0
 42
0.000000001
 43
0.00000001
 40
0.0
 40
0.0
 40
0.0
 40
0.0
 40
0.5048005003628353
 40
1.0
 40
1.0
 40
1.0
 40
1.0
 10
192.1687084480274
 20
63.47936797700149
 30
0.0
 10
192.0603185005955
 20
63.64021081790609
 30
0.0
 10
191.8456001170877
 20
63.95883736599588
 30
0.0
 10
191.6331681142808
 20
64.27619584481145
 30
0.0
 10
191.5279718927839
 20
64.43335160472655
 30
0.0
  0
SPLINE
  5
E6
330
1F
100
AcDbEntity
  8
0
  6
HIDDEN
 62
     7
370
     0
100
AcDbSpline
210
0.0
220
0.0
230
1.0
 70
     8
 71
     3
 72
    11
 73
     7
 74
     0
 42
0.000000001
 43
0.00000001
 40
0.0
 40
0.0
 40
0.0
 40
0.0
 40
0.2411654505621944
 40
0.5672000804955173
 40
0.8933398523344386
 40
1.0
 40
1.0
 40
1.0
 40
1.0
 10
232.886922034011
 20
92.7858896442405
 30
0.0
 10
232.8830070562098
 20
92.79798558025247
 30
0.0
 10
232.8737993702882
 20
92.8264341655024
 30
0.0
 10
232.9031105597116
 20
93.42044805235547
 30
0.0
 10
232.9397086858714
 20
94.17965616989812
 30
0.0
 10
232.9429009654605
 20
94.70892870223939
 30
0.0
 10
232.9436876777426
 20
94.8393637691393
 30
0.0
  0
LINE
  5
E7
330
1F
100
AcDbEntity
  8
0
  6
HIDDEN
 62
     7
370
     0
100
AcDbLine
 10
219.8436876783
 20
94.8393637691
 30
0.0
 11
219.8436876783
 21
100.4419959091
 31
0.0
  0
LINE
  5
E8
330
1F
100
AcDbEntity
  8
0
  6
HIDDEN
 62
     7
370
     0
100
AcDbLine
 10
219.8436876783
 20
130.4393637691
 30
0.0
 11
219.8436876783
 21
124.8367316292
 31
0.0
  0
LINE
  5
E9
330
1F
100
AcDbEntity
  8
0
  6
HIDDEN
 62
     7
370
     0
100
AcDbLine
 10
219.8436876783
 20
132.5393637691
 30
0.0
 11
219.8436876783
 21
130.4393637691
 31
0.0
  0
LINE
  5
EA
330
1F
100
AcDbEntity
  8
0
  6
HIDDEN
 62
     7
370
     0
100
AcDbLine
 10
219.8436876783
 20
92.7393637691
 30
0.0
 11
219.8436876783
 21
94.8393637691
 31
0.0
  0
ARC
  5
EB
330
1F
100
AcDbEntity
  8
0
  6
HIDDEN
 62
     7
370
     0
100
AcDbCircle
 10
203.9436876783
 20
126.1393637691
 30
0.0
 40
1.0
100
AcDbArc
 50
90.0
 51
180.0
  0
ARC
  5
EC
330
1F
100
AcDbEntity
  8
0
  6
HIDDEN
 62
     7
370
     0
100
AcDbCircle
 10
203.9436876783
 20
99.1393637691
 30
0.0
 40
1.000000000000014
100
AcDbArc
 50
180.0
 51
270.0
  0
LINE
  5
ED
330
1F
100
AcDbEntity
  8
0
  6
HIDDEN
 62
     7
370
     0
100
AcDbLine
 10
205.8120351808
 20
127.1393637691
 30
0.0
 11
203.9436876783
 21
127.1393637691
 31
0.0
  0
LINE
  5
EE
330
1F
100
AcDbEntity
  8
0
  6
HIDDEN
 62
     7
370
     0
100
AcDbLine
 10
203.9436876783
 20
98.1393637691
 30
0.0
 11
205.8120351808
 21
98.1393637691
 31
0.0
  0
ARC
  5
EF
330
1F
100
AcDbEntity
  8
0
  6
HIDDEN
 62
     7
370
     0
100
AcDbCircle
 10
205.8120351808
 20
126.1393637691
 30
0.0
 40
1.000000000000017
100
AcDbArc
 50
75.0
 51
90.0
  0
ARC
  5
F0
330
1F
100
AcDbEntity
  8
0
  6
HIDDEN
 62
     7
370
     0
100
AcDbCircle
 10
205.8120351808
 20
99.1393637691
 30
0.0
 40
1.000000000000017
100
AcDbArc
 50
270.0
 51
285.0
  0
LINE
  5
F1
330
1F
100
AcDbEntity
  8
0
  6
HIDDEN
 62
     7
370
     0
100
AcDbLine
 10
206.0708542259
 20
98.1734379429
 30
0.0
 11
207.8097130821
 21
98.6393637691
 31
0.0
  0
LINE
  5
F2
330
1F
100
AcDbEntity
  8
0
  6
HIDDEN
 62
     7
370
     0
100
AcDbLine
 10
207.8097130821
 20
126.6393637691
 30
0.0
 11
206.0708542259
 21
127.1052895954
 31
0.0
  0
LINE
  5
F3
330
1F
100
AcDbEntity
  8
0
  6
HIDDEN
 62
     7
370
     0
100
AcDbLine
 10
219.8436876783
 20
126.6393637691
 30
0.0
 11
207.8097130821
 21
126.6393637691
 31
0.0
  0
LINE
  5
F4
330
1F
100
AcDbEntity
  8
0
  6
HIDDEN
 62
     7
370
     0
100
AcDbLine
 10
207.8097130821
 20
98.6393637691
 30
0.0
 11
219.8436876783
 21
98.6393637691
 31
0.0
  0
ARC
  5
F5
330
1F
100
AcDbEntity
  8
0
  6
HIDDEN
 62
     7
370
     0
100
AcDbCircle
 10
60.8436876783
 20
98.9393637691
 30
0.0
 40
1.20000000000001
100
AcDbArc
 50
90.0
 51
180.0
  0
ARC
  5
F6
330
1F
100
AcDbEntity
  8
0
  6
HIDDEN
 62
     7
370
     0
100
AcDbCircle
 10
60.8436876783
 20
126.3393637691
 30
0.0
 40
1.20000000000001
100
AcDbArc
 50
180.0
 51
270.0
  0
ARC
  5
F7
330
1F
100
AcDbEntity
  8
0
  6
HIDDEN
 62
     7
370
     0
100
AcDbCircle
 10
192.4436876783
 20
75.3393637691
 30
0.0
 40
2.0
100
AcDbArc
 50
0.0
 51
90.0
  0
LINE
  5
F8
330
1F
100
AcDbEntity
  8
0
  6
HIDDEN
 62
     7
370
     0
100
AcDbLine
 10
194.4436876783
 20
63.539148382
 30
0.0
 11
194.4436876783
 21
75.3393637691
 31
0.0
  0
ARC
  5
F9
330
1F
100
AcDbEntity
  8
0
  6
HIDDEN
 62
     7
370
     0
100
AcDbCircle
 10
192.4436876783
 20
149.9393637691
 30
0.0
 40
2.0
100
AcDbArc
 50
270.0
 51
0.0
  0
LINE
  5
FA
330
1F
100
AcDbEntity
  8
0
  6
HIDDEN
 62
     7
370
     0
100
AcDbLine
 10
194.4436876783
 20
149.9393637691
 30
0.0
 11
194.4436876783
 21
161.7394671197
 31
0.0
  0
LINE
  5
FB
330
1F
100
AcDbEntity
  8
0
  6
HIDDEN
 62
     7
370
     0
100
AcDbLine
 10
70.5360601091
 20
99.9143637691
 30
0.0
 11
71.4127475707
 21
99.9143637691
 31
0.0
  0
LINE
  5
FC
330
1F
100
AcDbEntity
  8
0
  6
HIDDEN
 62
     7
370
     0
100
AcDbLine
 10
71.4127475707
 20
125.3643637691
 30
0.0
 11
70.5360601091
 21
125.3643637691
 31
0.0
  0
ARC
  5
FD
330
1F
100
AcDbEntity
  8
0
  6
HIDDEN
 62
     7
370
     0
100
AcDbCircle
 10
70.5360601091
 20
100.3143637691
 30
0.0
 40
0.4000000000000057
100
AcDbArc
 50
255.0
 51
270.0
  0
ARC
  5
FE
330
1F
100
AcDbEntity
  8
0
  6
HIDDEN
 62
     7
370
     0
100
AcDbCircle
 10
70.5360601091
 20
124.9643637691
 30
0.0
 40
0.4000000000000199
100
AcDbArc
 50
90.0
 51
105.0
  0
ARC
  5
FF
330
1F
100
AcDbEntity
  8
0
  6
HIDDEN
 62
     7
370
     0
100
AcDbCircle
 10
71.4127475707
 20
100.3143637691
 30
0.0
 40
0.4000000000000057
100
AcDbArc
 50
270.0
 51
330.0
  0
ARC
  5
100
330
1F
100
AcDbEntity
  8
0
  6
HIDDEN
 62
     7
370
     0
100
AcDbCircle
 10
71.4127475707
 20
124.9643637691
 30
0.0
 40
0.4000000000000199
100
AcDbArc
 50
30.0
 51
90.0
  0
LINE
  5
101
330
1F
100
AcDbEntity
  8
0
  6
HIDDEN
 62
     7
370
     0
100
AcDbLine
 10
70.432532491
 20
125.3507340997
 30
0.0
 11
69.6436876783
 21
125.1393637691
 31
0.0
  0
LINE
  5
102
330
1F
100
AcDbEntity
  8
0
  6
HIDDEN
 62
     7
370
     0
100
AcDbLine
 10
69.6436876783
 20
100.1393637691
 30
0.0
 11
70.432532491
 21
99.9279934386
 31
0.0
  0
LINE
  5
103
330
1F
100
AcDbEntity
  8
0
  6
HIDDEN
 62
     7
370
     0
100
AcDbLine
 10
71.7591577322
 20
100.1143637691
 30
0.0
 11
72.9282920273
 21
102.1393637691
 31
0.0
  0
LINE
  5
104
330
1F
100
AcDbEntity
  8
0
  6
HIDDEN
 62
     7
370
     0
100
AcDbLine
 10
72.9282920273
 20
123.1393637691
 30
0.0
 11
71.7591577322
 21
125.1643637691
 31
0.0
  0
LINE
  5
105
330
1F
100
AcDbEntity
  8
0
  6
HIDDEN
 62
     7
370
     0
100
AcDbLine
 10
60.8436876783
 20
100.1393637691
 30
0.0
 11
69.6436876783
 21
100.1393637691
 31
0.0
  0
LINE
  5
106
330
1F
100
AcDbEntity
  8
0
  6
HIDDEN
 62
     7
370
     0
100
AcDbLine
 10
69.6436876783
 20
125.1393637691
 30
0.0
 11
60.8436876783
 21
125.1393637691
 31
0.0
  0
LINE
  5
107
330
1F
100
AcDbEntity
  8
0
  6
HIDDEN
 62
     7
370
     0
100
AcDbLine
 10
72.9282920273
 20
102.1393637691
 30
0.0
 11
122.6436876783
 21
102.1393637691
 31
0.0
  0
LINE
  5
108
330
1F
100
AcDbEntity
  8
0
  6
HIDDEN
 62
     7
370
     0
100
AcDbLine
 10
122.6436876783
 20
123.1393637691
 30
0.0
 11
72.9282920273
 21
123.1393637691
 31
0.0
  0
LINE
  5
109
330
1F
100
AcDbEntity
  8
0
  6
HIDDEN
 62
     7
370
     0
100
AcDbLine
 10
122.6436876783
 20
102.1393637691
 30
0.0
 11
125.8883350211
 21
107.5393637691
 31
0.0
  0
LINE
  5
10A
330
1F
100
AcDbEntity
  8
0
  6
HIDDEN
 62
     7
370
     0
100
AcDbLine
 10
125.8883350211
 20
117.7393637691
 30
0.0
 11
122.6436876783
 21
123.1393637691
 31
0.0
  0
LINE
  5
10B
330
1F
100
AcDbEntity
  8
0
  6
HIDDEN
 62
     7
370
     0
100
AcDbLine
 10
194.4436919987
 20
161.6393642928
 30
0.0
 11
195.4436918481
 21
162.6393640717
 31
0.0
  0
LINE
  5
10C
330
1F
100
AcDbEntity
  8
0
  6
HIDDEN
 62
     7
370
     0
100
AcDbLine
 10
195.4436918488
 20
62.6393634659
 30
0.0
 11
194.4436919994
 21
63.6393632447
 31
0.0
  0
LINE
  5
10D
330
1F
100
AcDbEntity
  8
0
  6
HIDDEN
 62
     7
370
     0
100
AcDbLine
 10
233.4436876783
 20
133.0985984372
 30
0.0
 11
232.8737370608
 21
132.5286710413
 31
0.0
  0
LINE
  5
10E
330
1F
100
AcDbEntity
  8
0
  6
HIDDEN
 62
     7
370
     0
100
AcDbLine
 10
232.8740486429
 20
92.7497422341
 30
0.0
 11
233.4436876783
 21
92.1801276693
 31
0.0
  0
LINE
  5
10F
330
1F
100
AcDbEntity
  8
0
  6
HIDDEN
 62
     7
370
     0
100
AcDbLine
 10
125.8883350211
 20
107.5393637691
 30
0.0
 11
202.9436876783
 21
107.5393637691
 31
0.0
  0
LINE
  5
110
330
1F
100
AcDbEntity
  8
0
  6
HIDDEN
 62
     7
370
     0
100
AcDbLine
 10
202.9436876783
 20
117.7393637691
 30
0.0
 11
125.8883350211
 21
117.7393637691
 31
0.0
  0
LINE
  5
111
330
1F
100
AcDbEntity
  8
0
  6
HIDDEN
 62
     7
370
     0
100
AcDbLine
 10
232.8859594249
 20
132.5393637691
 30
0.0
 11
219.8436876783
 21
132.5393637691
 31
0.0
  0
LINE
  5
112
330
1F
100
AcDbEntity
  8
0
  6
HIDDEN
 62
     7
370
     0
100
AcDbLine
 10
219.8436876783
 20
92.7393637691
 30
0.0
 11
232.8873430386
 21
92.7393637691
 31
0.0
  0
DIMENSION
  5
113
330
1F
100
AcDbEntity
  8
VERMASSUNG
100
AcDbDimension
  2
_D
 10
243.5128952014
 20
98.6393637691
 30
0.0
 11
243.5128952014
 21
112.6393637691
 31
0.0
 70
   160
  1
%%c<>
 71
     2
 42
-1.0
  3
SLDDIMSTYLE0
100
AcDbAlignedDimension
 13
219.8436876783
 23
126.6393637691
 33
0.0
 14
219.8436876783
 24
98.6393637691
 34
0.0
 50
90.0
100
AcDbRotatedDimension
  0
DIMENSION
  5
11F
330
1F
100
AcDbEntity
  8
VERMASSUNG
100
AcDbDimension
  2
_D_1
 10
249.5128952014
 20
87.6393637691
 30
0.0
 11
249.5128952014
 21
112.6393637691
 31
0.0
 70
   160
  1
ST5 %%c<>
 71
     2
 42
-1.0
  3
SLDDIMSTYLE0
100
AcDbAlignedDimension
 13
232.9436876783
 23
137.6393637691
 33
0.0
 14
232.9436876783
 24
87.6393637691
 34
0.0
 50
90.0
100
AcDbRotatedDimension
  0
DIMENSION
  5
12B
330
1F
100
AcDbEntity
  8
VERMASSUNG
100
AcDbDimension
  2
_D_2
 10
233.4436876783
 20
168.0574098467
 30
0.0
 11
216.4436876783
 21
168.0574098467
 31
0.0
 70
   160
  1
(<>)
 71
     2
 42
-1.0
  3
SLDDIMSTYLE0
100
AcDbAlignedDimension
 13
199.4436876783
 23
161.6393637691
 33
0.0
 14
233.4436876783
 24
137.1393637691
 34
0.0
100
AcDbRotatedDimension
  0
DIMENSION
  5
137
330
1F
100
AcDbEntity
  8
VERMASSUNG
100
AcDbDimension
  2
_D_3
 10
233.4436876783
 20
174.0574098467
 30
0.0
 11
197.4436876783
 21
174.0574098467
 31
0.0
 70
   160
  1
<>
 71
     2
 42
-1.0
  3
SLDDIMSTYLE0
100
AcDbAlignedDimension
 13
161.4436876783
 23
147.5643637691
 33
0.0
 14
233.4436876783
 24
137.1393637691
 34
0.0
100
AcDbRotatedDimension
  0
DIMENSION
  5
141
330
1F
100
AcDbEntity
  8
VERMASSUNG
100
AcDbDimension
  2
_D_4
 10
233.4436876783
 20
180.0574098467
 30
0.0
 11
146.5436876783
 21
180.0574098467
 31
0.0
 70
   160
  1
(<>)
 71
     2
 42
-1.0
  3
SLDDIMSTYLE0
100
AcDbAlignedDimension
 13
59.6436876783
 23
130.9890416299
 33
0.0
 14
233.4436876783
 24
137.1393637691
 34
0.0
100
AcDbRotatedDimension
  0
DIMENSION
  5
14D
330
1F
100
AcDbEntity
  8
VERMASSUNG
100
AcDbDimension
  2
_D_5
 10
49.6436876783
 20
62.6393637691
 30
0.0
 11
49.6436876783
 21
112.6393637691
 31
0.0
 70
   160
  1
MAS BT 50 %%c<>
 71
     2
 42
-1.0
  3
SLDDIMSTYLE0
100
AcDbAlignedDimension
 13
195.4436895869
 23
162.6393637691
 33
0.0
 14
195.4436897404
 24
62.6393637691
 34
0.0
 50
90.0
100
AcDbRotatedDimension
  0
LINE
  5
159
330
1F
100
AcDbEntity
  8
VERMASSUNG
  6
CENTERX2
370
     0
100
AcDbLine
 10
56.6688563108
 20
112.6393637691
 30
0.0
 11
235.0186181518
 21
112.6393637691
 31
0.0
  0
LINE
  5
15A
330
1F
100
AcDbEntity
  8
0
  6
Continuous
 62
     7
370
    15
100
AcDbLine
 10
276.1724484186
 20
40.958169113
 30
0.0
 11
276.1150722837
 21
40.9913024174
 31
0.0
  0
LINE
  5
15B
330
1F
100
AcDbEntity
  8
0
  6
Continuous
 62
     7
370
    15
100
AcDbLine
 10
272.932574733
 20
40.9913024174
 30
0.0
 11
272.8751985981
 21
40.958169113
 31
0.0
  0
SPLINE
  5
15C
330
1F
100
AcDbEntity
  8
0
  6
Continuous
 62
     7
370
    15
100
AcDbSpline
210
0.0
220
0.0
230
1.0
 70
     8
 71
     3
 72
    18
 73
    14
 74
     0
 42
0.000000001
 43
0.00000001
 40
0.0
 40
0.0
 40
0.0
 40
0.0
 40
0.0262339791816979
 40
0.1271194126796276
 40
0.2284211548108465
 40
0.330090357767935
 40
0.432038984148978
 40
0.5341722979269355
 40
0.6364089601961133
 40
0.7386885628838344
 40
0.8409636988150163
 40
0.9432131711670144
 40
1.0
 40
1.0
 40
1.0
 40
1.0
 10
258.0609948233812
 20
12.01656404962557
 30
0.0
 10
258.1667447368683
 20
12.00283310756346
 30
0.0
 10
258.6791666916282
 20
11.93629843211892
 30
0.0
 10
259.6500799167458
 20
11.96119532377562
 30
0.0
 10
260.9667760315081
 20
12.09618795437157
 30
0.0
 10
262.3248238457413
 20
12.38683970493756
 30
0.0
 10
263.7101729753854
 20
12.81705054994848
 30
0.0
 10
265.1150959149169
 20
13.38787715803458
 30
0.0
 10
266.5298246157221
 20
14.09488680358227
 30
0.0
 10
267.9457252737193
 20
14.93177033076387
 30
0.0
 10
269.3519283568309
 20
15.89933069259036
 30
0.0
 10
270.5398018841558
 20
16.80861665636695
 30
0.0
 10
271.2446009436115
 20
17.43639585346527
 30
0.0
 10
271.4962623772134
 20
17.66055593229573
 30
0.0
  0
SPLINE
  5
15D
330
1F
100
AcDbEntity
  8
0
  6
Continuous
 62
     7
370
    15
100
AcDbSpline
210
0.0
220
0.0
230
1.0
 70
     8
 71
     3
 72
    18
 73
    14
 74
     0
 42
0.000000001
 43
0.00000001
 40
0.0
 40
0.0
 40
0.0
 40
0.0
 40
0.0246743201705175
 40
0.1272618359938903
 40
0.2298990755180465
 40
0.3325862124429326
 40
0.4353173886768506
 40
0.5380772189723574
 40
0.6408241140602134
 40
0.7435003984152249
 40
0.8460260988168626
 40
0.948301161748827
 40
1.0
 40
1.0
 40
1.0
 40
1.0
 10
283.9982149221562
 20
39.31006387847754
 30
0.0
 10
284.0299220432113
 20
39.45346431955314
 30
0.0
 10
284.1934566983367
 20
40.19307551400546
 30
0.0
 10
284.3811434013085
 20
41.50093674756585
 30
0.0
 10
284.5542478359104
 20
43.21892395144771
 30
0.0
 10
284.6059087696728
 20
44.88322567567154
 30
0.0
 10
284.5465092988408
 20
46.48618098098651
 30
0.0
 10
284.3730036480691
 20
48.0170486782411
 30
0.0
 10
284.086253221799
 20
49.46554691214396
 30
0.0
 10
283.6891933033519
 20
50.82406822812005
 30
0.0
 10
283.1773794734532
 20
52.07551922440305
 30
0.0
 10
282.677141761181
 20
53.04945907713925
 30
0.0
 10
282.3095419059745
 20
53.55851318902302
 30
0.0
 10
282.1861152387962
 20
53.72943505298274
 30
0.0
  0
LINE
  5
15E
330
1F
100
AcDbEntity
  8
0
  6
Continuous
 62
     7
370
    15
100
AcDbLine
 10
252.0457949009
 20
14.455706037
 30
0.0
 11
254.2643424269
 21
13.1749658115
 31
0.0
  0
LINE
  5
15F
330
1F
100
AcDbEntity
  8
0
  6
Continuous
 62
     7
370
    15
100
AcDbLine
 10
279.2623107428
 20
56.4774089306
 30
0.0
 11
277.0437632168
 21
57.758149156
 31
0.0
  0
LINE
  5
160
330
1F
100
AcDbEntity
  8
0
  6
Continuous
 62
     7
370
    15
100
AcDbLine
 10
278.9623551195
 20
17.5787367008
 30
0.0
 11
279.1391030836
 21
17.680804301
 31
0.0
  0
LINE
  5
161
330
1F
100
AcDbEntity
  8
0
  6
Continuous
 62
     7
370
    15
100
AcDbLine
 10
287.7997533251
 20
32.6831160775
 30
0.0
 11
287.7997533251
 21
32.8872181055
 31
0.0
  0
LINE
  5
162
330
1F
100
AcDbEntity
  8
0
  6
Continuous
 62
     7
370
    15
100
AcDbLine
 10
285.2104106393
 20
38.6102781863
 30
0.0
 11
274.7805856168
 21
44.631288011
 31
0.0
  0
LINE
  5
163
330
1F
100
AcDbEntity
  8
0
  6
Continuous
 62
     7
370
    15
100
AcDbLine
 10
262.2816014588
 20
22.9800664515
 30
0.0
 11
272.7114264813
 21
16.9590566268
 31
0.0
  0
LINE
  5
164
330
1F
100
AcDbEntity
  8
0
  6
Continuous
 62
     7
370
    15
100
AcDbLine
 10
271.7227846884
 20
60.8298846767
 30
0.0
 11
267.5950488532
 21
63.2127758531
 31
0.0
  0
SPLINE
  5
165
330
1F
100
AcDbEntity
  8
0
  6
Continuous
 62
     7
370
    15
100
AcDbSpline
210
0.0
220
0.0
230
1.0
 70
     8
 71
     3
 72
    31
 73
    27
 74
     0
 42
0.000000001
 43
0.00000001
 40
0.0
 40
0.0
 40
0.0
 40
0.0
 40
0.0182239934469082
 40
0.0617824007612076
 40
0.1055178609105048
 40
0.1494039945831699
 40
0.1934010791149139
 40
0.2374690326252148
 40
0.2815747258529964
 40
0.3256939655672293
 40
0.3698080036333312
 40
0.4139097612949064
 40
0.457996219628435
 40
0.5020669816102872
 40
0.5461232630075576
 40
0.5901672288851453
 40
0.6342015794255134
 40
0.6782293041015806
 40
0.7222535442117135
 40
0.7662775216106482
 40
0.8103038810604959
 40
0.854335453920584
 40
0.8983755468798706
 40
0.9424274374172817
 40
0.9864942920449876
 40
1.0
 40
1.0
 40
1.0
 40
1.0
 10
263.7087596910662
 20
64.37504540866168
 30
0.0
 10
263.5370185830805
 20
64.39326324750935
 30
0.0
 10
262.9547873618251
 20
64.4550247831447
 30
0.0
 10
261.9094139789322
 20
64.407840307167
 30
0.0
 10
260.5825511050007
 20
64.23740924752686
 30
0.0
 10
259.2173778413455
 20
63.91426274209613
 30
0.0
 10
257.8267050315274
 20
63.45138500144238
 30
0.0
 10
256.4186967181685
 20
62.84878169619418
 30
0.0
 10
255.0028913064587
 20
62.11134468154989
 30
0.0
 10
253.5884019909704
 20
61.24390054445706
 30
0.0
 10
252.184247429007
 20
60.2523662923853
 30
0.0
 10
250.7992083008604
 20
59.14330306197958
 30
0.0
 10
249.4418248395231
 20
57.92391306086607
 30
0.0
 10
248.1204326986074
 20
56.60201157395105
 30
0.0
 10
246.8431386285299
 20
55.18599551208299
 30
0.0
 10
245.6177852863229
 20
53.68480090315767
 30
0.0
 10
244.4519108036714
 20
52.10785757633595
 30
0.0
 10
243.3527085764623
 20
50.46503848599611
 30
0.0
 10
242.3269758013814
 20
48.76660116654111
 30
0.0
 10
241.3811089915864
 20
47.0231433349231
 30
0.0
 10
240.5209409784272
 20
45.24550626477323
 30
0.0
 10
239.7521528254229
 20
43.44481620796783
 30
0.0
 10
239.0785536669188
 20
41.63197549152252
 30
0.0
 10
238.5083544049905
 20
39.81920120919607
 30
0.0
 10
238.1411382527902
 20
38.43152109420239
 30
0.0
 10
237.975863960142
 20
37.65484208871371
 30
0.0
 10
237.937092951369
 20
37.47264419179279
 30
0.0
  0
SPLINE
  5
166
330
1F
100
AcDbEntity
  8
0
  6
Continuous
 62
     7
370
    15
100
AcDbSpline
210
0.0
220
0.0
230
1.0
 70
     8
 71
     3
 72
    19
 73
    15
 74
     0
 42
0.000000001
 43
0.00000001
 40
0.0
 40
0.0
 40
0.0
 40
0.0
 40
0.0064814783554793
 40
0.1054089223575136
 40
0.204253497034617
 40
0.3029427898542245
 40
0.4014105556484872
 40
0.4996087617241681
 40
0.5975436725367103
 40
0.6953552628111882
 40
0.7932934090569408
 40
0.8920815801431123
 40
0.9929226775489076
 40
1.0
 40
1.0
 40
1.0
 40
1.0
 10
275.6884161287816
 20
30.09079061493206
 30
0.0
 10
275.6996881763769
 20
30.11077751726116
 30
0.0
 10
275.8830065992147
 20
30.43582648297964
 30
0.0
 10
276.3078485524229
 20
31.0204628767877
 30
0.0
 10
276.9518110890464
 20
31.81573145271181
 30
0.0
 10
277.6469160867146
 20
32.51507086786304
 30
0.0
 10
278.3655752891541
 20
33.10929131154592
 30
0.0
 10
279.0927444370347
 20
33.58393721332327
 30
0.0
 10
279.8096749753257
 20
33.93068476281996
 30
0.0
 10
280.4979227831221
 20
34.14300508642147
 30
0.0
 10
281.1441328690981
 20
34.22477208562749
 30
0.0
 10
281.7266790906476
 20
34.16116129586943
 30
0.0
 10
282.1028096137859
 20
34.06556028640741
 30
0.0
 10
282.2635598537937
 20
33.95416099090578
 30
0.0
 10
282.2741019029094
 20
33.94685539158238
 30
0.0
  0
SPLINE
  5
167
330
1F
100
AcDbEntity
  8
0
  6
Continuous
 62
     7
370
    15
100
AcDbSpline
210
0.0
220
0.0
230
1.0
 70
     8
 71
     3
 72
    10
 73
     6
 74
     0
 42
0.000000001
 43
0.00000001
 40
0.0
 40
0.0
 40
0.0
 40
0.0
 40
0.0961639693045012
 40
0.5631196643910835
 40
1.0
 40
1.0
 40
1.0
 40
1.0
 10
274.6951148187916
 20
28.09539283433243
 30
0.0
 10
274.719789227772
 20
28.16096549064656
 30
0.0
 10
274.8642783228515
 20
28.54494768776157
 30
0.0
 10
275.1789883403222
 20
29.22453009717338
 30
0.0
 10
275.5224160792677
 20
29.80851451594899
 30
0.0
 10
275.6884161287816
 20
30.09079061493206
 30
0.0
  0
LINE
  5
168
330
1F
100
AcDbEntity
  8
0
  6
Continuous
 62
     7
370
    15
100
AcDbLine
 10
274.6129236993
 20
22.4956858272
 30
0.0
 11
274.545805674
 21
22.5998776284
 31
0.0
  0
SPLINE
  5
169
330
1F
100
AcDbEntity
  8
0
  6
Continuous
 62
     7
370
    15
100
AcDbSpline
210
0.0
220
0.0
230
1.0
 70
     8
 71
     3
 72
    10
 73
     6
 74
     0
 42
0.000000001
 43
0.00000001
 40
0.0
 40
0.0
 40
0.0
 40
0.0
 40
0.4813608774191193
 40
0.9612538985461023
 40
1.0
 40
1.0
 40
1.0
 40
1.0
 10
275.4355937685367
 20
21.7449575056445
 30
0.0
 10
275.2862039820311
 20
21.83551133973655
 30
0.0
 10
274.987879956507
 20
22.01634287410631
 30
0.0
 10
274.7346687884157
 20
22.30520937861775
 30
0.0
 10
274.6213866929024
 20
22.48244503885599
 30
0.0
 10
274.6129236993206
 20
22.49568582724594
 30
0.0
  0
LINE
  5
16A
330
1F
100
AcDbEntity
  8
0
  6
Continuous
 62
     7
370
    15
100
AcDbLine
 10
253.1730938774
 20
60.928751091
 30
0.0
 11
222.8257008411
 21
71.8647486122
 31
0.0
  0
LINE
  5
16B
330
1F
100
AcDbEntity
  8
0
  6
Continuous
 62
     7
370
    15
100
AcDbLine
 10
212.7163461657
 20
54.3529352413
 30
0.0
 11
242.1800834923
 21
29.4739990159
 31
0.0
  0
LINE
  5
16C
330
1F
100
AcDbEntity
  8
0
  6
Continuous
 62
     7
370
    15
100
AcDbLine
 10
242.5970805373
 20
19.9103327341
 30
0.0
 11
246.7248163725
 21
17.5274415577
 31
0.0
  0
SPLINE
  5
16D
330
1F
100
AcDbEntity
  8
0
  6
Continuous
 62
     7
370
    15
100
AcDbSpline
210
0.0
220
0.0
230
1.0
 70
     8
 71
     3
 72
    11
 73
     7
 74
     0
 42
0.000000001
 43
0.00000001
 40
0.0
 40
0.0
 40
0.0
 40
0.0
 40
0.103892601231773
 40
0.4191455586386527
 40
0.7339157477805021
 40
1.0
 40
1.0
 40
1.0
 40
1.0
 10
237.9415117378476
 20
26.38473388091403
 30
0.0
 10
237.9837927285073
 20
26.23481985349617
 30
0.0
 10
238.1543716652144
 20
25.63000490012281
 30
0.0
 10
238.534416915145
 20
24.64164099989086
 30
0.0
 10
239.0799319689452
 20
23.51317258689063
 30
0.0
 10
239.5172984255575
 20
22.87272405671415
 30
0.0
 10
239.7176521084541
 20
22.57934028256638
 30
0.0
  0
SPLINE
  5
16E
330
1F
100
AcDbEntity
  8
0
  6
Continuous
 62
     7
370
    15
100
AcDbSpline
210
0.0
220
0.0
230
1.0
 70
     8
 71
     3
 72
    26
 73
    22
 74
     0
 42
0.000000001
 43
0.00000001
 40
0.0
 40
0.0
 40
0.0
 40
0.0
 40
0.0197718130349116
 40
0.0719291881301987
 40
0.1247388498623818
 40
0.1787271579796435
 40
0.2339852864304384
 40
0.2902232408334229
 40
0.3469997390200578
 40
0.4039310368551973
 40
0.4607877573149275
 40
0.5175200098690544
 40
0.5741374220511487
 40
0.630677120154301
 40
0.6871877750909801
 40
0.7437219618168532
 40
0.8003180846586544
 40
0.8570329297723878
 40
0.9139216282917155
 40
0.9710300866836912
 40
1.0
 40
1.0
 40
1.0
 40
1.0
 10
222.892468764462
 20
71.82043057507637
 30
0.0
 10
222.7998287340112
 20
71.86091001567365
 30
0.0
 10
222.4628074316693
 20
72.00817285358269
 30
0.0
 10
221.8175809462173
 20
72.11383383412138
 30
0.0
 10
220.9757675719516
 20
72.13784046639097
 30
0.0
 10
220.0923185135694
 20
72.00881872816642
 30
0.0
 10
219.181225010499
 20
71.73800880650624
 30
0.0
 10
218.2539432191497
 20
71.32364680642465
 30
0.0
 10
217.3269993788175
 20
70.77273034977712
 30
0.0
 10
216.4169955247814
 20
70.09540446977344
 30
0.0
 10
215.539135590134
 20
69.30466165728045
 30
0.0
 10
214.7066383690245
 20
68.41443796339688
 30
0.0
 10
213.9312147970755
 20
67.43910769186732
 30
0.0
 10
213.2236913930682
 20
66.3936702435951
 30
0.0
 10
212.5941096287003
 20
65.29372418155924
 30
0.0
 10
212.0516752802043
 20
64.15542315866091
 30
0.0
 10
211.6048249040165
 20
62.99529201635229
 30
0.0
 10
211.2603171847707
 20
61.82954355206825
 30
0.0
 10
211.0264945786137
 20
60.67535047187932
 30
0.0
 10
210.9220538326385
 20
59.73210339500094
 30
0.0
 10
210.9127598449039
 20
59.18594832593207
 30
0.0
 10
210.9096319277083
 20
59.00213833168858
 30
0.0
  0
SPLINE
  5
16F
330
1F
100
AcDbEntity
  8
0
  6
Continuous
 62
     7
370
    15
100
AcDbSpline
210
0.0
220
0.0
230
1.0
 70
     8
 71
     3
 72
    13
 73
     9
 74
     0
 42
0.000000001
 43
0.00000001
 40
0.0
 40
0.0
 40
0.0
 40
0.0
 40
0.1017086554518487
 40
0.2935148688881801
 40
0.4853091559269201
 40
0.6752471149565382
 40
0.8614317085389452
 40
1.0
 40
1.0
 40
1.0
 40
1.0
 10
210.9096319277083
 20
59.00213833168858
 30
0.0
 10
210.9130764572081
 20
58.81183661465359
 30
0.0
 10
210.9230168169544
 20
58.2626563774695
 30
0.0
 10
211.0344779206127
 20
57.40082630558371
 30
0.0
 10
211.2851918325038
 20
56.45408841753453
 30
0.0
 10
211.6658489512057
 20
55.61053624839187
 30
0.0
 10
212.1129037649267
 20
54.92568400709954
 30
0.0
 10
212.4804452202492
 20
54.58623515986386
 30
0.0
 10
212.6372708986364
 20
54.44139627169331
 30
0.0
  0
LWPOLYLINE
  5
170
330
1F
100
AcDbEntity
  8
0
  6
Continuous
 62
     7
370
    15
100
AcDbPolyline
 90
       14
 70
   128
 43
0.0
 10
272.9135079995
 20
40.9801582628
 10
273.4214593415
 20
41.2053145886
 10
274.0187176724
 20
41.3387369174
 10
274.6568966741
 20
41.3696161657
 10
275.2842948794
 20
41.2954506803
 10
275.8500842168
 20
41.1222489078
 10
276.3084277993
 20
40.8640426258
 10
276.6221933555
 20
40.5417501716
 10
276.7659614662
 20
40.181481763
 10
276.7280848941
 20
39.8124242041
 10
276.5116321737
 20
39.4644763433
 10
276.1341390172
 20
39.1658268469
 10
275.6261876751
 20
38.9406705211
 10
275.3250326936
 20
38.8592372337
  0
LWPOLYLINE
  5
171
330
1F
100
AcDbEntity
  8
0
  6
Continuous
 62
     7
370
    15
100
AcDbPolyline
 90
        9
 70
   128
 43
0.0
 10
274.327793409
 20
38.7790343482
 10
273.7633521373
 20
38.8505344294
 10
273.1975627998
 20
39.0237362019
 10
272.7392192174
 20
39.2819424839
 10
272.4254536612
 20
39.6042349382
 10
272.2816855505
 20
39.9645033467
 10
272.3195621226
 20
40.3335609056
 10
272.536014843
 20
40.6815087665
 10
272.9135079995
 20
40.9801582628
  0
LWPOLYLINE
  5
172
330
1F
100
AcDbEntity
  8
0
  6
Continuous
 62
     7
370
    15
100
AcDbPolyline
 90
       19
 70
   128
 43
0.0
 10
273.4502798358
 20
40.6777696935
 10
273.8733289827
 20
40.8532619541
 10
274.3748373698
 20
40.9346422096
 10
274.8943156839
 20
40.9120948001
 10
275.3691071738
 20
40.7883392761
 10
275.7419449786
 20
40.57830238
 10
275.9678593565
 20
40.3073176615
 10
276.0196016995
 20
40.0080698768
 10
275.8909311172
 20
39.7166527253
 10
275.5973671809
 20
39.4682154162
 10
275.174318034
 20
39.2927231556
 10
274.6728096469
 20
39.2113429001
 10
274.1533313327
 20
39.2338903096
 10
273.6785398428
 20
39.3576458337
 10
273.3057020381
 20
39.5676827297
 10
273.0797876602
 20
39.8386674482
 10
273.0280453172
 20
40.1379152329
 10
273.1567158995
 20
40.4293323844
 10
273.4502798358
 20
40.6777696935
  0
SPLINE
  5
173
330
1F
100
AcDbEntity
  8
0
  6
Continuous
 62
     7
370
    15
100
AcDbSpline
210
0.0
220
0.0
230
1.0
 70
     8
 71
     3
 72
    13
 73
     9
 74
     0
 42
0.000000001
 43
0.00000001
 40
0.0
 40
0.0
 40
0.0
 40
0.0
 40
0.1281940639112337
 40
0.3016059688761543
 40
0.4802226824374565
 40
0.644962463753808
 40
0.8155900900874845
 40
1.0
 40
1.0
 40
1.0
 40
1.0
 10
273.1251682190212
 20
40.23256316534138
 30
0.0
 10
273.1658145180959
 20
40.23408569573106
 30
0.0
 10
273.2614442691126
 20
40.23766779804776
 30
0.0
 10
273.4224594584598
 20
40.27219863615218
 30
0.0
 10
273.603339740871
 20
40.35039104515542
 30
0.0
 10
273.7841649057543
 20
40.4741273671345
 30
0.0
 10
273.961376806999
 20
40.63400900327949
 30
0.0
 10
274.0744881988734
 20
40.76228428139223
 30
0.0
 10
274.1332393433472
 20
40.82891169417479
 30
0.0
  0
SPLINE
  5
174
330
1F
100
AcDbEntity
  8
0
  6
Continuous
 62
     7
370
    15
100
AcDbSpline
210
0.0
220
0.0
230
1.0
 70
     8
 71
     3
 72
    12
 73
     8
 74
     0
 42
0.000000001
 43
0.00000001
 40
0.0
 40
0.0
 40
0.0
 40
0.0
 40
0.2161846684386977
 40
0.4397605101600251
 40
0.5934164929481166
 40
0.7522078034353519
 40
1.0
 40
1.0
 40
1.0
 40
1.0
 10
273.5157523840189
 20
39.43040795206458
 30
0.0
 10
273.4890091570033
 20
39.44835168738152
 30
0.0
 10
273.434608374373
 20
39.48485263934145
 30
0.0
 10
273.3546296398544
 20
39.59973964574594
 30
0.0
 10
273.2815074824128
 20
39.7545459661907
 30
0.0
 10
273.2064063241525
 20
39.95461678343152
 30
0.0
 10
273.1559306211153
 20
40.12731331556854
 30
0.0
 10
273.1251682190212
 20
40.23256316534138
 30
0.0
  0
SPLINE
  5
175
330
1F
100
AcDbEntity
  8
0
  6
Continuous
 62
     7
370
    15
100
AcDbSpline
210
0.0
220
0.0
230
1.0
 70
     8
 71
     3
 72
    10
 73
     6
 74
     0
 42
0.000000001
 43
0.00000001
 40
0.0
 40
0.0
 40
0.0
 40
0.0
 40
0.361600224762045
 40
0.68531949271642
 40
0.9999999999999999
 40
0.9999999999999999
 40
0.9999999999999999
 40
0.9999999999999999
 10
275.9224787976686
 20
39.82094979645459
 30
0.0
 10
275.8637269331892
 20
39.75452920085096
 30
0.0
 10
275.7523780036145
 20
39.62864617930426
 30
0.0
 10
275.5786924672634
 20
39.4686702068685
 30
0.0
 10
275.4642712857672
 20
39.39577705795629
 30
0.0
 10
275.4078707091476
 20
39.35984651103741
 30
0.0
  0
SPLINE
  5
176
330
1F
100
AcDbEntity
  8
0
  6
Continuous
 62
     7
370
    15
100
AcDbSpline
210
0.0
220
0.0
230
1.0
 70
     8
 71
     3
 72
    11
 73
     7
 74
     0
 42
0.000000001
 43
0.00000001
 40
0.0
 40
0.0
 40
0.0
 40
0.0
 40
0.216454300964509
 40
0.4403089937225426
 40
0.7518987489759512
 40
1.0
 40
1.0
 40
1.0
 40
1.0
 10
275.5318946326709
 20
40.6231050097314
 30
0.0
 10
275.5586498907124
 20
40.53118878980812
 30
0.0
 10
275.6130751467252
 20
40.34421381115968
 30
0.0
 10
275.7140741185312
 20
40.07410890333732
 30
0.0
 10
275.822414158639
 20
39.88939754229502
 30
0.0
 10
275.8917454477236
 20
39.84197249284626
 30
0.0
 10
275.9224787976686
 20
39.8209497964546
 30
0.0
  0
SPLINE
  5
177
330
1F
100
AcDbEntity
  8
0
  6
Continuous
 62
     7
370
    15
100
AcDbSpline
210
0.0
220
0.0
230
1.0
 70
     8
 71
     3
 72
    12
 73
     8
 74
     0
 42
0.000000001
 43
0.00000001
 40
0.0
 40
0.0
 40
0.0
 40
0.0
 40
0.2161846684386944
 40
0.4397605101600243
 40
0.5934164929481107
 40
0.752207803435355
 40
1.0
 40
1.0
 40
1.0
 40
1.0
 10
274.1332393433472
 20
40.82891169417479
 30
0.0
 10
274.2290050176143
 20
40.77784046096623
 30
0.0
 10
274.4238105145797
 20
40.67395191173423
 30
0.0
 10
274.7102089149565
 20
40.58244161828126
 30
0.0
 10
274.9720543798718
 20
40.54854507981566
 30
0.0
 10
275.2409865119151
 20
40.5548059252632
 30
0.0
 10
275.4217365662235
 20
40.59724222162635
 30
0.0
 10
275.5318946326709
 20
40.6231050097314
 30
0.0
  0
LINE
  5
178
330
1F
100
AcDbEntity
  8
0
  6
Continuous
 62
     7
370
    15
100
AcDbLine
 10
275.5318946327
 20
39.4444942544
 30
0.0
 11
275.5318946327
 21
40.6231050097
 31
0.0
  0
LINE
  5
179
330
1F
100
AcDbEntity
  8
0
  6
Continuous
 62
     7
370
    15
100
AcDbLine
 10
274.1332393433
 20
39.2369324474
 30
0.0
 11
274.1332393433
 21
40.8289116942
 31
0.0
  0
ARC
  5
17A
330
1F
100
AcDbEntity
  8
0
  6
Continuous
 62
     7
370
    15
100
AcDbCircle
 10
274.9048336675
 20
48.926744395
 30
0.0
 40
8.707898968061828
100
AcDbArc
 50
34.3406250395
 51
84.8700882705
  0
ARC
  5
17B
330
1F
100
AcDbEntity
  8
0
  6
Continuous
 62
     7
370
    15
100
AcDbCircle
 10
258.6109362816
 20
20.702069708
 30
0.0
 40
8.684222788800103
100
AcDbArc
 50
215.2000783552
 51
265.4598339297
  0
LWPOLYLINE
  5
17C
330
1F
100
AcDbEntity
  8
0
  6
Continuous
 62
     7
370
    15
100
AcDbPolyline
 90
        9
 70
   128
 43
0.0
 10
252.0457949009
 20
14.455706037
 10
251.8794716377
 20
14.5543120478
 10
250.8885772499
 20
15.2607672395
 10
249.9941561441
 20
16.1144886724
 10
249.2025268958
 20
17.1094452911
 10
248.5192819144
 20
18.2386082943
 10
247.9492479362
 20
19.4940007888
 10
247.4964519263
 20
20.8667541424
 10
247.1640926306
 20
22.3471706349
  0
SPLINE
  5
17D
330
1F
100
AcDbEntity
  8
0
  6
Continuous
 62
     7
370
    15
100
AcDbSpline
210
0.0
220
0.0
230
1.0
 70
     8
 71
     3
 72
    32
 73
    28
 74
     0
 42
0.000000001
 43
0.00000001
 40
0.0
 40
0.0
 40
0.0
 40
0.0
 40
0.0193254758647258
 40
0.0385826927399014
 40
0.0577846348003733
 40
0.0769443985950771
 40
0.0960751672943215
 40
0.1151901840580798
 40
0.1343027247879751
 40
0.1534260705402312
 40
0.172573479885108
 40
0.1917581614995186
 40
0.2109932472740069
 40
0.2302917662029109
 40
0.2496666193081449
 40
0.3745846283005043
 40
0.4997410234224777
 40
0.4999962720873377
 40
0.6248627021449072
 40
0.7503411293897363
 40
0.7861451323127985
 40
0.8217618640028611
 40
0.8572756267732794
 40
0.8927714566788081
 40
0.9283345184945242
 40
0.9640494961196089
 40
1.0
 40
1.0
 40
1.0
 40
1.0
 10
247.1640373545563
 20
29.79899540134829
 30
0.0
 10
247.185980571844
 20
29.73890435763432
 30
0.0
 10
247.2297895013763
 20
29.61893451615331
 30
0.0
 10
247.2922287525982
 20
29.43818696204618
 30
0.0
 10
247.3521373801249
 20
29.25734356563077
 30
0.0
 10
247.4093239657585
 20
29.07633645009074
 30
0.0
 10
247.4638820369665
 20
28.89520704776969
 30
0.0
 10
247.5158297835572
 20
28.71396853043881
 30
0.0
 10
247.5652062630201
 20
28.53264257622891
 30
0.0
 10
247.6120456444677
 20
28.35124949949309
 30
0.0
 10
247.6563842508133
 20
28.16981114408992
 30
0.0
 10
247.6982580940366
 20
27.98834925511602
 30
0.0
 10
247.7377056852252
 20
27.80688920266262
 30
0.0
 10
247.7747592045855
 20
27.62544675696932
 30
0.0
 10
247.8724513042197
 20
27.11509580522723
 30
0.0
 10
247.9899475030529
 20
26.28849427653899
 30
0.0
 10
248.0247989391735
 20
25.57317478124562
 30
0.0
 10
248.0251947633475
 20
24.89646281634467
 30
0.0
 10
247.9901434123013
 20
24.25477169224703
 30
0.0
 10
247.8652093321302
 20
23.6334707534667
 30
0.0
 10
247.7444831512572
 20
23.26084665147617
 30
0.0
 10
247.6701757387346
 20
23.07204995033366
 30
0.0
 10
247.5872622675026
 20
22.89785866736652
 30
0.0
 10
247.4955634664932
 20
22.73804249730115
 30
0.0
 10
247.3946613988712
 20
22.59283862469133
 30
0.0
 10
247.2851085020722
 20
22.46079166457415
 30
0.0
 10
247.2045802041712
 20
22.38509217964258
 30
0.0
 10
247.1641837284153
 20
22.34711804523915
 30
0.0
  0
LWPOLYLINE
  5
17E
330
1F
100
AcDbEntity
  8
0
  6
Continuous
 62
     7
370
    15
100
AcDbPolyline
 90
       27
 70
   128
 43
0.0
 10
247.1640373543
 20
29.7989954015
 10
247.4963766943
 20
31.6631612638
 10
247.9491562527
 20
33.5587205774
 10
248.5191773212
 20
35.4722819655
 10
249.2024129264
 20
37.3903268739
 10
249.994036279
 20
39.2993050742
 10
250.8884548731
 20
41.1857303904
 10
251.8793499954
 20
43.036275974
 10
252.9597213636
 20
44.8378684526
 10
254.1219365815
 20
46.5777802879
 10
255.3577850583
 20
48.243719691
 10
256.6585360134
 20
49.8239174593
 10
258.0150001559
 20
51.3072101205
 10
259.4175946032
 20
52.6831187987
 10
260.8564105805
 20
53.9419232436
 10
262.3212834219
 20
55.0747304995
 10
263.8018643804
 20
56.0735377315
 10
265.2876937373
 20
56.9312887614
 10
266.7682746958
 20
57.6419239177
 10
268.2331475372
 20
58.200422844
 10
269.6719635145
 20
58.6028399664
 10
271.0745579618
 20
58.8463323671
 10
272.4310221043
 20
58.9291798686
 10
273.7317730594
 20
58.8507971861
 10
274.9676215362
 20
58.6117380622
 10
276.1298367541
 20
58.2136913551
 10
277.0437632168
 20
57.758149156
  0
LWPOLYLINE
  5
17F
330
1F
100
AcDbEntity
  8
0
  6
Continuous
 62
     7
370
    15
100
AcDbPolyline
 90
       53
 70
   128
 43
0.0
 10
279.1376952556
 20
37.6852413382
 10
278.0935995317
 20
37.0095673087
 10
277.0647290746
 20
36.1978853325
 10
276.0660871323
 20
35.2620315603
 10
275.1122361531
 20
34.2156528477
 10
274.2170854321
 20
33.0740077524
 10
273.3936882827
 20
31.8537440307
 10
272.6540516893
 20
30.5726558755
 10
272.0089612189
 20
29.2494244369
 10
271.4678237434
 20
27.9033454088
 10
271.0385302655
 20
26.5540476546
 10
270.7273408509
 20
25.221206974
 10
270.538793342
 20
23.9242591853
 10
270.4756371861
 20
22.6821167077
 10
270.538793342
 20
21.5128927757
 10
270.7273408509
 20
20.433637307
 10
271.0385302655
 20
19.4600882767
 10
271.4678237434
 20
18.6064422218
 10
272.0089612189
 20
17.8851472242
 10
272.6540516893
 20
17.3067213889
 10
273.3936882827
 20
16.8795994673
 10
274.2170854321
 20
16.6100098588
 10
275.1122361531
 20
16.5018837868
 10
276.0660871323
 20
16.5567979731
 10
277.0647290746
 20
16.773951645
 10
278.0935995317
 20
17.1501782132
 10
279.1376952556
 20
17.679991447
 10
280.1817909795
 20
18.3556654765
 10
281.2106614366
 20
19.1673474528
 10
282.2093033789
 20
20.1032012249
 10
283.1631543581
 20
21.1495799376
 10
284.058305079
 20
22.2912250328
 10
284.8817022285
 20
23.5114887545
 10
285.6213388219
 20
24.7925769097
 10
286.2664292922
 20
26.1158083483
 10
286.8075667678
 20
27.4618873764
 10
287.2368602457
 20
28.8111851306
 10
287.5480496603
 20
30.1440258112
 10
287.7365971692
 20
31.4409736
 10
287.7997533251
 20
32.6831160775
 10
287.7365971692
 20
33.8523400095
 10
287.5480496603
 20
34.9315954782
 10
287.2368602457
 20
35.9051445085
 10
286.8075667678
 20
36.7587905634
 10
286.2664292922
 20
37.4800855611
 10
285.6213388219
 20
38.0585113963
 10
284.8817022285
 20
38.4856333179
 10
284.058305079
 20
38.7552229265
 10
283.1631543581
 20
38.8633489984
 10
282.2093033789
 20
38.8084348122
 10
281.2106614366
 20
38.5912811402
 10
280.1817909795
 20
38.215054572
 10
279.1376952556
 20
37.6852413382
  0
LWPOLYLINE
  5
180
330
1F
100
AcDbEntity
  8
0
  6
Continuous
 62
     7
370
    15
100
AcDbPolyline
 90
       28
 70
   128
 43
0.0
 10
278.9609185603
 20
37.9914275552
 10
277.9155215454
 20
37.3162924347
 10
276.8847996131
 20
36.5073541925
 10
275.8832218398
 20
35.5759685481
 10
274.9248481822
 20
34.5352101145
 10
274.0231321054
 20
33.3996888586
 10
273.1907317268
 20
32.1853450098
 10
272.4393321228
 20
30.9092252938
 10
271.779481297
 20
29.5892436342
 10
271.2204421084
 20
28.2439296801
 10
270.7700622419
 20
26.8921686904
 10
270.4346640435
 20
25.5529364263
 10
270.2189557688
 20
24.2450327731
 10
270.125965489
 20
22.9868178312
 10
270.1569985839
 20
21.7959541803
 10
270.3116194168
 20
20.6891589357
 10
270.5876574502
 20
19.6819690765
 10
270.9812377152
 20
18.7885233405
 10
271.4868352075
 20
18.0213637474
 10
272.0973524468
 20
17.3912595362
 10
272.8042191091
 20
16.9070559889
 10
273.5975123361
 20
16.5755502619
 10
274.4660960298
 20
16.4013959689
 10
275.397777179
 20
16.3870378545
 10
276.3794770227
 20
16.5326774751
 10
277.397414647
 20
16.8362703696
 10
278.437300439
 20
17.2935547594
 10
278.9623551195
 20
17.5787367008
  0
LWPOLYLINE
  5
181
330
1F
100
AcDbEntity
  8
0
  6
Continuous
 62
     7
370
    15
100
AcDbPolyline
 90
       15
 70
   128
 43
0.0
 10
287.7997533251
 20
32.8872181055
 10
287.7958716316
 20
33.187437521
 10
287.7028813518
 20
34.3382881712
 10
287.4871730771
 20
35.3971403515
 10
287.1517748787
 20
36.3491300985
 10
286.7013950121
 20
37.1808935628
 10
286.1423558236
 20
37.8807546087
 10
285.4825049977
 20
38.4388887211
 10
284.7311053938
 20
38.8474609206
 10
283.8987050151
 20
39.1007357491
 10
282.9969889384
 20
39.1951577832
 10
282.0386152807
 20
39.1294015446
 10
281.0370375075
 20
38.9043901066
 10
280.0063155752
 20
38.5232821366
 10
278.9609185603
 20
37.9914275552
  0
SPLINE
  5
182
330
1F
100
AcDbEntity
  8
0
  6
Continuous
 62
     7
370
    15
100
AcDbSpline
210
0.0
220
0.0
230
1.0
 70
    11
 71
     3
 72
    77
 73
    73
 74
     0
 42
0.000000001
 43
0.00000001
 40
0.0
 40
0.0
 40
0.0
 40
0.0
 40
0.0312499999999995
 40
0.0312499999999995
 40
0.062499999999999
 40
0.062499999999999
 40
0.0937499999999985
 40
0.0937499999999985
 40
0.124999999999998
 40
0.124999999999998
 40
0.1562499999999975
 40
0.1562499999999975
 40
0.187499999999997
 40
0.187499999999997
 40
0.2187499999999965
 40
0.2187499999999965
 40
0.2499999999999965
 40
0.2499999999999965
 40
0.2812499999999965
 40
0.2812499999999965
 40
0.3124999999999965
 40
0.3124999999999965
 40
0.3437499999999965
 40
0.3437499999999965
 40
0.3593749999999964
 40
0.3593749999999964
 40
0.3749999999999963
 40
0.3906249999999962
 40
0.3906249999999962
 40
0.4062499999999962
 40
0.4062499999999962
 40
0.4374999999999962
 40
0.4374999999999962
 40
0.4687499999999963
 40
0.4687499999999963
 40
0.4999999999999963
 40
0.4999999999999963
 40
0.5312499999999963
 40
0.5312499999999963
 40
0.5624999999999964
 40
0.5624999999999964
 40
0.5937499999999964
 40
0.5937499999999964
 40
0.6249999999999966
 40
0.6249999999999966
 40
0.6562499999999966
 40
0.6562499999999966
 40
0.6874999999999967
 40
0.6874999999999967
 40
0.7187499999999967
 40
0.7187499999999967
 40
0.7499999999999968
 40
0.7499999999999968
 40
0.7656249999999969
 40
0.7656249999999969
 40
0.7812499999999969
 40
0.7812499999999969
 40
0.8124999999999974
 40
0.8124999999999974
 40
0.8437499999999979
 40
0.8437499999999979
 40
0.8749999999999984
 40
0.8749999999999984
 40
0.8906249999999987
 40
0.8906249999999987
 40
0.9062499999999988
 40
0.9062499999999988
 40
0.9374999999999992
 40
0.9374999999999992
 40
0.9687499999999996
 40
0.9687499999999996
 40
1.0
 40
1.0
 40
1.0
 40
1.0
 10
274.5090204870347
 20
42.06090727441685
 30
0.0
 10
274.6959383207441
 20
42.03457396759136
 30
0.0
 10
274.8781389642888
 20
41.9988106396117
 30
0.0
 10
275.2341091749719
 20
41.91165650974564
 30
0.0
 10
275.4090591778601
 20
41.85981838495322
 30
0.0
 10
275.7449574596447
 20
41.74338279549951
 30
0.0
 10
275.9038419144548
 20
41.6796428135094
 30
0.0
 10
276.2042623045422
 20
41.54239114703984
 30
0.0
 10
276.3470084413885
 20
41.46810287194872
 30
0.0
 10
276.6070220882364
 20
41.31376937671052
 30
0.0
 10
276.7243765380355
 20
41.23392384833011
 30
0.0
 10
276.9339683638578
 20
41.06853195311529
 30
0.0
 10
277.0268799749222
 20
40.98208847894823
 30
0.0
 10
277.1803587028426
 20
40.80784004217673
 30
0.0
 10
277.2415495383732
 20
40.71985369178536
 30
0.0
 10
277.3320354575213
 20
40.54060228268928
 30
0.0
 10
277.36125862775
 20
40.44837207690284
 30
0.0
 10
277.3829587704432
 20
40.2658334239555
 30
0.0
 10
277.3760922138555
 20
40.17498232353208
 30
0.0
 10
277.3245693830593
 20
39.99224816652402
 30
0.0
 10
277.2789672565823
 20
39.89967749360991
 30
0.0
 10
277.1511142841827
 20
39.72136647985536
 30
0.0
 10
277.0688580884787
 20
39.6344949748317
 30
0.0
 10
276.9156388812194
 20
39.50704384655351
 30
0.0
 10
276.8595339191452
 20
39.46511784095065
 30
0.0
 10
276.7403695741836
 20
39.38462159689637
 30
0.0
 10
276.6135309566506
 20
39.30684806644746
 30
0.0
 10
276.4714972063713
 20
39.23443227208815
 30
0.0
 10
276.3216993467444
 20
39.1647891544917
 30
0.0
 10
276.2428764000351
 20
39.13139133924037
 30
0.0
 10
276.0011017588886
 20
39.0380886932063
 30
0.0
 10
275.8309132040811
 20
38.98400767480437
 30
0.0
 10
275.4730802477408
 20
38.89265541265024
 30
0.0
 10
275.2894035376733
 20
38.85652206375714
 30
0.0
 10
274.9191746942412
 20
38.80437329519451
 30
0.0
 10
274.7298931605256
 20
38.78816881033274
 30
0.0
 10
274.3590420235818
 20
38.7774505287276
 30
0.0
 10
274.1765410659275
 20
38.78261585660867
 30
0.0
 10
273.8169713852858
 20
38.81485633644417
 30
0.0
 10
273.6413559559623
 20
38.84202822922419
 30
0.0
 10
273.3077051885135
 20
38.9171209318395
 30
0.0
 10
273.1481398039805
 20
38.96515680157801
 30
0.0
 10
272.8437312742686
 20
39.08346599052157
 30
0.0
 10
272.7028295276598
 20
39.15225273358409
 30
0.0
 10
272.4438556049135
 20
39.30792104720857
 30
0.0
 10
272.3251959488706
 20
39.39522306920014
 30
0.0
 10
272.113059076127
 20
39.58731460247559
 30
0.0
 10
272.0218728591502
 20
39.68988127496514
 30
0.0
 10
271.868704582472
 20
39.90691651914309
 30
0.0
 10
271.8064107035541
 20
40.0221854229568
 30
0.0
 10
271.7150891967165
 20
40.26077287205831
 30
0.0
 10
271.6866370318543
 20
40.3819282089648
 30
0.0
 10
271.6701913646888
 20
40.56530867599658
 30
0.0
 10
271.669112251427
 20
40.62671196497238
 30
0.0
 10
271.6762506040259
 20
40.74989195375235
 30
0.0
 10
271.6845772941817
 20
40.81202820031992
 30
0.0
 10
271.7236816121014
 20
40.99457414892886
 30
0.0
 10
271.7682484428033
 20
41.11195976915312
 30
0.0
 10
271.8959871685708
 20
41.33625523428211
 30
0.0
 10
271.9808295091165
 20
41.44440030433647
 30
0.0
 10
272.1841933977018
 20
41.63734701224885
 30
0.0
 10
272.3026815756908
 20
41.72321997034771
 30
0.0
 10
272.506672143528
 20
41.83521859505323
 30
0.0
 10
272.5789888757341
 20
41.86959320567007
 30
0.0
 10
272.7284316256607
 20
41.9308563042124
 30
0.0
 10
272.8060227640258
 20
41.95801629810494
 30
0.0
 10
273.0471964444475
 20
42.02946762986325
 30
0.0
 10
273.2212301583785
 20
42.06387707631836
 30
0.0
 10
273.5770756129603
 20
42.10508681426869
 30
0.0
 10
273.759682084244
 20
42.1124837916088
 30
0.0
 10
274.1340522356142
 20
42.1035528310477
 30
0.0
 10
274.3221026533253
 20
42.08724058124234
 30
0.0
 10
274.5090204870347
 20
42.06090727441685
 30
0.0
  0
LINE
  5
183
330
1F
100
AcDbEntity
  8
0
  6
Continuous
 62
     7
370
    15
100
AcDbLine
 10
283.7581463236
 20
27.5139663732
 30
0.0
 11
285.5193339558
 21
29.7048670444
 31
0.0
  0
SPLINE
  5
184
330
1F
100
AcDbEntity
  8
0
  6
Continuous
 62
     7
370
    15
100
AcDbSpline
210
0.0
220
0.0
230
1.0
 70
     8
 71
     3
 72
    22
 73
    18
 74
     0
 42
0.000000001
 43
0.00000001
 40
0.0
 40
0.0
 40
0.0
 40
0.0
 40
0.0500000000000107
 40
0.0999999999999999
 40
0.15
 40
0.1999999999999999
 40
0.25
 40
0.2968749999999668
 40
0.34375
 40
0.3906249999999996
 40
0.4374999999999987
 40
0.5292946909502637
 40
0.5292946909502637
 40
0.53125
 40
0.625
 40
0.8125
 40
0.8968030376399279
 40
0.8968030376399279
 40
0.8968030376399279
 40
0.8968030376399279
 10
285.5193339557919
 20
29.70486704436486
 30
0.0
 10
285.6005336377949
 20
29.80587867682562
 30
0.0
 10
285.7601230294174
 20
30.02589202921756
 30
0.0
 10
285.9792987665401
 20
30.40208809185405
 30
0.0
 10
286.1661595507438
 20
30.81937799982763
 30
0.0
 10
286.3034943915515
 20
31.25903597923789
 30
0.0
 10
286.3741677032565
 20
31.68619700264642
 30
0.0
 10
286.3736882828979
 20
32.07570178725349
 30
0.0
 10
286.3053661096621
 20
32.40787297653667
 30
0.0
 10
286.1736408972862
 20
32.67487304303778
 30
0.0
 10
285.9336630294436
 20
32.92808990545048
 30
0.0
 10
285.6891038617241
 20
33.01216206386915
 30
0.0
 10
285.5165239776135
 20
33.0286580288242
 30
0.0
 10
285.3524198214726
 20
33.04438106784552
 30
0.0
 10
284.9432057987265
 20
33.07901274560593
 30
0.0
 10
284.5975729500019
 20
33.11092857681083
 30
0.0
 10
283.9664727577533
 20
33.16738369481709
 30
0.0
 10
283.7580994170957
 20
33.18600048882723
 30
0.0
  0
SPLINE
  5
185
330
1F
100
AcDbEntity
  8
0
  6
Continuous
 62
     7
370
    15
100
AcDbSpline
210
0.0
220
0.0
230
1.0
 70
     8
 71
     3
 72
    22
 73
    18
 74
     0
 42
0.000000001
 43
0.00000001
 40
0.0
 40
0.0
 40
0.0
 40
0.0
 40
0.0500000000000107
 40
0.0999999999999999
 40
0.15
 40
0.1999999999999999
 40
0.25
 40
0.2968749999999668
 40
0.34375
 40
0.3906249999999996
 40
0.4374999999999987
 40
0.5292946909502637
 40
0.5292946909502637
 40
0.53125
 40
0.625
 40
0.8125
 40
0.895592798935398
 40
0.895592798935398
 40
0.895592798935398
 40
0.895592798935398
 10
272.7560565553824
 20
22.33678383516935
 30
0.0
 10
272.675800626843
 20
22.34395992455793
 30
0.0
 10
272.5148294844883
 20
22.37983883761509
 30
0.0
 10
272.2962091048789
 20
22.5029303194221
 30
0.0
 10
272.1091995167201
 20
22.70448867761836
 30
0.0
 10
271.9719045342196
 20
22.98557960849996
 30
0.0
 10
271.9012208146845
 20
23.33114408557924
 30
0.0
 10
271.9017023850963
 20
23.72120153176185
 30
0.0
 10
271.9700257207252
 20
24.13225819672519
 30
0.0
 10
272.101744180216
 20
24.55133630861019
 30
0.0
 10
272.3417561541708
 20
25.08166822727755
 30
0.0
 10
272.5861621463972
 20
25.44791181948931
 30
0.0
 10
272.7588612603035
 20
25.66381259174618
 30
0.0
 10
272.9230919775039
 20
25.86916369093203
 30
0.0
 10
273.3334025006056
 20
26.37762787030577
 30
0.0
 10
273.6693354834063
 20
26.79653300013897
 30
0.0
 10
274.3100018951482
 20
27.59354428424941
 30
0.0
 10
274.5172915111754
 20
27.85139654112163
 30
0.0
  0
LINE
  5
186
330
1F
100
AcDbEntity
  8
0
  6
Continuous
 62
     7
370
    15
100
AcDbLine
 10
274.5172441876
 20
22.1793071215
 30
0.0
 11
272.7560565554
 21
22.3367838352
 31
0.0
  0
SPLINE
  5
187
330
1F
100
AcDbEntity
  8
0
  6
Continuous
 62
     7
370
    15
100
AcDbSpline
210
0.0
220
0.0
230
1.0
 70
     8
 71
     3
 72
     8
 73
     4
 74
     0
 42
0.000000001
 43
0.00000001
 40
0.0
 40
0.0
 40
0.0
 40
0.0
 40
1.0
 40
1.0
 40
1.0
 40
1.0
 10
246.2020440755002
 20
35.2343331192747
 30
0.0
 10
245.0324176555623
 20
35.03877694603197
 30
0.0
 10
243.8618144127024
 20
34.84519197931205
 30
0.0
 10
242.6905829310496
 20
34.65291253006578
 30
0.0
  0
SPLINE
  5
188
330
1F
100
AcDbEntity
  8
0
  6
Continuous
 62
     7
370
    15
100
AcDbSpline
210
0.0
220
0.0
230
1.0
 70
     8
 71
     3
 72
     8
 73
     4
 74
     0
 42
0.000000001
 43
0.00000001
 40
0.0
 40
0.0
 40
0.0
 40
0.0
 40
0.0012417047560385
 40
0.0012417047560385
 40
0.0012417047560385
 40
0.0012417047560385
 10
242.2160823273999
 20
34.92688795094565
 30
0.0
 10
242.3743534678603
 20
34.8355026261877
 30
0.0
 10
242.5325227735395
 20
34.74417607878409
 30
0.0
 10
242.6905829310496
 20
34.65291253006578
 30
0.0
  0
LWPOLYLINE
  5
189
330
1F
100
AcDbEntity
  8
0
  6
Continuous
 62
     7
370
    15
100
AcDbPolyline
 90
       28
 70
   128
 43
0.0
 10
242.2160823274
 20
34.9268879509
 10
242.6949179182
 20
36.8755540872
 10
243.2967996345
 20
38.8413652809
 10
244.0172468823
 20
40.8096874243
 10
244.8508964288
 20
42.7658677172
 10
245.7915423286
 20
44.6953437471
 10
246.8321821218
 20
46.5837518964
 10
247.9650689635
 20
48.4170342696
 10
249.1817692927
 20
50.1815433444
 10
250.4732256151
 20
51.8641435683
 10
251.8298239295
 20
53.4523091437
 10
253.2414652976
 20
54.9342172738
 10
254.6976410235
 20
56.2988361752
 10
256.1875108837
 20
57.5360072016
 10
257.6999838251
 20
58.6365204687
 10
259.2238005304
 20
59.5921834144
 10
260.7476172357
 20
60.3958817876
 10
262.2600901772
 20
61.0416326084
 10
263.7499600373
 20
61.5246287077
 10
265.2061357632
 20
61.8412745127
 10
266.6177771313
 20
61.989212814
 10
267.9743754457
 20
61.9673423129
 10
269.2658317681
 20
61.7758258202
 10
270.4825320973
 20
61.4160890441
 10
271.615418939
 20
60.8908099767
 10
272.6560587323
 20
60.2038989581
 10
273.596704632
 20
59.3604695668
 10
274.0969349748
 20
58.7980095152
  0
LINE
  5
18A
330
1F
100
AcDbEntity
  8
0
  6
Continuous
 62
     7
370
    15
100
AcDbLine
 10
238.0883464922
 20
37.3097791273
 30
0.0
 11
242.2160823274
 21
34.9268879509
 31
0.0
  0
ARC
  5
18B
330
1F
100
AcDbEntity
  8
0
  6
Continuous
 62
     7
370
    15
100
AcDbCircle
 10
263.2322352254
 20
55.5803307815
 30
0.0
 40
8.791379898613124
100
AcDbArc
 50
60.2471036508
 51
85.9809519032
  0
SPLINE
  5
18C
330
1F
100
AcDbEntity
  8
0
  6
Continuous
 62
     7
370
    15
100
AcDbSpline
210
0.0
220
0.0
230
1.0
 70
     8
 71
     3
 72
    10
 73
     6
 74
     0
 42
0.000000001
 43
0.00000001
 40
0.0
 40
0.0
 40
0.0
 40
0.0
 40
0.1983717319861197
 40
0.6709802692894349
 40
1.0
 40
1.0
 40
1.0
 40
1.0
 10
248.0441945462015
 20
33.84594850064141
 30
0.0
 10
247.9598011566498
 20
33.95645613490412
 30
0.0
 10
247.6743456702221
 20
34.33024145932384
 30
0.0
 10
247.1830071004514
 20
34.7796745069305
 30
0.0
 10
246.7660046410968
 20
35.06115571673699
 30
0.0
 10
246.59485045111
 20
35.17668666237103
 30
0.0
  0
SPLINE
  5
18D
330
1F
100
AcDbEntity
  8
0
  6
Continuous
 62
     7
370
    15
100
AcDbSpline
210
0.0
220
0.0
230
1.0
 70
     8
 71
     3
 72
    10
 73
     6
 74
     0
 42
0.000000001
 43
0.00000001
 40
0.0
 40
0.0
 40
0.0
 40
0.0
 40
0.5
 40
0.5
 40
1.0
 40
1.0
 40
1.0
 40
1.0
 10
246.4589211038779
 20
35.22921664418034
 30
0.0
 10
246.4183457954829
 20
35.2380411655073
 30
0.0
 10
246.3747714524292
 20
35.24299424141599
 30
0.0
 10
246.2869687254424
 20
35.2445794266821
 30
0.0
 10
246.2440006085206
 20
35.24134805917357
 30
0.0
 10
246.2020440755002
 20
35.2343331192747
 30
0.0
  0
SPLINE
  5
18E
330
1F
100
AcDbEntity
  8
0
  6
Continuous
 62
     7
370
    15
100
AcDbSpline
210
0.0
220
0.0
230
1.0
 70
     8
 71
     3
 72
     8
 73
     4
 74
     0
 42
0.000000001
 43
0.00000001
 40
0.0
 40
0.0
 40
0.0
 40
0.0
 40
1.0
 40
1.0
 40
1.0
 40
1.0
 10
246.59485045111
 20
35.17668666237102
 30
0.0
 10
246.5563685092738
 20
35.20035747216689
 30
0.0
 10
246.5102608575269
 20
35.21805101737634
 30
0.0
 10
246.4589211038779
 20
35.22921664418039
 30
0.0
  0
SPLINE
  5
18F
330
1F
100
AcDbEntity
  8
0
  6
Continuous
 62
     7
370
    15
100
AcDbSpline
210
0.0
220
0.0
230
1.0
 70
     8
 71
     3
 72
    10
 73
     6
 74
     0
 42
0.000000001
 43
0.00000001
 40
0.0
 40
0.0
 40
0.0
 40
0.0
 40
0.5
 40
0.5
 40
1.0
 40
1.0
 40
1.0
 40
1.0
 10
237.9316495724126
 20
37.40022701050877
 30
0.0
 10
237.9427001707627
 20
37.39385117596462
 30
0.0
 10
237.9613201167021
 20
37.38310493445923
 30
0.0
 10
238.0146200667627
 20
37.35233946161927
 30
0.0
 10
238.048200839484
 20
37.33295471934832
 30
0.0
 10
238.0883464922234
 20
37.30977912732817
 30
0.0
  0
SPLINE
  5
190
330
1F
100
AcDbEntity
  8
0
  6
Continuous
 62
     7
370
    15
100
AcDbSpline
210
0.0
220
0.0
230
1.0
 70
     8
 71
     3
 72
    11
 73
     7
 74
     0
 42
0.000000001
 43
0.00000001
 40
0.0
 40
0.0
 40
0.0
 40
0.0
 40
0.2801302297558391
 40
0.5950396415719484
 40
0.9099354234495275
 40
1.0
 40
1.0
 40
1.0
 40
1.0
 10
272.6676682077302
 20
22.66664662770619
 30
0.0
 10
272.5450525001162
 20
22.69469713644915
 30
0.0
 10
272.2845979009346
 20
22.75428072613482
 30
0.0
 10
272.0234501280408
 20
23.09312311188174
 30
0.0
 10
271.8902025326262
 20
23.46285635156195
 30
0.0
 10
271.9167344127088
 20
23.72500806139503
 30
0.0
 10
271.922635194094
 20
23.78331150331648
 30
0.0
  0
SPLINE
  5
191
330
1F
100
AcDbEntity
  8
0
  6
Continuous
 62
     7
370
    15
100
AcDbSpline
210
0.0
220
0.0
230
1.0
 70
     8
 71
     3
 72
    13
 73
     9
 74
     0
 42
0.000000001
 43
0.00000001
 40
0.0
 40
0.0
 40
0.0
 40
0.0
 40
0.0050620220451745
 40
0.1380680497781401
 40
0.3621887298027801
 40
0.5716402702530088
 40
0.7860229126028273
 40
1.0
 40
1.0
 40
1.0
 40
1.0
 10
274.6922114208556
 20
28.09646102901084
 30
0.0
 10
274.6922037179262
 20
28.09631436062372
 30
0.0
 10
274.6919936183989
 20
28.09231393984474
 30
0.0
 10
274.6778375686725
 20
28.06747232410986
 30
0.0
 10
274.6501674673278
 20
28.02477924581438
 30
0.0
 10
274.6085081214027
 20
27.96794156023901
 30
0.0
 10
274.5644655146336
 20
27.91048859290602
 30
0.0
 10
274.5330062508438
 20
27.87108145531555
 30
0.0
 10
274.5172915111753
 20
27.85139654112147
 30
0.0
  0
SPLINE
  5
192
330
1F
100
AcDbEntity
  8
0
  6
Continuous
 62
     7
370
    15
100
AcDbSpline
210
0.0
220
0.0
230
1.0
 70
     8
 71
     3
 72
    16
 73
    12
 74
     0
 42
0.000000001
 43
0.00000001
 40
0.0
 40
0.0
 40
0.0
 40
0.0
 40
0.2500000000000022
 40
0.2500000000000022
 40
0.5000000000000043
 40
0.5000000000000043
 40
0.6250000000000036
 40
0.6250000000000036
 40
0.7500000000000027
 40
0.7500000000000027
 40
1.0
 40
1.0
 40
1.0
 40
1.0
 10
283.7580994171018
 20
33.18600048882668
 30
0.0
 10
283.7264491790179
 20
33.18882823042222
 30
0.0
 10
283.6923204527679
 20
33.19031334791416
 30
0.0
 10
283.6151418087398
 20
33.18845169281247
 30
0.0
 10
283.571446578289
 20
33.18525217427934
 30
0.0
 10
283.4977319882743
 20
33.17140725734448
 30
0.0
 10
283.4718136713589
 20
33.1650884438153
 30
0.0
 10
283.423610424148
 20
33.1495239727098
 30
0.0
 10
283.4012633326621
 20
33.14021611368904
 30
0.0
 10
283.3464467887413
 20
33.11215956775837
 30
0.0
 10
283.3244671493583
 20
33.09379296037361
 30
0.0
 10
283.3082455366822
 20
33.07668305843719
 30
0.0
  0
SPLINE
  5
193
330
1F
100
AcDbEntity
  8
0
  6
Continuous
 62
     7
370
    15
100
AcDbSpline
210
0.0
220
0.0
230
1.0
 70
     8
 71
     3
 72
     8
 73
     4
 74
     0
 42
0.000000001
 43
0.00000001
 40
0.0
 40
0.0
 40
0.0
 40
0.0
 40
1.0
 40
1.0
 40
1.0
 40
1.0
 10
283.3082455366822
 20
33.07668305843719
 30
0.0
 10
283.2570155694378
 20
33.09613982703609
 30
0.0
 10
283.2062975774014
 20
33.11850657612932
 30
0.0
 10
283.167273306353
 20
33.14103480827865
 30
0.0
  0
LINE
  5
194
330
1F
100
AcDbEntity
  8
0
  6
Continuous
 62
     7
370
    15
100
AcDbLine
 10
282.3545681073
 20
33.9082400516
 30
0.0
 11
282.2662405701
 21
33.9567195999
 31
0.0
  0
LINE
  5
195
330
1F
100
AcDbEntity
  8
0
  6
Continuous
 62
     7
370
    15
100
AcDbLine
 10
281.3677729913
 20
34.179864228
 30
0.0
 11
283.1672733064
 21
33.1410348083
 31
0.0
  0
ARC
  5
196
330
1F
100
AcDbEntity
  8
0
  6
Continuous
 62
     7
370
    15
100
AcDbCircle
 10
270.5688917731
 20
33.3986800176
 30
0.0
 40
8.704930266732912
100
AcDbArc
 50
338.0321293294
 51
1.7082709066
  0
LINE
  5
197
330
1F
100
AcDbEntity
  8
0
  6
Continuous
 62
     7
370
    15
100
AcDbLine
 10
278.6417899068
 20
30.1422822114
 30
0.0
 11
283.1672733064
 21
27.5297762536
 31
0.0
  0
LINE
  5
198
330
1F
100
AcDbEntity
  8
0
  6
Continuous
 62
     7
370
    15
100
AcDbLine
 10
275.3551369789
 20
21.7835559783
 30
0.0
 11
275.4434474324
 21
21.7350853327
 31
0.0
  0
LINE
  5
199
330
1F
100
AcDbEntity
  8
0
  6
Continuous
 62
     7
370
    15
100
AcDbLine
 10
271.9719827097
 20
24.0346498844
 30
0.0
 11
274.5424317799
 21
22.5507612217
 31
0.0
  0
SPLINE
  5
19A
330
1F
100
AcDbEntity
  8
0
  6
Continuous
 62
     7
370
    15
100
AcDbSpline
210
0.0
220
0.0
230
1.0
 70
     8
 71
     3
 72
     9
 73
     5
 74
     0
 42
0.000000001
 43
0.00000001
 40
0.0
 40
0.0
 40
0.0
 40
0.0
 40
0.5377956222894344
 40
1.0
 40
1.0
 40
1.0
 40
1.0
 10
246.59485045111
 20
24.68733059942792
 30
0.0
 10
246.8349166245574
 20
24.56056455188643
 30
0.0
 10
247.2813058540299
 20
24.3248503841105
 30
0.0
 10
247.6729120114728
 20
24.20920574509625
 30
0.0
 10
247.8539140917814
 20
24.15575428668511
 30
0.0
  0
SPLINE
  5
19B
330
1F
100
AcDbEntity
  8
0
  6
Continuous
 62
     7
370
    15
100
AcDbSpline
210
0.0
220
0.0
230
1.0
 70
     8
 71
     3
 72
     8
 73
     4
 74
     0
 42
0.000000001
 43
0.00000001
 40
0.0
 40
0.0
 40
0.0
 40
0.0
 40
1.0
 40
1.0
 40
1.0
 40
1.0
 10
246.4589211038784
 20
24.73666721144834
 30
0.0
 10
246.5102494858756
 20
24.72550405780805
 30
0.0
 10
246.5563700499798
 20
24.70879005350634
 30
0.0
 10
246.59485045111
 20
24.68733059942794
 30
0.0
  0
SPLINE
  5
19C
330
1F
100
AcDbEntity
  8
0
  6
Continuous
 62
     7
370
    15
100
AcDbSpline
210
0.0
220
0.0
230
1.0
 70
     8
 71
     3
 72
    12
 73
     8
 74
     0
 42
0.000000001
 43
0.00000001
 40
0.0
 40
0.0
 40
0.0
 40
0.0
 40
0.1882354094303036
 40
0.3552040209501064
 40
0.500948000530457
 40
0.75630463504078
 40
0.9999999999999999
 40
0.9999999999999999
 40
0.9999999999999999
 40
0.9999999999999999
 10
247.2748376202102
 20
23.07109220214661
 30
0.0
 10
247.3638811530897
 20
23.16537385074453
 30
0.0
 10
247.5319080987856
 20
23.34328522663889
 30
0.0
 10
247.7118174563854
 20
23.69060232069293
 30
0.0
 10
247.8733414283831
 20
24.1512559582516
 30
0.0
 10
247.9990980929572
 20
24.77280400664453
 30
0.0
 10
248.0164008620208
 20
25.35612797389421
 30
0.0
 10
248.0248500910115
 20
25.64097473783758
 30
0.0
  0
SPLINE
  5
19D
330
1F
100
AcDbEntity
  8
0
  6
Continuous
 62
     7
370
    15
100
AcDbSpline
210
0.0
220
0.0
230
1.0
 70
     8
 71
     3
 72
     9
 73
     5
 74
     0
 42
0.000000001
 43
0.00000001
 40
0.0
 40
0.0
 40
0.0
 40
0.0
 40
0.5048005003628353
 40
1.0
 40
1.0
 40
1.0
 40
1.0
 10
247.1641032081793
 20
22.3470676818855
 30
0.0
 10
247.1826481065131
 20
22.4687815579301
 30
0.0
 10
247.2193851904113
 20
22.70989438558599
 30
0.0
 10
247.2564823017672
 20
22.95140061883315
 30
0.0
 10
247.2748527727486
 20
23.07099438469642
 30
0.0
  0
LINE
  5
19E
330
1F
100
AcDbEntity
  8
0
  6
Continuous
 62
     7
370
    15
100
AcDbLine
 10
274.6135915839
 20
22.4926517547
 30
0.0
 11
272.6676682077
 21
22.6666466277
 31
0.0
  0
SPLINE
  5
19F
330
1F
100
AcDbEntity
  8
0
  6
Continuous
 62
     7
370
    15
100
AcDbSpline
210
0.0
220
0.0
230
1.0
 70
     8
 71
     3
 72
    16
 73
    12
 74
     0
 42
0.000000001
 43
0.00000001
 40
0.0
 40
0.0
 40
0.0
 40
0.0
 40
0.2500000000000016
 40
0.2500000000000016
 40
0.5000000000000031
 40
0.5000000000000031
 40
0.625000000000002
 40
0.625000000000002
 40
0.7500000000000009
 40
0.7500000000000009
 40
1.0
 40
1.0
 40
1.0
 40
1.0
 10
274.5172441876226
 20
22.17930712149809
 30
0.0
 10
274.5485052462678
 20
22.17651191178209
 30
0.0
 10
274.5794353888976
 20
22.1771154325008
 30
0.0
 10
274.6360913007759
 20
22.19101967789997
 30
0.0
 10
274.6629324863597
 20
22.20392860053189
 30
0.0
 10
274.6882845768986
 20
22.24583868008716
 30
0.0
 10
274.6937191976565
 20
22.26397562900432
 30
0.0
 10
274.6948407990009
 20
22.3066048833891
 30
0.0
 10
274.6904779514896
 20
22.3311478949272
 30
0.0
 10
274.6672343891744
 20
22.40442786237931
 30
0.0
 10
274.6411062217875
 20
22.4504519119724
 30
0.0
 10
274.6135915838887
 20
22.49265175474443
 30
0.0
  0
SPLINE
  5
1A0
330
1F
100
AcDbEntity
  8
0
  6
Continuous
 62
     7
370
    15
100
AcDbSpline
210
0.0
220
0.0
230
1.0
 70
     8
 71
     3
 72
     8
 73
     4
 74
     0
 42
0.000000001
 43
0.00000001
 40
0.0
 40
0.0
 40
0.0
 40
0.0
 40
1.0
 40
1.0
 40
1.0
 40
1.0
 10
274.542431779872
 20
22.55076122167252
 30
0.0
 10
274.5814192705706
 20
22.52825422236717
 30
0.0
 10
274.6038369376941
 20
22.50840203505033
 30
0.0
 10
274.6135915838887
 20
22.49265175474445
 30
0.0
  0
SPLINE
  5
1A1
330
1F
100
AcDbEntity
  8
0
  6
Continuous
 62
     7
370
    15
100
AcDbSpline
210
0.0
220
0.0
230
1.0
 70
     8
 71
     3
 72
     8
 73
     4
 74
     0
 42
0.000000001
 43
0.00000001
 40
0.0
 40
0.0
 40
0.0
 40
0.0
 40
1.0
 40
1.0
 40
1.0
 40
1.0
 10
283.167273306353
 20
27.52977625359505
 30
0.0
 10
283.2062607970516
 20
27.5072692542897
 30
0.0
 10
283.2570085771702
 20
27.50377169308697
 30
0.0
 10
283.3082455366922
 20
27.51196864253388
 30
0.0
  0
SPLINE
  5
1A2
330
1F
100
AcDbEntity
  8
0
  6
Continuous
 62
     7
370
    15
100
AcDbSpline
210
0.0
220
0.0
230
1.0
 70
     8
 71
     3
 72
    16
 73
    12
 74
     0
 42
0.000000001
 43
0.00000001
 40
0.0
 40
0.0
 40
0.0
 40
0.0
 40
0.2500000000000017
 40
0.2500000000000017
 40
0.3750000000000027
 40
0.3750000000000027
 40
0.5000000000000037
 40
0.5000000000000037
 40
0.7500000000000018
 40
0.7500000000000018
 40
1.0
 40
1.0
 40
1.0
 40
1.0
 10
283.3082455366923
 20
27.51196864253385
 30
0.0
 10
283.3243747593174
 20
27.46317957925266
 30
0.0
 10
283.3467810680417
 20
27.41405353815587
 30
0.0
 10
283.4011068902771
 20
27.3598139477572
 30
0.0
 10
283.4231733859412
 20
27.34549356394832
 30
0.0
 10
283.471519575171
 20
27.33115846922832
 30
0.0
 10
283.4976045405651
 20
27.33117780046946
 30
0.0
 10
283.5713422138083
 20
27.34664635293079
 30
0.0
 10
283.6148183718469
 20
27.37434698695509
 30
0.0
 10
283.6921260365608
 20
27.43772216672406
 30
0.0
 10
283.7267794389889
 20
27.47494626695827
 30
0.0
 10
283.7581463235517
 20
27.51396637315503
 30
0.0
  0
LINE
  5
1A3
330
1F
100
AcDbEntity
  8
0
  6
Continuous
 62
     7
370
    15
100
AcDbLine
 10
238.3657166725
 20
37.1496046775
 30
0.0
 11
237.9316495724
 21
37.4002270105
 31
0.0
  0
LINE
  5
1A4
330
1F
100
AcDbEntity
  8
0
  6
Continuous
 62
     7
370
    15
100
AcDbLine
 10
242.690582931
 20
34.6529125301
 30
0.0
 11
238.3657166725
 21
37.1496046775
 31
0.0
  0
SPLINE
  5
1A5
330
1F
100
AcDbEntity
  8
0
  6
Continuous
 62
     7
370
    15
100
AcDbSpline
210
0.0
220
0.0
230
1.0
 70
     8
 71
     3
 72
    19
 73
    15
 74
     0
 42
0.000000001
 43
0.00000001
 40
0.0
 40
0.0
 40
0.0
 40
0.0
 40
0.0381618899661221
 40
0.0763268083050812
 40
0.1779224245772565
 40
0.2795156210409588
 40
0.3811075352751449
 40
0.4828222416081981
 40
0.5844016342731598
 40
0.6859819998127707
 40
0.7875636209788935
 40
0.889257262700284
 40
0.9780567633526266
 40
1.0
 40
1.0
 40
1.0
 40
1.0
 10
242.2620766167087
 20
31.83687333183887
 30
0.0
 10
242.26197996448
 20
31.87592048034708
 30
0.0
 10
242.2617866523528
 20
31.95401787598687
 30
0.0
 10
242.2595613405261
 20
32.13707649330437
 30
0.0
 10
242.2537199404767
 20
32.38696767923818
 30
0.0
 10
242.2426260439298
 20
32.70451789361252
 30
0.0
 10
242.229509757316
 20
33.02324819966968
 30
0.0
 10
242.2158719218526
 20
33.34223440304192
 30
0.0
 10
242.2031890248726
 20
33.66071356350256
 30
0.0
 10
242.1928687297403
 20
33.9778130313406
 30
0.0
 10
242.186068594793
 20
34.29313353311042
 30
0.0
 10
242.1839051144899
 20
34.59280607978539
 30
0.0
 10
242.1850947688411
 20
34.80917999763194
 30
0.0
 10
242.1869806034611
 20
34.9212199711693
 30
0.0
 10
242.1873542741536
 20
34.9434202500611
 30
0.0
  0
LINE
  5
1A6
330
1F
100
AcDbEntity
  8
0
  6
Continuous
 62
     7
370
    15
100
AcDbLine
 10
242.2620766167
 20
30.0610727028
 30
0.0
 11
242.2620766167
 21
31.8368733318
 31
0.0
  0
LINE
  5
1A7
330
1F
100
AcDbEntity
  8
0
  6
Continuous
 62
     7
370
    15
100
AcDbLine
 10
241.3339989664
 20
35.2496990791
 30
0.0
 11
241.3350399937
 21
35.435450811
 31
0.0
  0
ARC
  5
1A8
330
1F
100
AcDbEntity
  8
0
  6
Continuous
 62
     7
370
    15
100
AcDbCircle
 10
253.2698521677
 20
34.9841094145
 30
0.0
 40
11.93880770898523
100
AcDbArc
 50
178.7252979842
 51
202.7773427363
  0
LINE
  5
1A9
330
1F
100
AcDbEntity
  8
0
  6
Continuous
 62
     7
370
    15
100
AcDbLine
 10
222.8257008411
 20
71.8647486122
 30
0.0
 11
222.8883188978
 21
71.8415040471
 31
0.0
  0
LWPOLYLINE
  5
1AA
330
1F
100
AcDbEntity
  8
0
  6
Continuous
 62
     7
370
    15
100
AcDbPolyline
 90
        3
 70
   128
 43
0.0
 10
212.7163461657
 20
54.3529352413
 10
212.654596647
 20
54.4063192703
 10
212.6419877107
 20
54.4175321225
  0
SPLINE
  5
1AB
330
1F
100
AcDbEntity
  8
0
  6
Continuous
 62
     7
370
    15
100
AcDbSpline
210
0.0
220
0.0
230
1.0
 70
     8
 71
     3
 72
    30
 73
    26
 74
     0
 42
0.000000001
 43
0.00000001
 40
0.0
 40
0.0
 40
0.0
 40
0.0
 40
0.1249999999999999
 40
0.1249999999999999
 40
0.1874999999999998
 40
0.1874999999999998
 40
0.2499999999999997
 40
0.2499999999999997
 40
0.3124999999999997
 40
0.3124999999999997
 40
0.3749999999999996
 40
0.3749999999999996
 40
0.4374999999999995
 40
0.4374999999999995
 40
0.4999999999999994
 40
0.4999999999999994
 40
0.6249999999999993
 40
0.6249999999999993
 40
0.6874999999999994
 40
0.6874999999999994
 40
0.7499999999999996
 40
0.7499999999999996
 40
0.8749999999999998
 40
0.8749999999999998
 40
1.0
 40
1.0
 40
1.0
 40
1.0
 10
285.2541689128508
 20
29.93267882292829
 30
0.0
 10
285.3674590032494
 20
30.07361061835545
 30
0.0
 10
285.4697571703762
 20
30.22340104004137
 30
0.0
 10
285.6056318602861
 20
30.46186756379752
 30
0.0
 10
285.648283160499
 20
30.54429208188409
 30
0.0
 10
285.7257280842812
 20
30.70989039450778
 30
0.0
 10
285.7606066375262
 20
30.7931653648383
 30
0.0
 10
285.8228683395495
 20
30.96063262335189
 30
0.0
 10
285.8502723733249
 20
31.04481350374667
 30
0.0
 10
285.8974340838478
 20
31.21408032525831
 30
0.0
 10
285.9169875214509
 20
31.29862449154219
 30
0.0
 10
285.9476644703183
 20
31.46365182839454
 30
0.0
 10
285.9589112537873
 20
31.54471212916807
 30
0.0
 10
285.973380669824
 20
31.70383823648933
 30
0.0
 10
285.9766315530898
 20
31.78237048119444
 30
0.0
 10
285.9741138460026
 20
32.00945911348568
 30
0.0
 10
285.9566234409849
 20
32.14777422991409
 30
0.0
 10
285.907417077545
 20
32.33546954919026
 30
0.0
 10
285.8870524832067
 20
32.39469987403685
 30
0.0
 10
285.8395820165416
 20
32.50301717921581
 30
0.0
 10
285.8123609954573
 20
32.55260527603375
 30
0.0
 10
285.7203361019887
 20
32.68776784932249
 30
0.0
 10
285.6440974381106
 20
32.76005646421705
 30
0.0
 10
285.4684122646993
 20
32.86168282837095
 30
0.0
 10
285.3674692264276
 20
32.89255742703588
 30
0.0
 10
285.2541689133475
 20
32.90268818518481
 30
0.0
  0
LINE
  5
1AC
330
1F
100
AcDbEntity
  8
0
  6
Continuous
 62
     7
370
    15
100
AcDbLine
 10
285.2541689133
 20
32.9026881852
 30
0.0
 11
283.3082455367
 21
33.0766830584
 31
0.0
  0
ARC
  5
1AD
330
1F
100
AcDbEntity
  8
0
  6
Continuous
 62
     7
370
    15
100
AcDbCircle
 10
278.0239887003
 20
34.7371720699
 30
0.0
 40
3.360506813819438
100
AcDbArc
 50
320.6498369943
 51
350.7253969509
  0
LINE
  5
1AE
330
1F
100
AcDbEntity
  8
0
  6
Continuous
 62
     7
370
    15
100
AcDbLine
 10
283.3082455367
 20
27.5119686425
 30
0.0
 11
285.2541689129
 21
29.9326788229
 31
0.0
  0
LINE
  5
1AF
330
1F
100
AcDbEntity
  8
0
  6
Continuous
 62
     7
370
    15
100
AcDbLine
 10
278.6417899068
 20
30.1422822114
 30
0.0
 11
280.6226194961
 21
32.6064153891
 31
0.0
  0
LWPOLYLINE
  5
1B0
330
1F
100
AcDbEntity
  8
0
  6
Continuous
 62
     7
370
    15
100
AcDbPolyline
 90
       10
 70
   128
 43
0.0
 10
249.6716446145
 20
16.4875811985
 10
249.1817692927
 20
16.5815004142
 10
247.9650689635
 20
16.9412371903
 10
246.8321821218
 20
17.4665162577
 10
245.7915423286
 20
18.1534272763
 10
244.8508964288
 20
18.9968566676
 10
244.0172468823
 20
19.9905256816
 10
243.2967996345
 20
21.1270371384
 10
242.6949179182
 20
22.3979304942
 10
242.2160823274
 20
23.793744825
  0
SPLINE
  5
1B1
330
1F
100
AcDbEntity
  8
0
  6
Continuous
 62
     7
370
    15
100
AcDbSpline
210
0.0
220
0.0
230
1.0
 70
     8
 71
     3
 72
     8
 73
     4
 74
     0
 42
0.000000001
 43
0.00000001
 40
0.0000000000000006
 40
0.0000000000000006
 40
0.0000000000000006
 40
0.0000000000000006
 40
0.001241704756042
 40
0.001241704756042
 40
0.001241704756042
 40
0.001241704756042
 10
242.6905829310523
 20
24.16036309733228
 30
0.0
 10
242.5325227735419
 20
24.03795989232777
 30
0.0
 10
242.3743534678607
 20
23.91575766235932
 30
0.0
 10
242.2160823273999
 20
23.79374482504821
 30
0.0
  0
SPLINE
  5
1B2
330
1F
100
AcDbEntity
  8
0
  6
Continuous
 62
     7
370
    15
100
AcDbSpline
210
0.0
220
0.0
230
1.0
 70
     8
 71
     3
 72
     8
 73
     4
 74
     0
 42
0.000000001
 43
0.00000001
 40
0.0
 40
0.0
 40
0.0
 40
0.0
 40
1.0
 40
1.0
 40
1.0
 40
1.0
 10
242.6905829310514
 20
24.16036309733419
 30
0.0
 10
243.8618155157265
 20
24.35264272766209
 30
0.0
 10
245.0324348903183
 20
24.54623039487224
 30
0.0
 10
246.2020440755002
 20
24.74178368654281
 30
0.0
  0
SPLINE
  5
1B3
330
1F
100
AcDbEntity
  8
0
  6
Continuous
 62
     7
370
    15
100
AcDbSpline
210
0.0
220
0.0
230
1.0
 70
     8
 71
     3
 72
    10
 73
     6
 74
     0
 42
0.000000001
 43
0.00000001
 40
0.0
 40
0.0
 40
0.0
 40
0.0
 40
0.5
 40
0.5
 40
1.0
 40
1.0
 40
1.0
 40
1.0
 10
246.2020440755002
 20
24.74178368654282
 30
0.0
 10
246.2438099365146
 20
24.74876674695676
 30
0.0
 10
246.2877072223287
 20
24.75205683796513
 30
0.0
 10
246.3753346051187
 20
24.75039386353609
 30
0.0
 10
246.4178399021793
 20
24.74560175698535
 30
0.0
 10
246.4589211038784
 20
24.73666721144834
 30
0.0
  0
LINE
  5
1B4
330
1F
100
AcDbEntity
  8
0
  6
Continuous
 62
     7
370
    15
100
AcDbLine
 10
238.3657166725
 20
26.6570552448
 30
0.0
 11
242.6905829311
 21
24.1603630973
 31
0.0
  0
LINE
  5
1B5
330
1F
100
AcDbEntity
  8
0
  6
Continuous
 62
     7
370
    15
100
AcDbLine
 10
238.3657166725
 20
26.6570552448
 30
0.0
 11
241.9085232261
 21
28.7022739345
 31
0.0
  0
LINE
  5
1B6
330
1F
100
AcDbEntity
  8
0
  6
Continuous
 62
     7
370
    15
100
AcDbLine
 10
237.9316495724
 20
26.4064329118
 30
0.0
 11
238.3657166725
 21
26.6570552448
 31
0.0
  0
LINE
  5
1B7
330
1F
100
AcDbEntity
  8
0
  6
Continuous
 62
     7
370
    15
100
AcDbLine
 10
242.2160823274
 20
23.793744825
 30
0.0
 11
238.0883464922
 21
26.1766360014
 31
0.0
  0
SPLINE
  5
1B8
330
1F
100
AcDbEntity
  8
0
  6
Continuous
 62
     7
370
    15
100
AcDbSpline
210
0.0
220
0.0
230
1.0
 70
     8
 71
     3
 72
     8
 73
     4
 74
     0
 42
0.000000001
 43
0.00000001
 40
0.0
 40
0.0
 40
0.0
 40
0.0
 40
1.0
 40
1.0
 40
1.0
 40
1.0
 10
238.0883464922234
 20
26.17663600143074
 30
0.0
 10
238.0081272630573
 20
26.22294557670134
 30
0.0
 10
237.9537375007715
 20
26.30660841771014
 30
0.0
 10
237.9316495724126
 20
26.40643291181717
 30
0.0
  0
ARC
  5
1B9
330
1F
100
AcDbEntity
  8
0
  6
Continuous
 62
     7
370
    15
100
AcDbCircle
 10
247.114358311
 20
27.5981143589
 30
0.0
 40
8.916713789074123
100
AcDbArc
 50
215.0107921099
 51
239.5618524284
  0
ELLIPSE
  5
1BA
330
1F
100
AcDbEntity
  8
0
  6
Continuous
 62
     7
370
    15
100
AcDbEllipse
 10
241.6156300073
 20
29.6878984025
 30
0.0
 11
-7.507462979106096E-5
 21
1.066811201853405
 31
0.0
210
0.0
220
0.0
230
1.0
 40
0.7174342186
 41
3.53419364555748
 42
5.10498997235239
  0
ELLIPSE
  5
1BB
330
1F
100
AcDbEntity
  8
0
  6
Continuous
 62
     7
370
    15
100
AcDbEllipse
 10
241.5549698355
 20
29.6528686469
 30
0.0
 11
0.3250094736511358
 21
1.213179526238669
 31
0.0
210
0.0
220
0.0
230
1.0
 40
0.5176380889
 41
3.619174351347666
 42
5.189970678142638
  0
LWPOLYLINE
  5
1BC
330
1F
100
AcDbEntity
  8
0
  6
Continuous
 62
     7
370
     0
100
AcDbPolyline
 90
       41
 70
   128
 43
0.0
 10
249.7927638363
 20
24.6210859733
 10
249.8551741632
 20
26.3536783995
 10
250.041955476
 20
28.1458448872
 10
250.3517620111
 20
29.9846728358
 10
250.7823616053
 20
31.8569134477
 10
251.3306517787
 20
33.7490771866
 10
251.992682088
 20
35.6475309692
 10
252.7636825896
 20
37.5385963926
 10
253.6380982073
 20
39.408648287
 10
254.6096287564
 20
41.2442128858
 10
255.6712743373
 20
43.0320649038
 10
256.815385769
 20
44.7593228264
 10
258.0337197025
 20
46.4135417206
 10
259.317498014
 20
47.9828029015
 10
260.6574710511
 20
49.4557998062
 10
262.0439842777
 20
50.8219194582
 10
263.4670478339
 20
52.0713189342
 10
264.9164085144
 20
53.1949962824
 10
266.3816236422
 20
54.1848553816
 10
267.8521363087
 20
55.0337642745
 10
269.3173514364
 20
55.7356065529
 10
270.7667121169
 20
56.2853254272
 10
272.1897756732
 20
56.6789601602
 10
273.5762888997
 20
56.9136746048
 10
274.9162619369
 20
56.9877776379
 10
276.2000402483
 20
56.9007353455
 10
277.4183741819
 20
56.6531748694
 10
278.5624856136
 20
56.2468798884
 10
279.6241311944
 20
55.6847777671
 10
280.5956617436
 20
54.9709184643
 10
281.4700773613
 20
54.1104453525
 10
282.2410778629
 20
53.1095581603
 10
282.9031081721
 20
51.9754683029
 10
283.4513983455
 20
50.7163469235
 10
283.8819979397
 20
49.3412660207
 10
284.1918044748
 20
47.8601330837
 10
284.3785857876
 20
46.2836197095
 10
284.4409961145
 20
44.6230847129
 10
284.3785857876
 20
42.8904922867
 10
284.1918044748
 20
41.098325799
 10
283.9028819425
 20
39.3650984362
  0
LWPOLYLINE
  5
1BD
330
1F
100
AcDbEntity
  8
0
  6
Continuous
 62
     7
370
     0
100
AcDbPolyline
 90
       23
 70
   128
 43
0.0
 10
271.4038977845
 20
17.7138768767
 10
270.7667121169
 20
17.172851752
 10
269.3173514364
 20
16.0491744038
 10
267.8521363087
 20
15.0593153046
 10
266.3816236422
 20
14.2104064117
 10
264.9164085144
 20
13.5085641333
 10
263.4670478339
 20
12.958845259
 10
262.0439842777
 20
12.565210526
 10
260.6574710511
 20
12.3304960814
 10
259.3174980139
 20
12.2563930483
 10
258.0337197025
 20
12.3434353407
 10
256.815385769
 20
12.5909958168
 10
255.6712743373
 20
12.9972907978
 10
254.6096287564
 20
13.5593929191
 10
253.6380982073
 20
14.2732522219
 10
252.7636825896
 20
15.1337253337
 10
251.992682088
 20
16.1346125259
 10
251.3306517787
 20
17.2687023833
 10
250.7823616053
 20
18.5278237627
 10
250.3517620111
 20
19.9029046656
 10
250.041955476
 20
21.3840376025
 10
249.8551741632
 20
22.9605509767
 10
249.7927638363
 20
24.6210859733
  0
LWPOLYLINE
  5
1BE
330
1F
100
AcDbEntity
  8
0
  6
Continuous
 62
     7
370
     0
100
AcDbPolyline
 90
       27
 70
   128
 43
0.0
 10
249.0856570552
 20
24.6210859733
 10
249.1476551303
 20
26.3650360535
 10
249.3332144839
 20
28.168335031
 10
249.6410335504
 20
30.0183340589
 10
250.0689532001
 20
31.9020567234
 10
250.6139718843
 20
33.8062900634
 10
251.2722666884
 20
35.7176772502
 10
252.0392201473
 20
37.622811276
 10
252.9094526337
 20
39.5083289945
 10
253.8768600918
 20
41.3610048536
 10
254.9346568534
 20
43.1678436634
 10
256.0754232344
 20
44.9161717477
 10
257.291157578
 20
46.5937258413
 10
258.5733323816
 20
48.1887391075
 10
259.9129541099
 20
49.6900236742
 10
261.3006262792
 20
51.0870491089
 10
262.7266153662
 20
52.370016282
 10
264.180919082
 20
53.5299261004
 10
265.653336531
 20
54.5586426303
 10
267.1335397627
 20
55.4489501643
 10
268.6111462149
 20
56.1946038347
 10
270.0757915401
 20
56.7903734168
 10
271.5172023036
 20
57.2320800151
 10
272.9252680447
 20
57.5166253751
 10
274.2901121937
 20
57.6420136155
 10
275.6021613497
 20
57.6073652279
 10
275.6834441501
 20
57.5997640626
  0
ARC
  5
1BF
330
1F
100
AcDbEntity
  8
0
  6
Continuous
 62
     7
370
     0
100
AcDbCircle
 10
264.4637916358
 20
24.0134421047
 30
0.0
 40
15.39013496534197
100
AcDbArc
 50
177.7372205589
 51
212.7127302931
  0
LWPOLYLINE
  5
1C0
330
1F
100
AcDbEntity
  8
0
  6
Continuous
 62
     7
370
     0
100
AcDbPolyline
 90
       28
 70
   128
 43
0.0
 10
256.8638316482
 20
28.7031265324
 10
256.926060707
 20
30.0415305336
 10
257.1119925068
 20
31.4355362652
 10
257.4193700876
 20
32.868222386
 10
257.8444623017
 20
34.3221980272
 10
258.3821091057
 20
35.7798138942
 10
259.0257841956
 20
37.2233765049
 10
259.7676742278
 20
38.6353629647
 10
260.5987736623
 20
39.9986336707
 10
261.5089940777
 20
41.2966403633
 10
262.4872866313
 20
42.5136269995
 10
263.5217761767
 20
43.6348210102
 10
264.5999054121
 20
44.6466126189
 10
265.7085873092
 20
45.536720046
 10
266.8343639715
 20
46.2943385932
 10
267.9635699954
 20
46.9102717975
 10
269.0824983494
 20
47.3770430644
 10
270.177566759
 20
47.6889864228
 10
271.2354825772
 20
47.842315303
 10
272.243404139
 20
47.8351685001
 10
273.1890966421
 20
47.6676327666
 10
274.0610806604
 20
47.3417417593
 10
274.8487714893
 20
46.8614513537
 10
275.5426076291
 20
46.2325916245
 10
276.134166849
 20
45.4627960771
 10
276.6162684214
 20
44.5614089866
 10
276.9830602863
 20
43.5393719713
 10
277.0409052397
 20
43.3264332674
  0
LWPOLYLINE
  5
1C1
330
1F
100
AcDbEntity
  8
0
  6
Continuous
 62
     7
370
     0
100
AcDbPolyline
 90
       13
 70
   128
 43
0.0
 10
264.5419210817
 20
21.6752117078
 10
263.5217761767
 20
21.4585311826
 10
262.4872866313
 20
21.3853289877
 10
261.5089940777
 20
21.4728030838
 10
260.5987736623
 20
21.7198916542
 10
259.7676742278
 20
22.1235953781
 10
259.0257841956
 20
22.6790138393
 10
258.3821091057
 20
23.3794050101
 10
257.8444623017
 20
24.2162670903
 10
257.4193700876
 20
25.1794417081
 10
257.1119925068
 20
26.2572372282
 10
256.926060707
 20
27.4365706731
 10
256.8638316482
 20
28.7031265324
  0
LWPOLYLINE
  5
1C2
330
1F
100
AcDbEntity
  8
0
  6
Continuous
 62
     7
370
     0
100
AcDbPolyline
 90
        8
 70
   128
 43
0.0
 10
259.692258773
 20
28.7031265324
 10
259.7542977055
 20
27.5317549582
 10
259.9395436126
 20
26.4484555002
 10
260.2453960477
 20
25.468435308
 10
260.6675615131
 20
24.6054517169
 10
261.2001137311
 20
23.871619125
 10
261.8355768358
 20
23.2772389331
 10
262.2816014588
 20
22.9800664515
  0
LWPOLYLINE
  5
1C3
330
1F
100
AcDbEntity
  8
0
  6
Continuous
 62
     7
370
     0
100
AcDbPolyline
 90
       21
 70
   128
 43
0.0
 10
274.7805856168
 20
44.631288011
 10
274.1003358745
 20
44.9465252143
 10
273.2494701692
 20
45.1603336719
 10
272.3323687988
 20
45.2147476428
 10
271.3619058562
 20
45.1090032742
 10
270.3517045139
 20
44.844584985
 10
269.3159457843
 20
44.4252046286
 10
268.2691694496
 20
43.8567493858
 10
267.226069955
 20
43.1471991222
 10
266.2012901308
 20
42.3065143682
 10
265.2092156394
 20
41.3464964947
 10
264.2637730321
 20
40.2806220485
 10
263.3782342506
 20
39.1238535704
 10
262.5650303183
 20
37.892429554
 10
261.8355768358
 20
36.6036364932
 10
261.2001137311
 20
35.2755662177
 10
260.6675615131
 20
33.9268619228
 10
260.2453960477
 20
32.5764564604
 10
259.9395436126
 20
31.2433065632
 10
259.7542977055
 20
29.9461267334
 10
259.692258773
 20
28.7031265324
  0
LWPOLYLINE
  5
1C4
330
1F
100
AcDbEntity
  8
0
  6
Continuous
 62
     7
370
     0
100
AcDbPolyline
 90
       15
 70
   128
 43
0.0
 10
274.5172441876
 20
22.1793071215
 10
274.9505430043
 20
21.6416472638
 10
275.4837288971
 20
21.2480984169
 10
276.1040823905
 20
21.0080489289
 10
276.796804573
 20
20.9272253271
 10
277.5453701334
 20
21.0075557079
 10
278.3319215828
 20
21.2471237411
 10
279.1376952556
 20
21.6402143847
 10
279.9434689284
 20
22.1774502211
 10
280.7300203778
 20
22.8460151613
 10
281.4785859382
 20
23.6299601799
 10
282.1713081206
 20
24.5105837893
 10
282.7916616141
 20
25.4668781752
 10
283.3248475069
 20
26.4760303504
 10
283.7581463236
 20
27.5139663732
  0
LWPOLYLINE
  5
1C5
330
1F
100
AcDbEntity
  8
0
  6
Continuous
 62
     7
370
     0
100
AcDbPolyline
 90
       15
 70
   128
 43
0.0
 10
283.7580994171
 20
33.1860004888
 10
283.3247961712
 20
33.723634982
 10
282.791610608
 20
34.1171623834
 10
282.1712617449
 20
34.3571951886
 10
281.4785478596
 20
34.4380074709
 10
280.7299934805
 20
34.3576714722
 10
279.9434551981
 20
34.1181035888
 10
279.1376956999
 20
33.7250186571
 10
278.3319361911
 20
33.1877936263
 10
277.5453978771
 20
32.5192438746
 10
276.7968434464
 20
31.7353175006
 10
276.1041294904
 20
30.8547148854
 10
275.4837805393
 20
29.8984425994
 10
274.9505948729
 20
28.8893122951
 10
274.5172915112
 20
27.8513965411
  0
LWPOLYLINE
  5
1C6
330
1F
100
AcDbEntity
  8
0
  6
Continuous
 62
     7
370
     0
100
AcDbPolyline
 90
       21
 70
   128
 43
0.0
 10
246.2020440755
 20
35.2343331193
 10
246.6716895873
 20
36.9937610497
 10
247.2558580761
 20
38.7642168527
 10
247.9497713948
 20
40.5312192635
 10
248.7477537493
 20
42.2803152641
 10
249.6432781234
 20
43.9971983
 10
250.6290196657
 20
45.6678252997
 10
251.6969156028
 20
47.278531538
 10
252.8382311875
 20
48.8161424058
 10
254.0436311441
 20
50.2680811698
 10
255.3032560251
 20
51.6224718435
 10
256.6068028559
 20
52.8682363249
 10
257.9436094066
 20
53.995185009
 10
259.3027414029
 20
54.9941001328
 10
260.6730819616
 20
55.8568111706
 10
262.0434225202
 20
56.5762616646
 10
263.4025545165
 20
57.1465669419
 10
264.7393610672
 20
57.5630622481
 10
266.042907898
 20
57.8223409018
 10
267.3025327791
 20
57.9222821594
 10
267.4590506426
 20
57.9235157349
  0
LWPOLYLINE
  5
1C7
330
1F
100
AcDbEntity
  8
0
  6
Continuous
 62
     7
370
     0
100
AcDbPolyline
 90
       23
 70
   128
 43
0.0
 10
238.0883464922
 20
37.3097791273
 10
238.567182083
 20
39.2584452636
 10
239.1690637993
 20
41.2242564573
 10
239.8895110471
 20
43.1925786007
 10
240.7231605936
 20
45.1487588935
 10
241.6638064934
 20
47.0782349235
 10
242.7044462867
 20
48.9666430728
 10
243.8373331283
 20
50.799925446
 10
245.0540334575
 20
52.5644345208
 10
246.34548978
 20
54.2470347447
 10
247.7020880944
 20
55.8352003201
 10
249.1137294625
 20
57.3171084502
 10
250.5699051883
 20
58.6817273515
 10
252.0597750485
 20
59.918898378
 10
253.5722479899
 20
61.019411645
 10
255.0960646952
 20
61.9750745907
 10
256.6198814006
 20
62.7787729639
 10
258.132354342
 20
63.4245237848
 10
259.6222242022
 20
63.9075198841
 10
261.078399928
 20
64.2241656891
 10
262.4900412961
 20
64.3721039904
 10
263.8466396105
 20
64.3502334893
 10
263.8484064448
 20
64.3500909578
  0
LWPOLYLINE
  5
1C8
330
1F
100
AcDbEntity
  8
0
  6
Continuous
 62
     7
370
     0
100
AcDbPolyline
 90
       19
 70
   128
 43
0.0
 10
246.5948504511
 20
35.1766866624
 10
247.0820946685
 20
36.9810396216
 10
247.6904919217
 20
38.7960715845
 10
248.4147148392
 20
40.6058893994
 10
249.248421833
 20
42.3946455721
 10
250.1843126287
 20
44.1466770323
 10
251.2141921891
 20
45.8466422862
 10
252.3290424737
 20
47.4796557528
 10
253.5191014038
 20
49.0314181077
 10
254.7739483438
 20
50.4883414942
 10
256.0825953479
 20
51.8376685038
 10
257.4335833754
 20
53.0675838853
 10
258.8150826305
 20
54.1673180036
 10
260.2149961487
 20
55.1272411436
 10
261.621065723
 20
55.9389478311
 10
263.0209792412
 20
56.5953304353
 10
264.4024784963
 20
57.0906414054
 10
265.7534665238
 20
57.4205435988
 10
266.526557385
 20
57.5358218006
  0
LINE
  5
1C9
330
1F
100
AcDbEntity
  8
0
  6
Continuous
 62
     7
370
     0
100
AcDbLine
 10
272.6676682077
 20
22.6666466277
 30
0.0
 11
272.7560565554
 21
22.3367838352
 31
0.0
  0
LWPOLYLINE
  5
1CA
330
1F
100
AcDbEntity
  8
0
  6
Continuous
 62
     7
370
     0
100
AcDbPolyline
 90
        3
 70
   128
 43
0.0
 10
283.1672733064
 20
33.1410348083
 10
282.7166819492
 20
33.6506284416
 10
282.3545681073
 20
33.9082400516
  0
LWPOLYLINE
  5
1CB
330
1F
100
AcDbEntity
  8
0
  6
Continuous
 62
     7
370
     0
100
AcDbPolyline
 90
       13
 70
   128
 43
0.0
 10
275.4434474324
 20
21.7350853327
 10
275.545650289
 20
21.6849443453
 10
276.1857119304
 20
21.4915034882
 10
276.8962965948
 20
21.4659560382
 10
277.6586294832
 20
21.6089770002
 10
278.4525685244
 20
21.9167875286
 10
279.2571365618
 20
22.3812547701
 10
280.0510756031
 20
22.990106747
 10
280.8134084914
 20
23.727256603
 10
281.5239931558
 20
24.5732276433
 10
282.1640547972
 20
25.5056679416
 10
282.7166819492
 20
26.499940913
 10
283.1672733064
 20
27.5297762536
  0
LINE
  5
1CC
330
1F
100
AcDbEntity
  8
0
  6
Continuous
 62
     7
370
     0
100
AcDbLine
 10
272.184005624
 20
22.9458590941
 30
0.0
 11
272.6676682077
 21
22.6666466277
 31
0.0
  0
LINE
  5
1CD
330
1F
100
AcDbEntity
  8
0
  6
Continuous
 62
     7
370
     0
100
AcDbLine
 10
246.4589211039
 20
24.7366672114
 30
0.0
 11
247.6184104842
 21
25.406026183
 31
0.0
  0
LINE
  5
1CE
330
1F
100
AcDbEntity
  8
0
  6
Continuous
 62
     7
370
     0
100
AcDbLine
 10
248.0039251404
 20
25.2023954582
 30
0.0
 11
247.6184104842
 21
25.406026183
 31
0.0
  0
ARC
  5
1CF
330
1F
100
AcDbEntity
  8
0
  6
Continuous
 62
     7
370
     0
100
AcDbCircle
 10
246.8932640233
 20
26.5819467363
 30
0.0
 40
1.381530505405522
100
AcDbArc
 50
301.6605905892
 51
324.2377952694
  0
LINE
  5
1D0
330
1F
100
AcDbEntity
  8
0
  6
Continuous
 62
     7
370
     0
100
AcDbLine
 10
242.3227367885
 20
30.0961024585
 30
0.0
 11
247.8977398557
 21
26.8777216929
 31
0.0
  0
LINE
  5
1D1
330
1F
100
AcDbEntity
  8
0
  6
Continuous
 62
     7
370
     0
100
AcDbLine
 10
242.2620766167
 20
30.0610727028
 30
0.0
 11
242.3227367885
 21
30.0961024585
 31
0.0
  0
LINE
  5
1D2
330
1F
100
AcDbEntity
  8
0
  6
Continuous
 62
     7
370
     0
100
AcDbLine
 10
242.0411057476
 20
34.8414950232
 30
0.0
 11
242.0421467748
 21
35.0272467551
 31
0.0
  0
LWPOLYLINE
  5
1D3
330
1F
100
AcDbEntity
  8
0
  6
Continuous
 62
     7
370
     0
100
AcDbPolyline
 90
        3
 70
   128
 43
0.0
 10
242.1842178329
 20
32.759501551
 10
242.1044585839
 20
33.4355245234
 10
242.0411057476
 20
34.8414950232
  0
LWPOLYLINE
  5
1D4
330
1F
100
AcDbEntity
  8
0
  6
Continuous
 62
     7
370
     0
100
AcDbPolyline
 90
       18
 70
   128
 43
0.0
 10
211.1078860639
 20
58.6571136144
 10
211.1720148003
 20
59.8003660253
 10
211.3632566308
 20
60.997258533
 10
211.6781988402
 20
62.2264325621
 10
212.1112212775
 20
63.4659534731
 10
212.654596647
 20
64.693701986
 10
213.2986284023
 20
65.8877688994
 10
214.0318237815
 20
67.0268460611
 10
214.8410988957
 20
68.0906066119
 10
215.7120122113
 20
69.0600677198
 10
216.6290222595
 20
69.9179293283
 10
217.5757649744
 20
70.6488828767
 10
218.5353457098
 20
71.2398844815
 10
219.4906407246
 20
71.6803877052
 10
220.4246027568
 20
71.9625317572
 10
221.3205652317
 20
72.0812817703
 10
222.1625396777
 20
72.0345186477
 10
222.8257008411
 20
71.8647486122
  0
ARC
  5
1D5
330
1F
100
AcDbEntity
  8
0
  6
Continuous
 62
     7
370
     0
100
AcDbCircle
 10
216.737596552
 20
58.2968866871
 30
0.0
 40
5.641223592378603
100
AcDbArc
 50
176.3388199929
 51
223.4467111484
  0
LINE
  5
1D6
330
1F
100
AcDbEntity
  8
0
  6
Continuous
 62
     7
370
     0
100
AcDbLine
 10
285.5193339558
 20
29.7048670444
 30
0.0
 11
285.2541689129
 21
29.9326788229
 31
0.0
  0
LINE
  5
1D7
330
1F
100
AcDbEntity
  8
0
  6
Continuous
 62
     7
370
     0
100
AcDbLine
 10
280.6226194961
 20
32.6064153891
 30
0.0
 11
285.2541689129
 21
29.9326788229
 31
0.0
  0
LWPOLYLINE
  5
1D8
330
1F
100
AcDbEntity
  8
0
  6
Continuous
 62
     7
370
     0
100
AcDbPolyline
 90
        3
 70
   128
 43
0.0
 10
247.2676592282
 20
23.0675627319
 10
247.0820946685
 20
23.4455378392
 10
246.5948504511
 20
24.6873305994
  0
LWPOLYLINE
  5
1D9
330
1F
100
AcDbEntity
  8
0
  6
Continuous
 62
     7
370
     0
100
AcDbPolyline
 90
        3
 70
   128
 43
0.0
 10
247.1789039536
 20
22.5550210152
 10
246.6716895873
 20
23.524596922
 10
246.2020440755
 20
24.7417836865
  0
LINE
  5
1DA
330
1F
100
AcDbEntity
  8
0
  6
Continuous
 62
     7
370
     0
100
AcDbLine
 10
247.6184104842
 20
25.406026183
 30
0.0
 11
241.9085232261
 21
28.7022739345
 31
0.0
  0
ARC
  5
1DB
330
1F
100
AcDbEntity
  8
0
  6
Continuous
 62
     7
370
     0
100
AcDbCircle
 10
249.7463690586
 20
29.3644400628
 30
0.0
 40
12.08600781450914
100
AcDbArc
 50
195.2932781317
 51
214.710388838
  0
OLE2FRAME
  5
1DC
330
1F
100
AcDbEntity
  8
0
100
AcDbOle2Frame
 70
     2
  3
Paintbrush-Bild
 10
13.8511154363
 20
38.264191557
 30
0.0
 11
51.6290888628
 21
31.9806341108
 31
0.0
 71
     2
 72
     0
 73
     1
 90
    12928
310
80552BED0767C5B32B40DDAF6807D121434000000000000000006FFBDDFB85D0
310
4940DDAF6807D121434000000000000000006FFBDDFB85D04940416F4BD60AFB
310
3F4000000000000000002BED0767C5B32B40416F4BD60AFB3F40000000000000
310
0000000000000100000000010000010000000100000000000100000000320000
310
D0CF11E0A1B11AE1000000000000000000000000000000003E000300FEFF0900
310
0600000000000000000000000100000001000000000000000010000002000000
310
01000000FEFFFFFF0000000000000000FFFFFFFFFFFFFFFFFFFFFFFFFFFFFFFF
310
FFFFFFFFFFFFFFFFFFFFFFFFFFFFFFFFFFFFFFFFFFFFFFFFFFFFFFFFFFFFFFFF
310
FFFFFFFFFFFFFFFFFFFFFFFFFFFFFFFFFFFFFFFFFFFFFFFFFFFFFFFFFFFFFFFF
310
FFFFFFFFFFFFFFFFFFFFFFFFFFFFFFFFFFFFFFFFFFFFFFFFFFFFFFFFFFFFFFFF
310
FFFFFFFFFFFFFFFFFFFFFFFFFFFFFFFFFFFFFFFFFFFFFFFFFFFFFFFFFFFFFFFF
310
FFFFFFFFFFFFFFFFFFFFFFFFFFFFFFFFFFFFFFFFFFFFFFFFFFFFFFFFFFFFFFFF
310
FFFFFFFFFFFFFFFFFFFFFFFFFFFFFFFFFFFFFFFFFFFFFFFFFFFFFFFFFFFFFFFF
310
FFFFFFFFFFFFFFFFFFFFFFFFFFFFFFFFFFFFFFFFFFFFFFFFFFFFFFFFFFFFFFFF
310
FFFFFFFFFFFFFFFFFFFFFFFFFFFFFFFFFFFFFFFFFFFFFFFFFFFFFFFFFFFFFFFF
310
FFFFFFFFFFFFFFFFFFFFFFFFFFFFFFFFFFFFFFFFFFFFFFFFFFFFFFFFFFFFFFFF
310
FFFFFFFFFFFFFFFFFFFFFFFFFFFFFFFFFFFFFFFFFFFFFFFFFFFFFFFFFFFFFFFF
310
FFFFFFFFFFFFFFFFFFFFFFFFFFFFFFFFFFFFFFFFFFFFFFFFFFFFFFFFFFFFFFFF
310
FFFFFFFFFFFFFFFFFFFFFFFFFFFFFFFFFFFFFFFFFFFFFFFFFFFFFFFFFFFFFFFF
310
FFFFFFFFFFFFFFFFFFFFFFFFFFFFFFFFFFFFFFFFFFFFFFFFFFFFFFFFFFFFFFFF
310
FDFFFFFFFEFFFFFFFEFFFFFFFEFFFFFF05000000060000000700000008000000
310
090000000A0000000B0000000C0000000D0000000E0000000F00000010000000
310
11000000120000001300000014000000150000001600000017000000FEFFFFFF
310
FFFFFFFFFFFFFFFFFFFFFFFFFFFFFFFFFFFFFFFFFFFFFFFFFFFFFFFFFFFFFFFF
310
FFFFFFFFFFFFFFFFFFFFFFFFFFFFFFFFFFFFFFFFFFFFFFFFFFFFFFFFFFFFFFFF
310
FFFFFFFFFFFFFFFFFFFFFFFFFFFFFFFFFFFFFFFFFFFFFFFFFFFFFFFFFFFFFFFF
310
FFFFFFFFFFFFFFFFFFFFFFFFFFFFFFFFFFFFFFFFFFFFFFFFFFFFFFFFFFFFFFFF
310
FFFFFFFFFFFFFFFFFFFFFFFFFFFFFFFFFFFFFFFFFFFFFFFFFFFFFFFFFFFFFFFF
310
FFFFFFFFFFFFFFFFFFFFFFFFFFFFFFFFFFFFFFFFFFFFFFFFFFFFFFFFFFFFFFFF
310
FFFFFFFFFFFFFFFFFFFFFFFFFFFFFFFFFFFFFFFFFFFFFFFFFFFFFFFFFFFFFFFF
310
FFFFFFFFFFFFFFFFFFFFFFFFFFFFFFFFFFFFFFFFFFFFFFFFFFFFFFFFFFFFFFFF
310
FFFFFFFFFFFFFFFFFFFFFFFFFFFFFFFFFFFFFFFFFFFFFFFFFFFFFFFFFFFFFFFF
310
FFFFFFFFFFFFFFFFFFFFFFFFFFFFFFFFFFFFFFFFFFFFFFFFFFFFFFFFFFFFFFFF
310
FFFFFFFFFFFFFFFFFFFFFFFFFFFFFFFFFFFFFFFFFFFFFFFFFFFFFFFFFFFFFFFF
310
FFFFFFFFFFFFFFFFFFFFFFFFFFFFFFFFFFFFFFFFFFFFFFFFFFFFFFFFFFFFFFFF
310
FFFFFFFFFFFFFFFFFFFFFFFFFFFFFFFFFFFFFFFFFFFFFFFFFFFFFFFFFFFFFFFF
310
52006F006F007400200045006E00740072007900000000000000000000000000
310
0000000000000000000000000000000000000000000000000000000000000000
310
16000500FFFFFFFFFFFFFFFF020000000A00030000000000C000000000000046
310
000000000000000000000000F0DE8F689920D20103000000C000000000000000
310
01004F006C006500000000000000000000000000000000000000000000000000
310
0000000000000000000000000000000000000000000000000000000000000000
310
0A000200FFFFFFFFFFFFFFFFFFFFFFFF00000000000000000000000000000000
310
0000000000000000000000000000000000000000000000001400000000000000
310
010043006F006D0070004F0062006A0000000000000000000000000000000000
310
0000000000000000000000000000000000000000000000000000000000000000
310
120002010100000003000000FFFFFFFF00000000000000000000000000000000
310
0000000000000000000000000000000000000000010000004D00000000000000
310
01004F006C006500310030004E00610074006900760065000000000000000000
310
0000000000000000000000000000000000000000000000000000000000000000
310
1A000200FFFFFFFFFFFFFFFFFFFFFFFF00000000000000000000000000000000
310
0000000000000000000000000000000000000000040000002426000000000000
310
FEFFFFFF02000000FEFFFFFFFFFFFFFFFFFFFFFFFFFFFFFFFFFFFFFFFFFFFFFF
310
FFFFFFFFFFFFFFFFFFFFFFFFFFFFFFFFFFFFFFFFFFFFFFFFFFFFFFFFFFFFFFFF
310
FFFFFFFFFFFFFFFFFFFFFFFFFFFFFFFFFFFFFFFFFFFFFFFFFFFFFFFFFFFFFFFF
310
FFFFFFFFFFFFFFFFFFFFFFFFFFFFFFFFFFFFFFFFFFFFFFFFFFFFFFFFFFFFFFFF
310
FFFFFFFFFFFFFFFFFFFFFFFFFFFFFFFFFFFFFFFFFFFFFFFFFFFFFFFFFFFFFFFF
310
FFFFFFFFFFFFFFFFFFFFFFFFFFFFFFFFFFFFFFFFFFFFFFFFFFFFFFFFFFFFFFFF
310
FFFFFFFFFFFFFFFFFFFFFFFFFFFFFFFFFFFFFFFFFFFFFFFFFFFFFFFFFFFFFFFF
310
FFFFFFFFFFFFFFFFFFFFFFFFFFFFFFFFFFFFFFFFFFFFFFFFFFFFFFFFFFFFFFFF
310
FFFFFFFFFFFFFFFFFFFFFFFFFFFFFFFFFFFFFFFFFFFFFFFFFFFFFFFFFFFFFFFF
310
FFFFFFFFFFFFFFFFFFFFFFFFFFFFFFFFFFFFFFFFFFFFFFFFFFFFFFFFFFFFFFFF
310
FFFFFFFFFFFFFFFFFFFFFFFFFFFFFFFFFFFFFFFFFFFFFFFFFFFFFFFFFFFFFFFF
310
FFFFFFFFFFFFFFFFFFFFFFFFFFFFFFFFFFFFFFFFFFFFFFFFFFFFFFFFFFFFFFFF
310
FFFFFFFFFFFFFFFFFFFFFFFFFFFFFFFFFFFFFFFFFFFFFFFFFFFFFFFFFFFFFFFF
310
FFFFFFFFFFFFFFFFFFFFFFFFFFFFFFFFFFFFFFFFFFFFFFFFFFFFFFFFFFFFFFFF
310
FFFFFFFFFFFFFFFFFFFFFFFFFFFFFFFFFFFFFFFFFFFFFFFFFFFFFFFFFFFFFFFF
310
FFFFFFFFFFFFFFFFFFFFFFFFFFFFFFFFFFFFFFFFFFFFFFFFFFFFFFFFFFFFFFFF
310
0100000200000000000000000000000000000000000000000000000000000000
310
0000000000000000000000000000000000000000000000000000000000000000
310
0100FEFF030A0000FFFFFFFF0A00030000000000C00000000000004607000000
310
5042727573680007000000504272757368000700000050427275736800F439B2
310
7100000000000000000000000000000000000000000000000000000000000000
310
0000000000000000000000000000000000000000000000000000000000000000
310
0000000000000000000000000000000000000000000000000000000000000000
310
0000000000000000000000000000000000000000000000000000000000000000
310
0000000000000000000000000000000000000000000000000000000000000000
310
0000000000000000000000000000000000000000000000000000000000000000
310
0000000000000000000000000000000000000000000000000000000000000000
310
0000000000000000000000000000000000000000000000000000000000000000
310
0000000000000000000000000000000000000000000000000000000000000000
310
0000000000000000000000000000000000000000000000000000000000000000
310
0000000000000000000000000000000000000000000000000000000000000000
310
0000000000000000000000000000000000000000000000000000000000000000
310
20260000424D0E260000000000003E00000028000000B40200006E0000000100
310
01000000000000000000130B0000130B00000200000002000000000000FFFFFF
310
FFFFFFFFFFFFFFFFFFFFFFFFFFFFFFFFFFFFFFFFFFFFFFFFFFFFFFFFFFFFFFFF
310
FFFFFFFFFFFFFFFFFFFFFFFFFFFFFFFFFFFFFFFFFFFFFFFFFFFFFFFFFFFFFFFF
310
FFFFFFFFFFFFFFFFFFFFFFFFFFFFFFFFFFFFFFFFFFFFFFFFF000FFFFFFFFFFFF
310
FFFFFFFFFFFFFFFFFFFFFFFFFFFFFFFFFFFFFFFFFFFFFFFFFFFFFFFFFFFFFFFF
310
FFFFFFFFFFFFFFFFFFFFFFFFFFFFFFFFFFFFFFFFFFFFFFFFFFFFFFFFFFFFFFFF
310
FFFFFFFFFFFFFFFFFFFFFFFFFFFFFFFFF000FFFFFFFFFFFFFFFFFFFFFFFFFFFF
310
FFFFFFFFFFFFFFFFFFFFFFFFFFFFFFFFFFFFFFFFFFFFFFFFFFFFFFFFFFFFFFFF
310
FFFFFFFFFFFFFFFFFFFFFFFFFFFFFFFFFFFFFFFFFFFFFFFFFFFFFFFFFFFFFFFF
310
FFFFFFFFFFFFFFFFF000FFFFFFFFFFFFFFFFFFFFFFFFFFFFFFFFFFFFFFFFFFFF
310
FFFFFFFFFFFFFFFFFFFFFFFFFFFFFFFFFFFFFFFFFFFFFFFFFFFFFFFFFFFFFFFF
310
FFFFFFFFFFFFFFFFFFFFFFFFFFFFFFFFFFFFFFFFFFFFFFFFFFFFFFFFFFFFFFFF
310
F000FFFFFFFFFFFFFFFFFFFFFFFFFFFFFFFFFFFFFFFFFFFFFFFFFFFFFFFFFFFF
310
FFFFFFFFFFFFFFFFFFFFFFFFFFFFFFFFFFFFFFFFFFFFFFFFFFFFFFFFFFFFFFFF
310
FFFFFFFFFFFFFFFFFFFFFFFFFFFFFFFFFFFFFFFFFFFFFFFFF000FFFFFFFFFFFF
310
FFFFFFFFFFFFFFFFFFFFFFFFFFFFFFFFFFFFFFFFFFFFFFFFFFFFFFFFFFFFFFFF
310
FFFFFFFFFFFFFFFFFFFFFFFFFFFFFFFFFFFFFFFFFFFFFFFFFFFFFFFFFFFFFFFF
310
FFFFFFFFFFFFFFFFFFFFFFFFFFFFFFFFF000FFFFFFFFFFFFFFFFFFFFFFFFFFFF
310
FFFFFFFFFFFFFFFFFFFFFFFFFFFFFFFFFFFFFFFFFFFFFFFFFFFFFFFFFFFFFFFF
310
FFFFFFFFFFFFFFFFFFFFFFFFFFFFFFFFFFFFFFFFFFFFFFFFFFFFFFFFFFFFFFFF
310
FFFFFFFFFFFFFFFFF000FFFFFFFFFFFFFFFFFFFFFFFFFFFFFFFFFFFFFFFFFFFF
310
FFFFFFFFFFFFFFFFFFFFFFFFFFFFFFFFFFFFFFFFFFFFFFFFFFFFFFFFFFFFFFFF
310
FFFFFFFFFFFFFFFFFFFFFFFFFFFFFFFFFFFFFFFFFFFFFFFFFFFFFFFFFFFFFFFF
310
F000FFFFFFFFFFFFFFFFFFFFFFFFFFFFFFFFFFFFFFFFFFFFFFFFFFFFFFFFFFFF
310
FFFFFFFFFFFFFFFFFFFFFFFFFFFFFFFFFFFFFFFFFFFFFFFFFFFFFFFFFFFFFFFF
310
FFFFFFFFFFFFFFFFFFFFFFFFFFFFFFFFFFFFFFFFFFFFFFFFF000FFFFFFFFFFFF
310
FFFFFFFFFFFFFFFFFFFFFFFFFFFFFFFFFFFFFFFFFFFFFFFFFFFFFFFFFFFFFFFF
310
FFFFFFFFFFFFFFFFFFFFFFFFFFFFFFFFFFFFFFFFFFFFFFFFFFFFFFFFFFFFFFFF
310
FFFFFFFFFFFFFFFFFFFFFFFFFFFFFFFFF000FFFFFFFFFFFFFFFFFFFFFFFFFFFF
310
FFFFFFFFFFFFFFFFFFFFFFFFFFFFFFFFFFFFFFFFFFFFFFFFFFFFFFFFFFFFFFFF
310
FFFFFFFFFFFFFFFFFFFFFFFFFFFFFFFFFFFFFFFFFFFFFFFFFFFFFFFFFFFFFFFF
310
FFFFFFFFFFFFFFFFF000FFFFFFFFFFFFFFFFFFFFFFFFFFFFFFFFFFFFFFFFFFFF
310
FFFFFFFFFFFFFFFFFFFFFFFFFFFFFFFFFFFFFFFFFFFFFFFFFFFFFFFFFFFFFFFF
310
FFFFFFFFFFFFFFFFFFFFFFFFFFFFFFFFFFFFFFFFFFFFFFFFFFFFFFFFFFFFFFFF
310
F000FFFFFFFFFFFFFFFFFFFFFFFFFFFFFFFFFFFFFFFFFFFFFFFFFFFFFFFFFFFF
310
FFFFFFFFFFFFFFFFFFFFFFFFFFFFFFFFFFFFFFFFFFFFFFFFFFFFFFFFFFFFFFFF
310
FFFFFFFFFFFFFFFFFFFFFFFFFFFFFFFFFFFFFFFFFFFFFFFFF000FFFFFFFFFFFF
310
FFFFFFFFFFFFFFFFFFFFFFFFFFFFFFFFFFFFFFFFFFFFFFFFFFFFFFFFFFFFFFFF
310
FFFFFFFFFFFFFFFFFFFFFFFFFFFFFFFFFFFFFFFFFFFFFFFFFFFFFFFFFFFFFFFF
310
FFFFFFFFFFFFFFFFFFFFFFFFFFFFFFFFF000FFFFFFFFFFFFFFFFFFFFFFFFFFFF
310
FFFFFFFFFFFFFFFFFFFFFFFFFFFFFFFFFFFFFFFFFFFFFFFFFFFFFFFFFFFFFFFF
310
FFFFFFFFFFFFFFFFFFFFFFFFFFFFFFFFFFFFFFFFFFFFFFFFFFFFFFFFFFFFFFFF
310
FFFFFFFFFFFFFFFFF000FFFFFFFFFFFFFFFFFFFFFFFFFFFFFFFFFFFFFFFFFFFF
310
FFFFFFFFFFFFFFFFFFFFFFFFFFFFFFFFFFFFFFFFFFFFFFFFFFFFFFFFFFFFFFFF
310
FFFFFFFFFFFFFFFFFFFFFFFFFFFFFFFFFFFFFFFFFFFFFFFFFFFFFFFFFFFFFFFF
310
F000FFFFFFFFFFFFFFFFFFFFFFFFFFFFFFFFFFFFFFFFFFFFFFFFFFFFFFFFFFFF
310
FFFFFFFFFFFFFFFFFFFFFFFFFFFFFFFFFFFFFFFFFFFFFFFFFFFFFFFFFFFFFFFF
310
FFFFFFFFFFFFFFFFFFFFFFFFFFFFFFFFFFFFFFFFFFFFFFFFF000FFFFFFFFFFFF
310
FFFFFFFFFFFFFFFFFFFFFFFFFFFFFFFFFFFFFFFFFFFFFFFFFFFFFFFFFFFFFFFF
310
FFFFFFFFFFFFFFFFFFFFFFFFFFFFFFFFFFFFFFFFFFFFFFFFFFFFFFFFFFFFFFFF
310
FFFFFFFFFFFFFFFFFFFFFFFFFFFFFFFFF000FFFFFFFFFFFFFFFFFFFFFFFFFFFF
310
FFFFFFFFFFFFFFFFFFFFFFFFFFFFFFFFFFFFFFFFFFFFFFFFFFFFFFFFFFFFFFFF
310
FFFFFFFFFFFFFFFFFFFFFFFFFFFFFFFFFFFFFFFFFFFFFFFFFFFFFFFFFFFFFFFF
310
FFFFFFFFFFFFFFFFF000FFFFF80003FFFFFFFFFFFFFFFFFFFFFFFFFFFFFFFFFF
310
FFFFF00007FFFFFFFFFF00007FFFFFF800000000000000007FFFFFFFFFFFFFFF
310
FFFFFFFC001FFFFFFFFFFFFFFC001FFFFFFFFFFFFFFFFFFFFFFFFFFE0007FFFF
310
F000FFFF8000007FFFFFFFF8000FFFFFC0007FFFFF80007FFFFF0000007FFFFF
310
FFF8000007FFFFF800000000000000007FFFFFF0001FFFFFFFFFFFC00001FFFF
310
FFFFFFFFC00001FFFFFFFF000000000003FFFFE000007FFFF000FFFE0000000F
310
FFFFFFF0000FFFFF80007FFFFF80007FFFFC0000001FFFFFFFC0000001FFFFF8
310
00000000000000007FFFFFF0001FFFFFFFFFFE0000003FFFFFFFFFFE0000003F
310
FFFFFF000000000003FFFF0000000FFFF000FFF800000003FFFFFFF00007FFFF
310
80007FFFFF80007FFFF000000007FFFFFF000000003FFFF80000000000000000
310
7FFFFFF0001FFFFFFFFFF80000000FFFFFFFFFF80000000FFFFFFF0000000000
310
03FFFC00000003FFF000FFE000000000FFFFFFF00007FFFF80003FFFFF80007F
310
FFC000000001FFFFFC000000001FFFF800000000000000007FFFFFF0001FFFFF
310
FFFFE000000003FFFFFFFFE000000003FFFFFF000000000003FFF000000000FF
310
F000FF80000000007FFFFFF00007FFFF80003FFFFF80007FFF8000000000FFFF
310
F80000000007FFF800000000000000007FFFFFF0001FFFFFFFFFC000000001FF
310
FFFFFFC000000001FFFFFF000000000003FFC0000000007FF000FF0000000000
310
3FFFFFE00007FFFF00003FFFFF80007FFE00000000003FFFF00000000003FFF8
310
00000000000000007FFFFFF0001FFFFFFFFF8000000000FFFFFFFF8000000000
310
FFFFFF000000000003FF80000000003FF000FE00000000001FFFFFE00003FFFF
310
00003FFFFF80007FFC00000000001FFFE00000000001FFF8000001FFFE000000
310
7FFFFFF0001FFFFFFFFE00000000003FFFFFFE00000000003FFFFF0000000000
310
03FF00000000001FF000FC00000000000FFFFFE00003FFFF00001FFFFF80007F
310
F800000000001FFFC00000000000FFF8000001FFFE0000007FFFFFF0001FFFFF
310
FFFC00000000001FFFFFFC00000000001FFFFF000000000003FE00000000000F
310
F000F8000000000007FFFFE00003FFFF00001FFFFF80007FF800000000000FFF
310
800000000000FFF8000001FFFE0000007FFFFFF0001FFFFFFFF800000000000F
310
FFFFF800000000000FFFFF000000000003FC000000000007F000F80000000000
310
03FFFFC00003FFFE00001FFFFF80007FF0000000000007FF0000000000007FF8
310
000001FFFE0000007FFFFFF0001FFFFFFFF0000000000007FFFFF00000000000
310
07FFFF000000000003F8000000000003F000F0000000000003FFFFC00001FFFE
310
00001FFFFF80007FE0000000000007FE0000000000003FF8000001FFFE000000
310
7FFFFFF0001FFFFFFFF0000000000007FFFFF0000000000007FFFF0000000000
310
03F800001F800003F000E00001FFF00001FFFFC00001FFFE00000FFFFF80007F
310
E00001FFE00003FE00001FFF00003FF8000001FFFE0000007FFFFFF0001FFFFF
310
FFE000003E000003FFFFE000003E000003FFFF000000000003F00001FFF80001
310
F000E00007FFFC0001FFFFC00001FFFE00000FFFFF80007FC0000FFFFC0003FC
310
0000FFFFC0001FF8000001FFFE0000007FFFFFF0001FFFFFFFC00003FFE00001
310
FFFFC00003FFE00001FFFF0001FFFFFFFFF00007FFFE0001F000E0000FFFFF00
310
00FFFF800001FFFC00000FFFFF80007FC0001FFFFE0001FC0001FFFFE0001FF8
310
000001FFFE0000007FFFFFF0001FFFFFFF80000FFFF80000FFFF80000FFFF800
310
00FFFF0003FFFFFFFFE0000FFFFF8000F000C0003FFFFF8000FFFF800000FFFC
310
000007FFFF80007F80003FFFFF0001FC0003FFFFF0001FF8000001FFFE000000
310
7FFFFFF0001FFFFFFF80003FFFFE0000FFFF80003FFFFE0000FFFF0003FFFFFF
310
FFE0003FFFFF8000F000C0003FFFFF8000FFFF800000FFFC000007FFFF80007F
310
80007FFFFF8001F80007FFFFF8000FF8000001FFFE0000007FFFFFF0001FFFFF
310
FF00007FFFFF00007FFF00007FFFFF00007FFF0003FFFFFFFFE0003FFFFFC000
310
F000C0007FFFFFC000FFFF000000FFFC000007FFFF80007F8000FFFFFF8000F8
310
000FFFFFF8000FF8000001FFFE0000007FFFFFF0001FFFFFFF0000FFFFFF8000
310
7FFF0000FFFFFF80007FFF0003FFFFFFFFC0007FFFFFC00070008000FFFFFFC0
310
00FFFF000000FFF8000007FFFF80007F8000FFFFFF8000F8000FFFFFF8000FF8
310
000001FFFE0000007FFFFFF0001FFFFFFE0001FFFFFFC0003FFE0001FFFFFFC0
310
003FFF0003FFFFFFFFC0007FFFFFE00070008000FFFFFFC0007FFF0000007FF8
310
000003FFFF80007F0001FFFFFF8000F8000FFFFFF8000FF8000001FFFE000000
310
7FFFFFF0001FFFFFFE0001FFFFFFC0003FFE0001FFFFFFC0003FFF0003FFFFFF
310
FFC000FFFFFFE00070008000FFFFFFC0007FFF0000007FF8000003FFFF80007F
310
0001FFFFFF8000F8001FFFFFF8000FF8000001FFFE0000007FFFFFF0001FFFFF
310
FE0003FFFFFFE0003FFE0003FFFFFFE0003FFF0003FFFFFFFFC000FFFFFFE000
310
70008000FFFFFFC0007FFE0000007FF8000003FFFF80007F0001FFFFFF8000F0
310
001FFFFFF8000FF8000001FFFE0000007FFFFFF0001FFFFFFC0003FFFFFFE000
310
1FFC0003FFFFFFE0001FFF0003FFFFFFFFC000FFFFFFC00070008000FFFFFF80
310
007FFE0000007FF0000003FFFF80007F0001FFFFFF0000F0001FFFFFF8000FF8
310
000001FFFE0000007FFFFFF0001FFFFFFC0007FFFFFFF0001FFC0007FFFFFFF0
310
001FFF0003FFFFFFFFC000FFFFFFC00070008001FFFFFF0000FFFE0000003FF0
310
000001FFFF80007F0001FFFFFF0000F8001FFFFFF0000FF8000001FFFE000000
310
7FFFFFF0001FFFFFFC0007FFFFFFF0001FFC0007FFFFFFF0001FFF0003FFFFFF
310
FFC001FFFFFF80007000FFFFFFFFFE0000FFFE0008003FF0008001FFFF80007F
310
FFFFFFFFFC0000FFFFFFFFFFE0000FF8000001FFFE0000007FFFFFF0001FFFFF
310
F8000FFFFFFFF8000FF8000FFFFFFFF8000FFF0003FFFFFFFFFFFFFFFFFF0000
310
7000FFFFFFFFFC0000FFFC0008003FF0008001FFFF80007FFFFFFFFFF80001FF
310
FFFFFFFF80000FF8000001FFFE0000007FFFFFF0001FFFFFF8000FFFFFFFF800
310
0FF8000FFFFFFFF8000FFF0003FFFFFFFFFFFFFFFFFE0000F000FFFFFFFFE000
310
00FFFC000C003FE000C001FFFF80007FFFFFFFFFC00001FFFFFFFFFE00001FF8
310
000001FFFE0000007FFFFFF0001FFFFFF8000FFFFFFFF8000FF8000FFFFFFFF8
310
000FFF0003FFFFFFFFFFFFFFFFF00000F000FFFFFFFE000001FFFC000C001FE0
310
00C000FFFF80007FFFFFFFFE000001FFFFFFFFE000001FF80FFFFFFFFFFFFFC0
310
7FFFFFF0001FFFFFF8000FFFFFFFF8000FF8000FFFFFFFF8000FFF0003FFFFFF
310
FFFFFFFFFF800000F000FFFFFFC0000001FFFC001C001FE001C000FFFF80007F
310
FFFFFF80000003FFFFFFF80000001FF80FFFFFFFFFFFFFC07FFFFFF0001FFFFF
310
F8001FFFFFFFFC000FF8001FFFFFFFFC000FFF0003FFFFFFFFFFFFFFF0000001
310
F000FFFFF800000001FFF8001C001FE001C000FFFF80007FFFFFF800000003FF
310
FFFF800000003FF80FFFFFFFFFFFFFC07FFFFFF0001FFFFFF8001FFFFFFFFC00
310
0FF8001FFFFFFFFC000FFF0003FFFFFFFFFFFFFE00000001F000FFFFC0000000
310
03FFF8001E001FC001E000FFFF80007FFFFF8000000007FFFFFC000000003FF8
310
0FFFFFFFFFFFFFC07FFFFFF0001FFFFFF8001FFFFFFFFC000FF8001FFFFFFFFC
310
000FFF0003FFFFFFFFFFFFE000000003F000FFFE0000000007FFF8001E000FC0
310
01E0007FFF80007FFFFE0000000007FFFFE0000000007FF80FFFFFFFFFFFFFC0
310
7FFFFFF0001FFFFFF0001FFFFFFFFC0007F0001FFFFFFFFC0007FF0003FFFFFF
310
FFFFFF0000000003F000FFF80000000007FFF8001E000FC003E0007FFF80007F
310
FFF0000000000FFFFF8000000000FFF80FFFFFFFFFFFFFC07FFFFFF0001FFFFF
310
F0001FFFFFFFFC0007F0001FFFFFFFFC0007FF0003FFFFFFFFFFFC0000000007
310
F000FFE0000000000FFFF0003E000FC003E0007FFF80007FFFC0000000001FFF
310
FE0000000001FFF80FFFFFFFFFFFFFC07FFFFFF0001FFFFFF0001FFFFFFFFC00
310
07F0001FFFFFFFFC0007FF0003FFFFFFFFFFF0000000000FF000FFC000000000
310
1FFFF0003F000F8003F0003FFF80007FFF80000000003FFFF80000000003FFF8
310
0FFFFFFFFFFFFFC07FFFFFF0001FFFFFF0001FFFFFFFFC0007F0001FFFFFFFFC
310
0007FF0003FFFFFFFFFFE0000000001FF000FF00000000007FFFF0003F000780
310
03F0003FFF80007FFF00000000007FFFF00000000007FFF80FFFFFFFFFFFFFC0
310
7FFFFFF0001FFFFFF0001FFFFFFFFC0007F0001FFFFFFFFC0007FF0003FFFFFF
310
FFFF80000000007FF000FE0000000000FFFFE0003F00078007F0003FFF80007F
310
FE0000000001FFFFE0000000001FFFF80FFFFFFFFFFFFFC07FFFFFF0001FFFFF
310
F0001FFFFFFFFC0007F0001FFFFFFFFC0007FF0003FFFFFFFFFF0000000000FF
310
F000FC0000000003FFFFE0007F00078007F0003FFF80007FFC0000000007FFFF
310
C0000000007FFFF80FFFFFFFFFFFFFC07FFFFFF0001FFFFFF8001FFFFFFFFC00
310
0FF8001FFFFFFFFC000FFF0003FFFFFFFFFE0000000003FFF000FC000000000F
310
FFFFE0007F80070007F8001FFF80007FF8000000001FFFFF8000000001FFFFF8
310
0FFFFFFFFFFFFFC07FFFFFF0001FFFFFF8001FFFFFFFFC000FF8001FFFFFFFFC
310
000FFF0003FFFFFFFFFC000000000FFFF000F8000000007FFFFFE0007F800700
310
07F8001FFF80007FF000000000FFFFFF800000000FFFFFF80FFFFFFFFFFFFFC0
310
7FFFFFF0001FFFFFF8000FFFFFFFF8000FF8000FFFFFFFF8000FFF0003FFFFFF
310
FFFC000000007FFFF000F800000007FFFFFFC0007F8003000FF8001FFF80007F
310
F000000007FFFFFF000000007FFFFFF80FFFFFFFFFFFFFC07FFFFFF0001FFFFF
310
F8000FFFFFFFF8000FF8000FFFFFFFF8000FFF0003FFFFFFFFF80000000FFFFF
310
F000F0000000FFFFFFFFC000FF8003000FF8001FFF80007FE0000000FFFFFFFF
310
0000000FFFFFFFF8000001FFFE0000007FFFFFF0001FFFFFF8000FFFFFFFF800
310
0FF8000FFFFFFFF8000FFF0003FFFFFFFFF8000000FFFFFFF000F000000FFFFF
310
FFFFC000FFC002000FF8000FFF80007FE000001FFFFFFFFE000001FFFFFFFFF8
310
000001FFFE0000007FFFFFF0001FFFFFF8000FFFFFFFF8000FF8000FFFFFFFF8
310
000FFF0003FFFFFFFFF000001FFFFFFFF000E00000FFFFFFFFFFC000FFC00200
310
0FFC000FFF80007FE00001FFFFFFFFFE00001FFFFFFFFFF8000001FFFE000000
310
7FFFFFF0001FFFFFFC000FFFFFFFF8001FFC000FFFFFFFF8001FFF0003FFFFFF
310
FFF00001FFFFFFFFF000E00007FFFFFFFFFF8000FFC000001FFC000FFF80007F
310
C0000FFFFFFFFFFE0000FFFFFFFFFFF8000001FFFE0000007FFFFFF0001FFFFF
310
FC0007FFFFFFF0001FFC0007FFFFFFF0001FFF0003FFFFFFFFF00007FFFFFFFF
310
F000E0001FFFFFFFFFFF8000FFC000001FFC000FFF80007FC0003FFFFFFFFFFE
310
0001FFFFFFFFFFF8000001FFFE0000007FFFFFF0001FFFFFFC0007FFFFFFF000
310
1FFC0007FFFFFFF0001FFF0003FFFFFFFFF0001FFFFFFFFFF000E0003FFFFF00
310
03FF8001FFE000001FFC0007FF80007FC0007FFFFF0007FC0003FFFFF0003FF8
310
000001FFFE0000007FFFFFF0001FFFFFFC0003FFFFFFE0001FFC0003FFFFFFE0
310
001FFF0003FFFFFFFFF0003FFFFFFFFFF000E0003FFFFF0001FF8001FFE00000
310
1FFE0007FF80007FC0007FFFFE0003FC0007FFFFE0003FF8000001FFFE000000
310
7FFFFFF0001FFFFFFE0003FFFFFFE0003FFE0003FFFFFFE0003FFF0003FFFFFF
310
FFF0003FFFFF8001F000E0003FFFFF0001FF0001FFE000001FFE0007FF80007F
310
C0007FFFFE0003FC0007FFFFE0003FF8000001FFFE0000007FFFFFF0001FFFFF
310
FE0001FFFFFFC0003FFE0001FFFFFFC0003FFF0003FFFFFFFFF0003FFFFF0001
310
F000E0003FFFFF0003FF0001FFE000003FFE0007FF80007FC0007FFFFE0003FC
310
0007FFFFE0003FF8000001FFFE0000007FFFFFF0001FFFFFFF0001FFFFFFC000
310
7FFF0001FFFFFFC0007FFF0003FFFFFFFFF0003FFFFF0001F000E0003FFFFE00
310
03FF0003FFF000003FFE0003FF80007FC0007FFFFC0003FE0007FFFFE0003FF8
310
000001FFFE0000007FFFFFF0001FFFFFFF0000FFFFFF80007FFF0000FFFFFF80
310
007FFF0003FFFFFFFFF0003FFFFF0001F000E0003FFFFE0003FF0003FFF00000
310
3FFF0003FF80007FC0007FFFFC0007FE0007FFFFC0003FF8000001FFFE000000
310
7FFFFFF0001FFFFFFF80007FFFFF0000FFFF80007FFFFF0000FFFF0003FFFFFF
310
FFF0003FFFFF0003F000E0003FFFFC0003FE0003FFF000003FFF0003FF80007F
310
E0003FFFF80007FE0003FFFFC0007FF8000001FFFE0000007FFFFFF0001FFFFF
310
FF80003FFFFE0000FFFF80003FFFFE0000FFFF0003FFFFFFFFF0001FFFFE0003
310
F000F0001FFFF80003FE0003FFF000007FFF0001FF80007FE0003FFFF00007FE
310
0001FFFF80007FF8000001FFFE0000007FFFFFF0001FFFFFFFC0000FFFF80001
310
FFFFC0000FFFF80001FFFF0003FFFFFFFFF0001FFFFC0003F000F0000FFFF000
310
07FE0007FFF800007FFF0001FF80007FE0001FFFE00007FF0000FFFE00007FF8
310
000001FFFE0000007FFFFFF0001FFFFFFFC00003FFE00001FFFFC00003FFE000
310
01FFFF0003FFFFFFFFF8000FFFF80003F000F00003FFC00007FC0007FFF80000
310
7FFF8001FF80007FF00007FF80000FFF00007FF80000FFF8000001FFFE000000
310
7F80000000000001FFE000003E000003FFFFE000003E000003FFFF0003FFFFFF
310
FFF80003FFE00007F000F800000000000FFC0007FFF800007FFF8001FF80007F
310
F000000000000FFF000000000000FFF8000001FFFE0000007F80000000000001
310
FFF0000000000007FFFFF0000000000007FFFF0003FFFFFFFFFC00007E000007
310
F000F800000000000FFC0007FFF80000FFFF8000FF80007FF800000000001FFF
310
800000000001FFF8000001FFFE0000007F80000000000001FFF800000000000F
310
FFFFF800000000000FFFFF0003FFFFFFFFFC00000000000FF000FC0000000000
310
1FFC0007FFFC0000FFFF8000FF80007FF800000000003FFFC00000000001FFF8
310
000001FFFE0000007F80000000000001FFF800000000000FFFFFF80000000000
310
0FFFFF0003FFFFFFFFFE00000000001FF000FE00000000003FF8000FFFFC0000
310
FFFF8000FF80007FFC00000000003FFFC00000000003FFF8000001FFFE000000
310
7F80000000000001FFFC00000000001FFFFFFC00000000001FFFFF0003FFFFFF
310
FFFF00000000001FF000FF00000000003FF8000FFFFC0000FFFFC000FF80007F
310
FE00000000007FFFE00000000007FFF8000001FFFE0000007F80000000000001
310
FFFE00000000003FFFFFFE00000000003FFFFF0003FFFFFFFFFF80000000003F
310
F000FF80000000007FF8000FFFFC0001FFFFC0007F80007FFF0000000000FFFF
310
F0000000000FFFF800000000000000007F80000000000001FFFF8000000000FF
310
FFFFFF8000000000FFFFFF0003FFFFFFFFFFC0000000007FF000FFC000000000
310
FFF8000FFFFE0001FFFFC0007F80007FFF8000000001FFFFF8000000001FFFF8
310
00000000000000007F80000000000001FFFFC000000001FFFFFFFFC000000001
310
FFFFFF0003FFFFFFFFFFE000000000FFF000FFE000000003FFF0001FFFFE0001
310
FFFFC0007F80007FFFC000000007FFFFFE000000003FFFF80000000000000000
310
7F80000000000001FFFFE000000003FFFFFFFFE000000003FFFFFF0003FFFFFF
310
FFFFF000000003FFF000FFF80000000FFFF0001FFFFE0001FFFFE0007F80007F
310
FFF00000000FFFFFFF00000000FFFFF800000000000000007F80000000000001
310
FFFFF80000000FFFFFFFFFF80000000FFFFFFF0003FFFFFFFFFFFC0000000FFF
310
F000FFFE0000003FFFF0001FFFFE0003FFFFE0003F80007FFFFC0000003FFFFF
310
FFC0000003FFFFF800000000000000007F80000000000001FFFFFE0000003FFF
310
FFFFFFFE0000003FFFFFFF0003FFFFFFFFFFFF0000003FFFF000FFFF800000FF
310
FFF0001FFFFF0003FFFFE0003F80007FFFFF000001FFFFFFFFF800001FFFFFF8
310
00000000000000007F80000000000001FFFFFFC00001FFFFFFFFFFFFC00001FF
310
FFFFFF0003FFFFFFFFFFFFC00000FFFFF000FFFFF8000FFFFFFFFFFFFFFFFFFF
310
FFFFFFFFFFFFFFFFFFFFF0001FFFFFFFFFFF0000FFFFFFF80000000000000000
310
7FFFFFFFFFFFFFFFFFFFFFFC001FFFFFFFFFFFFFFC001FFFFFFFFFFFFFFFFFFF
310
FFFFFFFC001FFFFFF000FFFFFFFFFFFFFFFFFFFFFFFFFFFFFFFFFFFFFFFFFFFF
310
FFFFFFFFFFFFFFFFFFFFFFFFFFFFFFFFFFFFFFFFFFFFFFFFFFFFFFFFFFFFFFFF
310
FFFFFFFFFFFFFFFFFFFFFFFFFFFFFFFFFFFFFFFFFFFFFFFFFFFFFFFFFFFFFFFF
310
F000FFFFFFFFFFFFFFFFFFFFFFFFFFFFFFFFFFFFFFFFFFFFFFFFFFFFFFFFFFFF
310
FFFFFFFFFFFFFFFFFFFFFFFFFFFFFFFFFFFFFFFFFFFFFFFFFFFFFFFFFFFFFFFF
310
FFFFFFFFFFFFFFFFFFFFFFFFFFFFFFFFFFFFFFFFFFFFFFFFF000FFFFFFFFFFFF
310
FFFFFFFFFFFFFFFFFFFFFFFFFFFFFFFFFFFFFFFFFFFFFFFFFFFFFFFFFFFFFFFF
310
FFFFFFFFFFFFFFFFFFFFFFFFFFFFFFFFFFFFFFFFFFFFFFFFFFFFFFFFFFFFFFFF
310
FFFFFFFFFFFFFFFFFFFFFFFFFFFFFFFFF000FFFFFFFFFFFFFFFFFFFFFFFFFFFF
310
FFFFFFFFFFFFFFFFFFFFFFFFFFFFFFFFFFFFFFFFFFFFFFFFFFFFFFFFFFFFFFFF
310
FFFFFFFFFFFFFFFFFFFFFFFFFFFFFFFFFFFFFFFFFFFFFFFFFFFFFFFFFFFFFFFF
310
FFFFFFFFFFFFFFFFF000FFFFFFFFFFFFFFFFFFFFFFFFFFFFFFFFFFFFFFFFFFFF
310
FFFFFFFFFFFFFFFFFFFFFFFFFFFFFFFFFFFFFFFFFFFFFFFFFFFFFFFFFFFFFFFF
310
FFFFFFFFFFFFFFFFFFFFFFFFFFFFFFFFFFFFFFFFFFFFFFFFFFFFFFFFFFFFFFFF
310
F000FFFFFFFFFFFFFFFFFFFFFFFFFFFFFFFFFFFFFFFFFFFFFFFFFFFFFFFFFFFF
310
FFFFFFFFFFFFFFFFFFFFFFFFFFFFFFFFFFFFFFFFFFFFFFFFFFFFFFFFFFFFFFFF
310
FFFFFFFFFFFFFFFFFFFFFFFFFFFFFFFFFFFFFFFFFFFFFFFFF000FFFFFFFFFFFF
310
FFFFFFFFFFFFFFFFFFFFFFFFFFFFFFFFFFFFFFFFFFFFFFFFFFFFFFFFFFFFFFFF
310
FFFFFFFFFFFFFFFFFFFFFFFFFFFFFFFFFFFFFFFFFFFFFFFFFFFFFFFFFFFFFFFF
310
FFFFFFFFFFFFFFFFFFFFFFFFFFFFFFFFF000FFFFFFFFFFFFFFFFFFFFFFFFFFFF
310
FFFFFFFFFFFFFFFFFFFFFFFFFFFFFFFFFFFFFFFFFFFFFFFFFFFFFFFFFFFFFFFF
310
FFFFFFFFFFFFFFFFFFFFFFFFFFFFFFFFFFFFFFFFFFFFFFFFFFFFFFFFFFFFFFFF
310
FFFFFFFFFFFFFFFFF000FFFFFFFFFFFFFFFFFFFFFFFFFFFFFFFFFFFFFFFFFFFF
310
FFFFFFFFFFFFFFFFFFFFFFFFFFFFFFFFFFFFFFFFFFFFFFFFFFFFFFFFFFFFFFFF
310
FFFFFFFFFFFFFFFFFFFFFFFFFFFFFFFFFFFFFFFFFFFFFFFFFFFFFFFFFFFFFFFF
310
F000FFFFFFFFFFFFFFFFFFFFFFFFFFFFFFFFFFFFFFFFFFFFFFFFFFFFFFFFFFFF
310
FFFFFFFFFFFFFFFFFFFFFFFFFFFFFFFFFFFFFFFFFFFFFFFFFFFFFFFFFFFFFFFF
310
FFFFFFFFFFFFFFFFFFFFFFFFFFFFFFFFFFFFFFFFFFFFFFFFF000FFFFFFFFFFFF
310
FFFFFFFFFFFFFFFFFFFFFFFFFFFFFFFFFFFFFFFFFFFFFFFFFFFFFFFFFFFFFFFF
310
FFFFFFFFFFFFFFFFFFFFFFFFFFFFFFFFFFFFFFFFFFFFFFFFFFFFFFFFFFFFFFFF
310
FFFFFFFFFFFFFFFFFFFFFFFFFFFFFFFFF000FFFFFFFFFFFFFFFFFFFFFFFFFFFF
310
FFFFFFFFFFFFFFFFFFFFFFFFFFFFFFFFFFFFFFFFFFFFFFFFFFFFFFFFFFFFFFFF
310
FFFFFFFFFFFFFFFFFFFFFFFFFFFFFFFFFFFFFFFFFFFFFFFFFFFFFFFFFFFFFFFF
310
FFFFFFFFFFFFFFFFF000FFFFFFFFFFFFFFFFFFFFFFFFFFFFFFFFFFFFFFFFFFFF
310
FFFFFFFFFFFFFFFFFFFFFFFFFFFFFFFFFFFFFFFFFFFFFFFFFFFFFFFFFFFFFFFF
310
FFFFFFFFFFFFFFFFFFFFFFFFFFFFFFFFFFFFFFFFFFFFFFFFFFFFFFFFFFFFFFFF
310
F000FFFFFFFFFFFFFFFFFFFFFFFFFFFFFFFFFFFFFFFFFFFFFFFFFFFFFFFFFFFF
310
FFFFFFFFFFFFFFFFFFFFFFFFFFFFFFFFFFFFFFFFFFFFFFFFFFFFFFFFFFFFFFFF
310
FFFFFFFFFFFFFFFFFFFFFFFFFFFFFFFFFFFFFFFFFFFFFFFFF000FFFFFFFFFFFF
310
FFFFFFFFFFFFFFFFFFFFFFFFFFFFFFFFFFFFFFFFFFFFFFFFFFFFFFFFFFFFFFFF
310
FFFFFFFFFFFFFFFFFFFFFFFFFFFFFFFFFFFFFFFFFFFFFFFFFFFFFFFFFFFFFFFF
310
FFFFFFFFFFFFFFFFFFFFFFFFFFFFFFFFF000FFFFFFFFFFFFFFFFFFFFFFFFFFFF
310
FFFFFFFFFFFFFFFFFFFFFFFFFFFFFFFFFFFFFFFFFFFFFFFFFFFFFFFFFFFFFFFF
310
FFFFFFFFFFFFFFFFFFFFFFFFFFFFFFFFFFFFFFFFFFFFFFFFFFFFFFFFFFFFFFFF
310
FFFFFFFFFFFFFFFFF000FFFFFFFFFFFFFFFFFFFFFFFFFFFFFFFFFFFFFFFFFFFF
310
FFFFFFFFFFFFFFFFFFFFFFFFFFFFFFFFFFFFFFFFFFFFFFFFFFFFFFFFFFFFFFFF
310
FFFFFFFFFFFFFFFFFFFFFFFFFFFFFFFFFFFFFFFFFFFFFFFFFFFFFFFFFFFFFFFF
310
F000FFFFFFFFFFFFFFFFFFFFFFFFFFFFFFFFFFFFFFFFFFFFFFFFFFFFFFFFFFFF
310
FFFFFFFFFFFFFFFFFFFFFFFFFFFFFFFFFFFFFFFFFFFFFFFFFFFFFFFFFFFFFFFF
310
FFFFFFFFFFFFFFFFFFFFFFFFFFFFFFFFFFFFFFFFFFFFFFFFF000FFFFFFFFFFFF
310
FFFFFFFFFFFFFFFFFFFFFFFFFFFFFFFFFFFFFFFFFFFFFFFFFFFFFFFFFFFFFFFF
310
FFFFFFFFFFFFFFFFFFFFFFFFFFFFFFFFFFFFFFFFFFFFFFFFFFFFFFFFFFFFFFFF
310
FFFFFFFFFFFFFFFFFFFFFFFFFFFFFFFFF000FFFFFFFFFFFFFFFFFFFFFFFFFFFF
310
FFFFFFFFFFFFFFFFFFFFFFFFFFFFFFFFFFFFFFFFFFFFFFFFFFFFFFFFFFFFFFFF
310
FFFFFFFFFFFFFFFFFFFFFFFFFFFFFFFFFFFFFFFFFFFFFFFFFFFFFFFFFFFFFFFF
310
FFFFFFFFFFFFFFFFF000FFFFFFFFFFFFFFFFFFFFFFFFFFFFFFFFFFFFFFFFFFFF
310
FFFFFFFFFFFFFFFFFFFFFFFFFFFFFFFFFFFFFFFFFFFFFFFFFFFFFFFFFFFFFFFF
310
FFFFFFFFFFFFFFFFFFFFFFFFFFFFFFFFFFFFFFFFFFFFFFFFFFFFFFFFFFFFFFFF
310
F000FFFFFFFFFFFFFFFFFFFFFFFFFFFFFFFFFFFFFFFFFFFFFFFFFFFFFFFFFFFF
310
FFFFFFFFFFFFFFFFFFFFFFFFFFFFFFFFFFFFFFFFFFFFFFFFFFFFFFFFFFFFFFFF
310
FFFFFFFFFFFFFFFFFFFFFFFFFFFFFFFFFFFFFFFFFFFFFFFFF000FFFFFFFFFFFF
310
FFFFFFFFFFFFFFFFFFFFFFFFFFFFFFFFFFFFFFFFFFFFFFFFFFFFFFFFFFFFFFFF
310
FFFFFFFFFFFFFFFFFFFFFFFFFFFFFFFFFFFFFFFFFFFFFFFFFFFFFFFFFFFFFFFF
310
FFFFFFFFFFFFFFFFFFFFFFFFFFFFFFFFF0000000000000000000000000000000
310
0000000000000000000000000000000000000000000000000000000000000000
310
0000000000000000000000000000000000000000000000000000000000000000
310
0000000000000000000000000000000000000000000000000000000000000000
310
0000000000000000000000000000000000000000000000000000000000000000
310
0000000000000000000000000000000000000000000000000000000000000000
310
0000000000000000000000000000000000000000000000000000000000000000
310
0000000000000000000000000000000000000000000000000000000000000000
310
0000000000000000000000000000000000000000000000000000000000000000
310
0000000000000000000000000000000000000000000000000000000000000000
310
0000000000000000000000000000000000000000000000000000000000000000
310
0000000000000000000000000000000000000000000000000000000000000000
310
0000000000000000000000000000000000000000000000000000000000000000
310
0000000000000000000000000000000000000000000000000000000000000000
310
0000000000000000000000000000000000000000000000000000000000000000
310
0000000000000000000000000000000000000000000000000000000000000000
  1
OLE
  0
ENDSEC
  0
SECTION
  2
OBJECTS
  0
DICTIONARY
  5
C
330
0
100
AcDbDictionary
281
     1
  3
ACAD_GROUP
350
D
  3
ACAD_LAYOUT
350
1A
  3
ACAD_MLINESTYLE
350
17
  3
ACAD_PLOTSETTINGS
350
19
  3
ACAD_PLOTSTYLENAME
350
E
  3
ACAD_SCALELIST
350
47
  0
DICTIONARY
  5
D
102
{ACAD_REACTORS
330
C
102
}
330
C
100
AcDbDictionary
281
     1
  0
DICTIONARY
  5
1A
102
{ACAD_REACTORS
330
C
102
}
330
C
100
AcDbDictionary
281
     1
  3
Layout1
350
1E
  3
Layout2
350
26
  3
Model
350
22
  0
DICTIONARY
  5
17
102
{ACAD_REACTORS
330
C
102
}
330
C
100
AcDbDictionary
281
     1
  3
Standard
350
18
  0
DICTIONARY
  5
19
102
{ACAD_REACTORS
330
C
102
}
330
C
100
AcDbDictionary
281
     1
  0
ACDBDICTIONARYWDFLT
  5
E
102
{ACAD_REACTORS
330
C
102
}
330
C
100
AcDbDictionary
281
     1
  3
Normal
350
F
100
AcDbDictionaryWithDefault
340
F
  0
DICTIONARY
  5
47
102
{ACAD_REACTORS
330
C
102
}
330
C
100
AcDbDictionary
281
     1
  3
A0
350
48
  3
A1
350
49
  3
A2
350
4A
  3
A3
350
4B
  3
A4
350
4C
  3
A5
350
4D
  3
A6
350
4E
  3
A7
350
4F
  3
A8
350
50
  3
A9
350
51
  3
B0
350
52
  3
B1
350
53
  3
B2
350
54
  3
B3
350
55
  3
B4
350
56
  3
B5
350
57
  3
B6
350
58
  3
B7
350
59
  3
B8
350
5A
  3
B9
350
5B
  3
C0
350
5C
  3
C1
350
5D
  3
C2
350
5E
  3
C3
350
5F
  3
C4
350
60
  3
C5
350
61
  3
C6
350
62
  3
C7
350
63
  3
C8
350
64
  3
C9
350
65
  3
D0
350
66
  3
D1
350
67
  3
D2
350
68
  0
LAYOUT
  5
1E
102
{ACAD_REACTORS
330
1A
102
}
330
1A
100
AcDbPlotSettings
  1

  2
none_device
  4

  6

 40
0.0
 41
0.0
 42
0.0
 43
0.0
 44
0.0
 45
0.0
 46
0.0
 47
0.0
 48
0.0
 49
0.0
140
0.0
141
0.0
142
1.0
143
1.0
 70
   688
 72
     1
 73
     0
 74
     5
  7

 75
    16
147
1.0
148
0.0
149
0.0
100
AcDbLayout
  1
Layout1
 70
     1
 71
     1
 10
0.0
 20
0.0
 11
420.0
 21
297.0
 12
0.0
 22
0.0
 32
0.0
 14
1.0000000000E+20
 24
1.0000000000E+20
 34
1.0000000000E+20
 15
-1.0000000000E+20
 25
-1.0000000000E+20
 35
-1.0000000000E+20
146
0.0
 13
0.0
 23
0.0
 33
0.0
 16
1.0
 26
0.0
 36
0.0
 17
0.0
 27
1.0
 37
0.0
 76
     0
330
1B
  0
LAYOUT
  5
26
102
{ACAD_REACTORS
330
1A
102
}
330
1A
100
AcDbPlotSettings
  1

  2
none_device
  4

  6

 40
0.0
 41
0.0
 42
0.0
 43
0.0
 44
0.0
 45
0.0
 46
0.0
 47
0.0
 48
0.0
 49
0.0
140
0.0
141
0.0
142
1.0
143
1.0
 70
   688
 72
     1
 73
     0
 74
     5
  7

 75
    16
147
1.0
148
0.0
149
0.0
100
AcDbLayout
  1
Layout2
 70
     1
 71
     2
 10
0.0
 20
0.0
 11
0.0
 21
0.0
 12
0.0
 22
0.0
 32
0.0
 14
0.0
 24
0.0
 34
0.0
 15
0.0
 25
0.0
 35
0.0
146
0.0
 13
0.0
 23
0.0
 33
0.0
 16
1.0
 26
0.0
 36
0.0
 17
0.0
 27
1.0
 37
0.0
 76
     0
330
23
  0
LAYOUT
  5
22
102
{ACAD_REACTORS
330
1A
102
}
330
1A
100
AcDbPlotSettings
  1

  2
none_device
  4
Letter_(8.50_x_11.00_Inches)
  6

 40
6.35
 41
6.35
 42
6.35000508
 43
6.35000508
 44
215.9
 45
279.4
 46
0.0
 47
0.0
 48
0.0
 49
0.0
140
0.0
141
0.0
142
1.0
143
1.0
 70
  1712
 72
     1
 73
     0
 74
     0
  7

 75
     0
147
1.0
148
0.0
149
0.0
100
AcDbLayout
  1
Model
 70
     1
 71
     0
 10
0.0
 20
0.0
 11
297.0
 21
210.0
 12
0.0
 22
0.0
 32
0.0
 14
0.0
 24
0.0
 34
0.0
 15
297.0
 25
210.0
 35
0.0
146
0.0
 13
0.0
 23
0.0
 33
0.0
 16
1.0
 26
0.0
 36
0.0
 17
0.0
 27
1.0
 37
0.0
 76
     0
330
1F
331
29
  0
MLINESTYLE
  5
18
102
{ACAD_REACTORS
330
17
102
}
330
17
100
AcDbMlineStyle
  2
Standard
 70
     0
  3

 62
   256
 51
90.0
 52
90.0
 71
     2
 49
0.5
 62
   256
  6
BYLAYER
 49
-0.5
 62
   256
  6
BYLAYER
  0
ACDBPLACEHOLDER
  5
F
102
{ACAD_REACTORS
330
E
102
}
330
E
  0
SCALE
  5
48
102
{ACAD_REACTORS
330
47
102
}
330
47
100
AcDbScale
 70
     0
300
1:1
140
1.0
141
1.0
290
     1
  0
SCALE
  5
49
102
{ACAD_REACTORS
330
47
102
}
330
47
100
AcDbScale
 70
     0
300
1:2
140
1.0
141
2.0
290
     0
  0
SCALE
  5
4A
102
{ACAD_REACTORS
330
47
102
}
330
47
100
AcDbScale
 70
     0
300
1:4
140
1.0
141
4.0
290
     0
  0
SCALE
  5
4B
102
{ACAD_REACTORS
330
47
102
}
330
47
100
AcDbScale
 70
     0
300
1:5
140
1.0
141
5.0
290
     0
  0
SCALE
  5
4C
102
{ACAD_REACTORS
330
47
102
}
330
47
100
AcDbScale
 70
     0
300
1:8
140
1.0
141
8.0
290
     0
  0
SCALE
  5
4D
102
{ACAD_REACTORS
330
47
102
}
330
47
100
AcDbScale
 70
     0
300
1:10
140
1.0
141
10.0
290
     0
  0
SCALE
  5
4E
102
{ACAD_REACTORS
330
47
102
}
330
47
100
AcDbScale
 70
     0
300
1:16
140
1.0
141
16.0
290
     0
  0
SCALE
  5
4F
102
{ACAD_REACTORS
330
47
102
}
330
47
100
AcDbScale
 70
     0
300
1:20
140
1.0
141
20.0
290
     0
  0
SCALE
  5
50
102
{ACAD_REACTORS
330
47
102
}
330
47
100
AcDbScale
 70
     0
300
1:30
140
1.0
141
30.0
290
     0
  0
SCALE
  5
51
102
{ACAD_REACTORS
330
47
102
}
330
47
100
AcDbScale
 70
     0
300
1:40
140
1.0
141
40.0
290
     0
  0
SCALE
  5
52
102
{ACAD_REACTORS
330
47
102
}
330
47
100
AcDbScale
 70
     0
300
1:50
140
1.0
141
50.0
290
     0
  0
SCALE
  5
53
102
{ACAD_REACTORS
330
47
102
}
330
47
100
AcDbScale
 70
     0
300
1:100
140
1.0
141
100.0
290
     0
  0
SCALE
  5
54
102
{ACAD_REACTORS
330
47
102
}
330
47
100
AcDbScale
 70
     0
300
2:1
140
2.0
141
1.0
290
     0
  0
SCALE
  5
55
102
{ACAD_REACTORS
330
47
102
}
330
47
100
AcDbScale
 70
     0
300
4:1
140
4.0
141
1.0
290
     0
  0
SCALE
  5
56
102
{ACAD_REACTORS
330
47
102
}
330
47
100
AcDbScale
 70
     0
300
8:1
140
8.0
141
1.0
290
     0
  0
SCALE
  5
57
102
{ACAD_REACTORS
330
47
102
}
330
47
100
AcDbScale
 70
     0
300
10:1
140
10.0
141
1.0
290
     0
  0
SCALE
  5
58
102
{ACAD_REACTORS
330
47
102
}
330
47
100
AcDbScale
 70
     0
300
100:1
140
100.0
141
1.0
290
     0
  0
SCALE
  5
59
102
{ACAD_REACTORS
330
47
102
}
330
47
100
AcDbScale
 70
     0
300
1/128" = 1'-0"
140
0.0078125
141
12.0
290
     0
  0
SCALE
  5
5A
102
{ACAD_REACTORS
330
47
102
}
330
47
100
AcDbScale
 70
     0
300
1/64" = 1'-0"
140
0.015625
141
12.0
290
     0
  0
SCALE
  5
5B
102
{ACAD_REACTORS
330
47
102
}
330
47
100
AcDbScale
 70
     0
300
1/32" = 1'-0"
140
0.03125
141
12.0
290
     0
  0
SCALE
  5
5C
102
{ACAD_REACTORS
330
47
102
}
330
47
100
AcDbScale
 70
     0
300
1/16" = 1'-0"
140
0.0625
141
12.0
290
     0
  0
SCALE
  5
5D
102
{ACAD_REACTORS
330
47
102
}
330
47
100
AcDbScale
 70
     0
300
3/32" = 1'-0"
140
0.09375
141
12.0
290
     0
  0
SCALE
  5
5E
102
{ACAD_REACTORS
330
47
102
}
330
47
100
AcDbScale
 70
     0
300
1/8" = 1'-0"
140
0.125
141
12.0
290
     0
  0
SCALE
  5
5F
102
{ACAD_REACTORS
330
47
102
}
330
47
100
AcDbScale
 70
     0
300
3/16" = 1'-0"
140
0.1875
141
12.0
290
     0
  0
SCALE
  5
60
102
{ACAD_REACTORS
330
47
102
}
330
47
100
AcDbScale
 70
     0
300
1/4" = 1'-0"
140
0.25
141
12.0
290
     0
  0
SCALE
  5
61
102
{ACAD_REACTORS
330
47
102
}
330
47
100
AcDbScale
 70
     0
300
3/8" = 1'-0"
140
0.375
141
12.0
290
     0
  0
SCALE
  5
62
102
{ACAD_REACTORS
330
47
102
}
330
47
100
AcDbScale
 70
     0
300
1/2" = 1'-0"
140
0.5
141
12.0
290
     0
  0
SCALE
  5
63
102
{ACAD_REACTORS
330
47
102
}
330
47
100
AcDbScale
 70
     0
300
3/4" = 1'-0"
140
0.75
141
12.0
290
     0
  0
SCALE
  5
64
102
{ACAD_REACTORS
330
47
102
}
330
47
100
AcDbScale
 70
     0
300
1" = 1'-0"
140
1.0
141
12.0
290
     0
  0
SCALE
  5
65
102
{ACAD_REACTORS
330
47
102
}
330
47
100
AcDbScale
 70
     0
300
1-1/2" = 1'-0"
140
1.5
141
12.0
290
     0
  0
SCALE
  5
66
102
{ACAD_REACTORS
330
47
102
}
330
47
100
AcDbScale
 70
     0
300
3" = 1'-0"
140
3.0
141
12.0
290
     0
  0
SCALE
  5
67
102
{ACAD_REACTORS
330
47
102
}
330
47
100
AcDbScale
 70
     0
300
6" = 1'-0"
140
6.0
141
12.0
290
     0
  0
SCALE
  5
68
102
{ACAD_REACTORS
330
47
102
}
330
47
100
AcDbScale
 70
     0
300
1'-0" = 1'-0"
140
12.0
141
12.0
290
     0
  0
ENDSEC
  0
EOF
