  0
SECTION
  2
HEADER
  9
$ACADVER
  1
AC1015
  9
$ACADMAINTVER
 70
     6
  9
$DWGCODEPAGE
  3
ANSI_1252
  9
$INSBASE
 10
0.0
 20
0.0
 30
0.0
  9
$EXTMIN
 10
0.0
 20
0.0
 30
0.0
  9
$EXTMAX
 10
297.0
 20
210.0
 30
0.0
  9
$LIMMIN
 10
0.0
 20
0.0
  9
$LIMMAX
 10
297.0
 20
210.0
  9
$ORTHOMODE
 70
     0
  9
$REGENMODE
 70
     1
  9
$FILLMODE
 70
     1
  9
$QTEXTMODE
 70
     0
  9
$MIRRTEXT
 70
     1
  9
$LTSCALE
 40
1.0
  9
$ATTMODE
 70
     1
  9
$TEXTSIZE
 40
2.0
  9
$TRACEWID
 40
1.0
  9
$TEXTSTYLE
  7
Standard
  9
$CLAYER
  8
0
  9
$CELTYPE
  6
ByLayer
  9
$CECOLOR
 62
   256
  9
$CELTSCALE
 40
1.0
  9
$DISPSILH
 70
     0
  9
$DIMSCALE
 40
1.0
  9
$DIMASZ
 40
3.0
  9
$DIMEXO
 40
0.0
  9
$DIMDLI
 40
3.75
  9
$DIMRND
 40
0.0
  9
$DIMDLE
 40
0.0
  9
$DIMEXE
 40
1.0
  9
$DIMTP
 40
0.0
  9
$DIMTM
 40
0.0
  9
$DIMTXT
 40
2.0
  9
$DIMCEN
 40
2.5
  9
$DIMTSZ
 40
0.0
  9
$DIMTOL
 70
     0
  9
$DIMLIM
 70
     0
  9
$DIMTIH
 70
     1
  9
$DIMTOH
 70
     1
  9
$DIMSE1
 70
     0
  9
$DIMSE2
 70
     0
  9
$DIMTAD
 70
     1
  9
$DIMZIN
 70
     0
  9
$DIMBLK
  1

  9
$DIMASO
 70
     1
  9
$DIMSHO
 70
     1
  9
$DIMPOST
  1

  9
$DIMAPOST
  1

  9
$DIMALT
 70
     0
  9
$DIMALTD
 70
     3
  9
$DIMALTF
 40
0.0393700787
  9
$DIMLFAC
 40
1.0
  9
$DIMTOFL
 70
     1
  9
$DIMTVP
 40
0.0
  9
$DIMTIX
 70
     0
  9
$DIMSOXD
 70
     0
  9
$DIMSAH
 70
     0
  9
$DIMBLK1
  1

  9
$DIMBLK2
  1

  9
$DIMSTYLE
  2
ISO-25
  9
$DIMCLRD
 70
     0
  9
$DIMCLRE
 70
     0
  9
$DIMCLRT
 70
     0
  9
$DIMTFAC
 40
1.0
  9
$DIMGAP
 40
1.524
  9
$DIMJUST
 70
     0
  9
$DIMSD1
 70
     0
  9
$DIMSD2
 70
     0
  9
$DIMTOLJ
 70
     0
  9
$DIMTZIN
 70
     0
  9
$DIMALTZ
 70
     0
  9
$DIMALTTZ
 70
     0
  9
$DIMUPT
 70
     0
  9
$DIMDEC
 70
     2
  9
$DIMTDEC
 70
     3
  9
$DIMALTU
 70
     2
  9
$DIMALTTD
 70
     3
  9
$DIMTXSTY
  7
Standard
  9
$DIMAUNIT
 70
     0
  9
$DIMADEC
 70
     2
  9
$DIMALTRND
 40
0.0
  9
$DIMAZIN
 70
     0
  9
$DIMDSEP
 70
    44
  9
$DIMATFIT
 70
     3
  9
$DIMFRAC
 70
     0
  9
$DIMLDRBLK
  1

  9
$DIMLUNIT
 70
     2
  9
$DIMLWD
 70
    -2
  9
$DIMLWE
 70
    -2
  9
$DIMTMOVE
 70
     0
  9
$LUNITS
 70
     2
  9
$LUPREC
 70
     2
  9
$SKETCHINC
 40
1.0
  9
$FILLETRAD
 40
10.0
  9
$AUNITS
 70
     0
  9
$AUPREC
 70
     2
  9
$MENU
  1
.
  9
$ELEVATION
 40
0.0
  9
$PELEVATION
 40
0.0
  9
$THICKNESS
 40
0.0
  9
$LIMCHECK
 70
     0
  9
$CHAMFERA
 40
0.0
  9
$CHAMFERB
 40
0.0
  9
$CHAMFERC
 40
0.0
  9
$CHAMFERD
 40
0.0
  9
$SKPOLY
 70
     0
  9
$TDCREATE
 40
2457669.619639283
  9
$TDUCREATE
 40
2457669.536305949
  9
$TDUPDATE
 40
2457669.619640521
  9
$TDUUPDATE
 40
2457669.536307187
  9
$TDINDWG
 40
0.0000000116
  9
$TDUSRTIMER
 40
0.0000000116
  9
$USRTIMER
 70
     1
  9
$ANGBASE
 50
0.0
  9
$ANGDIR
 70
     0
  9
$PDMODE
 70
     0
  9
$PDSIZE
 40
-1.0
  9
$PLINEWID
 40
0.0
  9
$SPLFRAME
 70
     0
  9
$SPLINETYPE
 70
     6
  9
$SPLINESEGS
 70
     8
  9
$HANDSEED
  5
1E6
  9
$SURFTAB1
 70
     6
  9
$SURFTAB2
 70
     6
  9
$SURFTYPE
 70
     6
  9
$SURFU
 70
     6
  9
$SURFV
 70
     6
  9
$UCSBASE
  2

  9
$UCSNAME
  2

  9
$UCSORG
 10
0.0
 20
0.0
 30
0.0
  9
$UCSXDIR
 10
1.0
 20
0.0
 30
0.0
  9
$UCSYDIR
 10
0.0
 20
1.0
 30
0.0
  9
$UCSORTHOREF
  2

  9
$UCSORTHOVIEW
 70
     0
  9
$UCSORGTOP
 10
0.0
 20
0.0
 30
0.0
  9
$UCSORGBOTTOM
 10
0.0
 20
0.0
 30
0.0
  9
$UCSORGLEFT
 10
0.0
 20
0.0
 30
0.0
  9
$UCSORGRIGHT
 10
0.0
 20
0.0
 30
0.0
  9
$UCSORGFRONT
 10
0.0
 20
0.0
 30
0.0
  9
$UCSORGBACK
 10
0.0
 20
0.0
 30
0.0
  9
$PUCSBASE
  2

  9
$PUCSNAME
  2

  9
$PUCSORG
 10
0.0
 20
0.0
 30
0.0
  9
$PUCSXDIR
 10
1.0
 20
0.0
 30
0.0
  9
$PUCSYDIR
 10
0.0
 20
1.0
 30
0.0
  9
$PUCSORTHOREF
  2

  9
$PUCSORTHOVIEW
 70
     0
  9
$PUCSORGTOP
 10
0.0
 20
0.0
 30
0.0
  9
$PUCSORGBOTTOM
 10
0.0
 20
0.0
 30
0.0
  9
$PUCSORGLEFT
 10
0.0
 20
0.0
 30
0.0
  9
$PUCSORGRIGHT
 10
0.0
 20
0.0
 30
0.0
  9
$PUCSORGFRONT
 10
0.0
 20
0.0
 30
0.0
  9
$PUCSORGBACK
 10
0.0
 20
0.0
 30
0.0
  9
$USERI1
 70
     0
  9
$USERI2
 70
     0
  9
$USERI3
 70
     0
  9
$USERI4
 70
     0
  9
$USERI5
 70
     0
  9
$USERR1
 40
0.0
  9
$USERR2
 40
0.0
  9
$USERR3
 40
0.0
  9
$USERR4
 40
0.0
  9
$USERR5
 40
0.0
  9
$WORLDVIEW
 70
     1
  9
$SHADEDGE
 70
     3
  9
$SHADEDIF
 70
    70
  9
$TILEMODE
 70
     1
  9
$MAXACTVP
 70
    64
  9
$PINSBASE
 10
0.0
 20
0.0
 30
0.0
  9
$PLIMCHECK
 70
     0
  9
$PEXTMIN
 10
1.0000000000E+20
 20
1.0000000000E+20
 30
1.0000000000E+20
  9
$PEXTMAX
 10
-1.0000000000E+20
 20
-1.0000000000E+20
 30
-1.0000000000E+20
  9
$PLIMMIN
 10
0.0
 20
0.0
  9
$PLIMMAX
 10
420.0
 20
297.0
  9
$UNITMODE
 70
     0
  9
$VISRETAIN
 70
     1
  9
$PLINEGEN
 70
     0
  9
$PSLTSCALE
 70
     1
  9
$TREEDEPTH
 70
  3020
  9
$CMLSTYLE
  2
Standard
  9
$CMLJUST
 70
     0
  9
$CMLSCALE
 40
20.0
  9
$PROXYGRAPHICS
 70
     1
  9
$MEASUREMENT
 70
     1
  9
$CELWEIGHT
370
    -1
  9
$ENDCAPS
280
     0
  9
$JOINSTYLE
280
     0
  9
$LWDISPLAY
290
     1
  9
$INSUNITS
 70
     4
  9
$HYPERLINKBASE
  1

  9
$STYLESHEET
  1

  9
$XEDIT
290
     1
  9
$CEPSNTYPE
380
     0
  9
$PSTYLEMODE
290
     1
  9
$FINGERPRINTGUID
  2
{454843AA-E7C0-48A1-9358-3B4F8FE67D1D}
  9
$VERSIONGUID
  2
{FAEB1C32-E019-11D5-929B-00C0DF256EC4}
  9
$EXTNAMES
290
     1
  9
$PSVPSCALE
 40
0.0
  9
$OLESTARTUP
290
     0
  0
ENDSEC
  0
SECTION
  2
CLASSES
  0
CLASS
  1
ACDBDICTIONARYWDFLT
  2
AcDbDictionaryWithDefault
  3
ObjectDBX Classes
 90
        0
280
     0
281
     0
  0
CLASS
  1
VISUALSTYLE
  2
AcDbVisualStyle
  3
ObjectDBX Classes
 90
     4095
280
     0
281
     0
  0
CLASS
  1
MATERIAL
  2
AcDbMaterial
  3
ObjectDBX Classes
 90
     1153
280
     0
281
     0
  0
CLASS
  1
SCALE
  2
AcDbScale
  3
ObjectDBX Classes
 90
     1153
280
     0
281
     0
  0
CLASS
  1
TABLESTYLE
  2
AcDbTableStyle
  3
ObjectDBX Classes
 90
     4095
280
     0
281
     0
  0
CLASS
  1
MLEADERSTYLE
  2
AcDbMLeaderStyle
  3
ACDB_MLEADERSTYLE_CLASS
 90
     4095
280
     0
281
     0
  0
CLASS
  1
SUN
  2
AcDbSun
  3
SCENEOE
 90
     1153
280
     0
281
     0
  0
CLASS
  1
ACDBPLACEHOLDER
  2
AcDbPlaceHolder
  3
ObjectDBX Classes
 90
        0
280
     0
281
     0
  0
CLASS
  1
LAYOUT
  2
AcDbLayout
  3
ObjectDBX Classes
 90
        0
280
     0
281
     0
  0
ENDSEC
  0
SECTION
  2
TABLES
  0
TABLE
  2
VPORT
  5
8
330
0
100
AcDbSymbolTable
 70
     1
  0
VPORT
  5
29
330
8
100
AcDbSymbolTableRecord
100
AcDbViewportTableRecord
  2
*Active
 70
     0
 10
0.0
 20
0.0
 11
1.0
 21
1.0
 12
148.5
 22
105.0
 13
0.0
 23
0.0
 14
10.0
 24
10.0
 15
10.0
 25
10.0
 16
0.0
 26
0.0
 36
1.0
 17
0.0
 27
0.0
 37
0.0
 40
210.0
 41
1.4142857143
 42
50.0
 43
0.0
 44
0.0
 50
0.0
 51
0.0
 71
     0
 72
  2000
 73
     1
 74
     3
 75
     0
 76
     0
 77
     0
 78
     0
281
     0
 65
     1
110
0.0
120
0.0
130
0.0
111
1.0
121
0.0
131
0.0
112
0.0
122
1.0
132
0.0
 79
     0
146
0.0
  0
ENDTAB
  0
TABLE
  2
LTYPE
  5
5
330
0
100
AcDbSymbolTable
 70
     6
  0
LTYPE
  5
14
330
5
100
AcDbSymbolTableRecord
100
AcDbLinetypeTableRecord
  2
ByBlock
 70
     0
  3

 72
    65
 73
     0
 40
0.0
  0
LTYPE
  5
15
330
5
100
AcDbSymbolTableRecord
100
AcDbLinetypeTableRecord
  2
ByLayer
 70
     0
  3

 72
    65
 73
     0
 40
0.0
  0
LTYPE
  5
16
330
5
100
AcDbSymbolTableRecord
100
AcDbLinetypeTableRecord
  2
Continuous
 70
     0
  3
Solid line
 72
    65
 73
     0
 40
0.0
  0
LTYPE
  5
6E
330
5
100
AcDbSymbolTableRecord
100
AcDbLinetypeTableRecord
  2
HIDDEN
 70
     0
  3
Hidden __ __ __ __ __ __ __ __ __ __ __ __ __ __
 72
    65
 73
     2
 40
1.905
 49
1.27
 74
     0
 49
-0.635
 74
     0
  0
LTYPE
  5
6F
330
5
100
AcDbSymbolTableRecord
100
AcDbLinetypeTableRecord
  2
PHANTOM
 70
     0
  3
Phantom ______  __  __  ______  __  __  ______
 72
    65
 73
     6
 40
12.7
 49
6.35
 74
     0
 49
-1.27
 74
     0
 49
1.27
 74
     0
 49
-1.27
 74
     0
 49
1.27
 74
     0
 49
-1.27
 74
     0
  0
LTYPE
  5
70
330
5
100
AcDbSymbolTableRecord
100
AcDbLinetypeTableRecord
  2
CENTER
 70
     0
  3
Center ____ _ ____ _ ____ _ ____ _ ____ _ ____
 72
    65
 73
     4
 40
10.16
 49
6.35
 74
     0
 49
-1.27
 74
     0
 49
1.27
 74
     0
 49
-1.27
 74
     0
  0
LTYPE
  5
71
330
5
100
AcDbSymbolTableRecord
100
AcDbLinetypeTableRecord
  2
CENTERX2
 70
     0
  3
Center (2x) ________  __  ________  __  _____
 72
    65
 73
     4
 40
20.32
 49
12.7
 74
     0
 49
-2.54
 74
     0
 49
2.54
 74
     0
 49
-2.54
 74
     0
  0
LTYPE
  5
72
330
5
100
AcDbSymbolTableRecord
100
AcDbLinetypeTableRecord
  2
DOT2
 70
     0
  3
Dot (.5x) ........................................
 72
    65
 73
     2
 40
0.635
 49
0.0
 74
     0
 49
-0.635
 74
     0
  0
ENDTAB
  0
TABLE
  2
LAYER
  5
2
330
0
100
AcDbSymbolTable
 70
     5
  0
LAYER
  5
10
330
2
100
AcDbSymbolTableRecord
100
AcDbLayerTableRecord
  2
0
 70
     0
 62
     7
  6
Continuous
370
    -3
390
F
  0
LAYER
  5
73
330
2
100
AcDbSymbolTableRecord
100
AcDbLayerTableRecord
  2
FORMAT
 70
     0
 62
     7
  6
Continuous
370
    -3
390
F
  0
LAYER
  5
74
330
2
100
AcDbSymbolTableRecord
100
AcDbLayerTableRecord
  2
VERMASSUNG
 70
     0
 62
     7
  6
Continuous
370
    -3
390
F
  0
LAYER
  5
75
330
2
100
AcDbSymbolTableRecord
100
AcDbLayerTableRecord
  2
KOPF_DÜNN
 70
     0
 62
     7
  6
Continuous
370
    -3
390
F
  0
LAYER
  5
76
330
2
100
AcDbSymbolTableRecord
100
AcDbLayerTableRecord
  2
KOPF_DICK
 70
     0
 62
     7
  6
Continuous
370
    15
390
F
  0
ENDTAB
  0
TABLE
  2
STYLE
  5
3
330
0
100
AcDbSymbolTable
 70
     3
  0
STYLE
  5
11
330
3
100
AcDbSymbolTableRecord
100
AcDbTextStyleTableRecord
  2
Standard
 70
     0
 40
0.0
 41
1.0
 50
0.0
 71
     0
 42
2.0
  3
txt
  4

  0
STYLE
  5
77
330
3
100
AcDbSymbolTableRecord
100
AcDbTextStyleTableRecord
  2
SLDTEXTSTYLE0
 70
     0
 40
0.0
 41
0.7
 50
0.0
 71
     0
 42
2.0
  3
TXT
  4

  0
STYLE
  5
7B
330
3
100
AcDbSymbolTableRecord
100
AcDbTextStyleTableRecord
  2
SLDTEXTSTYLE1
 70
     0
 40
0.0
 41
0.6538461538
 50
0.0
 71
     0
 42
2.0
  3
TXT
  4

  0
ENDTAB
  0
TABLE
  2
VIEW
  5
6
330
0
100
AcDbSymbolTable
 70
     0
  0
ENDTAB
  0
TABLE
  2
UCS
  5
7
330
0
100
AcDbSymbolTable
 70
     0
  0
ENDTAB
  0
TABLE
  2
APPID
  5
9
330
0
100
AcDbSymbolTable
 70
     1
  0
APPID
  5
12
330
9
100
AcDbSymbolTableRecord
100
AcDbRegAppTableRecord
  2
ACAD
 70
     0
  0
ENDTAB
  0
TABLE
  2
DIMSTYLE
  5
A
330
0
100
AcDbSymbolTable
 70
     2
100
AcDbDimStyleTable
  0
DIMSTYLE
105
27
330
A
100
AcDbSymbolTableRecord
100
AcDbDimStyleTableRecord
  2
ISO-25
 70
     0
 41
2.5
 42
0.625
 43
3.75
 44
1.25
 73
     0
 74
     0
 77
     1
 78
     8
140
2.5
141
2.5
143
0.0393700787
147
0.625
171
     3
172
     1
178
     0
271
     2
272
     2
274
     3
278
    44
283
     0
284
     8
340
11
  0
DIMSTYLE
105
119
102
{ACAD_REACTORS
330
118
330
124
330
130
330
13C
330
146
330
152
102
}
330
A
100
AcDbSymbolTableRecord
100
AcDbDimStyleTableRecord
  2
SLDDIMSTYLE0
 70
     0
 41
3.0
 44
0.0
 45
0.000000001
 73
     0
 74
     0
 77
     1
 78
    12
 79
     3
140
2.0
147
0.5
173
     1
178
     0
271
     2
272
     3
276
     2
284
    12
340
77
  0
ENDTAB
  0
TABLE
  2
BLOCK_RECORD
  5
1
330
0
100
AcDbSymbolTable
 70
     7
  0
BLOCK_RECORD
  5
1F
330
1
100
AcDbSymbolTableRecord
100
AcDbBlockTableRecord
  2
*Model_Space
340
22
  0
BLOCK_RECORD
  5
1B
330
1
100
AcDbSymbolTableRecord
100
AcDbBlockTableRecord
  2
*Paper_Space
340
1E
  0
BLOCK_RECORD
  5
23
330
1
100
AcDbSymbolTableRecord
100
AcDbBlockTableRecord
  2
*Paper_Space0
340
26
  0
BLOCK_RECORD
  5
11A
330
1
100
AcDbSymbolTableRecord
100
AcDbBlockTableRecord
  2
_D
340
0
  0
BLOCK_RECORD
  5
125
330
1
100
AcDbSymbolTableRecord
100
AcDbBlockTableRecord
  2
_D_1
340
0
  0
BLOCK_RECORD
  5
131
330
1
100
AcDbSymbolTableRecord
100
AcDbBlockTableRecord
  2
_D_2
340
0
  0
BLOCK_RECORD
  5
13D
330
1
100
AcDbSymbolTableRecord
100
AcDbBlockTableRecord
  2
_D_3
340
0
  0
BLOCK_RECORD
  5
147
330
1
100
AcDbSymbolTableRecord
100
AcDbBlockTableRecord
  2
_D_4
340
0
  0
BLOCK_RECORD
  5
153
330
1
100
AcDbSymbolTableRecord
100
AcDbBlockTableRecord
  2
_D_5
340
0
  0
ENDTAB
  0
ENDSEC
  0
SECTION
  2
BLOCKS
  0
BLOCK
  5
20
330
1F
100
AcDbEntity
  8
0
100
AcDbBlockBegin
  2
*Model_Space
 70
     0
 10
0.0
 20
0.0
 30
0.0
  3
*Model_Space
  1

  0
ENDBLK
  5
21
330
1F
100
AcDbEntity
  8
0
100
AcDbBlockEnd
  0
BLOCK
  5
1C
330
1B
100
AcDbEntity
 67
     1
  8
0
100
AcDbBlockBegin
  2
*Paper_Space
 70
     0
 10
0.0
 20
0.0
 30
0.0
  3
*Paper_Space
  1

  0
ENDBLK
  5
1D
330
1B
100
AcDbEntity
 67
     1
  8
0
100
AcDbBlockEnd
  0
BLOCK
  5
24
330
23
100
AcDbEntity
  8
0
100
AcDbBlockBegin
  2
*Paper_Space0
 70
     0
 10
0.0
 20
0.0
 30
0.0
  3
*Paper_Space0
  1

  0
ENDBLK
  5
25
330
23
100
AcDbEntity
  8
0
100
AcDbBlockEnd
  0
BLOCK
  5
11B
330
11A
100
AcDbEntity
  8
0
100
AcDbBlockBegin
  2
_D
 70
     0
 10
0.0
 20
0.0
 30
0.0
  3
_D
  1

  0
SOLID
  5
11D
330
11A
100
AcDbEntity
  8
VERMASSUNG
100
AcDbTrace
 10
240.914915118
 20
121.5826119851
 30
0.0
 11
240.464915118
 21
118.5826119851
 31
0.0
 12
241.364915118
 22
118.5826119851
 32
0.0
 13
241.364915118
 23
118.5826119851
 33
0.0
  0
SOLID
  5
11E
330
11A
100
AcDbEntity
  8
VERMASSUNG
100
AcDbTrace
 10
240.914915118
 20
99.5826119851
 30
0.0
 11
241.364915118
 21
102.5826119851
 31
0.0
 12
240.464915118
 22
102.5826119851
 32
0.0
 13
240.464915118
 23
102.5826119851
 33
0.0
  0
LINE
  5
11F
330
11A
100
AcDbEntity
  8
VERMASSUNG
100
AcDbLine
 10
225.1628302992
 20
121.5826119851
 30
0.0
 11
241.914915118
 21
121.5826119851
 31
0.0
  0
LINE
  5
120
330
11A
100
AcDbEntity
  8
VERMASSUNG
100
AcDbLine
 10
225.1628302992
 20
99.5826119851
 30
0.0
 11
241.914915118
 21
99.5826119851
 31
0.0
  0
LINE
  5
121
330
11A
100
AcDbEntity
  8
VERMASSUNG
100
AcDbLine
 10
240.914915118
 20
121.5826119851
 30
0.0
 11
240.914915118
 21
99.5826119851
 31
0.0
  0
MTEXT
  5
122
330
11A
100
AcDbEntity
  8
VERMASSUNG
100
AcDbMText
 10
238.3367795802
 20
107.378435878
 30
0.0
 40
2.0
 41
0.0
 71
     1
 72
     1
  1
%%c
  7
SLDTEXTSTYLE0
 11
-7.044195017643634E-15
 21
1.0
 31
0.0
 73
     1
 44
1.0
  0
MTEXT
  5
123
330
11A
100
AcDbEntity
  8
VERMASSUNG
100
AcDbMText
 10
238.336779522
 20
110.9874080716
 30
0.0
 40
2.0
 41
0.0
 71
     1
 72
     1
  1
22
  7
SLDTEXTSTYLE0
 11
-7.044195017643634E-15
 21
1.0
 31
0.0
 73
     1
 44
1.0
  0
ENDBLK
  5
11C
330
11A
100
AcDbEntity
  8
0
100
AcDbBlockEnd
  0
BLOCK
  5
126
330
125
100
AcDbEntity
  8
0
100
AcDbBlockBegin
  2
_D_1
 70
     0
 10
0.0
 20
0.0
 30
0.0
  3
_D_1
  1

  0
SOLID
  5
128
330
125
100
AcDbEntity
  8
VERMASSUNG
100
AcDbTrace
 10
247.014915118
 20
130.0826119851
 30
0.0
 11
246.564915118
 21
127.0826119851
 31
0.0
 12
247.464915118
 22
127.0826119851
 32
0.0
 13
247.464915118
 23
127.0826119851
 33
0.0
  0
SOLID
  5
129
330
125
100
AcDbEntity
  8
VERMASSUNG
100
AcDbTrace
 10
247.014915118
 20
91.0826119851
 30
0.0
 11
247.464915118
 21
94.0826119851
 31
0.0
 12
246.564915118
 22
94.0826119851
 32
0.0
 13
246.564915118
 23
94.0826119851
 33
0.0
  0
LINE
  5
12A
330
125
100
AcDbEntity
  8
VERMASSUNG
100
AcDbLine
 10
235.3628302992
 20
130.0826119851
 30
0.0
 11
248.014915118
 21
130.0826119851
 31
0.0
  0
LINE
  5
12B
330
125
100
AcDbEntity
  8
VERMASSUNG
100
AcDbLine
 10
235.3628302992
 20
91.0826119851
 30
0.0
 11
248.014915118
 21
91.0826119851
 31
0.0
  0
LINE
  5
12C
330
125
100
AcDbEntity
  8
VERMASSUNG
100
AcDbLine
 10
247.014915118
 20
130.0826119851
 30
0.0
 11
247.014915118
 21
91.0826119851
 31
0.0
  0
MTEXT
  5
12D
330
125
100
AcDbEntity
  8
VERMASSUNG
100
AcDbMText
 10
244.2367798617
 20
104.3783122941
 30
0.0
 40
2.0
 41
0.0
 71
     1
 72
     1
  1
ST4
  7
SLDTEXTSTYLE0
 11
-7.044195017643634E-15
 21
1.0
 31
0.0
 73
     1
 44
1.0
  0
MTEXT
  5
12E
330
125
100
AcDbEntity
  8
VERMASSUNG
100
AcDbMText
 10
244.436779813
 20
110.3783123463
 30
0.0
 40
2.0
 41
0.0
 71
     1
 72
     1
  1
%%c
  7
SLDTEXTSTYLE0
 11
-7.044195017643634E-15
 21
1.0
 31
0.0
 73
     1
 44
1.0
  0
MTEXT
  5
12F
330
125
100
AcDbEntity
  8
VERMASSUNG
100
AcDbMText
 10
244.436779522
 20
113.9875316556
 30
0.0
 40
2.0
 41
0.0
 71
     1
 72
     1
  1
39
  7
SLDTEXTSTYLE0
 11
-7.044195017643634E-15
 21
1.0
 31
0.0
 73
     1
 44
1.0
  0
ENDBLK
  5
127
330
125
100
AcDbEntity
  8
0
100
AcDbBlockEnd
  0
BLOCK
  5
132
330
131
100
AcDbEntity
  8
0
100
AcDbBlockBegin
  2
_D_2
 70
     0
 10
0.0
 20
0.0
 30
0.0
  3
_D_2
  1

  0
ARC
  5
134
330
131
100
AcDbEntity
  8
VERMASSUNG
100
AcDbCircle
 10
221.2750697431
 20
166.5819549306
 30
0.0
 40
4.247059938537284
100
AcDbArc
 50
153.4349488229
 51
206.5650511771
  0
ARC
  5
135
330
131
100
AcDbEntity
  8
VERMASSUNG
100
AcDbCircle
 10
219.2505908554
 20
166.5819549306
 30
0.0
 40
4.24705993853731
100
AcDbArc
 50
333.4349488229
 51
26.5650511771
  0
SOLID
  5
136
330
131
100
AcDbEntity
  8
VERMASSUNG
100
AcDbTrace
 10
204.7628302992
 20
164.6826119851
 30
0.0
 11
207.7628302992
 21
164.2326119851
 31
0.0
 12
207.7628302992
 22
165.1326119851
 32
0.0
 13
207.7628302992
 23
165.1326119851
 33
0.0
  0
SOLID
  5
137
330
131
100
AcDbEntity
  8
VERMASSUNG
100
AcDbTrace
 10
235.7628302992
 20
164.6826119851
 30
0.0
 11
232.7628302992
 21
165.1326119851
 31
0.0
 12
232.7628302992
 22
164.2326119851
 32
0.0
 13
232.7628302992
 23
164.2326119851
 33
0.0
  0
LINE
  5
138
330
131
100
AcDbEntity
  8
VERMASSUNG
100
AcDbLine
 10
204.7628302992
 20
159.5826119851
 30
0.0
 11
204.7628302992
 21
165.6826119851
 31
0.0
  0
LINE
  5
139
330
131
100
AcDbEntity
  8
VERMASSUNG
100
AcDbLine
 10
235.7628302992
 20
129.6826119851
 30
0.0
 11
235.7628302992
 21
165.6826119851
 31
0.0
  0
LINE
  5
13A
330
131
100
AcDbEntity
  8
VERMASSUNG
100
AcDbLine
 10
204.7628302992
 20
164.6826119851
 30
0.0
 11
235.7628302992
 21
164.6826119851
 31
0.0
  0
MTEXT
  5
13B
330
131
100
AcDbEntity
  8
VERMASSUNG
100
AcDbMText
 10
219.0638838523
 20
167.2607475811
 30
0.0
 40
2.0
 41
0.0
 71
     1
 72
     1
  1
31
  7
SLDTEXTSTYLE0
 73
     1
 44
1.0
  0
ENDBLK
  5
133
330
131
100
AcDbEntity
  8
0
100
AcDbBlockEnd
  0
BLOCK
  5
13E
330
13D
100
AcDbEntity
  8
0
100
AcDbBlockBegin
  2
_D_3
 70
     0
 10
0.0
 20
0.0
 30
0.0
  3
_D_3
  1

  0
SOLID
  5
140
330
13D
100
AcDbEntity
  8
VERMASSUNG
100
AcDbTrace
 10
235.7628302992
 20
170.6826119851
 30
0.0
 11
232.7628302992
 21
171.1326119851
 31
0.0
 12
232.7628302992
 22
170.2326119851
 32
0.0
 13
232.7628302992
 23
170.2326119851
 33
0.0
  0
SOLID
  5
141
330
13D
100
AcDbEntity
  8
VERMASSUNG
100
AcDbTrace
 10
166.7628302992
 20
170.6826119851
 30
0.0
 11
169.7628302992
 21
170.2326119851
 31
0.0
 12
169.7628302992
 22
171.1326119851
 32
0.0
 13
169.7628302992
 23
171.1326119851
 33
0.0
  0
LINE
  5
142
330
13D
100
AcDbEntity
  8
VERMASSUNG
100
AcDbLine
 10
235.7628302992
 20
129.6826119851
 30
0.0
 11
235.7628302992
 21
171.6826119851
 31
0.0
  0
LINE
  5
143
330
13D
100
AcDbEntity
  8
VERMASSUNG
100
AcDbLine
 10
166.7628302992
 20
145.5076119851
 30
0.0
 11
166.7628302992
 21
171.6826119851
 31
0.0
  0
LINE
  5
144
330
13D
100
AcDbEntity
  8
VERMASSUNG
100
AcDbLine
 10
235.7628302992
 20
170.6826119851
 30
0.0
 11
166.7628302992
 21
170.6826119851
 31
0.0
  0
MTEXT
  5
145
330
13D
100
AcDbEntity
  8
VERMASSUNG
100
AcDbMText
 10
199.8631402889
 20
173.2607475811
 30
0.0
 40
2.0
 41
0.0
 71
     1
 72
     1
  1
69
  7
SLDTEXTSTYLE0
 73
     1
 44
1.0
  0
ENDBLK
  5
13F
330
13D
100
AcDbEntity
  8
0
100
AcDbBlockEnd
  0
BLOCK
  5
148
330
147
100
AcDbEntity
  8
0
100
AcDbBlockBegin
  2
_D_4
 70
     0
 10
0.0
 20
0.0
 30
0.0
  3
_D_4
  1

  0
ARC
  5
14A
330
147
100
AcDbEntity
  8
VERMASSUNG
100
AcDbCircle
 10
149.6742643878
 20
178.5819549306
 30
0.0
 40
4.247059938537361
100
AcDbArc
 50
153.4349488229
 51
206.5650511771
  0
ARC
  5
14B
330
147
100
AcDbEntity
  8
VERMASSUNG
100
AcDbCircle
 10
151.0513962107
 20
178.5819549306
 30
0.0
 40
4.247059938537386
100
AcDbArc
 50
333.4349488229
 51
26.5650511771
  0
SOLID
  5
14C
330
147
100
AcDbEntity
  8
VERMASSUNG
100
AcDbTrace
 10
64.9628302992
 20
176.6826119851
 30
0.0
 11
67.9628302992
 21
176.2326119851
 31
0.0
 12
67.9628302992
 22
177.1326119851
 32
0.0
 13
67.9628302992
 23
177.1326119851
 33
0.0
  0
SOLID
  5
14D
330
147
100
AcDbEntity
  8
VERMASSUNG
100
AcDbTrace
 10
235.7628302992
 20
176.6826119851
 30
0.0
 11
232.7628302992
 21
177.1326119851
 31
0.0
 12
232.7628302992
 22
176.2326119851
 32
0.0
 13
232.7628302992
 23
176.2326119851
 33
0.0
  0
LINE
  5
14E
330
147
100
AcDbEntity
  8
VERMASSUNG
100
AcDbLine
 10
64.9628302992
 20
128.9322898459
 30
0.0
 11
64.9628302992
 21
177.6826119851
 31
0.0
  0
LINE
  5
14F
330
147
100
AcDbEntity
  8
VERMASSUNG
100
AcDbLine
 10
235.7628302992
 20
129.6826119851
 30
0.0
 11
235.7628302992
 21
177.6826119851
 31
0.0
  0
LINE
  5
150
330
147
100
AcDbEntity
  8
VERMASSUNG
100
AcDbLine
 10
64.9628302992
 20
176.6826119851
 30
0.0
 11
235.7628302992
 21
176.6826119851
 31
0.0
  0
MTEXT
  5
151
330
147
100
AcDbEntity
  8
VERMASSUNG
100
AcDbMText
 10
147.463078497
 20
179.2607475811
 30
0.0
 40
2.0
 41
0.0
 71
     1
 72
     1
  1
170.8
  7
SLDTEXTSTYLE0
 73
     1
 44
1.0
  0
ENDBLK
  5
149
330
147
100
AcDbEntity
  8
0
100
AcDbBlockEnd
  0
BLOCK
  5
154
330
153
100
AcDbEntity
  8
0
100
AcDbBlockBegin
  2
_D_5
 70
     0
 10
0.0
 20
0.0
 30
0.0
  3
_D_5
  1

  0
SOLID
  5
156
330
153
100
AcDbEntity
  8
VERMASSUNG
100
AcDbTrace
 10
58.4356383515
 20
160.5826119851
 30
0.0
 11
57.9856383515
 21
157.5826119851
 31
0.0
 12
58.8856383515
 22
157.5826119851
 32
0.0
 13
58.8856383515
 23
157.5826119851
 33
0.0
  0
SOLID
  5
157
330
153
100
AcDbEntity
  8
VERMASSUNG
100
AcDbTrace
 10
58.4356383515
 20
60.5826119851
 30
0.0
 11
58.8856383515
 21
63.5826119851
 31
0.0
 12
57.9856383515
 22
63.5826119851
 32
0.0
 13
57.9856383515
 23
63.5826119851
 33
0.0
  0
LINE
  5
158
330
153
100
AcDbEntity
  8
VERMASSUNG
100
AcDbLine
 10
200.7628322078
 20
160.5826119851
 30
0.0
 11
57.4356383515
 21
160.5826119851
 31
0.0
  0
LINE
  5
159
330
153
100
AcDbEntity
  8
VERMASSUNG
100
AcDbLine
 10
200.7628323613
 20
60.5826119851
 30
0.0
 11
57.4356383515
 21
60.5826119851
 31
0.0
  0
LINE
  5
15A
330
153
100
AcDbEntity
  8
VERMASSUNG
100
AcDbLine
 10
58.4356383515
 20
160.5826119851
 30
0.0
 11
58.4356383515
 21
60.5826119851
 31
0.0
  0
MTEXT
  5
15B
330
153
100
AcDbEntity
  8
VERMASSUNG
100
AcDbMText
 10
55.6575030952
 20
99.4788457647
 30
0.0
 40
2.0
 41
0.0
 71
     1
 72
     1
  1
MAS BT 50
  7
SLDTEXTSTYLE0
 11
-7.044195017643634E-15
 21
1.0
 31
0.0
 73
     1
 44
1.0
  0
MTEXT
  5
15C
330
153
100
AcDbEntity
  8
VERMASSUNG
100
AcDbMText
 10
55.8575030465
 20
114.2788457692
 30
0.0
 40
2.0
 41
0.0
 71
     1
 72
     1
  1
%%c
  7
SLDTEXTSTYLE0
 11
-7.044195017643634E-15
 21
1.0
 31
0.0
 73
     1
 44
1.0
  0
MTEXT
  5
15D
330
153
100
AcDbEntity
  8
VERMASSUNG
100
AcDbMText
 10
55.8575027555
 20
117.8876923147
 30
0.0
 40
2.0
 41
0.0
 71
     1
 72
     1
  1
100
  7
SLDTEXTSTYLE0
 11
-7.044195017643634E-15
 21
1.0
 31
0.0
 73
     1
 44
1.0
  0
ENDBLK
  5
155
330
153
100
AcDbEntity
  8
0
100
AcDbBlockEnd
  0
ENDSEC
  0
SECTION
  2
ENTITIES
  0
MTEXT
  5
78
330
1F
100
AcDbEntity
  8
KOPF_DÜNN
100
AcDbMText
 10
13.8892156294
 20
23.8442973028
 30
0.0
 40
3.0
 41
0.0
 71
     1
 72
     1
  1
134.550.039.069
  7
SLDTEXTSTYLE0
 73
     1
 44
1.0
  0
MTEXT
  5
79
330
1F
100
AcDbEntity
  8
VERMASSUNG
100
AcDbMText
 10
13.9329988022
 20
28.8834360957
 30
0.0
 40
3.0
 41
0.0
 71
     1
 72
     1
  1
Aufnahme_Master shank ST4
  7
SLDTEXTSTYLE0
 73
     1
 44
1.0
  0
MTEXT
  5
7A
330
1F
100
AcDbEntity
  8
VERMASSUNG
100
AcDbMText
 10
98.8601118557
 20
13.8365368761
 30
0.0
 40
2.0
 41
0.0
 71
     1
 72
     1
  1
Datum: 06.06.2008
  7
SLDTEXTSTYLE0
 73
     1
 44
1.0
  0
MTEXT
  5
7C
330
1F
100
AcDbEntity
  8
VERMASSUNG
100
AcDbMText
 10
13.933048693
 20
18.0482802738
 30
0.0
 40
2.0
 41
0.0
 71
     1
 72
     1
  1
MAS BT 50 A/D
  7
SLDTEXTSTYLE1
 73
     1
 44
1.0
  0
MTEXT
  5
7D
330
1F
100
AcDbEntity
  8
VERMASSUNG
100
AcDbMText
 10
13.9808475933
 20
13.9090974274
 30
0.0
 40
2.0
 41
0.0
 71
     1
 72
     1
  1
Gewicht: 3870g
  7
SLDTEXTSTYLE0
 73
     1
 44
1.0
  0
LINE
  5
7E
330
1F
100
AcDbEntity
  8
0
  6
Continuous
 62
     7
370
    15
100
AcDbLine
 10
200.7625430725
 20
60.5826119851
 30
0.0
 11
203.7628302992
 21
60.5826119851
 31
0.0
  0
LINE
  5
7F
330
1F
100
AcDbEntity
  8
0
  6
Continuous
 62
     7
370
    15
100
AcDbLine
 10
203.7628302992
 20
160.5826119851
 30
0.0
 11
200.7623961183
 21
160.5826119851
 31
0.0
  0
ARC
  5
80
330
1F
100
AcDbEntity
  8
0
  6
Continuous
 62
     7
370
    15
100
AcDbCircle
 10
203.7628302992
 20
61.5826119851
 30
0.0
 40
1.0
100
AcDbArc
 50
270.0
 51
0.0
  0
ARC
  5
81
330
1F
100
AcDbEntity
  8
0
  6
Continuous
 62
     7
370
    15
100
AcDbCircle
 10
203.7628302992
 20
159.5826119851
 30
0.0
 40
1.0
100
AcDbArc
 50
0.0
 51
90.0
  0
ARC
  5
82
330
1F
100
AcDbEntity
  8
0
  6
Continuous
 62
     7
370
    15
100
AcDbCircle
 10
168.7628302992
 20
74.6576119851
 30
0.0
 40
1.0
100
AcDbArc
 50
38.7225404037
 51
90.0
  0
ARC
  5
83
330
1F
100
AcDbEntity
  8
0
  6
Continuous
 62
     7
370
    15
100
AcDbCircle
 10
168.7628302992
 20
146.5076119851
 30
0.0
 40
1.000000000000008
100
AcDbArc
 50
270.0
 51
321.2892509301
  0
LINE
  5
84
330
1F
100
AcDbEntity
  8
0
  6
Continuous
 62
     7
370
    15
100
AcDbLine
 10
166.7628302992
 20
75.6576119851
 30
0.0
 11
168.7628302992
 21
75.6576119851
 31
0.0
  0
LINE
  5
85
330
1F
100
AcDbEntity
  8
0
  6
Continuous
 62
     7
370
    15
100
AcDbLine
 10
168.7628302992
 20
145.5076119851
 30
0.0
 11
166.7628302992
 21
145.5076119851
 31
0.0
  0
LINE
  5
86
330
1F
100
AcDbEntity
  8
0
  6
Continuous
 62
     7
370
    15
100
AcDbLine
 10
166.7628302992
 20
145.5076119851
 30
0.0
 11
66.6742165131
 21
130.911355808
 31
0.0
  0
LINE
  5
87
330
1F
100
AcDbEntity
  8
0
  6
Continuous
 62
     7
370
    15
100
AcDbLine
 10
66.6742165131
 20
90.2538681623
 30
0.0
 11
166.7628302992
 21
75.6576119851
 31
0.0
  0
ARC
  5
88
330
1F
100
AcDbEntity
  8
0
  6
Continuous
 62
     7
370
    15
100
AcDbCircle
 10
208.7628302992
 20
87.0826119851
 30
0.0
 40
4.000000000000014
100
AcDbArc
 50
90.0
 51
180.0
  0
ARC
  5
89
330
1F
100
AcDbEntity
  8
0
  6
Continuous
 62
     7
370
    15
100
AcDbCircle
 10
208.7628302992
 20
134.0826119851
 30
0.0
 40
4.0
100
AcDbArc
 50
180.0
 51
270.0
  0
ARC
  5
8A
330
1F
100
AcDbEntity
  8
0
  6
Continuous
 62
     7
370
    15
100
AcDbCircle
 10
66.9628302992
 20
92.2329341244
 30
0.0
 40
2.000000000000014
100
AcDbArc
 50
180.0
 51
261.7028550302
  0
ARC
  5
8B
330
1F
100
AcDbEntity
  8
0
  6
Continuous
 62
     7
370
    15
100
AcDbCircle
 10
66.9628302992
 20
128.9322898459
 30
0.0
 40
2.000000000000022
100
AcDbArc
 50
98.2971449698
 51
180.0
  0
LINE
  5
8C
330
1F
100
AcDbEntity
  8
0
  6
Continuous
 62
     7
370
    15
100
AcDbLine
 10
235.3628302992
 20
130.0826119851
 30
0.0
 11
208.7628302992
 21
130.0826119851
 31
0.0
  0
LINE
  5
8D
330
1F
100
AcDbEntity
  8
0
  6
Continuous
 62
     7
370
    15
100
AcDbLine
 10
208.7628302992
 20
91.0826119851
 30
0.0
 11
235.3628302992
 21
91.0826119851
 31
0.0
  0
LINE
  5
8E
330
1F
100
AcDbEntity
  8
0
  6
Continuous
 62
     7
370
    15
100
AcDbLine
 10
235.3628302992
 20
91.0826119851
 30
0.0
 11
235.7628302992
 21
91.4826119851
 31
0.0
  0
LINE
  5
8F
330
1F
100
AcDbEntity
  8
0
  6
Continuous
 62
     7
370
    15
100
AcDbLine
 10
235.7628302992
 20
129.6826119851
 30
0.0
 11
235.3628302992
 21
130.0826119851
 31
0.0
  0
SPLINE
  5
90
330
1F
100
AcDbEntity
  8
0
  6
Continuous
 62
     7
370
    15
100
AcDbSpline
210
0.0
220
0.0
230
1.0
 70
    24
 71
     3
 72
    11
 73
     7
 74
     0
 42
0.000000001
 43
0.00000001
 40
0.0
 40
0.0
 40
0.0
 40
0.0
 40
0.1285561766307357
 40
0.4801535797842237
 40
0.8150691831753866
 40
1.0
 40
1.0
 40
1.0
 40
1.0
 10
226.8675308376052
 20
108.5826119851403
 30
0.0
 10
226.7745244504185
 20
108.5826119851403
 30
0.0
 10
226.4271483
 20
108.5826119851403
 30
0.0
 10
225.7757402163288
 20
108.5826119851403
 30
0.0
 10
225.07040266914
 20
108.5826119851403
 30
0.0
 10
224.6925481875337
 20
108.5826119851403
 30
0.0
 10
224.5581297608468
 20
108.5826119851403
 30
0.0
  0
SPLINE
  5
91
330
1F
100
AcDbEntity
  8
0
  6
Continuous
 62
     7
370
    15
100
AcDbSpline
210
0.0
220
0.0
230
1.0
 70
    24
 71
     3
 72
    10
 73
     6
 74
     0
 42
0.000000001
 43
0.00000001
 40
0.0
 40
0.0
 40
0.0
 40
0.0
 40
0.4391222274230467
 40
0.7513714712594581
 40
1.0
 40
1.0
 40
1.0
 40
1.0
 10
228.0222313759845
 20
110.5826119851403
 30
0.0
 10
227.8569247645222
 20
110.2962925352605
 30
0.0
 10
227.5740726014872
 20
109.8063782178532
 30
0.0
 10
227.1629004132127
 20
109.0942070971024
 30
0.0
 10
226.9582494680822
 20
108.7397412623194
 30
0.0
 10
226.8675308376052
 20
108.5826119851403
 30
0.0
  0
SPLINE
  5
92
330
1F
100
AcDbEntity
  8
0
  6
Continuous
 62
     7
370
    15
100
AcDbSpline
210
0.0
220
0.0
230
1.0
 70
    24
 71
     3
 72
    10
 73
     6
 74
     0
 42
0.000000001
 43
0.00000001
 40
0.0
 40
0.0
 40
0.0
 40
0.0
 40
0.4391222274230452
 40
0.751371471259458
 40
1.0
 40
1.0
 40
1.0
 40
1.0
 10
226.8675308376052
 20
112.5826119851403
 30
0.0
 10
227.0328374490675
 20
112.2962925352605
 30
0.0
 10
227.3156896121025
 20
111.8063782178532
 30
0.0
 10
227.726861800377
 20
111.0942070971024
 30
0.0
 10
227.9315127455075
 20
110.7397412623194
 30
0.0
 10
228.0222313759845
 20
110.5826119851403
 30
0.0
  0
SPLINE
  5
93
330
1F
100
AcDbEntity
  8
0
  6
Continuous
 62
     7
370
    15
100
AcDbSpline
210
0.0
220
0.0
230
1.0
 70
    24
 71
     3
 72
    11
 73
     7
 74
     0
 42
0.000000001
 43
0.00000001
 40
0.0
 40
0.0
 40
0.0
 40
0.0
 40
0.1849308168246135
 40
0.5198464202157763
 40
0.8714438233692643
 40
1.0
 40
1.0
 40
1.0
 40
1.0
 10
224.5581297608467
 20
112.5826119851403
 30
0.0
 10
224.6925481875337
 20
112.5826119851403
 30
0.0
 10
225.07040266914
 20
112.5826119851403
 30
0.0
 10
225.7757402163287
 20
112.5826119851403
 30
0.0
 10
226.4271483000001
 20
112.5826119851403
 30
0.0
 10
226.7745244504185
 20
112.5826119851403
 30
0.0
 10
226.8675308376052
 20
112.5826119851403
 30
0.0
  0
SPLINE
  5
94
330
1F
100
AcDbEntity
  8
0
  6
Continuous
 62
     7
370
    15
100
AcDbSpline
210
0.0
220
0.0
230
1.0
 70
    24
 71
     3
 72
    10
 73
     6
 74
     0
 42
0.000000001
 43
0.00000001
 40
0.0
 40
0.0
 40
0.0
 40
0.0
 40
0.4391222274230479
 40
0.7513714712594598
 40
1.0
 40
1.0
 40
1.0
 40
1.0
 10
223.4034292224675
 20
110.5826119851403
 30
0.0
 10
223.5687358339298
 20
110.86893143502
 30
0.0
 10
223.8515879969648
 20
111.3588457524273
 30
0.0
 10
224.2627601852393
 20
112.0710168731781
 30
0.0
 10
224.4674111303698
 20
112.4254827079611
 30
0.0
 10
224.5581297608467
 20
112.5826119851403
 30
0.0
  0
SPLINE
  5
95
330
1F
100
AcDbEntity
  8
0
  6
Continuous
 62
     7
370
    15
100
AcDbSpline
210
0.0
220
0.0
230
1.0
 70
    24
 71
     3
 72
    10
 73
     6
 74
     0
 42
0.000000001
 43
0.00000001
 40
0.0
 40
0.0
 40
0.0
 40
0.0
 40
0.439122227423046
 40
0.7513714712594577
 40
1.0
 40
1.0
 40
1.0
 40
1.0
 10
224.5581297608468
 20
108.5826119851403
 30
0.0
 10
224.3928231493844
 20
108.86893143502
 30
0.0
 10
224.1099709863495
 20
109.3588457524273
 30
0.0
 10
223.6987987980749
 20
110.0710168731781
 30
0.0
 10
223.4941478529445
 20
110.4254827079611
 30
0.0
 10
223.4034292224675
 20
110.5826119851403
 30
0.0
  0
CIRCLE
  5
96
330
1F
100
AcDbEntity
  8
0
  6
Continuous
 62
     7
370
    15
100
AcDbCircle
 10
225.7128302992
 20
110.5826119851
 30
0.0
 40
2.400000000000006
  0
CIRCLE
  5
97
330
1F
100
AcDbEntity
  8
0
  6
Continuous
 62
     7
370
    15
100
AcDbCircle
 10
225.7128302992
 20
110.5826119851
 30
0.0
 40
3.620000000000005
  0
CIRCLE
  5
98
330
1F
100
AcDbEntity
  8
0
  6
Continuous
 62
     7
370
    15
100
AcDbCircle
 10
225.7128302992
 20
110.5826119851
 30
0.0
 40
4.0
  0
ARC
  5
99
330
1F
100
AcDbEntity
  8
0
  6
Continuous
 62
     7
370
    15
100
AcDbCircle
 10
225.7128302992
 20
110.5826119851
 30
0.0
 40
1.999999999999992
100
AcDbArc
 50
150.0
 51
210.0
  0
ARC
  5
9A
330
1F
100
AcDbEntity
  8
0
  6
Continuous
 62
     7
370
    15
100
AcDbCircle
 10
225.7128302992
 20
110.5826119851
 30
0.0
 40
2.0
100
AcDbArc
 50
90.0
 51
150.0
  0
ARC
  5
9B
330
1F
100
AcDbEntity
  8
0
  6
Continuous
 62
     7
370
    15
100
AcDbCircle
 10
225.7128302992
 20
110.5826119851
 30
0.0
 40
2.0
100
AcDbArc
 50
270.0
 51
330.0
  0
ARC
  5
9C
330
1F
100
AcDbEntity
  8
0
  6
Continuous
 62
     7
370
    15
100
AcDbCircle
 10
225.7128302992
 20
110.5826119851
 30
0.0
 40
2.0
100
AcDbArc
 50
210.0
 51
270.0
  0
ARC
  5
9D
330
1F
100
AcDbEntity
  8
0
  6
Continuous
 62
     7
370
    15
100
AcDbCircle
 10
225.7128302992
 20
110.5826119851
 30
0.0
 40
2.000000000000016
100
AcDbArc
 50
330.0
 51
30.0
  0
ARC
  5
9E
330
1F
100
AcDbEntity
  8
0
  6
Continuous
 62
     7
370
    15
100
AcDbCircle
 10
225.7128302992
 20
110.5826119851
 30
0.0
 40
2.000000000000016
100
AcDbArc
 50
30.0
 51
90.0
  0
SPLINE
  5
9F
330
1F
100
AcDbEntity
  8
0
  6
Continuous
 62
     7
370
    15
100
AcDbSpline
210
0.0
220
0.0
230
1.0
 70
     8
 71
     3
 72
    12
 73
     8
 74
     0
 42
0.000000001
 43
0.00000001
 40
0.0
 40
0.0
 40
0.0
 40
0.0
 40
0.5000000000000001
 40
0.5000000000000001
 40
0.75
 40
0.75
 40
1.0
 40
1.0
 40
1.0
 40
1.0
 10
196.8471099640694
 20
158.7886589368412
 30
0.0
 10
196.3082132689719
 20
157.7309591193402
 30
0.0
 10
195.7458824582522
 20
156.6285906843815
 30
0.0
 10
194.8772162156617
 20
154.9286260780188
 30
0.0
 10
194.5828874933192
 20
154.3531076625802
 30
0.0
 10
193.9893564943515
 20
153.1936789941217
 30
0.0
 10
193.690130236233
 20
152.6097193250403
 30
0.0
 10
193.3886433879796
 20
152.0220093644515
 30
0.0
  0
SPLINE
  5
A0
330
1F
100
AcDbEntity
  8
0
  6
Continuous
 62
     7
370
    15
100
AcDbSpline
210
0.0
220
0.0
230
1.0
 70
     8
 71
     3
 72
     9
 73
     5
 74
     0
 42
0.000000001
 43
0.00000001
 40
0.0
 40
0.0
 40
0.0
 40
0.0
 40
0.504794330390352
 40
1.0
 40
1.0
 40
1.0
 40
1.0
 10
197.487806704638
 20
159.7427172352277
 30
0.0
 10
197.3794242701374
 20
159.5818756739384
 30
0.0
 10
197.1647181453342
 20
159.2632477662816
 30
0.0
 10
196.9522907165227
 20
158.9458735396938
 30
0.0
 10
196.8470954493947
 20
158.7887080232996
 30
0.0
  0
LINE
  5
A1
330
1F
100
AcDbEntity
  8
0
  6
Continuous
 62
     7
370
    15
100
AcDbLine
 10
197.4878302992
 20
61.4224506998
 30
0.0
 11
197.4878302992
 21
159.7427732705
 31
0.0
  0
SPLINE
  5
A2
330
1F
100
AcDbEntity
  8
0
  6
Continuous
 62
     7
370
    15
100
AcDbSpline
210
0.0
220
0.0
230
1.0
 70
     8
 71
     3
 72
     9
 73
     5
 74
     0
 42
0.000000001
 43
0.00000001
 40
0.0
 40
0.0
 40
0.0
 40
0.0
 40
0.4952056715554214
 40
1.0
 40
1.0
 40
1.0
 40
1.0
 10
196.8470954493947
 20
62.37651594698085
 30
0.0
 10
196.9522907169395
 20
62.21935042996252
 30
0.0
 10
197.1647181457581
 20
61.90197620336153
 30
0.0
 10
197.3794242705572
 20
61.58334829571629
 30
0.0
 10
197.4878067046381
 20
61.42250673505283
 30
0.0
  0
SPLINE
  5
A3
330
1F
100
AcDbEntity
  8
0
  6
Continuous
 62
     7
370
    15
100
AcDbSpline
210
0.0
220
0.0
230
1.0
 70
     8
 71
     3
 72
    12
 73
     8
 74
     0
 42
0.000000001
 43
0.00000001
 40
0.0
 40
0.0
 40
0.0
 40
0.0
 40
0.2499999999999993
 40
0.2499999999999993
 40
0.4999999999999986
 40
0.4999999999999986
 40
1.0
 40
1.0
 40
1.0
 40
1.0
 10
196.8471099318305
 20
62.37656509671503
 30
0.0
 10
196.5777724104616
 20
62.90519748539966
 30
0.0
 10
196.3020022930676
 20
63.44612213934636
 30
0.0
 10
195.7397420064619
 20
64.54817889370942
 30
0.0
 10
195.4526566330571
 20
65.11047573294624
 30
0.0
 10
194.5822301923378
 20
66.81387096826624
 30
0.0
 10
193.9902201961686
 20
67.97051773934834
 30
0.0
 10
193.3886433879796
 20
69.14321460582897
 30
0.0
  0
SPLINE
  5
A4
330
1F
100
AcDbEntity
  8
0
  6
Continuous
 62
     7
370
    15
100
AcDbSpline
210
0.0
220
0.0
230
1.0
 70
     8
 71
     3
 72
    12
 73
     8
 74
     0
 42
0.000000001
 43
0.00000001
 40
0.0
 40
0.0
 40
0.0
 40
0.0
 40
0.000512515335492
 40
0.2509311781568301
 40
0.5009716914398246
 40
0.7506335204405247
 40
1.0
 40
1.0
 40
1.0
 40
1.0
 10
200.7623961182958
 20
160.5824869429566
 30
0.0
 10
200.7625405749827
 20
160.582528616274
 30
0.0
 10
200.8332676032768
 20
160.6029321708629
 30
0.0
 10
200.5900040430202
 20
160.5313205394742
 30
0.0
 10
199.9844794287883
 20
160.3629673310034
 30
0.0
 10
198.9593157443652
 20
160.0856337405465
 30
0.0
 10
197.9781318771434
 20
159.8570149912227
 30
0.0
 10
197.487830299913
 20
159.7427732704581
 30
0.0
  0
SPLINE
  5
A5
330
1F
100
AcDbEntity
  8
0
  6
Continuous
 62
     7
370
    15
100
AcDbSpline
210
0.0
220
0.0
230
1.0
 70
     8
 71
     3
 72
    13
 73
     9
 74
     0
 42
0.000000001
 43
0.00000001
 40
0.0
 40
0.0
 40
0.0
 40
0.0
 40
0.249249238042121
 40
0.4988437701386194
 40
0.6658825660857411
 40
0.8320256711231946
 40
0.9994886337290221
 40
0.9999999999999999
 40
0.9999999999999999
 40
0.9999999999999999
 40
0.9999999999999999
 10
197.487830299913
 20
61.42245069982244
 30
0.0
 10
197.9790150233327
 20
61.30796317613247
 30
0.0
 10
198.9620649262726
 20
61.07882952501298
 30
0.0
 10
199.8611083510827
 20
60.83561977386278
 30
0.0
 10
200.4194332517683
 20
60.6816825664774
 30
0.0
 10
200.6851044764775
 20
60.60542900762713
 30
0.0
 10
200.7939987224933
 20
60.57351482330462
 30
0.0
 10
200.7626385426749
 20
60.58266773724752
 30
0.0
 10
200.7625430725021
 20
60.5826956015736
 30
0.0
  0
LINE
  5
A6
330
1F
100
AcDbEntity
  8
0
  6
Continuous
 62
     7
370
    15
100
AcDbLine
 10
169.7628302992
 20
63.5807237252
 30
0.0
 11
169.7628302992
 21
157.5845002451
 31
0.0
  0
SPLINE
  5
A7
330
1F
100
AcDbEntity
  8
0
  6
Continuous
 62
     7
370
    15
100
AcDbSpline
210
0.0
220
0.0
230
1.0
 70
     8
 71
     3
 72
    12
 73
     8
 74
     0
 42
0.000000001
 43
0.00000001
 40
0.0
 40
0.0
 40
0.0
 40
0.0
 40
0.2500000000000004
 40
0.2500000000000004
 40
0.5000000000000009
 40
0.5000000000000009
 40
1.0
 40
1.0
 40
1.0
 40
1.0
 10
170.1489667192757
 20
158.5170457190115
 30
0.0
 10
170.0973365971659
 20
158.4608414482969
 30
0.0
 10
170.0488043641755
 20
158.3995520377765
 30
0.0
 10
169.9589792272176
 20
158.2650899637318
 30
0.0
 10
169.9172689540052
 20
158.1909708934889
 30
0.0
 10
169.8111375738431
 20
157.9546632483205
 30
0.0
 10
169.762830299226
 20
157.7728397056706
 30
0.0
 10
169.762830299226
 20
157.5845002450815
 30
0.0
  0
SPLINE
  5
A8
330
1F
100
AcDbEntity
  8
0
  6
Continuous
 62
     7
370
    15
100
AcDbSpline
210
0.0
220
0.0
230
1.0
 70
     8
 71
     3
 72
     8
 73
     4
 74
     0
 42
0.000000001
 43
0.00000001
 40
0.0
 40
0.0
 40
0.0
 40
0.0
 40
1.0
 40
1.0
 40
1.0
 40
1.0
 10
170.762830299226
 20
158.6877034806046
 30
0.0
 10
170.5359360555262
 20
158.6877034806046
 30
0.0
 10
170.3180864095998
 20
158.6236913136358
 30
0.0
 10
170.1489667192757
 20
158.5170457190115
 30
0.0
  0
SPLINE
  5
A9
330
1F
100
AcDbEntity
  8
0
  6
Continuous
 62
     7
370
    15
100
AcDbSpline
210
0.0
220
0.0
230
1.0
 70
     8
 71
     3
 72
    10
 73
     6
 74
     0
 42
0.000000001
 43
0.00000001
 40
0.0
 40
0.0
 40
0.0
 40
0.0
 40
0.5
 40
0.5
 40
1.0
 40
1.0
 40
1.0
 40
1.0
 10
170.1489667192757
 20
62.648178251269
 30
0.0
 10
170.2335773600064
 20
62.59482342265632
 30
0.0
 10
170.328811982113
 20
62.55225396070611
 30
0.0
 10
170.5388493412929
 20
62.49297162602515
 30
0.0
 10
170.649281246077
 20
62.4775204896759
 30
0.0
 10
170.762830299226
 20
62.4775204896759
 30
0.0
  0
SPLINE
  5
AA
330
1F
100
AcDbEntity
  8
0
  6
Continuous
 62
     7
370
    15
100
AcDbSpline
210
0.0
220
0.0
230
1.0
 70
     8
 71
     3
 72
    12
 73
     8
 74
     0
 42
0.000000001
 43
0.00000001
 40
0.0
 40
0.0
 40
0.0
 40
0.0
 40
0.2500000000000039
 40
0.2500000000000039
 40
0.5000000000000079
 40
0.5000000000000079
 40
1.0
 40
1.0
 40
1.0
 40
1.0
 10
170.1489667192757
 20
62.648178251269
 30
0.0
 10
170.0973365971659
 20
62.70438252198364
 30
0.0
 10
170.0488043641755
 20
62.76567193250404
 30
0.0
 10
169.9589792272176
 20
62.90013400654876
 30
0.0
 10
169.9172689540052
 20
62.97425307679158
 30
0.0
 10
169.8111375738431
 20
63.21056072196004
 30
0.0
 10
169.762830299226
 20
63.39238426460993
 30
0.0
 10
169.762830299226
 20
63.58072372519904
 30
0.0
  0
LINE
  5
AB
330
1F
100
AcDbEntity
  8
0
  6
Continuous
 62
     7
370
    15
100
AcDbLine
 10
204.7628302992
 20
61.5826119851
 30
0.0
 11
204.7628302992
 21
159.58261198
 31
0.0
  0
LINE
  5
AC
330
1F
100
AcDbEntity
  8
0
  6
Continuous
 62
     7
370
    15
100
AcDbLine
 10
182.4378302992
 20
158.6877034806
 30
0.0
 11
170.7628302992
 21
158.6877034806
 31
0.0
  0
LINE
  5
AD
330
1F
100
AcDbEntity
  8
0
  6
Continuous
 62
     7
370
    15
100
AcDbLine
 10
182.4378302992
 20
62.4775204897
 30
0.0
 11
182.4378302992
 21
158.6877034806
 31
0.0
  0
LINE
  5
AE
330
1F
100
AcDbEntity
  8
0
  6
Continuous
 62
     7
370
    15
100
AcDbLine
 10
170.7628302992
 20
62.4775204897
 30
0.0
 11
182.4378302992
 21
62.4775204897
 31
0.0
  0
SPLINE
  5
AF
330
1F
100
AcDbEntity
  8
0
  6
Continuous
 62
     7
370
    15
100
AcDbSpline
210
0.0
220
0.0
230
1.0
 70
     8
 71
     3
 72
     8
 73
     4
 74
     0
 42
0.000000001
 43
0.00000001
 40
0.0
 40
0.0
 40
0.0
 40
0.0
 40
0.0012417047560384
 40
0.0012417047560384
 40
0.0012417047560384
 40
0.0012417047560384
 10
182.9953993357537
 20
157.9031821390613
 30
0.0
 10
182.8100107844593
 20
158.1648552246098
 30
0.0
 10
182.6241445388513
 20
158.4263593334874
 30
0.0
 10
182.4378302992259
 20
158.6877034806046
 30
0.0
  0
SPLINE
  5
B0
330
1F
100
AcDbEntity
  8
0
  6
Continuous
 62
     7
370
    15
100
AcDbSpline
210
0.0
220
0.0
230
1.0
 70
     8
 71
     3
 72
     8
 73
     4
 74
     0
 42
0.000000001
 43
0.00000001
 40
0.0
 40
0.0
 40
0.0
 40
0.0
 40
1.0
 40
1.0
 40
1.0
 40
1.0
 10
186.5370172104723
 20
151.5128880653233
 30
0.0
 10
185.3620297345694
 20
153.6459648202592
 30
0.0
 10
184.180783200473
 20
155.7756833861353
 30
0.0
 10
182.9953993357537
 20
157.9031821390613
 30
0.0
  0
SPLINE
  5
B1
330
1F
100
AcDbEntity
  8
0
  6
Continuous
 62
     7
370
    15
100
AcDbSpline
210
0.0
220
0.0
230
1.0
 70
     8
 71
     3
 72
     8
 73
     4
 74
     0
 42
0.000000001
 43
0.00000001
 40
0.0
 40
0.0
 40
0.0
 40
0.0
 40
1.0
 40
1.0
 40
1.0
 40
1.0
 10
186.5370172104723
 20
69.65233590495725
 30
0.0
 10
185.3619804126454
 20
67.51916961081191
 30
0.0
 10
184.1807332052063
 20
65.38945085383024
 30
0.0
 10
182.9953993357537
 20
63.26204183121928
 30
0.0
  0
SPLINE
  5
B2
330
1F
100
AcDbEntity
  8
0
  6
Continuous
 62
     7
370
    15
100
AcDbSpline
210
0.0
220
0.0
230
1.0
 70
     8
 71
     3
 72
     8
 73
     4
 74
     0
 42
0.000000001
 43
0.00000001
 40
0.0
 40
0.0
 40
0.0
 40
0.0
 40
0.0012417047560385
 40
0.0012417047560385
 40
0.0012417047560385
 40
0.0012417047560385
 10
182.4378302992259
 20
62.47752048967589
 30
0.0
 10
182.6241445388513
 20
62.73886463679312
 30
0.0
 10
182.8100107844593
 20
63.00036874567072
 30
0.0
 10
182.9953993357537
 20
63.26204183121928
 30
0.0
  0
SPLINE
  5
B3
330
1F
100
AcDbEntity
  8
0
  6
Continuous
 62
     7
370
    15
100
AcDbSpline
210
0.0
220
0.0
230
1.0
 70
     8
 71
     3
 72
    12
 73
     8
 74
     0
 42
0.000000001
 43
0.00000001
 40
0.0
 40
0.0
 40
0.0
 40
0.0
 40
0.2499999999999951
 40
0.2499999999999951
 40
0.4999999999999902
 40
0.4999999999999902
 40
1.0
 40
1.0
 40
1.0
 40
1.0
 10
193.3886433879796
 20
152.0220093644516
 30
0.0
 10
193.3524229665927
 20
151.9514022963518
 30
0.0
 10
193.3094972919449
 20
151.887667705026
 30
0.0
 10
193.2119707086859
 20
151.7718935287776
 30
0.0
 10
193.1565391890692
 20
151.7193456847661
 30
0.0
 10
192.978051286165
 20
151.5851970815518
 30
0.0
 10
192.8412144575172
 20
151.5246749794879
 30
0.0
 10
192.6958230649528
 20
151.5041283955595
 30
0.0
  0
SPLINE
  5
B4
330
1F
100
AcDbEntity
  8
0
  6
Continuous
 62
     7
370
    15
100
AcDbSpline
210
0.0
220
0.0
230
1.0
 70
     8
 71
     3
 72
    12
 73
     8
 74
     0
 42
0.000000001
 43
0.00000001
 40
0.0
 40
0.0
 40
0.0
 40
0.0
 40
0.2499999999999957
 40
0.2499999999999957
 40
0.4999999999999913
 40
0.4999999999999913
 40
1.0
 40
1.0
 40
1.0
 40
1.0
 10
193.3886433879796
 20
69.14321460582894
 30
0.0
 10
193.3524229665927
 20
69.21382167392888
 30
0.0
 10
193.3094972919448
 20
69.27755626525462
 30
0.0
 10
193.2119707086858
 20
69.39333044150301
 30
0.0
 10
193.1565391890691
 20
69.44587828551445
 30
0.0
 10
192.9780512861649
 20
69.58002688872882
 30
0.0
 10
192.8412144575172
 20
69.64054899079261
 30
0.0
 10
192.6958230649528
 20
69.66109557472103
 30
0.0
  0
SPLINE
  5
B5
330
1F
100
AcDbEntity
  8
0
  6
Continuous
 62
     7
370
    15
100
AcDbSpline
210
0.0
220
0.0
230
1.0
 70
     8
 71
     3
 72
    10
 73
     6
 74
     0
 42
0.000000001
 43
0.00000001
 40
0.0
 40
0.0
 40
0.0
 40
0.0
 40
0.5
 40
0.5
 40
1.0
 40
1.0
 40
1.0
 40
1.0
 10
186.9128302992259
 20
70.00308077099108
 30
0.0
 10
186.8338302309747
 20
69.9673165363832
 30
0.0
 10
186.7600729806981
 20
69.91782693282376
 30
0.0
 10
186.6320178575649
 20
69.79753844132078
 30
0.0
 10
186.5791678231532
 20
69.72885628833144
 30
0.0
 10
186.5370172104723
 20
69.65233590495725
 30
0.0
  0
SPLINE
  5
B6
330
1F
100
AcDbEntity
  8
0
  6
Continuous
 62
     7
370
    15
100
AcDbSpline
210
0.0
220
0.0
230
1.0
 70
     8
 71
     3
 72
    10
 73
     6
 74
     0
 42
0.000000001
 43
0.00000001
 40
0.0
 40
0.0
 40
0.0
 40
0.0
 40
0.5
 40
0.5
 40
1.0
 40
1.0
 40
1.0
 40
1.0
 10
186.912830299226
 20
151.1621431992894
 30
0.0
 10
186.8335438515432
 20
151.1980370811419
 30
0.0
 10
186.7600316324226
 20
151.2475387909929
 30
0.0
 10
186.633079179552
 20
151.3665864876615
 30
0.0
 10
186.5790133308153
 20
151.4366481479298
 30
0.0
 10
186.5370172104723
 20
151.5128880653233
 30
0.0
  0
SPLINE
  5
B7
330
1F
100
AcDbEntity
  8
0
  6
Continuous
 62
     7
370
    15
100
AcDbSpline
210
0.0
220
0.0
230
1.0
 70
     8
 71
     3
 72
     8
 73
     4
 74
     0
 42
0.000000001
 43
0.00000001
 40
0.0
 40
0.0
 40
0.0
 40
0.0
 40
1.0
 40
1.0
 40
1.0
 40
1.0
 10
187.2298375334999
 20
151.0946841808029
 30
0.0
 10
187.1201357481982
 20
151.0938257636036
 30
0.0
 10
187.0127887272137
 20
151.1168908754784
 30
0.0
 10
186.9128302992259
 20
151.1621431992893
 30
0.0
  0
SPLINE
  5
B8
330
1F
100
AcDbEntity
  8
0
  6
Continuous
 62
     7
370
    15
100
AcDbSpline
210
0.0
220
0.0
230
1.0
 70
     8
 71
     3
 72
     8
 73
     4
 74
     0
 42
0.000000001
 43
0.00000001
 40
0.0
 40
0.0
 40
0.0
 40
0.0
 40
1.0
 40
1.0
 40
1.0
 40
1.0
 10
187.2298375334999
 20
70.0705397894776
 30
0.0
 10
187.1201357481982
 20
70.07139820667693
 30
0.0
 10
187.0127887272136
 20
70.04833309480216
 30
0.0
 10
186.9128302992259
 20
70.00308077099123
 30
0.0
  0
SPLINE
  5
B9
330
1F
100
AcDbEntity
  8
0
  6
Continuous
 62
     7
370
    15
100
AcDbSpline
210
0.0
220
0.0
230
1.0
 70
     8
 71
     3
 72
    10
 73
     6
 74
     0
 42
0.000000001
 43
0.00000001
 40
0.0
 40
0.0
 40
0.0
 40
0.0
 40
0.5
 40
0.5
 40
1.0
 40
1.0
 40
1.0
 40
1.0
 10
192.6958230649521
 20
151.5041283955623
 30
0.0
 10
191.8482586981838
 20
151.3843513435013
 30
0.0
 10
190.967545262462
 20
151.2856611638374
 30
0.0
 10
189.1399890112464
 20
151.1443887576003
 30
0.0
 10
188.1865566081451
 20
151.1021705139227
 30
0.0
 10
187.2298375334999
 20
151.0946841808029
 30
0.0
  0
SPLINE
  5
BA
330
1F
100
AcDbEntity
  8
0
  6
Continuous
 62
     7
370
    15
100
AcDbSpline
210
0.0
220
0.0
230
1.0
 70
     8
 71
     3
 72
    10
 73
     6
 74
     0
 42
0.000000001
 43
0.00000001
 40
0.0
 40
0.0
 40
0.0
 40
0.0
 40
0.5
 40
0.5
 40
1.0
 40
1.0
 40
1.0
 40
1.0
 10
192.6958230649521
 20
69.6610955747182
 30
0.0
 10
191.8482586981838
 20
69.78087262677926
 30
0.0
 10
190.967545262462
 20
69.87956280644309
 30
0.0
 10
189.1399890112464
 20
70.02083521268021
 30
0.0
 10
188.1865566081451
 20
70.0630534563578
 30
0.0
 10
187.2298375334999
 20
70.0705397894776
 30
0.0
  0
LINE
  5
BB
330
1F
100
AcDbEntity
  8
0
  6
Continuous
 62
     7
370
    15
100
AcDbLine
 10
166.7628302992
 20
75.6576119851
 30
0.0
 11
166.7628302992
 21
145.5076119851
 31
0.0
  0
LINE
  5
BC
330
1F
100
AcDbEntity
  8
0
  6
Continuous
 62
     7
370
    15
100
AcDbLine
 10
64.9628302992
 20
92.2329341244
 30
0.0
 11
64.9628302992
 21
128.9322897886
 31
0.0
  0
SPLINE
  5
BD
330
1F
100
AcDbEntity
  8
0
  6
Continuous
 62
     7
370
    15
100
AcDbSpline
210
0.0
220
0.0
230
1.0
 70
    11
 71
     3
 72
    77
 73
    73
 74
     0
 42
0.000000001
 43
0.00000001
 40
0.0
 40
0.0
 40
0.0
 40
0.0
 40
0.0312500000000002
 40
0.0312500000000002
 40
0.0625000000000005
 40
0.0625000000000005
 40
0.0937500000000007
 40
0.0937500000000007
 40
0.1250000000000009
 40
0.1250000000000009
 40
0.1562500000000011
 40
0.1562500000000011
 40
0.1875000000000013
 40
0.1875000000000013
 40
0.2187500000000016
 40
0.2187500000000016
 40
0.2500000000000018
 40
0.2500000000000018
 40
0.281250000000002
 40
0.281250000000002
 40
0.3125000000000023
 40
0.3125000000000023
 40
0.3437500000000025
 40
0.3437500000000025
 40
0.3593750000000026
 40
0.3593750000000026
 40
0.3750000000000027
 40
0.3906250000000029
 40
0.3906250000000029
 40
0.406250000000003
 40
0.406250000000003
 40
0.4375000000000032
 40
0.4375000000000032
 40
0.4687500000000034
 40
0.4687500000000034
 40
0.5000000000000036
 40
0.5000000000000036
 40
0.5312500000000038
 40
0.5312500000000038
 40
0.562500000000004
 40
0.562500000000004
 40
0.5937500000000043
 40
0.5937500000000043
 40
0.6250000000000046
 40
0.6250000000000046
 40
0.6562500000000048
 40
0.6562500000000048
 40
0.687500000000005
 40
0.687500000000005
 40
0.7187500000000052
 40
0.7187500000000052
 40
0.7500000000000054
 40
0.7500000000000054
 40
0.7656250000000054
 40
0.7656250000000054
 40
0.7812500000000053
 40
0.7812500000000053
 40
0.8125000000000046
 40
0.8125000000000046
 40
0.8437500000000038
 40
0.8437500000000038
 40
0.875000000000003
 40
0.875000000000003
 40
0.8906250000000027
 40
0.8906250000000027
 40
0.9062500000000023
 40
0.9062500000000023
 40
0.9375000000000017
 40
0.9375000000000017
 40
0.9687500000000009
 40
0.9687500000000009
 40
1.0
 40
1.0
 40
1.0
 40
1.0
 10
222.3624302436957
 20
113.9009712030157
 30
0.0
 10
222.6047768924346
 20
114.0974429225125
 30
0.0
 10
222.8618980472334
 20
114.2678641995737
 30
0.0
 10
223.4033071556385
 20
114.5614684804417
 30
0.0
 10
223.689627685061
 20
114.6852432955528
 30
0.0
 10
224.2811498188116
 20
114.8816392254361
 30
0.0
 10
224.5821545320611
 20
114.9532753771699
 30
0.0
 10
225.1942796155776
 20
115.0456935655141
 30
0.0
 10
225.5083858118965
 20
115.0662929885375
 30
0.0
 10
226.1309110249171
 20
115.0542777457711
 30
0.0
 10
226.4384695915143
 20
115.0222933205268
 30
0.0
 10
227.046271066233
 20
114.9068404234183
 30
0.0
 10
227.3494481527646
 20
114.822096250203
 30
0.0
 10
227.9296254525036
 20
114.6036855145053
 30
0.0
 10
228.2071279558815
 20
114.4706199617444
 30
0.0
 10
228.7365771174471
 20
114.1554434187129
 30
0.0
 10
228.990989087924
 20
113.9708323263495
 30
0.0
 10
229.4531730137397
 20
113.56208406389
 30
0.0
 10
229.6624784358208
 20
113.3378648966653
 30
0.0
 10
230.0349696147866
 20
112.8468617828627
 30
0.0
 10
230.1990178174863
 20
112.5767989170295
 30
0.0
 10
230.4595268864896
 20
112.0171796684037
 30
0.0
 10
230.5585647496482
 20
111.7253121647025
 30
0.0
 10
230.656553205686
 20
111.267850986182
 30
0.0
 10
230.680608466655
 20
111.1116257090358
 30
0.0
 10
230.7098454475278
 20
110.8015801051907
 30
0.0
 10
230.720809761295
 20
110.4917235690793
 30
0.0
 10
230.6957125297706
 20
110.1822402978724
 30
0.0
 10
230.6522492231464
 20
109.8729469739006
 30
0.0
 10
230.6211193848231
 20
109.7181190736439
 30
0.0
 10
230.5028300695837
 20
109.2661936957762
 30
0.0
 10
230.3906570086304
 20
108.9773356328903
 30
0.0
 10
230.1024376550874
 20
108.4232683308722
 30
0.0
 10
229.9291158153832
 20
108.1641281220323
 30
0.0
 10
229.5353516490508
 20
107.6873444636448
 30
0.0
 10
229.3115619608858
 20
107.466468533488
 30
0.0
 10
228.8315912991136
 20
107.07560002388
 30
0.0
 10
228.5748001271464
 20
106.9040320653045
 30
0.0
 10
228.0286527029795
 20
106.6065063450836
 30
0.0
 10
227.7411070512726
 20
106.4821456873766
 30
0.0
 10
227.1542776757612
 20
106.286359212983
 30
0.0
 10
226.8527215558649
 20
106.2136565988469
 30
0.0
 10
226.2329349542511
 20
106.1194538185924
 30
0.0
 10
225.9223587333831
 20
106.0992178337985
 30
0.0
 10
225.3032766883973
 20
106.1104050400201
 30
0.0
 10
224.9934233076121
 20
106.1418883177684
 30
0.0
 10
224.3779175076587
 20
106.2585227467317
 30
0.0
 10
224.0797522194772
 20
106.3421146028965
 30
0.0
 10
223.5020935308574
 20
106.5589435618504
 30
0.0
 10
223.2211407273906
 20
106.6930211890455
 30
0.0
 10
222.6857425397959
 20
107.0117996756103
 30
0.0
 10
222.4366467409794
 20
107.1929559955393
 30
0.0
 10
222.0911321989651
 20
107.4980595961325
 30
0.0
 10
221.9806819720916
 20
107.6053615648839
 30
0.0
 10
221.7697125856024
 20
107.8318275042898
 30
0.0
 10
221.6686064862695
 20
107.9518232385668
 30
0.0
 10
221.3871087262085
 20
108.3234947182828
 30
0.0
 10
221.2275763581034
 20
108.5867811994937
 30
0.0
 10
220.966962188681
 20
109.1459053925434
 30
0.0
 10
220.8652656732044
 20
109.4464296437643
 30
0.0
 10
220.7359498256354
 20
110.0542328035045
 30
0.0
 10
220.7066141207154
 20
110.3625394244021
 30
0.0
 10
220.7175619572342
 20
110.8318653255553
 30
0.0
 10
220.7306207514613
 20
110.9894843047016
 30
0.0
 10
220.7744890256687
 20
111.2981619116956
 30
0.0
 10
220.8052830041127
 20
111.4503617829352
 30
0.0
 10
220.9235015612185
 20
111.9007365383933
 30
0.0
 10
221.0385484620214
 20
112.1957840942637
 30
0.0
 10
221.3261099818259
 20
112.7463999665968
 30
0.0
 10
221.4983235293725
 20
113.0039743399744
 30
0.0
 10
221.8972324110658
 20
113.4855219577377
 30
0.0
 10
222.1200835949568
 20
113.7044994835189
 30
0.0
 10
222.3624302436957
 20
113.9009712030157
 30
0.0
  0
LINE
  5
BE
330
1F
100
AcDbEntity
  8
0
  6
Continuous
 62
     7
370
    15
100
AcDbLine
 10
235.3628302992
 20
110.5826119851
 30
0.0
 11
235.3628302992
 21
91.0826119851
 31
0.0
  0
LINE
  5
BF
330
1F
100
AcDbEntity
  8
0
  6
Continuous
 62
     7
370
    15
100
AcDbLine
 10
235.3628302992
 20
130.0826119851
 30
0.0
 11
235.3628302992
 21
110.5826119851
 31
0.0
  0
LINE
  5
C0
330
1F
100
AcDbEntity
  8
0
  6
Continuous
 62
     7
370
    15
100
AcDbLine
 10
235.7628302992
 20
110.5826119851
 30
0.0
 11
235.7628302992
 21
91.4826119851
 31
0.0
  0
LINE
  5
C1
330
1F
100
AcDbEntity
  8
0
  6
Continuous
 62
     7
370
    15
100
AcDbLine
 10
235.7628302992
 20
129.6826119851
 30
0.0
 11
235.7628302992
 21
110.5826119851
 31
0.0
  0
CIRCLE
  5
C2
330
1F
100
AcDbEntity
  8
0
  6
HIDDEN
 62
     7
370
     0
100
AcDbCircle
 10
225.7128302992
 20
110.5826119851
 30
0.0
 40
2.953589838486224
  0
CIRCLE
  5
C3
330
1F
100
AcDbEntity
  8
0
  6
HIDDEN
 62
     7
370
     0
100
AcDbCircle
 10
225.7128302992
 20
110.5826119851
 30
0.0
 40
2.753589838486235
  0
SPLINE
  5
C4
330
1F
100
AcDbEntity
  8
0
  6
HIDDEN
 62
     7
370
     0
100
AcDbSpline
210
0.0
220
0.0
230
1.0
 70
     8
 71
     3
 72
     9
 73
     5
 74
     0
 42
0.000000001
 43
0.00000001
 40
0.0
 40
0.0
 40
0.0
 40
0.0
 40
0.326715502844845
 40
1.0
 40
1.0
 40
1.0
 40
1.0
 10
199.3867977729576
 20
60.95885154473739
 30
0.0
 10
199.2300048948402
 20
61.00093377375727
 30
0.0
 10
198.7500984418186
 20
61.12973766782857
 30
0.0
 10
197.995886900893
 20
61.30476431594809
 30
0.0
 10
197.4880879628124
 20
61.422607044716
 30
0.0
  0
CIRCLE
  5
C5
330
1F
100
AcDbEntity
  8
0
  6
HIDDEN
 62
     7
370
     0
100
AcDbCircle
 10
225.7128302992
 20
110.5826119851
 30
0.0
 40
3.624999999999986
  0
ELLIPSE
  5
C6
330
1F
100
AcDbEntity
  8
0
  6
HIDDEN
 62
     7
370
     0
100
AcDbEllipse
 10
169.9344031745
 20
73.2826119851
 30
0.0
 11
0.0
 21
2.0
 31
0.0
210
0.0
220
0.0
230
1.0
 40
0.4142135624
 41
4.712388980384702
 42
6.283185307179586
  0
LINE
  5
C7
330
1F
100
AcDbEntity
  8
0
  6
HIDDEN
 62
     7
370
     0
100
AcDbLine
 10
169.9344031745
 20
75.2826119851
 30
0.0
 11
169.7628302992
 21
75.2826119851
 31
0.0
  0
LINE
  5
C8
330
1F
100
AcDbEntity
  8
0
  6
HIDDEN
 62
     7
370
     0
100
AcDbLine
 10
169.7628302992
 20
145.8826119851
 30
0.0
 11
169.9344031745
 21
145.8826119851
 31
0.0
  0
ELLIPSE
  5
C9
330
1F
100
AcDbEntity
  8
0
  6
HIDDEN
 62
     7
370
     0
100
AcDbEllipse
 10
169.9344031745
 20
147.8826119851
 30
0.0
 11
0.0
 21
2.0
 31
0.0
210
0.0
220
0.0
230
1.0
 40
0.4142135624
 41
3.141592653589793
 42
4.712388980384695
  0
LINE
  5
CA
330
1F
100
AcDbEntity
  8
0
  6
HIDDEN
 62
     7
370
     0
100
AcDbLine
 10
170.7628302992
 20
63.2620418312
 30
0.0
 11
170.1489667193
 21
62.6481782513
 31
0.0
  0
LINE
  5
CB
330
1F
100
AcDbEntity
  8
0
  6
HIDDEN
 62
     7
370
     0
100
AcDbLine
 10
170.1489667193
 20
158.517045719
 30
0.0
 11
170.7628302992
 21
157.9031821391
 31
0.0
  0
LINE
  5
CC
330
1F
100
AcDbEntity
  8
0
  6
HIDDEN
 62
     7
370
     0
100
AcDbLine
 10
197.7628302992
 20
75.2826119851
 30
0.0
 11
186.9128302992
 21
75.2826119851
 31
0.0
  0
SPLINE
  5
CD
330
1F
100
AcDbEntity
  8
0
  6
HIDDEN
 62
     7
370
     0
100
AcDbSpline
210
0.0
220
0.0
230
1.0
 70
     8
 71
     3
 72
    14
 73
    10
 74
     0
 42
0.000000001
 43
0.00000001
 40
0.0
 40
0.0
 40
0.0
 40
0.0
 40
0.1878282877623173
 40
0.3545816313016879
 40
0.5003024319338173
 40
0.6713282049188825
 40
0.8376422060211013
 40
0.9994166164999629
 40
1.0
 40
1.0
 40
1.0
 40
1.0
 10
196.8471300361127
 20
158.7886335870822
 30
0.0
 10
197.180132958502
 20
158.8701815245358
 30
0.0
 10
197.8087747933169
 20
159.0241274558759
 30
0.0
 10
198.5082113652217
 20
159.215106173994
 30
0.0
 10
199.0560884646513
 20
159.3724784610697
 30
0.0
 10
199.4622040587685
 20
159.4908038970934
 30
0.0
 10
199.6953319514676
 20
159.5611809117084
 30
0.0
 10
199.7893213380646
 20
159.5908152629827
 30
0.0
 10
199.7626384449208
 20
159.5825527373792
 30
0.0
 10
199.7625425680355
 20
159.582523048499
 30
0.0
  0
LINE
  5
CE
330
1F
100
AcDbEntity
  8
0
  6
HIDDEN
 62
     7
370
     0
100
AcDbLine
 10
197.346464401
 20
158.912947625
 30
0.0
 11
196.8471257477
 21
158.7886782415
 31
0.0
  0
LINE
  5
CF
330
1F
100
AcDbEntity
  8
0
  6
HIDDEN
 62
     7
370
     0
100
AcDbLine
 10
170.7628302992
 20
157.9031821391
 30
0.0
 11
182.9953993358
 21
157.9031821391
 31
0.0
  0
LINE
  5
D0
330
1F
100
AcDbEntity
  8
0
  6
HIDDEN
 62
     7
370
     0
100
AcDbLine
 10
170.7628302992
 20
157.9031821391
 30
0.0
 11
170.7628302992
 21
147.8826119851
 31
0.0
  0
LINE
  5
D1
330
1F
100
AcDbEntity
  8
0
  6
HIDDEN
 62
     7
370
     0
100
AcDbLine
 10
182.9953993358
 20
63.2620418312
 30
0.0
 11
170.7628302992
 21
63.2620418312
 31
0.0
  0
LINE
  5
D2
330
1F
100
AcDbEntity
  8
0
  6
HIDDEN
 62
     7
370
     0
100
AcDbLine
 10
170.7628302992
 20
63.2620418312
 30
0.0
 11
170.7628302992
 21
73.2826119851
 31
0.0
  0
SPLINE
  5
D3
330
1F
100
AcDbEntity
  8
0
  6
HIDDEN
 62
     7
370
     0
100
AcDbSpline
210
0.0
220
0.0
230
1.0
 70
     8
 71
     3
 72
    13
 73
     9
 74
     0
 42
0.000000001
 43
0.00000001
 40
0.0
 40
0.0
 40
0.0
 40
0.0
 40
0.0005825290635647
 40
0.1623661983773396
 40
0.3287385494553315
 40
0.4998718252132767
 40
0.7262528256169377
 40
1.0
 40
1.0
 40
1.0
 40
1.0
 10
199.7623961418323
 20
61.58274479179946
 30
0.0
 10
199.7625409278672
 20
61.58270044960616
 30
0.0
 10
199.8028966105846
 20
61.57034111201416
 30
0.0
 10
199.6887420036936
 20
61.60597019802163
 30
0.0
 10
199.464624895993
 20
61.67381816093006
 30
0.0
 10
198.9853160050242
 20
61.81291133507351
 30
0.0
 10
198.1918083473957
 20
62.04315791584595
 30
0.0
 10
197.3227904749195
 20
62.25864348660414
 30
0.0
 10
196.8471300361127
 20
62.37659038319826
 30
0.0
  0
LINE
  5
D4
330
1F
100
AcDbEntity
  8
0
  6
HIDDEN
 62
     7
370
     0
100
AcDbLine
 10
186.9128302992
 20
75.2826119851
 30
0.0
 11
169.9344031745
 21
75.2826119851
 31
0.0
  0
LINE
  5
D5
330
1F
100
AcDbEntity
  8
0
  6
HIDDEN
 62
     7
370
     0
100
AcDbLine
 10
186.9128302992
 20
145.8826119851
 30
0.0
 11
197.7628302992
 21
145.8826119851
 31
0.0
  0
LINE
  5
D6
330
1F
100
AcDbEntity
  8
0
  6
HIDDEN
 62
     7
370
     0
100
AcDbLine
 10
169.9344031745
 20
145.8826119851
 30
0.0
 11
186.9128302992
 21
145.8826119851
 31
0.0
  0
LINE
  5
D7
330
1F
100
AcDbEntity
  8
0
  6
HIDDEN
 62
     7
370
     0
100
AcDbLine
 10
74.9628302992
 20
98.0826119851
 30
0.0
 11
74.9628302992
 21
123.0826119851
 31
0.0
  0
LINE
  5
D8
330
1F
100
AcDbEntity
  8
0
  6
HIDDEN
 62
     7
370
     0
100
AcDbLine
 10
78.2474346482
 20
100.0826119851
 30
0.0
 11
78.2474346482
 21
121.0826119851
 31
0.0
  0
SPLINE
  5
D9
330
1F
100
AcDbEntity
  8
0
  6
HIDDEN
 62
     7
370
     0
100
AcDbSpline
210
0.0
220
0.0
230
1.0
 70
     8
 71
     3
 72
    16
 73
    12
 74
     0
 42
0.000000001
 43
0.00000001
 40
0.0
 40
0.0
 40
0.0
 40
0.0
 40
0.2500000000000062
 40
0.2500000000000062
 40
0.5000000000000123
 40
0.5000000000000123
 40
0.6250000000000154
 40
0.6250000000000154
 40
0.7500000000000184
 40
0.7500000000000184
 40
1.0
 40
1.0
 40
1.0
 40
1.0
 10
235.762830299226
 20
121.0467171001745
 30
0.0
 10
235.762830299226
 20
120.9576514316693
 30
0.0
 10
235.7575105590387
 20
120.8667890582207
 30
0.0
 10
235.7280734344185
 20
120.6787159418009
 30
0.0
 10
235.7046828883554
 20
120.5806147499
 30
0.0
 10
235.6365554582633
 20
120.4405864013763
 30
0.0
 10
235.607593911673
 20
120.3958862349244
 30
0.0
 10
235.5410523687184
 20
120.3258158074443
 30
0.0
 10
235.5036062339216
 20
120.300613415904
 30
0.0
 10
235.39323695001
 20
120.2554737692507
 30
0.0
 10
235.325205612202
 20
120.2610721048758
 30
0.0
 10
235.2628302991996
 20
120.2768070560766
 30
0.0
  0
SPLINE
  5
DA
330
1F
100
AcDbEntity
  8
0
  6
HIDDEN
 62
     7
370
     0
100
AcDbSpline
210
0.0
220
0.0
230
1.0
 70
     8
 71
     3
 72
     8
 73
     4
 74
     0
 42
0.000000001
 43
0.00000001
 40
0.0
 40
0.0
 40
0.0
 40
0.0
 40
1.0
 40
1.0
 40
1.0
 40
1.0
 10
235.2628302992005
 20
120.2768070560757
 30
0.0
 10
235.1777909021413
 20
120.2193629647831
 30
0.0
 10
235.0727716511973
 20
120.1786057203701
 30
0.0
 10
234.9628302992263
 20
120.17860572037
 30
0.0
  0
SPLINE
  5
DB
330
1F
100
AcDbEntity
  8
0
  6
HIDDEN
 62
     7
370
     0
100
AcDbSpline
210
0.0
220
0.0
230
1.0
 70
     8
 71
     3
 72
     8
 73
     4
 74
     0
 42
0.000000001
 43
0.00000001
 40
0.0
 40
0.0
 40
0.0
 40
0.0
 40
1.0
 40
1.0
 40
1.0
 40
1.0
 10
235.2628302992442
 20
100.8884169141753
 30
0.0
 10
235.1777909021759
 20
100.9458610054836
 30
0.0
 10
235.0727716512161
 20
100.9866182499104
 30
0.0
 10
234.9628302992263
 20
100.9866182499105
 30
0.0
  0
SPLINE
  5
DC
330
1F
100
AcDbEntity
  8
0
  6
HIDDEN
 62
     7
370
     0
100
AcDbSpline
210
0.0
220
0.0
230
1.0
 70
     8
 71
     3
 72
    16
 73
    12
 74
     0
 42
0.000000001
 43
0.00000001
 40
0.0
 40
0.0
 40
0.0
 40
0.0
 40
0.2500000000000017
 40
0.2500000000000017
 40
0.3750000000000027
 40
0.3750000000000027
 40
0.5000000000000037
 40
0.5000000000000037
 40
0.7500000000000018
 40
0.7500000000000018
 40
1.0
 40
1.0
 40
1.0
 40
1.0
 10
235.2628302992433
 20
100.8884169141744
 30
0.0
 10
235.3249033826011
 20
100.9040756871018
 30
0.0
 10
235.3927126664863
 20
100.9096765760023
 30
0.0
 10
235.5025684384226
 20
100.8651792369206
 30
0.0
 10
235.5398753562107
 20
100.8402991096126
 30
0.0
 10
235.6061830383729
 20
100.7711635297014
 30
0.0
 10
235.635149259521
 20
100.727039030399
 30
0.0
 10
235.7039612096377
 20
100.5870394336385
 30
0.0
 10
235.7276718837479
 20
100.4883320800163
 30
0.0
 10
235.757372892193
 20
100.3000440427533
 30
0.0
 10
235.762830299226
 20
100.2078076650158
 30
0.0
 10
235.762830299226
 20
100.11850704631
 30
0.0
  0
LINE
  5
DD
330
1F
100
AcDbEntity
  8
0
  6
HIDDEN
 62
     7
370
     0
100
AcDbLine
 10
211.2628302992
 20
110.5826119851
 30
0.0
 11
211.2628302992
 21
100.0826119851
 31
0.0
  0
LINE
  5
DE
330
1F
100
AcDbEntity
  8
0
  6
HIDDEN
 62
     7
370
     0
100
AcDbLine
 10
211.2628302992
 20
121.0826119851
 30
0.0
 11
211.2628302992
 21
110.5826119851
 31
0.0
  0
LINE
  5
DF
330
1F
100
AcDbEntity
  8
0
  6
HIDDEN
 62
     7
370
     0
100
AcDbLine
 10
215.128855703
 20
110.5826119851
 30
0.0
 11
215.128855703
 21
99.5826119851
 31
0.0
  0
LINE
  5
E0
330
1F
100
AcDbEntity
  8
0
  6
HIDDEN
 62
     7
370
     0
100
AcDbLine
 10
215.128855703
 20
121.5826119851
 30
0.0
 11
215.128855703
 21
110.5826119851
 31
0.0
  0
LINE
  5
E1
330
1F
100
AcDbEntity
  8
0
  6
HIDDEN
 62
     7
370
     0
100
AcDbLine
 10
225.1628302992
 20
120.1786057204
 30
0.0
 11
234.9628302992
 21
120.1786057204
 31
0.0
  0
LINE
  5
E2
330
1F
100
AcDbEntity
  8
0
  6
HIDDEN
 62
     7
370
     0
100
AcDbLine
 10
225.1628302992
 20
100.9866182499
 30
0.0
 11
234.9628302992
 21
100.9866182499
 31
0.0
  0
LINE
  5
E3
330
1F
100
AcDbEntity
  8
0
  6
HIDDEN
 62
     7
370
     0
100
AcDbLine
 10
127.9628302992
 20
100.0826119851
 30
0.0
 11
127.9628302992
 21
121.0826119851
 31
0.0
  0
LINE
  5
E4
330
1F
100
AcDbEntity
  8
0
  6
HIDDEN
 62
     7
370
     0
100
AcDbLine
 10
131.7182091681
 20
106.3326119851
 30
0.0
 11
131.7182091681
 21
114.8326119851
 31
0.0
  0
SPLINE
  5
E5
330
1F
100
AcDbEntity
  8
0
  6
HIDDEN
 62
     7
370
     0
100
AcDbSpline
210
0.0
220
0.0
230
1.0
 70
     8
 71
     3
 72
     9
 73
     5
 74
     0
 42
0.000000001
 43
0.00000001
 40
0.0
 40
0.0
 40
0.0
 40
0.0
 40
0.4951995003022724
 40
1.0
 40
1.0
 40
1.0
 40
1.0
 10
196.8471145136631
 20
158.788624149553
 30
0.0
 10
196.9523107352987
 20
158.945779909673
 30
0.0
 10
197.1647427381006
 20
159.2631383884762
 30
0.0
 10
197.3794611216144
 20
159.5817649365789
 30
0.0
 10
197.4878510689065
 20
159.7426077772781
 30
0.0
  0
SPLINE
  5
E6
330
1F
100
AcDbEntity
  8
0
  6
HIDDEN
 62
     7
370
     0
100
AcDbSpline
210
0.0
220
0.0
230
1.0
 70
     8
 71
     3
 72
     9
 73
     5
 74
     0
 42
0.000000001
 43
0.00000001
 40
0.0
 40
0.0
 40
0.0
 40
0.0
 40
0.5048005003628353
 40
1.0
 40
1.0
 40
1.0
 40
1.0
 10
197.4878510689065
 20
61.42261619300243
 30
0.0
 10
197.3794611214747
 20
61.58345903390704
 30
0.0
 10
197.1647427379669
 20
61.90208558199682
 30
0.0
 10
196.95231073516
 20
62.21944406081239
 30
0.0
 10
196.8471145136631
 20
62.37659982072748
 30
0.0
  0
SPLINE
  5
E7
330
1F
100
AcDbEntity
  8
0
  6
HIDDEN
 62
     7
370
     0
100
AcDbSpline
210
0.0
220
0.0
230
1.0
 70
     8
 71
     3
 72
    11
 73
     7
 74
     0
 42
0.000000001
 43
0.00000001
 40
0.0
 40
0.0
 40
0.0
 40
0.0
 40
0.2779557705709296
 40
0.6036819231120821
 40
0.9297909352322566
 40
1.0
 40
1.0
 40
1.0
 40
1.0
 10
235.2174680577577
 20
126.2693248645084
 30
0.0
 10
235.2145829303322
 20
126.2485789643918
 30
0.0
 10
235.2083168281063
 20
126.2035217063492
 30
0.0
 10
235.2350931340291
 20
125.7047841925022
 30
0.0
 10
235.2609822515133
 20
125.1300908780239
 30
0.0
 10
235.262552192636
 20
124.7584494920771
 30
0.0
 10
235.2628303129247
 20
124.6926119851403
 30
0.0
  0
LINE
  5
E8
330
1F
100
AcDbEntity
  8
0
  6
HIDDEN
 62
     7
370
     0
100
AcDbLine
 10
235.2628303129
 20
124.6926119851
 30
0.0
 11
235.2628302992
 21
120.2768070561
 31
0.0
  0
LINE
  5
E9
330
1F
100
AcDbEntity
  8
0
  6
HIDDEN
 62
     7
370
     0
100
AcDbLine
 10
235.2628302933
 20
96.4726119851
 30
0.0
 11
235.2628302992
 21
100.8884169142
 31
0.0
  0
SPLINE
  5
EA
330
1F
100
AcDbEntity
  8
0
  6
HIDDEN
 62
     7
370
     0
100
AcDbSpline
210
0.0
220
0.0
230
1.0
 70
     8
 71
     3
 72
    12
 73
     8
 74
     0
 42
0.000000001
 43
0.00000001
 40
0.0
 40
0.0
 40
0.0
 40
0.0
 40
0.5
 40
0.5
 40
0.75
 40
0.75
 40
1.0
 40
1.0
 40
1.0
 40
1.0
 10
235.262830299226
 20
96.47261198514026
 30
0.0
 10
235.262830299226
 20
96.12991991310149
 30
0.0
 10
235.2619846879541
 20
95.83505482479957
 30
0.0
 10
235.2553705596
 20
95.46329938444939
 30
0.0
 10
235.2522412523221
 20
95.35348170346948
 30
0.0
 10
235.2447751341658
 20
95.1673523546665
 30
0.0
 10
235.2405613558655
 20
95.08995269950903
 30
0.0
 10
235.2361107479057
 20
95.02889270473148
 30
0.0
  0
SPLINE
  5
EB
330
1F
100
AcDbEntity
  8
0
  6
HIDDEN
 62
     7
370
     0
100
AcDbSpline
210
0.0
220
0.0
230
1.0
 70
     8
 71
     3
 72
    11
 73
     7
 74
     0
 42
0.000000001
 43
0.00000001
 40
0.0
 40
0.0
 40
0.0
 40
0.0
 40
0.007007027514756
 40
0.3341928103641838
 40
0.6604331475259949
 40
1.0
 40
1.0
 40
1.0
 40
1.0
 10
235.2159524783406
 20
94.87681954770719
 30
0.0
 10
235.2158042146685
 20
94.8756852718449
 30
0.0
 10
235.2087329347077
 20
94.8215871771323
 30
0.0
 10
235.2110233791157
 20
95.0501971119907
 30
0.0
 10
235.2447929231897
 20
95.56422060693967
 30
0.0
 10
235.2567381398179
 20
96.16580119811935
 30
0.0
 10
235.2628302933357
 20
96.47261198514025
 30
0.0
  0
LINE
  5
EC
330
1F
100
AcDbEntity
  8
0
  6
HIDDEN
 62
     7
370
     0
100
AcDbLine
 10
225.1628302992
 20
96.4726119851
 30
0.0
 11
225.1628302992
 21
100.9866182499
 31
0.0
  0
LINE
  5
ED
330
1F
100
AcDbEntity
  8
0
  6
HIDDEN
 62
     7
370
     0
100
AcDbLine
 10
225.1628302992
 20
124.6926119851
 30
0.0
 11
225.1628302992
 21
120.1786057204
 31
0.0
  0
LINE
  5
EE
330
1F
100
AcDbEntity
  8
0
  6
HIDDEN
 62
     7
370
     0
100
AcDbLine
 10
225.1628302992
 20
126.2926119851
 30
0.0
 11
225.1628302992
 21
124.6926119851
 31
0.0
  0
LINE
  5
EF
330
1F
100
AcDbEntity
  8
0
  6
HIDDEN
 62
     7
370
     0
100
AcDbLine
 10
225.1628302992
 20
94.8726119851
 30
0.0
 11
225.1628302992
 21
96.4726119851
 31
0.0
  0
ARC
  5
F0
330
1F
100
AcDbEntity
  8
0
  6
HIDDEN
 62
     7
370
     0
100
AcDbCircle
 10
66.1628302992
 20
96.8826119851
 30
0.0
 40
1.200000000000017
100
AcDbArc
 50
90.0
 51
180.0
  0
ARC
  5
F1
330
1F
100
AcDbEntity
  8
0
  6
HIDDEN
 62
     7
370
     0
100
AcDbCircle
 10
66.1628302992
 20
124.2826119851
 30
0.0
 40
1.200000000000017
100
AcDbArc
 50
180.0
 51
270.0
  0
ARC
  5
F2
330
1F
100
AcDbEntity
  8
0
  6
HIDDEN
 62
     7
370
     0
100
AcDbCircle
 10
197.7628302992
 20
73.2826119851
 30
0.0
 40
2.0
100
AcDbArc
 50
0.0
 51
90.0
  0
LINE
  5
F3
330
1F
100
AcDbEntity
  8
0
  6
HIDDEN
 62
     7
370
     0
100
AcDbLine
 10
199.7628302992
 20
147.8826119851
 30
0.0
 11
199.7628302992
 21
159.6827153357
 31
0.0
  0
LINE
  5
F4
330
1F
100
AcDbEntity
  8
0
  6
HIDDEN
 62
     7
370
     0
100
AcDbLine
 10
199.7628302992
 20
61.482396598
 30
0.0
 11
199.7628302992
 21
73.2826119851
 31
0.0
  0
ARC
  5
F5
330
1F
100
AcDbEntity
  8
0
  6
HIDDEN
 62
     7
370
     0
100
AcDbCircle
 10
197.7628302992
 20
147.8826119851
 30
0.0
 40
2.0
100
AcDbArc
 50
270.0
 51
0.0
  0
LINE
  5
F6
330
1F
100
AcDbEntity
  8
0
  6
HIDDEN
 62
     7
370
     0
100
AcDbLine
 10
75.85520273
 20
97.8576119851
 30
0.0
 11
76.7318901916
 21
97.8576119851
 31
0.0
  0
LINE
  5
F7
330
1F
100
AcDbEntity
  8
0
  6
HIDDEN
 62
     7
370
     0
100
AcDbLine
 10
76.7318901916
 20
123.3076119851
 30
0.0
 11
75.85520273
 21
123.3076119851
 31
0.0
  0
ARC
  5
F8
330
1F
100
AcDbEntity
  8
0
  6
HIDDEN
 62
     7
370
     0
100
AcDbCircle
 10
75.85520273
 20
98.2576119851
 30
0.0
 40
0.4000000000000199
100
AcDbArc
 50
255.0
 51
270.0
  0
ARC
  5
F9
330
1F
100
AcDbEntity
  8
0
  6
HIDDEN
 62
     7
370
     0
100
AcDbCircle
 10
75.85520273
 20
122.9076119851
 30
0.0
 40
0.4000000000000057
100
AcDbArc
 50
90.0
 51
105.0
  0
ARC
  5
FA
330
1F
100
AcDbEntity
  8
0
  6
HIDDEN
 62
     7
370
     0
100
AcDbCircle
 10
76.7318901916
 20
98.2576119851
 30
0.0
 40
0.4000000000000199
100
AcDbArc
 50
270.0
 51
330.0
  0
ARC
  5
FB
330
1F
100
AcDbEntity
  8
0
  6
HIDDEN
 62
     7
370
     0
100
AcDbCircle
 10
76.7318901916
 20
122.9076119851
 30
0.0
 40
0.4000000000000057
100
AcDbArc
 50
30.0
 51
90.0
  0
LINE
  5
FC
330
1F
100
AcDbEntity
  8
0
  6
HIDDEN
 62
     7
370
     0
100
AcDbLine
 10
75.7516751119
 20
123.2939823157
 30
0.0
 11
74.9628302992
 21
123.0826119851
 31
0.0
  0
LINE
  5
FD
330
1F
100
AcDbEntity
  8
0
  6
HIDDEN
 62
     7
370
     0
100
AcDbLine
 10
74.9628302992
 20
98.0826119851
 30
0.0
 11
75.7516751119
 21
97.8712416546
 31
0.0
  0
LINE
  5
FE
330
1F
100
AcDbEntity
  8
0
  6
HIDDEN
 62
     7
370
     0
100
AcDbLine
 10
77.0783003531
 20
98.0576119851
 30
0.0
 11
78.2474346482
 21
100.0826119851
 31
0.0
  0
LINE
  5
FF
330
1F
100
AcDbEntity
  8
0
  6
HIDDEN
 62
     7
370
     0
100
AcDbLine
 10
78.2474346482
 20
121.0826119851
 30
0.0
 11
77.0783003531
 21
123.1076119851
 31
0.0
  0
LINE
  5
100
330
1F
100
AcDbEntity
  8
0
  6
HIDDEN
 62
     7
370
     0
100
AcDbLine
 10
66.1628302992
 20
98.0826119851
 30
0.0
 11
74.9628302992
 21
98.0826119851
 31
0.0
  0
LINE
  5
101
330
1F
100
AcDbEntity
  8
0
  6
HIDDEN
 62
     7
370
     0
100
AcDbLine
 10
74.9628302992
 20
123.0826119851
 30
0.0
 11
66.1628302992
 21
123.0826119851
 31
0.0
  0
ARC
  5
102
330
1F
100
AcDbEntity
  8
0
  6
HIDDEN
 62
     7
370
     0
100
AcDbCircle
 10
213.1311778016
 20
121.0826119851
 30
0.0
 40
1.000000000000003
100
AcDbArc
 50
75.0
 51
90.0
  0
ARC
  5
103
330
1F
100
AcDbEntity
  8
0
  6
HIDDEN
 62
     7
370
     0
100
AcDbCircle
 10
213.1311778016
 20
100.0826119851
 30
0.0
 40
1.000000000000003
100
AcDbArc
 50
270.0
 51
285.0
  0
LINE
  5
104
330
1F
100
AcDbEntity
  8
0
  6
HIDDEN
 62
     7
370
     0
100
AcDbLine
 10
213.1311778016
 20
122.0826119851
 30
0.0
 11
212.2628302992
 21
122.0826119851
 31
0.0
  0
LINE
  5
105
330
1F
100
AcDbEntity
  8
0
  6
HIDDEN
 62
     7
370
     0
100
AcDbLine
 10
212.2628302992
 20
99.0826119851
 30
0.0
 11
213.1311778016
 21
99.0826119851
 31
0.0
  0
ARC
  5
106
330
1F
100
AcDbEntity
  8
0
  6
HIDDEN
 62
     7
370
     0
100
AcDbCircle
 10
212.2628302992
 20
121.0826119851
 30
0.0
 40
1.0
100
AcDbArc
 50
90.0
 51
180.0
  0
ARC
  5
107
330
1F
100
AcDbEntity
  8
0
  6
HIDDEN
 62
     7
370
     0
100
AcDbCircle
 10
212.2628302992
 20
100.0826119851
 30
0.0
 40
1.0
100
AcDbArc
 50
180.0
 51
270.0
  0
LINE
  5
108
330
1F
100
AcDbEntity
  8
0
  6
HIDDEN
 62
     7
370
     0
100
AcDbLine
 10
213.3899968467
 20
99.1166861589
 30
0.0
 11
215.128855703
 21
99.5826119851
 31
0.0
  0
LINE
  5
109
330
1F
100
AcDbEntity
  8
0
  6
HIDDEN
 62
     7
370
     0
100
AcDbLine
 10
215.128855703
 20
121.5826119851
 30
0.0
 11
213.3899968467
 21
122.0485378114
 31
0.0
  0
LINE
  5
10A
330
1F
100
AcDbEntity
  8
0
  6
HIDDEN
 62
     7
370
     0
100
AcDbLine
 10
225.1628302992
 20
121.5826119851
 30
0.0
 11
215.128855703
 21
121.5826119851
 31
0.0
  0
LINE
  5
10B
330
1F
100
AcDbEntity
  8
0
  6
HIDDEN
 62
     7
370
     0
100
AcDbLine
 10
215.128855703
 20
99.5826119851
 30
0.0
 11
225.1628302992
 21
99.5826119851
 31
0.0
  0
LINE
  5
10C
330
1F
100
AcDbEntity
  8
0
  6
HIDDEN
 62
     7
370
     0
100
AcDbLine
 10
78.2474346482
 20
100.0826119851
 30
0.0
 11
127.9628302992
 21
100.0826119851
 31
0.0
  0
LINE
  5
10D
330
1F
100
AcDbEntity
  8
0
  6
HIDDEN
 62
     7
370
     0
100
AcDbLine
 10
127.9628302992
 20
121.0826119851
 30
0.0
 11
78.2474346482
 21
121.0826119851
 31
0.0
  0
LINE
  5
10E
330
1F
100
AcDbEntity
  8
0
  6
HIDDEN
 62
     7
370
     0
100
AcDbLine
 10
127.9628302992
 20
100.0826119851
 30
0.0
 11
131.7182091681
 21
106.3326119851
 31
0.0
  0
LINE
  5
10F
330
1F
100
AcDbEntity
  8
0
  6
HIDDEN
 62
     7
370
     0
100
AcDbLine
 10
131.7182091681
 20
114.8326119851
 30
0.0
 11
127.9628302992
 21
121.0826119851
 31
0.0
  0
LINE
  5
110
330
1F
100
AcDbEntity
  8
0
  6
HIDDEN
 62
     7
370
     0
100
AcDbLine
 10
199.7628346196
 20
159.5826125088
 30
0.0
 11
200.762834469
 21
160.5826122877
 31
0.0
  0
LINE
  5
111
330
1F
100
AcDbEntity
  8
0
  6
HIDDEN
 62
     7
370
     0
100
AcDbLine
 10
200.7628344696
 20
60.5826116819
 30
0.0
 11
199.7628346203
 21
61.5826114607
 31
0.0
  0
LINE
  5
112
330
1F
100
AcDbEntity
  8
0
  6
HIDDEN
 62
     7
370
     0
100
AcDbLine
 10
235.7628302992
 20
126.8392156174
 30
0.0
 11
235.2072230402
 21
126.2836174302
 31
0.0
  0
LINE
  5
113
330
1F
100
AcDbEntity
  8
0
  6
HIDDEN
 62
     7
370
     0
100
AcDbLine
 10
235.2076489714
 20
94.881178041
 30
0.0
 11
235.7628302992
 21
94.3260075442
 31
0.0
  0
LINE
  5
114
330
1F
100
AcDbEntity
  8
0
  6
HIDDEN
 62
     7
370
     0
100
AcDbLine
 10
131.7182091681
 20
106.3326119851
 30
0.0
 11
211.2628302992
 21
106.3326119851
 31
0.0
  0
LINE
  5
115
330
1F
100
AcDbEntity
  8
0
  6
HIDDEN
 62
     7
370
     0
100
AcDbLine
 10
211.2628302992
 20
114.8326119851
 30
0.0
 11
131.7182091681
 21
114.8326119851
 31
0.0
  0
LINE
  5
116
330
1F
100
AcDbEntity
  8
0
  6
HIDDEN
 62
     7
370
     0
100
AcDbLine
 10
235.2176568157
 20
126.2926119851
 30
0.0
 11
225.1628302992
 21
126.2926119851
 31
0.0
  0
LINE
  5
117
330
1F
100
AcDbEntity
  8
0
  6
HIDDEN
 62
     7
370
     0
100
AcDbLine
 10
225.1628302992
 20
94.8726119851
 30
0.0
 11
235.2169323499
 21
94.8726119851
 31
0.0
  0
DIMENSION
  5
118
330
1F
100
AcDbEntity
  8
VERMASSUNG
100
AcDbDimension
  2
_D
 10
240.914915118
 20
99.5826119851
 30
0.0
 11
240.914915118
 21
110.5826119851
 31
0.0
 70
   160
  1
%%c<>
 71
     2
 42
-1.0
  3
SLDDIMSTYLE0
100
AcDbAlignedDimension
 13
225.1628302992
 23
121.5826119851
 33
0.0
 14
225.1628302992
 24
99.5826119851
 34
0.0
 50
90.0
100
AcDbRotatedDimension
  0
DIMENSION
  5
124
330
1F
100
AcDbEntity
  8
VERMASSUNG
100
AcDbDimension
  2
_D_1
 10
247.014915118
 20
91.0826119851
 30
0.0
 11
247.014915118
 21
110.5826119851
 31
0.0
 70
   160
  1
ST4 %%c<>
 71
     2
 42
-1.0
  3
SLDDIMSTYLE0
100
AcDbAlignedDimension
 13
235.3628302992
 23
130.0826119851
 33
0.0
 14
235.3628302992
 24
91.0826119851
 34
0.0
 50
90.0
100
AcDbRotatedDimension
  0
DIMENSION
  5
130
330
1F
100
AcDbEntity
  8
VERMASSUNG
100
AcDbDimension
  2
_D_2
 10
235.7628302992
 20
164.6826119851
 30
0.0
 11
220.2628302992
 21
164.6826119851
 31
0.0
 70
   160
  1
(<>)
 71
     2
 42
-1.0
  3
SLDDIMSTYLE0
100
AcDbAlignedDimension
 13
204.7628302992
 23
159.5826119851
 33
0.0
 14
235.7628302992
 24
129.6826119851
 34
0.0
100
AcDbRotatedDimension
  0
DIMENSION
  5
13C
330
1F
100
AcDbEntity
  8
VERMASSUNG
100
AcDbDimension
  2
_D_3
 10
166.7628302992
 20
170.6826119851
 30
0.0
 11
201.2628302992
 21
170.6826119851
 31
0.0
 70
   160
  1
<>
 71
     2
 42
-1.0
  3
SLDDIMSTYLE0
100
AcDbAlignedDimension
 13
235.7628302992
 23
129.6826119851
 33
0.0
 14
166.7628302992
 24
145.5076119851
 34
0.0
100
AcDbRotatedDimension
  0
DIMENSION
  5
146
330
1F
100
AcDbEntity
  8
VERMASSUNG
100
AcDbDimension
  2
_D_4
 10
235.7628302992
 20
176.6826119851
 30
0.0
 11
150.3628302992
 21
176.6826119851
 31
0.0
 70
   160
  1
(<>)
 71
     2
 42
-1.0
  3
SLDDIMSTYLE0
100
AcDbAlignedDimension
 13
64.9628302992
 23
128.9322898459
 33
0.0
 14
235.7628302992
 24
129.6826119851
 34
0.0
100
AcDbRotatedDimension
  0
DIMENSION
  5
152
330
1F
100
AcDbEntity
  8
VERMASSUNG
100
AcDbDimension
  2
_D_5
 10
58.4356383515
 20
60.5826119851
 30
0.0
 11
58.4356383515
 21
110.5826119851
 31
0.0
 70
   160
  1
MAS BT 50 %%c<>
 71
     2
 42
-1.0
  3
SLDDIMSTYLE0
100
AcDbAlignedDimension
 13
200.7628322078
 23
160.5826119851
 33
0.0
 14
200.7628323613
 24
60.5826119851
 34
0.0
 50
90.0
100
AcDbRotatedDimension
  0
LINE
  5
15E
330
1F
100
AcDbEntity
  8
VERMASSUNG
  6
CENTERX2
370
     0
100
AcDbLine
 10
61.9576466125
 20
110.5826119851
 30
0.0
 11
237.3691916193
 21
110.5826119851
 31
0.0
  0
LINE
  5
15F
330
1F
100
AcDbEntity
  8
0
  6
Continuous
 62
     7
370
    15
100
AcDbLine
 10
280.0148355183
 20
40.5571179945
 30
0.0
 11
279.8804633995
 21
40.6347145826
 31
0.0
  0
LINE
  5
160
330
1F
100
AcDbEntity
  8
0
  6
Continuous
 62
     7
370
    15
100
AcDbLine
 10
277.3203209254
 20
40.6347145826
 30
0.0
 11
277.1859488066
 21
40.5571179945
 31
0.0
  0
LINE
  5
161
330
1F
100
AcDbEntity
  8
0
  6
Continuous
 62
     7
370
    15
100
AcDbLine
 10
280.6003921625
 20
39.4877149095
 30
0.0
 11
280.6003921625
 21
39.7408425611
 31
0.0
  0
LINE
  5
162
330
1F
100
AcDbEntity
  8
0
  6
Continuous
 62
     7
370
    15
100
AcDbLine
 10
276.6003921625
 20
39.7408425611
 30
0.0
 11
276.6003921625
 21
39.4877149095
 31
0.0
  0
SPLINE
  5
163
330
1F
100
AcDbEntity
  8
0
  6
Continuous
 62
     7
370
    15
100
AcDbSpline
210
0.0
220
0.0
230
1.0
 70
     8
 71
     3
 72
    20
 73
    16
 74
     0
 42
0.000000001
 43
0.00000001
 40
0.0
 40
0.0
 40
0.0
 40
0.0
 40
0.0240668360557208
 40
0.1096848578420666
 40
0.1956555396789291
 40
0.2819406079859446
 40
0.3684670975623997
 40
0.455154958675497
 40
0.5419345977313659
 40
0.6287537978189702
 40
0.7155718794760813
 40
0.8023692515619193
 40
0.8891378408251123
 40
0.975875471830459
 40
1.0
 40
1.0
 40
1.0
 40
1.0
 10
262.0430513223549
 20
13.61461737747516
 30
0.0
 10
262.1565594458162
 20
13.59903045883114
 30
0.0
 10
262.6738739094599
 20
13.52799291356729
 30
0.0
 10
263.6471973009448
 20
13.5455312727561
 30
0.0
 10
264.9558356857847
 20
13.67119463888804
 30
0.0
 10
266.3059244154435
 20
13.95087791362643
 30
0.0
 10
267.6837377906763
 20
14.36918119229958
 30
0.0
 10
269.0816012936492
 20
14.92721860898372
 30
0.0
 10
270.4899826987619
 20
15.62030426968962
 30
0.0
 10
271.8999549030855
 20
16.44383280746628
 30
0.0
 10
273.3022385643749
 20
17.39283806896185
 30
0.0
 10
274.6892413424491
 20
18.45863499858936
 30
0.0
 10
276.0481874036149
 20
19.64336138154229
 30
0.0
 10
277.0647784136598
 20
20.60211532276231
 30
0.0
 10
277.6112145086407
 20
21.19330558568929
 30
0.0
 10
277.7301235490593
 20
21.32195350539147
 30
0.0
  0
SPLINE
  5
164
330
1F
100
AcDbEntity
  8
0
  6
Continuous
 62
     7
370
    15
100
AcDbSpline
210
0.0
220
0.0
230
1.0
 70
     8
 71
     3
 72
    19
 73
    15
 74
     0
 42
0.000000001
 43
0.00000001
 40
0.0
 40
0.0
 40
0.0
 40
0.0
 40
0.0617738815015544
 40
0.1492031200797322
 40
0.2366706808991026
 40
0.3241801036427409
 40
0.411732124032779
 40
0.4993227767026336
 40
0.5869406199804557
 40
0.6745551689322675
 40
0.7621195695392086
 40
0.8495697834433148
 40
0.936823662879324
 40
1.0
 40
1.0
 40
1.0
 40
1.0
 10
287.3573125345563
 20
38.00251526820521
 30
0.0
 10
287.4808125372469
 20
38.42694710428127
 30
0.0
 10
287.7791034214102
 20
39.45208188073406
 30
0.0
 10
288.1310521229899
 20
41.06014795270784
 30
0.0
 10
288.4272179881347
 20
42.8156290627826
 30
0.0
 10
288.6096865236432
 20
44.53182860650421
 30
0.0
 10
288.6817014096803
 20
46.19873333459457
 30
0.0
 10
288.6410662553569
 20
47.80590605279483
 30
0.0
 10
288.4879358384458
 20
49.34342241638729
 30
0.0
 10
288.2223018831013
 20
50.80106403060586
 30
0.0
 10
287.8465751454705
 20
52.17064782486
 30
0.0
 10
287.3582852426625
 20
53.43772846391609
 30
0.0
 10
286.8301027404643
 20
54.50598808302855
 30
0.0
 10
286.4199990938562
 20
55.09775616756563
 30
0.0
 10
286.2477674317236
 20
55.3462816357975
 30
0.0
  0
LINE
  5
165
330
1F
100
AcDbEntity
  8
0
  6
Continuous
 62
     7
370
    15
100
AcDbLine
 10
256.122363555
 20
16.044270579
 30
0.0
 11
258.340911081
 21
14.7635303536
 31
0.0
  0
LINE
  5
166
330
1F
100
AcDbEntity
  8
0
  6
Continuous
 62
     7
370
    15
100
AcDbLine
 10
283.3388793969
 20
58.0659734727
 30
0.0
 11
281.1203318709
 21
59.3467136981
 31
0.0
  0
LINE
  5
167
330
1F
100
AcDbEntity
  8
0
  6
Continuous
 62
     7
370
    15
100
AcDbLine
 10
275.7993533425
 20
62.4184492188
 30
0.0
 11
271.6716175073
 21
64.8013403952
 31
0.0
  0
LINE
  5
168
330
1F
100
AcDbEntity
  8
0
  6
Continuous
 62
     7
370
    15
100
AcDbLine
 10
282.0133028979
 20
22.0045018792
 30
0.0
 11
282.1547012692
 21
22.0861559593
 31
0.0
  0
LINE
  5
169
330
1F
100
AcDbEntity
  8
0
  6
Continuous
 62
     7
370
    15
100
AcDbLine
 10
288.9064734983
 20
33.7818357525
 30
0.0
 11
288.9064734983
 21
33.9451173749
 31
0.0
  0
LINE
  5
16A
330
1F
100
AcDbEntity
  8
0
  6
Continuous
 62
     7
370
    15
100
AcDbLine
 10
286.8867862033
 20
38.409104238
 30
0.0
 11
277.4822660135
 21
43.8382181816
 31
0.0
  0
LINE
  5
16B
330
1F
100
AcDbEntity
  8
0
  6
Continuous
 62
     7
370
    15
100
AcDbLine
 10
267.7330583703
 20
26.9502653652
 30
0.0
 11
277.1375785601
 21
21.5211514215
 31
0.0
  0
SPLINE
  5
16C
330
1F
100
AcDbEntity
  8
0
  6
Continuous
 62
     7
370
    15
100
AcDbSpline
210
0.0
220
0.0
230
1.0
 70
     8
 71
     3
 72
    31
 73
    27
 74
     0
 42
0.000000001
 43
0.00000001
 40
0.0
 40
0.0
 40
0.0
 40
0.0
 40
0.0198530844325433
 40
0.0631470797650662
 40
0.1066169642025992
 40
0.1502376835600623
 40
0.1939703745245492
 40
0.2377752968642649
 40
0.2816192884489517
 40
0.3254781974149297
 40
0.3693326828984901
 40
0.4131753596459634
 40
0.4570030030256327
 40
0.5008150566222008
 40
0.5446126145436515
 40
0.5883977480305326
 40
0.6321730824923967
 40
0.6759415447226413
 40
0.7197062203115092
 40
0.7634702789274669
 40
0.8072364435935668
 40
0.8510073826616426
 40
0.8947863556349274
 40
0.9385765996266475
 40
0.9823812559030123
 40
1.0
 40
1.0
 40
1.0
 40
1.0
 10
267.8874567358275
 20
65.95463688562955
 30
0.0
 10
267.7004351181125
 20
65.97561320718631
 30
0.0
 10
267.1055719344207
 20
66.04233298843862
 30
0.0
 10
266.0495910687511
 20
66.00154463672769
 30
0.0
 10
264.7301537323652
 20
65.83863279097481
 30
0.0
 10
263.3724502022912
 20
65.5248019521859
 30
0.0
 10
261.9889052598604
 20
65.07211987283898
 30
0.0
 10
260.5876274958376
 20
64.48071364720523
 30
0.0
 10
259.178020007161
 20
63.75530076160149
 30
0.0
 10
257.7690948404756
 20
62.9006025886191
 30
0.0
 10
256.3697692767679
 20
61.92240425523542
 30
0.0
 10
254.9887312565972
 20
60.82713632363345
 30
0.0
 10
253.634428596261
 20
59.62185980681701
 30
0.0
 10
252.3151093997122
 20
58.31424151037305
 30
0.0
 10
251.0387994321924
 20
56.91252334961153
 30
0.0
 10
249.8132682701518
 20
55.42548119185007
 30
0.0
 10
248.645989930352
 20
53.86238093513517
 30
0.0
 10
247.5441039796789
 20
52.23292947557313
 30
0.0
 10
246.5143636944487
 20
50.54721763917387
 30
0.0
 10
245.5631358045966
 20
48.81567645440028
 30
0.0
 10
244.6962233507225
 20
47.04898277171019
 30
0.0
 10
243.9193390400929
 20
45.25811056637328
 30
0.0
 10
243.2361534265289
 20
43.4537900041876
 30
0.0
 10
242.6554338505693
 20
41.64817609205851
 30
0.0
 10
242.2622143414133
 20
40.20717675162852
 30
0.0
 10
242.0834322492374
 20
39.37657537840393
 30
0.0
 10
242.0321502311137
 20
39.13832492413896
 30
0.0
  0
SPLINE
  5
16D
330
1F
100
AcDbEntity
  8
0
  6
Continuous
 62
     7
370
    15
100
AcDbSpline
210
0.0
220
0.0
230
1.0
 70
     8
 71
     3
 72
    17
 73
    13
 74
     0
 42
0.000000001
 43
0.00000001
 40
0.0
 40
0.0
 40
0.0
 40
0.0
 40
0.1009857875134677
 40
0.205074582542672
 40
0.3090027579197846
 40
0.4126541835185182
 40
0.5159279324564948
 40
0.6187842001201772
 40
0.7213626298695708
 40
0.8240340434116372
 40
0.9278551084070954
 40
1.0
 40
1.0
 40
1.0
 40
1.0
 10
279.0921742473369
 20
31.23116965071976
 30
0.0
 10
279.2392601532932
 20
31.49331921234157
 30
0.0
 10
279.5379514989233
 20
32.02567344987391
 30
0.0
 10
280.077291882441
 20
32.76227002166181
 30
0.0
 10
280.6676359954959
 20
33.43013060310336
 30
0.0
 10
281.2930694056655
 20
33.99919780102964
 30
0.0
 10
281.9316803591099
 20
34.45491201095725
 30
0.0
 10
282.5631172990339
 20
34.7853686336269
 30
0.0
 10
283.1674655338787
 20
34.98599950074426
 30
0.0
 10
283.7229926750432
 20
35.05096507485293
 30
0.0
 10
284.1735546712709
 20
35.01108628124972
 30
0.0
 10
284.4062358390691
 20
34.90038145198638
 30
0.0
 10
284.5016335964079
 20
34.85499319586649
 30
0.0
  0
SPLINE
  5
16E
330
1F
100
AcDbEntity
  8
0
  6
Continuous
 62
     7
370
    15
100
AcDbSpline
210
0.0
220
0.0
230
1.0
 70
     8
 71
     3
 72
    10
 73
     6
 74
     0
 42
0.000000001
 43
0.00000001
 40
0.0
 40
0.0
 40
0.0
 40
0.0
 40
0.1538239152895839
 40
0.9754028938767598
 40
1.0
 40
1.0
 40
1.0
 40
1.0
 10
278.630464039565
 20
30.21685254653256
 30
0.0
 10
278.6501899544218
 20
30.26940542778096
 30
0.0
 10
278.7752726790385
 20
30.60264510871581
 30
0.0
 10
278.9261613174313
 20
30.94922413588091
 30
0.0
 10
279.0874848084592
 20
31.22320541408218
 30
0.0
 10
279.0921742473369
 20
31.23116965071976
 30
0.0
  0
LINE
  5
16F
330
1F
100
AcDbEntity
  8
0
  6
Continuous
 62
     7
370
    15
100
AcDbLine
 10
278.5533431067
 20
25.8422025301
 30
0.0
 11
278.4915531613
 21
25.9280294327
 31
0.0
  0
SPLINE
  5
170
330
1F
100
AcDbEntity
  8
0
  6
Continuous
 62
     7
370
    15
100
AcDbSpline
210
0.0
220
0.0
230
1.0
 70
     8
 71
     3
 72
    10
 73
     6
 74
     0
 42
0.000000001
 43
0.00000001
 40
0.0
 40
0.0
 40
0.0
 40
0.0
 40
0.2069865922145633
 40
0.870186837399334
 40
1.0
 40
1.0
 40
1.0
 40
1.0
 10
279.2398932662946
 20
25.23854025230128
 30
0.0
 10
279.1917194875412
 20
25.25695392737108
 30
0.0
 10
278.989193383167
 20
25.33436636989912
 30
0.0
 10
278.7985734377688
 20
25.49608627536823
 30
0.0
 10
278.6746475236599
 20
25.6729372961372
 30
0.0
 10
278.6543613410043
 20
25.70188710970881
 30
0.0
  0
LINE
  5
171
330
1F
100
AcDbEntity
  8
0
  6
Continuous
 62
     7
370
    15
100
AcDbLine
 10
257.2510833016
 20
62.5168036439
 30
0.0
 11
226.9022694952
 21
73.4533131543
 31
0.0
  0
LINE
  5
172
330
1F
100
AcDbEntity
  8
0
  6
Continuous
 62
     7
370
    15
100
AcDbLine
 10
216.7929148198
 20
55.9414997834
 30
0.0
 11
246.2566521464
 21
31.062563558
 31
0.0
  0
LINE
  5
173
330
1F
100
AcDbEntity
  8
0
  6
Continuous
 62
     7
370
    15
100
AcDbLine
 10
246.6736491914
 20
21.4988972762
 30
0.0
 11
250.8013850266
 21
19.1160060998
 31
0.0
  0
SPLINE
  5
174
330
1F
100
AcDbEntity
  8
0
  6
Continuous
 62
     7
370
    15
100
AcDbSpline
210
0.0
220
0.0
230
1.0
 70
     8
 71
     3
 72
    11
 73
     7
 74
     0
 42
0.000000001
 43
0.00000001
 40
0.0
 40
0.0
 40
0.0
 40
0.0
 40
0.1049073210344181
 40
0.4240564552303849
 40
0.7427196061207827
 40
1.0
 40
1.0
 40
1.0
 40
1.0
 10
242.0180572249344
 20
27.97327262916465
 30
0.0
 10
242.06004265432
 20
27.82436311198836
 30
0.0
 10
242.2297561898581
 20
27.22244094505845
 30
0.0
 10
242.6078429069902
 20
26.23841945564314
 30
0.0
 10
243.1423364563086
 20
25.12814992645967
 30
0.0
 10
243.5677816181046
 20
24.50223868695346
 30
0.0
 10
243.7578327086931
 20
24.22263716750592
 30
0.0
  0
SPLINE
  5
175
330
1F
100
AcDbEntity
  8
0
  6
Continuous
 62
     7
370
    15
100
AcDbSpline
210
0.0
220
0.0
230
1.0
 70
     8
 71
     3
 72
    25
 73
    21
 74
     0
 42
0.000000001
 43
0.00000001
 40
0.0
 40
0.0
 40
0.0
 40
0.0
 40
0.0463904475396444
 40
0.0998645051816306
 40
0.1544804944404835
 40
0.2103946554914906
 40
0.267359481093704
 40
0.3249362906754855
 40
0.3827276361102495
 40
0.4404605099649607
 40
0.4980703822991346
 40
0.5555596632091012
 40
0.6129624653912588
 40
0.6703264113072134
 40
0.7277047155227686
 40
0.7851373053288434
 40
0.8426787427562635
 40
0.9003852033121096
 40
0.9583057185595262
 40
1.0
 40
1.0
 40
1.0
 40
1.0
 10
226.697217388579
 20
73.51277552491398
 30
0.0
 10
226.4704340161709
 20
73.57332680441498
 30
0.0
 10
225.9822384830367
 20
73.70367526807901
 30
0.0
 10
225.1765625030178
 20
73.72875214624423
 30
0.0
 10
224.303820949512
 20
73.62654217711551
 30
0.0
 10
223.3995331582591
 20
73.37730277426625
 30
0.0
 10
222.477680709718
 20
72.98696873935626
 30
0.0
 10
221.5533375470468
 20
72.45944514413746
 30
0.0
 10
220.6432684714848
 20
71.80481878401338
 30
0.0
 10
219.7627155760159
 20
71.03546445821677
 30
0.0
 10
218.925072348306
 20
70.16511676984
 30
0.0
 10
218.1420627486135
 20
69.20784339683092
 30
0.0
 10
217.4245177617746
 20
68.17834677909597
 30
0.0
 10
216.7824940843238
 20
67.09192373854526
 30
0.0
 10
216.2252263473391
 20
65.96443093958543
 30
0.0
 10
215.7612608211595
 20
64.81216193303305
 30
0.0
 10
215.3973391470738
 20
63.65110008880187
 30
0.0
 10
215.1423405011898
 20
62.49843030486388
 30
0.0
 10
215.0068541355668
 20
61.472947427445
 30
0.0
 10
214.992294564559
 20
60.85101560956412
 30
0.0
 10
214.9862005818231
 20
60.59070287376888
 30
0.0
  0
SPLINE
  5
176
330
1F
100
AcDbEntity
  8
0
  6
Continuous
 62
     7
370
    15
100
AcDbSpline
210
0.0
220
0.0
230
1.0
 70
     8
 71
     3
 72
    13
 73
     9
 74
     0
 42
0.000000001
 43
0.00000001
 40
0.0
 40
0.0
 40
0.0
 40
0.0
 40
0.1026951028557759
 40
0.2963554261477985
 40
0.4900063353822784
 40
0.6818040413441955
 40
0.8698489457092753
 40
1.0
 40
1.0
 40
1.0
 40
1.0
 10
214.9862005818231
 20
60.59070287376888
 30
0.0
 10
214.9896156687349
 20
60.40119258793382
 30
0.0
 10
214.9994708566544
 20
59.85430768343249
 30
0.0
 10
215.1100118690491
 20
58.99589108302988
 30
0.0
 10
215.3585075333173
 20
58.0523420887323
 30
0.0
 10
215.7363033948858
 20
57.21134758305516
 30
0.0
 10
216.170224890175
 20
56.53931563043706
 30
0.0
 10
216.5235787272702
 20
56.20915565667092
 30
0.0
 10
216.6681103380106
 20
56.07411098529361
 30
0.0
  0
LWPOLYLINE
  5
177
330
1F
100
AcDbEntity
  8
0
  6
Continuous
 62
     7
370
    15
100
AcDbPolyline
 90
       21
 70
   128
 43
0.0
 10
277.3205288885
 20
39.1571359742
 10
276.9876703537
 20
39.4216148376
 10
276.812676266
 20
39.7325283885
 10
276.812676266
 20
40.0594422423
 10
276.9876703537
 20
40.3703557932
 10
277.3205288885
 20
40.6348346566
 10
277.7786693579
 20
40.8269897986
 10
278.3172457807
 20
40.9280117351
 10
278.8835385442
 20
40.9280117351
 10
279.422114967
 20
40.8269897986
 10
279.8802554364
 20
40.6348346566
 10
280.2131139712
 20
40.3703557932
 10
280.3881080589
 20
40.0594422423
 10
280.3881080589
 20
39.7325283885
 10
280.2131139712
 20
39.4216148376
 10
279.8802554364
 20
39.1571359742
 10
279.422114967
 20
38.9649808322
 10
278.8835385442
 20
38.8639588957
 10
278.3172457807
 20
38.8639588957
 10
277.7786693579
 20
38.9649808322
 10
277.3205288885
 20
39.1571359742
  0
LWPOLYLINE
  5
178
330
1F
100
AcDbEntity
  8
0
  6
Continuous
 62
     7
370
    15
100
AcDbPolyline
 90
        7
 70
   128
 43
0.0
 10
277.1861786001
 20
38.9244344493
 10
276.8321613755
 20
39.2013456865
 10
276.635259216
 20
39.5261935884
 10
276.6129677427
 20
39.8701139936
 10
276.7672676507
 20
40.2025480647
 10
277.0844487162
 20
40.4939575757
 10
277.1859488066
 20
40.5571179945
  0
LWPOLYLINE
  5
179
330
1F
100
AcDbEntity
  8
0
  6
Continuous
 62
     7
370
    15
100
AcDbPolyline
 90
       12
 70
   128
 43
0.0
 10
280.0148355183
 20
40.5571179945
 10
280.209587722
 20
40.4264527538
 10
280.4881588231
 20
40.1221746492
 10
280.598993572
 20
39.7840135151
 10
280.532243815
 20
39.4420164524
 10
280.2938405609
 20
39.1265714007
 10
279.904966985
 20
38.8657070374
 10
279.4001762111
 20
38.6826023058
 10
278.8243211147
 20
38.5935268649
 10
278.2285689481
 20
38.6063954585
 10
277.6658549059
 20
38.7200646557
 10
277.1861786001
 20
38.9244344493
  0
LWPOLYLINE
  5
17A
330
1F
100
AcDbEntity
  8
0
  6
Continuous
 62
     7
370
    15
100
AcDbPolyline
 90
       17
 70
   128
 43
0.0
 10
277.751864025
 20
39.4061404483
 10
277.4917367234
 20
39.6308831837
 10
277.4003921625
 20
39.8959853154
 10
277.4917367234
 20
40.1610874471
 10
277.751864025
 20
40.3858301825
 10
278.1411720436
 20
40.5359984773
 10
278.6003921625
 20
40.5887305699
 10
279.0596122813
 20
40.5359984773
 10
279.4489202999
 20
40.3858301825
 10
279.7090476015
 20
40.1610874471
 10
279.8003921625
 20
39.8959853154
 10
279.7090476015
 20
39.6308831837
 10
279.4489202999
 20
39.4061404483
 10
279.0596122813
 20
39.2559721535
 10
278.6003921625
 20
39.2032400609
 10
278.1411720436
 20
39.2559721535
 10
277.751864025
 20
39.4061404483
  0
SPLINE
  5
17B
330
1F
100
AcDbEntity
  8
0
  6
Continuous
 62
     7
370
    15
100
AcDbSpline
210
0.0
220
0.0
230
1.0
 70
     8
 71
     3
 72
     9
 73
     5
 74
     0
 42
0.000000001
 43
0.00000001
 40
0.0
 40
0.0
 40
0.0
 40
0.0
 40
0.6300416123970557
 40
1.0
 40
1.0
 40
1.0
 40
1.0
 10
277.8934258975031
 20
39.32788872912095
 30
0.0
 10
277.8035883892059
 20
39.38954534228009
 30
0.0
 10
277.6609985879462
 20
39.48740651834522
 30
0.0
 10
277.5325556376134
 20
39.63271210232404
 30
0.0
 10
277.4850370908094
 20
39.68646912188255
 30
0.0
  0
SPLINE
  5
17C
330
1F
100
AcDbEntity
  8
0
  6
Continuous
 62
     7
370
    15
100
AcDbSpline
210
0.0
220
0.0
230
1.0
 70
     8
 71
     3
 72
    10
 73
     6
 74
     0
 42
0.000000001
 43
0.00000001
 40
0.0
 40
0.0
 40
0.0
 40
0.0
 40
0.4391222274230452
 40
0.751371471259458
 40
1.0
 40
1.0
 40
1.0
 40
1.0
 10
279.7157472341102
 20
40.03152379057583
 30
0.0
 10
279.6729627347823
 20
39.88342077902657
 30
0.0
 10
279.5997552080406
 20
39.63000528161766
 30
0.0
 10
279.4933360148985
 20
39.44326522242063
 30
0.0
 10
279.4403684527006
 20
39.40472659607649
 30
0.0
 10
279.4168887433876
 20
39.38764301309975
 30
0.0
  0
SPLINE
  5
17D
330
1F
100
AcDbEntity
  8
0
  6
Continuous
 62
     7
370
    15
100
AcDbSpline
210
0.0
220
0.0
230
1.0
 70
     8
 71
     3
 72
    11
 73
     7
 74
     0
 42
0.000000001
 43
0.00000001
 40
0.0
 40
0.0
 40
0.0
 40
0.0
 40
0.1849308168246135
 40
0.5198464202157763
 40
0.8714438233692643
 40
1.0
 40
1.0
 40
1.0
 40
1.0
 10
278.8992506531825
 20
40.50287723370526
 30
0.0
 10
278.9467747436959
 20
40.44996454019689
 30
0.0
 10
279.0803664768187
 20
40.30122527230952
 30
0.0
 10
279.32974095814
 20
40.10435118934294
 30
0.0
 10
279.5600484947818
 20
40.03619294664189
 30
0.0
 10
279.6828645105735
 20
40.03250989084056
 30
0.0
 10
279.7157472341102
 20
40.03152379057583
 30
0.0
  0
SPLINE
  5
17E
330
1F
100
AcDbEntity
  8
0
  6
Continuous
 62
     7
370
    15
100
AcDbSpline
210
0.0
220
0.0
230
1.0
 70
     8
 71
     3
 72
    10
 73
     6
 74
     0
 42
0.000000001
 43
0.00000001
 40
0.0
 40
0.0
 40
0.0
 40
0.0
 40
0.4391222274230479
 40
0.7513714712594598
 40
1.0
 40
1.0
 40
1.0
 40
1.0
 10
277.783895581532
 20
40.33034989935863
 30
0.0
 10
277.9435695067998
 20
40.29912364853659
 30
0.0
 10
278.216783716097
 20
40.24569316254238
 30
0.0
 10
278.6139455518032
 20
40.34966424333879
 30
0.0
 10
278.8116231850792
 20
40.45582000843505
 30
0.0
 10
278.8992506531825
 20
40.50287723370526
 30
0.0
  0
SPLINE
  5
17F
330
1F
100
AcDbEntity
  8
0
  6
Continuous
 62
     7
370
    15
100
AcDbSpline
210
0.0
220
0.0
230
1.0
 70
     8
 71
     3
 72
    10
 73
     6
 74
     0
 42
0.000000001
 43
0.00000001
 40
0.0
 40
0.0
 40
0.0
 40
0.0
 40
0.439122227423046
 40
0.7513714712594577
 40
1.0
 40
1.0
 40
1.0
 40
1.0
 10
277.4850370908094
 20
39.68646912188255
 30
0.0
 10
277.5278215901372
 20
39.72272170032839
 30
0.0
 10
277.601029116879
 20
39.78475261450836
 30
0.0
 10
277.7074483100211
 20
40.05656585023637
 30
0.0
 10
277.760415872219
 20
40.24626096118099
 30
0.0
 10
277.783895581532
 20
40.33034989935863
 30
0.0
  0
LINE
  5
180
330
1F
100
AcDbEntity
  8
0
  6
Continuous
 62
     7
370
    15
100
AcDbLine
 10
277.7838955815
 20
39.3883221207
 30
0.0
 11
277.7838955815
 21
40.3303498994
 31
0.0
  0
LINE
  5
181
330
1F
100
AcDbEntity
  8
0
  6
Continuous
 62
     7
370
    15
100
AcDbLine
 10
278.8992506532
 20
39.2250678044
 30
0.0
 11
278.8992506532
 21
40.5028772337
 31
0.0
  0
ARC
  5
182
330
1F
100
AcDbEntity
  8
0
  6
Continuous
 62
     7
370
    15
100
AcDbCircle
 10
278.9812567569
 20
50.5164245154
 30
0.0
 40
8.707111905511189
100
AcDbArc
 50
34.5309619216
 51
85.122878034
  0
ARC
  5
183
330
1F
100
AcDbEntity
  8
0
  6
Continuous
 62
     7
370
    15
100
AcDbCircle
 10
262.6832701794
 20
22.2849752146
 30
0.0
 40
8.677348939768283
100
AcDbArc
 50
215.2989471955
 51
264.876672331
  0
LWPOLYLINE
  5
184
330
1F
100
AcDbEntity
  8
0
  6
Continuous
 62
     7
370
    15
100
AcDbPolyline
 90
        9
 70
   128
 43
0.0
 10
256.122363555
 20
16.044270579
 10
255.9560402918
 20
16.1428765898
 10
254.965145904
 20
16.8493317816
 10
254.0707247983
 20
17.7030532144
 10
253.27909555
 20
18.6980098332
 10
252.5958505685
 20
19.8271728363
 10
252.0258165903
 20
21.0825653309
 10
251.5730205804
 20
22.4553186845
 10
251.2406612847
 20
23.935735177
  0
SPLINE
  5
185
330
1F
100
AcDbEntity
  8
0
  6
Continuous
 62
     7
370
    15
100
AcDbSpline
210
0.0
220
0.0
230
1.0
 70
     8
 71
     3
 72
    32
 73
    28
 74
     0
 42
0.000000001
 43
0.00000001
 40
0.0
 40
0.0
 40
0.0
 40
0.0
 40
0.0193254758647258
 40
0.0385826927399014
 40
0.0577846348003733
 40
0.0769443985950771
 40
0.0960751672943215
 40
0.1151901840580798
 40
0.1343027247879751
 40
0.1534260705402312
 40
0.172573479885108
 40
0.1917581614995186
 40
0.2109932472740069
 40
0.2302917662029109
 40
0.2496666193081449
 40
0.3745846283005043
 40
0.4997410234224777
 40
0.4999962720873377
 40
0.6248627021449072
 40
0.7503411293897363
 40
0.7861451323127985
 40
0.8217618640028611
 40
0.8572756267732794
 40
0.8927714566788081
 40
0.9283345184945242
 40
0.9640494961196089
 40
1.0
 40
1.0
 40
1.0
 40
1.0
 10
251.2406060086712
 20
31.38755994342857
 30
0.0
 10
251.2625492259589
 20
31.32746889971461
 30
0.0
 10
251.3063581554912
 20
31.20749905823359
 30
0.0
 10
251.3687974067131
 20
31.02675150412647
 30
0.0
 10
251.4287060342398
 20
30.84590810771105
 30
0.0
 10
251.4858926198734
 20
30.66490099217102
 30
0.0
 10
251.5404506910813
 20
30.48377158984998
 30
0.0
 10
251.5923984376721
 20
30.3025330725191
 30
0.0
 10
251.641774917135
 20
30.1212071183092
 30
0.0
 10
251.6886142985826
 20
29.93981404157337
 30
0.0
 10
251.7329529049282
 20
29.7583756861702
 30
0.0
 10
251.7748267481515
 20
29.57691379719631
 30
0.0
 10
251.8142743393401
 20
29.3954537447429
 30
0.0
 10
251.8513278587004
 20
29.21401129904961
 30
0.0
 10
251.9490199583345
 20
28.70366034730752
 30
0.0
 10
252.0665161571679
 20
27.87705881861928
 30
0.0
 10
252.1013675932884
 20
27.16173932332591
 30
0.0
 10
252.1017634174624
 20
26.48502735842496
 30
0.0
 10
252.0667120664162
 20
25.84333623432731
 30
0.0
 10
251.9417779862451
 20
25.22203529554698
 30
0.0
 10
251.8210518053721
 20
24.84941119355646
 30
0.0
 10
251.7467443928495
 20
24.66061449241394
 30
0.0
 10
251.6638309216174
 20
24.48642320944681
 30
0.0
 10
251.5721321206081
 20
24.32660703938144
 30
0.0
 10
251.4712300529862
 20
24.18140316677161
 30
0.0
 10
251.3616771561871
 20
24.04935620665444
 30
0.0
 10
251.2811488582861
 20
23.97365672172287
 30
0.0
 10
251.2407523825301
 20
23.93568258731943
 30
0.0
  0
LWPOLYLINE
  5
186
330
1F
100
AcDbEntity
  8
0
  6
Continuous
 62
     7
370
    15
100
AcDbPolyline
 90
       27
 70
   128
 43
0.0
 10
251.2406060084
 20
31.3875599436
 10
251.5729453484
 20
33.2517258059
 10
252.0257249068
 20
35.1472851195
 10
252.5957459753
 20
37.0608465076
 10
253.2789815805
 20
38.978891416
 10
254.0706049331
 20
40.8878696163
 10
254.9650235273
 20
42.7742949325
 10
255.9559186495
 20
44.6248405161
 10
257.0362900177
 20
46.4264329947
 10
258.1985052356
 20
48.1663448299
 10
259.4343537124
 20
49.8322842331
 10
260.7351046675
 20
51.4124820014
 10
262.09156881
 20
52.8957746626
 10
263.4941632573
 20
54.2716833408
 10
264.9329792346
 20
55.5304877857
 10
266.397852076
 20
56.6632950416
 10
267.8784330345
 20
57.6621022735
 10
269.3642623914
 20
58.5198533035
 10
270.8448433499
 20
59.2304884598
 10
272.3097161914
 20
59.7889873861
 10
273.7485321686
 20
60.1914045085
 10
275.1511266159
 20
60.4348969092
 10
276.5075907584
 20
60.5177444107
 10
277.8083417135
 20
60.4393617282
 10
279.0441901903
 20
60.2003026043
 10
280.2064054082
 20
59.8022558972
 10
281.1203318709
 20
59.3467136981
  0
SPLINE
  5
187
330
1F
100
AcDbEntity
  8
0
  6
Continuous
 62
     7
370
    15
100
AcDbSpline
210
0.0
220
0.0
230
1.0
 70
     8
 71
     3
 72
     8
 73
     4
 74
     0
 42
0.000000001
 43
0.00000001
 40
0.0
 40
0.0
 40
0.0
 40
0.0
 40
1.0
 40
1.0
 40
1.0
 40
1.0
 10
250.2786127296151
 20
36.82289766135499
 30
0.0
 10
249.1089863096772
 20
36.62734148811225
 30
0.0
 10
247.9383830668173
 20
36.43375652139233
 30
0.0
 10
246.7671515851644
 20
36.24147707214606
 30
0.0
  0
SPLINE
  5
188
330
1F
100
AcDbEntity
  8
0
  6
Continuous
 62
     7
370
    15
100
AcDbSpline
210
0.0
220
0.0
230
1.0
 70
     8
 71
     3
 72
     8
 73
     4
 74
     0
 42
0.000000001
 43
0.00000001
 40
0.0
 40
0.0
 40
0.0
 40
0.0
 40
0.0012417047560385
 40
0.0012417047560385
 40
0.0012417047560385
 40
0.0012417047560385
 10
246.2926509815148
 20
36.51545249302593
 30
0.0
 10
246.4509221219751
 20
36.42406716826799
 30
0.0
 10
246.6090914276544
 20
36.33274062086438
 30
0.0
 10
246.7671515851644
 20
36.24147707214606
 30
0.0
  0
LWPOLYLINE
  5
189
330
1F
100
AcDbEntity
  8
0
  6
Continuous
 62
     7
370
    15
100
AcDbPolyline
 90
       29
 70
   128
 43
0.0
 10
246.2926509815
 20
36.515452493
 10
246.754098071
 20
38.400912454
 10
247.3309066406
 20
40.3028704902
 10
248.0190551505
 20
42.2080660492
 10
248.8137457927
 20
44.1032160065
 10
249.7094379418
 20
45.9751072761
 10
250.6998867848
 20
47.8106889326
 10
251.7781868596
 20
49.5971632033
 10
252.9368202009
 20
51.322074695
 10
254.1677087557
 20
52.973397233
 10
255.4622707036
 20
54.5396177091
 10
256.81148029
 20
56.009816351
 10
258.2059307541
 20
57.3737428557
 10
259.6358999132
 20
58.6218878553
 10
261.0914179466
 20
59.7455492166
 10
262.5623369051
 20
60.736892713
 10
264.0384014639
 20
61.5890066451
 10
265.5093204225
 20
62.2959500292
 10
266.9648384559
 20
62.8527940186
 10
268.394807615
 20
63.2556562674
 10
269.7892580791
 20
63.5017279988
 10
271.1384676655
 20
63.5892935874
 10
272.4330296134
 20
63.5177425214
 10
273.6639181681
 20
63.2875736586
 10
274.8225515095
 20
62.9003917486
 10
275.9008515843
 20
62.3588962441
 10
276.8913004272
 20
61.6668624805
 10
277.7869925764
 20
60.829115354
 10
278.1735036289
 20
60.3865740573
  0
LINE
  5
18A
330
1F
100
AcDbEntity
  8
0
  6
Continuous
 62
     7
370
    15
100
AcDbLine
 10
242.1649151463
 20
38.8983436694
 30
0.0
 11
246.2926509815
 21
36.515452493
 31
0.0
  0
ARC
  5
18B
330
1F
100
AcDbEntity
  8
0
  6
Continuous
 62
     7
370
    15
100
AcDbCircle
 10
267.2754124353
 20
57.0535015548
 30
0.0
 40
8.908177464119467
100
AcDbArc
 50
60.4289686518
 51
85.1812967809
  0
SPLINE
  5
18C
330
1F
100
AcDbEntity
  8
0
  6
Continuous
 62
     7
370
    15
100
AcDbSpline
210
0.0
220
0.0
230
1.0
 70
     8
 71
     3
 72
    12
 73
     8
 74
     0
 42
0.000000001
 43
0.00000001
 40
0.0
 40
0.0
 40
0.0
 40
0.0
 40
0.1970059856257
 40
0.4328850819032896
 40
0.6705102536674734
 40
0.834953370969034
 40
1.0
 40
1.0
 40
1.0
 40
1.0
 10
252.1262548172334
 20
35.44926743083725
 30
0.0
 10
252.0397043272542
 20
35.55444221348143
 30
0.0
 10
251.8495252531288
 20
35.7855448079254
 30
0.0
 10
251.5333698458944
 20
36.10560084260549
 30
0.0
 10
251.2193815741414
 20
36.38012165015771
 30
0.0
 10
250.9306551032706
 20
36.599007737841
 30
0.0
 10
250.7579365582018
 20
36.70976909003194
 30
0.0
 10
250.6714191052249
 20
36.76525120445131
 30
0.0
  0
LWPOLYLINE
  5
18D
330
1F
100
AcDbEntity
  8
0
  6
Continuous
 62
     7
370
    15
100
AcDbPolyline
 90
       47
 70
   128
 43
0.0
 10
282.1536037379
 20
37.6814517721
 10
281.2340880909
 20
37.0779960234
 10
280.3317012805
 20
36.3405201846
 10
279.4632530658
 20
35.482762035
 10
278.6449209938
 20
34.5206999861
 10
277.8919490426
 20
33.4722554336
 10
277.218363655
 20
32.3569589157
 10
276.6367124523
 20
31.1955862964
 10
276.1578304959
 20
30.0097717501
 10
275.7906384506
 20
28.8216047581
 10
275.5419764094
 20
27.6532186236
 10
275.4164764756
 20
26.5263781694
 10
275.4164764756
 20
25.4620743012
 10
275.5419764094
 20
24.4801329862
 10
275.7906384506
 20
23.5988459334
 10
276.1578304959
 20
22.834629853
 10
276.6367124523
 20
22.2017206446
 10
277.218363655
 20
21.7119082093
 10
277.8919490426
 20
21.374316826
 10
278.6449209938
 20
21.1952351834
 10
279.4632530658
 20
21.1779992337
 10
280.3317012805
 20
21.32293005
 10
281.2340880909
 20
21.6273278455
 10
282.1536037379
 20
22.085522265
 10
283.073119385
 20
22.6889780137
 10
283.9755061953
 20
23.4264538525
 10
284.84395441
 20
24.2842120021
 10
285.6622864821
 20
25.246274051
 10
286.4152584333
 20
26.2947186035
 10
287.0888438209
 20
27.4100151214
 10
287.6704950235
 20
28.5713877408
 10
288.1493769799
 20
29.7572022871
 10
288.5165690252
 20
30.945369279
 10
288.7652310665
 20
32.1137554135
 10
288.8907310002
 20
33.2405958677
 10
288.8907310002
 20
34.3048997359
 10
288.7652310665
 20
35.2868410509
 10
288.5165690252
 20
36.1681281037
 10
288.1493769799
 20
36.9323441842
 10
287.6704950235
 20
37.5652533925
 10
287.0888438209
 20
38.0550658278
 10
286.4152584333
 20
38.3926572111
 10
285.6622864821
 20
38.5717388537
 10
284.84395441
 20
38.5889748034
 10
283.9755061953
 20
38.4440439871
 10
283.073119385
 20
38.1396461917
 10
282.1536037379
 20
37.6814517721
  0
LWPOLYLINE
  5
18E
330
1F
100
AcDbEntity
  8
0
  6
Continuous
 62
     7
370
    15
100
AcDbPolyline
 90
       25
 70
   128
 43
0.0
 10
282.0121823817
 20
37.9264007456
 10
281.0932633093
 20
37.3248855048
 10
280.1907423695
 20
36.592035214
 10
279.3207250699
 20
35.7409276039
 10
278.4987368898
 20
34.7867507099
 10
277.7394462277
 20
33.7465318415
 10
277.0564026435
 20
32.6388337289
 10
276.4617950662
 20
31.4834232712
 10
275.966234282
 20
30.3009187953
 10
275.5785635848
 20
29.1124221217
 10
275.3057009675
 20
27.9391420017
 10
275.1525156699
 20
26.8020156468
 10
275.1217412873
 20
25.7213351037
 10
275.2139269893
 20
24.7163851423
 10
275.4274277198
 20
23.8050991186
 10
275.7584335532
 20
23.0037389531
 10
276.2010376826
 20
22.3266049371
 10
276.7473418269
 20
21.785780543
 10
277.3875971756
 20
21.390916795
 10
278.1103783568
 20
21.1490600461
 10
278.9027873233
 20
21.0645262357
 10
279.7506835183
 20
21.1388238715
 10
280.638936214
 20
21.3706271106
 10
281.5516945202
 20
21.7557994186
 10
282.0133028979
 20
22.0045018792
  0
LWPOLYLINE
  5
18F
330
1F
100
AcDbEntity
  8
0
  6
Continuous
 62
     7
370
    15
100
AcDbPolyline
 90
       13
 70
   128
 43
0.0
 10
288.9064734983
 20
33.9451173749
 10
288.8718490934
 20
34.7220182502
 10
288.7186637958
 20
35.6822806251
 10
288.4458011785
 20
36.5405202731
 10
288.0581304814
 20
37.281421887
 10
287.5625696972
 20
37.8917640603
 10
286.9679621198
 20
38.3606552221
 10
286.2849185356
 20
38.6797279988
 10
285.5256278736
 20
38.843288529
 10
284.7036396934
 20
38.8484180712
 10
283.8336223938
 20
38.6950250886
 10
282.9311014541
 20
38.3858468826
 10
282.0121823817
 20
37.9264007456
  0
SPLINE
  5
190
330
1F
100
AcDbEntity
  8
0
  6
Continuous
 62
     7
370
    15
100
AcDbSpline
210
0.0
220
0.0
230
1.0
 70
    11
 71
     3
 72
    77
 73
    73
 74
     0
 42
0.000000001
 43
0.00000001
 40
0.0
 40
0.0
 40
0.0
 40
0.0
 40
0.0312500000000002
 40
0.0312500000000002
 40
0.0625000000000005
 40
0.0625000000000005
 40
0.0937500000000007
 40
0.0937500000000007
 40
0.1250000000000009
 40
0.1250000000000009
 40
0.1562500000000011
 40
0.1562500000000011
 40
0.1875000000000013
 40
0.1875000000000013
 40
0.2187500000000016
 40
0.2187500000000016
 40
0.2500000000000018
 40
0.2500000000000018
 40
0.281250000000002
 40
0.281250000000002
 40
0.3125000000000023
 40
0.3125000000000023
 40
0.3437500000000025
 40
0.3437500000000025
 40
0.3593750000000026
 40
0.3593750000000026
 40
0.3750000000000027
 40
0.3906250000000029
 40
0.3906250000000029
 40
0.406250000000003
 40
0.406250000000003
 40
0.4375000000000032
 40
0.4375000000000032
 40
0.4687500000000034
 40
0.4687500000000034
 40
0.5000000000000036
 40
0.5000000000000036
 40
0.5312500000000038
 40
0.5312500000000038
 40
0.562500000000004
 40
0.562500000000004
 40
0.5937500000000043
 40
0.5937500000000043
 40
0.6250000000000046
 40
0.6250000000000046
 40
0.6562500000000048
 40
0.6562500000000048
 40
0.687500000000005
 40
0.687500000000005
 40
0.7187500000000052
 40
0.7187500000000052
 40
0.7500000000000054
 40
0.7500000000000054
 40
0.7656250000000054
 40
0.7656250000000054
 40
0.7812500000000053
 40
0.7812500000000053
 40
0.8125000000000046
 40
0.8125000000000046
 40
0.8437500000000038
 40
0.8437500000000038
 40
0.875000000000003
 40
0.875000000000003
 40
0.8906250000000027
 40
0.8906250000000027
 40
0.9062500000000023
 40
0.9062500000000023
 40
0.9375000000000017
 40
0.9375000000000017
 40
0.9687500000000009
 40
0.9687500000000009
 40
1.0
 40
1.0
 40
1.0
 40
1.0
 10
278.5890640156695
 20
41.14097218029045
 30
0.0
 10
278.7442097376138
 20
41.11775684285048
 30
0.0
 10
278.8953688140205
 20
41.08680693345297
 30
0.0
 10
279.1905906289887
 20
41.01220468520662
 30
0.0
 10
279.3355812285151
 20
40.9681935125698
 30
0.0
 10
279.6141523314225
 20
40.86985859898655
 30
0.0
 10
279.745900772711
 20
40.81629120822076
 30
0.0
 10
279.994994435297
 20
40.70144347819952
 30
0.0
 10
280.1133307418661
 20
40.63953217334746
 30
0.0
 10
280.3291786118405
 20
40.51117851891099
 30
0.0
 10
280.4266087838756
 20
40.44497927786464
 30
0.0
 10
280.6006802928435
 20
40.30823180255783
 30
0.0
 10
280.6779079899636
 20
40.23693982627677
 30
0.0
 10
280.8058117852837
 20
40.09327202689093
 30
0.0
 10
280.8568779589013
 20
40.02086720493721
 30
0.0
 10
280.9326347696953
 20
39.87355700215109
 30
0.0
 10
280.9573131068188
 20
39.79780578584541
 30
0.0
 10
280.9762054667769
 20
39.64766453326284
 30
0.0
 10
280.970932661615
 20
39.57298367070369
 30
0.0
 10
280.9290323652277
 20
39.42275962609855
 30
0.0
 10
280.8915505216242
 20
39.34645300296806
 30
0.0
 10
280.7857991034577
 20
39.19922810586195
 30
0.0
 10
280.717623530237
 20
39.12748448902741
 30
0.0
 10
280.5905307303774
 20
39.02214711194544
 30
0.0
 10
280.5438015730232
 20
38.98734605225192
 30
0.0
 10
280.4445207322636
 20
38.92052596272865
 30
0.0
 10
280.3388463736318
 20
38.85596239624237
 30
0.0
 10
280.2205543024647
 20
38.7958246386813
 30
0.0
 10
280.0958359996633
 20
38.73797262790515
 30
0.0
 10
280.0300900106812
 20
38.71015980032482
 30
0.0
 10
279.8284886725671
 20
38.63244582171307
 30
0.0
 10
279.6867027590003
 20
38.5873827539726
 30
0.0
 10
279.3889094560752
 20
38.51118450978779
 30
0.0
 10
279.2360110325096
 20
38.48095824828582
 30
0.0
 10
278.9282258974062
 20
38.43724216567492
 30
0.0
 10
278.7710128603683
 20
38.42357283202353
 30
0.0
 10
278.4631247186654
 20
38.41425870398632
 30
0.0
 10
278.3116768956704
 20
38.41834912240002
 30
0.0
 10
278.0133933949197
 20
38.44477878954213
 30
0.0
 10
277.8677625226196
 20
38.46719899296693
 30
0.0
 10
277.5910660353537
 20
38.52938855144314
 30
0.0
 10
277.4587455909774
 20
38.56925124366881
 30
0.0
 10
277.2063122241702
 20
38.66758177450788
 30
0.0
 10
277.0893524472088
 20
38.72486885063856
 30
0.0
 10
276.8744291658396
 20
38.85458569605257
 30
0.0
 10
276.7760104720711
 20
38.92730874810609
 30
0.0
 10
276.5996328073876
 20
39.08772269861691
 30
0.0
 10
276.5237696429669
 20
39.17341587881048
 30
0.0
 10
276.3961970686167
 20
39.35476687036731
 30
0.0
 10
276.3442688520518
 20
39.4509684467817
 30
0.0
 10
276.2676822222834
 20
39.65067233314208
 30
0.0
 10
276.2436619891675
 20
39.75207430469555
 30
0.0
 10
276.2293745638111
 20
39.90549764676382
 30
0.0
 10
276.2282614864775
 20
39.95686040281635
 30
0.0
 10
276.2337403453037
 20
40.05987047352699
 30
0.0
 10
276.2404188397853
 20
40.11184963306846
 30
0.0
 10
276.2723000641117
 20
40.26483387469469
 30
0.0
 10
276.3089826825883
 20
40.36310121900393
 30
0.0
 10
276.4145219135678
 20
40.55058099904831
 30
0.0
 10
276.4848181336842
 20
40.64093080031737
 30
0.0
 10
276.6539889452582
 20
40.80197916729407
 30
0.0
 10
276.752620058479
 20
40.87336475718686
 30
0.0
 10
276.9224224668458
 20
40.96600865165602
 30
0.0
 10
276.9827661723209
 20
40.99442428163649
 30
0.0
 10
277.1074099639594
 20
41.04484392443043
 30
0.0
 10
277.1721080599727
 20
41.06708541492647
 30
0.0
 10
277.3731361534983
 20
41.12526804583642
 30
0.0
 10
277.5181264391186
 20
41.15278196677011
 30
0.0
 10
277.8144668980276
 20
41.1845982744323
 30
0.0
 10
277.9664198747063
 20
41.18938782840495
 30
0.0
 10
278.2777082553591
 20
41.17916087570089
 30
0.0
 10
278.4339182937251
 20
41.16418751773043
 30
0.0
 10
278.5890640156695
 20
41.14097218029045
 30
0.0
  0
LINE
  5
191
330
1F
100
AcDbEntity
  8
0
  6
Continuous
 62
     7
370
    15
100
AcDbLine
 10
285.8532443806
 20
29.7927185833
 30
0.0
 11
287.2306304268
 21
31.5061737303
 31
0.0
  0
SPLINE
  5
192
330
1F
100
AcDbEntity
  8
0
  6
Continuous
 62
     7
370
    15
100
AcDbSpline
210
0.0
220
0.0
230
1.0
 70
     8
 71
     3
 72
    22
 73
    18
 74
     0
 42
0.000000001
 43
0.00000001
 40
0.0
 40
0.0
 40
0.0
 40
0.0
 40
0.0500000000000153
 40
0.1
 40
0.1499999999999999
 40
0.2000000000000001
 40
0.25
 40
0.2968749999999255
 40
0.34375
 40
0.390625
 40
0.4374999999999989
 40
0.515352885058417
 40
0.515352885058417
 40
0.53125
 40
0.6249999999995614
 40
0.8125
 40
0.8824198414277675
 40
0.8824198414277675
 40
0.8824198414277675
 40
0.8824198414277675
 10
287.2306304268367
 20
31.50617373031717
 30
0.0
 10
287.2963686157706
 20
31.5879514123897
 30
0.0
 10
287.4251233290469
 20
31.76595430344106
 30
0.0
 10
287.6014284186298
 20
32.07131927228672
 30
0.0
 10
287.7501364766539
 20
32.40989029196548
 30
0.0
 10
287.8568240703468
 20
32.76567695739737
 30
0.0
 10
287.9073715633213
 20
33.10928715412853
 30
0.0
 10
287.8984426878931
 20
33.41939645265428
 30
0.0
 10
287.8334140032777
 20
33.67971525678362
 30
0.0
 10
287.717215744782
 20
33.88386021835985
 30
0.0
 10
287.5253682406018
 20
34.05668556719359
 30
0.0
 10
287.3501391294113
 20
34.11092116078039
 30
0.0
 10
287.213192048967
 20
34.1240069853055
 30
0.0
 10
287.0652514086305
 20
34.13786560089127
 30
0.0
 10
286.728573496216
 20
34.16709920829308
 30
0.0
 10
286.5006298367034
 20
34.18789229718236
 30
0.0
 10
286.0004133688911
 20
34.23264474472997
 30
0.0
 10
285.8532235808669
 20
34.2458036966328
 30
0.0
  0
SPLINE
  5
193
330
1F
100
AcDbEntity
  8
0
  6
Continuous
 62
     7
370
    15
100
AcDbSpline
210
0.0
220
0.0
230
1.0
 70
     8
 71
     3
 72
    22
 73
    18
 74
     0
 42
0.000000001
 43
0.00000001
 40
0.0
 40
0.0
 40
0.0
 40
0.0
 40
0.0500000000000153
 40
0.1
 40
0.1499999999999999
 40
0.2000000000000001
 40
0.25
 40
0.2968749999999255
 40
0.34375
 40
0.390625
 40
0.4374999999999989
 40
0.515352885058417
 40
0.515352885058417
 40
0.53125
 40
0.6249999999995614
 40
0.8125
 40
0.8812161579339127
 40
0.8812161579339127
 40
0.8812161579339127
 40
0.8812161579339127
 10
277.0765770490077
 20
25.6443634874358
 30
0.0
 10
277.0118082075184
 20
25.65015479786708
 30
0.0
 10
276.8816342713072
 20
25.67962756199018
 30
0.0
 10
276.7058996002638
 20
25.7813839994087
 30
0.0
 10
276.557038702484
 20
25.94827403012046
 30
0.0
 10
276.4503920492742
 20
26.18087810883342
 30
0.0
 10
276.3998338616682
 20
26.46612855971713
 30
0.0
 10
276.4087649614113
 20
26.78654604936672
 30
0.0
 10
276.4737947812269
 20
27.12194773948179
 30
0.0
 10
276.5899863229616
 20
27.46024374531782
 30
0.0
 10
276.7818652273807
 20
27.85461064527896
 30
0.0
 10
276.9569732656867
 20
28.11101083787339
 30
0.0
 10
277.0939786235126
 20
28.2822848842736
 30
0.0
 10
277.2420230742715
 20
28.46708125746894
 30
0.0
 10
277.5798463090364
 20
28.88645969113701
 30
0.0
 10
277.7988275146772
 20
29.15928030359765
 30
0.0
 10
278.3073628875221
 20
29.79192019542776
 30
0.0
 10
278.4539839572799
 20
29.9743137211939
 30
0.0
  0
LINE
  5
194
330
1F
100
AcDbEntity
  8
0
  6
Continuous
 62
     7
370
    15
100
AcDbLine
 10
278.4539630953
 20
25.5212044191
 30
0.0
 11
277.076577049
 21
25.6443634874
 31
0.0
  0
SPLINE
  5
195
330
1F
100
AcDbEntity
  8
0
  6
Continuous
 62
     7
370
    15
100
AcDbSpline
210
0.0
220
0.0
230
1.0
 70
     8
 71
     3
 72
    10
 73
     6
 74
     0
 42
0.000000001
 43
0.00000001
 40
0.0
 40
0.0
 40
0.0
 40
0.0
 40
0.5
 40
0.5
 40
1.0
 40
1.0
 40
1.0
 40
1.0
 10
250.5354897579927
 20
36.81778118626062
 30
0.0
 10
250.4949144495978
 20
36.82660570758758
 30
0.0
 10
250.4513401065441
 20
36.83155878349627
 30
0.0
 10
250.3635373795573
 20
36.83314396876239
 30
0.0
 10
250.3205692626355
 20
36.82991260125386
 30
0.0
 10
250.2786127296151
 20
36.82289766135499
 30
0.0
  0
SPLINE
  5
196
330
1F
100
AcDbEntity
  8
0
  6
Continuous
 62
     7
370
    15
100
AcDbSpline
210
0.0
220
0.0
230
1.0
 70
     8
 71
     3
 72
     8
 73
     4
 74
     0
 42
0.000000001
 43
0.00000001
 40
0.0
 40
0.0
 40
0.0
 40
0.0
 40
1.0
 40
1.0
 40
1.0
 40
1.0
 10
250.6714191052249
 20
36.76525120445131
 30
0.0
 10
250.6329371633887
 20
36.78892201424718
 30
0.0
 10
250.5868295116418
 20
36.80661555945662
 30
0.0
 10
250.5354897579928
 20
36.81778118626067
 30
0.0
  0
SPLINE
  5
197
330
1F
100
AcDbEntity
  8
0
  6
Continuous
 62
     7
370
    15
100
AcDbSpline
210
0.0
220
0.0
230
1.0
 70
     8
 71
     3
 72
    10
 73
     6
 74
     0
 42
0.000000001
 43
0.00000001
 40
0.0
 40
0.0
 40
0.0
 40
0.0
 40
0.5
 40
0.5
 40
1.0
 40
1.0
 40
1.0
 40
1.0
 10
242.0082182265275
 20
38.98879155258905
 30
0.0
 10
242.0192688248776
 20
38.98241571804491
 30
0.0
 10
242.037888770817
 20
38.97166947653952
 30
0.0
 10
242.0911887208775
 20
38.94090400369956
 30
0.0
 10
242.1247694935988
 20
38.92151926142861
 30
0.0
 10
242.1649151463383
 20
38.89834366940845
 30
0.0
  0
SPLINE
  5
198
330
1F
100
AcDbEntity
  8
0
  6
Continuous
 62
     7
370
    15
100
AcDbSpline
210
0.0
220
0.0
230
1.0
 70
     8
 71
     3
 72
    11
 73
     7
 74
     0
 42
0.000000001
 43
0.00000001
 40
0.0
 40
0.0
 40
0.0
 40
0.0
 40
0.4405413874982196
 40
0.6617801637007049
 40
0.8812425918238219
 40
1.0
 40
1.0
 40
1.0
 40
1.0
 10
242.0082182265275
 20
38.98879155258905
 30
0.0
 10
242.0094968426561
 20
39.0114427777232
 30
0.0
 10
242.011417576587
 20
39.04546939111909
 30
0.0
 10
242.017676016238
 20
39.08961317432581
 30
0.0
 10
242.0221158038429
 20
39.11750258513251
 30
0.0
 10
242.0264012348111
 20
39.1336528846466
 30
0.0
 10
242.0279059563563
 20
39.13932365704289
 30
0.0
  0
SPLINE
  5
199
330
1F
100
AcDbEntity
  8
0
  6
Continuous
 62
     7
370
    15
100
AcDbSpline
210
0.0
220
0.0
230
1.0
 70
     8
 71
     3
 72
     9
 73
     5
 74
     0
 42
0.000000001
 43
0.00000001
 40
0.0
 40
0.0
 40
0.0
 40
0.0
 40
0.5377956222894344
 40
1.0
 40
1.0
 40
1.0
 40
1.0
 10
250.6714191052249
 20
26.2758951415082
 30
0.0
 10
250.9114852786723
 20
26.14912909396672
 30
0.0
 10
251.3578745081447
 20
25.91341492619079
 30
0.0
 10
251.7494806655877
 20
25.79777028717654
 30
0.0
 10
251.9304827458963
 20
25.74431882876539
 30
0.0
  0
SPLINE
  5
19A
330
1F
100
AcDbEntity
  8
0
  6
Continuous
 62
     7
370
    15
100
AcDbSpline
210
0.0
220
0.0
230
1.0
 70
     8
 71
     3
 72
     8
 73
     4
 74
     0
 42
0.000000001
 43
0.00000001
 40
0.0
 40
0.0
 40
0.0
 40
0.0
 40
1.0
 40
1.0
 40
1.0
 40
1.0
 10
250.5354897579933
 20
26.32523175352862
 30
0.0
 10
250.5868181399904
 20
26.31406859988833
 30
0.0
 10
250.6329387040947
 20
26.29735459558663
 30
0.0
 10
250.6714191052249
 20
26.27589514150823
 30
0.0
  0
SPLINE
  5
19B
330
1F
100
AcDbEntity
  8
0
  6
Continuous
 62
     7
370
    15
100
AcDbSpline
210
0.0
220
0.0
230
1.0
 70
     8
 71
     3
 72
    12
 73
     8
 74
     0
 42
0.000000001
 43
0.00000001
 40
0.0
 40
0.0
 40
0.0
 40
0.0
 40
0.1882366098261066
 40
0.3552062861212412
 40
0.5009511951253487
 40
0.7563094580701585
 40
1.0
 40
1.0
 40
1.0
 40
1.0
 10
251.3514062743251
 20
24.65965674422689
 30
0.0
 10
251.4404498061716
 20
24.75393839414471
 30
0.0
 10
251.6084767499184
 20
24.93184977252974
 30
0.0
 10
251.7883861203308
 20
25.27916685021128
 30
0.0
 10
251.9499100407585
 20
25.73982055366882
 30
0.0
 10
252.0756657901062
 20
26.36136203513676
 30
0.0
 10
252.0929684969703
 20
26.94467834542011
 30
0.0
 10
252.1014175824533
 20
27.22951755629683
 30
0.0
  0
SPLINE
  5
19C
330
1F
100
AcDbEntity
  8
0
  6
Continuous
 62
     7
370
    15
100
AcDbSpline
210
0.0
220
0.0
230
1.0
 70
     8
 71
     3
 72
     9
 73
     5
 74
     0
 42
0.000000001
 43
0.00000001
 40
0.0
 40
0.0
 40
0.0
 40
0.0
 40
0.5048005003628353
 40
1.0
 40
1.0
 40
1.0
 40
1.0
 10
251.2406718622942
 20
23.93563222396579
 30
0.0
 10
251.259216760628
 20
24.05734610001038
 30
0.0
 10
251.2959538445262
 20
24.29845892766627
 30
0.0
 10
251.3330509558821
 20
24.53996516091344
 30
0.0
 10
251.3514214268635
 20
24.6595589267767
 30
0.0
  0
SPLINE
  5
19D
330
1F
100
AcDbEntity
  8
0
  6
Continuous
 62
     7
370
    15
100
AcDbSpline
210
0.0
220
0.0
230
1.0
 70
     8
 71
     3
 72
    16
 73
    12
 74
     0
 42
0.000000001
 43
0.00000001
 40
0.0
 40
0.0
 40
0.0
 40
0.0
 40
0.1067399128596253
 40
0.2144929388775032
 40
0.3255046923945751
 40
0.4376584035565073
 40
0.5291320355396189
 40
0.7151867854712779
 40
0.8099889373984499
 40
0.9014942576321788
 40
1.0
 40
1.0
 40
1.0
 40
1.0
 10
276.9881887013544
 20
25.97422627996988
 30
0.0
 10
276.9571806244919
 20
25.97833511155675
 30
0.0
 10
276.8948701601398
 20
25.98659177336965
 30
0.0
 10
276.8075564195369
 20
26.01687307819604
 30
0.0
 10
276.7252943300707
 20
26.06090529650985
 30
0.0
 10
276.6547742825397
 20
26.11637439341771
 30
0.0
 10
276.5766590714782
 20
26.19952509712473
 30
0.0
 10
276.5144333093671
 20
26.29711234921045
 30
0.0
 10
276.4677781047591
 20
26.41114728813772
 30
0.0
 10
276.4376719818985
 20
26.50424207778675
 30
0.0
 10
276.4288497827697
 20
26.57509463459812
 30
0.0
 10
276.4242761686727
 20
26.61182609439738
 30
0.0
  0
SPLINE
  5
19E
330
1F
100
AcDbEntity
  8
0
  6
Continuous
 62
     7
370
    15
100
AcDbSpline
210
0.0
220
0.0
230
1.0
 70
     8
 71
     3
 72
    13
 73
     9
 74
     0
 42
0.000000001
 43
0.00000001
 40
0.0
 40
0.0
 40
0.0
 40
0.0
 40
0.0060267583406436
 40
0.1397542760736084
 40
0.3665892782944498
 40
0.5784443633022444
 40
0.7953041725633648
 40
0.9999999999999999
 40
0.9999999999999999
 40
0.9999999999999999
 40
0.9999999999999999
 10
278.6276912136492
 20
30.21786597308759
 30
0.0
 10
278.6276806389534
 20
30.21769063438212
 30
0.0
 10
278.627435422724
 20
30.21362471163125
 30
0.0
 10
278.6131534284793
 20
30.18859421509174
 30
0.0
 10
278.5852471654434
 20
30.14560029637249
 30
0.0
 10
278.5432792014597
 20
30.08837909302049
 30
0.0
 10
278.4997229467975
 20
30.03160382287649
 30
0.0
 10
278.4689341503582
 20
29.99303949740067
 30
0.0
 10
278.4539839572774
 20
29.9743137211908
 30
0.0
  0
SPLINE
  5
19F
330
1F
100
AcDbEntity
  8
0
  6
Continuous
 62
     7
370
    15
100
AcDbSpline
210
0.0
220
0.0
230
1.0
 70
     8
 71
     3
 72
    16
 73
    12
 74
     0
 42
0.000000001
 43
0.00000001
 40
0.0
 40
0.0
 40
0.0
 40
0.0
 40
0.2500000000000062
 40
0.2500000000000062
 40
0.5000000000000123
 40
0.5000000000000123
 40
0.6250000000000154
 40
0.6250000000000154
 40
0.7500000000000184
 40
0.7500000000000184
 40
1.0
 40
1.0
 40
1.0
 40
1.0
 10
285.8532235808669
 20
34.2458036966328
 30
0.0
 10
285.8217341117815
 20
34.2486188947162
 30
0.0
 10
285.7877285993911
 20
34.25006799239382
 30
0.0
 10
285.7108271161827
 20
34.24813942498119
 30
0.0
 10
285.6678733002964
 20
34.24498409850494
 30
0.0
 10
285.5942791189952
 20
34.23119101787112
 30
0.0
 10
285.5682357705923
 20
34.2248591175114
 30
0.0
 10
285.5199361452495
 20
34.20928094711341
 30
0.0
 10
285.4977865463473
 20
34.2000652003886
 30
0.0
 10
285.4428058366785
 20
34.17198305463968
 30
0.0
 10
285.4207324370718
 20
34.15361878990811
 30
0.0
 10
285.4042425790184
 20
34.13644662994075
 30
0.0
  0
SPLINE
  5
1A0
330
1F
100
AcDbEntity
  8
0
  6
Continuous
 62
     7
370
    15
100
AcDbSpline
210
0.0
220
0.0
230
1.0
 70
     8
 71
     3
 72
     8
 73
     4
 74
     0
 42
0.000000001
 43
0.00000001
 40
0.0
 40
0.0
 40
0.0
 40
0.0
 40
1.0
 40
1.0
 40
1.0
 40
1.0
 10
285.4042425790184
 20
34.13644662994061
 30
0.0
 10
285.353867058608
 20
34.15561932344153
 30
0.0
 10
285.3023272844057
 20
34.17834242433454
 30
0.0
 10
285.26345714665
 20
34.20078167722799
 30
0.0
  0
LINE
  5
1A1
330
1F
100
AcDbEntity
  8
0
  6
Continuous
 62
     7
370
    15
100
AcDbLine
 10
284.6205375402
 20
34.810037384
 30
0.0
 11
284.4911470299
 21
34.8780134647
 31
0.0
  0
LINE
  5
1A2
330
1F
100
AcDbEntity
  8
0
  6
Continuous
 62
     7
370
    15
100
AcDbLine
 10
283.8493187237
 20
35.017146412
 30
0.0
 11
285.2634571467
 21
34.2007816772
 31
0.0
  0
ARC
  5
1A3
330
1F
100
AcDbEntity
  8
0
  6
Continuous
 62
     7
370
    15
100
AcDbCircle
 10
275.4974970622
 20
34.3458100187
 30
0.0
 40
6.792220349291262
100
AcDbArc
 50
338.0789444274
 51
2.3341413816
  0
LINE
  5
1A4
330
1F
100
AcDbEntity
  8
0
  6
Continuous
 62
     7
370
    15
100
AcDbLine
 10
281.7986339188
 20
31.8100790418
 30
0.0
 11
285.2634571467
 21
29.8098791678
 31
0.0
  0
LINE
  5
1A5
330
1F
100
AcDbEntity
  8
0
  6
Continuous
 62
     7
370
    15
100
AcDbLine
 10
279.1209845107
 20
25.2834998978
 30
0.0
 11
279.2503814883
 21
25.215520741
 31
0.0
  0
LINE
  5
1A6
330
1F
100
AcDbEntity
  8
0
  6
Continuous
 62
     7
370
    15
100
AcDbLine
 10
276.4740480647
 20
27.0496499009
 30
0.0
 11
278.4780649042
 21
25.8927556046
 31
0.0
  0
LINE
  5
1A7
330
1F
100
AcDbEntity
  8
0
  6
Continuous
 62
     7
370
    15
100
AcDbLine
 10
278.5494115062
 20
25.8346294351
 30
0.0
 11
276.9881887014
 21
25.97422628
 31
0.0
  0
SPLINE
  5
1A8
330
1F
100
AcDbEntity
  8
0
  6
Continuous
 62
     7
370
    15
100
AcDbSpline
210
0.0
220
0.0
230
1.0
 70
     8
 71
     3
 72
    16
 73
    12
 74
     0
 42
0.000000001
 43
0.00000001
 40
0.0
 40
0.0
 40
0.0
 40
0.0
 40
0.2499999999999997
 40
0.2499999999999997
 40
0.4999999999999993
 40
0.4999999999999993
 40
0.6249999999999991
 40
0.6249999999999991
 40
0.749999999999999
 40
0.749999999999999
 40
1.0
 40
1.0
 40
1.0
 40
1.0
 10
278.4539630952857
 20
25.52120441905843
 30
0.0
 10
278.4850118493595
 20
25.51842819257034
 30
0.0
 10
278.5156855731095
 20
25.51907552930502
 30
0.0
 10
278.5721651030784
 20
25.53317637095232
 30
0.0
 10
278.5987324902714
 20
25.54609445171043
 30
0.0
 10
278.6239544131984
 20
25.58815037006383
 30
0.0
 10
278.6293250404203
 20
25.60627829700156
 30
0.0
 10
278.6303543140596
 20
25.64894413832529
 30
0.0
 10
278.6259550195859
 20
25.67340602163719
 30
0.0
 10
278.6028282234848
 20
25.74627141855948
 30
0.0
 10
278.5768007745085
 20
25.79234567842139
 30
0.0
 10
278.549411506217
 20
25.83462943513764
 30
0.0
  0
SPLINE
  5
1A9
330
1F
100
AcDbEntity
  8
0
  6
Continuous
 62
     7
370
    15
100
AcDbSpline
210
0.0
220
0.0
230
1.0
 70
     8
 71
     3
 72
     8
 73
     4
 74
     0
 42
0.000000001
 43
0.00000001
 40
0.0
 40
0.0
 40
0.0
 40
0.0
 40
1.0
 40
1.0
 40
1.0
 40
1.0
 10
278.4780649042442
 20
25.89275560461784
 30
0.0
 10
278.5170209866243
 20
25.87026673694882
 30
0.0
 10
278.5395029604159
 20
25.85041249527795
 30
0.0
 10
278.549411506217
 20
25.83462943513767
 30
0.0
  0
LINE
  5
1AA
330
1F
100
AcDbEntity
  8
0
  6
Continuous
 62
     7
370
    15
100
AcDbLine
 10
242.4422853266
 20
38.7381692196
 30
0.0
 11
242.0082182265
 21
38.9887915526
 31
0.0
  0
LINE
  5
1AB
330
1F
100
AcDbEntity
  8
0
  6
Continuous
 62
     7
370
    15
100
AcDbLine
 10
246.7671515852
 20
36.2414770721
 30
0.0
 11
242.4422853266
 21
38.7381692196
 31
0.0
  0
SPLINE
  5
1AC
330
1F
100
AcDbEntity
  8
0
  6
Continuous
 62
     7
370
    15
100
AcDbSpline
210
0.0
220
0.0
230
1.0
 70
     8
 71
     3
 72
    11
 73
     7
 74
     0
 42
0.000000001
 43
0.00000001
 40
0.0
 40
0.0
 40
0.0
 40
0.0
 40
0.0763291486414734
 40
0.4828240100966647
 40
0.8892344489868842
 40
0.9999999999999999
 40
0.9999999999999999
 40
0.9999999999999999
 40
0.9999999999999999
 10
246.3386452708236
 20
33.42543787391917
 30
0.0
 10
246.3382098914936
 20
33.50367701293916
 30
0.0
 10
246.3354558768377
 20
33.99858276677625
 30
0.0
 10
246.2907602196237
 20
34.93156880927359
 30
0.0
 10
246.2526851050621
 20
35.8970526175528
 30
0.0
 10
246.2647031241981
 20
36.41839137998776
 30
0.0
 10
246.2672770691176
 20
36.5300484878446
 30
0.0
  0
LINE
  5
1AD
330
1F
100
AcDbEntity
  8
0
  6
Continuous
 62
     7
370
    15
100
AcDbLine
 10
246.3386452708
 20
31.6496372449
 30
0.0
 11
246.3386452708
 21
33.4254378739
 31
0.0
  0
SPLINE
  5
1AE
330
1F
100
AcDbEntity
  8
0
  6
Continuous
 62
     7
370
    15
100
AcDbSpline
210
0.0
220
0.0
230
1.0
 70
     8
 71
     3
 72
     8
 73
     4
 74
     0
 42
0.000000001
 43
0.00000001
 40
0.0
 40
0.0
 40
0.0
 40
0.0
 40
1.0
 40
1.0
 40
1.0
 40
1.0
 10
285.2634571466509
 20
29.80987916783977
 30
0.0
 10
285.3024132290311
 20
29.78739030017073
 30
0.0
 10
285.3530815524986
 20
29.7838076918163
 30
0.0
 10
285.4042425790339
 20
29.79183918189694
 30
0.0
  0
SPLINE
  5
1AF
330
1F
100
AcDbEntity
  8
0
  6
Continuous
 62
     7
370
    15
100
AcDbSpline
210
0.0
220
0.0
230
1.0
 70
     8
 71
     3
 72
    16
 73
    12
 74
     0
 42
0.000000001
 43
0.00000001
 40
0.0
 40
0.0
 40
0.0
 40
0.0
 40
0.2499999999999832
 40
0.2499999999999832
 40
0.374999999999986
 40
0.374999999999986
 40
0.4999999999999888
 40
0.4999999999999888
 40
0.7499999999999943
 40
0.7499999999999943
 40
1.0
 40
1.0
 40
1.0
 40
1.0
 10
285.404242579034
 20
29.79183918189687
 30
0.0
 10
285.4205582861816
 20
29.74330043085802
 30
0.0
 10
285.4429331032133
 20
29.69446837752518
 30
0.0
 10
285.4970677405595
 20
29.6402675821783
 30
0.0
 10
285.5190015302426
 20
29.62593954373484
 30
0.0
 10
285.5671165500155
 20
29.61145142957316
 30
0.0
 10
285.5930848637182
 20
29.61133485333117
 30
0.0
 10
285.6667324773211
 20
29.62642578617595
 30
0.0
 10
285.7101529693281
 20
29.65386253584241
 30
0.0
 10
285.7873566164521
 20
29.7167704921742
 30
0.0
 10
285.8219795438262
 20
29.75382542364508
 30
0.0
 10
285.8532443805587
 20
29.79271858331104
 30
0.0
  0
LINE
  5
1B0
330
1F
100
AcDbEntity
  8
0
  6
Continuous
 62
     7
370
    15
100
AcDbLine
 10
245.4105676205
 20
36.8382636211
 30
0.0
 11
245.4116086478
 21
37.0240153531
 31
0.0
  0
ARC
  5
1B1
330
1F
100
AcDbEntity
  8
0
  6
Continuous
 62
     7
370
    15
100
AcDbCircle
 10
257.3676473397
 20
36.5767044438
 30
0.0
 40
11.95994015934509
100
AcDbArc
 50
178.7468639795
 51
202.7557767409
  0
LWPOLYLINE
  5
1B2
330
1F
100
AcDbEntity
  8
0
  6
Continuous
 62
     7
370
    15
100
AcDbPolyline
 90
        3
 70
   128
 43
0.0
 10
226.7317824692
 20
73.5098781088
 10
226.7470997925
 20
73.5051858918
 10
226.9022694952
 20
73.4533131543
  0
LINE
  5
1B3
330
1F
100
AcDbEntity
  8
0
  6
Continuous
 62
     7
370
    15
100
AcDbLine
 10
216.7929148198
 20
55.9414997834
 30
0.0
 11
216.6787151929
 21
56.04224511
 31
0.0
  0
SPLINE
  5
1B4
330
1F
100
AcDbEntity
  8
0
  6
Continuous
 62
     7
370
    15
100
AcDbSpline
210
0.0
220
0.0
230
1.0
 70
     8
 71
     3
 72
    26
 73
    22
 74
     0
 42
0.000000001
 43
0.00000001
 40
0.0
 40
0.0
 40
0.0
 40
0.0
 40
0.1249999999999999
 40
0.1249999999999999
 40
0.1874999999999998
 40
0.1874999999999998
 40
0.2499999999999997
 40
0.2499999999999997
 40
0.3749999999999997
 40
0.3749999999999997
 40
0.4999999999999996
 40
0.4999999999999996
 40
0.6249999999999994
 40
0.6249999999999994
 40
0.6874999999999996
 40
0.6874999999999996
 40
0.7499999999999996
 40
0.7499999999999996
 40
0.8749999999999999
 40
0.8749999999999999
 40
1.0
 40
1.0
 40
1.0
 40
1.0
 10
286.9654653838967
 20
31.73398550887908
 30
0.0
 10
287.0517729130073
 20
31.8413512545824
 30
0.0
 10
287.1297709165619
 20
31.9555115133641
 30
0.0
 10
287.233356725981
 20
32.1373935748787
 30
0.0
 10
287.2658290281047
 20
32.20025780766972
 30
0.0
 10
287.32470607322
 20
32.3263313206927
 30
0.0
 10
287.3512454512846
 20
32.38975832038572
 30
0.0
 10
287.422318866935
 20
32.58119375894161
 30
0.0
 10
287.4585697508614
 20
32.71213304842752
 30
0.0
 10
287.5051106039016
 20
32.96354498090168
 30
0.0
 10
287.5160780530903
 20
33.08613224138851
 30
0.0
 10
287.5134422768537
 20
33.31657391006767
 30
0.0
 10
287.5001043243227
 20
33.42197612720656
 30
0.0
 10
287.4626162949178
 20
33.56508065491798
 30
0.0
 10
287.4471169416422
 20
33.61014547921324
 30
0.0
 10
287.4110544476163
 20
33.69256583688554
 30
0.0
 10
287.3903731047657
 20
33.73031382963735
 30
0.0
 10
287.320290318041
 20
33.83330262502216
 30
0.0
 10
287.262341228243
 20
33.88828855894567
 30
0.0
 10
287.1287359496038
 20
33.96559793735712
 30
0.0
 10
287.0517813024138
 20
33.98913183535911
 30
0.0
 10
286.9654653887399
 20
33.99684978230659
 30
0.0
  0
LINE
  5
1B5
330
1F
100
AcDbEntity
  8
0
  6
Continuous
 62
     7
370
    15
100
AcDbLine
 10
286.9654653887
 20
33.9968497823
 30
0.0
 11
285.404242579
 21
34.1364466299
 31
0.0
  0
ARC
  5
1B6
330
1F
100
AcDbEntity
  8
0
  6
Continuous
 62
     7
370
    15
100
AcDbCircle
 10
281.4024817646
 20
35.4257245603
 30
0.0
 40
2.574168997253752
100
AcDbArc
 50
320.7034755418
 51
349.7435996042
  0
LINE
  5
1B7
330
1F
100
AcDbEntity
  8
0
  6
Continuous
 62
     7
370
    15
100
AcDbLine
 10
285.404242579
 20
29.7918391819
 30
0.0
 11
286.9654653839
 21
31.7339855089
 31
0.0
  0
LINE
  5
1B8
330
1F
100
AcDbEntity
  8
0
  6
Continuous
 62
     7
370
    15
100
AcDbLine
 10
281.7986339188
 20
31.8100790418
 30
0.0
 11
283.3945761389
 21
33.7954159912
 31
0.0
  0
LWPOLYLINE
  5
1B9
330
1F
100
AcDbEntity
  8
0
  6
Continuous
 62
     7
370
    15
100
AcDbPolyline
 90
       10
 70
   128
 43
0.0
 10
253.7482132686
 20
18.0761457406
 10
252.9368202009
 20
18.24688166
 10
251.7781868596
 20
18.63406357
 10
250.6998867848
 20
19.1755590745
 10
249.7094379418
 20
19.8675928381
 10
248.8137457927
 20
20.7053399646
 10
248.0190551505
 20
21.6829596366
 10
247.3309066406
 20
22.793635838
 10
246.754098071
 20
24.0296248752
 10
246.2926509815
 20
25.3823093671
  0
SPLINE
  5
1BA
330
1F
100
AcDbEntity
  8
0
  6
Continuous
 62
     7
370
    15
100
AcDbSpline
210
0.0
220
0.0
230
1.0
 70
     8
 71
     3
 72
     8
 73
     4
 74
     0
 42
0.000000001
 43
0.00000001
 40
0.0000000000000006
 40
0.0000000000000006
 40
0.0000000000000006
 40
0.0000000000000006
 40
0.001241704756042
 40
0.001241704756042
 40
0.001241704756042
 40
0.001241704756042
 10
246.7671515851672
 20
25.74892763941257
 30
0.0
 10
246.6090914276568
 20
25.62652443440806
 30
0.0
 10
246.4509221219756
 20
25.50432220443961
 30
0.0
 10
246.2926509815148
 20
25.3823093671285
 30
0.0
  0
SPLINE
  5
1BB
330
1F
100
AcDbEntity
  8
0
  6
Continuous
 62
     7
370
    15
100
AcDbSpline
210
0.0
220
0.0
230
1.0
 70
     8
 71
     3
 72
     8
 73
     4
 74
     0
 42
0.000000001
 43
0.00000001
 40
0.0
 40
0.0
 40
0.0
 40
0.0
 40
1.0
 40
1.0
 40
1.0
 40
1.0
 10
246.7671515851663
 20
25.74892763941448
 30
0.0
 10
247.9383841698414
 20
25.94120726974238
 30
0.0
 10
249.1090035444332
 20
26.13479493695253
 30
0.0
 10
250.2786127296151
 20
26.3303482286231
 30
0.0
  0
SPLINE
  5
1BC
330
1F
100
AcDbEntity
  8
0
  6
Continuous
 62
     7
370
    15
100
AcDbSpline
210
0.0
220
0.0
230
1.0
 70
     8
 71
     3
 72
    10
 73
     6
 74
     0
 42
0.000000001
 43
0.00000001
 40
0.0
 40
0.0
 40
0.0
 40
0.0
 40
0.5
 40
0.5
 40
1.0
 40
1.0
 40
1.0
 40
1.0
 10
250.2786127296151
 20
26.33034822862311
 30
0.0
 10
250.3203785906295
 20
26.33733128903705
 30
0.0
 10
250.3642758764436
 20
26.34062138004542
 30
0.0
 10
250.4519032592335
 20
26.33895840561638
 30
0.0
 10
250.4944085562942
 20
26.33416629906564
 30
0.0
 10
250.5354897579933
 20
26.32523175352862
 30
0.0
  0
LINE
  5
1BD
330
1F
100
AcDbEntity
  8
0
  6
Continuous
 62
     7
370
    15
100
AcDbLine
 10
242.4422853266
 20
28.2456197869
 30
0.0
 11
246.7671515852
 21
25.7489276394
 31
0.0
  0
LINE
  5
1BE
330
1F
100
AcDbEntity
  8
0
  6
Continuous
 62
     7
370
    15
100
AcDbLine
 10
242.4422853266
 20
28.2456197869
 30
0.0
 11
245.9850918802
 21
30.2908384766
 31
0.0
  0
LINE
  5
1BF
330
1F
100
AcDbEntity
  8
0
  6
Continuous
 62
     7
370
    15
100
AcDbLine
 10
242.0082182265
 20
27.9949974539
 30
0.0
 11
242.4422853266
 21
28.2456197869
 31
0.0
  0
LINE
  5
1C0
330
1F
100
AcDbEntity
  8
0
  6
Continuous
 62
     7
370
    15
100
AcDbLine
 10
246.2926509815
 20
25.3823093671
 30
0.0
 11
242.1649151463
 21
27.7652005435
 31
0.0
  0
SPLINE
  5
1C1
330
1F
100
AcDbEntity
  8
0
  6
Continuous
 62
     7
370
    15
100
AcDbSpline
210
0.0
220
0.0
230
1.0
 70
     8
 71
     3
 72
     8
 73
     4
 74
     0
 42
0.000000001
 43
0.00000001
 40
0.0
 40
0.0
 40
0.0
 40
0.0
 40
1.0
 40
1.0
 40
1.0
 40
1.0
 10
242.1649151463383
 20
27.76520054351103
 30
0.0
 10
242.0846959171722
 20
27.81151011878163
 30
0.0
 10
242.0303061548864
 20
27.89517295979043
 30
0.0
 10
242.0082182265275
 20
27.99499745389746
 30
0.0
  0
ARC
  5
1C2
330
1F
100
AcDbEntity
  8
0
  6
Continuous
 62
     7
370
    15
100
AcDbCircle
 10
251.1870849655
 20
29.1838307737
 30
0.0
 40
8.91231200914819
100
AcDbArc
 50
214.6160533681
 51
239.573871766
  0
ELLIPSE
  5
1C3
330
1F
100
AcDbEntity
  8
0
  6
Continuous
 62
     7
370
    15
100
AcDbEllipse
 10
245.6921986614
 20
31.2764629446
 30
0.0
 11
-7.507462979106096E-5
 21
1.066811201853405
 31
0.0
210
0.0
220
0.0
230
1.0
 40
0.7174342186
 41
3.534193645557501
 42
5.104989972352389
  0
ELLIPSE
  5
1C4
330
1F
100
AcDbEntity
  8
0
  6
Continuous
 62
     7
370
    15
100
AcDbEllipse
 10
245.6315384896
 20
31.241433189
 30
0.0
 11
0.3250094736511642
 21
1.213179526238669
 31
0.0
210
0.0
220
0.0
230
1.0
 40
0.5176380889
 41
3.619174351347721
 42
5.189970678142624
  0
LWPOLYLINE
  5
1C5
330
1F
100
AcDbEntity
  8
0
  6
Continuous
 62
     7
370
     0
100
AcDbPolyline
 90
       43
 70
   128
 43
0.0
 10
253.8693324905
 20
26.2096505154
 10
253.9317428173
 20
27.9422429416
 10
254.1185241302
 20
29.7344094293
 10
254.4283306652
 20
31.5732373779
 10
254.8589302595
 20
33.4454779898
 10
255.4072204328
 20
35.3376417287
 10
256.0692507421
 20
37.2360955113
 10
256.8402512437
 20
39.1271609347
 10
257.7146668614
 20
40.9972128291
 10
258.6861974106
 20
42.8327774278
 10
259.7478429914
 20
44.6206294459
 10
260.8919544231
 20
46.3478873685
 10
262.1102883566
 20
48.0021062627
 10
263.3940666681
 20
49.5713674436
 10
264.7340397053
 20
51.0443643482
 10
266.1205529318
 20
52.4104840003
 10
267.543616488
 20
53.6598834763
 10
268.9929771685
 20
54.7835608245
 10
270.4581922963
 20
55.7734199237
 10
271.9287049628
 20
56.6223288166
 10
273.3939200906
 20
57.324171095
 10
274.843280771
 20
57.8738899692
 10
276.2663443273
 20
58.2675247023
 10
277.6528575538
 20
58.5022391469
 10
278.992830591
 20
58.57634218
 10
280.2766089024
 20
58.4892998876
 10
281.494942836
 20
58.2417394115
 10
282.6390542677
 20
57.8354444305
 10
283.7006998485
 20
57.2733423092
 10
284.6722303977
 20
56.5594830064
 10
285.5466460154
 20
55.6990098946
 10
286.317646517
 20
54.6981227024
 10
286.9796768262
 20
53.5640328449
 10
287.5279669996
 20
52.3049114656
 10
287.9585665938
 20
50.9298305627
 10
288.2683731289
 20
49.4486976258
 10
288.4551544417
 20
47.8721842516
 10
288.5175647686
 20
46.211649255
 10
288.4551544417
 20
44.4790568288
 10
288.2683731289
 20
42.6868903411
 10
287.9585665938
 20
40.8480623925
 10
287.5279669996
 20
38.9758217805
 10
287.2964537443
 20
38.1290344134
  0
LWPOLYLINE
  5
1C6
330
1F
100
AcDbEntity
  8
0
  6
Continuous
 62
     7
370
     0
100
AcDbPolyline
 90
       24
 70
   128
 43
0.0
 10
277.5849800631
 20
21.3064458186
 10
276.2663443273
 20
20.0108157701
 10
274.843280771
 20
18.761416294
 10
273.3939200906
 20
17.6377389459
 10
271.9287049628
 20
16.6478798466
 10
270.4581922963
 20
15.7989709538
 10
268.9929771685
 20
15.0971286754
 10
267.543616488
 20
14.5474098011
 10
266.1205529318
 20
14.1537750681
 10
264.7340397053
 20
13.9190606235
 10
263.3940666681
 20
13.8449575904
 10
262.1102883566
 20
13.9319998827
 10
260.8919544231
 20
14.1795603589
 10
259.7478429914
 20
14.5858553399
 10
258.6861974106
 20
15.1479574612
 10
257.7146668614
 20
15.861816764
 10
256.8402512437
 20
16.7222898757
 10
256.0692507421
 20
17.7231770679
 10
255.4072204328
 20
18.8572669254
 10
254.8589302595
 20
20.1163883048
 10
254.4283306652
 20
21.4914692076
 10
254.1185241302
 20
22.9726021445
 10
253.9317428173
 20
24.5491155188
 10
253.8693324905
 20
26.2096505154
  0
LWPOLYLINE
  5
1C7
330
1F
100
AcDbEntity
  8
0
  6
Continuous
 62
     7
370
     0
100
AcDbPolyline
 90
       27
 70
   128
 43
0.0
 10
253.1622257093
 20
26.2096505154
 10
253.2242237845
 20
27.9536005956
 10
253.409783138
 20
29.756899573
 10
253.7176022045
 20
31.606898601
 10
254.1455218543
 20
33.4906212654
 10
254.6905405384
 20
35.3948546054
 10
255.3488353425
 20
37.3062417922
 10
256.1157888014
 20
39.2113758181
 10
256.9860212878
 20
41.0968935366
 10
257.9534287459
 20
42.9495693957
 10
259.0112255075
 20
44.7564082055
 10
260.1519918885
 20
46.5047362898
 10
261.3677262322
 20
48.1822903834
 10
262.6499010357
 20
49.7773036496
 10
263.989522764
 20
51.2785882163
 10
265.3771949333
 20
52.675613651
 10
266.8031840203
 20
53.9585808241
 10
268.2574877361
 20
55.1184906425
 10
269.7299051851
 20
56.1472071724
 10
271.2101084168
 20
57.0375147064
 10
272.687714869
 20
57.7831683768
 10
274.1523601942
 20
58.3789379589
 10
275.5937709578
 20
58.8206445572
 10
277.0018366988
 20
59.1051899171
 10
278.3666808478
 20
59.2305781576
 10
279.6787300038
 20
59.19592977
 10
279.7215273887
 20
59.1920107854
  0
ARC
  5
1C8
330
1F
100
AcDbEntity
  8
0
  6
Continuous
 62
     7
370
     0
100
AcDbCircle
 10
268.5306664024
 20
25.6009096884
 30
0.0
 40
15.38049201853239
100
AcDbArc
 50
177.7317115345
 51
212.7926336904
  0
LWPOLYLINE
  5
1C9
330
1F
100
AcDbEntity
  8
0
  6
Continuous
 62
     7
370
     0
100
AcDbPolyline
 90
       25
 70
   128
 43
0.0
 10
262.8849439506
 20
31.4142522282
 10
262.9479181814
 20
32.6296403073
 10
263.1358862489
 20
33.8993128413
 10
263.4459987485
 20
35.2040228888
 10
263.8735546911
 20
36.5239923755
 10
264.4120727643
 20
37.8392119094
 10
265.053389583
 20
39.1297441031
 10
265.7877834381
 20
40.3760258041
 10
266.6041216672
 20
41.559164652
 10
267.490029415
 20
42.6612254681
 10
268.432077223
 20
43.6655021336
 10
269.4159846067
 20
44.5567708382
 10
270.4268365332
 20
45.3215208567
 10
271.4493095176
 20
45.9481593583
 10
272.4679039118
 20
46.4271871422
 10
273.467178863
 20
46.7513426355
 10
274.4319863816
 20
46.9157119713
 10
275.347700969
 20
46.9178034779
 10
276.2004413256
 20
46.7575854504
 10
276.9772807767
 20
46.4374866307
 10
277.6664432283
 20
45.9623593905
 10
278.2574816799
 20
45.3394061746
 10
278.7414365911
 20
44.5780703187
 10
279.1109716988
 20
43.6898928983
 10
279.3470381445
 20
42.7617081445
  0
LWPOLYLINE
  5
1CA
330
1F
100
AcDbEntity
  8
0
  6
Continuous
 62
     7
370
     0
100
AcDbPolyline
 90
       13
 70
   128
 43
0.0
 10
269.5978305013
 20
25.8737553281
 10
269.4159846067
 20
25.8123126541
 10
268.432077223
 20
25.5675860737
 10
267.490029415
 20
25.4841974918
 10
266.6041216672
 20
25.5634109942
 10
265.7877834381
 20
25.804025785
 10
265.053389583
 20
26.2023943892
 10
264.4120727643
 20
26.7524779449
 10
263.8735546911
 20
27.445937746
 10
263.4459987485
 20
28.272261649
 10
263.1358862489
 20
29.2189234257
 10
262.9479181814
 20
30.2715726485
 10
262.8849439506
 20
31.4142522282
  0
LWPOLYLINE
  5
1CB
330
1F
100
AcDbEntity
  8
0
  6
Continuous
 62
     7
370
     0
100
AcDbPolyline
 90
       21
 70
   128
 43
0.0
 10
250.2786127296
 20
36.8228976614
 10
250.7482582414
 20
38.5823255918
 10
251.3324267302
 20
40.3527813948
 10
252.0263400489
 20
42.1197838056
 10
252.8243224034
 20
43.8688798061
 10
253.7198467775
 20
45.5857628421
 10
254.7055883198
 20
47.2563898418
 10
255.7734842569
 20
48.8670960801
 10
256.9147998416
 20
50.4047069478
 10
258.1201997982
 20
51.8566457119
 10
259.3798246792
 20
53.2110363856
 10
260.68337151
 20
54.456800867
 10
262.0201780608
 20
55.5837495511
 10
263.379310057
 20
56.5826646749
 10
264.7496506157
 20
57.4453757127
 10
266.1199911744
 20
58.1648262067
 10
267.4791231706
 20
58.735131484
 10
268.8159297213
 20
59.1516267902
 10
270.1194765521
 20
59.4109054439
 10
271.3791014332
 20
59.5108467015
 10
271.5356192967
 20
59.512080277
  0
LWPOLYLINE
  5
1CC
330
1F
100
AcDbEntity
  8
0
  6
Continuous
 62
     7
370
     0
100
AcDbPolyline
 90
       23
 70
   128
 43
0.0
 10
242.1649151463
 20
38.8983436694
 10
242.6263622358
 20
40.7838036304
 10
243.2031708055
 20
42.6857616666
 10
243.8913193153
 20
44.5909572256
 10
244.6860099575
 20
46.4861071829
 10
245.5817021067
 20
48.3579984524
 10
246.5721509496
 20
50.1935801089
 10
247.6504510244
 20
51.9800543797
 10
248.8090843658
 20
53.7049658713
 10
250.0399729205
 20
55.3562884094
 10
251.3345348684
 20
56.9225088855
 10
252.6837444548
 20
58.3927075273
 10
254.0781949189
 20
59.7566340321
 10
255.508164078
 20
61.0047790317
 10
256.9636821114
 20
62.128440393
 10
258.43460107
 20
63.1197838894
 10
259.9106656288
 20
63.9718978215
 10
261.3815845873
 20
64.6788412056
 10
262.8371026207
 20
65.235685195
 10
264.2670717798
 20
65.6385474438
 10
265.6615222439
 20
65.8846191752
 10
267.0107318303
 20
65.9721847638
 10
268.0237271962
 20
65.9301929852
  0
LWPOLYLINE
  5
1CD
330
1F
100
AcDbEntity
  8
0
  6
Continuous
 62
     7
370
     0
100
AcDbPolyline
 90
       20
 70
   128
 43
0.0
 10
250.6714191052
 20
36.7652512045
 10
251.1391470519
 20
38.5048847369
 10
251.7196934619
 20
40.254975597
 10
252.4083312176
 20
42.0012736142
 10
253.1994530643
 20
43.7295595013
 10
254.086617267
 20
45.4257606355
 10
255.062600063
 20
47.076065645
 10
256.1194544813
 20
48.6670368687
 10
257.2485750513
 20
50.1857197729
 10
258.4407678726
 20
51.6197484336
 10
259.6863254773
 20
52.9574462268
 10
260.9751058729
 20
54.1879209057
 10
262.2966151241
 20
55.3011532909
 10
263.6400927997
 20
56.2880788524
 10
264.99459959
 20
57.1406615174
 10
266.3491063802
 20
57.8519591043
 10
267.6925840558
 20
58.41617985
 10
269.014093307
 20
58.828729569
 10
270.3028737027
 20
59.0862490621
 10
270.6031260391
 20
59.1243863427
  0
LWPOLYLINE
  5
1CE
330
1F
100
AcDbEntity
  8
0
  6
Continuous
 62
     7
370
     0
100
AcDbPolyline
 90
        7
 70
   128
 43
0.0
 10
265.7133710753
 20
31.4142522282
 10
265.7748854695
 20
30.3886299042
 10
265.9583309261
 20
29.4523328426
 10
266.2604338567
 20
28.6220692866
 10
266.6758032273
 20
27.9126553091
 10
267.1970267617
 20
27.3367504193
 10
267.7330583703
 20
26.9502653652
  0
LWPOLYLINE
  5
1CF
330
1F
100
AcDbEntity
  8
0
  6
Continuous
 62
     7
370
     0
100
AcDbPolyline
 90
       19
 70
   128
 43
0.0
 10
277.4822660135
 20
43.8382181816
 10
277.0588085535
 20
44.0434774221
 10
276.3173585793
 20
44.2462993248
 10
275.5097089852
 20
44.2911560508
 10
274.6502722973
 20
44.1772471307
 10
273.7543851836
 20
43.9066052719
 10
272.838034771
 20
43.4840600848
 10
271.9175733543
 20
42.9171518984
 10
271.0094265893
 20
42.2159972025
 10
270.1298003764
 20
41.3931081193
 10
269.2943916663
 20
40.4631691242
 10
268.5181083473
 20
39.4427750003
 10
267.8148032135
 20
38.3501347051
 10
267.1970267617
 20
37.2047464305
 10
266.6758032273
 20
36.0270496574
 10
266.2604338567
 20
34.8380604127
 10
265.9583309261
 20
33.6589962375
 10
265.7748854695
 20
32.5108975599
 10
265.7133710753
 20
31.4142522282
  0
LWPOLYLINE
  5
1D0
330
1F
100
AcDbEntity
  8
0
  6
Continuous
 62
     7
370
     0
100
AcDbPolyline
 90
       13
 70
   128
 43
0.0
 10
278.4539630953
 20
25.5212044191
 10
278.8633508861
 20
25.022094636
 10
279.3810992807
 20
24.6830890872
 10
279.9901568451
 20
24.5153525212
 10
280.6704649856
 20
24.5244091442
 10
281.3996185546
 20
24.7099606872
 10
282.1536037379
 20
25.0658962284
 10
282.9075889212
 20
25.58049345
 10
283.6367424903
 20
26.2368046983
 10
284.3170506308
 20
27.0132151352
 10
284.9261081952
 20
27.884154597
 10
285.4438565897
 20
28.820939718
 10
285.8532443806
 20
29.7927185833
  0
LWPOLYLINE
  5
1D1
330
1F
100
AcDbEntity
  8
0
  6
Continuous
 62
     7
370
     0
100
AcDbPolyline
 90
       13
 70
   128
 43
0.0
 10
285.8532235809
 20
34.2458036966
 10
285.4438335383
 20
34.7449002388
 10
284.9260857927
 20
35.0838950245
 10
284.3170314194
 20
35.2516238802
 10
283.6367285108
 20
35.2425629627
 10
282.9075815992
 20
35.0570106767
 10
282.1536038053
 20
34.7010778476
 10
281.3996260092
 20
34.1864864723
 10
280.6704790911
 20
33.530183677
 10
279.9901761717
 20
32.7537835944
 10
279.3811217838
 20
31.8828555416
 10
278.8633740204
 20
30.946081942
 10
278.4539839573
 20
29.9743137212
  0
LINE
  5
1D2
330
1F
100
AcDbEntity
  8
0
  6
Continuous
 62
     7
370
     0
100
AcDbLine
 10
250.535489758
 20
26.3252317535
 30
0.0
 11
251.6949791383
 21
26.9945907251
 31
0.0
  0
LINE
  5
1D3
330
1F
100
AcDbEntity
  8
0
  6
Continuous
 62
     7
370
     0
100
AcDbLine
 10
252.0809288488
 20
26.7907516578
 30
0.0
 11
251.6949791383
 21
26.9945907251
 31
0.0
  0
LINE
  5
1D4
330
1F
100
AcDbEntity
  8
0
  6
Continuous
 62
     7
370
     0
100
AcDbLine
 10
276.9881887014
 20
25.97422628
 30
0.0
 11
277.076577049
 21
25.6443634874
 31
0.0
  0
LWPOLYLINE
  5
1D5
330
1F
100
AcDbEntity
  8
0
  6
Continuous
 62
     7
370
     0
100
AcDbPolyline
 90
        3
 70
   128
 43
0.0
 10
285.2634571467
 20
34.2007816772
 10
284.8364844556
 20
34.664051226
 10
284.6205375402
 20
34.810037384
  0
LWPOLYLINE
  5
1D6
330
1F
100
AcDbEntity
  8
0
  6
Continuous
 62
     7
370
     0
100
AcDbPolyline
 90
       11
 70
   128
 43
0.0
 10
279.2503814883
 20
25.215520741
 10
279.4418311812
 20
25.1371947243
 10
280.0685681671
 20
25.0267051734
 10
280.7620404494
 20
25.1021088371
 10
281.4965687131
 20
25.3606135137
 10
282.2449533378
 20
25.7926467615
 10
282.9794816015
 20
26.3822103664
 10
283.6729538838
 20
27.1074727573
 10
284.2996908697
 20
27.9415774295
 10
284.8364844556
 20
28.8536374431
 10
285.2634571467
 20
29.8098791678
  0
LINE
  5
1D7
330
1F
100
AcDbEntity
  8
0
  6
Continuous
 62
     7
370
     0
100
AcDbLine
 10
276.5771845835
 20
26.2114939068
 30
0.0
 11
276.9881887014
 21
25.97422628
 31
0.0
  0
ARC
  5
1D8
330
1F
100
AcDbEntity
  8
0
  6
Continuous
 62
     7
370
     0
100
AcDbCircle
 10
250.9698326774
 20
28.1705112783
 30
0.0
 40
1.381530505394332
100
AcDbArc
 50
301.6605905891
 51
324.2377952695
  0
LINE
  5
1D9
330
1F
100
AcDbEntity
  8
0
  6
Continuous
 62
     7
370
     0
100
AcDbLine
 10
246.3993054426
 20
31.6846670005
 30
0.0
 11
251.9743085098
 21
28.466286235
 31
0.0
  0
LINE
  5
1DA
330
1F
100
AcDbEntity
  8
0
  6
Continuous
 62
     7
370
     0
100
AcDbLine
 10
246.3386452708
 20
31.6496372449
 30
0.0
 11
246.3993054426
 21
31.6846670005
 31
0.0
  0
LINE
  5
1DB
330
1F
100
AcDbEntity
  8
0
  6
Continuous
 62
     7
370
     0
100
AcDbLine
 10
246.1176744017
 20
36.4300595652
 30
0.0
 11
246.118715429
 21
36.6158112972
 31
0.0
  0
LWPOLYLINE
  5
1DC
330
1F
100
AcDbEntity
  8
0
  6
Continuous
 62
     7
370
     0
100
AcDbPolyline
 90
        3
 70
   128
 43
0.0
 10
246.2712171902
 20
34.2770675125
 10
246.1790336529
 20
35.0457591221
 10
246.1176744017
 20
36.4300595652
  0
LWPOLYLINE
  5
1DD
330
1F
100
AcDbEntity
  8
0
  6
Continuous
 62
     7
370
     0
100
AcDbPolyline
 90
       18
 70
   128
 43
0.0
 10
215.184454718
 20
60.2456781565
 10
215.2459430343
 20
61.3644929878
 10
215.4293559009
 20
62.535157486
 10
215.7315550728
 20
63.7376412568
 10
216.1473698384
 20
64.9513694697
 10
216.6696854918
 20
66.1555748983
 10
217.2895650674
 20
67.329653254
 10
217.9964022537
 20
68.4535157304
 10
218.7781028706
 20
69.5079327292
 10
219.6212918037
 20
70.474862883
 10
220.5115418566
 20
71.3377617489
 10
221.4336206041
 20
72.0818648881
 10
222.3717510231
 20
72.6944404894
 10
223.3098814422
 20
73.1650072146
 10
224.2319601897
 20
73.4855135364
 10
225.1222102426
 20
73.650475503
 10
225.9653991757
 20
73.6570705692
 10
226.7317824692
 20
73.5098781088
  0
ARC
  5
1DE
330
1F
100
AcDbEntity
  8
0
  6
Continuous
 62
     7
370
     0
100
AcDbCircle
 10
220.629289784
 20
59.8139286745
 30
0.0
 40
5.461926080698362
100
AcDbArc
 50
175.4662041914
 51
223.6729441429
  0
LINE
  5
1DF
330
1F
100
AcDbEntity
  8
0
  6
Continuous
 62
     7
370
     0
100
AcDbLine
 10
287.2306304268
 20
31.5061737303
 30
0.0
 11
286.9654653839
 21
31.7339855089
 31
0.0
  0
LINE
  5
1E0
330
1F
100
AcDbEntity
  8
0
  6
Continuous
 62
     7
370
     0
100
AcDbLine
 10
283.3945761389
 20
33.7954159912
 30
0.0
 11
286.9654653839
 21
31.7339855089
 31
0.0
  0
LWPOLYLINE
  5
1E1
330
1F
100
AcDbEntity
  8
0
  6
Continuous
 62
     7
370
     0
100
AcDbPolyline
 90
        3
 70
   128
 43
0.0
 10
251.3440005027
 20
24.6565666921
 10
251.1391470519
 20
25.0762888015
 10
250.6714191052
 20
26.2758951415
  0
LWPOLYLINE
  5
1E2
330
1F
100
AcDbEntity
  8
0
  6
Continuous
 62
     7
370
     0
100
AcDbPolyline
 90
        3
 70
   128
 43
0.0
 10
251.2491080914
 20
24.1542485966
 10
250.7482582414
 20
25.1131614641
 10
250.2786127296
 20
26.3303482286
  0
LINE
  5
1E3
330
1F
100
AcDbEntity
  8
0
  6
Continuous
 62
     7
370
     0
100
AcDbLine
 10
251.6949791383
 20
26.9945907251
 30
0.0
 11
245.9850918802
 21
30.2908384766
 31
0.0
  0
ARC
  5
1E4
330
1F
100
AcDbEntity
  8
0
  6
Continuous
 62
     7
370
     0
100
AcDbCircle
 10
253.8710393659
 20
30.9731430027
 30
0.0
 40
12.13771968142825
100
AcDbArc
 50
195.3250845755
 51
214.3700100978
  0
OLE2FRAME
  5
1E5
330
1F
100
AcDbEntity
  8
0
100
AcDbOle2Frame
 70
     2
  3
Paintbrush-Bild
 10
13.8511154363
 20
38.264191557
 30
0.0
 11
51.6290888628
 21
31.9806341108
 31
0.0
 71
     2
 72
     0
 73
     1
 90
    12928
310
80552BED0767C5B32B40DDAF6807D121434000000000000000006FFBDDFB85D0
310
4940DDAF6807D121434000000000000000006FFBDDFB85D04940416F4BD60AFB
310
3F4000000000000000002BED0767C5B32B40416F4BD60AFB3F40000000000000
310
0000000000000100000000010000010000000100000000000100000000320000
310
D0CF11E0A1B11AE1000000000000000000000000000000003E000300FEFF0900
310
0600000000000000000000000100000001000000000000000010000002000000
310
01000000FEFFFFFF0000000000000000FFFFFFFFFFFFFFFFFFFFFFFFFFFFFFFF
310
FFFFFFFFFFFFFFFFFFFFFFFFFFFFFFFFFFFFFFFFFFFFFFFFFFFFFFFFFFFFFFFF
310
FFFFFFFFFFFFFFFFFFFFFFFFFFFFFFFFFFFFFFFFFFFFFFFFFFFFFFFFFFFFFFFF
310
FFFFFFFFFFFFFFFFFFFFFFFFFFFFFFFFFFFFFFFFFFFFFFFFFFFFFFFFFFFFFFFF
310
FFFFFFFFFFFFFFFFFFFFFFFFFFFFFFFFFFFFFFFFFFFFFFFFFFFFFFFFFFFFFFFF
310
FFFFFFFFFFFFFFFFFFFFFFFFFFFFFFFFFFFFFFFFFFFFFFFFFFFFFFFFFFFFFFFF
310
FFFFFFFFFFFFFFFFFFFFFFFFFFFFFFFFFFFFFFFFFFFFFFFFFFFFFFFFFFFFFFFF
310
FFFFFFFFFFFFFFFFFFFFFFFFFFFFFFFFFFFFFFFFFFFFFFFFFFFFFFFFFFFFFFFF
310
FFFFFFFFFFFFFFFFFFFFFFFFFFFFFFFFFFFFFFFFFFFFFFFFFFFFFFFFFFFFFFFF
310
FFFFFFFFFFFFFFFFFFFFFFFFFFFFFFFFFFFFFFFFFFFFFFFFFFFFFFFFFFFFFFFF
310
FFFFFFFFFFFFFFFFFFFFFFFFFFFFFFFFFFFFFFFFFFFFFFFFFFFFFFFFFFFFFFFF
310
FFFFFFFFFFFFFFFFFFFFFFFFFFFFFFFFFFFFFFFFFFFFFFFFFFFFFFFFFFFFFFFF
310
FFFFFFFFFFFFFFFFFFFFFFFFFFFFFFFFFFFFFFFFFFFFFFFFFFFFFFFFFFFFFFFF
310
FFFFFFFFFFFFFFFFFFFFFFFFFFFFFFFFFFFFFFFFFFFFFFFFFFFFFFFFFFFFFFFF
310
FDFFFFFFFEFFFFFFFEFFFFFFFEFFFFFF05000000060000000700000008000000
310
090000000A0000000B0000000C0000000D0000000E0000000F00000010000000
310
11000000120000001300000014000000150000001600000017000000FEFFFFFF
310
FFFFFFFFFFFFFFFFFFFFFFFFFFFFFFFFFFFFFFFFFFFFFFFFFFFFFFFFFFFFFFFF
310
FFFFFFFFFFFFFFFFFFFFFFFFFFFFFFFFFFFFFFFFFFFFFFFFFFFFFFFFFFFFFFFF
310
FFFFFFFFFFFFFFFFFFFFFFFFFFFFFFFFFFFFFFFFFFFFFFFFFFFFFFFFFFFFFFFF
310
FFFFFFFFFFFFFFFFFFFFFFFFFFFFFFFFFFFFFFFFFFFFFFFFFFFFFFFFFFFFFFFF
310
FFFFFFFFFFFFFFFFFFFFFFFFFFFFFFFFFFFFFFFFFFFFFFFFFFFFFFFFFFFFFFFF
310
FFFFFFFFFFFFFFFFFFFFFFFFFFFFFFFFFFFFFFFFFFFFFFFFFFFFFFFFFFFFFFFF
310
FFFFFFFFFFFFFFFFFFFFFFFFFFFFFFFFFFFFFFFFFFFFFFFFFFFFFFFFFFFFFFFF
310
FFFFFFFFFFFFFFFFFFFFFFFFFFFFFFFFFFFFFFFFFFFFFFFFFFFFFFFFFFFFFFFF
310
FFFFFFFFFFFFFFFFFFFFFFFFFFFFFFFFFFFFFFFFFFFFFFFFFFFFFFFFFFFFFFFF
310
FFFFFFFFFFFFFFFFFFFFFFFFFFFFFFFFFFFFFFFFFFFFFFFFFFFFFFFFFFFFFFFF
310
FFFFFFFFFFFFFFFFFFFFFFFFFFFFFFFFFFFFFFFFFFFFFFFFFFFFFFFFFFFFFFFF
310
FFFFFFFFFFFFFFFFFFFFFFFFFFFFFFFFFFFFFFFFFFFFFFFFFFFFFFFFFFFFFFFF
310
FFFFFFFFFFFFFFFFFFFFFFFFFFFFFFFFFFFFFFFFFFFFFFFFFFFFFFFFFFFFFFFF
310
52006F006F007400200045006E00740072007900000000000000000000000000
310
0000000000000000000000000000000000000000000000000000000000000000
310
16000500FFFFFFFFFFFFFFFF020000000A00030000000000C000000000000046
310
000000000000000000000000B00722A29920D20103000000C000000000000000
310
01004F006C006500000000000000000000000000000000000000000000000000
310
0000000000000000000000000000000000000000000000000000000000000000
310
0A000200FFFFFFFFFFFFFFFFFFFFFFFF00000000000000000000000000000000
310
0000000000000000000000000000000000000000000000001400000000000000
310
010043006F006D0070004F0062006A0000000000000000000000000000000000
310
0000000000000000000000000000000000000000000000000000000000000000
310
120002010100000003000000FFFFFFFF00000000000000000000000000000000
310
0000000000000000000000000000000000000000010000004D00000000000000
310
01004F006C006500310030004E00610074006900760065000000000000000000
310
0000000000000000000000000000000000000000000000000000000000000000
310
1A000200FFFFFFFFFFFFFFFFFFFFFFFF00000000000000000000000000000000
310
0000000000000000000000000000000000000000040000002426000000000000
310
FEFFFFFF02000000FEFFFFFFFFFFFFFFFFFFFFFFFFFFFFFFFFFFFFFFFFFFFFFF
310
FFFFFFFFFFFFFFFFFFFFFFFFFFFFFFFFFFFFFFFFFFFFFFFFFFFFFFFFFFFFFFFF
310
FFFFFFFFFFFFFFFFFFFFFFFFFFFFFFFFFFFFFFFFFFFFFFFFFFFFFFFFFFFFFFFF
310
FFFFFFFFFFFFFFFFFFFFFFFFFFFFFFFFFFFFFFFFFFFFFFFFFFFFFFFFFFFFFFFF
310
FFFFFFFFFFFFFFFFFFFFFFFFFFFFFFFFFFFFFFFFFFFFFFFFFFFFFFFFFFFFFFFF
310
FFFFFFFFFFFFFFFFFFFFFFFFFFFFFFFFFFFFFFFFFFFFFFFFFFFFFFFFFFFFFFFF
310
FFFFFFFFFFFFFFFFFFFFFFFFFFFFFFFFFFFFFFFFFFFFFFFFFFFFFFFFFFFFFFFF
310
FFFFFFFFFFFFFFFFFFFFFFFFFFFFFFFFFFFFFFFFFFFFFFFFFFFFFFFFFFFFFFFF
310
FFFFFFFFFFFFFFFFFFFFFFFFFFFFFFFFFFFFFFFFFFFFFFFFFFFFFFFFFFFFFFFF
310
FFFFFFFFFFFFFFFFFFFFFFFFFFFFFFFFFFFFFFFFFFFFFFFFFFFFFFFFFFFFFFFF
310
FFFFFFFFFFFFFFFFFFFFFFFFFFFFFFFFFFFFFFFFFFFFFFFFFFFFFFFFFFFFFFFF
310
FFFFFFFFFFFFFFFFFFFFFFFFFFFFFFFFFFFFFFFFFFFFFFFFFFFFFFFFFFFFFFFF
310
FFFFFFFFFFFFFFFFFFFFFFFFFFFFFFFFFFFFFFFFFFFFFFFFFFFFFFFFFFFFFFFF
310
FFFFFFFFFFFFFFFFFFFFFFFFFFFFFFFFFFFFFFFFFFFFFFFFFFFFFFFFFFFFFFFF
310
FFFFFFFFFFFFFFFFFFFFFFFFFFFFFFFFFFFFFFFFFFFFFFFFFFFFFFFFFFFFFFFF
310
FFFFFFFFFFFFFFFFFFFFFFFFFFFFFFFFFFFFFFFFFFFFFFFFFFFFFFFFFFFFFFFF
310
0100000200000000000000000000000000000000000000000000000000000000
310
0000000000000000000000000000000000000000000000000000000000000000
310
0100FEFF030A0000FFFFFFFF0A00030000000000C00000000000004607000000
310
5042727573680007000000504272757368000700000050427275736800F439B2
310
7100000000000000000000000000000000000000000000000000000000000000
310
0000000000000000000000000000000000000000000000000000000000000000
310
0000000000000000000000000000000000000000000000000000000000000000
310
0000000000000000000000000000000000000000000000000000000000000000
310
0000000000000000000000000000000000000000000000000000000000000000
310
0000000000000000000000000000000000000000000000000000000000000000
310
0000000000000000000000000000000000000000000000000000000000000000
310
0000000000000000000000000000000000000000000000000000000000000000
310
0000000000000000000000000000000000000000000000000000000000000000
310
0000000000000000000000000000000000000000000000000000000000000000
310
0000000000000000000000000000000000000000000000000000000000000000
310
0000000000000000000000000000000000000000000000000000000000000000
310
20260000424D0E260000000000003E00000028000000B40200006E0000000100
310
01000000000000000000130B0000130B00000200000002000000000000FFFFFF
310
FFFFFFFFFFFFFFFFFFFFFFFFFFFFFFFFFFFFFFFFFFFFFFFFFFFFFFFFFFFFFFFF
310
FFFFFFFFFFFFFFFFFFFFFFFFFFFFFFFFFFFFFFFFFFFFFFFFFFFFFFFFFFFFFFFF
310
FFFFFFFFFFFFFFFFFFFFFFFFFFFFFFFFFFFFFFFFFFFFFFFFF000FFFFFFFFFFFF
310
FFFFFFFFFFFFFFFFFFFFFFFFFFFFFFFFFFFFFFFFFFFFFFFFFFFFFFFFFFFFFFFF
310
FFFFFFFFFFFFFFFFFFFFFFFFFFFFFFFFFFFFFFFFFFFFFFFFFFFFFFFFFFFFFFFF
310
FFFFFFFFFFFFFFFFFFFFFFFFFFFFFFFFF000FFFFFFFFFFFFFFFFFFFFFFFFFFFF
310
FFFFFFFFFFFFFFFFFFFFFFFFFFFFFFFFFFFFFFFFFFFFFFFFFFFFFFFFFFFFFFFF
310
FFFFFFFFFFFFFFFFFFFFFFFFFFFFFFFFFFFFFFFFFFFFFFFFFFFFFFFFFFFFFFFF
310
FFFFFFFFFFFFFFFFF000FFFFFFFFFFFFFFFFFFFFFFFFFFFFFFFFFFFFFFFFFFFF
310
FFFFFFFFFFFFFFFFFFFFFFFFFFFFFFFFFFFFFFFFFFFFFFFFFFFFFFFFFFFFFFFF
310
FFFFFFFFFFFFFFFFFFFFFFFFFFFFFFFFFFFFFFFFFFFFFFFFFFFFFFFFFFFFFFFF
310
F000FFFFFFFFFFFFFFFFFFFFFFFFFFFFFFFFFFFFFFFFFFFFFFFFFFFFFFFFFFFF
310
FFFFFFFFFFFFFFFFFFFFFFFFFFFFFFFFFFFFFFFFFFFFFFFFFFFFFFFFFFFFFFFF
310
FFFFFFFFFFFFFFFFFFFFFFFFFFFFFFFFFFFFFFFFFFFFFFFFF000FFFFFFFFFFFF
310
FFFFFFFFFFFFFFFFFFFFFFFFFFFFFFFFFFFFFFFFFFFFFFFFFFFFFFFFFFFFFFFF
310
FFFFFFFFFFFFFFFFFFFFFFFFFFFFFFFFFFFFFFFFFFFFFFFFFFFFFFFFFFFFFFFF
310
FFFFFFFFFFFFFFFFFFFFFFFFFFFFFFFFF000FFFFFFFFFFFFFFFFFFFFFFFFFFFF
310
FFFFFFFFFFFFFFFFFFFFFFFFFFFFFFFFFFFFFFFFFFFFFFFFFFFFFFFFFFFFFFFF
310
FFFFFFFFFFFFFFFFFFFFFFFFFFFFFFFFFFFFFFFFFFFFFFFFFFFFFFFFFFFFFFFF
310
FFFFFFFFFFFFFFFFF000FFFFFFFFFFFFFFFFFFFFFFFFFFFFFFFFFFFFFFFFFFFF
310
FFFFFFFFFFFFFFFFFFFFFFFFFFFFFFFFFFFFFFFFFFFFFFFFFFFFFFFFFFFFFFFF
310
FFFFFFFFFFFFFFFFFFFFFFFFFFFFFFFFFFFFFFFFFFFFFFFFFFFFFFFFFFFFFFFF
310
F000FFFFFFFFFFFFFFFFFFFFFFFFFFFFFFFFFFFFFFFFFFFFFFFFFFFFFFFFFFFF
310
FFFFFFFFFFFFFFFFFFFFFFFFFFFFFFFFFFFFFFFFFFFFFFFFFFFFFFFFFFFFFFFF
310
FFFFFFFFFFFFFFFFFFFFFFFFFFFFFFFFFFFFFFFFFFFFFFFFF000FFFFFFFFFFFF
310
FFFFFFFFFFFFFFFFFFFFFFFFFFFFFFFFFFFFFFFFFFFFFFFFFFFFFFFFFFFFFFFF
310
FFFFFFFFFFFFFFFFFFFFFFFFFFFFFFFFFFFFFFFFFFFFFFFFFFFFFFFFFFFFFFFF
310
FFFFFFFFFFFFFFFFFFFFFFFFFFFFFFFFF000FFFFFFFFFFFFFFFFFFFFFFFFFFFF
310
FFFFFFFFFFFFFFFFFFFFFFFFFFFFFFFFFFFFFFFFFFFFFFFFFFFFFFFFFFFFFFFF
310
FFFFFFFFFFFFFFFFFFFFFFFFFFFFFFFFFFFFFFFFFFFFFFFFFFFFFFFFFFFFFFFF
310
FFFFFFFFFFFFFFFFF000FFFFFFFFFFFFFFFFFFFFFFFFFFFFFFFFFFFFFFFFFFFF
310
FFFFFFFFFFFFFFFFFFFFFFFFFFFFFFFFFFFFFFFFFFFFFFFFFFFFFFFFFFFFFFFF
310
FFFFFFFFFFFFFFFFFFFFFFFFFFFFFFFFFFFFFFFFFFFFFFFFFFFFFFFFFFFFFFFF
310
F000FFFFFFFFFFFFFFFFFFFFFFFFFFFFFFFFFFFFFFFFFFFFFFFFFFFFFFFFFFFF
310
FFFFFFFFFFFFFFFFFFFFFFFFFFFFFFFFFFFFFFFFFFFFFFFFFFFFFFFFFFFFFFFF
310
FFFFFFFFFFFFFFFFFFFFFFFFFFFFFFFFFFFFFFFFFFFFFFFFF000FFFFFFFFFFFF
310
FFFFFFFFFFFFFFFFFFFFFFFFFFFFFFFFFFFFFFFFFFFFFFFFFFFFFFFFFFFFFFFF
310
FFFFFFFFFFFFFFFFFFFFFFFFFFFFFFFFFFFFFFFFFFFFFFFFFFFFFFFFFFFFFFFF
310
FFFFFFFFFFFFFFFFFFFFFFFFFFFFFFFFF000FFFFFFFFFFFFFFFFFFFFFFFFFFFF
310
FFFFFFFFFFFFFFFFFFFFFFFFFFFFFFFFFFFFFFFFFFFFFFFFFFFFFFFFFFFFFFFF
310
FFFFFFFFFFFFFFFFFFFFFFFFFFFFFFFFFFFFFFFFFFFFFFFFFFFFFFFFFFFFFFFF
310
FFFFFFFFFFFFFFFFF000FFFFFFFFFFFFFFFFFFFFFFFFFFFFFFFFFFFFFFFFFFFF
310
FFFFFFFFFFFFFFFFFFFFFFFFFFFFFFFFFFFFFFFFFFFFFFFFFFFFFFFFFFFFFFFF
310
FFFFFFFFFFFFFFFFFFFFFFFFFFFFFFFFFFFFFFFFFFFFFFFFFFFFFFFFFFFFFFFF
310
F000FFFFFFFFFFFFFFFFFFFFFFFFFFFFFFFFFFFFFFFFFFFFFFFFFFFFFFFFFFFF
310
FFFFFFFFFFFFFFFFFFFFFFFFFFFFFFFFFFFFFFFFFFFFFFFFFFFFFFFFFFFFFFFF
310
FFFFFFFFFFFFFFFFFFFFFFFFFFFFFFFFFFFFFFFFFFFFFFFFF000FFFFFFFFFFFF
310
FFFFFFFFFFFFFFFFFFFFFFFFFFFFFFFFFFFFFFFFFFFFFFFFFFFFFFFFFFFFFFFF
310
FFFFFFFFFFFFFFFFFFFFFFFFFFFFFFFFFFFFFFFFFFFFFFFFFFFFFFFFFFFFFFFF
310
FFFFFFFFFFFFFFFFFFFFFFFFFFFFFFFFF000FFFFFFFFFFFFFFFFFFFFFFFFFFFF
310
FFFFFFFFFFFFFFFFFFFFFFFFFFFFFFFFFFFFFFFFFFFFFFFFFFFFFFFFFFFFFFFF
310
FFFFFFFFFFFFFFFFFFFFFFFFFFFFFFFFFFFFFFFFFFFFFFFFFFFFFFFFFFFFFFFF
310
FFFFFFFFFFFFFFFFF000FFFFF80003FFFFFFFFFFFFFFFFFFFFFFFFFFFFFFFFFF
310
FFFFF00007FFFFFFFFFF00007FFFFFF800000000000000007FFFFFFFFFFFFFFF
310
FFFFFFFC001FFFFFFFFFFFFFFC001FFFFFFFFFFFFFFFFFFFFFFFFFFE0007FFFF
310
F000FFFF8000007FFFFFFFF8000FFFFFC0007FFFFF80007FFFFF0000007FFFFF
310
FFF8000007FFFFF800000000000000007FFFFFF0001FFFFFFFFFFFC00001FFFF
310
FFFFFFFFC00001FFFFFFFF000000000003FFFFE000007FFFF000FFFE0000000F
310
FFFFFFF0000FFFFF80007FFFFF80007FFFFC0000001FFFFFFFC0000001FFFFF8
310
00000000000000007FFFFFF0001FFFFFFFFFFE0000003FFFFFFFFFFE0000003F
310
FFFFFF000000000003FFFF0000000FFFF000FFF800000003FFFFFFF00007FFFF
310
80007FFFFF80007FFFF000000007FFFFFF000000003FFFF80000000000000000
310
7FFFFFF0001FFFFFFFFFF80000000FFFFFFFFFF80000000FFFFFFF0000000000
310
03FFFC00000003FFF000FFE000000000FFFFFFF00007FFFF80003FFFFF80007F
310
FFC000000001FFFFFC000000001FFFF800000000000000007FFFFFF0001FFFFF
310
FFFFE000000003FFFFFFFFE000000003FFFFFF000000000003FFF000000000FF
310
F000FF80000000007FFFFFF00007FFFF80003FFFFF80007FFF8000000000FFFF
310
F80000000007FFF800000000000000007FFFFFF0001FFFFFFFFFC000000001FF
310
FFFFFFC000000001FFFFFF000000000003FFC0000000007FF000FF0000000000
310
3FFFFFE00007FFFF00003FFFFF80007FFE00000000003FFFF00000000003FFF8
310
00000000000000007FFFFFF0001FFFFFFFFF8000000000FFFFFFFF8000000000
310
FFFFFF000000000003FF80000000003FF000FE00000000001FFFFFE00003FFFF
310
00003FFFFF80007FFC00000000001FFFE00000000001FFF8000001FFFE000000
310
7FFFFFF0001FFFFFFFFE00000000003FFFFFFE00000000003FFFFF0000000000
310
03FF00000000001FF000FC00000000000FFFFFE00003FFFF00001FFFFF80007F
310
F800000000001FFFC00000000000FFF8000001FFFE0000007FFFFFF0001FFFFF
310
FFFC00000000001FFFFFFC00000000001FFFFF000000000003FE00000000000F
310
F000F8000000000007FFFFE00003FFFF00001FFFFF80007FF800000000000FFF
310
800000000000FFF8000001FFFE0000007FFFFFF0001FFFFFFFF800000000000F
310
FFFFF800000000000FFFFF000000000003FC000000000007F000F80000000000
310
03FFFFC00003FFFE00001FFFFF80007FF0000000000007FF0000000000007FF8
310
000001FFFE0000007FFFFFF0001FFFFFFFF0000000000007FFFFF00000000000
310
07FFFF000000000003F8000000000003F000F0000000000003FFFFC00001FFFE
310
00001FFFFF80007FE0000000000007FE0000000000003FF8000001FFFE000000
310
7FFFFFF0001FFFFFFFF0000000000007FFFFF0000000000007FFFF0000000000
310
03F800001F800003F000E00001FFF00001FFFFC00001FFFE00000FFFFF80007F
310
E00001FFE00003FE00001FFF00003FF8000001FFFE0000007FFFFFF0001FFFFF
310
FFE000003E000003FFFFE000003E000003FFFF000000000003F00001FFF80001
310
F000E00007FFFC0001FFFFC00001FFFE00000FFFFF80007FC0000FFFFC0003FC
310
0000FFFFC0001FF8000001FFFE0000007FFFFFF0001FFFFFFFC00003FFE00001
310
FFFFC00003FFE00001FFFF0001FFFFFFFFF00007FFFE0001F000E0000FFFFF00
310
00FFFF800001FFFC00000FFFFF80007FC0001FFFFE0001FC0001FFFFE0001FF8
310
000001FFFE0000007FFFFFF0001FFFFFFF80000FFFF80000FFFF80000FFFF800
310
00FFFF0003FFFFFFFFE0000FFFFF8000F000C0003FFFFF8000FFFF800000FFFC
310
000007FFFF80007F80003FFFFF0001FC0003FFFFF0001FF8000001FFFE000000
310
7FFFFFF0001FFFFFFF80003FFFFE0000FFFF80003FFFFE0000FFFF0003FFFFFF
310
FFE0003FFFFF8000F000C0003FFFFF8000FFFF800000FFFC000007FFFF80007F
310
80007FFFFF8001F80007FFFFF8000FF8000001FFFE0000007FFFFFF0001FFFFF
310
FF00007FFFFF00007FFF00007FFFFF00007FFF0003FFFFFFFFE0003FFFFFC000
310
F000C0007FFFFFC000FFFF000000FFFC000007FFFF80007F8000FFFFFF8000F8
310
000FFFFFF8000FF8000001FFFE0000007FFFFFF0001FFFFFFF0000FFFFFF8000
310
7FFF0000FFFFFF80007FFF0003FFFFFFFFC0007FFFFFC00070008000FFFFFFC0
310
00FFFF000000FFF8000007FFFF80007F8000FFFFFF8000F8000FFFFFF8000FF8
310
000001FFFE0000007FFFFFF0001FFFFFFE0001FFFFFFC0003FFE0001FFFFFFC0
310
003FFF0003FFFFFFFFC0007FFFFFE00070008000FFFFFFC0007FFF0000007FF8
310
000003FFFF80007F0001FFFFFF8000F8000FFFFFF8000FF8000001FFFE000000
310
7FFFFFF0001FFFFFFE0001FFFFFFC0003FFE0001FFFFFFC0003FFF0003FFFFFF
310
FFC000FFFFFFE00070008000FFFFFFC0007FFF0000007FF8000003FFFF80007F
310
0001FFFFFF8000F8001FFFFFF8000FF8000001FFFE0000007FFFFFF0001FFFFF
310
FE0003FFFFFFE0003FFE0003FFFFFFE0003FFF0003FFFFFFFFC000FFFFFFE000
310
70008000FFFFFFC0007FFE0000007FF8000003FFFF80007F0001FFFFFF8000F0
310
001FFFFFF8000FF8000001FFFE0000007FFFFFF0001FFFFFFC0003FFFFFFE000
310
1FFC0003FFFFFFE0001FFF0003FFFFFFFFC000FFFFFFC00070008000FFFFFF80
310
007FFE0000007FF0000003FFFF80007F0001FFFFFF0000F0001FFFFFF8000FF8
310
000001FFFE0000007FFFFFF0001FFFFFFC0007FFFFFFF0001FFC0007FFFFFFF0
310
001FFF0003FFFFFFFFC000FFFFFFC00070008001FFFFFF0000FFFE0000003FF0
310
000001FFFF80007F0001FFFFFF0000F8001FFFFFF0000FF8000001FFFE000000
310
7FFFFFF0001FFFFFFC0007FFFFFFF0001FFC0007FFFFFFF0001FFF0003FFFFFF
310
FFC001FFFFFF80007000FFFFFFFFFE0000FFFE0008003FF0008001FFFF80007F
310
FFFFFFFFFC0000FFFFFFFFFFE0000FF8000001FFFE0000007FFFFFF0001FFFFF
310
F8000FFFFFFFF8000FF8000FFFFFFFF8000FFF0003FFFFFFFFFFFFFFFFFF0000
310
7000FFFFFFFFFC0000FFFC0008003FF0008001FFFF80007FFFFFFFFFF80001FF
310
FFFFFFFF80000FF8000001FFFE0000007FFFFFF0001FFFFFF8000FFFFFFFF800
310
0FF8000FFFFFFFF8000FFF0003FFFFFFFFFFFFFFFFFE0000F000FFFFFFFFE000
310
00FFFC000C003FE000C001FFFF80007FFFFFFFFFC00001FFFFFFFFFE00001FF8
310
000001FFFE0000007FFFFFF0001FFFFFF8000FFFFFFFF8000FF8000FFFFFFFF8
310
000FFF0003FFFFFFFFFFFFFFFFF00000F000FFFFFFFE000001FFFC000C001FE0
310
00C000FFFF80007FFFFFFFFE000001FFFFFFFFE000001FF80FFFFFFFFFFFFFC0
310
7FFFFFF0001FFFFFF8000FFFFFFFF8000FF8000FFFFFFFF8000FFF0003FFFFFF
310
FFFFFFFFFF800000F000FFFFFFC0000001FFFC001C001FE001C000FFFF80007F
310
FFFFFF80000003FFFFFFF80000001FF80FFFFFFFFFFFFFC07FFFFFF0001FFFFF
310
F8001FFFFFFFFC000FF8001FFFFFFFFC000FFF0003FFFFFFFFFFFFFFF0000001
310
F000FFFFF800000001FFF8001C001FE001C000FFFF80007FFFFFF800000003FF
310
FFFF800000003FF80FFFFFFFFFFFFFC07FFFFFF0001FFFFFF8001FFFFFFFFC00
310
0FF8001FFFFFFFFC000FFF0003FFFFFFFFFFFFFE00000001F000FFFFC0000000
310
03FFF8001E001FC001E000FFFF80007FFFFF8000000007FFFFFC000000003FF8
310
0FFFFFFFFFFFFFC07FFFFFF0001FFFFFF8001FFFFFFFFC000FF8001FFFFFFFFC
310
000FFF0003FFFFFFFFFFFFE000000003F000FFFE0000000007FFF8001E000FC0
310
01E0007FFF80007FFFFE0000000007FFFFE0000000007FF80FFFFFFFFFFFFFC0
310
7FFFFFF0001FFFFFF0001FFFFFFFFC0007F0001FFFFFFFFC0007FF0003FFFFFF
310
FFFFFF0000000003F000FFF80000000007FFF8001E000FC003E0007FFF80007F
310
FFF0000000000FFFFF8000000000FFF80FFFFFFFFFFFFFC07FFFFFF0001FFFFF
310
F0001FFFFFFFFC0007F0001FFFFFFFFC0007FF0003FFFFFFFFFFFC0000000007
310
F000FFE0000000000FFFF0003E000FC003E0007FFF80007FFFC0000000001FFF
310
FE0000000001FFF80FFFFFFFFFFFFFC07FFFFFF0001FFFFFF0001FFFFFFFFC00
310
07F0001FFFFFFFFC0007FF0003FFFFFFFFFFF0000000000FF000FFC000000000
310
1FFFF0003F000F8003F0003FFF80007FFF80000000003FFFF80000000003FFF8
310
0FFFFFFFFFFFFFC07FFFFFF0001FFFFFF0001FFFFFFFFC0007F0001FFFFFFFFC
310
0007FF0003FFFFFFFFFFE0000000001FF000FF00000000007FFFF0003F000780
310
03F0003FFF80007FFF00000000007FFFF00000000007FFF80FFFFFFFFFFFFFC0
310
7FFFFFF0001FFFFFF0001FFFFFFFFC0007F0001FFFFFFFFC0007FF0003FFFFFF
310
FFFF80000000007FF000FE0000000000FFFFE0003F00078007F0003FFF80007F
310
FE0000000001FFFFE0000000001FFFF80FFFFFFFFFFFFFC07FFFFFF0001FFFFF
310
F0001FFFFFFFFC0007F0001FFFFFFFFC0007FF0003FFFFFFFFFF0000000000FF
310
F000FC0000000003FFFFE0007F00078007F0003FFF80007FFC0000000007FFFF
310
C0000000007FFFF80FFFFFFFFFFFFFC07FFFFFF0001FFFFFF8001FFFFFFFFC00
310
0FF8001FFFFFFFFC000FFF0003FFFFFFFFFE0000000003FFF000FC000000000F
310
FFFFE0007F80070007F8001FFF80007FF8000000001FFFFF8000000001FFFFF8
310
0FFFFFFFFFFFFFC07FFFFFF0001FFFFFF8001FFFFFFFFC000FF8001FFFFFFFFC
310
000FFF0003FFFFFFFFFC000000000FFFF000F8000000007FFFFFE0007F800700
310
07F8001FFF80007FF000000000FFFFFF800000000FFFFFF80FFFFFFFFFFFFFC0
310
7FFFFFF0001FFFFFF8000FFFFFFFF8000FF8000FFFFFFFF8000FFF0003FFFFFF
310
FFFC000000007FFFF000F800000007FFFFFFC0007F8003000FF8001FFF80007F
310
F000000007FFFFFF000000007FFFFFF80FFFFFFFFFFFFFC07FFFFFF0001FFFFF
310
F8000FFFFFFFF8000FF8000FFFFFFFF8000FFF0003FFFFFFFFF80000000FFFFF
310
F000F0000000FFFFFFFFC000FF8003000FF8001FFF80007FE0000000FFFFFFFF
310
0000000FFFFFFFF8000001FFFE0000007FFFFFF0001FFFFFF8000FFFFFFFF800
310
0FF8000FFFFFFFF8000FFF0003FFFFFFFFF8000000FFFFFFF000F000000FFFFF
310
FFFFC000FFC002000FF8000FFF80007FE000001FFFFFFFFE000001FFFFFFFFF8
310
000001FFFE0000007FFFFFF0001FFFFFF8000FFFFFFFF8000FF8000FFFFFFFF8
310
000FFF0003FFFFFFFFF000001FFFFFFFF000E00000FFFFFFFFFFC000FFC00200
310
0FFC000FFF80007FE00001FFFFFFFFFE00001FFFFFFFFFF8000001FFFE000000
310
7FFFFFF0001FFFFFFC000FFFFFFFF8001FFC000FFFFFFFF8001FFF0003FFFFFF
310
FFF00001FFFFFFFFF000E00007FFFFFFFFFF8000FFC000001FFC000FFF80007F
310
C0000FFFFFFFFFFE0000FFFFFFFFFFF8000001FFFE0000007FFFFFF0001FFFFF
310
FC0007FFFFFFF0001FFC0007FFFFFFF0001FFF0003FFFFFFFFF00007FFFFFFFF
310
F000E0001FFFFFFFFFFF8000FFC000001FFC000FFF80007FC0003FFFFFFFFFFE
310
0001FFFFFFFFFFF8000001FFFE0000007FFFFFF0001FFFFFFC0007FFFFFFF000
310
1FFC0007FFFFFFF0001FFF0003FFFFFFFFF0001FFFFFFFFFF000E0003FFFFF00
310
03FF8001FFE000001FFC0007FF80007FC0007FFFFF0007FC0003FFFFF0003FF8
310
000001FFFE0000007FFFFFF0001FFFFFFC0003FFFFFFE0001FFC0003FFFFFFE0
310
001FFF0003FFFFFFFFF0003FFFFFFFFFF000E0003FFFFF0001FF8001FFE00000
310
1FFE0007FF80007FC0007FFFFE0003FC0007FFFFE0003FF8000001FFFE000000
310
7FFFFFF0001FFFFFFE0003FFFFFFE0003FFE0003FFFFFFE0003FFF0003FFFFFF
310
FFF0003FFFFF8001F000E0003FFFFF0001FF0001FFE000001FFE0007FF80007F
310
C0007FFFFE0003FC0007FFFFE0003FF8000001FFFE0000007FFFFFF0001FFFFF
310
FE0001FFFFFFC0003FFE0001FFFFFFC0003FFF0003FFFFFFFFF0003FFFFF0001
310
F000E0003FFFFF0003FF0001FFE000003FFE0007FF80007FC0007FFFFE0003FC
310
0007FFFFE0003FF8000001FFFE0000007FFFFFF0001FFFFFFF0001FFFFFFC000
310
7FFF0001FFFFFFC0007FFF0003FFFFFFFFF0003FFFFF0001F000E0003FFFFE00
310
03FF0003FFF000003FFE0003FF80007FC0007FFFFC0003FE0007FFFFE0003FF8
310
000001FFFE0000007FFFFFF0001FFFFFFF0000FFFFFF80007FFF0000FFFFFF80
310
007FFF0003FFFFFFFFF0003FFFFF0001F000E0003FFFFE0003FF0003FFF00000
310
3FFF0003FF80007FC0007FFFFC0007FE0007FFFFC0003FF8000001FFFE000000
310
7FFFFFF0001FFFFFFF80007FFFFF0000FFFF80007FFFFF0000FFFF0003FFFFFF
310
FFF0003FFFFF0003F000E0003FFFFC0003FE0003FFF000003FFF0003FF80007F
310
E0003FFFF80007FE0003FFFFC0007FF8000001FFFE0000007FFFFFF0001FFFFF
310
FF80003FFFFE0000FFFF80003FFFFE0000FFFF0003FFFFFFFFF0001FFFFE0003
310
F000F0001FFFF80003FE0003FFF000007FFF0001FF80007FE0003FFFF00007FE
310
0001FFFF80007FF8000001FFFE0000007FFFFFF0001FFFFFFFC0000FFFF80001
310
FFFFC0000FFFF80001FFFF0003FFFFFFFFF0001FFFFC0003F000F0000FFFF000
310
07FE0007FFF800007FFF0001FF80007FE0001FFFE00007FF0000FFFE00007FF8
310
000001FFFE0000007FFFFFF0001FFFFFFFC00003FFE00001FFFFC00003FFE000
310
01FFFF0003FFFFFFFFF8000FFFF80003F000F00003FFC00007FC0007FFF80000
310
7FFF8001FF80007FF00007FF80000FFF00007FF80000FFF8000001FFFE000000
310
7F80000000000001FFE000003E000003FFFFE000003E000003FFFF0003FFFFFF
310
FFF80003FFE00007F000F800000000000FFC0007FFF800007FFF8001FF80007F
310
F000000000000FFF000000000000FFF8000001FFFE0000007F80000000000001
310
FFF0000000000007FFFFF0000000000007FFFF0003FFFFFFFFFC00007E000007
310
F000F800000000000FFC0007FFF80000FFFF8000FF80007FF800000000001FFF
310
800000000001FFF8000001FFFE0000007F80000000000001FFF800000000000F
310
FFFFF800000000000FFFFF0003FFFFFFFFFC00000000000FF000FC0000000000
310
1FFC0007FFFC0000FFFF8000FF80007FF800000000003FFFC00000000001FFF8
310
000001FFFE0000007F80000000000001FFF800000000000FFFFFF80000000000
310
0FFFFF0003FFFFFFFFFE00000000001FF000FE00000000003FF8000FFFFC0000
310
FFFF8000FF80007FFC00000000003FFFC00000000003FFF8000001FFFE000000
310
7F80000000000001FFFC00000000001FFFFFFC00000000001FFFFF0003FFFFFF
310
FFFF00000000001FF000FF00000000003FF8000FFFFC0000FFFFC000FF80007F
310
FE00000000007FFFE00000000007FFF8000001FFFE0000007F80000000000001
310
FFFE00000000003FFFFFFE00000000003FFFFF0003FFFFFFFFFF80000000003F
310
F000FF80000000007FF8000FFFFC0001FFFFC0007F80007FFF0000000000FFFF
310
F0000000000FFFF800000000000000007F80000000000001FFFF8000000000FF
310
FFFFFF8000000000FFFFFF0003FFFFFFFFFFC0000000007FF000FFC000000000
310
FFF8000FFFFE0001FFFFC0007F80007FFF8000000001FFFFF8000000001FFFF8
310
00000000000000007F80000000000001FFFFC000000001FFFFFFFFC000000001
310
FFFFFF0003FFFFFFFFFFE000000000FFF000FFE000000003FFF0001FFFFE0001
310
FFFFC0007F80007FFFC000000007FFFFFE000000003FFFF80000000000000000
310
7F80000000000001FFFFE000000003FFFFFFFFE000000003FFFFFF0003FFFFFF
310
FFFFF000000003FFF000FFF80000000FFFF0001FFFFE0001FFFFE0007F80007F
310
FFF00000000FFFFFFF00000000FFFFF800000000000000007F80000000000001
310
FFFFF80000000FFFFFFFFFF80000000FFFFFFF0003FFFFFFFFFFFC0000000FFF
310
F000FFFE0000003FFFF0001FFFFE0003FFFFE0003F80007FFFFC0000003FFFFF
310
FFC0000003FFFFF800000000000000007F80000000000001FFFFFE0000003FFF
310
FFFFFFFE0000003FFFFFFF0003FFFFFFFFFFFF0000003FFFF000FFFF800000FF
310
FFF0001FFFFF0003FFFFE0003F80007FFFFF000001FFFFFFFFF800001FFFFFF8
310
00000000000000007F80000000000001FFFFFFC00001FFFFFFFFFFFFC00001FF
310
FFFFFF0003FFFFFFFFFFFFC00000FFFFF000FFFFF8000FFFFFFFFFFFFFFFFFFF
310
FFFFFFFFFFFFFFFFFFFFF0001FFFFFFFFFFF0000FFFFFFF80000000000000000
310
7FFFFFFFFFFFFFFFFFFFFFFC001FFFFFFFFFFFFFFC001FFFFFFFFFFFFFFFFFFF
310
FFFFFFFC001FFFFFF000FFFFFFFFFFFFFFFFFFFFFFFFFFFFFFFFFFFFFFFFFFFF
310
FFFFFFFFFFFFFFFFFFFFFFFFFFFFFFFFFFFFFFFFFFFFFFFFFFFFFFFFFFFFFFFF
310
FFFFFFFFFFFFFFFFFFFFFFFFFFFFFFFFFFFFFFFFFFFFFFFFFFFFFFFFFFFFFFFF
310
F000FFFFFFFFFFFFFFFFFFFFFFFFFFFFFFFFFFFFFFFFFFFFFFFFFFFFFFFFFFFF
310
FFFFFFFFFFFFFFFFFFFFFFFFFFFFFFFFFFFFFFFFFFFFFFFFFFFFFFFFFFFFFFFF
310
FFFFFFFFFFFFFFFFFFFFFFFFFFFFFFFFFFFFFFFFFFFFFFFFF000FFFFFFFFFFFF
310
FFFFFFFFFFFFFFFFFFFFFFFFFFFFFFFFFFFFFFFFFFFFFFFFFFFFFFFFFFFFFFFF
310
FFFFFFFFFFFFFFFFFFFFFFFFFFFFFFFFFFFFFFFFFFFFFFFFFFFFFFFFFFFFFFFF
310
FFFFFFFFFFFFFFFFFFFFFFFFFFFFFFFFF000FFFFFFFFFFFFFFFFFFFFFFFFFFFF
310
FFFFFFFFFFFFFFFFFFFFFFFFFFFFFFFFFFFFFFFFFFFFFFFFFFFFFFFFFFFFFFFF
310
FFFFFFFFFFFFFFFFFFFFFFFFFFFFFFFFFFFFFFFFFFFFFFFFFFFFFFFFFFFFFFFF
310
FFFFFFFFFFFFFFFFF000FFFFFFFFFFFFFFFFFFFFFFFFFFFFFFFFFFFFFFFFFFFF
310
FFFFFFFFFFFFFFFFFFFFFFFFFFFFFFFFFFFFFFFFFFFFFFFFFFFFFFFFFFFFFFFF
310
FFFFFFFFFFFFFFFFFFFFFFFFFFFFFFFFFFFFFFFFFFFFFFFFFFFFFFFFFFFFFFFF
310
F000FFFFFFFFFFFFFFFFFFFFFFFFFFFFFFFFFFFFFFFFFFFFFFFFFFFFFFFFFFFF
310
FFFFFFFFFFFFFFFFFFFFFFFFFFFFFFFFFFFFFFFFFFFFFFFFFFFFFFFFFFFFFFFF
310
FFFFFFFFFFFFFFFFFFFFFFFFFFFFFFFFFFFFFFFFFFFFFFFFF000FFFFFFFFFFFF
310
FFFFFFFFFFFFFFFFFFFFFFFFFFFFFFFFFFFFFFFFFFFFFFFFFFFFFFFFFFFFFFFF
310
FFFFFFFFFFFFFFFFFFFFFFFFFFFFFFFFFFFFFFFFFFFFFFFFFFFFFFFFFFFFFFFF
310
FFFFFFFFFFFFFFFFFFFFFFFFFFFFFFFFF000FFFFFFFFFFFFFFFFFFFFFFFFFFFF
310
FFFFFFFFFFFFFFFFFFFFFFFFFFFFFFFFFFFFFFFFFFFFFFFFFFFFFFFFFFFFFFFF
310
FFFFFFFFFFFFFFFFFFFFFFFFFFFFFFFFFFFFFFFFFFFFFFFFFFFFFFFFFFFFFFFF
310
FFFFFFFFFFFFFFFFF000FFFFFFFFFFFFFFFFFFFFFFFFFFFFFFFFFFFFFFFFFFFF
310
FFFFFFFFFFFFFFFFFFFFFFFFFFFFFFFFFFFFFFFFFFFFFFFFFFFFFFFFFFFFFFFF
310
FFFFFFFFFFFFFFFFFFFFFFFFFFFFFFFFFFFFFFFFFFFFFFFFFFFFFFFFFFFFFFFF
310
F000FFFFFFFFFFFFFFFFFFFFFFFFFFFFFFFFFFFFFFFFFFFFFFFFFFFFFFFFFFFF
310
FFFFFFFFFFFFFFFFFFFFFFFFFFFFFFFFFFFFFFFFFFFFFFFFFFFFFFFFFFFFFFFF
310
FFFFFFFFFFFFFFFFFFFFFFFFFFFFFFFFFFFFFFFFFFFFFFFFF000FFFFFFFFFFFF
310
FFFFFFFFFFFFFFFFFFFFFFFFFFFFFFFFFFFFFFFFFFFFFFFFFFFFFFFFFFFFFFFF
310
FFFFFFFFFFFFFFFFFFFFFFFFFFFFFFFFFFFFFFFFFFFFFFFFFFFFFFFFFFFFFFFF
310
FFFFFFFFFFFFFFFFFFFFFFFFFFFFFFFFF000FFFFFFFFFFFFFFFFFFFFFFFFFFFF
310
FFFFFFFFFFFFFFFFFFFFFFFFFFFFFFFFFFFFFFFFFFFFFFFFFFFFFFFFFFFFFFFF
310
FFFFFFFFFFFFFFFFFFFFFFFFFFFFFFFFFFFFFFFFFFFFFFFFFFFFFFFFFFFFFFFF
310
FFFFFFFFFFFFFFFFF000FFFFFFFFFFFFFFFFFFFFFFFFFFFFFFFFFFFFFFFFFFFF
310
FFFFFFFFFFFFFFFFFFFFFFFFFFFFFFFFFFFFFFFFFFFFFFFFFFFFFFFFFFFFFFFF
310
FFFFFFFFFFFFFFFFFFFFFFFFFFFFFFFFFFFFFFFFFFFFFFFFFFFFFFFFFFFFFFFF
310
F000FFFFFFFFFFFFFFFFFFFFFFFFFFFFFFFFFFFFFFFFFFFFFFFFFFFFFFFFFFFF
310
FFFFFFFFFFFFFFFFFFFFFFFFFFFFFFFFFFFFFFFFFFFFFFFFFFFFFFFFFFFFFFFF
310
FFFFFFFFFFFFFFFFFFFFFFFFFFFFFFFFFFFFFFFFFFFFFFFFF000FFFFFFFFFFFF
310
FFFFFFFFFFFFFFFFFFFFFFFFFFFFFFFFFFFFFFFFFFFFFFFFFFFFFFFFFFFFFFFF
310
FFFFFFFFFFFFFFFFFFFFFFFFFFFFFFFFFFFFFFFFFFFFFFFFFFFFFFFFFFFFFFFF
310
FFFFFFFFFFFFFFFFFFFFFFFFFFFFFFFFF000FFFFFFFFFFFFFFFFFFFFFFFFFFFF
310
FFFFFFFFFFFFFFFFFFFFFFFFFFFFFFFFFFFFFFFFFFFFFFFFFFFFFFFFFFFFFFFF
310
FFFFFFFFFFFFFFFFFFFFFFFFFFFFFFFFFFFFFFFFFFFFFFFFFFFFFFFFFFFFFFFF
310
FFFFFFFFFFFFFFFFF000FFFFFFFFFFFFFFFFFFFFFFFFFFFFFFFFFFFFFFFFFFFF
310
FFFFFFFFFFFFFFFFFFFFFFFFFFFFFFFFFFFFFFFFFFFFFFFFFFFFFFFFFFFFFFFF
310
FFFFFFFFFFFFFFFFFFFFFFFFFFFFFFFFFFFFFFFFFFFFFFFFFFFFFFFFFFFFFFFF
310
F000FFFFFFFFFFFFFFFFFFFFFFFFFFFFFFFFFFFFFFFFFFFFFFFFFFFFFFFFFFFF
310
FFFFFFFFFFFFFFFFFFFFFFFFFFFFFFFFFFFFFFFFFFFFFFFFFFFFFFFFFFFFFFFF
310
FFFFFFFFFFFFFFFFFFFFFFFFFFFFFFFFFFFFFFFFFFFFFFFFF000FFFFFFFFFFFF
310
FFFFFFFFFFFFFFFFFFFFFFFFFFFFFFFFFFFFFFFFFFFFFFFFFFFFFFFFFFFFFFFF
310
FFFFFFFFFFFFFFFFFFFFFFFFFFFFFFFFFFFFFFFFFFFFFFFFFFFFFFFFFFFFFFFF
310
FFFFFFFFFFFFFFFFFFFFFFFFFFFFFFFFF000FFFFFFFFFFFFFFFFFFFFFFFFFFFF
310
FFFFFFFFFFFFFFFFFFFFFFFFFFFFFFFFFFFFFFFFFFFFFFFFFFFFFFFFFFFFFFFF
310
FFFFFFFFFFFFFFFFFFFFFFFFFFFFFFFFFFFFFFFFFFFFFFFFFFFFFFFFFFFFFFFF
310
FFFFFFFFFFFFFFFFF000FFFFFFFFFFFFFFFFFFFFFFFFFFFFFFFFFFFFFFFFFFFF
310
FFFFFFFFFFFFFFFFFFFFFFFFFFFFFFFFFFFFFFFFFFFFFFFFFFFFFFFFFFFFFFFF
310
FFFFFFFFFFFFFFFFFFFFFFFFFFFFFFFFFFFFFFFFFFFFFFFFFFFFFFFFFFFFFFFF
310
F000FFFFFFFFFFFFFFFFFFFFFFFFFFFFFFFFFFFFFFFFFFFFFFFFFFFFFFFFFFFF
310
FFFFFFFFFFFFFFFFFFFFFFFFFFFFFFFFFFFFFFFFFFFFFFFFFFFFFFFFFFFFFFFF
310
FFFFFFFFFFFFFFFFFFFFFFFFFFFFFFFFFFFFFFFFFFFFFFFFF000FFFFFFFFFFFF
310
FFFFFFFFFFFFFFFFFFFFFFFFFFFFFFFFFFFFFFFFFFFFFFFFFFFFFFFFFFFFFFFF
310
FFFFFFFFFFFFFFFFFFFFFFFFFFFFFFFFFFFFFFFFFFFFFFFFFFFFFFFFFFFFFFFF
310
FFFFFFFFFFFFFFFFFFFFFFFFFFFFFFFFF0000000000000000000000000000000
310
0000000000000000000000000000000000000000000000000000000000000000
310
0000000000000000000000000000000000000000000000000000000000000000
310
0000000000000000000000000000000000000000000000000000000000000000
310
0000000000000000000000000000000000000000000000000000000000000000
310
0000000000000000000000000000000000000000000000000000000000000000
310
0000000000000000000000000000000000000000000000000000000000000000
310
0000000000000000000000000000000000000000000000000000000000000000
310
0000000000000000000000000000000000000000000000000000000000000000
310
0000000000000000000000000000000000000000000000000000000000000000
310
0000000000000000000000000000000000000000000000000000000000000000
310
0000000000000000000000000000000000000000000000000000000000000000
310
0000000000000000000000000000000000000000000000000000000000000000
310
0000000000000000000000000000000000000000000000000000000000000000
310
0000000000000000000000000000000000000000000000000000000000000000
310
0000000000000000000000000000000000000000000000000000000000000000
  1
OLE
  0
ENDSEC
  0
SECTION
  2
OBJECTS
  0
DICTIONARY
  5
C
330
0
100
AcDbDictionary
281
     1
  3
ACAD_GROUP
350
D
  3
ACAD_LAYOUT
350
1A
  3
ACAD_MLINESTYLE
350
17
  3
ACAD_PLOTSETTINGS
350
19
  3
ACAD_PLOTSTYLENAME
350
E
  3
ACAD_SCALELIST
350
47
  0
DICTIONARY
  5
D
102
{ACAD_REACTORS
330
C
102
}
330
C
100
AcDbDictionary
281
     1
  0
DICTIONARY
  5
1A
102
{ACAD_REACTORS
330
C
102
}
330
C
100
AcDbDictionary
281
     1
  3
Layout1
350
1E
  3
Layout2
350
26
  3
Model
350
22
  0
DICTIONARY
  5
17
102
{ACAD_REACTORS
330
C
102
}
330
C
100
AcDbDictionary
281
     1
  3
Standard
350
18
  0
DICTIONARY
  5
19
102
{ACAD_REACTORS
330
C
102
}
330
C
100
AcDbDictionary
281
     1
  0
ACDBDICTIONARYWDFLT
  5
E
102
{ACAD_REACTORS
330
C
102
}
330
C
100
AcDbDictionary
281
     1
  3
Normal
350
F
100
AcDbDictionaryWithDefault
340
F
  0
DICTIONARY
  5
47
102
{ACAD_REACTORS
330
C
102
}
330
C
100
AcDbDictionary
281
     1
  3
A0
350
48
  3
A1
350
49
  3
A2
350
4A
  3
A3
350
4B
  3
A4
350
4C
  3
A5
350
4D
  3
A6
350
4E
  3
A7
350
4F
  3
A8
350
50
  3
A9
350
51
  3
B0
350
52
  3
B1
350
53
  3
B2
350
54
  3
B3
350
55
  3
B4
350
56
  3
B5
350
57
  3
B6
350
58
  3
B7
350
59
  3
B8
350
5A
  3
B9
350
5B
  3
C0
350
5C
  3
C1
350
5D
  3
C2
350
5E
  3
C3
350
5F
  3
C4
350
60
  3
C5
350
61
  3
C6
350
62
  3
C7
350
63
  3
C8
350
64
  3
C9
350
65
  3
D0
350
66
  3
D1
350
67
  3
D2
350
68
  0
LAYOUT
  5
1E
102
{ACAD_REACTORS
330
1A
102
}
330
1A
100
AcDbPlotSettings
  1

  2
none_device
  4

  6

 40
0.0
 41
0.0
 42
0.0
 43
0.0
 44
0.0
 45
0.0
 46
0.0
 47
0.0
 48
0.0
 49
0.0
140
0.0
141
0.0
142
1.0
143
1.0
 70
   688
 72
     1
 73
     0
 74
     5
  7

 75
    16
147
1.0
148
0.0
149
0.0
100
AcDbLayout
  1
Layout1
 70
     1
 71
     1
 10
0.0
 20
0.0
 11
420.0
 21
297.0
 12
0.0
 22
0.0
 32
0.0
 14
1.0000000000E+20
 24
1.0000000000E+20
 34
1.0000000000E+20
 15
-1.0000000000E+20
 25
-1.0000000000E+20
 35
-1.0000000000E+20
146
0.0
 13
0.0
 23
0.0
 33
0.0
 16
1.0
 26
0.0
 36
0.0
 17
0.0
 27
1.0
 37
0.0
 76
     0
330
1B
  0
LAYOUT
  5
26
102
{ACAD_REACTORS
330
1A
102
}
330
1A
100
AcDbPlotSettings
  1

  2
none_device
  4

  6

 40
0.0
 41
0.0
 42
0.0
 43
0.0
 44
0.0
 45
0.0
 46
0.0
 47
0.0
 48
0.0
 49
0.0
140
0.0
141
0.0
142
1.0
143
1.0
 70
   688
 72
     1
 73
     0
 74
     5
  7

 75
    16
147
1.0
148
0.0
149
0.0
100
AcDbLayout
  1
Layout2
 70
     1
 71
     2
 10
0.0
 20
0.0
 11
0.0
 21
0.0
 12
0.0
 22
0.0
 32
0.0
 14
0.0
 24
0.0
 34
0.0
 15
0.0
 25
0.0
 35
0.0
146
0.0
 13
0.0
 23
0.0
 33
0.0
 16
1.0
 26
0.0
 36
0.0
 17
0.0
 27
1.0
 37
0.0
 76
     0
330
23
  0
LAYOUT
  5
22
102
{ACAD_REACTORS
330
1A
102
}
330
1A
100
AcDbPlotSettings
  1

  2
none_device
  4
Letter_(8.50_x_11.00_Inches)
  6

 40
6.35
 41
6.35
 42
6.35000508
 43
6.35000508
 44
215.9
 45
279.4
 46
0.0
 47
0.0
 48
0.0
 49
0.0
140
0.0
141
0.0
142
1.0
143
1.0
 70
  1712
 72
     1
 73
     0
 74
     0
  7

 75
     0
147
1.0
148
0.0
149
0.0
100
AcDbLayout
  1
Model
 70
     1
 71
     0
 10
0.0
 20
0.0
 11
297.0
 21
210.0
 12
0.0
 22
0.0
 32
0.0
 14
0.0
 24
0.0
 34
0.0
 15
297.0
 25
210.0
 35
0.0
146
0.0
 13
0.0
 23
0.0
 33
0.0
 16
1.0
 26
0.0
 36
0.0
 17
0.0
 27
1.0
 37
0.0
 76
     0
330
1F
331
29
  0
MLINESTYLE
  5
18
102
{ACAD_REACTORS
330
17
102
}
330
17
100
AcDbMlineStyle
  2
Standard
 70
     0
  3

 62
   256
 51
90.0
 52
90.0
 71
     2
 49
0.5
 62
   256
  6
BYLAYER
 49
-0.5
 62
   256
  6
BYLAYER
  0
ACDBPLACEHOLDER
  5
F
102
{ACAD_REACTORS
330
E
102
}
330
E
  0
SCALE
  5
48
102
{ACAD_REACTORS
330
47
102
}
330
47
100
AcDbScale
 70
     0
300
1:1
140
1.0
141
1.0
290
     1
  0
SCALE
  5
49
102
{ACAD_REACTORS
330
47
102
}
330
47
100
AcDbScale
 70
     0
300
1:2
140
1.0
141
2.0
290
     0
  0
SCALE
  5
4A
102
{ACAD_REACTORS
330
47
102
}
330
47
100
AcDbScale
 70
     0
300
1:4
140
1.0
141
4.0
290
     0
  0
SCALE
  5
4B
102
{ACAD_REACTORS
330
47
102
}
330
47
100
AcDbScale
 70
     0
300
1:5
140
1.0
141
5.0
290
     0
  0
SCALE
  5
4C
102
{ACAD_REACTORS
330
47
102
}
330
47
100
AcDbScale
 70
     0
300
1:8
140
1.0
141
8.0
290
     0
  0
SCALE
  5
4D
102
{ACAD_REACTORS
330
47
102
}
330
47
100
AcDbScale
 70
     0
300
1:10
140
1.0
141
10.0
290
     0
  0
SCALE
  5
4E
102
{ACAD_REACTORS
330
47
102
}
330
47
100
AcDbScale
 70
     0
300
1:16
140
1.0
141
16.0
290
     0
  0
SCALE
  5
4F
102
{ACAD_REACTORS
330
47
102
}
330
47
100
AcDbScale
 70
     0
300
1:20
140
1.0
141
20.0
290
     0
  0
SCALE
  5
50
102
{ACAD_REACTORS
330
47
102
}
330
47
100
AcDbScale
 70
     0
300
1:30
140
1.0
141
30.0
290
     0
  0
SCALE
  5
51
102
{ACAD_REACTORS
330
47
102
}
330
47
100
AcDbScale
 70
     0
300
1:40
140
1.0
141
40.0
290
     0
  0
SCALE
  5
52
102
{ACAD_REACTORS
330
47
102
}
330
47
100
AcDbScale
 70
     0
300
1:50
140
1.0
141
50.0
290
     0
  0
SCALE
  5
53
102
{ACAD_REACTORS
330
47
102
}
330
47
100
AcDbScale
 70
     0
300
1:100
140
1.0
141
100.0
290
     0
  0
SCALE
  5
54
102
{ACAD_REACTORS
330
47
102
}
330
47
100
AcDbScale
 70
     0
300
2:1
140
2.0
141
1.0
290
     0
  0
SCALE
  5
55
102
{ACAD_REACTORS
330
47
102
}
330
47
100
AcDbScale
 70
     0
300
4:1
140
4.0
141
1.0
290
     0
  0
SCALE
  5
56
102
{ACAD_REACTORS
330
47
102
}
330
47
100
AcDbScale
 70
     0
300
8:1
140
8.0
141
1.0
290
     0
  0
SCALE
  5
57
102
{ACAD_REACTORS
330
47
102
}
330
47
100
AcDbScale
 70
     0
300
10:1
140
10.0
141
1.0
290
     0
  0
SCALE
  5
58
102
{ACAD_REACTORS
330
47
102
}
330
47
100
AcDbScale
 70
     0
300
100:1
140
100.0
141
1.0
290
     0
  0
SCALE
  5
59
102
{ACAD_REACTORS
330
47
102
}
330
47
100
AcDbScale
 70
     0
300
1/128" = 1'-0"
140
0.0078125
141
12.0
290
     0
  0
SCALE
  5
5A
102
{ACAD_REACTORS
330
47
102
}
330
47
100
AcDbScale
 70
     0
300
1/64" = 1'-0"
140
0.015625
141
12.0
290
     0
  0
SCALE
  5
5B
102
{ACAD_REACTORS
330
47
102
}
330
47
100
AcDbScale
 70
     0
300
1/32" = 1'-0"
140
0.03125
141
12.0
290
     0
  0
SCALE
  5
5C
102
{ACAD_REACTORS
330
47
102
}
330
47
100
AcDbScale
 70
     0
300
1/16" = 1'-0"
140
0.0625
141
12.0
290
     0
  0
SCALE
  5
5D
102
{ACAD_REACTORS
330
47
102
}
330
47
100
AcDbScale
 70
     0
300
3/32" = 1'-0"
140
0.09375
141
12.0
290
     0
  0
SCALE
  5
5E
102
{ACAD_REACTORS
330
47
102
}
330
47
100
AcDbScale
 70
     0
300
1/8" = 1'-0"
140
0.125
141
12.0
290
     0
  0
SCALE
  5
5F
102
{ACAD_REACTORS
330
47
102
}
330
47
100
AcDbScale
 70
     0
300
3/16" = 1'-0"
140
0.1875
141
12.0
290
     0
  0
SCALE
  5
60
102
{ACAD_REACTORS
330
47
102
}
330
47
100
AcDbScale
 70
     0
300
1/4" = 1'-0"
140
0.25
141
12.0
290
     0
  0
SCALE
  5
61
102
{ACAD_REACTORS
330
47
102
}
330
47
100
AcDbScale
 70
     0
300
3/8" = 1'-0"
140
0.375
141
12.0
290
     0
  0
SCALE
  5
62
102
{ACAD_REACTORS
330
47
102
}
330
47
100
AcDbScale
 70
     0
300
1/2" = 1'-0"
140
0.5
141
12.0
290
     0
  0
SCALE
  5
63
102
{ACAD_REACTORS
330
47
102
}
330
47
100
AcDbScale
 70
     0
300
3/4" = 1'-0"
140
0.75
141
12.0
290
     0
  0
SCALE
  5
64
102
{ACAD_REACTORS
330
47
102
}
330
47
100
AcDbScale
 70
     0
300
1" = 1'-0"
140
1.0
141
12.0
290
     0
  0
SCALE
  5
65
102
{ACAD_REACTORS
330
47
102
}
330
47
100
AcDbScale
 70
     0
300
1-1/2" = 1'-0"
140
1.5
141
12.0
290
     0
  0
SCALE
  5
66
102
{ACAD_REACTORS
330
47
102
}
330
47
100
AcDbScale
 70
     0
300
3" = 1'-0"
140
3.0
141
12.0
290
     0
  0
SCALE
  5
67
102
{ACAD_REACTORS
330
47
102
}
330
47
100
AcDbScale
 70
     0
300
6" = 1'-0"
140
6.0
141
12.0
290
     0
  0
SCALE
  5
68
102
{ACAD_REACTORS
330
47
102
}
330
47
100
AcDbScale
 70
     0
300
1'-0" = 1'-0"
140
12.0
141
12.0
290
     0
  0
ENDSEC
  0
EOF
